  0
SECTION
  2
HEADER
  9
$ACADVER
  1
AC1015
  9
$ACADMAINTVER
 70
     6
  9
$DWGCODEPAGE
  3
ANSI_1252
  9
$INSBASE
 10
0.0
 20
0.0
 30
0.0
  9
$EXTMIN
 10
0.0
 20
0.0
 30
0.0
  9
$EXTMAX
 10
11.0
 20
8.5
 30
0.0
  9
$LIMMIN
 10
0.0
 20
0.0
  9
$LIMMAX
 10
11.0
 20
8.5
  9
$ORTHOMODE
 70
     0
  9
$REGENMODE
 70
     1
  9
$FILLMODE
 70
     1
  9
$QTEXTMODE
 70
     0
  9
$MIRRTEXT
 70
     1
  9
$LTSCALE
 40
1.0
  9
$ATTMODE
 70
     1
  9
$TEXTSIZE
 40
0.1111111111
  9
$TRACEWID
 40
0.05
  9
$TEXTSTYLE
  7
Standard
  9
$CLAYER
  8
0
  9
$CELTYPE
  6
ByLayer
  9
$CECOLOR
 62
   256
  9
$CELTSCALE
 40
1.0
  9
$DISPSILH
 70
     0
  9
$DIMSCALE
 40
1.0
  9
$DIMASZ
 40
0.125
  9
$DIMEXO
 40
0.05
  9
$DIMDLI
 40
0.38
  9
$DIMRND
 40
0.0
  9
$DIMDLE
 40
0.0
  9
$DIMEXE
 40
0.07
  9
$DIMTP
 40
0.0
  9
$DIMTM
 40
0.0
  9
$DIMTXT
 40
0.1111111111
  9
$DIMCEN
 40
0.09
  9
$DIMTSZ
 40
0.0
  9
$DIMTOL
 70
     0
  9
$DIMLIM
 70
     0
  9
$DIMTIH
 70
     1
  9
$DIMTOH
 70
     1
  9
$DIMSE1
 70
     0
  9
$DIMSE2
 70
     0
  9
$DIMTAD
 70
     0
  9
$DIMZIN
 70
     1
  9
$DIMBLK
  1

  9
$DIMASO
 70
     1
  9
$DIMSHO
 70
     1
  9
$DIMPOST
  1

  9
$DIMAPOST
  1

  9
$DIMALT
 70
     0
  9
$DIMALTD
 70
     2
  9
$DIMALTF
 40
25.4
  9
$DIMLFAC
 40
1.0
  9
$DIMTOFL
 70
     0
  9
$DIMTVP
 40
0.0
  9
$DIMTIX
 70
     0
  9
$DIMSOXD
 70
     0
  9
$DIMSAH
 70
     0
  9
$DIMBLK1
  1

  9
$DIMBLK2
  1

  9
$DIMSTYLE
  2
Standard
  9
$DIMCLRD
 70
     0
  9
$DIMCLRE
 70
     0
  9
$DIMCLRT
 70
     0
  9
$DIMTFAC
 40
1.0
  9
$DIMGAP
 40
0.1
  9
$DIMJUST
 70
     0
  9
$DIMSD1
 70
     0
  9
$DIMSD2
 70
     0
  9
$DIMTOLJ
 70
     1
  9
$DIMTZIN
 70
     1
  9
$DIMALTZ
 70
     0
  9
$DIMALTTZ
 70
     0
  9
$DIMUPT
 70
     0
  9
$DIMDEC
 70
     2
  9
$DIMTDEC
 70
     2
  9
$DIMALTU
 70
     2
  9
$DIMALTTD
 70
     2
  9
$DIMTXSTY
  7
Standard
  9
$DIMAUNIT
 70
     0
  9
$DIMADEC
 70
     0
  9
$DIMALTRND
 40
0.0
  9
$DIMAZIN
 70
     0
  9
$DIMDSEP
 70
    46
  9
$DIMATFIT
 70
     3
  9
$DIMFRAC
 70
     0
  9
$DIMLDRBLK
  1

  9
$DIMLUNIT
 70
     2
  9
$DIMLWD
 70
    -2
  9
$DIMLWE
 70
    -2
  9
$DIMTMOVE
 70
     0
  9
$LUNITS
 70
     2
  9
$LUPREC
 70
     2
  9
$SKETCHINC
 40
0.1
  9
$FILLETRAD
 40
0.5
  9
$AUNITS
 70
     0
  9
$AUPREC
 70
     0
  9
$MENU
  1
.
  9
$ELEVATION
 40
0.0
  9
$PELEVATION
 40
0.0
  9
$THICKNESS
 40
0.0
  9
$LIMCHECK
 70
     0
  9
$CHAMFERA
 40
0.0
  9
$CHAMFERB
 40
0.0
  9
$CHAMFERC
 40
0.0
  9
$CHAMFERD
 40
0.0
  9
$SKPOLY
 70
     0
  9
$TDCREATE
 40
2458505.684490787
  9
$TDUCREATE
 40
2458505.89282412
  9
$TDUPDATE
 40
2458505.684494086
  9
$TDUUPDATE
 40
2458505.892827419
  9
$TDINDWG
 40
0.0000000116
  9
$TDUSRTIMER
 40
0.0000000116
  9
$USRTIMER
 70
     1
  9
$ANGBASE
 50
0.0
  9
$ANGDIR
 70
     0
  9
$PDMODE
 70
     0
  9
$PDSIZE
 40
-1.0
  9
$PLINEWID
 40
0.0
  9
$SPLFRAME
 70
     0
  9
$SPLINETYPE
 70
     6
  9
$SPLINESEGS
 70
     8
  9
$HANDSEED
  5
38B
  9
$SURFTAB1
 70
     6
  9
$SURFTAB2
 70
     6
  9
$SURFTYPE
 70
     6
  9
$SURFU
 70
     6
  9
$SURFV
 70
     6
  9
$UCSBASE
  2

  9
$UCSNAME
  2

  9
$UCSORG
 10
0.0
 20
0.0
 30
0.0
  9
$UCSXDIR
 10
1.0
 20
0.0
 30
0.0
  9
$UCSYDIR
 10
0.0
 20
1.0
 30
0.0
  9
$UCSORTHOREF
  2

  9
$UCSORTHOVIEW
 70
     0
  9
$UCSORGTOP
 10
0.0
 20
0.0
 30
0.0
  9
$UCSORGBOTTOM
 10
0.0
 20
0.0
 30
0.0
  9
$UCSORGLEFT
 10
0.0
 20
0.0
 30
0.0
  9
$UCSORGRIGHT
 10
0.0
 20
0.0
 30
0.0
  9
$UCSORGFRONT
 10
0.0
 20
0.0
 30
0.0
  9
$UCSORGBACK
 10
0.0
 20
0.0
 30
0.0
  9
$PUCSBASE
  2

  9
$PUCSNAME
  2

  9
$PUCSORG
 10
0.0
 20
0.0
 30
0.0
  9
$PUCSXDIR
 10
1.0
 20
0.0
 30
0.0
  9
$PUCSYDIR
 10
0.0
 20
1.0
 30
0.0
  9
$PUCSORTHOREF
  2

  9
$PUCSORTHOVIEW
 70
     0
  9
$PUCSORGTOP
 10
0.0
 20
0.0
 30
0.0
  9
$PUCSORGBOTTOM
 10
0.0
 20
0.0
 30
0.0
  9
$PUCSORGLEFT
 10
0.0
 20
0.0
 30
0.0
  9
$PUCSORGRIGHT
 10
0.0
 20
0.0
 30
0.0
  9
$PUCSORGFRONT
 10
0.0
 20
0.0
 30
0.0
  9
$PUCSORGBACK
 10
0.0
 20
0.0
 30
0.0
  9
$USERI1
 70
     0
  9
$USERI2
 70
     0
  9
$USERI3
 70
     0
  9
$USERI4
 70
     0
  9
$USERI5
 70
     0
  9
$USERR1
 40
0.0
  9
$USERR2
 40
0.0
  9
$USERR3
 40
0.0
  9
$USERR4
 40
0.0
  9
$USERR5
 40
0.0
  9
$WORLDVIEW
 70
     1
  9
$SHADEDGE
 70
     3
  9
$SHADEDIF
 70
    70
  9
$TILEMODE
 70
     1
  9
$MAXACTVP
 70
    64
  9
$PINSBASE
 10
0.0
 20
0.0
 30
0.0
  9
$PLIMCHECK
 70
     0
  9
$PEXTMIN
 10
1.0000000000E+20
 20
1.0000000000E+20
 30
1.0000000000E+20
  9
$PEXTMAX
 10
-1.0000000000E+20
 20
-1.0000000000E+20
 30
-1.0000000000E+20
  9
$PLIMMIN
 10
0.0
 20
0.0
  9
$PLIMMAX
 10
12.0
 20
9.0
  9
$UNITMODE
 70
     0
  9
$VISRETAIN
 70
     1
  9
$PLINEGEN
 70
     0
  9
$PSLTSCALE
 70
     1
  9
$TREEDEPTH
 70
  3020
  9
$CMLSTYLE
  2
Standard
  9
$CMLJUST
 70
     0
  9
$CMLSCALE
 40
1.0
  9
$PROXYGRAPHICS
 70
     1
  9
$MEASUREMENT
 70
     0
  9
$CELWEIGHT
370
    -1
  9
$ENDCAPS
280
     0
  9
$JOINSTYLE
280
     0
  9
$LWDISPLAY
290
     1
  9
$INSUNITS
 70
     1
  9
$HYPERLINKBASE
  1

  9
$STYLESHEET
  1

  9
$XEDIT
290
     1
  9
$CEPSNTYPE
380
     0
  9
$PSTYLEMODE
290
     1
  9
$FINGERPRINTGUID
  2
{68D40678-C0EE-4E31-9425-294EC437B86D}
  9
$VERSIONGUID
  2
{FAEB1C32-E019-11D5-929B-00C0DF256EC4}
  9
$EXTNAMES
290
     1
  9
$PSVPSCALE
 40
0.0
  9
$OLESTARTUP
290
     0
  0
ENDSEC
  0
SECTION
  2
CLASSES
  0
CLASS
  1
ACDBDICTIONARYWDFLT
  2
AcDbDictionaryWithDefault
  3
ObjectDBX Classes
 90
        0
280
     0
281
     0
  0
CLASS
  1
VISUALSTYLE
  2
AcDbVisualStyle
  3
ObjectDBX Classes
 90
     4095
280
     0
281
     0
  0
CLASS
  1
MATERIAL
  2
AcDbMaterial
  3
ObjectDBX Classes
 90
     1153
280
     0
281
     0
  0
CLASS
  1
SCALE
  2
AcDbScale
  3
ObjectDBX Classes
 90
     1153
280
     0
281
     0
  0
CLASS
  1
TABLESTYLE
  2
AcDbTableStyle
  3
ObjectDBX Classes
 90
     4095
280
     0
281
     0
  0
CLASS
  1
MLEADERSTYLE
  2
AcDbMLeaderStyle
  3
ACDB_MLEADERSTYLE_CLASS
 90
     4095
280
     0
281
     0
  0
CLASS
  1
SUN
  2
AcDbSun
  3
SCENEOE
 90
     1153
280
     0
281
     0
  0
CLASS
  1
ACDBPLACEHOLDER
  2
AcDbPlaceHolder
  3
ObjectDBX Classes
 90
        0
280
     0
281
     0
  0
CLASS
  1
LAYOUT
  2
AcDbLayout
  3
ObjectDBX Classes
 90
        0
280
     0
281
     0
  0
ENDSEC
  0
SECTION
  2
TABLES
  0
TABLE
  2
VPORT
  5
8
330
0
100
AcDbSymbolTable
 70
     1
  0
VPORT
  5
29
330
8
100
AcDbSymbolTableRecord
100
AcDbViewportTableRecord
  2
*Active
 70
     0
 10
0.0
 20
0.0
 11
1.0
 21
1.0
 12
5.5
 22
4.25
 13
0.0
 23
0.0
 14
0.5
 24
0.5
 15
0.5
 25
0.5
 16
0.0
 26
0.0
 36
1.0
 17
0.0
 27
0.0
 37
0.0
 40
8.5
 41
1.2941176471
 42
50.0
 43
0.0
 44
0.0
 50
0.0
 51
0.0
 71
     0
 72
  2000
 73
     1
 74
     3
 75
     0
 76
     0
 77
     0
 78
     0
281
     0
 65
     1
110
0.0
120
0.0
130
0.0
111
1.0
121
0.0
131
0.0
112
0.0
122
1.0
132
0.0
 79
     0
146
0.0
  0
ENDTAB
  0
TABLE
  2
LTYPE
  5
5
330
0
100
AcDbSymbolTable
 70
     6
  0
LTYPE
  5
14
330
5
100
AcDbSymbolTableRecord
100
AcDbLinetypeTableRecord
  2
ByBlock
 70
     0
  3

 72
    65
 73
     0
 40
0.0
  0
LTYPE
  5
15
330
5
100
AcDbSymbolTableRecord
100
AcDbLinetypeTableRecord
  2
ByLayer
 70
     0
  3

 72
    65
 73
     0
 40
0.0
  0
LTYPE
  5
16
330
5
100
AcDbSymbolTableRecord
100
AcDbLinetypeTableRecord
  2
Continuous
 70
     0
  3
Solid line
 72
    65
 73
     0
 40
0.0
  0
LTYPE
  5
6E
330
5
100
AcDbSymbolTableRecord
100
AcDbLinetypeTableRecord
  2
HIDDEN
 70
     0
  3
Hidden __ __ __ __ __ __ __ __ __ __ __ __ __ __
 72
    65
 73
     2
 40
0.075
 49
0.05
 74
     0
 49
-0.025
 74
     0
  0
LTYPE
  5
6F
330
5
100
AcDbSymbolTableRecord
100
AcDbLinetypeTableRecord
  2
PHANTOM
 70
     0
  3
Phantom ______  __  __  ______  __  __  ______
 72
    65
 73
     6
 40
0.5
 49
0.25
 74
     0
 49
-0.05
 74
     0
 49
0.05
 74
     0
 49
-0.05
 74
     0
 49
0.05
 74
     0
 49
-0.05
 74
     0
  0
LTYPE
  5
70
330
5
100
AcDbSymbolTableRecord
100
AcDbLinetypeTableRecord
  2
CENTER
 70
     0
  3
Center ____ _ ____ _ ____ _ ____ _ ____ _ ____
 72
    65
 73
     4
 40
0.4
 49
0.25
 74
     0
 49
-0.05
 74
     0
 49
0.05
 74
     0
 49
-0.05
 74
     0
  0
LTYPE
  5
71
330
5
100
AcDbSymbolTableRecord
100
AcDbLinetypeTableRecord
  2
CENTERX2
 70
     0
  3
Center (2x) ________  __  ________  __  _____
 72
    65
 73
     4
 40
0.8
 49
0.5
 74
     0
 49
-0.1
 74
     0
 49
0.1
 74
     0
 49
-0.1
 74
     0
  0
LTYPE
  5
72
330
5
100
AcDbSymbolTableRecord
100
AcDbLinetypeTableRecord
  2
DOT2
 70
     0
  3
Dot (.5x) ........................................
 72
    65
 73
     2
 40
0.025
 49
0.0
 74
     0
 49
-0.025
 74
     0
  0
ENDTAB
  0
TABLE
  2
LAYER
  5
2
330
0
100
AcDbSymbolTable
 70
     2
  0
LAYER
  5
10
330
2
100
AcDbSymbolTableRecord
100
AcDbLayerTableRecord
  2
0
 70
     0
 62
     7
  6
Continuous
370
    -3
390
F
  0
LAYER
  5
73
330
2
100
AcDbSymbolTableRecord
100
AcDbLayerTableRecord
  2
FORMAT
 70
     0
 62
     7
  6
Continuous
370
    -3
390
F
  0
ENDTAB
  0
TABLE
  2
STYLE
  5
3
330
0
100
AcDbSymbolTable
 70
     3
  0
STYLE
  5
11
330
3
100
AcDbSymbolTableRecord
100
AcDbTextStyleTableRecord
  2
Standard
 70
     0
 40
0.0
 41
1.0
 50
0.0
 71
     0
 42
0.1111111111
  3
txt
  4

  0
STYLE
  5
9D
330
3
100
AcDbSymbolTableRecord
100
AcDbTextStyleTableRecord
  2
SLDTEXTSTYLE0
 70
     0
 40
0.0
 41
0.75
 50
0.0
 71
     0
 42
0.1111111111
  3
TXT
  4

  0
STYLE
  5
AE
330
3
100
AcDbSymbolTableRecord
100
AcDbTextStyleTableRecord
  2
SLDTEXTSTYLE1
 70
     0
 40
0.0
 41
0.6
 50
0.0
 71
     0
 42
0.1111111111
  3
TXT
  4

  0
ENDTAB
  0
TABLE
  2
VIEW
  5
6
330
0
100
AcDbSymbolTable
 70
     0
  0
ENDTAB
  0
TABLE
  2
UCS
  5
7
330
0
100
AcDbSymbolTable
 70
     0
  0
ENDTAB
  0
TABLE
  2
APPID
  5
9
330
0
100
AcDbSymbolTable
 70
     1
  0
APPID
  5
12
330
9
100
AcDbSymbolTableRecord
100
AcDbRegAppTableRecord
  2
ACAD
 70
     0
  0
ENDTAB
  0
TABLE
  2
DIMSTYLE
  5
A
330
0
100
AcDbSymbolTable
 70
     6
100
AcDbDimStyleTable
  0
DIMSTYLE
105
27
330
A
100
AcDbSymbolTableRecord
100
AcDbDimStyleTableRecord
  2
Standard
 70
     0
178
     0
340
11
  0
DIMSTYLE
105
D7
102
{ACAD_REACTORS
330
D6
330
22A
330
23E
102
}
330
A
100
AcDbSymbolTableRecord
100
AcDbDimStyleTableRecord
  2
SLDDIMSTYLE0
 70
     0
 41
0.125
 44
0.0
 45
0.000000001
 78
     4
 79
     1
140
0.0833333333
147
0.0208333333
148
0.000000001
170
     1
171
     1
173
     1
178
     0
271
     2
272
     2
274
     1
276
     2
284
    12
340
9D
  0
DIMSTYLE
105
EC
102
{ACAD_REACTORS
330
EB
330
216
102
}
330
A
100
AcDbSymbolTableRecord
100
AcDbDimStyleTableRecord
  2
SLDDIMSTYLE1
 70
     0
 41
0.125
 44
0.0
 45
0.000000001
 78
    12
 79
     3
140
0.0833333333
147
0.0208333333
148
0.000000001
170
     1
171
     1
173
     1
178
     0
271
     2
272
     2
274
     1
276
     2
284
    12
340
9D
  0
DIMSTYLE
105
202
102
{ACAD_REACTORS
330
201
102
}
330
A
100
AcDbSymbolTableRecord
100
AcDbDimStyleTableRecord
  2
SLDDIMSTYLE2
 70
     0
 41
0.125
 44
0.0
 45
0.000000001
 78
     8
 79
     2
140
0.0833333333
147
0.0208333333
148
0.000000001
170
     1
171
     1
172
     1
173
     1
178
     0
271
     2
272
     2
274
     1
276
     2
284
    12
289
     0
340
9D
  0
DIMSTYLE
105
35D
102
{ACAD_REACTORS
330
35C
102
}
330
A
100
AcDbSymbolTableRecord
100
AcDbDimStyleTableRecord
  2
SLDDIMSTYLE3
 70
     0
 41
0.125
 44
0.0
 45
0.000000001
140
0.0833333333
147
0.0208333333
148
0.000000001
170
     1
171
     1
172
     1
173
     1
178
     0
271
     2
272
     2
274
     1
276
     2
284
    12
289
     0
340
9D
  0
DIMSTYLE
105
374
102
{ACAD_REACTORS
330
373
102
}
330
A
100
AcDbSymbolTableRecord
100
AcDbDimStyleTableRecord
  2
SLDDIMSTYLE4
 70
     0
 41
0.125
 44
0.0
 45
0.000000001
 78
     4
 79
     1
140
0.0833333333
147
0.0208333333
148
0.000000001
170
     1
171
     1
172
     1
173
     1
178
     0
271
     2
272
     2
274
     1
276
     2
284
    12
289
     0
340
9D
  0
ENDTAB
  0
TABLE
  2
BLOCK_RECORD
  5
1
330
0
100
AcDbSymbolTable
 70
    17
  0
BLOCK_RECORD
  5
1F
330
1
100
AcDbSymbolTableRecord
100
AcDbBlockTableRecord
  2
*Model_Space
340
22
  0
BLOCK_RECORD
  5
1B
330
1
100
AcDbSymbolTableRecord
100
AcDbBlockTableRecord
  2
*Paper_Space
340
1E
  0
BLOCK_RECORD
  5
23
330
1
100
AcDbSymbolTableRecord
100
AcDbBlockTableRecord
  2
*Paper_Space0
340
26
  0
BLOCK_RECORD
  5
74
330
1
100
AcDbSymbolTableRecord
100
AcDbBlockTableRecord
  2
Third Angle Projection Block
340
0
102
{BLKREFS
331
99
102
}
  0
BLOCK_RECORD
  5
9A
330
1
100
AcDbSymbolTableRecord
100
AcDbBlockTableRecord
  2
SW_NOTE_0
340
0
102
{BLKREFS
331
A2
102
}
  0
BLOCK_RECORD
  5
B4
330
1
100
AcDbSymbolTableRecord
100
AcDbBlockTableRecord
  2
SW_NOTE_1
340
0
102
{BLKREFS
331
B9
102
}
  0
BLOCK_RECORD
  5
BA
330
1
100
AcDbSymbolTableRecord
100
AcDbBlockTableRecord
  2
SW_NOTE_2
340
0
102
{BLKREFS
331
BF
102
}
  0
BLOCK_RECORD
  5
C1
330
1
100
AcDbSymbolTableRecord
100
AcDbBlockTableRecord
  2
SW_NOTE_3
340
0
102
{BLKREFS
331
C6
102
}
  0
BLOCK_RECORD
  5
C7
330
1
100
AcDbSymbolTableRecord
100
AcDbBlockTableRecord
  2
SW_NOTE_4
340
0
102
{BLKREFS
331
CC
102
}
  0
BLOCK_RECORD
  5
D8
330
1
100
AcDbSymbolTableRecord
100
AcDbBlockTableRecord
  2
_D
340
0
  0
BLOCK_RECORD
  5
ED
330
1
100
AcDbSymbolTableRecord
100
AcDbBlockTableRecord
  2
_D_1
340
0
  0
BLOCK_RECORD
  5
203
330
1
100
AcDbSymbolTableRecord
100
AcDbBlockTableRecord
  2
_D_2
340
0
  0
BLOCK_RECORD
  5
217
330
1
100
AcDbSymbolTableRecord
100
AcDbBlockTableRecord
  2
_D_3
340
0
  0
BLOCK_RECORD
  5
22B
330
1
100
AcDbSymbolTableRecord
100
AcDbBlockTableRecord
  2
_D_4
340
0
  0
BLOCK_RECORD
  5
23F
330
1
100
AcDbSymbolTableRecord
100
AcDbBlockTableRecord
  2
_D_5
340
0
  0
BLOCK_RECORD
  5
252
330
1
100
AcDbSymbolTableRecord
100
AcDbBlockTableRecord
  2
SW_CENTERMARKSYMBOL_0
340
0
102
{BLKREFS
331
259
102
}
  0
BLOCK_RECORD
  5
25A
330
1
100
AcDbSymbolTableRecord
100
AcDbBlockTableRecord
  2
SW_CENTERMARKSYMBOL_1
340
0
102
{BLKREFS
331
261
102
}
  0
BLOCK_RECORD
  5
35E
330
1
100
AcDbSymbolTableRecord
100
AcDbBlockTableRecord
  2
_D_6
340
0
  0
BLOCK_RECORD
  5
375
330
1
100
AcDbSymbolTableRecord
100
AcDbBlockTableRecord
  2
_D_7
340
0
  0
ENDTAB
  0
ENDSEC
  0
SECTION
  2
BLOCKS
  0
BLOCK
  5
20
330
1F
100
AcDbEntity
  8
0
100
AcDbBlockBegin
  2
*Model_Space
 70
     0
 10
0.0
 20
0.0
 30
0.0
  3
*Model_Space
  1

  0
ENDBLK
  5
21
330
1F
100
AcDbEntity
  8
0
100
AcDbBlockEnd
  0
BLOCK
  5
1C
330
1B
100
AcDbEntity
 67
     1
  8
0
100
AcDbBlockBegin
  2
*Paper_Space
 70
     0
 10
0.0
 20
0.0
 30
0.0
  3
*Paper_Space
  1

  0
ENDBLK
  5
1D
330
1B
100
AcDbEntity
 67
     1
  8
0
100
AcDbBlockEnd
  0
BLOCK
  5
24
330
23
100
AcDbEntity
  8
0
100
AcDbBlockBegin
  2
*Paper_Space0
 70
     0
 10
0.0
 20
0.0
 30
0.0
  3
*Paper_Space0
  1

  0
ENDBLK
  5
25
330
23
100
AcDbEntity
  8
0
100
AcDbBlockEnd
  0
BLOCK
  5
75
330
74
100
AcDbEntity
  8
0
100
AcDbBlockBegin
  2
Third Angle Projection Block
 70
     0
 10
0.0
 20
0.0
 30
0.0
  3
Third Angle Projection Block
  1

  0
CIRCLE
  5
77
330
74
100
AcDbEntity
  8
0
  6
Continuous
 62
     7
370
    35
100
AcDbCircle
 10
3.9951432636
 20
0.7456853688
 30
0.0
 40
0.0696152422706639
  0
CIRCLE
  5
78
330
74
100
AcDbEntity
  8
0
  6
Continuous
 62
     7
370
    35
100
AcDbCircle
 10
3.9951432636
 20
0.7456853688
 30
0.0
 40
0.1535916633280245
  0
LINE
  5
79
330
74
100
AcDbEntity
  8
0
  6
CENTERX2
 62
     7
370
    18
100
AcDbLine
 10
4.3360937897
 20
0.7456853688
 30
0.0
 11
4.7028635231
 21
0.7456853688
 31
0.0
  0
LINE
  5
7A
330
74
100
AcDbEntity
  8
0
  6
Continuous
 62
     7
370
    35
100
AcDbLine
 10
4.3701432636
 20
0.815300611
 30
0.0
 11
4.3701432636
 21
0.6760701265
 31
0.0
  0
LINE
  5
7B
330
74
100
AcDbEntity
  8
0
  6
Continuous
 62
     7
370
    35
100
AcDbLine
 10
4.3701432636
 20
0.6760701265
 30
0.0
 11
4.6701432636
 21
0.5956853688
 31
0.0
  0
LINE
  5
7C
330
74
100
AcDbEntity
  8
0
  6
Continuous
 62
     7
370
    35
100
AcDbLine
 10
4.6701432636
 20
0.5956853688
 30
0.0
 11
4.6701432636
 21
0.8956853688
 31
0.0
  0
LINE
  5
7D
330
74
100
AcDbEntity
  8
0
  6
Continuous
 62
     7
370
    35
100
AcDbLine
 10
4.6701432636
 20
0.8956853688
 30
0.0
 11
4.3701432636
 21
0.815300611
 31
0.0
  0
LINE
  5
7E
330
74
100
AcDbEntity
  8
0
  6
CENTERX2
 62
     7
370
    18
100
AcDbLine
 10
3.8032513961
 20
0.7456853688
 30
0.0
 11
4.187035131
 21
0.7456853688
 31
0.0
  0
LINE
  5
7F
330
74
100
AcDbEntity
  8
0
  6
CENTERX2
 62
     7
370
    18
100
AcDbLine
 10
3.9951432636
 20
0.9375772362
 30
0.0
 11
3.9951432636
 21
0.5537935013
 31
0.0
  0
POINT
  5
80
330
74
100
AcDbEntity
  8
0
  6
Continuous
 62
     7
370
     0
100
AcDbPoint
 10
3.9951432636
 20
0.7456853688
 30
0.0
  0
ENDBLK
  5
76
330
74
100
AcDbEntity
  8
0
100
AcDbBlockEnd
  0
BLOCK
  5
9B
330
9A
100
AcDbEntity
  8
0
100
AcDbBlockBegin
  2
SW_NOTE_0
 70
     0
 10
0.0
 20
0.0
 30
0.0
  3
SW_NOTE_0
  1

  0
MTEXT
  5
9E
330
9A
100
AcDbEntity
  8
0
  6
Continuous
 62
     0
370
     0
100
AcDbMText
 10
0.0
 20
0.1074223116
 30
0.0
 40
0.0833333333
 41
0.0
 71
     1
 72
     1
  1
NOTES/SPECIFICATIONS:
  7
SLDTEXTSTYLE0
 73
     1
 44
1.0
  0
MTEXT
  5
9F
330
9A
100
AcDbEntity
  8
0
  6
Continuous
 62
     0
370
     0
100
AcDbMText
 10
0.3937007786
 20
-0.1147999079
 30
0.0
 40
0.0833333333
 41
0.0
 71
     1
 72
     1
  1
SHIPS WITH: (2) #4-40 X 5/16 FLAT HEAD SOCKET CAP SCREWS
  7
SLDTEXTSTYLE0
 73
     1
 44
1.0
  0
MTEXT
  5
A0
330
9A
100
AcDbEntity
  8
0
  6
Continuous
 62
     0
370
     0
100
AcDbMText
 10
0.0
 20
-0.1147999079
 30
0.0
 40
0.0833333333
 41
0.0
 71
     1
 72
     1
  1
1.
  7
SLDTEXTSTYLE0
 73
     1
 44
1.0
  0
MTEXT
  5
A1
330
9A
100
AcDbEntity
  8
0
  6
Continuous
 62
     0
370
     0
100
AcDbMText
 10
1.0061515748
 20
-0.2259110177
 30
0.0
 40
0.0833333333
 41
0.0
 71
     1
 72
     1
  1
(1) 1/16 SHORT ARM HEX KEY
  7
SLDTEXTSTYLE0
 73
     1
 44
1.0
  0
ENDBLK
  5
9C
330
9A
100
AcDbEntity
  8
0
100
AcDbBlockEnd
  0
BLOCK
  5
B5
330
B4
100
AcDbEntity
  8
0
100
AcDbBlockBegin
  2
SW_NOTE_1
 70
     0
 10
0.0
 20
0.0
 30
0.0
  3
SW_NOTE_1
  1

  0
MTEXT
  5
B7
330
B4
100
AcDbEntity
  8
0
  6
Continuous
 62
     0
370
     0
100
AcDbMText
 10
0.78375
 20
0.0773440644
 30
0.0
 40
0.06
 41
0.0
 71
     2
 72
     1
  1
VALUES IN PARENTHESIS ARE CALCULATED
  7
SLDTEXTSTYLE0
 73
     1
 44
1.0
  0
MTEXT
  5
B8
330
B4
100
AcDbEntity
  8
0
  6
Continuous
 62
     0
370
     0
100
AcDbMText
 10
0.7825936818
 20
-0.0220260102
 30
0.0
 40
0.06
 41
0.0
 71
     2
 72
     1
  1
AND MAY CONTAIN ROUNDOFF ERRORS
  7
SLDTEXTSTYLE0
 73
     1
 44
1.0
  0
ENDBLK
  5
B6
330
B4
100
AcDbEntity
  8
0
100
AcDbBlockEnd
  0
BLOCK
  5
BB
330
BA
100
AcDbEntity
  8
0
100
AcDbBlockBegin
  2
SW_NOTE_2
 70
     0
 10
0.0
 20
0.0
 30
0.0
  3
SW_NOTE_2
  1

  0
MTEXT
  5
BD
330
BA
100
AcDbEntity
  8
0
  6
Continuous
 62
     0
370
     0
100
AcDbMText
 10
0.0
 20
0.1074223116
 30
0.0
 40
0.0833333333
 41
0.0
 71
     1
 72
     1
  1
DRAWING
  7
SLDTEXTSTYLE0
 73
     1
 44
1.0
  0
MTEXT
  5
BE
330
BA
100
AcDbEntity
  8
0
  6
Continuous
 62
     0
370
     0
100
AcDbMText
 10
0.0
 20
-0.0036887981
 30
0.0
 40
0.0833333333
 41
0.0
 71
     1
 72
     1
  1
PROJECTION
  7
SLDTEXTSTYLE0
 73
     1
 44
1.0
  0
ENDBLK
  5
BC
330
BA
100
AcDbEntity
  8
0
100
AcDbBlockEnd
  0
BLOCK
  5
C2
330
C1
100
AcDbEntity
  8
0
100
AcDbBlockBegin
  2
SW_NOTE_3
 70
     0
 10
0.0
 20
0.0
 30
0.0
  3
SW_NOTE_3
  1

  0
MTEXT
  5
C4
330
C1
100
AcDbEntity
  8
0
  6
Continuous
 62
     0
370
     0
100
AcDbMText
 10
0.986328125
 20
0.1611334675
 30
0.0
 40
0.125
 41
0.0
 71
     2
 72
     1
  1
FOR INFORMATION ONLY
  7
SLDTEXTSTYLE0
 73
     1
 44
1.0
  0
MTEXT
  5
C5
330
C1
100
AcDbEntity
  8
0
  6
Continuous
 62
     0
370
     0
100
AcDbMText
 10
0.999088459
 20
-0.0055331972
 30
0.0
 40
0.125
 41
0.0
 71
     2
 72
     1
  1
NOT FOR MANUFACTURING PURPOSES
  7
SLDTEXTSTYLE0
 73
     1
 44
1.0
  0
ENDBLK
  5
C3
330
C1
100
AcDbEntity
  8
0
100
AcDbBlockEnd
  0
BLOCK
  5
C8
330
C7
100
AcDbEntity
  8
0
100
AcDbBlockBegin
  2
SW_NOTE_4
 70
     0
 10
0.0
 20
0.0
 30
0.0
  3
SW_NOTE_4
  1

  0
MTEXT
  5
CA
330
C7
100
AcDbEntity
  8
0
  6
Continuous
 62
     0
370
     0
100
AcDbMText
 10
0.9065755208
 20
0.1342778896
 30
0.0
 40
0.1041666667
 41
0.0
 71
     2
 72
     1
  1
SHEARING INTERFEROMETER
  7
SLDTEXTSTYLE0
 73
     1
 44
1.0
  0
MTEXT
  5
CB
330
C7
100
AcDbEntity
  8
0
  6
Continuous
 62
     0
370
     0
100
AcDbMText
 10
0.9023076323
 20
-0.0046109977
 30
0.0
 40
0.1041666667
 41
0.0
 71
     2
 72
     1
  1
VIEW SCREEN ATTACHMENT
  7
SLDTEXTSTYLE0
 73
     1
 44
1.0
  0
ENDBLK
  5
C9
330
C7
100
AcDbEntity
  8
0
100
AcDbBlockEnd
  0
BLOCK
  5
D9
330
D8
100
AcDbEntity
  8
0
100
AcDbBlockBegin
  2
_D
 70
     0
 10
0.0
 20
0.0
 30
0.0
  3
_D
  1

  0
SOLID
  5
DB
330
D8
100
AcDbEntity
  8
0
  6
Continuous
 62
     7
370
    18
100
AcDbTrace
 10
2.1183361605
 20
2.1137412656
 30
0.0
 11
2.2433361605
 21
2.0937412656
 31
0.0
 12
2.2433361605
 22
2.1337412656
 32
0.0
 13
2.2433361605
 23
2.1337412656
 33
0.0
  0
SOLID
  5
DC
330
D8
100
AcDbEntity
  8
0
  6
Continuous
 62
     7
370
    18
100
AcDbTrace
 10
4.0183361605
 20
2.1137412656
 30
0.0
 11
3.8933361605
 21
2.1337412656
 31
0.0
 12
3.8933361605
 22
2.0937412656
 32
0.0
 13
3.8933361605
 23
2.0937412656
 33
0.0
  0
LINE
  5
DD
330
D8
100
AcDbEntity
  8
0
  6
Continuous
 62
     7
370
    18
100
AcDbLine
 10
2.8564534273
 20
2.1137412564
 30
0.0
 11
2.8311062047
 21
2.1137412564
 31
0.0
  0
LINE
  5
DE
330
D8
100
AcDbEntity
  8
0
  6
Continuous
 62
     7
370
    18
100
AcDbLine
 10
2.8311062047
 20
2.1137412564
 30
0.0
 11
2.8311062047
 21
1.9813338518
 31
0.0
  0
LINE
  5
DF
330
D8
100
AcDbEntity
  8
0
  6
Continuous
 62
     7
370
    18
100
AcDbLine
 10
2.8311062047
 20
1.9813338518
 30
0.0
 11
2.8564534273
 21
1.9813338518
 31
0.0
  0
LINE
  5
E0
330
D8
100
AcDbEntity
  8
0
  6
Continuous
 62
     7
370
    18
100
AcDbLine
 10
3.2802188753
 20
2.1137412564
 30
0.0
 11
3.3055660979
 21
2.1137412564
 31
0.0
  0
LINE
  5
E1
330
D8
100
AcDbEntity
  8
0
  6
Continuous
 62
     7
370
    18
100
AcDbLine
 10
3.3055660979
 20
2.1137412564
 30
0.0
 11
3.3055660979
 21
1.9813338518
 31
0.0
  0
LINE
  5
E2
330
D8
100
AcDbEntity
  8
0
  6
Continuous
 62
     7
370
    18
100
AcDbLine
 10
3.3055660979
 20
1.9813338518
 30
0.0
 11
3.2802188753
 21
1.9813338518
 31
0.0
  0
LINE
  5
E3
330
D8
100
AcDbEntity
  8
0
  6
Continuous
 62
     7
370
    18
100
AcDbLine
 10
2.1183361605
 20
2.457442053
 30
0.0
 11
2.1183361605
 21
2.0437412656
 31
0.0
  0
LINE
  5
E4
330
D8
100
AcDbEntity
  8
0
  6
Continuous
 62
     7
370
    18
100
AcDbLine
 10
4.0183361605
 20
2.457442053
 30
0.0
 11
4.0183361605
 21
2.0437412656
 31
0.0
  0
LINE
  5
E5
330
D8
100
AcDbEntity
  8
0
  6
Continuous
 62
     7
370
    18
100
AcDbLine
 10
2.1183361605
 20
2.1137412656
 30
0.0
 11
2.7274377577
 21
2.1137412656
 31
0.0
  0
LINE
  5
E6
330
D8
100
AcDbEntity
  8
0
  6
Continuous
 62
     7
370
    18
100
AcDbLine
 10
4.0183361605
 20
2.1137412656
 30
0.0
 11
3.4092345632
 21
2.1137412656
 31
0.0
  0
MTEXT
  5
E7
330
D8
100
AcDbEntity
  8
0
  6
Continuous
 62
     7
370
    18
100
AcDbMText
 10
2.80683923
 20
2.2380617149
 30
0.0
 40
0.0833333333
 41
0.0
 71
     1
 72
     1
  1

  7
SLDTEXTSTYLE0
 73
     1
 44
1.0
  0
MTEXT
  5
E8
330
D8
100
AcDbEntity
  8
0
  6
Continuous
 62
     7
370
    18
100
AcDbMText
 10
2.9156355211
 20
2.2380617149
 30
0.0
 40
0.0833333333
 41
0.0
 71
     1
 72
     1
  1
1.90in
  7
SLDTEXTSTYLE0
 73
     1
 44
1.0
  0
MTEXT
  5
E9
330
D8
100
AcDbEntity
  8
0
  6
Continuous
 62
     7
370
    18
100
AcDbMText
 10
2.8564534273
 20
2.0887561589
 30
0.0
 40
0.0833333333
 41
0.0
 71
     1
 72
     1
  1
48.3mm
  7
SLDTEXTSTYLE0
 73
     1
 44
1.0
  0
MTEXT
  5
EA
330
D8
100
AcDbEntity
  8
0
  6
Continuous
 62
     7
370
    18
100
AcDbMText
 10
3.3934133205
 20
2.2380617149
 30
0.0
 40
0.0833333333
 41
0.0
 71
     1
 72
     1
  1

  7
SLDTEXTSTYLE0
 73
     1
 44
1.0
  0
ENDBLK
  5
DA
330
D8
100
AcDbEntity
  8
0
100
AcDbBlockEnd
  0
BLOCK
  5
EE
330
ED
100
AcDbEntity
  8
0
100
AcDbBlockBegin
  2
_D_1
 70
     0
 10
0.0
 20
0.0
 30
0.0
  3
_D_1
  1

  0
SOLID
  5
F0
330
ED
100
AcDbEntity
  8
0
  6
Continuous
 62
     7
370
    18
100
AcDbTrace
 10
1.7246353731
 20
2.507442053
 30
0.0
 11
1.7446353731
 21
2.632442053
 31
0.0
 12
1.7046353731
 22
2.632442053
 32
0.0
 13
1.7046353731
 23
2.632442053
 33
0.0
  0
SOLID
  5
F1
330
ED
100
AcDbEntity
  8
0
  6
Continuous
 62
     7
370
    18
100
AcDbTrace
 10
1.7246353731
 20
4.47594599
 30
0.0
 11
1.7046353731
 21
4.35094599
 31
0.0
 12
1.7446353731
 22
4.35094599
 32
0.0
 13
1.7446353731
 23
4.35094599
 33
0.0
  0
LINE
  5
F2
330
ED
100
AcDbEntity
  8
0
  6
Continuous
 62
     7
370
    18
100
AcDbLine
 10
1.5127526399
 20
3.4916940123
 30
0.0
 11
1.4874054173
 21
3.4916940123
 31
0.0
  0
LINE
  5
F3
330
ED
100
AcDbEntity
  8
0
  6
Continuous
 62
     7
370
    18
100
AcDbLine
 10
1.4874054173
 20
3.4916940123
 30
0.0
 11
1.4874054173
 21
3.3592866077
 31
0.0
  0
LINE
  5
F4
330
ED
100
AcDbEntity
  8
0
  6
Continuous
 62
     7
370
    18
100
AcDbLine
 10
1.4874054173
 20
3.3592866077
 30
0.0
 11
1.5127526399
 21
3.3592866077
 31
0.0
  0
LINE
  5
F5
330
ED
100
AcDbEntity
  8
0
  6
Continuous
 62
     7
370
    18
100
AcDbLine
 10
1.9365180879
 20
3.4916940123
 30
0.0
 11
1.9618653105
 21
3.4916940123
 31
0.0
  0
LINE
  5
F6
330
ED
100
AcDbEntity
  8
0
  6
Continuous
 62
     7
370
    18
100
AcDbLine
 10
1.9618653105
 20
3.4916940123
 30
0.0
 11
1.9618653105
 21
3.3592866077
 31
0.0
  0
LINE
  5
F7
330
ED
100
AcDbEntity
  8
0
  6
Continuous
 62
     7
370
    18
100
AcDbLine
 10
1.9618653105
 20
3.3592866077
 30
0.0
 11
1.9365180879
 21
3.3592866077
 31
0.0
  0
LINE
  5
F8
330
ED
100
AcDbEntity
  8
0
  6
Continuous
 62
     7
370
    18
100
AcDbLine
 10
2.0683361605
 20
2.507442053
 30
0.0
 11
1.6546353731
 21
2.507442053
 31
0.0
  0
LINE
  5
F9
330
ED
100
AcDbEntity
  8
0
  6
Continuous
 62
     7
370
    18
100
AcDbLine
 10
2.4183361605
 20
4.47594599
 30
0.0
 11
1.6546353731
 21
4.47594599
 31
0.0
  0
LINE
  5
FA
330
ED
100
AcDbEntity
  8
0
  6
Continuous
 62
     7
370
    18
100
AcDbLine
 10
1.7246353731
 20
2.507442053
 30
0.0
 11
1.7246353731
 21
3.3423884746
 31
0.0
  0
LINE
  5
FB
330
ED
100
AcDbEntity
  8
0
  6
Continuous
 62
     7
370
    18
100
AcDbLine
 10
1.7246353731
 20
4.47594599
 30
0.0
 11
1.7246353731
 21
3.6409995683
 31
0.0
  0
MTEXT
  5
FC
330
ED
100
AcDbEntity
  8
0
  6
Continuous
 62
     7
370
    18
100
AcDbMText
 10
1.4631384426
 20
3.6160144708
 30
0.0
 40
0.0833333333
 41
0.0
 71
     1
 72
     1
  1

  7
SLDTEXTSTYLE0
 73
     1
 44
1.0
  0
MTEXT
  5
FD
330
ED
100
AcDbEntity
  8
0
  6
Continuous
 62
     7
370
    18
100
AcDbMText
 10
1.5719347337
 20
3.6160144708
 30
0.0
 40
0.0833333333
 41
0.0
 71
     1
 72
     1
  1
1.97in
  7
SLDTEXTSTYLE0
 73
     1
 44
1.0
  0
MTEXT
  5
FE
330
ED
100
AcDbEntity
  8
0
  6
Continuous
 62
     7
370
    18
100
AcDbMText
 10
1.5127526399
 20
3.4667089148
 30
0.0
 40
0.0833333333
 41
0.0
 71
     1
 72
     1
  1
50.0mm
  7
SLDTEXTSTYLE0
 73
     1
 44
1.0
  0
MTEXT
  5
FF
330
ED
100
AcDbEntity
  8
0
  6
Continuous
 62
     7
370
    18
100
AcDbMText
 10
2.0497125331
 20
3.6160144708
 30
0.0
 40
0.0833333333
 41
0.0
 71
     1
 72
     1
  1

  7
SLDTEXTSTYLE0
 73
     1
 44
1.0
  0
ENDBLK
  5
EF
330
ED
100
AcDbEntity
  8
0
100
AcDbBlockEnd
  0
BLOCK
  5
204
330
203
100
AcDbEntity
  8
0
100
AcDbBlockBegin
  2
_D_2
 70
     0
 10
0.0
 20
0.0
 30
0.0
  3
_D_2
  1

  0
SOLID
  5
206
330
203
100
AcDbEntity
  8
0
  6
Continuous
 62
     7
370
    18
100
AcDbTrace
 10
3.0683361605
 20
5.1827098418
 30
0.0
 11
2.9433361605
 21
5.2027098418
 31
0.0
 12
2.9433361605
 22
5.1627098418
 32
0.0
 13
2.9433361605
 23
5.1627098418
 33
0.0
  0
SOLID
  5
207
330
203
100
AcDbEntity
  8
0
  6
Continuous
 62
     7
370
    18
100
AcDbTrace
 10
4.0183361605
 20
5.1827098418
 30
0.0
 11
4.1433361605
 21
5.1627098418
 31
0.0
 12
4.1433361605
 22
5.2027098418
 32
0.0
 13
4.1433361605
 23
5.2027098418
 33
0.0
  0
LINE
  5
208
330
203
100
AcDbEntity
  8
0
  6
Continuous
 62
     7
370
    18
100
AcDbLine
 10
3.3238177646
 20
5.1827098327
 30
0.0
 11
3.298470542
 21
5.1827098327
 31
0.0
  0
LINE
  5
209
330
203
100
AcDbEntity
  8
0
  6
Continuous
 62
     7
370
    18
100
AcDbLine
 10
3.298470542
 20
5.1827098327
 30
0.0
 11
3.298470542
 21
5.0503024281
 31
0.0
  0
LINE
  5
20A
330
203
100
AcDbEntity
  8
0
  6
Continuous
 62
     7
370
    18
100
AcDbLine
 10
3.298470542
 20
5.0503024281
 30
0.0
 11
3.3238177646
 21
5.0503024281
 31
0.0
  0
LINE
  5
20B
330
203
100
AcDbEntity
  8
0
  6
Continuous
 62
     7
370
    18
100
AcDbLine
 10
3.7475832125
 20
5.1827098327
 30
0.0
 11
3.7729304351
 21
5.1827098327
 31
0.0
  0
LINE
  5
20C
330
203
100
AcDbEntity
  8
0
  6
Continuous
 62
     7
370
    18
100
AcDbLine
 10
3.7729304351
 20
5.1827098327
 30
0.0
 11
3.7729304351
 21
5.0503024281
 31
0.0
  0
LINE
  5
20D
330
203
100
AcDbEntity
  8
0
  6
Continuous
 62
     7
370
    18
100
AcDbLine
 10
3.7729304351
 20
5.0503024281
 30
0.0
 11
3.7475832125
 21
5.0503024281
 31
0.0
  0
LINE
  5
20E
330
203
100
AcDbEntity
  8
0
  6
Continuous
 62
     7
370
    18
100
AcDbLine
 10
3.0683361605
 20
6.20738582
 30
0.0
 11
3.0683361605
 21
5.1127098418
 31
0.0
  0
LINE
  5
20F
330
203
100
AcDbEntity
  8
0
  6
Continuous
 62
     7
370
    18
100
AcDbLine
 10
4.0183361605
 20
5.45738582
 30
0.0
 11
4.0183361605
 21
5.1127098418
 31
0.0
  0
LINE
  5
210
330
203
100
AcDbEntity
  8
0
  6
Continuous
 62
     7
370
    18
100
AcDbLine
 10
3.0683361605
 20
5.1827098418
 30
0.0
 11
2.8183361605
 21
5.1827098418
 31
0.0
  0
LINE
  5
211
330
203
100
AcDbEntity
  8
0
  6
Continuous
 62
     7
370
    18
100
AcDbLine
 10
4.0183361605
 20
5.1827098418
 30
0.0
 11
4.2683361605
 21
5.1827098418
 31
0.0
  0
MTEXT
  5
212
330
203
100
AcDbEntity
  8
0
  6
Continuous
 62
     7
370
    18
100
AcDbMText
 10
3.2742035672
 20
5.3070302912
 30
0.0
 40
0.0833333333
 41
0.0
 71
     1
 72
     1
  1

  7
SLDTEXTSTYLE0
 73
     1
 44
1.0
  0
MTEXT
  5
213
330
203
100
AcDbEntity
  8
0
  6
Continuous
 62
     7
370
    18
100
AcDbMText
 10
3.3829998584
 20
5.3070302912
 30
0.0
 40
0.0833333333
 41
0.0
 71
     1
 72
     1
  1
0.95in
  7
SLDTEXTSTYLE0
 73
     1
 44
1.0
  0
MTEXT
  5
214
330
203
100
AcDbEntity
  8
0
  6
Continuous
 62
     7
370
    18
100
AcDbMText
 10
3.3238177646
 20
5.1577247352
 30
0.0
 40
0.0833333333
 41
0.0
 71
     1
 72
     1
  1
24.1mm
  7
SLDTEXTSTYLE0
 73
     1
 44
1.0
  0
MTEXT
  5
215
330
203
100
AcDbEntity
  8
0
  6
Continuous
 62
     7
370
    18
100
AcDbMText
 10
3.8607776577
 20
5.3070302912
 30
0.0
 40
0.0833333333
 41
0.0
 71
     1
 72
     1
  1

  7
SLDTEXTSTYLE0
 73
     1
 44
1.0
  0
ENDBLK
  5
205
330
203
100
AcDbEntity
  8
0
100
AcDbBlockEnd
  0
BLOCK
  5
218
330
217
100
AcDbEntity
  8
0
100
AcDbBlockBegin
  2
_D_3
 70
     0
 10
0.0
 20
0.0
 30
0.0
  3
_D_3
  1

  0
SOLID
  5
21A
330
217
100
AcDbEntity
  8
0
  6
Continuous
 62
     7
370
    18
100
AcDbTrace
 10
4.4120369479
 20
6.25738582
 30
0.0
 11
4.4320369479
 21
6.38238582
 31
0.0
 12
4.3920369479
 22
6.38238582
 32
0.0
 13
4.3920369479
 23
6.38238582
 33
0.0
  0
SOLID
  5
21B
330
217
100
AcDbEntity
  8
0
  6
Continuous
 62
     7
370
    18
100
AcDbTrace
 10
4.4120369479
 20
7.50738582
 30
0.0
 11
4.3920369479
 21
7.38238582
 31
0.0
 12
4.4320369479
 22
7.38238582
 32
0.0
 13
4.4320369479
 23
7.38238582
 33
0.0
  0
LINE
  5
21C
330
217
100
AcDbEntity
  8
0
  6
Continuous
 62
     7
370
    18
100
AcDbLine
 10
4.2001542147
 20
6.8823858108
 30
0.0
 11
4.1748069921
 21
6.8823858108
 31
0.0
  0
LINE
  5
21D
330
217
100
AcDbEntity
  8
0
  6
Continuous
 62
     7
370
    18
100
AcDbLine
 10
4.1748069921
 20
6.8823858108
 30
0.0
 11
4.1748069921
 21
6.7499784062
 31
0.0
  0
LINE
  5
21E
330
217
100
AcDbEntity
  8
0
  6
Continuous
 62
     7
370
    18
100
AcDbLine
 10
4.1748069921
 20
6.7499784062
 30
0.0
 11
4.2001542147
 21
6.7499784062
 31
0.0
  0
LINE
  5
21F
330
217
100
AcDbEntity
  8
0
  6
Continuous
 62
     7
370
    18
100
AcDbLine
 10
4.6239196627
 20
6.8823858108
 30
0.0
 11
4.6492668853
 21
6.8823858108
 31
0.0
  0
LINE
  5
220
330
217
100
AcDbEntity
  8
0
  6
Continuous
 62
     7
370
    18
100
AcDbLine
 10
4.6492668853
 20
6.8823858108
 30
0.0
 11
4.6492668853
 21
6.7499784062
 31
0.0
  0
LINE
  5
221
330
217
100
AcDbEntity
  8
0
  6
Continuous
 62
     7
370
    18
100
AcDbLine
 10
4.6492668853
 20
6.7499784062
 30
0.0
 11
4.6239196627
 21
6.7499784062
 31
0.0
  0
LINE
  5
222
330
217
100
AcDbEntity
  8
0
  6
Continuous
 62
     7
370
    18
100
AcDbLine
 10
3.1183361605
 20
6.25738582
 30
0.0
 11
4.4820369479
 21
6.25738582
 31
0.0
  0
LINE
  5
223
330
217
100
AcDbEntity
  8
0
  6
Continuous
 62
     7
370
    18
100
AcDbLine
 10
4.0683361605
 20
7.50738582
 30
0.0
 11
4.4820369479
 21
7.50738582
 31
0.0
  0
LINE
  5
224
330
217
100
AcDbEntity
  8
0
  6
Continuous
 62
     7
370
    18
100
AcDbLine
 10
4.4120369479
 20
6.25738582
 30
0.0
 11
4.4120369479
 21
6.7330802731
 31
0.0
  0
LINE
  5
225
330
217
100
AcDbEntity
  8
0
  6
Continuous
 62
     7
370
    18
100
AcDbLine
 10
4.4120369479
 20
7.50738582
 30
0.0
 11
4.4120369479
 21
7.0316913668
 31
0.0
  0
MTEXT
  5
226
330
217
100
AcDbEntity
  8
0
  6
Continuous
 62
     7
370
    18
100
AcDbMText
 10
4.1505400174
 20
7.0067062693
 30
0.0
 40
0.0833333333
 41
0.0
 71
     1
 72
     1
  1

  7
SLDTEXTSTYLE0
 73
     1
 44
1.0
  0
MTEXT
  5
227
330
217
100
AcDbEntity
  8
0
  6
Continuous
 62
     7
370
    18
100
AcDbMText
 10
4.2593363085
 20
7.0067062693
 30
0.0
 40
0.0833333333
 41
0.0
 71
     1
 72
     1
  1
1.25in
  7
SLDTEXTSTYLE0
 73
     1
 44
1.0
  0
MTEXT
  5
228
330
217
100
AcDbEntity
  8
0
  6
Continuous
 62
     7
370
    18
100
AcDbMText
 10
4.2001542147
 20
6.8574007133
 30
0.0
 40
0.0833333333
 41
0.0
 71
     1
 72
     1
  1
31.8mm
  7
SLDTEXTSTYLE0
 73
     1
 44
1.0
  0
MTEXT
  5
229
330
217
100
AcDbEntity
  8
0
  6
Continuous
 62
     7
370
    18
100
AcDbMText
 10
4.7371141079
 20
7.0067062693
 30
0.0
 40
0.0833333333
 41
0.0
 71
     1
 72
     1
  1

  7
SLDTEXTSTYLE0
 73
     1
 44
1.0
  0
ENDBLK
  5
219
330
217
100
AcDbEntity
  8
0
100
AcDbBlockEnd
  0
BLOCK
  5
22C
330
22B
100
AcDbEntity
  8
0
100
AcDbBlockBegin
  2
_D_4
 70
     0
 10
0.0
 20
0.0
 30
0.0
  3
_D_4
  1

  0
SOLID
  5
22E
330
22B
100
AcDbEntity
  8
0
  6
Continuous
 62
     7
370
    18
100
AcDbTrace
 10
3.8183361605
 20
7.7538221131
 30
0.0
 11
3.6933361605
 21
7.7738221131
 31
0.0
 12
3.6933361605
 22
7.7338221131
 32
0.0
 13
3.6933361605
 23
7.7338221131
 33
0.0
  0
SOLID
  5
22F
330
22B
100
AcDbEntity
  8
0
  6
Continuous
 62
     7
370
    18
100
AcDbTrace
 10
2.3183361605
 20
7.7538221131
 30
0.0
 11
2.4433361605
 21
7.7338221131
 31
0.0
 12
2.4433361605
 22
7.7738221131
 32
0.0
 13
2.4433361605
 23
7.7738221131
 33
0.0
  0
LINE
  5
230
330
22B
100
AcDbEntity
  8
0
  6
Continuous
 62
     7
370
    18
100
AcDbLine
 10
2.8564534273
 20
7.7538221039
 30
0.0
 11
2.8311062047
 21
7.7538221039
 31
0.0
  0
LINE
  5
231
330
22B
100
AcDbEntity
  8
0
  6
Continuous
 62
     7
370
    18
100
AcDbLine
 10
2.8311062047
 20
7.7538221039
 30
0.0
 11
2.8311062047
 21
7.6214146993
 31
0.0
  0
LINE
  5
232
330
22B
100
AcDbEntity
  8
0
  6
Continuous
 62
     7
370
    18
100
AcDbLine
 10
2.8311062047
 20
7.6214146993
 30
0.0
 11
2.8564534273
 21
7.6214146993
 31
0.0
  0
LINE
  5
233
330
22B
100
AcDbEntity
  8
0
  6
Continuous
 62
     7
370
    18
100
AcDbLine
 10
3.2802188753
 20
7.7538221039
 30
0.0
 11
3.3055660979
 21
7.7538221039
 31
0.0
  0
LINE
  5
234
330
22B
100
AcDbEntity
  8
0
  6
Continuous
 62
     7
370
    18
100
AcDbLine
 10
3.3055660979
 20
7.7538221039
 30
0.0
 11
3.3055660979
 21
7.6214146993
 31
0.0
  0
LINE
  5
235
330
22B
100
AcDbEntity
  8
0
  6
Continuous
 62
     7
370
    18
100
AcDbLine
 10
3.3055660979
 20
7.6214146993
 30
0.0
 11
3.2802188753
 21
7.6214146993
 31
0.0
  0
LINE
  5
236
330
22B
100
AcDbEntity
  8
0
  6
Continuous
 62
     7
370
    18
100
AcDbLine
 10
3.8183361605
 20
7.43838582
 30
0.0
 11
3.8183361605
 21
7.8238221131
 31
0.0
  0
LINE
  5
237
330
22B
100
AcDbEntity
  8
0
  6
Continuous
 62
     7
370
    18
100
AcDbLine
 10
2.3183361605
 20
7.43838582
 30
0.0
 11
2.3183361605
 21
7.8238221131
 31
0.0
  0
LINE
  5
238
330
22B
100
AcDbEntity
  8
0
  6
Continuous
 62
     7
370
    18
100
AcDbLine
 10
3.8183361605
 20
7.7538221131
 30
0.0
 11
3.4092345632
 21
7.7538221131
 31
0.0
  0
LINE
  5
239
330
22B
100
AcDbEntity
  8
0
  6
Continuous
 62
     7
370
    18
100
AcDbLine
 10
2.3183361605
 20
7.7538221131
 30
0.0
 11
2.7274377577
 21
7.7538221131
 31
0.0
  0
MTEXT
  5
23A
330
22B
100
AcDbEntity
  8
0
  6
Continuous
 62
     7
370
    18
100
AcDbMText
 10
2.80683923
 20
7.8781425624
 30
0.0
 40
0.0833333333
 41
0.0
 71
     1
 72
     1
  1

  7
SLDTEXTSTYLE0
 73
     1
 44
1.0
  0
MTEXT
  5
23B
330
22B
100
AcDbEntity
  8
0
  6
Continuous
 62
     7
370
    18
100
AcDbMText
 10
2.9156355211
 20
7.8781425624
 30
0.0
 40
0.0833333333
 41
0.0
 71
     1
 72
     1
  1
1.50in
  7
SLDTEXTSTYLE0
 73
     1
 44
1.0
  0
MTEXT
  5
23C
330
22B
100
AcDbEntity
  8
0
  6
Continuous
 62
     7
370
    18
100
AcDbMText
 10
2.8564534273
 20
7.7288370064
 30
0.0
 40
0.0833333333
 41
0.0
 71
     1
 72
     1
  1
38.1mm
  7
SLDTEXTSTYLE0
 73
     1
 44
1.0
  0
MTEXT
  5
23D
330
22B
100
AcDbEntity
  8
0
  6
Continuous
 62
     7
370
    18
100
AcDbMText
 10
3.3934133205
 20
7.8781425624
 30
0.0
 40
0.0833333333
 41
0.0
 71
     1
 72
     1
  1

  7
SLDTEXTSTYLE0
 73
     1
 44
1.0
  0
ENDBLK
  5
22D
330
22B
100
AcDbEntity
  8
0
100
AcDbBlockEnd
  0
BLOCK
  5
240
330
23F
100
AcDbEntity
  8
0
100
AcDbBlockBegin
  2
_D_5
 70
     0
 10
0.0
 20
0.0
 30
0.0
  3
_D_5
  1

  0
SOLID
  5
242
330
23F
100
AcDbEntity
  8
0
  6
Continuous
 62
     7
370
    18
100
AcDbTrace
 10
4.9986631746
 20
7.50738582
 30
0.0
 11
4.9786631746
 21
7.38238582
 31
0.0
 12
5.0186631746
 22
7.38238582
 32
0.0
 13
5.0186631746
 23
7.38238582
 33
0.0
  0
SOLID
  5
243
330
23F
100
AcDbEntity
  8
0
  6
Continuous
 62
     7
370
    18
100
AcDbTrace
 10
4.9986631746
 20
5.50738582
 30
0.0
 11
5.0186631746
 21
5.63238582
 31
0.0
 12
4.9786631746
 22
5.63238582
 32
0.0
 13
4.9786631746
 23
5.63238582
 33
0.0
  0
LINE
  5
244
330
23F
100
AcDbEntity
  8
0
  6
Continuous
 62
     7
370
    18
100
AcDbLine
 10
4.7867804414
 20
6.5073858108
 30
0.0
 11
4.7614332188
 21
6.5073858108
 31
0.0
  0
LINE
  5
245
330
23F
100
AcDbEntity
  8
0
  6
Continuous
 62
     7
370
    18
100
AcDbLine
 10
4.7614332188
 20
6.5073858108
 30
0.0
 11
4.7614332188
 21
6.3749784062
 31
0.0
  0
LINE
  5
246
330
23F
100
AcDbEntity
  8
0
  6
Continuous
 62
     7
370
    18
100
AcDbLine
 10
4.7614332188
 20
6.3749784062
 30
0.0
 11
4.7867804414
 21
6.3749784062
 31
0.0
  0
LINE
  5
247
330
23F
100
AcDbEntity
  8
0
  6
Continuous
 62
     7
370
    18
100
AcDbLine
 10
5.2105458894
 20
6.5073858108
 30
0.0
 11
5.235893112
 21
6.5073858108
 31
0.0
  0
LINE
  5
248
330
23F
100
AcDbEntity
  8
0
  6
Continuous
 62
     7
370
    18
100
AcDbLine
 10
5.235893112
 20
6.5073858108
 30
0.0
 11
5.235893112
 21
6.3749784062
 31
0.0
  0
LINE
  5
249
330
23F
100
AcDbEntity
  8
0
  6
Continuous
 62
     7
370
    18
100
AcDbLine
 10
5.235893112
 20
6.3749784062
 30
0.0
 11
5.2105458894
 21
6.3749784062
 31
0.0
  0
LINE
  5
24A
330
23F
100
AcDbEntity
  8
0
  6
Continuous
 62
     7
370
    18
100
AcDbLine
 10
4.0683361605
 20
7.50738582
 30
0.0
 11
5.0686631746
 21
7.50738582
 31
0.0
  0
LINE
  5
24B
330
23F
100
AcDbEntity
  8
0
  6
Continuous
 62
     7
370
    18
100
AcDbLine
 10
4.0683361605
 20
5.50738582
 30
0.0
 11
5.0686631746
 21
5.50738582
 31
0.0
  0
LINE
  5
24C
330
23F
100
AcDbEntity
  8
0
  6
Continuous
 62
     7
370
    18
100
AcDbLine
 10
4.9986631746
 20
7.50738582
 30
0.0
 11
4.9986631746
 21
6.6566913668
 31
0.0
  0
LINE
  5
24D
330
23F
100
AcDbEntity
  8
0
  6
Continuous
 62
     7
370
    18
100
AcDbLine
 10
4.9986631746
 20
5.50738582
 30
0.0
 11
4.9986631746
 21
6.3580802731
 31
0.0
  0
MTEXT
  5
24E
330
23F
100
AcDbEntity
  8
0
  6
Continuous
 62
     7
370
    18
100
AcDbMText
 10
4.7371662441
 20
6.6317062693
 30
0.0
 40
0.0833333333
 41
0.0
 71
     1
 72
     1
  1

  7
SLDTEXTSTYLE0
 73
     1
 44
1.0
  0
MTEXT
  5
24F
330
23F
100
AcDbEntity
  8
0
  6
Continuous
 62
     7
370
    18
100
AcDbMText
 10
4.8459625352
 20
6.6317062693
 30
0.0
 40
0.0833333333
 41
0.0
 71
     1
 72
     1
  1
2.00in
  7
SLDTEXTSTYLE0
 73
     1
 44
1.0
  0
MTEXT
  5
250
330
23F
100
AcDbEntity
  8
0
  6
Continuous
 62
     7
370
    18
100
AcDbMText
 10
4.7867804414
 20
6.4824007133
 30
0.0
 40
0.0833333333
 41
0.0
 71
     1
 72
     1
  1
50.8mm
  7
SLDTEXTSTYLE0
 73
     1
 44
1.0
  0
MTEXT
  5
251
330
23F
100
AcDbEntity
  8
0
  6
Continuous
 62
     7
370
    18
100
AcDbMText
 10
5.3237403346
 20
6.6317062693
 30
0.0
 40
0.0833333333
 41
0.0
 71
     1
 72
     1
  1

  7
SLDTEXTSTYLE0
 73
     1
 44
1.0
  0
ENDBLK
  5
241
330
23F
100
AcDbEntity
  8
0
100
AcDbBlockEnd
  0
BLOCK
  5
253
330
252
100
AcDbEntity
  8
0
100
AcDbBlockBegin
  2
SW_CENTERMARKSYMBOL_0
 70
     0
 10
0.0
 20
0.0
 30
0.0
  3
SW_CENTERMARKSYMBOL_0
  1

  0
LINE
  5
255
330
252
100
AcDbEntity
  8
0
  6
Continuous
 62
     0
370
     0
100
AcDbLine
 10
0.0
 20
0.0
 30
0.0
 11
0.0
 21
0.05
 31
0.0
  0
LINE
  5
256
330
252
100
AcDbEntity
  8
0
  6
Continuous
 62
     0
370
     0
100
AcDbLine
 10
0.0
 20
0.0
 30
0.0
 11
-0.05
 21
0.0
 31
0.0
  0
LINE
  5
257
330
252
100
AcDbEntity
  8
0
  6
Continuous
 62
     0
370
     0
100
AcDbLine
 10
0.0
 20
0.0
 30
0.0
 11
0.0
 21
-0.05
 31
0.0
  0
LINE
  5
258
330
252
100
AcDbEntity
  8
0
  6
Continuous
 62
     0
370
     0
100
AcDbLine
 10
0.0
 20
0.0
 30
0.0
 11
0.05
 21
0.0
 31
0.0
  0
ENDBLK
  5
254
330
252
100
AcDbEntity
  8
0
100
AcDbBlockEnd
  0
BLOCK
  5
25B
330
25A
100
AcDbEntity
  8
0
100
AcDbBlockBegin
  2
SW_CENTERMARKSYMBOL_1
 70
     0
 10
0.0
 20
0.0
 30
0.0
  3
SW_CENTERMARKSYMBOL_1
  1

  0
LINE
  5
25D
330
25A
100
AcDbEntity
  8
0
  6
Continuous
 62
     0
370
     0
100
AcDbLine
 10
0.0
 20
0.0
 30
0.0
 11
0.0
 21
0.05
 31
0.0
  0
LINE
  5
25E
330
25A
100
AcDbEntity
  8
0
  6
Continuous
 62
     0
370
     0
100
AcDbLine
 10
0.0
 20
0.0
 30
0.0
 11
-0.05
 21
0.0
 31
0.0
  0
LINE
  5
25F
330
25A
100
AcDbEntity
  8
0
  6
Continuous
 62
     0
370
     0
100
AcDbLine
 10
0.0
 20
0.0
 30
0.0
 11
0.0
 21
-0.05
 31
0.0
  0
LINE
  5
260
330
25A
100
AcDbEntity
  8
0
  6
Continuous
 62
     0
370
     0
100
AcDbLine
 10
0.0
 20
0.0
 30
0.0
 11
0.05
 21
0.0
 31
0.0
  0
ENDBLK
  5
25C
330
25A
100
AcDbEntity
  8
0
100
AcDbBlockEnd
  0
BLOCK
  5
35F
330
35E
100
AcDbEntity
  8
0
100
AcDbBlockBegin
  2
_D_6
 70
     0
 10
0.0
 20
0.0
 30
0.0
  3
_D_6
  1

  0
SOLID
  5
361
330
35E
100
AcDbEntity
  8
0
  6
Continuous
 62
     7
370
    18
100
AcDbTrace
 10
7.2014850672
 20
2.056584638
 30
0.0
 11
7.0764850672
 21
2.076584638
 31
0.0
 12
7.0764850672
 22
2.036584638
 32
0.0
 13
7.0764850672
 23
2.036584638
 33
0.0
  0
SOLID
  5
362
330
35E
100
AcDbEntity
  8
0
  6
Continuous
 62
     7
370
    18
100
AcDbTrace
 10
7.7024850672
 20
2.056584638
 30
0.0
 11
7.8274850672
 21
2.036584638
 31
0.0
 12
7.8274850672
 22
2.076584638
 32
0.0
 13
7.8274850672
 23
2.076584638
 33
0.0
  0
LINE
  5
363
330
35E
100
AcDbEntity
  8
0
  6
Continuous
 62
     7
370
    18
100
AcDbLine
 10
8.3838031397
 20
2.265843874
 30
0.0
 11
8.3584559171
 21
2.265843874
 31
0.0
  0
LINE
  5
364
330
35E
100
AcDbEntity
  8
0
  6
Continuous
 62
     7
370
    18
100
AcDbLine
 10
8.3584559171
 20
2.265843874
 30
0.0
 11
8.3584559171
 21
2.1334364694
 31
0.0
  0
LINE
  5
365
330
35E
100
AcDbEntity
  8
0
  6
Continuous
 62
     7
370
    18
100
AcDbLine
 10
8.3584559171
 20
2.1334364694
 30
0.0
 11
8.3838031397
 21
2.1334364694
 31
0.0
  0
LINE
  5
366
330
35E
100
AcDbEntity
  8
0
  6
Continuous
 62
     7
370
    18
100
AcDbLine
 10
8.8075685877
 20
2.265843874
 30
0.0
 11
8.8329158103
 21
2.265843874
 31
0.0
  0
LINE
  5
367
330
35E
100
AcDbEntity
  8
0
  6
Continuous
 62
     7
370
    18
100
AcDbLine
 10
8.8329158103
 20
2.265843874
 30
0.0
 11
8.8329158103
 21
2.1334364694
 31
0.0
  0
LINE
  5
368
330
35E
100
AcDbEntity
  8
0
  6
Continuous
 62
     7
370
    18
100
AcDbLine
 10
8.8329158103
 20
2.1334364694
 30
0.0
 11
8.8075685877
 21
2.1334364694
 31
0.0
  0
LINE
  5
369
330
35E
100
AcDbEntity
  8
0
  6
Continuous
 62
     7
370
    18
100
AcDbLine
 10
7.2014850672
 20
2.457442053
 30
0.0
 11
7.2014850672
 21
1.986584638
 31
0.0
  0
LINE
  5
36A
330
35E
100
AcDbEntity
  8
0
  6
Continuous
 62
     7
370
    18
100
AcDbLine
 10
7.7024850672
 20
2.457442053
 30
0.0
 11
7.7024850672
 21
1.986584638
 31
0.0
  0
LINE
  5
36B
330
35E
100
AcDbEntity
  8
0
  6
Continuous
 62
     7
370
    18
100
AcDbLine
 10
7.2014850672
 20
2.056584638
 30
0.0
 11
6.9514850672
 21
2.056584638
 31
0.0
  0
LINE
  5
36C
330
35E
100
AcDbEntity
  8
0
  6
Continuous
 62
     7
370
    18
100
AcDbLine
 10
7.7024850672
 20
2.056584638
 30
0.0
 11
7.9419016396
 21
2.056584638
 31
0.0
  0
MTEXT
  5
36D
330
35E
100
AcDbEntity
  8
0
  6
Continuous
 62
     7
370
    18
100
AcDbMText
 10
8.3800917184
 20
2.3901643325
 30
0.0
 40
0.0833333333
 41
0.0
 71
     1
 72
     1
  1
%%c
  7
SLDTEXTSTYLE0
 73
     1
 44
1.0
  0
MTEXT
  5
36E
330
35E
100
AcDbEntity
  8
0
  6
Continuous
 62
     7
370
    18
100
AcDbMText
 10
8.5058787578
 20
2.3901643325
 30
0.0
 40
0.0833333333
 41
0.0
 71
     1
 72
     1
  1
0.50in
  7
SLDTEXTSTYLE0
 73
     1
 44
1.0
  0
MTEXT
  5
36F
330
35E
100
AcDbEntity
  8
0
  6
Continuous
 62
     7
370
    18
100
AcDbMText
 10
8.3838031397
 20
2.2408587765
 30
0.0
 40
0.0833333333
 41
0.0
 71
     1
 72
     1
  1
12.7mm
  7
SLDTEXTSTYLE0
 73
     1
 44
1.0
  0
MTEXT
  5
370
330
35E
100
AcDbEntity
  8
0
  6
Continuous
 62
     7
370
    18
100
AcDbMText
 10
7.9588031119
 20
2.0915532296
 30
0.0
 40
0.0833333333
 41
0.0
 71
     1
 72
     1
  1
PLANO-CONCAVE LENS
  7
SLDTEXTSTYLE0
 73
     1
 44
1.0
  0
MTEXT
  5
371
330
35E
100
AcDbEntity
  8
0
  6
Continuous
 62
     7
370
    18
100
AcDbMText
 10
8.3606549797
 20
1.959145825
 30
0.0
 40
0.0833333333
 41
0.0
 71
     1
 72
     1
  1
(LC2265)
  7
SLDTEXTSTYLE0
 73
     1
 44
1.0
  0
MTEXT
  5
372
330
35E
100
AcDbEntity
  8
0
  6
Continuous
 62
     7
370
    18
100
AcDbMText
 10
8.2989265894
 20
1.8267384204
 30
0.0
 40
0.0833333333
 41
0.0
 71
     1
 72
     1
  1
f= -15.0mm
  7
SLDTEXTSTYLE0
 73
     1
 44
1.0
  0
ENDBLK
  5
360
330
35E
100
AcDbEntity
  8
0
100
AcDbBlockEnd
  0
BLOCK
  5
376
330
375
100
AcDbEntity
  8
0
100
AcDbBlockBegin
  2
_D_7
 70
     0
 10
0.0
 20
0.0
 30
0.0
  3
_D_7
  1

  0
SOLID
  5
378
330
375
100
AcDbEntity
  8
0
  6
Continuous
 62
     7
370
    18
100
AcDbTrace
 10
6.9514850672
 20
4.7595054107
 30
0.0
 11
6.8264850672
 21
4.7795054107
 31
0.0
 12
6.8264850672
 22
4.7395054107
 32
0.0
 13
6.8264850672
 23
4.7395054107
 33
0.0
  0
SOLID
  5
379
330
375
100
AcDbEntity
  8
0
  6
Continuous
 62
     7
370
    18
100
AcDbTrace
 10
7.9524850672
 20
4.7595054107
 30
0.0
 11
8.0774850672
 21
4.7395054107
 31
0.0
 12
8.0774850672
 22
4.7795054107
 32
0.0
 13
8.0774850672
 23
4.7795054107
 33
0.0
  0
LINE
  5
37A
330
375
100
AcDbEntity
  8
0
  6
Continuous
 62
     7
370
    18
100
AcDbLine
 10
8.7050046701
 20
4.9025609581
 30
0.0
 11
8.6796574475
 21
4.9025609581
 31
0.0
  0
LINE
  5
37B
330
375
100
AcDbEntity
  8
0
  6
Continuous
 62
     7
370
    18
100
AcDbLine
 10
8.6796574475
 20
4.9025609581
 30
0.0
 11
8.6796574475
 21
4.7701535535
 31
0.0
  0
LINE
  5
37C
330
375
100
AcDbEntity
  8
0
  6
Continuous
 62
     7
370
    18
100
AcDbLine
 10
8.6796574475
 20
4.7701535535
 30
0.0
 11
8.7050046701
 21
4.7701535535
 31
0.0
  0
LINE
  5
37D
330
375
100
AcDbEntity
  8
0
  6
Continuous
 62
     7
370
    18
100
AcDbLine
 10
9.1287701181
 20
4.9025609581
 30
0.0
 11
9.1541173407
 21
4.9025609581
 31
0.0
  0
LINE
  5
37E
330
375
100
AcDbEntity
  8
0
  6
Continuous
 62
     7
370
    18
100
AcDbLine
 10
9.1541173407
 20
4.9025609581
 30
0.0
 11
9.1541173407
 21
4.7701535535
 31
0.0
  0
LINE
  5
37F
330
375
100
AcDbEntity
  8
0
  6
Continuous
 62
     7
370
    18
100
AcDbLine
 10
9.1541173407
 20
4.7701535535
 30
0.0
 11
9.1287701181
 21
4.7701535535
 31
0.0
  0
LINE
  5
380
330
375
100
AcDbEntity
  8
0
  6
Continuous
 62
     7
370
    18
100
AcDbLine
 10
6.9514850672
 20
4.52594599
 30
0.0
 11
6.9514850672
 21
4.8295054107
 31
0.0
  0
LINE
  5
381
330
375
100
AcDbEntity
  8
0
  6
Continuous
 62
     7
370
    18
100
AcDbLine
 10
7.9524850672
 20
4.52594599
 30
0.0
 11
7.9524850672
 21
4.8295054107
 31
0.0
  0
LINE
  5
382
330
375
100
AcDbEntity
  8
0
  6
Continuous
 62
     7
370
    18
100
AcDbLine
 10
6.9514850672
 20
4.7595054107
 30
0.0
 11
6.7014850672
 21
4.7595054107
 31
0.0
  0
LINE
  5
383
330
375
100
AcDbEntity
  8
0
  6
Continuous
 62
     7
370
    18
100
AcDbLine
 10
7.9524850672
 20
4.7595054107
 30
0.0
 11
8.2139519977
 21
4.7595054107
 31
0.0
  0
MTEXT
  5
384
330
375
100
AcDbEntity
  8
0
  6
Continuous
 62
     7
370
    18
100
AcDbMText
 10
8.7012932488
 20
5.0268814166
 30
0.0
 40
0.0833333333
 41
0.0
 71
     1
 72
     1
  1
%%c
  7
SLDTEXTSTYLE0
 73
     1
 44
1.0
  0
MTEXT
  5
385
330
375
100
AcDbEntity
  8
0
  6
Continuous
 62
     7
370
    18
100
AcDbMText
 10
8.8270802882
 20
5.0268814166
 30
0.0
 40
0.0833333333
 41
0.0
 71
     1
 72
     1
  1
1.00in
  7
SLDTEXTSTYLE0
 73
     1
 44
1.0
  0
MTEXT
  5
386
330
375
100
AcDbEntity
  8
0
  6
Continuous
 62
     7
370
    18
100
AcDbMText
 10
8.7050046701
 20
4.8775758606
 30
0.0
 40
0.0833333333
 41
0.0
 71
     1
 72
     1
  1
25.4mm
  7
SLDTEXTSTYLE0
 73
     1
 44
1.0
  0
MTEXT
  5
387
330
375
100
AcDbEntity
  8
0
  6
Continuous
 62
     7
370
    18
100
AcDbMText
 10
8.23085347
 20
4.7282703137
 30
0.0
 40
0.0833333333
 41
0.0
 71
     1
 72
     1
  1
GROUND GLASS DIFFUSER
  7
SLDTEXTSTYLE0
 73
     1
 44
1.0
  0
MTEXT
  5
388
330
375
100
AcDbEntity
  8
0
  6
Continuous
 62
     7
370
    18
100
AcDbMText
 10
8.6136466646
 20
4.5958629091
 30
0.0
 40
0.0833333333
 41
0.0
 71
     1
 72
     1
  1
(DG10-120)
  7
SLDTEXTSTYLE0
 73
     1
 44
1.0
  0
ENDBLK
  5
377
330
375
100
AcDbEntity
  8
0
100
AcDbBlockEnd
  0
ENDSEC
  0
SECTION
  2
ENTITIES
  0
LINE
  5
81
330
1F
100
AcDbEntity
  8
0
  6
Continuous
 62
     7
370
    18
100
AcDbLine
 10
0.0621791378
 20
8.4506055117
 30
0.0
 11
10.9444569626
 21
8.4506055117
 31
0.0
  0
LINE
  5
82
330
1F
100
AcDbEntity
  8
0
  6
Continuous
 62
     7
370
    18
100
AcDbLine
 10
0.0621791378
 20
8.4506055117
 30
0.0
 11
0.0621791378
 21
0.035557648
 31
0.0
  0
LINE
  5
83
330
1F
100
AcDbEntity
  8
0
  6
Continuous
 62
     7
370
    18
100
AcDbLine
 10
10.9444569626
 20
0.035557648
 30
0.0
 11
0.0621791378
 21
0.035557648
 31
0.0
  0
LINE
  5
84
330
1F
100
AcDbEntity
  8
0
  6
Continuous
 62
     7
370
    18
100
AcDbLine
 10
10.9444569626
 20
0.035557648
 30
0.0
 11
10.9444569626
 21
8.4506055117
 31
0.0
  0
LINE
  5
85
330
1F
100
AcDbEntity
  8
0
  6
Continuous
 62
     7
370
    18
100
AcDbLine
 10
8.4938096065
 20
0.4840901186
 30
0.0
 11
6.7571952625
 21
0.4840901186
 31
0.0
  0
LINE
  5
86
330
1F
100
AcDbEntity
  8
0
  6
Continuous
 62
     7
370
    18
100
AcDbLine
 10
6.7571952625
 20
0.4840901186
 30
0.0
 11
6.7571952625
 21
1.030163002
 31
0.0
  0
LINE
  5
87
330
1F
100
AcDbEntity
  8
0
  6
Continuous
 62
     7
370
    18
100
AcDbLine
 10
6.7571952625
 20
0.035557648
 30
0.0
 11
6.7571952625
 21
1.030163002
 31
0.0
  0
LINE
  5
88
330
1F
100
AcDbEntity
  8
0
  6
Continuous
 62
     7
370
    18
100
AcDbLine
 10
8.4938096065
 20
0.6756085809
 30
0.0
 11
10.9444569626
 21
0.6756085809
 31
0.0
  0
LINE
  5
89
330
1F
100
AcDbEntity
  8
0
  6
Continuous
 62
     7
370
    18
100
AcDbLine
 10
8.4938096065
 20
1.3873799542
 30
0.0
 11
8.4938096065
 21
0.035557648
 31
0.0
  0
LINE
  5
8A
330
1F
100
AcDbEntity
  8
0
  6
Continuous
 62
     7
370
    18
100
AcDbLine
 10
8.4938096065
 20
1.030163002
 30
0.0
 11
6.7571952625
 21
1.030163002
 31
0.0
  0
LINE
  5
8B
330
1F
100
AcDbEntity
  8
0
  6
Continuous
 62
     7
370
    18
100
AcDbLine
 10
8.4938096065
 20
0.3598787426
 30
0.0
 11
10.9444569626
 21
0.3598787426
 31
0.0
  0
LINE
  5
8C
330
1F
100
AcDbEntity
  8
0
  6
Continuous
 62
     7
370
    18
100
AcDbLine
 10
8.4938096065
 20
0.6662079686
 30
0.0
 11
6.7571952625
 21
0.6662079686
 31
0.0
  0
LINE
  5
8D
330
1F
100
AcDbEntity
  8
0
  6
Continuous
 62
     7
370
    18
100
AcDbLine
 10
8.4938096065
 20
0.8459606517
 30
0.0
 11
6.7571952625
 21
0.8459606517
 31
0.0
  0
LINE
  5
8E
330
1F
100
AcDbEntity
  8
0
  6
Continuous
 62
     7
370
    18
100
AcDbLine
 10
7.3281027587
 20
1.030163002
 30
0.0
 11
7.3281027587
 21
0.4840901186
 31
0.0
  0
LINE
  5
8F
330
1F
100
AcDbEntity
  8
0
  6
Continuous
 62
     7
370
    18
100
AcDbLine
 10
7.8037240401
 20
1.030163002
 30
0.0
 11
7.8037240401
 21
0.4840901186
 31
0.0
  0
LINE
  5
90
330
1F
100
AcDbEntity
  8
0
  6
Continuous
 62
     7
370
    18
100
AcDbLine
 10
9.990119718
 20
0.3598787426
 30
0.0
 11
9.990119718
 21
0.035557648
 31
0.0
  0
LINE
  5
91
330
1F
100
AcDbEntity
  8
0
  6
Continuous
 62
     7
370
    18
100
AcDbLine
 10
6.7571952625
 20
0.4840901186
 30
0.0
 11
6.7571952625
 21
0.297745443
 31
0.0
  0
LINE
  5
92
330
1F
100
AcDbEntity
  8
0
  6
Continuous
 62
     7
370
    18
100
AcDbLine
 10
6.7571952625
 20
0.297745443
 30
0.0
 11
8.4938096065
 21
0.297745443
 31
0.0
  0
LINE
  5
93
330
1F
100
AcDbEntity
  8
0
  6
Continuous
 62
     7
370
    18
100
AcDbLine
 10
6.7571952625
 20
0.297745443
 30
0.0
 11
6.7571952625
 21
1.3873799542
 31
0.0
  0
LINE
  5
94
330
1F
100
AcDbEntity
  8
0
  6
Continuous
 62
     7
370
    18
100
AcDbLine
 10
6.7571952625
 20
1.3873799542
 30
0.0
 11
8.4938096065
 21
1.3873799542
 31
0.0
  0
LINE
  5
95
330
1F
100
AcDbEntity
  8
0
  6
Continuous
 62
     7
370
    18
100
AcDbLine
 10
10.6365495992
 20
0.6756085809
 30
0.0
 11
10.6365495992
 21
0.3598787426
 31
0.0
  0
LINE
  5
96
330
1F
100
AcDbEntity
  8
0
  6
Continuous
 62
     7
370
    18
100
AcDbLine
 10
8.4938096065
 20
1.3873799542
 30
0.0
 11
10.9444569626
 21
1.3873799542
 31
0.0
  0
LINE
  5
97
330
1F
100
AcDbEntity
  8
0
  6
Continuous
 62
     7
370
    18
100
AcDbLine
 10
10.9444569626
 20
1.3873799542
 30
0.0
 11
10.9444569626
 21
1.9698084888
 31
0.0
  0
LINE
  5
98
330
1F
100
AcDbEntity
  8
0
  6
Continuous
 62
     7
370
    18
100
AcDbLine
 10
8.4938096065
 20
0.9800288797
 30
0.0
 11
10.9444569626
 21
0.9800288797
 31
0.0
  0
INSERT
  5
99
330
1F
100
AcDbEntity
  8
0
  6
Continuous
 62
     7
100
AcDbBlockReference
  2
Third Angle Projection Block
 10
4.6348905679
 20
0.6108753523
 30
0.0
 41
0.8
 42
0.8
 43
0.8
  0
INSERT
  5
A2
330
1F
100
AcDbEntity
  8
0
  6
Continuous
 62
     7
370
     0
100
AcDbBlockReference
  2
SW_NOTE_0
 10
0.3080404784
 20
0.9050205969
 30
0.0
  0
MTEXT
  5
A3
330
1F
100
AcDbEntity
  8
0
  6
Continuous
 62
     7
370
     0
100
AcDbMText
 10
10.7937728813
 20
0.5227176726
 30
0.0
 40
0.125
 41
0.0
 71
     2
 72
     1
  1
D
  7
SLDTEXTSTYLE0
 73
     1
 44
1.0
  0
MTEXT
  5
A4
330
1F
100
AcDbEntity
  8
0
  6
Continuous
 62
     7
370
     0
100
AcDbMText
 10
9.2419012836
 20
0.2019943461
 30
0.0
 40
0.125
 41
0.0
 71
     2
 72
     1
  1
SIVS
  7
SLDTEXTSTYLE0
 73
     1
 44
1.0
  0
MTEXT
  5
A5
330
1F
100
AcDbEntity
  8
0
  6
Continuous
 62
     7
370
     0
100
AcDbMText
 10
8.5204715199
 20
0.6623747189
 30
0.0
 40
0.0833333333
 41
0.0
 71
     1
 72
     1
  1
MATERIAL
  7
SLDTEXTSTYLE0
 73
     1
 44
1.0
  0
MTEXT
  5
A6
330
1F
100
AcDbEntity
  8
0
  6
Continuous
 62
     7
370
     0
100
AcDbMText
 10
6.8594860853
 20
0.7895493672
 30
0.0
 40
0.0729166667
 41
0.0
 71
     1
 72
     1
  1
DRAWN
  7
SLDTEXTSTYLE0
 73
     1
 44
1.0
  0
MTEXT
  5
A7
330
1F
100
AcDbEntity
  8
0
  6
Continuous
 62
     7
370
     0
100
AcDbMText
 10
6.7872445848
 20
0.613335314
 30
0.0
 40
0.0729166667
 41
0.0
 71
     1
 72
     1
  1
APPROVAL
  7
SLDTEXTSTYLE0
 73
     1
 44
1.0
  0
MTEXT
  5
A8
330
1F
100
AcDbEntity
  8
0
  6
Continuous
 62
     7
370
     0
100
AcDbMText
 10
10.6936137314
 20
0.6373332609
 30
0.0
 40
0.0833333333
 41
0.0
 71
     1
 72
     1
  1
REV
  7
SLDTEXTSTYLE0
 73
     1
 44
1.0
  0
MTEXT
  5
A9
330
1F
100
AcDbEntity
  8
0
  6
Continuous
 62
     7
370
     0
100
AcDbMText
 10
7.4919633718
 20
0.7999100272
 30
0.0
 40
0.0833333333
 41
0.0
 71
     1
 72
     1
  1
DT
  7
SLDTEXTSTYLE0
 73
     1
 44
1.0
  0
MTEXT
  5
AA
330
1F
100
AcDbEntity
  8
0
  6
Continuous
 62
     7
370
     0
100
AcDbMText
 10
7.4919633718
 20
0.623695974
 30
0.0
 40
0.0833333333
 41
0.0
 71
     1
 72
     1
  1
BW
  7
SLDTEXTSTYLE0
 73
     1
 44
1.0
  0
MTEXT
  5
AB
330
1F
100
AcDbEntity
  8
0
  6
Continuous
 62
     7
370
     0
100
AcDbMText
 10
7.8687497515
 20
0.7999100272
 30
0.0
 40
0.0833333333
 41
0.0
 71
     1
 72
     1
  1
21/JAN/19
  7
SLDTEXTSTYLE0
 73
     1
 44
1.0
  0
MTEXT
  5
AC
330
1F
100
AcDbEntity
  8
0
  6
Continuous
 62
     7
370
     0
100
AcDbMText
 10
8.0163191884
 20
0.9772495896
 30
0.0
 40
0.0833333333
 41
0.0
 71
     1
 72
     1
  1
DATE
  7
SLDTEXTSTYLE0
 73
     1
 44
1.0
  0
MTEXT
  5
AD
330
1F
100
AcDbEntity
  8
0
  6
Continuous
 62
     7
370
     0
100
AcDbMText
 10
7.8687497515
 20
0.623695974
 30
0.0
 40
0.0833333333
 41
0.0
 71
     1
 72
     1
  1
21/JAN/19
  7
SLDTEXTSTYLE0
 73
     1
 44
1.0
  0
MTEXT
  5
AF
330
1F
100
AcDbEntity
  8
0
  6
Continuous
 62
     7
370
     0
100
AcDbMText
 10
9.0316104912
 20
1.0943207896
 30
0.0
 40
0.0833333333
 41
0.0
 71
     1
 72
     1
  1
w w w . t h o r  l a b s . c o m
  7
SLDTEXTSTYLE1
 73
     1
 44
1.0
  0
MTEXT
  5
B0
330
1F
100
AcDbEntity
  8
0
  6
Continuous
 62
     7
370
     0
100
AcDbMText
 10
8.5315119501
 20
0.328719653
 30
0.0
 40
0.0833333333
 41
0.0
 71
     1
 72
     1
  1
ITEM #
  7
SLDTEXTSTYLE0
 73
     1
 44
1.0
  0
MTEXT
  5
B1
330
1F
100
AcDbEntity
  8
0
  6
Continuous
 62
     7
370
     0
100
AcDbMText
 10
10.0209370115
 20
0.328719653
 30
0.0
 40
0.0833333333
 41
0.0
 71
     1
 72
     1
  1
APPROX WEIGHT
  7
SLDTEXTSTYLE0
 73
     1
 44
1.0
  0
MTEXT
  5
B2
330
1F
100
AcDbEntity
  8
0
  6
Continuous
 62
     7
370
     0
100
AcDbMText
 10
9.5945953048
 20
0.5414715262
 30
0.0
 40
0.125
 41
0.0
 71
     2
 72
     1
  1
N/A
  7
SLDTEXTSTYLE0
 73
     1
 44
1.0
  0
MTEXT
  5
B3
330
1F
100
AcDbEntity
  8
0
  6
Continuous
 62
     7
370
     0
100
AcDbMText
 10
10.4790491378
 20
0.2019943461
 30
0.0
 40
0.125
 41
0.0
 71
     2
 72
     1
  1
0.07 kg
  7
SLDTEXTSTYLE0
 73
     1
 44
1.0
  0
INSERT
  5
B9
330
1F
100
AcDbEntity
  8
0
  6
Continuous
 62
     7
370
     0
100
AcDbBlockReference
  2
SW_NOTE_1
 10
6.8835832285
 20
0.1754273811
 30
0.0
  0
INSERT
  5
BF
330
1F
100
AcDbEntity
  8
0
  6
Continuous
 62
     7
370
     0
100
AcDbBlockReference
  2
SW_NOTE_2
 10
6.8719828753
 20
1.2001390658
 30
0.0
  0
MTEXT
  5
C0
330
1F
100
AcDbEntity
  8
0
  6
Continuous
 62
     7
370
     0
100
AcDbMText
 10
7.3987149145
 20
0.9772495896
 30
0.0
 40
0.0833333333
 41
0.0
 71
     1
 72
     1
  1
NAME
  7
SLDTEXTSTYLE0
 73
     1
 44
1.0
  0
INSERT
  5
C6
330
1F
100
AcDbEntity
  8
0
  6
Continuous
 62
     7
370
     0
100
AcDbBlockReference
  2
SW_NOTE_3
 10
2.3078923918
 20
0.3219551564
 30
0.0
  0
INSERT
  5
CC
330
1F
100
AcDbEntity
  8
0
  6
Continuous
 62
     7
370
     0
100
AcDbBlockReference
  2
SW_NOTE_4
 10
8.8128602716
 20
0.8252423426
 30
0.0
  0
MTEXT
  5
CD
330
1F
100
AcDbEntity
  8
0
  6
Continuous
 62
     7
370
     0
100
AcDbMText
 10
7.0281258754
 20
0.4200025137
 30
0.0
 40
0.0625
 41
0.0
 71
     1
 72
     1
  1
COPYRIGHT © 2019 BY THORLABS
  7
SLDTEXTSTYLE0
 73
     1
 44
1.0
  0
LINE
  5
CE
330
1F
100
AcDbEntity
  8
0
  6
Continuous
 62
     7
370
    18
100
AcDbLine
 10
3.6683361538
 20
2.7074420452
 30
0.0
 11
3.6683361538
 21
4.4759459919
 31
0.0
  0
LINE
  5
CF
330
1F
100
AcDbEntity
  8
0
  6
Continuous
 62
     7
370
    18
100
AcDbLine
 10
2.4683362013
 20
4.4759459919
 30
0.0
 11
2.4683362013
 21
2.7074420452
 31
0.0
  0
LINE
  5
D0
330
1F
100
AcDbEntity
  8
0
  6
Continuous
 62
     7
370
    18
100
AcDbLine
 10
4.0183361606
 20
2.7074420452
 30
0.0
 11
2.1183362312
 21
2.7074420452
 31
0.0
  0
LINE
  5
D1
330
1F
100
AcDbEntity
  8
0
  6
Continuous
 62
     7
370
    18
100
AcDbLine
 10
2.1183362312
 20
2.7074420452
 30
0.0
 11
2.1183362312
 21
2.5074420623
 31
0.0
  0
LINE
  5
D2
330
1F
100
AcDbEntity
  8
0
  6
Continuous
 62
     7
370
    18
100
AcDbLine
 10
2.1183362312
 20
2.5074420623
 30
0.0
 11
4.0183361606
 21
2.5074420623
 31
0.0
  0
LINE
  5
D3
330
1F
100
AcDbEntity
  8
0
  6
Continuous
 62
     7
370
    18
100
AcDbLine
 10
4.0183361606
 20
2.5074420623
 30
0.0
 11
4.0183361606
 21
2.7074420452
 31
0.0
  0
LINE
  5
D4
330
1F
100
AcDbEntity
  8
0
  6
Continuous
 62
     7
370
    18
100
AcDbLine
 10
3.06833615
 20
4.4759459919
 30
0.0
 11
3.6683361538
 21
4.4759459919
 31
0.0
  0
LINE
  5
D5
330
1F
100
AcDbEntity
  8
0
  6
Continuous
 62
     7
370
    18
100
AcDbLine
 10
2.4683362013
 20
4.4759459919
 30
0.0
 11
3.06833615
 21
4.4759459919
 31
0.0
  0
DIMENSION
  5
D6
330
1F
100
AcDbEntity
  8
0
  6
Continuous
 62
     7
370
    18
100
AcDbDimension
  2
_D
 10
4.0183361605
 20
2.1137412656
 30
0.0
 11
3.0683361605
 21
2.1137412656
 31
0.0
 70
   160
  1
<>
 71
     2
 42
-1.0
  3
SLDDIMSTYLE0
100
AcDbAlignedDimension
 13
2.1183361605
 23
2.507442053
 33
0.0
 14
4.0183361605
 24
2.507442053
 34
0.0
100
AcDbRotatedDimension
  0
DIMENSION
  5
EB
330
1F
100
AcDbEntity
  8
0
  6
Continuous
 62
     7
370
    18
100
AcDbDimension
  2
_D_1
 10
1.7246353731
 20
4.47594599
 30
0.0
 11
1.7246353731
 21
3.4916940215
 31
0.0
 70
   160
  1
<>
 71
     2
 42
-1.0
  3
SLDDIMSTYLE1
100
AcDbAlignedDimension
 13
2.1183361605
 23
2.507442053
 33
0.0
 14
2.4683361605
 24
4.47594599
 34
0.0
 50
90.0
100
AcDbRotatedDimension
  0
LINE
  5
100
330
1F
100
AcDbEntity
  8
0
  6
PHANTOM
 62
     7
370
    35
100
AcDbLine
 10
3.0683361605
 20
2.507442053
 30
0.0
 11
3.0683361605
 21
4.47594599
 31
0.0
  0
LINE
  5
101
330
1F
100
AcDbEntity
  8
0
  6
Continuous
 62
     7
370
    35
100
AcDbLine
 10
3.0683361605
 20
2.507442053
 30
0.0
 11
3.4183361605
 21
2.507442053
 31
0.0
  0
SOLID
  5
102
330
1F
100
AcDbEntity
  8
0
  6
Continuous
 62
     7
370
    35
100
AcDbTrace
 10
3.4183361605
 20
2.507442053
 30
0.0
 11
3.2683361605
 21
2.532442053
 31
0.0
 12
3.2683361605
 22
2.482442053
 32
0.0
 13
3.2683361605
 23
2.482442053
 33
0.0
  0
LINE
  5
103
330
1F
100
AcDbEntity
  8
0
  6
Continuous
 62
     7
370
    35
100
AcDbLine
 10
3.0683361605
 20
4.47594599
 30
0.0
 11
3.4183361605
 21
4.47594599
 31
0.0
  0
SOLID
  5
104
330
1F
100
AcDbEntity
  8
0
  6
Continuous
 62
     7
370
    35
100
AcDbTrace
 10
3.4183361605
 20
4.47594599
 30
0.0
 11
3.2683361605
 21
4.50094599
 31
0.0
 12
3.2683361605
 22
4.45094599
 32
0.0
 13
3.2683361605
 23
4.45094599
 33
0.0
  0
MTEXT
  5
105
330
1F
100
AcDbEntity
  8
0
  6
Continuous
 62
     7
100
AcDbMText
 10
3.4496874629
 20
2.590166402
 30
0.0
 40
0.1041666667
 41
0.0
 71
     1
 72
     1
  1
A
  7
SLDTEXTSTYLE0
 73
     1
 44
1.0
  0
MTEXT
  5
106
330
1F
100
AcDbEntity
  8
0
  6
Continuous
 62
     7
100
AcDbMText
 10
3.4496874629
 20
4.558670339
 30
0.0
 40
0.1041666667
 41
0.0
 71
     1
 72
     1
  1
A
  7
SLDTEXTSTYLE0
 73
     1
 44
1.0
  0
LINE
  5
107
330
1F
100
AcDbEntity
  8
0
  6
Continuous
 62
     7
370
    18
100
AcDbLine
 10
3.0634148802
 20
6.757361611
 30
0.0
 11
3.0634148802
 21
5.7574100225
 31
0.0
  0
ARC
  5
108
330
1F
100
AcDbEntity
  8
0
  6
Continuous
 62
     7
370
    18
100
AcDbCircle
 10
3.0683361605
 20
6.25738582
 30
0.0
 40
0.5000000000000004
100
AcDbArc
 50
90.5639439433
 51
269.4360560567
  0
LINE
  5
109
330
1F
100
AcDbEntity
  8
0
  6
Continuous
 62
     7
370
    18
100
AcDbLine
 10
3.0732574199
 20
5.7574100225
 30
0.0
 11
3.0732574199
 21
6.757361611
 31
0.0
  0
ARC
  5
10A
330
1F
100
AcDbEntity
  8
0
  6
Continuous
 62
     7
370
    18
100
AcDbCircle
 10
3.0683361605
 20
6.25738582
 30
0.0
 40
0.5000000000000004
100
AcDbArc
 50
270.5639439433
 51
89.4360560567
  0
ARC
  5
10B
330
1F
100
AcDbEntity
  8
0
  6
Continuous
 62
     7
370
    18
100
AcDbCircle
 10
3.0683361605
 20
6.25738582
 30
0.0
 40
0.500000000000512
100
AcDbArc
 50
89.4360560567
 51
90.5639439433
  0
ARC
  5
10C
330
1F
100
AcDbEntity
  8
0
  6
Continuous
 62
     7
370
    18
100
AcDbCircle
 10
3.0683361605
 20
6.25738582
 30
0.0
 40
0.5000000000001195
100
AcDbArc
 50
269.4360560567
 51
270.5639439433
  0
LINE
  5
10D
330
1F
100
AcDbEntity
  8
0
  6
Continuous
 62
     7
370
    18
100
AcDbLine
 10
3.7689690688
 20
6.6307402404
 30
0.0
 11
3.8069437559
 21
6.6307402404
 31
0.0
  0
LINE
  5
10E
330
1F
100
AcDbEntity
  8
0
  6
Continuous
 62
     7
370
    18
100
AcDbLine
 10
3.7689690688
 20
6.6826389608
 30
0.0
 11
3.7689690688
 21
6.6307402404
 31
0.0
  0
LINE
  5
10F
330
1F
100
AcDbEntity
  8
0
  6
Continuous
 62
     7
370
    18
100
AcDbLine
 10
3.7575766654
 20
6.6826389608
 30
0.0
 11
3.7689690688
 21
6.6826389608
 31
0.0
  0
LINE
  5
110
330
1F
100
AcDbEntity
  8
0
  6
Continuous
 62
     7
370
    18
100
AcDbLine
 10
3.7575766654
 20
6.6307402404
 30
0.0
 11
3.7575766654
 21
6.6826389608
 31
0.0
  0
LINE
  5
111
330
1F
100
AcDbEntity
  8
0
  6
Continuous
 62
     7
370
    18
100
AcDbLine
 10
3.7297285621
 20
6.6307402404
 30
0.0
 11
3.7575766654
 21
6.6307402404
 31
0.0
  0
LINE
  5
112
330
1F
100
AcDbEntity
  8
0
  6
Continuous
 62
     7
370
    18
100
AcDbLine
 10
3.7297285621
 20
6.6826389608
 30
0.0
 11
3.7297285621
 21
6.6307402404
 31
0.0
  0
LINE
  5
113
330
1F
100
AcDbEntity
  8
0
  6
Continuous
 62
     7
370
    18
100
AcDbLine
 10
3.7183361587
 20
6.6826389608
 30
0.0
 11
3.7297285621
 21
6.6826389608
 31
0.0
  0
LINE
  5
114
330
1F
100
AcDbEntity
  8
0
  6
Continuous
 62
     7
370
    18
100
AcDbLine
 10
3.7183361587
 20
6.6180820266
 30
0.0
 11
3.7183361587
 21
6.6826389608
 31
0.0
  0
LINE
  5
115
330
1F
100
AcDbEntity
  8
0
  6
Continuous
 62
     7
370
    18
100
AcDbLine
 10
3.8183361593
 20
6.6180820266
 30
0.0
 11
3.7183361587
 21
6.6180820266
 31
0.0
  0
LINE
  5
116
330
1F
100
AcDbEntity
  8
0
  6
Continuous
 62
     7
370
    18
100
AcDbLine
 10
3.8183361593
 20
6.6826389608
 30
0.0
 11
3.8183361593
 21
6.6180820266
 31
0.0
  0
LINE
  5
117
330
1F
100
AcDbEntity
  8
0
  6
Continuous
 62
     7
370
    18
100
AcDbLine
 10
3.8069437559
 20
6.6826389608
 30
0.0
 11
3.8183361593
 21
6.6826389608
 31
0.0
  0
LINE
  5
118
330
1F
100
AcDbEntity
  8
0
  6
Continuous
 62
     7
370
    18
100
AcDbLine
 10
3.8069437559
 20
6.6307402404
 30
0.0
 11
3.8069437559
 21
6.6826389608
 31
0.0
  0
LINE
  5
119
330
1F
100
AcDbEntity
  8
0
  6
Continuous
 62
     7
370
    18
100
AcDbLine
 10
3.8183361593
 20
6.426942808
 30
0.0
 11
3.7183361587
 21
6.4635923313
 31
0.0
  0
LINE
  5
11A
330
1F
100
AcDbEntity
  8
0
  6
Continuous
 62
     7
370
    18
100
AcDbLine
 10
3.8183361593
 20
6.4404317322
 30
0.0
 11
3.8183361593
 21
6.426942808
 31
0.0
  0
LINE
  5
11B
330
1F
100
AcDbEntity
  8
0
  6
Continuous
 62
     7
370
    18
100
AcDbLine
 10
3.7904880606
 20
6.4503011848
 30
0.0
 11
3.8183361593
 21
6.4404317322
 31
0.0
  0
LINE
  5
11C
330
1F
100
AcDbEntity
  8
0
  6
Continuous
 62
     7
370
    18
100
AcDbLine
 10
3.7904880606
 20
6.4947236583
 30
0.0
 11
3.7904880606
 21
6.4503011848
 31
0.0
  0
LINE
  5
11D
330
1F
100
AcDbEntity
  8
0
  6
Continuous
 62
     7
370
    18
100
AcDbLine
 10
3.8183361593
 20
6.504593111
 30
0.0
 11
3.7904880606
 21
6.4947236583
 31
0.0
  0
LINE
  5
11E
330
1F
100
AcDbEntity
  8
0
  6
Continuous
 62
     7
370
    18
100
AcDbLine
 10
3.8183361593
 20
6.5180820351
 30
0.0
 11
3.8183361593
 21
6.504593111
 31
0.0
  0
LINE
  5
11F
330
1F
100
AcDbEntity
  8
0
  6
Continuous
 62
     7
370
    18
100
AcDbLine
 10
3.7183361587
 20
6.4814325119
 30
0.0
 11
3.8183361593
 21
6.5180820351
 31
0.0
  0
LINE
  5
120
330
1F
100
AcDbEntity
  8
0
  6
Continuous
 62
     7
370
    18
100
AcDbLine
 10
3.7183361587
 20
6.4635923313
 30
0.0
 11
3.7183361587
 21
6.4814325119
 31
0.0
  0
LINE
  5
121
330
1F
100
AcDbEntity
  8
0
  6
Continuous
 62
     7
370
    18
100
AcDbLine
 10
3.7183361587
 20
6.2813731296
 30
0.0
 11
3.7183361587
 21
6.3081532003
 31
0.0
  0
LINE
  5
122
330
1F
100
AcDbEntity
  8
0
  6
Continuous
 62
     7
370
    18
100
AcDbLine
 10
3.8183361593
 20
6.2813731296
 30
0.0
 11
3.7183361587
 21
6.2813731296
 31
0.0
  0
LINE
  5
123
330
1F
100
AcDbEntity
  8
0
  6
Continuous
 62
     7
370
    18
100
AcDbLine
 10
3.8183361593
 20
6.2940314167
 30
0.0
 11
3.8183361593
 21
6.2813731296
 31
0.0
  0
LINE
  5
124
330
1F
100
AcDbEntity
  8
0
  6
Continuous
 62
     7
370
    18
100
AcDbLine
 10
3.7816273009
 20
6.2940314167
 30
0.0
 11
3.8183361593
 21
6.2940314167
 31
0.0
  0
LINE
  5
125
330
1F
100
AcDbEntity
  8
0
  6
Continuous
 62
     7
370
    18
100
AcDbLine
 10
3.7816273009
 20
6.3072829636
 30
0.0
 11
3.7816273009
 21
6.2940314167
 31
0.0
  0
SPLINE
  5
126
330
1F
100
AcDbEntity
  8
0
  6
Continuous
 62
     7
370
    18
100
AcDbSpline
210
0.0
220
0.0
230
1.0
 70
     8
 71
     3
 72
    15
 73
    11
 74
     0
 42
0.000000001
 43
0.00000001
 40
0.0
 40
0.0
 40
0.0
 40
0.0
 40
0.1117329368210178
 40
0.2226065614294817
 40
0.3338270273899193
 40
0.4475024950537913
 40
0.5675258747774617
 40
0.6992121784613026
 40
0.8426859062400486
 40
0.9999999999999999
 40
0.9999999999999999
 40
0.9999999999999999
 40
0.9999999999999999
 10
3.771184261722255
 20
6.337168256659436
 30
0.0
 10
3.77202452620615
 20
6.336290901003083
 30
0.0
 10
3.773698592893855
 20
6.334542937230106
 30
0.0
 10
3.775802743955949
 20
6.331577550849935
 30
0.0
 10
3.777631191694158
 20
6.328416173613894
 30
0.0
 10
3.779102544613698
 20
6.324962344367074
 30
0.0
 10
3.78027181685672
 20
6.321162050403466
 30
0.0
 10
3.78104755442418
 20
6.316934472118763
 30
0.0
 10
3.781554712768416
 20
6.312259727236153
 30
0.0
 10
3.781602373045252
 20
6.308992010247536
 30
0.0
 10
3.781627299696938
 20
6.30728297184931
 30
0.0
  0
SPLINE
  5
127
330
1F
100
AcDbEntity
  8
0
  6
Continuous
 62
     7
370
    18
100
AcDbSpline
210
0.0
220
0.0
230
1.0
 70
     8
 71
     3
 72
    15
 73
    11
 74
     0
 42
0.000000001
 43
0.00000001
 40
0.0
 40
0.0
 40
0.0
 40
0.0
 40
0.1334089569093906
 40
0.2638860278456781
 40
0.3908747996373428
 40
0.5165699339087633
 40
0.6401728262255496
 40
0.7610861993778495
 40
0.8805727844579236
 40
1.0
 40
1.0
 40
1.0
 40
1.0
 10
3.748834578177951
 20
6.345930123748044
 30
0.0
 10
3.749930542454749
 20
6.345905936954755
 30
0.0
 10
3.752098385351994
 20
6.345858094913598
 30
0.0
 10
3.755282414758356
 20
6.345405376417458
 30
0.0
 10
3.758353259811953
 20
6.34470205592199
 30
0.0
 10
3.761277031583789
 20
6.343686130462356
 30
0.0
 10
3.764048181406837
 20
6.342425711897347
 30
0.0
 10
3.766632554256771
 20
6.340915193393506
 30
0.0
 10
3.769026040414936
 20
6.339170898177244
 30
0.0
 10
3.770464973810378
 20
6.337835693233571
 30
0.0
 10
3.771184261722255
 20
6.337168256659436
 30
0.0
  0
SPLINE
  5
128
330
1F
100
AcDbEntity
  8
0
  6
Continuous
 62
     7
370
    18
100
AcDbSpline
210
0.0
220
0.0
230
1.0
 70
     8
 71
     3
 72
    15
 73
    11
 74
     0
 42
0.000000001
 43
0.00000001
 40
0.0
 40
0.0
 40
0.0
 40
0.0
 40
0.1187906523873727
 40
0.2355934925670696
 40
0.3500810610365855
 40
0.4655632116155339
 40
0.5845283973440822
 40
0.7122584647986153
 40
0.8501271884100275
 40
1.0
 40
1.0
 40
1.0
 40
1.0
 10
3.72464549589947
 20
6.334122370583486
 30
0.0
 10
3.725303258778697
 20
6.335023299964143
 30
0.0
 10
3.726607777702398
 20
6.336810082805043
 30
0.0
 10
3.728919683627375
 20
6.339158474774885
 30
0.0
 10
3.73145671132405
 20
6.341204369268834
 30
0.0
 10
3.73425086339341
 20
6.342927714890018
 30
0.0
 10
3.73737304493305
 20
6.344297309789194
 30
0.0
 10
3.740862603379936
 20
6.345251845713962
 30
0.0
 10
3.744728202513014
 20
6.345823729276785
 30
0.0
 10
3.747428239307068
 20
6.345893686097719
 30
0.0
 10
3.748834578177951
 20
6.345930123748044
 30
0.0
  0
SPLINE
  5
129
330
1F
100
AcDbEntity
  8
0
  6
Continuous
 62
     7
370
    18
100
AcDbSpline
210
0.0
220
0.0
230
1.0
 70
     8
 71
     3
 72
    15
 73
    11
 74
     0
 42
0.000000001
 43
0.00000001
 40
0.0
 40
0.0
 40
0.0
 40
0.0
 40
0.1574370177283728
 40
0.30280271860139
 40
0.4358481715945124
 40
0.5586064038479701
 40
0.6732131793146292
 40
0.7841760769813555
 40
0.8930204619370469
 40
0.9999999999999999
 40
0.9999999999999999
 40
0.9999999999999999
 40
0.9999999999999999
 10
3.718336160456432
 20
6.308153225013866
 30
0.0
 10
3.718355593930708
 20
6.309577710114901
 30
0.0
 10
3.718392970838168
 20
6.312317459428146
 30
0.0
 10
3.718662903643271
 20
6.31625405972897
 30
0.0
 10
3.719130274321418
 20
6.319856074791672
 30
0.0
 10
3.719799350919323
 20
6.323143146870839
 30
0.0
 10
3.720675593187728
 20
6.326174808429707
 30
0.0
 10
3.721772958544914
 20
6.328997369405383
 30
0.0
 10
3.72306267869511
 20
6.331665093378433
 30
0.0
 10
3.724120938161479
 20
6.333308010107275
 30
0.0
 10
3.72464549589947
 20
6.334122370583486
 30
0.0
  0
SPLINE
  5
12A
330
1F
100
AcDbEntity
  8
0
  6
Continuous
 62
     7
370
    18
100
AcDbSpline
210
0.0
220
0.0
230
1.0
 70
     8
 71
     3
 72
    15
 73
    11
 74
     0
 42
0.000000001
 43
0.00000001
 40
0.0
 40
0.0
 40
0.0
 40
0.0
 40
0.1204833021840329
 40
0.2374301048571826
 40
0.3535608623479352
 40
0.4690933714329819
 40
0.587645633162889
 40
0.7148504755023994
 40
0.851312198992915
 40
1.0
 40
1.0
 40
1.0
 40
1.0
 10
3.7237554642539
 20
6.177595471849309
 30
0.0
 10
3.724348361331113
 20
6.178455076849893
 30
0.0
 10
3.725516752408219
 20
6.180149055199793
 30
0.0
 10
3.727607687606289
 20
6.182398808248119
 30
0.0
 10
3.729902895222118
 20
6.184368038937108
 30
0.0
 10
3.732445065139779
 20
6.18603794768803
 30
0.0
 10
3.735288437412776
 20
6.187369220831387
 30
0.0
 10
3.738473104255841
 20
6.188308511949889
 30
0.0
 10
3.742011956418895
 20
6.188856572961186
 30
0.0
 10
3.744481302638676
 20
6.188929875632453
 30
0.0
 10
3.745768913620989
 20
6.188968098431587
 30
0.0
  0
SPLINE
  5
12B
330
1F
100
AcDbEntity
  8
0
  6
Continuous
 62
     7
370
    18
100
AcDbSpline
210
0.0
220
0.0
230
1.0
 70
     8
 71
     3
 72
    15
 73
    11
 74
     0
 42
0.000000001
 43
0.00000001
 40
0.0
 40
0.0
 40
0.0
 40
0.0
 40
0.1610524613097828
 40
0.308141856546061
 40
0.4423333756553938
 40
0.5631756212443607
 40
0.6760003527151089
 40
0.7853862101446332
 40
0.8934790269756996
 40
1.0
 40
1.0
 40
1.0
 40
1.0
 10
3.718336160456432
 20
6.15200211741893
 30
0.0
 10
3.718352046253722
 20
6.153426403977977
 30
0.0
 10
3.718382440567662
 20
6.156151493063791
 30
0.0
 10
3.718591372578933
 20
6.160059601462641
 30
0.0
 10
3.718966241651691
 20
6.163597142626441
 30
0.0
 10
3.719465166140931
 20
6.166814495879381
 30
0.0
 10
3.720187507889157
 20
6.16976503325177
 30
0.0
 10
3.721114481591168
 20
6.172538807947806
 30
0.0
 10
3.722296852080706
 20
6.175156672904214
 30
0.0
 10
3.723271639997191
 20
6.176786517893927
 30
0.0
 10
3.7237554642539
 20
6.177595471849309
 30
0.0
  0
LINE
  5
12C
330
1F
100
AcDbEntity
  8
0
  6
Continuous
 62
     7
370
    18
100
AcDbLine
 10
3.7183361587
 20
6.1244111029
 30
0.0
 11
3.7183361587
 21
6.1520021575
 31
0.0
  0
LINE
  5
12D
330
1F
100
AcDbEntity
  8
0
  6
Continuous
 62
     7
370
    18
100
AcDbLine
 10
3.8183361593
 20
6.1244111029
 30
0.0
 11
3.7183361587
 21
6.1244111029
 31
0.0
  0
LINE
  5
12E
330
1F
100
AcDbEntity
  8
0
  6
Continuous
 62
     7
370
    18
100
AcDbLine
 10
3.8183361593
 20
6.1370693166
 30
0.0
 11
3.8183361593
 21
6.1244111029
 31
0.0
  0
LINE
  5
12F
330
1F
100
AcDbEntity
  8
0
  6
Continuous
 62
     7
370
    18
100
AcDbLine
 10
3.7790956526
 20
6.1370693166
 30
0.0
 11
3.8183361593
 21
6.1370693166
 31
0.0
  0
LINE
  5
130
330
1F
100
AcDbEntity
  8
0
  6
Continuous
 62
     7
370
    18
100
AcDbLine
 10
3.7790956526
 20
6.1579554354
 30
0.0
 11
3.7790956526
 21
6.1370693166
 31
0.0
  0
LINE
  5
131
330
1F
100
AcDbEntity
  8
0
  6
Continuous
 62
     7
370
    18
100
AcDbLine
 10
3.8183361593
 20
6.1914601683
 30
0.0
 11
3.7790956526
 21
6.1579554354
 31
0.0
  0
LINE
  5
132
330
1F
100
AcDbEntity
  8
0
  6
Continuous
 62
     7
370
    18
100
AcDbLine
 10
3.8183361593
 20
6.2066895657
 30
0.0
 11
3.8183361593
 21
6.1914601683
 31
0.0
  0
LINE
  5
133
330
1F
100
AcDbEntity
  8
0
  6
Continuous
 62
     7
370
    18
100
AcDbLine
 10
3.7751003979
 20
6.1689918279
 30
0.0
 11
3.8183361593
 21
6.2066895657
 31
0.0
  0
SPLINE
  5
134
330
1F
100
AcDbEntity
  8
0
  6
Continuous
 62
     7
370
    18
100
AcDbSpline
210
0.0
220
0.0
230
1.0
 70
     8
 71
     3
 72
    23
 73
    19
 74
     0
 42
0.000000001
 43
0.00000001
 40
0.0
 40
0.0
 40
0.0
 40
0.0
 40
0.0703830305476864
 40
0.1379489199197072
 40
0.2034888084440785
 40
0.2668116458442021
 40
0.3289395236564627
 40
0.3896346109119562
 40
0.4495664907690702
 40
0.5094054054689522
 40
0.568823034396548
 40
0.6282063740288427
 40
0.6879203520712668
 40
0.7483104144166692
 40
0.8093179049203285
 40
0.8712531512616716
 40
0.9346509967026044
 40
1.0
 40
1.0
 40
1.0
 40
1.0
 10
3.745768913620989
 20
6.188968098431587
 30
0.0
 10
3.746659650786746
 20
6.188955482960455
 30
0.0
 10
3.748405472599082
 20
6.188930756963244
 30
0.0
 10
3.750968745156568
 20
6.188660436916247
 30
0.0
 10
3.753421128661565
 20
6.188251267152408
 30
0.0
 10
3.755772135427522
 20
6.187680774797158
 30
0.0
 10
3.758005151597484
 20
6.186925200482843
 30
0.0
 10
3.760136160604564
 20
6.186020404753664
 30
0.0
 10
3.76214020434489
 20
6.184919654237848
 30
0.0
 10
3.764037332838811
 20
6.183675191839708
 30
0.0
 10
3.765825477238867
 20
6.18228830214963
 30
0.0
 10
3.767484386575718
 20
6.180753150919483
 30
0.0
 10
3.769058939048862
 20
6.179114199478288
 30
0.0
 10
3.770497666882787
 20
6.177327817538983
 30
0.0
 10
3.771828778820199
 20
6.175425945719977
 30
0.0
 10
3.773030014579683
 20
6.173396042399084
 30
0.0
 10
3.77415516875268
 20
6.17125940042768
 30
0.0
 10
3.774782156228701
 20
6.169755286826494
 30
0.0
 10
3.775100400962761
 20
6.168991832608802
 30
0.0
  0
LINE
  5
135
330
1F
100
AcDbEntity
  8
0
  6
Continuous
 62
     7
370
    18
100
AcDbLine
 10
3.7689690688
 20
5.9573225931
 30
0.0
 11
3.8069437559
 21
5.9573225931
 31
0.0
  0
LINE
  5
136
330
1F
100
AcDbEntity
  8
0
  6
Continuous
 62
     7
370
    18
100
AcDbLine
 10
3.7689690688
 20
6.0092213135
 30
0.0
 11
3.7689690688
 21
5.9573225931
 31
0.0
  0
LINE
  5
137
330
1F
100
AcDbEntity
  8
0
  6
Continuous
 62
     7
370
    18
100
AcDbLine
 10
3.7575766654
 20
6.0092213135
 30
0.0
 11
3.7689690688
 21
6.0092213135
 31
0.0
  0
LINE
  5
138
330
1F
100
AcDbEntity
  8
0
  6
Continuous
 62
     7
370
    18
100
AcDbLine
 10
3.7575766654
 20
5.9573225931
 30
0.0
 11
3.7575766654
 21
6.0092213135
 31
0.0
  0
LINE
  5
139
330
1F
100
AcDbEntity
  8
0
  6
Continuous
 62
     7
370
    18
100
AcDbLine
 10
3.7297285621
 20
5.9573225931
 30
0.0
 11
3.7575766654
 21
5.9573225931
 31
0.0
  0
LINE
  5
13A
330
1F
100
AcDbEntity
  8
0
  6
Continuous
 62
     7
370
    18
100
AcDbLine
 10
3.7297285621
 20
6.0092213135
 30
0.0
 11
3.7297285621
 21
5.9573225931
 31
0.0
  0
LINE
  5
13B
330
1F
100
AcDbEntity
  8
0
  6
Continuous
 62
     7
370
    18
100
AcDbLine
 10
3.7183361587
 20
6.0092213135
 30
0.0
 11
3.7297285621
 21
6.0092213135
 31
0.0
  0
LINE
  5
13C
330
1F
100
AcDbEntity
  8
0
  6
Continuous
 62
     7
370
    18
100
AcDbLine
 10
3.7183361587
 20
5.9446642326
 30
0.0
 11
3.7183361587
 21
6.0092213135
 31
0.0
  0
LINE
  5
13D
330
1F
100
AcDbEntity
  8
0
  6
Continuous
 62
     7
370
    18
100
AcDbLine
 10
3.8183361593
 20
5.9446642326
 30
0.0
 11
3.7183361587
 21
5.9446642326
 31
0.0
  0
LINE
  5
13E
330
1F
100
AcDbEntity
  8
0
  6
Continuous
 62
     7
370
    18
100
AcDbLine
 10
3.8183361593
 20
6.0092213135
 30
0.0
 11
3.8183361593
 21
5.9446642326
 31
0.0
  0
LINE
  5
13F
330
1F
100
AcDbEntity
  8
0
  6
Continuous
 62
     7
370
    18
100
AcDbLine
 10
3.8069437559
 20
6.0092213135
 30
0.0
 11
3.8183361593
 21
6.0092213135
 31
0.0
  0
LINE
  5
140
330
1F
100
AcDbEntity
  8
0
  6
Continuous
 62
     7
370
    18
100
AcDbLine
 10
3.8069437559
 20
5.9573225931
 30
0.0
 11
3.8069437559
 21
6.0092213135
 31
0.0
  0
SPLINE
  5
141
330
1F
100
AcDbEntity
  8
0
  6
Continuous
 62
     7
370
    18
100
AcDbSpline
210
0.0
220
0.0
230
1.0
 70
     8
 71
     3
 72
    19
 73
    15
 74
     0
 42
0.000000001
 43
0.00000001
 40
0.0
 40
0.0
 40
0.0
 40
0.0
 40
0.1268557901536785
 40
0.2429673050938626
 40
0.3502951207940193
 40
0.4535893760916809
 40
0.5063470321901717
 40
0.5630340580734982
 40
0.623021516134354
 40
0.688261201551687
 40
0.7577161738094899
 40
0.832772795557718
 40
0.9133861479137406
 40
1.0
 40
1.0
 40
1.0
 40
1.0
 10
3.743514166785546
 20
5.757322528811335
 30
0.0
 10
3.74451291829073
 20
5.757355628701613
 30
0.0
 10
3.746425830278266
 20
5.757419025028498
 30
0.0
 10
3.749132425195413
 20
5.758031299133574
 30
0.0
 10
3.751497327557428
 20
5.759072387635872
 30
0.0
 10
3.753203205323677
 20
5.760280914568598
 30
0.0
 10
3.754370188667293
 20
5.761484754354942
 30
0.0
 10
3.755195426944736
 20
5.762533410252284
 30
0.0
 10
3.755978027382287
 20
5.763733866318024
 30
0.0
 10
3.756677488145769
 20
5.765098328820238
 30
0.0
 10
3.757329761347638
 20
5.766614261426641
 30
0.0
 10
3.757945046059564
 20
5.768275571872919
 30
0.0
 10
3.758493692712067
 20
5.770101563279376
 30
0.0
 10
3.7588146842225
 20
5.771377077415011
 30
0.0
 10
3.758980938937444
 20
5.772037718684752
 30
0.0
  0
SPLINE
  5
142
330
1F
100
AcDbEntity
  8
0
  6
Continuous
 62
     7
370
    18
100
AcDbSpline
210
0.0
220
0.0
230
1.0
 70
     8
 71
     3
 72
    23
 73
    19
 74
     0
 42
0.000000001
 43
0.00000001
 40
0.0
 40
0.0
 40
0.0
 40
0.0
 40
0.0820210942505551
 40
0.1599633972784858
 40
0.2342037896242961
 40
0.3051464968208944
 40
0.3734767162162452
 40
0.4393723058800481
 40
0.5031255476014576
 40
0.5652551831652668
 40
0.6254632584989345
 40
0.6821784966281682
 40
0.736465701292821
 40
0.7890719952109435
 40
0.8410771363906753
 40
0.8925432371722117
 40
0.9454616952505773
 40
0.9999999999999999
 40
0.9999999999999999
 40
0.9999999999999999
 40
0.9999999999999999
 10
3.727196919950103
 20
5.781313826279689
 30
0.0
 10
3.727214962317367
 20
5.780430066779706
 30
0.0
 10
3.727250149830883
 20
5.778706495870467
 30
0.0
 10
3.727440815364917
 20
5.776188358290822
 30
0.0
 10
3.727790086804117
 20
5.77380658935548
 30
0.0
 10
3.728318810533643
 20
5.77156587823147
 30
0.0
 10
3.728933562768549
 20
5.769439966101158
 30
0.0
 10
3.729732382788651
 20
5.767458101405126
 30
0.0
 10
3.730661335199253
 20
5.765609629051246
 30
0.0
 10
3.731727063427998
 20
5.763906651126802
 30
0.0
 10
3.732909567476399
 20
5.76237985328656
 30
0.0
 10
3.734149747521543
 20
5.761008130296077
 30
0.0
 10
3.735510831710749
 20
5.759880397997567
 30
0.0
 10
3.736940066020241
 20
5.758928752792863
 30
0.0
 10
3.738473819979537
 20
5.758224041515948
 30
0.0
 10
3.740078344991339
 20
5.757700467400114
 30
0.0
 10
3.741766898475623
 20
5.757372254543244
 30
0.0
 10
3.742925920161801
 20
5.757339269797102
 30
0.0
 10
3.743514166785546
 20
5.757322528811335
 30
0.0
  0
SPLINE
  5
143
330
1F
100
AcDbEntity
  8
0
  6
Continuous
 62
     7
370
    18
100
AcDbSpline
210
0.0
220
0.0
230
1.0
 70
     8
 71
     3
 72
    15
 73
    11
 74
     0
 42
0.000000001
 43
0.00000001
 40
0.0
 40
0.0
 40
0.0
 40
0.0
 40
0.1056061628530395
 40
0.2181381028586404
 40
0.3389700780630219
 40
0.4687622439174698
 40
0.6025408228832249
 40
0.7351057472044327
 40
0.8674845414082574
 40
0.9999999999999999
 40
0.9999999999999999
 40
0.9999999999999999
 40
0.9999999999999999
 10
3.738589325013394
 20
5.815866832608803
 30
0.0
 10
3.73778015891831
 20
5.814842335846681
 30
0.0
 10
3.73610876065792
 20
5.812726154612206
 30
0.0
 10
3.734001220859463
 20
5.809096259307372
 30
0.0
 10
3.732056395346672
 20
5.805052013858467
 30
0.0
 10
3.730373495414117
 20
5.800608302865617
 30
0.0
 10
3.728946911569871
 20
5.795923695115164
 30
0.0
 10
3.727950116364884
 20
5.791097084184869
 30
0.0
 10
3.7273051469216
 20
5.786223233730079
 30
0.0
 10
3.72723300801325
 20
5.782950858191745
 30
0.0
 10
3.727196919950103
 20
5.781313826279689
 30
0.0
  0
LINE
  5
144
330
1F
100
AcDbEntity
  8
0
  6
Continuous
 62
     7
370
    18
100
AcDbLine
 10
3.7385893264
 20
5.8168162296
 30
0.0
 11
3.7385893264
 21
5.8158668672
 31
0.0
  0
LINE
  5
145
330
1F
100
AcDbEntity
  8
0
  6
Continuous
 62
     7
370
    18
100
AcDbLine
 10
3.7228060945
 20
5.8168162296
 30
0.0
 11
3.7385893264
 21
5.8168162296
 31
0.0
  0
SPLINE
  5
146
330
1F
100
AcDbEntity
  8
0
  6
Continuous
 62
     7
370
    18
100
AcDbSpline
210
0.0
220
0.0
230
1.0
 70
     8
 71
     3
 72
    15
 73
    11
 74
     0
 42
0.000000001
 43
0.00000001
 40
0.0
 40
0.0
 40
0.0
 40
0.0
 40
0.1438134946436331
 40
0.2825302617167643
 40
0.4154724990798222
 40
0.5436416713555701
 40
0.6664829494542228
 40
0.7833339323015198
 40
0.894419168327548
 40
1.0
 40
1.0
 40
1.0
 40
1.0
 10
3.715804514886812
 20
5.781432497165765
 30
0.0
 10
3.715825025558976
 20
5.783173712006947
 30
0.0
 10
3.715865320008318
 20
5.786594433309933
 30
0.0
 10
3.716248869198418
 20
5.791612682651561
 30
0.0
 10
3.716870727405683
 20
5.796415559141131
 30
0.0
 10
3.717772721170841
 20
5.800978086813792
 30
0.0
 10
3.718843101963043
 20
5.80530203606881
 30
0.0
 10
3.720027728029058
 20
5.809380665143228
 30
0.0
 10
3.721318123031308
 20
5.813209162878994
 30
0.0
 10
3.722318577977738
 20
5.815634391748583
 30
0.0
 10
3.722806097165292
 20
5.816816199697411
 30
0.0
  0
SPLINE
  5
147
330
1F
100
AcDbEntity
  8
0
  6
Continuous
 62
     7
370
    18
100
AcDbSpline
210
0.0
220
0.0
230
1.0
 70
     8
 71
     3
 72
    23
 73
    19
 74
     0
 42
0.000000001
 43
0.00000001
 40
0.0
 40
0.0
 40
0.0
 40
0.0
 40
0.0582452992198208
 40
0.1146502711184719
 40
0.1698709516347452
 40
0.224946011350484
 40
0.2801007745228548
 40
0.3368708466591541
 40
0.3955657509705519
 40
0.4571415396651775
 40
0.5202466492306672
 40
0.5837637330318004
 40
0.6479430309164254
 40
0.7137935512154616
 40
0.781459801113755
 40
0.8513868344545835
 40
0.9243835863078271
 40
1.0
 40
1.0
 40
1.0
 40
1.0
 10
3.744819546532381
 20
5.743398478178423
 30
0.0
 10
3.743781974056315
 20
5.74342384467877
 30
0.0
 10
3.741739612401734
 20
5.743473776195662
 30
0.0
 10
3.738756590864878
 20
5.744019239401137
 30
0.0
 10
3.735898015016412
 20
5.744834705556905
 30
0.0
 10
3.733202781615951
 20
5.746040374295722
 30
0.0
 10
3.730635708047366
 20
5.747552024941582
 30
0.0
 10
3.728246346293159
 20
5.749436136357096
 30
0.0
 10
3.725965045201008
 20
5.751618306705663
 30
0.0
 10
3.72390684077495
 20
5.754157223494843
 30
0.0
 10
3.721975488100921
 20
5.75689857554452
 30
0.0
 10
3.720351217787802
 20
5.759886456982175
 30
0.0
 10
3.718925753312389
 20
5.7630254217564
 30
0.0
 10
3.717786699395738
 20
5.766359078859099
 30
0.0
 10
3.716893518182827
 20
5.769871436410404
 30
0.0
 10
3.716274135473587
 20
5.773569834783574
 30
0.0
 10
3.715858717260475
 20
5.777440946808695
 30
0.0
 10
3.715822793425816
 20
5.780086436025662
 30
0.0
 10
3.715804514886812
 20
5.781432497165765
 30
0.0
  0
SPLINE
  5
148
330
1F
100
AcDbEntity
  8
0
  6
Continuous
 62
     7
370
    18
100
AcDbSpline
210
0.0
220
0.0
230
1.0
 70
     8
 71
     3
 72
    23
 73
    19
 74
     0
 42
0.000000001
 43
0.00000001
 40
0.0
 40
0.0
 40
0.0
 40
0.0
 40
0.0791499502567615
 40
0.1546140766155445
 40
0.2256169009595869
 40
0.2928840645579481
 40
0.3569621715611735
 40
0.4184344924285854
 40
0.4772436993821445
 40
0.5340255404783354
 40
0.5899959612172688
 40
0.6453485180220233
 40
0.7008085054014654
 40
0.7572242092549807
 40
0.814700655273931
 40
0.8741882087411968
 40
0.9356318327192047
 40
1.0
 40
1.0
 40
1.0
 40
1.0
 10
3.772588533874153
 20
5.76978297184931
 30
0.0
 10
3.772344332222897
 20
5.768698482041777
 30
0.0
 10
3.77186730080728
 20
5.766580004523513
 30
0.0
 10
3.770955401765444
 20
5.763543227550673
 30
0.0
 10
3.769926579192865
 20
5.760722659299752
 30
0.0
 10
3.768787650106472
 20
5.758116222600044
 30
0.0
 10
3.767489844945769
 20
5.755737463908927
 30
0.0
 10
3.766101401195372
 20
5.753548482159977
 30
0.0
 10
3.764545352826432
 20
5.751603810045767
 30
0.0
 10
3.762874805840986
 20
5.749862937143279
 30
0.0
 10
3.761066480301554
 20
5.74834006624145
 30
0.0
 10
3.759142382502915
 20
5.746997537881143
 30
0.0
 10
3.757066579165767
 20
5.745889214821012
 30
0.0
 10
3.754865755415186
 20
5.744979789530435
 30
0.0
 10
3.752534879703008
 20
5.744264818334038
 30
0.0
 10
3.750079661502517
 20
5.743751311770741
 30
0.0
 10
3.747490469044394
 20
5.743452933881326
 30
0.0
 10
3.745723544978734
 20
5.743416909215115
 30
0.0
 10
3.744819546532381
 20
5.743398478178423
 30
0.0
  0
SPLINE
  5
149
330
1F
100
AcDbEntity
  8
0
  6
Continuous
 62
     7
370
    18
100
AcDbSpline
210
0.0
220
0.0
230
1.0
 70
     8
 71
     3
 72
    11
 73
     7
 74
     0
 42
0.000000001
 43
0.00000001
 40
0.0
 40
0.0
 40
0.0
 40
0.0
 40
0.2264434676696304
 40
0.4676824521770377
 40
0.7260904937101025
 40
0.9999999999999999
 40
0.9999999999999999
 40
0.9999999999999999
 40
0.9999999999999999
 10
3.777078249064027
 20
5.793398478178423
 30
0.0
 10
3.776637210270992
 20
5.791636892327977
 30
0.0
 10
3.775726315793203
 20
5.787998620936287
 30
0.0
 10
3.774822535979107
 20
5.782244965046565
 30
0.0
 10
3.773855517023384
 20
5.776120818555261
 30
0.0
 10
3.77301898175743
 20
5.771936207036982
 30
0.0
 10
3.772588533874153
 20
5.76978297184931
 30
0.0
  0
SPLINE
  5
14A
330
1F
100
AcDbEntity
  8
0
  6
Continuous
 62
     7
370
    18
100
AcDbSpline
210
0.0
220
0.0
230
1.0
 70
     8
 71
     3
 72
    19
 73
    15
 74
     0
 42
0.000000001
 43
0.00000001
 40
0.0
 40
0.0
 40
0.0
 40
0.0
 40
0.0736562739740988
 40
0.1430600969963798
 40
0.2078525317377094
 40
0.2695032834642755
 40
0.3271836325052589
 40
0.3817853495884332
 40
0.4353215285338764
 40
0.4874314464138942
 40
0.5965056784663482
 40
0.716753486828459
 40
0.8506503633059541
 40
1.0
 40
1.0
 40
1.0
 40
1.0
 10
3.791991223747571
 20
5.806689617418929
 30
0.0
 10
3.791450404519137
 20
5.806675102927944
 30
0.0
 10
3.790399989570038
 20
5.806646911921582
 30
0.0
 10
3.788877248362798
 20
5.806519398406611
 30
0.0
 10
3.787458721164245
 20
5.806264281031518
 30
0.0
 10
3.786159531206767
 20
5.805883151755268
 30
0.0
 10
3.784961067972149
 20
5.805435678448907
 30
0.0
 10
3.783875762614154
 20
5.804876218474498
 30
0.0
 10
3.782903977857448
 20
5.804205326920285
 30
0.0
 10
3.78174093635375
 20
5.803135381972383
 30
0.0
 10
3.780432721700119
 20
5.801518453976127
 30
0.0
 10
3.779128144495195
 20
5.79918352447627
 30
0.0
 10
3.777942424462025
 20
5.796459493023953
 30
0.0
 10
3.777376597261927
 20
5.794455263947869
 30
0.0
 10
3.777078249064027
 20
5.793398478178423
 30
0.0
  0
SPLINE
  5
14B
330
1F
100
AcDbEntity
  8
0
  6
Continuous
 62
     7
370
    18
100
AcDbSpline
210
0.0
220
0.0
230
1.0
 70
     8
 71
     3
 72
    23
 73
    19
 74
     0
 42
0.000000001
 43
0.00000001
 40
0.0
 40
0.0
 40
0.0
 40
0.0
 40
0.0854151544129948
 40
0.1659823341365553
 40
0.2425656174833792
 40
0.3148369819696973
 40
0.3832803096291467
 40
0.448899034306316
 40
0.5114550916688614
 40
0.5714779974050703
 40
0.6295665825924379
 40
0.6843880566524376
 40
0.7370366993053412
 40
0.7887815262452736
 40
0.8400607811717772
 40
0.8917690048341216
 40
0.9448771569629713
 40
1.0
 40
1.0
 40
1.0
 40
1.0
 10
3.809475400962761
 20
5.780562244001207
 30
0.0
 10
3.809459165961068
 20
5.781564704055867
 30
0.0
 10
3.809427617420364
 20
5.783512726756223
 30
0.0
 10
3.809213700869216
 20
5.786353755575238
 30
0.0
 10
3.808836614657738
 20
5.789021283558721
 30
0.0
 10
3.808332783673495
 20
5.791523423808293
 30
0.0
 10
3.807658619677711
 20
5.793852485983068
 30
0.0
 10
3.806829572746943
 20
5.796008817295231
 30
0.0
 10
3.805861625618319
 20
5.797997788529879
 30
0.0
 10
3.804750095646252
 20
5.799807031918404
 30
0.0
 10
3.803519426332055
 20
5.801427151994138
 30
0.0
 10
3.802156017694551
 20
5.802816318901702
 30
0.0
 10
3.800729173233815
 20
5.804029760728067
 30
0.0
 10
3.799173910502034
 20
5.804999835595671
 30
0.0
 10
3.797519535486442
 20
5.805762534440524
 30
0.0
 10
3.795760702898338
 20
5.806287729332135
 30
0.0
 10
3.793911141115281
 20
5.806646984681198
 30
0.0
 10
3.792639089171908
 20
5.806675231238989
 30
0.0
 10
3.791991223747571
 20
5.806689617418929
 30
0.0
  0
SPLINE
  5
14C
330
1F
100
AcDbEntity
  8
0
  6
Continuous
 62
     7
370
    18
100
AcDbSpline
210
0.0
220
0.0
230
1.0
 70
     8
 71
     3
 72
    15
 73
    11
 74
     0
 42
0.000000001
 43
0.00000001
 40
0.0
 40
0.0
 40
0.0
 40
0.0
 40
0.1247846984405774
 40
0.2508991582111135
 40
0.3796498944864646
 40
0.5118057263052236
 40
0.6428226368571998
 40
0.7671691836151713
 40
0.8858586764781994
 40
1.0
 40
1.0
 40
1.0
 40
1.0
 10
3.79681717311466
 20
5.744347845267031
 30
0.0
 10
3.797800227423964
 20
5.745641300716255
 30
0.0
 10
3.799776811907178
 20
5.748241995252124
 30
0.0
 10
3.802270461509984
 20
5.752517079642582
 30
0.0
 10
3.804463828002153
 20
5.757054797367736
 30
0.0
 10
3.806240978002654
 20
5.761839719918451
 30
0.0
 10
3.807683014315449
 20
5.766675715253748
 30
0.0
 10
3.808675210215541
 20
5.771442073022941
 30
0.0
 10
3.809367134710869
 20
5.776045720254782
 30
0.0
 10
3.809439785269562
 20
5.779076470537456
 30
0.0
 10
3.809475400962761
 20
5.780562244001207
 30
0.0
  0
LINE
  5
14D
330
1F
100
AcDbEntity
  8
0
  6
Continuous
 62
     7
370
    18
100
AcDbLine
 10
3.7968171721
 20
5.743398531
 30
0.0
 11
3.7968171721
 21
5.7443478934
 31
0.0
  0
LINE
  5
14E
330
1F
100
AcDbEntity
  8
0
  6
Continuous
 62
     7
370
    18
100
AcDbLine
 10
3.8130750851
 20
5.743398531
 30
0.0
 11
3.7968171721
 21
5.743398531
 31
0.0
  0
SPLINE
  5
14F
330
1F
100
AcDbEntity
  8
0
  6
Continuous
 62
     7
370
    18
100
AcDbSpline
210
0.0
220
0.0
230
1.0
 70
     8
 71
     3
 72
    15
 73
    11
 74
     0
 42
0.000000001
 43
0.00000001
 40
0.0
 40
0.0
 40
0.0
 40
0.0
 40
0.1383958837326365
 40
0.2698711435185667
 40
0.3952737389719849
 40
0.5139802029772963
 40
0.6311187908923205
 40
0.7514363167928975
 40
0.8740333432057862
 40
1.0
 40
1.0
 40
1.0
 40
1.0
 10
3.820867806026052
 20
5.780463351596144
 30
0.0
 10
3.820848229674622
 20
5.778702308360885
 30
0.0
 10
3.820810055906703
 20
5.775268284610562
 30
0.0
 10
3.820420303939685
 20
5.770251224959931
 30
0.0
 10
3.819821283100787
 20
5.765508603466118
 30
0.0
 10
3.818962548614629
 20
5.760989951359528
 30
0.0
 10
3.817823300566241
 20
5.756601718572487
 30
0.0
 10
3.816476409811385
 20
5.752222716602196
 30
0.0
 10
3.814924835712412
 20
5.747790802622854
 30
0.0
 10
3.813697215614622
 20
5.744875758832959
 30
0.0
 10
3.813075084507064
 20
5.743398478178423
 30
0.0
  0
SPLINE
  5
150
330
1F
100
AcDbEntity
  8
0
  6
Continuous
 62
     7
370
    18
100
AcDbSpline
210
0.0
220
0.0
230
1.0
 70
     8
 71
     3
 72
    15
 73
    11
 74
     0
 42
0.000000001
 43
0.00000001
 40
0.0
 40
0.0
 40
0.0
 40
0.0
 40
0.1093791882153355
 40
0.2203236072969009
 40
0.3337175929740419
 40
0.4503897936126435
 40
0.5731380580913907
 40
0.7052593508926647
 40
0.8470467802298185
 40
1.0
 40
1.0
 40
1.0
 40
1.0
 10
3.811611476912128
 20
5.810249744001207
 30
0.0
 10
3.812315411732303
 20
5.809326228451907
 30
0.0
 10
3.813733354774425
 20
5.807465981721823
 30
0.0
 10
3.815544026106433
 20
5.804414799649434
 30
0.0
 10
3.817129023367678
 20
5.801159555314031
 30
0.0
 10
3.818494602808125
 20
5.797668991697013
 30
0.0
 10
3.819567952730025
 20
5.79386952334356
 30
0.0
 10
3.820327631398602
 20
5.789725335171065
 30
0.0
 10
3.820780479472694
 20
5.785213650146358
 30
0.0
 10
3.820837971180333
 20
5.782086276341454
 30
0.0
 10
3.820867806026052
 20
5.780463351596144
 30
0.0
  0
SPLINE
  5
151
330
1F
100
AcDbEntity
  8
0
  6
Continuous
 62
     7
370
    18
100
AcDbSpline
210
0.0
220
0.0
230
1.0
 70
     8
 71
     3
 72
    15
 73
    11
 74
     0
 42
0.000000001
 43
0.00000001
 40
0.0
 40
0.0
 40
0.0
 40
0.0
 40
0.1197615539482025
 40
0.2401850677092646
 40
0.3638366197623163
 40
0.4912215773090232
 40
0.6197334566328624
 40
0.7459304366879235
 40
0.872201355561598
 40
1.0
 40
1.0
 40
1.0
 40
1.0
 10
3.790092489570356
 20
5.820613668051841
 30
0.0
 10
3.79107669814438
 20
5.82057589399396
 30
0.0
 10
3.793050555323071
 20
5.820500137089088
 30
0.0
 10
3.796006274331684
 20
5.819991270972399
 30
0.0
 10
3.798940447745232
 20
5.81913047547455
 30
0.0
 10
3.801832299652341
 20
5.817949310999777
 30
0.0
 10
3.80460879514728
 20
5.816466165746385
 30
0.0
 10
3.807168606570176
 20
5.814656375095356
 30
0.0
 10
3.809563455857516
 20
5.812633326613211
 30
0.0
 10
3.8109260720807
 20
5.811047450174537
 30
0.0
 10
3.811611476912128
 20
5.810249744001207
 30
0.0
  0
SPLINE
  5
152
330
1F
100
AcDbEntity
  8
0
  6
Continuous
 62
     7
370
    18
100
AcDbSpline
210
0.0
220
0.0
230
1.0
 70
     8
 71
     3
 72
    23
 73
    19
 74
     0
 42
0.000000001
 43
0.00000001
 40
0.0
 40
0.0
 40
0.0
 40
0.0
 40
0.0751802640443276
 40
0.1466681661253889
 40
0.2151735964824038
 40
0.2799929236097502
 40
0.3423647811992787
 40
0.4018679054792515
 40
0.4598893916558311
 40
0.5153930722442684
 40
0.5699941129345287
 40
0.6254311609484948
 40
0.6818278900074798
 40
0.7398352182710813
 40
0.8001381823285975
 40
0.86355695301555
 40
0.929836080436546
 40
0.9999999999999999
 40
0.9999999999999999
 40
0.9999999999999999
 40
0.9999999999999999
 10
3.76408378703871
 20
5.797947528811335
 30
0.0
 10
3.764337016162664
 20
5.798860566546164
 30
0.0
 10
3.764831037455246
 20
5.800641799584822
 30
0.0
 10
3.765731420884832
 20
5.80320094148749
 30
0.0
 10
3.766706589272614
 20
5.805591805182228
 30
0.0
 10
3.767803708495488
 20
5.807802559997954
 30
0.0
 10
3.768987519131064
 20
5.809836913811795
 30
0.0
 10
3.770256146826171
 20
5.811718296128428
 30
0.0
 10
3.771635056709056
 20
5.813410457383651
 30
0.0
 10
3.77310871340502
 20
5.814936865639571
 30
0.0
 10
3.774711809165868
 20
5.816276541392147
 30
0.0
 10
3.7764519217783
 20
5.817456647024299
 30
0.0
 10
3.77837120619791
 20
5.818411907799438
 30
0.0
 10
3.780413626828433
 20
5.819242779154912
 30
0.0
 10
3.782629155816527
 20
5.819837117997804
 30
0.0
 10
3.784979631791175
 20
5.820302217714594
 30
0.0
 10
3.787489721462405
 20
5.820549376087796
 30
0.0
 10
3.789208587080426
 20
5.820591834440568
 30
0.0
 10
3.790092489570356
 20
5.820613668051841
 30
0.0
  0
SPLINE
  5
153
330
1F
100
AcDbEntity
  8
0
  6
Continuous
 62
     7
370
    18
100
AcDbSpline
210
0.0
220
0.0
230
1.0
 70
     8
 71
     3
 72
    15
 73
    11
 74
     0
 42
0.000000001
 43
0.00000001
 40
0.0
 40
0.0
 40
0.0
 40
0.0
 40
0.0932522757446018
 40
0.2030993956824899
 40
0.3310220287518755
 40
0.4761623696350863
 40
0.6236442366317557
 40
0.7602181748482566
 40
0.8859457340725881
 40
0.9999999999999999
 40
0.9999999999999999
 40
0.9999999999999999
 40
0.9999999999999999
 10
3.758980938937444
 20
5.772037718684752
 30
0.0
 10
3.759147419721262
 20
5.772841710216302
 30
0.0
 10
3.759510007618621
 20
5.774592768760317
 30
0.0
 10
3.760062468483315
 20
5.777454467538123
 30
0.0
 10
3.760678116399706
 20
5.780769197246832
 30
0.0
 10
3.761297417052761
 20
5.784419756408226
 30
0.0
 10
3.761935731663083
 20
5.78814445159011
 30
0.0
 10
3.762628312979923
 20
5.791685589104541
 30
0.0
 10
3.763333686528243
 20
5.79492370380933
 30
0.0
 10
3.763842002310554
 20
5.796972839825129
 30
0.0
 10
3.76408378703871
 20
5.797947528811335
 30
0.0
  0
SPLINE
  5
154
330
1F
100
AcDbEntity
  8
0
  6
Continuous
 62
     7
370
    18
100
AcDbSpline
210
0.0
220
0.0
230
1.0
 70
     8
 71
     3
 72
    15
 73
    11
 74
     0
 42
0.000000001
 43
0.00000001
 40
0.0
 40
0.0
 40
0.0
 40
0.0
 40
0.181121715462211
 40
0.3459404163119382
 40
0.4944611274697541
 40
0.6281421297081122
 40
0.7439524053542141
 40
0.845088605353415
 40
0.9313535774267372
 40
1.0
 40
1.0
 40
1.0
 40
1.0
 10
2.416795981885004
 20
6.537542069950575
 30
0.0
 10
2.416915917756047
 20
6.536627008837421
 30
0.0
 10
2.417144993905494
 20
6.534879252519922
 30
0.0
 10
2.417458523346216
 20
6.532379304147234
 30
0.0
 10
2.417725302050811
 20
6.53011730975788
 30
0.0
 10
2.417959388678963
 20
6.5281025495415
 30
0.0
 10
2.418100976582968
 20
6.526321450833475
 30
0.0
 10
2.418253060743718
 20
6.5247837484575
 30
0.0
 10
2.418317477375391
 20
6.523480155458587
 30
0.0
 10
2.418330423566119
 20
6.522690915658286
 30
0.0
 10
2.418336160456432
 20
6.522341177093431
 30
0.0
  0
SPLINE
  5
155
330
1F
100
AcDbEntity
  8
0
  6
Continuous
 62
     7
370
    18
100
AcDbSpline
210
0.0
220
0.0
230
1.0
 70
     8
 71
     3
 72
    11
 73
     7
 74
     0
 42
0.000000001
 43
0.00000001
 40
0.0
 40
0.0
 40
0.0
 40
0.0
 40
0.199246299238664
 40
0.4302184512389934
 40
0.6961393311169215
 40
1.0
 40
1.0
 40
1.0
 40
1.0
 10
2.413090624742146
 20
6.55042153423629
 30
0.0
 10
2.413507350548566
 20
6.549627606680591
 30
0.0
 10
2.414407157128232
 20
6.54791333502429
 30
0.0
 10
2.415356619608558
 20
6.544921199043248
 30
0.0
 10
2.416218836452046
 20
6.541427025305453
 30
0.0
 10
2.416595245480833
 20
6.538893292577954
 30
0.0
 10
2.416795981885004
 20
6.537542069950575
 30
0.0
  0
SPLINE
  5
156
330
1F
100
AcDbEntity
  8
0
  6
Continuous
 62
     7
370
    18
100
AcDbSpline
210
0.0
220
0.0
230
1.0
 70
     8
 71
     3
 72
    15
 73
    11
 74
     0
 42
0.000000001
 43
0.00000001
 40
0.0
 40
0.0
 40
0.0
 40
0.0
 40
0.1336086910400767
 40
0.2614294035898538
 40
0.3870985152823013
 40
0.511712756449739
 40
0.635231864144396
 40
0.7564036483050907
 40
0.8774478999645483
 40
1.0
 40
1.0
 40
1.0
 40
1.0
 10
2.386237946170718
 20
6.565242962807718
 30
0.0
 10
2.387669735960901
 20
6.565197872740804
 30
0.0
 10
2.390471289871802
 20
6.565109645925544
 30
0.0
 10
2.394564816035891
 20
6.564353913195239
 30
0.0
 10
2.398424018117618
 20
6.563094263079104
 30
0.0
 10
2.402051759384461
 20
6.561375443127864
 30
0.0
 10
2.405380975898183
 20
6.559215022915288
 30
0.0
 10
2.40834338860705
 20
6.556639083822464
 30
0.0
 10
2.410979618306664
 20
6.553733353718126
 30
0.0
 10
2.412384058127884
 20
6.551530020235669
 30
0.0
 10
2.413090624742146
 20
6.55042153423629
 30
0.0
  0
SPLINE
  5
157
330
1F
100
AcDbEntity
  8
0
  6
Continuous
 62
     7
370
    18
100
AcDbSpline
210
0.0
220
0.0
230
1.0
 70
     8
 71
     3
 72
    23
 73
    19
 74
     0
 42
0.000000001
 43
0.00000001
 40
0.0
 40
0.0
 40
0.0
 40
0.0
 40
0.0770529820372235
 40
0.1496028739968144
 40
0.2188364121955014
 40
0.2846882235701749
 40
0.3477731039398438
 40
0.4085523150388199
 40
0.467541230717949
 40
0.5249307513558664
 40
0.5816244541458819
 40
0.6382779077156858
 40
0.6947593090219812
 40
0.7525291417354679
 40
0.8115412545072789
 40
0.8722177958316466
 40
0.9348866848745476
 40
1.0
 40
1.0
 40
1.0
 40
1.0
 10
2.35829151759929
 20
6.541068855664861
 30
0.0
 10
2.358548449814562
 20
6.542076292740608
 30
0.0
 10
2.359047298746957
 20
6.544032290781409
 30
0.0
 10
2.359957731975065
 20
6.546844312319631
 30
0.0
 10
2.361038232932614
 20
6.549431300288555
 30
0.0
 10
2.362213933798385
 20
6.55183489834014
 30
0.0
 10
2.363533423546606
 20
6.554032429562175
 30
0.0
 10
2.364988642772773
 20
6.556027930157855
 30
0.0
 10
2.366569114125859
 20
6.557827706413295
 30
0.0
 10
2.368310103602345
 20
6.559389010247001
 30
0.0
 10
2.370140305869367
 20
6.560794049689955
 30
0.0
 10
2.372115170775601
 20
6.561963884130026
 30
0.0
 10
2.374184669988293
 20
6.56298644310831
 30
0.0
 10
2.37637771035466
 20
6.563806686025471
 30
0.0
 10
2.378685252787291
 20
6.564453938016843
 30
0.0
 10
2.381102703843087
 20
6.564926036297635
 30
0.0
 10
2.383635157978038
 20
6.565192574266907
 30
0.0
 10
2.385359355686008
 20
6.565225953781544
 30
0.0
 10
2.386237946170718
 20
6.565242962807718
 30
0.0
  0
SPLINE
  5
158
330
1F
100
AcDbEntity
  8
0
  6
Continuous
 62
     7
370
    18
100
AcDbSpline
210
0.0
220
0.0
230
1.0
 70
     8
 71
     3
 72
    11
 73
     7
 74
     0
 42
0.000000001
 43
0.00000001
 40
0.0
 40
0.0
 40
0.0
 40
0.0
 40
0.2210937827175673
 40
0.4585205965141223
 40
0.7177054345345529
 40
1.0
 40
1.0
 40
1.0
 40
1.0
 10
2.351148660456432
 20
6.553278677093432
 30
0.0
 10
2.351889496118833
 20
6.552526823694851
 30
0.0
 10
2.353425895766383
 20
6.550967574653241
 30
0.0
 10
2.355294553131126
 20
6.548083505458768
 30
0.0
 10
2.356985887347194
 20
6.544773786660333
 30
0.0
 10
2.357844098357403
 20
6.542338478067202
 30
0.0
 10
2.35829151759929
 20
6.541068855664861
 30
0.0
  0
SPLINE
  5
159
330
1F
100
AcDbEntity
  8
0
  6
Continuous
 62
     7
370
    18
100
AcDbSpline
210
0.0
220
0.0
230
1.0
 70
     8
 71
     3
 72
    15
 73
    11
 74
     0
 42
0.000000001
 43
0.00000001
 40
0.0
 40
0.0
 40
0.0
 40
0.0
 40
0.1303794144372027
 40
0.2568733235189986
 40
0.3812024309356903
 40
0.5040075284668414
 40
0.6257344667330107
 40
0.7486417528381444
 40
0.8720014794784343
 40
1.0
 40
1.0
 40
1.0
 40
1.0
 10
2.334920981885004
 20
6.559528677093432
 30
0.0
 10
2.33569628112725
 20
6.559517210315993
 30
0.0
 10
2.337223774512132
 20
6.559494618488564
 30
0.0
 10
2.33946484472114
 20
6.559144927357932
 30
0.0
 10
2.341643708784511
 20
6.558708180468903
 30
0.0
 10
2.343718909063444
 20
6.557992418208034
 30
0.0
 10
2.345730404397314
 20
6.557135539235994
 30
0.0
 10
2.347613030873975
 20
6.556018242498134
 30
0.0
 10
2.349459632644695
 20
6.554773757602613
 30
0.0
 10
2.35057876667981
 20
6.553783131236703
 30
0.0
 10
2.351148660456432
 20
6.553278677093432
 30
0.0
  0
SPLINE
  5
15A
330
1F
100
AcDbEntity
  8
0
  6
Continuous
 62
     7
370
    18
100
AcDbSpline
210
0.0
220
0.0
230
1.0
 70
     8
 71
     3
 72
    23
 73
    19
 74
     0
 42
0.000000001
 43
0.00000001
 40
0.0
 40
0.0
 40
0.0
 40
0.0
 40
0.0811074185812845
 40
0.1573694985041465
 40
0.2296730571290377
 40
0.2985055073226714
 40
0.3638252639458484
 40
0.4268548726326583
 40
0.4883121292529101
 40
0.548675103888766
 40
0.60766992775918
 40
0.6642816829790802
 40
0.7201049984391319
 40
0.7747049934522207
 40
0.8297649011833459
 40
0.8847541480815958
 40
0.941483517878181
 40
0.9999999999999999
 40
0.9999999999999999
 40
0.9999999999999999
 40
0.9999999999999999
 10
2.308336160456432
 20
6.526872427093433
 30
0.0
 10
2.30835441169416
 20
6.528153091907159
 30
0.0
 10
2.308389823844843
 20
6.530637914911186
 30
0.0
 10
2.308753873841867
 20
6.534249509636774
 30
0.0
 10
2.309347047347987
 20
6.537633126459549
 30
0.0
 10
2.310195018683122
 20
6.540784272692601
 30
0.0
 10
2.311263716877307
 20
6.543712539508978
 30
0.0
 10
2.312584225555252
 20
6.546408841349149
 30
0.0
 10
2.314154256328705
 20
6.548875438472122
 30
0.0
 10
2.315941636358112
 20
6.551107372788777
 30
0.0
 10
2.317895836974421
 20
6.553088790354172
 30
0.0
 10
2.319995475754327
 20
6.554803621548385
 30
0.0
 10
2.322202182842294
 20
6.556255939382122
 30
0.0
 10
2.324529509651923
 20
6.557451589552375
 30
0.0
 10
2.326957006747763
 20
6.558398194839051
 30
0.0
 10
2.329515821224148
 20
6.559036414390707
 30
0.0
 10
2.332176421959447
 20
6.559456452925526
 30
0.0
 10
2.333996719485427
 20
6.559504354766885
 30
0.0
 10
2.334920981885004
 20
6.559528677093432
 30
0.0
  0
LINE
  5
15B
330
1F
100
AcDbEntity
  8
0
  6
Continuous
 62
     7
370
    18
100
AcDbLine
 10
2.3083361563
 20
6.463814382
 30
0.0
 11
2.3083361563
 21
6.5268724003
 31
0.0
  0
LINE
  5
15C
330
1F
100
AcDbEntity
  8
0
  6
Continuous
 62
     7
370
    18
100
AcDbLine
 10
2.4183362056
 20
6.463814382
 30
0.0
 11
2.3083361563
 21
6.463814382
 31
0.0
  0
LINE
  5
15D
330
1F
100
AcDbEntity
  8
0
  6
Continuous
 62
     7
370
    18
100
AcDbLine
 10
2.4183362056
 20
6.5223411859
 30
0.0
 11
2.4183362056
 21
6.463814382
 31
0.0
  0
LINE
  5
15E
330
1F
100
AcDbEntity
  8
0
  6
Continuous
 62
     7
370
    18
100
AcDbLine
 10
2.3911933591
 20
6.3281000765
 30
0.0
 11
2.4183362056
 21
6.3281000765
 31
0.0
  0
LINE
  5
15F
330
1F
100
AcDbEntity
  8
0
  6
Continuous
 62
     7
370
    18
100
AcDbLine
 10
2.3911933591
 20
6.2752429738
 30
0.0
 11
2.3911933591
 21
6.3281000765
 31
0.0
  0
LINE
  5
160
330
1F
100
AcDbEntity
  8
0
  6
Continuous
 62
     7
370
    18
100
AcDbLine
 10
2.3083361563
 20
6.2752429738
 30
0.0
 11
2.3911933591
 21
6.2752429738
 31
0.0
  0
LINE
  5
161
330
1F
100
AcDbEntity
  8
0
  6
Continuous
 62
     7
370
    18
100
AcDbLine
 10
2.3083361563
 20
6.2409572498
 30
0.0
 11
2.3083361563
 21
6.2752429738
 31
0.0
  0
LINE
  5
162
330
1F
100
AcDbEntity
  8
0
  6
Continuous
 62
     7
370
    18
100
AcDbLine
 10
2.4183362056
 20
6.2409572498
 30
0.0
 11
2.3083361563
 21
6.2409572498
 31
0.0
  0
LINE
  5
163
330
1F
100
AcDbEntity
  8
0
  6
Continuous
 62
     7
370
    18
100
AcDbLine
 10
2.4183362056
 20
6.3281000765
 30
0.0
 11
2.4183362056
 21
6.2409572498
 31
0.0
  0
SPLINE
  5
164
330
1F
100
AcDbEntity
  8
0
  6
Continuous
 62
     7
370
    18
100
AcDbSpline
210
0.0
220
0.0
230
1.0
 70
     8
 71
     3
 72
    23
 73
    19
 74
     0
 42
0.000000001
 43
0.00000001
 40
0.0
 40
0.0
 40
0.0
 40
0.0
 40
0.0735115095740013
 40
0.1432221177219807
 40
0.2092916961190118
 40
0.2725106681322082
 40
0.3331518799039433
 40
0.3919658922554327
 40
0.4495599688739264
 40
0.5070249541631343
 40
0.5640829271493869
 40
0.6210985565505993
 40
0.6787361231414833
 40
0.7377484485823773
 40
0.7989190368882241
 40
0.8626265498653962
 40
0.9294354199091354
 40
1.0
 40
1.0
 40
1.0
 40
1.0
 10
2.306907589027861
 20
6.045064391379147
 30
0.0
 10
2.306945841377616
 20
6.047291088037812
 30
0.0
 10
2.307020368245198
 20
6.051629350342949
 30
0.0
 10
2.307730877916093
 20
6.057935703608344
 30
0.0
 10
2.308848642835522
 20
6.063863681296441
 30
0.0
 10
2.31045834593316
 20
6.069394361608506
 30
0.0
 10
2.312505372153987
 20
6.074543734291437
 30
0.0
 10
2.31504164461895
 20
6.079280097869356
 30
0.0
 10
2.318030222006164
 20
6.083627731156607
 30
0.0
 10
2.32146924908592
 20
6.087560685612659
 30
0.0
 10
2.325331383929368
 20
6.091048765349925
 30
0.0
 10
2.32954272466466
 20
6.094118853041977
 30
0.0
 10
2.334161473801533
 20
6.09665762584404
 30
0.0
 10
2.339122637979162
 20
6.098772604195252
 30
0.0
 10
2.3444604605603
 20
6.100396278449517
 30
0.0
 10
2.350157454791451
 20
6.101536883775212
 30
0.0
 10
2.356210915646425
 20
6.102280037848745
 30
0.0
 10
2.360372557989765
 20
6.102349922382493
 30
0.0
 10
2.362510267599289
 20
6.102385819950575
 30
0.0
  0
SPLINE
  5
165
330
1F
100
AcDbEntity
  8
0
  6
Continuous
 62
     7
370
    18
100
AcDbSpline
210
0.0
220
0.0
230
1.0
 70
     8
 71
     3
 72
    23
 73
    19
 74
     0
 42
0.000000001
 43
0.00000001
 40
0.0
 40
0.0
 40
0.0
 40
0.0
 40
0.0713420303141174
 40
0.1388966267789096
 40
0.2034230593341568
 40
0.265348493103818
 40
0.3249568208932159
 40
0.3833027457478317
 40
0.4410868861594916
 40
0.4988481713854597
 40
0.5566489280740683
 40
0.6144912045717039
 40
0.673030199160018
 40
0.7329954046178851
 40
0.7953900942068004
 40
0.8601078514537183
 40
0.9281771174286626
 40
1.0
 40
1.0
 40
1.0
 40
1.0
 10
2.363403124742146
 20
5.98810010566486
 30
0.0
 10
2.361236240530898
 20
5.988149029898557
 30
0.0
 10
2.35701750851223
 20
5.988244281056933
 30
0.0
 10
2.350867309612651
 20
5.988932053524606
 30
0.0
 10
2.345090300094601
 20
5.990123172638146
 30
0.0
 10
2.339661454600099
 20
5.991726036474181
 30
0.0
 10
2.334623630276241
 20
5.993869161950313
 30
0.0
 10
2.329949902000997
 20
5.996467231575092
 30
0.0
 10
2.325639601132521
 20
5.999538598477889
 30
0.0
 10
2.321721908518089
 20
6.003073989465294
 30
0.0
 10
2.31824244515592
 20
6.007040395904484
 30
0.0
 10
2.315172797623305
 20
6.011363400439866
 30
0.0
 10
2.312635786483269
 20
6.016093261384229
 30
0.0
 10
2.310516082957572
 20
6.02117148663416
 30
0.0
 10
2.308901477052328
 20
6.026630273990627
 30
0.0
 10
2.307754007786437
 20
6.03245145836437
 30
0.0
 10
2.307014129008044
 20
6.0386316563658
 30
0.0
 10
2.306943731990623
 20
6.042882129831455
 30
0.0
 10
2.306907589027861
 20
6.045064391379147
 30
0.0
  0
SPLINE
  5
166
330
1F
100
AcDbEntity
  8
0
  6
Continuous
 62
     7
370
    18
100
AcDbSpline
210
0.0
220
0.0
230
1.0
 70
     8
 71
     3
 72
    31
 73
    27
 74
     0
 42
0.000000001
 43
0.00000001
 40
0.0
 40
0.0
 40
0.0
 40
0.0
 40
0.0492701428602612
 40
0.0966876476456358
 40
0.1418871486887174
 40
0.1854362138468715
 40
0.226976040621912
 40
0.266878459838658
 40
0.3055218280675799
 40
0.3427158630011425
 40
0.3793348036730442
 40
0.4155792226076416
 40
0.4519937739273488
 40
0.488611918422821
 40
0.5256645903810561
 40
0.5631708577382774
 40
0.6016622810715189
 40
0.6411844098763946
 40
0.6815972139987105
 40
0.722787451027943
 40
0.7651012293870452
 40
0.8089199259804598
 40
0.853767160564051
 40
0.9005863269080389
 40
0.9492761110256227
 40
1.0
 40
1.0
 40
1.0
 40
1.0
 10
2.419764731885004
 20
6.046403677093432
 30
0.0
 10
2.419747525908313
 20
6.044885485076299
 30
0.0
 10
2.419713760927837
 20
6.041906187548641
 30
0.0
 10
2.419451340515275
 20
6.037539806659529
 30
0.0
 10
2.418977110021644
 20
6.033369423904927
 30
0.0
 10
2.418339277022378
 20
6.029404211300673
 30
0.0
 10
2.417514709744723
 20
6.025639710982587
 30
0.0
 10
2.416505526350959
 20
6.022077996443766
 30
0.0
 10
2.415339964880996
 20
6.018704244765808
 30
0.0
 10
2.413937652673601
 20
6.01553166130863
 30
0.0
 10
2.412352178973104
 20
6.012530721423144
 30
0.0
 10
2.410555805482586
 20
6.009679059765019
 30
0.0
 10
2.408548251379487
 20
6.006970962120573
 30
0.0
 10
2.406299937909765
 20
6.004426839012539
 30
0.0
 10
2.403869148403646
 20
6.002009164329544
 30
0.0
 10
2.401216209121059
 20
5.999747034103331
 30
0.0
 10
2.398357391187938
 20
5.997621390167211
 30
0.0
 10
2.395274387468675
 20
5.995664523633462
 30
0.0
 10
2.392000564947153
 20
5.993864339929893
 30
0.0
 10
2.388498338993407
 20
5.992332888647066
 30
0.0
 10
2.384803590896431
 20
5.991004025166031
 30
0.0
 10
2.380904642896654
 20
5.989946520678815
 30
0.0
 10
2.376810180651637
 20
5.989119179981604
 30
0.0
 10
2.372524833922034
 20
5.988519970375537
 30
0.0
 10
2.368030015907875
 20
5.988156261557469
 30
0.0
 10
2.364966317260773
 20
5.988119077900873
 30
0.0
 10
2.363403124742146
 20
5.98810010566486
 30
0.0
  0
SPLINE
  5
167
330
1F
100
AcDbEntity
  8
0
  6
Continuous
 62
     7
370
    18
100
AcDbSpline
210
0.0
220
0.0
230
1.0
 70
     8
 71
     3
 72
    31
 73
    27
 74
     0
 42
0.000000001
 43
0.00000001
 40
0.0
 40
0.0
 40
0.0
 40
0.0
 40
0.0511288776872162
 40
0.1001452582466076
 40
0.146951983782985
 40
0.1919048813547139
 40
0.2349109275407064
 40
0.2761411242081001
 40
0.316017351372875
 40
0.3545222933075385
 40
0.3921075298835158
 40
0.4292791182455698
 40
0.4660234513800403
 40
0.5028912897638292
 40
0.5395680069789489
 40
0.5766171026731969
 40
0.614003687339557
 40
0.6521716265419798
 40
0.6909990953926576
 40
0.7309202957602574
 40
0.7719096992980896
 40
0.8140843609990474
 40
0.8578780319780748
 40
0.903501846270117
 40
0.9508270668146277
 40
1.0
 40
1.0
 40
1.0
 40
1.0
 10
2.362510267599289
 20
6.102385819950575
 30
0.0
 10
2.364065681282386
 20
6.102360915846281
 30
0.0
 10
2.367112243460554
 20
6.102312136603145
 30
0.0
 10
2.371576751996112
 20
6.102032857391077
 30
0.0
 10
2.375830323427902
 20
6.101514772387046
 30
0.0
 10
2.37987105655128
 20
6.100808224023356
 30
0.0
 10
2.383697081407416
 20
6.099896637902112
 30
0.0
 10
2.387306461078543
 20
6.09877820355162
 30
0.0
 10
2.390704244541511
 20
6.097466939452408
 30
0.0
 10
2.393891904736166
 20
6.095945459199892
 30
0.0
 10
2.396871590539842
 20
6.094208886888176
 30
0.0
 10
2.399689739751797
 20
6.092316328911973
 30
0.0
 10
2.402341049720625
 20
6.090229328536132
 30
0.0
 10
2.404807823895363
 20
6.087951201635905
 30
0.0
 10
2.407131545666356
 20
6.085512875667142
 30
0.0
 10
2.40923742877712
 20
6.082864663888872
 30
0.0
 10
2.411222969998902
 20
6.080070157666112
 30
0.0
 10
2.413003620822245
 20
6.077075974067452
 30
0.0
 10
2.414597210327682
 20
6.073892357093391
 30
0.0
 10
2.415974164114735
 20
6.070516439715812
 30
0.0
 10
2.417161937404869
 20
6.06696231898492
 30
0.0
 10
2.418123030931822
 20
6.063217767713307
 30
0.0
 10
2.41884908451481
 20
6.059278243637348
 30
0.0
 10
2.419386307611256
 20
6.055151060507264
 30
0.0
 10
2.419697166608776
 20
6.050835546998402
 30
0.0
 10
2.419741924457092
 20
6.047899705216365
 30
0.0
 10
2.419764731885004
 20
6.046403677093432
 30
0.0
  0
LINE
  5
168
330
1F
100
AcDbEntity
  8
0
  6
Continuous
 62
     7
370
    18
100
AcDbLine
 10
2.4183362056
 20
5.7795287136
 30
0.0
 11
2.3340504859
 21
5.7795287136
 31
0.0
  0
LINE
  5
169
330
1F
100
AcDbEntity
  8
0
  6
Continuous
 62
     7
370
    18
100
AcDbLine
 10
2.4183362056
 20
5.8138144376
 30
0.0
 11
2.4183362056
 21
5.7795287136
 31
0.0
  0
LINE
  5
16A
330
1F
100
AcDbEntity
  8
0
  6
Continuous
 62
     7
370
    18
100
AcDbLine
 10
2.3340504859
 20
5.8138144376
 30
0.0
 11
2.4183362056
 21
5.8138144376
 31
0.0
  0
LINE
  5
16B
330
1F
100
AcDbEntity
  8
0
  6
Continuous
 62
     7
370
    18
100
AcDbLine
 10
2.3340504859
 20
5.8481001615
 30
0.0
 11
2.3340504859
 21
5.8138144376
 31
0.0
  0
LINE
  5
16C
330
1F
100
AcDbEntity
  8
0
  6
Continuous
 62
     7
370
    18
100
AcDbLine
 10
2.3083361563
 20
5.8481001615
 30
0.0
 11
2.3340504859
 21
5.8481001615
 31
0.0
  0
LINE
  5
16D
330
1F
100
AcDbEntity
  8
0
  6
Continuous
 62
     7
370
    18
100
AcDbLine
 10
2.3083361563
 20
5.7452429897
 30
0.0
 11
2.3083361563
 21
5.8481001615
 31
0.0
  0
LINE
  5
16E
330
1F
100
AcDbEntity
  8
0
  6
Continuous
 62
     7
370
    18
100
AcDbLine
 10
2.3340504859
 20
5.7452429897
 30
0.0
 11
2.3083361563
 21
5.7452429897
 31
0.0
  0
LINE
  5
16F
330
1F
100
AcDbEntity
  8
0
  6
Continuous
 62
     7
370
    18
100
AcDbLine
 10
2.3340504859
 20
5.7795287136
 30
0.0
 11
2.3340504859
 21
5.7452429897
 31
0.0
  0
CIRCLE
  5
170
330
1F
100
AcDbEntity
  8
0
  6
Continuous
 62
     7
370
    18
100
AcDbCircle
 10
2.3183361605
 20
7.33838582
 30
0.0
 40
0.1275000000000004
  0
CIRCLE
  5
171
330
1F
100
AcDbEntity
  8
0
  6
Continuous
 62
     7
370
    18
100
AcDbCircle
 10
3.8183361605
 20
7.33838582
 30
0.0
 40
0.1275000000000004
  0
LINE
  5
172
330
1F
100
AcDbEntity
  8
0
  6
Continuous
 62
     7
370
    18
100
AcDbLine
 10
4.0183361606
 20
5.5073858441
 30
0.0
 11
4.0183361606
 21
7.50738582
 31
0.0
  0
LINE
  5
173
330
1F
100
AcDbEntity
  8
0
  6
Continuous
 62
     7
370
    18
100
AcDbLine
 10
4.0183361606
 20
5.5073858441
 30
0.0
 11
2.1183362312
 21
5.5073858441
 31
0.0
  0
LINE
  5
174
330
1F
100
AcDbEntity
  8
0
  6
Continuous
 62
     7
370
    18
100
AcDbLine
 10
2.1183362312
 20
5.5073858441
 30
0.0
 11
2.1183362312
 21
7.50738582
 31
0.0
  0
LINE
  5
175
330
1F
100
AcDbEntity
  8
0
  6
Continuous
 62
     7
370
    18
100
AcDbLine
 10
4.0183361606
 20
7.50738582
 30
0.0
 11
2.1183362312
 21
7.50738582
 31
0.0
  0
LINE
  5
176
330
1F
100
AcDbEntity
  8
0
  6
Continuous
 62
     7
370
    18
100
AcDbLine
 10
2.3740504238
 20
5.8981001572
 30
0.0
 11
2.4183362056
 21
5.8981001572
 31
0.0
  0
LINE
  5
177
330
1F
100
AcDbEntity
  8
0
  6
Continuous
 62
     7
370
    18
100
AcDbLine
 10
2.3740504238
 20
5.9352429148
 30
0.0
 11
2.3740504238
 21
5.8981001572
 31
0.0
  0
LINE
  5
178
330
1F
100
AcDbEntity
  8
0
  6
Continuous
 62
     7
370
    18
100
AcDbLine
 10
2.4183362056
 20
5.9352429148
 30
0.0
 11
2.3740504238
 21
5.9352429148
 31
0.0
  0
LINE
  5
179
330
1F
100
AcDbEntity
  8
0
  6
Continuous
 62
     7
370
    18
100
AcDbLine
 10
2.4183362056
 20
5.9695286387
 30
0.0
 11
2.4183362056
 21
5.9352429148
 31
0.0
  0
LINE
  5
17A
330
1F
100
AcDbEntity
  8
0
  6
Continuous
 62
     7
370
    18
100
AcDbLine
 10
2.3083361563
 20
5.9695286387
 30
0.0
 11
2.4183362056
 21
5.9695286387
 31
0.0
  0
LINE
  5
17B
330
1F
100
AcDbEntity
  8
0
  6
Continuous
 62
     7
370
    18
100
AcDbLine
 10
2.3083361563
 20
5.9352429148
 30
0.0
 11
2.3083361563
 21
5.9695286387
 31
0.0
  0
LINE
  5
17C
330
1F
100
AcDbEntity
  8
0
  6
Continuous
 62
     7
370
    18
100
AcDbLine
 10
2.3469075774
 20
5.9352429148
 30
0.0
 11
2.3083361563
 21
5.9352429148
 31
0.0
  0
LINE
  5
17D
330
1F
100
AcDbEntity
  8
0
  6
Continuous
 62
     7
370
    18
100
AcDbLine
 10
2.3469075774
 20
5.8981001572
 30
0.0
 11
2.3469075774
 21
5.9352429148
 31
0.0
  0
LINE
  5
17E
330
1F
100
AcDbEntity
  8
0
  6
Continuous
 62
     7
370
    18
100
AcDbLine
 10
2.3083361563
 20
5.8981001572
 30
0.0
 11
2.3469075774
 21
5.8981001572
 31
0.0
  0
LINE
  5
17F
330
1F
100
AcDbEntity
  8
0
  6
Continuous
 62
     7
370
    18
100
AcDbLine
 10
2.3083361563
 20
5.8638144333
 30
0.0
 11
2.3083361563
 21
5.8981001572
 31
0.0
  0
LINE
  5
180
330
1F
100
AcDbEntity
  8
0
  6
Continuous
 62
     7
370
    18
100
AcDbLine
 10
2.4183362056
 20
5.8638144333
 30
0.0
 11
2.3083361563
 21
5.8638144333
 31
0.0
  0
LINE
  5
181
330
1F
100
AcDbEntity
  8
0
  6
Continuous
 62
     7
370
    18
100
AcDbLine
 10
2.4183362056
 20
5.8981001572
 30
0.0
 11
2.4183362056
 21
5.8638144333
 31
0.0
  0
LINE
  5
182
330
1F
100
AcDbEntity
  8
0
  6
Continuous
 62
     7
370
    18
100
AcDbLine
 10
2.3740504238
 20
6.1582563919
 30
0.0
 11
2.3740504238
 21
6.1552430134
 31
0.0
  0
SPLINE
  5
183
330
1F
100
AcDbEntity
  8
0
  6
Continuous
 62
     7
370
    18
100
AcDbSpline
210
0.0
220
0.0
230
1.0
 70
     8
 71
     3
 72
    11
 73
     7
 74
     0
 42
0.000000001
 43
0.00000001
 40
0.0
 40
0.0
 40
0.0
 40
0.0
 40
0.2474554123965872
 40
0.4942802001711819
 40
0.7421337505070476
 40
1.0
 40
1.0
 40
1.0
 40
1.0
 10
2.376572767599289
 20
6.166604569950575
 30
0.0
 10
2.376188603045826
 20
6.165982381017043
 30
0.0
 10
2.375421252958207
 20
6.164739588759512
 30
0.0
 10
2.374621022832946
 20
6.162689371587026
 30
0.0
 10
2.374135342953534
 20
6.160511310761329
 30
0.0
 10
2.374079116174574
 20
6.159017863570902
 30
0.0
 10
2.374050446170718
 20
6.158256355664861
 30
0.0
  0
SPLINE
  5
184
330
1F
100
AcDbEntity
  8
0
  6
Continuous
 62
     7
370
    18
100
AcDbSpline
210
0.0
220
0.0
230
1.0
 70
     8
 71
     3
 72
    11
 73
     7
 74
     0
 42
0.000000001
 43
0.00000001
 40
0.0
 40
0.0
 40
0.0
 40
0.0
 40
0.3227851022363419
 40
0.5969884368428019
 40
0.8207870126180478
 40
1.0
 40
1.0
 40
1.0
 40
1.0
 10
2.384987946170718
 20
6.17276528423629
 30
0.0
 10
2.38399457913608
 20
6.172224898121418
 30
0.0
 10
2.38215735483697
 20
6.171225458371029
 30
0.0
 10
2.379789753173033
 20
6.169602334382307
 30
0.0
 10
2.377875615436653
 20
6.1681795907303
 30
0.0
 10
2.376973793720262
 20
6.167089372899645
 30
0.0
 10
2.376572767599289
 20
6.166604569950575
 30
0.0
  0
LINE
  5
185
330
1F
100
AcDbEntity
  8
0
  6
Continuous
 62
     7
370
    18
100
AcDbLine
 10
2.4183362056
 20
6.1908456421
 30
0.0
 11
2.3849879641
 21
6.1727652243
 31
0.0
  0
LINE
  5
186
330
1F
100
AcDbEntity
  8
0
  6
Continuous
 62
     7
370
    18
100
AcDbLine
 10
2.4183362056
 20
6.2295286752
 30
0.0
 11
2.4183362056
 21
6.1908456421
 31
0.0
  0
LINE
  5
187
330
1F
100
AcDbEntity
  8
0
  6
Continuous
 62
     7
370
    18
100
AcDbLine
 10
2.3869745412
 20
6.2125420848
 30
0.0
 11
2.4183362056
 21
6.2295286752
 31
0.0
  0
SPLINE
  5
188
330
1F
100
AcDbEntity
  8
0
  6
Continuous
 62
     7
370
    18
100
AcDbSpline
210
0.0
220
0.0
230
1.0
 70
     8
 71
     3
 72
    15
 73
    11
 74
     0
 42
0.000000001
 43
0.00000001
 40
0.0
 40
0.0
 40
0.0
 40
0.0
 40
0.0821065206059177
 40
0.1908958873780381
 40
0.3260172802186685
 40
0.48761903883671
 40
0.6499075422100736
 40
0.7904485631194579
 40
0.9067720543214265
 40
1.0
 40
1.0
 40
1.0
 40
1.0
 10
2.374162053313575
 20
6.202430462807719
 30
0.0
 10
2.37444629158529
 20
6.202778103373443
 30
0.0
 10
2.375107139429108
 20
6.203586360181711
 30
0.0
 10
2.376400270943135
 20
6.204817760904381
 30
0.0
 10
2.378084635155532
 20
6.206257045678595
 30
0.0
 10
2.380023839291422
 20
6.207849530617331
 30
0.0
 10
2.382053050732385
 20
6.20937499613958
 30
0.0
 10
2.383908788220678
 20
6.210717830343357
 30
0.0
 10
2.385513937014158
 20
6.211763208482687
 30
0.0
 10
2.386524819068567
 20
6.212302252912818
 30
0.0
 10
2.386974553313575
 20
6.212542069950575
 30
0.0
  0
SPLINE
  5
189
330
1F
100
AcDbEntity
  8
0
  6
Continuous
 62
     7
370
    18
100
AcDbSpline
210
0.0
220
0.0
230
1.0
 70
     8
 71
     3
 72
    11
 73
     7
 74
     0
 42
0.000000001
 43
0.00000001
 40
0.0
 40
0.0
 40
0.0
 40
0.0
 40
0.3077531980806497
 40
0.5749755318273793
 40
0.8058987366574275
 40
1.0
 40
1.0
 40
1.0
 40
1.0
 10
2.370032589027861
 20
6.193658141379147
 30
0.0
 10
2.370364158455541
 20
6.194599733669491
 30
0.0
 10
2.370983629867069
 20
6.196358911254912
 30
0.0
 10
2.372008831648933
 20
6.198764550687011
 30
0.0
 10
2.373039891690313
 20
6.200763950398298
 30
0.0
 10
2.373810245954161
 20
6.201907996776057
 30
0.0
 10
2.374162053313575
 20
6.202430462807719
 30
0.0
  0
SPLINE
  5
18A
330
1F
100
AcDbEntity
  8
0
  6
Continuous
 62
     7
370
    18
100
AcDbSpline
210
0.0
220
0.0
230
1.0
 70
     8
 71
     3
 72
    11
 73
     7
 74
     0
 42
0.000000001
 43
0.00000001
 40
0.0
 40
0.0
 40
0.0
 40
0.0
 40
0.2094788561761708
 40
0.445651078719935
 40
0.7089515970244142
 40
0.9999999999999999
 40
0.9999999999999999
 40
0.9999999999999999
 40
0.9999999999999999
 10
2.365657589027861
 20
6.205912605664861
 30
0.0
 10
2.366088977844018
 20
6.20510867481763
 30
0.0
 10
2.367006726273515
 20
6.203398370227353
 30
0.0
 10
2.368148703332202
 20
6.20052462946907
 30
0.0
 10
2.369162262571075
 20
6.19723411564696
 30
0.0
 10
2.36973295817022
 20
6.194889256701928
 30
0.0
 10
2.370032589027861
 20
6.193658141379147
 30
0.0
  0
SPLINE
  5
18B
330
1F
100
AcDbEntity
  8
0
  6
Continuous
 62
     7
370
    18
100
AcDbSpline
210
0.0
220
0.0
230
1.0
 70
     8
 71
     3
 72
    15
 73
    11
 74
     0
 42
0.000000001
 43
0.00000001
 40
0.0
 40
0.0
 40
0.0
 40
0.0
 40
0.1377278721132158
 40
0.268366774797029
 40
0.392676931684756
 40
0.5144328133991404
 40
0.634261914254314
 40
0.754235843189967
 40
0.8753701272737525
 40
1.0
 40
1.0
 40
1.0
 40
1.0
 10
2.339005803313575
 20
6.220957248522004
 30
0.0
 10
2.340482507210981
 20
6.220914693024771
 30
0.0
 10
2.343359907814044
 20
6.220831772397542
 30
0.0
 10
2.347511989716807
 20
6.220055623704093
 30
0.0
 10
2.351360139907473
 20
6.21880271742505
 30
0.0
 10
2.354884159387927
 20
6.217053017518775
 30
0.0
 10
2.358079476635083
 20
6.214840366649133
 30
0.0
 10
2.360940564589963
 20
6.212227412363345
 30
0.0
 10
2.363529933988759
 20
6.209267956461179
 30
0.0
 10
2.364941677442945
 20
6.207041611289548
 30
0.0
 10
2.36565758902786
 20
6.205912605664861
 30
0.0
  0
SPLINE
  5
18C
330
1F
100
AcDbEntity
  8
0
  6
Continuous
 62
     7
370
    18
100
AcDbSpline
210
0.0
220
0.0
230
1.0
 70
     8
 71
     3
 72
    31
 73
    27
 74
     0
 42
0.000000001
 43
0.00000001
 40
0.0
 40
0.0
 40
0.0
 40
0.0
 40
0.0637485027684218
 40
0.1234805702076812
 40
0.1792173478600821
 40
0.2313910980923117
 40
0.2801133872198627
 40
0.325000993752458
 40
0.3664855053613454
 40
0.4044962601525182
 40
0.4401631024689717
 40
0.4754453183276089
 40
0.5105906650826423
 40
0.5453378009532961
 40
0.5799224060065534
 40
0.6151044318843848
 40
0.651119769042525
 40
0.6876720499133506
 40
0.724466812176802
 40
0.7615519236677781
 40
0.7990502474268885
 40
0.8370359916139053
 40
0.8758210765195464
 40
0.915800675937647
 40
0.9572327915526428
 40
0.9999999999999999
 40
0.9999999999999999
 40
0.9999999999999999
 40
0.9999999999999999
 10
2.308336160456432
 20
6.178033141379146
 30
0.0
 10
2.308343587024164
 20
6.179320494725347
 30
0.0
 10
2.30835797225328
 20
6.181814092509517
 30
0.0
 10
2.308500629516945
 20
6.185430786592791
 30
0.0
 10
2.308693330405438
 20
6.188810676211943
 30
0.0
 10
2.308972391494145
 20
6.191962306396098
 30
0.0
 10
2.309379438155798
 20
6.194879014276697
 30
0.0
 10
2.309849567497002
 20
6.197566141207199
 30
0.0
 10
2.310362019049706
 20
6.200027008235419
 30
0.0
 10
2.311026511140041
 20
6.202257450656914
 30
0.0
 10
2.311762670183364
 20
6.204332690964113
 30
0.0
 10
2.312661202517404
 20
6.206280977073383
 30
0.0
 10
2.313709495042182
 20
6.208130604459829
 30
0.0
 10
2.314895566353556
 20
6.209878220818226
 30
0.0
 10
2.316223514396762
 20
6.211521776726191
 30
0.0
 10
2.317703458169217
 20
6.213065458209339
 30
0.0
 10
2.319330924851987
 20
6.21451292936001
 30
0.0
 10
2.321091718548676
 20
6.215849406859756
 30
0.0
 10
2.322967967105825
 20
6.217058771479437
 30
0.0
 10
2.324957435536668
 20
6.218114911174038
 30
0.0
 10
2.327063228164964
 20
6.218979616115722
 30
0.0
 10
2.329260500794493
 20
6.219688368810764
 30
0.0
 10
2.33154405248603
 20
6.220283274745124
 30
0.0
 10
2.333941811861556
 20
6.220680343852711
 30
0.0
 10
2.336442293920006
 20
6.220895778297828
 30
0.0
 10
2.338142314814485
 20
6.220936542987729
 30
0.0
 10
2.339005803313575
 20
6.220957248522004
 30
0.0
  0
LINE
  5
18D
330
1F
100
AcDbEntity
  8
0
  6
Continuous
 62
     7
370
    18
100
AcDbLine
 10
2.3083361563
 20
6.1209572894
 30
0.0
 11
2.3083361563
 21
6.1780331367
 31
0.0
  0
LINE
  5
18E
330
1F
100
AcDbEntity
  8
0
  6
Continuous
 62
     7
370
    18
100
AcDbLine
 10
2.4183362056
 20
6.1209572894
 30
0.0
 11
2.3083361563
 21
6.1209572894
 31
0.0
  0
LINE
  5
18F
330
1F
100
AcDbEntity
  8
0
  6
Continuous
 62
     7
370
    18
100
AcDbLine
 10
2.4183362056
 20
6.1552430134
 30
0.0
 11
2.4183362056
 21
6.1209572894
 31
0.0
  0
LINE
  5
190
330
1F
100
AcDbEntity
  8
0
  6
Continuous
 62
     7
370
    18
100
AcDbLine
 10
2.3740504238
 20
6.1552430134
 30
0.0
 11
2.4183362056
 21
6.1552430134
 31
0.0
  0
LINE
  5
191
330
1F
100
AcDbEntity
  8
0
  6
Continuous
 62
     7
370
    18
100
AcDbLine
 10
2.3083361563
 20
6.4113813611
 30
0.0
 11
2.4183362056
 21
6.4523858074
 31
0.0
  0
LINE
  5
192
330
1F
100
AcDbEntity
  8
0
  6
Continuous
 62
     7
370
    18
100
AcDbLine
 10
2.3083361563
 20
6.372698328
 30
0.0
 11
2.3083361563
 21
6.4113813611
 31
0.0
  0
LINE
  5
193
330
1F
100
AcDbEntity
  8
0
  6
Continuous
 62
     7
370
    18
100
AcDbLine
 10
2.4183362056
 20
6.332385847
 30
0.0
 11
2.3083361563
 21
6.372698328
 31
0.0
  0
LINE
  5
194
330
1F
100
AcDbEntity
  8
0
  6
Continuous
 62
     7
370
    18
100
AcDbLine
 10
2.4183362056
 20
6.3672072647
 30
0.0
 11
2.4183362056
 21
6.332385847
 31
0.0
  0
LINE
  5
195
330
1F
100
AcDbEntity
  8
0
  6
Continuous
 62
     7
370
    18
100
AcDbLine
 10
2.3997647534
 20
6.3727652805
 30
0.0
 11
2.4183362056
 21
6.3672072647
 31
0.0
  0
LINE
  5
196
330
1F
100
AcDbEntity
  8
0
  6
Continuous
 62
     7
370
    18
100
AcDbLine
 10
2.3997647534
 20
6.4110688914
 30
0.0
 11
2.3997647534
 21
6.3727652805
 31
0.0
  0
LINE
  5
197
330
1F
100
AcDbEntity
  8
0
  6
Continuous
 62
     7
370
    18
100
AcDbLine
 10
2.4183362056
 20
6.4166269072
 30
0.0
 11
2.3997647534
 21
6.4110688914
 31
0.0
  0
LINE
  5
198
330
1F
100
AcDbEntity
  8
0
  6
Continuous
 62
     7
370
    18
100
AcDbLine
 10
2.4183362056
 20
6.4523858074
 30
0.0
 11
2.4183362056
 21
6.4166269072
 31
0.0
  0
SPLINE
  5
199
330
1F
100
AcDbEntity
  8
0
  6
Continuous
 62
     7
370
    18
100
AcDbSpline
210
0.0
220
0.0
230
1.0
 70
     8
 71
     3
 72
    27
 73
    23
 74
     0
 42
0.000000001
 43
0.00000001
 40
0.0
 40
0.0
 40
0.0
 40
0.0
 40
0.0796084612009624
 40
0.1534909913162721
 40
0.2221350910113685
 40
0.2848742419759462
 40
0.3423689377609236
 40
0.3947755919992483
 40
0.441343531755456
 40
0.4830156129211098
 40
0.5210891500003393
 40
0.5578535047633116
 40
0.5932647040166348
 40
0.6271940018168032
 40
0.6602626196906024
 40
0.6924200985965415
 40
0.7236315374891231
 40
0.7545637672838211
 40
0.8151118021415495
 40
0.8752595505963844
 40
0.9367044024822415
 40
1.0
 40
1.0
 40
1.0
 40
1.0
 10
2.344273660456432
 20
6.627720641379146
 30
0.0
 10
2.344671434641764
 20
6.629514693058368
 30
0.0
 10
2.345438372641889
 20
6.632973757164901
 30
0.0
 10
2.346613045924673
 20
6.637965304510568
 30
0.0
 10
2.347812703468993
 20
6.642549744950877
 30
0.0
 10
2.349022944451244
 20
6.646738534503088
 30
0.0
 10
2.350214673862316
 20
6.650542245888405
 30
0.0
 10
2.35144214041138
 20
6.653939724651845
 30
0.0
 10
2.352636003120785
 20
6.65696031107024
 30
0.0
 10
2.353880893274518
 20
6.659598762875491
 30
0.0
 10
2.355149439365531
 20
6.661971849277557
 30
0.0
 10
2.356492940773532
 20
6.664134992698618
 30
0.0
 10
2.357891861156051
 20
6.666146965946235
 30
0.0
 10
2.359372166594115
 20
6.667993016867404
 30
0.0
 10
2.360938059010416
 20
6.669664810229536
 30
0.0
 10
2.362562505239083
 20
6.671189732216066
 30
0.0
 10
2.364272967331102
 20
6.672540862380848
 30
0.0
 10
2.366638878249506
 20
6.674102202549659
 30
0.0
 10
2.369764446645819
 20
6.675705070504021
 30
0.0
 10
2.373738916969654
 20
6.677109542743219
 30
0.0
 10
2.377943192216963
 20
6.677956139849003
 30
0.0
 10
2.380824848123955
 20
6.678051644731513
 30
0.0
 10
2.382287053313575
 20
6.678100105664861
 30
0.0
  0
SPLINE
  5
19A
330
1F
100
AcDbEntity
  8
0
  6
Continuous
 62
     7
370
    18
100
AcDbSpline
210
0.0
220
0.0
230
1.0
 70
     8
 71
     3
 72
    15
 73
    11
 74
     0
 42
0.000000001
 43
0.00000001
 40
0.0
 40
0.0
 40
0.0
 40
0.0
 40
0.0731979650381539
 40
0.1585607276257722
 40
0.2592744511744703
 40
0.3768620325552487
 40
0.50764899715297
 40
0.6559539271516504
 40
0.8201708332856634
 40
1.0
 40
1.0
 40
1.0
 40
1.0
 10
2.340233481885004
 20
6.616314391379146
 30
0.0
 10
2.340416817160445
 20
6.61654908373603
 30
0.0
 10
2.340813956270231
 20
6.617057472061528
 30
0.0
 10
2.341353690990517
 20
6.617967105169014
 30
0.0
 10
2.341855370165724
 20
6.619096727279473
 30
0.0
 10
2.3423630510227
 20
6.620422738778774
 30
0.0
 10
2.342853303913068
 20
6.62196009761457
 30
0.0
 10
2.343336912211194
 20
6.623696565400655
 30
0.0
 10
2.343834041365864
 20
6.625636207185282
 30
0.0
 10
2.344122753658862
 20
6.627005123569092
 30
0.0
 10
2.344273660456432
 20
6.627720641379146
 30
0.0
  0
SPLINE
  5
19B
330
1F
100
AcDbEntity
  8
0
  6
Continuous
 62
     7
370
    18
100
AcDbSpline
210
0.0
220
0.0
230
1.0
 70
     8
 71
     3
 72
    11
 73
     7
 74
     0
 42
0.000000001
 43
0.00000001
 40
0.0
 40
0.0
 40
0.0
 40
0.0
 40
0.2328398303873799
 40
0.4677531376654814
 40
0.721893101042642
 40
1.0
 40
1.0
 40
1.0
 40
1.0
 10
2.335523660456432
 20
6.613814391379147
 30
0.0
 10
2.335952569605875
 20
6.613843752101862
 30
0.0
 10
2.336814207411105
 20
6.613902735009347
 30
0.0
 10
2.338054264718848
 20
6.614418339664046
 30
0.0
 10
2.339236797363824
 20
6.615202763482752
 30
0.0
 10
2.339891427766587
 20
6.615932889618029
 30
0.0
 10
2.340233481885004
 20
6.616314391379146
 30
0.0
  0
SPLINE
  5
19C
330
1F
100
AcDbEntity
  8
0
  6
Continuous
 62
     7
370
    18
100
AcDbSpline
210
0.0
220
0.0
230
1.0
 70
     8
 71
     3
 72
    15
 73
    11
 74
     0
 42
0.000000001
 43
0.00000001
 40
0.0
 40
0.0
 40
0.0
 40
0.0
 40
0.1619044372007424
 40
0.3065047126279974
 40
0.4357103116226446
 40
0.5566356507262049
 40
0.6710602690231897
 40
0.7796896683626139
 40
0.8883094862775888
 40
1.0
 40
1.0
 40
1.0
 40
1.0
 10
2.326907589027861
 20
6.624550998522004
 30
0.0
 10
2.326935052816914
 20
6.62371566336164
 30
0.0
 10
2.326987045096537
 20
6.622134272711067
 30
0.0
 10
2.327437241076489
 20
6.619916850423344
 30
0.0
 10
2.328255727968503
 20
6.618037177818122
 30
0.0
 10
2.32935720126182
 20
6.616494524901153
 30
0.0
 10
2.330690299500668
 20
6.615306162350094
 30
0.0
 10
2.33216847657601
 20
6.614420838304792
 30
0.0
 10
2.333811593875571
 20
6.613925676392834
 30
0.0
 10
2.334947693260517
 20
6.613851829477639
 30
0.0
 10
2.335523660456432
 20
6.613814391379147
 30
0.0
  0
SPLINE
  5
19D
330
1F
100
AcDbEntity
  8
0
  6
Continuous
 62
     7
370
    18
100
AcDbSpline
210
0.0
220
0.0
230
1.0
 70
     8
 71
     3
 72
    15
 73
    11
 74
     0
 42
0.000000001
 43
0.00000001
 40
0.0
 40
0.0
 40
0.0
 40
0.0
 40
0.1543384612210976
 40
0.2908748456961752
 40
0.413469897405489
 40
0.5246512427837435
 40
0.6332536125534367
 40
0.7458833358934973
 40
0.8670408814222749
 40
1.0
 40
1.0
 40
1.0
 40
1.0
 10
2.341193303313575
 20
6.639528677093431
 30
0.0
 10
2.34002465780513
 20
6.639315243074082
 30
0.0
 10
2.337822163499736
 20
6.638912993453643
 30
0.0
 10
2.334811516912273
 20
6.637854967346149
 30
0.0
 10
2.332281924491954
 20
6.636514470362179
 30
0.0
 10
2.330266801009507
 20
6.634786219340677
 30
0.0
 10
2.328730822256813
 20
6.632718470002364
 30
0.0
 10
2.327648404128702
 20
6.630298364961207
 30
0.0
 10
2.327032674752119
 20
6.627527707028164
 30
0.0
 10
2.326950555517597
 20
6.625573487029286
 30
0.0
 10
2.326907589027861
 20
6.624550998522004
 30
0.0
  0
LINE
  5
19E
330
1F
100
AcDbEntity
  8
0
  6
Continuous
 62
     7
370
    18
100
AcDbLine
 10
2.3392959586
 20
6.6738144228
 30
0.0
 11
2.3411933634
 21
6.6395286988
 31
0.0
  0
SPLINE
  5
19F
330
1F
100
AcDbEntity
  8
0
  6
Continuous
 62
     7
370
    18
100
AcDbSpline
210
0.0
220
0.0
230
1.0
 70
     8
 71
     3
 72
    23
 73
    19
 74
     0
 42
0.000000001
 43
0.00000001
 40
0.0
 40
0.0
 40
0.0
 40
0.0
 40
0.0819620851875145
 40
0.1587569515263547
 40
0.2312882780867898
 40
0.2995168275223192
 40
0.3637925437174672
 40
0.4244070700865683
 40
0.4821089460321045
 40
0.5371576383443616
 40
0.5908726767103253
 40
0.6442427425864073
 40
0.6983017467159963
 40
0.7532811769046157
 40
0.8106879350929388
 40
0.8704753416706513
 40
0.9334097494931679
 40
1.0
 40
1.0
 40
1.0
 40
1.0
 10
2.306907589027861
 20
6.628814391379147
 30
0.0
 10
2.306922963537489
 20
6.630511711123928
 30
0.0
 10
2.306952743285943
 20
6.633799344763684
 30
0.0
 10
2.307354054324896
 20
6.638574387224415
 30
0.0
 10
2.307936501902709
 20
6.643042382330297
 30
0.0
 10
2.308777933348601
 20
6.647207608314148
 30
0.0
 10
2.309874981654493
 20
6.651055462822416
 30
0.0
 10
2.311174547749328
 20
6.654611260998815
 30
0.0
 10
2.312771267009705
 20
6.657832741004726
 30
0.0
 10
2.314582838450673
 20
6.66077114545823
 30
0.0
 10
2.316671821634171
 20
6.663410029602972
 30
0.0
 10
2.31906354242457
 20
6.665747636735226
 30
0.0
 10
2.321729899509813
 20
6.667808025965621
 30
0.0
 10
2.324689521345269
 20
6.669588080491848
 30
0.0
 10
2.327937194937245
 20
6.671072415919016
 30
0.0
 10
2.331461522874107
 20
6.672305046597889
 30
0.0
 10
2.335273213949787
 20
6.673249926956047
 30
0.0
 10
2.337930062658737
 20
6.673622729115633
 30
0.0
 10
2.339295981885003
 20
6.673814391379146
 30
0.0
  0
SPLINE
  5
1A0
330
1F
100
AcDbEntity
  8
0
  6
Continuous
 62
     7
370
    18
100
AcDbSpline
210
0.0
220
0.0
230
1.0
 70
     8
 71
     3
 72
    27
 73
    23
 74
     0
 42
0.000000001
 43
0.00000001
 40
0.0
 40
0.0
 40
0.0
 40
0.0
 40
0.0654595506991372
 40
0.1309390665498225
 40
0.1968525086723613
 40
0.2657359661430284
 40
0.3011735264409544
 40
0.3367268215701981
 40
0.372652813887144
 40
0.4091631187777857
 40
0.4469863900093294
 40
0.4855479287510147
 40
0.525646167430055
 40
0.5669976818606765
 40
0.6105685486979935
 40
0.6567686244995291
 40
0.7058026323163525
 40
0.7578418597557861
 40
0.8133792718494489
 40
0.8721871101577486
 40
0.9343657230590395
 40
1.0
 40
1.0
 40
1.0
 40
1.0
 10
2.338782589027861
 20
6.582385819950575
 30
0.0
 10
2.337401148470937
 20
6.582447604763225
 30
0.0
 10
2.334637846017962
 20
6.582571193232885
 30
0.0
 10
2.33057289724743
 20
6.583521825710984
 30
0.0
 10
2.326628051010897
 20
6.58506449509912
 30
0.0
 10
2.323499237928006
 20
6.586849734109242
 30
0.0
 10
2.321081738923638
 20
6.588543336657446
 30
0.0
 10
2.319356417447783
 20
6.590000594330299
 30
0.0
 10
2.31775323583028
 20
6.591620461591864
 30
0.0
 10
2.316216690481148
 20
6.593368404199035
 30
0.0
 10
2.314802566807469
 20
6.595286386231366
 30
0.0
 10
2.31346715460617
 20
6.597350915290705
 30
0.0
 10
2.312281491224
 20
6.599589063552087
 30
0.0
 10
2.3111445122476
 20
6.601968951054517
 30
0.0
 10
2.310138334299157
 20
6.604547616401717
 30
0.0
 10
2.309272276401196
 20
6.607345927443811
 30
0.0
 10
2.308539635369086
 20
6.610365813284629
 30
0.0
 10
2.307939029715819
 20
6.613614932811263
 30
0.0
 10
2.307476570736234
 20
6.617094429119408
 30
0.0
 10
2.307146959522818
 20
6.620803243134183
 30
0.0
 10
2.306943383928602
 20
6.624734719165834
 30
0.0
 10
2.306919733803447
 20
6.627430208088538
 30
0.0
 10
2.306907589027861
 20
6.628814391379147
 30
0.0
  0
SPLINE
  5
1A1
330
1F
100
AcDbEntity
  8
0
  6
Continuous
 62
     7
370
    18
100
AcDbSpline
210
0.0
220
0.0
230
1.0
 70
     8
 71
     3
 72
    15
 73
    11
 74
     0
 42
0.000000001
 43
0.00000001
 40
0.0
 40
0.0
 40
0.0
 40
0.0
 40
0.1301467401750884
 40
0.255968748995933
 40
0.3782465551298136
 40
0.4993955361956492
 40
0.6197643475611645
 40
0.7434607371841913
 40
0.8690780528740167
 40
1.0
 40
1.0
 40
1.0
 40
1.0
 10
2.359809374742146
 20
6.592006355664861
 30
0.0
 10
2.359110227285012
 20
6.591239696707002
 30
0.0
 10
2.357735164799962
 20
6.58973185460442
 30
0.0
 10
2.35544363402394
 20
6.587763859108573
 30
0.0
 10
2.353018949378379
 20
6.586086801798591
 30
0.0
 10
2.350437466424451
 20
6.584755204781438
 30
0.0
 10
2.347726460918267
 20
6.58368395725723
 30
0.0
 10
2.344872187292209
 20
6.582934072993142
 30
0.0
 10
2.341870268041073
 20
6.582475840881338
 30
0.0
 10
2.339825906237784
 20
6.582416237745274
 30
0.0
 10
2.33878258902786
 20
6.582385819950575
 30
0.0
  0
SPLINE
  5
1A2
330
1F
100
AcDbEntity
  8
0
  6
Continuous
 62
     7
370
    18
100
AcDbSpline
210
0.0
220
0.0
230
1.0
 70
     8
 71
     3
 72
    15
 73
    11
 74
     0
 42
0.000000001
 43
0.00000001
 40
0.0
 40
0.0
 40
0.0
 40
0.0
 40
0.1594082225257766
 40
0.3078466166431083
 40
0.4466082274390608
 40
0.5749671879532902
 40
0.6945139161464026
 40
0.8048428365047292
 40
0.9059516285942562
 40
1.0
 40
1.0
 40
1.0
 40
1.0
 10
2.373045981885004
 20
6.623903677093432
 30
0.0
 10
2.372630570717372
 20
6.622098975373168
 30
0.0
 10
2.371828335296607
 20
6.618613764197543
 30
0.0
 10
2.370402572738912
 20
6.613624251646437
 30
0.0
 10
2.368931898736459
 20
6.609025335210239
 30
0.0
 10
2.36731923949199
 20
6.604830845581851
 30
0.0
 10
2.365609146423361
 20
6.601034475689242
 30
0.0
 10
2.363808286538255
 20
6.597635802996249
 30
0.0
 10
2.361920663892784
 20
6.594622404406342
 30
0.0
 10
2.360495956713173
 20
6.592857083240799
 30
0.0
 10
2.359809374742146
 20
6.592006355664861
 30
0.0
  0
SPLINE
  5
1A3
330
1F
100
AcDbEntity
  8
0
  6
Continuous
 62
     7
370
    18
100
AcDbSpline
210
0.0
220
0.0
230
1.0
 70
     8
 71
     3
 72
    15
 73
    11
 74
     0
 42
0.000000001
 43
0.00000001
 40
0.0
 40
0.0
 40
0.0
 40
0.0
 40
0.0689086562983444
 40
0.1536044488140747
 40
0.2521694198627186
 40
0.3680826354460906
 40
0.4996780309851643
 40
0.6500236069938851
 40
0.815449831090901
 40
0.9999999999999999
 40
0.9999999999999999
 40
0.9999999999999999
 40
0.9999999999999999
 10
2.379407589027861
 20
6.640689391379146
 30
0.0
 10
2.37912139928739
 20
6.640385299956798
 30
0.0
 10
2.378483453059694
 20
6.639707449047664
 30
0.0
 10
2.37770270147929
 20
6.638388859544096
 30
0.0
 10
2.376854078265787
 20
6.636792897257644
 30
0.0
 10
2.376075827255405
 20
6.634847305021978
 30
0.0
 10
2.375292868229159
 20
6.632573918576191
 30
0.0
 10
2.374524062687397
 20
6.629980748251348
 30
0.0
 10
2.373761127782724
 20
6.627054260261582
 30
0.0
 10
2.373292892526349
 20
6.624991444656865
 30
0.0
 10
2.373045981885004
 20
6.623903677093432
 30
0.0
  0
SPLINE
  5
1A4
330
1F
100
AcDbEntity
  8
0
  6
Continuous
 62
     7
370
    18
100
AcDbSpline
210
0.0
220
0.0
230
1.0
 70
     8
 71
     3
 72
    11
 73
     7
 74
     0
 42
0.000000001
 43
0.00000001
 40
0.0
 40
0.0
 40
0.0
 40
0.0
 40
0.247078709662876
 40
0.4897309182292675
 40
0.7381503475685895
 40
1.0
 40
1.0
 40
1.0
 40
1.0
 10
2.387041517599289
 20
6.643814391379147
 30
0.0
 10
2.386345313741303
 20
6.643775149923904
 30
0.0
 10
2.38496537875981
 20
6.643697370037749
 30
0.0
 10
2.382960775995506
 20
6.643087653574291
 30
0.0
 10
2.381072425323519
 20
6.642093512136272
 30
0.0
 10
2.379972187173279
 20
6.641165572717506
 30
0.0
 10
2.379407589027861
 20
6.640689391379146
 30
0.0
  0
SPLINE
  5
1A5
330
1F
100
AcDbEntity
  8
0
  6
Continuous
 62
     7
370
    18
100
AcDbSpline
210
0.0
220
0.0
230
1.0
 70
     8
 71
     3
 72
    15
 73
    11
 74
     0
 42
0.000000001
 43
0.00000001
 40
0.0
 40
0.0
 40
0.0
 40
0.0
 40
0.1569368619729059
 40
0.2990756243226769
 40
0.429182780250516
 40
0.5530732727172217
 40
0.6719319993142204
 40
0.7827678429398904
 40
0.8909666702696989
 40
1.0
 40
1.0
 40
1.0
 40
1.0
 10
2.398336160456432
 20
6.629975105664861
 30
0.0
 10
2.398293021922445
 20
6.631019654431745
 30
0.0
 10
2.398210812530574
 20
6.633010257981886
 30
0.0
 10
2.397603995696094
 20
6.635821774405819
 30
0.0
 10
2.396515233960292
 20
6.638242634228614
 30
0.0
 10
2.3950337683138
 20
6.640260567004033
 30
0.0
 10
2.393234783940983
 20
6.641798646668481
 30
0.0
 10
2.391315797175837
 20
6.642991559034441
 30
0.0
 10
2.389215396532051
 20
6.643685718172356
 30
0.0
 10
2.387767997316165
 20
6.643771390605999
 30
0.0
 10
2.387041517599289
 20
6.643814391379147
 30
0.0
  0
SPLINE
  5
1A6
330
1F
100
AcDbEntity
  8
0
  6
Continuous
 62
     7
370
    18
100
AcDbSpline
210
0.0
220
0.0
230
1.0
 70
     8
 71
     3
 72
    15
 73
    11
 74
     0
 42
0.000000001
 43
0.00000001
 40
0.0
 40
0.0
 40
0.0
 40
0.0
 40
0.1272994203137435
 40
0.248967722940576
 40
0.3688329445935371
 40
0.4888225292974087
 40
0.6090190998109861
 40
0.7331949566602953
 40
0.8630310258512951
 40
1.0
 40
1.0
 40
1.0
 40
1.0
 10
2.391706696170718
 20
6.616292069950576
 30
0.0
 10
2.392238585759082
 20
6.616703434955124
 30
0.0
 10
2.393278836683593
 20
6.617507968143314
 30
0.0
 10
2.394631962235314
 20
6.618916455380482
 30
0.0
 10
2.395780746615754
 20
6.620444372590976
 30
0.0
 10
2.396723635338894
 20
6.622100289768277
 30
0.0
 10
2.397442463213128
 20
6.62388924341121
 30
0.0
 10
2.397953150339914
 20
6.625800281395238
 30
0.0
 10
2.398271783851529
 20
6.627844002499097
 30
0.0
 10
2.39831432250463
 20
6.62925218888028
 30
0.0
 10
2.398336160456432
 20
6.629975105664861
 30
0.0
  0
SPLINE
  5
1A7
330
1F
100
AcDbEntity
  8
0
  6
Continuous
 62
     7
370
    18
100
AcDbSpline
210
0.0
220
0.0
230
1.0
 70
     8
 71
     3
 72
    11
 73
     7
 74
     0
 42
0.000000001
 43
0.00000001
 40
0.0
 40
0.0
 40
0.0
 40
0.0
 40
0.294271715995433
 40
0.5563960332390274
 40
0.7917175908505993
 40
0.9999999999999999
 40
0.9999999999999999
 40
0.9999999999999999
 40
0.9999999999999999
 10
2.379764731885004
 20
6.612385819950575
 30
0.0
 10
2.380997260312072
 20
6.612561986135074
 30
0.0
 10
2.383327670916962
 20
6.612895073417738
 30
0.0
 10
2.386569690064382
 20
6.613746386162673
 30
0.0
 10
2.389370728203561
 20
6.614819496627455
 30
0.0
 10
2.390960337520078
 20
6.615821572129601
 30
0.0
 10
2.391706696170718
 20
6.616292069950576
 30
0.0
  0
LINE
  5
1A8
330
1F
100
AcDbEntity
  8
0
  6
Continuous
 62
     7
370
    18
100
AcDbLine
 10
2.3817736546
 20
6.5781001285
 30
0.0
 11
2.3797647845
 21
6.6123858524
 31
0.0
  0
SPLINE
  5
1A9
330
1F
100
AcDbEntity
  8
0
  6
Continuous
 62
     7
370
    18
100
AcDbSpline
210
0.0
220
0.0
230
1.0
 70
     8
 71
     3
 72
    23
 73
    19
 74
     0
 42
0.000000001
 43
0.00000001
 40
0.0
 40
0.0
 40
0.0
 40
0.0
 40
0.0941127167076665
 40
0.181009672625477
 40
0.2607530608832858
 40
0.3339692935468486
 40
0.401325919248314
 40
0.4633067831966576
 40
0.5210354446708946
 40
0.5750231642252389
 40
0.6275335211368783
 40
0.6793870859297189
 40
0.730896482996016
 40
0.7826905186713855
 40
0.8351016398509808
 40
0.8885446449401908
 40
0.9433485201782323
 40
1.0
 40
1.0
 40
1.0
 40
1.0
 10
2.419764731885004
 20
6.629305462807719
 30
0.0
 10
2.419728408527512
 20
6.627050248916533
 30
0.0
 10
2.419658546777919
 20
6.62271273170925
 30
0.0
 10
2.419187011487226
 20
6.616476315068208
 30
0.0
 10
2.418335170411188
 20
6.610788205952758
 30
0.0
 10
2.417207651245179
 20
6.60562354028907
 30
0.0
 10
2.415685007314874
 20
6.601006147747819
 30
0.0
 10
2.41387192759322
 20
6.596896477743939
 30
0.0
 10
2.411686303609355
 20
6.593335145546001
 30
0.0
 10
2.409131060223177
 20
6.590325143521895
 30
0.0
 10
2.40633379980043
 20
6.587749751417838
 30
0.0
 10
2.403346638347202
 20
6.585501016397458
 30
0.0
 10
2.400216910851607
 20
6.583483842462139
 30
0.0
 10
2.396870934024182
 20
6.581817070010443
 30
0.0
 10
2.393353291985723
 20
6.580428144712978
 30
0.0
 10
2.389658074920707
 20
6.579330070522295
 30
0.0
 10
2.385778274268545
 20
6.578549094218127
 30
0.0
 10
2.383123202839588
 20
6.578251413409031
 30
0.0
 10
2.381773660456432
 20
6.578100105664861
 30
0.0
  0
SPLINE
  5
1AA
330
1F
100
AcDbEntity
  8
0
  6
Continuous
 62
     7
370
    18
100
AcDbSpline
210
0.0
220
0.0
230
1.0
 70
     8
 71
     3
 72
    31
 73
    27
 74
     0
 42
0.000000001
 43
0.00000001
 40
0.0
 40
0.0
 40
0.0
 40
0.0
 40
0.0377493184058513
 40
0.0747123239280541
 40
0.1114566741262887
 40
0.1481387169184874
 40
0.1848476781552282
 40
0.2216838805403469
 40
0.2591844818415592
 40
0.2972314810418536
 40
0.3353535600545469
 40
0.3735845828601543
 40
0.4114370510668254
 40
0.4495700384648945
 40
0.4880072037888
 40
0.5273586492301303
 40
0.5671972221796029
 40
0.6083023759522254
 40
0.650577244618895
 40
0.6943231596880289
 40
0.7399183925909553
 40
0.7876003709672011
 40
0.8374434584118681
 40
0.889293637899991
 40
0.9435620216549172
 40
0.9999999999999999
 40
0.9999999999999999
 40
0.9999999999999999
 40
0.9999999999999999
 10
2.382287053313575
 20
6.678100105664861
 30
0.0
 10
2.383158223694462
 20
6.678082919927864
 30
0.0
 10
2.384882418102253
 20
6.678048906430304
 30
0.0
 10
2.387443464254585
 20
6.677777694630455
 30
0.0
 10
2.389949107221007
 20
6.677305410040689
 30
0.0
 10
2.392405749856448
 20
6.676648950067053
 30
0.0
 10
2.394825429145997
 20
6.67585835943899
 30
0.0
 10
2.397182706840609
 20
6.674844008303083
 30
0.0
 10
2.399473091271898
 20
6.673625208331433
 30
0.0
 10
2.401730304082544
 20
6.672284772848503
 30
0.0
 10
2.403868886861611
 20
6.670732462664548
 30
0.0
 10
2.405900049024689
 20
6.669049420381992
 30
0.0
 10
2.407776951230162
 20
6.667196429697491
 30
0.0
 10
2.409556885288974
 20
6.665242679496841
 30
0.0
 10
2.411158961644932
 20
6.663097107929845
 30
0.0
 10
2.412660824909076
 20
6.660833729559111
 30
0.0
 10
2.413995403681598
 20
6.658397314785016
 30
0.0
 10
2.415235527369836
 20
6.655836572962961
 30
0.0
 10
2.416295934834921
 20
6.653099017059467
 30
0.0
 10
2.417245577647421
 20
6.650212394371619
 30
0.0
 10
2.418013753331507
 20
6.64714327001947
 30
0.0
 10
2.418668177797051
 20
6.643904936550598
 30
0.0
 10
2.4191464399372
 20
6.640489735680905
 30
0.0
 10
2.419501488377823
 20
6.636908097118757
 30
0.0
 10
2.419734045519761
 20
6.633162700676793
 30
0.0
 10
2.419754370323179
 20
6.630607898216222
 30
0.0
 10
2.419764731885004
 20
6.629305462807719
 30
0.0
  0
LINE
  5
1AB
330
1F
100
AcDbEntity
  8
0
  6
Continuous
 62
     7
370
    18
100
AcDbLine
 10
3.7575766654
 20
5.9041580072
 30
0.0
 11
3.7183361587
 21
5.9041580072
 31
0.0
  0
LINE
  5
1AC
330
1F
100
AcDbEntity
  8
0
  6
Continuous
 62
     7
370
    18
100
AcDbLine
 10
3.7575766654
 20
5.8547908709
 30
0.0
 11
3.7575766654
 21
5.9041580072
 31
0.0
  0
LINE
  5
1AD
330
1F
100
AcDbEntity
  8
0
  6
Continuous
 62
     7
370
    18
100
AcDbLine
 10
3.7183361587
 20
5.8547908709
 30
0.0
 11
3.7575766654
 21
5.8547908709
 31
0.0
  0
LINE
  5
1AE
330
1F
100
AcDbEntity
  8
0
  6
Continuous
 62
     7
370
    18
100
AcDbLine
 10
3.7183361587
 20
5.8421326571
 30
0.0
 11
3.7183361587
 21
5.8547908709
 31
0.0
  0
LINE
  5
1AF
330
1F
100
AcDbEntity
  8
0
  6
Continuous
 62
     7
370
    18
100
AcDbLine
 10
3.8183361593
 20
5.8421326571
 30
0.0
 11
3.7183361587
 21
5.8421326571
 31
0.0
  0
LINE
  5
1B0
330
1F
100
AcDbEntity
  8
0
  6
Continuous
 62
     7
370
    18
100
AcDbLine
 10
3.8183361593
 20
5.8547908709
 30
0.0
 11
3.8183361593
 21
5.8421326571
 31
0.0
  0
LINE
  5
1B1
330
1F
100
AcDbEntity
  8
0
  6
Continuous
 62
     7
370
    18
100
AcDbLine
 10
3.7689690688
 20
5.8547908709
 30
0.0
 11
3.8183361593
 21
5.8547908709
 31
0.0
  0
LINE
  5
1B2
330
1F
100
AcDbEntity
  8
0
  6
Continuous
 62
     7
370
    18
100
AcDbLine
 10
3.7689690688
 20
5.9041580072
 30
0.0
 11
3.7689690688
 21
5.8547908709
 31
0.0
  0
LINE
  5
1B3
330
1F
100
AcDbEntity
  8
0
  6
Continuous
 62
     7
370
    18
100
AcDbLine
 10
3.8183361593
 20
5.9041580072
 30
0.0
 11
3.7689690688
 21
5.9041580072
 31
0.0
  0
LINE
  5
1B4
330
1F
100
AcDbEntity
  8
0
  6
Continuous
 62
     7
370
    18
100
AcDbLine
 10
3.8183361593
 20
5.916816221
 30
0.0
 11
3.8183361593
 21
5.9041580072
 31
0.0
  0
LINE
  5
1B5
330
1F
100
AcDbEntity
  8
0
  6
Continuous
 62
     7
370
    18
100
AcDbLine
 10
3.7183361587
 20
5.916816221
 30
0.0
 11
3.8183361593
 21
5.916816221
 31
0.0
  0
LINE
  5
1B6
330
1F
100
AcDbEntity
  8
0
  6
Continuous
 62
     7
370
    18
100
AcDbLine
 10
3.7183361587
 20
5.9041580072
 30
0.0
 11
3.7183361587
 21
5.916816221
 31
0.0
  0
LINE
  5
1B7
330
1F
100
AcDbEntity
  8
0
  6
Continuous
 62
     7
370
    18
100
AcDbLine
 10
3.8183361593
 20
6.0180820778
 30
0.0
 11
3.7183361587
 21
6.0547316011
 31
0.0
  0
LINE
  5
1B8
330
1F
100
AcDbEntity
  8
0
  6
Continuous
 62
     7
370
    18
100
AcDbLine
 10
3.8183361593
 20
6.031571002
 30
0.0
 11
3.8183361593
 21
6.0180820778
 31
0.0
  0
LINE
  5
1B9
330
1F
100
AcDbEntity
  8
0
  6
Continuous
 62
     7
370
    18
100
AcDbLine
 10
3.7904880606
 20
6.0414403813
 30
0.0
 11
3.8183361593
 21
6.031571002
 31
0.0
  0
LINE
  5
1BA
330
1F
100
AcDbEntity
  8
0
  6
Continuous
 62
     7
370
    18
100
AcDbLine
 10
3.7904880606
 20
6.0858628548
 30
0.0
 11
3.7904880606
 21
6.0414403813
 31
0.0
  0
LINE
  5
1BB
330
1F
100
AcDbEntity
  8
0
  6
Continuous
 62
     7
370
    18
100
AcDbLine
 10
3.8183361593
 20
6.0957323808
 30
0.0
 11
3.7904880606
 21
6.0858628548
 31
0.0
  0
LINE
  5
1BC
330
1F
100
AcDbEntity
  8
0
  6
Continuous
 62
     7
370
    18
100
AcDbLine
 10
3.8183361593
 20
6.109221305
 30
0.0
 11
3.8183361593
 21
6.0957323808
 31
0.0
  0
LINE
  5
1BD
330
1F
100
AcDbEntity
  8
0
  6
Continuous
 62
     7
370
    18
100
AcDbLine
 10
3.7183361587
 20
6.0725717817
 30
0.0
 11
3.8183361593
 21
6.109221305
 31
0.0
  0
LINE
  5
1BE
330
1F
100
AcDbEntity
  8
0
  6
Continuous
 62
     7
370
    18
100
AcDbLine
 10
3.7183361587
 20
6.0547316011
 30
0.0
 11
3.7183361587
 21
6.0725717817
 31
0.0
  0
LINE
  5
1BF
330
1F
100
AcDbEntity
  8
0
  6
Continuous
 62
     7
370
    18
100
AcDbLine
 10
3.7803614813
 20
6.21555033
 30
0.0
 11
3.7689690688
 21
6.21555033
 31
0.0
  0
LINE
  5
1C0
330
1F
100
AcDbEntity
  8
0
  6
Continuous
 62
     7
370
    18
100
AcDbLine
 10
3.7803614813
 20
6.2573225675
 30
0.0
 11
3.7803614813
 21
6.21555033
 31
0.0
  0
LINE
  5
1C1
330
1F
100
AcDbEntity
  8
0
  6
Continuous
 62
     7
370
    18
100
AcDbLine
 10
3.7689690688
 20
6.2573225675
 30
0.0
 11
3.7803614813
 21
6.2573225675
 31
0.0
  0
LINE
  5
1C2
330
1F
100
AcDbEntity
  8
0
  6
Continuous
 62
     7
370
    18
100
AcDbLine
 10
3.7689690688
 20
6.21555033
 30
0.0
 11
3.7689690688
 21
6.2573225675
 31
0.0
  0
LINE
  5
1C3
330
1F
100
AcDbEntity
  8
0
  6
Continuous
 62
     7
370
    18
100
AcDbLine
 10
3.7183361587
 20
6.3763098796
 30
0.0
 11
3.8069437559
 21
6.3763098796
 31
0.0
  0
LINE
  5
1C4
330
1F
100
AcDbEntity
  8
0
  6
Continuous
 62
     7
370
    18
100
AcDbLine
 10
3.7183361587
 20
6.3636516658
 30
0.0
 11
3.7183361587
 21
6.3763098796
 31
0.0
  0
LINE
  5
1C5
330
1F
100
AcDbEntity
  8
0
  6
Continuous
 62
     7
370
    18
100
AcDbLine
 10
3.8183361593
 20
6.3636516658
 30
0.0
 11
3.7183361587
 21
6.3636516658
 31
0.0
  0
LINE
  5
1C6
330
1F
100
AcDbEntity
  8
0
  6
Continuous
 62
     7
370
    18
100
AcDbLine
 10
3.8183361593
 20
6.4256769426
 30
0.0
 11
3.8183361593
 21
6.3636516658
 31
0.0
  0
LINE
  5
1C7
330
1F
100
AcDbEntity
  8
0
  6
Continuous
 62
     7
370
    18
100
AcDbLine
 10
3.8069437559
 20
6.4256769426
 30
0.0
 11
3.8183361593
 21
6.4256769426
 31
0.0
  0
LINE
  5
1C8
330
1F
100
AcDbEntity
  8
0
  6
Continuous
 62
     7
370
    18
100
AcDbLine
 10
3.8069437559
 20
6.3763098796
 30
0.0
 11
3.8069437559
 21
6.4256769426
 31
0.0
  0
LINE
  5
1C9
330
1F
100
AcDbEntity
  8
0
  6
Continuous
 62
     7
370
    18
100
AcDbLine
 10
3.7297285621
 20
6.5193478272
 30
0.0
 11
3.7183361587
 21
6.5193478272
 31
0.0
  0
LINE
  5
1CA
330
1F
100
AcDbEntity
  8
0
  6
Continuous
 62
     7
370
    18
100
AcDbLine
 10
3.7297285621
 20
6.5547908844
 30
0.0
 11
3.7297285621
 21
6.5193478272
 31
0.0
  0
LINE
  5
1CB
330
1F
100
AcDbEntity
  8
0
  6
Continuous
 62
     7
370
    18
100
AcDbLine
 10
3.8183361593
 20
6.5547908844
 30
0.0
 11
3.7297285621
 21
6.5547908844
 31
0.0
  0
LINE
  5
1CC
330
1F
100
AcDbEntity
  8
0
  6
Continuous
 62
     7
370
    18
100
AcDbLine
 10
3.8183361593
 20
6.5674490982
 30
0.0
 11
3.8183361593
 21
6.5547908844
 31
0.0
  0
LINE
  5
1CD
330
1F
100
AcDbEntity
  8
0
  6
Continuous
 62
     7
370
    18
100
AcDbLine
 10
3.7297285621
 20
6.5674490982
 30
0.0
 11
3.8183361593
 21
6.5674490982
 31
0.0
  0
LINE
  5
1CE
330
1F
100
AcDbEntity
  8
0
  6
Continuous
 62
     7
370
    18
100
AcDbLine
 10
3.7297285621
 20
6.6028921554
 30
0.0
 11
3.7297285621
 21
6.5674490982
 31
0.0
  0
LINE
  5
1CF
330
1F
100
AcDbEntity
  8
0
  6
Continuous
 62
     7
370
    18
100
AcDbLine
 10
3.7183361587
 20
6.6028921554
 30
0.0
 11
3.7297285621
 21
6.6028921554
 31
0.0
  0
LINE
  5
1D0
330
1F
100
AcDbEntity
  8
0
  6
Continuous
 62
     7
370
    18
100
AcDbLine
 10
3.7183361587
 20
6.5193478272
 30
0.0
 11
3.7183361587
 21
6.6028921554
 31
0.0
  0
CIRCLE
  5
1D1
330
1F
100
AcDbEntity
  8
0
  6
Continuous
 62
     7
370
    18
100
AcDbCircle
 10
2.3183361605
 20
7.33838582
 30
0.0
 40
0.0642499999999995
  0
CIRCLE
  5
1D2
330
1F
100
AcDbEntity
  8
0
  6
Continuous
 62
     7
370
    18
100
AcDbCircle
 10
3.8183361605
 20
7.33838582
 30
0.0
 40
0.0642499999999995
  0
LINE
  5
1D3
330
1F
100
AcDbEntity
  8
0
  6
Continuous
 62
     7
370
    18
100
AcDbLine
 10
2.3497647577
 20
6.498100106
 30
0.0
 11
2.3497647577
 21
6.5119617058
 31
0.0
  0
SPLINE
  5
1D4
330
1F
100
AcDbEntity
  8
0
  6
Continuous
 62
     7
370
    18
100
AcDbSpline
210
0.0
220
0.0
230
1.0
 70
     8
 71
     3
 72
    15
 73
    11
 74
     0
 42
0.000000001
 43
0.00000001
 40
0.0
 40
0.0
 40
0.0
 40
0.0
 40
0.1838817342373389
 40
0.3395919906800311
 40
0.4701047692714423
 40
0.5793490960398606
 40
0.6789322944401613
 40
0.7782221690857629
 40
0.8839050175063551
 40
0.9999999999999999
 40
0.9999999999999999
 40
0.9999999999999999
 40
0.9999999999999999
 10
2.349764731885004
 20
6.511961712807717
 30
0.0
 10
2.349737904259486
 20
6.513109276405358
 30
0.0
 10
2.349688359116828
 20
6.515228591889144
 30
0.0
 10
2.349262042381654
 20
6.518137899554903
 30
0.0
 10
2.348543286462786
 20
6.520514526064508
 30
0.0
 10
2.347441704148815
 20
6.522352108389131
 30
0.0
 10
2.346017464823304
 20
6.52367961552364
 30
0.0
 10
2.344328616474625
 20
6.524580243135048
 30
0.0
 10
2.342391715112733
 20
6.52516266579855
 30
0.0
 10
2.341004366177783
 20
6.525215372307673
 30
0.0
 10
2.340278124742146
 20
6.525242962807718
 30
0.0
  0
SPLINE
  5
1D5
330
1F
100
AcDbEntity
  8
0
  6
Continuous
 62
     7
370
    18
100
AcDbSpline
210
0.0
220
0.0
230
1.0
 70
     8
 71
     3
 72
    15
 73
    11
 74
     0
 42
0.000000001
 43
0.00000001
 40
0.0
 40
0.0
 40
0.0
 40
0.0
 40
0.112323757860246
 40
0.2153817361112172
 40
0.3134483436675229
 40
0.4143192646809476
 40
0.5262925154810658
 40
0.658494316334733
 40
0.8153615705212569
 40
1.0
 40
1.0
 40
1.0
 40
1.0
 10
2.340278124742146
 20
6.525242962807718
 30
0.0
 10
2.339596341207244
 20
6.525214999748568
 30
0.0
 10
2.338289015631631
 20
6.525161380351023
 30
0.0
 10
2.33646189642644
 20
6.524576706398985
 30
0.0
 10
2.334863716453328
 20
6.523664319833901
 30
0.0
 10
2.333491210207186
 20
6.522343653020082
 30
0.0
 10
2.33242848752911
 20
6.520519726875659
 30
0.0
 10
2.331694090899942
 20
6.518192440063439
 30
0.0
 10
2.33127105204066
 20
6.515347444193357
 30
0.0
 10
2.331220587478701
 20
6.513280253034383
 30
0.0
 10
2.331193303313575
 20
6.512162605664861
 30
0.0
  0
LINE
  5
1D6
330
1F
100
AcDbEntity
  8
0
  6
Continuous
 62
     7
370
    18
100
AcDbLine
 10
2.3311933056
 20
6.5121626369
 30
0.0
 11
2.3311933056
 21
6.498100106
 31
0.0
  0
LINE
  5
1D7
330
1F
100
AcDbEntity
  8
0
  6
Continuous
 62
     7
370
    18
100
AcDbLine
 10
2.3311933056
 20
6.498100106
 30
0.0
 11
2.3497647577
 21
6.498100106
 31
0.0
  0
LINE
  5
1D8
330
1F
100
AcDbEntity
  8
0
  6
Continuous
 62
     7
370
    18
100
AcDbLine
 10
2.3926218759
 20
6.498100106
 30
0.0
 11
2.3926218759
 21
6.5151983085
 31
0.0
  0
SPLINE
  5
1D9
330
1F
100
AcDbEntity
  8
0
  6
Continuous
 62
     7
370
    18
100
AcDbSpline
210
0.0
220
0.0
230
1.0
 70
     8
 71
     3
 72
    19
 73
    15
 74
     0
 42
0.000000001
 43
0.00000001
 40
0.0
 40
0.0
 40
0.0
 40
0.0
 40
0.0948169536762029
 40
0.183706820457597
 40
0.2650084927195333
 40
0.3399739400523249
 40
0.4087220265226346
 40
0.4713738366265539
 40
0.5306775629115943
 40
0.584710155469517
 40
0.6878007953857057
 40
0.7869249144427478
 40
0.8894445506628897
 40
1.0
 40
1.0
 40
1.0
 40
1.0
 10
2.392621874742146
 20
6.515198319950575
 30
0.0
 10
2.392613174327876
 20
6.515890447074915
 30
0.0
 10
2.392596317369493
 20
6.517231435879506
 30
0.0
 10
2.392471593939971
 20
6.519163250073935
 30
0.0
 10
2.392225682217906
 20
6.520937743558706
 30
0.0
 10
2.391885289221613
 20
6.522544974718179
 30
0.0
 10
2.391504832703306
 20
6.524004898211929
 30
0.0
 10
2.390981292647813
 20
6.525298775330899
 30
0.0
 10
2.390365098733025
 20
6.526429580192111
 30
0.0
 10
2.389440796522308
 20
6.527714700214743
 30
0.0
 10
2.388077413774964
 20
6.529025858009925
 30
0.0
 10
2.386137319780807
 20
6.53014727404372
 30
0.0
 10
2.383940841928201
 20
6.530845186120523
 30
0.0
 10
2.382381725634049
 20
6.530918966877308
 30
0.0
 10
2.38157276759929
 20
6.530957248522004
 30
0.0
  0
SPLINE
  5
1DA
330
1F
100
AcDbEntity
  8
0
  6
Continuous
 62
     7
370
    18
100
AcDbSpline
210
0.0
220
0.0
230
1.0
 70
     8
 71
     3
 72
    19
 73
    15
 74
     0
 42
0.000000001
 43
0.00000001
 40
0.0
 40
0.0
 40
0.0
 40
0.0
 40
0.1045791690609567
 40
0.2019852621440887
 40
0.2987220429494866
 40
0.4002647152315758
 40
0.4548244021876
 40
0.5143937328947283
 40
0.5789445927340054
 40
0.6491292960363393
 40
0.7264775725428843
 40
0.8103735577131213
 40
0.9011209406141774
 40
1.0
 40
1.0
 40
1.0
 40
1.0
 10
2.38157276759929
 20
6.530957248522004
 30
0.0
 10
2.38082361666644
 20
6.530916471315089
 30
0.0
 10
2.379376698997119
 20
6.530837713806281
 30
0.0
 10
2.377321272898533
 20
6.530164675516898
 30
0.0
 10
2.375512720422752
 20
6.529035902157374
 30
0.0
 10
2.374226110918959
 20
6.527742373413369
 30
0.0
 10
2.373335694568339
 20
6.526478270811202
 30
0.0
 10
2.372765334578544
 20
6.525330482944741
 30
0.0
 10
2.372275658840483
 20
6.524028545056173
 30
0.0
 10
2.371875027257764
 20
6.522563812589484
 30
0.0
 10
2.371569754339711
 20
6.520935997740103
 30
0.0
 10
2.371350761286589
 20
6.519146688129064
 30
0.0
 10
2.371215939209696
 20
6.517194437669873
 30
0.0
 10
2.37120106128042
 20
6.515838432676941
 30
0.0
 10
2.371193303313575
 20
6.515131355664861
 30
0.0
  0
LINE
  5
1DB
330
1F
100
AcDbEntity
  8
0
  6
Continuous
 62
     7
370
    18
100
AcDbLine
 10
2.3711932435
 20
6.5151313559
 30
0.0
 11
2.3711932435
 21
6.498100106
 31
0.0
  0
LINE
  5
1DC
330
1F
100
AcDbEntity
  8
0
  6
Continuous
 62
     7
370
    18
100
AcDbLine
 10
2.3711932435
 20
6.498100106
 30
0.0
 11
2.3926218759
 21
6.498100106
 31
0.0
  0
LINE
  5
1DD
330
1F
100
AcDbEntity
  8
0
  6
Continuous
 62
     7
370
    18
100
AcDbLine
 10
2.3754790873
 20
6.4037920354
 30
0.0
 11
2.3364612181
 21
6.3916715688
 31
0.0
  0
LINE
  5
1DE
330
1F
100
AcDbEntity
  8
0
  6
Continuous
 62
     7
370
    18
100
AcDbLine
 10
2.3364612181
 20
6.3916715688
 30
0.0
 11
2.3754790873
 21
6.38001977
 31
0.0
  0
LINE
  5
1DF
330
1F
100
AcDbEntity
  8
0
  6
Continuous
 62
     7
370
    18
100
AcDbLine
 10
2.3754790873
 20
6.38001977
 30
0.0
 11
2.3754790873
 21
6.4037920354
 31
0.0
  0
LINE
  5
1E0
330
1F
100
AcDbEntity
  8
0
  6
Continuous
 62
     7
370
    18
100
AcDbLine
 10
3.7790956526
 20
6.4905701796
 30
0.0
 11
3.7288385349
 21
6.4725124216
 31
0.0
  0
LINE
  5
1E1
330
1F
100
AcDbEntity
  8
0
  6
Continuous
 62
     7
370
    18
100
AcDbLine
 10
3.7288385349
 20
6.4725124216
 30
0.0
 11
3.7790956526
 21
6.4543953375
 31
0.0
  0
LINE
  5
1E2
330
1F
100
AcDbEntity
  8
0
  6
Continuous
 62
     7
370
    18
100
AcDbLine
 10
3.7790956526
 20
6.4543953375
 30
0.0
 11
3.7790956526
 21
6.4905701796
 31
0.0
  0
LINE
  5
1E3
330
1F
100
AcDbEntity
  8
0
  6
Continuous
 62
     7
370
    18
100
AcDbLine
 10
2.352621938
 20
6.1552430134
 30
0.0
 11
2.352621938
 21
6.1697742855
 31
0.0
  0
SPLINE
  5
1E4
330
1F
100
AcDbEntity
  8
0
  6
Continuous
 62
     7
370
    18
100
AcDbSpline
210
0.0
220
0.0
230
1.0
 70
     8
 71
     3
 72
    11
 73
     7
 74
     0
 42
0.000000001
 43
0.00000001
 40
0.0
 40
0.0
 40
0.0
 40
0.0
 40
0.1571357011804986
 40
0.3762192277624899
 40
0.6578687293662212
 40
0.9999999999999999
 40
0.9999999999999999
 40
0.9999999999999999
 40
0.9999999999999999
 10
2.352621874742147
 20
6.169774212807718
 30
0.0
 10
2.352598949570051
 20
6.170258466677518
 30
0.0
 10
2.352544061403472
 20
6.171417882491802
 30
0.0
 10
2.352242493011096
 20
6.173426541394423
 30
0.0
 10
2.351799481202128
 20
6.175987069002389
 30
0.0
 10
2.351408014800787
 20
6.177870598730351
 30
0.0
 10
2.351193303313575
 20
6.178903677093432
 30
0.0
  0
SPLINE
  5
1E5
330
1F
100
AcDbEntity
  8
0
  6
Continuous
 62
     7
370
    18
100
AcDbSpline
210
0.0
220
0.0
230
1.0
 70
     8
 71
     3
 72
    15
 73
    11
 74
     0
 42
0.000000001
 43
0.00000001
 40
0.0
 40
0.0
 40
0.0
 40
0.0
 40
0.1275197560445863
 40
0.2526124825144764
 40
0.3746268037689046
 40
0.5009276382165159
 40
0.6270935598596074
 40
0.7514694818685961
 40
0.8732392968659257
 40
1.0
 40
1.0
 40
1.0
 40
1.0
 10
2.351193303313575
 20
6.178903677093433
 30
0.0
 10
2.35106501872042
 20
6.179453687756842
 30
0.0
 10
2.350810891120504
 20
6.180543240963366
 30
0.0
 10
2.350075672125652
 20
6.182039361768876
 30
0.0
 10
2.349124424309569
 20
6.183395117647021
 30
0.0
 10
2.347919003860369
 20
6.184542945118521
 30
0.0
 10
2.346533987944608
 20
6.185477318193845
 30
0.0
 10
2.34503901336646
 20
6.186178355418487
 30
0.0
 10
2.343433176591217
 20
6.186599006386373
 30
0.0
 10
2.342334188974521
 20
6.186647036777433
 30
0.0
 10
2.341773660456432
 20
6.186671534236289
 30
0.0
  0
SPLINE
  5
1E6
330
1F
100
AcDbEntity
  8
0
  6
Continuous
 62
     7
370
    18
100
AcDbSpline
210
0.0
220
0.0
230
1.0
 70
     8
 71
     3
 72
    19
 73
    15
 74
     0
 42
0.000000001
 43
0.00000001
 40
0.0
 40
0.0
 40
0.0
 40
0.0
 40
0.1089525224591115
 40
0.2074777207390594
 40
0.3020576862902947
 40
0.3979514725639849
 40
0.450051256415667
 40
0.5071060269516896
 40
0.5700151420362145
 40
0.6404249506118298
 40
0.7190412918358057
 40
0.8039041451692474
 40
0.8975189837786504
 40
1.0
 40
1.0
 40
1.0
 40
1.0
 10
2.341773660456432
 20
6.186671534236289
 30
0.0
 10
2.340965943002903
 20
6.18662962349624
 30
0.0
 10
2.339427810865373
 20
6.186549813092372
 30
0.0
 10
2.337254177858724
 20
6.185918971197163
 30
0.0
 10
2.335398408837706
 20
6.18481286864951
 30
0.0
 10
2.33409823984486
 20
6.183543525396618
 30
0.0
 10
2.333247795058258
 20
6.182279130691805
 30
0.0
 10
2.332694485236144
 20
6.181127138460215
 30
0.0
 10
2.332223807589011
 20
6.179795079280157
 30
0.0
 10
2.331859601061075
 20
6.178266565667243
 30
0.0
 10
2.331538970291081
 20
6.176562614442187
 30
0.0
 10
2.331358128727943
 20
6.174665451593796
 30
0.0
 10
2.331213347832402
 20
6.172588948900228
 30
0.0
 10
2.331200183225779
 20
6.171136139414339
 30
0.0
 10
2.331193303313575
 20
6.170376891379147
 30
0.0
  0
LINE
  5
1E7
330
1F
100
AcDbEntity
  8
0
  6
Continuous
 62
     7
370
    18
100
AcDbLine
 10
2.3311933056
 20
6.1703769319
 30
0.0
 11
2.3311933056
 21
6.1552430134
 31
0.0
  0
LINE
  5
1E8
330
1F
100
AcDbEntity
  8
0
  6
Continuous
 62
     7
370
    18
100
AcDbLine
 10
2.3311933056
 20
6.1552430134
 30
0.0
 11
2.352621938
 21
6.1552430134
 31
0.0
  0
SPLINE
  5
1E9
330
1F
100
AcDbEntity
  8
0
  6
Continuous
 62
     7
370
    18
100
AcDbSpline
210
0.0
220
0.0
230
1.0
 70
     8
 71
     3
 72
    15
 73
    11
 74
     0
 42
0.000000001
 43
0.00000001
 40
0.0
 40
0.0
 40
0.0
 40
0.0
 40
0.1421883902570769
 40
0.2766733373745985
 40
0.4037003468205707
 40
0.5252743044119828
 40
0.6439423040661695
 40
0.7611224248969335
 40
0.8788267503701751
 40
1.0
 40
1.0
 40
1.0
 40
1.0
 10
3.74913125539314
 20
6.332006073115132
 30
0.0
 10
3.748286121465283
 20
6.331983294885576
 30
0.0
 10
3.746641641040925
 20
6.33193897249906
 30
0.0
 10
3.744262893776796
 20
6.331596215060468
 30
0.0
 10
3.742045734893018
 20
6.331056513652964
 30
0.0
 10
3.740014082588944
 20
6.330247909687576
 30
0.0
 10
3.738126184750017
 20
6.329256018956355
 30
0.0
 10
3.736471139831611
 20
6.327952977125986
 30
0.0
 10
3.734921383572126
 20
6.32649937910226
 30
0.0
 10
3.734100608705623
 20
6.325337000021932
 30
0.0
 10
3.733684261722254
 20
6.324747370583486
 30
0.0
  0
SPLINE
  5
1EA
330
1F
100
AcDbEntity
  8
0
  6
Continuous
 62
     7
370
    18
100
AcDbSpline
210
0.0
220
0.0
230
1.0
 70
     8
 71
     3
 72
    15
 73
    11
 74
     0
 42
0.000000001
 43
0.00000001
 40
0.0
 40
0.0
 40
0.0
 40
0.0
 40
0.1052589316343267
 40
0.2112259463538306
 40
0.3198725378095185
 40
0.4324446897285069
 40
0.5530279358730593
 40
0.6884651002323819
 40
0.8362998615287037
 40
0.9999999999999999
 40
0.9999999999999999
 40
0.9999999999999999
 40
0.9999999999999999
 10
3.733684261722254
 20
6.324747370583486
 30
0.0
 10
3.733343361571202
 20
6.324199885412495
 30
0.0
 10
3.732659268013531
 20
6.323101232105246
 30
0.0
 10
3.731829280213001
 20
6.321321991141609
 30
0.0
 10
3.731157963345272
 20
6.319432018783757
 30
0.0
 10
3.730624199389143
 20
6.31740664713027
 30
0.0
 10
3.73019402595702
 20
6.315188575218142
 30
0.0
 10
3.729946298180098
 20
6.312726424801459
 30
0.0
 10
3.729754982432524
 20
6.30999560801234
 30
0.0
 10
3.72973766512715
 20
6.308087714794882
 30
0.0
 10
3.729728565519723
 20
6.307085187039182
 30
0.0
  0
LINE
  5
1EB
330
1F
100
AcDbEntity
  8
0
  6
Continuous
 62
     7
370
    18
100
AcDbLine
 10
3.7297285621
 20
6.3070851859
 30
0.0
 11
3.7297285621
 21
6.2940314167
 31
0.0
  0
LINE
  5
1EC
330
1F
100
AcDbEntity
  8
0
  6
Continuous
 62
     7
370
    18
100
AcDbLine
 10
3.7297285621
 20
6.2940314167
 30
0.0
 11
3.7702348975
 21
6.2940314167
 31
0.0
  0
LINE
  5
1ED
330
1F
100
AcDbEntity
  8
0
  6
Continuous
 62
     7
370
    18
100
AcDbLine
 10
3.7702348975
 20
6.2940314167
 30
0.0
 11
3.7702348975
 21
6.3051666614
 31
0.0
  0
SPLINE
  5
1EE
330
1F
100
AcDbEntity
  8
0
  6
Continuous
 62
     7
370
    18
100
AcDbSpline
210
0.0
220
0.0
230
1.0
 70
     8
 71
     3
 72
    15
 73
    11
 74
     0
 42
0.000000001
 43
0.00000001
 40
0.0
 40
0.0
 40
0.0
 40
0.0
 40
0.1692156142370224
 40
0.3213407441377668
 40
0.4586812238667572
 40
0.5811364546021657
 40
0.6928615550095374
 40
0.7983043029048837
 40
0.9006451669040727
 40
1.0
 40
1.0
 40
1.0
 40
1.0
 10
3.770234894633647
 20
6.305166674380955
 30
0.0
 10
3.770216568405781
 20
6.306439636520524
 30
0.0
 10
3.770181766867366
 20
6.308856993825479
 30
0.0
 10
3.76990604557331
 20
6.312299085726835
 30
0.0
 10
3.769462359720048
 20
6.315367416201251
 30
0.0
 10
3.76884661817212
 20
6.318098835772941
 30
0.0
 10
3.767978517921308
 20
6.320507766747771
 30
0.0
 10
3.766930323933406
 20
6.32267523154087
 30
0.0
 10
3.765649517563539
 20
6.324611583906609
 30
0.0
 10
3.764613771587755
 20
6.325722887865839
 30
0.0
 10
3.764103565519723
 20
6.326270313621461
 30
0.0
  0
SPLINE
  5
1EF
330
1F
100
AcDbEntity
  8
0
  6
Continuous
 62
     7
370
    18
100
AcDbSpline
210
0.0
220
0.0
230
1.0
 70
     8
 71
     3
 72
    15
 73
    11
 74
     0
 42
0.000000001
 43
0.00000001
 40
0.0
 40
0.0
 40
0.0
 40
0.0
 40
0.134313119786287
 40
0.2605430777256278
 40
0.3819778404808341
 40
0.4996620924246409
 40
0.6173402282001624
 40
0.7399370725790928
 40
0.866735944334534
 40
1.0
 40
1.0
 40
1.0
 40
1.0
 10
3.764103565519723
 20
6.326270313621461
 30
0.0
 10
3.76355864912862
 20
6.326768562976913
 30
0.0
 10
3.762501610219339
 20
6.327735076305998
 30
0.0
 10
3.760804919973577
 20
6.328980272083531
 30
0.0
 10
3.759053651399272
 20
6.32996843625487
 30
0.0
 10
3.757255562632569
 20
6.330762972671914
 30
0.0
 10
3.755359765673666
 20
6.331301471932174
 30
0.0
 10
3.753386651553834
 20
6.331727557081813
 30
0.0
 10
3.751292733592608
 20
6.331961804104341
 30
0.0
 10
3.749863590990443
 20
6.331991074225729
 30
0.0
 10
3.74913125539314
 20
6.332006073115132
 30
0.0
  0
SPLINE
  5
1F0
330
1F
100
AcDbEntity
  8
0
  6
Continuous
 62
     7
370
    18
100
AcDbSpline
210
0.0
220
0.0
230
1.0
 70
     8
 71
     3
 72
    23
 73
    19
 74
     0
 42
0.000000001
 43
0.00000001
 40
0.0
 40
0.0
 40
0.0
 40
0.0
 40
0.0906592552075822
 40
0.1749019062979648
 40
0.2530405971888674
 40
0.3253565549693889
 40
0.3924081972646107
 40
0.4546050173156799
 40
0.5132944051630673
 40
0.5684957629742893
 40
0.6217336448406549
 40
0.6737256155876041
 40
0.7251394290070802
 40
0.7771238341675841
 40
0.8299289911165373
 40
0.884203414674617
 40
0.9405449068128613
 40
1.0
 40
1.0
 40
1.0
 40
1.0
 10
2.363403124742146
 20
6.022385819950575
 30
0.0
 10
2.36472061883656
 20
6.022400153284948
 30
0.0
 10
2.367262358542248
 20
6.022427805481073
 30
0.0
 10
2.370931080272205
 20
6.022717045556752
 30
0.0
 10
2.374307822267104
 20
6.023206895431096
 30
0.0
 10
2.377403298292502
 20
6.023860822984566
 30
0.0
 10
2.38020424712227
 20
6.024731904348029
 30
0.0
 10
2.382729899652285
 20
6.025779926427624
 30
0.0
 10
2.384979468069811
 20
6.027015844934896
 30
0.0
 10
2.38691518755494
 20
6.02849455854381
 30
0.0
 10
2.388600119205333
 20
6.030111572625768
 30
0.0
 10
2.390062026152326
 20
6.031862249477732
 30
0.0
 10
2.391305179963606
 20
6.033753689985685
 30
0.0
 10
2.392308314645489
 20
6.035795583396943
 30
0.0
 10
2.393093512587015
 20
6.037974446849688
 30
0.0
 10
2.393647446979417
 20
6.040287400398823
 30
0.0
 10
2.393991310700296
 20
6.042740070218414
 30
0.0
 10
2.39403038413802
 20
6.044423340291475
 30
0.0
 10
2.394050446170718
 20
6.045287605664861
 30
0.0
  0
SPLINE
  5
1F1
330
1F
100
AcDbEntity
  8
0
  6
Continuous
 62
     7
370
    18
100
AcDbSpline
210
0.0
220
0.0
230
1.0
 70
     8
 71
     3
 72
    23
 73
    19
 74
     0
 42
0.000000001
 43
0.00000001
 40
0.0
 40
0.0
 40
0.0
 40
0.0
 40
0.058383705914504
 40
0.1142434015196713
 40
0.1670052630055783
 40
0.2182826937773434
 40
0.2682495261037708
 40
0.3176136298312419
 40
0.3674899047715854
 40
0.4174860718357639
 40
0.4701853712013318
 40
0.527237549884523
 40
0.5898444647587311
 40
0.6580875703850769
 40
0.7326402215298142
 40
0.8143728654136928
 40
0.9035846718424188
 40
1.0
 40
1.0
 40
1.0
 40
1.0
 10
2.394050446170718
 20
6.045287605664861
 30
0.0
 10
2.394030344818345
 20
6.046166761854908
 30
0.0
 10
2.393991011123537
 20
6.047887067067548
 30
0.0
 10
2.393646353309188
 20
6.050382058948815
 30
0.0
 10
2.393116295051545
 20
6.052733006776146
 30
0.0
 10
2.392357869826523
 20
6.054928998959748
 30
0.0
 10
2.39137237462766
 20
6.056976656139648
 30
0.0
 10
2.390151482066505
 20
6.05886791101056
 30
0.0
 10
2.388724933403347
 20
6.060609379906706
 30
0.0
 10
2.387065737990038
 20
6.06220480255051
 30
0.0
 10
2.38512311103698
 20
6.063637335271819
 30
0.0
 10
2.382810198710114
 20
6.064830353429241
 30
0.0
 10
2.380169001678396
 20
6.065854559416116
 30
0.0
 10
2.377180718163963
 20
6.066664486735075
 30
0.0
 10
2.373860623411368
 20
6.067308615363272
 30
0.0
 10
2.370191578446061
 20
6.067763521319216
 30
0.0
 10
2.366175870827218
 20
6.068060387282253
 30
0.0
 10
2.363381378644983
 20
6.06808652806078
 30
0.0
 10
2.361929910456432
 20
6.068100105664861
 30
0.0
  0
SPLINE
  5
1F2
330
1F
100
AcDbEntity
  8
0
  6
Continuous
 62
     7
370
    18
100
AcDbSpline
210
0.0
220
0.0
230
1.0
 70
     8
 71
     3
 72
    23
 73
    19
 74
     0
 42
0.000000001
 43
0.00000001
 40
0.0
 40
0.0
 40
0.0
 40
0.0
 40
0.086663250619463
 40
0.1678127928891686
 40
0.2432633494083171
 40
0.3134373662768607
 40
0.3791916689545808
 40
0.4412486386701834
 40
0.4998718483896319
 40
0.5556414126540681
 40
0.6102217024570062
 40
0.6636068822655062
 40
0.7164835213591351
 40
0.770031135018555
 40
0.8241778083652406
 40
0.8802210747991224
 40
0.9390344486105333
 40
1.0
 40
1.0
 40
1.0
 40
1.0
 10
2.361929910456432
 20
6.068100105664861
 30
0.0
 10
2.360701611345909
 20
6.068085821151604
 30
0.0
 10
2.358323160240431
 20
6.068058160937526
 30
0.0
 10
2.354885448878056
 20
6.067765686765311
 30
0.0
 10
2.351704819648962
 20
6.067287067903451
 30
0.0
 10
2.348788341214985
 20
6.066590256047768
 30
0.0
 10
2.346114509244473
 20
6.065729484838476
 30
0.0
 10
2.343691026148831
 20
6.06466354206654
 30
0.0
 10
2.341533311779813
 20
6.063387794936354
 30
0.0
 10
2.339634120060486
 20
6.061919514582185
 30
0.0
 10
2.337981856347849
 20
6.06028324083806
 30
0.0
 10
2.336542655395836
 20
6.058510706651417
 30
0.0
 10
2.335319232340265
 20
6.056597417580358
 30
0.0
 10
2.334353046952583
 20
6.054533201101558
 30
0.0
 10
2.33354378989232
 20
6.052353093565237
 30
0.0
 10
2.333031519235361
 20
6.050008566589607
 30
0.0
 10
2.332681099704171
 20
6.047537775167572
 30
0.0
 10
2.332641851465828
 20
6.045839500318623
 30
0.0
 10
2.332621874742147
 20
6.044975105664861
 30
0.0
  0
SPLINE
  5
1F3
330
1F
100
AcDbEntity
  8
0
  6
Continuous
 62
     7
370
    18
100
AcDbSpline
210
0.0
220
0.0
230
1.0
 70
     8
 71
     3
 72
    23
 73
    19
 74
     0
 42
0.000000001
 43
0.00000001
 40
0.0
 40
0.0
 40
0.0
 40
0.0
 40
0.0571553190302596
 40
0.1122240125542067
 40
0.1652462421909199
 40
0.2173243803752168
 40
0.2686244251749754
 40
0.3198418777782039
 40
0.3720696843172242
 40
0.4255490534335884
 40
0.4814120307722706
 40
0.540174328973604
 40
0.603127908647997
 40
0.6711287889604912
 40
0.7442755047477403
 40
0.8232776849346447
 40
0.9084152534200054
 40
1.0
 40
1.0
 40
1.0
 40
1.0
 10
2.332621874742147
 20
6.044975105664861
 30
0.0
 10
2.332642579345379
 20
6.044148068777172
 30
0.0
 10
2.332683232668509
 20
6.042524188451744
 30
0.0
 10
2.333024057443999
 20
6.040152560319858
 30
0.0
 10
2.333582912116678
 20
6.037900421933518
 30
0.0
 10
2.334363270298387
 20
6.035771821866464
 30
0.0
 10
2.335372903869488
 20
6.033770583246798
 30
0.0
 10
2.336616259894077
 20
6.031903375999403
 30
0.0
 10
2.338072612580494
 20
6.0301573012132
 30
0.0
 10
2.3397575834265
 20
6.02852917163672
 30
0.0
 10
2.341716400145998
 20
6.027079323532548
 30
0.0
 10
2.343942678833533
 20
6.02578228499796
 30
0.0
 10
2.346497569553527
 20
6.024764828620189
 30
0.0
 10
2.349308494425433
 20
6.02385203757707
 30
0.0
 10
2.352432601693048
 20
6.023209835160512
 30
0.0
 10
2.355830323150378
 20
6.02271628984686
 30
0.0
 10
2.359521682365822
 20
6.02242807031863
 30
0.0
 10
2.362078221423462
 20
6.022400241819412
 30
0.0
 10
2.363403124742146
 20
6.022385819950575
 30
0.0
  0
SPLINE
  5
1F4
330
1F
100
AcDbEntity
  8
0
  6
Continuous
 62
     7
370
    18
100
AcDbSpline
210
0.0
220
0.0
230
1.0
 70
     8
 71
     3
 72
    15
 73
    11
 74
     0
 42
0.000000001
 43
0.00000001
 40
0.0
 40
0.0
 40
0.0
 40
0.0
 40
0.1356092067051826
 40
0.2659122977532453
 40
0.3883385973379823
 40
0.5084418616637795
 40
0.6262386650501979
 40
0.7466203474036028
 40
0.8704195463791762
 40
1.0
 40
1.0
 40
1.0
 40
1.0
 10
3.746560052861495
 20
6.175044047798677
 30
0.0
 10
3.745860322577852
 20
6.175024119517612
 30
0.0
 10
3.744488241049968
 20
6.17498504270906
 30
0.0
 10
3.742499454988724
 20
6.174708375385073
 30
0.0
 10
3.74062776879917
 20
6.174251255686894
 30
0.0
 10
3.738879514905963
 20
6.173605073696798
 30
0.0
 10
3.737245639191463
 20
6.172724571398819
 30
0.0
 10
3.735759672668953
 20
6.171583254898064
 30
0.0
 10
3.734394472305156
 20
6.17020958461843
 30
0.0
 10
3.733636677620259
 20
6.169142155224431
 30
0.0
 10
3.733249135139976
 20
6.16859626298855
 30
0.0
  0
SPLINE
  5
1F5
330
1F
100
AcDbEntity
  8
0
  6
Continuous
 62
     7
370
    18
100
AcDbSpline
210
0.0
220
0.0
230
1.0
 70
     8
 71
     3
 72
    15
 73
    11
 74
     0
 42
0.000000001
 43
0.00000001
 40
0.0
 40
0.0
 40
0.0
 40
0.0
 40
0.1054273846448072
 40
0.2126824370183339
 40
0.3245271035943495
 40
0.4416794028228456
 40
0.566936542518037
 40
0.7017935350752555
 40
0.8457040109095725
 40
0.9999999999999999
 40
0.9999999999999999
 40
0.9999999999999999
 40
0.9999999999999999
 10
3.733249135139976
 20
6.16859626298855
 30
0.0
 10
3.73293357371196
 20
6.168102021808031
 30
0.0
 10
3.732296980347099
 20
6.167104971382265
 30
0.0
 10
3.731554597731657
 20
6.165456661635531
 30
0.0
 10
3.730930424262332
 20
6.163693019517693
 30
0.0
 10
3.730495486871785
 20
6.161770884832326
 30
0.0
 10
3.730127363584415
 20
6.159706452962555
 30
0.0
 10
3.729913726529
 20
6.15747080003076
 30
0.0
 10
3.729736754807251
 20
6.155070588688352
 30
0.0
 10
3.729731357933793
 20
6.153413377820208
 30
0.0
 10
3.729728565519723
 20
6.152555914887285
 30
0.0
  0
LINE
  5
1F6
330
1F
100
AcDbEntity
  8
0
  6
Continuous
 62
     7
370
    18
100
AcDbLine
 10
3.7297285621
 20
6.1525559644
 30
0.0
 11
3.7297285621
 21
6.1370693166
 31
0.0
  0
LINE
  5
1F7
330
1F
100
AcDbEntity
  8
0
  6
Continuous
 62
     7
370
    18
100
AcDbLine
 10
3.7297285621
 20
6.1370693166
 30
0.0
 11
3.7677032492
 21
6.1370693166
 31
0.0
  0
LINE
  5
1F8
330
1F
100
AcDbEntity
  8
0
  6
Continuous
 62
     7
370
    18
100
AcDbLine
 10
3.7677032492
 20
6.1370693166
 30
0.0
 11
3.7677032492
 21
6.1503803362
 31
0.0
  0
SPLINE
  5
1F9
330
1F
100
AcDbEntity
  8
0
  6
Continuous
 62
     7
370
    18
100
AcDbSpline
210
0.0
220
0.0
230
1.0
 70
     8
 71
     3
 72
    15
 73
    11
 74
     0
 42
0.000000001
 43
0.00000001
 40
0.0
 40
0.0
 40
0.0
 40
0.0
 40
0.1513415820891112
 40
0.2930885624767949
 40
0.424821137104065
 40
0.5487400058942479
 40
0.6657140230079802
 40
0.77816191487684
 40
0.8895834222852598
 40
1.0
 40
1.0
 40
1.0
 40
1.0
 10
3.767703249064027
 20
6.150380281975893
 30
0.0
 10
3.767684720453555
 20
6.151389138860487
 30
0.0
 10
3.767648837890859
 20
6.153342894133618
 30
0.0
 10
3.767468926068196
 20
6.156172273606757
 30
0.0
 10
3.767093272672401
 20
6.158795976732192
 30
0.0
 10
3.766655680976277
 20
6.161244636931904
 30
0.0
 10
3.765953215576974
 20
6.16349978238526
 30
0.0
 10
3.765042369208003
 20
6.165586719030546
 30
0.0
 10
3.763876623518444
 20
6.16749827966614
 30
0.0
 10
3.762918877047524
 20
6.168627543361556
 30
0.0
 10
3.76244217311466
 20
6.16918961741893
 30
0.0
  0
SPLINE
  5
1FA
330
1F
100
AcDbEntity
  8
0
  6
Continuous
 62
     7
370
    18
100
AcDbSpline
210
0.0
220
0.0
230
1.0
 70
     8
 71
     3
 72
    15
 73
    11
 74
     0
 42
0.000000001
 43
0.00000001
 40
0.0
 40
0.0
 40
0.0
 40
0.0
 40
0.1170054816423991
 40
0.2302990925770665
 40
0.3431897947559324
 40
0.4552359731499921
 40
0.5727668328432927
 40
0.7023035986313616
 40
0.8446844173354469
 40
1.0
 40
1.0
 40
1.0
 40
1.0
 10
3.76244217311466
 20
6.16918961741893
 30
0.0
 10
3.761959365912867
 20
6.169671119995933
 30
0.0
 10
3.76100906803877
 20
6.170618850008243
 30
0.0
 10
3.759391086287799
 20
6.171798862653792
 30
0.0
 10
3.757720920132524
 20
6.172844707059599
 30
0.0
 10
3.755900403269572
 20
6.173672516100362
 30
0.0
 10
3.753897589876432
 20
6.174282732359083
 30
0.0
 10
3.751674446640253
 20
6.174741086438657
 30
0.0
 10
3.749195793562221
 20
6.174981275211338
 30
0.0
 10
3.747463719027324
 20
6.175022526158364
 30
0.0
 10
3.746560052861495
 20
6.175044047798677
 30
0.0
  0
LINE
  5
1FB
330
1F
100
AcDbEntity
  8
0
  6
Continuous
 62
     7
370
    18
100
AcDbLine
 10
3.7790956526
 20
6.0817094495
 30
0.0
 11
3.7288385349
 21
6.0636516181
 31
0.0
  0
LINE
  5
1FC
330
1F
100
AcDbEntity
  8
0
  6
Continuous
 62
     7
370
    18
100
AcDbLine
 10
3.7288385349
 20
6.0636516181
 30
0.0
 11
3.7790956526
 21
6.045534534
 31
0.0
  0
LINE
  5
1FD
330
1F
100
AcDbEntity
  8
0
  6
Continuous
 62
     7
370
    18
100
AcDbLine
 10
3.7790956526
 20
6.045534534
 30
0.0
 11
3.7790956526
 21
6.0817094495
 31
0.0
  0
CIRCLE
  5
1FE
330
1F
100
AcDbEntity
  8
0
  6
Continuous
 62
     7
370
    18
100
AcDbCircle
 10
3.0683361605
 20
6.25738582
 30
0.0
 40
0.5004999999999997
  0
CIRCLE
  5
1FF
330
1F
100
AcDbEntity
  8
0
  6
Continuous
 62
     7
370
    18
100
AcDbCircle
 10
3.0683361605
 20
6.25738582
 30
0.0
 40
0.6000000000000005
  0
POINT
  5
200
330
1F
100
AcDbEntity
  8
0
  6
Continuous
 62
     7
370
     0
100
AcDbPoint
 10
3.0683361605
 20
6.25738582
 30
0.0
  0
DIMENSION
  5
201
330
1F
100
AcDbEntity
  8
0
  6
Continuous
 62
     7
370
    18
100
AcDbDimension
  2
_D_2
 10
4.0183361605
 20
5.1827098418
 30
0.0
 11
3.5357004977
 21
5.1827098418
 31
0.0
 70
   160
  1
<>
 71
     2
 42
-1.0
  3
SLDDIMSTYLE2
100
AcDbAlignedDimension
 13
3.0683361605
 23
6.25738582
 33
0.0
 14
4.0183361605
 24
5.50738582
 34
0.0
100
AcDbRotatedDimension
  0
DIMENSION
  5
216
330
1F
100
AcDbEntity
  8
0
  6
Continuous
 62
     7
370
    18
100
AcDbDimension
  2
_D_3
 10
4.4120369479
 20
7.50738582
 30
0.0
 11
4.4120369479
 21
6.88238582
 31
0.0
 70
   160
  1
<>
 71
     2
 42
-1.0
  3
SLDDIMSTYLE1
100
AcDbAlignedDimension
 13
3.0683361605
 23
6.25738582
 33
0.0
 14
4.0183361605
 24
7.50738582
 34
0.0
 50
90.0
100
AcDbRotatedDimension
  0
DIMENSION
  5
22A
330
1F
100
AcDbEntity
  8
0
  6
Continuous
 62
     7
370
    18
100
AcDbDimension
  2
_D_4
 10
2.3183361605
 20
7.7538221131
 30
0.0
 11
3.0683361605
 21
7.7538221131
 31
0.0
 70
   160
  1
<>
 71
     2
 42
-1.0
  3
SLDDIMSTYLE0
100
AcDbAlignedDimension
 13
3.8183361605
 23
7.38838582
 33
0.0
 14
2.3183361605
 24
7.38838582
 34
0.0
100
AcDbRotatedDimension
  0
DIMENSION
  5
23E
330
1F
100
AcDbEntity
  8
0
  6
Continuous
 62
     7
370
    18
100
AcDbDimension
  2
_D_5
 10
4.9986631746
 20
5.50738582
 30
0.0
 11
4.9986631746
 21
6.50738582
 31
0.0
 70
   160
  1
<>
 71
     2
 42
-1.0
  3
SLDDIMSTYLE0
100
AcDbAlignedDimension
 13
4.0183361605
 23
7.50738582
 33
0.0
 14
4.0183361605
 24
5.50738582
 34
0.0
 50
90.0
100
AcDbRotatedDimension
  0
INSERT
  5
259
330
1F
100
AcDbEntity
  8
0
  6
Continuous
 62
     7
370
     0
100
AcDbBlockReference
  2
SW_CENTERMARKSYMBOL_0
 10
3.8183361605
 20
7.33838582
 30
0.0
  0
INSERT
  5
261
330
1F
100
AcDbEntity
  8
0
  6
Continuous
 62
     7
370
     0
100
AcDbBlockReference
  2
SW_CENTERMARKSYMBOL_1
 10
2.3183361605
 20
7.33838582
 30
0.0
  0
LINE
  5
262
330
1F
100
AcDbEntity
  8
0
  6
Continuous
 62
     7
370
    18
100
AcDbLine
 10
9.6738722195
 20
7.794780188
 30
0.0
 11
9.6738722195
 21
7.8076919604
 31
0.0
  0
LINE
  5
263
330
1F
100
AcDbEntity
  8
0
  6
Continuous
 62
     7
370
    18
100
AcDbLine
 10
8.6738722195
 20
7.8076919604
 30
0.0
 11
8.6738722195
 21
7.794780188
 31
0.0
  0
LINE
  5
264
330
1F
100
AcDbEntity
  8
0
  6
Continuous
 62
     7
370
    18
100
AcDbLine
 10
9.7738722195
 20
6.3636363199
 30
0.0
 11
9.7738722195
 21
7.8076919604
 31
0.0
  0
LINE
  5
265
330
1F
100
AcDbEntity
  8
0
  6
Continuous
 62
     7
370
    18
100
AcDbLine
 10
8.5738722195
 20
7.8076919604
 30
0.0
 11
8.5738722195
 21
6.3636363199
 31
0.0
  0
LINE
  5
266
330
1F
100
AcDbEntity
  8
0
  6
Continuous
 62
     7
370
    18
100
AcDbLine
 10
8.8238158108
 20
7.6015587934
 30
0.0
 11
8.8238158108
 21
7.6015909407
 31
0.0
  0
LWPOLYLINE
  5
267
330
1F
100
AcDbEntity
  8
0
  6
Continuous
 62
     7
370
    18
100
AcDbPolyline
 90
       51
 70
   128
 43
0.0
 10
8.8238158108
 20
7.6015909407
 10
8.8467748841
 20
7.5893830474
 10
8.8710087392
 20
7.5780259598
 10
8.8964229308
 20
7.5675639392
 10
8.9229184132
 20
7.558037759
 10
8.9503919268
 20
7.5494845451
 10
8.9787364002
 20
7.5419376314
 10
9.0078413678
 20
7.5354264304
 10
9.0375934001
 20
7.5299763177
 10
9.0678765458
 20
7.5256085339
 10
9.0985727837
 20
7.5223401013
 10
9.1295624828
 20
7.5201837579
 10
9.1607248682
 20
7.5191479075
 10
9.1919384923
 20
7.519236587
 10
9.2230817074
 20
7.5204494508
 10
9.2540331406
 20
7.5227817722
 10
9.2846721662
 20
7.5262244614
 10
9.3148793761
 20
7.5307641015
 10
9.344537045
 20
7.5363830002
 10
9.3735295895
 20
7.5430592593
 10
9.4017440181
 20
7.5507668597
 10
9.4290703721
 20
7.5594757629
 10
9.4554021536
 20
7.5691520281
 10
9.480636741
 20
7.5797579444
 10
9.5046757886
 20
7.5912521778
 10
9.5274256101
 20
7.6035899325
 10
9.5487975437
 20
7.6167231249
 10
9.5687082974
 20
7.6306005717
 10
9.5870802739
 20
7.6451681889
 10
9.603841873
 20
7.6603692028
 10
9.6189277705
 20
7.6761443712
 10
9.6322791726
 20
7.6924322141
 10
9.6438440457
 20
7.7091692538
 10
9.6535773183
 20
7.7262902616
 10
9.6614410576
 20
7.7437285127
 10
9.6674046164
 20
7.7614160457
 10
9.6714447532
 20
7.7792839278
 10
9.6735457227
 20
7.7972625232
 10
9.6736993368
 20
7.8152817648
 10
9.6719049968
 20
7.833271427
 10
9.6681696957
 20
7.8511613995
 10
9.662507991
 20
7.8688819604
 10
9.6549419477
 20
7.8863640483
 10
9.6455010527
 20
7.9035395309
 10
9.6342220995
 20
7.9203414711
 10
9.6211490452
 20
7.9367043873
 10
9.6063328387
 20
7.9525645091
 10
9.5898312226
 20
7.9678600255
 10
9.5717085078
 20
7.982531326
 10
9.5520353234
 20
7.9965212328
 10
9.5308883406
 20
8.0097752237
  0
ARC
  5
268
330
1F
100
AcDbEntity
  8
0
  6
Continuous
 62
     7
370
    18
100
AcDbCircle
 10
9.2917304093
 20
7.6035013194
 30
0.0
 40
0.4714115837359527
100
AcDbArc
 50
59.5143210031
 51
60.4910555296
  0
LINE
  5
269
330
1F
100
AcDbEntity
  8
0
  6
Continuous
 62
     7
370
    18
100
AcDbLine
 10
9.5239286282
 20
8.0137608329
 30
0.0
 11
9.5239286282
 21
8.0137929802
 31
0.0
  0
LWPOLYLINE
  5
26A
330
1F
100
AcDbEntity
  8
0
  6
Continuous
 62
     7
370
    18
100
AcDbPolyline
 90
       51
 70
   128
 43
0.0
 10
9.5239286282
 20
8.0137929802
 10
9.500969555
 20
8.0260008735
 10
9.4767356998
 20
8.0373579611
 10
9.4513215082
 20
8.0478199816
 10
9.4248260258
 20
8.0573461618
 10
9.3973525123
 20
8.0658993758
 10
9.3690080388
 20
8.0734462894
 10
9.3399030713
 20
8.0799574905
 10
9.310151039
 20
8.0854076032
 10
9.2798678933
 20
8.089775387
 10
9.2491716554
 20
8.0930438195
 10
9.2181819563
 20
8.095200163
 10
9.1870195709
 20
8.0962360134
 10
9.1558059468
 20
8.0961473339
 10
9.1246627317
 20
8.09493447
 10
9.0937112985
 20
8.0926021486
 10
9.0630722729
 20
8.0891594594
 10
9.032865063
 20
8.0846198194
 10
9.0032073941
 20
8.0790009207
 10
8.9742148496
 20
8.0723246616
 10
8.946000421
 20
8.0646170612
 10
8.918674067
 20
8.055908158
 10
8.8923422855
 20
8.0462318928
 10
8.8671076981
 20
8.0356259765
 10
8.8430686505
 20
8.024131743
 10
8.8203188289
 20
8.0117939884
 10
8.7989468954
 20
7.998660796
 10
8.7790361417
 20
7.9847833492
 10
8.7606641651
 20
7.970215732
 10
8.743902566
 20
7.955014718
 10
8.7288166686
 20
7.9392395497
 10
8.7154652665
 20
7.9229517067
 10
8.7039003934
 20
7.9062146671
 10
8.6941671207
 20
7.8890936592
 10
8.6863033815
 20
7.8716554081
 10
8.6803398227
 20
7.8539678752
 10
8.6762996858
 20
7.8360999931
 10
8.6741987163
 20
7.8181213977
 10
8.6740451023
 20
7.8001021561
 10
8.6758394423
 20
7.7821124939
 10
8.6795747433
 20
7.7642225214
 10
8.6852364481
 20
7.7465019604
 10
8.6928024914
 20
7.7290198725
 10
8.7022433864
 20
7.7118443899
 10
8.7135223395
 20
7.6950424497
 10
8.7265953939
 20
7.6786795335
 10
8.7414116004
 20
7.6628194118
 10
8.7579132165
 20
7.6475238953
 10
8.7760359312
 20
7.6328525948
 10
8.7957091157
 20
7.618862688
 10
8.8168560984
 20
7.6056086971
  0
LINE
  5
26B
330
1F
100
AcDbEntity
  8
0
  6
Continuous
 62
     7
370
    18
100
AcDbLine
 10
8.8168560984
 20
7.6055765499
 30
0.0
 11
8.8168560984
 21
7.6056086971
 31
0.0
  0
ARC
  5
26C
330
1F
100
AcDbEntity
  8
0
  6
Continuous
 62
     7
370
    18
100
AcDbCircle
 10
9.0560140298
 20
8.0118183069
 30
0.0
 40
0.4714115837383512
100
AcDbArc
 50
239.5143210031
 51
240.4910555296
  0
LINE
  5
26D
330
1F
100
AcDbEntity
  8
0
  6
Continuous
 62
     7
370
    18
100
AcDbLine
 10
8.8238158108
 20
7.6015909407
 30
0.0
 11
9.5308883406
 21
8.0097752237
 31
0.0
  0
LINE
  5
26E
330
1F
100
AcDbEntity
  8
0
  6
Continuous
 62
     7
370
    18
100
AcDbLine
 10
9.5239286282
 20
8.0137608329
 30
0.0
 11
8.8168560984
 21
7.6055765499
 31
0.0
  0
LINE
  5
26F
330
1F
100
AcDbEntity
  8
0
  6
Continuous
 62
     7
370
    18
100
AcDbLine
 10
9.5239286282
 20
8.0137929802
 30
0.0
 11
8.8168560984
 21
7.6056086971
 31
0.0
  0
LINE
  5
270
330
1F
100
AcDbEntity
  8
0
  6
Continuous
 62
     7
370
    18
100
AcDbLine
 10
9.9332959518
 20
6.2300399165
 30
0.0
 11
9.9601481081
 21
6.2145384967
 31
0.0
  0
LINE
  5
271
330
1F
100
AcDbEntity
  8
0
  6
Continuous
 62
     7
370
    18
100
AcDbLine
 10
9.9699938987
 20
6.2512251903
 30
0.0
 11
9.9332959518
 21
6.2300399165
 31
0.0
  0
LINE
  5
272
330
1F
100
AcDbEntity
  8
0
  6
Continuous
 62
     7
370
    18
100
AcDbLine
 10
9.9619382518
 20
6.2558756163
 30
0.0
 11
9.9699938987
 21
6.2512251903
 31
0.0
  0
LINE
  5
273
330
1F
100
AcDbEntity
  8
0
  6
Continuous
 62
     7
370
    18
100
AcDbLine
 10
9.9252403049
 20
6.2346903425
 30
0.0
 11
9.9619382518
 21
6.2558756163
 31
0.0
  0
LINE
  5
274
330
1F
100
AcDbEntity
  8
0
  6
Continuous
 62
     7
370
    18
100
AcDbLine
 10
9.9055487237
 20
6.2460580504
 30
0.0
 11
9.9252403049
 21
6.2346903425
 31
0.0
  0
LINE
  5
275
330
1F
100
AcDbEntity
  8
0
  6
Continuous
 62
     7
370
    18
100
AcDbLine
 10
9.9422466706
 20
6.2672433241
 30
0.0
 11
9.9055487237
 21
6.2460580504
 31
0.0
  0
LINE
  5
276
330
1F
100
AcDbEntity
  8
0
  6
Continuous
 62
     7
370
    18
100
AcDbLine
 10
9.9341910237
 20
6.2718937501
 30
0.0
 11
9.9422466706
 21
6.2672433241
 31
0.0
  0
LINE
  5
277
330
1F
100
AcDbEntity
  8
0
  6
Continuous
 62
     7
370
    18
100
AcDbLine
 10
9.8885423581
 20
6.2455413364
 30
0.0
 11
9.9341910237
 21
6.2718937501
 31
0.0
  0
LINE
  5
278
330
1F
100
AcDbEntity
  8
0
  6
Continuous
 62
     7
370
    18
100
AcDbLine
 10
9.9592530362
 20
6.2047209308
 30
0.0
 11
9.8885423581
 21
6.2455413364
 31
0.0
  0
LINE
  5
279
330
1F
100
AcDbEntity
  8
0
  6
Continuous
 62
     7
370
    18
100
AcDbLine
 10
10.0049017018
 20
6.2310733445
 30
0.0
 11
9.9592530362
 21
6.2047209308
 31
0.0
  0
LINE
  5
27A
330
1F
100
AcDbEntity
  8
0
  6
Continuous
 62
     7
370
    18
100
AcDbLine
 10
9.9968460549
 20
6.2357237705
 30
0.0
 11
10.0049017018
 21
6.2310733445
 31
0.0
  0
LINE
  5
27B
330
1F
100
AcDbEntity
  8
0
  6
Continuous
 62
     7
370
    18
100
AcDbLine
 10
9.9601481081
 20
6.2145384967
 30
0.0
 11
9.9968460549
 21
6.2357237705
 31
0.0
  0
LINE
  5
27C
330
1F
100
AcDbEntity
  8
0
  6
Continuous
 62
     7
370
    18
100
AcDbLine
 10
9.8240971831
 20
6.1266971176
 30
0.0
 11
9.7793016328
 21
6.182478008
 31
0.0
  0
LINE
  5
27D
330
1F
100
AcDbEntity
  8
0
  6
Continuous
 62
     7
370
    18
100
AcDbLine
 10
9.8336352927
 20
6.1322033511
 30
0.0
 11
9.8240971831
 21
6.1266971176
 31
0.0
  0
LINE
  5
27E
330
1F
100
AcDbEntity
  8
0
  6
Continuous
 62
     7
370
    18
100
AcDbLine
 10
9.820922475
 20
6.1475998134
 30
0.0
 11
9.8336352927
 21
6.1322033511
 31
0.0
  0
LINE
  5
27F
330
1F
100
AcDbEntity
  8
0
  6
Continuous
 62
     7
370
    18
100
AcDbLine
 10
9.8523339036
 20
6.1657332451
 30
0.0
 11
9.820922475
 21
6.1475998134
 31
0.0
  0
LINE
  5
280
330
1F
100
AcDbEntity
  8
0
  6
Continuous
 62
     7
370
    18
100
AcDbLine
 10
9.8790042484
 20
6.1583942917
 30
0.0
 11
9.8523339036
 21
6.1657332451
 31
0.0
  0
LINE
  5
281
330
1F
100
AcDbEntity
  8
0
  6
Continuous
 62
     7
370
    18
100
AcDbLine
 10
9.8885423581
 20
6.1639005252
 30
0.0
 11
9.8790042484
 21
6.1583942917
 31
0.0
  0
LINE
  5
282
330
1F
100
AcDbEntity
  8
0
  6
Continuous
 62
     7
370
    18
100
AcDbLine
 10
9.7919165521
 20
6.1897604459
 30
0.0
 11
9.8885423581
 21
6.1639005252
 31
0.0
  0
LINE
  5
283
330
1F
100
AcDbEntity
  8
0
  6
Continuous
 62
     7
370
    18
100
AcDbLine
 10
9.7793016328
 20
6.182478008
 30
0.0
 11
9.7919165521
 21
6.1897604459
 31
0.0
  0
LINE
  5
284
330
1F
100
AcDbEntity
  8
0
  6
Continuous
 62
     7
370
    18
100
AcDbLine
 10
9.6504532393
 20
6.1080954137
 30
0.0
 11
9.6693896037
 21
6.1190271442
 31
0.0
  0
LINE
  5
285
330
1F
100
AcDbEntity
  8
0
  6
Continuous
 62
     7
370
    18
100
AcDbLine
 10
9.7211639175
 20
6.0672750081
 30
0.0
 11
9.6504532393
 21
6.1080954137
 31
0.0
  0
LINE
  5
286
330
1F
100
AcDbEntity
  8
0
  6
Continuous
 62
     7
370
    18
100
AcDbLine
 10
9.7301146362
 20
6.0724421481
 30
0.0
 11
9.7211639175
 21
6.0672750081
 31
0.0
  0
LINE
  5
287
330
1F
100
AcDbEntity
  8
0
  6
Continuous
 62
     7
370
    18
100
AcDbLine
 10
9.7041575518
 20
6.0874268539
 30
0.0
 11
9.7301146362
 21
6.0724421481
 31
0.0
  0
LINE
  5
288
330
1F
100
AcDbEntity
  8
0
  6
Continuous
 62
     7
370
    18
100
AcDbLine
 10
9.7135278355
 20
6.0928362036
 30
0.0
 11
9.7041575518
 21
6.0874268539
 31
0.0
  0
SPLINE
  5
289
330
1F
100
AcDbEntity
  8
0
  6
Continuous
 62
     7
370
    18
100
AcDbSpline
210
0.0
220
0.0
230
1.0
 70
     8
 71
     3
 72
    15
 73
    11
 74
     0
 42
0.000000001
 43
0.00000001
 40
0.0
 40
0.0
 40
0.0
 40
0.0
 40
0.1117329368210178
 40
0.2226065614294817
 40
0.3338270273899193
 40
0.4475024950537913
 40
0.5675258747774617
 40
0.6992121784613026
 40
0.8426859062400486
 40
0.9999999999999999
 40
0.9999999999999999
 40
0.9999999999999999
 40
0.9999999999999999
 10
9.727275580098107
 20
6.109298388506154
 30
0.0
 10
9.727249352678541
 20
6.108597248998389
 30
0.0
 10
9.727197099548436
 20
6.107200362284887
 30
0.0
 10
9.726588114214826
 20
6.10513095653936
 30
0.0
 10
9.725645590728064
 20
6.103094089746583
 30
0.0
 10
9.724243768273503
 20
6.101083610410172
 30
0.0
 10
9.722383354973427
 20
6.099055013328506
 30
0.0
 10
9.719942534994688
 20
6.097012639504649
 30
0.0
 10
9.716995606292222
 20
6.094897365590109
 30
0.0
 10
9.714718682355517
 20
6.093544015143475
 30
0.0
 10
9.713527835519264
 20
6.092836203577293
 30
0.0
  0
SPLINE
  5
28A
330
1F
100
AcDbEntity
  8
0
  6
Continuous
 62
     7
370
    18
100
AcDbSpline
210
0.0
220
0.0
230
1.0
 70
     8
 71
     3
 72
    15
 73
    11
 74
     0
 42
0.000000001
 43
0.00000001
 40
0.0
 40
0.0
 40
0.0
 40
0.0
 40
0.1334089569093906
 40
0.2638860278456781
 40
0.3908747996373428
 40
0.5165699339087633
 40
0.6401728262255496
 40
0.7610861993778495
 40
0.8805727844579236
 40
1.0
 40
1.0
 40
1.0
 40
1.0
 10
9.717667542940767
 20
6.1219982496602
 30
0.0
 10
9.718425404067279
 20
6.121540999450158
 30
0.0
 10
9.71992447104874
 20
6.120636547871679
 30
0.0
 10
9.721855799514888
 20
6.119152012627551
 30
0.0
 10
9.723529892184567
 20
6.117611382942743
 30
0.0
 10
9.724878943249385
 20
6.116003182553794
 30
0.0
 10
9.725947191566496
 20
6.114357479986104
 30
0.0
 10
9.726706521256624
 20
6.112685928726977
 30
0.0
 10
9.727165568573929
 20
6.110996869587462
 30
0.0
 10
9.727238915665577
 20
6.109864455065775
 30
0.0
 10
9.727275580098107
 20
6.109298388506154
 30
0.0
  0
SPLINE
  5
28B
330
1F
100
AcDbEntity
  8
0
  6
Continuous
 62
     7
370
    18
100
AcDbSpline
210
0.0
220
0.0
230
1.0
 70
     8
 71
     3
 72
    15
 73
    11
 74
     0
 42
0.000000001
 43
0.00000001
 40
0.0
 40
0.0
 40
0.0
 40
0.0
 40
0.1187906523873727
 40
0.2355934925670696
 40
0.3500810610365855
 40
0.4655632116155339
 40
0.5845283973440822
 40
0.7122584647986153
 40
0.8501271884100275
 40
1.0
 40
1.0
 40
1.0
 40
1.0
 10
9.692213936497739
 20
6.127052358422077
 30
0.0
 10
9.693316098364486
 20
6.127151619974223
 30
0.0
 10
9.695501978804927
 20
6.127348482061243
 30
0.0
 10
9.698797307048705
 20
6.127363375812741
 30
0.0
 10
9.702037922407346
 20
6.127162893247395
 30
0.0
 10
9.705232275658323
 20
6.126725785712154
 30
0.0
 10
9.708408441237784
 20
6.126010372737181
 30
0.0
 10
9.711550890504213
 20
6.124975566261825
 30
0.0
 10
9.714688664609882
 20
6.123631058207029
 30
0.0
 10
9.716647345878885
 20
6.122557448894629
 30
0.0
 10
9.717667542940767
 20
6.1219982496602
 30
0.0
  0
SPLINE
  5
28C
330
1F
100
AcDbEntity
  8
0
  6
Continuous
 62
     7
370
    18
100
AcDbSpline
210
0.0
220
0.0
230
1.0
 70
     8
 71
     3
 72
    15
 73
    11
 74
     0
 42
0.000000001
 43
0.00000001
 40
0.0
 40
0.0
 40
0.0
 40
0.0
 40
0.1574370177283728
 40
0.30280271860139
 40
0.4358481715945124
 40
0.5586064038479701
 40
0.6732131793146292
 40
0.7841760769813555
 40
0.8930204619370469
 40
0.9999999999999999
 40
0.9999999999999999
 40
0.9999999999999999
 40
0.9999999999999999
 10
9.669389603687286
 20
6.119027144189959
 30
0.0
 10
9.67041060830337
 20
6.119600691962767
 30
0.0
 10
9.672374333086243
 20
6.120703811339392
 30
0.0
 10
9.67534880117073
 20
6.122200559882823
 30
0.0
 10
9.678226291423346
 20
6.123480134434438
 30
0.0
 10
9.681023710980288
 20
6.124548810808247
 30
0.0
 10
9.683787016276774
 20
6.125428661704803
 30
0.0
 10
9.686558822768493
 20
6.126132893553511
 30
0.0
 10
9.68935715834421
 20
6.126695400303062
 30
0.0
 10
9.691267178349023
 20
6.126934059768921
 30
0.0
 10
9.692213936497737
 20
6.127052358422077
 30
0.0
  0
SPLINE
  5
28D
330
1F
100
AcDbEntity
  8
0
  6
Continuous
 62
     7
370
    18
100
AcDbSpline
210
0.0
220
0.0
230
1.0
 70
     8
 71
     3
 72
    15
 73
    11
 74
     0
 42
0.000000001
 43
0.00000001
 40
0.0
 40
0.0
 40
0.0
 40
0.0
 40
0.1204833021840329
 40
0.2374301048571826
 40
0.3535608623479352
 40
0.4690933714329819
 40
0.587645633162889
 40
0.7148504755023994
 40
0.851312198992915
 40
1.0
 40
1.0
 40
1.0
 40
1.0
 10
9.580903357552648
 20
6.063520758027171
 30
0.0
 10
9.581930431621545
 20
6.063629629283235
 30
0.0
 10
9.583954432453643
 20
6.063844176139725
 30
0.0
 10
9.587023762547686
 20
6.063909006230351
 30
0.0
 10
9.590039175790974
 20
6.063775941126681
 30
0.0
 10
9.59301756518042
 20
6.063419880580605
 30
0.0
 10
9.595969485263375
 20
6.062802635582945
 30
0.0
 10
9.598885563903327
 20
6.061886064105133
 30
0.0
 10
9.60177544792303
 20
6.060665211026602
 30
0.0
 10
9.603573372196067
 20
6.059687136331959
 30
0.0
 10
9.604510878253656
 20
6.059177131008178
 30
0.0
  0
SPLINE
  5
28E
330
1F
100
AcDbEntity
  8
0
  6
Continuous
 62
     7
370
    18
100
AcDbSpline
210
0.0
220
0.0
230
1.0
 70
     8
 71
     3
 72
    15
 73
    11
 74
     0
 42
0.000000001
 43
0.00000001
 40
0.0
 40
0.0
 40
0.0
 40
0.0
 40
0.1610524613097828
 40
0.308141856546061
 40
0.4423333756553938
 40
0.5631756212443607
 40
0.6760003527151089
 40
0.7853862101446332
 40
0.8934790269756996
 40
1.0
 40
1.0
 40
1.0
 40
1.0
 10
9.558974096617115
 20
6.055285628734656
 30
0.0
 10
9.55999245225636
 20
6.055860543637954
 30
0.0
 10
9.561940873253773
 20
6.056960528973276
 30
0.0
 10
9.564852060446189
 20
6.058470547778217
 30
0.0
 10
9.567618552255242
 20
6.059761563353298
 30
0.0
 10
9.57024635744751
 20
6.060871237000346
 30
0.0
 10
9.572843475180177
 20
6.061780795491493
 30
0.0
 10
9.5754602994679
 20
6.062534667147716
 30
0.0
 10
9.578147471721834
 20
6.06312064181133
 30
0.0
 10
9.579989225312309
 20
6.063388038765476
 30
0.0
 10
9.580903357552648
 20
6.063520758027171
 30
0.0
  0
LINE
  5
28F
330
1F
100
AcDbEntity
  8
0
  6
Continuous
 62
     7
370
    18
100
AcDbLine
 10
9.5394643268
 20
6.0440228784
 30
0.0
 11
9.5589740966
 21
6.0552856287
 31
0.0
  0
LINE
  5
290
330
1F
100
AcDbEntity
  8
0
  6
Continuous
 62
     7
370
    18
100
AcDbLine
 10
9.610175005
 20
6.0032024728
 30
0.0
 11
9.5394643268
 21
6.0440228784
 31
0.0
  0
LINE
  5
291
330
1F
100
AcDbEntity
  8
0
  6
Continuous
 62
     7
370
    18
100
AcDbLine
 10
9.6191257237
 20
6.0083696127
 30
0.0
 11
9.610175005
 21
6.0032024728
 31
0.0
  0
LINE
  5
292
330
1F
100
AcDbEntity
  8
0
  6
Continuous
 62
     7
370
    18
100
AcDbLine
 10
9.5913784956
 20
6.0243877466
 30
0.0
 11
9.6191257237
 21
6.0083696127
 31
0.0
  0
LINE
  5
293
330
1F
100
AcDbEntity
  8
0
  6
Continuous
 62
     7
370
    18
100
AcDbLine
 10
9.6061471815
 20
6.0329135275
 30
0.0
 11
9.5913784956
 21
6.0243877466
 31
0.0
  0
LINE
  5
294
330
1F
100
AcDbEntity
  8
0
  6
Continuous
 62
     7
370
    18
100
AcDbLine
 10
9.6575858433
 20
6.0305721672
 30
0.0
 11
9.6061471815
 21
6.0329135275
 31
0.0
  0
LINE
  5
295
330
1F
100
AcDbEntity
  8
0
  6
Continuous
 62
     7
370
    18
100
AcDbLine
 10
9.6683546768
 20
6.0367888825
 30
0.0
 11
9.6575858433
 21
6.0305721672
 31
0.0
  0
LINE
  5
296
330
1F
100
AcDbEntity
  8
0
  6
Continuous
 62
     7
370
    18
100
AcDbLine
 10
9.6111260188
 20
6.0390495062
 30
0.0
 11
9.6683546768
 21
6.0367888825
 31
0.0
  0
SPLINE
  5
297
330
1F
100
AcDbEntity
  8
0
  6
Continuous
 62
     7
370
    18
100
AcDbSpline
210
0.0
220
0.0
230
1.0
 70
     8
 71
     3
 72
    23
 73
    19
 74
     0
 42
0.000000001
 43
0.00000001
 40
0.0
 40
0.0
 40
0.0
 40
0.0
 40
0.0703830305476864
 40
0.1379489199197072
 40
0.2034888084440785
 40
0.2668116458442021
 40
0.3289395236564627
 40
0.3896346109119562
 40
0.4495664907690702
 40
0.5094054054689522
 40
0.568823034396548
 40
0.6282063740288427
 40
0.6879203520712668
 40
0.7483104144166692
 40
0.8093179049203285
 40
0.8712531512616716
 40
0.9346509967026044
 40
1.0
 40
1.0
 40
1.0
 40
1.0
 10
9.604510878253656
 20
6.059177131008178
 30
0.0
 10
9.605131804058631
 20
6.058808378797881
 30
0.0
 10
9.606348802580577
 20
6.05808563400084
 30
0.0
 10
9.607970164849684
 20
6.056928950006888
 30
0.0
 10
9.60941493514147
 20
6.055760852356343
 30
0.0
 10
9.610673948955283
 20
6.054568284565725
 30
0.0
 10
9.611718658110219
 20
6.053348329808586
 30
0.0
 10
9.6125857218342
 20
6.052109102002289
 30
0.0
 10
9.613224446598654
 20
6.050841712394162
 30
0.0
 10
9.61368595122083
 20
6.049559302250008
 30
0.0
 10
9.613969681147237
 20
6.048263240456758
 30
0.0
 10
9.614057191343717
 20
6.046959411978484
 30
0.0
 10
9.614011654396705
 20
6.045647646646964
 30
0.0
 10
9.613765825821284
 20
6.044331143756771
 30
0.0
 10
9.61336223763858
 20
6.043011426674706
 30
0.0
 10
9.612776281186557
 20
6.041692462596883
 30
0.0
 10
9.612061051305217
 20
6.040360984181183
 30
0.0
 10
9.611440829474157
 20
6.039491060077909
 30
0.0
 10
9.611126018829234
 20
6.03904950617853
 30
0.0
  0
LINE
  5
298
330
1F
100
AcDbEntity
  8
0
  6
Continuous
 62
     7
370
    18
100
AcDbLine
 10
9.4571177144
 20
5.9551480713
 30
0.0
 11
9.4839698706
 21
5.9396466514
 31
0.0
  0
LINE
  5
299
330
1F
100
AcDbEntity
  8
0
  6
Continuous
 62
     7
370
    18
100
AcDbLine
 10
9.4938156612
 20
5.9763333451
 30
0.0
 11
9.4571177144
 21
5.9551480713
 31
0.0
  0
LINE
  5
29A
330
1F
100
AcDbEntity
  8
0
  6
Continuous
 62
     7
370
    18
100
AcDbLine
 10
9.4857600143
 20
5.980983771
 30
0.0
 11
9.4938156612
 21
5.9763333451
 31
0.0
  0
LINE
  5
29B
330
1F
100
AcDbEntity
  8
0
  6
Continuous
 62
     7
370
    18
100
AcDbLine
 10
9.4490620675
 20
5.9597984972
 30
0.0
 11
9.4857600143
 21
5.980983771
 31
0.0
  0
LINE
  5
29C
330
1F
100
AcDbEntity
  8
0
  6
Continuous
 62
     7
370
    18
100
AcDbLine
 10
9.4293704862
 20
5.9711662051
 30
0.0
 11
9.4490620675
 21
5.9597984972
 31
0.0
  0
LINE
  5
29D
330
1F
100
AcDbEntity
  8
0
  6
Continuous
 62
     7
370
    18
100
AcDbLine
 10
9.4660684331
 20
5.9923514789
 30
0.0
 11
9.4293704862
 21
5.9711662051
 31
0.0
  0
LINE
  5
29E
330
1F
100
AcDbEntity
  8
0
  6
Continuous
 62
     7
370
    18
100
AcDbLine
 10
9.4580127862
 20
5.9970019048
 30
0.0
 11
9.4660684331
 21
5.9923514789
 31
0.0
  0
LINE
  5
29F
330
1F
100
AcDbEntity
  8
0
  6
Continuous
 62
     7
370
    18
100
AcDbLine
 10
9.4123641206
 20
5.9706494911
 30
0.0
 11
9.4580127862
 21
5.9970019048
 31
0.0
  0
LINE
  5
2A0
330
1F
100
AcDbEntity
  8
0
  6
Continuous
 62
     7
370
    18
100
AcDbLine
 10
9.4830747987
 20
5.9298290855
 30
0.0
 11
9.4123641206
 21
5.9706494911
 31
0.0
  0
LINE
  5
2A1
330
1F
100
AcDbEntity
  8
0
  6
Continuous
 62
     7
370
    18
100
AcDbLine
 10
9.5287234643
 20
5.9561814993
 30
0.0
 11
9.4830747987
 21
5.9298290855
 31
0.0
  0
LINE
  5
2A2
330
1F
100
AcDbEntity
  8
0
  6
Continuous
 62
     7
370
    18
100
AcDbLine
 10
9.5206678175
 20
5.9608319252
 30
0.0
 11
9.5287234643
 21
5.9561814993
 31
0.0
  0
LINE
  5
2A3
330
1F
100
AcDbEntity
  8
0
  6
Continuous
 62
     7
370
    18
100
AcDbLine
 10
9.4839698706
 20
5.9396466514
 30
0.0
 11
9.5206678175
 21
5.9608319252
 31
0.0
  0
SPLINE
  5
2A4
330
1F
100
AcDbEntity
  8
0
  6
Continuous
 62
     7
370
    18
100
AcDbSpline
210
0.0
220
0.0
230
1.0
 70
     8
 71
     3
 72
    19
 73
    15
 74
     0
 42
0.000000001
 43
0.00000001
 40
0.0
 40
0.0
 40
0.0
 40
0.0
 40
0.1268557901536785
 40
0.2429673050938626
 40
0.3502951207940193
 40
0.4535893760916809
 40
0.5063470321901717
 40
0.5630340580734982
 40
0.623021516134354
 40
0.688261201551687
 40
0.7577161738094899
 40
0.832772795557718
 40
0.9133861479137406
 40
1.0
 40
1.0
 40
1.0
 40
1.0
 10
9.297697022128844
 20
5.883898055576306
 30
0.0
 10
9.298426651247752
 20
5.883503872670503
 30
0.0
 10
9.299824112258595
 20
5.882748892876354
 30
0.0
 10
9.302170907050078
 20
5.881893982626488
 30
0.0
 10
9.304579306286895
 20
5.881353596439679
 30
0.0
 10
9.30664010161266
 20
5.881150575812224
 30
0.0
 10
9.30831652672485
 20
5.881165620761632
 30
0.0
 10
9.309641570003064
 20
5.881256820740236
 30
0.0
 10
9.311043802704019
 20
5.881427391102449
 30
0.0
 10
9.312503216841039
 20
5.881698847509387
 30
0.0
 10
9.314036369871078
 20
5.882051396781244
 30
0.0
 10
9.31564616574546
 20
5.882478388728594
 30
0.0
 10
9.317325288419815
 20
5.882999806037955
 30
0.0
 10
9.318454188388351
 20
5.883389446045022
 30
0.0
 10
9.319038892146459
 20
5.883591256641878
 30
0.0
  0
SPLINE
  5
2A5
330
1F
100
AcDbEntity
  8
0
  6
Continuous
 62
     7
370
    18
100
AcDbSpline
210
0.0
220
0.0
230
1.0
 70
     8
 71
     3
 72
    23
 73
    19
 74
     0
 42
0.000000001
 43
0.00000001
 40
0.0
 40
0.0
 40
0.0
 40
0.0
 40
0.0820210942505551
 40
0.1599633972784858
 40
0.2342037896242961
 40
0.3051464968208944
 40
0.3734767162162452
 40
0.4393723058800481
 40
0.5031255476014576
 40
0.5652551831652668
 40
0.6254632584989345
 40
0.6821784966281682
 40
0.736465701292821
 40
0.7890719952109435
 40
0.8410771363906753
 40
0.8925432371722117
 40
0.9454616952505773
 40
0.9999999999999999
 40
0.9999999999999999
 40
0.9999999999999999
 40
0.9999999999999999
 10
9.303123395370543
 20
5.900352166848998
 30
0.0
 10
9.30251124091541
 20
5.899984047669159
 30
0.0
 10
9.30131737356705
 20
5.899266115347622
 30
0.0
 10
9.299671602300576
 20
5.898160370929953
 30
0.0
 10
9.29823440953831
 20
5.897045549172208
 30
0.0
 10
9.297023851642365
 20
5.895915054632413
 30
0.0
 10
9.295955300232865
 20
5.894796304322638
 30
0.0
 10
9.29511876132007
 20
5.893661217543301
 30
0.0
 10
9.29446856253274
 20
5.892527461489451
 30
0.0
 10
9.294017958951603
 20
5.891397264408092
 30
0.0
 10
9.293774506476671
 20
5.890291316388461
 30
0.0
 10
9.293681491568005
 20
5.889225126975671
 30
0.0
 10
9.29384649627232
 20
5.888209181990966
 30
0.0
 10
9.294184202766935
 20
5.887237297316633
 30
0.0
 10
9.29477042446954
 20
5.886323546728197
 30
0.0
 10
9.29553477217821
 20
5.885454848032914
 30
0.0
 10
9.296496678260576
 20
5.884631595832629
 30
0.0
 10
9.297292906616741
 20
5.884145013972284
 30
0.0
 10
9.297697022128844
 20
5.883898055576304
 30
0.0
  0
SPLINE
  5
2A6
330
1F
100
AcDbEntity
  8
0
  6
Continuous
 62
     7
370
    18
100
AcDbSpline
210
0.0
220
0.0
230
1.0
 70
     8
 71
     3
 72
    15
 73
    11
 74
     0
 42
0.000000001
 43
0.00000001
 40
0.0
 40
0.0
 40
0.0
 40
0.0
 40
0.1056061628530395
 40
0.2181381028586404
 40
0.3389700780630219
 40
0.4687622439174698
 40
0.6025408228832249
 40
0.7351057472044327
 40
0.8674845414082574
 40
0.9999999999999999
 40
0.9999999999999999
 40
0.9999999999999999
 40
0.9999999999999999
 10
9.33561170733052
 20
5.909806418223052
 30
0.0
 10
9.334315111889778
 20
5.909718519371404
 30
0.0
 10
9.331636888744677
 20
5.909536957157384
 30
0.0
 10
9.327579909476523
 20
5.908915525465141
 30
0.0
 10
9.3233449967865
 20
5.908058533732159
 30
0.0
 10
9.319012828655454
 20
5.906931559459741
 30
0.0
 10
9.31469156363771
 20
5.905601620886971
 30
0.0
 10
9.31057379366985
 20
5.904038274574506
 30
0.0
 10
9.306671398695775
 20
5.902312028193643
 30
0.0
 10
9.304306469850749
 20
5.901005678621408
 30
0.0
 10
9.303123395370543
 20
5.900352166848998
 30
0.0
  0
LINE
  5
2A7
330
1F
100
AcDbEntity
  8
0
  6
Continuous
 62
     7
370
    18
100
AcDbLine
 10
9.3362830112
 20
5.9101939537
 30
0.0
 11
9.3356117073
 21
5.9098064182
 31
0.0
  0
LINE
  5
2A8
330
1F
100
AcDbEntity
  8
0
  6
Continuous
 62
     7
370
    18
100
AcDbLine
 10
9.3251225838
 20
5.9166367313
 30
0.0
 11
9.3362830112
 21
5.9101939537
 31
0.0
  0
SPLINE
  5
2A9
330
1F
100
AcDbEntity
  8
0
  6
Continuous
 62
     7
370
    18
100
AcDbSpline
210
0.0
220
0.0
230
1.0
 70
     8
 71
     3
 72
    15
 73
    11
 74
     0
 42
0.000000001
 43
0.00000001
 40
0.0
 40
0.0
 40
0.0
 40
0.0
 40
0.1438134946436331
 40
0.2825302617167643
 40
0.4154724990798222
 40
0.5436416713555701
 40
0.6664829494542228
 40
0.7833339323015198
 40
0.894419168327548
 40
1.0
 40
1.0
 40
1.0
 40
1.0
 10
9.29515166148454
 20
5.905051034739433
 30
0.0
 10
9.296397389541617
 20
5.905753433160251
 30
0.0
 10
9.298844697249882
 20
5.907133337112619
 30
0.0
 10
9.30266434562227
 20
5.909025240512405
 30
0.0
 10
9.306500212312539
 20
5.910731949133082
 30
0.0
 10
9.310364212477163
 20
5.912226193920925
 30
0.0
 10
9.31417857983351
 20
5.913554313763632
 30
0.0
 10
9.317900263234424
 20
5.914735657529482
 30
0.0
 10
9.32151986700164
 20
5.915771721359623
 30
0.0
 10
9.32394219125815
 20
5.916353319853813
 30
0.0
 10
9.325122583796304
 20
5.916636731342139
 30
0.0
  0
SPLINE
  5
2AA
330
1F
100
AcDbEntity
  8
0
  6
Continuous
 62
     7
370
    18
100
AcDbSpline
210
0.0
220
0.0
230
1.0
 70
     8
 71
     3
 72
    23
 73
    19
 74
     0
 42
0.000000001
 43
0.00000001
 40
0.0
 40
0.0
 40
0.0
 40
0.0
 40
0.0582452992198208
 40
0.1146502711184719
 40
0.1698709516347452
 40
0.224946011350484
 40
0.2801007745228548
 40
0.3368708466591541
 40
0.3955657509705519
 40
0.4571415396651775
 40
0.5202466492306672
 40
0.5837637330318004
 40
0.6479430309164254
 40
0.7137935512154616
 40
0.781459801113755
 40
0.8513868344545835
 40
0.9243835863078271
 40
1.0
 40
1.0
 40
1.0
 40
1.0
 10
9.288774274375738
 20
5.877681340326073
 30
0.0
 10
9.288058536666348
 20
5.87811523632743
 30
0.0
 10
9.286649675804949
 20
5.878969318886182
 30
0.0
 10
9.284926061779291
 20
5.880409660669222
 30
0.0
 10
9.283481365060876
 20
5.88190941951694
 30
0.0
 10
9.282428083787613
 20
5.883501783591907
 30
0.0
 10
9.281681787081935
 20
5.885166735359187
 30
0.0
 10
9.281324521141247
 20
5.886911184439894
 30
0.0
 10
9.281254425120235
 20
5.88873319158544
 30
0.0
 10
9.281594340092
 20
5.890609755111017
 30
0.0
 10
9.282167096143276
 20
5.892517172131309
 30
0.0
 10
9.283131314816337
 20
5.894399871182454
 30
0.0
 10
9.284342942497192
 20
5.896263089715077
 30
0.0
 10
9.28589476129206
 20
5.898088868494095
 30
0.0
 10
9.287746798642061
 20
5.899887227286123
 30
0.0
 10
9.289923991497407
 20
5.901649763036501
 30
0.0
 10
9.292367536025582
 20
5.903399542065533
 30
0.0
 10
9.294212777403361
 20
5.90449410574878
 30
0.0
 10
9.29515166148454
 20
5.905051034739433
 30
0.0
  0
SPLINE
  5
2AB
330
1F
100
AcDbEntity
  8
0
  6
Continuous
 62
     7
370
    18
100
AcDbSpline
210
0.0
220
0.0
230
1.0
 70
     8
 71
     3
 72
    23
 73
    19
 74
     0
 42
0.000000001
 43
0.00000001
 40
0.0
 40
0.0
 40
0.0
 40
0.0
 40
0.0791499502567615
 40
0.1546140766155445
 40
0.2256169009595869
 40
0.2928840645579481
 40
0.3569621715611735
 40
0.4184344924285854
 40
0.4772436993821445
 40
0.5340255404783354
 40
0.5899959612172688
 40
0.6453485180220233
 40
0.7008085054014654
 40
0.7572242092549807
 40
0.814700655273931
 40
0.8741882087411968
 40
0.9356318327192047
 40
1.0
 40
1.0
 40
1.0
 40
1.0
 10
9.327066568024645
 20
5.877116184394233
 30
0.0
 10
9.32612704128403
 20
5.876773175360707
 30
0.0
 10
9.324291739316253
 20
5.876103130404046
 30
0.0
 10
9.321499603729567
 20
5.875235746614295
 30
0.0
 10
9.318777673374832
 20
5.874504348761234
 30
0.0
 10
9.316129299829457
 20
5.873905306201398
 30
0.0
 10
9.31352957659837
 20
5.873464056586031
 30
0.0
 10
9.310999954768594
 20
5.87313727372811
 30
0.0
 10
9.308524571575918
 20
5.872978635939067
 30
0.0
 10
9.306112333439685
 20
5.872949928614496
 30
0.0
 10
9.303756821846605
 20
5.873066452355345
 30
0.0
 10
9.301446968338013
 20
5.873303851358864
 30
0.0
 10
9.299195450970341
 20
5.873698780731957
 30
0.0
 10
9.296996172782158
 20
5.87422593482113
 30
0.0
 10
9.294842433778651
 20
5.874885553598436
 30
0.0
 10
9.2927432283667
 20
5.87567816816415
 30
0.0
 10
9.2907014077928
 20
5.876613287962437
 30
0.0
 10
9.289426530518364
 20
5.877319848117666
 30
0.0
 10
9.288774274375738
 20
5.877681340326073
 30
0.0
  0
SPLINE
  5
2AC
330
1F
100
AcDbEntity
  8
0
  6
Continuous
 62
     7
370
    18
100
AcDbSpline
210
0.0
220
0.0
230
1.0
 70
     8
 71
     3
 72
    11
 73
     7
 74
     0
 42
0.000000001
 43
0.00000001
 40
0.0
 40
0.0
 40
0.0
 40
0.0
 40
0.2264434676696304
 40
0.4676824521770377
 40
0.7260904937101025
 40
0.9999999999999999
 40
0.9999999999999999
 40
0.9999999999999999
 40
0.9999999999999999
 10
9.346939960747472
 20
5.884923409909784
 30
0.0
 10
9.345382469925656
 20
5.884384357244928
 30
0.0
 10
9.342165723890608
 20
5.883271030926674
 30
0.0
 10
9.337458205959123
 20
5.881291291841936
 30
0.0
 10
9.332443994785015
 20
5.879186131465061
 30
0.0
 10
9.32889350784455
 20
5.877819433159361
 30
0.0
 10
9.327066568024645
 20
5.877116184394233
 30
0.0
  0
SPLINE
  5
2AD
330
1F
100
AcDbEntity
  8
0
  6
Continuous
 62
     7
370
    18
100
AcDbSpline
210
0.0
220
0.0
230
1.0
 70
     8
 71
     3
 72
    19
 73
    15
 74
     0
 42
0.000000001
 43
0.00000001
 40
0.0
 40
0.0
 40
0.0
 40
0.0
 40
0.0736562739740988
 40
0.1430600969963798
 40
0.2078525317377094
 40
0.2695032834642755
 40
0.3271836325052589
 40
0.3817853495884332
 40
0.4353215285338764
 40
0.4874314464138942
 40
0.5965056784663482
 40
0.716753486828459
 40
0.8506503633059541
 40
1.0
 40
1.0
 40
1.0
 40
1.0
 10
9.366883280960526
 20
5.884261370103916
 30
0.0
 10
9.366490600721702
 20
5.884476209832388
 30
0.0
 10
9.365727911136368
 20
5.884893485791864
 30
0.0
 10
9.364561004831607
 20
5.885463023394767
 30
0.0
 10
9.363377559404286
 20
5.88593793200339
 30
0.0
 10
9.362189394279557
 20
5.886312688097039
 30
0.0
 10
9.36102554139003
 20
5.886619245231704
 30
0.0
 10
9.359862516670026
 20
5.886833897450066
 30
0.0
 10
9.35870096911128
 20
5.886956723275719
 30
0.0
 10
9.357122009249057
 20
5.886994725667386
 30
0.0
 10
9.355053621045384
 20
5.886868707628813
 30
0.0
 10
9.352480101174258
 20
5.886448113643004
 30
0.0
 10
9.349715489386117
 20
5.885820168682454
 30
0.0
 10
9.347898185165198
 20
5.885233007202646
 30
0.0
 10
9.346939960747472
 20
5.884923409909784
 30
0.0
  0
SPLINE
  5
2AE
330
1F
100
AcDbEntity
  8
0
  6
Continuous
 62
     7
370
    18
100
AcDbSpline
210
0.0
220
0.0
230
1.0
 70
     8
 71
     3
 72
    23
 73
    19
 74
     0
 42
0.000000001
 43
0.00000001
 40
0.0
 40
0.0
 40
0.0
 40
0.0
 40
0.0854151544129948
 40
0.1659823341365553
 40
0.2425656174833792
 40
0.3148369819696973
 40
0.3832803096291467
 40
0.448899034306316
 40
0.5114550916688614
 40
0.5714779974050703
 40
0.6295665825924379
 40
0.6843880566524376
 40
0.7370366993053412
 40
0.7887815262452736
 40
0.8400607811717772
 40
0.8917690048341216
 40
0.9448771569629713
 40
1.0
 40
1.0
 40
1.0
 40
1.0
 10
9.360771618314589
 20
5.866458958250978
 30
0.0
 10
9.361468984737318
 20
5.866874793704718
 30
0.0
 10
9.362824136611577
 20
5.867682862714283
 30
0.0
 10
9.364681785511122
 20
5.868929903804972
 30
0.0
 10
9.366301372420022
 20
5.870172727668041
 30
0.0
 10
9.367714390452443
 20
5.871399777317636
 30
0.0
 10
9.368884580176982
 20
5.872625706421277
 30
0.0
 10
9.369823111963628
 20
5.873844349928472
 30
0.0
 10
9.370545085032754
 20
5.875051375997359
 30
0.0
 10
9.371038442920856
 20
5.87624364752955
 30
0.0
 10
9.371313826195276
 20
5.877407351321067
 30
0.0
 10
9.371332040042708
 20
5.878530963822768
 30
0.0
 10
9.371181141592821
 20
5.879608739393928
 30
0.0
 10
9.370767351285792
 20
5.880639592444544
 30
0.0
 10
9.37013684101884
 20
5.881626251797815
 30
0.0
 10
9.369264527438123
 20
5.882558601078848
 30
0.0
 10
9.3682107216526
 20
5.883460249190945
 30
0.0
 10
9.367331218429978
 20
5.883991036313017
 30
0.0
 10
9.366883280960526
 20
5.884261370103916
 30
0.0
  0
SPLINE
  5
2AF
330
1F
100
AcDbEntity
  8
0
  6
Continuous
 62
     7
370
    18
100
AcDbSpline
210
0.0
220
0.0
230
1.0
 70
     8
 71
     3
 72
    15
 73
    11
 74
     0
 42
0.000000001
 43
0.00000001
 40
0.0
 40
0.0
 40
0.0
 40
0.0
 40
0.1247846984405774
 40
0.2508991582111135
 40
0.3796498944864646
 40
0.5118057263052236
 40
0.6428226368571998
 40
0.7671691836151713
 40
0.8858586764781994
 40
1.0
 40
1.0
 40
1.0
 40
1.0
 10
9.326213452643861
 20
5.856843233753541
 30
0.0
 10
9.327823188131555
 20
5.856969940757816
 30
0.0
 10
9.331059813165332
 20
5.857224705012644
 30
0.0
 10
9.335846030872018
 20
5.857951893918306
 30
0.0
 10
9.340605626166823
 20
5.858908867600092
 30
0.0
 10
9.345245712166427
 20
5.860136652554347
 30
0.0
 10
9.349684950917297
 20
5.86152208039293
 30
0.0
 10
9.353756863266675
 20
5.863062708575562
 30
0.0
 10
9.357501397945216
 20
5.864659489662207
 30
0.0
 10
9.359695833724885
 20
5.865866997967327
 30
0.0
 10
9.360771618314589
 20
5.866458958250978
 30
0.0
  0
LINE
  5
2B0
330
1F
100
AcDbEntity
  8
0
  6
Continuous
 62
     7
370
    18
100
AcDbLine
 10
9.3255421487
 20
5.8564556983
 30
0.0
 11
9.3262134526
 21
5.8568432338
 31
0.0
  0
LINE
  5
2B1
330
1F
100
AcDbEntity
  8
0
  6
Continuous
 62
     7
370
    18
100
AcDbLine
 10
9.3370382281
 20
5.8498191529
 30
0.0
 11
9.3255421487
 21
5.8564556983
 31
0.0
  0
SPLINE
  5
2B2
330
1F
100
AcDbEntity
  8
0
  6
Continuous
 62
     7
370
    18
100
AcDbSpline
210
0.0
220
0.0
230
1.0
 70
     8
 71
     3
 72
    15
 73
    11
 74
     0
 42
0.000000001
 43
0.00000001
 40
0.0
 40
0.0
 40
0.0
 40
0.0
 40
0.1383958837326365
 40
0.2698711435185667
 40
0.3952737389719849
 40
0.5139802029772963
 40
0.6311187908923205
 40
0.7514363167928975
 40
0.8740333432057862
 40
1.0
 40
1.0
 40
1.0
 40
1.0
 10
9.368757337698637
 20
5.861768164016712
 30
0.0
 10
9.367498249514176
 20
5.861057290171497
 30
0.0
 10
9.365043035103408
 20
5.859671090435413
 30
0.0
 10
9.36121984194397
 20
5.857782204671014
 30
0.0
 10
9.357442730427836
 20
5.856090770077601
 30
0.0
 10
9.353640343903043
 20
5.854596776860638
 30
0.0
 10
9.349731824721433
 20
5.853270528112725
 30
0.0
 10
9.345683007147134
 20
5.85203280801661
 30
0.0
 10
9.341452042151808
 20
5.850857041595041
 30
0.0
 10
9.338522736424649
 20
5.850168228399883
 30
0.0
 10
9.337038228131172
 20
5.849819152886394
 30
0.0
  0
SPLINE
  5
2B3
330
1F
100
AcDbEntity
  8
0
  6
Continuous
 62
     7
370
    18
100
AcDbSpline
210
0.0
220
0.0
230
1.0
 70
     8
 71
     3
 72
    15
 73
    11
 74
     0
 42
0.000000001
 43
0.00000001
 40
0.0
 40
0.0
 40
0.0
 40
0.0
 40
0.1093791882153355
 40
0.2203236072969009
 40
0.3337175929740419
 40
0.4503897936126435
 40
0.5731380580913907
 40
0.7052593508926647
 40
0.8470467802298185
 40
1.0
 40
1.0
 40
1.0
 40
1.0
 10
9.383274284669993
 20
5.87770556129458
 30
0.0
 10
9.383119017647408
 20
5.877041229452965
 30
0.0
 10
9.382806261710309
 20
5.875703059091904
 30
0.0
 10
9.38192908815365
 20
5.873718430812983
 30
0.0
 10
9.380748045121257
 20
5.87174262456164
 30
0.0
 10
9.379245454400088
 20
5.869760327269498
 30
0.0
 10
9.377317797570818
 20
5.867771223085779
 30
0.0
 10
9.374924587949607
 20
5.865769444751605
 30
0.0
 10
9.372054556818098
 20
5.863742902204969
 30
0.0
 10
9.369883822369678
 20
5.862442827185216
 30
0.0
 10
9.368757337698637
 20
5.861768164016712
 30
0.0
  0
SPLINE
  5
2B4
330
1F
100
AcDbEntity
  8
0
  6
Continuous
 62
     7
370
    18
100
AcDbSpline
210
0.0
220
0.0
230
1.0
 70
     8
 71
     3
 72
    15
 73
    11
 74
     0
 42
0.000000001
 43
0.00000001
 40
0.0
 40
0.0
 40
0.0
 40
0.0
 40
0.1197615539482025
 40
0.2401850677092646
 40
0.3638366197623163
 40
0.4912215773090232
 40
0.6197334566328624
 40
0.7459304366879235
 40
0.872201355561598
 40
1.0
 40
1.0
 40
1.0
 40
1.0
 10
9.375386463772262
 20
5.890720295039222
 30
0.0
 10
9.376055694036577
 20
5.890303117583807
 30
0.0
 10
9.377397853611566
 20
5.889466456801844
 30
0.0
 10
9.37912803988401
 20
5.888052199101646
 30
0.0
 10
9.380594139468164
 20
5.886503077399956
 30
0.0
 10
9.381803778152058
 20
5.884840455593078
 30
0.0
 10
9.382718314878307
 20
5.883101652962884
 30
0.0
 10
9.383248659652125
 20
5.881317963673589
 30
0.0
 10
9.38351156252273
 20
5.879514559885485
 30
0.0
 10
9.383353693710387
 20
5.878310973222089
 30
0.0
 10
9.383274284669993
 20
5.87770556129458
 30
0.0
  0
SPLINE
  5
2B5
330
1F
100
AcDbEntity
  8
0
  6
Continuous
 62
     7
370
    18
100
AcDbSpline
210
0.0
220
0.0
230
1.0
 70
     8
 71
     3
 72
    23
 73
    19
 74
     0
 42
0.000000001
 43
0.00000001
 40
0.0
 40
0.0
 40
0.0
 40
0.0
 40
0.0751802640443276
 40
0.1466681661253889
 40
0.2151735964824038
 40
0.2799929236097502
 40
0.3423647811992787
 40
0.4018679054792515
 40
0.4598893916558311
 40
0.5153930722442684
 40
0.5699941129345287
 40
0.6254311609484948
 40
0.6818278900074798
 40
0.7398352182710813
 40
0.8001381823285975
 40
0.86355695301555
 40
0.929836080436546
 40
0.9999999999999999
 40
0.9999999999999999
 40
0.9999999999999999
 40
0.9999999999999999
 10
9.340968153081992
 20
5.892084742931806
 30
0.0
 10
9.34179282828651
 20
5.89235407948289
 30
0.0
 10
9.343401676053054
 20
5.892879524538455
 30
0.0
 10
9.345847929875177
 20
5.893556636474944
 30
0.0
 10
9.34822807398642
 20
5.894134529041179
 30
0.0
 10
9.350567094150424
 20
5.894589119606988
 30
0.0
 10
9.35284268005558
 20
5.894936314782083
 30
0.0
 10
9.355070073495687
 20
5.89518644370387
 30
0.0
 10
9.35724164872295
 20
5.895314314184577
 30
0.0
 10
9.359363014994427
 20
5.895335847585307
 30
0.0
 10
9.361443868687052
 20
5.895228318469522
 30
0.0
 10
9.363508774810342
 20
5.894999721348833
 30
0.0
 10
9.365541385210374
 20
5.894606202987164
 30
0.0
 10
9.367573109458002
 20
5.894111643659155
 30
0.0
 10
9.36955998605553
 20
5.893449867266479
 30
0.0
 10
9.37155089871989
 20
5.892680249031102
 30
0.0
 10
9.373500567509524
 20
5.891756511296999
 30
0.0
 10
9.374746011633137
 20
5.891072195051965
 30
0.0
 10
9.375386463772262
 20
5.890720295039222
 30
0.0
  0
SPLINE
  5
2B6
330
1F
100
AcDbEntity
  8
0
  6
Continuous
 62
     7
370
    18
100
AcDbSpline
210
0.0
220
0.0
230
1.0
 70
     8
 71
     3
 72
    15
 73
    11
 74
     0
 42
0.000000001
 43
0.00000001
 40
0.0
 40
0.0
 40
0.0
 40
0.0
 40
0.0932522757446018
 40
0.2030993956824899
 40
0.3310220287518755
 40
0.4761623696350863
 40
0.6236442366317557
 40
0.7602181748482566
 40
0.8859457340725881
 40
0.9999999999999999
 40
0.9999999999999999
 40
0.9999999999999999
 40
0.9999999999999999
 10
9.319038892146459
 20
5.883591256641878
 30
0.0
 10
9.319725119701609
 20
5.88385149111479
 30
0.0
 10
9.321219693433335
 20
5.884418270464269
 30
0.0
 10
9.323633868868601
 20
5.885360910746465
 30
0.0
 10
9.326413065539931
 20
5.886462686881325
 30
0.0
 10
9.329432312369445
 20
5.887700058898945
 30
0.0
 10
9.332517426179898
 20
5.888959931966344
 30
0.0
 10
9.335511117475127
 20
5.890122724159691
 30
0.0
 10
9.338299584760428
 20
5.891156599372335
 30
0.0
 10
9.340107976269431
 20
5.891785568441075
 30
0.0
 10
9.340968153081992
 20
5.892084742931805
 30
0.0
  0
SPLINE
  5
2B7
330
1F
100
AcDbEntity
  8
0
  6
Continuous
 62
     7
370
    18
100
AcDbSpline
210
0.0
220
0.0
230
1.0
 70
     8
 71
     3
 72
    23
 73
    19
 74
     0
 42
0.000000001
 43
0.00000001
 40
0.0
 40
0.0
 40
0.0
 40
0.0
 40
0.0735115095740013
 40
0.1432221177219807
 40
0.2092916961190118
 40
0.2725106681322082
 40
0.3331518799039433
 40
0.3919658922554327
 40
0.4495599688739264
 40
0.5070249541631343
 40
0.5640829271493869
 40
0.6210985565505993
 40
0.6787361231414833
 40
0.7377484485823773
 40
0.7989190368882241
 40
0.8626265498653962
 40
0.9294354199091354
 40
1.0
 40
1.0
 40
1.0
 40
1.0
 10
8.485326991352135
 20
6.587784082721591
 30
0.0
 10
8.48692855215503
 20
6.588677414564625
 30
0.0
 10
8.490048865303006
 20
6.590417888663569
 30
0.0
 10
8.495010536667914
 20
6.592702134715088
 30
0.0
 10
8.499992629044192
 20
6.594665683077055
 30
0.0
 10
8.505041642573463
 20
6.59626624187912
 30
0.0
 10
8.510130265038432
 20
6.597532632287794
 30
0.0
 10
8.515272795301458
 20
6.598430718403478
 30
0.0
 10
8.520460279617584
 20
6.598985490534082
 30
0.0
 10
8.525673057752337
 20
6.599187113692412
 30
0.0
 10
8.530870444325537
 20
6.599034422880933
 30
0.0
 10
8.536019191743234
 20
6.598568558759862
 30
0.0
 10
8.541080324042749
 20
6.597719503983794
 30
0.0
 10
8.546083912409534
 20
6.596557679385572
 30
0.0
 10
8.551006434029057
 20
6.595041548974287
 30
0.0
 10
8.55584134704274
 20
6.59318161254277
 30
0.0
 10
8.560647279547803
 20
6.591013923776451
 30
0.0
 10
8.563639420897363
 20
6.589343651642769
 30
0.0
 10
8.565176393272285
 20
6.588485683442689
 30
0.0
  0
SPLINE
  5
2B8
330
1F
100
AcDbEntity
  8
0
  6
Continuous
 62
     7
370
    18
100
AcDbSpline
210
0.0
220
0.0
230
1.0
 70
     8
 71
     3
 72
    23
 73
    19
 74
     0
 42
0.000000001
 43
0.00000001
 40
0.0
 40
0.0
 40
0.0
 40
0.0
 40
0.0713420303141174
 40
0.1388966267789096
 40
0.2034230593341568
 40
0.265348493103818
 40
0.3249568208932159
 40
0.3833027457478317
 40
0.4410868861594916
 40
0.4988481713854597
 40
0.5566489280740683
 40
0.6144912045717039
 40
0.673030199160018
 40
0.7329954046178851
 40
0.7953900942068004
 40
0.8601078514537183
 40
0.9281771174286626
 40
1.0
 40
1.0
 40
1.0
 40
1.0
 10
8.484995535048453
 20
6.54146932343147
 30
0.0
 10
8.483497911186044
 20
6.542373825425821
 30
0.0
 10
8.480582169907638
 20
6.544134810855823
 30
0.0
 10
8.476719651135905
 20
6.546926098502142
 30
0.0
 10
8.473476936933098
 20
6.549770516871668
 30
0.0
 10
8.4707715593577
 20
6.552640889140383
 30
0.0
 10
8.46872469817298
 20
6.555572181974035
 30
0.0
 10
8.467256985865808
 20
6.558540559370591
 30
0.0
 10
8.466380927257234
 20
6.561553786094215
 30
0.0
 10
8.466110599184304
 20
6.564596165049532
 30
0.0
 10
8.466454919936119
 20
6.567635599302235
 30
0.0
 10
8.467341177172022
 20
6.570653309860332
 30
0.0
 10
8.468891756138785
 20
6.573619676518973
 30
0.0
 10
8.47098374691228
 20
6.576557900239345
 30
0.0
 10
8.47370199368455
 20
6.579445288057832
 30
0.0
 10
8.477006809330646
 20
6.582289920737772
 30
0.0
 10
8.480853695945077
 20
6.585114724146513
 30
0.0
 10
8.483809456347501
 20
6.586878521002773
 30
0.0
 10
8.485326991352135
 20
6.587784082721591
 30
0.0
  0
SPLINE
  5
2B9
330
1F
100
AcDbEntity
  8
0
  6
Continuous
 62
     7
370
    18
100
AcDbSpline
210
0.0
220
0.0
230
1.0
 70
     8
 71
     3
 72
    31
 73
    27
 74
     0
 42
0.000000001
 43
0.00000001
 40
0.0
 40
0.0
 40
0.0
 40
0.0
 40
0.0492701428602612
 40
0.0966876476456358
 40
0.1418871486887174
 40
0.1854362138468715
 40
0.226976040621912
 40
0.266878459838658
 40
0.3055218280675799
 40
0.3427158630011425
 40
0.3793348036730442
 40
0.4155792226076416
 40
0.4519937739273488
 40
0.488611918422821
 40
0.5256645903810561
 40
0.5631708577382774
 40
0.6016622810715189
 40
0.6411844098763946
 40
0.6815972139987105
 40
0.722787451027943
 40
0.7651012293870452
 40
0.8089199259804598
 40
0.853767160564051
 40
0.9005863269080389
 40
0.9492761110256227
 40
1.0
 40
1.0
 40
1.0
 40
1.0
 10
8.566076060382276
 20
6.542262041129335
 30
0.0
 10
8.564990370049022
 20
6.541649332539759
 30
0.0
 10
8.562859813117383
 20
6.54044695420718
 30
0.0
 10
8.559586756328205
 20
6.538771700895353
 30
0.0
 10
8.55630251880439
 20
6.537262916551158
 30
0.0
 10
8.553047674044029
 20
6.535904666700845
 30
0.0
 10
8.549802713227757
 20
6.534704574109635
 30
0.0
 10
8.546570600303516
 20
6.533662620543383
 30
0.0
 10
8.54336082119469
 20
6.532761228344255
 30
0.0
 10
8.540125881447052
 20
6.532038596440031
 30
0.0
 10
8.536882797299075
 20
6.531460797402311
 30
0.0
 10
8.533596140126276
 20
6.53103002449214
 30
0.0
 10
8.530261670797874
 20
6.530744059777219
 30
0.0
 10
8.526872906395337
 20
6.530623309083083
 30
0.0
 10
8.523444524488873
 20
6.530628662607074
 30
0.0
 10
8.519969045509198
 20
6.530788192448973
 30
0.0
 10
8.516444498720892
 20
6.531087477048237
 30
0.0
 10
8.512880772288687
 20
6.531547170814878
 30
0.0
 10
8.509292908079141
 20
6.532148716157314
 30
0.0
 10
8.505733560770857
 20
6.532953194371271
 30
0.0
 10
8.502181330957999
 20
6.533918958067316
 30
0.0
 10
8.498676589793815
 20
6.535078846833787
 30
0.0
 10
8.495196349557704
 20
6.536412499100757
 30
0.0
 10
8.491742446649662
 20
6.537917195225228
 30
0.0
 10
8.488306949380018
 20
6.539603530754486
 30
0.0
 10
8.486114294475412
 20
6.540838966448888
 30
0.0
 10
8.484995535048453
 20
6.54146932343147
 30
0.0
  0
LINE
  5
2BA
330
1F
100
AcDbEntity
  8
0
  6
Continuous
 62
     7
370
    18
100
AcDbLine
 10
8.3763567856
 20
6.4339057324
 30
0.0
 11
8.3167577855
 21
6.4683115028
 31
0.0
  0
LINE
  5
2BB
330
1F
100
AcDbEntity
  8
0
  6
Continuous
 62
     7
370
    18
100
AcDbLine
 10
8.4006004467
 20
6.4479013
 30
0.0
 11
8.3763567856
 21
6.4339057324
 31
0.0
  0
LINE
  5
2BC
330
1F
100
AcDbEntity
  8
0
  6
Continuous
 62
     7
370
    18
100
AcDbLine
 10
8.3410014465
 20
6.4823070704
 30
0.0
 11
8.4006004467
 21
6.4479013
 31
0.0
  0
LINE
  5
2BD
330
1F
100
AcDbEntity
  8
0
  6
Continuous
 62
     7
370
    18
100
AcDbLine
 10
8.3652451076
 20
6.496302638
 30
0.0
 11
8.3410014465
 21
6.4823070704
 31
0.0
  0
LINE
  5
2BE
330
1F
100
AcDbEntity
  8
0
  6
Continuous
 62
     7
370
    18
100
AcDbLine
 10
8.3470623618
 20
6.5067993138
 30
0.0
 11
8.3652451076
 21
6.496302638
 31
0.0
  0
LINE
  5
2BF
330
1F
100
AcDbEntity
  8
0
  6
Continuous
 62
     7
370
    18
100
AcDbLine
 10
8.2743313786
 20
6.4648126109
 30
0.0
 11
8.3470623618
 21
6.5067993138
 31
0.0
  0
LINE
  5
2C0
330
1F
100
AcDbEntity
  8
0
  6
Continuous
 62
     7
370
    18
100
AcDbLine
 10
8.2925141244
 20
6.4543159352
 30
0.0
 11
8.2743313786
 21
6.4648126109
 31
0.0
  0
LINE
  5
2C1
330
1F
100
AcDbEntity
  8
0
  6
Continuous
 62
     7
370
    18
100
AcDbLine
 10
8.3167577855
 20
6.4683115028
 30
0.0
 11
8.2925141244
 21
6.4543159352
 31
0.0
  0
LWPOLYLINE
  5
2C2
330
1F
100
AcDbEntity
  8
0
  6
Continuous
 62
     7
370
    18
100
AcDbPolyline
 90
       52
 70
   128
 43
0.0
 10
10.3784286213
 20
6.4467058453
 10
10.3901910895
 20
6.4407044815
 10
10.4031419255
 20
6.4355830568
 10
10.4170848078
 20
6.4314192068
 10
10.4318083765
 20
6.4282760513
 10
10.4470894373
 20
6.4262012372
 10
10.4626963449
 20
6.4252262166
 10
10.4783925145
 20
6.4253657699
 10
10.4939400083
 20
6.4266177815
 10
10.5091031419
 20
6.4289632723
 10
10.5236520578
 20
6.4323666869
 10
10.5373662092
 20
6.4367764332
 10
10.5500377036
 20
6.4421256638
 10
10.561474454
 20
6.4483332898
 10
10.571503091
 20
6.45530521
 10
10.5799715907
 20
6.4629357372
 10
10.5867515792
 20
6.4711092003
 10
10.5917402787
 20
6.4797016979
 10
10.5948620658
 20
6.4885829767
 10
10.5960696173
 20
6.4976184054
 10
10.5953446279
 20
6.5066710162
 10
10.5926980878
 20
6.5156035806
 10
10.5881701158
 20
6.5242806902
 10
10.5818293513
 20
6.5325708088
 10
10.5737719139
 20
6.5403482666
 10
10.5641199461
 20
6.5474951654
 10
10.5530197619
 20
6.5539031653
 10
10.5406396287
 20
6.5594751277
 10
10.5271672169
 20
6.5641265873
 10
10.5128067543
 20
6.5677870328
 10
10.497775931
 20
6.5704009754
 10
10.482302599
 20
6.5719287905
 10
10.4666213181
 20
6.5723473179
 10
10.4509698006
 20
6.5716502133
 10
10.4355853076
 20
6.5698480439
 10
10.4207010523
 20
6.566968129
 10
10.4065426649
 20
6.563054125
 10
10.393324772
 20
6.5581653642
 10
10.3812477434
 20
6.5523759553
 10
10.3704946546
 20
6.5457736598
 10
10.3612285114
 20
6.5384585617
 10
10.3535897792
 20
6.5305415506
 10
10.3476942533
 20
6.5221426403
 10
10.3436313039
 20
6.5133891496
 10
10.3414625212
 20
6.5044137725
 10
10.3412207816
 20
6.4953525666
 10
10.3429097498
 20
6.4863428906
 10
10.3465038226
 20
6.477521322
 10
10.3519485177
 20
6.4690215867
 10
10.3591612989
 20
6.4609725321
 10
10.3680328279
 20
6.4534961736
 10
10.3784286213
 20
6.4467058453
  0
LINE
  5
2C3
330
1F
100
AcDbEntity
  8
0
  6
Continuous
 62
     7
370
    18
100
AcDbLine
 10
9.3152935758
 20
5.6696894248
 30
0.0
 11
10.7295071381
 21
6.4860975367
 31
0.0
  0
LINE
  5
2C4
330
1F
100
AcDbEntity
  8
0
  6
Continuous
 62
     7
370
    18
100
AcDbLine
 10
9.3152935758
 20
5.6696894248
 30
0.0
 11
7.9717906915
 21
6.4452771311
 31
0.0
  0
LINE
  5
2C5
330
1F
100
AcDbEntity
  8
0
  6
Continuous
 62
     7
370
    18
100
AcDbLine
 10
7.9717906915
 20
6.4452771311
 30
0.0
 11
8.5738722195
 21
6.7928513989
 31
0.0
  0
LINE
  5
2C6
330
1F
100
AcDbEntity
  8
0
  6
Continuous
 62
     7
370
    18
100
AcDbLine
 10
10.7295071381
 20
6.4860975367
 30
0.0
 11
9.7738722195
 21
7.0377738324
 31
0.0
  0
LINE
  5
2C7
330
1F
100
AcDbEntity
  8
0
  6
Continuous
 62
     7
370
    18
100
AcDbLine
 10
8.4288847179
 20
6.5003846786
 30
0.0
 11
8.4601994468
 21
6.4823070704
 31
0.0
  0
LINE
  5
2C8
330
1F
100
AcDbEntity
  8
0
  6
Continuous
 62
     7
370
    18
100
AcDbLine
 10
8.4551486841
 20
6.5155465435
 30
0.0
 11
8.4288847179
 21
6.5003846786
 31
0.0
  0
LINE
  5
2C9
330
1F
100
AcDbEntity
  8
0
  6
Continuous
 62
     7
370
    18
100
AcDbLine
 10
8.486463413
 20
6.4974689354
 30
0.0
 11
8.4551486841
 21
6.5155465435
 31
0.0
  0
LINE
  5
2CA
330
1F
100
AcDbEntity
  8
0
  6
Continuous
 62
     7
370
    18
100
AcDbLine
 10
8.510707074
 20
6.511464503
 30
0.0
 11
8.486463413
 21
6.4974689354
 31
0.0
  0
LINE
  5
2CB
330
1F
100
AcDbEntity
  8
0
  6
Continuous
 62
     7
370
    18
100
AcDbLine
 10
8.4329253281
 20
6.5563669491
 30
0.0
 11
8.510707074
 21
6.511464503
 31
0.0
  0
LINE
  5
2CC
330
1F
100
AcDbEntity
  8
0
  6
Continuous
 62
     7
370
    18
100
AcDbLine
 10
8.408681667
 20
6.5423713815
 30
0.0
 11
8.4329253281
 21
6.5563669491
 31
0.0
  0
LINE
  5
2CD
330
1F
100
AcDbEntity
  8
0
  6
Continuous
 62
     7
370
    18
100
AcDbLine
 10
8.4359557857
 20
6.5266263679
 30
0.0
 11
8.408681667
 21
6.5423713815
 31
0.0
  0
LINE
  5
2CE
330
1F
100
AcDbEntity
  8
0
  6
Continuous
 62
     7
370
    18
100
AcDbLine
 10
8.4096918196
 20
6.511464503
 30
0.0
 11
8.4359557857
 21
6.5266263679
 31
0.0
  0
LINE
  5
2CF
330
1F
100
AcDbEntity
  8
0
  6
Continuous
 62
     7
370
    18
100
AcDbLine
 10
8.3824177009
 20
6.5272095166
 30
0.0
 11
8.4096918196
 21
6.511464503
 31
0.0
  0
LINE
  5
2D0
330
1F
100
AcDbEntity
  8
0
  6
Continuous
 62
     7
370
    18
100
AcDbLine
 10
8.3581740398
 20
6.5132139489
 30
0.0
 11
8.3824177009
 21
6.5272095166
 31
0.0
  0
LINE
  5
2D1
330
1F
100
AcDbEntity
  8
0
  6
Continuous
 62
     7
370
    18
100
AcDbLine
 10
8.4359557857
 20
6.4683115028
 30
0.0
 11
8.3581740398
 21
6.5132139489
 31
0.0
  0
LINE
  5
2D2
330
1F
100
AcDbEntity
  8
0
  6
Continuous
 62
     7
370
    18
100
AcDbLine
 10
8.4601994468
 20
6.4823070704
 30
0.0
 11
8.4359557857
 21
6.4683115028
 31
0.0
  0
LINE
  5
2D3
330
1F
100
AcDbEntity
  8
0
  6
Continuous
 62
     7
370
    18
100
AcDbLine
 10
9.4114690487
 20
5.9380965094
 30
0.0
 11
9.3837218206
 21
5.9541146433
 31
0.0
  0
LINE
  5
2D4
330
1F
100
AcDbEntity
  8
0
  6
Continuous
 62
     7
370
    18
100
AcDbLine
 10
9.3765612456
 20
5.9179446636
 30
0.0
 11
9.4114690487
 21
5.9380965094
 31
0.0
  0
LINE
  5
2D5
330
1F
100
AcDbEntity
  8
0
  6
Continuous
 62
     7
370
    18
100
AcDbLine
 10
9.3488140175
 20
5.9339627975
 30
0.0
 11
9.3765612456
 21
5.9179446636
 31
0.0
  0
LINE
  5
2D6
330
1F
100
AcDbEntity
  8
0
  6
Continuous
 62
     7
370
    18
100
AcDbLine
 10
9.3398632987
 20
5.9287956575
 30
0.0
 11
9.3488140175
 21
5.9339627975
 31
0.0
  0
LINE
  5
2D7
330
1F
100
AcDbEntity
  8
0
  6
Continuous
 62
     7
370
    18
100
AcDbLine
 10
9.4105739769
 20
5.8879752519
 30
0.0
 11
9.3398632987
 21
5.9287956575
 31
0.0
  0
LINE
  5
2D8
330
1F
100
AcDbEntity
  8
0
  6
Continuous
 62
     7
370
    18
100
AcDbLine
 10
9.4195246956
 20
5.8931423919
 30
0.0
 11
9.4105739769
 21
5.8879752519
 31
0.0
  0
LINE
  5
2D9
330
1F
100
AcDbEntity
  8
0
  6
Continuous
 62
     7
370
    18
100
AcDbLine
 10
9.3846168925
 20
5.9132942377
 30
0.0
 11
9.4195246956
 21
5.8931423919
 31
0.0
  0
LINE
  5
2DA
330
1F
100
AcDbEntity
  8
0
  6
Continuous
 62
     7
370
    18
100
AcDbLine
 10
9.4195246956
 20
5.9334460835
 30
0.0
 11
9.3846168925
 21
5.9132942377
 31
0.0
  0
LINE
  5
2DB
330
1F
100
AcDbEntity
  8
0
  6
Continuous
 62
     7
370
    18
100
AcDbLine
 10
9.4544324987
 20
5.9132942377
 30
0.0
 11
9.4195246956
 21
5.9334460835
 31
0.0
  0
LINE
  5
2DC
330
1F
100
AcDbEntity
  8
0
  6
Continuous
 62
     7
370
    18
100
AcDbLine
 10
9.4633832175
 20
5.9184613776
 30
0.0
 11
9.4544324987
 21
5.9132942377
 31
0.0
  0
LINE
  5
2DD
330
1F
100
AcDbEntity
  8
0
  6
Continuous
 62
     7
370
    18
100
AcDbLine
 10
9.3926725394
 20
5.9592817832
 30
0.0
 11
9.4633832175
 21
5.9184613776
 31
0.0
  0
LINE
  5
2DE
330
1F
100
AcDbEntity
  8
0
  6
Continuous
 62
     7
370
    18
100
AcDbLine
 10
9.3837218206
 20
5.9541146433
 30
0.0
 11
9.3926725394
 21
5.9592817832
 31
0.0
  0
LINE
  5
2DF
330
1F
100
AcDbEntity
  8
0
  6
Continuous
 62
     7
370
    18
100
AcDbLine
 10
9.5349889675
 20
5.9597984972
 30
0.0
 11
9.4901934172
 21
6.0155793877
 31
0.0
  0
LINE
  5
2E0
330
1F
100
AcDbEntity
  8
0
  6
Continuous
 62
     7
370
    18
100
AcDbLine
 10
9.5445270771
 20
5.9653047307
 30
0.0
 11
9.5349889675
 21
5.9597984972
 31
0.0
  0
LINE
  5
2E1
330
1F
100
AcDbEntity
  8
0
  6
Continuous
 62
     7
370
    18
100
AcDbLine
 10
9.5318142594
 20
5.980701193
 30
0.0
 11
9.5445270771
 21
5.9653047307
 31
0.0
  0
LINE
  5
2E2
330
1F
100
AcDbEntity
  8
0
  6
Continuous
 62
     7
370
    18
100
AcDbLine
 10
9.563225688
 20
5.9988346248
 30
0.0
 11
9.5318142594
 21
5.980701193
 31
0.0
  0
LINE
  5
2E3
330
1F
100
AcDbEntity
  8
0
  6
Continuous
 62
     7
370
    18
100
AcDbLine
 10
9.5898960328
 20
5.9914956713
 30
0.0
 11
9.563225688
 21
5.9988346248
 31
0.0
  0
LINE
  5
2E4
330
1F
100
AcDbEntity
  8
0
  6
Continuous
 62
     7
370
    18
100
AcDbLine
 10
9.5994341425
 20
5.9970019048
 30
0.0
 11
9.5898960328
 21
5.9914956713
 31
0.0
  0
LINE
  5
2E5
330
1F
100
AcDbEntity
  8
0
  6
Continuous
 62
     7
370
    18
100
AcDbLine
 10
9.5028083365
 20
6.0228618256
 30
0.0
 11
9.5994341425
 21
5.9970019048
 31
0.0
  0
LINE
  5
2E6
330
1F
100
AcDbEntity
  8
0
  6
Continuous
 62
     7
370
    18
100
AcDbLine
 10
9.4901934172
 20
6.0155793877
 30
0.0
 11
9.5028083365
 21
6.0228618256
 31
0.0
  0
LINE
  5
2E7
330
1F
100
AcDbEntity
  8
0
  6
Continuous
 62
     7
370
    18
100
AcDbLine
 10
9.6477680237
 20
6.0559073003
 30
0.0
 11
9.6397123768
 21
6.0605577262
 31
0.0
  0
LINE
  5
2E8
330
1F
100
AcDbEntity
  8
0
  6
Continuous
 62
     7
370
    18
100
AcDbLine
 10
9.6773053956
 20
6.0729588621
 30
0.0
 11
9.6477680237
 21
6.0559073003
 31
0.0
  0
LINE
  5
2E9
330
1F
100
AcDbEntity
  8
0
  6
Continuous
 62
     7
370
    18
100
AcDbLine
 10
9.6692497487
 20
6.077609288
 30
0.0
 11
9.6773053956
 21
6.0729588621
 31
0.0
  0
LINE
  5
2EA
330
1F
100
AcDbEntity
  8
0
  6
Continuous
 62
     7
370
    18
100
AcDbLine
 10
9.6397123768
 20
6.0605577262
 30
0.0
 11
9.6692497487
 21
6.077609288
 31
0.0
  0
LINE
  5
2EB
330
1F
100
AcDbEntity
  8
0
  6
Continuous
 62
     7
370
    18
100
AcDbLine
 10
9.71758363
 20
6.1468489633
 30
0.0
 11
9.7802386612
 21
6.1106789837
 31
0.0
  0
LINE
  5
2EC
330
1F
100
AcDbEntity
  8
0
  6
Continuous
 62
     7
370
    18
100
AcDbLine
 10
9.7086329112
 20
6.1416818234
 30
0.0
 11
9.71758363
 21
6.1468489633
 31
0.0
  0
LINE
  5
2ED
330
1F
100
AcDbEntity
  8
0
  6
Continuous
 62
     7
370
    18
100
AcDbLine
 10
9.7793435893
 20
6.1008614178
 30
0.0
 11
9.7086329112
 21
6.1416818234
 31
0.0
  0
LINE
  5
2EE
330
1F
100
AcDbEntity
  8
0
  6
Continuous
 62
     7
370
    18
100
AcDbLine
 10
9.8232021112
 20
6.1261804036
 30
0.0
 11
9.7793435893
 21
6.1008614178
 31
0.0
  0
LINE
  5
2EF
330
1F
100
AcDbEntity
  8
0
  6
Continuous
 62
     7
370
    18
100
AcDbLine
 10
9.8151464643
 20
6.1308308295
 30
0.0
 11
9.8232021112
 21
6.1261804036
 31
0.0
  0
LINE
  5
2F0
330
1F
100
AcDbEntity
  8
0
  6
Continuous
 62
     7
370
    18
100
AcDbLine
 10
9.7802386612
 20
6.1106789837
 30
0.0
 11
9.8151464643
 21
6.1308308295
 31
0.0
  0
LINE
  5
2F1
330
1F
100
AcDbEntity
  8
0
  6
Continuous
 62
     7
370
    18
100
AcDbLine
 10
9.8267823987
 20
6.2005872188
 30
0.0
 11
9.8187267518
 21
6.2052376448
 31
0.0
  0
LINE
  5
2F2
330
1F
100
AcDbEntity
  8
0
  6
Continuous
 62
     7
370
    18
100
AcDbLine
 10
9.8518444112
 20
6.2150552107
 30
0.0
 11
9.8267823987
 21
6.2005872188
 31
0.0
  0
LINE
  5
2F3
330
1F
100
AcDbEntity
  8
0
  6
Continuous
 62
     7
370
    18
100
AcDbLine
 10
9.9144994424
 20
6.178885231
 30
0.0
 11
9.8518444112
 21
6.2150552107
 31
0.0
  0
LINE
  5
2F4
330
1F
100
AcDbEntity
  8
0
  6
Continuous
 62
     7
370
    18
100
AcDbLine
 10
9.9234501612
 20
6.184052371
 30
0.0
 11
9.9144994424
 21
6.178885231
 31
0.0
  0
LINE
  5
2F5
330
1F
100
AcDbEntity
  8
0
  6
Continuous
 62
     7
370
    18
100
AcDbLine
 10
9.8607951299
 20
6.2202223506
 30
0.0
 11
9.9234501612
 21
6.184052371
 31
0.0
  0
LINE
  5
2F6
330
1F
100
AcDbEntity
  8
0
  6
Continuous
 62
     7
370
    18
100
AcDbLine
 10
9.8858571424
 20
6.2346903425
 30
0.0
 11
9.8607951299
 21
6.2202223506
 31
0.0
  0
LINE
  5
2F7
330
1F
100
AcDbEntity
  8
0
  6
Continuous
 62
     7
370
    18
100
AcDbLine
 10
9.8778014956
 20
6.2393407684
 30
0.0
 11
9.8858571424
 21
6.2346903425
 31
0.0
  0
LINE
  5
2F8
330
1F
100
AcDbEntity
  8
0
  6
Continuous
 62
     7
370
    18
100
AcDbLine
 10
9.8187267518
 20
6.2052376448
 30
0.0
 11
9.8778014956
 21
6.2393407684
 31
0.0
  0
LINE
  5
2F9
330
1F
100
AcDbEntity
  8
0
  6
Continuous
 62
     7
370
    18
100
AcDbLine
 10
9.3152935758
 20
5.5063812625
 30
0.0
 11
10.7295071381
 21
6.3227893743
 31
0.0
  0
LINE
  5
2FA
330
1F
100
AcDbEntity
  8
0
  6
Continuous
 62
     7
370
    18
100
AcDbLine
 10
9.3152935758
 20
5.5063812625
 30
0.0
 11
9.3152935758
 21
5.6696894248
 31
0.0
  0
LINE
  5
2FB
330
1F
100
AcDbEntity
  8
0
  6
Continuous
 62
     7
370
    18
100
AcDbLine
 10
10.7295071381
 20
6.3227893743
 30
0.0
 11
10.7295071381
 21
6.4860975367
 31
0.0
  0
LINE
  5
2FC
330
1F
100
AcDbEntity
  8
0
  6
Continuous
 62
     7
370
    18
100
AcDbLine
 10
7.9717906915
 20
6.2819689687
 30
0.0
 11
9.3152935758
 21
5.5063812625
 31
0.0
  0
LINE
  5
2FD
330
1F
100
AcDbEntity
  8
0
  6
Continuous
 62
     7
370
    18
100
AcDbLine
 10
7.9717906915
 20
6.4452771311
 30
0.0
 11
7.9717906915
 21
6.2819689687
 31
0.0
  0
LINE
  5
2FE
330
1F
100
AcDbEntity
  8
0
  6
Continuous
 62
     7
370
    18
100
AcDbLine
 10
9.5522330866
 20
6.001789583
 30
0.0
 11
9.5039271763
 21
6.0149334952
 31
0.0
  0
LINE
  5
2FF
330
1F
100
AcDbEntity
  8
0
  6
Continuous
 62
     7
370
    18
100
AcDbLine
 10
9.5039271763
 20
6.0149334952
 30
0.0
 11
9.5266536106
 21
5.9870228658
 31
0.0
  0
LINE
  5
300
330
1F
100
AcDbEntity
  8
0
  6
Continuous
 62
     7
370
    18
100
AcDbLine
 10
9.5266536106
 20
5.9870228658
 30
0.0
 11
9.5522330866
 21
6.001789583
 31
0.0
  0
SPLINE
  5
301
330
1F
100
AcDbEntity
  8
0
  6
Continuous
 62
     7
370
    18
100
AcDbSpline
210
0.0
220
0.0
230
1.0
 70
     8
 71
     3
 72
    15
 73
    11
 74
     0
 42
0.000000001
 43
0.00000001
 40
0.0
 40
0.0
 40
0.0
 40
0.0
 40
0.1356092067051826
 40
0.2659122977532453
 40
0.3883385973379823
 40
0.5084418616637795
 40
0.6262386650501979
 40
0.7466203474036028
 40
0.8704195463791762
 40
1.0
 40
1.0
 40
1.0
 40
1.0
 10
9.595224507551364
 20
6.053170330818343
 30
0.0
 10
9.594715632100119
 20
6.053447828753012
 30
0.0
 10
9.593717792471098
 20
6.053991966685993
 30
0.0
 10
9.592115875019939
 20
6.054690860498742
 30
0.0
 10
9.590469160584655
 20
6.055268292277879
 30
0.0
 10
9.588776038734457
 20
6.055718162498634
 30
0.0
 10
9.586998104991366
 20
6.056025692582873
 30
0.0
 10
9.585140335349518
 20
6.056166380119625
 30
0.0
 10
9.583203661344756
 20
6.056162922665626
 30
0.0
 10
9.581913033021383
 20
6.05603652852152
 30
0.0
 10
9.581252995003789
 20
6.055971889509032
 30
0.0
  0
SPLINE
  5
302
330
1F
100
AcDbEntity
  8
0
  6
Continuous
 62
     7
370
    18
100
AcDbSpline
210
0.0
220
0.0
230
1.0
 70
     8
 71
     3
 72
    15
 73
    11
 74
     0
 42
0.000000001
 43
0.00000001
 40
0.0
 40
0.0
 40
0.0
 40
0.0
 40
0.1054273846448072
 40
0.2126824370183339
 40
0.3245271035943495
 40
0.4416794028228456
 40
0.566936542518037
 40
0.7017935350752555
 40
0.8457040109095725
 40
0.9999999999999999
 40
0.9999999999999999
 40
0.9999999999999999
 40
0.9999999999999999
 10
9.581252995003789
 20
6.055971889509032
 30
0.0
 10
9.580680378087871
 20
6.055898951709351
 30
0.0
 10
9.579525217485475
 20
6.055751811675107
 30
0.0
 10
9.57783474270445
 20
6.055382008545755
 30
0.0
 10
9.576146302110546
 20
6.054916872821848
 30
0.0
 10
9.57447960046192
 20
6.054309792854161
 30
0.0
 10
9.572759524214696
 20
6.053617352810749
 30
0.0
 10
9.571027614655646
 20
6.052791957728893
 30
0.0
 10
9.569205271034622
 20
6.051884422298476
 30
0.0
 10
9.568029629826084
 20
6.051210145126237
 30
0.0
 10
9.567421337436672
 20
6.050861265153971
 30
0.0
  0
LINE
  5
303
330
1F
100
AcDbEntity
  8
0
  6
Continuous
 62
     7
370
    18
100
AcDbLine
 10
9.5674213374
 20
6.0508612652
 30
0.0
 11
9.5564706925
 21
6.0445395924
 31
0.0
  0
LINE
  5
304
330
1F
100
AcDbEntity
  8
0
  6
Continuous
 62
     7
370
    18
100
AcDbLine
 10
9.5564706925
 20
6.0445395924
 30
0.0
 11
9.5833228487
 21
6.0290381725
 31
0.0
  0
LINE
  5
305
330
1F
100
AcDbEntity
  8
0
  6
Continuous
 62
     7
370
    18
100
AcDbLine
 10
9.5833228487
 20
6.0290381725
 30
0.0
 11
9.5927350889
 21
6.0344717431
 31
0.0
  0
SPLINE
  5
306
330
1F
100
AcDbEntity
  8
0
  6
Continuous
 62
     7
370
    18
100
AcDbSpline
210
0.0
220
0.0
230
1.0
 70
     8
 71
     3
 72
    15
 73
    11
 74
     0
 42
0.000000001
 43
0.00000001
 40
0.0
 40
0.0
 40
0.0
 40
0.0
 40
0.1513415820891112
 40
0.2930885624767949
 40
0.424821137104065
 40
0.5487400058942479
 40
0.6657140230079802
 40
0.77816191487684
 40
0.8895834222852598
 40
1.0
 40
1.0
 40
1.0
 40
1.0
 10
9.592735088899243
 20
6.034471743130632
 30
0.0
 10
9.593435356737476
 20
6.034891126056703
 30
0.0
 10
9.594791497536479
 20
6.035703304291082
 30
0.0
 10
9.596664954078664
 20
6.036931709203447
 30
0.0
 10
9.598254565286936
 20
6.038156058700538
 30
0.0
 10
9.599676605463253
 20
6.039334238430799
 30
0.0
 10
9.600774516058488
 20
6.040541547176661
 30
0.0
 10
9.60160613746816
 20
6.041765254361824
 30
0.0
 10
9.60213350827401
 20
6.043021423285032
 30
0.0
 10
9.60225478926654
 20
6.043873349299659
 30
0.0
 10
9.602315155060493
 20
6.044297382688466
 30
0.0
  0
SPLINE
  5
307
330
1F
100
AcDbEntity
  8
0
  6
Continuous
 62
     7
370
    18
100
AcDbSpline
210
0.0
220
0.0
230
1.0
 70
     8
 71
     3
 72
    15
 73
    11
 74
     0
 42
0.000000001
 43
0.00000001
 40
0.0
 40
0.0
 40
0.0
 40
0.0
 40
0.1170054816423991
 40
0.2302990925770665
 40
0.3431897947559324
 40
0.4552359731499921
 40
0.5727668328432927
 40
0.7023035986313616
 40
0.8446844173354469
 40
1.0
 40
1.0
 40
1.0
 40
1.0
 10
9.602315155060493
 20
6.044297382688466
 30
0.0
 10
9.602314232551457
 20
6.044691017851325
 30
0.0
 10
9.602312416798975
 20
6.04546580053279
 30
0.0
 10
9.60200272587458
 20
6.046607953193867
 30
0.0
 10
9.60156126373189
 20
6.047716639720798
 30
0.0
 10
9.600859313299082
 20
6.048797697096069
 30
0.0
 10
9.599874598421874
 20
6.049864346398176
 30
0.0
 10
9.598626704041875
 20
6.050958944478381
 30
0.0
 10
9.597043870752115
 20
6.052068786749224
 30
0.0
 10
9.595848277927342
 20
6.052792665403396
 30
0.0
 10
9.595224507551364
 20
6.053170330818343
 30
0.0
  0
SPLINE
  5
308
330
1F
100
AcDbEntity
  8
0
  6
Continuous
 62
     7
370
    18
100
AcDbSpline
210
0.0
220
0.0
230
1.0
 70
     8
 71
     3
 72
    15
 73
    11
 74
     0
 42
0.000000001
 43
0.00000001
 40
0.0
 40
0.0
 40
0.0
 40
0.0
 40
0.1421883902570769
 40
0.2766733373745985
 40
0.4037003468205707
 40
0.5252743044119828
 40
0.6439423040661695
 40
0.7611224248969335
 40
0.8788267503701751
 40
1.0
 40
1.0
 40
1.0
 40
1.0
 10
9.708031534787334
 20
6.116193290874595
 30
0.0
 10
9.707417828215354
 20
6.116528979806042
 30
0.0
 10
9.706223664295697
 20
6.117182170807189
 30
0.0
 10
9.704299269865372
 20
6.118013270111766
 30
0.0
 10
9.702349875258623
 20
6.118698015057201
 30
0.0
 10
9.700341510790178
 20
6.119197268349628
 30
0.0
 10
9.698305192763844
 20
6.119563022085118
 30
0.0
 10
9.696213509564448
 20
6.119706711173349
 30
0.0
 10
9.694089817384482
 20
6.119745963355195
 30
0.0
 10
9.692687515780541
 20
6.119606519129595
 30
0.0
 10
9.691976183030963
 20
6.119535784528614
 30
0.0
  0
SPLINE
  5
309
330
1F
100
AcDbEntity
  8
0
  6
Continuous
 62
     7
370
    18
100
AcDbSpline
210
0.0
220
0.0
230
1.0
 70
     8
 71
     3
 72
    15
 73
    11
 74
     0
 42
0.000000001
 43
0.00000001
 40
0.0
 40
0.0
 40
0.0
 40
0.0
 40
0.1052589316343267
 40
0.2112259463538306
 40
0.3198725378095185
 40
0.4324446897285069
 40
0.5530279358730593
 40
0.6884651002323819
 40
0.8362998615287037
 40
0.9999999999999999
 40
0.9999999999999999
 40
0.9999999999999999
 40
0.9999999999999999
 10
9.691976183030963
 20
6.119535784528614
 30
0.0
 10
9.691347999745439
 20
6.119451455685585
 30
0.0
 10
9.690087407348116
 20
6.11928223071439
 30
0.0
 10
9.688242403995305
 20
6.118894741723123
 30
0.0
 10
9.686431299015316
 20
6.118397281609296
 30
0.0
 10
9.684621716871781
 20
6.117788401297406
 30
0.0
 10
9.682749124630616
 20
6.11705857388631
 30
0.0
 10
9.680832951383728
 20
6.116154637583257
 30
0.0
 10
9.678766691651507
 20
6.115118002958107
 30
0.0
 10
9.6774053622356
 20
6.114346262202787
 30
0.0
 10
9.6766900336671
 20
6.113940740803406
 30
0.0
  0
LINE
  5
30A
330
1F
100
AcDbEntity
  8
0
  6
Continuous
 62
     7
370
    18
100
AcDbLine
 10
9.6766900337
 20
6.1139407408
 30
0.0
 11
9.667459605
 21
6.1086121277
 31
0.0
  0
LINE
  5
30B
330
1F
100
AcDbEntity
  8
0
  6
Continuous
 62
     7
370
    18
100
AcDbLine
 10
9.667459605
 20
6.1086121277
 30
0.0
 11
9.696101905
 21
6.0920772799
 31
0.0
  0
LINE
  5
30C
330
1F
100
AcDbEntity
  8
0
  6
Continuous
 62
     7
370
    18
100
AcDbLine
 10
9.696101905
 20
6.0920772799
 30
0.0
 11
9.7039757404
 21
6.0966227483
 31
0.0
  0
SPLINE
  5
30D
330
1F
100
AcDbEntity
  8
0
  6
Continuous
 62
     7
370
    18
100
AcDbSpline
210
0.0
220
0.0
230
1.0
 70
     8
 71
     3
 72
    15
 73
    11
 74
     0
 42
0.000000001
 43
0.00000001
 40
0.0
 40
0.0
 40
0.0
 40
0.0
 40
0.1692156142370224
 40
0.3213407441377668
 40
0.4586812238667572
 40
0.5811364546021657
 40
0.6928615550095374
 40
0.7983043029048837
 40
0.9006451669040727
 40
1.0
 40
1.0
 40
1.0
 40
1.0
 10
9.703975740354105
 20
6.096622748320616
 30
0.0
 10
9.704862901915192
 20
6.097149857469554
 30
0.0
 10
9.706547623254265
 20
6.098150838655156
 30
0.0
 10
9.708786585382438
 20
6.099668465080644
 30
0.0
 10
9.71064248939226
 20
6.101102084390029
 30
0.0
 10
9.712138499669669
 20
6.102468409134846
 30
0.0
 10
9.713228031523283
 20
6.103806106572502
 30
0.0
 10
9.714019475499622
 20
6.105118751529333
 30
0.0
 10
9.714483016518685
 20
6.106432008773718
 30
0.0
 10
9.71453644408115
 20
6.107308443265435
 30
0.0
 10
9.714562762374639
 20
6.107740172865511
 30
0.0
  0
SPLINE
  5
30E
330
1F
100
AcDbEntity
  8
0
  6
Continuous
 62
     7
370
    18
100
AcDbSpline
210
0.0
220
0.0
230
1.0
 70
     8
 71
     3
 72
    15
 73
    11
 74
     0
 42
0.000000001
 43
0.00000001
 40
0.0
 40
0.0
 40
0.0
 40
0.0
 40
0.134313119786287
 40
0.2605430777256278
 40
0.3819778404808341
 40
0.4996620924246409
 40
0.6173402282001624
 40
0.7399370725790928
 40
0.866735944334534
 40
1.0
 40
1.0
 40
1.0
 40
1.0
 10
9.714562762374639
 20
6.107740172865511
 30
0.0
 10
9.714529763797273
 20
6.108165997354243
 30
0.0
 10
9.714465752545646
 20
6.108992019585292
 30
0.0
 10
9.71414649774549
 20
6.110192909392031
 30
0.0
 10
9.713606901447402
 20
6.111311156949699
 30
0.0
 10
9.71289728277568
 20
6.112369477065162
 30
0.0
 10
9.711937528368882
 20
6.113363166655113
 30
0.0
 10
9.710843613693367
 20
6.114342529527852
 30
0.0
 10
9.709528627761838
 20
6.115292895917051
 30
0.0
 10
9.708538768437885
 20
6.115888225905999
 30
0.0
 10
9.708031534787334
 20
6.116193290874595
 30
0.0
  0
LINE
  5
30F
330
1F
100
AcDbEntity
  8
0
  6
Continuous
 62
     7
370
    18
100
AcDbLine
 10
9.8413413022
 20
6.1686882033
 30
0.0
 11
9.7930353919
 21
6.1818321155
 31
0.0
  0
LINE
  5
310
330
1F
100
AcDbEntity
  8
0
  6
Continuous
 62
     7
370
    18
100
AcDbLine
 10
9.7930353919
 20
6.1818321155
 30
0.0
 11
9.8157618262
 21
6.1539214862
 31
0.0
  0
LINE
  5
311
330
1F
100
AcDbEntity
  8
0
  6
Continuous
 62
     7
370
    18
100
AcDbLine
 10
9.8157618262
 20
6.1539214862
 30
0.0
 11
9.8413413022
 21
6.1686882033
 31
0.0
  0
LWPOLYLINE
  5
312
330
1F
100
AcDbEntity
  8
0
  6
Continuous
 62
     7
370
    18
100
AcDbPolyline
 90
       22
 70
   128
 43
0.0
 10
10.5323996292
 20
6.4350304133
 10
10.5325902452
 20
6.4361070276
 10
10.5325902452
 20
6.4425723688
 10
10.5306454702
 20
6.448939487
 10
10.5268150112
 20
6.4550149204
 10
10.5212152547
 20
6.4606140701
 10
10.5140163466
 20
6.4655668088
 10
10.5054370219
 20
6.4697226501
 10
10.4957379592
 20
6.4729553207
 10
10.4852138595
 20
6.4751665976
 10
10.4741844924
 20
6.4762892923
 10
10.4629849794
 20
6.4762892923
 10
10.4519556122
 20
6.4751665976
 10
10.4414315126
 20
6.4729553207
 10
10.4317324498
 20
6.4697226501
 10
10.4231531252
 20
6.4655668088
 10
10.415954217
 20
6.4606140701
 10
10.4103544606
 20
6.4550149204
 10
10.4065240015
 20
6.448939487
 10
10.4045792265
 20
6.4425723688
 10
10.4045792265
 20
6.4361070276
 10
10.4047698425
 20
6.4350304133
  0
SPLINE
  5
313
330
1F
100
AcDbEntity
  8
0
  6
Continuous
 62
     7
370
    18
100
AcDbSpline
210
0.0
220
0.0
230
1.0
 70
     8
 71
     3
 72
    23
 73
    19
 74
     0
 42
0.000000001
 43
0.00000001
 40
0.0
 40
0.0
 40
0.0
 40
0.0
 40
0.0906592552075822
 40
0.1749019062979648
 40
0.2530405971888674
 40
0.3253565549693889
 40
0.3924081972646107
 40
0.4546050173156799
 40
0.5132944051630673
 40
0.5684957629742893
 40
0.6217336448406549
 40
0.6737256155876041
 40
0.7251394290070802
 40
0.7771238341675841
 40
0.8299289911165373
 40
0.884203414674617
 40
0.9405449068128613
 40
1.0
 40
1.0
 40
1.0
 40
1.0
 10
8.509239196117706
 20
6.555464891062718
 30
0.0
 10
8.510180940323972
 20
6.554932935554964
 30
0.0
 10
8.51199777476127
 20
6.553906674836645
 30
0.0
 10
8.51479647639371
 20
6.55252715671849
 30
0.0
 10
8.517530569724535
 20
6.551348715645901
 30
0.0
 10
8.520181798420555
 20
6.550352065656956
 30
0.0
 10
8.52277831587091
 20
6.549564285929839
 30
0.0
 10
8.52530528542112
 20
6.548961111186839
 30
0.0
 10
8.527769896861383
 20
6.548547335182199
 30
0.0
 10
8.530184265656088
 20
6.548360783529954
 30
0.0
 10
8.532519093874544
 20
6.548333059303051
 30
0.0
 10
8.534790733663916
 20
6.548450936349485
 30
0.0
 10
8.537007226563315
 20
6.54871556960846
 30
0.0
 10
8.539160386576878
 20
6.549139595134904
 30
0.0
 10
8.54125629448862
 20
6.549708495049168
 30
0.0
 10
8.543283490392984
 20
6.550426533803372
 30
0.0
 10
8.545260938223265
 20
6.551287357005997
 30
0.0
 10
8.546478818999274
 20
6.551958524741257
 30
0.0
 10
8.547104132904906
 20
6.552303131968939
 30
0.0
  0
SPLINE
  5
314
330
1F
100
AcDbEntity
  8
0
  6
Continuous
 62
     7
370
    18
100
AcDbSpline
210
0.0
220
0.0
230
1.0
 70
     8
 71
     3
 72
    23
 73
    19
 74
     0
 42
0.000000001
 43
0.00000001
 40
0.0
 40
0.0
 40
0.0
 40
0.0
 40
0.058383705914504
 40
0.1142434015196713
 40
0.1670052630055783
 40
0.2182826937773434
 40
0.2682495261037708
 40
0.3176136298312419
 40
0.3674899047715854
 40
0.4174860718357639
 40
0.4701853712013318
 40
0.527237549884523
 40
0.5898444647587311
 40
0.6580875703850769
 40
0.7326402215298142
 40
0.8143728654136928
 40
0.9035846718424188
 40
1.0
 40
1.0
 40
1.0
 40
1.0
 10
8.547104132904906
 20
6.552303131968939
 30
0.0
 10
8.547711576406035
 20
6.552670212545064
 30
0.0
 10
8.548900202765278
 20
6.553388504284024
 30
0.0
 10
8.55042071856581
 20
6.554547660807142
 30
0.0
 10
8.551708281928327
 20
6.555723699176134
 30
0.0
 10
8.55272479527315
 20
6.556929704345189
 30
0.0
 10
8.55347585721266
 20
6.558167849448398
 30
0.0
 10
8.55394987494774
 20
6.55943824065276
 30
0.0
 10
8.554172557180019
 20
6.560731438269666
 30
0.0
 10
8.554127463022247
 20
6.562059986561023
 30
0.0
 10
8.553766771931935
 20
6.563437740429449
 30
0.0
 10
8.55297488717051
 20
6.564868875472877
 30
0.0
 10
8.551831501837583
 20
6.566365107851619
 30
0.0
 10
8.550291171399923
 20
6.567915552919015
 30
0.0
 10
8.548398977607135
 20
6.569533764981593
 30
0.0
 10
8.546126238117939
 20
6.571217178474027
 30
0.0
 10
8.54349661996496
 20
6.572977588501566
 30
0.0
 10
8.541539099914692
 20
6.574128982316386
 30
0.0
 10
8.540522357731806
 20
6.574727019951034
 30
0.0
  0
SPLINE
  5
315
330
1F
100
AcDbEntity
  8
0
  6
Continuous
 62
     7
370
    18
100
AcDbSpline
210
0.0
220
0.0
230
1.0
 70
     8
 71
     3
 72
    23
 73
    19
 74
     0
 42
0.000000001
 43
0.00000001
 40
0.0
 40
0.0
 40
0.0
 40
0.0
 40
0.086663250619463
 40
0.1678127928891686
 40
0.2432633494083171
 40
0.3134373662768607
 40
0.3791916689545808
 40
0.4412486386701834
 40
0.4998718483896319
 40
0.5556414126540681
 40
0.6102217024570062
 40
0.6636068822655062
 40
0.7164835213591351
 40
0.770031135018555
 40
0.8241778083652406
 40
0.8802210747991224
 40
0.9390344486105333
 40
1.0
 40
1.0
 40
1.0
 40
1.0
 10
8.540522357731806
 20
6.574727019951034
 30
0.0
 10
8.539643718425241
 20
6.575222585633574
 30
0.0
 10
8.537942340794894
 20
6.576182188010043
 30
0.0
 10
8.535304701308302
 20
6.57746608658787
 30
0.0
 10
8.532717222169143
 20
6.57856905817889
 30
0.0
 10
8.53016224010293
 20
6.57947513507892
 30
0.0
 10
8.527662898225687
 20
6.580215233835263
 30
0.0
 10
8.525195501532274
 20
6.580769387301464
 30
0.0
 10
8.522767677623245
 20
6.581129409905536
 30
0.0
 10
8.520386515284619
 20
6.581305309672532
 30
0.0
 10
8.518061168148757
 20
6.581311836842532
 30
0.0
 10
8.515790128452837
 20
6.581175768864187
 30
0.0
 10
8.513572138037468
 20
6.580894162758628
 30
0.0
 10
8.511429320327958
 20
6.580445942013718
 30
0.0
 10
8.509315520350274
 20
6.579886355289343
 30
0.0
 10
8.507295459371793
 20
6.579138420828592
 30
0.0
 10
8.50530056197561
 20
6.578272876422709
 30
0.0
 10
8.504071947618117
 20
6.577595655031394
 30
0.0
 10
8.50344660262004
 20
6.577250960207452
 30
0.0
  0
SPLINE
  5
316
330
1F
100
AcDbEntity
  8
0
  6
Continuous
 62
     7
370
    18
100
AcDbSpline
210
0.0
220
0.0
230
1.0
 70
     8
 71
     3
 72
    23
 73
    19
 74
     0
 42
0.000000001
 43
0.00000001
 40
0.0
 40
0.0
 40
0.0
 40
0.0
 40
0.0571553190302596
 40
0.1122240125542067
 40
0.1652462421909199
 40
0.2173243803752168
 40
0.2686244251749754
 40
0.3198418777782039
 40
0.3720696843172242
 40
0.4255490534335884
 40
0.4814120307722706
 40
0.540174328973604
 40
0.603127908647997
 40
0.6711287889604912
 40
0.7442755047477403
 40
0.8232776849346447
 40
0.9084152534200054
 40
1.0
 40
1.0
 40
1.0
 40
1.0
 10
8.50344660262004
 20
6.577250960207452
 30
0.0
 10
8.50287643959381
 20
6.576904908692493
 30
0.0
 10
8.501756929044328
 20
6.57622543930595
 30
0.0
 10
8.500320934219763
 20
6.575118205027691
 30
0.0
 10
8.499123601823362
 20
6.57397074625986
 30
0.0
 10
8.498170250843556
 20
6.572783297704239
 30
0.0
 10
8.497469080189454
 20
6.571554247464137
 30
0.0
 10
8.497027950759357
 20
6.570284502920344
 30
0.0
 10
8.49682308629794
 20
6.568977259037259
 30
0.0
 10
8.496863279145073
 20
6.567624838007158
 30
0.0
 10
8.49722317430438
 20
6.566233407200894
 30
0.0
 10
8.49788024631788
 20
6.564795174820561
 30
0.0
 10
8.498967376566895
 20
6.563336928246129
 30
0.0
 10
8.50030955986883
 20
6.561816892306555
 30
0.0
 10
8.502064531619274
 20
6.560279469417658
 30
0.0
 10
8.504118094264227
 20
6.558691038539109
 30
0.0
 10
8.50652447741438
 20
6.557066558355122
 30
0.0
 10
8.5083125457979
 20
6.556011609036449
 30
0.0
 10
8.509239196117706
 20
6.555464891062718
 30
0.0
  0
LWPOLYLINE
  5
317
330
1F
100
AcDbEntity
  8
0
  6
Continuous
 62
     7
370
    18
100
AcDbPolyline
 90
       58
 70
   128
 43
0.0
 10
9.7738722195
 20
6.3636363199
 10
9.7738572001
 20
6.3611855257
 10
9.7726560523
 20
6.3415938931
 10
9.7695368193
 20
6.3220728691
 10
9.764509493
 20
6.3026849853
 10
9.7575901775
 20
6.283492347
 10
9.7488010374
 20
6.2645564341
 10
9.738170227
 20
6.2459379039
 10
9.7257317999
 20
6.2276963972
 10
9.7115256002
 20
6.209890347
 10
9.6955971346
 20
6.1925767915
 10
9.6779974269
 20
6.1758111913
 10
9.6587828541
 20
6.1596472516
 10
9.6380149664
 20
6.1441367504
 10
9.6157602895
 20
6.1293293725
 10
9.592090112
 20
6.1152725504
 10
9.5670802564
 20
6.1020113123
 10
9.5408108369
 20
6.0895881379
 10
9.5133660025
 20
6.0780428225
 10
9.4848336671
 20
6.0674123492
 10
9.4553052284
 20
6.0577307706
 10
9.424875275
 20
6.0490290997
 10
9.3936412831
 20
6.0413352105
 10
9.3617033046
 20
6.0346737489
 10
9.3291636466
 20
6.0290660537
 10
9.2961265433
 20
6.0245300879
 10
9.2626978225
 20
6.0210803815
 10
9.2289845666
 20
6.0187279851
 10
9.1950947692
 20
6.0174804341
 10
9.1611369895
 20
6.0173417248
 10
9.1272200047
 20
6.0183123014
 10
9.0934524609
 20
6.020389055
 10
9.0599425259
 20
6.023565333
 10
9.0267975421
 20
6.027830961
 10
8.9941236827
 20
6.0331722747
 10
8.9620256122
 20
6.0395721644
 10
8.9306061501
 20
6.0470101293
 10
8.8999659427
 20
6.0554623433
 10
8.8702031396
 20
6.0649017315
 10
8.8414130801
 20
6.0752980566
 10
8.8136879875
 20
6.0866180161
 10
8.7871166736
 20
6.0988253488
 10
8.7617842542
 20
6.1118809508
 10
8.7377718769
 20
6.1257430012
 10
8.7151564604
 20
6.1403670956
 10
8.6940104488
 20
6.1557063886
 10
8.6744015791
 20
6.1717117439
 10
8.6563926645
 20
6.1883318915
 10
8.6400413929
 20
6.205513592
 10
8.6254001423
 20
6.2232018072
 10
8.6125158132
 20
6.2413398766
 10
8.6014296779
 20
6.2598696983
 10
8.5921772486
 20
6.2787319158
 10
8.5847881636
 20
6.2978661077
 10
8.5792860925
 20
6.3172109814
 10
8.57568866
 20
6.3367045695
 10
8.5740073898
 20
6.3562844281
 10
8.5738722195
 20
6.3636363199
  0
LWPOLYLINE
  5
318
330
1F
100
AcDbEntity
  8
0
  6
Continuous
 62
     7
370
    18
100
AcDbPolyline
 90
      112
 70
   128
 43
0.0
 10
8.7496081508
 20
7.5627695269
 10
8.7742904342
 20
7.5493053084
 10
8.8002526986
 20
7.5366687802
 10
8.8274117789
 20
7.5249004209
 10
8.8556806764
 20
7.5140379283
 10
8.8849688374
 20
7.504116098
 10
8.915182443
 20
7.4951667127
 10
8.9462247099
 20
7.48721844
 10
8.9779962005
 20
7.4802967406
 10
9.010395141
 20
7.4744237868
 10
9.0433177479
 20
7.4696183915
 10
9.07665856
 20
7.4658959477
 10
9.1103107769
 20
7.4632683796
 10
9.1441666002
 20
7.461744104
 10
9.1781175796
 20
7.4613280037
 10
9.2120549598
 20
7.4620214116
 10
9.2458700292
 20
7.4638221065
 10
9.2794544678
 20
7.4667243201
 10
9.3127006948
 20
7.470718756
 10
9.3455022122
 20
7.4757926185
 10
9.3777539471
 20
7.4819296548
 10
9.4093525873
 20
7.4891102059
 10
9.4401969129
 20
7.4973112704
 10
9.4701881202
 20
7.5065065779
 10
9.4992301383
 20
7.5166666729
 10
9.527229937
 20
7.5277590096
 10
9.5540978243
 20
7.539748056
 10
9.5797477344
 20
7.5525954075
 10
9.6040975029
 20
7.5662599102
 10
9.6270691301
 20
7.5806977925
 10
9.648589031
 20
7.5958628055
 10
9.6685882708
 20
7.6117063712
 10
9.6870027859
 20
7.6281777378
 10
9.7037735891
 20
7.6452241426
 10
9.7188469585
 20
7.6627909808
 10
9.7321746095
 20
7.6808219805
 10
9.7437138497
 20
7.699259383
 10
9.7534277153
 20
7.7180441278
 10
9.7612850899
 20
7.7371160416
 10
9.7672608041
 20
7.7564140313
 10
9.7713357157
 20
7.7758762797
 10
9.7734967716
 20
7.7954404433
 10
9.7737370492
 20
7.8150438522
 10
9.772055779
 20
7.8346237108
 10
9.7684583465
 20
7.8541172989
 10
9.7629562754
 20
7.8734621726
 10
9.7555671905
 20
7.8925963645
 10
9.7463147612
 20
7.911458582
 10
9.7352286259
 20
7.9299884037
 10
9.7223442967
 20
7.9481264731
 10
9.7077030462
 20
7.9658146883
 10
9.6913517746
 20
7.9829963888
 10
9.6733428599
 20
7.9996165364
 10
9.6537339902
 20
8.0156218917
 10
9.6325879786
 20
8.0309611847
 10
9.6099725622
 20
8.0455852791
 10
9.5859601848
 20
8.0594473295
 10
9.5606277655
 20
8.0725029315
 10
9.5340564516
 20
8.0847102642
 10
9.5063313589
 20
8.0960302237
 10
9.4775412995
 20
8.1064265488
 10
9.4477784964
 20
8.115865937
 10
9.4171382889
 20
8.124318151
 10
9.3857188269
 20
8.1317561159
 10
9.3536207563
 20
8.1381560056
 10
9.320946897
 20
8.1434973193
 10
9.2878019131
 20
8.1477629473
 10
9.2542919781
 20
8.1509392253
 10
9.2205244344
 20
8.1530159789
 10
9.1866074495
 20
8.1539865555
 10
9.1526496699
 20
8.1538478462
 10
9.1187598725
 20
8.1526002952
 10
9.0850466165
 20
8.1502478988
 10
9.0516178958
 20
8.1467981924
 10
9.0185807925
 20
8.1422622266
 10
8.9860411344
 20
8.1366545314
 10
8.954103156
 20
8.1299930698
 10
8.9228691641
 20
8.1222991806
 10
8.8924392106
 20
8.1135975097
 10
8.862910772
 20
8.1039159311
 10
8.8343784366
 20
8.0932854578
 10
8.8069336021
 20
8.0817401424
 10
8.7806641827
 20
8.069316968
 10
8.7556543271
 20
8.0560557299
 10
8.7319841495
 20
8.0419989078
 10
8.7097294727
 20
8.0271915299
 10
8.688961585
 20
8.0116810287
 10
8.6697470122
 20
7.995517089
 10
8.6521473044
 20
7.9787514888
 10
8.6362188389
 20
7.9614379333
 10
8.6220126392
 20
7.9436318832
 10
8.6095742121
 20
7.9253903764
 10
8.5989434017
 20
7.9067718462
 10
8.5901542616
 20
7.8878359333
 10
8.583234946
 20
7.868643295
 10
8.5782076198
 20
7.8492554112
 10
8.5750883868
 20
7.8297343872
 10
8.573887239
 20
7.8101427546
 10
8.5746080239
 20
7.7905432714
 10
8.5772484327
 20
7.7709987206
 10
8.5818000074
 20
7.7515717094
 10
8.5882481678
 20
7.7323244682
 10
8.5965722587
 20
7.7133186518
 10
8.6067456154
 20
7.6946151415
 10
8.6187356495
 20
7.6762738505
 10
8.6325039535
 20
7.6583535312
 10
8.6480064232
 20
7.6409115879
 10
8.6651933996
 20
7.6240038925
 10
8.6840098276
 20
7.6076846053
 10
8.7043954325
 20
7.592006002
 10
8.7262849131
 20
7.5770183058
 10
8.7496081508
 20
7.5627695269
  0
LWPOLYLINE
  5
319
330
1F
100
AcDbEntity
  8
0
  6
Continuous
 62
     7
370
    18
100
AcDbPolyline
 90
      102
 70
   128
 43
0.0
 10
8.8199652755
 20
7.6033858304
 10
8.8426521405
 20
7.5910794028
 10
8.8666204317
 20
7.579611007
 10
8.8917774203
 20
7.5690250122
 10
8.9180257789
 20
7.5593623734
 10
8.9452639577
 20
7.5506604735
 10
8.9733865774
 20
7.5429529785
 10
9.0022848371
 20
7.5362697072
 10
9.0318469351
 20
7.5306365159
 10
9.0619585013
 20
7.5260751983
 10
9.0925030399
 20
7.5226034012
 10
9.1233623801
 20
7.5202345564
 10
9.1544171331
 20
7.5189778284
 10
9.185547154
 20
7.5188380793
 10
9.2166320068
 20
7.5198158498
 10
9.2475514304
 20
7.521907357
 10
9.2781858033
 20
7.5251045093
 10
9.3084166073
 20
7.5293949376
 10
9.3381268852
 20
7.5347620429
 10
9.3672016937
 20
7.5411850612
 10
9.3955285481
 20
7.5486391428
 10
9.4229978571
 20
7.5570954495
 10
9.4495033475
 20
7.5665212654
 10
9.4749424745
 20
7.5768801238
 10
9.4992168193
 20
7.5881319484
 10
9.5222324689
 20
7.6002332081
 10
9.5439003805
 20
7.6131370853
 10
9.564136725
 20
7.6267936576
 10
9.5828632119
 20
7.6411500902
 10
9.6000073921
 20
7.656150841
 10
9.6155029382
 20
7.671737875
 10
9.6292899007
 20
7.6878508889
 10
9.6413149408
 20
7.7044275446
 10
9.6515315357
 20
7.7214037103
 10
9.6599001596
 20
7.7387137084
 10
9.6663884358
 20
7.7562905701
 10
9.6709712624
 20
7.7740662937
 10
9.6736309094
 20
7.7919721085
 10
9.6743570871
 20
7.8099387403
 10
9.6731469861
 20
7.8278966798
 10
9.670005288
 20
7.8457764511
 10
9.6649441474
 20
7.863508881
 10
9.657983145
 20
7.881025366
 10
9.6491492114
 20
7.8982581384
 10
9.6384765235
 20
7.9151405277
 10
9.6260063718
 20
7.9316072195
 10
9.6117870009
 20
7.9475945072
 10
9.5958734227
 20
7.9630405391
 10
9.5783272039
 20
7.9778855575
 10
9.5592162273
 20
7.99207213
 10
9.5386144297
 20
8.0055453714
 10
9.5166015152
 20
8.0182531564
 10
9.4932626478
 20
8.0301463211
 10
9.4686881207
 20
8.041178853
 10
9.4429730083
 20
8.0513080695
 10
9.4162167971
 20
8.0604947826
 10
9.3885230019
 20
8.0687034507
 10
9.3599987645
 20
8.0759023161
 10
9.3307544397
 20
8.0820635277
 10
9.300903168
 20
8.087163249
 10
9.2705604382
 20
8.0911817501
 10
9.2398436406
 20
8.0941034844
 10
9.2088716123
 20
8.0959171481
 10
9.1777641781
 20
8.0966157246
 10
9.1466416868
 20
8.0961965111
 10
9.115624545
 20
8.0946611296
 10
9.0848327522
 20
8.0920155201
 10
9.0543854358
 20
8.088269918
 10
9.0244003906
 20
8.0834388142
 10
8.9949936228
 20
8.0775408995
 10
8.9662789016
 20
8.0705989917
 10
8.9383673186
 20
8.0626399476
 10
8.9113668583
 20
8.0536945593
 10
8.8853819802
 20
8.0437974347
 10
8.8605132149
 20
8.0329868639
 10
8.8368567746
 20
8.0213046709
 10
8.8145041817
 20
8.0087960518
 10
8.7935419138
 20
7.9955094
 10
8.7740510701
 20
7.9814961191
 10
8.7561070566
 20
7.9668104236
 10
8.7397792955
 20
7.9515091298
 10
8.7251309555
 20
7.9356514352
 10
8.7122187083
 20
7.9192986903
 10
8.7010925089
 20
7.9025141606
 10
8.6917954023
 20
7.8853627822
 10
8.6843633573
 20
7.8679109106
 10
8.6788251269
 20
7.8502260635
 10
8.6752021376
 20
7.8323766602
 10
8.673508406
 20
7.8144317566
 10
8.6737504847
 20
7.7964607781
 10
8.6759274373
 20
7.7785332508
 10
8.6800308415
 20
7.7607185329
 10
8.6860448221
 20
7.7430855461
 10
8.6939461121
 20
7.7257025089
 10
8.703704143
 20
7.708636673
 10
8.7152811628
 20
7.6919540628
 10
8.7286323824
 20
7.67571922
 10
8.7437061483
 20
7.6599949541
 10
8.7604441433
 20
7.6448420992
 10
8.7787816111
 20
7.6303192788
 10
8.7986476078
 20
7.6164826788
 10
8.8199652755
 20
7.6033858304
  0
LINE
  5
31A
330
1F
100
AcDbEntity
  8
0
  6
Continuous
 62
     8
370
    18
100
AcDbLine
 10
8.5651763933
 20
6.5884856834
 30
0.0
 11
8.5738722195
 21
6.5824659904
 31
0.0
  0
LINE
  5
31B
330
1F
100
AcDbEntity
  8
0
  6
Continuous
 62
     8
370
    18
100
AcDbLine
 10
8.5738722195
 20
6.5475126775
 30
0.0
 11
8.5660760604
 21
6.5422620411
 31
0.0
  0
LINE
  5
31C
330
1F
100
AcDbEntity
  8
0
  6
Continuous
 62
     8
370
    18
100
AcDbLine
 10
8.5400014978
 20
6.6181807062
 30
0.0
 11
8.5738722195
 21
6.6377338576
 31
0.0
  0
LINE
  5
31D
330
1F
100
AcDbEntity
  8
0
  6
Continuous
 62
     8
370
    18
100
AcDbLine
 10
8.5738722195
 20
6.5986275547
 30
0.0
 11
8.5400014978
 21
6.6181807062
 31
0.0
  0
LINE
  5
31E
330
1F
100
AcDbEntity
  8
0
  6
Continuous
 62
     7
370
    18
100
AcDbLine
 10
6.8519850672
 20
2.707442053
 30
0.0
 11
6.8519850672
 21
4.47594599
 31
0.0
  0
LINE
  5
31F
330
1F
100
AcDbEntity
  8
0
  6
Continuous
 62
     7
370
    18
100
AcDbLine
 10
6.8519850672
 20
2.707442053
 30
0.0
 11
6.9619850672
 21
2.707442053
 31
0.0
  0
LINE
  5
320
330
1F
100
AcDbEntity
  8
0
  6
Continuous
 62
     7
370
    18
100
AcDbLine
 10
6.9619850672
 20
2.687442053
 30
0.0
 11
6.9619850672
 21
2.707442053
 31
0.0
  0
LINE
  5
321
330
1F
100
AcDbEntity
  8
0
  6
Continuous
 62
     7
370
    18
100
AcDbLine
 10
6.9519850672
 20
2.687442053
 30
0.0
 11
6.9619850672
 21
2.687442053
 31
0.0
  0
LINE
  5
322
330
1F
100
AcDbEntity
  8
0
  6
Continuous
 62
     7
370
    18
100
AcDbLine
 10
6.9519850672
 20
2.687442053
 30
0.0
 11
6.9519850672
 21
2.507442053
 31
0.0
  0
LINE
  5
323
330
1F
100
AcDbEntity
  8
0
  6
Continuous
 62
     7
370
    18
100
AcDbLine
 10
7.2014850672
 20
2.507442053
 30
0.0
 11
6.9519850672
 21
2.507442053
 31
0.0
  0
LINE
  5
324
330
1F
100
AcDbEntity
  8
0
  6
Continuous
 62
     7
370
    18
100
AcDbLine
 10
7.2014850672
 20
2.6945286671
 30
0.0
 11
7.2014850672
 21
2.507442053
 31
0.0
  0
LINE
  5
325
330
1F
100
AcDbEntity
  8
0
  6
Continuous
 62
     7
370
    18
100
AcDbLine
 10
7.1919850672
 20
2.6945286671
 30
0.0
 11
7.2014850672
 21
2.6945286671
 31
0.0
  0
LINE
  5
326
330
1F
100
AcDbEntity
  8
0
  6
Continuous
 62
     7
370
    18
100
AcDbLine
 10
7.1919850672
 20
2.6945286671
 30
0.0
 11
7.1919850672
 21
2.7145286671
 31
0.0
  0
LINE
  5
327
330
1F
100
AcDbEntity
  8
0
  6
Continuous
 62
     7
370
    18
100
AcDbLine
 10
7.1919850672
 20
2.7145286671
 30
0.0
 11
7.2119850672
 21
2.7145286671
 31
0.0
  0
LINE
  5
328
330
1F
100
AcDbEntity
  8
0
  6
Continuous
 62
     7
370
    18
100
AcDbLine
 10
7.2119850672
 20
2.7436625254
 30
0.0
 11
7.2119850672
 21
2.7145286671
 31
0.0
  0
LINE
  5
329
330
1F
100
AcDbEntity
  8
0
  6
Continuous
 62
     7
370
    18
100
AcDbLine
 10
7.2119850672
 20
2.7436625254
 30
0.0
 11
6.9769850672
 21
2.7436625254
 31
0.0
  0
LINE
  5
32A
330
1F
100
AcDbEntity
  8
0
  6
Continuous
 62
     7
370
    18
100
AcDbLine
 10
6.9769850672
 20
4.3972058325
 30
0.0
 11
6.9769850672
 21
2.7436625254
 31
0.0
  0
LINE
  5
32B
330
1F
100
AcDbEntity
  8
0
  6
Continuous
 62
     7
370
    18
100
AcDbLine
 10
6.9769850672
 20
4.3972058325
 30
0.0
 11
6.9419850672
 21
4.3972058325
 31
0.0
  0
LINE
  5
32C
330
1F
100
AcDbEntity
  8
0
  6
Continuous
 62
     7
370
    18
100
AcDbLine
 10
6.9419850672
 20
4.3972058325
 30
0.0
 11
6.9419850672
 21
4.4172058325
 31
0.0
  0
LINE
  5
32D
330
1F
100
AcDbEntity
  8
0
  6
Continuous
 62
     7
370
    18
100
AcDbLine
 10
6.9514850672
 20
4.4172058325
 30
0.0
 11
6.9419850672
 21
4.4172058325
 31
0.0
  0
LINE
  5
32E
330
1F
100
AcDbEntity
  8
0
  6
Continuous
 62
     7
370
    18
100
AcDbLine
 10
6.9514850672
 20
4.47594599
 30
0.0
 11
6.9514850672
 21
4.4172058325
 31
0.0
  0
LINE
  5
32F
330
1F
100
AcDbEntity
  8
0
  6
Continuous
 62
     7
370
    18
100
AcDbLine
 10
6.9514850672
 20
4.47594599
 30
0.0
 11
6.8519850672
 21
4.47594599
 31
0.0
  0
LINE
  5
330
330
1F
100
AcDbEntity
  8
0
  6
Continuous
 62
     7
370
    18
100
AcDbLine
 10
8.0519850672
 20
4.47594599
 30
0.0
 11
8.0519850672
 21
2.707442053
 31
0.0
  0
LINE
  5
331
330
1F
100
AcDbEntity
  8
0
  6
Continuous
 62
     7
370
    18
100
AcDbLine
 10
8.0519850672
 20
4.47594599
 30
0.0
 11
7.9524850672
 21
4.47594599
 31
0.0
  0
LINE
  5
332
330
1F
100
AcDbEntity
  8
0
  6
Continuous
 62
     7
370
    18
100
AcDbLine
 10
7.9524850672
 20
4.4172058325
 30
0.0
 11
7.9524850672
 21
4.47594599
 31
0.0
  0
LINE
  5
333
330
1F
100
AcDbEntity
  8
0
  6
Continuous
 62
     7
370
    18
100
AcDbLine
 10
7.9619850672
 20
4.4172058325
 30
0.0
 11
7.9524850672
 21
4.4172058325
 31
0.0
  0
LINE
  5
334
330
1F
100
AcDbEntity
  8
0
  6
Continuous
 62
     7
370
    18
100
AcDbLine
 10
7.9619850672
 20
4.4172058325
 30
0.0
 11
7.9619850672
 21
4.3972058325
 31
0.0
  0
LINE
  5
335
330
1F
100
AcDbEntity
  8
0
  6
Continuous
 62
     7
370
    18
100
AcDbLine
 10
7.9619850672
 20
4.3972058325
 30
0.0
 11
7.9269850672
 21
4.3972058325
 31
0.0
  0
LINE
  5
336
330
1F
100
AcDbEntity
  8
0
  6
Continuous
 62
     7
370
    18
100
AcDbLine
 10
7.9269850672
 20
2.7436625254
 30
0.0
 11
7.9269850672
 21
4.3972058325
 31
0.0
  0
LINE
  5
337
330
1F
100
AcDbEntity
  8
0
  6
Continuous
 62
     7
370
    18
100
AcDbLine
 10
7.9269850672
 20
2.7436625254
 30
0.0
 11
7.6919850672
 21
2.7436625254
 31
0.0
  0
LINE
  5
338
330
1F
100
AcDbEntity
  8
0
  6
Continuous
 62
     7
370
    18
100
AcDbLine
 10
7.6919850672
 20
2.7145286671
 30
0.0
 11
7.6919850672
 21
2.7436625254
 31
0.0
  0
LINE
  5
339
330
1F
100
AcDbEntity
  8
0
  6
Continuous
 62
     7
370
    18
100
AcDbLine
 10
7.6919850672
 20
2.7145286671
 30
0.0
 11
7.7119850672
 21
2.7145286671
 31
0.0
  0
LINE
  5
33A
330
1F
100
AcDbEntity
  8
0
  6
Continuous
 62
     7
370
    18
100
AcDbLine
 10
7.7119850672
 20
2.7145286671
 30
0.0
 11
7.7119850672
 21
2.6945286671
 31
0.0
  0
LINE
  5
33B
330
1F
100
AcDbEntity
  8
0
  6
Continuous
 62
     7
370
    18
100
AcDbLine
 10
7.7024850672
 20
2.6945286671
 30
0.0
 11
7.7119850672
 21
2.6945286671
 31
0.0
  0
LINE
  5
33C
330
1F
100
AcDbEntity
  8
0
  6
Continuous
 62
     7
370
    18
100
AcDbLine
 10
7.7024850672
 20
2.507442053
 30
0.0
 11
7.7024850672
 21
2.6945286671
 31
0.0
  0
LINE
  5
33D
330
1F
100
AcDbEntity
  8
0
  6
Continuous
 62
     7
370
    18
100
AcDbLine
 10
7.9519850672
 20
2.507442053
 30
0.0
 11
7.7024850672
 21
2.507442053
 31
0.0
  0
LINE
  5
33E
330
1F
100
AcDbEntity
  8
0
  6
Continuous
 62
     7
370
    18
100
AcDbLine
 10
7.9519850672
 20
2.507442053
 30
0.0
 11
7.9519850672
 21
2.687442053
 31
0.0
  0
LINE
  5
33F
330
1F
100
AcDbEntity
  8
0
  6
Continuous
 62
     7
370
    18
100
AcDbLine
 10
7.9419850672
 20
2.687442053
 30
0.0
 11
7.9519850672
 21
2.687442053
 31
0.0
  0
LINE
  5
340
330
1F
100
AcDbEntity
  8
0
  6
Continuous
 62
     7
370
    18
100
AcDbLine
 10
7.9419850672
 20
2.707442053
 30
0.0
 11
7.9419850672
 21
2.687442053
 31
0.0
  0
LINE
  5
341
330
1F
100
AcDbEntity
  8
0
  6
Continuous
 62
     7
370
    18
100
AcDbLine
 10
7.9419850672
 20
2.707442053
 30
0.0
 11
8.0519850672
 21
2.707442053
 31
0.0
  0
LINE
  5
342
330
1F
100
AcDbEntity
  8
0
  6
Continuous
 62
     7
370
    18
100
AcDbLine
 10
6.2019850672
 20
2.507442053
 30
0.0
 11
6.2019850672
 21
2.707442053
 31
0.0
  0
LINE
  5
343
330
1F
100
AcDbEntity
  8
0
  6
Continuous
 62
     7
370
    18
100
AcDbLine
 10
6.9519850672
 20
2.507442053
 30
0.0
 11
6.2019850672
 21
2.507442053
 31
0.0
  0
LINE
  5
344
330
1F
100
AcDbEntity
  8
0
  6
Continuous
 62
     7
370
    18
100
AcDbLine
 10
6.9519850672
 20
2.707442053
 30
0.0
 11
6.9519850672
 21
2.507442053
 31
0.0
  0
LINE
  5
345
330
1F
100
AcDbEntity
  8
0
  6
Continuous
 62
     7
370
    18
100
AcDbLine
 10
6.2019850672
 20
2.707442053
 30
0.0
 11
6.9519850672
 21
2.707442053
 31
0.0
  0
LINE
  5
346
330
1F
100
AcDbEntity
  8
0
  6
Continuous
 62
     7
370
    18
100
AcDbLine
 10
8.2019850672
 20
2.507442053
 30
0.0
 11
7.9519850672
 21
2.507442053
 31
0.0
  0
LINE
  5
347
330
1F
100
AcDbEntity
  8
0
  6
Continuous
 62
     7
370
    18
100
AcDbLine
 10
8.2019850672
 20
2.507442053
 30
0.0
 11
8.2019850672
 21
2.707442053
 31
0.0
  0
LINE
  5
348
330
1F
100
AcDbEntity
  8
0
  6
Continuous
 62
     7
370
    18
100
AcDbLine
 10
7.9519850672
 20
2.707442053
 30
0.0
 11
8.2019850672
 21
2.707442053
 31
0.0
  0
LINE
  5
349
330
1F
100
AcDbEntity
  8
0
  6
Continuous
 62
     7
370
    18
100
AcDbLine
 10
7.9519850672
 20
2.507442053
 30
0.0
 11
7.9519850672
 21
2.707442053
 31
0.0
  0
LINE
  5
34A
330
1F
100
AcDbEntity
  8
0
  6
Continuous
 62
     7
370
    18
100
AcDbLine
 10
7.2019850672
 20
2.7089608972
 30
0.0
 11
7.2075528371
 21
2.7145286671
 31
0.0
  0
LINE
  5
34B
330
1F
100
AcDbEntity
  8
0
  6
Continuous
 62
     7
370
    18
100
AcDbLine
 10
7.2019850672
 20
2.5315696455
 30
0.0
 11
7.2019850672
 21
2.7089608972
 31
0.0
  0
LINE
  5
34C
330
1F
100
AcDbEntity
  8
0
  6
Continuous
 62
     7
370
    18
100
AcDbLine
 10
7.2075528371
 20
2.5260018756
 30
0.0
 11
7.2019850672
 21
2.5315696455
 31
0.0
  0
ARC
  5
34D
330
1F
100
AcDbEntity
  8
0
  6
Continuous
 62
     7
370
    18
100
AcDbCircle
 10
7.4519850672
 20
2.136969612
 30
0.0
 40
0.4594488188976379
100
AcDbArc
 50
57.8585094721
 51
122.1414905279
  0
LINE
  5
34E
330
1F
100
AcDbEntity
  8
0
  6
Continuous
 62
     7
370
    18
100
AcDbLine
 10
7.7019850672
 20
2.5315696455
 30
0.0
 11
7.6964172972
 21
2.5260018756
 31
0.0
  0
LINE
  5
34F
330
1F
100
AcDbEntity
  8
0
  6
Continuous
 62
     7
370
    18
100
AcDbLine
 10
7.7019850672
 20
2.7089608972
 30
0.0
 11
7.7019850672
 21
2.5315696455
 31
0.0
  0
LINE
  5
350
330
1F
100
AcDbEntity
  8
0
  6
Continuous
 62
     7
370
    18
100
AcDbLine
 10
7.6964172972
 20
2.7145286671
 30
0.0
 11
7.7019850672
 21
2.7089608972
 31
0.0
  0
LINE
  5
351
330
1F
100
AcDbEntity
  8
0
  6
Continuous
 62
     7
370
    18
100
AcDbLine
 10
7.2075528371
 20
2.7145286671
 30
0.0
 11
7.6964172972
 21
2.7145286671
 31
0.0
  0
LINE
  5
352
330
1F
100
AcDbEntity
  8
0
  6
Continuous
 62
     7
370
    18
100
AcDbLine
 10
7.9519850672
 20
4.3972058325
 30
0.0
 11
6.9519850672
 21
4.3972058325
 31
0.0
  0
LINE
  5
353
330
1F
100
AcDbEntity
  8
0
  6
Continuous
 62
     7
370
    18
100
AcDbLine
 10
7.9519850672
 20
4.4759066199
 30
0.0
 11
7.9519850672
 21
4.3972058325
 31
0.0
  0
LINE
  5
354
330
1F
100
AcDbEntity
  8
0
  6
Continuous
 62
     7
370
    18
100
AcDbLine
 10
6.9519850672
 20
4.4759066199
 30
0.0
 11
7.9519850672
 21
4.4759066199
 31
0.0
  0
LINE
  5
355
330
1F
100
AcDbEntity
  8
0
  6
Continuous
 62
     7
370
    18
100
AcDbLine
 10
6.9519850672
 20
4.3972058325
 30
0.0
 11
6.9519850672
 21
4.4759066199
 31
0.0
  0
HATCH
  5
356
330
1F
100
AcDbEntity
  8
0
  6
Continuous
 62
     7
370
    18
100
AcDbHatch
 10
0.0
 20
0.0
 30
0.0
210
0.0
220
0.0
230
1.0
  2
ANSI31
 70
     0
 71
     0
 91
        1
 92
        0
 93
       18
 72
     1
 10
8.051985067153142
 20
2.707442052961841
 11
8.051985067153142
 21
4.475945989969715
 72
     1
 10
8.051985067153142
 20
4.475945989969715
 11
7.952485067153142
 21
4.475945989969715
 72
     1
 10
7.952485067153142
 20
4.475945989969715
 11
7.952485067153142
 21
4.417205832489401
 72
     1
 10
7.952485067153142
 20
4.417205832489401
 11
7.961985067153142
 21
4.417205832489401
 72
     1
 10
7.961985067153142
 20
4.417205832489401
 11
7.961985067153142
 21
4.397205832489401
 72
     1
 10
7.961985067153142
 20
4.397205832489401
 11
7.926985067153142
 21
4.397205832489401
 72
     1
 10
7.926985067153142
 20
4.397205832489401
 11
7.926985067153144
 21
2.743662525402786
 72
     1
 10
7.926985067153144
 20
2.743662525402786
 11
7.691985067153143
 21
2.743662525402786
 72
     1
 10
7.691985067153143
 20
2.743662525402786
 11
7.691985067153143
 21
2.714528667135069
 72
     1
 10
7.691985067153143
 20
2.714528667135069
 11
7.711985067153143
 21
2.714528667135069
 72
     1
 10
7.711985067153143
 20
2.714528667135069
 11
7.711985067153143
 21
2.694528667135069
 72
     1
 10
7.711985067153143
 20
2.694528667135069
 11
7.702485067153143
 21
2.694528667135069
 72
     1
 10
7.702485067153143
 20
2.694528667135069
 11
7.702485067153144
 21
2.507442052961841
 72
     1
 10
7.702485067153144
 20
2.507442052961841
 11
7.951985067153143
 21
2.507442052961841
 72
     1
 10
7.951985067153143
 20
2.507442052961841
 11
7.951985067153143
 21
2.687442052961841
 72
     1
 10
7.951985067153143
 20
2.687442052961841
 11
7.941985067153143
 21
2.687442052961841
 72
     1
 10
7.941985067153143
 20
2.687442052961841
 11
7.941985067153143
 21
2.707442052961841
 72
     1
 10
7.941985067153143
 20
2.707442052961841
 11
8.051985067153142
 21
2.707442052961841
 97
        0
 75
     0
 76
     1
 52
0.0
 41
1.0
 77
     0
 78
     1
 53
45.0
 43
0.0
 44
0.0
 45
-0.0883883476483184
 46
0.0883883476483184
 79
     0
 98
        1
 10
0.0
 20
0.0
  0
HATCH
  5
357
330
1F
100
AcDbEntity
  8
0
  6
Continuous
 62
     7
370
    18
100
AcDbHatch
 10
0.0
 20
0.0
 30
0.0
210
0.0
220
0.0
230
1.0
  2
ANSI31
 70
     0
 71
     0
 91
        1
 92
        0
 93
       18
 72
     1
 10
6.851985067153143
 20
4.475945989969714
 11
6.851985067153143
 21
2.707442052961841
 72
     1
 10
6.851985067153143
 20
2.707442052961841
 11
6.961985067153143
 21
2.707442052961841
 72
     1
 10
6.961985067153143
 20
2.707442052961841
 11
6.961985067153143
 21
2.687442052961841
 72
     1
 10
6.961985067153143
 20
2.687442052961841
 11
6.951985067153143
 21
2.687442052961841
 72
     1
 10
6.951985067153143
 20
2.687442052961841
 11
6.951985067153143
 21
2.507442052961841
 72
     1
 10
6.951985067153143
 20
2.507442052961841
 11
7.201485067153143
 21
2.507442052961841
 72
     1
 10
7.201485067153143
 20
2.507442052961841
 11
7.201485067153143
 21
2.694528667135069
 72
     1
 10
7.201485067153143
 20
2.694528667135069
 11
7.191985067153142
 21
2.694528667135069
 72
     1
 10
7.191985067153142
 20
2.694528667135069
 11
7.191985067153142
 21
2.714528667135069
 72
     1
 10
7.191985067153142
 20
2.714528667135069
 11
7.211985067153143
 21
2.714528667135069
 72
     1
 10
7.211985067153143
 20
2.714528667135069
 11
7.211985067153143
 21
2.743662525402785
 72
     1
 10
7.211985067153143
 20
2.743662525402785
 11
6.976985067153143
 21
2.743662525402785
 72
     1
 10
6.976985067153143
 20
2.743662525402785
 11
6.976985067153142
 21
4.3972058324894
 72
     1
 10
6.976985067153142
 20
4.3972058324894
 11
6.941985067153142
 21
4.3972058324894
 72
     1
 10
6.941985067153142
 20
4.3972058324894
 11
6.941985067153142
 21
4.417205832489399
 72
     1
 10
6.941985067153142
 20
4.417205832489399
 11
6.951485067153143
 21
4.417205832489399
 72
     1
 10
6.951485067153143
 20
4.417205832489399
 11
6.951485067153142
 21
4.475945989969714
 72
     1
 10
6.951485067153142
 20
4.475945989969714
 11
6.851985067153143
 21
4.475945989969714
 97
        0
 75
     0
 76
     1
 52
0.0
 41
1.0
 77
     0
 78
     1
 53
45.0
 43
0.0
 44
0.0
 45
-0.0883883476483184
 46
0.0883883476483184
 79
     0
 98
        1
 10
0.0
 20
0.0
  0
HATCH
  5
358
330
1F
100
AcDbEntity
  8
0
  6
Continuous
 62
     7
370
    18
100
AcDbHatch
 10
0.0
 20
0.0
 30
0.0
210
0.0
220
0.0
230
1.0
  2
ANSI31
 70
     0
 71
     0
 91
        1
 92
        0
 93
        4
 72
     1
 10
7.951985067153143
 20
2.507442052961841
 11
8.201985067153144
 21
2.507442052961841
 72
     1
 10
8.201985067153144
 20
2.507442052961841
 11
8.201985067153142
 21
2.707442052961841
 72
     1
 10
8.201985067153142
 20
2.707442052961841
 11
7.951985067153143
 21
2.707442052961841
 72
     1
 10
7.951985067153143
 20
2.707442052961841
 11
7.951985067153143
 21
2.507442052961841
 97
        0
 75
     0
 76
     1
 52
0.0
 41
1.0
 77
     0
 78
     1
 53
45.0
 43
0.0
 44
0.0
 45
-0.0883883476483184
 46
0.0883883476483184
 79
     0
 98
        1
 10
0.0
 20
0.0
  0
HATCH
  5
359
330
1F
100
AcDbEntity
  8
0
  6
Continuous
 62
     7
370
    18
100
AcDbHatch
 10
0.0
 20
0.0
 30
0.0
210
0.0
220
0.0
230
1.0
  2
ANSI31
 70
     0
 71
     0
 91
        1
 92
        0
 93
        4
 72
     1
 10
6.201985067153142
 20
2.70744205296184
 11
6.201985067153142
 21
2.50744205296184
 72
     1
 10
6.201985067153142
 20
2.50744205296184
 11
6.951985067153143
 21
2.507442052961841
 72
     1
 10
6.951985067153143
 20
2.507442052961841
 11
6.951985067153143
 21
2.707442052961841
 72
     1
 10
6.951985067153143
 20
2.707442052961841
 11
6.201985067153142
 21
2.70744205296184
 97
        0
 75
     0
 76
     1
 52
0.0
 41
1.0
 77
     0
 78
     1
 53
45.0
 43
0.0
 44
0.0
 45
-0.0883883476483184
 46
0.0883883476483184
 79
     0
 98
        1
 10
0.0
 20
0.0
  0
HATCH
  5
35A
330
1F
100
AcDbEntity
  8
0
  6
Continuous
 62
     7
370
    18
100
AcDbHatch
 10
0.0
 20
0.0
 30
0.0
210
0.0
220
0.0
230
1.0
  2
ANSI35
 70
     0
 71
     0
 91
        1
 92
        0
 93
        8
 72
     1
 10
7.207552837083745
 20
2.714528667135069
 11
7.201985067153143
 21
2.708960897204467
 72
     1
 10
7.201985067153143
 20
2.708960897204467
 11
7.201985067153143
 21
2.531569645506428
 72
     1
 10
7.201985067153143
 20
2.531569645506428
 11
7.207552837083745
 21
2.526001875575826
 72
     2
 10
7.451985067153144
 20
2.136969612016959
 40
0.4594488188976378
 50
237.8585094721313
 51
302.1414905278701
 73
     0
 72
     1
 10
7.69641729722254
 20
2.526001875575826
 11
7.701985067153143
 21
2.531569645506429
 72
     1
 10
7.701985067153143
 20
2.531569645506429
 11
7.701985067153142
 21
2.708960897204467
 72
     1
 10
7.701985067153142
 20
2.708960897204467
 11
7.69641729722254
 21
2.714528667135069
 72
     1
 10
7.69641729722254
 20
2.714528667135069
 11
7.207552837083745
 21
2.714528667135069
 97
        0
 75
     0
 76
     1
 52
0.0
 41
1.0
 77
     0
 78
     2
 53
45.0
 43
0.0
 44
0.0
 45
-0.1767766952966369
 46
0.1767766952966369
 79
     0
 53
45.0
 43
0.176776695
 44
0.0
 45
-0.1767766952966369
 46
0.1767766952966369
 79
     4
 49
0.3125
 49
-0.0625
 49
0.0
 49
-0.0625
 98
        1
 10
0.0
 20
0.0
  0
HATCH
  5
35B
330
1F
100
AcDbEntity
  8
0
  6
Continuous
 62
     7
370
    18
100
AcDbHatch
 10
0.0
 20
0.0
 30
0.0
210
0.0
220
0.0
230
1.0
  2
ANSI35
 70
     0
 71
     0
 91
        1
 92
        0
 93
        4
 72
     1
 10
6.951985067153142
 20
4.3972058324894
 11
7.951985067153142
 21
4.3972058324894
 72
     1
 10
7.951985067153142
 20
4.3972058324894
 11
7.951985067153142
 21
4.475906619890975
 72
     1
 10
7.951985067153142
 20
4.475906619890975
 11
6.951985067153142
 21
4.475906619890974
 72
     1
 10
6.951985067153142
 20
4.475906619890974
 11
6.951985067153142
 21
4.3972058324894
 97
        0
 75
     0
 76
     1
 52
0.0
 41
1.0
 77
     0
 78
     2
 53
45.0
 43
0.0
 44
0.0
 45
-0.1767766952966369
 46
0.1767766952966369
 79
     0
 53
45.0
 43
0.176776695
 44
0.0
 45
-0.1767766952966369
 46
0.1767766952966369
 79
     4
 49
0.3125
 49
-0.0625
 49
0.0
 49
-0.0625
 98
        1
 10
0.0
 20
0.0
  0
DIMENSION
  5
35C
330
1F
100
AcDbEntity
  8
0
  6
Continuous
 62
     7
370
    18
100
AcDbDimension
  2
_D_6
 10
7.7024850672
 20
2.056584638
 30
0.0
 11
8.5956858546
 21
2.056584638
 31
0.0
 70
   160
  1
%%c<>\PPLANO-CONCAVE LENS\P(LC2265)\Pf= -15.0mm
 71
     2
 42
-1.0
  3
SLDDIMSTYLE3
100
AcDbAlignedDimension
 13
7.2014850672
 23
2.507442053
 33
0.0
 14
7.7024850672
 24
2.507442053
 34
0.0
100
AcDbRotatedDimension
  0
DIMENSION
  5
373
330
1F
100
AcDbEntity
  8
0
  6
Continuous
 62
     7
370
    18
100
AcDbDimension
  2
_D_7
 10
7.9524850672
 20
4.7595054107
 30
0.0
 11
8.9168873849
 21
4.7595054107
 31
0.0
 70
   160
  1
%%c<>\PGROUND GLASS DIFFUSER\P(DG10-120)
 71
     2
 42
-1.0
  3
SLDDIMSTYLE4
100
AcDbAlignedDimension
 13
6.9514850672
 23
4.47594599
 33
0.0
 14
7.9524850672
 24
4.47594599
 34
0.0
 50
0.0
100
AcDbRotatedDimension
  0
MTEXT
  5
389
330
1F
100
AcDbEntity
  8
0
  6
Continuous
 62
     7
370
     0
100
AcDbMText
 10
7.2472509239
 20
1.8560139652
 30
0.0
 40
0.0833333333
 41
0.0
 71
     2
 72
     1
  1
SECTION A-A
  7
SLDTEXTSTYLE0
 73
     1
 44
1.0
  0
OLE2FRAME
  5
38A
330
1F
100
AcDbEntity
  8
0
100
AcDbOle2Frame
 70
     2
  3
Paintbrush Picture
 10
9.0178120406
 20
1.3267570784
 30
0.0
 11
10.4397105087
 21
1.1242314806
 31
0.0
 71
     2
 72
     0
 73
     1
 90
     7296
310
8055C64EE7A81E092240C05F59A1653AF53F0000000000000000FD155DBC21E1
310
2440C05F59A1653AF53F0000000000000000FD155DBC21E12440A1732426DAFC
310
F13F0000000000000000C64EE7A81E092240A1732426DAFCF13F000000000000
310
00000000000001000000000100000100000001000000000001000000001C0000
310
D0CF11E0A1B11AE1000000000000000000000000000000003E000300FEFF0900
310
0600000000000000000000000100000001000000000000000010000002000000
310
01000000FEFFFFFF0000000000000000FFFFFFFFFFFFFFFFFFFFFFFFFFFFFFFF
310
FFFFFFFFFFFFFFFFFFFFFFFFFFFFFFFFFFFFFFFFFFFFFFFFFFFFFFFFFFFFFFFF
310
FFFFFFFFFFFFFFFFFFFFFFFFFFFFFFFFFFFFFFFFFFFFFFFFFFFFFFFFFFFFFFFF
310
FFFFFFFFFFFFFFFFFFFFFFFFFFFFFFFFFFFFFFFFFFFFFFFFFFFFFFFFFFFFFFFF
310
FFFFFFFFFFFFFFFFFFFFFFFFFFFFFFFFFFFFFFFFFFFFFFFFFFFFFFFFFFFFFFFF
310
FFFFFFFFFFFFFFFFFFFFFFFFFFFFFFFFFFFFFFFFFFFFFFFFFFFFFFFFFFFFFFFF
310
FFFFFFFFFFFFFFFFFFFFFFFFFFFFFFFFFFFFFFFFFFFFFFFFFFFFFFFFFFFFFFFF
310
FFFFFFFFFFFFFFFFFFFFFFFFFFFFFFFFFFFFFFFFFFFFFFFFFFFFFFFFFFFFFFFF
310
FFFFFFFFFFFFFFFFFFFFFFFFFFFFFFFFFFFFFFFFFFFFFFFFFFFFFFFFFFFFFFFF
310
FFFFFFFFFFFFFFFFFFFFFFFFFFFFFFFFFFFFFFFFFFFFFFFFFFFFFFFFFFFFFFFF
310
FFFFFFFFFFFFFFFFFFFFFFFFFFFFFFFFFFFFFFFFFFFFFFFFFFFFFFFFFFFFFFFF
310
FFFFFFFFFFFFFFFFFFFFFFFFFFFFFFFFFFFFFFFFFFFFFFFFFFFFFFFFFFFFFFFF
310
FFFFFFFFFFFFFFFFFFFFFFFFFFFFFFFFFFFFFFFFFFFFFFFFFFFFFFFFFFFFFFFF
310
FFFFFFFFFFFFFFFFFFFFFFFFFFFFFFFFFFFFFFFFFFFFFFFFFFFFFFFFFFFFFFFF
310
FDFFFFFFFEFFFFFFFEFFFFFFFEFFFFFF05000000060000000700000008000000
310
090000000A0000000B0000000C000000FEFFFFFFFFFFFFFFFFFFFFFFFFFFFFFF
310
FFFFFFFFFFFFFFFFFFFFFFFFFFFFFFFFFFFFFFFFFFFFFFFFFFFFFFFFFFFFFFFF
310
FFFFFFFFFFFFFFFFFFFFFFFFFFFFFFFFFFFFFFFFFFFFFFFFFFFFFFFFFFFFFFFF
310
FFFFFFFFFFFFFFFFFFFFFFFFFFFFFFFFFFFFFFFFFFFFFFFFFFFFFFFFFFFFFFFF
310
FFFFFFFFFFFFFFFFFFFFFFFFFFFFFFFFFFFFFFFFFFFFFFFFFFFFFFFFFFFFFFFF
310
FFFFFFFFFFFFFFFFFFFFFFFFFFFFFFFFFFFFFFFFFFFFFFFFFFFFFFFFFFFFFFFF
310
FFFFFFFFFFFFFFFFFFFFFFFFFFFFFFFFFFFFFFFFFFFFFFFFFFFFFFFFFFFFFFFF
310
FFFFFFFFFFFFFFFFFFFFFFFFFFFFFFFFFFFFFFFFFFFFFFFFFFFFFFFFFFFFFFFF
310
FFFFFFFFFFFFFFFFFFFFFFFFFFFFFFFFFFFFFFFFFFFFFFFFFFFFFFFFFFFFFFFF
310
FFFFFFFFFFFFFFFFFFFFFFFFFFFFFFFFFFFFFFFFFFFFFFFFFFFFFFFFFFFFFFFF
310
FFFFFFFFFFFFFFFFFFFFFFFFFFFFFFFFFFFFFFFFFFFFFFFFFFFFFFFFFFFFFFFF
310
FFFFFFFFFFFFFFFFFFFFFFFFFFFFFFFFFFFFFFFFFFFFFFFFFFFFFFFFFFFFFFFF
310
FFFFFFFFFFFFFFFFFFFFFFFFFFFFFFFFFFFFFFFFFFFFFFFFFFFFFFFFFFFFFFFF
310
FFFFFFFFFFFFFFFFFFFFFFFFFFFFFFFFFFFFFFFFFFFFFFFFFFFFFFFFFFFFFFFF
310
FFFFFFFFFFFFFFFFFFFFFFFFFFFFFFFFFFFFFFFFFFFFFFFFFFFFFFFFFFFFFFFF
310
52006F006F007400200045006E00740072007900000000000000000000000000
310
0000000000000000000000000000000000000000000000000000000000000000
310
16000500FFFFFFFFFFFFFFFF020000000A00030000000000C000000000000046
310
000000000000000000000000103BB3DBCFB1D40103000000C000000000000000
310
01004F006C006500000000000000000000000000000000000000000000000000
310
0000000000000000000000000000000000000000000000000000000000000000
310
0A000200FFFFFFFFFFFFFFFFFFFFFFFF00000000000000000000000000000000
310
0000000000000000000000000000000000000000000000001400000000000000
310
010043006F006D0070004F0062006A0000000000000000000000000000000000
310
0000000000000000000000000000000000000000000000000000000000000000
310
120002010100000003000000FFFFFFFF00000000000000000000000000000000
310
0000000000000000000000000000000000000000010000004D00000000000000
310
01004F006C006500310030004E00610074006900760065000000000000000000
310
0000000000000000000000000000000000000000000000000000000000000000
310
1A000200FFFFFFFFFFFFFFFFFFFFFFFF00000000000000000000000000000000
310
000000000000000000000000000000000000000004000000E411000000000000
310
FEFFFFFF02000000FEFFFFFFFFFFFFFFFFFFFFFFFFFFFFFFFFFFFFFFFFFFFFFF
310
FFFFFFFFFFFFFFFFFFFFFFFFFFFFFFFFFFFFFFFFFFFFFFFFFFFFFFFFFFFFFFFF
310
FFFFFFFFFFFFFFFFFFFFFFFFFFFFFFFFFFFFFFFFFFFFFFFFFFFFFFFFFFFFFFFF
310
FFFFFFFFFFFFFFFFFFFFFFFFFFFFFFFFFFFFFFFFFFFFFFFFFFFFFFFFFFFFFFFF
310
FFFFFFFFFFFFFFFFFFFFFFFFFFFFFFFFFFFFFFFFFFFFFFFFFFFFFFFFFFFFFFFF
310
FFFFFFFFFFFFFFFFFFFFFFFFFFFFFFFFFFFFFFFFFFFFFFFFFFFFFFFFFFFFFFFF
310
FFFFFFFFFFFFFFFFFFFFFFFFFFFFFFFFFFFFFFFFFFFFFFFFFFFFFFFFFFFFFFFF
310
FFFFFFFFFFFFFFFFFFFFFFFFFFFFFFFFFFFFFFFFFFFFFFFFFFFFFFFFFFFFFFFF
310
FFFFFFFFFFFFFFFFFFFFFFFFFFFFFFFFFFFFFFFFFFFFFFFFFFFFFFFFFFFFFFFF
310
FFFFFFFFFFFFFFFFFFFFFFFFFFFFFFFFFFFFFFFFFFFFFFFFFFFFFFFFFFFFFFFF
310
FFFFFFFFFFFFFFFFFFFFFFFFFFFFFFFFFFFFFFFFFFFFFFFFFFFFFFFFFFFFFFFF
310
FFFFFFFFFFFFFFFFFFFFFFFFFFFFFFFFFFFFFFFFFFFFFFFFFFFFFFFFFFFFFFFF
310
FFFFFFFFFFFFFFFFFFFFFFFFFFFFFFFFFFFFFFFFFFFFFFFFFFFFFFFFFFFFFFFF
310
FFFFFFFFFFFFFFFFFFFFFFFFFFFFFFFFFFFFFFFFFFFFFFFFFFFFFFFFFFFFFFFF
310
FFFFFFFFFFFFFFFFFFFFFFFFFFFFFFFFFFFFFFFFFFFFFFFFFFFFFFFFFFFFFFFF
310
FFFFFFFFFFFFFFFFFFFFFFFFFFFFFFFFFFFFFFFFFFFFFFFFFFFFFFFFFFFFFFFF
310
0100000200000000000000000000000000000000000000000000000000000000
310
0000000000000000000000000000000000000000000000000000000000000000
310
0100FEFF030A0000FFFFFFFF0A00030000000000C00000000000004607000000
310
5042727573680007000000504272757368000700000050427275736800F439B2
310
7100000000000000000000000000000000000000000000000000000000000000
310
0000000000000000000000000000000000000000000000000000000000000000
310
0000000000000000000000000000000000000000000000000000000000000000
310
0000000000000000000000000000000000000000000000000000000000000000
310
0000000000000000000000000000000000000000000000000000000000000000
310
0000000000000000000000000000000000000000000000000000000000000000
310
0000000000000000000000000000000000000000000000000000000000000000
310
0000000000000000000000000000000000000000000000000000000000000000
310
0000000000000000000000000000000000000000000000000000000000000000
310
0000000000000000000000000000000000000000000000000000000000000000
310
0000000000000000000000000000000000000000000000000000000000000000
310
0000000000000000000000000000000000000000000000000000000000000000
310
E0110000424DDE11000000000000360400002800000096000000170000000100
310
08000000000000000000E7240000E72400000001000000010000000000FF0101
310
01FF020202FF030303FF040404FF050505FF060606FF070707FF080808FF0909
310
09FF0A0A0AFF0B0B0BFF0C0C0CFF0D0D0DFF0E0E0EFF0F0F0FFF101010FF1111
310
11FF121212FF131313FF141414FF151515FF161616FF171717FF181818FF1919
310
19FF1A1A1AFF1B1B1BFF1C1C1CFF1D1D1DFF1E1E1EFF1F1F1FFF202020FF2121
310
21FF222222FF232323FF242424FF252525FF262626FF272727FF282828FF2929
310
29FF2A2A2AFF2B2B2BFF2C2C2CFF2D2D2DFF2E2E2EFF2F2F2FFF303030FF3131
310
31FF323232FF333333FF343434FF353535FF363636FF373737FF383838FF3939
310
39FF3A3A3AFF3B3B3BFF3C3C3CFF3D3D3DFF3E3E3EFF3F3F3FFF404040FF4141
310
41FF424242FF434343FF444444FF454545FF464646FF474747FF484848FF4949
310
49FF4A4A4AFF4B4B4BFF4C4C4CFF4D4D4DFF4E4E4EFF4F4F4FFF505050FF5151
310
51FF525252FF535353FF545454FF555555FF565656FF575757FF585858FF5959
310
59FF5A5A5AFF5B5B5BFF5C5C5CFF5D5D5DFF5E5E5EFF5F5F5FFF606060FF6161
310
61FF626262FF636363FF646464FF656565FF666666FF676767FF686868FF6969
310
69FF6A6A6AFF6B6B6BFF6C6C6CFF6D6D6DFF6E6E6EFF6F6F6FFF707070FF7171
310
71FF727272FF737373FF747474FF757575FF767676FF777777FF787878FF7979
310
79FF7A7A7AFF7B7B7BFF7C7C7CFF7D7D7DFF7E7E7EFF7F7F7FFF808080FF8181
310
81FF828282FF838383FF848484FF858585FF868686FF878787FF888888FF8989
310
89FF8A8A8AFF8B8B8BFF8C8C8CFF8D8D8DFF8E8E8EFF8F8F8FFF909090FF9191
310
91FF929292FF939393FF949494FF959595FF969696FF979797FF989898FF9999
310
99FF9A9A9AFF9B9B9BFF9C9C9CFF9D9D9DFF9E9E9EFF9F9F9FFFA0A0A0FFA1A1
310
A1FFA2A2A2FFA3A3A3FFA4A4A4FFA5A5A5FFA6A6A6FFA7A7A7FFA8A8A8FFA9A9
310
A9FFAAAAAAFFABABABFFACACACFFADADADFFAEAEAEFFAFAFAFFFB0B0B0FFB1B1
310
B1FFB2B2B2FFB3B3B3FFB4B4B4FFB5B5B5FFB6B6B6FFB7B7B7FFB8B8B8FFB9B9
310
B9FFBABABAFFBBBBBBFFBCBCBCFFBDBDBDFFBEBEBEFFBFBFBFFFC0C0C0FFC1C1
310
C1FFC2C2C2FFC3C3C3FFC4C4C4FFC5C5C5FFC6C6C6FFC7C7C7FFC8C8C8FFC9C9
310
C9FFCACACAFFCBCBCBFFCCCCCCFFCDCDCDFFCECECEFFCFCFCFFFD0D0D0FFD1D1
310
D1FFD2D2D2FFD3D3D3FFD4D4D4FFD5D5D5FFD6D6D6FFD7D7D7FFD8D8D8FFD9D9
310
D9FFDADADAFFDBDBDBFFDCDCDCFFDDDDDDFFDEDEDEFFDFDFDFFFE0E0E0FFE1E1
310
E1FFE2E2E2FFE3E3E3FFE4E4E4FFE5E5E5FFE6E6E6FFE7E7E7FFE8E8E8FFE9E9
310
E9FFEAEAEAFFEBEBEBFFECECECFFEDEDEDFFEEEEEEFFEFEFEFFFF0F0F0FFF1F1
310
F1FFF2F2F2FFF3F3F3FFF4F4F4FFF5F5F5FFF6F6F6FFF7F7F7FFF8F8F8FFF9F9
310
F9FFFAFAFAFFFBFBFBFFFCFCFCFFFDFDFDFFFEFEFEFFFFFFFFFFFFFFFFFFFFFF
310
C94E4E4E4F4E4EFFFFFFFFFFC94E4E4E4E4E72FFFFFFFFFFFFFF734E4D4E4E4E
310
C9FFFFFFFFFFAA683516171616265B9BE9FFFFFFFFFF4E4E4E4D4E4EFFFFFFFF
310
FFFFFFFF4E4E4F4E4D4E4E4E4F4E4E4F4D4E4E4E4E4E4D4E4F4E4D4E4E4EAAFF
310
FFFFFFFFFFEA4E4F4F4E4E4E4E4E4D4D4F4F4E4E4E4E4E5B7FAAFFFFFFFFFFFF
310
C9744E1716171616164D8DEAFFFFFFFF0000FFFFFFFFFFFFBA161617161716FF
310
FFFFFFFFB917171616174FFFFFFFFFFFFFFF4E1716161616B9FFFFFFB9341717
310
1716171617171616268CFFFFFFFF161617161617FFFFFFFFFFFFFFB917161717
310
1617167F807F7F7F7F7F7F807F7F807F7F807F7F7F414EFFFFFFFFFFFF8C167F
310
7F807F7F7F7E7F7F807F807F7F807F4E3417258EFFFFEA4E162674AABAEAEBBA
310
AA74341680FFFFFF0000FFFFFFFFFFFFB9171717171617FFFFFFFFFFBB161616
310
16164EFFFFFFFFFFFFFF4E1717171717B9FFFF9C171617171716161616171616
310
171766FFFFFF161717161617FFFFFFFFFFFFFF8E16171717161616FFFFFFFFFF
310
FFFFFFFFFFFFFFFFFFFFFFFFFFAA16D9FFFFFFFFFF3467FFFFFFFFEAFFFFFFFF
310
FFFFFFFFFFFFFFFFFFCA671667EB26278DFFFFFFFFFFFFFFFFFFFF8C2541EAFF
310
0000FFFFFFFFFFFFB9171717171716FFFFFFFFFFBA16171617174EFFFFFFFFFF
310
FFFF4E1717161616BAFF9B1617161616171716171617161616161667FFFF1616
310
16161716FFFFFFFFFFFFFF7F16161617174017FFFFFFFFFFFFFFFFFFFFFFFFFF
310
FFFFFFFFFFFF344E7F7F7F7E7417DAFFFFFFFF80FFFFFFFFFFFFFFFFFFFFFFFF
310
FFFFFF9B163425CAFFFFFFFFFFFFFFFFFFFFFFFFCA2667FF0000FFFFFFFFFFFF
310
BA171717171617FFFFFFFFFFB916171716164EFFFFFFFFFFFFFF4F1716161717
310
B9C91716171616161716161617171616161617168DFF161716161717FFFFFFFF
310
FFFFFF7F17171716164F16FFFFFFFFFFFFFFFFFFFFFFFFFFFFFFFFFFFFFF9B16
310
17161617174EFFFFFFFFFF34FFFFFFFFD9BABABABABADAFFFFFFFFFF7F16AAFF
310
FFFFFFFFFFFFFFFFFFFFFFFFFF9C16BA0000FFFFFFFFFFFFB9161717161717FF
310
FFFFFFFFB917161716174DFFFFFFFFFFFFFF4E1616161616BA4E161617171716
310
419BEAEAAA4E16161617161726E9171717161616FFFFFFFFFFFFFF4F16161717
310
164E16FFFFFFFFFFBAB9B9B9B9B9BABABACAFFFFFFFFFFFFFFFFFFFFFFFFFFFF
310
FFFFBA16FFFFFFFF7F1617161617174DEAFFFFFFEA41FFFFFFFFFFAA4D16174E
310
9BFFFFFFFFFF34730000FFFFFFFFFFFFB9161617171617FFFFFFFFFFBA161616
310
16164EFFFFFFFFFFFFFF4F16161717169B1617161716175BFFFFFFFFFFFF7417
310
16171616168D171717161617FFFFFFFFFFFFEA2616171717167416FFFFFFFFFF
310
16171616171717171717EAFFFFFFFFFFFFFFFFFFFFFFFFFFFFFF6716FFFFFFFF
310
7F4EFFFFFFFFBA2573FFFFFFFFBAFFFFFFFFAA167FB9BB9B269BFFFFFFFF664F
310
0000FFFFFFFFFFFFB9171616161616FFFFFFFFFFBA16161717164EFFFFFFFFFF
310
FFFF4E16161616174E161617171626EAFFFFFFFFFFFFFF4E16161616164E1716
310
16161617FFFFFFFFFFFF671616161716347F16FFFFFFFFFF16B9FFFFFFFFFFFF
310
D9168DFFFFFFFFFFFFFFFFFFFFFFFFFFFFEA1716FFFFFFFF7F4EFFFFFFFFFF7F
310
4EFFFFFFFFFFFFFFFFFF5B66FFFFFFEA347FFFFFFFFF7F4D0000FFFFFFFFFFFF
310
B9171616171617FFFFFFFFFFBA17161716174EFFFFFFFFFFFFFF4D1716161617
310
17161716161673FFFFFFFFFFFFFFFF9B1617161717161616171616174F4E4E4E
310
4E341616171616167E7F16FFFFFFFFFF16BAFFFFFFFFFFFFFF5B41FFFFFFFF34
310
1616171616BAFFFFFF9B1716FFFFFFFF7F4EFFFFFFFFFF4E4EFFFFFFFF734E4E
310
4E4E267EDA9B67164EEAFFFFFFFF744D0000FFFFFFFFFFFFBA171717161617FF
310
FFFFFFFFBA1616171616347F7F7F7F80807F331616161717161717161716B9FF
310
FFFFFFFFFFFFFFE9161616161616171716161716171616161616171616171734
310
EA7F16FFFFFFFFFF16BAFFFFFFFFFFFFFFAA17C9FFFFFF7326BABA5B25FFFFFF
310
FF401716FFFFFFFF7F264F4E4E4E4217AAFFFFFFEA16677F73261616164173CA
310
FFFFFFFFFFFF417F0000FFFFFFFFFFFFBA171616171617FFFFFFFFFFBA161616
310
17171616161616161616161717161616161616161617EAFFFFFFFFFFFFFFFFFF
310
261717161716161617161616161617161617161616174EEAFF8016FFFFFFFFFF
310
17BAFFFFFFFFFFFFFFFF3467FFFFFFC916C9FF3467FFFFFFDA166716FFFFFFFF
310
9C4D4E4E4E4E67AAFFFFFFFF6834FF7F262567AAEAFFFFFFFFFFFFFFFF9B17D9
310
0000FFFFFFFFFFFFB9161616161616FFFFFFFFFFBA1617161717171616161616
310
1716171716161716161617171716FFFFFFFFFFFFFFFFFFFF4E17161716171616
310
1617171616161716171717161616169BFF7F17FFFFFFFFFF17B9FFFFFFFFFFFF
310
FFFF7326FFFFFFFF3473DA16AAFFFFFF7317AA16FFFFFFFFFFFFFFFFFFFFFFFF
310
FFFFEA6725BA4E167FEAFFFFFFFFFFFFFFFFFFFF9C167FFF0000FFFFFFFFFFFF
310
B9161717171716FFFFFFFFFFBA16161716171616171717161617161716161616
310
171617171617EAFFFFFFFFFFFFFFFFFF26161717161616161616161617171616
310
1616161616171616AA8016FFFFFFFFFF16BAFFFFFFFFFFFFFFFFDA179BFFFFFF
310
74348D26FFFFFFFF2566B917FFFFFFFFD8BAB9BAB9BADAFFFFEA41169B7425C9
310
FFFFFFFFFFFFFFFFFFFFAB4F1680FFFF0000FFFFFFFFFFFFBA161717171617FF
310
FFFFFFFFBA17161717161617171617161616161617171616171716171617BBFF
310
FFFFFFFFFFFFFFE9171616161617161617161716FFFFFFFFFFD9671616161617
310
348017FFFFFFFFFF16BAFFFFFFFFFFFFFFFFFF4E5AFFFFFFC916265AFFFFFFAA
310
16AABA16FFFFFFFF7F1617161616179BFFFFEB4127168DFFFFFFFFFFFFFFD99B
310
6734175AC9FFFFFF0000FFFFFFFFFFFFB9161617171617FFFFFFFFFFBB161616
310
1616347F807F7F7F7F8033171716171617171616161672FFFFFFFFFFFFFFFF9C
310
171617171617161716161617FFFFFFFFFFFFFF4117161616174E17FFFFFFFFFF
310
16BAFFFFFFFFFFFFFFFFFF9B16DAFFFFFF34169BFFFFFF5A26FFB917FFFFFFFF
310
7F4EFFFFFFEA5B26FFFFFFEA2616EAFFFFFFFFDA743416331617414E4E4E4ECA
310
0000FFFFFFFFFFFFBA161716161616FFFFFFFFFFBA17171616164EFFFFFFFFFF
310
FFFF4E16161717174E161717171626EBFFFFFFFFFFFFFF4E16161617165B1616
310
16171617FFFFFFFFFFFFFF6716161616161617FFFFFFFFFF16BAFFFFFFFFFFFF
310
FFFFFFEA268CFFFFFF7316EAFFFFEB1774FFB916FFFFFFFF7F4EFFFFFFFF7316
310
FFFFFFFF6826FFFFFFFFEB264D9CEABA257F807F7F6616BA0000FFFFFFFFFFFF
310
BA161716161616FFFFFFFFFFBA16171616164DFFFFFFFFFFFFFF4E1617161617
310
9B1617171717165BEBFFFFFFFFFF671616161617179B171616161616FFFFFFFF
310
FFFFFF3417161617171617FFFFFFFFFF17BAFFFFFFFFFFFFFFFFFFFF6734FFFF
310
FFEBCAFFFFFF8D17C9FFBA17FFFFFFFF7F357F808066174FFFFFFFFF7F16FFFF
310
FFFFD91673B99B415BFFFFFFFFBA16DA00009B7F7F7F807F671617161616167F
310
80807F7E6617161616164EFFFFFFFFFFFFFF4E1616161617B94E171716161616
310
349BC9D9AA4E16171616161634FF161617161717B9B9BAB9BA9B411716171716
310
163416FFFFFFFFFF16B9FFFFFFFFFFFFFFFFFFFFC917CAFFFFFFFFFFFFFF3342
310
FFFFBA17FFFFFFFF9B4E4E4F4E4E66EAFFFFFFFF5B16C9FFFFFFFFAA4E164E73
310
EAFFFFFFFF8D26FF00004E161716161616171617171616171717171617161616
310
17174EFFFFFFFFFFFFFF4E1717171616B9D92616171716171716171717171716
310
16171716AAFF161717171617161617171616161617161716166717FFFFFFFFFF
310
17B9FFFFFFFFFFFFFFFFFFFFFF3467FFFFFFFFFFFFCA168CFFFFBB17FFFFFFFF
310
FFFFFFFFFFFFFFFFFFFFFFEA26265BFFFFFFFFFFFFFFFFFFFFFFFFFFEA3467FF
310
00004D16161616161617161717161617161616171617171616164EFFFFFFFFFF
310
FFFF4D1617161616BAFF9B1616161616161716161616171717161766FFFF1616
310
16171617161617161716171616171717667F16FFFFFFFFFF17BAFFFFFFFFFFFF
310
FFFFFFFFFF8C26EAFFFFFFFFFF6617EAFFFFBA17FFFFFFFFFFFFFFFFFFFFFFFF
310
FFFFEA5A25BA269BFFFFFFFFFFFFFFFFFFFFFFFF6616DAFF00004E1616171616
310
1616161616161716161617171616171616174EFFFFFFFFFFFFFF4D1717171716
310
B9FFFF9C161616161616161716161717171667FFFFFF17161717171716161617
310
1716161616161641E97E16FFFFFFFFFF16B9FFFFFFFFFFFFFFFFFFFFFFEA169B
310
FFFFFFFFEA265BFFFFFFB916FFFFFFFFFFFFFFFFFFFFFFFFFF9B3416AAFF9B17
310
67EAFFFFFFFFFFFFFFFFEA5B169BFFFF00004D17161716161616161717171616
310
161717161716171716174EFFFFFFFFFFFFFF4D1616161616BAFFFFFFBB411616
310
161716161616171634ABFFFFFFFF161716161617171716171617171617267FFF
310
FF7F164E4E4E4E4F17BAFFFFFFFFFFFFFFFFFFFFFFFF66344D4E4E4F4117AAFF
310
FFFFBA174E4E4E4D4E4D4D4E4E4E4E4116174EBBFFFFFFCA342666ABEAFFFFEA
310
AA6725269CFFFFFF0000724F4E4D4D4D4E4D4D4E4E4E4D4E4E4E4E4E4E4E4E4D
310
4E4E74FFFFFFFFFFFFFF734E4E4E4D4ECAFFFFFFFFFFAA663416171717265B9B
310
FFFFFFFFFFFF7F8080807F80807F7F7F7F7F807FBAFFFFFFFF9B4E4E4F4D4D4E
310
4DC9FFFFFFFFFFFFFFFFFFFFFFFFBA4E4E4E4E4D4E4EFFFFFFFFC94E4E4E4F4E
310
4E4E4D4E4E5A807F9CD9FFFFFFFFFFFFFF9B5B2617171716174E8DEAFFFFFFFF
310
0000000000000000000000000000000000000000000000000000000000000000
  1
OLE
  0
ENDSEC
  0
SECTION
  2
OBJECTS
  0
DICTIONARY
  5
C
330
0
100
AcDbDictionary
281
     1
  3
ACAD_GROUP
350
D
  3
ACAD_LAYOUT
350
1A
  3
ACAD_MLINESTYLE
350
17
  3
ACAD_PLOTSETTINGS
350
19
  3
ACAD_PLOTSTYLENAME
350
E
  3
ACAD_SCALELIST
350
47
  0
DICTIONARY
  5
D
102
{ACAD_REACTORS
330
C
102
}
330
C
100
AcDbDictionary
281
     1
  0
DICTIONARY
  5
1A
102
{ACAD_REACTORS
330
C
102
}
330
C
100
AcDbDictionary
281
     1
  3
Layout1
350
1E
  3
Layout2
350
26
  3
Model
350
22
  0
DICTIONARY
  5
17
102
{ACAD_REACTORS
330
C
102
}
330
C
100
AcDbDictionary
281
     1
  3
Standard
350
18
  0
DICTIONARY
  5
19
102
{ACAD_REACTORS
330
C
102
}
330
C
100
AcDbDictionary
281
     1
  0
ACDBDICTIONARYWDFLT
  5
E
102
{ACAD_REACTORS
330
C
102
}
330
C
100
AcDbDictionary
281
     1
  3
Normal
350
F
100
AcDbDictionaryWithDefault
340
F
  0
DICTIONARY
  5
47
102
{ACAD_REACTORS
330
C
102
}
330
C
100
AcDbDictionary
281
     1
  3
A0
350
48
  3
A1
350
49
  3
A2
350
4A
  3
A3
350
4B
  3
A4
350
4C
  3
A5
350
4D
  3
A6
350
4E
  3
A7
350
4F
  3
A8
350
50
  3
A9
350
51
  3
B0
350
52
  3
B1
350
53
  3
B2
350
54
  3
B3
350
55
  3
B4
350
56
  3
B5
350
57
  3
B6
350
58
  3
B7
350
59
  3
B8
350
5A
  3
B9
350
5B
  3
C0
350
5C
  3
C1
350
5D
  3
C2
350
5E
  3
C3
350
5F
  3
C4
350
60
  3
C5
350
61
  3
C6
350
62
  3
C7
350
63
  3
C8
350
64
  3
C9
350
65
  3
D0
350
66
  3
D1
350
67
  3
D2
350
68
  0
LAYOUT
  5
1E
102
{ACAD_REACTORS
330
1A
102
}
330
1A
100
AcDbPlotSettings
  1

  2
none_device
  4

  6

 40
0.0
 41
0.0
 42
0.0
 43
0.0
 44
0.0
 45
0.0
 46
0.0
 47
0.0
 48
0.0
 49
0.0
140
0.0
141
0.0
142
1.0
143
1.0
 70
   688
 72
     0
 73
     0
 74
     5
  7

 75
    16
147
1.0
148
0.0
149
0.0
100
AcDbLayout
  1
Layout1
 70
     1
 71
     1
 10
0.0
 20
0.0
 11
12.0
 21
9.0
 12
0.0
 22
0.0
 32
0.0
 14
1.0000000000E+20
 24
1.0000000000E+20
 34
1.0000000000E+20
 15
-1.0000000000E+20
 25
-1.0000000000E+20
 35
-1.0000000000E+20
146
0.0
 13
0.0
 23
0.0
 33
0.0
 16
1.0
 26
0.0
 36
0.0
 17
0.0
 27
1.0
 37
0.0
 76
     0
330
1B
  0
LAYOUT
  5
26
102
{ACAD_REACTORS
330
1A
102
}
330
1A
100
AcDbPlotSettings
  1

  2
none_device
  4

  6

 40
0.0
 41
0.0
 42
0.0
 43
0.0
 44
0.0
 45
0.0
 46
0.0
 47
0.0
 48
0.0
 49
0.0
140
0.0
141
0.0
142
1.0
143
1.0
 70
   688
 72
     0
 73
     0
 74
     5
  7

 75
    16
147
1.0
148
0.0
149
0.0
100
AcDbLayout
  1
Layout2
 70
     1
 71
     2
 10
0.0
 20
0.0
 11
0.0
 21
0.0
 12
0.0
 22
0.0
 32
0.0
 14
0.0
 24
0.0
 34
0.0
 15
0.0
 25
0.0
 35
0.0
146
0.0
 13
0.0
 23
0.0
 33
0.0
 16
1.0
 26
0.0
 36
0.0
 17
0.0
 27
1.0
 37
0.0
 76
     0
330
23
  0
LAYOUT
  5
22
102
{ACAD_REACTORS
330
1A
102
}
330
1A
100
AcDbPlotSettings
  1

  2
none_device
  4
Letter_(8.50_x_11.00_Inches)
  6

 40
6.35
 41
6.35
 42
6.35000508
 43
6.35000508
 44
215.9
 45
279.4
 46
0.0
 47
0.0
 48
0.0
 49
0.0
140
0.0
141
0.0
142
1.0
143
1.0
 70
  1712
 72
     0
 73
     0
 74
     0
  7

 75
     0
147
1.0
148
0.0
149
0.0
100
AcDbLayout
  1
Model
 70
     1
 71
     0
 10
0.0
 20
0.0
 11
11.0
 21
8.5
 12
0.0
 22
0.0
 32
0.0
 14
0.0
 24
0.0
 34
0.0
 15
11.0
 25
8.5
 35
0.0
146
0.0
 13
0.0
 23
0.0
 33
0.0
 16
1.0
 26
0.0
 36
0.0
 17
0.0
 27
1.0
 37
0.0
 76
     0
330
1F
331
29
  0
MLINESTYLE
  5
18
102
{ACAD_REACTORS
330
17
102
}
330
17
100
AcDbMlineStyle
  2
Standard
 70
     0
  3

 62
   256
 51
90.0
 52
90.0
 71
     2
 49
0.5
 62
   256
  6
BYLAYER
 49
-0.5
 62
   256
  6
BYLAYER
  0
ACDBPLACEHOLDER
  5
F
102
{ACAD_REACTORS
330
E
102
}
330
E
  0
SCALE
  5
48
102
{ACAD_REACTORS
330
47
102
}
330
47
100
AcDbScale
 70
     0
300
1:1
140
1.0
141
1.0
290
     1
  0
SCALE
  5
49
102
{ACAD_REACTORS
330
47
102
}
330
47
100
AcDbScale
 70
     0
300
1:2
140
1.0
141
2.0
290
     0
  0
SCALE
  5
4A
102
{ACAD_REACTORS
330
47
102
}
330
47
100
AcDbScale
 70
     0
300
1:4
140
1.0
141
4.0
290
     0
  0
SCALE
  5
4B
102
{ACAD_REACTORS
330
47
102
}
330
47
100
AcDbScale
 70
     0
300
1:5
140
1.0
141
5.0
290
     0
  0
SCALE
  5
4C
102
{ACAD_REACTORS
330
47
102
}
330
47
100
AcDbScale
 70
     0
300
1:8
140
1.0
141
8.0
290
     0
  0
SCALE
  5
4D
102
{ACAD_REACTORS
330
47
102
}
330
47
100
AcDbScale
 70
     0
300
1:10
140
1.0
141
10.0
290
     0
  0
SCALE
  5
4E
102
{ACAD_REACTORS
330
47
102
}
330
47
100
AcDbScale
 70
     0
300
1:16
140
1.0
141
16.0
290
     0
  0
SCALE
  5
4F
102
{ACAD_REACTORS
330
47
102
}
330
47
100
AcDbScale
 70
     0
300
1:20
140
1.0
141
20.0
290
     0
  0
SCALE
  5
50
102
{ACAD_REACTORS
330
47
102
}
330
47
100
AcDbScale
 70
     0
300
1:30
140
1.0
141
30.0
290
     0
  0
SCALE
  5
51
102
{ACAD_REACTORS
330
47
102
}
330
47
100
AcDbScale
 70
     0
300
1:40
140
1.0
141
40.0
290
     0
  0
SCALE
  5
52
102
{ACAD_REACTORS
330
47
102
}
330
47
100
AcDbScale
 70
     0
300
1:50
140
1.0
141
50.0
290
     0
  0
SCALE
  5
53
102
{ACAD_REACTORS
330
47
102
}
330
47
100
AcDbScale
 70
     0
300
1:100
140
1.0
141
100.0
290
     0
  0
SCALE
  5
54
102
{ACAD_REACTORS
330
47
102
}
330
47
100
AcDbScale
 70
     0
300
2:1
140
2.0
141
1.0
290
     0
  0
SCALE
  5
55
102
{ACAD_REACTORS
330
47
102
}
330
47
100
AcDbScale
 70
     0
300
4:1
140
4.0
141
1.0
290
     0
  0
SCALE
  5
56
102
{ACAD_REACTORS
330
47
102
}
330
47
100
AcDbScale
 70
     0
300
8:1
140
8.0
141
1.0
290
     0
  0
SCALE
  5
57
102
{ACAD_REACTORS
330
47
102
}
330
47
100
AcDbScale
 70
     0
300
10:1
140
10.0
141
1.0
290
     0
  0
SCALE
  5
58
102
{ACAD_REACTORS
330
47
102
}
330
47
100
AcDbScale
 70
     0
300
100:1
140
100.0
141
1.0
290
     0
  0
SCALE
  5
59
102
{ACAD_REACTORS
330
47
102
}
330
47
100
AcDbScale
 70
     0
300
1/128" = 1'-0"
140
0.0078125
141
12.0
290
     0
  0
SCALE
  5
5A
102
{ACAD_REACTORS
330
47
102
}
330
47
100
AcDbScale
 70
     0
300
1/64" = 1'-0"
140
0.015625
141
12.0
290
     0
  0
SCALE
  5
5B
102
{ACAD_REACTORS
330
47
102
}
330
47
100
AcDbScale
 70
     0
300
1/32" = 1'-0"
140
0.03125
141
12.0
290
     0
  0
SCALE
  5
5C
102
{ACAD_REACTORS
330
47
102
}
330
47
100
AcDbScale
 70
     0
300
1/16" = 1'-0"
140
0.0625
141
12.0
290
     0
  0
SCALE
  5
5D
102
{ACAD_REACTORS
330
47
102
}
330
47
100
AcDbScale
 70
     0
300
3/32" = 1'-0"
140
0.09375
141
12.0
290
     0
  0
SCALE
  5
5E
102
{ACAD_REACTORS
330
47
102
}
330
47
100
AcDbScale
 70
     0
300
1/8" = 1'-0"
140
0.125
141
12.0
290
     0
  0
SCALE
  5
5F
102
{ACAD_REACTORS
330
47
102
}
330
47
100
AcDbScale
 70
     0
300
3/16" = 1'-0"
140
0.1875
141
12.0
290
     0
  0
SCALE
  5
60
102
{ACAD_REACTORS
330
47
102
}
330
47
100
AcDbScale
 70
     0
300
1/4" = 1'-0"
140
0.25
141
12.0
290
     0
  0
SCALE
  5
61
102
{ACAD_REACTORS
330
47
102
}
330
47
100
AcDbScale
 70
     0
300
3/8" = 1'-0"
140
0.375
141
12.0
290
     0
  0
SCALE
  5
62
102
{ACAD_REACTORS
330
47
102
}
330
47
100
AcDbScale
 70
     0
300
1/2" = 1'-0"
140
0.5
141
12.0
290
     0
  0
SCALE
  5
63
102
{ACAD_REACTORS
330
47
102
}
330
47
100
AcDbScale
 70
     0
300
3/4" = 1'-0"
140
0.75
141
12.0
290
     0
  0
SCALE
  5
64
102
{ACAD_REACTORS
330
47
102
}
330
47
100
AcDbScale
 70
     0
300
1" = 1'-0"
140
1.0
141
12.0
290
     0
  0
SCALE
  5
65
102
{ACAD_REACTORS
330
47
102
}
330
47
100
AcDbScale
 70
     0
300
1-1/2" = 1'-0"
140
1.5
141
12.0
290
     0
  0
SCALE
  5
66
102
{ACAD_REACTORS
330
47
102
}
330
47
100
AcDbScale
 70
     0
300
3" = 1'-0"
140
3.0
141
12.0
290
     0
  0
SCALE
  5
67
102
{ACAD_REACTORS
330
47
102
}
330
47
100
AcDbScale
 70
     0
300
6" = 1'-0"
140
6.0
141
12.0
290
     0
  0
SCALE
  5
68
102
{ACAD_REACTORS
330
47
102
}
330
47
100
AcDbScale
 70
     0
300
1'-0" = 1'-0"
140
12.0
141
12.0
290
     0
  0
ENDSEC
  0
EOF
