  0
SECTION
  2
HEADER
  9
$ACADVER
  1
AC1012
  9
$DWGCODEPAGE
  3
ansi_1252
  9
$INSBASE
 10
0.0
 20
0.0
 30
0.0
  9
$EXTMIN
 10
0.0
 20
0.0
 30
0.0
  9
$EXTMAX
 10
11.0
 20
8.5
 30
0.0
  9
$LIMMIN
 10
0.0
 20
0.0
  9
$LIMMAX
 10
0.0
 20
0.0
  9
$ORTHOMODE
 70
         0
  9
$REGENMODE
 70
         1
  9
$FILLMODE
 70
         1
  9
$QTEXTMODE
 70
         0
  9
$MIRRTEXT
 70
         1
  9
$DRAGMODE
 70
         2
  9
$LTSCALE
 40
1.0
  9
$OSMODE
 70
         0
  9
$ATTMODE
 70
         1
  9
$TEXTSIZE
 40
0.1111111111
  9
$TRACEWID
 40
0.05
  9
$TEXTSTYLE
  7
STANDARD
  9
$CLAYER
  8
0
  9
$CELTYPE
  6
CONTINUOUS
  9
$CECOLOR
 62
       256
  9
$CELTSCALE
 40
1.0
  9
$DELOBJ
 70
         1
  9
$DISPSILH
 70
         0
  9
$DIMSCALE
 40
1.0
  9
$DIMASZ
 40
39.3700787402
  9
$DIMEXO
 40
0.0
  9
$DIMDLI
 40
0.38
  9
$DIMRND
 40
0.0
  9
$DIMDLE
 40
39.3700787402
  9
$DIMEXE
 40
0.18
  9
$DIMTP
 40
0.0
  9
$DIMTM
 40
0.0
  9
$DIMTXT
 40
0.1111111111
  9
$DIMCEN
 40
0.09
  9
$DIMTSZ
 40
0.0
  9
$DIMTOL
 70
         0
  9
$DIMLIM
 70
         0
  9
$DIMTIH
 70
         1
  9
$DIMTOH
 70
         1
  9
$DIMSE1
 70
         0
  9
$DIMSE2
 70
         0
  9
$DIMTAD
 70
         0
  9
$DIMZIN
 70
         1
  9
$DIMBLK
  1

  9
$DIMASO
 70
         1
  9
$DIMSHO
 70
         1
  9
$DIMPOST
  1

  9
$DIMAPOST
  1

  9
$DIMALT
 70
         0
  9
$DIMALTD
 70
         2
  9
$DIMALTF
 40
25.4
  9
$DIMLFAC
 40
1.0
  9
$DIMTOFL
 70
         0
  9
$DIMTVP
 40
0.0
  9
$DIMTIX
 70
         0
  9
$DIMSOXD
 70
         0
  9
$DIMSAH
 70
         0
  9
$DIMBLK1
  1

  9
$DIMBLK2
  1

  9
$DIMSTYLE
  2
STANDARD
  9
$DIMCLRD
 70
         0
  9
$DIMCLRE
 70
         0
  9
$DIMCLRT
 70
         0
  9
$DIMTFAC
 40
1.0
  9
$DIMGAP
 40
0.0
  9
$DIMJUST
 70
         0
  9
$DIMSD1
 70
         0
  9
$DIMSD2
 70
         0
  9
$DIMTOLJ
 70
         1
  9
$DIMTZIN
 70
         1
  9
$DIMALTZ
 70
         0
  9
$DIMALTTZ
 70
         0
  9
$DIMFIT
 70
         3
  9
$DIMUPT
 70
         0
  9
$DIMUNIT
 70
         2
  9
$DIMDEC
 70
         4
  9
$DIMTDEC
 70
         4
  9
$DIMALTU
 70
         2
  9
$DIMALTTD
 70
         2
  9
$DIMTXSTY
  7
STANDARD
  9
$DIMAUNIT
 70
         0
  9
$LUNITS
 70
         2
  9
$LUPREC
 70
         2
  9
$SKETCHINC
 40
0.1
  9
$FILLETRAD
 40
0.0
  9
$AUNITS
 70
         0
  9
$AUPREC
 70
         2
  9
$MENU
  1
acad
  9
$ELEVATION
 40
0.0
  9
$PELEVATION
 40
0.0
  9
$THICKNESS
 40
0.0
  9
$LIMCHECK
 70
         0
  9
$BLIPMODE
 70
         1
  9
$CHAMFERA
 40
0.0
  9
$CHAMFERB
 40
0.0
  9
$CHAMFERC
 40
0.0
  9
$CHAMFERD
 40
0.0
  9
$SKPOLY
 70
         0
  9
$TDCREATE
 40
0.000000000
  9
$TDUPDATE
 40
0.000000000
  9
$TDINDWG
 40
0.0000000000
  9
$TDUSRTIMER
 40
0.0000000000
  9
$USRTIMER
 70
         1
  9
$ANGBASE
 50
0.0
  9
$ANGDIR
 70
         0
  9
$PDMODE
 70
         0
  9
$PDSIZE
 40
-1.0
  9
$PLINEWID
 40
0.0
  9
$COORDS
 70
         0
  9
$SPLFRAME
 70
         0
  9
$SPLINETYPE
 70
         6
  9
$SPLINESEGS
 70
         8
  9
$ATTDIA
 70
         0
  9
$ATTREQ
 70
         1
  9
$HANDLING
 70
         1
  9
$HANDSEED
  5
40F
  9
$SURFTAB1
 70
         6
  9
$SURFTAB2
 70
         6
  9
$SURFTYPE
 70
         6
  9
$SURFU
 70
         6
  9
$SURFV
 70
         6
  9
$UCSNAME
  2

  9
$UCSORG
 10
0.0
 20
0.0
 30
0.0
  9
$UCSXDIR
 10
1.0
 20
0.0
 30
0.0
  9
$UCSYDIR
 10
0.0
 20
1.0
 30
0.0
  9
$PUCSNAME
  2

  9
$PUCSORG
 10
0.0
 20
0.0
 30
0.0
  9
$PUCSXDIR
 10
1.0
 20
0.0
 30
0.0
  9
$PUCSYDIR
 10
0.0
 20
1.0
 30
0.0
  9
$USERI1
 70
         0
  9
$USERI2
 70
         0
  9
$USERI3
 70
         0
  9
$USERI4
 70
         0
  9
$USERI5
 70
         0
  9
$USERR1
 40
0.0
  9
$USERR2
 40
0.0
  9
$USERR3
 40
0.0
  9
$USERR4
 40
0.0
  9
$USERR5
 40
0.0
  9
$WORLDVIEW
 70
         1
  9
$SHADEDGE
 70
         3
  9
$SHADEDIF
 70
        70
  9
$TILEMODE
 70
         1
  9
$MAXACTVP
 70
        16
  9
$PINSBASE
 10
0.0
 20
0.0
 30
0.0
  9
$PLIMCHECK
 70
         0
  9
$PEXTMIN
 10
1.0000000000E+20
 20
1.0000000000E+20
 30
1.0000000000E+20
  9
$PEXTMAX
 10
-1.0000000000E+20
 20
-1.0000000000E+20
 30
-1.0000000000E+20
  9
$PLIMMIN
 10
0.0
 20
0.0
  9
$PLIMMAX
 10
12.0
 20
9.0
  9
$UNITMODE
 70
         0
  9
$VISRETAIN
 70
         0
  9
$PLINEGEN
 70
         1
  9
$PSLTSCALE
 70
         1
  9
$TREEDEPTH
 70
      3020
  9
$PICKSTYLE
 70
         1
  9
$CMLSTYLE
  2
STANDARD
  9
$CMLJUST
 70
         0
  9
$CMLSCALE
 40
1.0
  9
$SAVEIMAGES
 70
         0
  0
ENDSEC
  0
SECTION
  2
CLASSES
  0
CLASS
  1
LWPOLYLINE
  2
AcDbPolyline
  3
"AutoCAD"
 90
    32768
280
         0
281
         1
  0
CLASS
  1
IMAGE
  2
AcDbRasterImage
  3
ISM
 90
    32895
280
         0
281
         1
  0
CLASS
  1
OLE2FRAME
  2
AcDbOle2Frame
  3
""
 90
    32768
280
         0
281
         1
  0
CLASS
  1
HATCH
  2
AcDbHatch
  3
"ACAD_SEDONA"
 90
    32768
280
         0
281
         1
  0
CLASS
  1
DICTIONARYVAR
  2
AcDbDictionaryVar
  3
"AutoCAD"
 90
    32768
280
         0
281
         0
  0
CLASS
  1
RASTERVARIABLES
  2
AcDbRasterVariables
  3
ISM
 90
    32768
280
         0
281
         0
  0
CLASS
  1
IMAGEDEF
  2
AcDbRasterImageDef
  3
ISM
 90
    32768
280
         0
281
         0
  0
CLASS
  1
IMAGEDEF_REACTOR
  2
AcDbRasterImageDefReactor
  3
ISM
 90
    32769
280
         0
281
         0
  0
CLASS
  1
IDBUFFER
  2
AcDbIdBuffer
  3
"Acad"
 90
    32768
280
         0
281
         0
  0
CLASS
  1
SPATIAL_FILTER
  2
AcDbSpatialFilter
  3
"Acad"
 90
    32768
280
         0
281
         0
  0
CLASS
  1
XRECORD
  2
AcDbXrecord
  3
"<Built In>"
 90
    32768
280
         0
281
         0
  0
CLASS
  1
SORTENTSTABLE
  2
AcDbSortentsTable
  3
"AutoCAD"
 90
    32768
280
         0
281
         0
  0
CLASS
  1
LAYER_INDEX
  2
AcDbLayerIndex
  3
"Acad"
 90
    32768
280
         0
281
         0
  0
CLASS
  1
SPATIAL_INDEX
  2
AcDbSpatialIndex
  3
"Acad"
 90
    32768
280
         0
281
         0
  0
CLASS
  1
OBJECT_PTR
  2
CAseDLPNTableRecord
  3
"ASE-LPNTableRecord"
 90
    32769
280
         0
281
         0
  0
CLASS
  1
LAYOUT
  2
AcDbLayout
  3
"AutoCAD 2000"
 90
    32768
280
         0
281
         0
  0
CLASS
  1
PLOTSETTINGS
  2
AcDbPlotSettings
  3
"AutoCAD 2000"
 90
    32768
280
         0
281
         0
  0
CLASS
  1
ACDBDICTIONARYWDFLT
  2
AcDbDictionaryWithDefault
  3
"AutoCAD 2000"
 90
    32768
280
         0
281
         0
  0
CLASS
  1
ACDBPLACEHOLDER
  2
AcDbPlaceHolder
  3
"AutoCAD 2000"
 90
    32768
280
         0
281
         0
  0
CLASS
  1
VBA_PROJECT
  2
AcDbVbaProject
  3
"acadvba"
 90
    32768
280
         0
281
         0
  0
CLASS
  1
WIPEOUT
  2
AcDbWipeout
  3
WipeOut|AutoCAD Express Tool|expresstools@autodesk.com
 90
    32895
280
         0
281
         1
  0
CLASS
  1
WIPEOUTVARIABLES
  2
AcDbWipeoutVariables
  3
WipeOut|AutoCAD Express Tool|expresstools@autodesk.com
 90
    32768
280
         0
281
         0
  0
CLASS
  1
RTEXT
  2
RText
  3
RText|AutoCAD Express Tool|expresstools@autodesk.com
 90
    32768
280
         0
281
         1
  0
CLASS
  1
ARCALIGNEDTEXT
  2
AcDbArcAlignedText
  3
ATEXT|AutoCAD Express Tool|expresstools@autodesk.com
 90
    32768
280
         0
281
         1
  0
ENDSEC
  0
SECTION
  2
TABLES
  0
TABLE
  2
VPORT
  5
7
100
AcDbSymbolTable
 70
         1
  0
VPORT
  5
15
100
AcDbSymbolTableRecord
100
AcDbViewportTableRecord
  2
*ACTIVE
 70
         0
 10
0.0
 20
0.0
 11
1.0
 21
1.0
 12
5.5
 22
4.25
 13
0.0
 23
0.0
 14
1.0
 24
1.0
 15
0.0
 25
0.0
 16
0.0
 26
0.0
 36
1.0
 17
0.0
 27
0.0
 37
0.0
 40
8.5
 41
0.7727272727
 42
50.0
 43
0.0
 44
0.0
 50
0.0
 51
0.0
 71
         0
 72
      2000
 73
         1
 74
         1
 75
         0
 76
         0
 77
         0
 78
         0
  0
ENDTAB
  0
TABLE
  2
LTYPE
  5
4
100
AcDbSymbolTable
 70
         8
  0
LTYPE
  5
11
100
AcDbSymbolTableRecord
100
AcDbLinetypeTableRecord
  2
BYBLOCK
 70
        64
  3

 72
        65
 73
         0
 40
0.0
  0
LTYPE
  5
12
100
AcDbSymbolTableRecord
100
AcDbLinetypeTableRecord
  2
BYLAYER
 70
        64
  3

 72
        65
 73
         0
 40
0.0
  0
LTYPE
  5
13
100
AcDbSymbolTableRecord
100
AcDbLinetypeTableRecord
  2
CONTINUOUS
 70
        64
  3
Solid line
 72
        65
 73
         0
 40
0.0
  0
LTYPE
  5
1D
100
AcDbSymbolTableRecord
100
AcDbLinetypeTableRecord
  2
HIDDEN
 70
        64
  3
Hidden __ __ __ __ __ __ __ __ __ __ __ __ __ __
 72
        65
 73
         2
 40
0.075
 49
0.05
 74
         0
 49
-0.025
 74
         0
  0
LTYPE
  5
1E
100
AcDbSymbolTableRecord
100
AcDbLinetypeTableRecord
  2
PHANTOM
 70
        64
  3
Phantom ______  __  __  ______  __  __  ______
 72
        65
 73
         6
 40
0.5
 49
0.25
 74
         0
 49
-0.05
 74
         0
 49
0.05
 74
         0
 49
-0.05
 74
         0
 49
0.05
 74
         0
 49
-0.05
 74
         0
  0
LTYPE
  5
1F
100
AcDbSymbolTableRecord
100
AcDbLinetypeTableRecord
  2
CENTER
 70
        64
  3
Center ____ _ ____ _ ____ _ ____ _ ____ _ ____
 72
        65
 73
         4
 40
0.4
 49
0.25
 74
         0
 49
-0.05
 74
         0
 49
0.05
 74
         0
 49
-0.05
 74
         0
  0
LTYPE
  5
20
100
AcDbSymbolTableRecord
100
AcDbLinetypeTableRecord
  2
CENTERX2
 70
        64
  3
Center (2x) ________  __  ________  __  _____
 72
        65
 73
         4
 40
0.8
 49
0.5
 74
         0
 49
-0.1
 74
         0
 49
0.1
 74
         0
 49
-0.1
 74
         0
  0
LTYPE
  5
21
100
AcDbSymbolTableRecord
100
AcDbLinetypeTableRecord
  2
DOT2
 70
        64
  3
Dot (.5x) ........................................
 72
        65
 73
         2
 40
0.025
 49
0.0
 74
         0
 49
-0.025
 74
         0
  0
ENDTAB
  0
TABLE
  2
LAYER
  5
2
100
AcDbSymbolTable
 70
         3
  0
LAYER
  5
14
100
AcDbSymbolTableRecord
100
AcDbLayerTableRecord
  2
0
 70
         0
 62
         7
  6
CONTINUOUS
  0
LAYER
  5
23
100
AcDbSymbolTableRecord
100
AcDbLayerTableRecord
  2
DEFPOINTS
 70
         0
 62
         7
  6
CONTINUOUS
  0
LAYER
  5
24
100
AcDbSymbolTableRecord
100
AcDbLayerTableRecord
  2
FORMAT
 70
         0
 62
         7
  6
CONTINUOUS
  0
ENDTAB
  0
TABLE
  2
STYLE
  5
3
100
AcDbSymbolTable
 70
         2
  0
STYLE
  5
17
100
AcDbSymbolTableRecord
100
AcDbTextStyleTableRecord
  2
STANDARD
 70
         0
 40
0.0
 41
1.0
 50
0.0
 71
         0
 42
0.0
  3
txt
  4

  0
STYLE
  5
45
100
AcDbSymbolTableRecord
100
AcDbTextStyleTableRecord
  2
SLDTEXTSTYLE0
 70
         0
 40
0.0
 41
0.75
 50
0.0
 71
         0
 42
0.0
  3
TXT
  4

  0
ENDTAB
  0
TABLE
  2
VIEW
  5
5
100
AcDbSymbolTable
 70
         0
  0
ENDTAB
  0
TABLE
  2
UCS
  5
6
100
AcDbSymbolTable
 70
         0
  0
ENDTAB
  0
TABLE
  2
APPID
  5
8
100
AcDbSymbolTable
 70
         1
  0
APPID
  5
16
100
AcDbSymbolTableRecord
100
AcDbRegAppTableRecord
  2
ACAD
 70
         0
  0
ENDTAB
  0
TABLE
  2
DIMSTYLE
  5
9
100
AcDbSymbolTable
 70
         5
  0
DIMSTYLE
105
18
100
AcDbSymbolTableRecord
100
AcDbDimStyleTableRecord
  2
STANDARD
 70
         0
  3

  4

  5

  6

  7

 40
1.0
 41
0.18
 42
0.0625
 43
0.38
 44
0.18
 45
0.0
 46
0.0
 47
0.0
 48
0.0
 71
         0
 72
         0
 73
         1
 74
         1
 75
         0
 76
         0
 77
         0
 78
         0
140
0.18
141
0.09
142
0.0
143
25.4
144
1.0
145
0.0
146
1.0
147
0.09
170
         0
171
         2
172
         0
173
         0
174
         0
175
         0
176
         0
177
         0
178
         0
270
         2
271
         4
272
         4
273
         2
274
         2
275
         0
280
         0
281
         0
282
         0
283
         1
284
         0
285
         0
286
         0
287
         3
288
         0
340
17
  0
DIMSTYLE
105
DC
100
AcDbSymbolTableRecord
100
AcDbDimStyleTableRecord
  2
SLDDIMSTYLE0
 70
         0
  3

  4

  5

  6

  7

 40
1.0
 41
0.125
 42
0.0625
 43
0.38
 44
0.07
 45
0.0
 46
0.0
 47
0.0
 48
0.0
 71
         0
 72
         0
 73
         1
 74
         1
 75
         0
 76
         0
 77
         0
 78
         8
140
0.1111111111
141
0.09
142
0.0
143
25.4
144
1.0
145
0.0
146
1.0
147
0.0277777778
170
         0
171
         2
172
         0
173
         1
174
         0
175
         0
176
         7
177
         7
178
         7
270
         2
271
         2
272
         4
273
         2
274
         2
275
         0
280
         0
281
         0
282
         0
283
         1
284
        12
285
         0
286
         0
287
         3
288
         0
340
45
  0
DIMSTYLE
105
E2
100
AcDbSymbolTableRecord
100
AcDbDimStyleTableRecord
  2
SLDDIMSTYLE1
 70
         0
  3

  4

  5

  6

  7

 40
1.0
 41
0.125
 42
0.0625
 43
0.38
 44
0.0
 45
0.0
 46
0.0
 47
0.0
 48
0.0
 71
         0
 72
         0
 73
         1
 74
         1
 75
         0
 76
         0
 77
         0
 78
         0
140
0.125
141
0.09
142
0.0
143
25.4
144
1.0
145
0.0
146
1.0
147
0.03125
170
         0
171
         2
172
         0
173
         1
174
         0
175
         0
176
         0
177
         0
178
         0
270
         2
271
         0
272
         0
273
         2
274
         2
275
         0
280
         0
281
         0
282
         0
283
         1
284
         0
285
         0
286
         0
287
         3
288
         0
340
17
  0
DIMSTYLE
105
117
100
AcDbSymbolTableRecord
100
AcDbDimStyleTableRecord
  2
SLDDIMSTYLE2
 70
         0
  3

  4

  5

  6

  7

 40
1.0
 41
0.125
 42
0.0625
 43
0.38
 44
0.07
 45
0.0
 46
0.0
 47
0.0
 48
0.0
 71
         0
 72
         0
 73
         1
 74
         1
 75
         0
 76
         0
 77
         0
 78
         0
140
0.1111111111
141
0.09
142
0.0
143
25.4
144
1.0
145
0.0
146
1.0
147
0.0277777778
170
         0
171
         2
172
         0
173
         1
174
         0
175
         0
176
         7
177
         7
178
         7
270
         2
271
         2
272
         4
273
         2
274
         2
275
         0
280
         0
281
         0
282
         0
283
         1
284
        12
285
         0
286
         0
287
         3
288
         0
340
45
  0
DIMSTYLE
105
135
100
AcDbSymbolTableRecord
100
AcDbDimStyleTableRecord
  2
SLDDIMSTYLE3
 70
         0
  3

  4

  5

  6

  7

 40
1.0
 41
0.125
 42
0.0625
 43
0.38
 44
0.07
 45
0.0
 46
0.0
 47
0.0
 48
0.0
 71
         0
 72
         0
 73
         1
 74
         1
 75
         0
 76
         0
 77
         0
 78
        12
140
0.1111111111
141
0.09
142
0.0
143
25.4
144
1.0
145
0.0
146
1.0
147
0.0277777778
170
         0
171
         2
172
         0
173
         1
174
         0
175
         0
176
         7
177
         7
178
         7
270
         2
271
         2
272
         4
273
         2
274
         2
275
         0
280
         0
281
         0
282
         0
283
         1
284
        12
285
         0
286
         0
287
         3
288
         0
340
45
  0
ENDTAB
  0
TABLE
  2
BLOCK_RECORD
  5
1
100
AcDbSymbolTable
 70
        26
  0
BLOCK_RECORD
  5
A
100
AcDbSymbolTableRecord
100
AcDbBlockTableRecord
  2
*MODEL_SPACE
  0
BLOCK_RECORD
  5
B
100
AcDbSymbolTableRecord
100
AcDbBlockTableRecord
  2
*PAPER_SPACE
  0
BLOCK_RECORD
  5
51
100
AcDbSymbolTableRecord
100
AcDbBlockTableRecord
  2
NOTE11
  0
BLOCK_RECORD
  5
6B
100
AcDbSymbolTableRecord
100
AcDbBlockTableRecord
  2
NOTE16
  0
BLOCK_RECORD
  5
73
100
AcDbSymbolTableRecord
100
AcDbBlockTableRecord
  2
NOTE21
  0
BLOCK_RECORD
  5
79
100
AcDbSymbolTableRecord
100
AcDbBlockTableRecord
  2
NOTE22
  0
BLOCK_RECORD
  5
7D
100
AcDbSymbolTableRecord
100
AcDbBlockTableRecord
  2
NOTE23
  0
BLOCK_RECORD
  5
81
100
AcDbSymbolTableRecord
100
AcDbBlockTableRecord
  2
NOTE24
  0
BLOCK_RECORD
  5
85
100
AcDbSymbolTableRecord
100
AcDbBlockTableRecord
  2
NOTE25
  0
BLOCK_RECORD
  5
89
100
AcDbSymbolTableRecord
100
AcDbBlockTableRecord
  2
NOTE26
  0
BLOCK_RECORD
  5
8D
100
AcDbSymbolTableRecord
100
AcDbBlockTableRecord
  2
NOTE27
  0
BLOCK_RECORD
  5
91
100
AcDbSymbolTableRecord
100
AcDbBlockTableRecord
  2
NOTE28
  0
BLOCK_RECORD
  5
95
100
AcDbSymbolTableRecord
100
AcDbBlockTableRecord
  2
NOTE29
  0
BLOCK_RECORD
  5
99
100
AcDbSymbolTableRecord
100
AcDbBlockTableRecord
  2
NOTE30
  0
BLOCK_RECORD
  5
9D
100
AcDbSymbolTableRecord
100
AcDbBlockTableRecord
  2
NOTE31
  0
BLOCK_RECORD
  5
A1
100
AcDbSymbolTableRecord
100
AcDbBlockTableRecord
  2
NOTE32
  0
BLOCK_RECORD
  5
AA
100
AcDbSymbolTableRecord
100
AcDbBlockTableRecord
  2
NOTE34
  0
BLOCK_RECORD
  5
BE
100
AcDbSymbolTableRecord
100
AcDbBlockTableRecord
  2
NOTE45
  0
BLOCK_RECORD
  5
C4
100
AcDbSymbolTableRecord
100
AcDbBlockTableRecord
  2
NOTE46
  0
BLOCK_RECORD
  5
D2
100
AcDbSymbolTableRecord
100
AcDbBlockTableRecord
  2
*D17
  0
BLOCK_RECORD
  5
E3
100
AcDbSymbolTableRecord
100
AcDbBlockTableRecord
  2
NOTE48
  0
BLOCK_RECORD
  5
EA
100
AcDbSymbolTableRecord
100
AcDbBlockTableRecord
  2
SW_CENTERMARK0
  0
BLOCK_RECORD
  5
10C
100
AcDbSymbolTableRecord
100
AcDbBlockTableRecord
  2
*D20
  0
BLOCK_RECORD
  5
11C
100
AcDbSymbolTableRecord
100
AcDbBlockTableRecord
  2
*D21
  0
BLOCK_RECORD
  5
12B
100
AcDbSymbolTableRecord
100
AcDbBlockTableRecord
  2
*D22
  0
BLOCK_RECORD
  5
13A
100
AcDbSymbolTableRecord
100
AcDbBlockTableRecord
  2
*D23
  0
BLOCK_RECORD
  5
148
100
AcDbSymbolTableRecord
100
AcDbBlockTableRecord
  2
*D24
  0
BLOCK_RECORD
  5
159
100
AcDbSymbolTableRecord
100
AcDbBlockTableRecord
  2
NOTE49
  0
ENDTAB
  0
ENDSEC
  0
SECTION
  2
BLOCKS
  0
BLOCK
  5
D
100
AcDbEntity
  8
0
100
AcDbBlockBegin
  2
*MODEL_SPACE
 70
         0
 10
0.0
 20
0.0
 30
0.0
  3
*MODEL_SPACE
  1

  0
ENDBLK
  5
E
100
AcDbEntity
  8
0
100
AcDbBlockEnd
  0
BLOCK
  5
F
100
AcDbEntity
 67
         1
  8
0
100
AcDbBlockBegin
  2
*PAPER_SPACE
 70
         0
 10
0.0
 20
0.0
 30
0.0
  3
*PAPER_SPACE
  1

  0
ENDBLK
  5
10
100
AcDbEntity
 67
         1
  8
0
100
AcDbBlockEnd
  0
BLOCK
  5
52
100
AcDbEntity
  8
0
 62
         0
100
AcDbBlockBegin
  2
NOTE11
 70
         0
 10
0.0
 20
0.0
 30
0.0
  3
NOTE11
  1

  0
MTEXT
  5
53
100
AcDbEntity
  8
0
 62
         7
100
AcDbMText
 10
0.0
 20
0.1018700787
 30
0.0
 40
0.0625
 41
0.0
 71
         1
 72
         1
  1
DIMENSIONS ARE IN INCHES
  7
SLDTEXTSTYLE0
  0
MTEXT
  5
54
100
AcDbEntity
  8
0
 62
         7
100
AcDbMText
 10
0.0
 20
0.0185367464
 30
0.0
 40
0.0625
 41
0.0
 71
         1
 72
         1
  1
LINEAR TOLERANCES: 
  7
SLDTEXTSTYLE0
  0
MTEXT
  5
55
100
AcDbEntity
  8
0
 62
         7
100
AcDbMText
 10
0.0
 20
-0.0647965859
 30
0.0
 40
0.0625
 41
0.0
 71
         1
 72
         1
  1
    TWO PLACE DECIMAL: 
  7
SLDTEXTSTYLE0
  0
MTEXT
  5
56
100
AcDbEntity
  8
0
 62
         7
100
AcDbMText
 10
0.9860966619
 20
-0.0647965859
 30
0.0
 40
0.0625
 41
0.0
 71
         1
 72
         1
  1
%%p
  7
SLDTEXTSTYLE0
  0
MTEXT
  5
57
100
AcDbEntity
  8
0
 62
         7
100
AcDbMText
 10
1.0456799669
 20
-0.0647965859
 30
0.0
 40
0.0625
 41
0.0
 71
         1
 72
         1
  1
0.010
  7
SLDTEXTSTYLE0
  0
MTEXT
  5
58
100
AcDbEntity
  8
0
 62
         7
100
AcDbMText
 10
0.0
 20
-0.1481299182
 30
0.0
 40
0.0625
 41
0.0
 71
         1
 72
         1
  1
    THREE PLACE DECIMAL: 
  7
SLDTEXTSTYLE0
  0
MTEXT
  5
59
100
AcDbEntity
  8
0
 62
         7
100
AcDbMText
 10
1.0267939917
 20
-0.1481299182
 30
0.0
 40
0.0625
 41
0.0
 71
         1
 72
         1
  1
%%p
  7
SLDTEXTSTYLE0
  0
MTEXT
  5
5A
100
AcDbEntity
  8
0
 62
         7
100
AcDbMText
 10
1.0863772967
 20
-0.1481299182
 30
0.0
 40
0.0625
 41
0.0
 71
         1
 72
         1
  1
0.005
  7
SLDTEXTSTYLE0
  0
MTEXT
  5
5B
100
AcDbEntity
  8
0
 62
         7
100
AcDbMText
 10
0.0
 20
-0.2314632506
 30
0.0
 40
0.0625
 41
0.0
 71
         1
 72
         1
  1
ANGULAR: 
  7
SLDTEXTSTYLE0
  0
MTEXT
  5
5C
100
AcDbEntity
  8
0
 62
         7
100
AcDbMText
 10
0.4373119015
 20
-0.2314632506
 30
0.0
 40
0.0625
 41
0.0
 71
         1
 72
         1
  1
%%p
  7
SLDTEXTSTYLE0
  0
MTEXT
  5
5D
100
AcDbEntity
  8
0
 62
         7
100
AcDbMText
 10
0.4968952432
 20
-0.2314632506
 30
0.0
 40
0.0625
 41
0.0
 71
         1
 72
         1
  1
30'     
  7
SLDTEXTSTYLE0
  0
MTEXT
  5
5E
100
AcDbEntity
  8
0
 62
         7
100
AcDbMText
 10
0.0
 20
-0.3147965829
 30
0.0
 40
0.0625
 41
0.0
 71
         1
 72
         1
  1
SURFACE FINISH: 32 MICROINCHES
  7
SLDTEXTSTYLE0
  0
MTEXT
  5
5F
100
AcDbEntity
  8
0
 62
         7
100
AcDbMText
 10
0.0
 20
-0.3981299152
 30
0.0
 40
0.0625
 41
0.0
 71
         1
 72
         1
  1
PARALLELISM: 0.002
  7
SLDTEXTSTYLE0
  0
MTEXT
  5
60
100
AcDbEntity
  8
0
 62
         7
100
AcDbMText
 10
0.0
 20
-0.4814632475
 30
0.0
 40
0.0625
 41
0.0
 71
         1
 72
         1
  1
FLATNESS: 0.002
  7
SLDTEXTSTYLE0
  0
MTEXT
  5
61
100
AcDbEntity
  8
0
 62
         7
100
AcDbMText
 10
0.0
 20
-0.5647965799
 30
0.0
 40
0.0625
 41
0.0
 71
         1
 72
         1
  1
STRAIGHTNESS: 0.002
  7
SLDTEXTSTYLE0
  0
MTEXT
  5
62
100
AcDbEntity
  8
0
 62
         7
100
AcDbMText
 10
0.0
 20
-0.6481299122
 30
0.0
 40
0.0625
 41
0.0
 71
         1
 72
         1
  1
CONCENTRICITY: 0.002
  7
SLDTEXTSTYLE0
  0
MTEXT
  5
63
100
AcDbEntity
  8
0
 62
         7
100
AcDbMText
 10
0.0
 20
-0.7314632445
 30
0.0
 40
0.0625
 41
0.0
 71
         1
 72
         1
  1
PERPENDICULARITY: 0.002
  7
SLDTEXTSTYLE0
  0
MTEXT
  5
64
100
AcDbEntity
  8
0
 62
         7
100
AcDbMText
 10
0.0
 20
-0.8147965768
 30
0.0
 40
0.0625
 41
0.0
 71
         1
 72
         1
  1
THREAD: CLASS 2 FIT
  7
SLDTEXTSTYLE0
  0
ENDBLK
  5
65
100
AcDbEntity
  8
0
100
AcDbBlockEnd
  0
BLOCK
  5
6C
100
AcDbEntity
  8
0
 62
         0
100
AcDbBlockBegin
  2
NOTE16
 70
         0
 10
0.0
 20
0.0
 30
0.0
  3
NOTE16
  1

  0
ENDBLK
  5
6D
100
AcDbEntity
  8
0
100
AcDbBlockEnd
  0
BLOCK
  5
74
100
AcDbEntity
  8
0
 62
         0
100
AcDbBlockBegin
  2
NOTE21
 70
         0
 10
0.0
 20
0.0
 30
0.0
  3
NOTE21
  1

  0
MTEXT
  5
75
100
AcDbEntity
  8
0
 62
         7
100
AcDbMText
 10
0.0
 20
0.1227034121
 30
0.0
 40
0.0833333333
 41
0.0
 71
         1
 72
         1
  1
SCALE: 
  7
SLDTEXTSTYLE0
  0
MTEXT
  5
76
100
AcDbEntity
  8
0
 62
         7
100
AcDbMText
 10
0.3914930674
 20
0.1227034121
 30
0.0
 40
0.0833333333
 41
0.0
 71
         1
 72
         1
  1
1:1
  7
SLDTEXTSTYLE0
  0
ENDBLK
  5
77
100
AcDbEntity
  8
0
100
AcDbBlockEnd
  0
BLOCK
  5
7A
100
AcDbEntity
  8
0
 62
         0
100
AcDbBlockBegin
  2
NOTE22
 70
         0
 10
0.0
 20
0.0
 30
0.0
  3
NOTE22
  1

  0
ENDBLK
  5
7B
100
AcDbEntity
  8
0
100
AcDbBlockEnd
  0
BLOCK
  5
7E
100
AcDbEntity
  8
0
 62
         0
100
AcDbBlockBegin
  2
NOTE23
 70
         0
 10
0.0
 20
0.0
 30
0.0
  3
NOTE23
  1

  0
ENDBLK
  5
7F
100
AcDbEntity
  8
0
100
AcDbBlockEnd
  0
BLOCK
  5
82
100
AcDbEntity
  8
0
 62
         0
100
AcDbBlockBegin
  2
NOTE24
 70
         0
 10
0.0
 20
0.0
 30
0.0
  3
NOTE24
  1

  0
ENDBLK
  5
83
100
AcDbEntity
  8
0
100
AcDbBlockEnd
  0
BLOCK
  5
86
100
AcDbEntity
  8
0
 62
         0
100
AcDbBlockBegin
  2
NOTE25
 70
         0
 10
0.0
 20
0.0
 30
0.0
  3
NOTE25
  1

  0
ENDBLK
  5
87
100
AcDbEntity
  8
0
100
AcDbBlockEnd
  0
BLOCK
  5
8A
100
AcDbEntity
  8
0
 62
         0
100
AcDbBlockBegin
  2
NOTE26
 70
         0
 10
0.0
 20
0.0
 30
0.0
  3
NOTE26
  1

  0
ENDBLK
  5
8B
100
AcDbEntity
  8
0
100
AcDbBlockEnd
  0
BLOCK
  5
8E
100
AcDbEntity
  8
0
 62
         0
100
AcDbBlockBegin
  2
NOTE27
 70
         0
 10
0.0
 20
0.0
 30
0.0
  3
NOTE27
  1

  0
ENDBLK
  5
8F
100
AcDbEntity
  8
0
100
AcDbBlockEnd
  0
BLOCK
  5
92
100
AcDbEntity
  8
0
 62
         0
100
AcDbBlockBegin
  2
NOTE28
 70
         0
 10
0.0
 20
0.0
 30
0.0
  3
NOTE28
  1

  0
ENDBLK
  5
93
100
AcDbEntity
  8
0
100
AcDbBlockEnd
  0
BLOCK
  5
96
100
AcDbEntity
  8
0
 62
         0
100
AcDbBlockBegin
  2
NOTE29
 70
         0
 10
0.0
 20
0.0
 30
0.0
  3
NOTE29
  1

  0
ENDBLK
  5
97
100
AcDbEntity
  8
0
100
AcDbBlockEnd
  0
BLOCK
  5
9A
100
AcDbEntity
  8
0
 62
         0
100
AcDbBlockBegin
  2
NOTE30
 70
         0
 10
0.0
 20
0.0
 30
0.0
  3
NOTE30
  1

  0
ENDBLK
  5
9B
100
AcDbEntity
  8
0
100
AcDbBlockEnd
  0
BLOCK
  5
9E
100
AcDbEntity
  8
0
 62
         0
100
AcDbBlockBegin
  2
NOTE31
 70
         0
 10
0.0
 20
0.0
 30
0.0
  3
NOTE31
  1

  0
ENDBLK
  5
9F
100
AcDbEntity
  8
0
100
AcDbBlockEnd
  0
BLOCK
  5
A2
100
AcDbEntity
  8
0
 62
         0
100
AcDbBlockBegin
  2
NOTE32
 70
         0
 10
0.0
 20
0.0
 30
0.0
  3
NOTE32
  1

  0
MTEXT
  5
A3
100
AcDbEntity
  8
0
 62
         7
100
AcDbMText
 10
0.0
 20
0.1227034121
 30
0.0
 40
0.0833333333
 41
0.0
 71
         1
 72
         1
  1
SHEET 
  7
SLDTEXTSTYLE0
  0
MTEXT
  5
A4
100
AcDbEntity
  8
0
 62
         7
100
AcDbMText
 10
0.3211612733
 20
0.1227034121
 30
0.0
 40
0.0833333333
 41
0.0
 71
         1
 72
         1
  1
1
  7
SLDTEXTSTYLE0
  0
MTEXT
  5
A5
100
AcDbEntity
  8
0
 62
         7
100
AcDbMText
 10
0.3776041512
 20
0.1227034121
 30
0.0
 40
0.0833333333
 41
0.0
 71
         1
 72
         1
  1
 OF 
  7
SLDTEXTSTYLE0
  0
MTEXT
  5
A6
100
AcDbEntity
  8
0
 62
         7
100
AcDbMText
 10
0.5861689652
 20
0.1227034121
 30
0.0
 40
0.0833333333
 41
0.0
 71
         1
 72
         1
  1
1
  7
SLDTEXTSTYLE0
  0
ENDBLK
  5
A7
100
AcDbEntity
  8
0
100
AcDbBlockEnd
  0
BLOCK
  5
AB
100
AcDbEntity
  8
0
 62
         0
100
AcDbBlockBegin
  2
NOTE34
 70
         0
 10
0.0
 20
0.0
 30
0.0
  3
NOTE34
  1

  0
MTEXT
  5
AC
100
AcDbEntity
  8
0
 62
         7
100
AcDbMText
 10
0.0
 20
0.0993700787
 30
0.0
 40
0.06
 41
0.0
 71
         1
 72
         1
  1
THE INFORMATION CONTAINED IN THIS
  7
SLDTEXTSTYLE0
  0
MTEXT
  5
AD
100
AcDbEntity
  8
0
 62
         7
100
AcDbMText
 10
0.0
 20
0.0000000042
 30
0.0
 40
0.06
 41
0.0
 71
         1
 72
         1
  1
DRAWING IS THE SOLE PROPERTY OF
  7
SLDTEXTSTYLE0
  0
MTEXT
  5
AE
100
AcDbEntity
  8
0
 62
         7
100
AcDbMText
 10
0.0
 20
-0.0993700704
 30
0.0
 40
0.06
 41
0.0
 71
         1
 72
         1
  1
THORLABS, INC.  ANY REPRODUCTION 
  7
SLDTEXTSTYLE0
  0
MTEXT
  5
AF
100
AcDbEntity
  8
0
 62
         7
100
AcDbMText
 10
0.0
 20
-0.198740145
 30
0.0
 40
0.06
 41
0.0
 71
         1
 72
         1
  1
IN PART OR AS A WHOLE WITHOUT
  7
SLDTEXTSTYLE0
  0
MTEXT
  5
B0
100
AcDbEntity
  8
0
 62
         7
100
AcDbMText
 10
0.0
 20
-0.2981102195
 30
0.0
 40
0.06
 41
0.0
 71
         1
 72
         1
  1
THE WRITTEN PERMISSION OF
  7
SLDTEXTSTYLE0
  0
MTEXT
  5
B1
100
AcDbEntity
  8
0
 62
         7
100
AcDbMText
 10
0.0
 20
-0.3974802941
 30
0.0
 40
0.06
 41
0.0
 71
         1
 72
         1
  1
THORLABS, INC. IS PROHIBITED.
  7
SLDTEXTSTYLE0
  0
ENDBLK
  5
B2
100
AcDbEntity
  8
0
100
AcDbBlockEnd
  0
BLOCK
  5
BF
100
AcDbEntity
  8
0
 62
         0
100
AcDbBlockBegin
  2
NOTE45
 70
         0
 10
0.0
 20
0.0
 30
0.0
  3
NOTE45
  1

  0
MTEXT
  5
C0
100
AcDbEntity
  8
0
 62
         7
100
AcDbMText
 10
0.0
 20
0.1227034121
 30
0.0
 40
0.0833333333
 41
0.0
 71
         1
 72
         1
  1
PO BOX 366
  7
SLDTEXTSTYLE0
  0
MTEXT
  5
C1
100
AcDbEntity
  8
0
 62
         7
100
AcDbMText
 10
0.0
 20
0.0115923023
 30
0.0
 40
0.0833333333
 41
0.0
 71
         1
 72
         1
  1
NEWTON NJ
  7
SLDTEXTSTYLE0
  0
ENDBLK
  5
C2
100
AcDbEntity
  8
0
100
AcDbBlockEnd
  0
BLOCK
  5
C5
100
AcDbEntity
  8
0
 62
         0
100
AcDbBlockBegin
  2
NOTE46
 70
         0
 10
0.0
 20
0.0
 30
0.0
  3
NOTE46
  1

  0
MTEXT
  5
C6
100
AcDbEntity
  8
0
 62
         7
100
AcDbMText
 10
0.0
 20
0.1539534121
 30
0.0
 40
0.1145833333
 41
0.0
 71
         1
 72
         1
  1
PIEZOELECTRIC ACTUATOR
  7
SLDTEXTSTYLE0
  0
MTEXT
  5
C7
100
AcDbEntity
  8
0
 62
         7
100
AcDbMText
 10
0.0
 20
0.0011756361
 30
0.0
 40
0.1145833333
 41
0.0
 71
         1
 72
         1
  1
WITH FEEDBACK
  7
SLDTEXTSTYLE0
  0
ENDBLK
  5
C8
100
AcDbEntity
  8
0
100
AcDbBlockEnd
  0
BLOCK
  5
D3
100
AcDbEntity
  8
0
 62
         7
100
AcDbBlockBegin
  2
*D17
 70
         1
 10
0.0
 20
0.0
 30
0.0
  3
*D17
  1

  0
MTEXT
  5
D4
100
AcDbEntity
  8
0
 62
         7
100
AcDbMText
 10
7.1415167559
 20
4.3509059336
 30
0.0
 40
0.0833333333
 41
0.0
 71
         1
 72
         1
  1
0.93
  7
SLDTEXTSTYLE0
  0
MTEXT
  5
D5
100
AcDbEntity
  8
0
 62
         7
100
AcDbMText
 10
7.0580562783
 20
4.2185577188
 30
0.0
 40
0.0833333333
 41
0.0
 71
         1
 72
         1
  1
(24mm)
  7
SLDTEXTSTYLE0
  0
LINE
  5
D6
100
AcDbEntity
  8
0
 62
         7
100
AcDbLine
 10
7.8763393515
 20
4.6913805603
 30
0.0
 11
7.1792107236
 21
4.6913805603
 31
0.0
  0
LINE
  5
D7
100
AcDbEntity
  8
0
 62
         7
100
AcDbLine
 10
7.9550795089
 20
3.7650244919
 30
0.0
 11
7.1792107236
 21
3.7650244919
 31
0.0
  0
LINE
  5
D8
100
AcDbEntity
  8
0
 62
         7
100
AcDbLine
 10
7.2492107236
 20
4.6913805603
 30
0.0
 11
7.2492107236
 21
4.3605507408
 31
0.0
  0
LINE
  5
D9
100
AcDbEntity
  8
0
 62
         7
100
AcDbLine
 10
7.2492107236
 20
3.7650244919
 30
0.0
 11
7.2492107236
 21
4.0958543113
 31
0.0
  0
SOLID
  5
DA
100
AcDbEntity
  8
0
 62
         7
100
AcDbTrace
 10
7.2492107236
 20
4.6913805603
 30
0.0
 11
7.2292107236
 21
4.5663805603
 31
0.0
 12
7.2692107236
 22
4.5663805603
 32
0.0
 13
7.2692107236
 23
4.5663805603
 33
0.0
  0
SOLID
  5
DB
100
AcDbEntity
  8
0
 62
         7
100
AcDbTrace
 10
7.2492107236
 20
3.7650244919
 30
0.0
 11
7.2692107236
 21
3.8900244919
 31
0.0
 12
7.2292107236
 22
3.8900244919
 32
0.0
 13
7.2292107236
 23
3.8900244919
 33
0.0
  0
POINT
  5
DD
100
AcDbEntity
  8
DEFPOINTS
 62
         7
100
AcDbPoint
 10
7.9263393515
 20
4.6913805603
 30
0.0
  0
POINT
  5
DE
100
AcDbEntity
  8
DEFPOINTS
 62
         7
100
AcDbPoint
 10
8.0050795089
 20
3.7650244919
 30
0.0
  0
ENDBLK
  5
DF
100
AcDbEntity
  8
0
 62
         7
100
AcDbBlockEnd
  0
BLOCK
  5
E4
100
AcDbEntity
  8
0
 62
         0
100
AcDbBlockBegin
  2
NOTE48
 70
         0
 10
0.0
 20
0.0
 30
0.0
  3
NOTE48
  1

  0
MTEXT
  5
E5
100
AcDbEntity
  8
0
 62
         7
100
AcDbMText
 10
0.0197906085
 20
0.1783705972
 30
0.0
 40
0.0833333333
 41
0.0
 71
         1
 72
         1
  1
#6-32 UNC TAPPED
  7
SLDTEXTSTYLE0
  0
MTEXT
  5
E6
100
AcDbEntity
  8
0
 62
         7
100
AcDbMText
 10
0.0197906085
 20
0.0672594875
 30
0.0
 40
0.0833333333
 41
0.0
 71
         1
 72
         1
  1
0.30(7.5mm) DEEP
  7
SLDTEXTSTYLE0
  0
MTEXT
  5
E7
100
AcDbEntity
  8
0
 62
         7
100
AcDbMText
 10
0.0197906085
 20
-0.0438516223
 30
0.0
 40
0.0833333333
 41
0.0
 71
         1
 72
         1
  1
2 PLACES
  7
SLDTEXTSTYLE0
  0
ENDBLK
  5
E8
100
AcDbEntity
  8
0
100
AcDbBlockEnd
  0
BLOCK
  5
EB
100
AcDbEntity
  8
0
 62
         0
100
AcDbBlockBegin
  2
SW_CENTERMARK0
 70
         0
 10
0.0
 20
0.0
 30
0.0
  3
SW_CENTERMARK0
  1

  0
LINE
  5
EC
100
AcDbEntity
  8
0
  6
CONTINUOUS
 62
         7
100
AcDbLine
 10
8.0050795089
 20
4.0130559879
 30
0.0
 11
8.0050795089
 21
4.0630559879
 31
0.0
  0
LINE
  5
ED
100
AcDbEntity
  8
0
  6
CONTINUOUS
 62
         7
100
AcDbLine
 10
8.0050795089
 20
4.0130559879
 30
0.0
 11
7.9550795089
 21
4.0130559879
 31
0.0
  0
LINE
  5
EE
100
AcDbEntity
  8
0
  6
CONTINUOUS
 62
         7
100
AcDbLine
 10
8.0050795089
 20
4.0130559879
 30
0.0
 11
8.0050795089
 21
3.9630559879
 31
0.0
  0
LINE
  5
EF
100
AcDbEntity
  8
0
  6
CONTINUOUS
 62
         7
100
AcDbLine
 10
8.0050795089
 20
4.0130559879
 30
0.0
 11
8.0550795089
 21
4.0130559879
 31
0.0
  0
ENDBLK
  5
F0
100
AcDbEntity
  8
0
100
AcDbBlockEnd
  0
BLOCK
  5
10D
100
AcDbEntity
  8
0
 62
         7
100
AcDbBlockBegin
  2
*D20
 70
         1
 10
0.0
 20
0.0
 30
0.0
  3
*D20
  1

  0
MTEXT
  5
10E
100
AcDbEntity
  8
0
 62
         7
100
AcDbMText
 10
5.3301931441
 20
4.1357593954
 30
0.0
 40
0.0833333333
 41
0.0
 71
         1
 72
         1
  1
%%c
  7
SLDTEXTSTYLE0
  0
MTEXT
  5
10F
100
AcDbEntity
  8
0
 62
         7
100
AcDbMText
 10
5.455865387
 20
4.1357593954
 30
0.0
 40
0.0833333333
 41
0.0
 71
         1
 72
         1
  1
0.50
  7
SLDTEXTSTYLE0
  0
MTEXT
  5
110
100
AcDbEntity
  8
0
 62
         7
100
AcDbMText
 10
5.3095687879
 20
4.0034111807
 30
0.0
 40
0.0833333333
 41
0.0
 71
         1
 72
         1
  1
(13mm)
  7
SLDTEXTSTYLE0
  0
LINE
  5
111
100
AcDbEntity
  8
0
 62
         7
100
AcDbLine
 10
4.9846760782
 20
4.261087484
 30
0.0
 11
5.5707232332
 21
4.261087484
 31
0.0
  0
LINE
  5
112
100
AcDbEntity
  8
0
 62
         7
100
AcDbLine
 10
4.9846760782
 20
3.7650244919
 30
0.0
 11
5.5707232332
 21
3.7650244919
 31
0.0
  0
LINE
  5
113
100
AcDbEntity
  8
0
 62
         7
100
AcDbLine
 10
5.5007232332
 20
4.261087484
 30
0.0
 11
5.5007232332
 21
4.511087484
 31
0.0
  0
LINE
  5
114
100
AcDbEntity
  8
0
 62
         7
100
AcDbLine
 10
5.5007232332
 20
3.7650244919
 30
0.0
 11
5.5007232332
 21
3.5150244919
 31
0.0
  0
SOLID
  5
115
100
AcDbEntity
  8
0
 62
         7
100
AcDbTrace
 10
5.5007232332
 20
4.261087484
 30
0.0
 11
5.5207232332
 21
4.386087484
 31
0.0
 12
5.4807232332
 22
4.386087484
 32
0.0
 13
5.4807232332
 23
4.386087484
 33
0.0
  0
SOLID
  5
116
100
AcDbEntity
  8
0
 62
         7
100
AcDbTrace
 10
5.5007232332
 20
3.7650244919
 30
0.0
 11
5.4807232332
 21
3.6400244919
 31
0.0
 12
5.5207232332
 22
3.6400244919
 32
0.0
 13
5.5207232332
 23
3.6400244919
 33
0.0
  0
POINT
  5
118
100
AcDbEntity
  8
DEFPOINTS
 62
         7
100
AcDbPoint
 10
4.9346760782
 20
4.261087484
 30
0.0
  0
POINT
  5
119
100
AcDbEntity
  8
DEFPOINTS
 62
         7
100
AcDbPoint
 10
4.9346760782
 20
3.7650244919
 30
0.0
  0
ENDBLK
  5
11A
100
AcDbEntity
  8
0
 62
         7
100
AcDbBlockEnd
  0
BLOCK
  5
11D
100
AcDbEntity
  8
0
 62
         7
100
AcDbBlockBegin
  2
*D21
 70
         1
 10
0.0
 20
0.0
 30
0.0
  3
*D21
  1

  0
MTEXT
  5
11E
100
AcDbEntity
  8
0
 62
         7
100
AcDbMText
 10
3.642098745
 20
5.0983093962
 30
0.0
 40
0.0833333333
 41
0.0
 71
         1
 72
         1
  1
%%c
  7
SLDTEXTSTYLE0
  0
MTEXT
  5
11F
100
AcDbEntity
  8
0
 62
         7
100
AcDbMText
 10
3.7677709878
 20
5.0983093962
 30
0.0
 40
0.0833333333
 41
0.0
 71
         1
 72
         1
  1
0.16
  7
SLDTEXTSTYLE0
  0
MTEXT
  5
120
100
AcDbEntity
  8
0
 62
         7
100
AcDbMText
 10
3.6522775574
 20
4.9659611815
 30
0.0
 40
0.0833333333
 41
0.0
 71
         1
 72
         1
  1
(4mm)
  7
SLDTEXTSTYLE0
  0
LINE
  5
121
100
AcDbEntity
  8
0
 62
         7
100
AcDbLine
 10
4.3638099364
 20
4.7413805603
 30
0.0
 11
4.3638099364
 21
5.0456059888
 31
0.0
  0
LINE
  5
122
100
AcDbEntity
  8
0
 62
         7
100
AcDbLine
 10
4.5212902514
 20
4.7413805603
 30
0.0
 11
4.5212902514
 21
5.0456059888
 31
0.0
  0
LINE
  5
123
100
AcDbEntity
  8
0
 62
         7
100
AcDbLine
 10
4.3638099364
 20
4.9756059888
 30
0.0
 11
4.0511051108
 21
4.9756059888
 31
0.0
  0
LINE
  5
124
100
AcDbEntity
  8
0
 62
         7
100
AcDbLine
 10
4.5212902514
 20
4.9756059888
 30
0.0
 11
4.7712902514
 21
4.9756059888
 31
0.0
  0
SOLID
  5
125
100
AcDbEntity
  8
0
 62
         7
100
AcDbTrace
 10
4.3638099364
 20
4.9756059888
 30
0.0
 11
4.2388099364
 21
4.9956059888
 31
0.0
 12
4.2388099364
 22
4.9556059888
 32
0.0
 13
4.2388099364
 23
4.9556059888
 33
0.0
  0
SOLID
  5
126
100
AcDbEntity
  8
0
 62
         7
100
AcDbTrace
 10
4.5212902514
 20
4.9756059888
 30
0.0
 11
4.6462902514
 21
4.9556059888
 31
0.0
 12
4.6462902514
 22
4.9956059888
 32
0.0
 13
4.6462902514
 23
4.9956059888
 33
0.0
  0
POINT
  5
127
100
AcDbEntity
  8
DEFPOINTS
 62
         7
100
AcDbPoint
 10
4.3638099364
 20
4.6913805603
 30
0.0
  0
POINT
  5
128
100
AcDbEntity
  8
DEFPOINTS
 62
         7
100
AcDbPoint
 10
4.5212902514
 20
4.6913805603
 30
0.0
  0
ENDBLK
  5
129
100
AcDbEntity
  8
0
 62
         7
100
AcDbBlockEnd
  0
BLOCK
  5
12C
100
AcDbEntity
  8
0
 62
         7
100
AcDbBlockBegin
  2
*D22
 70
         1
 10
0.0
 20
0.0
 30
0.0
  3
*D22
  1

  0
MTEXT
  5
12D
100
AcDbEntity
  8
0
 62
         7
100
AcDbMText
 10
3.7049348664
 20
3.6306398363
 30
0.0
 40
0.0833333333
 41
0.0
 71
         1
 72
         1
  1
2.24
  7
SLDTEXTSTYLE0
  0
MTEXT
  5
12E
100
AcDbEntity
  8
0
 62
         7
100
AcDbMText
 10
3.6214743888
 20
3.4982916216
 30
0.0
 40
0.0833333333
 41
0.0
 71
         1
 72
         1
  1
(57mm)
  7
SLDTEXTSTYLE0
  0
LINE
  5
12F
100
AcDbEntity
  8
0
 62
         7
100
AcDbLine
 10
2.69058159
 20
3.7465205548
 30
0.0
 11
2.69058159
 21
3.4379364288
 31
0.0
  0
LINE
  5
130
100
AcDbEntity
  8
0
 62
         7
100
AcDbLine
 10
4.9346760782
 20
3.7150244919
 30
0.0
 11
4.9346760782
 21
3.4379364288
 31
0.0
  0
LINE
  5
131
100
AcDbEntity
  8
0
 62
         7
100
AcDbLine
 10
2.69058159
 20
3.5079364288
 30
0.0
 11
3.5433493888
 21
3.5079364288
 31
0.0
  0
LINE
  5
132
100
AcDbEntity
  8
0
 62
         7
100
AcDbLine
 10
4.9346760782
 20
3.5079364288
 30
0.0
 11
4.0819082793
 21
3.5079364288
 31
0.0
  0
SOLID
  5
133
100
AcDbEntity
  8
0
 62
         7
100
AcDbTrace
 10
2.69058159
 20
3.5079364288
 30
0.0
 11
2.81558159
 21
3.4879364288
 31
0.0
 12
2.81558159
 22
3.5279364288
 32
0.0
 13
2.81558159
 23
3.5279364288
 33
0.0
  0
SOLID
  5
134
100
AcDbEntity
  8
0
 62
         7
100
AcDbTrace
 10
4.9346760782
 20
3.5079364288
 30
0.0
 11
4.8096760782
 21
3.5279364288
 31
0.0
 12
4.8096760782
 22
3.4879364288
 32
0.0
 13
4.8096760782
 23
3.4879364288
 33
0.0
  0
POINT
  5
136
100
AcDbEntity
  8
DEFPOINTS
 62
         7
100
AcDbPoint
 10
2.69058159
 20
3.7965205548
 30
0.0
  0
POINT
  5
137
100
AcDbEntity
  8
DEFPOINTS
 62
         7
100
AcDbPoint
 10
4.9346760782
 20
3.7650244919
 30
0.0
  0
ENDBLK
  5
138
100
AcDbEntity
  8
0
 62
         7
100
AcDbBlockEnd
  0
BLOCK
  5
13B
100
AcDbEntity
  8
0
 62
         7
100
AcDbBlockBegin
  2
*D23
 70
         1
 10
0.0
 20
0.0
 30
0.0
  3
*D23
  1

  0
MTEXT
  5
13C
100
AcDbEntity
  8
0
 62
         7
100
AcDbMText
 10
3.6458797483
 20
3.2384194954
 30
0.0
 40
0.0833333333
 41
0.0
 71
         1
 72
         1
  1
2.36
  7
SLDTEXTSTYLE0
  0
MTEXT
  5
13D
100
AcDbEntity
  8
0
 62
         7
100
AcDbMText
 10
3.5624192707
 20
3.1060712806
 30
0.0
 40
0.0833333333
 41
0.0
 71
         1
 72
         1
  1
(60mm)
  7
SLDTEXTSTYLE0
  0
LINE
  5
13E
100
AcDbEntity
  8
0
 62
         7
100
AcDbLine
 10
2.5724713538
 20
3.7465205548
 30
0.0
 11
2.5724713538
 21
3.0457160879
 31
0.0
  0
LINE
  5
13F
100
AcDbEntity
  8
0
 62
         7
100
AcDbLine
 10
4.9346760782
 20
3.7150244919
 30
0.0
 11
4.9346760782
 21
3.0457160879
 31
0.0
  0
LINE
  5
140
100
AcDbEntity
  8
0
 62
         7
100
AcDbLine
 10
2.5724713538
 20
3.1157160879
 30
0.0
 11
3.4842942707
 21
3.1157160879
 31
0.0
  0
LINE
  5
141
100
AcDbEntity
  8
0
 62
         7
100
AcDbLine
 10
4.9346760782
 20
3.1157160879
 30
0.0
 11
4.0228531612
 21
3.1157160879
 31
0.0
  0
SOLID
  5
142
100
AcDbEntity
  8
0
 62
         7
100
AcDbTrace
 10
2.5724713538
 20
3.1157160879
 30
0.0
 11
2.6974713538
 21
3.0957160879
 31
0.0
 12
2.6974713538
 22
3.1357160879
 32
0.0
 13
2.6974713538
 23
3.1357160879
 33
0.0
  0
SOLID
  5
143
100
AcDbEntity
  8
0
 62
         7
100
AcDbTrace
 10
4.9346760782
 20
3.1157160879
 30
0.0
 11
4.8096760782
 21
3.1357160879
 31
0.0
 12
4.8096760782
 22
3.0957160879
 32
0.0
 13
4.8096760782
 23
3.0957160879
 33
0.0
  0
POINT
  5
144
100
AcDbEntity
  8
DEFPOINTS
 62
         7
100
AcDbPoint
 10
2.5724713538
 20
3.7965205548
 30
0.0
  0
POINT
  5
145
100
AcDbEntity
  8
DEFPOINTS
 62
         7
100
AcDbPoint
 10
4.9346760782
 20
3.7650244919
 30
0.0
  0
ENDBLK
  5
146
100
AcDbEntity
  8
0
 62
         7
100
AcDbBlockEnd
  0
BLOCK
  5
149
100
AcDbEntity
  8
0
 62
         7
100
AcDbBlockBegin
  2
*D24
 70
         1
 10
0.0
 20
0.0
 30
0.0
  3
*D24
  1

  0
MTEXT
  5
14A
100
AcDbEntity
  8
0
 62
         7
100
AcDbMText
 10
1.6296062178
 20
3.6306398363
 30
0.0
 40
0.0833333333
 41
0.0
 71
         1
 72
         1
  1
%%c
  7
SLDTEXTSTYLE0
  0
MTEXT
  5
14B
100
AcDbEntity
  8
0
 62
         7
100
AcDbMText
 10
1.7552784607
 20
3.6306398363
 30
0.0
 40
0.0833333333
 41
0.0
 71
         1
 72
         1
  1
0.20
  7
SLDTEXTSTYLE0
  0
MTEXT
  5
14C
100
AcDbEntity
  8
0
 62
         7
100
AcDbMText
 10
1.5936388385
 20
3.4982916216
 30
0.0
 40
0.0833333333
 41
0.0
 71
         1
 72
         1
  1
(5.1mm)
  7
SLDTEXTSTYLE0
  0
LINE
  5
14D
100
AcDbEntity
  8
0
 62
         7
100
AcDbLine
 10
2.64058159
 20
4.1134496887
 30
0.0
 11
2.0897587753
 21
4.1134496887
 31
0.0
  0
LINE
  5
14E
100
AcDbEntity
  8
0
 62
         7
100
AcDbLine
 10
2.64058159
 20
3.9126622871
 30
0.0
 11
2.0897587753
 21
3.9126622871
 31
0.0
  0
LINE
  5
14F
100
AcDbEntity
  8
0
 62
         7
100
AcDbLine
 10
2.0847587753
 20
3.5079364288
 30
0.0
 11
2.1597587753
 21
3.5079364288
 31
0.0
  0
LINE
  5
150
100
AcDbEntity
  8
0
 62
         7
100
AcDbLine
 10
2.1597587753
 20
3.5079364288
 30
0.0
 11
2.1597587753
 21
3.9126622871
 31
0.0
  0
LINE
  5
151
100
AcDbEntity
  8
0
 62
         7
100
AcDbLine
 10
2.1597587753
 20
4.1134496887
 30
0.0
 11
2.1597587753
 21
4.3634496887
 31
0.0
  0
SOLID
  5
152
100
AcDbEntity
  8
0
 62
         7
100
AcDbTrace
 10
2.1597587753
 20
4.1134496887
 30
0.0
 11
2.1797587753
 21
4.2384496887
 31
0.0
 12
2.1397587753
 22
4.2384496887
 32
0.0
 13
2.1397587753
 23
4.2384496887
 33
0.0
  0
SOLID
  5
153
100
AcDbEntity
  8
0
 62
         7
100
AcDbTrace
 10
2.1597587753
 20
3.9126622871
 30
0.0
 11
2.1397587753
 21
3.7876622871
 31
0.0
 12
2.1797587753
 22
3.7876622871
 32
0.0
 13
2.1797587753
 23
3.7876622871
 33
0.0
  0
POINT
  5
154
100
AcDbEntity
  8
DEFPOINTS
 62
         7
100
AcDbPoint
 10
2.69058159
 20
4.1134496887
 30
0.0
  0
POINT
  5
155
100
AcDbEntity
  8
DEFPOINTS
 62
         7
100
AcDbPoint
 10
2.69058159
 20
3.9126622871
 30
0.0
  0
ENDBLK
  5
156
100
AcDbEntity
  8
0
 62
         7
100
AcDbBlockEnd
  0
BLOCK
  5
15A
100
AcDbEntity
  8
0
 62
         0
100
AcDbBlockBegin
  2
NOTE49
 70
         0
 10
0.0
 20
0.0
 30
0.0
  3
NOTE49
  1

  0
MTEXT
  5
15B
100
AcDbEntity
  8
0
 62
         7
100
AcDbMText
 10
-0.8493953275
 20
0.2338518462
 30
0.0
 40
0.0833333333
 41
0.0
 71
         1
 72
         1
  1
REMOVABLE TIP
  7
SLDTEXTSTYLE0
  0
MTEXT
  5
15C
100
AcDbEntity
  8
0
 62
         7
100
AcDbMText
 10
-0.8081917101
 20
0.1227407364
 30
0.0
 40
0.0833333333
 41
0.0
 71
         1
 72
         1
  1
PART# PAA001
  7
SLDTEXTSTYLE0
  0
MTEXT
  5
15D
100
AcDbEntity
  8
0
 62
         7
100
AcDbMText
 10
-0.6092719881
 20
0.0116296266
 30
0.0
 40
0.0833333333
 41
0.0
 71
         1
 72
         1
  1
PAA-SERIES
  7
SLDTEXTSTYLE0
  0
MTEXT
  5
15E
100
AcDbEntity
  8
0
 62
         7
100
AcDbMText
 10
-0.7038707486
 20
-0.0994814832
 30
0.0
 40
0.0833333333
 41
0.0
 71
         1
 72
         1
  1
COMPATIBLE
  7
SLDTEXTSTYLE0
  0
ENDBLK
  5
15F
100
AcDbEntity
  8
0
100
AcDbBlockEnd
  0
ENDSEC
  0
SECTION
  2
ENTITIES
  0
LINE
  5
25
100
AcDbEntity
  8
0
  6
CONTINUOUS
 62
         7
100
AcDbLine
 10
0.329927
 20
8.1920731707
 30
0.0
 11
10.629927
 21
8.1920731707
 31
0.0
  0
LINE
  5
26
100
AcDbEntity
  8
0
  6
CONTINUOUS
 62
         7
100
AcDbLine
 10
0.329927
 20
8.1920731707
 30
0.0
 11
0.329927
 21
0.3920731707
 31
0.0
  0
LINE
  5
27
100
AcDbEntity
  8
0
  6
CONTINUOUS
 62
         7
100
AcDbLine
 10
10.629927
 20
0.3920731707
 30
0.0
 11
0.329927
 21
0.3920731707
 31
0.0
  0
LINE
  5
28
100
AcDbEntity
  8
0
  6
CONTINUOUS
 62
         7
100
AcDbLine
 10
10.629927
 20
0.3920731707
 30
0.0
 11
10.629927
 21
8.1920731707
 31
0.0
  0
LINE
  5
29
100
AcDbEntity
  8
0
  6
CONTINUOUS
 62
         7
100
AcDbLine
 10
7.8832069922
 20
1.2010186622
 30
0.0
 11
6.3491817542
 21
1.2010186622
 31
0.0
  0
LINE
  5
2A
100
AcDbEntity
  8
0
  6
CONTINUOUS
 62
         7
100
AcDbLine
 10
6.3491817542
 20
0.3920731707
 30
0.0
 11
6.3491817542
 21
1.6988536355
 31
0.0
  0
LINE
  5
2B
100
AcDbEntity
  8
0
  6
CONTINUOUS
 62
         7
100
AcDbLine
 10
7.8832069922
 20
1.270166923
 30
0.0
 11
10.629927
 21
1.270166923
 31
0.0
  0
LINE
  5
2C
100
AcDbEntity
  8
0
  6
CONTINUOUS
 62
         7
100
AcDbLine
 10
7.8832069922
 20
1.9437769943
 30
0.0
 11
7.8832069922
 21
0.3920731707
 31
0.0
  0
LINE
  5
2D
100
AcDbEntity
  8
0
  6
CONTINUOUS
 62
         7
100
AcDbLine
 10
7.8832069922
 20
1.323339557
 30
0.0
 11
6.3491817542
 21
1.323339557
 31
0.0
  0
LINE
  5
2E
100
AcDbEntity
  8
0
  6
CONTINUOUS
 62
         7
100
AcDbLine
 10
7.8832069922
 20
1.6988536355
 30
0.0
 11
4.9283800522
 21
1.6988536355
 31
0.0
  0
LINE
  5
2F
100
AcDbEntity
  8
0
  6
CONTINUOUS
 62
         7
100
AcDbLine
 10
7.8832069922
 20
0.7890359178
 30
0.0
 11
10.629927
 21
0.7890359178
 31
0.0
  0
LINE
  5
30
100
AcDbEntity
  8
0
  6
CONTINUOUS
 62
         7
100
AcDbLine
 10
7.8832069922
 20
1.4456604517
 30
0.0
 11
6.3491817542
 21
1.4456604517
 31
0.0
  0
LINE
  5
31
100
AcDbEntity
  8
0
  6
CONTINUOUS
 62
         7
100
AcDbLine
 10
7.8832069922
 20
1.5679813464
 30
0.0
 11
6.3491817542
 21
1.5679813464
 31
0.0
  0
LINE
  5
32
100
AcDbEntity
  8
0
  6
CONTINUOUS
 62
         7
100
AcDbLine
 10
6.9294188505
 20
1.6988536355
 30
0.0
 11
6.9294188505
 21
1.2010186622
 31
0.0
  0
LINE
  5
33
100
AcDbEntity
  8
0
  6
CONTINUOUS
 62
         7
100
AcDbLine
 10
7.2989435727
 20
1.6988536355
 30
0.0
 11
7.2989435727
 21
1.2010186622
 31
0.0
  0
LINE
  5
34
100
AcDbEntity
  8
0
  6
CONTINUOUS
 62
         7
100
AcDbLine
 10
8.9000563418
 20
0.7890359178
 30
0.0
 11
8.9000563418
 21
0.3920731707
 31
0.0
  0
LINE
  5
35
100
AcDbEntity
  8
0
  6
CONTINUOUS
 62
         7
100
AcDbLine
 10
9.3113942988
 20
0.96139916
 30
0.0
 11
9.3113942988
 21
0.7890359178
 31
0.0
  0
LINE
  5
36
100
AcDbEntity
  8
0
  6
CONTINUOUS
 62
         7
100
AcDbLine
 10
10.0324602448
 20
1.270166923
 30
0.0
 11
10.0324602448
 21
0.96139916
 31
0.0
  0
LINE
  5
37
100
AcDbEntity
  8
0
  6
CONTINUOUS
 62
         7
100
AcDbLine
 10
4.9283800522
 20
1.6988536355
 30
0.0
 11
4.9283800522
 21
0.3920731707
 31
0.0
  0
LINE
  5
38
100
AcDbEntity
  8
0
  6
CONTINUOUS
 62
         7
100
AcDbLine
 10
4.9283800522
 20
1.540040151
 30
0.0
 11
6.3491817542
 21
1.540040151
 31
0.0
  0
LINE
  5
39
100
AcDbEntity
  8
0
  6
CONTINUOUS
 62
         7
100
AcDbLine
 10
4.9283800522
 20
1.4356947803
 30
0.0
 11
6.3491817542
 21
1.4356947803
 31
0.0
  0
LINE
  5
3A
100
AcDbEntity
  8
0
  6
CONTINUOUS
 62
         7
100
AcDbLine
 10
6.3491817542
 20
1.0381709011
 30
0.0
 11
7.8832069922
 21
1.0381709011
 31
0.0
  0
LINE
  5
3B
100
AcDbEntity
  8
0
  6
CONTINUOUS
 62
         7
100
AcDbLine
 10
7.8832069922
 20
1.9437769943
 30
0.0
 11
10.629927
 21
1.9437769943
 31
0.0
  0
LINE
  5
3C
100
AcDbEntity
  8
0
  6
CONTINUOUS
 62
         7
100
AcDbLine
 10
10.315241862
 20
1.2693980507
 30
0.0
 11
10.315241862
 21
0.96139916
 31
0.0
  0
LINE
  5
3D
100
AcDbEntity
  8
0
  6
CONTINUOUS
 62
         7
100
AcDbLine
 10
7.8832069922
 20
0.96139916
 30
0.0
 11
10.629927
 21
0.96139916
 31
0.0
  0
LINE
  5
3E
100
AcDbEntity
  8
0
  6
CONTINUOUS
 62
         7
100
AcDbLine
 10
10.629927
 20
1.9437769943
 30
0.0
 11
10.629927
 21
1.9698084888
 31
0.0
  0
LINE
  5
3F
100
AcDbEntity
  8
0
  6
CONTINUOUS
 62
         7
100
AcDbLine
 10
7.8832069922
 20
1.6268095213
 30
0.0
 11
10.629927
 21
1.6268095213
 31
0.0
  0
LINE
  5
40
100
AcDbEntity
  8
0
  6
CONTINUOUS
 62
         7
100
AcDbLine
 10
6.692177
 20
0.3920731707
 30
0.0
 11
6.692177
 21
0.3072739649
 31
0.0
  0
LINE
  5
41
100
AcDbEntity
  8
0
  6
CONTINUOUS
 62
         7
100
AcDbLine
 10
2.754677
 20
0.3920731707
 30
0.0
 11
2.754677
 21
0.3072739649
 31
0.0
  0
LINE
  5
42
100
AcDbEntity
  8
0
  6
CONTINUOUS
 62
         7
100
AcDbLine
 10
2.754677
 20
0.3920731707
 30
0.0
 11
2.7672319738
 21
0.3575
 31
0.0
  0
LINE
  5
43
100
AcDbEntity
  8
0
  6
CONTINUOUS
 62
         7
100
AcDbLine
 10
2.7672319738
 20
0.3575
 30
0.0
 11
2.7414258825
 21
0.3575
 31
0.0
  0
LINE
  5
44
100
AcDbEntity
  8
0
  6
CONTINUOUS
 62
         7
100
AcDbLine
 10
2.7414258825
 20
0.3575
 30
0.0
 11
2.754677
 21
0.3920731707
 31
0.0
  0
MTEXT
  5
46
100
AcDbEntity
  8
0
 62
         7
100
AcDbMText
 10
10.4087758717
 20
1.1307921136
 30
0.0
 40
0.1041666667
 41
0.0
 71
         1
 72
         1
  1
A
  7
SLDTEXTSTYLE0
  0
MTEXT
  5
47
100
AcDbEntity
  8
0
 62
         7
100
AcDbMText
 10
1.7387909509
 20
0.3228564029
 30
0.0
 40
0.09375
 41
0.0
 71
         1
 72
         1
  1
5
  7
SLDTEXTSTYLE0
  0
MTEXT
  5
48
100
AcDbEntity
  8
0
 62
         7
100
AcDbMText
 10
3.723800327
 20
0.32599373
 30
0.0
 40
0.09375
 41
0.0
 71
         1
 72
         1
  1
4
  7
SLDTEXTSTYLE0
  0
MTEXT
  5
49
100
AcDbEntity
  8
0
 62
         7
100
AcDbMText
 10
5.6324457277
 20
0.3238891623
 30
0.0
 40
0.09375
 41
0.0
 71
         1
 72
         1
  1
3
  7
SLDTEXTSTYLE0
  0
MTEXT
  5
4A
100
AcDbEntity
  8
0
 62
         7
100
AcDbMText
 10
7.6059721724
 20
0.3247091132
 30
0.0
 40
0.09375
 41
0.0
 71
         1
 72
         1
  1
2
  7
SLDTEXTSTYLE0
  0
MTEXT
  5
4B
100
AcDbEntity
  8
0
 62
         7
100
AcDbMText
 10
9.6619921328
 20
0.3136419902
 30
0.0
 40
0.09375
 41
0.0
 71
         1
 72
         1
  1
1
  7
SLDTEXTSTYLE0
  0
MTEXT
  5
4C
100
AcDbEntity
  8
0
 62
         7
100
AcDbMText
 10
9.0716466801
 20
0.608503423
 30
0.0
 40
0.125
 41
0.0
 71
         1
 72
         1
  1
PAS005
  7
SLDTEXTSTYLE0
  0
MTEXT
  5
4D
100
AcDbEntity
  8
0
 62
         7
100
AcDbMText
 10
7.9301743649
 20
1.2662311489
 30
0.0
 40
0.0833333333
 41
0.0
 71
         1
 72
         1
  1
MATERIAL:
  7
SLDTEXTSTYLE0
  0
MTEXT
  5
4E
100
AcDbEntity
  8
0
 62
         7
100
AcDbMText
 10
8.9438302275
 20
0.7619922188
 30
0.0
 40
0.0833333333
 41
0.0
 71
         1
 72
         1
  1
PART  NO.
  7
SLDTEXTSTYLE0
  0
MTEXT
  5
4F
100
AcDbEntity
  8
0
 62
         7
100
AcDbMText
 10
4.9872272808
 20
1.678787395
 30
0.0
 40
0.1
 41
0.0
 71
         1
 72
         1
  1
TOLERANCES
  7
SLDTEXTSTYLE0
  0
MTEXT
  5
50
100
AcDbEntity
  8
0
 62
         7
100
AcDbMText
 10
6.3927073562
 20
1.1667586129
 30
0.0
 40
0.06
 41
0.0
 71
         1
 72
         1
  1
PROPRIETARY AND CONFIDENTIAL
  7
SLDTEXTSTYLE0
  0
INSERT
  5
66
100
AcDbEntity
  8
0
100
AcDbBlockReference
  2
NOTE11
 10
4.9730262909
 20
1.3359640064
 30
0.0
  0
MTEXT
  5
67
100
AcDbEntity
  8
0
 62
         7
100
AcDbMText
 10
6.4985660702
 20
1.5619929057
 30
0.0
 40
0.065
 41
0.0
 71
         1
 72
         1
  1
DRAWN
  7
SLDTEXTSTYLE0
  0
MTEXT
  5
68
100
AcDbEntity
  8
0
 62
         7
100
AcDbMText
 10
6.4369653776
 20
1.4397369011
 30
0.0
 40
0.065
 41
0.0
 71
         1
 72
         1
  1
ENG APPR.
  7
SLDTEXTSTYLE0
  0
MTEXT
  5
69
100
AcDbEntity
  8
0
 62
         7
100
AcDbMText
 10
6.4273055419
 20
1.3196390079
 30
0.0
 40
0.065
 41
0.0
 71
         1
 72
         1
  1
MFG APPR.
  7
SLDTEXTSTYLE0
  0
MTEXT
  5
6A
100
AcDbEntity
  8
0
 62
         7
100
AcDbMText
 10
6.9752663896
 20
1.6821505696
 30
0.0
 40
0.065
 41
0.0
 71
         1
 72
         1
  1
NAME
  7
SLDTEXTSTYLE0
  0
INSERT
  5
6E
100
AcDbEntity
  8
0
100
AcDbBlockReference
  2
NOTE16
 10
0.0
 20
0.0
 30
0.0
  0
MTEXT
  5
6F
100
AcDbEntity
  8
0
 62
         7
100
AcDbMText
 10
7.9386050459
 20
1.577816147
 30
0.0
 40
0.1
 41
0.0
 71
         1
 72
         1
  1
TITLE:
  7
SLDTEXTSTYLE0
  0
MTEXT
  5
70
100
AcDbEntity
  8
0
 62
         7
100
AcDbMText
 10
10.0657693915
 20
1.2425575667
 30
0.0
 40
0.0833333333
 41
0.0
 71
         1
 72
         1
  1
SIZE
  7
SLDTEXTSTYLE0
  0
MTEXT
  5
71
100
AcDbEntity
  8
0
 62
         7
100
AcDbMText
 10
10.1162261111
 20
1.1269262436
 30
0.0
 40
0.1041666667
 41
0.0
 71
         1
 72
         1
  1
A
  7
SLDTEXTSTYLE0
  0
MTEXT
  5
72
100
AcDbEntity
  8
0
 62
         7
100
AcDbMText
 10
10.335100974
 20
1.24415745
 30
0.0
 40
0.0833333333
 41
0.0
 71
         1
 72
         1
  1
REV.
  7
SLDTEXTSTYLE0
  0
INSERT
  5
78
100
AcDbEntity
  8
0
100
AcDbBlockReference
  2
NOTE21
 10
8.3227727705
 20
0.8245333449
 30
0.0
  0
INSERT
  5
7C
100
AcDbEntity
  8
0
100
AcDbBlockReference
  2
NOTE22
 10
0.0
 20
0.0
 30
0.0
  0
INSERT
  5
80
100
AcDbEntity
  8
0
100
AcDbBlockReference
  2
NOTE23
 10
0.0
 20
0.0
 30
0.0
  0
INSERT
  5
84
100
AcDbEntity
  8
0
100
AcDbBlockReference
  2
NOTE24
 10
0.0
 20
0.0
 30
0.0
  0
INSERT
  5
88
100
AcDbEntity
  8
0
100
AcDbBlockReference
  2
NOTE25
 10
0.0
 20
0.0
 30
0.0
  0
INSERT
  5
8C
100
AcDbEntity
  8
0
100
AcDbBlockReference
  2
NOTE26
 10
0.0
 20
0.0
 30
0.0
  0
INSERT
  5
90
100
AcDbEntity
  8
0
100
AcDbBlockReference
  2
NOTE27
 10
0.0
 20
0.0
 30
0.0
  0
INSERT
  5
94
100
AcDbEntity
  8
0
100
AcDbBlockReference
  2
NOTE28
 10
0.0
 20
0.0
 30
0.0
  0
INSERT
  5
98
100
AcDbEntity
  8
0
100
AcDbBlockReference
  2
NOTE29
 10
0.0
 20
0.0
 30
0.0
  0
INSERT
  5
9C
100
AcDbEntity
  8
0
100
AcDbBlockReference
  2
NOTE30
 10
0.0
 20
0.0
 30
0.0
  0
INSERT
  5
A0
100
AcDbEntity
  8
0
100
AcDbBlockReference
  2
NOTE31
 10
0.0
 20
0.0
 30
0.0
  0
INSERT
  5
A8
100
AcDbEntity
  8
0
100
AcDbBlockReference
  2
NOTE32
 10
9.6378279873
 20
0.8201337505
 30
0.0
  0
MTEXT
  5
A9
100
AcDbEntity
  8
0
 62
         7
100
AcDbMText
 10
7.9971856596
 20
0.6079408784
 30
0.0
 40
0.125
 41
0.0
 71
         1
 72
         1
  1
12763-E01
  7
SLDTEXTSTYLE0
  0
INSERT
  5
B3
100
AcDbEntity
  8
0
100
AcDbBlockReference
  2
NOTE34
 10
6.3891646717
 20
0.9312082413
 30
0.0
  0
MTEXT
  5
B4
100
AcDbEntity
  8
0
 62
         7
100
AcDbMText
 10
4.9869424832
 20
1.5430724242
 30
0.0
 40
0.0625
 41
0.0
 71
         1
 72
         1
  1
UNLESS OTHERWISE SPECIFIED:
  7
SLDTEXTSTYLE0
  0
MTEXT
  5
B5
100
AcDbEntity
  8
0
 62
         7
100
AcDbMText
 10
7.9076399399
 20
0.763088683
 30
0.0
 40
0.0833333333
 41
0.0
 71
         1
 72
         1
  1
DWG.  NO.
  7
SLDTEXTSTYLE0
  0
MTEXT
  5
B6
100
AcDbEntity
  8
0
 62
         7
100
AcDbMText
 10
7.0592138229
 20
1.5647861468
 30
0.0
 40
0.065
 41
0.0
 71
         1
 72
         1
  1
JPS
  7
SLDTEXTSTYLE0
  0
MTEXT
  5
B7
100
AcDbEntity
  8
0
 62
         7
100
AcDbMText
 10
7.0628716471
 20
1.4480432518
 30
0.0
 40
0.065
 41
0.0
 71
         1
 72
         1
  1
JMM
  7
SLDTEXTSTYLE0
  0
MTEXT
  5
B8
100
AcDbEntity
  8
0
 62
         7
100
AcDbMText
 10
7.0636219211
 20
1.3254688473
 30
0.0
 40
0.065
 41
0.0
 71
         1
 72
         1
  1
JMM
  7
SLDTEXTSTYLE0
  0
MTEXT
  5
B9
100
AcDbEntity
  8
0
 62
         7
100
AcDbMText
 10
7.3775562039
 20
1.5664735411
 30
0.0
 40
0.065
 41
0.0
 71
         1
 72
         1
  1
11/02/05
  7
SLDTEXTSTYLE0
  0
MTEXT
  5
BA
100
AcDbEntity
  8
0
 62
         7
100
AcDbMText
 10
7.4731545031
 20
1.6796112043
 30
0.0
 40
0.065
 41
0.0
 71
         1
 72
         1
  1
DATE
  7
SLDTEXTSTYLE0
  0
MTEXT
  5
BB
100
AcDbEntity
  8
0
 62
         7
100
AcDbMText
 10
7.3821011998
 20
1.4397569559
 30
0.0
 40
0.065
 41
0.0
 71
         1
 72
         1
  1
11/02/05
  7
SLDTEXTSTYLE0
  0
MTEXT
  5
BC
100
AcDbEntity
  8
0
 62
         7
100
AcDbMText
 10
7.3821011998
 20
1.3192883921
 30
0.0
 40
0.065
 41
0.0
 71
         1
 72
         1
  1
11/02/05
  7
SLDTEXTSTYLE0
  0
MTEXT
  5
BD
100
AcDbEntity
  8
0
 62
         7
100
AcDbMText
 10
7.9182509893
 20
1.8945249685
 30
0.0
 40
0.1875
 41
0.0
 71
         1
 72
         1
  1
THORLABS INC.
  7
SLDTEXTSTYLE0
  0
INSERT
  5
C3
100
AcDbEntity
  8
0
100
AcDbBlockReference
  2
NOTE45
 10
9.7899715108
 20
1.8064732284
 30
0.0
  0
INSERT
  5
C9
100
AcDbEntity
  8
0
100
AcDbBlockReference
  2
NOTE46
 10
8.3708977118
 20
1.4487747846
 30
0.0
  0
MTEXT
  5
CA
100
AcDbEntity
  8
0
 62
         7
100
AcDbMText
 10
8.3691642187
 20
1.1419615018
 30
0.0
 40
0.1041666667
 41
0.0
 71
         1
 72
         1
  1
STAINLESS STEEL
  7
SLDTEXTSTYLE0
  0
LINE
  5
CB
100
AcDbEntity
  8
0
  6
CONTINUOUS
 62
         7
100
AcDbLine
 10
8.0838196703
 20
4.2482572144
 30
0.0
 11
8.0838196664
 21
4.6913805603
 31
0.0
  0
LINE
  5
CC
100
AcDbEntity
  8
0
  6
CONTINUOUS
 62
         7
100
AcDbLine
 10
7.9263393515
 20
4.6913805603
 30
0.0
 11
7.9263393479
 21
4.2482572144
 31
0.0
  0
ARC
  5
CD
100
AcDbEntity
  8
0
  6
CONTINUOUS
 62
         7
100
AcDbCircle
 10
8.0050795089
 20
4.0130559879
 30
0.0
 40
0.25
100
AcDbArc
 50
0.0
 51
71.6415629247
  0
ARC
  5
CE
100
AcDbEntity
  8
0
  6
CONTINUOUS
 62
         7
100
AcDbCircle
 10
8.0050795089
 20
4.0130559879
 30
0.0
 40
0.25
100
AcDbArc
 50
108.3584370753
 51
0.0
  0
CIRCLE
  5
CF
100
AcDbEntity
  8
0
  6
CONTINUOUS
 62
         7
100
AcDbCircle
 10
8.0050795089
 20
4.0130559879
 30
0.0
 40
0.2480314961
  0
CIRCLE
  5
D0
100
AcDbEntity
  8
0
  6
CONTINUOUS
 62
         7
100
AcDbCircle
 10
8.0050795089
 20
4.0130559879
 30
0.0
 40
0.05325
  0
LINE
  5
D1
100
AcDbEntity
  8
0
  6
CONTINUOUS
 62
         7
100
AcDbLine
 10
8.0838196664
 20
4.6913805603
 30
0.0
 11
7.9263393515
 21
4.6913805603
 31
0.0
  0
DIMENSION
  5
E0
100
AcDbEntity
  8
0
 62
         7
100
AcDbDimension
  2
*D17
 10
7.2492107236
 20
3.7650244919
 30
0.0
 11
7.2492107236
 21
4.2282025261
 31
0.0
 70
       160
  1
<>\P(24mm)
  3
SLDDIMSTYLE0
100
AcDbAlignedDimension
 13
7.9263393515
 23
4.6913805603
 33
0.0
 14
8.0050795089
 24
3.7650244919
 34
0.0
 50
90.0
100
AcDbRotatedDimension
  0
LEADER
  5
E1
100
AcDbEntity
  8
0
 62
         7
100
AcDbLeader
  3
SLDDIMSTYLE1
 73
         2
 74
         0
 75
         0
 40
0.0
 76
         3
 10
8.038909599
 20
4.0541788223
 30
0.0
 10
8.4922055423
 20
4.7272316243
 30
0.0
 10
8.7422055423
 20
4.7272316243
 30
0.0
 77
       256
340
E9
  0
INSERT
  5
E9
100
AcDbEntity
  8
0
100
AcDbBlockReference
  2
NOTE48
 10
8.7422055423
 20
4.7272316243
 30
0.0
  0
INSERT
  5
F1
100
AcDbEntity
  8
0
100
AcDbBlockReference
  2
SW_CENTERMARK0
 10
0.0
 20
0.0
 30
0.0
  0
LINE
  5
F2
100
AcDbEntity
  8
0
  6
CONTINUOUS
 62
         7
100
AcDbLine
 10
3.2142036372
 20
4.261087484
 30
0.0
 11
2.9189280467
 21
4.261087484
 31
0.0
  0
LINE
  5
F3
100
AcDbEntity
  8
0
  6
CONTINUOUS
 62
         7
100
AcDbLine
 10
2.9189280467
 20
3.7650244919
 30
0.0
 11
3.2142036372
 21
3.7650244919
 31
0.0
  0
LINE
  5
F4
100
AcDbEntity
  8
0
  6
CONTINUOUS
 62
         7
100
AcDbLine
 10
4.3441248971
 20
4.2630559879
 30
0.0
 11
3.2811327711
 21
4.2630559879
 31
0.0
  0
LINE
  5
F5
100
AcDbEntity
  8
0
  6
CONTINUOUS
 62
         7
100
AcDbLine
 10
3.2811327711
 20
3.7630559879
 30
0.0
 11
4.3441248971
 21
3.7630559879
 31
0.0
  0
LINE
  5
F6
100
AcDbEntity
  8
0
  6
CONTINUOUS
 62
         7
100
AcDbLine
 10
3.2142036644
 20
3.7965205196
 30
0.0
 11
3.2811327579
 21
3.7965205196
 31
0.0
  0
LINE
  5
F7
100
AcDbEntity
  8
0
  6
CONTINUOUS
 62
         7
100
AcDbLine
 10
3.2811327579
 20
4.2295914201
 30
0.0
 11
3.2142036644
 21
4.2295914201
 31
0.0
  0
LINE
  5
F8
100
AcDbEntity
  8
0
  6
CONTINUOUS
 62
         7
100
AcDbLine
 10
4.3638099357
 20
4.2610874662
 30
0.0
 11
4.3441248977
 21
4.2610874662
 31
0.0
  0
LINE
  5
F9
100
AcDbEntity
  8
0
  6
CONTINUOUS
 62
         7
100
AcDbLine
 10
4.9346760782
 20
4.261087484
 30
0.0
 11
4.521290249
 21
4.2610874662
 31
0.0
  0
LINE
  5
FA
100
AcDbEntity
  8
0
  6
CONTINUOUS
 62
         7
100
AcDbLine
 10
4.4917626943
 20
3.7650245101
 30
0.0
 11
4.9346760782
 21
3.7650244919
 31
0.0
  0
LINE
  5
FB
100
AcDbEntity
  8
0
  6
CONTINUOUS
 62
         7
100
AcDbLine
 10
4.3441248977
 20
3.7650245101
 30
0.0
 11
4.393337495
 21
3.7650245101
 31
0.0
  0
LINE
  5
FC
100
AcDbEntity
  8
0
  6
CONTINUOUS
 62
         7
100
AcDbLine
 10
2.6905815533
 20
3.9126623113
 30
0.0
 11
2.9189280621
 21
3.9126623113
 31
0.0
  0
LINE
  5
FD
100
AcDbEntity
  8
0
  6
CONTINUOUS
 62
         7
100
AcDbLine
 10
2.9189280621
 20
4.1134496651
 30
0.0
 11
2.6905815533
 21
4.1134496651
 31
0.0
  0
LINE
  5
FE
100
AcDbEntity
  8
0
  6
CONTINUOUS
 62
         7
100
AcDbLine
 10
2.5724713538
 20
3.7965205548
 30
0.0
 11
2.69058159
 21
3.7965205548
 31
0.0
  0
LINE
  5
FF
100
AcDbEntity
  8
0
  6
CONTINUOUS
 62
         7
100
AcDbLine
 10
2.69058159
 20
4.229591421
 30
0.0
 11
2.5724713538
 21
4.229591421
 31
0.0
  0
LINE
  5
100
100
AcDbEntity
  8
0
  6
CONTINUOUS
 62
         7
100
AcDbLine
 10
4.521290249
 20
4.2610874662
 30
0.0
 11
4.5212902514
 21
4.6913805603
 31
0.0
  0
LINE
  5
101
100
AcDbEntity
  8
0
  6
CONTINUOUS
 62
         7
100
AcDbLine
 10
4.3638099364
 20
4.6913805603
 30
0.0
 11
4.3638099357
 21
4.2610874662
 31
0.0
  0
LINE
  5
102
100
AcDbEntity
  8
0
  6
CONTINUOUS
 62
         7
100
AcDbLine
 10
3.2142036372
 20
4.261087484
 30
0.0
 11
3.2142036372
 21
3.7650244919
 31
0.0
  0
LINE
  5
103
100
AcDbEntity
  8
0
  6
CONTINUOUS
 62
         7
100
AcDbLine
 10
2.9189280467
 20
4.261087484
 30
0.0
 11
2.9189280467
 21
3.7650244919
 31
0.0
  0
LINE
  5
104
100
AcDbEntity
  8
0
  6
CONTINUOUS
 62
         7
100
AcDbLine
 10
3.2811327711
 20
4.0130559879
 30
0.0
 11
3.2811327711
 21
3.7630559879
 31
0.0
  0
LINE
  5
105
100
AcDbEntity
  8
0
  6
CONTINUOUS
 62
         7
100
AcDbLine
 10
3.2811327711
 20
4.2630559879
 30
0.0
 11
3.2811327711
 21
4.0130559879
 31
0.0
  0
LINE
  5
106
100
AcDbEntity
  8
0
  6
CONTINUOUS
 62
         7
100
AcDbLine
 10
4.3441248971
 20
4.2630559879
 30
0.0
 11
4.3441248971
 21
3.7630559879
 31
0.0
  0
LINE
  5
107
100
AcDbEntity
  8
0
  6
CONTINUOUS
 62
         7
100
AcDbLine
 10
4.9346760782
 20
4.261087484
 30
0.0
 11
4.9346760782
 21
3.7650244919
 31
0.0
  0
ARC
  5
108
100
AcDbEntity
  8
0
  6
CONTINUOUS
 62
         7
100
AcDbCircle
 10
4.4425500947
 20
3.5219227553
 30
0.0
 40
0.2480329477
100
AcDbArc
 50
78.5559143158
 51
101.4440856842
  0
LINE
  5
109
100
AcDbEntity
  8
0
  6
CONTINUOUS
 62
         7
100
AcDbLine
 10
2.69058159
 20
4.229591421
 30
0.0
 11
2.69058159
 21
3.7965205548
 31
0.0
  0
LINE
  5
10A
100
AcDbEntity
  8
0
  6
CONTINUOUS
 62
         7
100
AcDbLine
 10
2.5724713538
 20
4.229591421
 30
0.0
 11
2.5724713538
 21
3.7965205548
 31
0.0
  0
LINE
  5
10B
100
AcDbEntity
  8
0
  6
CONTINUOUS
 62
         7
100
AcDbLine
 10
4.5212902514
 20
4.6913805603
 30
0.0
 11
4.3638099364
 21
4.6913805603
 31
0.0
  0
DIMENSION
  5
11B
100
AcDbEntity
  8
0
 62
         7
100
AcDbDimension
  2
*D20
 10
5.5007232332
 20
3.7650244919
 30
0.0
 11
5.5007232332
 21
4.0130559879
 31
0.0
 70
       160
  1
%%c<>\P(13mm)
  3
SLDDIMSTYLE2
100
AcDbAlignedDimension
 13
4.9346760782
 23
4.261087484
 33
0.0
 14
4.9346760782
 24
3.7650244919
 34
0.0
 50
90.0
100
AcDbRotatedDimension
  0
DIMENSION
  5
12A
100
AcDbEntity
  8
0
 62
         7
100
AcDbDimension
  2
*D21
 10
4.5212902514
 20
4.9756059888
 30
0.0
 11
3.8126288341
 21
4.9756059888
 31
0.0
 70
       160
  1
%%c<>\P(4mm)
  3
SLDDIMSTYLE0
100
AcDbAlignedDimension
 13
4.3638099364
 23
4.6913805603
 33
0.0
 14
4.5212902514
 24
4.6913805603
 34
0.0
100
AcDbRotatedDimension
  0
DIMENSION
  5
139
100
AcDbEntity
  8
0
 62
         7
100
AcDbDimension
  2
*D22
 10
4.9346760782
 20
3.5079364288
 30
0.0
 11
3.8126288341
 21
3.5079364288
 31
0.0
 70
       160
  1
<>\P(57mm)
  3
SLDDIMSTYLE3
100
AcDbAlignedDimension
 13
2.69058159
 23
3.7965205548
 33
0.0
 14
4.9346760782
 24
3.7650244919
 34
0.0
100
AcDbRotatedDimension
  0
DIMENSION
  5
147
100
AcDbEntity
  8
0
 62
         7
100
AcDbDimension
  2
*D23
 10
4.9346760782
 20
3.1157160879
 30
0.0
 11
3.753573716
 21
3.1157160879
 31
0.0
 70
       160
  1
<>\P(60mm)
  3
SLDDIMSTYLE3
100
AcDbAlignedDimension
 13
2.5724713538
 23
3.7965205548
 33
0.0
 14
4.9346760782
 24
3.7650244919
 34
0.0
100
AcDbRotatedDimension
  0
DIMENSION
  5
157
100
AcDbEntity
  8
0
 62
         7
100
AcDbDimension
  2
*D24
 10
2.1597587753
 20
3.9126622871
 30
0.0
 11
2.1597587753
 21
3.5079364288
 31
0.0
 70
       160
  1
%%c<>\P(5.1mm)
  3
SLDDIMSTYLE2
100
AcDbAlignedDimension
 13
2.69058159
 23
4.1134496887
 33
0.0
 14
2.69058159
 24
3.9126622871
 34
0.0
 50
90.0
100
AcDbRotatedDimension
  0
LEADER
  5
158
100
AcDbEntity
  8
0
 62
         7
100
AcDbLeader
  3
SLDDIMSTYLE1
 73
         2
 74
         1
 75
         0
 40
0.0
 76
         3
 10
2.5724713538
 20
4.189595517
 30
0.0
 10
2.2747893298
 20
4.7231909044
 30
0.0
 10
2.0247893298
 20
4.7231909044
 30
0.0
 77
       256
340
160
  0
INSERT
  5
160
100
AcDbEntity
  8
0
100
AcDbBlockReference
  2
NOTE49
 10
2.0247893298
 20
4.7231909044
 30
0.0
  0
LINE
  5
161
100
AcDbEntity
  8
0
  6
CONTINUOUS
 62
         7
100
AcDbLine
 10
8.5855955491
 20
6.5739484229
 30
0.0
 11
8.3768041827
 21
6.4534157242
 31
0.0
  0
LINE
  5
162
100
AcDbEntity
  8
0
  6
CONTINUOUS
 62
         7
100
AcDbLine
 10
8.6248155186
 20
6.0238009349
 30
0.0
 11
8.8336068883
 21
6.1443336329
 31
0.0
  0
LINE
  5
163
100
AcDbEntity
  8
0
  6
CONTINUOUS
 62
         7
100
AcDbLine
 10
9.3835863622
 20
7.0368916846
 30
0.0
 11
8.6319374182
 21
6.6029739767
 31
0.0
  0
LINE
  5
164
100
AcDbEntity
  8
0
  6
CONTINUOUS
 62
         7
100
AcDbLine
 10
8.8819171022
 20
6.1699495193
 30
0.0
 11
9.6335660454
 21
6.6038672534
 31
0.0
  0
LINE
  5
165
100
AcDbEntity
  8
0
  6
CONTINUOUS
 62
         7
100
AcDbLine
 10
9.802153279
 20
7.2762522514
 30
0.0
 11
9.6569134874
 21
7.192407096
 31
0.0
  0
LINE
  5
166
100
AcDbEntity
  8
0
  6
CONTINUOUS
 62
         7
100
AcDbLine
 10
9.499433166
 20
7.1014956415
 30
0.0
 11
9.4002272876
 21
7.044225307
 31
0.0
  0
LINE
  5
167
100
AcDbEntity
  8
0
  6
CONTINUOUS
 62
         7
100
AcDbLine
 10
9.6482386235
 20
6.6146105177
 30
0.0
 11
10.0501646182
 21
6.8466374614
 31
0.0
  0
LINE
  5
168
100
AcDbEntity
  8
0
  6
CONTINUOUS
 62
         7
100
AcDbLine
 10
8.485473101
 20
6.1138330959
 30
0.0
 11
8.564999486
 21
6.1595638457
 31
0.0
  0
LINE
  5
169
100
AcDbEntity
  8
0
  6
CONTINUOUS
 62
         7
100
AcDbLine
 10
8.4644590563
 20
6.3337238486
 30
0.0
 11
8.3850875578
 21
6.2877247885
 31
0.0
  0
LINE
  5
16A
100
AcDbEntity
  8
0
  6
CONTINUOUS
 62
         7
100
AcDbLine
 10
8.3640869105
 20
5.9096530432
 30
0.0
 11
8.4476034363
 21
5.957866119
 31
0.0
  0
LINE
  5
16B
100
AcDbEntity
  8
0
  6
CONTINUOUS
 62
         7
100
AcDbLine
 10
8.2310856004
 20
6.3329266499
 30
0.0
 11
8.1475690656
 21
6.284713578
 31
0.0
  0
LINE
  5
16C
100
AcDbEntity
  8
0
  6
CONTINUOUS
 62
         7
100
AcDbLine
 10
9.6569135004
 20
7.0579161595
 30
0.0
 11
9.6569135004
 21
7.4144367239
 31
0.0
  0
LINE
  5
16D
100
AcDbEntity
  8
0
  6
CONTINUOUS
 62
         7
100
AcDbLine
 10
9.49943317
 20
7.41443673
 30
0.0
 11
9.49943317
 21
7.0579161655
 31
0.0
  0
POLYLINE
  5
16E
100
AcDbEntity
  8
0
  6
CONTINUOUS
 62
         7
100
AcDb2dPolyline
 66
         1
 10
0.0
 20
0.0
 30
0.0
 70
       128
  0
VERTEX
  5
16F
100
AcDbEntity
  8
0
100
AcDbVertex
100
AcDb2dVertex
 10
8.3256530409
 20
6.3294020126
 30
0.0
  0
VERTEX
  5
170
100
AcDbEntity
  8
0
100
AcDbVertex
100
AcDb2dVertex
 10
8.3255212607
 20
6.3330947175
 30
0.0
  0
VERTEX
  5
171
100
AcDbEntity
  8
0
100
AcDbVertex
100
AcDb2dVertex
 10
8.325493292
 20
6.3454634754
 30
0.0
  0
VERTEX
  5
172
100
AcDbEntity
  8
0
100
AcDbVertex
100
AcDb2dVertex
 10
8.3261175157
 20
6.3574347131
 30
0.0
  0
VERTEX
  5
173
100
AcDbEntity
  8
0
100
AcDbVertex
100
AcDb2dVertex
 10
8.3273916049
 20
6.3689639066
 30
0.0
  0
VERTEX
  5
174
100
AcDbEntity
  8
0
100
AcDbVertex
100
AcDb2dVertex
 10
8.3293108214
 20
6.3800081635
 30
0.0
  0
VERTEX
  5
175
100
AcDbEntity
  8
0
100
AcDbVertex
100
AcDb2dVertex
 10
8.3318680223
 20
6.3905264586
 30
0.0
  0
VERTEX
  5
176
100
AcDbEntity
  8
0
100
AcDbVertex
100
AcDb2dVertex
 10
8.3350537054
 20
6.4004795476
 30
0.0
  0
VERTEX
  5
177
100
AcDbEntity
  8
0
100
AcDbVertex
100
AcDb2dVertex
 10
8.3388560027
 20
6.4098305104
 30
0.0
  0
VERTEX
  5
178
100
AcDbEntity
  8
0
100
AcDbVertex
100
AcDb2dVertex
 10
8.3432607839
 20
6.4185444513
 30
0.0
  0
VERTEX
  5
179
100
AcDbEntity
  8
0
100
AcDbVertex
100
AcDb2dVertex
 10
8.3482516633
 20
6.4265890639
 30
0.0
  0
VERTEX
  5
17A
100
AcDbEntity
  8
0
100
AcDbVertex
100
AcDb2dVertex
 10
8.3538100577
 20
6.4339343583
 30
0.0
  0
VERTEX
  5
17B
100
AcDbEntity
  8
0
100
AcDbVertex
100
AcDb2dVertex
 10
8.3599153097
 20
6.4405530391
 30
0.0
  0
VERTEX
  5
17C
100
AcDbEntity
  8
0
100
AcDbVertex
100
AcDb2dVertex
 10
8.3665446945
 20
6.4464204715
 30
0.0
  0
VERTEX
  5
17D
100
AcDbEntity
  8
0
100
AcDbVertex
100
AcDb2dVertex
 10
8.3736735555
 20
6.4515148421
 30
0.0
  0
VERTEX
  5
17E
100
AcDbEntity
  8
0
100
AcDbVertex
100
AcDb2dVertex
 10
8.3812753758
 20
6.4558171482
 30
0.0
  0
VERTEX
  5
17F
100
AcDbEntity
  8
0
100
AcDbVertex
100
AcDb2dVertex
 10
8.3893218693
 20
6.4593114443
 30
0.0
  0
VERTEX
  5
180
100
AcDbEntity
  8
0
100
AcDbVertex
100
AcDb2dVertex
 10
8.3977831032
 20
6.4619847114
 30
0.0
  0
VERTEX
  5
181
100
AcDbEntity
  8
0
100
AcDbVertex
100
AcDb2dVertex
 10
8.4066276023
 20
6.4638270067
 30
0.0
  0
VERTEX
  5
182
100
AcDbEntity
  8
0
100
AcDbVertex
100
AcDb2dVertex
 10
8.4158224781
 20
6.4648314784
 30
0.0
  0
VERTEX
  5
183
100
AcDbEntity
  8
0
100
AcDbVertex
100
AcDb2dVertex
 10
8.4253334942
 20
6.4649943884
 30
0.0
  0
VERTEX
  5
184
100
AcDbEntity
  8
0
100
AcDbVertex
100
AcDb2dVertex
 10
8.4351252992
 20
6.4643150971
 30
0.0
  0
VERTEX
  5
185
100
AcDbEntity
  8
0
100
AcDbVertex
100
AcDb2dVertex
 10
8.4451614527
 20
6.4627961983
 30
0.0
  0
VERTEX
  5
186
100
AcDbEntity
  8
0
100
AcDbVertex
100
AcDb2dVertex
 10
8.4554046199
 20
6.4604432873
 30
0.0
  0
VERTEX
  5
187
100
AcDbEntity
  8
0
100
AcDbVertex
100
AcDb2dVertex
 10
8.4658167012
 20
6.4572651252
 30
0.0
  0
VERTEX
  5
188
100
AcDbEntity
  8
0
100
AcDbVertex
100
AcDb2dVertex
 10
8.4763589487
 20
6.453273572
 30
0.0
  0
VERTEX
  5
189
100
AcDbEntity
  8
0
100
AcDbVertex
100
AcDb2dVertex
 10
8.4869921609
 20
6.4484834439
 30
0.0
  0
VERTEX
  5
18A
100
AcDbEntity
  8
0
100
AcDbVertex
100
AcDb2dVertex
 10
8.4976767863
 20
6.4429125439
 30
0.0
  0
VERTEX
  5
18B
100
AcDbEntity
  8
0
100
AcDbVertex
100
AcDb2dVertex
 10
8.5083730529
 20
6.4365816461
 30
0.0
  0
VERTEX
  5
18C
100
AcDbEntity
  8
0
100
AcDbVertex
100
AcDb2dVertex
 10
8.5190411887
 20
6.4295142493
 30
0.0
  0
VERTEX
  5
18D
100
AcDbEntity
  8
0
100
AcDbVertex
100
AcDb2dVertex
 10
8.5296415256
 20
6.4217366667
 30
0.0
  0
VERTEX
  5
18E
100
AcDbEntity
  8
0
100
AcDbVertex
100
AcDb2dVertex
 10
8.5401345767
 20
6.4132778609
 30
0.0
  0
VERTEX
  5
18F
100
AcDbEntity
  8
0
100
AcDbVertex
100
AcDb2dVertex
 10
8.550481348
 20
6.4041692647
 30
0.0
  0
VERTEX
  5
190
100
AcDbEntity
  8
0
100
AcDbVertex
100
AcDb2dVertex
 10
8.5606433379
 20
6.3944447811
 30
0.0
  0
VERTEX
  5
191
100
AcDbEntity
  8
0
100
AcDbVertex
100
AcDb2dVertex
 10
8.570582745
 20
6.3841405434
 30
0.0
  0
VERTEX
  5
192
100
AcDbEntity
  8
0
100
AcDbVertex
100
AcDb2dVertex
 10
8.5802625715
 20
6.3732949455
 30
0.0
  0
VERTEX
  5
193
100
AcDbEntity
  8
0
100
AcDbVertex
100
AcDb2dVertex
 10
8.5896468566
 20
6.3619482976
 30
0.0
  0
VERTEX
  5
194
100
AcDbEntity
  8
0
100
AcDbVertex
100
AcDb2dVertex
 10
8.598700651
 20
6.3501428111
 30
0.0
  0
VERTEX
  5
195
100
AcDbEntity
  8
0
100
AcDbVertex
100
AcDb2dVertex
 10
8.6073902754
 20
6.3379224189
 30
0.0
  0
VERTEX
  5
196
100
AcDbEntity
  8
0
100
AcDbVertex
100
AcDb2dVertex
 10
8.6156834249
 20
6.3253325663
 30
0.0
  0
VERTEX
  5
197
100
AcDbEntity
  8
0
100
AcDbVertex
100
AcDb2dVertex
 10
8.6235492464
 20
6.3124200756
 30
0.0
  0
VERTEX
  5
198
100
AcDbEntity
  8
0
100
AcDbVertex
100
AcDb2dVertex
 10
8.6309584426
 20
6.2992330569
 30
0.0
  0
VERTEX
  5
199
100
AcDbEntity
  8
0
100
AcDbVertex
100
AcDb2dVertex
 10
8.6378835047
 20
6.2858204437
 30
0.0
  0
VERTEX
  5
19A
100
AcDbEntity
  8
0
100
AcDbVertex
100
AcDb2dVertex
 10
8.6442986357
 20
6.2722322175
 30
0.0
  0
VERTEX
  5
19B
100
AcDbEntity
  8
0
100
AcDbVertex
100
AcDb2dVertex
 10
8.6501799826
 20
6.2585189139
 30
0.0
  0
VERTEX
  5
19C
100
AcDbEntity
  8
0
100
AcDbVertex
100
AcDb2dVertex
 10
8.6555056372
 20
6.2447315927
 30
0.0
  0
VERTEX
  5
19D
100
AcDbEntity
  8
0
100
AcDbVertex
100
AcDb2dVertex
 10
8.6602558432
 20
6.2309213886
 30
0.0
  0
VERTEX
  5
19E
100
AcDbEntity
  8
0
100
AcDbVertex
100
AcDb2dVertex
 10
8.6644128925
 20
6.2171398408
 30
0.0
  0
VERTEX
  5
19F
100
AcDbEntity
  8
0
100
AcDbVertex
100
AcDb2dVertex
 10
8.6679613325
 20
6.2034381444
 30
0.0
  0
VERTEX
  5
1A0
100
AcDbEntity
  8
0
100
AcDbVertex
100
AcDb2dVertex
 10
8.6708879406
 20
6.189867345
 30
0.0
  0
VERTEX
  5
1A1
100
AcDbEntity
  8
0
100
AcDbVertex
100
AcDb2dVertex
 10
8.6731818533
 20
6.1764777847
 30
0.0
  0
VERTEX
  5
1A2
100
AcDbEntity
  8
0
100
AcDbVertex
100
AcDb2dVertex
 10
8.6748345408
 20
6.163319357
 30
0.0
  0
VERTEX
  5
1A3
100
AcDbEntity
  8
0
100
AcDbVertex
100
AcDb2dVertex
 10
8.6758398323
 20
6.1504410721
 30
0.0
  0
VERTEX
  5
1A4
100
AcDbEntity
  8
0
100
AcDbVertex
100
AcDb2dVertex
 10
8.6761940204
 20
6.1378906983
 30
0.0
  0
VERTEX
  5
1A5
100
AcDbEntity
  8
0
100
AcDbVertex
100
AcDb2dVertex
 10
8.6758957567
 20
6.1257150606
 30
0.0
  0
VERTEX
  5
1A6
100
AcDbEntity
  8
0
100
AcDbVertex
100
AcDb2dVertex
 10
8.6749461563
 20
6.1139593828
 30
0.0
  0
VERTEX
  5
1A7
100
AcDbEntity
  8
0
100
AcDbVertex
100
AcDb2dVertex
 10
8.6733487451
 20
6.102667377
 30
0.0
  0
VERTEX
  5
1A8
100
AcDbEntity
  8
0
100
AcDbVertex
100
AcDb2dVertex
 10
8.6711095123
 20
6.0918810935
 30
0.0
  0
VERTEX
  5
1A9
100
AcDbEntity
  8
0
100
AcDbVertex
100
AcDb2dVertex
 10
8.6682367286
 20
6.0816406672
 30
0.0
  0
VERTEX
  5
1AA
100
AcDbEntity
  8
0
100
AcDbVertex
100
AcDb2dVertex
 10
8.6647411017
 20
6.071984167
 30
0.0
  0
VERTEX
  5
1AB
100
AcDbEntity
  8
0
100
AcDbVertex
100
AcDb2dVertex
 10
8.6606356471
 20
6.0629474917
 30
0.0
  0
VERTEX
  5
1AC
100
AcDbEntity
  8
0
100
AcDbVertex
100
AcDb2dVertex
 10
8.6559356357
 20
6.0545643395
 30
0.0
  0
VERTEX
  5
1AD
100
AcDbEntity
  8
0
100
AcDbVertex
100
AcDb2dVertex
 10
8.6506585422
 20
6.0468657593
 30
0.0
  0
VERTEX
  5
1AE
100
AcDbEntity
  8
0
100
AcDbVertex
100
AcDb2dVertex
 10
8.6448240194
 20
6.0398805248
 30
0.0
  0
VERTEX
  5
1AF
100
AcDbEntity
  8
0
100
AcDbVertex
100
AcDb2dVertex
 10
8.6384537421
 20
6.0336345657
 30
0.0
  0
VERTEX
  5
1B0
100
AcDbEntity
  8
0
100
AcDbVertex
100
AcDb2dVertex
 10
8.6315714075
 20
6.0281511471
 30
0.0
  0
VERTEX
  5
1B1
100
AcDbEntity
  8
0
100
AcDbVertex
100
AcDb2dVertex
 10
8.6242026315
 20
6.0234506304
 30
0.0
  0
VERTEX
  5
1B2
100
AcDbEntity
  8
0
100
AcDbVertex
100
AcDb2dVertex
 10
8.6163748448
 20
6.0195504727
 30
0.0
  0
VERTEX
  5
1B3
100
AcDbEntity
  8
0
100
AcDbVertex
100
AcDb2dVertex
 10
8.6081171374
 20
6.0164652574
 30
0.0
  0
VERTEX
  5
1B4
100
AcDbEntity
  8
0
100
AcDbVertex
100
AcDb2dVertex
 10
8.5994602328
 20
6.0142064691
 30
0.0
  0
VERTEX
  5
1B5
100
AcDbEntity
  8
0
100
AcDbVertex
100
AcDb2dVertex
 10
8.5904363582
 20
6.0127823891
 30
0.0
  0
VERTEX
  5
1B6
100
AcDbEntity
  8
0
100
AcDbVertex
100
AcDb2dVertex
 10
8.581079063
 20
6.0121984396
 30
0.0
  0
VERTEX
  5
1B7
100
AcDbEntity
  8
0
100
AcDbVertex
100
AcDb2dVertex
 10
8.5714231671
 20
6.0124567346
 30
0.0
  0
VERTEX
  5
1B8
100
AcDbEntity
  8
0
100
AcDbVertex
100
AcDb2dVertex
 10
8.5615045793
 20
6.0135563644
 30
0.0
  0
VERTEX
  5
1B9
100
AcDbEntity
  8
0
100
AcDbVertex
100
AcDb2dVertex
 10
8.5513601938
 20
6.0154931558
 30
0.0
  0
VERTEX
  5
1BA
100
AcDbEntity
  8
0
100
AcDbVertex
100
AcDb2dVertex
 10
8.5410277601
 20
6.0182599868
 30
0.0
  0
VERTEX
  5
1BB
100
AcDbEntity
  8
0
100
AcDbVertex
100
AcDb2dVertex
 10
8.5305457279
 20
6.0218465169
 30
0.0
  0
VERTEX
  5
1BC
100
AcDbEntity
  8
0
100
AcDbVertex
100
AcDb2dVertex
 10
8.5199530654
 20
6.0262394116
 30
0.0
  0
VERTEX
  5
1BD
100
AcDbEntity
  8
0
100
AcDbVertex
100
AcDb2dVertex
 10
8.5092891816
 20
6.0314223279
 30
0.0
  0
VERTEX
  5
1BE
100
AcDbEntity
  8
0
100
AcDbVertex
100
AcDb2dVertex
 10
8.4985937706
 20
6.0373760032
 30
0.0
  0
VERTEX
  5
1BF
100
AcDbEntity
  8
0
100
AcDbVertex
100
AcDb2dVertex
 10
8.4918426005
 20
6.041522108
 30
0.0
  0
SEQEND
  5
1C0
100
AcDbEntity
  8
0
  0
POLYLINE
  5
1C1
100
AcDbEntity
  8
0
  6
CONTINUOUS
 62
         7
100
AcDb2dPolyline
 66
         1
 10
0.0
 20
0.0
 30
0.0
 70
       128
  0
VERTEX
  5
1C2
100
AcDbEntity
  8
0
100
AcDbVertex
100
AcDb2dVertex
 10
8.5368063861
 20
6.143467201
 30
0.0
  0
VERTEX
  5
1C3
100
AcDbEntity
  8
0
100
AcDbVertex
100
AcDb2dVertex
 10
8.5396011816
 20
6.1437520829
 30
0.0
  0
VERTEX
  5
1C4
100
AcDbEntity
  8
0
100
AcDbVertex
100
AcDb2dVertex
 10
8.5453068216
 20
6.1449713649
 30
0.0
  0
VERTEX
  5
1C5
100
AcDbEntity
  8
0
100
AcDbVertex
100
AcDb2dVertex
 10
8.5506214313
 20
6.1470134969
 30
0.0
  0
VERTEX
  5
1C6
100
AcDbEntity
  8
0
100
AcDbVertex
100
AcDb2dVertex
 10
8.5554982645
 20
6.1498605557
 30
0.0
  0
VERTEX
  5
1C7
100
AcDbEntity
  8
0
100
AcDbVertex
100
AcDb2dVertex
 10
8.5598945158
 20
6.1534875529
 30
0.0
  0
VERTEX
  5
1C8
100
AcDbEntity
  8
0
100
AcDbVertex
100
AcDb2dVertex
 10
8.563771554
 20
6.1578625992
 30
0.0
  0
VERTEX
  5
1C9
100
AcDbEntity
  8
0
100
AcDbVertex
100
AcDb2dVertex
 10
8.5670952592
 20
6.1629472492
 30
0.0
  0
VERTEX
  5
1CA
100
AcDbEntity
  8
0
100
AcDbVertex
100
AcDb2dVertex
 10
8.5698364378
 20
6.1686968005
 30
0.0
  0
VERTEX
  5
1CB
100
AcDbEntity
  8
0
100
AcDbVertex
100
AcDb2dVertex
 10
8.5719710035
 20
6.1750607279
 30
0.0
  0
VERTEX
  5
1CC
100
AcDbEntity
  8
0
100
AcDbVertex
100
AcDb2dVertex
 10
8.5734802112
 20
6.1819831476
 30
0.0
  0
VERTEX
  5
1CD
100
AcDbEntity
  8
0
100
AcDbVertex
100
AcDb2dVertex
 10
8.5743508122
 20
6.1894031466
 30
0.0
  0
VERTEX
  5
1CE
100
AcDbEntity
  8
0
100
AcDbVertex
100
AcDb2dVertex
 10
8.5745751063
 20
6.1972555907
 30
0.0
  0
VERTEX
  5
1CF
100
AcDbEntity
  8
0
100
AcDbVertex
100
AcDb2dVertex
 10
8.5741511488
 20
6.2054714243
 30
0.0
  0
VERTEX
  5
1D0
100
AcDbEntity
  8
0
100
AcDbVertex
100
AcDb2dVertex
 10
8.5730826733
 20
6.2139784937
 30
0.0
  0
VERTEX
  5
1D1
100
AcDbEntity
  8
0
100
AcDbVertex
100
AcDb2dVertex
 10
8.5713790653
 20
6.2227019809
 30
0.0
  0
VERTEX
  5
1D2
100
AcDbEntity
  8
0
100
AcDbVertex
100
AcDb2dVertex
 10
8.5690552847
 20
6.2315652872
 30
0.0
  0
VERTEX
  5
1D3
100
AcDbEntity
  8
0
100
AcDbVertex
100
AcDb2dVertex
 10
8.5661317619
 20
6.240490452
 30
0.0
  0
VERTEX
  5
1D4
100
AcDbEntity
  8
0
100
AcDbVertex
100
AcDb2dVertex
 10
8.5626341906
 20
6.2493991113
 30
0.0
  0
VERTEX
  5
1D5
100
AcDbEntity
  8
0
100
AcDbVertex
100
AcDb2dVertex
 10
8.55859332
 20
6.2582129162
 30
0.0
  0
VERTEX
  5
1D6
100
AcDbEntity
  8
0
100
AcDbVertex
100
AcDb2dVertex
 10
8.5540446183
 20
6.2668544465
 30
0.0
  0
VERTEX
  5
1D7
100
AcDbEntity
  8
0
100
AcDbVertex
100
AcDb2dVertex
 10
8.5490280907
 20
6.2752477347
 30
0.0
  0
VERTEX
  5
1D8
100
AcDbEntity
  8
0
100
AcDbVertex
100
AcDb2dVertex
 10
8.5435878389
 20
6.2833190588
 30
0.0
  0
VERTEX
  5
1D9
100
AcDbEntity
  8
0
100
AcDbVertex
100
AcDb2dVertex
 10
8.5377716464
 20
6.2909974218
 30
0.0
  0
VERTEX
  5
1DA
100
AcDbEntity
  8
0
100
AcDbVertex
100
AcDb2dVertex
 10
8.5316306152
 20
6.2982154198
 30
0.0
  0
VERTEX
  5
1DB
100
AcDbEntity
  8
0
100
AcDbVertex
100
AcDb2dVertex
 10
8.525218751
 20
6.3049096011
 30
0.0
  0
VERTEX
  5
1DC
100
AcDbEntity
  8
0
100
AcDbVertex
100
AcDb2dVertex
 10
8.5185923673
 20
6.31102111
 30
0.0
  0
VERTEX
  5
1DD
100
AcDbEntity
  8
0
100
AcDbVertex
100
AcDb2dVertex
 10
8.5118097218
 20
6.3164962555
 30
0.0
  0
VERTEX
  5
1DE
100
AcDbEntity
  8
0
100
AcDbVertex
100
AcDb2dVertex
 10
8.5049303948
 20
6.3212868705
 30
0.0
  0
VERTEX
  5
1DF
100
AcDbEntity
  8
0
100
AcDbVertex
100
AcDb2dVertex
 10
8.4980148737
 20
6.3253509706
 30
0.0
  0
VERTEX
  5
1E0
100
AcDbEntity
  8
0
100
AcDbVertex
100
AcDb2dVertex
 10
8.4911239055
 20
6.3286527688
 30
0.0
  0
VERTEX
  5
1E1
100
AcDbEntity
  8
0
100
AcDbVertex
100
AcDb2dVertex
 10
8.4843180554
 20
6.3311632296
 30
0.0
  0
VERTEX
  5
1E2
100
AcDbEntity
  8
0
100
AcDbVertex
100
AcDb2dVertex
 10
8.477657137
 20
6.332860338
 30
0.0
  0
VERTEX
  5
1E3
100
AcDbEntity
  8
0
100
AcDbVertex
100
AcDb2dVertex
 10
8.4711996932
 20
6.3337290998
 30
0.0
  0
VERTEX
  5
1E4
100
AcDbEntity
  8
0
100
AcDbVertex
100
AcDb2dVertex
 10
8.4650024524
 20
6.3337619757
 30
0.0
  0
VERTEX
  5
1E5
100
AcDbEntity
  8
0
100
AcDbVertex
100
AcDb2dVertex
 10
8.4591198998
 20
6.3329586488
 30
0.0
  0
VERTEX
  5
1E6
100
AcDbEntity
  8
0
100
AcDbVertex
100
AcDb2dVertex
 10
8.4536037081
 20
6.3313261749
 30
0.0
  0
VERTEX
  5
1E7
100
AcDbEntity
  8
0
100
AcDbVertex
100
AcDb2dVertex
 10
8.4485023734
 20
6.328878832
 30
0.0
  0
VERTEX
  5
1E8
100
AcDbEntity
  8
0
100
AcDbVertex
100
AcDb2dVertex
 10
8.4438607236
 20
6.3256382856
 30
0.0
  0
VERTEX
  5
1E9
100
AcDbEntity
  8
0
100
AcDbVertex
100
AcDb2dVertex
 10
8.4397195286
 20
6.3216328548
 30
0.0
  0
VERTEX
  5
1EA
100
AcDbEntity
  8
0
100
AcDbVertex
100
AcDb2dVertex
 10
8.4364208429
 20
6.3173588936
 30
0.0
  0
SEQEND
  5
1EB
100
AcDbEntity
  8
0
  0
POLYLINE
  5
1EC
100
AcDbEntity
  8
0
  6
CONTINUOUS
 62
         7
100
AcDb2dPolyline
 66
         1
 10
0.0
 20
0.0
 30
0.0
 70
       128
  0
VERTEX
  5
1ED
100
AcDbEntity
  8
0
100
AcDbVertex
100
AcDb2dVertex
 10
8.5855955634
 20
6.5739484227
 30
0.0
  0
VERTEX
  5
1EE
100
AcDbEntity
  8
0
100
AcDbVertex
100
AcDb2dVertex
 10
8.5900667565
 20
6.5763498466
 30
0.0
  0
VERTEX
  5
1EF
100
AcDbEntity
  8
0
100
AcDbVertex
100
AcDb2dVertex
 10
8.59811325
 20
6.5798441427
 30
0.0
  0
VERTEX
  5
1F0
100
AcDbEntity
  8
0
100
AcDbVertex
100
AcDb2dVertex
 10
8.6065744839
 20
6.5825174099
 30
0.0
  0
VERTEX
  5
1F1
100
AcDbEntity
  8
0
100
AcDbVertex
100
AcDb2dVertex
 10
8.615418983
 20
6.5843597052
 30
0.0
  0
VERTEX
  5
1F2
100
AcDbEntity
  8
0
100
AcDbVertex
100
AcDb2dVertex
 10
8.6246138588
 20
6.5853641769
 30
0.0
  0
VERTEX
  5
1F3
100
AcDbEntity
  8
0
100
AcDbVertex
100
AcDb2dVertex
 10
8.6341248749
 20
6.5855270868
 30
0.0
  0
VERTEX
  5
1F4
100
AcDbEntity
  8
0
100
AcDbVertex
100
AcDb2dVertex
 10
8.6439166799
 20
6.5848477955
 30
0.0
  0
VERTEX
  5
1F5
100
AcDbEntity
  8
0
100
AcDbVertex
100
AcDb2dVertex
 10
8.6539528334
 20
6.5833288968
 30
0.0
  0
VERTEX
  5
1F6
100
AcDbEntity
  8
0
100
AcDbVertex
100
AcDb2dVertex
 10
8.6641960006
 20
6.5809759858
 30
0.0
  0
VERTEX
  5
1F7
100
AcDbEntity
  8
0
100
AcDbVertex
100
AcDb2dVertex
 10
8.6746080819
 20
6.5777978237
 30
0.0
  0
VERTEX
  5
1F8
100
AcDbEntity
  8
0
100
AcDbVertex
100
AcDb2dVertex
 10
8.6851503294
 20
6.5738062704
 30
0.0
  0
VERTEX
  5
1F9
100
AcDbEntity
  8
0
100
AcDbVertex
100
AcDb2dVertex
 10
8.6957835416
 20
6.5690161424
 30
0.0
  0
VERTEX
  5
1FA
100
AcDbEntity
  8
0
100
AcDbVertex
100
AcDb2dVertex
 10
8.706468167
 20
6.5634452423
 30
0.0
  0
VERTEX
  5
1FB
100
AcDbEntity
  8
0
100
AcDbVertex
100
AcDb2dVertex
 10
8.7171644336
 20
6.5571143446
 30
0.0
  0
VERTEX
  5
1FC
100
AcDbEntity
  8
0
100
AcDbVertex
100
AcDb2dVertex
 10
8.7278325694
 20
6.5500469478
 30
0.0
  0
VERTEX
  5
1FD
100
AcDbEntity
  8
0
100
AcDbVertex
100
AcDb2dVertex
 10
8.7384329063
 20
6.5422693651
 30
0.0
  0
VERTEX
  5
1FE
100
AcDbEntity
  8
0
100
AcDbVertex
100
AcDb2dVertex
 10
8.7489259574
 20
6.5338105594
 30
0.0
  0
VERTEX
  5
1FF
100
AcDbEntity
  8
0
100
AcDbVertex
100
AcDb2dVertex
 10
8.7592727287
 20
6.5247019632
 30
0.0
  0
VERTEX
  5
200
100
AcDbEntity
  8
0
100
AcDbVertex
100
AcDb2dVertex
 10
8.7694347186
 20
6.5149774796
 30
0.0
  0
VERTEX
  5
201
100
AcDbEntity
  8
0
100
AcDbVertex
100
AcDb2dVertex
 10
8.7793741257
 20
6.5046732419
 30
0.0
  0
VERTEX
  5
202
100
AcDbEntity
  8
0
100
AcDbVertex
100
AcDb2dVertex
 10
8.7890539522
 20
6.493827644
 30
0.0
  0
VERTEX
  5
203
100
AcDbEntity
  8
0
100
AcDbVertex
100
AcDb2dVertex
 10
8.7984382373
 20
6.4824809961
 30
0.0
  0
VERTEX
  5
204
100
AcDbEntity
  8
0
100
AcDbVertex
100
AcDb2dVertex
 10
8.8074920317
 20
6.4706755095
 30
0.0
  0
VERTEX
  5
205
100
AcDbEntity
  8
0
100
AcDbVertex
100
AcDb2dVertex
 10
8.8161816561
 20
6.4584551174
 30
0.0
  0
VERTEX
  5
206
100
AcDbEntity
  8
0
100
AcDbVertex
100
AcDb2dVertex
 10
8.8244748056
 20
6.4458652648
 30
0.0
  0
VERTEX
  5
207
100
AcDbEntity
  8
0
100
AcDbVertex
100
AcDb2dVertex
 10
8.8323406271
 20
6.4329527741
 30
0.0
  0
VERTEX
  5
208
100
AcDbEntity
  8
0
100
AcDbVertex
100
AcDb2dVertex
 10
8.8397498232
 20
6.4197657554
 30
0.0
  0
VERTEX
  5
209
100
AcDbEntity
  8
0
100
AcDbVertex
100
AcDb2dVertex
 10
8.8466748854
 20
6.4063531422
 30
0.0
  0
VERTEX
  5
20A
100
AcDbEntity
  8
0
100
AcDbVertex
100
AcDb2dVertex
 10
8.8530900164
 20
6.392764916
 30
0.0
  0
VERTEX
  5
20B
100
AcDbEntity
  8
0
100
AcDbVertex
100
AcDb2dVertex
 10
8.8589713633
 20
6.3790516124
 30
0.0
  0
VERTEX
  5
20C
100
AcDbEntity
  8
0
100
AcDbVertex
100
AcDb2dVertex
 10
8.8642970179
 20
6.3652642911
 30
0.0
  0
VERTEX
  5
20D
100
AcDbEntity
  8
0
100
AcDbVertex
100
AcDb2dVertex
 10
8.8690472239
 20
6.3514540871
 30
0.0
  0
VERTEX
  5
20E
100
AcDbEntity
  8
0
100
AcDbVertex
100
AcDb2dVertex
 10
8.8732042732
 20
6.3376725393
 30
0.0
  0
VERTEX
  5
20F
100
AcDbEntity
  8
0
100
AcDbVertex
100
AcDb2dVertex
 10
8.8767527132
 20
6.3239708429
 30
0.0
  0
VERTEX
  5
210
100
AcDbEntity
  8
0
100
AcDbVertex
100
AcDb2dVertex
 10
8.8796793213
 20
6.3104000435
 30
0.0
  0
VERTEX
  5
211
100
AcDbEntity
  8
0
100
AcDbVertex
100
AcDb2dVertex
 10
8.881973234
 20
6.2970104832
 30
0.0
  0
VERTEX
  5
212
100
AcDbEntity
  8
0
100
AcDbVertex
100
AcDb2dVertex
 10
8.8836259215
 20
6.2838520555
 30
0.0
  0
VERTEX
  5
213
100
AcDbEntity
  8
0
100
AcDbVertex
100
AcDb2dVertex
 10
8.884631213
 20
6.2709737706
 30
0.0
  0
VERTEX
  5
214
100
AcDbEntity
  8
0
100
AcDbVertex
100
AcDb2dVertex
 10
8.8849854011
 20
6.2584233967
 30
0.0
  0
VERTEX
  5
215
100
AcDbEntity
  8
0
100
AcDbVertex
100
AcDb2dVertex
 10
8.8846871374
 20
6.2462477591
 30
0.0
  0
VERTEX
  5
216
100
AcDbEntity
  8
0
100
AcDbVertex
100
AcDb2dVertex
 10
8.883737537
 20
6.2344920813
 30
0.0
  0
VERTEX
  5
217
100
AcDbEntity
  8
0
100
AcDbVertex
100
AcDb2dVertex
 10
8.8821401258
 20
6.2232000754
 30
0.0
  0
VERTEX
  5
218
100
AcDbEntity
  8
0
100
AcDbVertex
100
AcDb2dVertex
 10
8.879900893
 20
6.212413792
 30
0.0
  0
VERTEX
  5
219
100
AcDbEntity
  8
0
100
AcDbVertex
100
AcDb2dVertex
 10
8.8770281092
 20
6.2021733657
 30
0.0
  0
VERTEX
  5
21A
100
AcDbEntity
  8
0
100
AcDbVertex
100
AcDb2dVertex
 10
8.8735324824
 20
6.1925168655
 30
0.0
  0
VERTEX
  5
21B
100
AcDbEntity
  8
0
100
AcDbVertex
100
AcDb2dVertex
 10
8.8694270278
 20
6.1834801901
 30
0.0
  0
VERTEX
  5
21C
100
AcDbEntity
  8
0
100
AcDbVertex
100
AcDb2dVertex
 10
8.8647270164
 20
6.1750970379
 30
0.0
  0
VERTEX
  5
21D
100
AcDbEntity
  8
0
100
AcDbVertex
100
AcDb2dVertex
 10
8.8594499229
 20
6.1673984578
 30
0.0
  0
VERTEX
  5
21E
100
AcDbEntity
  8
0
100
AcDbVertex
100
AcDb2dVertex
 10
8.8536154001
 20
6.1604132233
 30
0.0
  0
VERTEX
  5
21F
100
AcDbEntity
  8
0
100
AcDbVertex
100
AcDb2dVertex
 10
8.8472451228
 20
6.1541672642
 30
0.0
  0
VERTEX
  5
220
100
AcDbEntity
  8
0
100
AcDbVertex
100
AcDb2dVertex
 10
8.8403627882
 20
6.1486838456
 30
0.0
  0
VERTEX
  5
221
100
AcDbEntity
  8
0
100
AcDbVertex
100
AcDb2dVertex
 10
8.8336068993
 20
6.1443336334
 30
0.0
  0
SEQEND
  5
222
100
AcDbEntity
  8
0
  0
LINE
  5
223
100
AcDbEntity
  8
0
  6
CONTINUOUS
 62
         7
100
AcDbLine
 10
8.4642596877
 20
6.3334298971
 30
0.0
 11
8.4644590563
 21
6.3337238486
 31
0.0
  0
LINE
  5
224
100
AcDbEntity
  8
0
  6
CONTINUOUS
 62
         7
100
AcDbLine
 10
8.564999486
 20
6.1595638457
 30
0.0
 11
8.5646452298
 21
6.1595381964
 31
0.0
  0
POLYLINE
  5
225
100
AcDbEntity
  8
0
  6
CONTINUOUS
 62
         7
100
AcDb2dPolyline
 66
         1
 10
0.0
 20
0.0
 30
0.0
 70
       128
  0
VERTEX
  5
226
100
AcDbEntity
  8
0
100
AcDbVertex
100
AcDb2dVertex
 10
8.9100409195
 20
6.298071099
 30
0.0
  0
VERTEX
  5
227
100
AcDbEntity
  8
0
100
AcDbVertex
100
AcDb2dVertex
 10
8.9097130992
 20
6.3098242916
 30
0.0
  0
VERTEX
  5
228
100
AcDbEntity
  8
0
100
AcDbVertex
100
AcDb2dVertex
 10
8.9087310123
 20
6.3219056644
 30
0.0
  0
VERTEX
  5
229
100
AcDbEntity
  8
0
100
AcDbVertex
100
AcDb2dVertex
 10
8.9070988849
 20
6.3342634375
 30
0.0
  0
VERTEX
  5
22A
100
AcDbEntity
  8
0
100
AcDbVertex
100
AcDb2dVertex
 10
8.9048237173
 20
6.3468447682
 30
0.0
  0
VERTEX
  5
22B
100
AcDbEntity
  8
0
100
AcDbVertex
100
AcDb2dVertex
 10
8.9019152062
 20
6.3595957364
 30
0.0
  0
VERTEX
  5
22C
100
AcDbEntity
  8
0
100
AcDbVertex
100
AcDb2dVertex
 10
8.8983858484
 20
6.3724617038
 30
0.0
  0
VERTEX
  5
22D
100
AcDbEntity
  8
0
100
AcDbVertex
100
AcDb2dVertex
 10
8.8942507334
 20
6.385387673
 30
0.0
  0
VERTEX
  5
22E
100
AcDbEntity
  8
0
100
AcDbVertex
100
AcDb2dVertex
 10
8.8895275951
 20
6.3983182576
 30
0.0
  0
VERTEX
  5
22F
100
AcDbEntity
  8
0
100
AcDbVertex
100
AcDb2dVertex
 10
8.8842366308
 20
6.4111979966
 30
0.0
  0
VERTEX
  5
230
100
AcDbEntity
  8
0
100
AcDbVertex
100
AcDb2dVertex
 10
8.8784005004
 20
6.4239718633
 30
0.0
  0
VERTEX
  5
231
100
AcDbEntity
  8
0
100
AcDbVertex
100
AcDb2dVertex
 10
8.8720441977
 20
6.4365851007
 30
0.0
  0
VERTEX
  5
232
100
AcDbEntity
  8
0
100
AcDbVertex
100
AcDb2dVertex
 10
8.8651949719
 20
6.4489837157
 30
0.0
  0
VERTEX
  5
233
100
AcDbEntity
  8
0
100
AcDbVertex
100
AcDb2dVertex
 10
8.8578821203
 20
6.4611145683
 30
0.0
  0
VERTEX
  5
234
100
AcDbEntity
  8
0
100
AcDbVertex
100
AcDb2dVertex
 10
8.8501369628
 20
6.4729257763
 30
0.0
  0
VERTEX
  5
235
100
AcDbEntity
  8
0
100
AcDbVertex
100
AcDb2dVertex
 10
8.8419926599
 20
6.4843667002
 30
0.0
  0
VERTEX
  5
236
100
AcDbEntity
  8
0
100
AcDbVertex
100
AcDb2dVertex
 10
8.8334840834
 20
6.4953884072
 30
0.0
  0
VERTEX
  5
237
100
AcDbEntity
  8
0
100
AcDbVertex
100
AcDb2dVertex
 10
8.8246477124
 20
6.5059436713
 30
0.0
  0
VERTEX
  5
238
100
AcDbEntity
  8
0
100
AcDbVertex
100
AcDb2dVertex
 10
8.8155213226
 20
6.5159873022
 30
0.0
  0
VERTEX
  5
239
100
AcDbEntity
  8
0
100
AcDbVertex
100
AcDb2dVertex
 10
8.8061440377
 20
6.5254762657
 30
0.0
  0
VERTEX
  5
23A
100
AcDbEntity
  8
0
100
AcDbVertex
100
AcDb2dVertex
 10
8.7965559927
 20
6.5343699376
 30
0.0
  0
VERTEX
  5
23B
100
AcDbEntity
  8
0
100
AcDbVertex
100
AcDb2dVertex
 10
8.7867982557
 20
6.5426302687
 30
0.0
  0
VERTEX
  5
23C
100
AcDbEntity
  8
0
100
AcDbVertex
100
AcDb2dVertex
 10
8.7769125952
 20
6.5502218594
 30
0.0
  0
VERTEX
  5
23D
100
AcDbEntity
  8
0
100
AcDbVertex
100
AcDb2dVertex
 10
8.7669413758
 20
6.5571121996
 30
0.0
  0
VERTEX
  5
23E
100
AcDbEntity
  8
0
100
AcDbVertex
100
AcDb2dVertex
 10
8.7569272472
 20
6.5632717878
 30
0.0
  0
VERTEX
  5
23F
100
AcDbEntity
  8
0
100
AcDbVertex
100
AcDb2dVertex
 10
8.7469131446
 20
6.5686742514
 30
0.0
  0
VERTEX
  5
240
100
AcDbEntity
  8
0
100
AcDbVertex
100
AcDb2dVertex
 10
8.7369418993
 20
6.5732964511
 30
0.0
  0
VERTEX
  5
241
100
AcDbEntity
  8
0
100
AcDbVertex
100
AcDb2dVertex
 10
8.7270562517
 20
6.5771185935
 30
0.0
  0
VERTEX
  5
242
100
AcDbEntity
  8
0
100
AcDbVertex
100
AcDb2dVertex
 10
8.7172985148
 20
6.5801243056
 30
0.0
  0
VERTEX
  5
243
100
AcDbEntity
  8
0
100
AcDbVertex
100
AcDb2dVertex
 10
8.7077104827
 20
6.5823007474
 30
0.0
  0
VERTEX
  5
244
100
AcDbEntity
  8
0
100
AcDbVertex
100
AcDb2dVertex
 10
8.6983331848
 20
6.5836385741
 30
0.0
  0
VERTEX
  5
245
100
AcDbEntity
  8
0
100
AcDbVertex
100
AcDb2dVertex
 10
8.689206808
 20
6.5841320411
 30
0.0
  0
VERTEX
  5
246
100
AcDbEntity
  8
0
100
AcDbVertex
100
AcDb2dVertex
 10
8.6803704111
 20
6.5837790488
 30
0.0
  0
VERTEX
  5
247
100
AcDbEntity
  8
0
100
AcDbVertex
100
AcDb2dVertex
 10
8.6718618605
 20
6.5825811201
 30
0.0
  0
VERTEX
  5
248
100
AcDbEntity
  8
0
100
AcDbVertex
100
AcDb2dVertex
 10
8.6647009538
 20
6.580839819
 30
0.0
  0
SEQEND
  5
249
100
AcDbEntity
  8
0
  0
POLYLINE
  5
24A
100
AcDbEntity
  8
0
  6
CONTINUOUS
 62
         7
100
AcDb2dPolyline
 66
         1
 10
0.0
 20
0.0
 30
0.0
 70
       128
  0
VERTEX
  5
24B
100
AcDbEntity
  8
0
100
AcDbVertex
100
AcDb2dVertex
 10
8.8791338183
 20
6.2093909804
 30
0.0
  0
VERTEX
  5
24C
100
AcDbEntity
  8
0
100
AcDbVertex
100
AcDb2dVertex
 10
8.8842366308
 20
6.2147372289
 30
0.0
  0
VERTEX
  5
24D
100
AcDbEntity
  8
0
100
AcDbVertex
100
AcDb2dVertex
 10
8.8895275951
 20
6.2215081804
 30
0.0
  0
VERTEX
  5
24E
100
AcDbEntity
  8
0
100
AcDbVertex
100
AcDb2dVertex
 10
8.8942507334
 20
6.2289855456
 30
0.0
  0
VERTEX
  5
24F
100
AcDbEntity
  8
0
100
AcDbVertex
100
AcDb2dVertex
 10
8.8983858484
 20
6.2371372126
 30
0.0
  0
VERTEX
  5
250
100
AcDbEntity
  8
0
100
AcDbVertex
100
AcDb2dVertex
 10
8.9019152062
 20
6.2459282702
 30
0.0
  0
VERTEX
  5
251
100
AcDbEntity
  8
0
100
AcDbVertex
100
AcDb2dVertex
 10
8.9048237173
 20
6.2553211431
 30
0.0
  0
VERTEX
  5
252
100
AcDbEntity
  8
0
100
AcDbVertex
100
AcDb2dVertex
 10
8.9070988849
 20
6.2652756212
 30
0.0
  0
VERTEX
  5
253
100
AcDbEntity
  8
0
100
AcDbVertex
100
AcDb2dVertex
 10
8.9087310123
 20
6.2757489801
 30
0.0
  0
VERTEX
  5
254
100
AcDbEntity
  8
0
100
AcDbVertex
100
AcDb2dVertex
 10
8.9097130992
 20
6.2866964595
 30
0.0
  0
VERTEX
  5
255
100
AcDbEntity
  8
0
100
AcDbVertex
100
AcDb2dVertex
 10
8.9100409195
 20
6.298071099
 30
0.0
  0
SEQEND
  5
256
100
AcDbEntity
  8
0
  0
POLYLINE
  5
257
100
AcDbEntity
  8
0
  6
CONTINUOUS
 62
         7
100
AcDb2dPolyline
 66
         1
 10
0.0
 20
0.0
 30
0.0
 70
       128
  0
VERTEX
  5
258
100
AcDbEntity
  8
0
100
AcDbVertex
100
AcDb2dVertex
 10
8.9337039534
 20
6.2844107203
 30
0.0
  0
VERTEX
  5
259
100
AcDbEntity
  8
0
100
AcDbVertex
100
AcDb2dVertex
 10
8.9333814221
 20
6.2722715466
 30
0.0
  0
VERTEX
  5
25A
100
AcDbEntity
  8
0
100
AcDbVertex
100
AcDb2dVertex
 10
8.9324150469
 20
6.2605490253
 30
0.0
  0
VERTEX
  5
25B
100
AcDbEntity
  8
0
100
AcDbVertex
100
AcDb2dVertex
 10
8.930808328
 20
6.249285985
 30
0.0
  0
VERTEX
  5
25C
100
AcDbEntity
  8
0
100
AcDbVertex
100
AcDb2dVertex
 10
8.9285671506
 20
6.2385233984
 30
0.0
  0
VERTEX
  5
25D
100
AcDbEntity
  8
0
100
AcDbVertex
100
AcDb2dVertex
 10
8.925699656
 20
6.2283006968
 30
0.0
  0
VERTEX
  5
25E
100
AcDbEntity
  8
0
100
AcDbVertex
100
AcDb2dVertex
 10
8.9222163445
 20
6.2186550508
 30
0.0
  0
VERTEX
  5
25F
100
AcDbEntity
  8
0
100
AcDbVertex
100
AcDb2dVertex
 10
8.9181298943
 20
6.2096217754
 30
0.0
  0
VERTEX
  5
260
100
AcDbEntity
  8
0
100
AcDbVertex
100
AcDb2dVertex
 10
8.9134552394
 20
6.2012337454
 30
0.0
  0
VERTEX
  5
261
100
AcDbEntity
  8
0
100
AcDbVertex
100
AcDb2dVertex
 10
8.9082094398
 20
6.1935215308
 30
0.0
  0
VERTEX
  5
262
100
AcDbEntity
  8
0
100
AcDbVertex
100
AcDb2dVertex
 10
8.9024116295
 20
6.186513426
 30
0.0
  0
VERTEX
  5
263
100
AcDbEntity
  8
0
100
AcDbVertex
100
AcDb2dVertex
 10
8.896082939
 20
6.1802348966
 30
0.0
  0
VERTEX
  5
264
100
AcDbEntity
  8
0
100
AcDbVertex
100
AcDb2dVertex
 10
8.8892465211
 20
6.1747088036
 30
0.0
  0
VERTEX
  5
265
100
AcDbEntity
  8
0
100
AcDbVertex
100
AcDb2dVertex
 10
8.8819272656
 20
6.1699553884
 30
0.0
  0
VERTEX
  5
266
100
AcDbEntity
  8
0
100
AcDbVertex
100
AcDb2dVertex
 10
8.8741518772
 20
6.1659920484
 30
0.0
  0
VERTEX
  5
267
100
AcDbEntity
  8
0
100
AcDbVertex
100
AcDb2dVertex
 10
8.865948772
 20
6.1628330972
 30
0.0
  0
VERTEX
  5
268
100
AcDbEntity
  8
0
100
AcDbVertex
100
AcDb2dVertex
 10
8.8573478696
 20
6.1604901842
 30
0.0
  0
VERTEX
  5
269
100
AcDbEntity
  8
0
100
AcDbVertex
100
AcDb2dVertex
 10
8.8528769746
 20
6.1596222682
 30
0.0
  0
SEQEND
  5
26A
100
AcDbEntity
  8
0
  0
POLYLINE
  5
26B
100
AcDbEntity
  8
0
  6
CONTINUOUS
 62
         7
100
AcDb2dPolyline
 66
         1
 10
0.0
 20
0.0
 30
0.0
 70
       128
  0
VERTEX
  5
26C
100
AcDbEntity
  8
0
100
AcDbVertex
100
AcDb2dVertex
 10
8.6084718051
 20
6.5829903204
 30
0.0
  0
VERTEX
  5
26D
100
AcDbEntity
  8
0
100
AcDbVertex
100
AcDb2dVertex
 10
8.6114428844
 20
6.5864101037
 30
0.0
  0
VERTEX
  5
26E
100
AcDbEntity
  8
0
100
AcDbVertex
100
AcDb2dVertex
 10
8.6177715619
 20
6.5926886705
 30
0.0
  0
VERTEX
  5
26F
100
AcDbEntity
  8
0
100
AcDbVertex
100
AcDb2dVertex
 10
8.6246079993
 20
6.5982147223
 30
0.0
  0
VERTEX
  5
270
100
AcDbEntity
  8
0
100
AcDbVertex
100
AcDb2dVertex
 10
8.6319272549
 20
6.6029681076
 30
0.0
  0
VERTEX
  5
271
100
AcDbEntity
  8
0
100
AcDbVertex
100
AcDb2dVertex
 10
8.6397026173
 20
6.6069314925
 30
0.0
  0
VERTEX
  5
272
100
AcDbEntity
  8
0
100
AcDbVertex
100
AcDb2dVertex
 10
8.6479057355
 20
6.6100904062
 30
0.0
  0
VERTEX
  5
273
100
AcDbEntity
  8
0
100
AcDbVertex
100
AcDb2dVertex
 10
8.6565066508
 20
6.6124333118
 30
0.0
  0
VERTEX
  5
274
100
AcDbEntity
  8
0
100
AcDbVertex
100
AcDb2dVertex
 10
8.6654739788
 20
6.6139517108
 30
0.0
  0
VERTEX
  5
275
100
AcDbEntity
  8
0
100
AcDbVertex
100
AcDb2dVertex
 10
8.6747750255
 20
6.6146399866
 30
0.0
  0
VERTEX
  5
276
100
AcDbEntity
  8
0
100
AcDbVertex
100
AcDb2dVertex
 10
8.6843758396
 20
6.6144956735
 30
0.0
  0
VERTEX
  5
277
100
AcDbEntity
  8
0
100
AcDbVertex
100
AcDb2dVertex
 10
8.6942413678
 20
6.6135192771
 30
0.0
  0
VERTEX
  5
278
100
AcDbEntity
  8
0
100
AcDbVertex
100
AcDb2dVertex
 10
8.7043356495
 20
6.6117144019
 30
0.0
  0
VERTEX
  5
279
100
AcDbEntity
  8
0
100
AcDbVertex
100
AcDb2dVertex
 10
8.7146218165
 20
6.6090875711
 30
0.0
  0
VERTEX
  5
27A
100
AcDbEntity
  8
0
100
AcDbVertex
100
AcDb2dVertex
 10
8.7250623656
 20
6.6056484292
 30
0.0
  0
VERTEX
  5
27B
100
AcDbEntity
  8
0
100
AcDbVertex
100
AcDb2dVertex
 10
8.7356191841
 20
6.6014094874
 30
0.0
  0
VERTEX
  5
27C
100
AcDbEntity
  8
0
100
AcDbVertex
100
AcDb2dVertex
 10
8.7462537445
 20
6.5963862207
 30
0.0
  0
VERTEX
  5
27D
100
AcDbEntity
  8
0
100
AcDbVertex
100
AcDb2dVertex
 10
8.7569272472
 20
6.5905969859
 30
0.0
  0
VERTEX
  5
27E
100
AcDbEntity
  8
0
100
AcDbVertex
100
AcDb2dVertex
 10
8.7676007759
 20
6.5840628418
 30
0.0
  0
VERTEX
  5
27F
100
AcDbEntity
  8
0
100
AcDbVertex
100
AcDb2dVertex
 10
8.7782353363
 20
6.5768077064
 30
0.0
  0
VERTEX
  5
280
100
AcDbEntity
  8
0
100
AcDbVertex
100
AcDb2dVertex
 10
8.7887921418
 20
6.5688580125
 30
0.0
  0
VERTEX
  5
281
100
AcDbEntity
  8
0
100
AcDbVertex
100
AcDb2dVertex
 10
8.7992326909
 20
6.560242753
 30
0.0
  0
VERTEX
  5
282
100
AcDbEntity
  8
0
100
AcDbVertex
100
AcDb2dVertex
 10
8.8095188709
 20
6.5509934206
 30
0.0
  0
VERTEX
  5
283
100
AcDbEntity
  8
0
100
AcDbVertex
100
AcDb2dVertex
 10
8.8196131397
 20
6.5411436938
 30
0.0
  0
VERTEX
  5
284
100
AcDbEntity
  8
0
100
AcDbVertex
100
AcDb2dVertex
 10
8.8294786809
 20
6.5307295862
 30
0.0
  0
VERTEX
  5
285
100
AcDbEntity
  8
0
100
AcDbVertex
100
AcDb2dVertex
 10
8.839079482
 20
6.5197890428
 30
0.0
  0
VERTEX
  5
286
100
AcDbEntity
  8
0
100
AcDbVertex
100
AcDb2dVertex
 10
8.8483805157
 20
6.5083620145
 30
0.0
  0
VERTEX
  5
287
100
AcDbEntity
  8
0
100
AcDbVertex
100
AcDb2dVertex
 10
8.8573478696
 20
6.4964901441
 30
0.0
  0
VERTEX
  5
288
100
AcDbEntity
  8
0
100
AcDbVertex
100
AcDb2dVertex
 10
8.865948772
 20
6.4842168405
 30
0.0
  0
VERTEX
  5
289
100
AcDbEntity
  8
0
100
AcDbVertex
100
AcDb2dVertex
 10
8.8741518772
 20
6.4715868156
 30
0.0
  0
VERTEX
  5
28A
100
AcDbEntity
  8
0
100
AcDbVertex
100
AcDb2dVertex
 10
8.8819272656
 20
6.4586461734
 30
0.0
  0
VERTEX
  5
28B
100
AcDbEntity
  8
0
100
AcDbVertex
100
AcDb2dVertex
 10
8.8892465211
 20
6.4454421556
 30
0.0
  0
VERTEX
  5
28C
100
AcDbEntity
  8
0
100
AcDbVertex
100
AcDb2dVertex
 10
8.896082939
 20
6.4320229324
 30
0.0
  0
VERTEX
  5
28D
100
AcDbEntity
  8
0
100
AcDbVertex
100
AcDb2dVertex
 10
8.9024116295
 20
6.4184374225
 30
0.0
  0
VERTEX
  5
28E
100
AcDbEntity
  8
0
100
AcDbVertex
100
AcDb2dVertex
 10
8.9082094398
 20
6.4047352785
 30
0.0
  0
VERTEX
  5
28F
100
AcDbEntity
  8
0
100
AcDbVertex
100
AcDb2dVertex
 10
8.9134552394
 20
6.3909664225
 30
0.0
  0
VERTEX
  5
290
100
AcDbEntity
  8
0
100
AcDbVertex
100
AcDb2dVertex
 10
8.9181298943
 20
6.3771811509
 30
0.0
  0
VERTEX
  5
291
100
AcDbEntity
  8
0
100
AcDbVertex
100
AcDb2dVertex
 10
8.9222163445
 20
6.3634297605
 30
0.0
  0
VERTEX
  5
292
100
AcDbEntity
  8
0
100
AcDbVertex
100
AcDb2dVertex
 10
8.925699656
 20
6.3497623687
 30
0.0
  0
VERTEX
  5
293
100
AcDbEntity
  8
0
100
AcDbVertex
100
AcDb2dVertex
 10
8.9285671506
 20
6.3362289282
 30
0.0
  0
VERTEX
  5
294
100
AcDbEntity
  8
0
100
AcDbVertex
100
AcDb2dVertex
 10
8.930808328
 20
6.3228787334
 30
0.0
  0
VERTEX
  5
295
100
AcDbEntity
  8
0
100
AcDbVertex
100
AcDb2dVertex
 10
8.9324150469
 20
6.3097606148
 30
0.0
  0
VERTEX
  5
296
100
AcDbEntity
  8
0
100
AcDbVertex
100
AcDb2dVertex
 10
8.9333814221
 20
6.2969223405
 30
0.0
  0
VERTEX
  5
297
100
AcDbEntity
  8
0
100
AcDbVertex
100
AcDb2dVertex
 10
8.9337039534
 20
6.2844107203
 30
0.0
  0
SEQEND
  5
298
100
AcDbEntity
  8
0
  0
POLYLINE
  5
299
100
AcDbEntity
  8
0
  6
CONTINUOUS
 62
         7
100
AcDb2dPolyline
 66
         1
 10
0.0
 20
0.0
 30
0.0
 70
       128
  0
VERTEX
  5
29A
100
AcDbEntity
  8
0
100
AcDbVertex
100
AcDb2dVertex
 10
9.3835863686
 20
7.0368916795
 30
0.0
  0
VERTEX
  5
29B
100
AcDbEntity
  8
0
100
AcDbVertex
100
AcDb2dVertex
 10
9.3913515677
 20
7.0408491954
 30
0.0
  0
VERTEX
  5
29C
100
AcDbEntity
  8
0
100
AcDbVertex
100
AcDb2dVertex
 10
9.3995546859
 20
7.0440081091
 30
0.0
  0
VERTEX
  5
29D
100
AcDbEntity
  8
0
100
AcDbVertex
100
AcDb2dVertex
 10
9.4081556012
 20
7.0463510146
 30
0.0
  0
VERTEX
  5
29E
100
AcDbEntity
  8
0
100
AcDbVertex
100
AcDb2dVertex
 10
9.4171229292
 20
7.0478694136
 30
0.0
  0
VERTEX
  5
29F
100
AcDbEntity
  8
0
100
AcDbVertex
100
AcDb2dVertex
 10
9.4264239759
 20
7.0485576895
 30
0.0
  0
VERTEX
  5
2A0
100
AcDbEntity
  8
0
100
AcDbVertex
100
AcDb2dVertex
 10
9.43602479
 20
7.0484133764
 30
0.0
  0
VERTEX
  5
2A1
100
AcDbEntity
  8
0
100
AcDbVertex
100
AcDb2dVertex
 10
9.4458903182
 20
7.04743698
 30
0.0
  0
VERTEX
  5
2A2
100
AcDbEntity
  8
0
100
AcDbVertex
100
AcDb2dVertex
 10
9.4559845999
 20
7.0456321048
 30
0.0
  0
VERTEX
  5
2A3
100
AcDbEntity
  8
0
100
AcDbVertex
100
AcDb2dVertex
 10
9.466270767
 20
7.043005274
 30
0.0
  0
VERTEX
  5
2A4
100
AcDbEntity
  8
0
100
AcDbVertex
100
AcDb2dVertex
 10
9.476711316
 20
7.0395661321
 30
0.0
  0
VERTEX
  5
2A5
100
AcDbEntity
  8
0
100
AcDbVertex
100
AcDb2dVertex
 10
9.4872681345
 20
7.0353271902
 30
0.0
  0
VERTEX
  5
2A6
100
AcDbEntity
  8
0
100
AcDbVertex
100
AcDb2dVertex
 10
9.4979026949
 20
7.0303039236
 30
0.0
  0
VERTEX
  5
2A7
100
AcDbEntity
  8
0
100
AcDbVertex
100
AcDb2dVertex
 10
9.5085761977
 20
7.0245146888
 30
0.0
  0
VERTEX
  5
2A8
100
AcDbEntity
  8
0
100
AcDbVertex
100
AcDb2dVertex
 10
9.5192497263
 20
7.0179805447
 30
0.0
  0
VERTEX
  5
2A9
100
AcDbEntity
  8
0
100
AcDbVertex
100
AcDb2dVertex
 10
9.5298842867
 20
7.0107254092
 30
0.0
  0
VERTEX
  5
2AA
100
AcDbEntity
  8
0
100
AcDbVertex
100
AcDb2dVertex
 10
9.5404410922
 20
7.0027757154
 30
0.0
  0
VERTEX
  5
2AB
100
AcDbEntity
  8
0
100
AcDbVertex
100
AcDb2dVertex
 10
9.5508816413
 20
6.9941604559
 30
0.0
  0
VERTEX
  5
2AC
100
AcDbEntity
  8
0
100
AcDbVertex
100
AcDb2dVertex
 10
9.5611678213
 20
6.9849111235
 30
0.0
  0
VERTEX
  5
2AD
100
AcDbEntity
  8
0
100
AcDbVertex
100
AcDb2dVertex
 10
9.5712620901
 20
6.9750613967
 30
0.0
  0
VERTEX
  5
2AE
100
AcDbEntity
  8
0
100
AcDbVertex
100
AcDb2dVertex
 10
9.5811276313
 20
6.9646472891
 30
0.0
  0
VERTEX
  5
2AF
100
AcDbEntity
  8
0
100
AcDbVertex
100
AcDb2dVertex
 10
9.5907284324
 20
6.9537067457
 30
0.0
  0
VERTEX
  5
2B0
100
AcDbEntity
  8
0
100
AcDbVertex
100
AcDb2dVertex
 10
9.6000294661
 20
6.9422797174
 30
0.0
  0
VERTEX
  5
2B1
100
AcDbEntity
  8
0
100
AcDbVertex
100
AcDb2dVertex
 10
9.60899682
 20
6.9304078469
 30
0.0
  0
VERTEX
  5
2B2
100
AcDbEntity
  8
0
100
AcDbVertex
100
AcDb2dVertex
 10
9.6175977224
 20
6.9181345434
 30
0.0
  0
VERTEX
  5
2B3
100
AcDbEntity
  8
0
100
AcDbVertex
100
AcDb2dVertex
 10
9.6258008276
 20
6.9055045185
 30
0.0
  0
VERTEX
  5
2B4
100
AcDbEntity
  8
0
100
AcDbVertex
100
AcDb2dVertex
 10
9.633576216
 20
6.8925638762
 30
0.0
  0
VERTEX
  5
2B5
100
AcDbEntity
  8
0
100
AcDbVertex
100
AcDb2dVertex
 10
9.6408954715
 20
6.8793598584
 30
0.0
  0
VERTEX
  5
2B6
100
AcDbEntity
  8
0
100
AcDbVertex
100
AcDb2dVertex
 10
9.6477318894
 20
6.8659406352
 30
0.0
  0
VERTEX
  5
2B7
100
AcDbEntity
  8
0
100
AcDbVertex
100
AcDb2dVertex
 10
9.6540605799
 20
6.8523551254
 30
0.0
  0
VERTEX
  5
2B8
100
AcDbEntity
  8
0
100
AcDbVertex
100
AcDb2dVertex
 10
9.6598583902
 20
6.8386529814
 30
0.0
  0
VERTEX
  5
2B9
100
AcDbEntity
  8
0
100
AcDbVertex
100
AcDb2dVertex
 10
9.6651041898
 20
6.8248841253
 30
0.0
  0
VERTEX
  5
2BA
100
AcDbEntity
  8
0
100
AcDbVertex
100
AcDb2dVertex
 10
9.6697788447
 20
6.8110988538
 30
0.0
  0
VERTEX
  5
2BB
100
AcDbEntity
  8
0
100
AcDbVertex
100
AcDb2dVertex
 10
9.6738652949
 20
6.7973474634
 30
0.0
  0
VERTEX
  5
2BC
100
AcDbEntity
  8
0
100
AcDbVertex
100
AcDb2dVertex
 10
9.6773486064
 20
6.7836800715
 30
0.0
  0
VERTEX
  5
2BD
100
AcDbEntity
  8
0
100
AcDbVertex
100
AcDb2dVertex
 10
9.6802161011
 20
6.770146631
 30
0.0
  0
VERTEX
  5
2BE
100
AcDbEntity
  8
0
100
AcDbVertex
100
AcDb2dVertex
 10
9.6824572784
 20
6.7567964362
 30
0.0
  0
VERTEX
  5
2BF
100
AcDbEntity
  8
0
100
AcDbVertex
100
AcDb2dVertex
 10
9.6840639974
 20
6.7436783177
 30
0.0
  0
VERTEX
  5
2C0
100
AcDbEntity
  8
0
100
AcDbVertex
100
AcDb2dVertex
 10
9.6850303725
 20
6.7308400433
 30
0.0
  0
VERTEX
  5
2C1
100
AcDbEntity
  8
0
100
AcDbVertex
100
AcDb2dVertex
 10
9.6853529038
 20
6.7183284231
 30
0.0
  0
VERTEX
  5
2C2
100
AcDbEntity
  8
0
100
AcDbVertex
100
AcDb2dVertex
 10
9.6850303725
 20
6.7061892495
 30
0.0
  0
VERTEX
  5
2C3
100
AcDbEntity
  8
0
100
AcDbVertex
100
AcDb2dVertex
 10
9.6840639974
 20
6.6944667281
 30
0.0
  0
VERTEX
  5
2C4
100
AcDbEntity
  8
0
100
AcDbVertex
100
AcDb2dVertex
 10
9.6824572784
 20
6.6832036878
 30
0.0
  0
VERTEX
  5
2C5
100
AcDbEntity
  8
0
100
AcDbVertex
100
AcDb2dVertex
 10
9.6802161011
 20
6.6724411013
 30
0.0
  0
VERTEX
  5
2C6
100
AcDbEntity
  8
0
100
AcDbVertex
100
AcDb2dVertex
 10
9.6773486064
 20
6.6622183997
 30
0.0
  0
VERTEX
  5
2C7
100
AcDbEntity
  8
0
100
AcDbVertex
100
AcDb2dVertex
 10
9.6738652949
 20
6.6525727537
 30
0.0
  0
VERTEX
  5
2C8
100
AcDbEntity
  8
0
100
AcDbVertex
100
AcDb2dVertex
 10
9.6697788447
 20
6.6435394783
 30
0.0
  0
VERTEX
  5
2C9
100
AcDbEntity
  8
0
100
AcDbVertex
100
AcDb2dVertex
 10
9.6651041898
 20
6.6351514483
 30
0.0
  0
VERTEX
  5
2CA
100
AcDbEntity
  8
0
100
AcDbVertex
100
AcDb2dVertex
 10
9.6598583902
 20
6.6274392336
 30
0.0
  0
VERTEX
  5
2CB
100
AcDbEntity
  8
0
100
AcDbVertex
100
AcDb2dVertex
 10
9.6540605799
 20
6.6204311288
 30
0.0
  0
VERTEX
  5
2CC
100
AcDbEntity
  8
0
100
AcDbVertex
100
AcDb2dVertex
 10
9.6477318894
 20
6.6141525995
 30
0.0
  0
VERTEX
  5
2CD
100
AcDbEntity
  8
0
100
AcDbVertex
100
AcDb2dVertex
 10
9.6408954715
 20
6.6086265065
 30
0.0
  0
VERTEX
  5
2CE
100
AcDbEntity
  8
0
100
AcDbVertex
100
AcDb2dVertex
 10
9.633576216
 20
6.6038730913
 30
0.0
  0
VERTEX
  5
2CF
100
AcDbEntity
  8
0
100
AcDbVertex
100
AcDb2dVertex
 10
9.6335660526
 20
6.6038672222
 30
0.0
  0
SEQEND
  5
2D0
100
AcDbEntity
  8
0
  0
POLYLINE
  5
2D1
100
AcDbEntity
  8
0
  6
CONTINUOUS
 62
         7
100
AcDb2dPolyline
 66
         1
 10
0.0
 20
0.0
 30
0.0
 70
       128
  0
VERTEX
  5
2D2
100
AcDbEntity
  8
0
100
AcDbVertex
100
AcDb2dVertex
 10
9.8021532749
 20
7.2762522406
 30
0.0
  0
VERTEX
  5
2D3
100
AcDbEntity
  8
0
100
AcDbVertex
100
AcDb2dVertex
 10
9.8030924397
 20
7.2767862769
 30
0.0
  0
VERTEX
  5
2D4
100
AcDbEntity
  8
0
100
AcDbVertex
100
AcDb2dVertex
 10
9.8109392698
 20
7.280651759
 30
0.0
  0
VERTEX
  5
2D5
100
AcDbEntity
  8
0
100
AcDbVertex
100
AcDb2dVertex
 10
9.8192147371
 20
7.2837017522
 30
0.0
  0
VERTEX
  5
2D6
100
AcDbEntity
  8
0
100
AcDbVertex
100
AcDb2dVertex
 10
9.8278880275
 20
7.2859249739
 30
0.0
  0
VERTEX
  5
2D7
100
AcDbEntity
  8
0
100
AcDbVertex
100
AcDb2dVertex
 10
9.8369269009
 20
7.2873130905
 30
0.0
  0
VERTEX
  5
2D8
100
AcDbEntity
  8
0
100
AcDbVertex
100
AcDb2dVertex
 10
9.846297717
 20
7.2878609716
 30
0.0
  0
VERTEX
  5
2D9
100
AcDbEntity
  8
0
100
AcDbVertex
100
AcDb2dVertex
 10
9.8559656171
 20
7.2875665557
 30
0.0
  0
VERTEX
  5
2DA
100
AcDbEntity
  8
0
100
AcDbVertex
100
AcDb2dVertex
 10
9.8658946534
 20
7.2864309547
 30
0.0
  0
VERTEX
  5
2DB
100
AcDbEntity
  8
0
100
AcDbVertex
100
AcDb2dVertex
 10
9.8760478671
 20
7.2844584089
 30
0.0
  0
VERTEX
  5
2DC
100
AcDbEntity
  8
0
100
AcDbVertex
100
AcDb2dVertex
 10
9.8863875084
 20
7.28165622
 30
0.0
  0
VERTEX
  5
2DD
100
AcDbEntity
  8
0
100
AcDbVertex
100
AcDb2dVertex
 10
9.896875089
 20
7.2780348409
 30
0.0
  0
VERTEX
  5
2DE
100
AcDbEntity
  8
0
100
AcDbVertex
100
AcDb2dVertex
 10
9.9074716276
 20
7.2736077332
 30
0.0
  0
VERTEX
  5
2DF
100
AcDbEntity
  8
0
100
AcDbVertex
100
AcDb2dVertex
 10
9.9181376633
 20
7.2683913598
 30
0.0
  0
VERTEX
  5
2E0
100
AcDbEntity
  8
0
100
AcDbVertex
100
AcDb2dVertex
 10
9.928833541
 20
7.2624051403
 30
0.0
  0
VERTEX
  5
2E1
100
AcDbEntity
  8
0
100
AcDbVertex
100
AcDb2dVertex
 10
9.9395194627
 20
7.2556713309
 30
0.0
  0
VERTEX
  5
2E2
100
AcDbEntity
  8
0
100
AcDbVertex
100
AcDb2dVertex
 10
9.9501557084
 20
7.2482149873
 30
0.0
  0
VERTEX
  5
2E3
100
AcDbEntity
  8
0
100
AcDbVertex
100
AcDb2dVertex
 10
9.9607026617
 20
7.2400638297
 30
0.0
  0
VERTEX
  5
2E4
100
AcDbEntity
  8
0
100
AcDbVertex
100
AcDb2dVertex
 10
9.971121121
 20
7.2312482132
 30
0.0
  0
VERTEX
  5
2E5
100
AcDbEntity
  8
0
100
AcDbVertex
100
AcDb2dVertex
 10
9.9813723255
 20
7.2218009027
 30
0.0
  0
VERTEX
  5
2E6
100
AcDbEntity
  8
0
100
AcDbVertex
100
AcDb2dVertex
 10
9.9914181109
 20
7.2117571035
 30
0.0
  0
VERTEX
  5
2E7
100
AcDbEntity
  8
0
100
AcDbVertex
100
AcDb2dVertex
 10
10.0012211422
 20
7.2011540869
 30
0.0
  0
VERTEX
  5
2E8
100
AcDbEntity
  8
0
100
AcDbVertex
100
AcDb2dVertex
 10
10.0107449403
 20
7.1900313545
 30
0.0
  0
VERTEX
  5
2E9
100
AcDbEntity
  8
0
100
AcDbVertex
100
AcDb2dVertex
 10
10.019954063
 20
7.1784302645
 30
0.0
  0
VERTEX
  5
2EA
100
AcDbEntity
  8
0
100
AcDbVertex
100
AcDb2dVertex
 10
10.0288142608
 20
7.1663940012
 30
0.0
  0
VERTEX
  5
2EB
100
AcDbEntity
  8
0
100
AcDbVertex
100
AcDb2dVertex
 10
10.0372925806
 20
7.1539673062
 30
0.0
  0
VERTEX
  5
2EC
100
AcDbEntity
  8
0
100
AcDbVertex
100
AcDb2dVertex
 10
10.0453574692
 20
7.141196418
 30
0.0
  0
VERTEX
  5
2ED
100
AcDbEntity
  8
0
100
AcDbVertex
100
AcDb2dVertex
 10
10.0529789552
 20
7.1281288478
 30
0.0
  0
VERTEX
  5
2EE
100
AcDbEntity
  8
0
100
AcDbVertex
100
AcDb2dVertex
 10
10.0601286485
 20
7.1148132296
 30
0.0
  0
VERTEX
  5
2EF
100
AcDbEntity
  8
0
100
AcDbVertex
100
AcDb2dVertex
 10
10.066779948
 20
7.101299051
 30
0.0
  0
VERTEX
  5
2F0
100
AcDbEntity
  8
0
100
AcDbVertex
100
AcDb2dVertex
 10
10.0729081454
 20
7.0876366228
 30
0.0
  0
VERTEX
  5
2F1
100
AcDbEntity
  8
0
100
AcDbVertex
100
AcDb2dVertex
 10
10.078490425
 20
7.0738767801
 30
0.0
  0
VERTEX
  5
2F2
100
AcDbEntity
  8
0
100
AcDbVertex
100
AcDb2dVertex
 10
10.0835060192
 20
7.0600706727
 30
0.0
  0
VERTEX
  5
2F3
100
AcDbEntity
  8
0
100
AcDbVertex
100
AcDb2dVertex
 10
10.0879362607
 20
7.0462696749
 30
0.0
  0
VERTEX
  5
2F4
100
AcDbEntity
  8
0
100
AcDbVertex
100
AcDb2dVertex
 10
10.0917646859
 20
7.0325251465
 30
0.0
  0
VERTEX
  5
2F5
100
AcDbEntity
  8
0
100
AcDbVertex
100
AcDb2dVertex
 10
10.0949770608
 20
7.0188881776
 30
0.0
  0
VERTEX
  5
2F6
100
AcDbEntity
  8
0
100
AcDbVertex
100
AcDb2dVertex
 10
10.0975614072
 20
7.0054095148
 30
0.0
  0
VERTEX
  5
2F7
100
AcDbEntity
  8
0
100
AcDbVertex
100
AcDb2dVertex
 10
10.0995081322
 20
6.9921393056
 30
0.0
  0
VERTEX
  5
2F8
100
AcDbEntity
  8
0
100
AcDbVertex
100
AcDb2dVertex
 10
10.1008099762
 20
6.9791269496
 30
0.0
  0
VERTEX
  5
2F9
100
AcDbEntity
  8
0
100
AcDbVertex
100
AcDb2dVertex
 10
10.1014621167
 20
6.9664207987
 30
0.0
  0
VERTEX
  5
2FA
100
AcDbEntity
  8
0
100
AcDbVertex
100
AcDb2dVertex
 10
10.1014621167
 20
6.9540681868
 30
0.0
  0
VERTEX
  5
2FB
100
AcDbEntity
  8
0
100
AcDbVertex
100
AcDb2dVertex
 10
10.1008099762
 20
6.9421149812
 30
0.0
  0
VERTEX
  5
2FC
100
AcDbEntity
  8
0
100
AcDbVertex
100
AcDb2dVertex
 10
10.0995081322
 20
6.9306057023
 30
0.0
  0
VERTEX
  5
2FD
100
AcDbEntity
  8
0
100
AcDbVertex
100
AcDb2dVertex
 10
10.0975614072
 20
6.919583134
 30
0.0
  0
VERTEX
  5
2FE
100
AcDbEntity
  8
0
100
AcDbVertex
100
AcDb2dVertex
 10
10.0949770608
 20
6.909088294
 30
0.0
  0
VERTEX
  5
2FF
100
AcDbEntity
  8
0
100
AcDbVertex
100
AcDb2dVertex
 10
10.0917646859
 20
6.8991602543
 30
0.0
  0
VERTEX
  5
300
100
AcDbEntity
  8
0
100
AcDbVertex
100
AcDb2dVertex
 10
10.0879362607
 20
6.8898359314
 30
0.0
  0
VERTEX
  5
301
100
AcDbEntity
  8
0
100
AcDbVertex
100
AcDb2dVertex
 10
10.0835060192
 20
6.8811499816
 30
0.0
  0
VERTEX
  5
302
100
AcDbEntity
  8
0
100
AcDbVertex
100
AcDb2dVertex
 10
10.078490425
 20
6.8731347561
 30
0.0
  0
VERTEX
  5
303
100
AcDbEntity
  8
0
100
AcDbVertex
100
AcDb2dVertex
 10
10.0729081454
 20
6.8658200762
 30
0.0
  0
VERTEX
  5
304
100
AcDbEntity
  8
0
100
AcDbVertex
100
AcDb2dVertex
 10
10.066779948
 20
6.8592331141
 30
0.0
  0
VERTEX
  5
305
100
AcDbEntity
  8
0
100
AcDbVertex
100
AcDb2dVertex
 10
10.0601286485
 20
6.8533983624
 30
0.0
  0
VERTEX
  5
306
100
AcDbEntity
  8
0
100
AcDbVertex
100
AcDb2dVertex
 10
10.0529789552
 20
6.8483376044
 30
0.0
  0
VERTEX
  5
307
100
AcDbEntity
  8
0
100
AcDbVertex
100
AcDb2dVertex
 10
10.0501646108
 20
6.8466374513
 30
0.0
  0
SEQEND
  5
308
100
AcDbEntity
  8
0
  0
POLYLINE
  5
309
100
AcDbEntity
  8
0
  6
CONTINUOUS
 62
         7
100
AcDb2dPolyline
 66
         1
 10
0.0
 20
0.0
 30
0.0
 70
       128
  0
VERTEX
  5
30A
100
AcDbEntity
  8
0
100
AcDbVertex
100
AcDb2dVertex
 10
8.1027143093
 20
6.1855739259
 30
0.0
  0
VERTEX
  5
30B
100
AcDbEntity
  8
0
100
AcDbVertex
100
AcDb2dVertex
 10
8.1030421361
 20
6.1969486216
 30
0.0
  0
VERTEX
  5
30C
100
AcDbEntity
  8
0
100
AcDbVertex
100
AcDb2dVertex
 10
8.1040242165
 20
6.2078961047
 30
0.0
  0
VERTEX
  5
30D
100
AcDbEntity
  8
0
100
AcDbVertex
100
AcDb2dVertex
 10
8.1056563439
 20
6.2183694636
 30
0.0
  0
VERTEX
  5
30E
100
AcDbEntity
  8
0
100
AcDbVertex
100
AcDb2dVertex
 10
8.1079315309
 20
6.2283239305
 30
0.0
  0
VERTEX
  5
30F
100
AcDbEntity
  8
0
100
AcDbVertex
100
AcDb2dVertex
 10
8.110840029
 20
6.2377168108
 30
0.0
  0
VERTEX
  5
310
100
AcDbEntity
  8
0
100
AcDbVertex
100
AcDb2dVertex
 10
8.1143693933
 20
6.2465078647
 30
0.0
  0
VERTEX
  5
311
100
AcDbEntity
  8
0
100
AcDbVertex
100
AcDb2dVertex
 10
8.1185045019
 20
6.2546595354
 30
0.0
  0
VERTEX
  5
312
100
AcDbEntity
  8
0
100
AcDbVertex
100
AcDb2dVertex
 10
8.1232276531
 20
6.2621368932
 30
0.0
  0
VERTEX
  5
313
100
AcDbEntity
  8
0
100
AcDbVertex
100
AcDb2dVertex
 10
8.1285186175
 20
6.2689078147
 30
0.0
  0
VERTEX
  5
314
100
AcDbEntity
  8
0
100
AcDbVertex
100
AcDb2dVertex
 10
8.1343547348
 20
6.2749434363
 30
0.0
  0
VERTEX
  5
315
100
AcDbEntity
  8
0
100
AcDbVertex
100
AcDb2dVertex
 10
8.1407110246
 20
6.2802178503
 30
0.0
  0
VERTEX
  5
316
100
AcDbEntity
  8
0
100
AcDbVertex
100
AcDb2dVertex
 10
8.1475602634
 20
6.2847085099
 30
0.0
  0
VERTEX
  5
317
100
AcDbEntity
  8
0
100
AcDbVertex
100
AcDb2dVertex
 10
8.1548731279
 20
6.2883961163
 30
0.0
  0
VERTEX
  5
318
100
AcDbEntity
  8
0
100
AcDbVertex
100
AcDb2dVertex
 10
8.1626182854
 20
6.2912649558
 30
0.0
  0
VERTEX
  5
319
100
AcDbEntity
  8
0
100
AcDbVertex
100
AcDb2dVertex
 10
8.1707625883
 20
6.2933026678
 30
0.0
  0
VERTEX
  5
31A
100
AcDbEntity
  8
0
100
AcDbVertex
100
AcDb2dVertex
 10
8.1792711389
 20
6.2945005964
 30
0.0
  0
VERTEX
  5
31B
100
AcDbEntity
  8
0
100
AcDbVertex
100
AcDb2dVertex
 10
8.1881075358
 20
6.2948535888
 30
0.0
  0
VERTEX
  5
31C
100
AcDbEntity
  8
0
100
AcDbVertex
100
AcDb2dVertex
 10
8.1972339126
 20
6.2943601218
 30
0.0
  0
VERTEX
  5
31D
100
AcDbEntity
  8
0
100
AcDbVertex
100
AcDb2dVertex
 10
8.2066112105
 20
6.2930222951
 30
0.0
  0
VERTEX
  5
31E
100
AcDbEntity
  8
0
100
AcDbVertex
100
AcDb2dVertex
 10
8.2161992426
 20
6.2908458533
 30
0.0
  0
VERTEX
  5
31F
100
AcDbEntity
  8
0
100
AcDbVertex
100
AcDb2dVertex
 10
8.2259569795
 20
6.2878401411
 30
0.0
  0
VERTEX
  5
320
100
AcDbEntity
  8
0
100
AcDbVertex
100
AcDb2dVertex
 10
8.2358426271
 20
6.2840179987
 30
0.0
  0
VERTEX
  5
321
100
AcDbEntity
  8
0
100
AcDbVertex
100
AcDb2dVertex
 10
8.2458138724
 20
6.279395799
 30
0.0
  0
VERTEX
  5
322
100
AcDbEntity
  8
0
100
AcDbVertex
100
AcDb2dVertex
 10
8.2558279751
 20
6.2739933354
 30
0.0
  0
VERTEX
  5
323
100
AcDbEntity
  8
0
100
AcDbVertex
100
AcDb2dVertex
 10
8.2658421036
 20
6.2678337473
 30
0.0
  0
VERTEX
  5
324
100
AcDbEntity
  8
0
100
AcDbVertex
100
AcDb2dVertex
 10
8.275813323
 20
6.2609434071
 30
0.0
  0
VERTEX
  5
325
100
AcDbEntity
  8
0
100
AcDbVertex
100
AcDb2dVertex
 10
8.2856989836
 20
6.2533518163
 30
0.0
  0
VERTEX
  5
326
100
AcDbEntity
  8
0
100
AcDbVertex
100
AcDb2dVertex
 10
8.2954567205
 20
6.2450914852
 30
0.0
  0
VERTEX
  5
327
100
AcDbEntity
  8
0
100
AcDbVertex
100
AcDb2dVertex
 10
8.3050447656
 20
6.2361978133
 30
0.0
  0
VERTEX
  5
328
100
AcDbEntity
  8
0
100
AcDbVertex
100
AcDb2dVertex
 10
8.3144220504
 20
6.2267088498
 30
0.0
  0
VERTEX
  5
329
100
AcDbEntity
  8
0
100
AcDbVertex
100
AcDb2dVertex
 10
8.3235484402
 20
6.2166652189
 30
0.0
  0
VERTEX
  5
32A
100
AcDbEntity
  8
0
100
AcDbVertex
100
AcDb2dVertex
 10
8.3323848112
 20
6.2061099549
 30
0.0
  0
VERTEX
  5
32B
100
AcDbEntity
  8
0
100
AcDbVertex
100
AcDb2dVertex
 10
8.3408933877
 20
6.1950882478
 30
0.0
  0
VERTEX
  5
32C
100
AcDbEntity
  8
0
100
AcDbVertex
100
AcDb2dVertex
 10
8.3490376906
 20
6.1836473239
 30
0.0
  0
VERTEX
  5
32D
100
AcDbEntity
  8
0
100
AcDbVertex
100
AcDb2dVertex
 10
8.3567828481
 20
6.1718361159
 30
0.0
  0
VERTEX
  5
32E
100
AcDbEntity
  8
0
100
AcDbVertex
100
AcDb2dVertex
 10
8.3640956997
 20
6.1597052633
 30
0.0
  0
VERTEX
  5
32F
100
AcDbEntity
  8
0
100
AcDbVertex
100
AcDb2dVertex
 10
8.3709449256
 20
6.1473066484
 30
0.0
  0
VERTEX
  5
330
100
AcDbEntity
  8
0
100
AcDbVertex
100
AcDb2dVertex
 10
8.3773012283
 20
6.1346934109
 30
0.0
  0
VERTEX
  5
331
100
AcDbEntity
  8
0
100
AcDbVertex
100
AcDb2dVertex
 10
8.3831373586
 20
6.1219195442
 30
0.0
  0
VERTEX
  5
332
100
AcDbEntity
  8
0
100
AcDbVertex
100
AcDb2dVertex
 10
8.388428323
 20
6.1090398052
 30
0.0
  0
VERTEX
  5
333
100
AcDbEntity
  8
0
100
AcDbVertex
100
AcDb2dVertex
 10
8.3931514612
 20
6.0961092207
 30
0.0
  0
VERTEX
  5
334
100
AcDbEntity
  8
0
100
AcDbVertex
100
AcDb2dVertex
 10
8.3972865762
 20
6.0831832515
 30
0.0
  0
VERTEX
  5
335
100
AcDbEntity
  8
0
100
AcDbVertex
100
AcDb2dVertex
 10
8.400815934
 20
6.070317284
 30
0.0
  0
VERTEX
  5
336
100
AcDbEntity
  8
0
100
AcDbVertex
100
AcDb2dVertex
 10
8.4037244451
 20
6.0575663158
 30
0.0
  0
VERTEX
  5
337
100
AcDbEntity
  8
0
100
AcDbVertex
100
AcDb2dVertex
 10
8.4059996127
 20
6.0449849851
 30
0.0
  0
VERTEX
  5
338
100
AcDbEntity
  8
0
100
AcDbVertex
100
AcDb2dVertex
 10
8.4076317401
 20
6.0326272121
 30
0.0
  0
VERTEX
  5
339
100
AcDbEntity
  8
0
100
AcDbVertex
100
AcDb2dVertex
 10
8.408613827
 20
6.0205458393
 30
0.0
  0
VERTEX
  5
33A
100
AcDbEntity
  8
0
100
AcDbVertex
100
AcDb2dVertex
 10
8.4089416473
 20
6.0087926466
 30
0.0
  0
VERTEX
  5
33B
100
AcDbEntity
  8
0
100
AcDbVertex
100
AcDb2dVertex
 10
8.408613827
 20
5.9974180071
 30
0.0
  0
VERTEX
  5
33C
100
AcDbEntity
  8
0
100
AcDbVertex
100
AcDb2dVertex
 10
8.4076317401
 20
5.9864705277
 30
0.0
  0
VERTEX
  5
33D
100
AcDbEntity
  8
0
100
AcDbVertex
100
AcDb2dVertex
 10
8.4059996127
 20
5.9759971688
 30
0.0
  0
VERTEX
  5
33E
100
AcDbEntity
  8
0
100
AcDbVertex
100
AcDb2dVertex
 10
8.4037244451
 20
5.9660426907
 30
0.0
  0
VERTEX
  5
33F
100
AcDbEntity
  8
0
100
AcDbVertex
100
AcDb2dVertex
 10
8.400815934
 20
5.9566498179
 30
0.0
  0
VERTEX
  5
340
100
AcDbEntity
  8
0
100
AcDbVertex
100
AcDb2dVertex
 10
8.3972865762
 20
5.9478587602
 30
0.0
  0
VERTEX
  5
341
100
AcDbEntity
  8
0
100
AcDbVertex
100
AcDb2dVertex
 10
8.3931514612
 20
5.9397070932
 30
0.0
  0
VERTEX
  5
342
100
AcDbEntity
  8
0
100
AcDbVertex
100
AcDb2dVertex
 10
8.388428323
 20
5.932229728
 30
0.0
  0
VERTEX
  5
343
100
AcDbEntity
  8
0
100
AcDbVertex
100
AcDb2dVertex
 10
8.3831373586
 20
5.9254587765
 30
0.0
  0
VERTEX
  5
344
100
AcDbEntity
  8
0
100
AcDbVertex
100
AcDb2dVertex
 10
8.3773012283
 20
5.9194231924
 30
0.0
  0
VERTEX
  5
345
100
AcDbEntity
  8
0
100
AcDbVertex
100
AcDb2dVertex
 10
8.3709449256
 20
5.9141487858
 30
0.0
  0
VERTEX
  5
346
100
AcDbEntity
  8
0
100
AcDbVertex
100
AcDb2dVertex
 10
8.3640956997
 20
5.9096581487
 30
0.0
  0
VERTEX
  5
347
100
AcDbEntity
  8
0
100
AcDbVertex
100
AcDb2dVertex
 10
8.3567828481
 20
5.9059704749
 30
0.0
  0
VERTEX
  5
348
100
AcDbEntity
  8
0
100
AcDbVertex
100
AcDb2dVertex
 10
8.3490376906
 20
5.9031016953
 30
0.0
  0
VERTEX
  5
349
100
AcDbEntity
  8
0
100
AcDbVertex
100
AcDb2dVertex
 10
8.3408933877
 20
5.9010639235
 30
0.0
  0
VERTEX
  5
34A
100
AcDbEntity
  8
0
100
AcDbVertex
100
AcDb2dVertex
 10
8.3323848112
 20
5.8998660098
 30
0.0
  0
VERTEX
  5
34B
100
AcDbEntity
  8
0
100
AcDbVertex
100
AcDb2dVertex
 10
8.3235484402
 20
5.8995130624
 30
0.0
  0
VERTEX
  5
34C
100
AcDbEntity
  8
0
100
AcDbVertex
100
AcDb2dVertex
 10
8.3144220504
 20
5.9000065069
 30
0.0
  0
VERTEX
  5
34D
100
AcDbEntity
  8
0
100
AcDbVertex
100
AcDb2dVertex
 10
8.3050447656
 20
5.901344356
 30
0.0
  0
VERTEX
  5
34E
100
AcDbEntity
  8
0
100
AcDbVertex
100
AcDb2dVertex
 10
8.2954567205
 20
5.9035207455
 30
0.0
  0
VERTEX
  5
34F
100
AcDbEntity
  8
0
100
AcDbVertex
100
AcDb2dVertex
 10
8.2856989836
 20
5.9065265175
 30
0.0
  0
VERTEX
  5
350
100
AcDbEntity
  8
0
100
AcDbVertex
100
AcDb2dVertex
 10
8.275813323
 20
5.9103486374
 30
0.0
  0
VERTEX
  5
351
100
AcDbEntity
  8
0
100
AcDbVertex
100
AcDb2dVertex
 10
8.2658421036
 20
5.9149708521
 30
0.0
  0
VERTEX
  5
352
100
AcDbEntity
  8
0
100
AcDbVertex
100
AcDb2dVertex
 10
8.2558279751
 20
5.9203732708
 30
0.0
  0
VERTEX
  5
353
100
AcDbEntity
  8
0
100
AcDbVertex
100
AcDb2dVertex
 10
8.2458138724
 20
5.9265329039
 30
0.0
  0
VERTEX
  5
354
100
AcDbEntity
  8
0
100
AcDbVertex
100
AcDb2dVertex
 10
8.2358426271
 20
5.9334232291
 30
0.0
  0
VERTEX
  5
355
100
AcDbEntity
  8
0
100
AcDbVertex
100
AcDb2dVertex
 10
8.2259569795
 20
5.9410148423
 30
0.0
  0
VERTEX
  5
356
100
AcDbEntity
  8
0
100
AcDbVertex
100
AcDb2dVertex
 10
8.2161992426
 20
5.9492751135
 30
0.0
  0
VERTEX
  5
357
100
AcDbEntity
  8
0
100
AcDbVertex
100
AcDb2dVertex
 10
8.2066112105
 20
5.9581688378
 30
0.0
  0
VERTEX
  5
358
100
AcDbEntity
  8
0
100
AcDbVertex
100
AcDb2dVertex
 10
8.1972339126
 20
5.9676577788
 30
0.0
  0
VERTEX
  5
359
100
AcDbEntity
  8
0
100
AcDbVertex
100
AcDb2dVertex
 10
8.1881075358
 20
5.9777014322
 30
0.0
  0
VERTEX
  5
35A
100
AcDbEntity
  8
0
100
AcDbVertex
100
AcDb2dVertex
 10
8.1792711389
 20
5.9882566513
 30
0.0
  0
VERTEX
  5
35B
100
AcDbEntity
  8
0
100
AcDbVertex
100
AcDb2dVertex
 10
8.1707625883
 20
5.9992783434
 30
0.0
  0
VERTEX
  5
35C
100
AcDbEntity
  8
0
100
AcDbVertex
100
AcDb2dVertex
 10
8.1626182854
 20
6.0107193272
 30
0.0
  0
VERTEX
  5
35D
100
AcDbEntity
  8
0
100
AcDbVertex
100
AcDb2dVertex
 10
8.1548731279
 20
6.0225304754
 30
0.0
  0
VERTEX
  5
35E
100
AcDbEntity
  8
0
100
AcDbVertex
100
AcDb2dVertex
 10
8.1475602634
 20
6.0346613953
 30
0.0
  0
VERTEX
  5
35F
100
AcDbEntity
  8
0
100
AcDbVertex
100
AcDb2dVertex
 10
8.1407110246
 20
6.0470599878
 30
0.0
  0
VERTEX
  5
360
100
AcDbEntity
  8
0
100
AcDbVertex
100
AcDb2dVertex
 10
8.1343547348
 20
6.0596732178
 30
0.0
  0
VERTEX
  5
361
100
AcDbEntity
  8
0
100
AcDbVertex
100
AcDb2dVertex
 10
8.1285186175
 20
6.072447047
 30
0.0
  0
VERTEX
  5
362
100
AcDbEntity
  8
0
100
AcDbVertex
100
AcDb2dVertex
 10
8.1232276531
 20
6.0853268159
 30
0.0
  0
VERTEX
  5
363
100
AcDbEntity
  8
0
100
AcDbVertex
100
AcDb2dVertex
 10
8.1185045019
 20
6.098257408
 30
0.0
  0
VERTEX
  5
364
100
AcDbEntity
  8
0
100
AcDbVertex
100
AcDb2dVertex
 10
8.1143693933
 20
6.1111833735
 30
0.0
  0
VERTEX
  5
365
100
AcDbEntity
  8
0
100
AcDbVertex
100
AcDb2dVertex
 10
8.110840029
 20
6.1240493446
 30
0.0
  0
VERTEX
  5
366
100
AcDbEntity
  8
0
100
AcDbVertex
100
AcDb2dVertex
 10
8.1079315309
 20
6.1368003054
 30
0.0
  0
VERTEX
  5
367
100
AcDbEntity
  8
0
100
AcDbVertex
100
AcDb2dVertex
 10
8.1056563439
 20
6.1493816473
 30
0.0
  0
VERTEX
  5
368
100
AcDbEntity
  8
0
100
AcDbVertex
100
AcDb2dVertex
 10
8.1040242165
 20
6.1617394203
 30
0.0
  0
VERTEX
  5
369
100
AcDbEntity
  8
0
100
AcDbVertex
100
AcDb2dVertex
 10
8.1030421361
 20
6.1738207894
 30
0.0
  0
VERTEX
  5
36A
100
AcDbEntity
  8
0
100
AcDbVertex
100
AcDb2dVertex
 10
8.1027143093
 20
6.1855739259
 30
0.0
  0
SEQEND
  5
36B
100
AcDbEntity
  8
0
  0
POLYLINE
  5
36C
100
AcDbEntity
  8
0
  6
CONTINUOUS
 62
         7
100
AcDb2dPolyline
 66
         1
 10
0.0
 20
0.0
 30
0.0
 70
       128
  0
VERTEX
  5
36D
100
AcDbEntity
  8
0
100
AcDbVertex
100
AcDb2dVertex
 10
8.2310855764
 20
6.3329266335
 30
0.0
  0
VERTEX
  5
36E
100
AcDbEntity
  8
0
100
AcDbVertex
100
AcDb2dVertex
 10
8.2383896387
 20
6.3366091718
 30
0.0
  0
VERTEX
  5
36F
100
AcDbEntity
  8
0
100
AcDbVertex
100
AcDb2dVertex
 10
8.2461347962
 20
6.3394780113
 30
0.0
  0
VERTEX
  5
370
100
AcDbEntity
  8
0
100
AcDbVertex
100
AcDb2dVertex
 10
8.2542790991
 20
6.3415157232
 30
0.0
  0
VERTEX
  5
371
100
AcDbEntity
  8
0
100
AcDbVertex
100
AcDb2dVertex
 10
8.2627876497
 20
6.3427136519
 30
0.0
  0
VERTEX
  5
372
100
AcDbEntity
  8
0
100
AcDbVertex
100
AcDb2dVertex
 10
8.2716240466
 20
6.3430666442
 30
0.0
  0
VERTEX
  5
373
100
AcDbEntity
  8
0
100
AcDbVertex
100
AcDb2dVertex
 10
8.2807504234
 20
6.3425731772
 30
0.0
  0
VERTEX
  5
374
100
AcDbEntity
  8
0
100
AcDbVertex
100
AcDb2dVertex
 10
8.2901277213
 20
6.3412353505
 30
0.0
  0
VERTEX
  5
375
100
AcDbEntity
  8
0
100
AcDbVertex
100
AcDb2dVertex
 10
8.2997157534
 20
6.3390589087
 30
0.0
  0
VERTEX
  5
376
100
AcDbEntity
  8
0
100
AcDbVertex
100
AcDb2dVertex
 10
8.3094734903
 20
6.3360531965
 30
0.0
  0
VERTEX
  5
377
100
AcDbEntity
  8
0
100
AcDbVertex
100
AcDb2dVertex
 10
8.3193591379
 20
6.3322310541
 30
0.0
  0
VERTEX
  5
378
100
AcDbEntity
  8
0
100
AcDbVertex
100
AcDb2dVertex
 10
8.3293303832
 20
6.3276088544
 30
0.0
  0
VERTEX
  5
379
100
AcDbEntity
  8
0
100
AcDbVertex
100
AcDb2dVertex
 10
8.3393444859
 20
6.3222063909
 30
0.0
  0
VERTEX
  5
37A
100
AcDbEntity
  8
0
100
AcDbVertex
100
AcDb2dVertex
 10
8.3493586144
 20
6.3160468027
 30
0.0
  0
VERTEX
  5
37B
100
AcDbEntity
  8
0
100
AcDbVertex
100
AcDb2dVertex
 10
8.3593298338
 20
6.3091564625
 30
0.0
  0
VERTEX
  5
37C
100
AcDbEntity
  8
0
100
AcDbVertex
100
AcDb2dVertex
 10
8.3692154943
 20
6.3015648717
 30
0.0
  0
VERTEX
  5
37D
100
AcDbEntity
  8
0
100
AcDbVertex
100
AcDb2dVertex
 10
8.3789732313
 20
6.2933045406
 30
0.0
  0
VERTEX
  5
37E
100
AcDbEntity
  8
0
100
AcDbVertex
100
AcDb2dVertex
 10
8.3885612763
 20
6.2844108687
 30
0.0
  0
VERTEX
  5
37F
100
AcDbEntity
  8
0
100
AcDbVertex
100
AcDb2dVertex
 10
8.3979385612
 20
6.2749219053
 30
0.0
  0
VERTEX
  5
380
100
AcDbEntity
  8
0
100
AcDbVertex
100
AcDb2dVertex
 10
8.407064951
 20
6.2648782743
 30
0.0
  0
VERTEX
  5
381
100
AcDbEntity
  8
0
100
AcDbVertex
100
AcDb2dVertex
 10
8.415901322
 20
6.2543230103
 30
0.0
  0
VERTEX
  5
382
100
AcDbEntity
  8
0
100
AcDbVertex
100
AcDb2dVertex
 10
8.4244098985
 20
6.2433013033
 30
0.0
  0
VERTEX
  5
383
100
AcDbEntity
  8
0
100
AcDbVertex
100
AcDb2dVertex
 10
8.4325542014
 20
6.2318603793
 30
0.0
  0
VERTEX
  5
384
100
AcDbEntity
  8
0
100
AcDbVertex
100
AcDb2dVertex
 10
8.4402993589
 20
6.2200491713
 30
0.0
  0
VERTEX
  5
385
100
AcDbEntity
  8
0
100
AcDbVertex
100
AcDb2dVertex
 10
8.4476122105
 20
6.2079183188
 30
0.0
  0
VERTEX
  5
386
100
AcDbEntity
  8
0
100
AcDbVertex
100
AcDb2dVertex
 10
8.4544614364
 20
6.1955197038
 30
0.0
  0
VERTEX
  5
387
100
AcDbEntity
  8
0
100
AcDbVertex
100
AcDb2dVertex
 10
8.4608177391
 20
6.1829064663
 30
0.0
  0
VERTEX
  5
388
100
AcDbEntity
  8
0
100
AcDbVertex
100
AcDb2dVertex
 10
8.4666538694
 20
6.1701325996
 30
0.0
  0
VERTEX
  5
389
100
AcDbEntity
  8
0
100
AcDbVertex
100
AcDb2dVertex
 10
8.4719448337
 20
6.1572528607
 30
0.0
  0
VERTEX
  5
38A
100
AcDbEntity
  8
0
100
AcDbVertex
100
AcDb2dVertex
 10
8.476667972
 20
6.1443222761
 30
0.0
  0
VERTEX
  5
38B
100
AcDbEntity
  8
0
100
AcDbVertex
100
AcDb2dVertex
 10
8.480803087
 20
6.1313963069
 30
0.0
  0
VERTEX
  5
38C
100
AcDbEntity
  8
0
100
AcDbVertex
100
AcDb2dVertex
 10
8.4843324448
 20
6.1185303395
 30
0.0
  0
VERTEX
  5
38D
100
AcDbEntity
  8
0
100
AcDbVertex
100
AcDb2dVertex
 10
8.4872409559
 20
6.1057793712
 30
0.0
  0
VERTEX
  5
38E
100
AcDbEntity
  8
0
100
AcDbVertex
100
AcDb2dVertex
 10
8.4895161235
 20
6.0931980405
 30
0.0
  0
VERTEX
  5
38F
100
AcDbEntity
  8
0
100
AcDbVertex
100
AcDb2dVertex
 10
8.4911482509
 20
6.0808402675
 30
0.0
  0
VERTEX
  5
390
100
AcDbEntity
  8
0
100
AcDbVertex
100
AcDb2dVertex
 10
8.4921303378
 20
6.0687588947
 30
0.0
  0
VERTEX
  5
391
100
AcDbEntity
  8
0
100
AcDbVertex
100
AcDb2dVertex
 10
8.4924581581
 20
6.057005702
 30
0.0
  0
VERTEX
  5
392
100
AcDbEntity
  8
0
100
AcDbVertex
100
AcDb2dVertex
 10
8.4921303378
 20
6.0456310625
 30
0.0
  0
VERTEX
  5
393
100
AcDbEntity
  8
0
100
AcDbVertex
100
AcDb2dVertex
 10
8.4911482509
 20
6.0346835831
 30
0.0
  0
VERTEX
  5
394
100
AcDbEntity
  8
0
100
AcDbVertex
100
AcDb2dVertex
 10
8.4895161235
 20
6.0242102243
 30
0.0
  0
VERTEX
  5
395
100
AcDbEntity
  8
0
100
AcDbVertex
100
AcDb2dVertex
 10
8.4872409559
 20
6.0142557461
 30
0.0
  0
VERTEX
  5
396
100
AcDbEntity
  8
0
100
AcDbVertex
100
AcDb2dVertex
 10
8.4843324448
 20
6.0048628733
 30
0.0
  0
VERTEX
  5
397
100
AcDbEntity
  8
0
100
AcDbVertex
100
AcDb2dVertex
 10
8.480803087
 20
5.9960718157
 30
0.0
  0
VERTEX
  5
398
100
AcDbEntity
  8
0
100
AcDbVertex
100
AcDb2dVertex
 10
8.476667972
 20
5.9879201487
 30
0.0
  0
VERTEX
  5
399
100
AcDbEntity
  8
0
100
AcDbVertex
100
AcDb2dVertex
 10
8.4719448337
 20
5.9804427834
 30
0.0
  0
VERTEX
  5
39A
100
AcDbEntity
  8
0
100
AcDbVertex
100
AcDb2dVertex
 10
8.4666538694
 20
5.973671832
 30
0.0
  0
VERTEX
  5
39B
100
AcDbEntity
  8
0
100
AcDbVertex
100
AcDb2dVertex
 10
8.4608177391
 20
5.9676362478
 30
0.0
  0
VERTEX
  5
39C
100
AcDbEntity
  8
0
100
AcDbVertex
100
AcDb2dVertex
 10
8.4544614364
 20
5.9623618413
 30
0.0
  0
VERTEX
  5
39D
100
AcDbEntity
  8
0
100
AcDbVertex
100
AcDb2dVertex
 10
8.4476122105
 20
5.9578712041
 30
0.0
  0
VERTEX
  5
39E
100
AcDbEntity
  8
0
100
AcDbVertex
100
AcDb2dVertex
 10
8.4476034213
 20
5.9578660986
 30
0.0
  0
SEQEND
  5
39F
100
AcDbEntity
  8
0
  0
POLYLINE
  5
3A0
100
AcDbEntity
  8
0
  6
CONTINUOUS
 62
         7
100
AcDb2dPolyline
 66
         1
 10
0.0
 20
0.0
 30
0.0
 70
       128
  0
VERTEX
  5
3A1
100
AcDbEntity
  8
0
100
AcDbVertex
100
AcDb2dVertex
 10
9.5250243158
 20
7.4479750886
 30
0.0
  0
VERTEX
  5
3A2
100
AcDbEntity
  8
0
100
AcDbVertex
100
AcDb2dVertex
 10
9.5316172084
 20
7.4510958212
 30
0.0
  0
VERTEX
  5
3A3
100
AcDbEntity
  8
0
100
AcDbVertex
100
AcDb2dVertex
 10
9.538755928
 20
7.45378676
 30
0.0
  0
VERTEX
  5
3A4
100
AcDbEntity
  8
0
100
AcDbVertex
100
AcDb2dVertex
 10
9.5463567826
 20
7.456016354
 30
0.0
  0
VERTEX
  5
3A5
100
AcDbEntity
  8
0
100
AcDbVertex
100
AcDb2dVertex
 10
9.5543306547
 20
7.4577584665
 30
0.0
  0
VERTEX
  5
3A6
100
AcDbEntity
  8
0
100
AcDbVertex
100
AcDb2dVertex
 10
9.5625840582
 20
7.4589926708
 30
0.0
  0
VERTEX
  5
3A7
100
AcDbEntity
  8
0
100
AcDbVertex
100
AcDb2dVertex
 10
9.5710202273
 20
7.4597045048
 30
0.0
  0
VERTEX
  5
3A8
100
AcDbEntity
  8
0
100
AcDbVertex
100
AcDb2dVertex
 10
9.5795402765
 20
7.4598856017
 30
0.0
  0
VERTEX
  5
3A9
100
AcDbEntity
  8
0
100
AcDbVertex
100
AcDb2dVertex
 10
9.5880442834
 20
7.4595338662
 30
0.0
  0
VERTEX
  5
3AA
100
AcDbEntity
  8
0
100
AcDbVertex
100
AcDb2dVertex
 10
9.5964325654
 20
7.458653403
 30
0.0
  0
VERTEX
  5
3AB
100
AcDbEntity
  8
0
100
AcDbVertex
100
AcDb2dVertex
 10
9.604606788
 20
7.4572545284
 30
0.0
  0
VERTEX
  5
3AC
100
AcDbEntity
  8
0
100
AcDbVertex
100
AcDb2dVertex
 10
9.6124710863
 20
7.4553536689
 30
0.0
  0
VERTEX
  5
3AD
100
AcDbEntity
  8
0
100
AcDbVertex
100
AcDb2dVertex
 10
9.6199332771
 20
7.4529730884
 30
0.0
  0
VERTEX
  5
3AE
100
AcDbEntity
  8
0
100
AcDbVertex
100
AcDb2dVertex
 10
9.6269058698
 20
7.4501407085
 30
0.0
  0
VERTEX
  5
3AF
100
AcDbEntity
  8
0
100
AcDbVertex
100
AcDb2dVertex
 10
9.6333071364
 20
7.4468897229
 30
0.0
  0
VERTEX
  5
3B0
100
AcDbEntity
  8
0
100
AcDbVertex
100
AcDb2dVertex
 10
9.6390619922
 20
7.4432582683
 30
0.0
  0
VERTEX
  5
3B1
100
AcDbEntity
  8
0
100
AcDbVertex
100
AcDb2dVertex
 10
9.6441029689
 20
7.439288908
 30
0.0
  0
VERTEX
  5
3B2
100
AcDbEntity
  8
0
100
AcDbVertex
100
AcDb2dVertex
 10
9.6483710179
 20
7.4350281678
 30
0.0
  0
VERTEX
  5
3B3
100
AcDbEntity
  8
0
100
AcDbVertex
100
AcDb2dVertex
 10
9.6518160224
 20
7.4305260237
 30
0.0
  0
VERTEX
  5
3B4
100
AcDbEntity
  8
0
100
AcDbVertex
100
AcDb2dVertex
 10
9.6543976659
 20
7.4258352353
 30
0.0
  0
VERTEX
  5
3B5
100
AcDbEntity
  8
0
100
AcDbVertex
100
AcDb2dVertex
 10
9.6560856464
 20
7.4210108114
 30
0.0
  0
VERTEX
  5
3B6
100
AcDbEntity
  8
0
100
AcDbVertex
100
AcDb2dVertex
 10
9.6568601492
 20
7.4161093244
 30
0.0
  0
VERTEX
  5
3B7
100
AcDbEntity
  8
0
100
AcDbVertex
100
AcDb2dVertex
 10
9.6567121452
 20
7.4111882154
 30
0.0
  0
VERTEX
  5
3B8
100
AcDbEntity
  8
0
100
AcDbVertex
100
AcDb2dVertex
 10
9.6556433456
 20
7.4063051981
 30
0.0
  0
VERTEX
  5
3B9
100
AcDbEntity
  8
0
100
AcDbVertex
100
AcDb2dVertex
 10
9.6536662667
 20
7.4015175189
 30
0.0
  0
VERTEX
  5
3BA
100
AcDbEntity
  8
0
100
AcDbVertex
100
AcDb2dVertex
 10
9.6508041195
 20
7.3968812938
 30
0.0
  0
VERTEX
  5
3BB
100
AcDbEntity
  8
0
100
AcDbVertex
100
AcDb2dVertex
 10
9.6470904275
 20
7.3924508992
 30
0.0
  0
VERTEX
  5
3BC
100
AcDbEntity
  8
0
100
AcDbVertex
100
AcDb2dVertex
 10
9.6425687449
 20
7.3882782698
 30
0.0
  0
VERTEX
  5
3BD
100
AcDbEntity
  8
0
100
AcDbVertex
100
AcDb2dVertex
 10
9.6372921084
 20
7.384412313
 30
0.0
  0
VERTEX
  5
3BE
100
AcDbEntity
  8
0
100
AcDbVertex
100
AcDb2dVertex
 10
9.6313223263
 20
7.3808983789
 30
0.0
  0
VERTEX
  5
3BF
100
AcDbEntity
  8
0
100
AcDbVertex
100
AcDb2dVertex
 10
9.6247294337
 20
7.3777776463
 30
0.0
  0
VERTEX
  5
3C0
100
AcDbEntity
  8
0
100
AcDbVertex
100
AcDb2dVertex
 10
9.6175907148
 20
7.3750867079
 30
0.0
  0
VERTEX
  5
3C1
100
AcDbEntity
  8
0
100
AcDbVertex
100
AcDb2dVertex
 10
9.6099898854
 20
7.3728570985
 30
0.0
  0
VERTEX
  5
3C2
100
AcDbEntity
  8
0
100
AcDbVertex
100
AcDb2dVertex
 10
9.6020160003
 20
7.3711149935
 30
0.0
  0
VERTEX
  5
3C3
100
AcDbEntity
  8
0
100
AcDbVertex
100
AcDb2dVertex
 10
9.5937626079
 20
7.3698807807
 30
0.0
  0
VERTEX
  5
3C4
100
AcDbEntity
  8
0
100
AcDbVertex
100
AcDb2dVertex
 10
9.5853264286
 20
7.3691689557
 30
0.0
  0
VERTEX
  5
3C5
100
AcDbEntity
  8
0
100
AcDbVertex
100
AcDb2dVertex
 10
9.5768063785
 20
7.3689878582
 30
0.0
  0
VERTEX
  5
3C6
100
AcDbEntity
  8
0
100
AcDbVertex
100
AcDb2dVertex
 10
9.5683023619
 20
7.3693396031
 30
0.0
  0
VERTEX
  5
3C7
100
AcDbEntity
  8
0
100
AcDbVertex
100
AcDb2dVertex
 10
9.5599140929
 20
7.3702200588
 30
0.0
  0
VERTEX
  5
3C8
100
AcDbEntity
  8
0
100
AcDbVertex
100
AcDb2dVertex
 10
9.55173988
 20
7.3716189241
 30
0.0
  0
VERTEX
  5
3C9
100
AcDbEntity
  8
0
100
AcDbVertex
100
AcDb2dVertex
 10
9.5438755833
 20
7.3735197845
 30
0.0
  0
VERTEX
  5
3CA
100
AcDbEntity
  8
0
100
AcDbVertex
100
AcDb2dVertex
 10
9.5364133893
 20
7.3759003631
 30
0.0
  0
VERTEX
  5
3CB
100
AcDbEntity
  8
0
100
AcDbVertex
100
AcDb2dVertex
 10
9.5294407706
 20
7.378732758
 30
0.0
  0
VERTEX
  5
3CC
100
AcDbEntity
  8
0
100
AcDbVertex
100
AcDb2dVertex
 10
9.52303953
 20
7.3819837286
 30
0.0
  0
VERTEX
  5
3CD
100
AcDbEntity
  8
0
100
AcDbVertex
100
AcDb2dVertex
 10
9.5172846774
 20
7.3856151851
 30
0.0
  0
VERTEX
  5
3CE
100
AcDbEntity
  8
0
100
AcDbVertex
100
AcDb2dVertex
 10
9.5122436716
 20
7.3895845585
 30
0.0
  0
VERTEX
  5
3CF
100
AcDbEntity
  8
0
100
AcDbVertex
100
AcDb2dVertex
 10
9.5079756533
 20
7.3938452865
 30
0.0
  0
VERTEX
  5
3D0
100
AcDbEntity
  8
0
100
AcDbVertex
100
AcDb2dVertex
 10
9.5045306181
 20
7.3983474428
 30
0.0
  0
VERTEX
  5
3D1
100
AcDbEntity
  8
0
100
AcDbVertex
100
AcDb2dVertex
 10
9.5019489875
 20
7.4030382237
 30
0.0
  0
VERTEX
  5
3D2
100
AcDbEntity
  8
0
100
AcDbVertex
100
AcDb2dVertex
 10
9.5002610086
 20
7.4078626486
 30
0.0
  0
VERTEX
  5
3D3
100
AcDbEntity
  8
0
100
AcDbVertex
100
AcDb2dVertex
 10
9.4994864912
 20
7.4127641421
 30
0.0
  0
VERTEX
  5
3D4
100
AcDbEntity
  8
0
100
AcDbVertex
100
AcDb2dVertex
 10
9.4996345074
 20
7.4176852432
 30
0.0
  0
VERTEX
  5
3D5
100
AcDbEntity
  8
0
100
AcDbVertex
100
AcDb2dVertex
 10
9.5007033114
 20
7.422568263
 30
0.0
  0
VERTEX
  5
3D6
100
AcDbEntity
  8
0
100
AcDbVertex
100
AcDb2dVertex
 10
9.5026803778
 20
7.42735595
 30
0.0
  0
VERTEX
  5
3D7
100
AcDbEntity
  8
0
100
AcDbVertex
100
AcDb2dVertex
 10
9.5055425368
 20
7.4319921668
 30
0.0
  0
VERTEX
  5
3D8
100
AcDbEntity
  8
0
100
AcDbVertex
100
AcDb2dVertex
 10
9.5092562275
 20
7.4364225607
 30
0.0
  0
VERTEX
  5
3D9
100
AcDbEntity
  8
0
100
AcDbVertex
100
AcDb2dVertex
 10
9.5137778971
 20
7.4405951977
 30
0.0
  0
VERTEX
  5
3DA
100
AcDbEntity
  8
0
100
AcDbVertex
100
AcDb2dVertex
 10
9.5190545482
 20
7.4444611479
 30
0.0
  0
VERTEX
  5
3DB
100
AcDbEntity
  8
0
100
AcDbVertex
100
AcDb2dVertex
 10
9.5250243158
 20
7.4479750886
 30
0.0
  0
SEQEND
  5
3DC
100
AcDbEntity
  8
0
  0
POLYLINE
  5
3DD
100
AcDbEntity
  8
0
  6
CONTINUOUS
 62
         7
100
AcDb2dPolyline
 66
         1
 10
0.0
 20
0.0
 30
0.0
 70
       128
  0
VERTEX
  5
3DE
100
AcDbEntity
  8
0
100
AcDbVertex
100
AcDb2dVertex
 10
9.5462839247
 20
7.4345597416
 30
0.0
  0
VERTEX
  5
3DF
100
AcDbEntity
  8
0
100
AcDbVertex
100
AcDb2dVertex
 10
9.5417429962
 20
7.4318018175
 30
0.0
  0
VERTEX
  5
3E0
100
AcDbEntity
  8
0
100
AcDbVertex
100
AcDb2dVertex
 10
9.5379111422
 20
7.4287059007
 30
0.0
  0
VERTEX
  5
3E1
100
AcDbEntity
  8
0
100
AcDbVertex
100
AcDb2dVertex
 10
9.5348629383
 20
7.4253322552
 30
0.0
  0
VERTEX
  5
3E2
100
AcDbEntity
  8
0
100
AcDbVertex
100
AcDb2dVertex
 10
9.5326577257
 20
7.4217465393
 30
0.0
  0
VERTEX
  5
3E3
100
AcDbEntity
  8
0
100
AcDbVertex
100
AcDb2dVertex
 10
9.5313384313
 20
7.4180185408
 30
0.0
  0
VERTEX
  5
3E4
100
AcDbEntity
  8
0
100
AcDbVertex
100
AcDb2dVertex
 10
9.530930715
 20
7.4142208319
 30
0.0
  0
VERTEX
  5
3E5
100
AcDbEntity
  8
0
100
AcDbVertex
100
AcDb2dVertex
 10
9.531442533
 20
7.4104273191
 30
0.0
  0
VERTEX
  5
3E6
100
AcDbEntity
  8
0
100
AcDbVertex
100
AcDb2dVertex
 10
9.5328638898
 20
7.4067118582
 30
0.0
  0
VERTEX
  5
3E7
100
AcDbEntity
  8
0
100
AcDbVertex
100
AcDb2dVertex
 10
9.5351671556
 20
7.4031467462
 30
0.0
  0
VERTEX
  5
3E8
100
AcDbEntity
  8
0
100
AcDbVertex
100
AcDb2dVertex
 10
9.5383074903
 20
7.3998013791
 30
0.0
  0
VERTEX
  5
3E9
100
AcDbEntity
  8
0
100
AcDbVertex
100
AcDb2dVertex
 10
9.5422237697
 20
7.3967408717
 30
0.0
  0
VERTEX
  5
3EA
100
AcDbEntity
  8
0
100
AcDbVertex
100
AcDb2dVertex
 10
9.5468397677
 20
7.3940247932
 30
0.0
  0
VERTEX
  5
3EB
100
AcDbEntity
  8
0
100
AcDbVertex
100
AcDb2dVertex
 10
9.5520656311
 20
7.3917060137
 30
0.0
  0
VERTEX
  5
3EC
100
AcDbEntity
  8
0
100
AcDbVertex
100
AcDb2dVertex
 10
9.5577996777
 20
7.3898296466
 30
0.0
  0
VERTEX
  5
3ED
100
AcDbEntity
  8
0
100
AcDbVertex
100
AcDb2dVertex
 10
9.5639302322
 20
7.3884322524
 30
0.0
  0
VERTEX
  5
3EE
100
AcDbEntity
  8
0
100
AcDbVertex
100
AcDb2dVertex
 10
9.5703380424
 20
7.3875409886
 30
0.0
  0
VERTEX
  5
3EF
100
AcDbEntity
  8
0
100
AcDbVertex
100
AcDb2dVertex
 10
9.5768983548
 20
7.3871732214
 30
0.0
  0
VERTEX
  5
3F0
100
AcDbEntity
  8
0
100
AcDbVertex
100
AcDb2dVertex
 10
9.5834834697
 20
7.3873361146
 30
0.0
  0
VERTEX
  5
3F1
100
AcDbEntity
  8
0
100
AcDbVertex
100
AcDb2dVertex
 10
9.5899652394
 20
7.3880264855
 30
0.0
  0
VERTEX
  5
3F2
100
AcDbEntity
  8
0
100
AcDbVertex
100
AcDb2dVertex
 10
9.5962174786
 20
7.3892309091
 30
0.0
  0
VERTEX
  5
3F3
100
AcDbEntity
  8
0
100
AcDbVertex
100
AcDb2dVertex
 10
9.6021185138
 20
7.3909259325
 30
0.0
  0
VERTEX
  5
3F4
100
AcDbEntity
  8
0
100
AcDbVertex
100
AcDb2dVertex
 10
9.6075534846
 20
7.3930785655
 30
0.0
  0
VERTEX
  5
3F5
100
AcDbEntity
  8
0
100
AcDbVertex
100
AcDb2dVertex
 10
9.612416617
 20
7.3956469043
 30
0.0
  0
VERTEX
  5
3F6
100
AcDbEntity
  8
0
100
AcDbVertex
100
AcDb2dVertex
 10
9.6166132405
 20
7.3985809665
 30
0.0
  0
VERTEX
  5
3F7
100
AcDbEntity
  8
0
100
AcDbVertex
100
AcDb2dVertex
 10
9.6200616609
 20
7.4018236527
 30
0.0
  0
VERTEX
  5
3F8
100
AcDbEntity
  8
0
100
AcDbVertex
100
AcDb2dVertex
 10
9.6226947791
 20
7.4053118309
 30
0.0
  0
VERTEX
  5
3F9
100
AcDbEntity
  8
0
100
AcDbVertex
100
AcDb2dVertex
 10
9.6244613345
 20
7.4089776224
 30
0.0
  0
VERTEX
  5
3FA
100
AcDbEntity
  8
0
100
AcDbVertex
100
AcDb2dVertex
 10
9.6253269478
 20
7.4127496631
 30
0.0
  0
VERTEX
  5
3FB
100
AcDbEntity
  8
0
100
AcDbVertex
100
AcDb2dVertex
 10
9.625274786
 20
7.4165545345
 30
0.0
  0
VERTEX
  5
3FC
100
AcDbEntity
  8
0
100
AcDbVertex
100
AcDb2dVertex
 10
9.6243058182
 20
7.4203181991
 30
0.0
  0
VERTEX
  5
3FD
100
AcDbEntity
  8
0
100
AcDbVertex
100
AcDb2dVertex
 10
9.6224389612
 20
7.4239673713
 30
0.0
  0
VERTEX
  5
3FE
100
AcDbEntity
  8
0
100
AcDbVertex
100
AcDb2dVertex
 10
9.6197104933
 20
7.4274310648
 30
0.0
  0
VERTEX
  5
3FF
100
AcDbEntity
  8
0
100
AcDbVertex
100
AcDb2dVertex
 10
9.6161735778
 20
7.4306418145
 30
0.0
  0
VERTEX
  5
400
100
AcDbEntity
  8
0
100
AcDbVertex
100
AcDb2dVertex
 10
9.6118970377
 20
7.4335371544
 30
0.0
  0
VERTEX
  5
401
100
AcDbEntity
  8
0
100
AcDbVertex
100
AcDb2dVertex
 10
9.6069640791
 20
7.4360607363
 30
0.0
  0
VERTEX
  5
402
100
AcDbEntity
  8
0
100
AcDbVertex
100
AcDb2dVertex
 10
9.6014707614
 20
7.4381634225
 30
0.0
  0
VERTEX
  5
403
100
AcDbEntity
  8
0
100
AcDbVertex
100
AcDb2dVertex
 10
9.5955239684
 20
7.4398042998
 30
0.0
  0
VERTEX
  5
404
100
AcDbEntity
  8
0
100
AcDbVertex
100
AcDb2dVertex
 10
9.5892394833
 20
7.4409514243
 30
0.0
  0
VERTEX
  5
405
100
AcDbEntity
  8
0
100
AcDbVertex
100
AcDb2dVertex
 10
9.582739594
 20
7.4415824741
 30
0.0
  0
VERTEX
  5
406
100
AcDbEntity
  8
0
100
AcDbVertex
100
AcDb2dVertex
 10
9.5761508399
 20
7.4416851555
 30
0.0
  0
VERTEX
  5
407
100
AcDbEntity
  8
0
100
AcDbVertex
100
AcDb2dVertex
 10
9.5696014268
 20
7.4412574908
 30
0.0
  0
VERTEX
  5
408
100
AcDbEntity
  8
0
100
AcDbVertex
100
AcDb2dVertex
 10
9.5632188763
 20
7.4403077795
 30
0.0
  0
VERTEX
  5
409
100
AcDbEntity
  8
0
100
AcDbVertex
100
AcDb2dVertex
 10
9.557127398
 20
7.4388545174
 30
0.0
  0
VERTEX
  5
40A
100
AcDbEntity
  8
0
100
AcDbVertex
100
AcDb2dVertex
 10
9.5514455395
 20
7.4369259983
 30
0.0
  0
VERTEX
  5
40B
100
AcDbEntity
  8
0
100
AcDbVertex
100
AcDb2dVertex
 10
9.5462839247
 20
7.4345597416
 30
0.0
  0
SEQEND
  5
40C
100
AcDbEntity
  8
0
  0
ENDSEC
  0
SECTION
  2
OBJECTS
  0
DICTIONARY
  5
19
100
AcDbDictionary
  3
ACAD_GROUP
350
1A
  3
ACAD_MLINESTYLE
350
1B
  0
DICTIONARY
  5
1A
102
{ACAD_REACTORS
330
19
102
}
100
AcDbDictionary
  0
DICTIONARY
  5
1B
102
{ACAD_REACTORS
330
19
102
}
100
AcDbDictionary
  3
STANDARD
350
1C
  0
MLINESTYLE
  5
1C
102
{ACAD_REACTORS
330
1B
102
}
100
AcDbMlineStyle
  2
STANDARD
 70
         0
  3

 62
         0
 51
90.0
 52
90.0
 71
         2
 49
0.5
 62
       256
  6
BYLAYER
 49
-0.5
 62
       256
  6
BYLAYER
  0
ENDSEC
  0
EOF
