  0
SECTION
  2
HEADER
  9
$ACADVER
  1
AC1015
  9
$ACADMAINTVER
 70
     6
  9
$DWGCODEPAGE
  3
ANSI_1252
  9
$INSBASE
 10
0.0
 20
0.0
 30
0.0
  9
$EXTMIN
 10
0.0
 20
0.0
 30
0.0
  9
$EXTMAX
 10
297.0
 20
210.0
 30
0.0
  9
$LIMMIN
 10
0.0
 20
0.0
  9
$LIMMAX
 10
297.0
 20
210.0
  9
$ORTHOMODE
 70
     0
  9
$REGENMODE
 70
     1
  9
$FILLMODE
 70
     1
  9
$QTEXTMODE
 70
     0
  9
$MIRRTEXT
 70
     1
  9
$LTSCALE
 40
1.0
  9
$ATTMODE
 70
     1
  9
$TEXTSIZE
 40
3.5
  9
$TRACEWID
 40
1.0
  9
$TEXTSTYLE
  7
Standard
  9
$CLAYER
  8
0
  9
$CELTYPE
  6
ByLayer
  9
$CECOLOR
 62
   256
  9
$CELTSCALE
 40
1.0
  9
$DISPSILH
 70
     0
  9
$DIMSCALE
 40
1.0
  9
$DIMASZ
 40
5.0
  9
$DIMEXO
 40
1.0
  9
$DIMDLI
 40
3.75
  9
$DIMRND
 40
0.0
  9
$DIMDLE
 40
0.0
  9
$DIMEXE
 40
1.0
  9
$DIMTP
 40
0.0
  9
$DIMTM
 40
0.0
  9
$DIMTXT
 40
3.5
  9
$DIMCEN
 40
2.5
  9
$DIMTSZ
 40
0.0
  9
$DIMTOL
 70
     0
  9
$DIMLIM
 70
     0
  9
$DIMTIH
 70
     1
  9
$DIMTOH
 70
     1
  9
$DIMSE1
 70
     0
  9
$DIMSE2
 70
     0
  9
$DIMTAD
 70
     1
  9
$DIMZIN
 70
     0
  9
$DIMBLK
  1

  9
$DIMASO
 70
     1
  9
$DIMSHO
 70
     1
  9
$DIMPOST
  1

  9
$DIMAPOST
  1

  9
$DIMALT
 70
     0
  9
$DIMALTD
 70
     3
  9
$DIMALTF
 40
0.0393700787
  9
$DIMLFAC
 40
1.0
  9
$DIMTOFL
 70
     1
  9
$DIMTVP
 40
0.0
  9
$DIMTIX
 70
     0
  9
$DIMSOXD
 70
     0
  9
$DIMSAH
 70
     0
  9
$DIMBLK1
  1

  9
$DIMBLK2
  1

  9
$DIMSTYLE
  2
ISO-25
  9
$DIMCLRD
 70
     0
  9
$DIMCLRE
 70
     0
  9
$DIMCLRT
 70
     0
  9
$DIMTFAC
 40
1.0
  9
$DIMGAP
 40
3.0
  9
$DIMJUST
 70
     0
  9
$DIMSD1
 70
     0
  9
$DIMSD2
 70
     0
  9
$DIMTOLJ
 70
     0
  9
$DIMTZIN
 70
     0
  9
$DIMALTZ
 70
     0
  9
$DIMALTTZ
 70
     0
  9
$DIMUPT
 70
     0
  9
$DIMDEC
 70
     2
  9
$DIMTDEC
 70
     2
  9
$DIMALTU
 70
     2
  9
$DIMALTTD
 70
     3
  9
$DIMTXSTY
  7
Standard
  9
$DIMAUNIT
 70
     0
  9
$DIMADEC
 70
     2
  9
$DIMALTRND
 40
0.0
  9
$DIMAZIN
 70
     0
  9
$DIMDSEP
 70
    44
  9
$DIMATFIT
 70
     3
  9
$DIMFRAC
 70
     0
  9
$DIMLDRBLK
  1

  9
$DIMLUNIT
 70
     2
  9
$DIMLWD
 70
    -2
  9
$DIMLWE
 70
    -2
  9
$DIMTMOVE
 70
     0
  9
$LUNITS
 70
     2
  9
$LUPREC
 70
     2
  9
$SKETCHINC
 40
1.0
  9
$FILLETRAD
 40
10.0
  9
$AUNITS
 70
     0
  9
$AUPREC
 70
     2
  9
$MENU
  1
.
  9
$ELEVATION
 40
0.0
  9
$PELEVATION
 40
0.0
  9
$THICKNESS
 40
0.0
  9
$LIMCHECK
 70
     0
  9
$CHAMFERA
 40
10.0
  9
$CHAMFERB
 40
10.0
  9
$CHAMFERC
 40
20.0
  9
$CHAMFERD
 40
0.0
  9
$SKPOLY
 70
     0
  9
$TDCREATE
 40
2455125.696501783
  9
$TDUCREATE
 40
2455125.613168449
  9
$TDUPDATE
 40
2455125.696501794
  9
$TDUUPDATE
 40
2455125.613168461
  9
$TDINDWG
 40
0.0000000116
  9
$TDUSRTIMER
 40
0.0000000116
  9
$USRTIMER
 70
     1
  9
$ANGBASE
 50
0.0
  9
$ANGDIR
 70
     0
  9
$PDMODE
 70
     0
  9
$PDSIZE
 40
-1.0
  9
$PLINEWID
 40
0.0
  9
$SPLFRAME
 70
     0
  9
$SPLINETYPE
 70
     6
  9
$SPLINESEGS
 70
     8
  9
$HANDSEED
  5
322
  9
$SURFTAB1
 70
     6
  9
$SURFTAB2
 70
     6
  9
$SURFTYPE
 70
     6
  9
$SURFU
 70
     6
  9
$SURFV
 70
     6
  9
$UCSBASE
  2

  9
$UCSNAME
  2

  9
$UCSORG
 10
0.0
 20
0.0
 30
0.0
  9
$UCSXDIR
 10
1.0
 20
0.0
 30
0.0
  9
$UCSYDIR
 10
0.0
 20
1.0
 30
0.0
  9
$UCSORTHOREF
  2

  9
$UCSORTHOVIEW
 70
     0
  9
$UCSORGTOP
 10
0.0
 20
0.0
 30
0.0
  9
$UCSORGBOTTOM
 10
0.0
 20
0.0
 30
0.0
  9
$UCSORGLEFT
 10
0.0
 20
0.0
 30
0.0
  9
$UCSORGRIGHT
 10
0.0
 20
0.0
 30
0.0
  9
$UCSORGFRONT
 10
0.0
 20
0.0
 30
0.0
  9
$UCSORGBACK
 10
0.0
 20
0.0
 30
0.0
  9
$PUCSBASE
  2

  9
$PUCSNAME
  2

  9
$PUCSORG
 10
0.0
 20
0.0
 30
0.0
  9
$PUCSXDIR
 10
1.0
 20
0.0
 30
0.0
  9
$PUCSYDIR
 10
0.0
 20
1.0
 30
0.0
  9
$PUCSORTHOREF
  2

  9
$PUCSORTHOVIEW
 70
     0
  9
$PUCSORGTOP
 10
0.0
 20
0.0
 30
0.0
  9
$PUCSORGBOTTOM
 10
0.0
 20
0.0
 30
0.0
  9
$PUCSORGLEFT
 10
0.0
 20
0.0
 30
0.0
  9
$PUCSORGRIGHT
 10
0.0
 20
0.0
 30
0.0
  9
$PUCSORGFRONT
 10
0.0
 20
0.0
 30
0.0
  9
$PUCSORGBACK
 10
0.0
 20
0.0
 30
0.0
  9
$USERI1
 70
     0
  9
$USERI2
 70
     0
  9
$USERI3
 70
     0
  9
$USERI4
 70
     0
  9
$USERI5
 70
     0
  9
$USERR1
 40
0.0
  9
$USERR2
 40
0.0
  9
$USERR3
 40
0.0
  9
$USERR4
 40
0.0
  9
$USERR5
 40
0.0
  9
$WORLDVIEW
 70
     1
  9
$SHADEDGE
 70
     3
  9
$SHADEDIF
 70
    70
  9
$TILEMODE
 70
     1
  9
$MAXACTVP
 70
    64
  9
$PINSBASE
 10
0.0
 20
0.0
 30
0.0
  9
$PLIMCHECK
 70
     0
  9
$PEXTMIN
 10
1.0000000000E+20
 20
1.0000000000E+20
 30
1.0000000000E+20
  9
$PEXTMAX
 10
-1.0000000000E+20
 20
-1.0000000000E+20
 30
-1.0000000000E+20
  9
$PLIMMIN
 10
0.0
 20
0.0
  9
$PLIMMAX
 10
420.0
 20
297.0
  9
$UNITMODE
 70
     0
  9
$VISRETAIN
 70
     1
  9
$PLINEGEN
 70
     0
  9
$PSLTSCALE
 70
     1
  9
$TREEDEPTH
 70
  3020
  9
$CMLSTYLE
  2
Standard
  9
$CMLJUST
 70
     0
  9
$CMLSCALE
 40
20.0
  9
$PROXYGRAPHICS
 70
     1
  9
$MEASUREMENT
 70
     1
  9
$CELWEIGHT
370
    -1
  9
$ENDCAPS
280
     0
  9
$JOINSTYLE
280
     0
  9
$LWDISPLAY
290
     1
  9
$INSUNITS
 70
     4
  9
$HYPERLINKBASE
  1

  9
$STYLESHEET
  1

  9
$XEDIT
290
     1
  9
$CEPSNTYPE
380
     0
  9
$PSTYLEMODE
290
     1
  9
$FINGERPRINTGUID
  2
{B03A6E48-80CB-4E5A-B835-43D384BDFE9C}
  9
$VERSIONGUID
  2
{FAEB1C32-E019-11D5-929B-00C0DF256EC4}
  9
$EXTNAMES
290
     1
  9
$PSVPSCALE
 40
0.0
  9
$OLESTARTUP
290
     0
  0
ENDSEC
  0
SECTION
  2
CLASSES
  0
CLASS
  1
ACDBDICTIONARYWDFLT
  2
AcDbDictionaryWithDefault
  3
ObjectDBX Classes
 90
        0
280
     0
281
     0
  0
CLASS
  1
VISUALSTYLE
  2
AcDbVisualStyle
  3
ObjectDBX Classes
 90
     4095
280
     0
281
     0
  0
CLASS
  1
DICTIONARYVAR
  2
AcDbDictionaryVar
  3
ObjectDBX Classes
 90
        0
280
     0
281
     0
  0
CLASS
  1
ACDBPLACEHOLDER
  2
AcDbPlaceHolder
  3
ObjectDBX Classes
 90
        0
280
     0
281
     0
  0
CLASS
  1
LAYOUT
  2
AcDbLayout
  3
ObjectDBX Classes
 90
        0
280
     0
281
     0
  0
ENDSEC
  0
SECTION
  2
TABLES
  0
TABLE
  2
VPORT
  5
8
330
0
100
AcDbSymbolTable
 70
     1
  0
VPORT
  5
29
330
8
100
AcDbSymbolTableRecord
100
AcDbViewportTableRecord
  2
*Active
 70
     0
 10
0.0
 20
0.0
 11
1.0
 21
1.0
 12
148.5
 22
105.0
 13
0.0
 23
0.0
 14
10.0
 24
10.0
 15
10.0
 25
10.0
 16
0.0
 26
0.0
 36
1.0
 17
0.0
 27
0.0
 37
0.0
 40
210.0
 41
1.4142857143
 42
50.0
 43
0.0
 44
0.0
 50
0.0
 51
0.0
 71
     0
 72
  2000
 73
     1
 74
     3
 75
     0
 76
     0
 77
     0
 78
     0
281
     0
 65
     1
110
0.0
120
0.0
130
0.0
111
1.0
121
0.0
131
0.0
112
0.0
122
1.0
132
0.0
 79
     0
146
0.0
  0
ENDTAB
  0
TABLE
  2
LTYPE
  5
5
330
0
100
AcDbSymbolTable
 70
     6
  0
LTYPE
  5
14
330
5
100
AcDbSymbolTableRecord
100
AcDbLinetypeTableRecord
  2
ByBlock
 70
     0
  3

 72
    65
 73
     0
 40
0.0
  0
LTYPE
  5
15
330
5
100
AcDbSymbolTableRecord
100
AcDbLinetypeTableRecord
  2
ByLayer
 70
     0
  3

 72
    65
 73
     0
 40
0.0
  0
LTYPE
  5
16
330
5
100
AcDbSymbolTableRecord
100
AcDbLinetypeTableRecord
  2
Continuous
 70
     0
  3
Solid line
 72
    65
 73
     0
 40
0.0
  0
LTYPE
  5
3B
330
5
100
AcDbSymbolTableRecord
100
AcDbLinetypeTableRecord
  2
HIDDEN
 70
     0
  3
Hidden __ __ __ __ __ __ __ __ __ __ __ __ __ __
 72
    65
 73
     2
 40
1.905
 49
1.27
 74
     0
 49
-0.635
 74
     0
  0
LTYPE
  5
3C
330
5
100
AcDbSymbolTableRecord
100
AcDbLinetypeTableRecord
  2
PHANTOM
 70
     0
  3
Phantom ______  __  __  ______  __  __  ______
 72
    65
 73
     6
 40
12.7
 49
6.35
 74
     0
 49
-1.27
 74
     0
 49
1.27
 74
     0
 49
-1.27
 74
     0
 49
1.27
 74
     0
 49
-1.27
 74
     0
  0
LTYPE
  5
3D
330
5
100
AcDbSymbolTableRecord
100
AcDbLinetypeTableRecord
  2
CENTER
 70
     0
  3
Center ____ _ ____ _ ____ _ ____ _ ____ _ ____
 72
    65
 73
     4
 40
10.16
 49
6.35
 74
     0
 49
-1.27
 74
     0
 49
1.27
 74
     0
 49
-1.27
 74
     0
  0
LTYPE
  5
3E
330
5
100
AcDbSymbolTableRecord
100
AcDbLinetypeTableRecord
  2
CENTERX2
 70
     0
  3
Center (2x) ________  __  ________  __  _____
 72
    65
 73
     4
 40
20.32
 49
12.7
 74
     0
 49
-2.54
 74
     0
 49
2.54
 74
     0
 49
-2.54
 74
     0
  0
LTYPE
  5
3F
330
5
100
AcDbSymbolTableRecord
100
AcDbLinetypeTableRecord
  2
DOT2
 70
     0
  3
Dot (.5x) ........................................
 72
    65
 73
     2
 40
0.635
 49
0.0
 74
     0
 49
-0.635
 74
     0
  0
ENDTAB
  0
TABLE
  2
LAYER
  5
2
330
0
100
AcDbSymbolTable
 70
     5
  0
LAYER
  5
10
330
2
100
AcDbSymbolTableRecord
100
AcDbLayerTableRecord
  2
0
 70
     0
 62
     7
  6
Continuous
370
    -3
390
F
  0
LAYER
  5
40
330
2
100
AcDbSymbolTableRecord
100
AcDbLayerTableRecord
  2
BALLON
 70
     0
 62
    -7
  6
Continuous
370
    -3
390
F
  0
LAYER
  5
41
330
2
100
AcDbSymbolTableRecord
100
AcDbLayerTableRecord
  2
SVENSKA_NOTE
 70
     0
 62
    -7
  6
Continuous
370
    -3
390
F
  0
LAYER
  5
42
330
2
100
AcDbSymbolTableRecord
100
AcDbLayerTableRecord
  2
ENGLISH_NOTE
 70
     0
 62
     7
  6
Continuous
370
    -3
390
F
  0
LAYER
  5
43
330
2
100
AcDbSymbolTableRecord
100
AcDbLayerTableRecord
  2
FORMAT
 70
     0
 62
     7
  6
Continuous
370
    -3
390
F
  0
ENDTAB
  0
TABLE
  2
STYLE
  5
3
330
0
100
AcDbSymbolTable
 70
     5
  0
STYLE
  5
11
330
3
100
AcDbSymbolTableRecord
100
AcDbTextStyleTableRecord
  2
Standard
 70
     0
 40
0.0
 41
1.0
 50
0.0
 71
     0
 42
2.5
  3
txt
  4

  0
STYLE
  5
79
330
3
100
AcDbSymbolTableRecord
100
AcDbTextStyleTableRecord
  2
SLDTEXTSTYLE0
 70
     0
 40
0.0
 41
0.75
 50
0.0
 71
     0
 42
0.2
  3
TXT
  4

  0
STYLE
  5
AE
330
3
100
AcDbSymbolTableRecord
100
AcDbTextStyleTableRecord
  2
SLDTEXTSTYLE1
 70
     0
 40
0.0
 41
0.6911764706
 50
0.0
 71
     0
 42
0.2
  3
TXT
  4

  0
STYLE
  5
B0
330
3
100
AcDbSymbolTableRecord
100
AcDbTextStyleTableRecord
  2
SLDTEXTSTYLE2
 70
     0
 40
0.0
 41
0.7
 50
0.0
 71
     0
 42
0.2
  3
TXT
  4

  0
STYLE
  5
BB
330
3
100
AcDbSymbolTableRecord
100
AcDbTextStyleTableRecord
  2
SLDTEXTSTYLE3
 70
     0
 40
0.0
 41
0.6875
 50
0.0
 71
     0
 42
0.2
  3
TXT
  4

  0
ENDTAB
  0
TABLE
  2
VIEW
  5
6
330
0
100
AcDbSymbolTable
 70
     0
  0
ENDTAB
  0
TABLE
  2
UCS
  5
7
330
0
100
AcDbSymbolTable
 70
     0
  0
ENDTAB
  0
TABLE
  2
APPID
  5
9
330
0
100
AcDbSymbolTable
 70
     1
  0
APPID
  5
12
330
9
100
AcDbSymbolTableRecord
100
AcDbRegAppTableRecord
  2
ACAD
 70
     0
  0
ENDTAB
  0
TABLE
  2
DIMSTYLE
  5
A
330
0
100
AcDbSymbolTable
 70
     4
100
AcDbDimStyleTable
  0
DIMSTYLE
105
27
330
A
100
AcDbSymbolTableRecord
100
AcDbDimStyleTableRecord
  2
ISO-25
 70
     0
 41
2.5
 42
0.625
 43
3.75
 44
1.25
 73
     0
 74
     0
 77
     1
 78
     8
140
2.5
141
2.5
143
0.0393700787
147
0.625
171
     3
172
     1
271
     2
272
     2
274
     3
278
    44
283
     0
284
     8
340
11
  0
DIMSTYLE
105
289
102
{ACAD_REACTORS
330
288
330
296
330
2B8
330
2C4
330
2D0
102
}
330
A
100
AcDbSymbolTableRecord
100
AcDbDimStyleTableRecord
  2
SLDDIMSTYLE0
 70
     0
 41
5.0
 44
0.0
 45
0.000000001
 73
     0
 77
     1
 78
    12
140
3.5
147
0.875
173
     1
271
     2
272
     2
284
    12
340
79
  0
DIMSTYLE
105
2A4
102
{ACAD_REACTORS
330
2A3
330
2AE
102
}
330
A
100
AcDbSymbolTableRecord
100
AcDbDimStyleTableRecord
  2
SLDDIMSTYLE1
 70
     0
 41
5.0
 44
0.0
 45
0.000000001
 73
     0
 77
     1
 78
    12
140
3.5
147
0.875
173
     1
271
     2
272
     2
284
    12
340
79
  0
DIMSTYLE
105
315
330
A
100
AcDbSymbolTableRecord
100
AcDbDimStyleTableRecord
  2
SLDDIMSTYLE2
 70
     0
 41
5.0
 44
0.0
 45
0.000000001
140
0.0
146
5.0
147
0.0
173
     1
271
     0
272
     0
340
11
  0
ENDTAB
  0
TABLE
  2
BLOCK_RECORD
  5
1
330
0
100
AcDbSymbolTable
 70
    15
  0
BLOCK_RECORD
  5
1F
330
1
100
AcDbSymbolTableRecord
100
AcDbBlockTableRecord
  2
*Model_Space
340
22
  0
BLOCK_RECORD
  5
1B
330
1
100
AcDbSymbolTableRecord
100
AcDbBlockTableRecord
  2
*Paper_Space
340
1E
  0
BLOCK_RECORD
  5
23
330
1
100
AcDbSymbolTableRecord
100
AcDbBlockTableRecord
  2
*Paper_Space0
340
26
  0
BLOCK_RECORD
  5
AA
330
1
100
AcDbSymbolTableRecord
100
AcDbBlockTableRecord
  2
SW_NOTE_0
340
0
102
{BLKREFS
331
B2
102
}
  0
BLOCK_RECORD
  5
B3
330
1
100
AcDbSymbolTableRecord
100
AcDbBlockTableRecord
  2
SW_NOTE_1
340
0
102
{BLKREFS
331
B9
102
}
  0
BLOCK_RECORD
  5
C2
330
1
100
AcDbSymbolTableRecord
100
AcDbBlockTableRecord
  2
SW_TABLEANNOTATION_0
340
0
102
{BLKREFS
331
D2
102
}
  0
BLOCK_RECORD
  5
28A
330
1
100
AcDbSymbolTableRecord
100
AcDbBlockTableRecord
  2
*D4
340
0
  0
BLOCK_RECORD
  5
297
330
1
100
AcDbSymbolTableRecord
100
AcDbBlockTableRecord
  2
*D5
340
0
  0
BLOCK_RECORD
  5
2A5
330
1
100
AcDbSymbolTableRecord
100
AcDbBlockTableRecord
  2
*D6
340
0
  0
BLOCK_RECORD
  5
2AF
330
1
100
AcDbSymbolTableRecord
100
AcDbBlockTableRecord
  2
*D7
340
0
  0
BLOCK_RECORD
  5
2B9
330
1
100
AcDbSymbolTableRecord
100
AcDbBlockTableRecord
  2
*D8
340
0
  0
BLOCK_RECORD
  5
2C5
330
1
100
AcDbSymbolTableRecord
100
AcDbBlockTableRecord
  2
*D9
340
0
  0
BLOCK_RECORD
  5
2D1
330
1
100
AcDbSymbolTableRecord
100
AcDbBlockTableRecord
  2
*D10
340
0
  0
BLOCK_RECORD
  5
2DC
330
1
100
AcDbSymbolTableRecord
100
AcDbBlockTableRecord
  2
SW_NOTE_2
340
0
102
{BLKREFS
331
2E1
102
}
  0
BLOCK_RECORD
  5
2E2
330
1
100
AcDbSymbolTableRecord
100
AcDbBlockTableRecord
  2
SW_NOTE_3
340
0
102
{BLKREFS
331
2E9
102
}
  0
BLOCK_RECORD
  5
310
330
1
100
AcDbSymbolTableRecord
100
AcDbBlockTableRecord
  2
SW_NOTE_4
340
0
102
{BLKREFS
331
314
102
}
  0
BLOCK_RECORD
  5
317
330
1
100
AcDbSymbolTableRecord
100
AcDbBlockTableRecord
  2
SW_NOTE_5
340
0
102
{BLKREFS
331
31B
102
}
  0
ENDTAB
  0
ENDSEC
  0
SECTION
  2
BLOCKS
  0
BLOCK
  5
20
330
1F
100
AcDbEntity
  8
0
100
AcDbBlockBegin
  2
*Model_Space
 70
     0
 10
0.0
 20
0.0
 30
0.0
  3
*Model_Space
  1

  0
ENDBLK
  5
21
330
1F
100
AcDbEntity
  8
0
100
AcDbBlockEnd
  0
BLOCK
  5
1C
330
1B
100
AcDbEntity
 67
     1
  8
0
100
AcDbBlockBegin
  2
*Paper_Space
 70
     0
 10
0.0
 20
0.0
 30
0.0
  3
*Paper_Space
  1

  0
ENDBLK
  5
1D
330
1B
100
AcDbEntity
 67
     1
  8
0
100
AcDbBlockEnd
  0
BLOCK
  5
24
330
23
100
AcDbEntity
  8
0
100
AcDbBlockBegin
  2
*Paper_Space0
 70
     0
 10
0.0
 20
0.0
 30
0.0
  3
*Paper_Space0
  1

  0
ENDBLK
  5
25
330
23
100
AcDbEntity
  8
0
100
AcDbBlockEnd
  0
BLOCK
  5
AB
330
AA
100
AcDbEntity
  8
0
100
AcDbBlockBegin
  2
SW_NOTE_0
 70
     0
 10
0.0
 20
0.0
 30
0.0
  3
SW_NOTE_0
  1

  0
MTEXT
  5
AD
330
AA
100
AcDbEntity
  8
0
  6
Continuous
 62
     0
370
     0
100
AcDbMText
 10
0.0
 20
1.9819416499
 30
0.0
 40
1.5375
 41
0.0
 71
     1
 72
     1
  1
Tel 
  7
SLDTEXTSTYLE0
 73
     1
 44
1.0
  0
MTEXT
  5
AF
330
AA
100
AcDbEntity
  8
0
  6
Continuous
 62
     0
370
     0
100
AcDbMText
 10
3.1855078414
 20
1.9819416499
 30
0.0
 40
1.5375
 41
0.0
 71
     1
 72
     1
  1
: +46 31 733 3000
  7
SLDTEXTSTYLE1
 73
     1
 44
1.0
  0
MTEXT
  5
B1
330
AA
100
AcDbEntity
  8
0
  6
Continuous
 62
     0
370
     0
100
AcDbMText
 10
0.0
 20
-0.5555584633
 30
0.0
 40
1.5375
 41
0.0
 71
     1
 72
     1
  1
Fax: +46 31 703 4045
  7
SLDTEXTSTYLE2
 73
     1
 44
1.0
  0
ENDBLK
  5
AC
330
AA
100
AcDbEntity
  8
0
100
AcDbBlockEnd
  0
BLOCK
  5
B4
330
B3
100
AcDbEntity
  8
0
100
AcDbBlockBegin
  2
SW_NOTE_1
 70
     0
 10
0.0
 20
0.0
 30
0.0
  3
SW_NOTE_1
  1

  0
MTEXT
  5
B6
330
B3
100
AcDbEntity
  8
0
  6
Continuous
 62
     0
370
     0
100
AcDbMText
 10
0.0
 20
1.9819416499
 30
0.0
 40
1.5375
 41
0.0
 71
     1
 72
     1
  1
Sweden AB
  7
SLDTEXTSTYLE0
 73
     1
 44
1.0
  0
MTEXT
  5
B7
330
B3
100
AcDbEntity
  8
0
  6
Continuous
 62
     0
370
     0
100
AcDbMText
 10
0.0
 20
-0.5555584633
 30
0.0
 40
1.5375
 41
0.0
 71
     1
 72
     1
  1
Box 14194
  7
SLDTEXTSTYLE0
 73
     1
 44
1.0
  0
MTEXT
  5
B8
330
B3
100
AcDbEntity
  8
0
  6
Continuous
 62
     0
370
     0
100
AcDbMText
 10
0.0
 20
-3.0930585766
 30
0.0
 40
1.5375
 41
0.0
 71
     1
 72
     1
  1
SE-400 20 Göteborg
  7
SLDTEXTSTYLE0
 73
     1
 44
1.0
  0
ENDBLK
  5
B5
330
B3
100
AcDbEntity
  8
0
100
AcDbBlockEnd
  0
BLOCK
  5
C3
330
C2
100
AcDbEntity
  8
0
100
AcDbBlockBegin
  2
SW_TABLEANNOTATION_0
 70
     0
 10
0.0
 20
0.0
 30
0.0
  3
SW_TABLEANNOTATION_0
  1

  0
LINE
  5
C5
330
C2
100
AcDbEntity
  8
0
  6
Continuous
 62
     0
370
     0
100
AcDbLine
 10
0.0
 20
0.0
 30
0.0
 11
0.0
 21
-5.0
 31
0.0
  0
LINE
  5
C6
330
C2
100
AcDbEntity
  8
0
  6
Continuous
 62
     0
370
     0
100
AcDbLine
 10
0.0
 20
-5.0
 30
0.0
 11
160.2820702528
 21
-5.0
 31
0.0
  0
LINE
  5
C7
330
C2
100
AcDbEntity
  8
0
  6
Continuous
 62
     0
370
     0
100
AcDbLine
 10
160.2820702528
 20
-5.0
 30
0.0
 11
160.2820702528
 21
0.0
 31
0.0
  0
LINE
  5
C8
330
C2
100
AcDbEntity
  8
0
  6
Continuous
 62
     0
370
     0
100
AcDbLine
 10
160.2820702528
 20
0.0
 30
0.0
 11
0.0
 21
0.0
 31
0.0
  0
LINE
  5
C9
330
C2
100
AcDbEntity
  8
0
  6
Continuous
 62
     0
370
     0
100
AcDbLine
 10
7.8820702528
 20
0.0
 30
0.0
 11
7.8820702528
 21
-5.0
 31
0.0
  0
LINE
  5
CA
330
C2
100
AcDbEntity
  8
0
  6
Continuous
 62
     0
370
     0
100
AcDbLine
 10
113.3799122782
 20
0.0
 30
0.0
 11
113.3799122782
 21
-5.0
 31
0.0
  0
LINE
  5
CB
330
C2
100
AcDbEntity
  8
0
  6
Continuous
 62
     0
370
     0
100
AcDbLine
 10
128.6199122782
 20
0.0
 30
0.0
 11
128.6199122782
 21
-5.0
 31
0.0
  0
LINE
  5
CC
330
C2
100
AcDbEntity
  8
0
  6
Continuous
 62
     0
370
     0
100
AcDbLine
 10
145.5956353769
 20
0.0
 30
0.0
 11
145.5956353769
 21
-5.0
 31
0.0
  0
MTEXT
  5
CD
330
C2
100
AcDbEntity
  8
0
  6
Continuous
 62
     0
370
     0
100
AcDbMText
 10
0.9953405196
 20
-1.1825844946
 30
0.0
 40
2.1166666667
 41
0.0
 71
     1
 72
     1
  1
Rev.
  7
SLDTEXTSTYLE0
 73
     1
 44
1.0
  0
MTEXT
  5
CE
330
C2
100
AcDbEntity
  8
0
  6
Continuous
 62
     0
370
     0
100
AcDbMText
 10
52.9894327301
 20
-1.1825844946
 30
0.0
 40
2.1166666667
 41
0.0
 71
     1
 72
     1
  1
Description
  7
SLDTEXTSTYLE0
 73
     1
 44
1.0
  0
MTEXT
  5
CF
330
C2
100
AcDbEntity
  8
0
  6
Continuous
 62
     0
370
     0
100
AcDbMText
 10
116.5274740322
 20
-1.1825844946
 30
0.0
 40
2.1166666667
 41
0.0
 71
     1
 72
     1
  1
Drawn
  7
SLDTEXTSTYLE0
 73
     1
 44
1.0
  0
MTEXT
  5
D0
330
C2
100
AcDbEntity
  8
0
  6
Continuous
 62
     0
370
     0
100
AcDbMText
 10
133.697588606
 20
-1.1825844946
 30
0.0
 40
2.1166666667
 41
0.0
 71
     1
 72
     1
  1
Date
  7
SLDTEXTSTYLE0
 73
     1
 44
1.0
  0
MTEXT
  5
D1
330
C2
100
AcDbEntity
  8
0
  6
Continuous
 62
     0
370
     0
100
AcDbMText
 10
149.154331332
 20
-1.1825844946
 30
0.0
 40
2.1166666667
 41
0.0
 71
     1
 72
     1
  1
Appr.
  7
SLDTEXTSTYLE0
 73
     1
 44
1.0
  0
ENDBLK
  5
C4
330
C2
100
AcDbEntity
  8
0
100
AcDbBlockEnd
  0
BLOCK
  5
28B
330
28A
100
AcDbEntity
  8
0
100
AcDbBlockBegin
  2
*D4
 70
     1
 10
0.0
 20
0.0
 30
0.0
  3
*D4
  1

  0
SOLID
  5
28D
330
28A
100
AcDbEntity
  8
0
  6
Continuous
 62
     7
370
     0
100
AcDbTrace
 10
54.5022048197
 20
126.7641083542
 30
0.0
 11
55.4022048197
 21
131.7641083542
 31
0.0
 12
53.6022048197
 22
131.7641083542
 32
0.0
 13
53.6022048197
 23
131.7641083542
 33
0.0
  0
SOLID
  5
28E
330
28A
100
AcDbEntity
  8
0
  6
Continuous
 62
     7
370
     0
100
AcDbTrace
 10
54.5022048197
 20
101.3641083542
 30
0.0
 11
53.6022048197
 21
96.3641083542
 31
0.0
 12
55.4022048197
 22
96.3641083542
 32
0.0
 13
55.4022048197
 23
96.3641083542
 33
0.0
  0
LINE
  5
28F
330
28A
100
AcDbEntity
  8
0
  6
Continuous
 62
     7
370
     0
100
AcDbLine
 10
83.7701194053
 20
126.7641083542
 30
0.0
 11
53.5022048197
 21
126.7641083542
 31
0.0
  0
LINE
  5
290
330
28A
100
AcDbEntity
  8
0
  6
Continuous
 62
     7
370
     0
100
AcDbLine
 10
83.7701194053
 20
101.3641083542
 30
0.0
 11
53.5022048197
 21
101.3641083542
 31
0.0
  0
LINE
  5
291
330
28A
100
AcDbEntity
  8
0
  6
Continuous
 62
     7
370
     0
100
AcDbLine
 10
54.5022048197
 20
126.7641083542
 30
0.0
 11
54.5022048197
 21
136.7641083542
 31
0.0
  0
LINE
  5
292
330
28A
100
AcDbEntity
  8
0
  6
Continuous
 62
     7
370
     0
100
AcDbLine
 10
54.5022048197
 20
126.7641083542
 30
0.0
 11
54.5022048197
 21
101.3641083542
 31
0.0
  0
LINE
  5
293
330
28A
100
AcDbEntity
  8
0
  6
Continuous
 62
     7
370
     0
100
AcDbLine
 10
54.5022048197
 20
101.3641083542
 30
0.0
 11
54.5022048197
 21
91.3641083542
 31
0.0
  0
MTEXT
  5
294
330
28A
100
AcDbEntity
  8
0
  6
Continuous
 62
     7
370
     0
100
AcDbMText
 10
49.9904677305
 20
106.900558128
 30
0.0
 40
3.5
 41
0.0
 71
     1
 72
     1
  1
%%c
  7
SLDTEXTSTYLE0
 11
-7.044195017643634E-15
 21
1.0
 31
0.0
 73
     1
 44
1.0
  0
MTEXT
  5
295
330
28A
100
AcDbEntity
  8
0
  6
Continuous
 62
     7
370
     0
100
AcDbMText
 10
49.9904679051
 20
112.1774475588
 30
0.0
 40
3.5
 41
0.0
 71
     1
 72
     1
  1
25,4
  7
SLDTEXTSTYLE0
 11
-7.044195017643634E-15
 21
1.0
 31
0.0
 73
     1
 44
1.0
  0
ENDBLK
  5
28C
330
28A
100
AcDbEntity
  8
0
100
AcDbBlockEnd
  0
BLOCK
  5
298
330
297
100
AcDbEntity
  8
0
100
AcDbBlockBegin
  2
*D5
 70
     1
 10
0.0
 20
0.0
 30
0.0
  3
*D5
  1

  0
SOLID
  5
29A
330
297
100
AcDbEntity
  8
0
  6
Continuous
 62
     7
370
     0
100
AcDbTrace
 10
60.1971194053
 20
125.8751083542
 30
0.0
 11
61.0971194053
 21
130.8751083542
 31
0.0
 12
59.2971194053
 22
130.8751083542
 32
0.0
 13
59.2971194053
 23
130.8751083542
 33
0.0
  0
SOLID
  5
29B
330
297
100
AcDbEntity
  8
0
  6
Continuous
 62
     7
370
     0
100
AcDbTrace
 10
60.1971194053
 20
102.2531083542
 30
0.0
 11
59.2971194053
 21
97.2531083542
 31
0.0
 12
61.0971194053
 22
97.2531083542
 32
0.0
 13
61.0971194053
 23
97.2531083542
 33
0.0
  0
LINE
  5
29C
330
297
100
AcDbEntity
  8
0
  6
Continuous
 62
     7
370
     0
100
AcDbLine
 10
89.3581194053
 20
125.8751083542
 30
0.0
 11
59.1971194053
 21
125.8751083542
 31
0.0
  0
LINE
  5
29D
330
297
100
AcDbEntity
  8
0
  6
Continuous
 62
     7
370
     0
100
AcDbLine
 10
89.3581194053
 20
102.2531083542
 30
0.0
 11
59.1971194053
 21
102.2531083542
 31
0.0
  0
LINE
  5
29E
330
297
100
AcDbEntity
  8
0
  6
Continuous
 62
     7
370
     0
100
AcDbLine
 10
60.1971194053
 20
125.8751083542
 30
0.0
 11
60.1971194053
 21
135.8751083542
 31
0.0
  0
LINE
  5
29F
330
297
100
AcDbEntity
  8
0
  6
Continuous
 62
     7
370
     0
100
AcDbLine
 10
60.1971194053
 20
125.8751083542
 30
0.0
 11
60.1971194053
 21
102.2531083542
 31
0.0
  0
LINE
  5
2A0
330
297
100
AcDbEntity
  8
0
  6
Continuous
 62
     7
370
     0
100
AcDbLine
 10
60.1971194053
 20
102.2531083542
 30
0.0
 11
60.1971194053
 21
92.2531083542
 31
0.0
  0
MTEXT
  5
2A1
330
297
100
AcDbEntity
  8
0
  6
Continuous
 62
     7
370
     0
100
AcDbMText
 10
55.6853823161
 20
105.6072593538
 30
0.0
 40
3.5
 41
0.0
 71
     1
 72
     1
  1
%%c
  7
SLDTEXTSTYLE0
 11
-7.044195017643634E-15
 21
1.0
 31
0.0
 73
     1
 44
1.0
  0
MTEXT
  5
2A2
330
297
100
AcDbEntity
  8
0
  6
Continuous
 62
     7
370
     0
100
AcDbMText
 10
55.6853824907
 20
110.8841487845
 30
0.0
 40
3.5
 41
0.0
 71
     1
 72
     1
  1
23,62
  7
SLDTEXTSTYLE0
 11
-7.044195017643634E-15
 21
1.0
 31
0.0
 73
     1
 44
1.0
  0
ENDBLK
  5
299
330
297
100
AcDbEntity
  8
0
100
AcDbBlockEnd
  0
BLOCK
  5
2A6
330
2A5
100
AcDbEntity
  8
0
100
AcDbBlockBegin
  2
*D6
 70
     1
 10
0.0
 20
0.0
 30
0.0
  3
*D6
  1

  0
SOLID
  5
2A8
330
2A5
100
AcDbEntity
  8
0
  6
Continuous
 62
     7
370
     0
100
AcDbTrace
 10
72.1971194053
 20
159.1862462064
 30
0.0
 11
77.1971194053
 21
158.2862462064
 31
0.0
 12
77.1971194053
 22
160.0862462064
 32
0.0
 13
77.1971194053
 23
160.0862462064
 33
0.0
  0
SOLID
  5
2A9
330
2A5
100
AcDbEntity
  8
0
  6
Continuous
 62
     7
370
     0
100
AcDbTrace
 10
137.2211194053
 20
159.1862462064
 30
0.0
 11
132.2211194053
 21
160.0862462064
 31
0.0
 12
132.2211194053
 22
158.2862462064
 32
0.0
 13
132.2211194053
 23
158.2862462064
 33
0.0
  0
LINE
  5
2AA
330
2A5
100
AcDbEntity
  8
0
  6
Continuous
 62
     7
370
     0
100
AcDbLine
 10
72.1971194053
 20
123.9541083542
 30
0.0
 11
72.1971194053
 21
160.1862462064
 31
0.0
  0
LINE
  5
2AB
330
2A5
100
AcDbEntity
  8
0
  6
Continuous
 62
     7
370
     0
100
AcDbLine
 10
137.2211194053
 20
123.1286083542
 30
0.0
 11
137.2211194053
 21
160.1862462064
 31
0.0
  0
LINE
  5
2AC
330
2A5
100
AcDbEntity
  8
0
  6
Continuous
 62
     7
370
     0
100
AcDbLine
 10
72.1971194053
 20
159.1862462064
 30
0.0
 11
137.2211194053
 21
159.1862462064
 31
0.0
  0
MTEXT
  5
2AD
330
2A5
100
AcDbEntity
  8
0
  6
Continuous
 62
     7
370
     0
100
AcDbMText
 10
98.8907151202
 20
163.697983121
 30
0.0
 40
3.5
 41
0.0
 71
     1
 72
     1
  1
65,02
  7
SLDTEXTSTYLE0
 73
     1
 44
1.0
  0
ENDBLK
  5
2A7
330
2A5
100
AcDbEntity
  8
0
100
AcDbBlockEnd
  0
BLOCK
  5
2B0
330
2AF
100
AcDbEntity
  8
0
100
AcDbBlockBegin
  2
*D7
 70
     1
 10
0.0
 20
0.0
 30
0.0
  3
*D7
  1

  0
SOLID
  5
2B2
330
2AF
100
AcDbEntity
  8
0
  6
Continuous
 62
     7
370
     0
100
AcDbTrace
 10
72.1971194053
 20
173.3208691674
 30
0.0
 11
77.1971194053
 21
172.4208691674
 31
0.0
 12
77.1971194053
 22
174.2208691674
 32
0.0
 13
77.1971194053
 23
174.2208691674
 33
0.0
  0
SOLID
  5
2B3
330
2AF
100
AcDbEntity
  8
0
  6
Continuous
 62
     7
370
     0
100
AcDbTrace
 10
146.7161194053
 20
173.3208691674
 30
0.0
 11
141.7161194053
 21
174.2208691674
 31
0.0
 12
141.7161194053
 22
172.4208691674
 32
0.0
 13
141.7161194053
 23
172.4208691674
 33
0.0
  0
LINE
  5
2B4
330
2AF
100
AcDbEntity
  8
0
  6
Continuous
 62
     7
370
     0
100
AcDbLine
 10
72.1971194053
 20
123.9541083542
 30
0.0
 11
72.1971194053
 21
174.3208691674
 31
0.0
  0
LINE
  5
2B5
330
2AF
100
AcDbEntity
  8
0
  6
Continuous
 62
     7
370
     0
100
AcDbLine
 10
146.7161194053
 20
117.6041083542
 30
0.0
 11
146.7161194053
 21
174.3208691674
 31
0.0
  0
LINE
  5
2B6
330
2AF
100
AcDbEntity
  8
0
  6
Continuous
 62
     7
370
     0
100
AcDbLine
 10
72.1971194053
 20
173.3208691674
 30
0.0
 11
146.7161194053
 21
173.3208691674
 31
0.0
  0
MTEXT
  5
2B7
330
2AF
100
AcDbEntity
  8
0
  6
Continuous
 62
     7
370
     0
100
AcDbMText
 10
103.6382151202
 20
177.832606082
 30
0.0
 40
3.5
 41
0.0
 71
     1
 72
     1
  1
74,52
  7
SLDTEXTSTYLE0
 73
     1
 44
1.0
  0
ENDBLK
  5
2B1
330
2AF
100
AcDbEntity
  8
0
100
AcDbBlockEnd
  0
BLOCK
  5
2BA
330
2B9
100
AcDbEntity
  8
0
100
AcDbBlockBegin
  2
*D8
 70
     1
 10
0.0
 20
0.0
 30
0.0
  3
*D8
  1

  0
SOLID
  5
2BC
330
2B9
100
AcDbEntity
  8
0
  6
Continuous
 62
     7
370
     0
100
AcDbTrace
 10
84.7701194053
 20
88.6527895892
 30
0.0
 11
79.7701194053
 21
89.5527895892
 31
0.0
 12
79.7701194053
 22
87.7527895892
 32
0.0
 13
79.7701194053
 23
87.7527895892
 33
0.0
  0
SOLID
  5
2BD
330
2B9
100
AcDbEntity
  8
0
  6
Continuous
 62
     7
370
     0
100
AcDbTrace
 10
90.3581194053
 20
88.6527895892
 30
0.0
 11
95.3581194053
 21
87.7527895892
 31
0.0
 12
95.3581194053
 22
89.5527895892
 32
0.0
 13
95.3581194053
 23
89.5527895892
 33
0.0
  0
LINE
  5
2BE
330
2B9
100
AcDbEntity
  8
0
  6
Continuous
 62
     7
370
     0
100
AcDbLine
 10
84.7701194053
 20
100.3641083542
 30
0.0
 11
84.7701194053
 21
87.6527895892
 31
0.0
  0
LINE
  5
2BF
330
2B9
100
AcDbEntity
  8
0
  6
Continuous
 62
     7
370
     0
100
AcDbLine
 10
90.3581194053
 20
100.3641083542
 30
0.0
 11
90.3581194053
 21
87.6527895892
 31
0.0
  0
LINE
  5
2C0
330
2B9
100
AcDbEntity
  8
0
  6
Continuous
 62
     7
370
     0
100
AcDbLine
 10
84.7701194053
 20
88.6527895892
 30
0.0
 11
74.7701194053
 21
88.6527895892
 31
0.0
  0
LINE
  5
2C1
330
2B9
100
AcDbEntity
  8
0
  6
Continuous
 62
     7
370
     0
100
AcDbLine
 10
84.7701194053
 20
88.6527895892
 30
0.0
 11
90.3581194053
 21
88.6527895892
 31
0.0
  0
LINE
  5
2C2
330
2B9
100
AcDbEntity
  8
0
  6
Continuous
 62
     7
370
     0
100
AcDbLine
 10
90.3581194053
 20
88.6527895892
 30
0.0
 11
107.3985308077
 21
88.6527895892
 31
0.0
  0
MTEXT
  5
2C3
330
2B9
100
AcDbEntity
  8
0
  6
Continuous
 62
     7
370
     0
100
AcDbMText
 10
96.7608197861
 20
93.1645265038
 30
0.0
 40
3.5
 41
0.0
 71
     1
 72
     1
  1
5,59
  7
SLDTEXTSTYLE0
 73
     1
 44
1.0
  0
ENDBLK
  5
2BB
330
2B9
100
AcDbEntity
  8
0
100
AcDbBlockEnd
  0
BLOCK
  5
2C6
330
2C5
100
AcDbEntity
  8
0
100
AcDbBlockBegin
  2
*D9
 70
     1
 10
0.0
 20
0.0
 30
0.0
  3
*D9
  1

  0
SOLID
  5
2C8
330
2C5
100
AcDbEntity
  8
0
  6
Continuous
 62
     7
370
     0
100
AcDbTrace
 10
84.7701194053
 20
81.3430706341
 30
0.0
 11
79.7701194053
 21
82.2430706341
 31
0.0
 12
79.7701194053
 22
80.4430706341
 32
0.0
 13
79.7701194053
 23
80.4430706341
 33
0.0
  0
SOLID
  5
2C9
330
2C5
100
AcDbEntity
  8
0
  6
Continuous
 62
     7
370
     0
100
AcDbTrace
 10
112.2021194053
 20
81.3430706341
 30
0.0
 11
117.2021194053
 21
80.4430706341
 31
0.0
 12
117.2021194053
 22
82.2430706341
 32
0.0
 13
117.2021194053
 23
82.2430706341
 33
0.0
  0
LINE
  5
2CA
330
2C5
100
AcDbEntity
  8
0
  6
Continuous
 62
     7
370
     0
100
AcDbLine
 10
84.7701194053
 20
100.3641083542
 30
0.0
 11
84.7701194053
 21
80.3430706341
 31
0.0
  0
LINE
  5
2CB
330
2C5
100
AcDbEntity
  8
0
  6
Continuous
 62
     7
370
     0
100
AcDbLine
 10
112.2021194053
 20
101.3801083542
 30
0.0
 11
112.2021194053
 21
80.3430706341
 31
0.0
  0
LINE
  5
2CC
330
2C5
100
AcDbEntity
  8
0
  6
Continuous
 62
     7
370
     0
100
AcDbLine
 10
84.7701194053
 20
81.3430706341
 30
0.0
 11
74.7701194053
 21
81.3430706341
 31
0.0
  0
LINE
  5
2CD
330
2C5
100
AcDbEntity
  8
0
  6
Continuous
 62
     7
370
     0
100
AcDbLine
 10
84.7701194053
 20
81.3430706341
 30
0.0
 11
112.2021194053
 21
81.3430706341
 31
0.0
  0
LINE
  5
2CE
330
2C5
100
AcDbEntity
  8
0
  6
Continuous
 62
     7
370
     0
100
AcDbLine
 10
112.2021194053
 20
81.3430706341
 30
0.0
 11
122.2021194053
 21
81.3430706341
 31
0.0
  0
MTEXT
  5
2CF
330
2C5
100
AcDbEntity
  8
0
  6
Continuous
 62
     7
370
     0
100
AcDbMText
 10
92.6677151202
 20
85.8548075487
 30
0.0
 40
3.5
 41
0.0
 71
     1
 72
     1
  1
27,43
  7
SLDTEXTSTYLE0
 73
     1
 44
1.0
  0
ENDBLK
  5
2C7
330
2C5
100
AcDbEntity
  8
0
100
AcDbBlockEnd
  0
BLOCK
  5
2D2
330
2D1
100
AcDbEntity
  8
0
100
AcDbBlockBegin
  2
*D10
 70
     1
 10
0.0
 20
0.0
 30
0.0
  3
*D10
  1

  0
SOLID
  5
2D4
330
2D1
100
AcDbEntity
  8
0
  6
Continuous
 62
     7
370
     0
100
AcDbTrace
 10
98.1051194053
 20
149.1862462064
 30
0.0
 11
103.1051194053
 21
148.2862462064
 31
0.0
 12
103.1051194053
 22
150.0862462064
 32
0.0
 13
103.1051194053
 23
150.0862462064
 33
0.0
  0
SOLID
  5
2D5
330
2D1
100
AcDbEntity
  8
0
  6
Continuous
 62
     7
370
     0
100
AcDbTrace
 10
72.1971194053
 20
149.1862462064
 30
0.0
 11
67.1971194053
 21
150.0862462064
 31
0.0
 12
67.1971194053
 22
148.2862462064
 32
0.0
 13
67.1971194053
 23
148.2862462064
 33
0.0
  0
LINE
  5
2D6
330
2D1
100
AcDbEntity
  8
0
  6
Continuous
 62
     7
370
     0
100
AcDbLine
 10
98.1051194053
 20
126.6211083542
 30
0.0
 11
98.1051194053
 21
150.1862462064
 31
0.0
  0
LINE
  5
2D7
330
2D1
100
AcDbEntity
  8
0
  6
Continuous
 62
     7
370
     0
100
AcDbLine
 10
72.1971194053
 20
123.9541083542
 30
0.0
 11
72.1971194053
 21
150.1862462064
 31
0.0
  0
LINE
  5
2D8
330
2D1
100
AcDbEntity
  8
0
  6
Continuous
 62
     7
370
     0
100
AcDbLine
 10
98.1051194053
 20
149.1862462064
 30
0.0
 11
108.1051194053
 21
149.1862462064
 31
0.0
  0
LINE
  5
2D9
330
2D1
100
AcDbEntity
  8
0
  6
Continuous
 62
     7
370
     0
100
AcDbLine
 10
98.1051194053
 20
149.1862462064
 30
0.0
 11
72.1971194053
 21
149.1862462064
 31
0.0
  0
LINE
  5
2DA
330
2D1
100
AcDbEntity
  8
0
  6
Continuous
 62
     7
370
     0
100
AcDbLine
 10
72.1971194053
 20
149.1862462064
 30
0.0
 11
62.1971194053
 21
149.1862462064
 31
0.0
  0
MTEXT
  5
2DB
330
2D1
100
AcDbEntity
  8
0
  6
Continuous
 62
     7
370
     0
100
AcDbMText
 10
79.3327151202
 20
153.697983121
 30
0.0
 40
3.5
 41
0.0
 71
     1
 72
     1
  1
25,91
  7
SLDTEXTSTYLE0
 73
     1
 44
1.0
  0
ENDBLK
  5
2D3
330
2D1
100
AcDbEntity
  8
0
100
AcDbBlockEnd
  0
BLOCK
  5
2DD
330
2DC
100
AcDbEntity
  8
0
100
AcDbBlockBegin
  2
SW_NOTE_2
 70
     0
 10
0.0
 20
0.0
 30
0.0
  3
SW_NOTE_2
  1

  0
MTEXT
  5
2DF
330
2DC
100
AcDbEntity
  8
0
  6
Continuous
 62
     0
370
     0
100
AcDbMText
 10
0.0
 20
4.5117370892
 30
0.0
 40
3.5
 41
0.0
 71
     1
 72
     1
  1
RAMP IN
  7
SLDTEXTSTYLE0
 73
     1
 44
1.0
  0
MTEXT
  5
2E0
330
2DC
100
AcDbEntity
  8
0
  6
Continuous
 62
     0
370
     0
100
AcDbMText
 10
0.0
 20
-0.0139574413
 30
0.0
 40
3.5
 41
0.0
 71
     1
 72
     1
  1
150V MAX
  7
SLDTEXTSTYLE0
 73
     1
 44
1.0
  0
ENDBLK
  5
2DE
330
2DC
100
AcDbEntity
  8
0
100
AcDbBlockEnd
  0
BLOCK
  5
2E3
330
2E2
100
AcDbEntity
  8
0
100
AcDbBlockBegin
  2
SW_NOTE_3
 70
     0
 10
0.0
 20
0.0
 30
0.0
  3
SW_NOTE_3
  1

  0
MTEXT
  5
2E5
330
2E2
100
AcDbEntity
  8
0
  6
Continuous
 62
     0
370
     0
100
AcDbMText
 10
0.0
 20
4.5117370892
 30
0.0
 40
3.5
 41
0.0
 71
     1
 72
     1
  1
SMA OUTPUT
  7
SLDTEXTSTYLE0
 73
     1
 44
1.0
  0
MTEXT
  5
2E6
330
2E2
100
AcDbEntity
  8
0
  6
Continuous
 62
     0
370
     0
100
AcDbMText
 10
0.0
 20
-0.0139574413
 30
0.0
 40
3.5
 41
0.0
 71
     1
 72
     1
  1
PHOTODIODE 
  7
SLDTEXTSTYLE0
 73
     1
 44
1.0
  0
MTEXT
  5
2E7
330
2E2
100
AcDbEntity
  8
0
  6
Continuous
 62
     0
370
     0
100
AcDbMText
 10
0.0
 20
-4.5396519717
 30
0.0
 40
3.5
 41
0.0
 71
     1
 72
     1
  1
CURRENT TO
  7
SLDTEXTSTYLE0
 73
     1
 44
1.0
  0
MTEXT
  5
2E8
330
2E2
100
AcDbEntity
  8
0
  6
Continuous
 62
     0
370
     0
100
AcDbMText
 10
0.0
 20
-9.0653465022
 30
0.0
 40
3.5
 41
0.0
 71
     1
 72
     1
  1
SA201 OR SCOPE
  7
SLDTEXTSTYLE0
 73
     1
 44
1.0
  0
ENDBLK
  5
2E4
330
2E2
100
AcDbEntity
  8
0
100
AcDbBlockEnd
  0
BLOCK
  5
311
330
310
100
AcDbEntity
  8
0
100
AcDbBlockBegin
  2
SW_NOTE_4
 70
     0
 10
0.0
 20
0.0
 30
0.0
  3
SW_NOTE_4
  1

  0
MTEXT
  5
313
330
310
100
AcDbEntity
  8
0
  6
Continuous
 62
     0
370
     0
100
AcDbMText
 10
0.501899048
 20
1.7362931703
 30
0.0
 40
3.5
 41
0.0
 71
     1
 72
     1
  1
IRIS DIAPHRAGM
  7
SLDTEXTSTYLE0
 73
     1
 44
1.0
  0
ENDBLK
  5
312
330
310
100
AcDbEntity
  8
0
100
AcDbBlockEnd
  0
BLOCK
  5
318
330
317
100
AcDbEntity
  8
0
100
AcDbBlockBegin
  2
SW_NOTE_5
 70
     0
 10
0.0
 20
0.0
 30
0.0
  3
SW_NOTE_5
  1

  0
MTEXT
  5
31A
330
317
100
AcDbEntity
  8
0
  6
Continuous
 62
     0
370
     0
100
AcDbMText
 10
-27.3714053524
 20
1.7391735685
 30
0.0
 40
3.5
 41
0.0
 71
     1
 72
     1
  1
LASER INPUT
  7
SLDTEXTSTYLE0
 73
     1
 44
1.0
  0
ENDBLK
  5
319
330
317
100
AcDbEntity
  8
0
100
AcDbBlockEnd
  0
ENDSEC
  0
SECTION
  2
ENTITIES
  0
LINE
  5
44
330
1F
100
AcDbEntity
  8
0
  6
Continuous
 62
     7
370
     0
100
AcDbLine
 10
107.0182530683
 20
45.1153862005
 30
0.0
 11
107.0182530683
 21
10.0
 31
0.0
  0
LINE
  5
45
330
1F
100
AcDbEntity
  8
0
  6
Continuous
 62
     7
370
     0
100
AcDbLine
 10
292.0
 20
55.0
 30
0.0
 11
287.0
 21
55.0
 31
0.0
  0
LINE
  5
46
330
1F
100
AcDbEntity
  8
0
  6
Continuous
 62
     7
370
     0
100
AcDbLine
 10
170.0046670861
 20
33.1057998361
 30
0.0
 11
170.0046670861
 21
45.102956869
 31
0.0
  0
LINE
  5
47
330
1F
100
AcDbEntity
  8
0
  6
Continuous
 62
     7
370
     0
100
AcDbLine
 10
214.0046761283
 20
33.0561566085
 30
0.0
 11
214.0046761283
 21
45.102956869
 31
0.0
  0
LINE
  5
48
330
1F
100
AcDbEntity
  8
0
  6
Continuous
 62
     7
370
     0
100
AcDbLine
 10
148.7917334314
 20
5.1057998361
 30
0.0
 11
148.7917334314
 21
10.1057998361
 31
0.0
  0
LINE
  5
49
330
1F
100
AcDbEntity
  8
0
  6
Continuous
 62
     7
370
     0
100
AcDbLine
 10
196.0
 20
5.0
 30
0.0
 11
196.0
 21
10.0
 31
0.0
  0
LINE
  5
4A
330
1F
100
AcDbEntity
  8
0
  6
Continuous
 62
     7
370
     0
100
AcDbLine
 10
242.0
 20
5.0
 30
0.0
 11
242.0
 21
10.0
 31
0.0
  0
LINE
  5
4B
330
1F
100
AcDbEntity
  8
0
  6
Continuous
 62
     7
370
     0
100
AcDbLine
 10
233.0046810329
 20
10.0
 30
0.0
 11
233.0046810329
 21
33.1057998361
 31
0.0
  0
LINE
  5
4C
330
1F
100
AcDbEntity
  8
0
  6
Continuous
 62
     7
370
     0
100
AcDbLine
 10
287.0046911301
 20
45.102956869
 30
0.0
 11
107.0229072113
 21
45.102956869
 31
0.0
  0
LINE
  5
4D
330
1F
100
AcDbEntity
  8
0
  6
Continuous
 62
     7
370
     0
100
AcDbLine
 10
191.0
 20
26.1057982865
 30
0.0
 11
191.0
 21
33.0
 31
0.0
  0
LINE
  5
4E
330
1F
100
AcDbEntity
  8
0
  6
Continuous
 62
     7
370
     0
100
AcDbLine
 10
170.0046670861
 20
26.1057982865
 30
0.0
 11
170.0046670861
 21
33.1057998361
 31
0.0
  0
LINE
  5
4F
330
1F
100
AcDbEntity
  8
0
  6
Continuous
 62
     7
370
     0
100
AcDbLine
 10
148.7917334314
 20
26.1057998361
 30
0.0
 11
148.7917334314
 21
33.1057998361
 31
0.0
  0
LINE
  5
50
330
1F
100
AcDbEntity
  8
0
  6
Continuous
 62
     7
370
     0
100
AcDbLine
 10
128.000070398
 20
26.1057982865
 30
0.0
 11
128.000070398
 21
33.1057998361
 31
0.0
  0
LINE
  5
51
330
1F
100
AcDbEntity
  8
0
  6
Continuous
 62
     7
370
     0
100
AcDbLine
 10
243.7383383426
 20
22.6770346626
 30
0.0
 11
235.2383383426
 21
25.1770346626
 31
0.0
  0
LINE
  5
52
330
1F
100
AcDbEntity
  8
0
  6
Continuous
 62
     7
370
     0
100
AcDbLine
 10
235.2383383426
 20
28.1770346626
 30
0.0
 11
243.7383383426
 21
30.6770346626
 31
0.0
  0
LINE
  5
53
330
1F
100
AcDbEntity
  8
0
  6
Continuous
 62
     7
370
     0
100
AcDbLine
 10
243.7383383426
 20
22.6770346626
 30
0.0
 11
243.7383383426
 21
30.6770346626
 31
0.0
  0
LINE
  5
54
330
1F
100
AcDbEntity
  8
0
  6
Continuous
 62
     7
370
     0
100
AcDbLine
 10
235.2383383426
 20
25.1770346626
 30
0.0
 11
235.2383383426
 21
28.1770346626
 31
0.0
  0
LINE
  5
55
330
1F
100
AcDbEntity
  8
0
  6
CENTERX2
 62
     7
370
     0
100
AcDbLine
 10
251.8621475508
 20
21.3501143053
 30
0.0
 11
251.8621475508
 21
31.9705574001
 31
0.0
  0
LINE
  5
56
330
1F
100
AcDbEntity
  8
0
  6
CENTERX2
 62
     7
370
     0
100
AcDbLine
 10
257.0543003255
 20
26.6770346626
 30
0.0
 11
233.8866927497
 21
26.6770346626
 31
0.0
  0
LINE
  5
57
330
1F
100
AcDbEntity
  8
0
  6
Continuous
 62
     7
370
     0
100
AcDbLine
 10
287.0046929873
 20
33.1057998361
 30
0.0
 11
107.0229062116
 21
33.1057998361
 31
0.0
  0
LINE
  5
58
330
1F
100
AcDbEntity
  8
0
  6
Continuous
 62
     7
370
     0
100
AcDbLine
 10
287.0046851705
 20
26.0843649847
 30
0.0
 11
258.0046851705
 21
26.0843649847
 31
0.0
  0
LINE
  5
59
330
1F
100
AcDbEntity
  8
0
  6
Continuous
 62
     7
370
     0
100
AcDbLine
 10
287.0046810329
 20
20.0698683267
 30
0.0
 11
233.0046810329
 21
20.0698683267
 31
0.0
  0
LINE
  5
5A
330
1F
100
AcDbEntity
  8
0
  6
Continuous
 62
     7
370
     0
100
AcDbLine
 10
258.0046851705
 20
20.0843649847
 30
0.0
 11
258.0046851705
 21
45.102956869
 31
0.0
  0
LINE
  5
5B
330
1F
100
AcDbEntity
  8
0
  6
Continuous
 62
     7
370
     0
100
AcDbLine
 10
214.0046761283
 20
26.1057982865
 30
0.0
 11
214.0046761283
 21
33.0561566085
 31
0.0
  0
LINE
  5
5C
330
1F
100
AcDbEntity
  8
0
  6
Continuous
 62
     7
370
     0
100
AcDbLine
 10
148.7917334314
 20
10.1057998361
 30
0.0
 11
148.7917334314
 21
26.1057998361
 31
0.0
  0
LINE
  5
5D
330
1F
100
AcDbEntity
  8
0
  6
Continuous
 62
     7
370
     0
100
AcDbLine
 10
233.0046810329
 20
26.1057982865
 30
0.0
 11
107.0
 21
26.1057982865
 31
0.0
  0
LINE
  5
5E
330
1F
100
AcDbEntity
  8
0
  6
Continuous
 62
     7
370
     0
100
AcDbLine
 10
287.0
 20
10.0
 30
0.0
 11
107.0182530683
 21
10.0
 31
0.0
  0
LINE
  5
5F
330
1F
100
AcDbEntity
  8
0
  6
Continuous
 62
     7
370
     0
100
AcDbLine
 10
15.0
 20
55.0
 30
0.0
 11
10.0
 21
55.0
 31
0.0
  0
LINE
  5
60
330
1F
100
AcDbEntity
  8
0
  6
Continuous
 62
     7
370
     0
100
AcDbLine
 10
296.9973499678
 20
-0.0161328448
 30
0.0
 11
296.9973499678
 21
210.0062962739
 31
0.0
  0
LINE
  5
61
330
1F
100
AcDbEntity
  8
0
  6
Continuous
 62
     7
370
     0
100
AcDbLine
 10
10.0
 20
155.0
 30
0.0
 11
15.0
 21
155.0
 31
0.0
  0
LINE
  5
62
330
1F
100
AcDbEntity
  8
0
  6
Continuous
 62
     7
370
     0
100
AcDbLine
 10
15.0
 20
105.0
 30
0.0
 11
10.0
 21
105.0
 31
0.0
  0
LINE
  5
63
330
1F
100
AcDbEntity
  8
0
  6
Continuous
 62
     7
370
     0
100
AcDbLine
 10
15.0
 20
5.0
 30
0.0
 11
15.0
 21
10.0
 31
0.0
  0
LINE
  5
64
330
1F
100
AcDbEntity
  8
0
  6
Continuous
 62
     7
370
     0
100
AcDbLine
 10
15.0
 20
200.0
 30
0.0
 11
15.0
 21
205.0
 31
0.0
  0
LINE
  5
65
330
1F
100
AcDbEntity
  8
0
  6
Continuous
 62
     7
370
     0
100
AcDbLine
 10
287.0
 20
5.0
 30
0.0
 11
287.0
 21
10.0
 31
0.0
  0
LINE
  5
66
330
1F
100
AcDbEntity
  8
0
  6
Continuous
 62
     7
370
     0
100
AcDbLine
 10
287.0
 20
200.0
 30
0.0
 11
287.0
 21
205.0
 31
0.0
  0
LINE
  5
67
330
1F
100
AcDbEntity
  8
0
  6
Continuous
 62
     7
370
     0
100
AcDbLine
 10
287.0
 20
200.0
 30
0.0
 11
15.0
 21
200.0
 31
0.0
  0
LINE
  5
68
330
1F
100
AcDbEntity
  8
0
  6
Continuous
 62
     7
370
     0
100
AcDbLine
 10
296.9973499678
 20
210.0062962739
 30
0.0
 11
-0.0152375622
 21
210.0062962739
 31
0.0
  0
LINE
  5
69
330
1F
100
AcDbEntity
  8
0
  6
Continuous
 62
     7
370
     0
100
AcDbLine
 10
15.0
 20
200.0
 30
0.0
 11
15.0
 21
10.0
 31
0.0
  0
LINE
  5
6A
330
1F
100
AcDbEntity
  8
0
  6
Continuous
 62
     7
370
     0
100
AcDbLine
 10
-0.0152375622
 20
210.0062962739
 30
0.0
 11
-0.0152375622
 21
-0.0161328448
 31
0.0
  0
LINE
  5
6B
330
1F
100
AcDbEntity
  8
0
  6
Continuous
 62
     7
370
     0
100
AcDbLine
 10
-0.0152375622
 20
-0.0161328448
 30
0.0
 11
296.9973499678
 21
-0.0161328448
 31
0.0
  0
LINE
  5
6C
330
1F
100
AcDbEntity
  8
0
  6
Continuous
 62
     7
370
     0
100
AcDbLine
 10
15.0
 20
10.0
 30
0.0
 11
287.0
 21
10.0
 31
0.0
  0
LINE
  5
6D
330
1F
100
AcDbEntity
  8
0
  6
Continuous
 62
     7
370
     0
100
AcDbLine
 10
48.5
 20
5.0
 30
0.0
 11
48.5
 21
10.0
 31
0.0
  0
LINE
  5
6E
330
1F
100
AcDbEntity
  8
0
  6
Continuous
 62
     7
370
     0
100
AcDbLine
 10
98.5
 20
10.0
 30
0.0
 11
98.5
 21
5.0
 31
0.0
  0
LINE
  5
6F
330
1F
100
AcDbEntity
  8
0
  6
Continuous
 62
     7
370
     0
100
AcDbLine
 10
48.5
 20
200.0
 30
0.0
 11
48.5
 21
205.0
 31
0.0
  0
LINE
  5
70
330
1F
100
AcDbEntity
  8
0
  6
Continuous
 62
     7
370
     0
100
AcDbLine
 10
98.5
 20
205.0
 30
0.0
 11
98.5
 21
200.0
 31
0.0
  0
LINE
  5
71
330
1F
100
AcDbEntity
  8
0
  6
Continuous
 62
     7
370
     0
100
AcDbLine
 10
148.5
 20
205.0
 30
0.0
 11
148.5
 21
200.0
 31
0.0
  0
LINE
  5
72
330
1F
100
AcDbEntity
  8
0
  6
Continuous
 62
     7
370
     0
100
AcDbLine
 10
287.0
 20
10.0
 30
0.0
 11
287.0
 21
200.0
 31
0.0
  0
LINE
  5
73
330
1F
100
AcDbEntity
  8
0
  6
Continuous
 62
     7
370
     0
100
AcDbLine
 10
292.0
 20
105.0
 30
0.0
 11
287.0
 21
105.0
 31
0.0
  0
LINE
  5
74
330
1F
100
AcDbEntity
  8
0
  6
Continuous
 62
     7
370
     0
100
AcDbLine
 10
198.5
 20
205.0
 30
0.0
 11
198.5
 21
200.0
 31
0.0
  0
LINE
  5
75
330
1F
100
AcDbEntity
  8
0
  6
Continuous
 62
     7
370
     0
100
AcDbLine
 10
248.5
 20
200.0
 30
0.0
 11
248.5
 21
205.0
 31
0.0
  0
LINE
  5
76
330
1F
100
AcDbEntity
  8
0
  6
Continuous
 62
     7
370
     0
100
AcDbLine
 10
287.0
 20
155.0
 30
0.0
 11
292.0
 21
155.0
 31
0.0
  0
CIRCLE
  5
77
330
1F
100
AcDbEntity
  8
0
  6
Continuous
 62
     7
370
     0
100
AcDbCircle
 10
251.8621475508
 20
26.6770346626
 30
0.0
 40
3.99999999999999
  0
CIRCLE
  5
78
330
1F
100
AcDbEntity
  8
0
  6
Continuous
 62
     7
370
     0
100
AcDbCircle
 10
251.8621475508
 20
26.6770346626
 30
0.0
 40
1.500000000000011
  0
MTEXT
  5
7A
330
1F
100
AcDbEntity
  8
0
  6
Continuous
 62
     7
370
     0
100
AcDbMText
 10
221.1108865292
 20
38.9866255947
 30
0.0
 40
3.0
 41
0.0
 71
     1
 72
     1
  1
SS ISO-2768 fH
  7
SLDTEXTSTYLE0
 73
     1
 44
1.0
  0
MTEXT
  5
7B
330
1F
100
AcDbEntity
  8
0
  6
Continuous
 62
     7
370
     0
100
AcDbMText
 10
137.2748673376
 20
53.8493270967
 30
0.0
 40
3.5
 41
0.0
 71
     1
 72
     1
  1
INFORMATION ONLY, NOT FOR MANUFACTURING
  7
SLDTEXTSTYLE0
 73
     1
 44
1.0
  0
MTEXT
  5
7C
330
1F
100
AcDbEntity
  8
0
  6
Continuous
 62
     7
370
     0
100
AcDbMText
 10
11.6666666667
 20
131.1680164036
 30
0.0
 40
1.8520833333
 41
0.0
 71
     1
 72
     1
  1
C
  7
SLDTEXTSTYLE0
 73
     1
 44
1.0
  0
MTEXT
  5
7D
330
1F
100
AcDbEntity
  8
0
  6
Continuous
 62
     7
370
     0
100
AcDbMText
 10
11.6666666667
 20
81.1680164036
 30
0.0
 40
1.8520833333
 41
0.0
 71
     1
 72
     1
  1
B
  7
SLDTEXTSTYLE0
 73
     1
 44
1.0
  0
MTEXT
  5
7E
330
1F
100
AcDbEntity
  8
0
  6
Continuous
 62
     7
370
     0
100
AcDbMText
 10
11.6666666667
 20
31.1680164036
 30
0.0
 40
1.8520833333
 41
0.0
 71
     1
 72
     1
  1
A
  7
SLDTEXTSTYLE0
 73
     1
 44
1.0
  0
MTEXT
  5
7F
330
1F
100
AcDbEntity
  8
0
  6
Continuous
 62
     7
370
     0
100
AcDbMText
 10
23.0833373333
 20
8.6680164036
 30
0.0
 40
1.8520833333
 41
0.0
 71
     1
 72
     1
  1
1
  7
SLDTEXTSTYLE0
 73
     1
 44
1.0
  0
MTEXT
  5
80
330
1F
100
AcDbEntity
  8
0
  6
Continuous
 62
     7
370
     0
100
AcDbMText
 10
72.6666706667
 20
8.6680164036
 30
0.0
 40
1.8520833333
 41
0.0
 71
     1
 72
     1
  1
2
  7
SLDTEXTSTYLE0
 73
     1
 44
1.0
  0
MTEXT
  5
81
330
1F
100
AcDbEntity
  8
0
  6
Continuous
 62
     7
370
     0
100
AcDbMText
 10
11.6666666667
 20
181.1680164036
 30
0.0
 40
1.8520833333
 41
0.0
 71
     1
 72
     1
  1
D
  7
SLDTEXTSTYLE0
 73
     1
 44
1.0
  0
MTEXT
  5
82
330
1F
100
AcDbEntity
  8
0
  6
Continuous
 62
     7
370
     0
100
AcDbMText
 10
122.6666706667
 20
203.6680164036
 30
0.0
 40
1.8520833333
 41
0.0
 71
     1
 72
     1
  1
3
  7
SLDTEXTSTYLE0
 73
     1
 44
1.0
  0
MTEXT
  5
83
330
1F
100
AcDbEntity
  8
0
  6
Continuous
 62
     7
370
     0
100
AcDbMText
 10
72.6666706667
 20
203.6680164036
 30
0.0
 40
1.8520833333
 41
0.0
 71
     1
 72
     1
  1
2
  7
SLDTEXTSTYLE0
 73
     1
 44
1.0
  0
MTEXT
  5
84
330
1F
100
AcDbEntity
  8
0
  6
Continuous
 62
     7
370
     0
100
AcDbMText
 10
23.0833373333
 20
203.6680164036
 30
0.0
 40
1.8520833333
 41
0.0
 71
     1
 72
     1
  1
1
  7
SLDTEXTSTYLE0
 73
     1
 44
1.0
  0
MTEXT
  5
85
330
1F
100
AcDbEntity
  8
0
  6
Continuous
 62
     7
370
     0
100
AcDbMText
 10
172.6666706667
 20
203.6680164036
 30
0.0
 40
1.8520833333
 41
0.0
 71
     1
 72
     1
  1
4
  7
SLDTEXTSTYLE0
 73
     1
 44
1.0
  0
MTEXT
  5
86
330
1F
100
AcDbEntity
  8
0
  6
Continuous
 62
     7
370
     0
100
AcDbMText
 10
288.6666746667
 20
131.1680164036
 30
0.0
 40
1.8520833333
 41
0.0
 71
     1
 72
     1
  1
C
  7
SLDTEXTSTYLE0
 73
     1
 44
1.0
  0
MTEXT
  5
87
330
1F
100
AcDbEntity
  8
0
  6
Continuous
 62
     7
370
     0
100
AcDbMText
 10
288.6666746667
 20
181.1680164036
 30
0.0
 40
1.8520833333
 41
0.0
 71
     1
 72
     1
  1
D
  7
SLDTEXTSTYLE0
 73
     1
 44
1.0
  0
MTEXT
  5
88
330
1F
100
AcDbEntity
  8
0
  6
Continuous
 62
     7
370
     0
100
AcDbMText
 10
222.6666706667
 20
203.6680164036
 30
0.0
 40
1.8520833333
 41
0.0
 71
     1
 72
     1
  1
5
  7
SLDTEXTSTYLE0
 73
     1
 44
1.0
  0
MTEXT
  5
89
330
1F
100
AcDbEntity
  8
0
  6
Continuous
 62
     7
370
     0
100
AcDbMText
 10
272.6666706667
 20
203.6680164036
 30
0.0
 40
1.8520833333
 41
0.0
 71
     1
 72
     1
  1
6
  7
SLDTEXTSTYLE0
 73
     1
 44
1.0
  0
MTEXT
  5
8A
330
1F
100
AcDbEntity
  8
0
  6
Continuous
 62
     7
370
     0
100
AcDbMText
 10
288.6926520658
 20
82.1496220514
 30
0.0
 40
1.8520833333
 41
0.0
 71
     1
 72
     1
  1
B
  7
SLDTEXTSTYLE0
 73
     1
 44
1.0
  0
MTEXT
  5
8B
330
1F
100
AcDbEntity
  8
0
  6
Continuous
 62
     7
370
     0
100
AcDbMText
 10
7.6407214283
 20
51.9710446741
 30
0.0
 40
1.5375
 41
0.0
 71
     1
 72
     1
  1
annan eller obehörigen användas.
  7
SLDTEXTSTYLE0
 11
4.896366815541822E-12
 21
1.0
 31
0.0
 73
     1
 44
1.0
  0
MTEXT
  5
8C
330
1F
100
AcDbEntity
  8
0
  6
Continuous
 62
     7
370
     0
100
AcDbMText
 10
4.9440763146
 20
52.0442294974
 30
0.0
 40
1.5375
 41
0.0
 71
     1
 72
     1
  1
och får ej utan vårt medgivande kopieras, delges
  7
SLDTEXTSTYLE0
 11
4.896366815541822E-12
 21
1.0
 31
0.0
 73
     1
 44
1.0
  0
MTEXT
  5
8D
330
1F
100
AcDbEntity
  8
0
  6
Continuous
 62
     7
370
     0
100
AcDbMText
 10
2.611463737
 20
51.976842075
 30
0.0
 40
1.5375
 41
0.0
 71
     1
 72
     1
  1
Denna handling är Thorlabs Sweden AB's egendom
  7
SLDTEXTSTYLE0
 11
4.896366815541822E-12
 21
1.0
 31
0.0
 73
     1
 44
1.0
  0
MTEXT
  5
8E
330
1F
100
AcDbEntity
  8
0
  6
Continuous
 62
     7
370
     0
100
AcDbMText
 10
7.5079041492
 20
107.1255642067
 30
0.0
 40
1.5375
 41
0.0
 71
     1
 72
     1
  1
Contravention will be prosecuted.
  7
SLDTEXTSTYLE0
 11
4.896366815541822E-12
 21
1.0
 31
0.0
 73
     1
 44
1.0
  0
MTEXT
  5
8F
330
1F
100
AcDbEntity
  8
0
  6
Continuous
 62
     7
370
     0
100
AcDbMText
 10
4.7910654185
 20
136.9487964878
 30
0.0
 40
1.5375
 41
0.0
 71
     1
 72
     1
  1
wise used without authorisation.
  7
SLDTEXTSTYLE0
 11
4.896366815541822E-12
 21
1.0
 31
0.0
 73
     1
 44
1.0
  0
MTEXT
  5
90
330
1F
100
AcDbEntity
  8
0
  6
Continuous
 62
     7
370
     0
100
AcDbMText
 10
4.7770476668
 20
106.9530804253
 30
0.0
 40
1.5375
 41
0.0
 71
     1
 72
     1
  1
parted to a third party or other
  7
SLDTEXTSTYLE0
 11
4.896366815541822E-12
 21
1.0
 31
0.0
 73
     1
 44
1.0
  0
MTEXT
  5
91
330
1F
100
AcDbEntity
  8
0
  6
Continuous
 62
     7
370
     0
100
AcDbMText
 10
2.6454775431
 20
136.0018015638
 30
0.0
 40
1.5375
 41
0.0
 71
     1
 72
     1
  1
our permission be copied, im-
  7
SLDTEXTSTYLE0
 11
4.896366815541822E-12
 21
1.0
 31
0.0
 73
     1
 44
1.0
  0
MTEXT
  5
92
330
1F
100
AcDbEntity
  8
0
  6
Continuous
 62
     7
370
     0
100
AcDbMText
 10
2.5788530247
 20
106.9041714137
 30
0.0
 40
1.5375
 41
0.0
 71
     1
 72
     1
  1
This drawing must not without
  7
SLDTEXTSTYLE0
 11
4.896366815541822E-12
 21
1.0
 31
0.0
 73
     1
 44
1.0
  0
MTEXT
  5
93
330
1F
100
AcDbEntity
  8
0
  6
Continuous
 62
     7
370
     0
100
AcDbMText
 10
288.6666666667
 20
31.1680164036
 30
0.0
 40
1.8520833333
 41
0.0
 71
     1
 72
     1
  1
A
  7
SLDTEXTSTYLE0
 73
     1
 44
1.0
  0
MTEXT
  5
94
330
1F
100
AcDbEntity
  8
0
  6
Continuous
 62
     7
370
     0
100
AcDbMText
 10
234.8617470673
 20
18.3126930186
 30
0.0
 40
1.5375
 41
0.0
 71
     1
 72
     1
  1
Drawing no.
  7
SLDTEXTSTYLE0
 73
     1
 44
1.0
  0
MTEXT
  5
95
330
1F
100
AcDbEntity
  8
0
  6
Continuous
 62
     7
370
     0
100
AcDbMText
 10
259.1781521104
 20
24.9653288232
 30
0.0
 40
1.5375
 41
0.0
 71
     1
 72
     1
  1
Date
  7
SLDTEXTSTYLE0
 73
     1
 44
1.0
  0
MTEXT
  5
96
330
1F
100
AcDbEntity
  8
0
  6
Continuous
 62
     7
370
     0
100
AcDbMText
 10
259.320151224
 20
31.5609512682
 30
0.0
 40
1.5375
 41
0.0
 71
     1
 72
     1
  1
Rev.
  7
SLDTEXTSTYLE0
 73
     1
 44
1.0
  0
MTEXT
  5
97
330
1F
100
AcDbEntity
  8
0
  6
Continuous
 62
     7
370
     0
100
AcDbMText
 10
215.4435584524
 20
31.3126930186
 30
0.0
 40
1.5375
 41
0.0
 71
     1
 72
     1
  1
Scale
  7
SLDTEXTSTYLE0
 73
     1
 44
1.0
  0
MTEXT
  5
98
330
1F
100
AcDbEntity
  8
0
  6
Continuous
 62
     7
370
     0
100
AcDbMText
 10
192.2887790767
 20
31.5817829626
 30
0.0
 40
1.5375
 41
0.0
 71
     1
 72
     1
  1
Sheet Format
  7
SLDTEXTSTYLE0
 73
     1
 44
1.0
  0
MTEXT
  5
99
330
1F
100
AcDbEntity
  8
0
  6
Continuous
 62
     7
370
     0
100
AcDbMText
 10
171.5329326814
 20
31.3126930186
 30
0.0
 40
1.5375
 41
0.0
 71
     1
 72
     1
  1
Sheet
  7
SLDTEXTSTYLE0
 73
     1
 44
1.0
  0
MTEXT
  5
9A
330
1F
100
AcDbEntity
  8
0
  6
Continuous
 62
     7
370
     0
100
AcDbMText
 10
150.5329326814
 20
31.3126930186
 30
0.0
 40
1.5375
 41
0.0
 71
     1
 72
     1
  1
Check
  7
SLDTEXTSTYLE0
 73
     1
 44
1.0
  0
MTEXT
  5
9B
330
1F
100
AcDbEntity
  8
0
  6
Continuous
 62
     7
370
     0
100
AcDbMText
 10
108.5329326814
 20
31.4736002196
 30
0.0
 40
1.5375
 41
0.0
 71
     1
 72
     1
  1
Design
  7
SLDTEXTSTYLE0
 73
     1
 44
1.0
  0
MTEXT
  5
9C
330
1F
100
AcDbEntity
  8
0
  6
Continuous
 62
     7
370
     0
100
AcDbMText
 10
129.5329326814
 20
31.3126930186
 30
0.0
 40
1.5375
 41
0.0
 71
     1
 72
     1
  1
Drawn
  7
SLDTEXTSTYLE0
 73
     1
 44
1.0
  0
MTEXT
  5
9D
330
1F
100
AcDbEntity
  8
0
  6
Continuous
 62
     7
370
     0
100
AcDbMText
 10
127.0
 20
8.3472752705
 30
0.0
 40
1.85
 41
0.0
 71
     1
 72
     1
  1
3
  7
SLDTEXTSTYLE0
 73
     1
 44
1.0
  0
MTEXT
  5
9E
330
1F
100
AcDbEntity
  8
0
  6
Continuous
 62
     7
370
     0
100
AcDbMText
 10
172.0
 20
8.3472752705
 30
0.0
 40
1.85
 41
0.0
 71
     1
 72
     1
  1
4
  7
SLDTEXTSTYLE0
 73
     1
 44
1.0
  0
MTEXT
  5
9F
330
1F
100
AcDbEntity
  8
0
  6
Continuous
 62
     7
370
     0
100
AcDbMText
 10
217.0
 20
8.5532361977
 30
0.0
 40
2.5625
 41
0.0
 71
     1
 72
     1
  1
5
  7
SLDTEXTSTYLE0
 73
     1
 44
1.0
  0
MTEXT
  5
A0
330
1F
100
AcDbEntity
  8
0
  6
Continuous
 62
     7
370
     0
100
AcDbMText
 10
264.9508425452
 20
8.6220566344
 30
0.0
 40
2.5625
 41
0.0
 71
     1
 72
     1
  1
6
  7
SLDTEXTSTYLE0
 73
     1
 44
1.0
  0
MTEXT
  5
A1
330
1F
100
AcDbEntity
  8
0
  6
Continuous
 62
     7
370
     0
100
AcDbMText
 10
241.7083816705
 20
29.3756615253
 30
0.0
 40
2.05
 41
0.0
 71
     1
 72
     1
  1
E
  7
SLDTEXTSTYLE0
 73
     1
 44
1.0
  0
MTEXT
  5
A2
330
1F
100
AcDbEntity
  8
0
  6
Continuous
 62
     7
370
     0
100
AcDbMText
 10
115.4847548778
 20
30.4593770872
 30
0.0
 40
3.0
 41
0.0
 71
     1
 72
     1
  1
-
  7
SLDTEXTSTYLE0
 73
     1
 44
1.0
  0
MTEXT
  5
A3
330
1F
100
AcDbEntity
  8
0
  6
Continuous
 62
     7
370
     0
100
AcDbMText
 10
179.447603506
 20
30.5099839653
 30
0.0
 40
3.0
 41
0.0
 71
     1
 72
     1
  1
1/1
  7
SLDTEXTSTYLE0
 73
     1
 44
1.0
  0
MTEXT
  5
A4
330
1F
100
AcDbEntity
  8
0
  6
Continuous
 62
     7
370
     0
100
AcDbMText
 10
206.4247083886
 20
30.4840781102
 30
0.0
 40
3.0
 41
0.0
 71
     1
 72
     1
  1
A4
  7
SLDTEXTSTYLE0
 73
     1
 44
1.0
  0
MTEXT
  5
A5
330
1F
100
AcDbEntity
  8
0
  6
Continuous
 62
     7
370
     0
100
AcDbMText
 10
223.4556352085
 20
30.4321784304
 30
0.0
 40
3.0
 41
0.0
 71
     1
 72
     1
  1
1:1
  7
SLDTEXTSTYLE0
 73
     1
 44
1.0
  0
MTEXT
  5
A6
330
1F
100
AcDbEntity
  8
0
  6
Continuous
 62
     7
370
     0
100
AcDbMText
 10
236.8034143108
 20
15.5367057142
 30
0.0
 40
4.0
 41
0.0
 71
     1
 72
     1
  1
19502-E01
  7
SLDTEXTSTYLE0
 73
     1
 44
1.0
  0
MTEXT
  5
A7
330
1F
100
AcDbEntity
  8
0
  6
Continuous
 62
     7
370
     0
100
AcDbMText
 10
147.6499980359
 20
22.2382303833
 30
0.0
 40
4.0
 41
0.0
 71
     1
 72
     1
  1
 Scanning Fabry Perot 350-535nm
  7
SLDTEXTSTYLE0
 73
     1
 44
1.0
  0
MTEXT
  5
A8
330
1F
100
AcDbEntity
  8
0
  6
Continuous
 62
     7
370
     0
100
AcDbMText
 10
259.3550528893
 20
42.8123020131
 30
0.0
 40
1.5375
 41
0.0
 71
     1
 72
     1
  1
Weight
  7
SLDTEXTSTYLE0
 73
     1
 44
1.0
  0
MTEXT
  5
A9
330
1F
100
AcDbEntity
  8
0
  6
Continuous
 62
     7
370
     0
100
AcDbMText
 10
215.0533984466
 20
42.810162821
 30
0.0
 40
1.5375
 41
0.0
 71
     1
 72
     1
  1
General Tolerance
  7
SLDTEXTSTYLE0
 73
     1
 44
1.0
  0
INSERT
  5
B2
330
1F
100
AcDbEntity
  8
0
  6
Continuous
 62
     7
370
     0
100
AcDbBlockReference
  2
SW_NOTE_0
 10
128.2925159607
 20
16.5727068054
 30
0.0
  0
INSERT
  5
B9
330
1F
100
AcDbEntity
  8
0
  6
Continuous
 62
     7
370
     0
100
AcDbBlockReference
  2
SW_NOTE_1
 10
108.1623788481
 20
16.7346536787
 30
0.0
  0
MTEXT
  5
BA
330
1F
100
AcDbEntity
  8
0
  6
Continuous
 62
     7
370
     0
100
AcDbMText
 10
265.0012410271
 20
23.8107695378
 30
0.0
 40
3.0
 41
0.0
 71
     1
 72
     1
  1
2009-10-20
  7
SLDTEXTSTYLE0
 73
     1
 44
1.0
  0
MTEXT
  5
BC
330
1F
100
AcDbEntity
  8
0
  6
Continuous
 62
     7
370
     0
100
AcDbMText
 10
263.4506913547
 20
38.9894668433
 30
0.0
 40
3.0
 41
0.0
 71
     1
 72
     1
  1
90 g
  7
SLDTEXTSTYLE3
 73
     1
 44
1.0
  0
MTEXT
  5
BD
330
1F
100
AcDbEntity
  8
0
  6
Continuous
 62
     7
370
     0
100
AcDbMText
 10
265.4323026139
 20
30.4511459644
 30
0.0
 40
3.0
 41
0.0
 71
     1
 72
     1
  1
A
  7
SLDTEXTSTYLE0
 73
     1
 44
1.0
  0
MTEXT
  5
BE
330
1F
100
AcDbEntity
  8
0
  6
Continuous
 62
     7
370
     0
100
AcDbMText
 10
164.4130799782
 20
16.2109983005
 30
0.0
 40
4.0
 41
0.0
 71
     1
 72
     1
  1
SA210-3B, 10GHz FSR
  7
SLDTEXTSTYLE0
 73
     1
 44
1.0
  0
MTEXT
  5
BF
330
1F
100
AcDbEntity
  8
0
  6
Continuous
 62
     7
370
     0
100
AcDbMText
 10
174.0283457372
 20
42.6776423697
 30
0.0
 40
1.5375
 41
0.0
 71
     1
 72
     1
  1
Material
  7
SLDTEXTSTYLE0
 73
     1
 44
1.0
  0
MTEXT
  5
C0
330
1F
100
AcDbEntity
  8
0
  6
Continuous
 62
     7
370
     0
100
AcDbMText
 10
108.9556549025
 20
42.5025107869
 30
0.0
 40
1.5375
 41
0.0
 71
     1
 72
     1
  1
Surface Treatment
  7
SLDTEXTSTYLE0
 73
     1
 44
1.0
  0
MTEXT
  5
C1
330
1F
100
AcDbEntity
  8
0
  6
Continuous
 62
     7
370
     0
100
AcDbMText
 10
107.9611477963
 20
25.0373552496
 30
0.0
 40
4.7625
 41
0.0
 71
     1
 72
     1
  1
THORLABS
  7
SLDTEXTSTYLE0
 73
     1
 44
1.0
  0
INSERT
  5
D2
330
1F
100
AcDbEntity
  8
0
  6
Continuous
 62
     7
370
     0
100
AcDbBlockReference
  2
SW_TABLEANNOTATION_0
 10
126.7179297472
 20
200.0
 30
0.0
  0
LINE
  5
D3
330
1F
100
AcDbEntity
  8
0
  6
Continuous
 62
     7
100
AcDbLine
 10
145.7285933275
 20
115.9675091474
 30
0.0
 11
146.443645483
 21
115.9675091474
 31
0.0
  0
LINE
  5
D4
330
1F
100
AcDbEntity
  8
0
  6
Continuous
 62
     7
100
AcDbLine
 10
145.7285933275
 20
115.9675091474
 30
0.0
 11
146.0861194053
 21
115.7802893973
 31
0.0
  0
LINE
  5
D5
330
1F
100
AcDbEntity
  8
0
  6
Continuous
 62
     7
100
AcDbLine
 10
146.443645483
 20
115.9675091474
 30
0.0
 11
146.0861194053
 21
115.7802893973
 31
0.0
  0
LINE
  5
D6
330
1F
100
AcDbEntity
  8
0
  6
CENTERX2
 62
     7
100
AcDbLine
 10
146.0861194053
 20
115.7802893973
 30
0.0
 11
146.0861194053
 21
115.9675091474
 31
0.0
  0
LINE
  5
D7
330
1F
100
AcDbEntity
  8
0
  6
Continuous
 62
     7
370
    15
100
AcDbLine
 10
84.7701194053
 20
101.3641083542
 30
0.0
 11
90.3581194053
 21
101.3641083542
 31
0.0
  0
LINE
  5
D8
330
1F
100
AcDbEntity
  8
0
  6
Continuous
 62
     7
370
    15
100
AcDbLine
 10
90.3581194053
 20
126.7641083542
 30
0.0
 11
84.7701194053
 21
126.7641083542
 31
0.0
  0
LINE
  5
D9
330
1F
100
AcDbEntity
  8
0
  6
Continuous
 62
     7
370
    15
100
AcDbLine
 10
84.2621194053
 20
101.8721083542
 30
0.0
 11
84.7701194053
 21
101.8721083542
 31
0.0
  0
LINE
  5
DA
330
1F
100
AcDbEntity
  8
0
  6
Continuous
 62
     7
370
    15
100
AcDbLine
 10
84.7701194053
 20
126.2561083542
 30
0.0
 11
84.2621194053
 21
126.2561083542
 31
0.0
  0
LINE
  5
DB
330
1F
100
AcDbEntity
  8
0
  6
Continuous
 62
     7
370
    15
100
AcDbLine
 10
84.2621194053
 20
126.2561083542
 30
0.0
 11
79.5631194053
 21
123.7161083542
 31
0.0
  0
LINE
  5
DC
330
1F
100
AcDbEntity
  8
0
  6
Continuous
 62
     7
370
    15
100
AcDbLine
 10
79.5631194053
 20
104.4121083542
 30
0.0
 11
84.2621194053
 21
101.8721083542
 31
0.0
  0
LINE
  5
DD
330
1F
100
AcDbEntity
  8
0
  6
Continuous
 62
     7
370
    15
100
AcDbLine
 10
98.3591194053
 20
102.2531083542
 30
0.0
 11
111.8211194053
 21
102.2531083542
 31
0.0
  0
LINE
  5
DE
330
1F
100
AcDbEntity
  8
0
  6
Continuous
 62
     7
370
    15
100
AcDbLine
 10
111.8211194053
 20
125.8751083542
 30
0.0
 11
98.3591194053
 21
125.8751083542
 31
0.0
  0
LINE
  5
DF
330
1F
100
AcDbEntity
  8
0
  6
Continuous
 62
     7
370
    15
100
AcDbLine
 10
98.3591194053
 20
125.8751083542
 30
0.0
 11
98.1051194053
 21
125.6211083542
 31
0.0
  0
LINE
  5
E0
330
1F
100
AcDbEntity
  8
0
  6
Continuous
 62
     7
370
    15
100
AcDbLine
 10
98.1051194053
 20
102.5071083542
 30
0.0
 11
98.3591194053
 21
102.2531083542
 31
0.0
  0
LINE
  5
E1
330
1F
100
AcDbEntity
  8
0
  6
Continuous
 62
     7
370
    15
100
AcDbLine
 10
90.3581194053
 20
102.2531083542
 30
0.0
 11
97.8511194053
 21
102.2531083542
 31
0.0
  0
LINE
  5
E2
330
1F
100
AcDbEntity
  8
0
  6
Continuous
 62
     7
370
    15
100
AcDbLine
 10
97.8511194053
 20
125.8751083542
 30
0.0
 11
90.3581194053
 21
125.8751083542
 31
0.0
  0
LINE
  5
E3
330
1F
100
AcDbEntity
  8
0
  6
Continuous
 62
     7
370
    15
100
AcDbLine
 10
97.8511194053
 20
102.2531083542
 30
0.0
 11
98.1051194053
 21
102.5071083542
 31
0.0
  0
LINE
  5
E4
330
1F
100
AcDbEntity
  8
0
  6
Continuous
 62
     7
370
    15
100
AcDbLine
 10
98.1051194053
 20
125.6211083542
 30
0.0
 11
97.8511194053
 21
125.8751083542
 31
0.0
  0
SPLINE
  5
E5
330
1F
100
AcDbEntity
  8
0
  6
Continuous
 62
     7
370
    15
100
AcDbSpline
210
0.0
220
0.0
230
1.0
 70
     8
 71
     3
 72
    59
 73
    55
 74
     0
 42
0.00000001
 43
0.00000001
 40
0.0
 40
0.0
 40
0.0
 40
0.0
 40
0.0044461743858651
 40
0.0072342620728532
 40
0.0106569621448773
 40
0.0156067780246421
 40
0.0248778342332281
 40
0.034091990748741
 40
0.0517922620527553
 40
0.0648339461031171
 40
0.0776727392069568
 40
0.0907527649419501
 40
0.1038706377000683
 40
0.1171055459551165
 40
0.1439303243936395
 40
0.1716881981457651
 40
0.1851992104087438
 40
0.1973385462063704
 40
0.2071704873165337
 40
0.2151613457503803
 40
0.226489555218667
 40
0.2421542845010844
 40
0.2702990275465559
 40
0.2860294976917122
 40
0.3003886163501843
 40
0.3128811141362484
 40
0.3241052757215011
 40
0.3362057095827948
 40
0.3533193116452846
 40
0.3740219753308239
 40
0.3941343406957983
 40
0.4130966433941586
 40
0.4359204237981094
 40
0.4557693789608624
 40
0.4766960638726894
 40
0.4993421942926742
 40
0.5238599848345382
 40
0.5445349092429356
 40
0.5643235922238865
 40
0.5803012566696849
 40
0.5919466767716474
 40
0.5991928416873147
 40
0.6138435563809064
 40
0.6336295386135645
 40
0.6591290862910169
 40
0.6824218758769905
 40
0.7078376664512126
 40
0.7343620124024431
 40
0.7620405914398057
 40
0.8088325893351864
 40
0.8588498706747854
 40
0.9122433148788339
 40
0.9691598974119264
 40
1.0
 40
1.0
 40
1.0
 40
1.0
 10
105.6680229844984
 20
134.6862462063715
 30
0.0
 10
105.7026302025507
 20
134.6865096975786
 30
0.0
 10
105.7589387643108
 20
134.6869384177053
 30
0.0
 10
105.8369459860781
 20
134.671839939447
 30
0.0
 10
105.9178990684021
 20
134.6476041415002
 30
0.0
 10
106.0494246536408
 20
134.6140322588631
 30
0.0
 10
106.2232160987195
 20
134.5647003727606
 30
0.0
 10
106.4872991866256
 20
134.4759958234192
 30
0.0
 10
106.7706231998897
 20
134.3570340290239
 30
0.0
 10
107.0724021004921
 20
134.2169894852532
 30
0.0
 10
107.3389105657109
 20
134.0844592513129
 30
0.0
 10
107.602736446505
 20
133.9454785381161
 30
0.0
 10
107.8660046200466
 20
133.7993647838147
 30
0.0
 10
108.2162843681138
 20
133.5950195537358
 30
0.0
 10
108.6515954860094
 20
133.3224045110153
 30
0.0
 10
109.0734990360664
 20
133.0188480112298
 30
0.0
 10
109.3931863375483
 20
132.7657635582133
 30
0.0
 10
109.5983403873946
 20
132.5911012250891
 30
0.0
 10
109.7628040615689
 20
132.4441169824023
 30
0.0
 10
109.8943293438183
 20
132.2664799453806
 30
0.0
 10
110.0246354734439
 20
132.017930014895
 30
0.0
 10
110.2640602301582
 20
131.6563921965877
 30
0.0
 10
110.5182513476599
 20
131.2599243083054
 30
0.0
 10
110.7677158372422
 20
130.8730612449187
 30
0.0
 10
110.9408737484319
 20
130.5880303324822
 30
0.0
 10
111.0833136647483
 20
130.326611492981
 30
0.0
 10
111.2030248182558
 20
130.0691245635843
 30
0.0
 10
111.3188679901996
 20
129.7716026566216
 30
0.0
 10
111.4531552630067
 20
129.4004320682758
 30
0.0
 10
111.603327627861
 20
128.9695802983032
 30
0.0
 10
111.7457972535722
 20
128.524668390819
 30
0.0
 10
111.8786146904107
 20
128.0603188306233
 30
0.0
 10
111.9907546684886
 20
127.5915520732893
 30
0.0
 10
112.0872602503871
 20
127.1019973845468
 30
0.0
 10
112.1683056002865
 20
126.6112223089295
 30
0.0
 10
112.2409958680538
 20
126.0821772662086
 30
0.0
 10
112.3009941330616
 20
125.5536904546711
 30
0.0
 10
112.3494614609048
 20
125.0467066870304
 30
0.0
 10
112.3855649298845
 20
124.6059133630404
 30
0.0
 10
112.4118974971336
 20
124.2353185661259
 30
0.0
 10
112.4291756466594
 20
123.9625913328188
 30
0.0
 10
112.44450049583
 20
123.6999930446372
 30
0.0
 10
112.4617258445845
 20
123.3734618568148
 30
0.0
 10
112.4826200675239
 20
122.9037019530168
 30
0.0
 10
112.5011327650384
 20
122.3658109968397
 30
0.0
 10
112.5154023619461
 20
121.7834037946231
 30
0.0
 10
112.5244438513428
 20
121.1924749110616
 30
0.0
 10
112.5283007550918
 20
120.5666843987343
 30
0.0
 10
112.5262146330525
 20
119.7726276700758
 30
0.0
 10
112.5129784550075
 20
118.7937961722481
 30
0.0
 10
112.4827823024717
 20
117.6131331632353
 30
0.0
 10
112.4381909893419
 20
116.3544790157613
 30
0.0
 10
112.3863316903368
 20
115.2457809456726
 30
0.0
 10
112.3546833023824
 20
114.559960001293
 30
0.0
 10
112.3435611920849
 20
114.3189437385147
 30
0.0
  0
SPLINE
  5
E6
330
1F
100
AcDbEntity
  8
0
  6
Continuous
 62
     7
370
    15
100
AcDbSpline
210
0.0
220
0.0
230
1.0
 70
     8
 71
     3
 72
    55
 73
    51
 74
     0
 42
0.00000001
 43
0.00000001
 40
0.0
 40
0.0
 40
0.0
 40
0.0
 40
0.0240205758137958
 40
0.0606218629171622
 40
0.0979433482895459
 40
0.1395098753529562
 40
0.1807398495842325
 40
0.2181008040585122
 40
0.2513660358691188
 40
0.2809245441679653
 40
0.3086278300799694
 40
0.3329717089601044
 40
0.3545648688286365
 40
0.3639364245800124
 40
0.3730535496315291
 40
0.3848753319210865
 40
0.4000552005755879
 40
0.4182251426831799
 40
0.4450087600737796
 40
0.4740646892268826
 40
0.4999313250886109
 40
0.5223555918441027
 40
0.5418122913767094
 40
0.5584267177419445
 40
0.5747406579436998
 40
0.5931039340626468
 40
0.6130278406363524
 40
0.6259050023035075
 40
0.6362354873133345
 40
0.649888055920868
 40
0.6659868914886378
 40
0.6794370933731395
 40
0.6943766689743495
 40
0.7148834707013335
 40
0.7324784850884374
 40
0.7491305416430396
 40
0.763859214548397
 40
0.780176074694256
 40
0.8107145451443782
 40
0.84356627068885
 40
0.8753568242213271
 40
0.8867575205063254
 40
0.8978352536194023
 40
0.9085587703827953
 40
0.9206043530146502
 40
0.9359190217081907
 40
0.9540968973607548
 40
0.9678304339085184
 40
0.9832558566698638
 40
1.0
 40
1.0
 40
1.0
 40
1.0
 10
114.840251744124
 20
114.2089759774445
 30
0.0
 10
114.8505359246484
 20
114.4288339758129
 30
0.0
 10
114.8764905972923
 20
114.9837000015755
 30
0.0
 10
114.9188898149658
 20
115.8839697754834
 30
0.0
 10
114.959269866007
 20
116.9439197205256
 30
0.0
 10
114.992625055187
 20
118.0460848936525
 30
0.0
 10
115.0151197051942
 20
119.1479691679337
 30
0.0
 10
115.0254826120272
 20
120.1731310629204
 30
0.0
 10
115.0248606398132
 20
121.0910906811078
 30
0.0
 10
115.0149170742719
 20
121.9207052756947
 30
0.0
 10
114.9967746962916
 20
122.6687594075685
 30
0.0
 10
114.971548337181
 20
123.3438886855058
 30
0.0
 10
114.9458168524905
 20
123.8507365388054
 30
0.0
 10
114.9234137966316
 20
124.2177669055966
 30
0.0
 10
114.9046845978692
 20
124.4951598127955
 30
0.0
 10
114.8798067471071
 20
124.8256795626855
 30
0.0
 10
114.8442966691248
 20
125.2387252715296
 30
0.0
 10
114.7891612054583
 20
125.787795783199
 30
0.0
 10
114.7071609871673
 20
126.4618094135364
 30
0.0
 10
114.5959404592936
 20
127.2029223518787
 30
0.0
 10
114.4697886486167
 20
127.9014003960221
 30
0.0
 10
114.3420861676863
 20
128.5105049492166
 30
0.0
 10
114.217868958242
 20
129.0342422150926
 30
0.0
 10
114.0903394211216
 20
129.499156244171
 30
0.0
 10
113.9458513406242
 20
129.9492041887303
 30
0.0
 10
113.7655188706523
 20
130.4198282854219
 30
0.0
 10
113.5676129015878
 20
130.8471666024199
 30
0.0
 10
113.389524930591
 20
131.2000350137438
 30
0.0
 10
113.2354989646851
 20
131.5030420352059
 30
0.0
 10
113.0696732097967
 20
131.8316614829301
 30
0.0
 10
112.8891709121288
 20
132.1876245954502
 30
0.0
 10
112.6892997463045
 20
132.5464418444924
 30
0.0
 10
112.4526772664703
 20
132.9312557259524
 30
0.0
 10
112.1852169896037
 20
133.3370037426521
 30
0.0
 10
111.9129181425184
 20
133.7608747657664
 30
0.0
 10
111.6209324368411
 20
134.1039487853718
 30
0.0
 10
111.3133332253898
 20
134.4122585133888
 30
0.0
 10
110.8941613653057
 20
134.7822775780888
 30
0.0
 10
110.3201761725297
 20
135.2070218149804
 30
0.0
 10
109.6090455730952
 20
135.6789704688667
 30
0.0
 10
109.0230111224664
 20
136.0236639079653
 30
0.0
 10
108.5940369639194
 20
136.2529802105223
 30
0.0
 10
108.3281517930929
 20
136.3877963373054
 30
0.0
 10
108.0533658212271
 20
136.5194721569961
 30
0.0
 10
107.7403160944724
 20
136.6599866272648
 30
0.0
 10
107.3589903380249
 20
136.8157923118615
 30
0.0
 10
106.9533254699986
 20
136.9607657475315
 30
0.0
 10
106.5350825680964
 20
137.077546752246
 30
0.0
 10
106.1197073537882
 20
137.1634423980795
 30
0.0
 10
105.8226435992259
 20
137.178440005635
 30
0.0
 10
105.6680229844984
 20
137.1862462063715
 30
0.0
  0
LINE
  5
E7
330
1F
100
AcDbEntity
  8
0
  6
Continuous
 62
     7
370
    15
100
AcDbLine
 10
103.5021194053
 20
134.6862462064
 30
0.0
 11
105.6680229845
 21
134.6862462064
 31
0.0
  0
LINE
  5
E8
330
1F
100
AcDbEntity
  8
0
  6
Continuous
 62
     7
370
    15
100
AcDbLine
 10
105.6680229845
 20
137.1862462064
 30
0.0
 11
103.5021194053
 21
137.1862462064
 31
0.0
  0
LINE
  5
E9
330
1F
100
AcDbEntity
  8
0
  6
Continuous
 62
     7
370
    15
100
AcDbLine
 10
138.1611194053
 20
119.6391083542
 30
0.0
 11
137.2211194053
 21
119.6391083542
 31
0.0
  0
LINE
  5
EA
330
1F
100
AcDbEntity
  8
0
  6
Continuous
 62
     7
370
    15
100
AcDbLine
 10
137.2211194053
 20
108.4891083542
 30
0.0
 11
138.1611194053
 21
108.4891083542
 31
0.0
  0
SPLINE
  5
EB
330
1F
100
AcDbEntity
  8
0
  6
Continuous
 62
     7
370
    15
100
AcDbSpline
210
0.0
220
0.0
230
1.0
 70
     8
 71
     3
 72
     9
 73
     5
 74
     0
 42
0.00000001
 43
0.00000001
 40
0.0
 40
0.0
 40
0.0
 40
0.0
 40
0.4999947520197994
 40
1.0
 40
1.0
 40
1.0
 40
1.0
 10
140.3880272182527
 20
116.8132139666692
 30
0.0
 10
140.3296339494921
 20
116.8621843560281
 30
0.0
 10
140.2128461861709
 20
116.9601261627391
 30
0.0
 10
140.0960622578654
 20
117.0580685841067
 30
0.0
 10
140.037669680833
 20
117.1070403087903
 30
0.0
  0
SPLINE
  5
EC
330
1F
100
AcDbEntity
  8
0
  6
Continuous
 62
     7
370
    15
100
AcDbSpline
210
0.0
220
0.0
230
1.0
 70
     8
 71
     3
 72
     9
 73
     5
 74
     0
 42
0.00000001
 43
0.00000001
 40
0.0
 40
0.0
 40
0.0
 40
0.0
 40
0.4999941817651721
 40
1.0
 40
1.0
 40
1.0
 40
1.0
 10
141.0885204160969
 20
116.8128711272579
 30
0.0
 10
141.0301238546094
 20
116.8618447131764
 30
0.0
 10
140.9133293725589
 20
116.9597930247859
 30
0.0
 10
140.7965391404089
 20
117.057743596693
 30
0.0
 10
140.7381433448209
 20
117.106719452546
 30
0.0
  0
SPLINE
  5
ED
330
1F
100
AcDbEntity
  8
0
  6
Continuous
 62
     7
370
    15
100
AcDbSpline
210
0.0
220
0.0
230
1.0
 70
     8
 71
     3
 72
     9
 73
     5
 74
     0
 42
0.00000001
 43
0.00000001
 40
0.0
 40
0.0
 40
0.0
 40
0.0
 40
0.4999944016559693
 40
1.0
 40
1.0
 40
1.0
 40
1.0
 10
141.7888263127621
 20
116.8126309337587
 30
0.0
 10
141.7304309152731
 20
116.8616037332189
 30
0.0
 10
141.6136388126104
 20
116.9595504288179
 30
0.0
 10
141.4968507978118
 20
117.0575009559539
 30
0.0
 10
141.438456136593
 20
117.1064767678827
 30
0.0
  0
SPLINE
  5
EE
330
1F
100
AcDbEntity
  8
0
  6
Continuous
 62
     7
370
    15
100
AcDbSpline
210
0.0
220
0.0
230
1.0
 70
     8
 71
     3
 72
     9
 73
     5
 74
     0
 42
0.00000001
 43
0.00000001
 40
0.0
 40
0.0
 40
0.0
 40
0.0
 40
0.4999948017744427
 40
1.0
 40
1.0
 40
1.0
 40
1.0
 10
142.488904414467
 20
116.8125662364057
 30
0.0
 10
142.4305112833853
 20
116.8615370922904
 30
0.0
 10
142.3137238070466
 20
116.9594798223168
 30
0.0
 10
142.1969401258895
 20
117.0574270163976
 30
0.0
 10
142.1385476782431
 20
117.1064011225896
 30
0.0
  0
SPLINE
  5
EF
330
1F
100
AcDbEntity
  8
0
  6
Continuous
 62
     7
370
    15
100
AcDbSpline
210
0.0
220
0.0
230
1.0
 70
     8
 71
     3
 72
     9
 73
     5
 74
     0
 42
0.00000001
 43
0.00000001
 40
0.0
 40
0.0
 40
0.0
 40
0.0
 40
0.4999950932166326
 40
1.0
 40
1.0
 40
1.0
 40
1.0
 10
143.1887082843402
 20
116.8127261049426
 30
0.0
 10
143.1303169009173
 20
116.861695722468
 30
0.0
 10
143.0135329880047
 20
116.9596359186614
 30
0.0
 10
142.8967526580713
 20
117.0575799458286
 30
0.0
 10
142.8383619200889
 20
117.1065524400022
 30
0.0
  0
SPLINE
  5
F0
330
1F
100
AcDbEntity
  8
0
  6
Continuous
 62
     7
370
    15
100
AcDbSpline
210
0.0
220
0.0
230
1.0
 70
     8
 71
     3
 72
     9
 73
     5
 74
     0
 42
0.00000001
 43
0.00000001
 40
0.0
 40
0.0
 40
0.0
 40
0.0
 40
0.4999954306008398
 40
1.0
 40
1.0
 40
1.0
 40
1.0
 10
143.8884965710406
 20
116.8128889657188
 30
0.0
 10
143.8301072699589
 20
116.8618570965808
 30
0.0
 10
143.7133276005695
 20
116.9597942533327
 30
0.0
 10
143.5965512683617
 20
117.0577346146947
 30
0.0
 10
143.5381625686601
 20
117.1067052429043
 30
0.0
  0
SPLINE
  5
F1
330
1F
100
AcDbEntity
  8
0
  6
Continuous
 62
     7
370
    15
100
AcDbSpline
210
0.0
220
0.0
230
1.0
 70
     8
 71
     3
 72
     9
 73
     5
 74
     0
 42
0.00000001
 43
0.00000001
 40
0.0
 40
0.0
 40
0.0
 40
0.0
 40
0.4999950867684086
 40
0.9999999999999999
 40
0.9999999999999999
 40
0.9999999999999999
 40
0.9999999999999999
 10
144.5883374946127
 20
116.8130046903896
 30
0.0
 10
144.5299461341755
 20
116.8619742938425
 30
0.0
 10
144.4131622657287
 20
116.9599144631536
 30
0.0
 10
144.2963819863502
 20
117.0578568987894
 30
0.0
 10
144.2379912728925
 20
117.1068285978211
 30
0.0
  0
SPLINE
  5
F2
330
1F
100
AcDbEntity
  8
0
  6
Continuous
 62
     7
370
    15
100
AcDbSpline
210
0.0
220
0.0
230
1.0
 70
     8
 71
     3
 72
     9
 73
     5
 74
     0
 42
0.00000001
 43
0.00000001
 40
0.0
 40
0.0
 40
0.0
 40
0.0
 40
0.4999947520197947
 40
1.0
 40
1.0
 40
1.0
 40
1.0
 10
145.2880272182527
 20
116.8132139666692
 30
0.0
 10
145.229633949492
 20
116.8621843560281
 30
0.0
 10
145.1128461861709
 20
116.9601261627391
 30
0.0
 10
144.9960622578654
 20
117.0580685841067
 30
0.0
 10
144.937669680833
 20
117.1070403087903
 30
0.0
  0
SPLINE
  5
F3
330
1F
100
AcDbEntity
  8
0
  6
Continuous
 62
     7
370
    15
100
AcDbSpline
210
0.0
220
0.0
230
1.0
 70
     8
 71
     3
 72
     9
 73
     5
 74
     0
 42
0.00000001
 43
0.00000001
 40
0.0
 40
0.0
 40
0.0
 40
0.0
 40
0.4999941817651672
 40
1.0
 40
1.0
 40
1.0
 40
1.0
 10
145.9885204160969
 20
116.8128711272579
 30
0.0
 10
145.9301238546094
 20
116.8618447131764
 30
0.0
 10
145.8133293725589
 20
116.9597930247859
 30
0.0
 10
145.6965391404089
 20
117.057743596693
 30
0.0
 10
145.6381433448209
 20
117.106719452546
 30
0.0
  0
SPLINE
  5
F4
330
1F
100
AcDbEntity
  8
0
  6
Continuous
 62
     7
370
    15
100
AcDbSpline
210
0.0
220
0.0
230
1.0
 70
     8
 71
     3
 72
     9
 73
     5
 74
     0
 42
0.00000001
 43
0.00000001
 40
0.0
 40
0.0
 40
0.0
 40
0.0
 40
0.5049699141963179
 40
0.9999999999999999
 40
0.9999999999999999
 40
0.9999999999999999
 40
0.9999999999999999
 10
145.2883619200889
 20
111.0216642683684
 30
0.0
 10
145.3467526551064
 20
111.0706367657122
 30
0.0
 10
145.4623847618438
 20
111.1676177857039
 30
0.0
 10
145.5780204163315
 20
111.2645950123891
 30
0.0
 10
145.6352635442945
 20
111.312601657236
 30
0.0
  0
SPLINE
  5
F5
330
1F
100
AcDbEntity
  8
0
  6
Continuous
 62
     7
370
    15
100
AcDbSpline
210
0.0
220
0.0
230
1.0
 70
     8
 71
     3
 72
     9
 73
     5
 74
     0
 42
0.00000001
 43
0.00000001
 40
0.0
 40
0.0
 40
0.0
 40
0.0
 40
0.5052509282242525
 40
1.0
 40
1.0
 40
1.0
 40
1.0
 10
144.5885476782431
 20
111.021815585781
 30
0.0
 10
144.6469401225714
 20
111.0707896958759
 30
0.0
 10
144.7625112993203
 20
111.1677199682597
 30
0.0
 10
144.8780862318476
 20
111.2646458229367
 30
0.0
 10
144.935266822436
 20
111.3125997995692
 30
0.0
  0
SPLINE
  5
F6
330
1F
100
AcDbEntity
  8
0
  6
Continuous
 62
     7
370
    15
100
AcDbSpline
210
0.0
220
0.0
230
1.0
 70
     8
 71
     3
 72
     9
 73
     5
 74
     0
 42
0.00000001
 43
0.00000001
 40
0.0
 40
0.0
 40
0.0
 40
0.0
 40
0.5051192574206229
 40
1.0
 40
1.0
 40
1.0
 40
1.0
 10
143.888456136593
 20
111.021739940488
 30
0.0
 10
143.9468507943278
 20
111.0707157556823
 30
0.0
 10
144.0624564792762
 20
111.1676746707796
 30
0.0
 10
144.1780662107046
 20
111.2646297931293
 30
0.0
 10
144.2352792404432
 20
111.3126110160745
 30
0.0
  0
SPLINE
  5
F7
330
1F
100
AcDbEntity
  8
0
  6
Continuous
 62
     7
370
    15
100
AcDbSpline
210
0.0
220
0.0
230
1.0
 70
     8
 71
     3
 72
     9
 73
     5
 74
     0
 42
0.00000001
 43
0.00000001
 40
0.0
 40
0.0
 40
0.0
 40
0.0
 40
0.5045871842123181
 40
1.0
 40
1.0
 40
1.0
 40
1.0
 10
143.1881433448209
 20
111.0214972558246
 30
0.0
 10
143.2465391371638
 20
111.0704731134035
 30
0.0
 10
143.3622689736916
 20
111.1675343529896
 30
0.0
 10
143.4780030215332
 20
111.2645933528002
 30
0.0
 10
143.5353391520568
 20
111.3126776251939
 30
0.0
  0
SPLINE
  5
F8
330
1F
100
AcDbEntity
  8
0
  6
Continuous
 62
     7
370
    15
100
AcDbSpline
210
0.0
220
0.0
230
1.0
 70
     8
 71
     3
 72
     9
 73
     5
 74
     0
 42
0.00000001
 43
0.00000001
 40
0.0
 40
0.0
 40
0.0
 40
0.0
 40
0.5039892177481111
 40
0.9999999999999999
 40
0.9999999999999999
 40
0.9999999999999999
 40
0.9999999999999999
 10
142.487669680833
 20
111.0211763995803
 30
0.0
 10
142.546062255319
 20
111.0701481246721
 30
0.0
 10
142.6619230166799
 20
111.16731632464
 30
0.0
 10
142.7777875827413
 20
111.2644839148101
 30
0.0
 10
142.8352576567887
 20
111.3126800872199
 30
0.0
  0
SPLINE
  5
F9
330
1F
100
AcDbEntity
  8
0
  6
Continuous
 62
     7
370
    15
100
AcDbSpline
210
0.0
220
0.0
230
1.0
 70
     8
 71
     3
 72
     9
 73
     5
 74
     0
 42
0.00000001
 43
0.00000001
 40
0.0
 40
0.0
 40
0.0
 40
0.0
 40
0.5044405253336809
 40
0.9999999999999999
 40
0.9999999999999999
 40
0.9999999999999999
 40
0.9999999999999999
 10
141.7879912728926
 20
111.0213881105495
 30
0.0
 10
141.846381983697
 20
111.0703598112567
 30
0.0
 10
141.9621353934093
 20
111.1674410294534
 30
0.0
 10
142.0778923606309
 20
111.2645200012536
 30
0.0
 10
142.1352568224962
 20
111.3126284055201
 30
0.0
  0
SPLINE
  5
FA
330
1F
100
AcDbEntity
  8
0
  6
Continuous
 62
     7
370
    15
100
AcDbSpline
210
0.0
220
0.0
230
1.0
 70
     8
 71
     3
 72
     9
 73
     5
 74
     0
 42
0.00000001
 43
0.00000001
 40
0.0
 40
0.0
 40
0.0
 40
0.0
 40
0.5046676336503018
 40
1.0
 40
1.0
 40
1.0
 40
1.0
 10
141.0881625686601
 20
111.0215114654663
 30
0.0
 10
141.1465512657681
 20
111.0704820961665
 30
0.0
 10
141.2622485944944
 20
111.1675175060776
 30
0.0
 10
141.3779492295672
 20
111.264549740989
 30
0.0
 10
141.4352594989259
 20
111.3126129475198
 30
0.0
  0
SPLINE
  5
FB
330
1F
100
AcDbEntity
  8
0
  6
Continuous
 62
     7
370
    15
100
AcDbSpline
210
0.0
220
0.0
230
1.0
 70
     8
 71
     3
 72
     9
 73
     5
 74
     0
 42
0.00000001
 43
0.00000001
 40
0.0
 40
0.0
 40
0.0
 40
0.0
 40
0.5049699141963128
 40
1.0
 40
1.0
 40
1.0
 40
1.0
 10
140.3883619200889
 20
111.0216642683684
 30
0.0
 10
140.4467526551064
 20
111.0706367657122
 30
0.0
 10
140.5623847618438
 20
111.1676177857039
 30
0.0
 10
140.6780204163315
 20
111.2645950123891
 30
0.0
 10
140.7352635442945
 20
111.312601657236
 30
0.0
  0
SPLINE
  5
FC
330
1F
100
AcDbEntity
  8
0
  6
Continuous
 62
     7
370
    15
100
AcDbSpline
210
0.0
220
0.0
230
1.0
 70
     8
 71
     3
 72
     9
 73
     5
 74
     0
 42
0.00000001
 43
0.00000001
 40
0.0
 40
0.0
 40
0.0
 40
0.0
 40
0.486636630658438
 40
1.0
 40
1.0
 40
1.0
 40
1.0
 10
139.7011194052697
 20
111.0323594336188
 30
0.0
 10
139.7553213077872
 20
111.0778188879346
 30
0.0
 10
139.8667019542547
 20
111.1712344909779
 30
0.0
 10
139.9780862203181
 20
111.2646458364982
 30
0.0
 10
140.035266822436
 20
111.3125997995692
 30
0.0
  0
LINE
  5
FD
330
1F
100
AcDbEntity
  8
0
  6
Continuous
 62
     7
370
    15
100
AcDbLine
 10
137.2211194053
 20
111.3007720294
 30
0.0
 11
137.2352568225
 21
111.3126284055
 31
0.0
  0
SPLINE
  5
FE
330
1F
100
AcDbEntity
  8
0
  6
Continuous
 62
     7
370
    15
100
AcDbSpline
210
0.0
220
0.0
230
1.0
 70
     8
 71
     3
 72
     9
 73
     5
 74
     0
 42
0.00000001
 43
0.00000001
 40
0.0
 40
0.0
 40
0.0
 40
0.0
 40
0.5299907035804151
 40
1.0
 40
1.0
 40
1.0
 40
1.0
 10
140.0316308724439
 20
117.1060879089763
 30
0.0
 10
139.9732423688476
 20
117.0571159439997
 30
0.0
 10
139.8630734485215
 20
116.96471438932
 30
0.0
 10
139.7529013267218
 20
116.8723185495493
 30
0.0
 10
139.7011194052697
 20
116.8288916459066
 30
0.0
  0
SPLINE
  5
FF
330
1F
100
AcDbEntity
  8
0
  6
Continuous
 62
     7
370
    15
100
AcDbSpline
210
0.0
220
0.0
230
1.0
 70
     8
 71
     3
 72
     9
 73
     5
 74
     0
 42
0.00000001
 43
0.00000001
 40
0.0
 40
0.0
 40
0.0
 40
0.0
 40
0.5062466604757887
 40
1.0
 40
1.0
 40
1.0
 40
1.0
 10
140.7312655425605
 20
117.105722605268
 30
0.0
 10
140.6728779169285
 20
117.0567521413228
 30
0.0
 10
140.5575435746198
 20
116.960019722586
 30
0.0
 10
140.4422059795346
 20
116.8632948500034
 30
0.0
 10
140.3852576567886
 20
116.8155366211507
 30
0.0
  0
SPLINE
  5
100
330
1F
100
AcDbEntity
  8
0
  6
Continuous
 62
     7
370
    15
100
AcDbSpline
210
0.0
220
0.0
230
1.0
 70
     8
 71
     3
 72
     9
 73
     5
 74
     0
 42
0.00000001
 43
0.00000001
 40
0.0
 40
0.0
 40
0.0
 40
0.0
 40
0.5067947430948184
 40
1.0
 40
1.0
 40
1.0
 40
1.0
 10
141.4309968497461
 20
117.105430944285
 30
0.0
 10
141.3726052941076
 20
117.0564568859131
 30
0.0
 10
141.2573879276412
 20
116.9598219877829
 30
0.0
 10
141.1421668119984
 20
116.8631956841056
 30
0.0
 10
141.0853391520569
 20
116.8155390831767
 30
0.0
  0
SPLINE
  5
101
330
1F
100
AcDbEntity
  8
0
  6
Continuous
 62
     7
370
    15
100
AcDbSpline
210
0.0
220
0.0
230
1.0
 70
     8
 71
     3
 72
     9
 73
     5
 74
     0
 42
0.00000001
 43
0.00000001
 40
0.0
 40
0.0
 40
0.0
 40
0.0
 40
0.5057729284361566
 40
1.0
 40
1.0
 40
1.0
 40
1.0
 10
142.131640785426
 20
117.1060973206223
 30
0.0
 10
142.0732483256885
 20
117.0571216246499
 30
0.0
 10
141.9577963976501
 20
116.9602882569096
 30
0.0
 10
141.8423406141953
 20
116.8634605609275
 30
0.0
 10
141.7852792404432
 20
116.8156056922961
 30
0.0
  0
SPLINE
  5
102
330
1F
100
AcDbEntity
  8
0
  6
Continuous
 62
     7
370
    15
100
AcDbSpline
210
0.0
220
0.0
230
1.0
 70
     8
 71
     3
 72
     9
 73
     5
 74
     0
 42
0.00000001
 43
0.00000001
 40
0.0
 40
0.0
 40
0.0
 40
0.0
 40
0.5052523677181608
 40
1.0
 40
1.0
 40
1.0
 40
1.0
 10
142.8319735139646
 20
117.1063979218912
 30
0.0
 10
142.7735829620188
 20
117.0574242226129
 30
0.0
 10
142.6580158599596
 20
116.9604950394811
 30
0.0
 10
142.5424451550508
 20
116.8635702291982
 30
0.0
 10
142.485266822436
 20
116.8156169088014
 30
0.0
  0
SPLINE
  5
103
330
1F
100
AcDbEntity
  8
0
  6
Continuous
 62
     7
370
    15
100
AcDbSpline
210
0.0
220
0.0
230
1.0
 70
     8
 71
     3
 72
     9
 73
     5
 74
     0
 42
0.00000001
 43
0.00000001
 40
0.0
 40
0.0
 40
0.0
 40
0.0
 40
0.5051074911062379
 40
1.0
 40
1.0
 40
1.0
 40
1.0
 10
143.5320534195452
 20
117.1064656946051
 30
0.0
 10
143.4736655219794
 20
117.0574943391746
 30
0.0
 10
143.3580705276587
 20
116.9605419947869
 30
0.0
 10
143.2424722606689
 20
116.8635939247483
 30
0.0
 10
143.1852635442945
 20
116.8156150511346
 30
0.0
  0
SPLINE
  5
104
330
1F
100
AcDbEntity
  8
0
  6
Continuous
 62
     7
370
    15
100
AcDbSpline
210
0.0
220
0.0
230
1.0
 70
     8
 71
     3
 72
     9
 73
     5
 74
     0
 42
0.00000001
 43
0.00000001
 40
0.0
 40
0.0
 40
0.0
 40
0.0
 40
0.5054873203693803
 40
1.0
 40
1.0
 40
1.0
 40
1.0
 10
144.231787817596
 20
117.1062338176775
 30
0.0
 10
144.1734000808395
 20
117.0572625257578
 30
0.0
 10
144.0578922641174
 20
116.9603831581727
 30
0.0
 10
143.9423811898091
 20
116.8635091742346
 30
0.0
 10
143.8852594989259
 20
116.8156037608508
 30
0.0
  0
SPLINE
  5
105
330
1F
100
AcDbEntity
  8
0
  6
Continuous
 62
     7
370
    15
100
AcDbSpline
210
0.0
220
0.0
230
1.0
 70
     8
 71
     3
 72
     9
 73
     5
 74
     0
 42
0.00000001
 43
0.00000001
 40
0.0
 40
0.0
 40
0.0
 40
0.0
 40
0.5057194308295816
 40
0.9999999999999999
 40
0.9999999999999999
 40
0.9999999999999999
 40
0.9999999999999999
 10
144.9316308724439
 20
117.1060879089763
 30
0.0
 10
144.8732423551201
 20
117.0571159685043
 30
0.0
 10
144.7577860096363
 20
116.9602797832868
 30
0.0
 10
144.6423263090287
 20
116.863449587257
 30
0.0
 10
144.5852568224962
 20
116.8155883028505
 30
0.0
  0
SPLINE
  5
106
330
1F
100
AcDbEntity
  8
0
  6
Continuous
 62
     7
370
    15
100
AcDbSpline
210
0.0
220
0.0
230
1.0
 70
     8
 71
     3
 72
     9
 73
     5
 74
     0
 42
0.00000001
 43
0.00000001
 40
0.0
 40
0.0
 40
0.0
 40
0.0
 40
0.5062466604758181
 40
1.0
 40
1.0
 40
1.0
 40
1.0
 10
145.6312655425605
 20
117.105722605268
 30
0.0
 10
145.5728779169285
 20
117.0567521413228
 30
0.0
 10
145.4575435746197
 20
116.960019722586
 30
0.0
 10
145.3422059795346
 20
116.8632948500034
 30
0.0
 10
145.2852576567886
 20
116.8155366211507
 30
0.0
  0
LINE
  5
107
330
1F
100
AcDbEntity
  8
0
  6
Continuous
 62
     7
370
    15
100
AcDbLine
 10
146.0319950036
 20
116.8542328483
 30
0.0
 11
145.9838763173
 21
116.8138896392
 31
0.0
  0
SPLINE
  5
108
330
1F
100
AcDbEntity
  8
0
  6
Continuous
 62
     7
370
    15
100
AcDbSpline
210
0.0
220
0.0
230
1.0
 70
     8
 71
     3
 72
     9
 73
     5
 74
     0
 42
0.00000001
 43
0.00000001
 40
0.0
 40
0.0
 40
0.0
 40
0.0
 40
0.7825372808693618
 40
1.0
 40
1.0
 40
1.0
 40
1.0
 10
145.631724523778
 20
111.3155697407172
 30
0.0
 10
145.6901130776612
 20
111.2666017201435
 30
0.0
 10
145.76472748302
 20
111.2040257614374
 30
0.0
 10
145.8393397759977
 20
111.1414470438045
 30
0.0
 10
145.8555651681092
 20
111.1278385057084
 30
0.0
  0
SPLINE
  5
109
330
1F
100
AcDbEntity
  8
0
  6
Continuous
 62
     7
370
    15
100
AcDbSpline
210
0.0
220
0.0
230
1.0
 70
     8
 71
     3
 72
     9
 73
     5
 74
     0
 42
0.00000001
 43
0.00000001
 40
0.0
 40
0.0
 40
0.0
 40
0.0
 40
0.4999945530075119
 40
1.0
 40
1.0
 40
1.0
 40
1.0
 10
144.9316285388155
 20
111.3156511298065
 30
0.0
 10
144.9900196420558
 20
111.2666807107622
 30
0.0
 10
145.1068031207739
 20
111.1687388056961
 30
0.0
 10
145.2235829588352
 20
111.0707924818936
 30
0.0
 10
145.2819735139647
 20
111.0218187864794
 30
0.0
  0
SPLINE
  5
10A
330
1F
100
AcDbEntity
  8
0
  6
Continuous
 62
     7
370
    15
100
AcDbSpline
210
0.0
220
0.0
230
1.0
 70
     8
 71
     3
 72
     9
 73
     5
 74
     0
 42
0.00000001
 43
0.00000001
 40
0.0
 40
0.0
 40
0.0
 40
0.0
 40
0.4999941634645
 40
1.0
 40
1.0
 40
1.0
 40
1.0
 10
144.231284244373
 20
111.3159614946236
 30
0.0
 10
144.2896772945561
 20
111.2669898161007
 30
0.0
 10
144.4064647581905
 20
111.1690453157417
 30
0.0
 10
144.5232483219399
 20
111.0710950782061
 30
0.0
 10
144.581640785426
 20
111.0221193877483
 30
0.0
  0
SPLINE
  5
10B
330
1F
100
AcDbEntity
  8
0
  6
Continuous
 62
     7
370
    15
100
AcDbSpline
210
0.0
220
0.0
230
1.0
 70
     8
 71
     3
 72
     9
 73
     5
 74
     0
 42
0.00000001
 43
0.00000001
 40
0.0
 40
0.0
 40
0.0
 40
0.0
 40
0.4999943091390285
 40
1.0
 40
1.0
 40
1.0
 40
1.0
 10
143.5306457775478
 20
111.3166136440875
 30
0.0
 10
143.5890379083278
 20
111.2676450659022
 30
0.0
 10
143.705823499109
 20
111.1697067948254
 30
0.0
 10
143.8226052898077
 20
111.0717598126006
 30
0.0
 10
143.8809968497461
 20
111.0227857640856
 30
0.0
  0
SPLINE
  5
10C
330
1F
100
AcDbEntity
  8
0
  6
Continuous
 62
     7
370
    15
100
AcDbSpline
210
0.0
220
0.0
230
1.0
 70
     8
 71
     3
 72
     9
 73
     5
 74
     0
 42
0.00000001
 43
0.00000001
 40
0.0
 40
0.0
 40
0.0
 40
0.0
 40
0.4999950688852471
 40
1.0
 40
1.0
 40
1.0
 40
1.0
 10
142.8309382831145
 20
111.3163024808705
 30
0.0
 10
142.8893264071943
 20
111.2673368109197
 30
0.0
 10
143.0061038070393
 20
111.1694045051873
 30
0.0
 10
143.1228779135024
 20
111.0714645590996
 30
0.0
 10
143.1812655425605
 20
111.0224941031026
 30
0.0
  0
SPLINE
  5
10D
330
1F
100
AcDbEntity
  8
0
  6
Continuous
 62
     7
370
    15
100
AcDbSpline
210
0.0
220
0.0
230
1.0
 70
     8
 71
     3
 72
     9
 73
     5
 74
     0
 42
0.00000001
 43
0.00000001
 40
0.0
 40
0.0
 40
0.0
 40
0.0
 40
0.4999949209363035
 40
0.9999999999999999
 40
0.9999999999999999
 40
0.9999999999999999
 40
0.9999999999999999
 10
142.1312982175969
 20
111.3159483364387
 30
0.0
 10
142.1896872486454
 20
111.2669804254394
 30
0.0
 10
142.3064664970008
 20
111.169043608586
 30
0.0
 10
142.4232423518882
 20
111.071100734097
 30
0.0
 10
142.4816308724439
 20
111.0221287993943
 30
0.0
  0
SPLINE
  5
10E
330
1F
100
AcDbEntity
  8
0
  6
Continuous
 62
     7
370
    15
100
AcDbSpline
210
0.0
220
0.0
230
1.0
 70
     8
 71
     3
 72
     9
 73
     5
 74
     0
 42
0.00000001
 43
0.00000001
 40
0.0
 40
0.0
 40
0.0
 40
0.0
 40
0.4999950715399045
 40
1.0
 40
1.0
 40
1.0
 40
1.0
 10
141.4314598921664
 20
111.3157995521756
 30
0.0
 10
141.489848127533
 20
111.2668319519434
 30
0.0
 10
141.606625749334
 20
111.1688957861299
 30
0.0
 10
141.7234000778303
 20
111.0709541776396
 30
0.0
 10
141.781787817596
 20
111.0219828906931
 30
0.0
  0
SPLINE
  5
10F
330
1F
100
AcDbEntity
  8
0
  6
Continuous
 62
     7
370
    15
100
AcDbSpline
210
0.0
220
0.0
230
1.0
 70
     8
 71
     3
 72
     9
 73
     5
 74
     0
 42
0.00000001
 43
0.00000001
 40
0.0
 40
0.0
 40
0.0
 40
0.0
 40
0.4999950537483911
 40
1.0
 40
1.0
 40
1.0
 40
1.0
 10
140.731724523778
 20
111.3155697407172
 30
0.0
 10
140.7901129219788
 20
111.2666015168108
 30
0.0
 10
140.9068908736067
 20
111.1686641001518
 30
0.0
 10
141.0236655191678
 20
111.0707223655239
 30
0.0
 10
141.0820534195452
 20
111.0217510137655
 30
0.0
  0
SPLINE
  5
110
330
1F
100
AcDbEntity
  8
0
  6
Continuous
 62
     7
370
    15
100
AcDbSpline
210
0.0
220
0.0
230
1.0
 70
     8
 71
     3
 72
     9
 73
     5
 74
     0
 42
0.00000001
 43
0.00000001
 40
0.0
 40
0.0
 40
0.0
 40
0.0
 40
0.4999945530075006
 40
0.9999999999999999
 40
0.9999999999999999
 40
0.9999999999999999
 40
0.9999999999999999
 10
140.0316285388155
 20
111.3156511298065
 30
0.0
 10
140.0900196420558
 20
111.2666807107622
 30
0.0
 10
140.2068031207739
 20
111.1687388056961
 30
0.0
 10
140.3235829588351
 20
111.0707924818935
 30
0.0
 10
140.3819735139647
 20
111.0218187864794
 30
0.0
  0
LINE
  5
111
330
1F
100
AcDbEntity
  8
0
  6
Continuous
 62
     7
370
    15
100
AcDbLine
 10
145.8658499998
 20
111.1292803773
 30
0.0
 11
146.0861194053
 21
111.3141083542
 31
0.0
  0
LINE
  5
112
330
1F
100
AcDbEntity
  8
0
  6
Continuous
 62
     7
370
    15
100
AcDbLine
 10
146.0861194053
 20
116.8141083542
 30
0.0
 11
146.0377448815
 21
116.8546993993
 31
0.0
  0
LINE
  5
113
330
1F
100
AcDbEntity
  8
0
  6
Continuous
 62
     7
370
    15
100
AcDbLine
 10
146.6161194053
 20
116.7041083542
 30
0.0
 11
146.0861194053
 21
116.7041083542
 31
0.0
  0
LINE
  5
114
330
1F
100
AcDbEntity
  8
0
  6
Continuous
 62
     7
370
    15
100
AcDbLine
 10
146.0861194053
 20
111.4241083542
 30
0.0
 11
146.6161194053
 21
111.4241083542
 31
0.0
  0
ARC
  5
115
330
1F
100
AcDbEntity
  8
0
  6
Continuous
 62
     7
370
    15
100
AcDbCircle
 10
146.6161194053
 20
116.6041083542
 30
0.0
 40
0.1000000000000227
100
AcDbArc
 50
360.0
 51
90.0
  0
ARC
  5
116
330
1F
100
AcDbEntity
  8
0
  6
Continuous
 62
     7
370
    15
100
AcDbCircle
 10
146.6161194053
 20
111.5241083542
 30
0.0
 40
0.1000000000000227
100
AcDbArc
 50
270.0
 51
0.0
  0
LINE
  5
117
330
1F
100
AcDbEntity
  8
0
  6
Continuous
 62
     7
370
    15
100
AcDbLine
 10
125.9181194053
 20
105.1741083542
 30
0.0
 11
129.7281194053
 21
105.1741083542
 31
0.0
  0
LINE
  5
118
330
1F
100
AcDbEntity
  8
0
  6
Continuous
 62
     7
370
    15
100
AcDbLine
 10
129.7281194053
 20
122.9541083542
 30
0.0
 11
125.9181194053
 21
122.9541083542
 31
0.0
  0
LINE
  5
119
330
1F
100
AcDbEntity
  8
0
  6
Continuous
 62
     7
370
    15
100
AcDbLine
 10
129.7281194053
 20
105.1741083542
 30
0.0
 11
137.2211194053
 21
105.9996083542
 31
0.0
  0
LINE
  5
11A
330
1F
100
AcDbEntity
  8
0
  6
Continuous
 62
     7
370
    15
100
AcDbLine
 10
137.2211194053
 20
122.1286083542
 30
0.0
 11
129.7281194053
 21
122.9541083542
 31
0.0
  0
LINE
  5
11B
330
1F
100
AcDbEntity
  8
0
  6
Continuous
 62
     7
370
    15
100
AcDbLine
 10
77.4643055195
 20
105.1741083542
 30
0.0
 11
79.3091194053
 21
105.1741083542
 31
0.0
  0
LINE
  5
11C
330
1F
100
AcDbEntity
  8
0
  6
Continuous
 62
     7
370
    15
100
AcDbLine
 10
72.1971194053
 20
105.1741083542
 30
0.0
 11
75.9491707312
 21
105.1741083542
 31
0.0
  0
LINE
  5
11D
330
1F
100
AcDbEntity
  8
0
  6
Continuous
 62
     7
370
    15
100
AcDbLine
 10
79.3091194053
 20
122.9541083542
 30
0.0
 11
72.1971194053
 21
122.9541083542
 31
0.0
  0
LINE
  5
11E
330
1F
100
AcDbEntity
  8
0
  6
Continuous
 62
     7
370
    15
100
AcDbLine
 10
79.3091194053
 20
105.1741083542
 30
0.0
 11
79.5631194053
 21
105.4281083542
 31
0.0
  0
LINE
  5
11F
330
1F
100
AcDbEntity
  8
0
  6
Continuous
 62
     7
370
    15
100
AcDbLine
 10
79.5631194053
 20
122.7001083542
 30
0.0
 11
79.3091194053
 21
122.9541083542
 31
0.0
  0
LINE
  5
120
330
1F
100
AcDbEntity
  8
0
  6
Continuous
 62
     7
370
    15
100
AcDbLine
 10
125.9181194053
 20
122.9541083542
 30
0.0
 11
118.8061194053
 21
122.9541083542
 31
0.0
  0
LINE
  5
121
330
1F
100
AcDbEntity
  8
0
  6
Continuous
 62
     7
370
    15
100
AcDbLine
 10
118.8061194053
 20
105.1741083542
 30
0.0
 11
119.8920361765
 21
105.1741083542
 31
0.0
  0
LINE
  5
122
330
1F
100
AcDbEntity
  8
0
  6
Continuous
 62
     7
370
    15
100
AcDbLine
 10
122.8130361765
 20
105.1741083542
 30
0.0
 11
125.9181194053
 21
105.1741083542
 31
0.0
  0
LINE
  5
123
330
1F
100
AcDbEntity
  8
0
  6
Continuous
 62
     7
370
    15
100
AcDbLine
 10
118.8061194053
 20
122.9541083542
 30
0.0
 11
118.5521194053
 21
122.7001083542
 31
0.0
  0
LINE
  5
124
330
1F
100
AcDbEntity
  8
0
  6
Continuous
 62
     7
370
    15
100
AcDbLine
 10
118.5521194053
 20
105.4281083542
 30
0.0
 11
118.8061194053
 21
105.1741083542
 31
0.0
  0
LINE
  5
125
330
1F
100
AcDbEntity
  8
0
  6
Continuous
 62
     7
370
    15
100
AcDbLine
 10
122.8130361765
 20
103.6699549516
 30
0.0
 11
122.8130361765
 21
106.5452394337
 31
0.0
  0
LINE
  5
126
330
1F
100
AcDbEntity
  8
0
  6
Continuous
 62
     7
370
    15
100
AcDbLine
 10
119.8920361765
 20
106.5452394337
 30
0.0
 11
119.8920361765
 21
103.6699549516
 31
0.0
  0
LINE
  5
127
330
1F
100
AcDbEntity
  8
0
  6
Continuous
 62
     7
370
    15
100
AcDbLine
 10
122.3431361765
 20
107.4299957301
 30
0.0
 11
122.3431361765
 21
111.1174496783
 31
0.0
  0
LINE
  5
128
330
1F
100
AcDbEntity
  8
0
  6
Continuous
 62
     7
370
    15
100
AcDbLine
 10
122.3431361765
 20
111.5017921442
 30
0.0
 11
122.3431361765
 21
111.5482344324
 31
0.0
  0
LINE
  5
129
330
1F
100
AcDbEntity
  8
0
  6
Continuous
 62
     7
370
    15
100
AcDbLine
 10
120.3619361765
 20
111.5482344324
 30
0.0
 11
120.3619361765
 21
111.5017921442
 31
0.0
  0
LINE
  5
12A
330
1F
100
AcDbEntity
  8
0
  6
Continuous
 62
     7
370
    15
100
AcDbLine
 10
120.3619361765
 20
111.1174496783
 30
0.0
 11
120.3619361765
 21
107.4299957301
 31
0.0
  0
LINE
  5
12B
330
1F
100
AcDbEntity
  8
0
  6
Continuous
 62
     7
370
    15
100
AcDbLine
 10
75.302202634
 20
120.4915232936
 30
0.0
 11
75.302202634
 21
118.7135385248
 31
0.0
  0
LINE
  5
12C
330
1F
100
AcDbEntity
  8
0
  6
Continuous
 62
     7
370
    15
100
AcDbLine
 10
78.223202634
 20
118.7135385248
 30
0.0
 11
78.223202634
 21
120.4915232936
 31
0.0
  0
LINE
  5
12D
330
1F
100
AcDbEntity
  8
0
  6
Continuous
 62
     7
370
    15
100
AcDbLine
 10
75.772102634
 20
117.7082115875
 30
0.0
 11
75.772102634
 21
115.8862286617
 31
0.0
  0
LINE
  5
12E
330
1F
100
AcDbEntity
  8
0
  6
Continuous
 62
     7
370
    15
100
AcDbLine
 10
77.753302634
 20
115.8862286617
 30
0.0
 11
77.753302634
 21
117.7082115875
 31
0.0
  0
LINE
  5
12F
330
1F
100
AcDbEntity
  8
0
  6
Continuous
 62
     7
370
    15
100
AcDbLine
 10
115.2501194053
 20
103.6501083542
 30
0.0
 11
116.0121194053
 21
103.6501083542
 31
0.0
  0
LINE
  5
130
330
1F
100
AcDbEntity
  8
0
  6
Continuous
 62
     7
370
    15
100
AcDbLine
 10
116.0121194053
 20
124.4781083542
 30
0.0
 11
115.2501194053
 21
124.4781083542
 31
0.0
  0
LINE
  5
131
330
1F
100
AcDbEntity
  8
0
  6
Continuous
 62
     7
370
    15
100
AcDbLine
 10
116.0121194053
 20
103.6501083542
 30
0.0
 11
118.5521194053
 21
105.1741083542
 31
0.0
  0
LINE
  5
132
330
1F
100
AcDbEntity
  8
0
  6
Continuous
 62
     7
370
    15
100
AcDbLine
 10
118.5521194053
 20
122.9541083542
 30
0.0
 11
116.0121194053
 21
124.4781083542
 31
0.0
  0
LINE
  5
133
330
1F
100
AcDbEntity
  8
0
  6
Continuous
 62
     7
370
    15
100
AcDbLine
 10
112.2021194053
 20
125.7481083542
 30
0.0
 11
111.8211194053
 21
125.7481083542
 31
0.0
  0
LINE
  5
134
330
1F
100
AcDbEntity
  8
0
  6
Continuous
 62
     7
370
    15
100
AcDbLine
 10
111.8211194053
 20
102.3801083542
 30
0.0
 11
112.2021194053
 21
102.3801083542
 31
0.0
  0
LINE
  5
135
330
1F
100
AcDbEntity
  8
0
  6
Continuous
 62
     7
370
    15
100
AcDbLine
 10
115.2501194053
 20
124.4781083542
 30
0.0
 11
114.9054938558
 21
124.4781083542
 31
0.0
  0
LINE
  5
136
330
1F
100
AcDbEntity
  8
0
  6
Continuous
 62
     7
370
    15
100
AcDbLine
 10
112.3940538344
 20
124.4781083542
 30
0.0
 11
112.2021194053
 21
124.4781083542
 31
0.0
  0
LINE
  5
137
330
1F
100
AcDbEntity
  8
0
  6
Continuous
 62
     7
370
    15
100
AcDbLine
 10
112.2021194053
 20
103.6501083542
 30
0.0
 11
115.2501194053
 21
103.6501083542
 31
0.0
  0
SPLINE
  5
138
330
1F
100
AcDbEntity
  8
0
  6
Continuous
 62
     7
370
    15
100
AcDbSpline
210
0.0
220
0.0
230
1.0
 70
     8
 71
     3
 72
    10
 73
     6
 74
     0
 42
0.00000001
 43
0.00000001
 40
0.0
 40
0.0
 40
0.0
 40
0.0
 40
0.2322097344051025
 40
0.5654924557936947
 40
1.0
 40
1.0
 40
1.0
 40
1.0
 10
89.71226523860297
 20
117.7728066247782
 30
0.0
 10
89.71380195926487
 20
117.7494986677459
 30
0.0
 10
89.7175442827432
 20
117.6927375939885
 30
0.0
 10
89.71981255613721
 20
117.5919320623717
 30
0.0
 10
89.72064711312825
 20
117.5142747280556
 30
0.0
 10
89.72111940526963
 20
117.4703269220788
 30
0.0
  0
SPLINE
  5
139
330
1F
100
AcDbEntity
  8
0
  6
Continuous
 62
     7
370
    15
100
AcDbSpline
210
0.0
220
0.0
230
1.0
 70
     8
 71
     3
 72
    13
 73
     9
 74
     0
 42
0.00000001
 43
0.00000001
 40
0.0
 40
0.0
 40
0.0
 40
0.0
 40
0.1431146875921671
 40
0.2862235992983762
 40
0.5004103569439088
 40
0.7494383132447549
 40
0.8746804327406617
 40
1.0
 40
1.0
 40
1.0
 40
1.0
 10
89.34429648860298
 20
118.0853563534871
 30
0.0
 10
89.37017820512457
 20
118.083952670516
 30
0.0
 10
89.421940593622
 20
118.0811453612241
 30
0.0
 10
89.50821039354912
 20
118.0535607754256
 30
0.0
 10
89.60411096207969
 20
118.0008542236839
 30
0.0
 10
89.67151190175278
 20
117.9184362805587
 30
0.0
 10
89.70242459064052
 20
117.8370668371141
 30
0.0
 10
89.7089843467494
 20
117.794231109016
 30
0.0
 10
89.71226523860297
 20
117.7728066247782
 30
0.0
  0
SPLINE
  5
13A
330
1F
100
AcDbEntity
  8
0
  6
Continuous
 62
     7
370
    15
100
AcDbSpline
210
0.0
220
0.0
230
1.0
 70
     8
 71
     3
 72
    13
 73
     9
 74
     0
 42
0.00000001
 43
0.00000001
 40
0.0
 40
0.0
 40
0.0
 40
0.0
 40
0.1768053908106374
 40
0.3394387794456077
 40
0.495101470591149
 40
0.6519578223021543
 40
0.8179962171511896
 40
1.0
 40
1.0
 40
1.0
 40
1.0
 10
89.03023398860297
 20
117.870319401889
 30
0.0
 10
89.03915973189305
 20
117.8921333254797
 30
0.0
 10
89.05629576713572
 20
117.9340126571256
 30
0.0
 10
89.09592705623416
 20
117.988046009048
 30
0.0
 10
89.14474664927403
 20
118.0307766064585
 30
0.0
 10
89.20331126918123
 20
118.061348328022
 30
0.0
 10
89.2708715965291
 20
118.0806274725631
 30
0.0
 10
89.31908432002248
 20
118.0837325806808
 30
0.0
 10
89.34429648860298
 20
118.0853563534871
 30
0.0
  0
SPLINE
  5
13B
330
1F
100
AcDbEntity
  8
0
  6
Continuous
 62
     7
370
    15
100
AcDbSpline
210
0.0
220
0.0
230
1.0
 70
     8
 71
     3
 72
    12
 73
     8
 74
     0
 42
0.00000001
 43
0.00000001
 40
0.0
 40
0.0
 40
0.0
 40
0.0
 40
0.1431368203598607
 40
0.2861893470903135
 40
0.5714121814894373
 40
0.7856817113743487
 40
0.9999999999999999
 40
0.9999999999999999
 40
0.9999999999999999
 40
0.9999999999999999
 10
88.74820273860297
 20
118.0378979168156
 30
0.0
 10
88.76494301873404
 20
118.0373007196203
 30
0.0
 10
88.79841372060356
 20
118.0361066769206
 30
0.0
 10
88.86364561547941
 20
118.0209365090267
 30
0.0
 10
88.93122675364735
 20
117.9876512569334
 30
0.0
 10
88.99383297141377
 20
117.9334282711901
 30
0.0
 10
89.01809939597486
 20
117.8913572870725
 30
0.0
 10
89.03023398860297
 20
117.870319401889
 30
0.0
  0
SPLINE
  5
13C
330
1F
100
AcDbEntity
  8
0
  6
Continuous
 62
     7
370
    15
100
AcDbSpline
210
0.0
220
0.0
230
1.0
 70
     8
 71
     3
 72
    14
 73
    10
 74
     0
 42
0.00000001
 43
0.00000001
 40
0.0
 40
0.0
 40
0.0
 40
0.0
 40
0.2509021855646028
 40
0.3762719336754743
 40
0.5014441046518295
 40
0.7495709041968637
 40
0.8745866859954359
 40
0.9372759746781755
 40
1.0
 40
1.0
 40
1.0
 40
1.0
 10
88.42111940526965
 20
117.5507835564362
 30
0.0
 10
88.42174975864067
 20
117.6059109070063
 30
0.0
 10
88.42269508433118
 20
117.6885840600948
 30
0.0
 10
88.43590983994872
 20
117.7980385542966
 30
0.0
 10
88.47504720692825
 20
117.9015585441097
 30
0.0
 10
88.55750513702013
 20
117.9846158152644
 30
0.0
 10
88.64877143745122
 20
118.0251205480461
 30
0.0
 10
88.70514128186603
 20
118.0363673933991
 30
0.0
 10
88.73384626948082
 20
118.0373876481476
 30
0.0
 10
88.74820273860297
 20
118.0378979168156
 30
0.0
  0
LINE
  5
13D
330
1F
100
AcDbEntity
  8
0
  6
Continuous
 62
     7
370
    15
100
AcDbLine
 10
88.4211194053
 20
117.0443873079
 30
0.0
 11
88.4211194053
 21
117.5507835564
 31
0.0
  0
LINE
  5
13E
330
1F
100
AcDbEntity
  8
0
  6
Continuous
 62
     7
370
    15
100
AcDbLine
 10
89.7211194053
 20
117.0443873079
 30
0.0
 11
88.4211194053
 21
117.0443873079
 31
0.0
  0
LINE
  5
13F
330
1F
100
AcDbEntity
  8
0
  6
Continuous
 62
     7
370
    15
100
AcDbLine
 10
89.7211194053
 20
117.0443873079
 30
0.0
 11
89.7211194053
 21
117.4703269221
 31
0.0
  0
SPLINE
  5
140
330
1F
100
AcDbEntity
  8
0
  6
Continuous
 62
     7
370
    15
100
AcDbSpline
210
0.0
220
0.0
230
1.0
 70
     8
 71
     3
 72
    17
 73
    13
 74
     0
 42
0.00000001
 43
0.00000001
 40
0.0
 40
0.0
 40
0.0
 40
0.0
 40
0.0625676781117325
 40
0.1251104961479139
 40
0.249787594402733
 40
0.3745354135828495
 40
0.4366259446276319
 40
0.4996048354286001
 40
0.6168999595745073
 40
0.7497053112728539
 40
0.8646711605031071
 40
1.0
 40
1.0
 40
1.0
 40
1.0
 10
89.7377860719363
 20
114.8303094541431
 30
0.0
 10
89.73716998601131
 20
114.8117765300976
 30
0.0
 10
89.7359380589513
 20
114.7747180457113
 30
0.0
 10
89.72196307289003
 20
114.701823338699
 30
0.0
 10
89.68495281148877
 20
114.6154768926268
 30
0.0
 10
89.62316151424223
 20
114.5450119191965
 30
0.0
 10
89.56414441036605
 20
114.499912498365
 30
0.0
 10
89.50031920059959
 20
114.4662934152285
 30
0.0
 10
89.41169464289726
 20
114.4371393975138
 30
0.0
 10
89.30498419811141
 20
114.4176761326798
 30
0.0
 10
89.1917045362061
 20
114.4079571676617
 30
0.0
 10
89.11749361826726
 20
114.4065140629452
 30
0.0
 10
89.07736940526964
 20
114.4057338079284
 30
0.0
  0
SPLINE
  5
141
330
1F
100
AcDbEntity
  8
0
  6
Continuous
 62
     7
370
    15
100
AcDbSpline
210
0.0
220
0.0
230
1.0
 70
     8
 71
     3
 72
    12
 73
     8
 74
     0
 42
0.00000001
 43
0.00000001
 40
0.0
 40
0.0
 40
0.0
 40
0.0
 40
0.1251762194947619
 40
0.2502934442189094
 40
0.5000397641830383
 40
0.7498968295432125
 40
1.0
 40
1.0
 40
1.0
 40
1.0
 10
89.6057548219363
 20
115.125888351193
 30
0.0
 10
89.61640958674629
 20
115.116795455327
 30
0.0
 10
89.63771409484211
 20
115.0986139490201
 30
0.0
 10
89.67453561576968
 20
115.0563402288691
 30
0.0
 10
89.71007170946748
 20
114.9954734401383
 30
0.0
 10
89.7339626437859
 20
114.9142345923313
 30
0.0
 10
89.73651117771479
 20
114.858293679165
 30
0.0
 10
89.7377860719363
 20
114.8303094541431
 30
0.0
  0
SPLINE
  5
142
330
1F
100
AcDbEntity
  8
0
  6
Continuous
 62
     7
370
    15
100
AcDbSpline
210
0.0
220
0.0
230
1.0
 70
     8
 71
     3
 72
    13
 73
     9
 74
     0
 42
0.00000001
 43
0.00000001
 40
0.0
 40
0.0
 40
0.0
 40
0.0
 40
0.2727451120828324
 40
0.5000810977345271
 40
0.63310625215925
 40
0.7501337360396206
 40
0.8755011010804814
 40
1.0
 40
1.0
 40
1.0
 40
1.0
 10
89.0799735719363
 20
115.2540271292578
 30
0.0
 10
89.13004940162057
 20
115.2529264756105
 30
0.0
 10
89.22186397416135
 20
115.2509084153051
 30
0.0
 10
89.33735876162362
 20
115.2356220532199
 30
0.0
 10
89.42270302453214
 20
115.2154358548867
 30
0.0
 10
89.48824109939105
 20
115.1940248117685
 30
0.0
 10
89.54961306685931
 20
115.1655669240233
 30
0.0
 10
89.58708431681578
 20
115.1390838595305
 30
0.0
 10
89.6057548219363
 20
115.125888351193
 30
0.0
  0
SPLINE
  5
143
330
1F
100
AcDbEntity
  8
0
  6
Continuous
 62
     7
370
    15
100
AcDbSpline
210
0.0
220
0.0
230
1.0
 70
     8
 71
     3
 72
    12
 73
     8
 74
     0
 42
0.00000001
 43
0.00000001
 40
0.0
 40
0.0
 40
0.0
 40
0.0
 40
0.1249768867415118
 40
0.2499917572730591
 40
0.4998194716893962
 40
0.7303196526805288
 40
1.0
 40
1.0
 40
1.0
 40
1.0
 10
88.55471315526964
 20
115.1269263674083
 30
0.0
 10
88.57333186450157
 20
115.1403123080228
 30
0.0
 10
88.61057494168489
 20
115.167088257594
 30
0.0
 10
88.69472849296193
 20
115.2042936554895
 30
0.0
 10
88.8022209350865
 20
115.2334604394906
 30
0.0
 10
88.93887775824068
 20
115.2507228780781
 30
0.0
 10
89.03054805981164
 20
115.2528696582991
 30
0.0
 10
89.0799735719363
 20
115.2540271292578
 30
0.0
  0
SPLINE
  5
144
330
1F
100
AcDbEntity
  8
0
  6
Continuous
 62
     7
370
    15
100
AcDbSpline
210
0.0
220
0.0
230
1.0
 70
     8
 71
     3
 72
    12
 73
     8
 74
     0
 42
0.00000001
 43
0.00000001
 40
0.0
 40
0.0
 40
0.0
 40
0.0
 40
0.2500915145843817
 40
0.4999770151612596
 40
0.7497015744818805
 40
0.8748247992038249
 40
0.9999999999999999
 40
0.9999999999999999
 40
0.9999999999999999
 40
0.9999999999999999
 10
88.42111940526965
 20
114.8303094541431
 30
0.0
 10
88.42239563514804
 20
114.8584314771886
 30
0.0
 10
88.42494704360475
 20
114.9146523576369
 30
0.0
 10
88.44917059178158
 20
114.9963053390505
 30
0.0
 10
88.48559677676633
 20
115.0570419574562
 30
0.0
 10
88.52260252958793
 20
115.0995010160403
 30
0.0
 10
88.54400813170552
 20
115.1177833181399
 30
0.0
 10
88.55471315526964
 20
115.1269263674083
 30
0.0
  0
SPLINE
  5
145
330
1F
100
AcDbEntity
  8
0
  6
Continuous
 62
     7
370
    15
100
AcDbSpline
210
0.0
220
0.0
230
1.0
 70
     8
 71
     3
 72
    12
 73
     8
 74
     0
 42
0.00000001
 43
0.00000001
 40
0.0
 40
0.0
 40
0.0
 40
0.0
 40
0.1251809252200926
 40
0.250304085034945
 40
0.5000445607843617
 40
0.7498872271706953
 40
1.0
 40
1.0
 40
1.0
 40
1.0
 10
88.55315065526965
 20
114.5343133634354
 30
0.0
 10
88.5424975507438
 20
114.5434316599987
 30
0.0
 10
88.52119625762403
 20
114.5616640454389
 30
0.0
 10
88.48435186007019
 20
114.6040232906014
 30
0.0
 10
88.44899859031982
 20
114.6650963062213
 30
0.0
 10
88.42490422588739
 20
114.7463560158995
 30
0.0
 10
88.42238146645842
 20
114.8023148972608
 30
0.0
 10
88.42111940526965
 20
114.8303094541431
 30
0.0
  0
SPLINE
  5
146
330
1F
100
AcDbEntity
  8
0
  6
Continuous
 62
     7
370
    15
100
AcDbSpline
210
0.0
220
0.0
230
1.0
 70
     8
 71
     3
 72
    13
 73
     9
 74
     0
 42
0.00000001
 43
0.00000001
 40
0.0
 40
0.0
 40
0.0
 40
0.0
 40
0.2735705269294402
 40
0.5000689116157906
 40
0.6341727119566897
 40
0.7501332557231108
 40
0.8756027014396085
 40
1.0
 40
1.0
 40
1.0
 40
1.0
 10
89.07736940526964
 20
114.4057338079284
 30
0.0
 10
89.0272785433922
 20
114.4068241305082
 30
0.0
 10
88.93571574581271
 20
114.4088171683983
 30
0.0
 10
88.82035915364615
 20
114.4242905691333
 30
0.0
 10
88.73543102232955
 20
114.4446019674001
 30
0.0
 10
88.67006812911627
 20
114.4660881812987
 30
0.0
 10
88.6091172545936
 20
114.4946386170934
 30
0.0
 10
88.57175274622321
 20
114.5211263331543
 30
0.0
 10
88.55315065526965
 20
114.5343133634354
 30
0.0
  0
SPLINE
  5
147
330
1F
100
AcDbEntity
  8
0
  6
Continuous
 62
     7
370
    15
100
AcDbSpline
210
0.0
220
0.0
230
1.0
 70
     8
 71
     3
 72
    11
 73
     7
 74
     0
 42
0.00000001
 43
0.00000001
 40
0.0
 40
0.0
 40
0.0
 40
0.0
 40
0.2499137409094053
 40
0.4997920522266366
 40
0.6998759926833219
 40
1.0
 40
1.0
 40
1.0
 40
1.0
 10
88.77476523860298
 20
113.256320684225
 30
0.0
 10
88.80449549482883
 20
113.2547558692633
 30
0.0
 10
88.86395179250289
 20
113.2516264611794
 30
0.0
 10
88.94393411389908
 20
113.2262525627456
 30
0.0
 10
89.02376723342975
 20
113.1863748917073
 30
0.0
 10
89.07191707413408
 20
113.1515006025468
 30
0.0
 10
89.10080690526964
 20
113.1305760821313
 30
0.0
  0
SPLINE
  5
148
330
1F
100
AcDbEntity
  8
0
  6
Continuous
 62
     7
370
    15
100
AcDbSpline
210
0.0
220
0.0
230
1.0
 70
     8
 71
     3
 72
    15
 73
    11
 74
     0
 42
0.00000001
 43
0.00000001
 40
0.0
 40
0.0
 40
0.0
 40
0.0
 40
0.125295286703473
 40
0.2505385320195236
 40
0.3764312228010075
 40
0.5007509048680626
 40
0.7494920604340408
 40
0.8496389846512536
 40
0.9248127602832732
 40
0.9999999999999999
 40
0.9999999999999999
 40
0.9999999999999999
 40
0.9999999999999999
 10
88.42111940526965
 20
112.8586342179107
 30
0.0
 10
88.42184959165341
 20
112.8835131053116
 30
0.0
 10
88.4233096611381
 20
112.9332605466694
 30
0.0
 10
88.43863342892816
 20
113.0067986450305
 30
0.0
 10
88.46626424423081
 20
113.076675690978
 30
0.0
 10
88.52282133099675
 20
113.1588013585651
 30
0.0
 10
88.60003151363088
 20
113.2192800764247
 30
0.0
 10
88.68059386263127
 20
113.245727677129
 30
0.0
 10
88.72977904693295
 20
113.255186607721
 30
0.0
 10
88.75976894623062
 20
113.2559426361575
 30
0.0
 10
88.77476523860298
 20
113.256320684225
 30
0.0
  0
SPLINE
  5
149
330
1F
100
AcDbEntity
  8
0
  6
Continuous
 62
     7
370
    15
100
AcDbSpline
210
0.0
220
0.0
230
1.0
 70
     8
 71
     3
 72
    13
 73
     9
 74
     0
 42
0.00000001
 43
0.00000001
 40
0.0
 40
0.0
 40
0.0
 40
0.0
 40
0.1254474924123514
 40
0.2508313356324476
 40
0.4994731119667164
 40
0.6993102772631775
 40
0.8496030449208347
 40
1.0
 40
1.0
 40
1.0
 40
1.0
 10
88.81330690526964
 20
112.4435387842474
 30
0.0
 10
88.78675678525708
 20
112.4469502688305
 30
0.0
 10
88.73367001615638
 20
112.4537715070874
 30
0.0
 10
88.63102241528345
 20
112.4823996462797
 30
0.0
 10
88.52248569670165
 20
112.5486735644801
 30
0.0
 10
88.45567772157885
 20
112.6601658222791
 30
0.0
 10
88.42532868553292
 20
112.7627310602731
 30
0.0
 10
88.422522822763
 20
112.8266591151189
 30
0.0
 10
88.42111940526965
 20
112.8586342179107
 30
0.0
  0
SPLINE
  5
14A
330
1F
100
AcDbEntity
  8
0
  6
Continuous
 62
     7
370
    15
100
AcDbSpline
210
0.0
220
0.0
230
1.0
 70
     8
 71
     3
 72
     8
 73
     4
 74
     0
 42
0.00000001
 43
0.00000001
 40
0.0
 40
0.0
 40
0.0
 40
0.0
 40
1.0
 40
1.0
 40
1.0
 40
1.0
 10
88.8377860719363
 20
112.6917930486097
 30
0.0
 10
88.82962634971409
 20
112.6089476508045
 30
0.0
 10
88.82146662749187
 20
112.5261908849426
 30
0.0
 10
88.81330690526964
 20
112.4435387842474
 30
0.0
  0
SPLINE
  5
14B
330
1F
100
AcDbEntity
  8
0
  6
Continuous
 62
     7
370
    15
100
AcDbSpline
210
0.0
220
0.0
230
1.0
 70
     8
 71
     3
 72
    11
 73
     7
 74
     0
 42
0.00000001
 43
0.00000001
 40
0.0
 40
0.0
 40
0.0
 40
0.0
 40
0.1260414459785896
 40
0.2518321652638827
 40
0.5011093817678525
 40
1.0
 40
1.0
 40
1.0
 40
1.0
 10
88.63778607193632
 20
112.8534495018353
 30
0.0
 10
88.63836251485436
 20
112.8413692808501
 30
0.0
 10
88.63951425400715
 20
112.8172328693393
 30
0.0
 10
88.65402360556807
 20
112.7709966972552
 30
0.0
 10
88.71304846974434
 20
112.704269714234
 30
0.0
 10
88.78788430564282
 20
112.6967843875578
 30
0.0
 10
88.8377860719363
 20
112.6917930486097
 30
0.0
  0
SPLINE
  5
14C
330
1F
100
AcDbEntity
  8
0
  6
Continuous
 62
     7
370
    15
100
AcDbSpline
210
0.0
220
0.0
230
1.0
 70
     8
 71
     3
 72
    12
 73
     8
 74
     0
 42
0.00000001
 43
0.00000001
 40
0.0
 40
0.0
 40
0.0
 40
0.0
 40
0.250698470697695
 40
0.5000782289397537
 40
0.7489765354578434
 40
0.8743828143812509
 40
1.0
 40
1.0
 40
1.0
 40
1.0
 10
88.80835898860298
 20
113.0069995184413
 30
0.0
 10
88.78652917091104
 20
113.0059240709343
 30
0.0
 10
88.74298436372064
 20
113.0037788329392
 30
0.0
 10
88.68274046365659
 20
112.9738083111887
 30
0.0
 10
88.64989581547253
 20
112.9281023324745
 30
0.0
 10
88.63934176993766
 20
112.8859266603541
 30
0.0
 10
88.6383049283171
 20
112.8642812833976
 30
0.0
 10
88.63778607193632
 20
112.8534495018353
 30
0.0
  0
SPLINE
  5
14D
330
1F
100
AcDbEntity
  8
0
  6
Continuous
 62
     7
370
    15
100
AcDbSpline
210
0.0
220
0.0
230
1.0
 70
     8
 71
     3
 72
    10
 73
     6
 74
     0
 42
0.00000001
 43
0.00000001
 40
0.0
 40
0.0
 40
0.0
 40
0.0
 40
0.4996994242390452
 40
0.7497632007076606
 40
1.0
 40
1.0
 40
1.0
 40
1.0
 10
88.95861940526964
 20
112.9577002025841
 30
0.0
 10
88.93539183308943
 20
112.9710700267273
 30
0.0
 10
88.90054052444717
 20
112.9911304903906
 30
0.0
 10
88.84844288295776
 20
113.0048164222692
 30
0.0
 10
88.82172336692696
 20
113.0062716519595
 30
0.0
 10
88.80835898860298
 20
113.0069995184413
 30
0.0
  0
SPLINE
  5
14E
330
1F
100
AcDbEntity
  8
0
  6
Continuous
 62
     7
370
    15
100
AcDbSpline
210
0.0
220
0.0
230
1.0
 70
     8
 71
     3
 72
    11
 73
     7
 74
     0
 42
0.00000001
 43
0.00000001
 40
0.0
 40
0.0
 40
0.0
 40
0.0
 40
0.2911780065101668
 40
0.5001085068708262
 40
0.7896861698052967
 40
1.0
 40
1.0
 40
1.0
 40
1.0
 10
89.16851523860298
 20
112.7596421958956
 30
0.0
 10
89.14898001717253
 20
112.7797365763896
 30
0.0
 10
89.11542758463114
 20
112.8142493843649
 30
0.0
 10
89.06169050802461
 20
112.8680011622457
 30
0.0
 10
89.01254492308858
 20
112.9155119450176
 30
0.0
 10
88.97458842412274
 20
112.9452069506376
 30
0.0
 10
88.95861940526964
 20
112.9577002025841
 30
0.0
  0
SPLINE
  5
14F
330
1F
100
AcDbEntity
  8
0
  6
Continuous
 62
     7
370
    15
100
AcDbSpline
210
0.0
220
0.0
230
1.0
 70
     8
 71
     3
 72
    13
 73
     9
 74
     0
 42
0.00000001
 43
0.00000001
 40
0.0
 40
0.0
 40
0.0
 40
0.0
 40
0.1250454482152893
 40
0.2500751515804752
 40
0.4995679184374267
 40
0.6128140733411972
 40
0.7497867302523399
 40
1.0
 40
1.0
 40
1.0
 40
1.0
 10
89.72111940526963
 20
112.410483563898
 30
0.0
 10
89.69342947837075
 20
112.414443407123
 30
0.0
 10
89.6380531110953
 20
112.4223625949772
 30
0.0
 10
89.5318513402763
 20
112.457905562254
 30
0.0
 10
89.43655398762212
 20
112.5128210305631
 30
0.0
 10
89.35049091267847
 20
112.5834097143502
 30
0.0
 10
89.26756415921615
 20
112.6579139942268
 30
0.0
 10
89.20739723662136
 20
112.7197084367873
 30
0.0
 10
89.16851523860298
 20
112.7596421958956
 30
0.0
  0
LINE
  5
150
330
1F
100
AcDbEntity
  8
0
  6
Continuous
 62
     7
370
    15
100
AcDbLine
 10
89.7211194053
 20
112.4104835639
 30
0.0
 11
89.7211194053
 21
113.2563206842
 31
0.0
  0
LINE
  5
151
330
1F
100
AcDbEntity
  8
0
  6
Continuous
 62
     7
370
    15
100
AcDbLine
 10
89.4711194053
 20
113.2563206842
 30
0.0
 11
89.7211194053
 21
113.2563206842
 31
0.0
  0
LINE
  5
152
330
1F
100
AcDbEntity
  8
0
  6
Continuous
 62
     7
370
    15
100
AcDbLine
 10
89.4711194053
 20
112.774926466
 30
0.0
 11
89.4711194053
 21
113.2563206842
 31
0.0
  0
SPLINE
  5
153
330
1F
100
AcDbEntity
  8
0
  6
Continuous
 62
     7
370
    15
100
AcDbSpline
210
0.0
220
0.0
230
1.0
 70
     8
 71
     3
 72
    13
 73
     9
 74
     0
 42
0.00000001
 43
0.00000001
 40
0.0
 40
0.0
 40
0.0
 40
0.0
 40
0.11042442434998
 40
0.2500024943041735
 40
0.5000666229606594
 40
0.7501310652661977
 40
0.8750844092042548
 40
1.0
 40
1.0
 40
1.0
 40
1.0
 10
89.10080690526964
 20
113.1305760821313
 30
0.0
 10
89.11529321505999
 20
113.1183320496665
 30
0.0
 10
89.14809043000741
 20
113.0906113830245
 30
0.0
 10
89.20899775461561
 20
113.0300176798043
 30
0.0
 10
89.28265339000394
 20
112.9485870959212
 30
0.0
 10
89.35513599352463
 20
112.8697612142134
 30
0.0
 10
89.41667633080138
 20
112.8095390197124
 30
0.0
 10
89.45297354185031
 20
112.7864628216846
 30
0.0
 10
89.47111940526963
 20
112.7749264659826
 30
0.0
  0
SPLINE
  5
154
330
1F
100
AcDbEntity
  8
0
  6
Continuous
 62
     7
370
    15
100
AcDbSpline
210
0.0
220
0.0
230
1.0
 70
     8
 71
     3
 72
    18
 73
    14
 74
     0
 42
0.00000001
 43
0.00000001
 40
0.0
 40
0.0
 40
0.0
 40
0.0
 40
0.033188594520621
 40
0.0714697825835182
 40
0.1430054117977575
 40
0.250327897951388
 40
0.3755450836465074
 40
0.5007303144636832
 40
0.6256528295356599
 40
0.7503163722038567
 40
0.8748613580985528
 40
0.9249306260516327
 40
1.0
 40
1.0
 40
1.0
 40
1.0
 10
88.82346315526964
 20
110.3494329632608
 30
0.0
 10
88.82937941706102
 20
110.3578726928248
 30
0.0
 10
88.84211975602521
 20
110.3760471785394
 30
0.0
 10
88.86100711304093
 20
110.4160686061237
 30
0.0
 10
88.88295613638954
 20
110.4792226466242
 30
0.0
 10
88.90778852786866
 20
110.5694738139973
 30
0.0
 10
88.93433968571833
 20
110.6765907194064
 30
0.0
 10
88.9713474143515
 20
110.7867126997652
 30
0.0
 10
89.02241887520104
 20
110.8927982287619
 30
0.0
 10
89.10805006844386
 20
110.9773922443761
 30
0.0
 10
89.19652835352808
 20
111.0177927702447
 30
0.0
 10
89.27501473653615
 20
111.0330216237346
 30
0.0
 10
89.31506338577857
 20
111.0344137298401
 30
0.0
 10
89.33908815526964
 20
111.0352488398607
 30
0.0
  0
SPLINE
  5
155
330
1F
100
AcDbEntity
  8
0
  6
Continuous
 62
     7
370
    15
100
AcDbSpline
210
0.0
220
0.0
230
1.0
 70
     8
 71
     3
 72
    10
 73
     6
 74
     0
 42
0.00000001
 43
0.00000001
 40
0.0
 40
0.0
 40
0.0
 40
0.0
 40
0.2507583098176837
 40
0.5011567145854442
 40
1.0
 40
1.0
 40
1.0
 40
1.0
 10
88.74611940526964
 20
110.3125939893821
 30
0.0
 10
88.7535786021895
 20
110.3130051126794
 30
0.0
 10
88.76848629009235
 20
110.3138267692023
 30
0.0
 10
88.79685376833638
 20
110.3240704581894
 30
0.0
 10
88.81282773039058
 20
110.3392959007983
 30
0.0
 10
88.82346315526964
 20
110.3494329632608
 30
0.0
  0
SPLINE
  5
156
330
1F
100
AcDbEntity
  8
0
  6
Continuous
 62
     7
370
    15
100
AcDbSpline
210
0.0
220
0.0
230
1.0
 70
     8
 71
     3
 72
    11
 73
     7
 74
     0
 42
0.00000001
 43
0.00000001
 40
0.0
 40
0.0
 40
0.0
 40
0.0
 40
0.2502428297053208
 40
0.4999704099216709
 40
0.7497393117655567
 40
1.0
 40
1.0
 40
1.0
 40
1.0
 10
88.66721315526964
 20
110.3516742780352
 30
0.0
 10
88.6720293933251
 20
110.3458767850082
 30
0.0
 10
88.68165195281144
 20
110.334293735981
 30
0.0
 10
88.70091930550228
 20
110.3215391865697
 30
0.0
 10
88.72295373731643
 20
110.3139525693364
 30
0.0
 10
88.73839245455076
 20
110.3130471461991
 30
0.0
 10
88.74611940526964
 20
110.3125939893821
 30
0.0
  0
SPLINE
  5
157
330
1F
100
AcDbEntity
  8
0
  6
Continuous
 62
     7
370
    15
100
AcDbSpline
210
0.0
220
0.0
230
1.0
 70
     8
 71
     3
 72
    10
 73
     6
 74
     0
 42
0.00000001
 43
0.00000001
 40
0.0
 40
0.0
 40
0.0
 40
0.0
 40
0.49994754475531
 40
0.7001640684437745
 40
1.0
 40
1.0
 40
1.0
 40
1.0
 10
88.62111940526965
 20
110.5198777882475
 30
0.0
 10
88.62254188439304
 20
110.4903423521066
 30
0.0
 10
88.62453403093073
 20
110.4489787103634
 30
0.0
 10
88.64176553867183
 20
110.392090713585
 30
0.0
 10
88.6576741871406
 20
110.3668242662126
 30
0.0
 10
88.66721315526964
 20
110.3516742780352
 30
0.0
  0
SPLINE
  5
158
330
1F
100
AcDbEntity
  8
0
  6
Continuous
 62
     7
370
    15
100
AcDbSpline
210
0.0
220
0.0
230
1.0
 70
     8
 71
     3
 72
    11
 73
     7
 74
     0
 42
0.00000001
 43
0.00000001
 40
0.0
 40
0.0
 40
0.0
 40
0.0
 40
0.2506774586143092
 40
0.4995585620004617
 40
0.7490471743792684
 40
1.0
 40
1.0
 40
1.0
 40
1.0
 10
88.80445273860298
 20
110.7447776741799
 30
0.0
 10
88.77729111910172
 20
110.7390917782979
 30
0.0
 10
88.72316252032522
 20
110.7277607316765
 30
0.0
 10
88.65435562286757
 20
110.676725617044
 30
0.0
 10
88.62436948888605
 20
110.5994303241279
 30
0.0
 10
88.62220487757963
 20
110.5464469738683
 30
0.0
 10
88.62111940526964
 20
110.5198777882475
 30
0.0
  0
SPLINE
  5
159
330
1F
100
AcDbEntity
  8
0
  6
Continuous
 62
     7
370
    15
100
AcDbSpline
210
0.0
220
0.0
230
1.0
 70
     8
 71
     3
 72
     8
 73
     4
 74
     0
 42
0.00000001
 43
0.00000001
 40
0.0
 40
0.0
 40
0.0
 40
0.0
 40
1.0
 40
1.0
 40
1.0
 40
1.0
 10
88.78778607193631
 20
110.9867152266276
 30
0.0
 10
88.79334162749186
 20
110.9058654120661
 30
0.0
 10
88.79889718304743
 20
110.8252143528283
 30
0.0
 10
88.80445273860298
 20
110.7447776741799
 30
0.0
  0
SPLINE
  5
15A
330
1F
100
AcDbEntity
  8
0
  6
Continuous
 62
     7
370
    15
100
AcDbSpline
210
0.0
220
0.0
230
1.0
 70
     8
 71
     3
 72
    13
 73
     9
 74
     0
 42
0.00000001
 43
0.00000001
 40
0.0
 40
0.0
 40
0.0
 40
0.0
 40
0.125543576595247
 40
0.251053784896156
 40
0.50061673955824
 40
0.7493102551818412
 40
0.8745848812551356
 40
0.9999999999999999
 40
0.9999999999999999
 40
0.9999999999999999
 40
0.9999999999999999
 10
88.40445273860298
 20
110.5168770524172
 30
0.0
 10
88.40510413885711
 20
110.5448580742436
 30
0.0
 10
88.4064067662294
 20
110.6008126808055
 30
0.0
 10
88.42338175015703
 20
110.711425004558
 30
0.0
 10
88.47574183824025
 20
110.8459290447067
 30
0.0
 10
88.59046057172934
 20
110.9415441949983
 30
0.0
 10
88.70060730198168
 20
110.9796801463629
 30
0.0
 10
88.75871562684205
 20
110.984369323896
 30
0.0
 10
88.78778607193631
 20
110.9867152266276
 30
0.0
  0
SPLINE
  5
15B
330
1F
100
AcDbEntity
  8
0
  6
Continuous
 62
     7
370
    15
100
AcDbSpline
210
0.0
220
0.0
230
1.0
 70
     8
 71
     3
 72
    15
 73
    11
 74
     0
 42
0.00000001
 43
0.00000001
 40
0.0
 40
0.0
 40
0.0
 40
0.0
 40
0.0626418454010827
 40
0.1252404853078748
 40
0.2502673570648713
 40
0.3761136083813385
 40
0.5002787276099792
 40
0.7494978991388606
 40
0.8747199287132866
 40
0.9999999999999999
 40
0.9999999999999999
 40
0.9999999999999999
 40
0.9999999999999999
 10
88.7635673219363
 20
110.074492432565
 30
0.0
 10
88.74984130140324
 20
110.0749519136416
 30
0.0
 10
88.72239872748317
 20
110.0758705588804
 30
0.0
 10
88.66835734640915
 20
110.0856111598222
 30
0.0
 10
88.60387458383708
 20
110.1096945711177
 30
0.0
 10
88.53551123893914
 20
110.1543759983566
 30
0.0
 10
88.46364345900123
 20
110.2342635078502
 30
0.0
 10
88.42366074679981
 20
110.3342491787546
 30
0.0
 10
88.40650784233739
 20
110.437827930931
 30
0.0
 10
88.40513787898864
 20
110.4905232753917
 30
0.0
 10
88.40445273860298
 20
110.5168770524172
 30
0.0
  0
SPLINE
  5
15C
330
1F
100
AcDbEntity
  8
0
  6
Continuous
 62
     7
370
    15
100
AcDbSpline
210
0.0
220
0.0
230
1.0
 70
     8
 71
     3
 72
    11
 73
     7
 74
     0
 42
0.00000001
 43
0.00000001
 40
0.0
 40
0.0
 40
0.0
 40
0.0
 40
0.2501473170089386
 40
0.5001000470591146
 40
0.7500143548018325
 40
1.0
 40
1.0
 40
1.0
 40
1.0
 10
89.02268190526965
 20
110.1886435136852
 30
0.0
 10
89.00553888858207
 20
110.1718051491486
 30
0.0
 10
88.97126619057873
 20
110.1381415184617
 30
0.0
 10
88.90770623218894
 20
110.1014961049918
 30
0.0
 10
88.8373409685127
 20
110.0784260299013
 30
0.0
 10
88.78816087685159
 20
110.0758037564129
 30
0.0
 10
88.7635673219363
 20
110.074492432565
 30
0.0
  0
SPLINE
  5
15D
330
1F
100
AcDbEntity
  8
0
  6
Continuous
 62
     7
370
    15
100
AcDbSpline
210
0.0
220
0.0
230
1.0
 70
     8
 71
     3
 72
    12
 73
     8
 74
     0
 42
0.00000001
 43
0.00000001
 40
0.0
 40
0.0
 40
0.0
 40
0.0
 40
0.2704534311001612
 40
0.5001251368241688
 40
0.750082984193324
 40
0.8723554985696131
 40
1.0
 40
1.0
 40
1.0
 40
1.0
 10
89.1502860719363
 20
110.4726412429833
 30
0.0
 10
89.14284204216608
 20
110.44537615913
 30
0.0
 10
89.1290764693197
 20
110.3949572987103
 30
0.0
 10
89.10244120414225
 20
110.3212403294552
 30
0.0
 10
89.07619703508661
 20
110.263840432412
 30
0.0
 10
89.04796027059093
 20
110.2194586471271
 30
0.0
 10
89.03122791483658
 20
110.1990613718755
 30
0.0
 10
89.02268190526965
 20
110.1886435136852
 30
0.0
  0
SPLINE
  5
15E
330
1F
100
AcDbEntity
  8
0
  6
Continuous
 62
     7
370
    15
100
AcDbSpline
210
0.0
220
0.0
230
1.0
 70
     8
 71
     3
 72
     9
 73
     5
 74
     0
 42
0.00000001
 43
0.00000001
 40
0.0
 40
0.0
 40
0.0
 40
0.0
 40
0.5713825186386335
 40
0.9999999999999999
 40
0.9999999999999999
 40
0.9999999999999999
 40
0.9999999999999999
 10
89.20679648860298
 20
110.6754545670717
 30
0.0
 10
89.19528744125485
 20
110.6369516193107
 30
0.0
 10
89.17514498506712
 20
110.5695660299637
 30
0.0
 10
89.1577443068204
 20
110.5017208661988
 30
0.0
 10
89.1502860719363
 20
110.4726412429833
 30
0.0
  0
SPLINE
  5
15F
330
1F
100
AcDbEntity
  8
0
  6
Continuous
 62
     7
370
    15
100
AcDbSpline
210
0.0
220
0.0
230
1.0
 70
     8
 71
     3
 72
    12
 73
     8
 74
     0
 42
0.00000001
 43
0.00000001
 40
0.0
 40
0.0
 40
0.0
 40
0.0
 40
0.1253160740531133
 40
0.2505449505004447
 40
0.4992418530377993
 40
0.7493113222506027
 40
1.0
 40
1.0
 40
1.0
 40
1.0
 10
89.3416923219363
 20
110.7930652815229
 30
0.0
 10
89.33349897973613
 20
110.7927646121939
 30
0.0
 10
89.3171179964386
 20
110.7921634827479
 30
0.0
 10
89.28555547926727
 20
110.7832458762598
 30
0.0
 10
89.25120693174858
 20
110.7598892781365
 30
0.0
 10
89.22436628235894
 20
110.7195875028878
 30
0.0
 10
89.21265791248577
 20
110.6901776678435
 30
0.0
 10
89.20679648860298
 20
110.6754545670717
 30
0.0
  0
SPLINE
  5
160
330
1F
100
AcDbEntity
  8
0
  6
Continuous
 62
     7
370
    15
100
AcDbSpline
210
0.0
220
0.0
230
1.0
 70
     8
 71
     3
 72
    13
 73
     9
 74
     0
 42
0.00000001
 43
0.00000001
 40
0.0
 40
0.0
 40
0.0
 40
0.0
 40
0.278249124565502
 40
0.5003143216287207
 40
0.7494385482510254
 40
0.8496495882852831
 40
0.9201665801614108
 40
1.0
 40
1.0
 40
1.0
 40
1.0
 10
89.52111940526963
 20
110.5421399313442
 30
0.0
 10
89.5195558891065
 20
110.5735536776903
 30
0.0
 10
89.51674456120121
 20
110.6300381220439
 30
0.0
 10
89.48762202327472
 20
110.7114456184713
 30
0.0
 10
89.44081874880492
 20
110.7611437117241
 30
0.0
 10
89.39720277567481
 20
110.7838951026207
 30
0.0
 10
89.36864888925562
 20
110.7913460228474
 30
0.0
 10
89.35104152314513
 20
110.7924690002866
 30
0.0
 10
89.3416923219363
 20
110.7930652815229
 30
0.0
  0
SPLINE
  5
161
330
1F
100
AcDbEntity
  8
0
  6
Continuous
 62
     7
370
    15
100
AcDbSpline
210
0.0
220
0.0
230
1.0
 70
     8
 71
     3
 72
    13
 73
     9
 74
     0
 42
0.00000001
 43
0.00000001
 40
0.0
 40
0.0
 40
0.0
 40
0.0
 40
0.1898756500516914
 40
0.3540097696209705
 40
0.5005021510031235
 40
0.7494311315300723
 40
0.8639530205053851
 40
1.0
 40
1.0
 40
1.0
 40
1.0
 10
89.27111940526963
 20
110.2648544238879
 30
0.0
 10
89.29725774798362
 20
110.2705641513344
 30
0.0
 10
89.34599084609249
 20
110.281209535813
 30
0.0
 10
89.41021096411976
 20
110.3106733815088
 30
0.0
 10
89.47136078667944
 20
110.3596410881927
 30
0.0
 10
89.50528113391813
 20
110.4234103428065
 30
0.0
 10
89.51871383109236
 20
110.4897890624745
 30
0.0
 10
89.520272903238
 20
110.5237180854185
 30
0.0
 10
89.52111940526963
 20
110.5421399313442
 30
0.0
  0
SPLINE
  5
162
330
1F
100
AcDbEntity
  8
0
  6
Continuous
 62
     7
370
    15
100
AcDbSpline
210
0.0
220
0.0
230
1.0
 70
     8
 71
     3
 72
     8
 73
     4
 74
     0
 42
0.00000001
 43
0.00000001
 40
0.0
 40
0.0
 40
0.0
 40
0.0
 40
1.0
 40
1.0
 40
1.0
 40
1.0
 10
89.28778607193631
 20
110.0270546906696
 30
0.0
 10
89.28223051638075
 20
110.106065652627
 30
0.0
 10
89.2766749608252
 20
110.1853373497095
 30
0.0
 10
89.27111940526963
 20
110.2648544238879
 30
0.0
  0
SPLINE
  5
163
330
1F
100
AcDbEntity
  8
0
  6
Continuous
 62
     7
370
    15
100
AcDbSpline
210
0.0
220
0.0
230
1.0
 70
     8
 71
     3
 72
    13
 73
     9
 74
     0
 42
0.00000001
 43
0.00000001
 40
0.0
 40
0.0
 40
0.0
 40
0.0
 40
0.1255268255417726
 40
0.2510049223527551
 40
0.5001710936956886
 40
0.7490662413620226
 40
0.8744963364025936
 40
1.0
 40
1.0
 40
1.0
 40
1.0
 10
89.7377860719363
 20
110.5356351677916
 30
0.0
 10
89.73685340297433
 20
110.5043932390773
 30
0.0
 10
89.73498842710667
 20
110.4419215095705
 30
0.0
 10
89.712980930277
 20
110.3195485113063
 30
0.0
 10
89.64395545301134
 20
110.1739078025477
 30
0.0
 10
89.5071886952397
 20
110.0810855700834
 30
0.0
 10
89.38443028074904
 20
110.0406738932148
 30
0.0
 10
89.32000710405221
 20
110.0315953120684
 30
0.0
 10
89.28778607193631
 20
110.0270546906696
 30
0.0
  0
SPLINE
  5
164
330
1F
100
AcDbEntity
  8
0
  6
Continuous
 62
     7
370
    15
100
AcDbSpline
210
0.0
220
0.0
230
1.0
 70
     8
 71
     3
 72
    14
 73
    10
 74
     0
 42
0.00000001
 43
0.00000001
 40
0.0
 40
0.0
 40
0.0
 40
0.0
 40
0.0669433239213519
 40
0.1254795555879373
 40
0.2507872536812483
 40
0.4993456174534738
 40
0.7489576840048086
 40
0.874454830202381
 40
1.0
 40
1.0
 40
1.0
 40
1.0
 10
89.33908815526964
 20
111.0352488398607
 30
0.0
 10
89.3554408755747
 20
111.0345452682703
 30
0.0
 10
89.38609265616068
 20
111.0332264832846
 30
0.0
 10
89.44658512272859
 20
111.0226696314488
 30
0.0
 10
89.54591013306141
 20
110.985481921605
 30
0.0
 10
89.66615222576752
 20
110.883775818451
 30
0.0
 10
89.71818948391919
 20
110.7407750392931
 30
0.0
 10
89.73593671745331
 20
110.6241666528463
 30
0.0
 10
89.73716954183017
 20
110.5651494260794
 30
0.0
 10
89.7377860719363
 20
110.5356351677916
 30
0.0
  0
SPLINE
  5
165
330
1F
100
AcDbEntity
  8
0
  6
Continuous
 62
     7
370
    15
100
AcDbSpline
210
0.0
220
0.0
230
1.0
 70
     8
 71
     3
 72
    10
 73
     6
 74
     0
 42
0.00000001
 43
0.00000001
 40
0.0
 40
0.0
 40
0.0
 40
0.0
 40
0.2321912897319964
 40
0.5654743303980154
 40
1.0
 40
1.0
 40
1.0
 40
1.0
 10
87.70613543091068
 20
119.5675841802175
 30
0.0
 10
87.70873601763948
 20
119.5303852273367
 30
0.0
 10
87.71506943798794
 20
119.4397915922521
 30
0.0
 10
87.71890771613836
 20
119.2782573083737
 30
0.0
 10
87.72032009709314
 20
119.1531140683265
 30
0.0
 10
87.72111940526963
 20
119.0822918056321
 30
0.0
  0
SPLINE
  5
166
330
1F
100
AcDbEntity
  8
0
  6
Continuous
 62
     7
370
    15
100
AcDbSpline
210
0.0
220
0.0
230
1.0
 70
     8
 71
     3
 72
    14
 73
    10
 74
     0
 42
0.00000001
 43
0.00000001
 40
0.0
 40
0.0
 40
0.0
 40
0.0
 40
0.0716436916533251
 40
0.1432559352740257
 40
0.2863418368390412
 40
0.5004935785225215
 40
0.7494792052122788
 40
0.8747006673519734
 40
0.9999999999999999
 40
0.9999999999999999
 40
0.9999999999999999
 40
0.9999999999999999
 10
87.08341908475683
 20
120.06260665224
 30
0.0
 10
87.10529093759983
 20
120.0619430997425
 30
0.0
 10
87.14902504262562
 20
120.0606162860144
 30
0.0
 10
87.2356883642347
 20
120.0490341974007
 30
0.0
 10
87.36080506443261
 20
120.0129767015882
 30
0.0
 10
87.52310781565164
 20
119.9293840580259
 30
0.0
 10
87.63716785148505
 20
119.7992034977601
 30
0.0
 10
87.68948203863913
 20
119.6699730510215
 30
0.0
 10
87.70058314995066
 20
119.6017208755293
 30
0.0
 10
87.70613543091068
 20
119.5675841802175
 30
0.0
  0
SPLINE
  5
167
330
1F
100
AcDbEntity
  8
0
  6
Continuous
 62
     7
370
    15
100
AcDbSpline
210
0.0
220
0.0
230
1.0
 70
     8
 71
     3
 72
    13
 73
     9
 74
     0
 42
0.00000001
 43
0.00000001
 40
0.0
 40
0.0
 40
0.0
 40
0.0
 40
0.1252671326901673
 40
0.2504963459163713
 40
0.4998739960635745
 40
0.7494562813174518
 40
0.8747110270281363
 40
1.0
 40
1.0
 40
1.0
 40
1.0
 10
86.55192870014145
 20
119.7227631812143
 30
0.0
 10
86.56179422608932
 20
119.7475418960728
 30
0.0
 10
86.58152229160353
 20
119.7970918250547
 30
0.0
 10
86.64055992079575
 20
119.8878248949821
 30
0.0
 10
86.74510684722739
 20
119.9824530946429
 30
0.0
 10
86.88003295071367
 20
120.0386901542569
 30
0.0
 10
86.99525894675011
 20
120.059864173421
 30
0.0
 10
87.05402969582609
 20
120.0616924093807
 30
0.0
 10
87.08341908475683
 20
120.06260665224
 30
0.0
  0
SPLINE
  5
168
330
1F
100
AcDbEntity
  8
0
  6
Continuous
 62
     7
370
    15
100
AcDbSpline
210
0.0
220
0.0
230
1.0
 70
     8
 71
     3
 72
    13
 73
     9
 74
     0
 42
0.00000001
 43
0.00000001
 40
0.0
 40
0.0
 40
0.0
 40
0.0
 40
0.1430822408629194
 40
0.2860787158207744
 40
0.5711905163813211
 40
0.7853762017265298
 40
0.8926504142749722
 40
1.0
 40
1.0
 40
1.0
 40
1.0
 10
86.07464504629527
 20
119.9878918912856
 30
0.0
 10
86.10297874643373
 20
119.9869523070196
 30
0.0
 10
86.15962916301356
 20
119.9850737016903
 30
0.0
 10
86.26994569167579
 20
119.9611263960723
 30
0.0
 10
86.38484228094862
 20
119.9088376883374
 30
0.0
 10
86.47346130426459
 20
119.8353091733148
 30
0.0
 10
86.52289787240338
 20
119.7735152579782
 30
0.0
 10
86.54224949221364
 20
119.7396845004477
 30
0.0
 10
86.55192870014145
 20
119.7227631812143
 30
0.0
  0
SPLINE
  5
169
330
1F
100
AcDbEntity
  8
0
  6
Continuous
 62
     7
370
    15
100
AcDbSpline
210
0.0
220
0.0
230
1.0
 70
     8
 71
     3
 72
    17
 73
    13
 74
     0
 42
0.00000001
 43
0.00000001
 40
0.0
 40
0.0
 40
0.0
 40
0.0
 40
0.1252083340299296
 40
0.1878141287896516
 40
0.2504179467777979
 40
0.3755072472275273
 40
0.5003985852996538
 40
0.6234888671874842
 40
0.7501321255031699
 40
0.8748673277808021
 40
0.9374160714635696
 40
1.0
 40
1.0
 40
1.0
 40
1.0
 10
85.52111940526964
 20
119.2119321924165
 30
0.0
 10
85.52150675941051
 20
119.2562753717107
 30
0.0
 10
85.52208779565757
 20
119.3227907171262
 30
0.0
 10
85.52523874182813
 20
119.4110019663909
 30
0.0
 10
85.53265504111346
 20
119.4986793820441
 30
0.0
 10
85.5459027902612
 20
119.6078861980145
 30
0.0
 10
85.59617610387436
 20
119.7313545053457
 30
0.0
 10
85.68127623862699
 20
119.8384322411059
 30
0.0
 10
85.79472502525454
 20
119.9212258014482
 30
0.0
 10
85.90639587657152
 20
119.9678002138344
 30
0.0
 10
86.00176843844483
 20
119.9854714353014
 30
0.0
 10
86.05034829044455
 20
119.9870849213973
 30
0.0
 10
86.07464504629527
 20
119.9878918912856
 30
0.0
  0
LINE
  5
16A
330
1F
100
AcDbEntity
  8
0
  6
Continuous
 62
     7
370
    15
100
AcDbLine
 10
85.5211194053
 20
118.3898734416
 30
0.0
 11
85.5211194053
 21
119.2119321924
 31
0.0
  0
LINE
  5
16B
330
1F
100
AcDbEntity
  8
0
  6
Continuous
 62
     7
370
    15
100
AcDbLine
 10
87.7211194053
 20
118.3898734416
 30
0.0
 11
85.5211194053
 21
118.3898734416
 31
0.0
  0
LINE
  5
16C
330
1F
100
AcDbEntity
  8
0
  6
Continuous
 62
     7
370
    15
100
AcDbLine
 10
87.7211194053
 20
118.3898734416
 30
0.0
 11
87.7211194053
 21
119.0822918056
 31
0.0
  0
SPLINE
  5
16D
330
1F
100
AcDbEntity
  8
0
  6
Continuous
 62
     7
370
    15
100
AcDbSpline
210
0.0
220
0.0
230
1.0
 70
     8
 71
     3
 72
    17
 73
    13
 74
     0
 42
0.00000001
 43
0.00000001
 40
0.0
 40
0.0
 40
0.0
 40
0.0
 40
0.0625881285934212
 40
0.1251586120237812
 40
0.2501028301891422
 40
0.3749428334924734
 40
0.4999079917394285
 40
0.6223557709499621
 40
0.7497794586707295
 40
0.8748305566857297
 40
0.9374091556886591
 40
1.0
 40
1.0
 40
1.0
 40
1.0
 10
85.49291427706451
 20
110.9209523452105
 30
0.0
 10
85.49381689660824
 20
110.9561799512306
 30
0.0
 10
85.49562188122462
 20
111.0266252317251
 30
0.0
 10
85.51227805682946
 20
111.1670165957675
 30
0.0
 10
85.5598165070128
 20
111.3390491566481
 30
0.0
 10
85.66259307723858
 20
111.5288869977077
 30
0.0
 10
85.80769811548744
 20
111.6886970547756
 30
0.0
 10
85.98700455213111
 20
111.8131952200597
 30
0.0
 10
86.19035554183573
 20
111.8941246581699
 30
0.0
 10
86.37039434545719
 20
111.9301138950566
 30
0.0
 10
86.51520160180159
 20
111.9426644158337
 30
0.0
 10
86.58786772507317
 20
111.9439452186516
 30
0.0
 10
86.62420434116707
 20
111.944585682711
 30
0.0
  0
SPLINE
  5
16E
330
1F
100
AcDbEntity
  8
0
  6
Continuous
 62
     7
370
    15
100
AcDbSpline
210
0.0
220
0.0
230
1.0
 70
     8
 71
     3
 72
    11
 73
     7
 74
     0
 42
0.00000001
 43
0.00000001
 40
0.0
 40
0.0
 40
0.0
 40
0.0
 40
0.2499356838248954
 40
0.4999334376532631
 40
0.7499636020153894
 40
1.0
 40
1.0
 40
1.0
 40
1.0
 10
85.57929248219271
 20
110.4739478403975
 30
0.0
 10
85.56499263286345
 20
110.5093952323232
 30
0.0
 10
85.53638938292451
 20
110.5802988193182
 30
0.0
 10
85.51092015196072
 20
110.6922613620337
 30
0.0
 10
85.49519601641349
 20
110.8059714711283
 30
0.0
 10
85.4936748631682
 20
110.8826250686725
 30
0.0
 10
85.49291427706451
 20
110.9209523452105
 30
0.0
  0
SPLINE
  5
16F
330
1F
100
AcDbEntity
  8
0
  6
Continuous
 62
     7
370
    15
100
AcDbSpline
210
0.0
220
0.0
230
1.0
 70
     8
 71
     3
 72
    13
 73
     9
 74
     0
 42
0.00000001
 43
0.00000001
 40
0.0
 40
0.0
 40
0.0
 40
0.0
 40
0.1250915895742502
 40
0.2501492781716045
 40
0.5000887273771345
 40
0.7498897267418414
 40
0.8749299811088226
 40
1.0
 40
1.0
 40
1.0
 40
1.0
 10
86.07508575142349
 20
110.0175214613435
 30
0.0
 10
86.04846442896883
 20
110.0293313738755
 30
0.0
 10
85.99522899868391
 20
110.052947998344
 30
0.0
 10
85.89482389148603
 20
110.1111063719896
 30
0.0
 10
85.77938571915074
 20
110.198251079273
 30
0.0
 10
85.6811394820495
 20
110.3032026404983
 30
0.0
 10
85.61624685072998
 20
110.3971651599393
 30
0.0
 10
85.59161158228348
 20
110.4483515830877
 30
0.0
 10
85.57929248219271
 20
110.4739478403975
 30
0.0
  0
SPLINE
  5
170
330
1F
100
AcDbEntity
  8
0
  6
Continuous
 62
     7
370
    15
100
AcDbSpline
210
0.0
220
0.0
230
1.0
 70
     8
 71
     3
 72
    12
 73
     8
 74
     0
 42
0.00000001
 43
0.00000001
 40
0.0
 40
0.0
 40
0.0
 40
0.0
 40
0.2857216906151985
 40
0.500014875420462
 40
0.7499865848686241
 40
0.8640794813418087
 40
1.0
 40
1.0
 40
1.0
 40
1.0
 10
86.6343405591158
 20
109.9244885610363
 30
0.0
 10
86.57987523836567
 20
109.9255216335325
 30
0.0
 10
86.48456056165712
 20
109.9273295173316
 30
0.0
 10
86.34257877871899
 20
109.9437304024282
 30
0.0
 10
86.23432648508503
 20
109.9645012297628
 30
0.0
 10
86.14346336080928
 20
109.9918560892225
 30
0.0
 10
86.09916738643564
 20
110.0084824772459
 30
0.0
 10
86.07508575142349
 20
110.0175214613435
 30
0.0
  0
SPLINE
  5
171
330
1F
100
AcDbEntity
  8
0
  6
Continuous
 62
     7
370
    15
100
AcDbSpline
210
0.0
220
0.0
230
1.0
 70
     8
 71
     3
 72
    17
 73
    13
 74
     0
 42
0.00000001
 43
0.00000001
 40
0.0
 40
0.0
 40
0.0
 40
0.0
 40
0.062591649086455
 40
0.1251658232884662
 40
0.2501395423444177
 40
0.3746114631499732
 40
0.4999078358946082
 40
0.621657913850561
 40
0.7497877270664639
 40
0.8748256470144301
 40
0.9374066112419214
 40
1.0
 40
1.0
 40
1.0
 40
1.0
 10
87.74932453347476
 20
110.9269306416459
 30
0.0
 10
87.74843748624956
 20
110.8920090320681
 30
0.0
 10
87.74666363945272
 20
110.8221755626332
 30
0.0
 10
87.73057466358478
 20
110.6837179931647
 30
0.0
 10
87.68483796125047
 20
110.5150730546719
 30
0.0
 10
87.5850479878703
 20
110.3295948343198
 30
0.0
 10
87.4430446330027
 20
110.1742567300632
 30
0.0
 10
87.26607245793119
 20
110.0533492008203
 30
0.0
 10
87.0651213924751
 20
109.9739826775273
 30
0.0
 10
86.88616591120054
 20
109.9389518412792
 30
0.0
 10
86.74252651292336
 20
109.9263062469204
 30
0.0
 10
86.67040492992814
 20
109.9250944964229
 30
0.0
 10
86.6343405591158
 20
109.9244885610363
 30
0.0
  0
SPLINE
  5
172
330
1F
100
AcDbEntity
  8
0
  6
Continuous
 62
     7
370
    15
100
AcDbSpline
210
0.0
220
0.0
230
1.0
 70
     8
 71
     3
 72
    17
 73
    13
 74
     0
 42
0.00000001
 43
0.00000001
 40
0.0
 40
0.0
 40
0.0
 40
0.0
 40
0.0625934539964154
 40
0.1251749991422326
 40
0.2502164723795581
 40
0.3786758173197585
 40
0.5000760303589196
 40
0.6257419589732497
 40
0.7498720014268228
 40
0.8748360772302526
 40
0.9374089716014339
 40
1.0
 40
1.0
 40
1.0
 40
1.0
 10
86.62420434116707
 20
111.944585682711
 30
0.0
 10
86.66033570535146
 20
111.9439601943831
 30
0.0
 10
86.73259155947075
 20
111.942709336731
 30
0.0
 10
86.87653550180369
 20
111.9299206724844
 30
0.0
 10
87.05616307865874
 20
111.8941679596833
 30
0.0
 10
87.2581135333555
 20
111.8131293768154
 30
0.0
 10
87.43690228031522
 20
111.6894986999186
 30
0.0
 10
87.58086652136436
 20
111.5310835940558
 30
0.0
 10
87.68331714556568
 20
111.3424417076638
 30
0.0
 10
87.729980982283
 20
111.1716105572116
 30
0.0
 10
87.74663167218421
 20
111.0320179507894
 30
0.0
 10
87.74842682634927
 20
110.9619631279266
 30
0.0
 10
87.74932453347476
 20
110.9269306416459
 30
0.0
  0
LINE
  5
173
330
1F
100
AcDbEntity
  8
0
  6
Continuous
 62
     7
370
    15
100
AcDbLine
 10
86.7621450463
 20
108.366033532
 30
0.0
 11
87.7211194053
 21
108.366033532
 31
0.0
  0
LINE
  5
174
330
1F
100
AcDbEntity
  8
0
  6
Continuous
 62
     7
370
    15
100
AcDbLine
 10
86.7621450463
 20
108.366033532
 30
0.0
 11
86.7621450463
 21
109.1863586963
 31
0.0
  0
LINE
  5
175
330
1F
100
AcDbEntity
  8
0
  6
Continuous
 62
     7
370
    15
100
AcDbLine
 10
87.7211194053
 20
109.1863586963
 30
0.0
 11
86.7621450463
 21
109.1863586963
 31
0.0
  0
LINE
  5
176
330
1F
100
AcDbEntity
  8
0
  6
Continuous
 62
     7
370
    15
100
AcDbLine
 10
87.7211194053
 20
109.1863586963
 30
0.0
 11
87.7211194053
 21
109.5796205437
 31
0.0
  0
LINE
  5
177
330
1F
100
AcDbEntity
  8
0
  6
Continuous
 62
     7
370
    15
100
AcDbLine
 10
85.5211194053
 20
109.5796205437
 30
0.0
 11
87.7211194053
 21
109.5796205437
 31
0.0
  0
LINE
  5
178
330
1F
100
AcDbEntity
  8
0
  6
Continuous
 62
     7
370
    15
100
AcDbLine
 10
85.5211194053
 20
109.1863586963
 30
0.0
 11
85.5211194053
 21
109.5796205437
 31
0.0
  0
LINE
  5
179
330
1F
100
AcDbEntity
  8
0
  6
Continuous
 62
     7
370
    15
100
AcDbLine
 10
86.3954783796
 20
109.1863586963
 30
0.0
 11
85.5211194053
 21
109.1863586963
 31
0.0
  0
LINE
  5
17A
330
1F
100
AcDbEntity
  8
0
  6
Continuous
 62
     7
370
    15
100
AcDbLine
 10
86.3954783796
 20
108.366033532
 30
0.0
 11
86.3954783796
 21
109.1863586963
 31
0.0
  0
LINE
  5
17B
330
1F
100
AcDbEntity
  8
0
  6
Continuous
 62
     7
370
    15
100
AcDbLine
 10
85.5211194053
 20
108.366033532
 30
0.0
 11
86.3954783796
 21
108.366033532
 31
0.0
  0
LINE
  5
17C
330
1F
100
AcDbEntity
  8
0
  6
Continuous
 62
     7
370
    15
100
AcDbLine
 10
85.5211194053
 20
107.9911615713
 30
0.0
 11
85.5211194053
 21
108.366033532
 31
0.0
  0
LINE
  5
17D
330
1F
100
AcDbEntity
  8
0
  6
Continuous
 62
     7
370
    15
100
AcDbLine
 10
87.7211194053
 20
107.9911615713
 30
0.0
 11
85.5211194053
 21
107.9911615713
 31
0.0
  0
LINE
  5
17E
330
1F
100
AcDbEntity
  8
0
  6
Continuous
 62
     7
370
    15
100
AcDbLine
 10
87.7211194053
 20
107.9911615713
 30
0.0
 11
87.7211194053
 21
108.366033532
 31
0.0
  0
LINE
  5
17F
330
1F
100
AcDbEntity
  8
0
  6
Continuous
 62
     7
370
    15
100
AcDbLine
 10
85.8877860719
 20
107.190738889
 30
0.0
 11
87.7211194053
 21
107.190738889
 31
0.0
  0
LINE
  5
180
330
1F
100
AcDbEntity
  8
0
  6
Continuous
 62
     7
370
    15
100
AcDbLine
 10
85.8877860719
 20
107.190738889
 30
0.0
 11
85.8877860719
 21
107.7449654022
 31
0.0
  0
LINE
  5
181
330
1F
100
AcDbEntity
  8
0
  6
Continuous
 62
     7
370
    15
100
AcDbLine
 10
85.5211194053
 20
107.7449654022
 30
0.0
 11
85.8877860719
 21
107.7449654022
 31
0.0
  0
LINE
  5
182
330
1F
100
AcDbEntity
  8
0
  6
Continuous
 62
     7
370
    15
100
AcDbLine
 10
85.5211194053
 20
106.3150119234
 30
0.0
 11
85.5211194053
 21
107.7449654022
 31
0.0
  0
LINE
  5
183
330
1F
100
AcDbEntity
  8
0
  6
Continuous
 62
     7
370
    15
100
AcDbLine
 10
85.8877860719
 20
106.3150119234
 30
0.0
 11
85.5211194053
 21
106.3150119234
 31
0.0
  0
LINE
  5
184
330
1F
100
AcDbEntity
  8
0
  6
Continuous
 62
     7
370
    15
100
AcDbLine
 10
85.8877860719
 20
106.3150119234
 30
0.0
 11
85.8877860719
 21
106.8388582184
 31
0.0
  0
LINE
  5
185
330
1F
100
AcDbEntity
  8
0
  6
Continuous
 62
     7
370
    15
100
AcDbLine
 10
87.7211194053
 20
106.8388582184
 30
0.0
 11
85.8877860719
 21
106.8388582184
 31
0.0
  0
LINE
  5
186
330
1F
100
AcDbEntity
  8
0
  6
Continuous
 62
     7
370
    15
100
AcDbLine
 10
87.7211194053
 20
106.8388582184
 30
0.0
 11
87.7211194053
 21
107.190738889
 31
0.0
  0
LINE
  5
187
330
1F
100
AcDbEntity
  8
0
  6
Continuous
 62
     7
370
    15
100
AcDbLine
 10
84.7701194053
 20
101.3641083542
 30
0.0
 11
84.7701194053
 21
126.7641083542
 31
0.0
  0
LINE
  5
188
330
1F
100
AcDbEntity
  8
0
  6
Continuous
 62
     7
370
    15
100
AcDbLine
 10
86.7903501745
 20
112.7268482676
 30
0.0
 11
87.7211194053
 21
112.7268482676
 31
0.0
  0
LINE
  5
189
330
1F
100
AcDbEntity
  8
0
  6
Continuous
 62
     7
370
    15
100
AcDbLine
 10
86.7903501745
 20
112.7268482676
 30
0.0
 11
86.7903501745
 21
112.8211094817
 31
0.0
  0
SPLINE
  5
18A
330
1F
100
AcDbEntity
  8
0
  6
Continuous
 62
     7
370
    15
100
AcDbSpline
210
0.0
220
0.0
230
1.0
 70
     8
 71
     3
 72
    15
 73
    11
 74
     0
 42
0.00000001
 43
0.00000001
 40
0.0
 40
0.0
 40
0.0
 40
0.0
 40
0.2002344733615549
 40
0.3504045063778806
 40
0.4388412571953133
 40
0.500555649195947
 40
0.6294727491428419
 40
0.7498357722725745
 40
0.8565698388423282
 40
0.9999999999999999
 40
0.9999999999999999
 40
0.9999999999999999
 40
0.9999999999999999
 10
87.22180049501324
 20
113.4403209789089
 30
0.0
 10
87.17823801254801
 20
113.40882412415
 30
0.0
 10
87.10200493485382
 20
113.3537055441225
 30
0.0
 10
87.00748590951692
 20
113.2833635695979
 30
0.0
 10
86.94515138694167
 20
113.2322178678383
 30
0.0
 10
86.88926729569401
 20
113.1823772327426
 30
0.0
 10
86.83668311037168
 20
113.1160508701205
 30
0.0
 10
86.8027203725876
 20
113.025324412025
 30
0.0
 10
86.79244378221074
 20
112.9262978133579
 30
0.0
 10
86.79111310837287
 20
112.8594412765422
 30
0.0
 10
86.79035017450042
 20
112.8211094817167
 30
0.0
  0
SPLINE
  5
18B
330
1F
100
AcDbEntity
  8
0
  6
Continuous
 62
     7
370
    15
100
AcDbSpline
210
0.0
220
0.0
230
1.0
 70
     8
 71
     3
 72
     8
 73
     4
 74
     0
 42
0.00000001
 43
0.00000001
 40
0.0
 40
0.0
 40
0.0
 40
0.0
 40
1.0
 40
1.0
 40
1.0
 40
1.0
 10
87.72111940526963
 20
113.7530016570478
 30
0.0
 10
87.55467976851752
 20
113.6487327424581
 30
0.0
 10
87.38824013176537
 20
113.5444953049439
 30
0.0
 10
87.22180049501323
 20
113.4403209789089
 30
0.0
  0
LINE
  5
18C
330
1F
100
AcDbEntity
  8
0
  6
Continuous
 62
     7
370
    15
100
AcDbLine
 10
87.7211194053
 20
113.753001657
 30
0.0
 11
87.7211194053
 21
114.2474353201
 31
0.0
  0
SPLINE
  5
18D
330
1F
100
AcDbEntity
  8
0
  6
Continuous
 62
     7
370
    15
100
AcDbSpline
210
0.0
220
0.0
230
1.0
 70
     8
 71
     3
 72
     8
 73
     4
 74
     0
 42
0.00000001
 43
0.00000001
 40
0.0
 40
0.0
 40
0.0
 40
0.0
 40
1.0
 40
1.0
 40
1.0
 40
1.0
 10
87.28570273860298
 20
113.9808156820862
 30
0.0
 10
87.43084162749186
 20
114.0696893048238
 30
0.0
 10
87.57598051638075
 20
114.1585690461406
 30
0.0
 10
87.72111940526963
 20
114.247435320134
 30
0.0
  0
SPLINE
  5
18E
330
1F
100
AcDbEntity
  8
0
  6
Continuous
 62
     7
370
    15
100
AcDbSpline
210
0.0
220
0.0
230
1.0
 70
     8
 71
     3
 72
    13
 73
     9
 74
     0
 42
0.00000001
 43
0.00000001
 40
0.0
 40
0.0
 40
0.0
 40
0.0
 40
0.1250180037919789
 40
0.2500054537724464
 40
0.3727988116843552
 40
0.4999358767823949
 40
0.7143045023856764
 40
1.0
 40
1.0
 40
1.0
 40
1.0
 10
86.73570273860298
 20
113.5266086906204
 30
0.0
 10
86.75237616633629
 20
113.5516605615917
 30
0.0
 10
86.78571894689566
 20
113.601758180975
 30
0.0
 10
86.84297947574524
 20
113.6710601861331
 30
0.0
 10
86.907236992989
 20
113.7346450864307
 30
0.0
 10
86.99493181581992
 20
113.8042149925492
 30
0.0
 10
87.12192119668086
 20
113.886198640132
 30
0.0
 10
87.22615316659783
 20
113.946413732473
 30
0.0
 10
87.28570273860298
 20
113.9808156820862
 30
0.0
  0
SPLINE
  5
18F
330
1F
100
AcDbEntity
  8
0
  6
Continuous
 62
     7
370
    15
100
AcDbSpline
210
0.0
220
0.0
230
1.0
 70
     8
 71
     3
 72
    14
 73
    10
 74
     0
 42
0.00000001
 43
0.00000001
 40
0.0
 40
0.0
 40
0.0
 40
0.0
 40
0.0716931483172213
 40
0.1433744577711652
 40
0.2508124812913234
 40
0.5000195068341128
 40
0.7492028771393748
 40
0.8745721564858805
 40
1.0
 40
1.0
 40
1.0
 40
1.0
 10
86.13061459757735
 20
114.0782109153896
 30
0.0
 10
86.15220025471172
 20
114.0777568617091
 30
0.0
 10
86.19536800448859
 20
114.0768488293271
 30
0.0
 10
86.27032952868312
 20
114.0668611776839
 30
0.0
 10
86.3959958101624
 20
114.0369325772721
 30
0.0
 10
86.55896288400304
 20
113.9412474381162
 30
0.0
 10
86.66649397081028
 20
113.7808034854488
 30
0.0
 10
86.71540643908929
 20
113.6380558441928
 30
0.0
 10
86.72893625230662
 20
113.5637635245302
 30
0.0
 10
86.73570273860298
 20
113.5266086906204
 30
0.0
  0
SPLINE
  5
190
330
1F
100
AcDbEntity
  8
0
  6
Continuous
 62
     7
370
    15
100
AcDbSpline
210
0.0
220
0.0
230
1.0
 70
     8
 71
     3
 72
    16
 73
    12
 74
     0
 42
0.00000001
 43
0.00000001
 40
0.0
 40
0.0
 40
0.0
 40
0.0
 40
0.1252351593882219
 40
0.2504602880508479
 40
0.3506148253166308
 40
0.5002210996727453
 40
0.6250064101095569
 40
0.7499024694027632
 40
0.8748156116251725
 40
0.9374037008091612
 40
0.9999999999999999
 40
0.9999999999999999
 40
0.9999999999999999
 40
0.9999999999999999
 10
85.52111940526964
 20
113.2251764148959
 30
0.0
 10
85.52156002434641
 20
113.2753157831895
 30
0.0
 10
85.5224412272085
 20
113.3755905038578
 30
0.0
 10
85.53288535183681
 20
113.5158957849625
 30
0.0
 10
85.55522481524476
 20
113.664477717853
 30
0.0
 10
85.6047224263854
 20
113.8094002800706
 30
0.0
 10
85.7099487091337
 20
113.9340503339439
 30
0.0
 10
85.83667705747541
 20
114.0177419361899
 30
0.0
 10
85.95597408992111
 20
114.0599311983103
 30
0.0
 10
86.05523129723436
 20
114.0763957079606
 30
0.0
 10
86.1054857321789
 20
114.0776058197922
 30
0.0
 10
86.13061459757735
 20
114.0782109153896
 30
0.0
  0
LINE
  5
191
330
1F
100
AcDbEntity
  8
0
  6
Continuous
 62
     7
370
    15
100
AcDbLine
 10
85.5211194053
 20
112.3069430315
 30
0.0
 11
85.5211194053
 21
113.2251764149
 31
0.0
  0
LINE
  5
192
330
1F
100
AcDbEntity
  8
0
  6
Continuous
 62
     7
370
    15
100
AcDbLine
 10
87.7211194053
 20
112.3069430315
 30
0.0
 11
85.5211194053
 21
112.3069430315
 31
0.0
  0
LINE
  5
193
330
1F
100
AcDbEntity
  8
0
  6
Continuous
 62
     7
370
    15
100
AcDbLine
 10
87.7211194053
 20
112.3069430315
 30
0.0
 11
87.7211194053
 21
112.7268482676
 31
0.0
  0
LINE
  5
194
330
1F
100
AcDbEntity
  8
0
  6
Continuous
 62
     7
370
    15
100
AcDbLine
 10
87.3544527386
 20
116.0444554154
 30
0.0
 11
87.7211194053
 21
116.0444554154
 31
0.0
  0
LINE
  5
195
330
1F
100
AcDbEntity
  8
0
  6
Continuous
 62
     7
370
    15
100
AcDbLine
 10
87.3544527386
 20
114.9237070681
 30
0.0
 11
87.3544527386
 21
116.0444554154
 31
0.0
  0
LINE
  5
196
330
1F
100
AcDbEntity
  8
0
  6
Continuous
 62
     7
370
    15
100
AcDbLine
 10
85.5211194053
 20
114.9237070681
 30
0.0
 11
87.3544527386
 21
114.9237070681
 31
0.0
  0
LINE
  5
197
330
1F
100
AcDbEntity
  8
0
  6
Continuous
 62
     7
370
    15
100
AcDbLine
 10
85.5211194053
 20
114.5012015048
 30
0.0
 11
85.5211194053
 21
114.9237070681
 31
0.0
  0
LINE
  5
198
330
1F
100
AcDbEntity
  8
0
  6
Continuous
 62
     7
370
    15
100
AcDbLine
 10
87.7211194053
 20
114.5012015048
 30
0.0
 11
85.5211194053
 21
114.5012015048
 31
0.0
  0
LINE
  5
199
330
1F
100
AcDbEntity
  8
0
  6
Continuous
 62
     7
370
    15
100
AcDbLine
 10
87.7211194053
 20
114.5012015048
 30
0.0
 11
87.7211194053
 21
116.0444554154
 31
0.0
  0
SPLINE
  5
19A
330
1F
100
AcDbEntity
  8
0
  6
Continuous
 62
     7
370
    15
100
AcDbSpline
210
0.0
220
0.0
230
1.0
 70
     8
 71
     3
 72
     8
 73
     4
 74
     0
 42
0.00000001
 43
0.00000001
 40
0.0
 40
0.0
 40
0.0
 40
0.0
 40
1.0
 40
1.0
 40
1.0
 40
1.0
 10
87.72111940526963
 20
116.127991183213
 30
0.0
 10
86.9877860719363
 20
116.4015097927843
 30
0.0
 10
86.25445273860298
 20
116.6735528789469
 30
0.0
 10
85.52111940526964
 20
116.9435375860236
 30
0.0
  0
LINE
  5
19B
330
1F
100
AcDbEntity
  8
0
  6
Continuous
 62
     7
370
    15
100
AcDbLine
 10
87.7211194053
 20
116.1279911832
 30
0.0
 11
87.7211194053
 21
116.5718776992
 31
0.0
  0
SPLINE
  5
19C
330
1F
100
AcDbEntity
  8
0
  6
Continuous
 62
     7
370
    15
100
AcDbSpline
210
0.0
220
0.0
230
1.0
 70
     8
 71
     3
 72
     8
 73
     4
 74
     0
 42
0.00000001
 43
0.00000001
 40
0.0
 40
0.0
 40
0.0
 40
0.0
 40
1.0
 40
1.0
 40
1.0
 40
1.0
 10
87.21342709757734
 20
116.753487352125
 30
0.0
 10
87.3826578668081
 20
116.6930443145615
 30
0.0
 10
87.55188863603887
 20
116.6325056102012
 30
0.0
 10
87.72111940526963
 20
116.571877699188
 30
0.0
  0
LINE
  5
19D
330
1F
100
AcDbEntity
  8
0
  6
Continuous
 62
     7
370
    15
100
AcDbLine
 10
87.2134270976
 20
116.7534873521
 30
0.0
 11
87.2134270976
 21
117.5721786355
 31
0.0
  0
SPLINE
  5
19E
330
1F
100
AcDbEntity
  8
0
  6
Continuous
 62
     7
370
    15
100
AcDbSpline
210
0.0
220
0.0
230
1.0
 70
     8
 71
     3
 72
     8
 73
     4
 74
     0
 42
0.00000001
 43
0.00000001
 40
0.0
 40
0.0
 40
0.0
 40
0.0
 40
1.0
 40
1.0
 40
1.0
 40
1.0
 10
87.72111940526963
 20
117.7501160598807
 30
0.0
 10
87.55188863603887
 20
117.6909325942239
 30
0.0
 10
87.3826578668081
 20
117.6316180095993
 30
0.0
 10
87.21342709757734
 20
117.5721786355236
 30
0.0
  0
LINE
  5
19F
330
1F
100
AcDbEntity
  8
0
  6
Continuous
 62
     7
370
    15
100
AcDbLine
 10
87.7211194053
 20
117.7501160599
 30
0.0
 11
87.7211194053
 21
118.1770532405
 31
0.0
  0
SPLINE
  5
1A0
330
1F
100
AcDbEntity
  8
0
  6
Continuous
 62
     7
370
    15
100
AcDbSpline
210
0.0
220
0.0
230
1.0
 70
     8
 71
     3
 72
     8
 73
     4
 74
     0
 42
0.00000001
 43
0.00000001
 40
0.0
 40
0.0
 40
0.0
 40
0.0
 40
1.0
 40
1.0
 40
1.0
 40
1.0
 10
85.52111940526964
 20
117.3781794075625
 30
0.0
 10
86.25445273860298
 20
117.6470547448094
 30
0.0
 10
86.9877860719363
 20
117.913538155676
 30
0.0
 10
87.72111940526963
 20
118.1770532405061
 30
0.0
  0
LINE
  5
1A1
330
1F
100
AcDbEntity
  8
0
  6
Continuous
 62
     7
370
    15
100
AcDbLine
 10
85.5211194053
 20
116.943537586
 30
0.0
 11
85.5211194053
 21
117.3781794076
 31
0.0
  0
SPLINE
  5
1A2
330
1F
100
AcDbEntity
  8
0
  6
Continuous
 62
     7
370
    15
100
AcDbSpline
210
0.0
220
0.0
230
1.0
 70
     8
 71
     3
 72
    19
 73
    15
 74
     0
 42
0.00000001
 43
0.00000001
 40
0.0
 40
0.0
 40
0.0
 40
0.0
 40
0.0312660599584389
 40
0.0625662612152154
 40
0.1251512125298993
 40
0.2503450684925074
 40
0.3129565414686746
 40
0.3755663807115711
 40
0.5007445611762704
 40
0.6256595277565266
 40
0.7503151230596673
 40
0.8748522594986169
 40
0.9374212085833115
 40
1.0
 40
1.0
 40
1.0
 40
1.0
 10
86.20200882834656
 20
120.7781159025396
 30
0.0
 10
86.2116978880838
 20
120.7899130458218
 30
0.0
 10
86.2310865876275
 20
120.8135202143991
 30
0.0
 10
86.25917426228958
 20
120.8658604749406
 30
0.0
 10
86.29922646140253
 20
120.9599333121991
 30
0.0
 10
86.33427809955911
 20
121.0696171278387
 30
0.0
 10
86.3650640600724
 20
121.179159697586
 30
0.0
 10
86.40066500657065
 20
121.2871770519838
 30
0.0
 10
86.4520805595294
 20
121.4192030305319
 30
0.0
 10
86.53875766182232
 20
121.5695995958125
 30
0.0
 10
86.68359894124636
 20
121.6881875605205
 30
0.0
 10
86.83962344484503
 20
121.7464129316892
 30
0.0
 10
86.97297508293498
 20
121.7661509163349
 30
0.0
 10
87.04072657298563
 20
121.767674327816
 30
0.0
 10
87.07460498219271
 20
121.7684360934614
 30
0.0
  0
SPLINE
  5
1A3
330
1F
100
AcDbEntity
  8
0
  6
Continuous
 62
     7
370
    15
100
AcDbSpline
210
0.0
220
0.0
230
1.0
 70
     8
 71
     3
 72
    11
 73
     7
 74
     0
 42
0.00000001
 43
0.00000001
 40
0.0
 40
0.0
 40
0.0
 40
0.0
 40
0.2501307726842051
 40
0.49987509047049
 40
0.7497382441712518
 40
1.0
 40
1.0
 40
1.0
 40
1.0
 10
86.07111940526964
 20
120.7226630506441
 30
0.0
 10
86.08377355740508
 20
120.723256068742
 30
0.0
 10
86.10906231086653
 20
120.724441188718
 30
0.0
 10
86.14469491747161
 20
120.7364219142296
 30
0.0
 10
86.17648814729037
 20
120.7542853147583
 30
0.0
 10
86.19349741583629
 20
120.7701681537111
 30
0.0
 10
86.20200882834656
 20
120.7781159025396
 30
0.0
  0
SPLINE
  5
1A4
330
1F
100
AcDbEntity
  8
0
  6
Continuous
 62
     7
370
    15
100
AcDbSpline
210
0.0
220
0.0
230
1.0
 70
     8
 71
     3
 72
    11
 73
     7
 74
     0
 42
0.00000001
 43
0.00000001
 40
0.0
 40
0.0
 40
0.0
 40
0.0
 40
0.250265646774563
 40
0.4999795963950959
 40
0.7497273987887252
 40
0.9999999999999999
 40
0.9999999999999999
 40
0.9999999999999999
 40
0.9999999999999999
 10
85.93758575142348
 20
120.7814823382542
 30
0.0
 10
85.9457365895608
 20
120.7727689554485
 30
0.0
 10
85.96202029775125
 20
120.7553613980207
 30
0.0
 10
85.99462871466511
 20
120.7361520957224
 30
0.0
 10
86.03191534878333
 20
120.7247114952401
 30
0.0
 10
86.05804224590405
 20
120.7233463431101
 30
0.0
 10
86.07111940526964
 20
120.7226630506441
 30
0.0
  0
SPLINE
  5
1A5
330
1F
100
AcDbEntity
  8
0
  6
Continuous
 62
     7
370
    15
100
AcDbSpline
210
0.0
220
0.0
230
1.0
 70
     8
 71
     3
 72
    11
 73
     7
 74
     0
 42
0.00000001
 43
0.00000001
 40
0.0
 40
0.0
 40
0.0
 40
0.0
 40
0.2501828367353882
 40
0.5002760837709012
 40
0.7501777809375479
 40
1.0
 40
1.0
 40
1.0
 40
1.0
 10
85.85958094373117
 20
121.0317062489469
 30
0.0
 10
85.86018736789323
 20
121.0099197118488
 30
0.0
 10
85.8613999990587
 20
120.9663544393439
 30
0.0
 10
85.87378795412141
 20
120.9014537044299
 30
0.0
 10
85.8963791254066
 20
120.8378623905256
 30
0.0
 10
85.92385166586568
 20
120.8002736962589
 30
0.0
 10
85.93758575142348
 20
120.7814823382542
 30
0.0
  0
SPLINE
  5
1A6
330
1F
100
AcDbEntity
  8
0
  6
Continuous
 62
     7
370
    15
100
AcDbSpline
210
0.0
220
0.0
230
1.0
 70
     8
 71
     3
 72
    13
 73
     9
 74
     0
 42
0.00000001
 43
0.00000001
 40
0.0
 40
0.0
 40
0.0
 40
0.0
 40
0.1366319874437925
 40
0.2509739250140083
 40
0.4996384763310421
 40
0.7489129776644327
 40
0.8744225145354013
 40
1.0
 40
1.0
 40
1.0
 40
1.0
 10
86.16983735398759
 20
121.3587848542321
 30
0.0
 10
86.14484107795022
 20
121.3545238740429
 30
0.0
 10
86.0989264014151
 20
121.3466970470863
 30
0.0
 10
86.01114341811176
 20
121.3207049490595
 30
0.0
 10
85.91557281306297
 20
121.2609909743613
 30
0.0
 10
85.87427749870078
 20
121.1672252415292
 30
0.0
 10
85.86109584258394
 20
121.0904701302378
 30
0.0
 10
85.86008600110908
 20
121.0512977429577
 30
0.0
 10
85.85958094373117
 20
121.0317062489469
 30
0.0
  0
SPLINE
  5
1A7
330
1F
100
AcDbEntity
  8
0
  6
Continuous
 62
     7
370
    15
100
AcDbSpline
210
0.0
220
0.0
230
1.0
 70
     8
 71
     3
 72
     8
 73
     4
 74
     0
 42
0.00000001
 43
0.00000001
 40
0.0
 40
0.0
 40
0.0
 40
0.0
 40
1.0
 40
1.0
 40
1.0
 40
1.0
 10
86.14163222578246
 20
121.7009983335574
 30
0.0
 10
86.15103393518417
 20
121.5883187292022
 30
0.0
 10
86.16043564458587
 20
121.4742264703299
 30
0.0
 10
86.16983735398759
 20
121.3587848542321
 30
0.0
  0
SPLINE
  5
1A8
330
1F
100
AcDbEntity
  8
0
  6
Continuous
 62
     7
370
    15
100
AcDbSpline
210
0.0
220
0.0
230
1.0
 70
     8
 71
     3
 72
    15
 73
    11
 74
     0
 42
0.00000001
 43
0.00000001
 40
0.0
 40
0.0
 40
0.0
 40
0.0
 40
0.1253799882968911
 40
0.2507264910323367
 40
0.3759880443928595
 40
0.5011390514650577
 40
0.7495063948846414
 40
0.8746169763986932
 40
0.9372982004902047
 40
1.0
 40
1.0
 40
1.0
 40
1.0
 10
85.49291427706451
 20
121.0272841451483
 30
0.0
 10
85.49401400197536
 20
121.068389521855
 30
0.0
 10
85.49621315809065
 20
121.1505892971481
 30
0.0
 10
85.51785672875276
 20
121.2716786893962
 30
0.0
 10
85.56061027358832
 20
121.3881197410498
 30
0.0
 10
85.65201476017612
 20
121.5302729770545
 30
0.0
 10
85.80771695299119
 20
121.638467920595
 30
0.0
 10
85.97073677700618
 20
121.6838158970548
 30
0.0
 10
86.06786420059623
 20
121.6973319455526
 30
0.0
 10
86.11704019411849
 20
121.6997760705284
 30
0.0
 10
86.14163222578246
 20
121.7009983335574
 30
0.0
  0
SPLINE
  5
1A9
330
1F
100
AcDbEntity
  8
0
  6
Continuous
 62
     7
370
    15
100
AcDbSpline
210
0.0
220
0.0
230
1.0
 70
     8
 71
     3
 72
    15
 73
    11
 74
     0
 42
0.00000001
 43
0.00000001
 40
0.0
 40
0.0
 40
0.0
 40
0.0
 40
0.0626422972308066
 40
0.1252407363532334
 40
0.2502677968499326
 40
0.3761206652284383
 40
0.5002785281456839
 40
0.7494964058656195
 40
0.8747190185335254
 40
1.0
 40
1.0
 40
1.0
 40
1.0
 10
86.10064664885938
 20
120.3587699472005
 30
0.0
 10
86.0774179105896
 20
120.3594814731851
 30
0.0
 10
86.03097669731889
 20
120.3609040269897
 30
0.0
 10
85.93952207910182
 20
120.3759784542489
 30
0.0
 10
85.83039582736113
 20
120.4132044395563
 30
0.0
 10
85.71470317146812
 20
120.4819872993453
 30
0.0
 10
85.59308461017805
 20
120.6042773510724
 30
0.0
 10
85.52542012348417
 20
120.7556593770807
 30
0.0
 10
85.49639222418963
 20
120.9104607215428
 30
0.0
 10
85.49407377284378
 20
120.9883369554075
 30
0.0
 10
85.49291427706451
 20
121.0272841451483
 30
0.0
  0
SPLINE
  5
1AA
330
1F
100
AcDbEntity
  8
0
  6
Continuous
 62
     7
370
    15
100
AcDbSpline
210
0.0
220
0.0
230
1.0
 70
     8
 71
     3
 72
    13
 73
     9
 74
     0
 42
0.00000001
 43
0.00000001
 40
0.0
 40
0.0
 40
0.0
 40
0.0
 40
0.1251384431068303
 40
0.2502313421151424
 40
0.500032348623896
 40
0.7497949013814884
 40
0.8748736196460238
 40
1.0
 40
1.0
 40
1.0
 40
1.0
 10
86.53914825142348
 20
120.5344112509298
 30
0.0
 10
86.52493598544369
 20
120.5213268082987
 30
0.0
 10
86.496516626034
 20
120.4951626851154
 30
0.0
 10
86.43372323429345
 20
120.448009257257
 30
0.0
 10
86.34475783489977
 20
120.4000786951967
 30
0.0
 10
86.24525467633951
 20
120.3717911344714
 30
0.0
 10
86.16306575283289
 20
120.3601174734741
 30
0.0
 10
86.12145565898165
 20
120.3592191796643
 30
0.0
 10
86.10064664885938
 20
120.3587699472005
 30
0.0
  0
SPLINE
  5
1AB
330
1F
100
AcDbEntity
  8
0
  6
Continuous
 62
     7
370
    15
100
AcDbSpline
210
0.0
220
0.0
230
1.0
 70
     8
 71
     3
 72
    12
 73
     8
 74
     0
 42
0.00000001
 43
0.00000001
 40
0.0
 40
0.0
 40
0.0
 40
0.0
 40
0.2704245287350575
 40
0.5000724173931361
 40
0.7500034165327087
 40
0.8750087940868688
 40
1.0
 40
1.0
 40
1.0
 40
1.0
 10
86.75509376424401
 20
120.9619182733544
 30
0.0
 10
86.74248223884237
 20
120.9214261078833
 30
0.0
 10
86.71916084849325
 20
120.8465474895592
 30
0.0
 10
86.67426120477793
 20
120.7357512415824
 30
0.0
 10
86.62906602553416
 20
120.6488423474495
 30
0.0
 10
86.58240078991062
 20
120.5806930398503
 30
0.0
 10
86.55356521938195
 20
120.549837930872
 30
0.0
 10
86.53914825142348
 20
120.5344112509298
 30
0.0
  0
SPLINE
  5
1AC
330
1F
100
AcDbEntity
  8
0
  6
Continuous
 62
     7
370
    15
100
AcDbSpline
210
0.0
220
0.0
230
1.0
 70
     8
 71
     3
 72
    10
 73
     6
 74
     0
 42
0.00000001
 43
0.00000001
 40
0.0
 40
0.0
 40
0.0
 40
0.0
 40
0.2016674735225612
 40
0.4999819326509579
 40
1.0
 40
1.0
 40
1.0
 40
1.0
 10
86.85072677706451
 20
121.2588834182178
 30
0.0
 10
86.84339610869773
 20
121.2392946966421
 30
0.0
 10
86.82522162734176
 20
121.1907295676182
 30
0.0
 10
86.79414802013136
 20
121.0918202868574
 30
0.0
 10
86.77013425765418
 20
121.0119458653202
 30
0.0
 10
86.75509376424401
 20
120.9619182733544
 30
0.0
  0
SPLINE
  5
1AD
330
1F
100
AcDbEntity
  8
0
  6
Continuous
 62
     7
370
    15
100
AcDbSpline
210
0.0
220
0.0
230
1.0
 70
     8
 71
     3
 72
    12
 73
     8
 74
     0
 42
0.00000001
 43
0.00000001
 40
0.0
 40
0.0
 40
0.0
 40
0.0
 40
0.1253183352014579
 40
0.2505422813727828
 40
0.499222547888429
 40
0.749295667475838
 40
1.0
 40
1.0
 40
1.0
 40
1.0
 10
87.07901203347478
 20
121.4278874044272
 30
0.0
 10
87.06514621719101
 20
121.4274578616539
 30
0.0
 10
87.03742502827446
 20
121.4265990996362
 30
0.0
 10
86.98401223933186
 20
121.4138754420834
 30
0.0
 10
86.92588628208799
 20
121.3804864074661
 30
0.0
 10
86.88046167434078
 20
121.3226497415518
 30
0.0
 10
86.86064673484225
 20
121.2801567130013
 30
0.0
 10
86.85072677706451
 20
121.2588834182178
 30
0.0
  0
SPLINE
  5
1AE
330
1F
100
AcDbEntity
  8
0
  6
Continuous
 62
     7
370
    15
100
AcDbSpline
210
0.0
220
0.0
230
1.0
 70
     8
 71
     3
 72
    15
 73
    11
 74
     0
 42
0.00000001
 43
0.00000001
 40
0.0
 40
0.0
 40
0.0
 40
0.0
 40
0.1364861442161225
 40
0.250474833121527
 40
0.4998334306570751
 40
0.6248636377603292
 40
0.7499425615317552
 40
0.8747871911670472
 40
0.9373887632489869
 40
1.0
 40
1.0
 40
1.0
 40
1.0
 10
87.3826578668081
 20
121.064465757917
 30
0.0
 10
87.3819500202058
 20
121.0870708988811
 30
0.0
 10
87.38065100366018
 20
121.1285551018616
 30
0.0
 10
87.36775949496264
 20
121.2101332380334
 30
0.0
 10
87.33751004909321
 20
121.2882629843347
 30
0.0
 10
87.27743953367347
 20
121.3537371941627
 30
0.0
 10
87.2215505866069
 20
121.3947429633279
 30
0.0
 10
87.16496825846573
 20
121.4173870134671
 30
0.0
 10
87.11635148079918
 20
121.4266220728705
 30
0.0
 10
87.09145915636212
 20
121.4274656055387
 30
0.0
 10
87.07901203347478
 20
121.4278874044272
 30
0.0
  0
SPLINE
  5
1AF
330
1F
100
AcDbEntity
  8
0
  6
Continuous
 62
     7
370
    15
100
AcDbSpline
210
0.0
220
0.0
230
1.0
 70
     8
 71
     3
 72
    14
 73
    10
 74
     0
 42
0.00000001
 43
0.00000001
 40
0.0
 40
0.0
 40
0.0
 40
0.0
 40
0.1450611730866556
 40
0.2747504950843411
 40
0.3919861349604966
 40
0.5006938543768911
 40
0.7494919849279487
 40
0.8747177034603266
 40
1.0
 40
1.0
 40
1.0
 40
1.0
 10
86.95958094373118
 20
120.6504627237428
 30
0.0
 10
86.99342325056742
 20
120.6568290959652
 30
0.0
 10
87.05752166063955
 20
120.6688872082965
 30
0.0
 10
87.14491218333559
 20
120.6983271565313
 30
0.0
 10
87.2183010578616
 20
120.7353653547035
 30
0.0
 10
87.30263532873158
 20
120.8006845197012
 30
0.0
 10
87.3566942302504
 20
120.8909704645702
 30
0.0
 10
87.37947954186153
 20
120.9894897611864
 30
0.0
 10
87.38159826565247
 20
121.0394699962767
 30
0.0
 10
87.3826578668081
 20
121.064465757917
 30
0.0
  0
SPLINE
  5
1B0
330
1F
100
AcDbEntity
  8
0
  6
Continuous
 62
     7
370
    15
100
AcDbSpline
210
0.0
220
0.0
230
1.0
 70
     8
 71
     3
 72
     8
 73
     4
 74
     0
 42
0.00000001
 43
0.00000001
 40
0.0
 40
0.0
 40
0.0
 40
0.0
 40
1.0
 40
1.0
 40
1.0
 40
1.0
 10
86.9877860719363
 20
120.2851400713721
 30
0.0
 10
86.97838436253461
 20
120.4080875694047
 30
0.0
 10
86.9689826531329
 20
120.5298843107498
 30
0.0
 10
86.95958094373118
 20
120.6504627237428
 30
0.0
  0
SPLINE
  5
1B1
330
1F
100
AcDbEntity
  8
0
  6
Continuous
 62
     7
370
    15
100
AcDbSpline
210
0.0
220
0.0
230
1.0
 70
     8
 71
     3
 72
    15
 73
    11
 74
     0
 42
0.00000001
 43
0.00000001
 40
0.0
 40
0.0
 40
0.0
 40
0.0
 40
0.1251267396809196
 40
0.2502046931271323
 40
0.3789751622840071
 40
0.5000549195145002
 40
0.6221112966079693
 40
0.7498655896187624
 40
0.874895952125182
 40
1.0
 40
1.0
 40
1.0
 40
1.0
 10
87.74932453347476
 20
121.0549024542509
 30
0.0
 10
87.74777127280082
 20
121.0088323813058
 30
0.0
 10
87.7446653570608
 20
120.9167101978862
 30
0.0
 10
87.71597554842906
 20
120.77725741928
 30
0.0
 10
87.66056554352362
 20
120.6439520108019
 30
0.0
 10
87.57240664936656
 20
120.5241797080324
 30
0.0
 10
87.45326666730055
 20
120.4258281611273
 30
0.0
 10
87.30906659630557
 20
120.3543989858673
 30
0.0
 10
87.15129768716601
 20
120.3062070094781
 30
0.0
 10
87.04230064657467
 20
120.2921637630418
 30
0.0
 10
86.9877860719363
 20
120.2851400713721
 30
0.0
  0
SPLINE
  5
1B2
330
1F
100
AcDbEntity
  8
0
  6
Continuous
 62
     7
370
    15
100
AcDbSpline
210
0.0
220
0.0
230
1.0
 70
     8
 71
     3
 72
    15
 73
    11
 74
     0
 42
0.00000001
 43
0.00000001
 40
0.0
 40
0.0
 40
0.0
 40
0.0
 40
0.0716980767019382
 40
0.1254799945658818
 40
0.1882189601852319
 40
0.2509499235477839
 40
0.4994538850979694
 40
0.7490102825522275
 40
0.8744810521652475
 40
1.0
 40
1.0
 40
1.0
 40
1.0
 10
87.07460498219271
 20
121.7684360934614
 30
0.0
 10
87.10426761028393
 20
121.7674821210149
 30
0.0
 10
87.15618066824732
 20
121.7658125579958
 30
0.0
 10
87.23289288619263
 20
121.7542369700344
 30
0.0
 10
87.30350262973761
 20
121.7357937302645
 30
0.0
 10
87.44505629704042
 20
121.6860604194528
 30
0.0
 10
87.62808458027274
 20
121.5569182811534
 30
0.0
 10
87.7161624292753
 20
121.3535750948653
 30
0.0
 10
87.74619451803642
 20
121.1847133011599
 30
0.0
 10
87.74828106148925
 20
121.0981782734391
 30
0.0
 10
87.74932453347476
 20
121.0549024542509
 30
0.0
  0
SPLINE
  5
1B3
330
1F
100
AcDbEntity
  8
0
  6
Continuous
 62
     7
370
    15
100
AcDbSpline
210
0.0
220
0.0
230
1.0
 70
     8
 71
     3
 72
     8
 73
     4
 74
     0
 42
0.00000001
 43
0.00000001
 40
0.0
 40
0.0
 40
0.0
 40
0.0
 40
1.0
 40
1.0
 40
1.0
 40
1.0
 10
89.72111940526963
 20
111.1162421508846
 30
0.0
 10
89.28778607193631
 20
111.2755705115411
 30
0.0
 10
88.85445273860297
 20
111.4356345388786
 30
0.0
 10
88.42111940526965
 20
111.5963144374997
 30
0.0
  0
LINE
  5
1B4
330
1F
100
AcDbEntity
  8
0
  6
Continuous
 62
     7
370
    15
100
AcDbLine
 10
89.7211194053
 20
111.1162421509
 30
0.0
 11
89.7211194053
 21
111.376256441
 31
0.0
  0
SPLINE
  5
1B5
330
1F
100
AcDbEntity
  8
0
  6
Continuous
 62
     7
370
    15
100
AcDbSpline
210
0.0
220
0.0
230
1.0
 70
     8
 71
     3
 72
     8
 73
     4
 74
     0
 42
0.00000001
 43
0.00000001
 40
0.0
 40
0.0
 40
0.0
 40
0.0
 40
1.0
 40
1.0
 40
1.0
 40
1.0
 10
89.42111940526965
 20
111.483507140532
 30
0.0
 10
89.52111940526963
 20
111.4477244104715
 30
0.0
 10
89.62111940526964
 20
111.4119737332639
 30
0.0
 10
89.72111940526963
 20
111.3762564410303
 30
0.0
  0
LINE
  5
1B6
330
1F
100
AcDbEntity
  8
0
  6
Continuous
 62
     7
370
    15
100
AcDbLine
 10
89.4211194053
 20
111.4835071405
 30
0.0
 11
89.4211194053
 21
111.9739218641
 31
0.0
  0
SPLINE
  5
1B7
330
1F
100
AcDbEntity
  8
0
  6
Continuous
 62
     7
370
    15
100
AcDbSpline
210
0.0
220
0.0
230
1.0
 70
     8
 71
     3
 72
     8
 73
     4
 74
     0
 42
0.00000001
 43
0.00000001
 40
0.0
 40
0.0
 40
0.0
 40
0.0
 40
1.0
 40
1.0
 40
1.0
 40
1.0
 10
89.72111940526963
 20
112.082138774528
 30
0.0
 10
89.62111940526964
 20
112.0460414055756
 30
0.0
 10
89.52111940526963
 20
112.0099686540577
 30
0.0
 10
89.42111940526965
 20
111.9739218640964
 30
0.0
  0
LINE
  5
1B8
330
1F
100
AcDbEntity
  8
0
  6
Continuous
 62
     7
370
    15
100
AcDbLine
 10
89.7211194053
 20
112.0821387745
 30
0.0
 11
89.7211194053
 21
112.3444075258
 31
0.0
  0
SPLINE
  5
1B9
330
1F
100
AcDbEntity
  8
0
  6
Continuous
 62
     7
370
    15
100
AcDbSpline
210
0.0
220
0.0
230
1.0
 70
     8
 71
     3
 72
     8
 73
     4
 74
     0
 42
0.00000001
 43
0.00000001
 40
0.0
 40
0.0
 40
0.0
 40
0.0
 40
1.0
 40
1.0
 40
1.0
 40
1.0
 10
88.42111940526965
 20
111.8566278276074
 30
0.0
 10
88.85445273860297
 20
112.0187058579468
 30
0.0
 10
89.28778607193631
 20
112.1813400515235
 30
0.0
 10
89.72111940526963
 20
112.3444075257958
 30
0.0
  0
LINE
  5
1BA
330
1F
100
AcDbEntity
  8
0
  6
Continuous
 62
     7
370
    15
100
AcDbLine
 10
88.4211194053
 20
111.5963144375
 30
0.0
 11
88.4211194053
 21
111.8566278276
 31
0.0
  0
SPLINE
  5
1BB
330
1F
100
AcDbEntity
  8
0
  6
Continuous
 62
     7
370
    15
100
AcDbSpline
210
0.0
220
0.0
230
1.0
 70
     8
 71
     3
 72
    13
 73
     9
 74
     0
 42
0.00000001
 43
0.00000001
 40
0.0
 40
0.0
 40
0.0
 40
0.0
 40
0.1251048003816104
 40
0.2502040646737618
 40
0.5003063154511912
 40
0.749959786751281
 40
0.8500342353770811
 40
1.0
 40
1.0
 40
1.0
 40
1.0
 10
88.75445273860298
 20
113.4726556932898
 30
0.0
 10
88.74688922760018
 20
113.4925300231612
 30
0.0
 10
88.73176254029217
 20
113.5322778034329
 30
0.0
 10
88.6892727766168
 20
113.606085050964
 30
0.0
 10
88.62811960256958
 20
113.6930357190454
 30
0.0
 10
88.55522076147007
 20
113.7656543057458
 30
0.0
 10
88.48401442726235
 20
113.8124423285624
 30
0.0
 10
88.44469930303592
 20
113.8287928665873
 30
0.0
 10
88.42111940526965
 20
113.8385993729289
 30
0.0
  0
LINE
  5
1BC
330
1F
100
AcDbEntity
  8
0
  6
Continuous
 62
     7
370
    15
100
AcDbLine
 10
89.0044527386
 20
113.4726556933
 30
0.0
 11
88.7544527386
 21
113.4726556933
 31
0.0
  0
SPLINE
  5
1BD
330
1F
100
AcDbEntity
  8
0
  6
Continuous
 62
     7
370
    15
100
AcDbSpline
210
0.0
220
0.0
230
1.0
 70
     8
 71
     3
 72
    11
 73
     7
 74
     0
 42
0.00000001
 43
0.00000001
 40
0.0
 40
0.0
 40
0.0
 40
0.0
 40
0.2500296555077669
 40
0.500024107874953
 40
0.7000705415166899
 40
0.9999999999999999
 40
0.9999999999999999
 40
0.9999999999999999
 40
0.9999999999999999
 10
88.79559857193631
 20
113.7891298438286
 30
0.0
 10
88.81803814121174
 20
113.766442249463
 30
0.0
 10
88.86291412036414
 20
113.721070255051
 30
0.0
 10
88.91576129674087
 20
113.64885303677
 30
0.0
 10
88.96537317665347
 20
113.5669560929088
 30
0.0
 10
88.98979961514985
 20
113.5080142113581
 30
0.0
 10
89.00445273860296
 20
113.4726556932898
 30
0.0
  0
LINE
  5
1BE
330
1F
100
AcDbEntity
  8
0
  6
Continuous
 62
     7
370
    15
100
AcDbLine
 10
89.7211194053
 20
113.7891298438
 30
0.0
 11
88.7955985719
 21
113.7891298438
 31
0.0
  0
LINE
  5
1BF
330
1F
100
AcDbEntity
  8
0
  6
Continuous
 62
     7
370
    15
100
AcDbLine
 10
89.7211194053
 20
113.7891298438
 30
0.0
 11
89.7211194053
 21
114.0391083703
 31
0.0
  0
LINE
  5
1C0
330
1F
100
AcDbEntity
  8
0
  6
Continuous
 62
     7
370
    15
100
AcDbLine
 10
88.4211194053
 20
114.0391083703
 30
0.0
 11
89.7211194053
 21
114.0391083703
 31
0.0
  0
LINE
  5
1C1
330
1F
100
AcDbEntity
  8
0
  6
Continuous
 62
     7
370
    15
100
AcDbLine
 10
88.4211194053
 20
113.8385993729
 30
0.0
 11
88.4211194053
 21
114.0391083703
 31
0.0
  0
LINE
  5
1C2
330
1F
100
AcDbEntity
  8
0
  6
Continuous
 62
     7
370
    15
100
AcDbLine
 10
89.1544527386
 20
115.9158172774
 30
0.0
 11
89.3711194053
 21
115.9158172774
 31
0.0
  0
LINE
  5
1C3
330
1F
100
AcDbEntity
  8
0
  6
Continuous
 62
     7
370
    15
100
AcDbLine
 10
89.1544527386
 20
115.4364236598
 30
0.0
 11
89.1544527386
 21
115.9158172774
 31
0.0
  0
LINE
  5
1C4
330
1F
100
AcDbEntity
  8
0
  6
Continuous
 62
     7
370
    15
100
AcDbLine
 10
89.3711194053
 20
115.4364236598
 30
0.0
 11
89.1544527386
 21
115.4364236598
 31
0.0
  0
LINE
  5
1C5
330
1F
100
AcDbEntity
  8
0
  6
Continuous
 62
     7
370
    15
100
AcDbLine
 10
89.3711194053
 20
115.4364236598
 30
0.0
 11
89.3711194053
 21
115.9158172774
 31
0.0
  0
SPLINE
  5
1C6
330
1F
100
AcDbEntity
  8
0
  6
Continuous
 62
     7
370
    15
100
AcDbSpline
210
0.0
220
0.0
230
1.0
 70
     8
 71
     3
 72
    13
 73
     9
 74
     0
 42
0.00000001
 43
0.00000001
 40
0.0
 40
0.0
 40
0.0
 40
0.0
 40
0.1252786944463688
 40
0.2505548521719787
 40
0.499945260772622
 40
0.7494008127461472
 40
0.8746760354304982
 40
0.9999999999999999
 40
0.9999999999999999
 40
0.9999999999999999
 40
0.9999999999999999
 10
89.0276298219363
 20
116.6016018926338
 30
0.0
 10
89.03201273723984
 20
116.6181834966831
 30
0.0
 10
89.04077847909888
 20
116.6513463690271
 30
0.0
 10
89.07231031524807
 20
116.7125819934271
 30
0.0
 10
89.13183505877677
 20
116.7771223250011
 30
0.0
 10
89.21088254217152
 20
116.8165032967261
 30
0.0
 10
89.27911940164418
 20
116.8316927162524
 30
0.0
 10
89.31406158307155
 20
116.8327957849011
 30
0.0
 10
89.33153607193631
 20
116.8333474264996
 30
0.0
  0
SPLINE
  5
1C7
330
1F
100
AcDbEntity
  8
0
  6
Continuous
 62
     7
370
    15
100
AcDbSpline
210
0.0
220
0.0
230
1.0
 70
     8
 71
     3
 72
    12
 73
     8
 74
     0
 42
0.00000001
 43
0.00000001
 40
0.0
 40
0.0
 40
0.0
 40
0.0
 40
0.1252235450945768
 40
0.2503496617319474
 40
0.4998624999005728
 40
0.7497459461660205
 40
1.0
 40
1.0
 40
1.0
 40
1.0
 10
88.75445273860296
 20
116.7845292145633
 30
0.0
 10
88.76901653224174
 20
116.7839911674481
 30
0.0
 10
88.79813278835985
 20
116.7829154918378
 30
0.0
 10
88.85483753970486
 20
116.7693259256642
 30
0.0
 10
88.92036135137228
 20
116.7361522929759
 30
0.0
 10
88.9824870752442
 20
116.674790371835
 30
0.0
 10
89.01257480792171
 20
116.6260101012791
 30
0.0
 10
89.0276298219363
 20
116.6016018926338
 30
0.0
  0
SPLINE
  5
1C8
330
1F
100
AcDbEntity
  8
0
  6
Continuous
 62
     7
370
    15
100
AcDbSpline
210
0.0
220
0.0
230
1.0
 70
     8
 71
     3
 72
    11
 73
     7
 74
     0
 42
0.00000001
 43
0.00000001
 40
0.0
 40
0.0
 40
0.0
 40
0.0
 40
0.2500867632877866
 40
0.500115613168368
 40
0.7500539890285585
 40
1.0
 40
1.0
 40
1.0
 40
1.0
 10
88.53804648860297
 20
116.6974678143669
 30
0.0
 10
88.55323921614419
 20
116.7102289716988
 30
0.0
 10
88.58362115299717
 20
116.7357483312199
 30
0.0
 10
88.63685802283382
 20
116.7634591519161
 30
0.0
 10
88.69441961586573
 20
116.7815580131786
 30
0.0
 10
88.73444149392911
 20
116.783538804017
 30
0.0
 10
88.75445273860298
 20
116.7845292145633
 30
0.0
  0
SPLINE
  5
1C9
330
1F
100
AcDbEntity
  8
0
  6
Continuous
 62
     7
370
    15
100
AcDbSpline
210
0.0
220
0.0
230
1.0
 70
     8
 71
     3
 72
    11
 73
     7
 74
     0
 42
0.00000001
 43
0.00000001
 40
0.0
 40
0.0
 40
0.0
 40
0.0
 40
0.2501781495304363
 40
0.5001897382502414
 40
0.7500261905220517
 40
1.0
 40
1.0
 40
1.0
 40
1.0
 10
88.42111940526965
 20
116.4160772897441
 30
0.0
 10
88.42220828253386
 20
116.4422530485089
 30
0.0
 10
88.4243853121218
 20
116.4945871390346
 30
0.0
 10
88.44583362689389
 20
116.5705493262669
 30
0.0
 10
88.4826500304931
 20
116.6409028347916
 30
0.0
 10
88.519577619769
 20
116.6786093670217
 30
0.0
 10
88.53804648860297
 20
116.6974678143669
 30
0.0
  0
SPLINE
  5
1CA
330
1F
100
AcDbEntity
  8
0
  6
Continuous
 62
     7
370
    15
100
AcDbSpline
210
0.0
220
0.0
230
1.0
 70
     8
 71
     3
 72
    13
 73
     9
 74
     0
 42
0.00000001
 43
0.00000001
 40
0.0
 40
0.0
 40
0.0
 40
0.0
 40
0.1254835971718709
 40
0.2509065258001554
 40
0.4998203388848788
 40
0.7492249791963995
 40
0.874566921469107
 40
1.0
 40
1.0
 40
1.0
 40
1.0
 10
88.76695273860297
 20
116.0311574330588
 30
0.0
 10
88.74350157591778
 20
116.0362600392105
 30
0.0
 10
88.69661058866582
 20
116.0464627845166
 30
0.0
 10
88.60633761789119
 20
116.0777453072605
 30
0.0
 10
88.50410114371118
 20
116.1461286904303
 30
0.0
 10
88.44687015202938
 20
116.2535221831998
 30
0.0
 10
88.42373864947395
 20
116.3452245610842
 30
0.0
 10
88.42199269817469
 20
116.3924539921759
 30
0.0
 10
88.42111940526965
 20
116.4160772897441
 30
0.0
  0
SPLINE
  5
1CB
330
1F
100
AcDbEntity
  8
0
  6
Continuous
 62
     7
370
    15
100
AcDbSpline
210
0.0
220
0.0
230
1.0
 70
     8
 71
     3
 72
     8
 73
     4
 74
     0
 42
0.00000001
 43
0.00000001
 40
0.0
 40
0.0
 40
0.0
 40
0.0
 40
1.0
 40
1.0
 40
1.0
 40
1.0
 10
88.80445273860298
 20
116.2777434751138
 30
0.0
 10
88.79195273860297
 20
116.1956857878995
 30
0.0
 10
88.77945273860298
 20
116.1134851320535
 30
0.0
 10
88.76695273860297
 20
116.0311574330588
 30
0.0
  0
SPLINE
  5
1CC
330
1F
100
AcDbEntity
  8
0
  6
Continuous
 62
     7
370
    15
100
AcDbSpline
210
0.0
220
0.0
230
1.0
 70
     8
 71
     3
 72
    12
 73
     8
 74
     0
 42
0.00000001
 43
0.00000001
 40
0.0
 40
0.0
 40
0.0
 40
0.0
 40
0.1253458120934801
 40
0.2505518121425403
 40
0.4995142827212323
 40
0.749299694954481
 40
0.9999999999999999
 40
0.9999999999999999
 40
0.9999999999999999
 40
0.9999999999999999
 10
88.63778607193632
 20
116.4181245537232
 30
0.0
 10
88.63835770158485
 20
116.4081671927858
 30
0.0
 10
88.63950032328016
 20
116.3882635774566
 30
0.0
 10
88.65441032578985
 20
116.3508989391059
 30
0.0
 10
88.68879752343317
 20
116.3126833851994
 30
0.0
 10
88.74441356740057
 20
116.2863932559607
 30
0.0
 10
88.78441530701106
 20
116.2806302470084
 30
0.0
 10
88.80445273860298
 20
116.2777434751138
 30
0.0
  0
SPLINE
  5
1CD
330
1F
100
AcDbEntity
  8
0
  6
Continuous
 62
     7
370
    15
100
AcDbSpline
210
0.0
220
0.0
230
1.0
 70
     8
 71
     3
 72
    11
 73
     7
 74
     0
 42
0.00000001
 43
0.00000001
 40
0.0
 40
0.0
 40
0.0
 40
0.0
 40
0.250816790064245
 40
0.5006091805272317
 40
0.7500148108246643
 40
0.9999999999999999
 40
0.9999999999999999
 40
0.9999999999999999
 40
0.9999999999999999
 10
88.77632773860297
 20
116.5398208128689
 30
0.0
 10
88.7587677880295
 20
116.5388218699057
 30
0.0
 10
88.72371960618956
 20
116.5368280639167
 30
0.0
 10
88.67634760809167
 20
116.5121136131167
 30
0.0
 10
88.6424574813103
 20
116.4700119650332
 30
0.0
 10
88.63934441266593
 20
116.4354337338711
 30
0.0
 10
88.63778607193632
 20
116.4181245537232
 30
0.0
  0
SPLINE
  5
1CE
330
1F
100
AcDbEntity
  8
0
  6
Continuous
 62
     7
370
    15
100
AcDbSpline
210
0.0
220
0.0
230
1.0
 70
     8
 71
     3
 72
    13
 73
     9
 74
     0
 42
0.00000001
 43
0.00000001
 40
0.0
 40
0.0
 40
0.0
 40
0.0
 40
0.1543820620594451
 40
0.286476631474517
 40
0.5001092490347817
 40
0.7491337354202227
 40
0.8744686657750063
 40
1.0
 40
1.0
 40
1.0
 40
1.0
 10
88.93778607193632
 20
116.3664118920697
 30
0.0
 10
88.9375872522022
 20
116.3801846003283
 30
0.0
 10
88.93721831550752
 20
116.4057417085542
 30
0.0
 10
88.92782602118864
 20
116.4495547121242
 30
0.0
 10
88.90100041262299
 20
116.4972256865065
 30
0.0
 10
88.85461646213892
 20
116.5273357792228
 30
0.0
 10
88.8104523991356
 20
116.5383075669688
 30
0.0
 10
88.78770856085114
 20
116.5393161343655
 30
0.0
 10
88.77632773860297
 20
116.5398208128689
 30
0.0
  0
LINE
  5
1CF
330
1F
100
AcDbEntity
  8
0
  6
Continuous
 62
     7
370
    15
100
AcDbLine
 10
89.1396089886
 20
116.3433588244
 30
0.0
 11
88.9377860719
 21
116.3664118921
 31
0.0
  0
SPLINE
  5
1D0
330
1F
100
AcDbEntity
  8
0
  6
Continuous
 62
     7
370
    15
100
AcDbSpline
210
0.0
220
0.0
230
1.0
 70
     8
 71
     3
 72
    10
 73
     6
 74
     0
 42
0.00000001
 43
0.00000001
 40
0.0
 40
0.0
 40
0.0
 40
0.0
 40
0.2809687469697164
 40
0.5712777634252918
 40
1.0
 40
1.0
 40
1.0
 40
1.0
 10
89.12111940526964
 20
116.4408960805583
 30
0.0
 10
89.1216466507566
 20
116.4315888740434
 30
0.0
 10
89.12271866899997
 20
116.4126650607049
 30
0.0
 10
89.1285870790857
 20
116.3799075341069
 30
0.0
 10
89.13549195672952
 20
116.357010923685
 30
0.0
 10
89.13960898860297
 20
116.3433588244352
 30
0.0
  0
SPLINE
  5
1D1
330
1F
100
AcDbEntity
  8
0
  6
Continuous
 62
     7
370
    15
100
AcDbSpline
210
0.0
220
0.0
230
1.0
 70
     8
 71
     3
 72
    12
 73
     8
 74
     0
 42
0.00000001
 43
0.00000001
 40
0.0
 40
0.0
 40
0.0
 40
0.0
 40
0.2506046373365717
 40
0.5002260888971258
 40
0.7494910374697171
 40
0.8746067632402529
 40
1.0
 40
1.0
 40
1.0
 40
1.0
 10
89.31512982193631
 20
116.5888422778475
 30
0.0
 10
89.29218373566019
 20
116.5877240466976
 30
0.0
 10
89.24638158644464
 20
116.585491971503
 30
0.0
 10
89.18229918294567
 20
116.5578374127568
 30
0.0
 10
89.14126578643014
 20
116.51661564297
 30
0.0
 10
89.1235176231137
 20
116.4746346569439
 30
0.0
 10
89.12191940138163
 20
116.4521505752238
 30
0.0
 10
89.12111940526965
 20
116.4408960805583
 30
0.0
  0
SPLINE
  5
1D2
330
1F
100
AcDbEntity
  8
0
  6
Continuous
 62
     7
370
    15
100
AcDbSpline
210
0.0
220
0.0
230
1.0
 70
     8
 71
     3
 72
    12
 73
     8
 74
     0
 42
0.00000001
 43
0.00000001
 40
0.0
 40
0.0
 40
0.0
 40
0.0
 40
0.1431160632148704
 40
0.2861844707051486
 40
0.5002110304829428
 40
0.7496379710504947
 40
1.0
 40
1.0
 40
1.0
 40
1.0
 10
89.52111940526963
 20
116.4178686491889
 30
0.0
 10
89.52024031516507
 20
116.4320457071537
 30
0.0
 10
89.51848242768108
 20
116.4603951023137
 30
0.0
 10
89.49821721506606
 20
116.5064844150826
 30
0.0
 10
89.45707154051932
 20
116.5520732068222
 30
0.0
 10
89.39085330896336
 20
116.5846016652728
 30
0.0
 10
89.34040244823419
 20
116.5874269783007
 30
0.0
 10
89.31512982193631
 20
116.5888422778475
 30
0.0
  0
SPLINE
  5
1D3
330
1F
100
AcDbEntity
  8
0
  6
Continuous
 62
     7
370
    15
100
AcDbSpline
210
0.0
220
0.0
230
1.0
 70
     8
 71
     3
 72
    12
 73
     8
 74
     0
 42
0.00000001
 43
0.00000001
 40
0.0
 40
0.0
 40
0.0
 40
0.0
 40
0.2505854476632123
 40
0.5003859073953847
 40
0.7494555413156453
 40
0.8746435660586451
 40
1.0
 40
1.0
 40
1.0
 40
1.0
 10
89.32111940526964
 20
116.2449128131598
 30
0.0
 10
89.34535440319002
 20
116.2487151590883
 30
0.0
 10
89.39374848009349
 20
116.2563079396563
 30
0.0
 10
89.46082875589637
 20
116.2890433156706
 30
0.0
 10
89.50160499737787
 20
116.336187146119
 30
0.0
 10
89.51916964317344
 20
116.381659200372
 30
0.0
 10
89.52046919339676
 20
116.4057934254592
 30
0.0
 10
89.52111940526964
 20
116.4178686491889
 30
0.0
  0
SPLINE
  5
1D4
330
1F
100
AcDbEntity
  8
0
  6
Continuous
 62
     7
370
    15
100
AcDbSpline
210
0.0
220
0.0
230
1.0
 70
     8
 71
     3
 72
     8
 73
     4
 74
     0
 42
0.00000001
 43
0.00000001
 40
0.0
 40
0.0
 40
0.0
 40
0.0
 40
1.0
 40
1.0
 40
1.0
 40
1.0
 10
89.35184857193632
 20
115.9982196158698
 30
0.0
 10
89.34160551638075
 20
116.0805809082761
 30
0.0
 10
89.33136246082519
 20
116.1628172848407
 30
0.0
 10
89.32111940526964
 20
116.2449128131598
 30
0.0
  0
SPLINE
  5
1D5
330
1F
100
AcDbEntity
  8
0
  6
Continuous
 62
     7
370
    15
100
AcDbSpline
210
0.0
220
0.0
230
1.0
 70
     8
 71
     3
 72
    13
 73
     9
 74
     0
 42
0.00000001
 43
0.00000001
 40
0.0
 40
0.0
 40
0.0
 40
0.0
 40
0.1253539166015847
 40
0.2506688256080773
 40
0.4998631639091017
 40
0.749316472460059
 40
0.8496195016673139
 40
1.0
 40
1.0
 40
1.0
 40
1.0
 10
89.7377860719363
 20
116.4127503508147
 30
0.0
 10
89.7366863246652
 20
116.3869017731617
 30
0.0
 10
89.73448717234203
 20
116.3352126614084
 30
0.0
 10
89.70848678915682
 20
116.2345970568455
 30
0.0
 10
89.63838520054551
 20
116.1214816816727
 30
0.0
 10
89.53363582568542
 20
116.0474213680723
 30
0.0
 10
89.43517530345511
 20
116.0107968520245
 30
0.0
 10
89.38309225025667
 20
116.0029354989174
 30
0.0
 10
89.35184857193632
 20
115.9982196158698
 30
0.0
  0
SPLINE
  5
1D6
330
1F
100
AcDbEntity
  8
0
  6
Continuous
 62
     7
370
    15
100
AcDbSpline
210
0.0
220
0.0
230
1.0
 70
     8
 71
     3
 72
    14
 73
    10
 74
     0
 42
0.00000001
 43
0.00000001
 40
0.0
 40
0.0
 40
0.0
 40
0.0
 40
0.071684366373563
 40
0.1433512451269728
 40
0.2507569191840897
 40
0.5000409955416819
 40
0.7493510343916272
 40
0.8746488593604951
 40
1.0
 40
1.0
 40
1.0
 40
1.0
 10
89.33153607193631
 20
116.8333474264996
 30
0.0
 10
89.34724120840812
 20
116.8329730263694
 30
0.0
 10
89.37864765003575
 20
116.8322243174452
 30
0.0
 10
89.43279190782151
 20
116.8225304619467
 30
0.0
 10
89.52252788540619
 20
116.7944926574037
 30
0.0
 10
89.63188382059266
 20
116.7142259163942
 30
0.0
 10
89.70638083089003
 20
116.5983989046546
 30
0.0
 10
89.7341426325065
 20
116.4936713862861
 30
0.0
 10
89.73657141991684
 20
116.4397278540906
 30
0.0
 10
89.7377860719363
 20
116.4127503508147
 30
0.0
  0
LINE
  5
1D7
330
1F
100
AcDbEntity
  8
0
  6
Continuous
 62
     7
370
    15
100
AcDbLine
 10
90.3581194053
 20
101.3641083542
 30
0.0
 11
90.3581194053
 21
126.7641083542
 31
0.0
  0
LINE
  5
1D8
330
1F
100
AcDbEntity
  8
0
  6
Continuous
 62
     7
370
    15
100
AcDbLine
 10
86.4236835078
 20
112.7268482676
 30
0.0
 11
86.4236835078
 21
113.0660599912
 31
0.0
  0
SPLINE
  5
1D9
330
1F
100
AcDbEntity
  8
0
  6
Continuous
 62
     7
370
    15
100
AcDbSpline
210
0.0
220
0.0
230
1.0
 70
     8
 71
     3
 72
    15
 73
    11
 74
     0
 42
0.00000001
 43
0.00000001
 40
0.0
 40
0.0
 40
0.0
 40
0.0
 40
0.2171088211365625
 40
0.3840213461710668
 40
0.501045361059604
 40
0.6297428455843525
 40
0.7503447963581514
 40
0.8748336661416349
 40
0.9373765209562052
 40
1.0
 40
1.0
 40
1.0
 40
1.0
 10
86.42368350783374
 20
113.0660599911851
 30
0.0
 10
86.42337383850729
 20
113.1196154858859
 30
0.0
 10
86.42282609645338
 20
113.2143442631976
 30
0.0
 10
86.41735345790848
 20
113.337962529916
 30
0.0
 10
86.40976433950496
 20
113.4396228626653
 30
0.0
 10
86.38439075844276
 20
113.5282098251055
 30
0.0
 10
86.32579262376144
 20
113.6027420215446
 30
0.0
 10
86.25729106155089
 20
113.6408180643653
 30
0.0
 10
86.19646258538056
 20
113.6532377998941
 30
0.0
 10
86.16549792576365
 20
113.6545487697622
 30
0.0
 10
86.15000562321836
 20
113.6552046769181
 30
0.0
  0
SPLINE
  5
1DA
330
1F
100
AcDbEntity
  8
0
  6
Continuous
 62
     7
370
    15
100
AcDbSpline
210
0.0
220
0.0
230
1.0
 70
     8
 71
     3
 72
    13
 73
     9
 74
     0
 42
0.00000001
 43
0.00000001
 40
0.0
 40
0.0
 40
0.0
 40
0.0
 40
0.1254399255482902
 40
0.2507139272240476
 40
0.4997479140554384
 40
0.7491884405658581
 40
0.8745420072140587
 40
1.0
 40
1.0
 40
1.0
 40
1.0
 10
86.15000562321836
 20
113.6552046769181
 30
0.0
 10
86.13404310086368
 20
113.6545062620663
 30
0.0
 10
86.10213917035307
 20
113.6531103561809
 30
0.0
 10
86.03978570998045
 20
113.6387581072968
 30
0.0
 10
85.97004802438842
 20
113.5953973557222
 30
0.0
 10
85.92491296677163
 20
113.5277133788584
 30
0.0
 10
85.90391659697615
 20
113.4674983568022
 30
0.0
 10
85.89786460823827
 20
113.4361797675359
 30
0.0
 10
85.8948373539876
 20
113.4205139531089
 30
0.0
  0
SPLINE
  5
1DB
330
1F
100
AcDbEntity
  8
0
  6
Continuous
 62
     7
370
    15
100
AcDbSpline
210
0.0
220
0.0
230
1.0
 70
     8
 71
     3
 72
    10
 73
     6
 74
     0
 42
0.00000001
 43
0.00000001
 40
0.0
 40
0.0
 40
0.0
 40
0.0
 40
0.2035765328858644
 40
0.5368312401054819
 40
1.0
 40
1.0
 40
1.0
 40
1.0
 10
85.8948373539876
 20
113.4205139531089
 30
0.0
 10
85.8932727775885
 20
113.3977669443147
 30
0.0
 10
85.88914699021674
 20
113.3377830907411
 30
0.0
 10
85.88802339256696
 20
113.225804311764
 30
0.0
 10
85.88787333787829
 20
113.1367457732293
 30
0.0
 10
85.88778607193632
 20
113.0849528081115
 30
0.0
  0
LINE
  5
1DC
330
1F
100
AcDbEntity
  8
0
  6
Continuous
 62
     7
370
    15
100
AcDbLine
 10
85.8877860719
 20
112.7268482676
 30
0.0
 11
85.8877860719
 21
113.0849528081
 31
0.0
  0
LINE
  5
1DD
330
1F
100
AcDbEntity
  8
0
  6
Continuous
 62
     7
370
    15
100
AcDbLine
 10
85.8877860719
 20
112.7268482676
 30
0.0
 11
86.4236835078
 21
112.7268482676
 31
0.0
  0
SPLINE
  5
1DE
330
1F
100
AcDbEntity
  8
0
  6
Continuous
 62
     7
370
    15
100
AcDbSpline
210
0.0
220
0.0
230
1.0
 70
     8
 71
     3
 72
    12
 73
     8
 74
     0
 42
0.00000001
 43
0.00000001
 40
0.0
 40
0.0
 40
0.0
 40
0.0
 40
0.1431601667039121
 40
0.2861979188678984
 40
0.5001241198035973
 40
0.7495168990310148
 40
1.0
 40
1.0
 40
1.0
 40
1.0
 10
88.63778607193632
 20
114.8303094541431
 30
0.0
 10
88.63832435717146
 20
114.8202365702627
 30
0.0
 10
88.63940046736046
 20
114.8000994157039
 30
0.0
 10
88.65008518831162
 20
114.7663500281907
 30
0.0
 10
88.67264518474461
 20
114.7291370481683
 30
0.0
 10
88.71532876238537
 20
114.7001757569112
 30
0.0
 10
88.74867883230702
 20
114.6889959932282
 30
0.0
 10
88.76539023860298
 20
114.6833939188207
 30
0.0
  0
SPLINE
  5
1DF
330
1F
100
AcDbEntity
  8
0
  6
Continuous
 62
     7
370
    15
100
AcDbSpline
210
0.0
220
0.0
230
1.0
 70
     8
 71
     3
 72
    11
 73
     7
 74
     0
 42
0.00000001
 43
0.00000001
 40
0.0
 40
0.0
 40
0.0
 40
0.0
 40
0.1401944926955453
 40
0.285642728066291
 40
0.4999576545530531
 40
1.0
 40
1.0
 40
1.0
 40
1.0
 10
88.76539023860298
 20
114.6833939188207
 30
0.0
 10
88.77976235565814
 20
114.6798482851074
 30
0.0
 10
88.80904518014567
 20
114.6726241462192
 30
0.0
 10
88.8613184173781
 20
114.6650068463933
 30
0.0
 10
88.95173828237202
 20
114.6568900424649
 30
0.0
 10
89.02717128672059
 20
114.6561082566649
 30
0.0
 10
89.0799735719363
 20
114.6555610150808
 30
0.0
  0
SPLINE
  5
1E0
330
1F
100
AcDbEntity
  8
0
  6
Continuous
 62
     7
370
    15
100
AcDbSpline
210
0.0
220
0.0
230
1.0
 70
     8
 71
     3
 72
    15
 73
    11
 74
     0
 42
0.00000001
 43
0.00000001
 40
0.0
 40
0.0
 40
0.0
 40
0.0
 40
0.2859937473301435
 40
0.5003983158313765
 40
0.634563731490593
 40
0.750322215536048
 40
0.8007333974119448
 40
0.8501953003232975
 40
0.925056667398806
 40
1.0
 40
1.0
 40
1.0
 40
1.0
 10
89.0799735719363
 20
114.6555610150808
 30
0.0
 10
89.13014176679808
 20
114.6562332258433
 30
0.0
 10
89.217920190108
 20
114.657409381394
 30
0.0
 10
89.32932790335963
 20
114.6661552448463
 30
0.0
 10
89.4085983711809
 20
114.6863530665753
 30
0.0
 10
89.45679487588042
 20
114.7090495993452
 30
0.0
 10
89.48641382533654
 20
114.7330876398126
 30
0.0
 10
89.50454570986044
 20
114.7580556137897
 30
0.0
 10
89.51850686301783
 20
114.7907947328494
 30
0.0
 10
89.52024824025463
 20
114.8171330767104
 30
0.0
 10
89.52111940526964
 20
114.8303094541431
 30
0.0
  0
SPLINE
  5
1E1
330
1F
100
AcDbEntity
  8
0
  6
Continuous
 62
     7
370
    15
100
AcDbSpline
210
0.0
220
0.0
230
1.0
 70
     8
 71
     3
 72
    12
 73
     8
 74
     0
 42
0.00000001
 43
0.00000001
 40
0.0
 40
0.0
 40
0.0
 40
0.0
 40
0.1431532147927377
 40
0.2862256947583224
 40
0.5001259415342045
 40
0.7495103091562787
 40
0.9999999999999999
 40
0.9999999999999999
 40
0.9999999999999999
 40
0.9999999999999999
 10
89.52111940526963
 20
114.8303094541431
 30
0.0
 10
89.52058355424258
 20
114.8403802322417
 30
0.0
 10
89.519512154395
 20
114.8605161087723
 30
0.0
 10
89.50893909510509
 20
114.8942972391761
 30
0.0
 10
89.4862085917443
 20
114.9313866595403
 30
0.0
 10
89.44359602344142
 20
114.9603709002425
 30
0.0
 10
89.41023342404694
 20
114.971530174133
 30
0.0
 10
89.39351523860297
 20
114.9771221487904
 30
0.0
  0
SPLINE
  5
1E2
330
1F
100
AcDbEntity
  8
0
  6
Continuous
 62
     7
370
    15
100
AcDbSpline
210
0.0
220
0.0
230
1.0
 70
     8
 71
     3
 72
    11
 73
     7
 74
     0
 42
0.00000001
 43
0.00000001
 40
0.0
 40
0.0
 40
0.0
 40
0.0
 40
0.1412231173503332
 40
0.2856446057731216
 40
0.4999594729277635
 40
1.0
 40
1.0
 40
1.0
 40
1.0
 10
89.39351523860297
 20
114.9771221487904
 30
0.0
 10
89.37908698458519
 20
114.9806853329055
 30
0.0
 10
89.34990371057008
 20
114.9878923988658
 30
0.0
 10
89.29780978998622
 20
114.9955320905044
 30
0.0
 10
89.20778861122413
 20
115.003577528527
 30
0.0
 10
89.13260278329341
 20
115.0043627598933
 30
0.0
 10
89.0799735719363
 20
115.0049124127824
 30
0.0
  0
SPLINE
  5
1E3
330
1F
100
AcDbEntity
  8
0
  6
Continuous
 62
     7
370
    15
100
AcDbSpline
210
0.0
220
0.0
230
1.0
 70
     8
 71
     3
 72
    14
 73
    10
 74
     0
 42
0.00000001
 43
0.00000001
 40
0.0
 40
0.0
 40
0.0
 40
0.0
 40
0.2872306515678187
 40
0.5007535928834463
 40
0.6258153866538491
 40
0.7507151636102979
 40
0.8501042109611932
 40
0.9250200476230165
 40
1.0
 40
1.0
 40
1.0
 40
1.0
 10
89.0799735719363
 20
115.0049124127824
 30
0.0
 10
89.02957968486602
 20
115.0042295174561
 30
0.0
 10
88.94172374096846
 20
115.0030389680271
 30
0.0
 10
88.83159525457307
 20
114.9947478973717
 30
0.0
 10
88.7528083803094
 20
114.9740230863579
 30
0.0
 10
88.69559667038851
 20
114.9495107786166
 30
0.0
 10
88.65786572043244
 20
114.9109354941216
 30
0.0
 10
88.64058739921899
 20
114.8698172214942
 30
0.0
 10
88.63872011393178
 20
114.8434824646948
 30
0.0
 10
88.63778607193632
 20
114.8303094541431
 30
0.0
  0
SPLINE
  5
1E4
330
1F
100
AcDbEntity
  8
0
  6
Continuous
 62
     7
370
    15
100
AcDbSpline
210
0.0
220
0.0
230
1.0
 70
     8
 71
     3
 72
     8
 73
     4
 74
     0
 42
0.00000001
 43
0.00000001
 40
0.0
 40
0.0
 40
0.0
 40
0.0
 40
1.0
 40
1.0
 40
1.0
 40
1.0
 10
89.20445273860297
 20
111.8956192787996
 30
0.0
 10
89.04889718304743
 20
111.8395110706225
 30
0.0
 10
88.89334162749186
 20
111.7834682583465
 30
0.0
 10
88.7377860719363
 20
111.7274959120645
 30
0.0
  0
SPLINE
  5
1E5
330
1F
100
AcDbEntity
  8
0
  6
Continuous
 62
     7
370
    15
100
AcDbSpline
210
0.0
220
0.0
230
1.0
 70
     8
 71
     3
 72
     8
 73
     4
 74
     0
 42
0.00000001
 43
0.00000001
 40
0.0
 40
0.0
 40
0.0
 40
0.0
 40
1.0
 40
1.0
 40
1.0
 40
1.0
 10
88.7377860719363
 20
111.7274959120645
 30
0.0
 10
88.89334162749186
 20
111.6716942131797
 30
0.0
 10
89.04889718304742
 20
111.6159625513272
 30
0.0
 10
89.20445273860297
 20
111.560305937755
 30
0.0
  0
LINE
  5
1E6
330
1F
100
AcDbEntity
  8
0
  6
Continuous
 62
     7
370
    15
100
AcDbLine
 10
89.2044527386
 20
111.5603059378
 30
0.0
 11
89.2044527386
 21
111.8956192788
 31
0.0
  0
SPLINE
  5
1E7
330
1F
100
AcDbEntity
  8
0
  6
Continuous
 62
     7
370
    15
100
AcDbSpline
210
0.0
220
0.0
230
1.0
 70
     8
 71
     3
 72
     8
 73
     4
 74
     0
 42
0.00000001
 43
0.00000001
 40
0.0
 40
0.0
 40
0.0
 40
0.0
 40
1.0
 40
1.0
 40
1.0
 40
1.0
 10
86.84676043091066
 20
117.4427992274459
 30
0.0
 10
86.58351256766281
 20
117.3499045638989
 30
0.0
 10
86.32026470441494
 20
117.2567180825463
 30
0.0
 10
86.05701684116708
 20
117.163263926075
 30
0.0
  0
SPLINE
  5
1E8
330
1F
100
AcDbEntity
  8
0
  6
Continuous
 62
     7
370
    15
100
AcDbSpline
210
0.0
220
0.0
230
1.0
 70
     8
 71
     3
 72
     8
 73
     4
 74
     0
 42
0.00000001
 43
0.00000001
 40
0.0
 40
0.0
 40
0.0
 40
0.0
 40
1.0
 40
1.0
 40
1.0
 40
1.0
 10
86.05701684116708
 20
117.163263926075
 30
0.0
 10
86.32026470441495
 20
117.0700946908124
 30
0.0
 10
86.58351256766281
 20
116.9766594110062
 30
0.0
 10
86.84676043091066
 20
116.8829821464336
 30
0.0
  0
LINE
  5
1E9
330
1F
100
AcDbEntity
  8
0
  6
Continuous
 62
     7
370
    15
100
AcDbLine
 10
86.8467604309
 20
116.8829821464
 30
0.0
 11
86.8467604309
 21
117.4427992274
 31
0.0
  0
SPLINE
  5
1EA
330
1F
100
AcDbEntity
  8
0
  6
Continuous
 62
     7
370
    15
100
AcDbSpline
210
0.0
220
0.0
230
1.0
 70
     8
 71
     3
 72
    15
 73
    11
 74
     0
 42
0.00000001
 43
0.00000001
 40
0.0
 40
0.0
 40
0.0
 40
0.0
 40
0.1252939629232337
 40
0.2505502653013096
 40
0.4995396696992569
 40
0.6246225560403436
 40
0.7496337341413112
 40
0.8747057615244854
 40
0.9373377895301459
 40
1.0
 40
1.0
 40
1.0
 40
1.0
 10
86.61979728988503
 20
110.3266821751396
 30
0.0
 10
86.66616722324645
 20
110.3277674688253
 30
0.0
 10
86.75889315221102
 20
110.3299377299818
 30
0.0
 10
86.94130676051299
 20
110.3581739243261
 30
0.0
 10
87.1180695892776
 20
110.4268503206073
 30
0.0
 10
87.25240172995078
 20
110.5507561406492
 30
0.0
 10
87.32933645390547
 20
110.6632365655982
 30
0.0
 10
87.36691965009665
 20
110.7700561423001
 30
0.0
 10
87.38068333394098
 20
110.8587503213667
 30
0.0
 10
87.3819995834941
 20
110.903630872612
 30
0.0
 10
87.3826578668081
 20
110.9260765539327
 30
0.0
  0
SPLINE
  5
1EB
330
1F
100
AcDbEntity
  8
0
  6
Continuous
 62
     7
370
    15
100
AcDbSpline
210
0.0
220
0.0
230
1.0
 70
     8
 71
     3
 72
    15
 73
    11
 74
     0
 42
0.00000001
 43
0.00000001
 40
0.0
 40
0.0
 40
0.0
 40
0.0
 40
0.0626641331933108
 40
0.125303293684883
 40
0.2503298039519965
 40
0.3753419120569506
 40
0.5003870109229441
 40
0.7494203230832702
 40
0.8746965509323908
 40
1.0
 40
1.0
 40
1.0
 40
1.0
 10
87.3826578668081
 20
110.9260765539327
 30
0.0
 10
87.38199200737618
 20
110.9486192908376
 30
0.0
 10
87.38066055386845
 20
110.993695780991
 30
0.0
 10
87.36684307385542
 20
111.0830603267522
 30
0.0
 10
87.32931167145694
 20
111.1912304215533
 30
0.0
 10
87.25129154859931
 20
111.3051997708786
 30
0.0
 10
87.11485297699848
 20
111.4301394505361
 30
0.0
 10
86.93654746343896
 20
111.4984900748245
 30
0.0
 10
86.75319037846366
 20
111.5252951519211
 30
0.0
 10
86.66015177390179
 20
111.5275619237509
 30
0.0
 10
86.61362741809016
 20
111.5286954327889
 30
0.0
  0
SPLINE
  5
1EC
330
1F
100
AcDbEntity
  8
0
  6
Continuous
 62
     7
370
    15
100
AcDbSpline
210
0.0
220
0.0
230
1.0
 70
     8
 71
     3
 72
    15
 73
    11
 74
     0
 42
0.00000001
 43
0.00000001
 40
0.0
 40
0.0
 40
0.0
 40
0.0
 40
0.1430353090161973
 40
0.2859960376607301
 40
0.4338763757356724
 40
0.5713445373176093
 40
0.6795447677732024
 40
0.7856044939506879
 40
0.8927753915605214
 40
1.0
 40
1.0
 40
1.0
 40
1.0
 10
86.61362741809016
 20
111.5286954327889
 30
0.0
 10
86.56090155028105
 20
111.5273413774371
 30
0.0
 10
86.45547730657961
 20
111.5246339727546
 30
0.0
 10
86.2974739834419
 20
111.4967593727462
 30
0.0
 10
86.14861040035608
 20
111.4412776089836
 30
0.0
 10
86.0305993278036
 20
111.3557699936551
 30
0.0
 10
85.94762419895935
 20
111.2572857892715
 30
0.0
 10
85.8946079933259
 20
111.1531478626997
 30
0.0
 10
85.86469257878306
 20
111.041082978938
 30
0.0
 10
85.86128510663093
 20
110.964418430991
 30
0.0
 10
85.85958094373117
 20
110.9260765539327
 30
0.0
  0
SPLINE
  5
1ED
330
1F
100
AcDbEntity
  8
0
  6
Continuous
 62
     7
370
    15
100
AcDbSpline
210
0.0
220
0.0
230
1.0
 70
     8
 71
     3
 72
    16
 73
    12
 74
     0
 42
0.00000001
 43
0.00000001
 40
0.0
 40
0.0
 40
0.0
 40
0.0
 40
0.0625877118754819
 40
0.1251574805008952
 40
0.2500250596120949
 40
0.3748915553932085
 40
0.4997713019041148
 40
0.6191490026963644
 40
0.749729204542914
 40
0.8748410937709277
 40
1.0
 40
1.0
 40
1.0
 40
1.0
 10
85.85958094373117
 20
110.9260765539327
 30
0.0
 10
85.86020224227924
 20
110.9035805090587
 30
0.0
 10
85.86144466125552
 20
110.8585948686942
 30
0.0
 10
85.87454077202152
 20
110.7696714511136
 30
0.0
 10
85.90922488038419
 20
110.6617863649914
 30
0.0
 10
85.98458194852911
 20
110.5477338281785
 30
0.0
 10
86.08448994119527
 20
110.4559291511716
 30
0.0
 10
86.20671167365435
 20
110.3898557373709
 30
0.0
 10
86.3404993564983
 20
110.3508391761851
 30
0.0
 10
86.48043326930956
 20
110.3294407103936
 30
0.0
 10
86.57333679860112
 20
110.3276018020462
 30
0.0
 10
86.61979728988503
 20
110.3266821751396
 30
0.0
  0
LINE
  5
1EE
330
1F
100
AcDbEntity
  8
0
  6
Continuous
 62
     7
370
    15
100
AcDbLine
 10
89.5044527386
 20
117.2868131183
 30
0.0
 11
89.5044527386
 21
117.5330007411
 31
0.0
  0
SPLINE
  5
1EF
330
1F
100
AcDbEntity
  8
0
  6
Continuous
 62
     7
370
    15
100
AcDbSpline
210
0.0
220
0.0
230
1.0
 70
     8
 71
     3
 72
     9
 73
     5
 74
     0
 42
0.00000001
 43
0.00000001
 40
0.0
 40
0.0
 40
0.0
 40
0.0
 40
0.606033089619146
 40
0.9999999999999999
 40
0.9999999999999999
 40
0.9999999999999999
 40
0.9999999999999999
 10
89.50445273860296
 20
117.533000741083
 30
0.0
 10
89.50471452833348
 20
117.5698594967046
 30
0.0
 10
89.50514650100128
 20
117.6306792048243
 30
0.0
 10
89.49885748581757
 20
117.6909769584611
 30
0.0
 10
89.49637982193632
 20
117.7147322781643
 30
0.0
  0
SPLINE
  5
1F0
330
1F
100
AcDbEntity
  8
0
  6
Continuous
 62
     7
370
    15
100
AcDbSpline
210
0.0
220
0.0
230
1.0
 70
     8
 71
     3
 72
    11
 73
     7
 74
     0
 42
0.00000001
 43
0.00000001
 40
0.0
 40
0.0
 40
0.0
 40
0.0
 40
0.2502996773435622
 40
0.5001254656094514
 40
0.7496606590128138
 40
1.0
 40
1.0
 40
1.0
 40
1.0
 10
89.49637982193632
 20
117.7147322781643
 30
0.0
 10
89.4914653823013
 20
117.7330063005137
 30
0.0
 10
89.48164580747499
 20
117.7695197472472
 30
0.0
 10
89.4447197965901
 20
117.8150073398833
 30
0.0
 10
89.39221795882904
 20
117.8439390628974
 30
0.0
 10
89.35282615741563
 20
117.8462821662673
 30
0.0
 10
89.3330985719363
 20
117.8474556026261
 30
0.0
  0
SPLINE
  5
1F1
330
1F
100
AcDbEntity
  8
0
  6
Continuous
 62
     7
370
    15
100
AcDbSpline
210
0.0
220
0.0
230
1.0
 70
     8
 71
     3
 72
    13
 73
     9
 74
     0
 42
0.00000001
 43
0.00000001
 40
0.0
 40
0.0
 40
0.0
 40
0.0
 40
0.1248105655309259
 40
0.2494031980228201
 40
0.3688255910615604
 40
0.499094471773786
 40
0.6894780711771262
 40
1.0
 40
1.0
 40
1.0
 40
1.0
 10
89.3330985719363
 20
117.8474556026261
 30
0.0
 10
89.31392146772512
 20
117.8461572507857
 30
0.0
 10
89.27560074464581
 20
117.8435628141708
 30
0.0
 10
89.22467797977768
 20
117.8168505435155
 30
0.0
 10
89.18664345462123
 20
117.7747044318764
 30
0.0
 10
89.16348595366661
 20
117.7131545219449
 30
0.0
 10
89.15633608797454
 20
117.6206653168302
 30
0.0
 10
89.15517347004288
 20
117.5472110048234
 30
0.0
 10
89.15445273860298
 20
117.5016751235854
 30
0.0
  0
LINE
  5
1F2
330
1F
100
AcDbEntity
  8
0
  6
Continuous
 62
     7
370
    15
100
AcDbLine
 10
89.1544527386
 20
117.2868131183
 30
0.0
 11
89.1544527386
 21
117.5016751236
 31
0.0
  0
LINE
  5
1F3
330
1F
100
AcDbEntity
  8
0
  6
Continuous
 62
     7
370
    15
100
AcDbLine
 10
89.1544527386
 20
117.2868131183
 30
0.0
 11
89.5044527386
 21
117.2868131183
 31
0.0
  0
LINE
  5
1F4
330
1F
100
AcDbEntity
  8
0
  6
Continuous
 62
     7
370
    15
100
AcDbLine
 10
88.9377860719
 20
117.2868131183
 30
0.0
 11
88.9377860719
 21
117.4615454066
 31
0.0
  0
SPLINE
  5
1F5
330
1F
100
AcDbEntity
  8
0
  6
Continuous
 62
     7
370
    15
100
AcDbSpline
210
0.0
220
0.0
230
1.0
 70
     8
 71
     3
 72
     9
 73
     5
 74
     0
 42
0.00000001
 43
0.00000001
 40
0.0
 40
0.0
 40
0.0
 40
0.0
 40
0.6280716629751536
 40
1.0
 40
1.0
 40
1.0
 40
1.0
 10
88.93778607193632
 20
117.4615454066477
 30
0.0
 10
88.93799084280147
 20
117.5019453466511
 30
0.0
 10
88.9383168738537
 20
117.5662691211262
 30
0.0
 10
88.93470306610813
 20
117.630272170203
 30
0.0
 10
88.93335898860296
 20
117.6540767178106
 30
0.0
  0
SPLINE
  5
1F6
330
1F
100
AcDbEntity
  8
0
  6
Continuous
 62
     7
370
    15
100
AcDbSpline
210
0.0
220
0.0
230
1.0
 70
     8
 71
     3
 72
    12
 73
     8
 74
     0
 42
0.00000001
 43
0.00000001
 40
0.0
 40
0.0
 40
0.0
 40
0.0
 40
0.2505487588496629
 40
0.5003186652190922
 40
0.7492607273515748
 40
0.8745307183549351
 40
0.9999999999999999
 40
0.9999999999999999
 40
0.9999999999999999
 40
0.9999999999999999
 10
88.93335898860296
 20
117.6540767178106
 30
0.0
 10
88.93011997913297
 20
117.6726718360957
 30
0.0
 10
88.92365202893396
 20
117.7098042681329
 30
0.0
 10
88.89373950092286
 20
117.7596793437217
 30
0.0
 10
88.85306326673567
 20
117.7882802430368
 30
0.0
 10
88.81510130223013
 20
117.798354917556
 30
0.0
 10
88.79550745095626
 20
117.7992491169658
 30
0.0
 10
88.78570273860298
 20
117.799696572031
 30
0.0
  0
SPLINE
  5
1F7
330
1F
100
AcDbEntity
  8
0
  6
Continuous
 62
     7
370
    15
100
AcDbSpline
210
0.0
220
0.0
230
1.0
 70
     8
 71
     3
 72
    12
 73
     8
 74
     0
 42
0.00000001
 43
0.00000001
 40
0.0
 40
0.0
 40
0.0
 40
0.0
 40
0.1255258836190596
 40
0.2509126665009934
 40
0.4999410627274688
 40
0.749343541793656
 40
1.0
 40
1.0
 40
1.0
 40
1.0
 10
88.78570273860298
 20
117.799696572031
 30
0.0
 10
88.77642421934141
 20
117.7994177092324
 30
0.0
 10
88.75787746275243
 20
117.7988602926555
 30
0.0
 10
88.7219502507704
 20
117.7899160217193
 30
0.0
 10
88.68147860240202
 20
117.7660517849024
 30
0.0
 10
88.65140722413256
 20
117.7194476381043
 30
0.0
 10
88.64528296408344
 20
117.6843880770995
 30
0.0
 10
88.64221315526964
 20
117.6668143378205
 30
0.0
  0
SPLINE
  5
1F8
330
1F
100
AcDbEntity
  8
0
  6
Continuous
 62
     7
370
    15
100
AcDbSpline
210
0.0
220
0.0
230
1.0
 70
     8
 71
     3
 72
     9
 73
     5
 74
     0
 42
0.00000001
 43
0.00000001
 40
0.0
 40
0.0
 40
0.0
 40
0.0
 40
0.3624777988824009
 40
0.9999999999999999
 40
0.9999999999999999
 40
0.9999999999999999
 40
0.9999999999999999
 10
88.64221315526964
 20
117.6668143378205
 30
0.0
 10
88.64087112961172
 20
117.6394825937915
 30
0.0
 10
88.63716876311626
 20
117.5640800612411
 30
0.0
 10
88.63754574049075
 20
117.488282911377
 30
0.0
 10
88.63778607193632
 20
117.4399605455572
 30
0.0
  0
LINE
  5
1F9
330
1F
100
AcDbEntity
  8
0
  6
Continuous
 62
     7
370
    15
100
AcDbLine
 10
88.6377860719
 20
117.2868131183
 30
0.0
 11
88.6377860719
 21
117.4399605456
 31
0.0
  0
LINE
  5
1FA
330
1F
100
AcDbEntity
  8
0
  6
Continuous
 62
     7
370
    15
100
AcDbLine
 10
88.6377860719
 20
117.2868131183
 30
0.0
 11
88.9377860719
 21
117.2868131183
 31
0.0
  0
LINE
  5
1FB
330
1F
100
AcDbEntity
  8
0
  6
Continuous
 62
     7
370
    15
100
AcDbLine
 10
84.2621194053
 20
101.8721083542
 30
0.0
 11
84.2621194053
 21
126.2561083542
 31
0.0
  0
LINE
  5
1FC
330
1F
100
AcDbEntity
  8
0
  6
Continuous
 62
     7
370
    15
100
AcDbLine
 10
79.5631194053
 20
104.4121083542
 30
0.0
 11
79.5631194053
 21
123.7161083542
 31
0.0
  0
LINE
  5
1FD
330
1F
100
AcDbEntity
  8
0
  6
Continuous
 62
     7
370
    15
100
AcDbLine
 10
87.3544527386
 20
118.7851784837
 30
0.0
 11
87.3544527386
 21
119.1833122906
 31
0.0
  0
SPLINE
  5
1FE
330
1F
100
AcDbEntity
  8
0
  6
Continuous
 62
     7
370
    15
100
AcDbSpline
210
0.0
220
0.0
230
1.0
 70
     8
 71
     3
 72
     9
 73
     5
 74
     0
 42
0.00000001
 43
0.00000001
 40
0.0
 40
0.0
 40
0.0
 40
0.0
 40
0.6059255711822946
 40
1.0
 40
1.0
 40
1.0
 40
1.0
 10
87.35445273860299
 20
119.183312290601
 30
0.0
 10
87.35489468798544
 20
119.2425809446285
 30
0.0
 10
87.35562406697767
 20
119.3403960177108
 30
0.0
 10
87.34498389810115
 20
119.4368523355424
 30
0.0
 10
87.34079087962863
 20
119.4748633038977
 30
0.0
  0
SPLINE
  5
1FF
330
1F
100
AcDbEntity
  8
0
  6
Continuous
 62
     7
370
    15
100
AcDbSpline
210
0.0
220
0.0
230
1.0
 70
     8
 71
     3
 72
    13
 73
     9
 74
     0
 42
0.00000001
 43
0.00000001
 40
0.0
 40
0.0
 40
0.0
 40
0.0
 40
0.1254079306940553
 40
0.2507127258727518
 40
0.5001568788900315
 40
0.7493064724005288
 40
0.8745791473424347
 40
1.0
 40
1.0
 40
1.0
 40
1.0
 10
87.34079087962863
 20
119.4748633038977
 30
0.0
 10
87.33735634630052
 20
119.4895839793009
 30
0.0
 10
87.33049010420544
 20
119.5190132238199
 30
0.0
 10
87.30423183673541
 20
119.5741334290069
 30
0.0
 10
87.25376582587336
 20
119.635188139424
 30
0.0
 10
87.1793339408145
 20
119.6724320348544
 30
0.0
 10
87.11430303260528
 20
119.6849484121941
 30
0.0
 10
87.08108673143039
 20
119.6859403375037
 30
0.0
 10
87.06446876424401
 20
119.6864365933077
 30
0.0
  0
SPLINE
  5
200
330
1F
100
AcDbEntity
  8
0
  6
Continuous
 62
     7
370
    15
100
AcDbSpline
210
0.0
220
0.0
230
1.0
 70
     8
 71
     3
 72
    16
 73
    12
 74
     0
 42
0.00000001
 43
0.00000001
 40
0.0
 40
0.0
 40
0.0
 40
0.0
 40
0.0626059446054476
 40
0.125155312858505
 40
0.2497071453476894
 40
0.374223580923576
 40
0.4990394270065715
 40
0.5829574434816412
 40
0.6993949800653257
 40
0.8297233634802114
 40
1.0
 40
1.0
 40
1.0
 40
1.0
 10
87.06446876424401
 20
119.6864365933077
 30
0.0
 10
87.04827127859802
 20
119.6859586345362
 30
0.0
 10
87.01589094480832
 20
119.6850031489197
 30
0.0
 10
86.9526754717303
 20
119.6721172045474
 30
0.0
 10
86.87951159358288
 20
119.6376823483562
 30
0.0
 10
86.81695994827649
 20
119.5688334932995
 30
0.0
 10
86.78612711060707
 20
119.4950598137527
 30
0.0
 10
86.77408895330598
 20
119.4196588489423
 30
0.0
 10
86.76709123209349
 20
119.3423356608531
 30
0.0
 10
86.76304582013744
 20
119.2442425464657
 30
0.0
 10
86.76247077726825
 20
119.1731307532259
 30
0.0
 10
86.76214504629529
 20
119.132849732728
 30
0.0
  0
LINE
  5
201
330
1F
100
AcDbEntity
  8
0
  6
Continuous
 62
     7
370
    15
100
AcDbLine
 10
86.7621450463
 20
118.7851784837
 30
0.0
 11
86.7621450463
 21
119.1328497327
 31
0.0
  0
LINE
  5
202
330
1F
100
AcDbEntity
  8
0
  6
Continuous
 62
     7
370
    15
100
AcDbLine
 10
86.7621450463
 20
118.7851784837
 30
0.0
 11
87.3544527386
 21
118.7851784837
 31
0.0
  0
LINE
  5
203
330
1F
100
AcDbEntity
  8
0
  6
Continuous
 62
     7
370
    15
100
AcDbLine
 10
86.3954783796
 20
118.7851784837
 30
0.0
 11
86.3954783796
 21
119.0681186254
 31
0.0
  0
SPLINE
  5
204
330
1F
100
AcDbEntity
  8
0
  6
Continuous
 62
     7
370
    15
100
AcDbSpline
210
0.0
220
0.0
230
1.0
 70
     8
 71
     3
 72
     9
 73
     5
 74
     0
 42
0.00000001
 43
0.00000001
 40
0.0
 40
0.0
 40
0.0
 40
0.0
 40
0.6274908100795854
 40
1.0
 40
1.0
 40
1.0
 40
1.0
 10
86.39547837962861
 20
119.0681186253902
 30
0.0
 10
86.39582124456723
 20
119.133201760144
 30
0.0
 10
86.39636765087803
 20
119.2369214221827
 30
0.0
 10
86.39026112824746
 20
119.3395545031998
 30
0.0
 10
86.38798639244912
 20
119.3777862690685
 30
0.0
  0
SPLINE
  5
205
330
1F
100
AcDbEntity
  8
0
  6
Continuous
 62
     7
370
    15
100
AcDbSpline
210
0.0
220
0.0
230
1.0
 70
     8
 71
     3
 72
    13
 73
     9
 74
     0
 42
0.00000001
 43
0.00000001
 40
0.0
 40
0.0
 40
0.0
 40
0.0
 40
0.1254736440094509
 40
0.2508527555183648
 40
0.5005248069551843
 40
0.7493584073820678
 40
0.8745744732971329
 40
0.9999999999999999
 40
0.9999999999999999
 40
0.9999999999999999
 40
0.9999999999999999
 10
86.38798639244912
 20
119.3777862690685
 30
0.0
 10
86.38553420300578
 20
119.3926872249923
 30
0.0
 10
86.38063167161145
 20
119.4224779103817
 30
0.0
 10
86.36261445151477
 20
119.4802789526744
 30
0.0
 10
86.3211050587624
 20
119.5466821302861
 30
0.0
 10
86.25207988915825
 20
119.5922528210578
 30
0.0
 10
86.18786243269003
 20
119.6083034458919
 30
0.0
 10
86.15470110502449
 20
119.6097277068934
 30
0.0
 10
86.13810658475681
 20
119.6104404325205
 30
0.0
  0
SPLINE
  5
206
330
1F
100
AcDbEntity
  8
0
  6
Continuous
 62
     7
370
    15
100
AcDbSpline
210
0.0
220
0.0
230
1.0
 70
     8
 71
     3
 72
    12
 73
     8
 74
     0
 42
0.00000001
 43
0.00000001
 40
0.0
 40
0.0
 40
0.0
 40
0.0
 40
0.1255301228073041
 40
0.2509151700980466
 40
0.4999346242724385
 40
0.7493320843796423
 40
1.0
 40
1.0
 40
1.0
 40
1.0
 10
86.13810658475681
 20
119.6104404325205
 30
0.0
 10
86.12240380706281
 20
119.6099972707916
 30
0.0
 10
86.09101639941919
 20
119.609111459497
 30
0.0
 10
86.03021870121025
 20
119.5948577168951
 30
0.0
 10
85.96172879479631
 20
119.5568272565059
 30
0.0
 10
85.91083811158447
 20
119.4824388050482
 30
0.0
 10
85.90047352062552
 20
119.426321804953
 30
0.0
 10
85.8952780591158
 20
119.3981920200739
 30
0.0
  0
SPLINE
  5
207
330
1F
100
AcDbEntity
  8
0
  6
Continuous
 62
     7
370
    15
100
AcDbSpline
210
0.0
220
0.0
230
1.0
 70
     8
 71
     3
 72
    10
 73
     6
 74
     0
 42
0.00000001
 43
0.00000001
 40
0.0
 40
0.0
 40
0.0
 40
0.0
 40
0.2115948014104284
 40
0.5448704765048851
 40
1.0
 40
1.0
 40
1.0
 40
1.0
 10
85.8952780591158
 20
119.3981920200739
 30
0.0
 10
85.89362895312813
 20
119.3726422702546
 30
0.0
 10
85.88938239716686
 20
119.3068499905494
 30
0.0
 10
85.88803924489731
 20
119.1853481173698
 30
0.0
 10
85.88787873238805
 20
119.0889248729193
 30
0.0
 10
85.88778607193632
 20
119.0332617882782
 30
0.0
  0
LINE
  5
208
330
1F
100
AcDbEntity
  8
0
  6
Continuous
 62
     7
370
    15
100
AcDbLine
 10
85.8877860719
 20
118.7851784837
 30
0.0
 11
85.8877860719
 21
119.0332617883
 31
0.0
  0
LINE
  5
209
330
1F
100
AcDbEntity
  8
0
  6
Continuous
 62
     7
370
    15
100
AcDbLine
 10
85.8877860719
 20
118.7851784837
 30
0.0
 11
86.3954783796
 21
118.7851784837
 31
0.0
  0
LINE
  5
20A
330
1F
100
AcDbEntity
  8
0
  6
Continuous
 62
     7
370
    15
100
AcDbLine
 10
111.8211194053
 20
102.2531083542
 30
0.0
 11
111.8211194053
 21
125.8751083542
 31
0.0
  0
LINE
  5
20B
330
1F
100
AcDbEntity
  8
0
  6
Continuous
 62
     7
370
    15
100
AcDbLine
 10
98.3591194053
 20
102.2531083542
 30
0.0
 11
98.3591194053
 21
125.8751083542
 31
0.0
  0
LINE
  5
20C
330
1F
100
AcDbEntity
  8
0
  6
Continuous
 62
     7
370
    15
100
AcDbLine
 10
98.1051194053
 20
102.5071083542
 30
0.0
 11
98.1051194053
 21
125.6211083542
 31
0.0
  0
LINE
  5
20D
330
1F
100
AcDbEntity
  8
0
  6
Continuous
 62
     7
370
    15
100
AcDbLine
 10
97.8511194053
 20
102.2531083542
 30
0.0
 11
97.8511194053
 21
125.8751083542
 31
0.0
  0
LINE
  5
20E
330
1F
100
AcDbEntity
  8
0
  6
Continuous
 62
     7
370
    15
100
AcDbLine
 10
103.5021194053
 20
135.9362462064
 30
0.0
 11
103.5021194053
 21
137.1862462064
 31
0.0
  0
LINE
  5
20F
330
1F
100
AcDbEntity
  8
0
  6
Continuous
 62
     7
370
    15
100
AcDbLine
 10
103.5021194053
 20
134.6862462064
 30
0.0
 11
103.5021194053
 21
135.9362462064
 31
0.0
  0
LINE
  5
210
330
1F
100
AcDbEntity
  8
0
  6
Continuous
 62
     7
370
    15
100
AcDbLine
 10
138.1611194053
 20
114.0641083542
 30
0.0
 11
139.7011194053
 21
114.0641083542
 31
0.0
  0
LINE
  5
211
330
1F
100
AcDbEntity
  8
0
  6
Continuous
 62
     7
370
    15
100
AcDbLine
 10
138.1611194053
 20
117.8832803849
 30
0.0
 11
139.7011194053
 21
117.8832803849
 31
0.0
  0
LINE
  5
212
330
1F
100
AcDbEntity
  8
0
  6
Continuous
 62
     7
370
    15
100
AcDbLine
 10
139.7011194053
 20
114.0641083542
 30
0.0
 11
139.7011194053
 21
117.8832803849
 31
0.0
  0
LINE
  5
213
330
1F
100
AcDbEntity
  8
0
  6
Continuous
 62
     7
370
    15
100
AcDbLine
 10
138.1611194053
 20
110.2449363235
 30
0.0
 11
139.7011194053
 21
110.2449363235
 31
0.0
  0
LINE
  5
214
330
1F
100
AcDbEntity
  8
0
  6
Continuous
 62
     7
370
    15
100
AcDbLine
 10
139.7011194053
 20
110.2449363235
 30
0.0
 11
139.7011194053
 21
114.0641083542
 31
0.0
  0
LINE
  5
215
330
1F
100
AcDbEntity
  8
0
  6
Continuous
 62
     7
370
    15
100
AcDbLine
 10
138.1611194053
 20
108.4891083542
 30
0.0
 11
138.1611194053
 21
119.6391083542
 31
0.0
  0
SPLINE
  5
216
330
1F
100
AcDbEntity
  8
0
  6
Continuous
 62
     7
370
    15
100
AcDbSpline
210
0.0
220
0.0
230
1.0
 70
     8
 71
     3
 72
    10
 73
     6
 74
     0
 42
0.00000001
 43
0.00000001
 40
0.0
 40
0.0
 40
0.0
 40
0.0
 40
0.4156632727061739
 40
0.8283888034933933
 40
1.0
 40
1.0
 40
1.0
 40
1.0
 10
145.6918363073051
 20
116.7439208709622
 30
0.0
 10
145.6843048954249
 20
116.8262893905259
 30
0.0
 10
145.6692953006741
 20
116.9904442818702
 30
0.0
 10
145.6510611661688
 20
117.0977228416676
 30
0.0
 10
145.6412319188539
 20
117.0939203909553
 30
0.0
 10
145.6383452119028
 20
117.0928036664951
 30
0.0
  0
SPLINE
  5
217
330
1F
100
AcDbEntity
  8
0
  6
Continuous
 62
     7
370
    15
100
AcDbSpline
210
0.0
220
0.0
230
1.0
 70
     8
 71
     3
 72
    17
 73
    13
 74
     0
 42
0.00000001
 43
0.00000001
 40
0.0
 40
0.0
 40
0.0
 40
0.0
 40
0.031432612441598
 40
0.1363000032325418
 40
0.2446908207359066
 40
0.3552548963074872
 40
0.4658189718790663
 40
0.5742097893824305
 40
0.6790771801733734
 40
0.7862970770988903
 40
0.8927696077670859
 40
1.0
 40
1.0
 40
1.0
 40
1.0
 10
145.2821295110141
 20
111.0337154812422
 30
0.0
 10
145.2800469983028
 20
111.0320249958492
 30
0.0
 10
145.2710166801958
 20
111.0246946104111
 30
0.0
 10
145.2564351505091
 20
111.1255761362484
 30
0.0
 10
145.234281948596
 20
111.3380182003737
 30
0.0
 10
145.2111248187945
 20
111.6703054853579
 30
0.0
 10
145.1879354206614
 20
112.0953020263466
 30
0.0
 10
145.1658761035814
 20
112.589518591514
 30
0.0
 10
145.1464438336796
 20
113.1333342903915
 30
0.0
 10
145.1254203861076
 20
113.7078314245758
 30
0.0
 10
145.1029954359277
 20
114.3019390369694
 30
0.0
 10
145.0879512646752
 20
114.6862350698253
 30
0.0
 10
145.0804025032342
 20
114.8790645069582
 30
0.0
  0
SPLINE
  5
218
330
1F
100
AcDbEntity
  8
0
  6
Continuous
 62
     7
370
    15
100
AcDbSpline
210
0.0
220
0.0
230
1.0
 70
     8
 71
     3
 72
    14
 73
    10
 74
     0
 42
0.00000001
 43
0.00000001
 40
0.0
 40
0.0
 40
0.0
 40
0.0
 40
0.0984794925600643
 40
0.2900620801720061
 40
0.4564015861512175
 40
0.6226976827540942
 40
0.785066139183305
 40
0.8922181553436705
 40
1.0
 40
1.0
 40
1.0
 40
1.0
 10
145.0804025032342
 20
114.8790645069582
 30
0.0
 10
145.1112032361998
 20
114.9378395917503
 30
0.0
 10
145.2019238973502
 20
115.1109560743185
 30
0.0
 10
145.2999703276726
 20
115.396928471726
 30
0.0
 10
145.3392437492755
 20
115.7350087012624
 30
0.0
 10
145.3062720859912
 20
116.0548844672182
 30
0.0
 10
145.2161813343145
 20
116.3280438366861
 30
0.0
 10
145.1071736978484
 20
116.556250877813
 30
0.0
 10
145.0303571369397
 20
116.6812421177895
 30
0.0
 10
144.9918363073066
 20
116.743920870962
 30
0.0
  0
SPLINE
  5
219
330
1F
100
AcDbEntity
  8
0
  6
Continuous
 62
     7
370
    15
100
AcDbSpline
210
0.0
220
0.0
230
1.0
 70
     8
 71
     3
 72
    10
 73
     6
 74
     0
 42
0.00000001
 43
0.00000001
 40
0.0
 40
0.0
 40
0.0
 40
0.0
 40
0.4118560980231685
 40
0.8208013617167553
 40
1.0
 40
1.0
 40
1.0
 40
1.0
 10
144.9918363073051
 20
116.7439208709622
 30
0.0
 10
144.98430430395
 20
116.8263370230641
 30
0.0
 10
144.96929353043
 20
116.990586842837
 30
0.0
 10
144.950897990758
 20
117.0982812650438
 30
0.0
 10
144.9409161964799
 20
117.0941813095417
 30
0.0
 10
144.937874893261
 20
117.0929321145053
 30
0.0
  0
SPLINE
  5
21A
330
1F
100
AcDbEntity
  8
0
  6
Continuous
 62
     7
370
    15
100
AcDbSpline
210
0.0
220
0.0
230
1.0
 70
     8
 71
     3
 72
    17
 73
    13
 74
     0
 42
0.00000001
 43
0.00000001
 40
0.0
 40
0.0
 40
0.0
 40
0.0
 40
0.0297720773987426
 40
0.1348192553469841
 40
0.2433959006544845
 40
0.3541495299156967
 40
0.464903159176906
 40
0.5734798044844064
 40
0.6785269824326476
 40
0.7859306997081179
 40
0.8925857694237251
 40
0.9999999999999999
 40
0.9999999999999999
 40
0.9999999999999999
 40
0.9999999999999999
 10
144.5817919650468
 20
111.0336232945754
 30
0.0
 10
144.5798234688401
 20
111.0320685646883
 30
0.0
 10
144.5709093716079
 20
111.0250281582414
 30
0.0
 10
144.5564372666771
 20
111.1257241888782
 30
0.0
 10
144.5342813608102
 20
111.337977077343
 30
0.0
 10
144.5111249777279
 20
111.6703166047477
 30
0.0
 10
144.487935378962
 20
112.0952991089458
 30
0.0
 10
144.4658761142522
 20
112.5895193380682
 30
0.0
 10
144.4464438307901
 20
113.1333340882412
 30
0.0
 10
144.4254203868791
 20
113.7078314785507
 30
0.0
 10
144.4029954357338
 20
114.3019390234032
 30
0.0
 10
144.3879512646104
 20
114.6862350652925
 30
0.0
 10
144.3804025032343
 20
114.8790645069582
 30
0.0
  0
SPLINE
  5
21B
330
1F
100
AcDbEntity
  8
0
  6
Continuous
 62
     7
370
    15
100
AcDbSpline
210
0.0
220
0.0
230
1.0
 70
     8
 71
     3
 72
    14
 73
    10
 74
     0
 42
0.00000001
 43
0.00000001
 40
0.0
 40
0.0
 40
0.0
 40
0.0
 40
0.0984794925600637
 40
0.2900620801720026
 40
0.4564015861512167
 40
0.6226976827540961
 40
0.7850661391833051
 40
0.892218155343667
 40
1.0
 40
1.0
 40
1.0
 40
1.0
 10
144.3804025032343
 20
114.8790645069582
 30
0.0
 10
144.4112032361998
 20
114.9378395917503
 30
0.0
 10
144.5019238973501
 20
115.1109560743185
 30
0.0
 10
144.5999703276727
 20
115.396928471726
 30
0.0
 10
144.6392437492754
 20
115.7350087012624
 30
0.0
 10
144.6062720859913
 20
116.0548844672182
 30
0.0
 10
144.5161813343145
 20
116.3280438366861
 30
0.0
 10
144.4071736978484
 20
116.556250877813
 30
0.0
 10
144.3303571369397
 20
116.6812421177895
 30
0.0
 10
144.2918363073066
 20
116.743920870962
 30
0.0
  0
SPLINE
  5
21C
330
1F
100
AcDbEntity
  8
0
  6
Continuous
 62
     7
370
    15
100
AcDbSpline
210
0.0
220
0.0
230
1.0
 70
     8
 71
     3
 72
    10
 73
     6
 74
     0
 42
0.00000001
 43
0.00000001
 40
0.0
 40
0.0
 40
0.0
 40
0.0
 40
0.4144302550030156
 40
0.8259314825635071
 40
1.0
 40
1.0
 40
1.0
 40
1.0
 10
144.2918363073051
 20
116.7439208709622
 30
0.0
 10
144.2843047028288
 20
116.8263049006385
 30
0.0
 10
144.2692947242469
 20
116.9904907025888
 30
0.0
 10
144.2510086531047
 20
117.0979021065921
 30
0.0
 10
144.2411303087145
 20
117.0940038250189
 30
0.0
 10
144.2381938373934
 20
117.0928450081576
 30
0.0
  0
SPLINE
  5
21D
330
1F
100
AcDbEntity
  8
0
  6
Continuous
 62
     7
370
    15
100
AcDbSpline
210
0.0
220
0.0
230
1.0
 70
     8
 71
     3
 72
    17
 73
    13
 74
     0
 42
0.00000001
 43
0.00000001
 40
0.0
 40
0.0
 40
0.0
 40
0.0
 40
0.0265382860536593
 40
0.1319355885932073
 40
0.2408741222855863
 40
0.3519968958678348
 40
0.4631196694500831
 40
0.572058203142462
 40
0.67745550568201
 40
0.7852172019470225
 40
0.8922277553931207
 40
0.9999999999999999
 40
0.9999999999999999
 40
0.9999999999999999
 40
0.9999999999999999
 10
143.881137919731
 20
111.0334446692522
 30
0.0
 10
143.8793901886496
 20
111.0321418797019
 30
0.0
 10
143.8707013106841
 20
111.0256650369327
 30
0.0
 10
143.8564415425976
 20
111.1260233434134
 30
0.0
 10
143.8342801731325
 20
111.3378939843162
 30
0.0
 10
143.8111252988679
 20
111.6703390725409
 30
0.0
 10
143.7879352947043
 20
112.0952932140579
 30
0.0
 10
143.7658761358134
 20
112.5895208465526
 30
0.0
 10
143.7464438249518
 20
113.133333679777
 30
0.0
 10
143.7254203884379
 20
113.7078315876123
 30
0.0
 10
143.702995435342
 20
114.3019389959913
 30
0.0
 10
143.6879512644795
 20
114.6862350561337
 30
0.0
 10
143.6804025032342
 20
114.8790645069582
 30
0.0
  0
SPLINE
  5
21E
330
1F
100
AcDbEntity
  8
0
  6
Continuous
 62
     7
370
    15
100
AcDbSpline
210
0.0
220
0.0
230
1.0
 70
     8
 71
     3
 72
    14
 73
    10
 74
     0
 42
0.00000001
 43
0.00000001
 40
0.0
 40
0.0
 40
0.0
 40
0.0
 40
0.0984794925600635
 40
0.290062080172006
 40
0.4564015861512205
 40
0.6226976827541002
 40
0.7850661391833104
 40
0.8922181553436673
 40
1.0
 40
1.0
 40
1.0
 40
1.0
 10
143.6804025032342
 20
114.8790645069582
 30
0.0
 10
143.7112032361998
 20
114.9378395917503
 30
0.0
 10
143.8019238973502
 20
115.1109560743185
 30
0.0
 10
143.8999703276727
 20
115.396928471726
 30
0.0
 10
143.9392437492754
 20
115.7350087012624
 30
0.0
 10
143.9062720859912
 20
116.0548844672182
 30
0.0
 10
143.8161813343145
 20
116.3280438366862
 30
0.0
 10
143.7071736978484
 20
116.556250877813
 30
0.0
 10
143.6303571369397
 20
116.6812421177895
 30
0.0
 10
143.5918363073066
 20
116.743920870962
 30
0.0
  0
SPLINE
  5
21F
330
1F
100
AcDbEntity
  8
0
  6
Continuous
 62
     7
370
    15
100
AcDbSpline
210
0.0
220
0.0
230
1.0
 70
     8
 71
     3
 72
    10
 73
     6
 74
     0
 42
0.00000001
 43
0.00000001
 40
0.0
 40
0.0
 40
0.0
 40
0.0
 40
0.415812403468461
 40
0.8286860110213189
 40
1.0
 40
1.0
 40
1.0
 40
1.0
 10
143.5918363073051
 20
116.7439208709622
 30
0.0
 10
143.5843049187868
 20
116.8262875091435
 30
0.0
 10
143.5692953705949
 20
116.9904386510199
 30
0.0
 10
143.551067496018
 20
117.0977012624907
 30
0.0
 10
143.5412441670846
 20
117.0939103688333
 30
0.0
 10
143.5383634594581
 20
117.092798682933
 30
0.0
  0
SPLINE
  5
220
330
1F
100
AcDbEntity
  8
0
  6
Continuous
 62
     7
370
    15
100
AcDbSpline
210
0.0
220
0.0
230
1.0
 70
     8
 71
     3
 72
    17
 73
    13
 74
     0
 42
0.00000001
 43
0.00000001
 40
0.0
 40
0.0
 40
0.0
 40
0.0
 40
0.0278931524655185
 40
0.1331437627797163
 40
0.2419306755525018
 40
0.3528987881846966
 40
0.4638669008168915
 40
0.572653813589677
 40
0.6779044239038751
 40
0.7855161371745256
 40
0.8923777530686883
 40
1.0
 40
1.0
 40
1.0
 40
1.0
 10
143.1814114164298
 20
111.0335193635204
 30
0.0
 10
143.1795713960847
 20
111.032113059085
 30
0.0
 10
143.1707883360618
 20
111.0254002766422
 30
0.0
 10
143.1564397255389
 20
111.1258962172618
 30
0.0
 10
143.1342806778379
 20
111.3379292948179
 30
0.0
 10
143.111125162399
 20
111.6703295248197
 30
0.0
 10
143.0879353305097
 20
112.095295719099
 30
0.0
 10
143.0658761266509
 20
112.58952020552
 30
0.0
 10
143.0464438274329
 20
113.1333338533544
 30
0.0
 10
143.0254203877755
 20
113.7078315412664
 30
0.0
 10
143.0029954355085
 20
114.30193900764
 30
0.0
 10
142.9879512645352
 20
114.6862350600257
 30
0.0
 10
142.9804025032342
 20
114.8790645069582
 30
0.0
  0
SPLINE
  5
221
330
1F
100
AcDbEntity
  8
0
  6
Continuous
 62
     7
370
    15
100
AcDbSpline
210
0.0
220
0.0
230
1.0
 70
     8
 71
     3
 72
    14
 73
    10
 74
     0
 42
0.00000001
 43
0.00000001
 40
0.0
 40
0.0
 40
0.0
 40
0.0
 40
0.098479492560067
 40
0.2900620801720107
 40
0.4564015861512246
 40
0.622697682754104
 40
0.7850661391833157
 40
0.8922181553436764
 40
1.0
 40
1.0
 40
1.0
 40
1.0
 10
142.9804025032342
 20
114.8790645069582
 30
0.0
 10
143.0112032361998
 20
114.9378395917503
 30
0.0
 10
143.1019238973502
 20
115.1109560743185
 30
0.0
 10
143.1999703276726
 20
115.396928471726
 30
0.0
 10
143.2392437492754
 20
115.7350087012624
 30
0.0
 10
143.2062720859913
 20
116.0548844672182
 30
0.0
 10
143.1161813343145
 20
116.3280438366862
 30
0.0
 10
143.0071736978484
 20
116.556250877813
 30
0.0
 10
142.9303571369397
 20
116.6812421177895
 30
0.0
 10
142.8918363073066
 20
116.743920870962
 30
0.0
  0
SPLINE
  5
222
330
1F
100
AcDbEntity
  8
0
  6
Continuous
 62
     7
370
    15
100
AcDbSpline
210
0.0
220
0.0
230
1.0
 70
     8
 71
     3
 72
    10
 73
     6
 74
     0
 42
0.00000001
 43
0.00000001
 40
0.0
 40
0.0
 40
0.0
 40
0.0
 40
0.4174356288675823
 40
0.8319209895110677
 40
1.0
 40
1.0
 40
1.0
 40
1.0
 10
142.8918363073051
 20
116.7439208709622
 30
0.0
 10
142.8843051740259
 20
116.8262669542768
 30
0.0
 10
142.8692961345082
 20
116.9903771316934
 30
0.0
 10
142.8511360959361
 20
117.0974678055585
 30
0.0
 10
142.8413769116981
 20
117.0938022421401
 30
0.0
 10
142.8385612331033
 20
117.092744669273
 30
0.0
  0
SPLINE
  5
223
330
1F
100
AcDbEntity
  8
0
  6
Continuous
 62
     7
370
    15
100
AcDbSpline
210
0.0
220
0.0
230
1.0
 70
     8
 71
     3
 72
    17
 73
    13
 74
     0
 42
0.00000001
 43
0.00000001
 40
0.0
 40
0.0
 40
0.0
 40
0.0
 40
0.0297243268796761
 40
0.134776674806184
 40
0.2433586637974224
 40
0.3541177438843215
 40
0.4648768239712203
 40
0.5734588129624574
 40
0.6785111608889646
 40
0.785920164121614
 40
0.8925804829491273
 40
0.9999999999999999
 40
0.9999999999999999
 40
0.9999999999999999
 40
0.9999999999999999
 10
142.4817822756291
 20
111.0336206483133
 30
0.0
 10
142.4798170515193
 20
111.0320697592961
 30
0.0
 10
142.4709062905843
 20
111.0250376853462
 30
0.0
 10
142.4564373283087
 20
111.1257285007843
 30
0.0
 10
142.4342813436915
 20
111.33797587967
 30
0.0
 10
142.4111249823567
 20
111.6703169285904
 30
0.0
 10
142.3879353777475
 20
112.095299023979
 30
0.0
 10
142.3658761145629
 20
112.589519359811
 30
0.0
 10
142.346443830706
 20
113.1333340823537
 30
0.0
 10
142.3254203869015
 20
113.7078314801227
 30
0.0
 10
142.3029954357281
 20
114.3019390230081
 30
0.0
 10
142.2879512646086
 20
114.6862350651605
 30
0.0
 10
142.2804025032342
 20
114.8790645069582
 30
0.0
  0
SPLINE
  5
224
330
1F
100
AcDbEntity
  8
0
  6
Continuous
 62
     7
370
    15
100
AcDbSpline
210
0.0
220
0.0
230
1.0
 70
     8
 71
     3
 72
    14
 73
    10
 74
     0
 42
0.00000001
 43
0.00000001
 40
0.0
 40
0.0
 40
0.0
 40
0.0
 40
0.0984794925600665
 40
0.2900620801720048
 40
0.4564015861512203
 40
0.6226976827541016
 40
0.7850661391833151
 40
0.8922181553436643
 40
1.0
 40
1.0
 40
1.0
 40
1.0
 10
142.2804025032342
 20
114.8790645069582
 30
0.0
 10
142.3112032361998
 20
114.9378395917503
 30
0.0
 10
142.4019238973501
 20
115.1109560743185
 30
0.0
 10
142.4999703276727
 20
115.396928471726
 30
0.0
 10
142.5392437492754
 20
115.7350087012624
 30
0.0
 10
142.5062720859913
 20
116.0548844672183
 30
0.0
 10
142.4161813343145
 20
116.3280438366862
 30
0.0
 10
142.3071736978484
 20
116.556250877813
 30
0.0
 10
142.2303571369397
 20
116.6812421177895
 30
0.0
 10
142.1918363073066
 20
116.743920870962
 30
0.0
  0
SPLINE
  5
225
330
1F
100
AcDbEntity
  8
0
  6
Continuous
 62
     7
370
    15
100
AcDbSpline
210
0.0
220
0.0
230
1.0
 70
     8
 71
     3
 72
    10
 73
     6
 74
     0
 42
0.00000001
 43
0.00000001
 40
0.0
 40
0.0
 40
0.0
 40
0.0
 40
0.4189583849310435
 40
0.8349557394066154
 40
1.0
 40
1.0
 40
1.0
 40
1.0
 10
142.1918363073051
 20
116.7439208709622
 30
0.0
 10
142.1843054150664
 20
116.8262475428492
 30
0.0
 10
142.1692968559261
 20
116.9903190346027
 30
0.0
 10
142.1511999577949
 20
117.0972511547454
 30
0.0
 10
142.1415004947048
 20
117.0937023994767
 30
0.0
 10
142.1387453723997
 20
117.0926943792693
 30
0.0
  0
SPLINE
  5
226
330
1F
100
AcDbEntity
  8
0
  6
Continuous
 62
     7
370
    15
100
AcDbSpline
210
0.0
220
0.0
230
1.0
 70
     8
 71
     3
 72
    17
 73
    13
 74
     0
 42
0.00000001
 43
0.00000001
 40
0.0
 40
0.0
 40
0.0
 40
0.0
 40
0.0305086286183184
 40
0.1354760597099424
 40
0.2439702787558858
 40
0.3546398290921285
 40
0.4653093794283708
 40
0.5738035984743132
 40
0.6787710295659358
 40
0.7860932110114226
 40
0.8926673132349151
 40
1.0
 40
1.0
 40
1.0
 40
1.0
 10
141.7819415451145
 20
111.0336641461607
 30
0.0
 10
141.7799225303027
 20
111.0320497229293
 30
0.0
 10
141.7709569299601
 20
111.0248807445782
 30
0.0
 10
141.7564363215642
 20
111.1256580663164
 30
0.0
 10
141.7342816233243
 20
111.3379954435156
 30
0.0
 10
141.7111249067458
 20
111.6703116386587
 30
0.0
 10
141.6879353975856
 20
112.0953004119015
 30
0.0
 10
141.6658761094864
 20
112.5895190046457
 30
0.0
 10
141.6464438320806
 20
113.1333341785246
 30
0.0
 10
141.6254203865345
 20
113.7078314544447
 30
0.0
 10
141.6029954358204
 20
114.301939029462
 30
0.0
 10
141.5879512646394
 20
114.6862350673169
 30
0.0
 10
141.5804025032342
 20
114.8790645069582
 30
0.0
  0
SPLINE
  5
227
330
1F
100
AcDbEntity
  8
0
  6
Continuous
 62
     7
370
    15
100
AcDbSpline
210
0.0
220
0.0
230
1.0
 70
     8
 71
     3
 72
    14
 73
    10
 74
     0
 42
0.00000001
 43
0.00000001
 40
0.0
 40
0.0
 40
0.0
 40
0.0
 40
0.0984794925600664
 40
0.2900620801720096
 40
0.4564015861512253
 40
0.6226976827541062
 40
0.7850661391833121
 40
0.8922181553436686
 40
0.9999999999999999
 40
0.9999999999999999
 40
0.9999999999999999
 40
0.9999999999999999
 10
141.5804025032342
 20
114.8790645069582
 30
0.0
 10
141.6112032361998
 20
114.9378395917503
 30
0.0
 10
141.7019238973502
 20
115.1109560743185
 30
0.0
 10
141.7999703276726
 20
115.396928471726
 30
0.0
 10
141.8392437492754
 20
115.7350087012624
 30
0.0
 10
141.8062720859913
 20
116.0548844672182
 30
0.0
 10
141.7161813343145
 20
116.3280438366862
 30
0.0
 10
141.6071736978484
 20
116.556250877813
 30
0.0
 10
141.5303571369397
 20
116.6812421177895
 30
0.0
 10
141.4918363073066
 20
116.743920870962
 30
0.0
  0
SPLINE
  5
228
330
1F
100
AcDbEntity
  8
0
  6
Continuous
 62
     7
370
    15
100
AcDbSpline
210
0.0
220
0.0
230
1.0
 70
     8
 71
     3
 72
    10
 73
     6
 74
     0
 42
0.00000001
 43
0.00000001
 40
0.0
 40
0.0
 40
0.0
 40
0.0
 40
0.4182095576847845
 40
0.8334633773258551
 40
0.9999999999999999
 40
0.9999999999999999
 40
0.9999999999999999
 40
0.9999999999999999
 10
141.4918363073051
 20
116.7439208709622
 30
0.0
 10
141.4843052963384
 20
116.8262571042321
 30
0.0
 10
141.4692965005812
 20
116.9903476511754
 30
0.0
 10
141.4511686124178
 20
117.0973574106213
 30
0.0
 10
141.4414398355114
 20
117.0937513059457
 30
0.0
 10
141.4386549880287
 20
117.0927190640077
 30
0.0
  0
SPLINE
  5
229
330
1F
100
AcDbEntity
  8
0
  6
Continuous
 62
     7
370
    15
100
AcDbSpline
210
0.0
220
0.0
230
1.0
 70
     8
 71
     3
 72
    17
 73
    13
 74
     0
 42
0.00000001
 43
0.00000001
 40
0.0
 40
0.0
 40
0.0
 40
0.0
 40
0.0318312940406696
 40
0.1366555193280161
 40
0.2450017210152761
 40
0.3555202862145148
 40
0.4660388514137471
 40
0.5743850531010057
 40
0.6792092783883514
 40
0.7863850414719612
 40
0.8928137459290683
 40
1.0
 40
1.0
 40
1.0
 40
1.0
 10
141.082210725556
 20
111.0337376616224
 30
0.0
 10
141.080100772186
 20
111.0320139564421
 30
0.0
 10
141.0710424922064
 20
111.0246138857358
 30
0.0
 10
141.0564346501502
 20
111.1255411298398
 30
0.0
 10
141.0342820875756
 20
111.3380279237378
 30
0.0
 10
141.0111247812154
 20
111.670302856226
 30
0.0
 10
140.9879354305211
 20
112.0953027161535
 30
0.0
 10
140.9658761010584
 20
112.5895184149944
 30
0.0
 10
140.9464438343628
 20
113.1333343381891
 30
0.0
 10
140.9254203859252
 20
113.7078314118136
 30
0.0
 10
140.9029954359736
 20
114.301939040177
 30
0.0
 10
140.8879512646906
 20
114.686235070897
 30
0.0
 10
140.8804025032343
 20
114.8790645069582
 30
0.0
  0
SPLINE
  5
22A
330
1F
100
AcDbEntity
  8
0
  6
Continuous
 62
     7
370
    15
100
AcDbSpline
210
0.0
220
0.0
230
1.0
 70
     8
 71
     3
 72
    14
 73
    10
 74
     0
 42
0.00000001
 43
0.00000001
 40
0.0
 40
0.0
 40
0.0
 40
0.0
 40
0.0984794925600667
 40
0.290062080172008
 40
0.4564015861512191
 40
0.6226976827540953
 40
0.785066139183312
 40
0.892218155343669
 40
1.0
 40
1.0
 40
1.0
 40
1.0
 10
140.8804025032343
 20
114.8790645069582
 30
0.0
 10
140.9112032361998
 20
114.9378395917503
 30
0.0
 10
141.0019238973502
 20
115.1109560743185
 30
0.0
 10
141.0999703276726
 20
115.396928471726
 30
0.0
 10
141.1392437492754
 20
115.7350087012624
 30
0.0
 10
141.1062720859912
 20
116.0548844672182
 30
0.0
 10
141.0161813343145
 20
116.3280438366862
 30
0.0
 10
140.9071736978484
 20
116.556250877813
 30
0.0
 10
140.8303571369397
 20
116.6812421177895
 30
0.0
 10
140.7918363073066
 20
116.743920870962
 30
0.0
  0
SPLINE
  5
22B
330
1F
100
AcDbEntity
  8
0
  6
Continuous
 62
     7
370
    15
100
AcDbSpline
210
0.0
220
0.0
230
1.0
 70
     8
 71
     3
 72
    10
 73
     6
 74
     0
 42
0.00000001
 43
0.00000001
 40
0.0
 40
0.0
 40
0.0
 40
0.0
 40
0.4156632727061774
 40
0.8283888034934016
 40
1.0
 40
1.0
 40
1.0
 40
1.0
 10
140.7918363073051
 20
116.7439208709622
 30
0.0
 10
140.7843048954248
 20
116.8262893905259
 30
0.0
 10
140.7692953006741
 20
116.9904442818702
 30
0.0
 10
140.7510611661689
 20
117.0977228416676
 30
0.0
 10
140.741231918854
 20
117.0939203909553
 30
0.0
 10
140.7383452119029
 20
117.0928036664951
 30
0.0
  0
SPLINE
  5
22C
330
1F
100
AcDbEntity
  8
0
  6
Continuous
 62
     7
370
    15
100
AcDbSpline
210
0.0
220
0.0
230
1.0
 70
     8
 71
     3
 72
    17
 73
    13
 74
     0
 42
0.00000001
 43
0.00000001
 40
0.0
 40
0.0
 40
0.0
 40
0.0
 40
0.0314326124416514
 40
0.136300003232588
 40
0.2446908207359455
 40
0.3552548963075232
 40
0.4658189718790945
 40
0.5742097893824507
 40
0.6790771801733866
 40
0.7862970770988971
 40
0.8927696077670904
 40
1.0
 40
1.0
 40
1.0
 40
1.0
 10
140.3821295110141
 20
111.0337154812422
 30
0.0
 10
140.3800469983029
 20
111.0320249958492
 30
0.0
 10
140.3710166801958
 20
111.0246946104111
 30
0.0
 10
140.3564351505091
 20
111.1255761362484
 30
0.0
 10
140.3342819485961
 20
111.3380182003737
 30
0.0
 10
140.3111248187946
 20
111.6703054853579
 30
0.0
 10
140.2879354206614
 20
112.0953020263466
 30
0.0
 10
140.2658761035814
 20
112.589518591514
 30
0.0
 10
140.2464438336796
 20
113.1333342903915
 30
0.0
 10
140.2254203861076
 20
113.7078314245758
 30
0.0
 10
140.2029954359277
 20
114.3019390369694
 30
0.0
 10
140.1879512646752
 20
114.6862350698253
 30
0.0
 10
140.1804025032342
 20
114.8790645069582
 30
0.0
  0
SPLINE
  5
22D
330
1F
100
AcDbEntity
  8
0
  6
Continuous
 62
     7
370
    15
100
AcDbSpline
210
0.0
220
0.0
230
1.0
 70
     8
 71
     3
 72
    14
 73
    10
 74
     0
 42
0.00000001
 43
0.00000001
 40
0.0
 40
0.0
 40
0.0
 40
0.0
 40
0.0984794925600636
 40
0.2900620801720034
 40
0.4564015861512166
 40
0.6226976827540951
 40
0.785066139183324
 40
0.8922181553436785
 40
1.0
 40
1.0
 40
1.0
 40
1.0
 10
140.1804025032342
 20
114.8790645069582
 30
0.0
 10
140.2112032361998
 20
114.9378395917503
 30
0.0
 10
140.3019238973502
 20
115.1109560743185
 30
0.0
 10
140.3999703276727
 20
115.396928471726
 30
0.0
 10
140.4392437492754
 20
115.7350087012624
 30
0.0
 10
140.4062720859912
 20
116.0548844672182
 30
0.0
 10
140.3161813343145
 20
116.3280438366861
 30
0.0
 10
140.2071736978484
 20
116.556250877813
 30
0.0
 10
140.1303571369397
 20
116.6812421177895
 30
0.0
 10
140.0918363073066
 20
116.743920870962
 30
0.0
  0
SPLINE
  5
22E
330
1F
100
AcDbEntity
  8
0
  6
Continuous
 62
     7
370
    15
100
AcDbSpline
210
0.0
220
0.0
230
1.0
 70
     8
 71
     3
 72
    10
 73
     6
 74
     0
 42
0.00000001
 43
0.00000001
 40
0.0
 40
0.0
 40
0.0
 40
0.0
 40
0.4118560980230498
 40
0.820801361716519
 40
0.9999999999999999
 40
0.9999999999999999
 40
0.9999999999999999
 40
0.9999999999999999
 10
140.0918363073051
 20
116.7439208709622
 30
0.0
 10
140.0843043039501
 20
116.8263370230641
 30
0.0
 10
140.06929353043
 20
116.990586842837
 30
0.0
 10
140.050897990758
 20
117.0982812650439
 30
0.0
 10
140.0409161964799
 20
117.0941813095417
 30
0.0
 10
140.037874893261
 20
117.0929321145054
 30
0.0
  0
SPLINE
  5
22F
330
1F
100
AcDbEntity
  8
0
  6
Continuous
 62
     7
370
    15
100
AcDbSpline
210
0.0
220
0.0
230
1.0
 70
     8
 71
     3
 72
    12
 73
     8
 74
     0
 42
0.00000001
 43
0.00000001
 40
0.0
 40
0.0
 40
0.0
 40
0.0
 40
0.2211778521099436
 40
0.4496703796859478
 40
0.6812258587863365
 40
0.9112396805931073
 40
1.0
 40
1.0
 40
1.0
 40
1.0
 10
146.0861194052697
 20
115.7802893972678
 30
0.0
 10
146.0794556261212
 20
115.9114330575854
 30
0.0
 10
146.0659076868891
 20
116.1780574911165
 30
0.0
 10
146.0433038518592
 20
116.4855931102775
 30
0.0
 10
146.0200488802603
 20
116.6992977337557
 30
0.0
 10
146.0014209875429
 20
116.8049986203009
 30
0.0
 10
145.9914698684578
 20
116.8014624460896
 30
0.0
 10
145.9886990524027
 20
116.8004778243406
 30
0.0
  0
SPLINE
  5
230
330
1F
100
AcDbEntity
  8
0
  6
Continuous
 62
     7
370
    15
100
AcDbSpline
210
0.0
220
0.0
230
1.0
 70
     8
 71
     3
 72
    24
 73
    20
 74
     0
 42
0.00000001
 43
0.00000001
 40
0.0
 40
0.0
 40
0.0
 40
0.0
 40
0.0177464779459657
 40
0.0793525422792588
 40
0.1430297378213681
 40
0.2079844926191506
 40
0.2729392474169332
 40
0.3366164429590423
 40
0.3982225072923355
 40
0.4612113985014432
 40
0.5258778471596042
 40
0.5909777197809123
 40
0.655216469379533
 40
0.7173987595803598
 40
0.7795810497811867
 40
0.8438197993798074
 40
0.9089196720011153
 40
0.9735861206592764
 40
1.0
 40
1.0
 40
1.0
 40
1.0
 10
145.6318880109335
 20
111.3260582168439
 30
0.0
 10
145.6298870817431
 20
111.3246189188317
 30
0.0
 10
145.6209400208864
 20
111.3181831653985
 30
0.0
 10
145.6064363944742
 20
111.4092118581617
 30
0.0
 10
145.584281399978
 20
111.6010331558849
 30
0.0
 10
145.5611249096774
 20
111.90129225497
 30
0.0
 10
145.5379356094568
 20
112.2852613906906
 30
0.0
 10
145.5158760737537
 20
112.7318192676498
 30
0.0
 10
145.4964446845877
 20
113.2230655404786
 30
0.0
 10
145.4751786085464
 20
113.7484019122974
 30
0.0
 10
145.4522495914343
 20
114.2958742385533
 30
0.0
 10
145.4289191487227
 20
114.8377404325268
 30
0.0
 10
145.4063351761021
 20
115.3422761004513
 30
0.0
 10
145.3861183703626
 20
115.7909100003809
 30
0.0
 10
145.3659078425172
 20
116.1751178038361
 30
0.0
 10
145.3433043232066
 20
116.4863653686618
 30
0.0
 10
145.3200468139742
 20
116.6992357662401
 30
0.0
 10
145.3012510477833
 20
116.8055675307694
 30
0.0
 10
145.291141000822
 20
116.8017157759357
 30
0.0
 10
145.2882090223538
 20
116.8005987423275
 30
0.0
  0
SPLINE
  5
231
330
1F
100
AcDbEntity
  8
0
  6
Continuous
 62
     7
370
    15
100
AcDbSpline
210
0.0
220
0.0
230
1.0
 70
     8
 71
     3
 72
    24
 73
    20
 74
     0
 42
0.00000001
 43
0.00000001
 40
0.0
 40
0.0
 40
0.0
 40
0.0
 40
0.0174774001759891
 40
0.0791580768469664
 40
0.1429123931152246
 40
0.2079458159167445
 40
0.2729792387182634
 40
0.3367335549865216
 40
0.3984142316574987
 40
0.4614794099736003
 40
0.5262241774621607
 40
0.5914028938423062
 40
0.6557194442764348
 40
0.7179770446936291
 40
0.7802346451108222
 40
0.8445511955449504
 40
0.9097299119250952
 40
0.9744746794136558
 40
1.0
 40
1.0
 40
1.0
 40
1.0
 10
144.9317905800813
 20
111.3260341751702
 30
0.0
 10
144.9298225554256
 20
111.3246299274503
 30
0.0
 10
144.9209090416667
 20
111.318269853995
 30
0.0
 10
144.9064370113391
 20
111.4092508629293
 30
0.0
 10
144.8842812286343
 20
111.6010223216869
 30
0.0
 10
144.8611249560072
 20
111.9012951845279
 30
0.0
 10
144.8379355973037
 20
112.2852606218967
 30
0.0
 10
144.8158760768552
 20
112.7318194650043
 30
0.0
 10
144.7964446837784
 20
113.2230654847663
 30
0.0
 10
144.7751786086556
 20
113.7484019367915
 30
0.0
 10
144.752249591852
 20
114.2958741972359
 30
0.0
 10
144.7289191469404
 20
114.8377405728225
 30
0.0
 10
144.7063351826227
 20
115.3422755952952
 30
0.0
 10
144.6861183468692
 20
115.7909118184217
 30
0.0
 10
144.6659079315243
 20
116.1751109165782
 30
0.0
 10
144.643303976787
 20
116.4863921739931
 30
0.0
 10
144.6200481210178
 20
116.6991346295596
 30
0.0
 10
144.6013580977788
 20
116.8052201934758
 30
0.0
 10
144.5913481609661
 20
116.8015580941429
 30
0.0
 10
144.5885176901907
 20
116.8005225766035
 30
0.0
  0
SPLINE
  5
232
330
1F
100
AcDbEntity
  8
0
  6
Continuous
 62
     7
370
    15
100
AcDbSpline
210
0.0
220
0.0
230
1.0
 70
     8
 71
     3
 72
    24
 73
    20
 74
     0
 42
0.00000001
 43
0.00000001
 40
0.0
 40
0.0
 40
0.0
 40
0.0
 40
0.016457228592438
 40
0.078231613447906
 40
0.1420827882714427
 40
0.2072150129070363
 40
0.2723472375426282
 40
0.3361984123661647
 40
0.3979727972216327
 40
0.4611337871222287
 40
0.5259769179061368
 40
0.5912546568571923
 40
0.655668920019183
 40
0.7180211051105537
 40
0.7803732902019224
 40
0.8447875533639124
 40
0.9100652923149672
 40
0.9749084230988756
 40
1.0
 40
1.0
 40
1.0
 40
1.0
 10
144.2314401371396
 20
111.3259477011772
 30
0.0
 10
144.22959042645
 20
111.324667102094
 30
0.0
 10
144.2207975819656
 20
111.3185796049253
 30
0.0
 10
144.2064392724505
 20
111.4093938344492
 30
0.0
 10
144.1842806005752
 20
111.6009826091005
 30
0.0
 10
144.1611251258307
 20
111.9013059226265
 30
0.0
 10
144.137935552749
 20
112.285257804492
 30
0.0
 10
144.1158760882513
 20
112.7318201862427
 30
0.0
 10
144.0964446807104
 20
113.2230652884102
 30
0.0
 10
144.0751786094493
 20
113.7484019961458
 30
0.0
 10
144.0522495918686
 20
114.2958741629748
 30
0.0
 10
144.0289191460646
 20
114.8377406493332
 30
0.0
 10
144.0063351860082
 20
115.3422753310804
 30
0.0
 10
143.9861183346252
 20
115.7909127664334
 30
0.0
 10
143.9659079779247
 20
116.175107326042
 30
0.0
 10
143.9433037961914
 20
116.4864061481948
 30
0.0
 10
143.9200488024072
 20
116.6990819048715
 30
0.0
 10
143.9014129547719
 20
116.8050428706198
 30
0.0
 10
143.8914543254577
 20
116.8014781019075
 30
0.0
 10
143.8886758907499
 20
116.8004835396236
 30
0.0
  0
SPLINE
  5
233
330
1F
100
AcDbEntity
  8
0
  6
Continuous
 62
     7
370
    15
100
AcDbSpline
210
0.0
220
0.0
230
1.0
 70
     8
 71
     3
 72
    24
 73
    20
 74
     0
 42
0.00000001
 43
0.00000001
 40
0.0
 40
0.0
 40
0.0
 40
0.0
 40
0.0145487419630127
 40
0.0764825048031612
 40
0.1404984157319083
 40
0.2057986815827136
 40
0.271098947433519
 40
0.335114858362266
 40
0.3970486212024144
 40
0.4603725665303196
 40
0.5253829926669679
 40
0.5908291482603396
 40
0.6554096002961078
 40
0.717922654097437
 40
0.7804357078987658
 40
0.8450161599345337
 40
0.9104623155279055
 40
0.9754727416645556
 40
1.0
 40
1.0
 40
1.0
 40
1.0
 10
143.5307886416951
 20
111.3257869405915
 30
0.0
 10
143.5291587171509
 20
111.3247256556974
 30
0.0
 10
143.5205902297793
 20
111.3191464979106
 30
0.0
 10
143.5064436606091
 20
111.4096713005271
 30
0.0
 10
143.4842793816955
 20
111.6009055385409
 30
0.0
 10
143.4611254554089
 20
111.9013267621325
 30
0.0
 10
143.4379354662805
 20
112.2852523367891
 30
0.0
 10
143.4158761103707
 20
112.7318215857432
 30
0.0
 10
143.3964446747464
 20
113.2230649081148
 30
0.0
 10
143.3751786110284
 20
113.7484021083345
 30
0.0
 10
143.3522495917514
 20
114.2958741080403
 30
0.0
 10
143.3289191449227
 20
114.8377407546511
 30
0.0
 10
143.3063351905556
 20
115.3422749748587
 30
0.0
 10
143.2861183181478
 20
115.7909140425723
 30
0.0
 10
143.2659080403766
 20
116.1751024933004
 30
0.0
 10
143.2433035531184
 20
116.4864249568435
 30
0.0
 10
143.220049719526
 20
116.6990109398491
 30
0.0
 10
143.201485786552
 20
116.8048081619588
 30
0.0
 10
143.1915952837535
 20
116.8013727694273
 30
0.0
 10
143.1888859561823
 20
116.8004317046611
 30
0.0
  0
SPLINE
  5
234
330
1F
100
AcDbEntity
  8
0
  6
Continuous
 62
     7
370
    15
100
AcDbSpline
210
0.0
220
0.0
230
1.0
 70
     8
 71
     3
 72
    24
 73
    20
 74
     0
 42
0.00000001
 43
0.00000001
 40
0.0
 40
0.0
 40
0.0
 40
0.0
 40
0.0154371044030826
 40
0.0773516250752014
 40
0.1413476469344299
 40
0.2066276246801649
 40
0.2719076024259001
 40
0.3359036242851284
 40
0.3978181449572472
 40
0.4611224162020608
 40
0.5261126442837869
 40
0.5915384664456818
 40
0.6560988540149535
 40
0.7185924856686506
 40
0.7810861173223476
 40
0.8456465048916191
 40
0.9110723270535138
 40
0.9760625551352412
 40
1.0
 40
1.0
 40
1.0
 40
1.0
 10
142.8310869019401
 20
111.325860538177
 30
0.0
 10
142.8293563851655
 20
111.3247006050418
 30
0.0
 10
142.8206851809525
 20
111.3188884584989
 30
0.0
 10
142.8064416209685
 20
111.4095423327566
 30
0.0
 10
142.7842799482378
 20
111.6009413613516
 30
0.0
 10
142.7611253022185
 20
111.9013170758653
 30
0.0
 10
142.737935506474
 20
112.2852548780195
 30
0.0
 10
142.7158761000807
 20
112.7318209359254
 30
0.0
 10
142.6964446775504
 20
113.2230650824156
 30
0.0
 10
142.6751786101711
 20
113.7484020657265
 30
0.0
 10
142.6522495922806
 20
114.2958740968414
 30
0.0
 10
142.6289191436802
 20
114.8377408429104
 30
0.0
 10
142.6063351948725
 20
115.3422746428472
 30
0.0
 10
142.5861183026515
 20
115.7909152411156
 30
0.0
 10
142.56590809907
 20
116.1750979518635
 30
0.0
 10
142.5433033246859
 20
116.4864426324875
 30
0.0
 10
142.520050581402
 20
116.698944249458
 30
0.0
 10
142.5015532036018
 20
116.8045916473786
 30
0.0
 10
142.4917257699651
 20
116.8012761719728
 30
0.0
 10
142.4890804331083
 20
116.8003837162603
 30
0.0
  0
SPLINE
  5
235
330
1F
100
AcDbEntity
  8
0
  6
Continuous
 62
     7
370
    15
100
AcDbSpline
210
0.0
220
0.0
230
1.0
 70
     8
 71
     3
 72
    24
 73
    20
 74
     0
 42
0.00000001
 43
0.00000001
 40
0.0
 40
0.0
 40
0.0
 40
0.0
 40
0.0165141107158247
 40
0.0783463061408757
 40
0.1422572350646552
 40
0.2074504126504575
 40
0.2726435902362598
 40
0.3365545191600388
 40
0.3983867145850893
 40
0.4616068126874139
 40
0.5265106258776775
 40
0.5918494539561875
 40
0.6563239981756321
 40
0.7187345345616908
 40
0.7811450709477472
 40
0.8456196151671911
 40
0.9109584432457003
 40
0.9758622564359651
 40
1.0
 40
1.0
 40
1.0
 40
1.0
 10
142.1314540119458
 20
111.3259511248726
 30
0.0
 10
142.1295996181069
 20
111.3246657036482
 30
0.0
 10
142.1208019958845
 20
111.3185674034427
 30
0.0
 10
142.1064391816448
 20
111.4093880927544
 30
0.0
 10
142.0842806257981
 20
111.6009842039324
 30
0.0
 10
142.0611251190099
 20
111.901305491445
 30
0.0
 10
142.0379355545411
 20
112.2852579174247
 30
0.0
 10
142.0158760877837
 20
112.7318201580465
 30
0.0
 10
141.9964446808698
 20
113.2230652935032
 30
0.0
 10
141.9751786092776
 20
113.7484020045781
 30
0.0
 10
141.9522495924062
 20
114.295874122696
 30
0.0
 10
141.9289191440889
 20
114.837740801858
 30
0.0
 10
141.9063351931645
 20
115.3422747774314
 30
0.0
 10
141.8861183088591
 20
115.7909147601421
 30
0.0
 10
141.865908075537
 20
116.1750997729863
 30
0.0
 10
141.8433034162818
 20
116.4864355449141
 30
0.0
 10
141.8200502358089
 20
116.6989709908442
 30
0.0
 10
141.8015262890004
 20
116.8046779986063
 30
0.0
 10
141.7916736756677
 20
116.8013146306158
 30
0.0
 10
141.7890027895922
 20
116.8004028752846
 30
0.0
  0
SPLINE
  5
236
330
1F
100
AcDbEntity
  8
0
  6
Continuous
 62
     7
370
    15
100
AcDbSpline
210
0.0
220
0.0
230
1.0
 70
     8
 71
     3
 72
    24
 73
    20
 74
     0
 42
0.00000001
 43
0.00000001
 40
0.0
 40
0.0
 40
0.0
 40
0.0
 40
0.0169825017348559
 40
0.078728238301886
 40
0.1425498017116026
 40
0.2076518208378668
 40
0.2727538399641309
 40
0.3365754033738467
 40
0.3983211399408763
 40
0.4614528385055763
 40
0.5262658978493844
 40
0.5915133638078655
 40
0.6558977544200137
 40
0.7182210232641809
 40
0.7805442921083473
 40
0.8449286827204946
 40
0.9101761486789745
 40
0.9749892080227834
 40
1.0
 40
1.0
 40
1.0
 40
1.0
 10
141.4316186364708
 20
111.3259917470063
 30
0.0
 10
141.4297086697253
 20
111.3246486459837
 30
0.0
 10
141.4208543607762
 20
111.318422238413
 30
0.0
 10
141.4064381123701
 20
111.4093204818256
 30
0.0
 10
141.3842809228057
 20
111.6010029839401
 30
0.0
 10
141.3611250387013
 20
111.9013004133812
 30
0.0
 10
141.337935575609
 20
112.2852592499171
 30
0.0
 10
141.3158760824014
 20
112.7318198164426
 30
0.0
 10
141.2964446822956
 20
113.2230653882919
 30
0.0
 10
141.275178608999
 20
113.7484019690257
 30
0.0
 10
141.2522495920259
 20
114.2958741677202
 30
0.0
 10
141.2289191458944
 20
114.8377406580136
 30
0.0
 10
141.2063351865177
 20
115.3422752928065
 30
0.0
 10
141.1861183328179
 20
115.7909129059787
 30
0.0
 10
141.1659079847641
 20
116.1751067969048
 30
0.0
 10
141.1433037695744
 20
116.4864082077495
 30
0.0
 10
141.1200489028329
 20
116.6990741341208
 30
0.0
 10
141.1014209856926
 20
116.805016949677
 30
0.0
 10
141.0914698680548
 20
116.8014664381968
 30
0.0
 10
141.0886990524027
 20
116.8004778243405
 30
0.0
  0
SPLINE
  5
237
330
1F
100
AcDbEntity
  8
0
  6
Continuous
 62
     7
370
    15
100
AcDbSpline
210
0.0
220
0.0
230
1.0
 70
     8
 71
     3
 72
    24
 73
    20
 74
     0
 42
0.00000001
 43
0.00000001
 40
0.0
 40
0.0
 40
0.0
 40
0.0
 40
0.0177464779459428
 40
0.0793525422792389
 40
0.143029737821351
 40
0.2079844926191396
 40
0.2729392474169247
 40
0.3366164429590363
 40
0.3982225072923319
 40
0.4612113985014427
 40
0.5258778471596072
 40
0.5909777197809191
 40
0.6552164693795438
 40
0.7173987595803741
 40
0.7795810497812036
 40
0.8438197993798277
 40
0.908919672001139
 40
0.9735861206593031
 40
1.0
 40
1.0
 40
1.0
 40
1.0
 10
140.7318880109335
 20
111.3260582168439
 30
0.0
 10
140.7298870817431
 20
111.3246189188317
 30
0.0
 10
140.7209400208864
 20
111.3181831653985
 30
0.0
 10
140.7064363944742
 20
111.4092118581616
 30
0.0
 10
140.684281399978
 20
111.6010331558849
 30
0.0
 10
140.6611249096774
 20
111.9012922549699
 30
0.0
 10
140.6379356094568
 20
112.2852613906906
 30
0.0
 10
140.6158760737537
 20
112.7318192676498
 30
0.0
 10
140.5964446845877
 20
113.2230655404785
 30
0.0
 10
140.5751786085463
 20
113.7484019122974
 30
0.0
 10
140.5522495914343
 20
114.2958742385532
 30
0.0
 10
140.5289191487227
 20
114.8377404325268
 30
0.0
 10
140.5063351761022
 20
115.3422761004512
 30
0.0
 10
140.4861183703626
 20
115.7909100003809
 30
0.0
 10
140.4659078425172
 20
116.1751178038361
 30
0.0
 10
140.4433043232065
 20
116.4863653686618
 30
0.0
 10
140.4200468139742
 20
116.6992357662401
 30
0.0
 10
140.4012510477833
 20
116.8055675307693
 30
0.0
 10
140.391141000822
 20
116.8017157759357
 30
0.0
 10
140.3882090223539
 20
116.8005987423275
 30
0.0
  0
SPLINE
  5
238
330
1F
100
AcDbEntity
  8
0
  6
Continuous
 62
     7
370
    15
100
AcDbSpline
210
0.0
220
0.0
230
1.0
 70
     8
 71
     3
 72
    23
 73
    19
 74
     0
 42
0.00000001
 43
0.00000001
 40
0.0
 40
0.0
 40
0.0
 40
0.0
 40
0.0181480445319802
 40
0.082195537621063
 40
0.1483962401907186
 40
0.2159251312834417
 40
0.283454022376161
 40
0.349654724945816
 40
0.4137022180348984
 40
0.4791873389895268
 40
0.5464164984619139
 40
0.6140962583513986
 40
0.6808807691864064
 40
0.7455273237910722
 40
0.810173878395738
 40
0.8769583892307456
 40
0.9446381491202298
 40
1.0
 40
1.0
 40
1.0
 40
1.0
 10
140.0317905800813
 20
111.3260341751702
 30
0.0
 10
140.0298225554255
 20
111.3246299274545
 30
0.0
 10
140.0209090416665
 20
111.3182698540181
 30
0.0
 10
140.0064370113436
 20
111.409250862523
 30
0.0
 10
139.9842812286171
 20
111.6010223232205
 30
0.0
 10
139.9611249560724
 20
111.9012951786971
 30
0.0
 10
139.9379355970626
 20
112.2852606434568
 30
0.0
 10
139.9158760777234
 20
112.7318193873854
 30
0.0
 10
139.8964446806237
 20
113.2230657667961
 30
0.0
 10
139.875178620874
 20
113.7484008444636
 30
0.0
 10
139.8522495447967
 20
114.2958784040201
 30
0.0
 10
139.8289193227113
 20
114.8377248587737
 30
0.0
 10
139.8063345452056
 20
115.3423325808559
 30
0.0
 10
139.7861206420734
 20
115.7907066254409
 30
0.0
 10
139.7658992363129
 20
116.1758882750055
 30
0.0
 10
139.7433378187984
 20
116.4833666727813
 30
0.0
 10
139.7212982751016
 20
116.6971827822889
 30
0.0
 10
139.707381276941
 20
116.7533262066075
 30
0.0
 10
139.7011194052697
 20
116.7785876109858
 30
0.0
  0
LINE
  5
239
330
1F
100
AcDbEntity
  8
0
  6
Continuous
 62
     7
370
    15
100
AcDbLine
 10
146.0861194053
 20
115.7802893973
 30
0.0
 11
146.0265317256
 21
115.811492689
 31
0.0
  0
SPLINE
  5
23A
330
1F
100
AcDbEntity
  8
0
  6
Continuous
 62
     7
370
    15
100
AcDbSpline
210
0.0
220
0.0
230
1.0
 70
     8
 71
     3
 72
    10
 73
     6
 74
     0
 42
0.00000001
 43
0.00000001
 40
0.0
 40
0.0
 40
0.0
 40
0.0
 40
0.3251256518847309
 40
0.6589804174378988
 40
1.0
 40
1.0
 40
1.0
 40
1.0
 10
146.02653172564
 20
115.8114926889602
 30
0.0
 10
146.0145382108204
 20
115.9169725397571
 30
0.0
 10
145.9902291741247
 20
116.1307642098591
 30
0.0
 10
145.8701487684997
 20
116.4443999681307
 30
0.0
 10
145.7516929904154
 20
116.6433764241771
 30
0.0
 10
145.6918363073051
 20
116.7439208709622
 30
0.0
  0
SPLINE
  5
23B
330
1F
100
AcDbEntity
  8
0
  6
Continuous
 62
     7
370
    15
100
AcDbSpline
210
0.0
220
0.0
230
1.0
 70
     8
 71
     3
 72
    14
 73
    10
 74
     0
 42
0.00000001
 43
0.00000001
 40
0.0
 40
0.0
 40
0.0
 40
0.0
 40
0.0984794925600765
 40
0.2900620801720319
 40
0.4564015861512384
 40
0.62269768275411
 40
0.7850661391833192
 40
0.8922181553436813
 40
0.9999999999999999
 40
0.9999999999999999
 40
0.9999999999999999
 40
0.9999999999999999
 10
140.0918363073051
 20
116.7439208709622
 30
0.0
 10
140.0610355743396
 20
116.6851457861692
 30
0.0
 10
139.9703149131892
 20
116.5120293035985
 30
0.0
 10
139.8722684828667
 20
116.2260569061953
 30
0.0
 10
139.8329950612639
 20
115.8879766766579
 30
0.0
 10
139.8659667245481
 20
115.5681009107013
 30
0.0
 10
139.9560574762249
 20
115.2949415412369
 30
0.0
 10
140.0650651126909
 20
115.066734500101
 30
0.0
 10
140.1418816735997
 20
114.9417432601271
 30
0.0
 10
140.1804025032328
 20
114.8790645069559
 30
0.0
  0
SPLINE
  5
23C
330
1F
100
AcDbEntity
  8
0
  6
Continuous
 62
     7
370
    15
100
AcDbSpline
210
0.0
220
0.0
230
1.0
 70
     8
 71
     3
 72
    14
 73
    10
 74
     0
 42
0.00000001
 43
0.00000001
 40
0.0
 40
0.0
 40
0.0
 40
0.0
 40
0.0984794925600726
 40
0.29006208017201
 40
0.4564015861512218
 40
0.6226976827540989
 40
0.7850661391833219
 40
0.8922181553436833
 40
1.0
 40
1.0
 40
1.0
 40
1.0
 10
140.7918363073051
 20
116.7439208709622
 30
0.0
 10
140.7610355743396
 20
116.6851457861692
 30
0.0
 10
140.6703149131892
 20
116.5120293035985
 30
0.0
 10
140.5722684828667
 20
116.2260569061953
 30
0.0
 10
140.5329950612639
 20
115.8879766766579
 30
0.0
 10
140.5659667245481
 20
115.5681009107013
 30
0.0
 10
140.6560574762249
 20
115.2949415412369
 30
0.0
 10
140.7650651126909
 20
115.066734500101
 30
0.0
 10
140.8418816735997
 20
114.9417432601271
 30
0.0
 10
140.8804025032327
 20
114.8790645069559
 30
0.0
  0
SPLINE
  5
23D
330
1F
100
AcDbEntity
  8
0
  6
Continuous
 62
     7
370
    15
100
AcDbSpline
210
0.0
220
0.0
230
1.0
 70
     8
 71
     3
 72
    14
 73
    10
 74
     0
 42
0.00000001
 43
0.00000001
 40
0.0
 40
0.0
 40
0.0
 40
0.0
 40
0.0984794925600747
 40
0.2900620801720147
 40
0.4564015861512251
 40
0.6226976827541004
 40
0.7850661391833154
 40
0.8922181553436754
 40
1.0
 40
1.0
 40
1.0
 40
1.0
 10
141.4918363073051
 20
116.7439208709622
 30
0.0
 10
141.4610355743396
 20
116.6851457861692
 30
0.0
 10
141.3703149131892
 20
116.5120293035985
 30
0.0
 10
141.2722684828667
 20
116.2260569061953
 30
0.0
 10
141.232995061264
 20
115.8879766766579
 30
0.0
 10
141.2659667245481
 20
115.5681009107013
 30
0.0
 10
141.3560574762249
 20
115.2949415412369
 30
0.0
 10
141.465065112691
 20
115.066734500101
 30
0.0
 10
141.5418816735997
 20
114.9417432601271
 30
0.0
 10
141.5804025032328
 20
114.8790645069559
 30
0.0
  0
SPLINE
  5
23E
330
1F
100
AcDbEntity
  8
0
  6
Continuous
 62
     7
370
    15
100
AcDbSpline
210
0.0
220
0.0
230
1.0
 70
     8
 71
     3
 72
    14
 73
    10
 74
     0
 42
0.00000001
 43
0.00000001
 40
0.0
 40
0.0
 40
0.0
 40
0.0
 40
0.0984794925600703
 40
0.2900620801720219
 40
0.4564015861512283
 40
0.6226976827540993
 40
0.7850661391833136
 40
0.892218155343674
 40
1.0
 40
1.0
 40
1.0
 40
1.0
 10
142.1918363073051
 20
116.7439208709622
 30
0.0
 10
142.1610355743396
 20
116.6851457861692
 30
0.0
 10
142.0703149131892
 20
116.5120293035985
 30
0.0
 10
141.9722684828668
 20
116.2260569061953
 30
0.0
 10
141.9329950612639
 20
115.8879766766579
 30
0.0
 10
141.9659667245481
 20
115.5681009107013
 30
0.0
 10
142.0560574762249
 20
115.2949415412369
 30
0.0
 10
142.1650651126909
 20
115.066734500101
 30
0.0
 10
142.2418816735997
 20
114.9417432601271
 30
0.0
 10
142.2804025032328
 20
114.8790645069559
 30
0.0
  0
SPLINE
  5
23F
330
1F
100
AcDbEntity
  8
0
  6
Continuous
 62
     7
370
    15
100
AcDbSpline
210
0.0
220
0.0
230
1.0
 70
     8
 71
     3
 72
    14
 73
    10
 74
     0
 42
0.00000001
 43
0.00000001
 40
0.0
 40
0.0
 40
0.0
 40
0.0
 40
0.0984794925600675
 40
0.2900620801720106
 40
0.456401586151223
 40
0.6226976827541006
 40
0.785066139183318
 40
0.8922181553436809
 40
1.0
 40
1.0
 40
1.0
 40
1.0
 10
142.8918363073051
 20
116.7439208709622
 30
0.0
 10
142.8610355743396
 20
116.6851457861692
 30
0.0
 10
142.7703149131892
 20
116.5120293035985
 30
0.0
 10
142.6722684828667
 20
116.2260569061953
 30
0.0
 10
142.6329950612639
 20
115.8879766766579
 30
0.0
 10
142.6659667245481
 20
115.5681009107013
 30
0.0
 10
142.7560574762249
 20
115.2949415412369
 30
0.0
 10
142.865065112691
 20
115.066734500101
 30
0.0
 10
142.9418816735997
 20
114.9417432601271
 30
0.0
 10
142.9804025032327
 20
114.8790645069559
 30
0.0
  0
SPLINE
  5
240
330
1F
100
AcDbEntity
  8
0
  6
Continuous
 62
     7
370
    15
100
AcDbSpline
210
0.0
220
0.0
230
1.0
 70
     8
 71
     3
 72
    14
 73
    10
 74
     0
 42
0.00000001
 43
0.00000001
 40
0.0
 40
0.0
 40
0.0
 40
0.0
 40
0.0984794925600669
 40
0.2900620801720205
 40
0.4564015861512291
 40
0.6226976827541026
 40
0.785066139183317
 40
0.8922181553436769
 40
1.0
 40
1.0
 40
1.0
 40
1.0
 10
143.5918363073051
 20
116.7439208709622
 30
0.0
 10
143.5610355743396
 20
116.6851457861692
 30
0.0
 10
143.4703149131892
 20
116.5120293035985
 30
0.0
 10
143.3722684828667
 20
116.2260569061953
 30
0.0
 10
143.3329950612639
 20
115.8879766766579
 30
0.0
 10
143.3659667245481
 20
115.5681009107013
 30
0.0
 10
143.4560574762249
 20
115.2949415412369
 30
0.0
 10
143.5650651126909
 20
115.066734500101
 30
0.0
 10
143.6418816735996
 20
114.9417432601271
 30
0.0
 10
143.6804025032328
 20
114.8790645069559
 30
0.0
  0
SPLINE
  5
241
330
1F
100
AcDbEntity
  8
0
  6
Continuous
 62
     7
370
    15
100
AcDbSpline
210
0.0
220
0.0
230
1.0
 70
     8
 71
     3
 72
    14
 73
    10
 74
     0
 42
0.00000001
 43
0.00000001
 40
0.0
 40
0.0
 40
0.0
 40
0.0
 40
0.0984794925600636
 40
0.2900620801720165
 40
0.456401586151227
 40
0.6226976827541026
 40
0.7850661391833205
 40
0.892218155343677
 40
0.9999999999999999
 40
0.9999999999999999
 40
0.9999999999999999
 40
0.9999999999999999
 10
144.2918363073051
 20
116.7439208709622
 30
0.0
 10
144.2610355743396
 20
116.6851457861692
 30
0.0
 10
144.1703149131891
 20
116.5120293035985
 30
0.0
 10
144.0722684828667
 20
116.2260569061953
 30
0.0
 10
144.0329950612639
 20
115.8879766766579
 30
0.0
 10
144.0659667245481
 20
115.5681009107013
 30
0.0
 10
144.1560574762249
 20
115.2949415412369
 30
0.0
 10
144.2650651126909
 20
115.066734500101
 30
0.0
 10
144.3418816735997
 20
114.9417432601271
 30
0.0
 10
144.3804025032327
 20
114.8790645069559
 30
0.0
  0
SPLINE
  5
242
330
1F
100
AcDbEntity
  8
0
  6
Continuous
 62
     7
370
    15
100
AcDbSpline
210
0.0
220
0.0
230
1.0
 70
     8
 71
     3
 72
    14
 73
    10
 74
     0
 42
0.00000001
 43
0.00000001
 40
0.0
 40
0.0
 40
0.0
 40
0.0
 40
0.0984794925600726
 40
0.2900620801720178
 40
0.4564015861512275
 40
0.6226976827541024
 40
0.7850661391833175
 40
0.8922181553436791
 40
0.9999999999999999
 40
0.9999999999999999
 40
0.9999999999999999
 40
0.9999999999999999
 10
144.9918363073051
 20
116.7439208709622
 30
0.0
 10
144.9610355743396
 20
116.6851457861692
 30
0.0
 10
144.8703149131892
 20
116.5120293035985
 30
0.0
 10
144.7722684828667
 20
116.2260569061953
 30
0.0
 10
144.7329950612639
 20
115.8879766766579
 30
0.0
 10
144.7659667245481
 20
115.5681009107013
 30
0.0
 10
144.8560574762249
 20
115.2949415412369
 30
0.0
 10
144.965065112691
 20
115.066734500101
 30
0.0
 10
145.0418816735996
 20
114.9417432601271
 30
0.0
 10
145.0804025032327
 20
114.8790645069559
 30
0.0
  0
SPLINE
  5
243
330
1F
100
AcDbEntity
  8
0
  6
Continuous
 62
     7
370
    15
100
AcDbSpline
210
0.0
220
0.0
230
1.0
 70
     8
 71
     3
 72
    14
 73
    10
 74
     0
 42
0.00000001
 43
0.00000001
 40
0.0
 40
0.0
 40
0.0
 40
0.0
 40
0.1005820895723138
 40
0.2962550818547083
 40
0.466146037371258
 40
0.6359926566949079
 40
0.8018277783403631
 40
0.9112675551621363
 40
1.0
 40
1.0
 40
1.0
 40
1.0
 10
145.6918363073051
 20
116.7439208709622
 30
0.0
 10
145.661035560549
 20
116.6851457785908
 30
0.0
 10
145.5703148587797
 20
116.5120292736987
 30
0.0
 10
145.4722689292875
 20
116.2260571515179
 30
0.0
 10
145.432993659239
 20
115.8879759062
 30
0.0
 10
145.4659719213877
 20
115.5681037665323
 30
0.0
 10
145.5560412943885
 20
115.294932648796
 30
0.0
 10
145.6590607503154
 20
115.0793975460669
 30
0.0
 10
145.7270169192702
 20
114.9660697916163
 30
0.0
 10
145.757444579427
 20
114.9153268134321
 30
0.0
  0
SPLINE
  5
244
330
1F
100
AcDbEntity
  8
0
  6
Continuous
 62
     7
370
    15
100
AcDbSpline
210
0.0
220
0.0
230
1.0
 70
     8
 71
     3
 72
    19
 73
    15
 74
     0
 42
0.00000001
 43
0.00000001
 40
0.0
 40
0.0
 40
0.0
 40
0.0
 40
0.0720532855852185
 40
0.145400773479707
 40
0.2360915050802811
 40
0.3294123280734799
 40
0.4201068114372331
 40
0.5135079498440912
 40
0.6029607030182829
 40
0.6950217909043558
 40
0.784242876251614
 40
0.8760514163965725
 40
0.9652743403965378
 40
1.0
 40
1.0
 40
1.0
 40
1.0
 10
145.757444579427
 20
114.9153268134321
 30
0.0
 10
145.7599978735369
 20
114.7858611172561
 30
0.0
 10
145.7651503233589
 20
114.5246042958609
 30
0.0
 10
145.7735802218715
 20
114.0884229878615
 30
0.0
 10
145.7826095068972
 20
113.6136646229354
 30
0.0
 10
145.7917567804751
 20
113.1205128715493
 30
0.0
 10
145.8003497222789
 20
112.6510669534816
 30
0.0
 10
145.8097991950762
 20
112.2300143807774
 30
0.0
 10
145.8196355214326
 20
111.8611407276243
 30
0.0
 10
145.829493009538
 20
111.5615125737245
 30
0.0
 10
145.8392626866104
 20
111.330329396723
 30
0.0
 10
145.8486013300141
 20
111.1852121382399
 30
0.0
 10
145.85525261464
 20
111.1184121298245
 30
0.0
 10
145.859554451433
 20
111.1316406731975
 30
0.0
 10
145.8607596618178
 20
111.1353468058605
 30
0.0
  0
SPLINE
  5
245
330
1F
100
AcDbEntity
  8
0
  6
Continuous
 62
     7
370
    15
100
AcDbSpline
210
0.0
220
0.0
230
1.0
 70
     8
 71
     3
 72
    13
 73
     9
 74
     0
 42
0.00000001
 43
0.00000001
 40
0.0
 40
0.0
 40
0.0
 40
0.0
 40
0.0215645573077834
 40
0.2088767511744718
 40
0.4017243772034113
 40
0.5873672674826111
 40
0.778393743955542
 40
1.0
 40
1.0
 40
1.0
 40
1.0
 10
146.0357181476041
 20
116.8522840318928
 30
0.0
 10
146.0360537740254
 20
116.8533437429811
 30
0.0
 10
146.03930468966
 20
116.8636082249343
 30
0.0
 10
146.0461851775389
 20
116.8064837179739
 30
0.0
 10
146.0559538989438
 20
116.6788924053558
 30
0.0
 10
146.0658956107073
 20
116.4664593058833
 30
0.0
 10
146.0761508689789
 20
116.1778592234932
 30
0.0
 10
146.082636349126
 20
115.9192022712711
 30
0.0
 10
146.0861194052697
 20
115.7802893972678
 30
0.0
  0
LINE
  5
246
330
1F
100
AcDbEntity
  8
0
  6
Continuous
 62
     7
370
    15
100
AcDbLine
 10
146.0861194053
 20
115.7802893973
 30
0.0
 11
146.0861194053
 21
111.3141083542
 31
0.0
  0
LINE
  5
247
330
1F
100
AcDbEntity
  8
0
  6
Continuous
 62
     7
370
    15
100
AcDbLine
 10
146.0861194053
 20
116.8141083542
 30
0.0
 11
146.0861194053
 21
115.7802893973
 31
0.0
  0
SPLINE
  5
248
330
1F
100
AcDbEntity
  8
0
  6
Continuous
 62
     7
370
    15
100
AcDbSpline
210
0.0
220
0.0
230
1.0
 70
     8
 71
     3
 72
    10
 73
     6
 74
     0
 42
0.00000001
 43
0.00000001
 40
0.0
 40
0.0
 40
0.0
 40
0.0
 40
0.3899316779151088
 40
0.6927364003897307
 40
1.0
 40
1.0
 40
1.0
 40
1.0
 10
146.02653172564
 20
115.8114926889602
 30
0.0
 10
146.0175522055412
 20
115.6909193130926
 30
0.0
 10
146.0015995636228
 20
115.476713668586
 30
0.0
 10
145.8972445488647
 20
115.1768718376153
 30
0.0
 10
145.8042710779047
 20
115.0029322523033
 30
0.0
 10
145.757444579427
 20
114.9153268134321
 30
0.0
  0
LINE
  5
249
330
1F
100
AcDbEntity
  8
0
  6
Continuous
 62
     7
370
    15
100
AcDbLine
 10
146.7161194053
 20
116.6041083542
 30
0.0
 11
146.7161194053
 21
111.5241083542
 31
0.0
  0
LINE
  5
24A
330
1F
100
AcDbEntity
  8
0
  6
Continuous
 62
     7
370
    15
100
AcDbLine
 10
129.7281194053
 20
110.1209165269
 30
0.0
 11
129.7281194053
 21
122.9541083542
 31
0.0
  0
LINE
  5
24B
330
1F
100
AcDbEntity
  8
0
  6
Continuous
 62
     7
370
    15
100
AcDbLine
 10
129.7281194053
 20
105.1741083542
 30
0.0
 11
129.7281194053
 21
110.1209165269
 31
0.0
  0
LINE
  5
24C
330
1F
100
AcDbEntity
  8
0
  6
Continuous
 62
     7
370
    15
100
AcDbLine
 10
125.9181194053
 20
110.1209165269
 30
0.0
 11
125.9181194053
 21
122.9541083542
 31
0.0
  0
LINE
  5
24D
330
1F
100
AcDbEntity
  8
0
  6
Continuous
 62
     7
370
    15
100
AcDbLine
 10
125.9181194053
 20
105.1741083542
 30
0.0
 11
125.9181194053
 21
110.1209165269
 31
0.0
  0
LINE
  5
24E
330
1F
100
AcDbEntity
  8
0
  6
Continuous
 62
     7
370
    15
100
AcDbLine
 10
137.2211194053
 20
110.4870700537
 30
0.0
 11
137.2211194053
 21
122.1286083542
 31
0.0
  0
LINE
  5
24F
330
1F
100
AcDbEntity
  8
0
  6
Continuous
 62
     7
370
    15
100
AcDbLine
 10
137.2211194053
 20
105.9996083542
 30
0.0
 11
137.2211194053
 21
110.4870700537
 31
0.0
  0
LINE
  5
250
330
1F
100
AcDbEntity
  8
0
  6
Continuous
 62
     7
370
    15
100
AcDbLine
 10
77.7851194053
 20
105.6642831622
 30
0.0
 11
77.7851194053
 21
117.7365634663
 31
0.0
  0
LINE
  5
251
330
1F
100
AcDbEntity
  8
0
  6
Continuous
 62
     7
370
    15
100
AcDbLine
 10
75.6261194053
 20
105.6642831622
 30
0.0
 11
75.6261194053
 21
117.8543593671
 31
0.0
  0
LINE
  5
252
330
1F
100
AcDbEntity
  8
0
  6
Continuous
 62
     7
370
    15
100
AcDbLine
 10
77.7851194053
 20
105.6642831622
 30
0.0
 11
75.6261194053
 21
105.6642831622
 31
0.0
  0
LINE
  5
253
330
1F
100
AcDbEntity
  8
0
  6
Continuous
 62
     7
370
    15
100
AcDbLine
 10
79.3091194053
 20
105.1741083542
 30
0.0
 11
79.3091194053
 21
122.9541083542
 31
0.0
  0
LINE
  5
254
330
1F
100
AcDbEntity
  8
0
  6
Continuous
 62
     7
370
    15
100
AcDbLine
 10
72.1971194053
 20
105.1741083542
 30
0.0
 11
72.1971194053
 21
122.9541083542
 31
0.0
  0
SPLINE
  5
255
330
1F
100
AcDbEntity
  8
0
  6
Continuous
 62
     7
370
    15
100
AcDbSpline
210
0.0
220
0.0
230
1.0
 70
     8
 71
     3
 72
    23
 73
    19
 74
     0
 42
0.00000001
 43
0.00000001
 40
0.0
 40
0.0
 40
0.0
 40
0.0
 40
0.0147972561668423
 40
0.0818728747092343
 40
0.1491089516207131
 40
0.2160830023370587
 40
0.2827836790659084
 40
0.3496209303308597
 40
0.4167934254509847
 40
0.4839802174556469
 40
0.5508331017354023
 40
0.6175267703843502
 40
0.6844828656782144
 40
0.751714216361559
 40
0.8188049593553436
 40
0.8855606088415949
 40
0.9523070368456703
 40
1.0
 40
1.0
 40
1.0
 40
1.0
 10
76.1735957605107
 20
121.7373878421737
 30
0.0
 10
76.15263111401917
 20
121.7429545883068
 30
0.0
 10
76.03663421187929
 20
121.7737552653751
 30
0.0
 10
75.8857781657376
 20
121.8709240215778
 30
0.0
 10
75.75712219519087
 20
122.0084675298348
 30
0.0
 10
75.74011660672646
 20
122.1501311210628
 30
0.0
 10
75.83006415381188
 20
122.274597357809
 30
0.0
 10
76.01815314876548
 20
122.3724054061058
 30
0.0
 10
76.2838570783158
 20
122.4373907233123
 30
0.0
 10
76.59751758635161
 20
122.4670983813243
 30
0.0
 10
76.92267705594361
 20
122.461019207088
 30
0.0
 10
77.22283148736847
 20
122.4195215936203
 30
0.0
 10
77.46552449901245
 20
122.3433362321535
 30
0.0
 10
77.62317960649172
 20
122.2354417394053
 30
0.0
 10
77.67797161042094
 20
122.1031400885005
 30
0.0
 10
77.62108600052983
 20
121.9617158695104
 30
0.0
 10
77.48544811249268
 20
121.8357957927443
 30
0.0
 10
77.34174922816366
 20
121.778409738071
 30
0.0
 10
77.281862282539
 20
121.7544939258371
 30
0.0
  0
SPLINE
  5
256
330
1F
100
AcDbEntity
  8
0
  6
Continuous
 62
     7
370
    15
100
AcDbSpline
210
0.0
220
0.0
230
1.0
 70
    11
 71
     3
 72
    45
 73
    41
 74
     0
 42
0.00000001
 43
0.00000001
 40
0.0
 40
0.0
 40
0.0
 40
0.0
 40
0.0263574326286482
 40
0.0534819536593043
 40
0.0798386129566303
 40
0.1069543982923338
 40
0.1334063537719204
 40
0.1606215063907187
 40
0.1871332562966938
 40
0.2144195054381439
 40
0.2408276043363956
 40
0.2680079119662145
 40
0.2943114937466053
 40
0.3213751505123657
 40
0.3477343814450044
 40
0.3748505088363266
 40
0.4013395061670835
 40
0.4285959920457569
 40
0.4550876448291626
 40
0.4823549862320828
 40
0.5087161856448723
 40
0.5358457609347269
 40
0.5621476396431807
 40
0.5892066557516312
 40
0.6156123486173964
 40
0.6427774563070432
 40
0.6692883856999982
 40
0.6965709501654951
 40
0.723024631042492
 40
0.750253097595829
 40
0.776577160424683
 40
0.8036651807405802
 40
0.8299884715032104
 40
0.8570679009201773
 40
0.8835199375866896
 40
0.9107351751164136
 40
0.9372470253470315
 40
0.9645334013118828
 40
0.9821552392638735
 40
1.0
 40
1.0
 40
1.0
 40
1.0
 10
76.70561940526908
 20
105.1822295058048
 30
0.0
 10
76.652933646984
 20
105.1821188467501
 30
0.0
 10
76.54602880071891
 20
105.1818943080966
 30
0.0
 10
76.39090420586123
 20
105.1802075700358
 30
0.0
 10
76.24335958791764
 20
105.1779515276274
 30
0.0
 10
76.11000838710434
 20
105.1756600396171
 30
0.0
 10
75.99220038862234
 20
105.1740741972676
 30
0.0
 10
75.89533357418314
 20
105.173984759009
 30
0.0
 10
75.82059020669317
 20
105.1761221283659
 30
0.0
 10
75.77159937543249
 20
105.1809823147753
 30
0.0
 10
75.74885622505786
 20
105.1889367704088
 30
0.0
 10
75.75331473483142
 20
105.1997870611096
 30
0.0
 10
75.78476609146789
 20
105.2133742637312
 30
0.0
 10
75.84163454029527
 20
105.2287960957861
 30
0.0
 10
75.92341275307466
 20
105.2454313294893
 30
0.0
 10
76.02654930746256
 20
105.261924876523
 30
0.0
 10
76.15009004714116
 20
105.2773707316026
 30
0.0
 10
76.28848503067728
 20
105.290332452415
 30
0.0
 10
76.44014761201196
 20
105.2999835448257
 30
0.0
 10
76.59779120016651
 20
105.3053673566066
 30
0.0
 10
76.75970961693653
 20
105.3061540101442
 30
0.0
 10
76.91823178341178
 20
105.3022956076282
 30
0.0
 10
77.07199053170233
 20
105.2940585256544
 30
0.0
 10
77.21412102514164
 20
105.2822426697975
 30
0.0
 10
77.34330377573465
 20
105.2675551515221
 30
0.0
 10
77.45371721614204
 20
105.2513301145909
 30
0.0
 10
77.54401099542008
 20
105.2344861091253
 30
0.0
 10
77.60984142150446
 20
105.2184804199609
 30
0.0
 10
77.65042640025784
 20
105.2040586352726
 30
0.0
 10
77.66388135029848
 20
105.1922575144195
 30
0.0
 10
77.65023432751033
 20
105.1833015155924
 30
0.0
 10
77.61029555988536
 20
105.1774682805171
 30
0.0
 10
77.54448915615254
 20
105.1744444512632
 30
0.0
 10
77.45573617120675
 20
105.173835874577
 30
0.0
 10
77.3448006234025
 20
105.1749787376866
 30
0.0
 10
77.21654632132727
 20
105.1771088743009
 30
0.0
 10
77.07239267860908
 20
105.1794874438613
 30
0.0
 10
76.93587610117774
 20
105.1811703155462
 30
0.0
 10
76.81212371161753
 20
105.1820795871766
 30
0.0
 10
76.7412692908597
 20
105.1821793239659
 30
0.0
 10
76.70561940526908
 20
105.1822295058048
 30
0.0
  0
LINE
  5
257
330
1F
100
AcDbEntity
  8
0
  6
Continuous
 62
     7
370
    15
100
AcDbLine
 10
75.6261194053
 20
115.5082479337
 30
0.0
 11
75.8282040341
 21
115.5082479337
 31
0.0
  0
LINE
  5
258
330
1F
100
AcDbEntity
  8
0
  6
Continuous
 62
     7
370
    15
100
AcDbLine
 10
77.697201234
 20
115.5082479337
 30
0.0
 11
77.7851194053
 21
115.5082479337
 31
0.0
  0
LINE
  5
259
330
1F
100
AcDbEntity
  8
0
  6
Continuous
 62
     7
370
    15
100
AcDbLine
 10
120.3301194053
 20
121.5114392344
 30
0.0
 11
120.3301194053
 21
107.4050441423
 31
0.0
  0
LINE
  5
25A
330
1F
100
AcDbEntity
  8
0
  6
Continuous
 62
     7
370
    15
100
AcDbLine
 10
122.4891194053
 20
121.5114392344
 30
0.0
 11
122.4891194053
 21
107.3013757126
 31
0.0
  0
LINE
  5
25B
330
1F
100
AcDbEntity
  8
0
  6
Continuous
 62
     7
370
    15
100
AcDbLine
 10
120.3301194053
 20
121.5114392344
 30
0.0
 11
122.4891194053
 21
121.5114392344
 31
0.0
  0
LINE
  5
25C
330
1F
100
AcDbEntity
  8
0
  6
Continuous
 62
     7
370
    15
100
AcDbLine
 10
118.8061194053
 20
122.9541083542
 30
0.0
 11
118.8061194053
 21
105.1741083542
 31
0.0
  0
LINE
  5
25D
330
1F
100
AcDbEntity
  8
0
  6
Continuous
 62
     7
370
    15
100
AcDbLine
 10
125.9181194053
 20
122.9541083542
 30
0.0
 11
125.9181194053
 21
105.1741083542
 31
0.0
  0
SPLINE
  5
25E
330
1F
100
AcDbEntity
  8
0
  6
Continuous
 62
     7
370
    15
100
AcDbSpline
210
0.0
220
0.0
230
1.0
 70
    11
 71
     3
 72
    45
 73
    41
 74
     0
 42
0.00000001
 43
0.00000001
 40
0.0
 40
0.0
 40
0.0
 40
0.0
 40
0.0263574326286482
 40
0.0534819536593043
 40
0.0798386129566305
 40
0.1069543982923338
 40
0.1334063537719204
 40
0.1606215063907186
 40
0.1871332562966938
 40
0.2144195054381439
 40
0.2408276043363954
 40
0.2680079119662144
 40
0.2943114937466051
 40
0.3213751505123656
 40
0.3477343814450042
 40
0.3748505088363265
 40
0.4013395061670833
 40
0.4285959920457569
 40
0.4550876448291626
 40
0.4823549862320828
 40
0.5087161856448723
 40
0.535845760934727
 40
0.5621476396431809
 40
0.5892066557516313
 40
0.6156123486173962
 40
0.6427774563070433
 40
0.6692883856999983
 40
0.696570950165495
 40
0.7230246310424918
 40
0.7502530975958287
 40
0.7765771604246832
 40
0.8036651807405805
 40
0.8299884715032105
 40
0.8570679009201773
 40
0.8835199375866895
 40
0.9107351751164136
 40
0.9372470253470313
 40
0.9645334013118828
 40
0.9821552392638735
 40
1.0
 40
1.0
 40
1.0
 40
1.0
 10
121.4096194052702
 20
122.7745401815521
 30
0.0
 10
121.4623051635553
 20
122.7740328847041
 30
0.0
 10
121.5692100098204
 20
122.7730035269933
 30
0.0
 10
121.724334604678
 20
122.7646104961285
 30
0.0
 10
121.8718792226216
 20
122.750946227734
 30
0.0
 10
122.0052304234349
 20
122.731625288402
 30
0.0
 10
122.1230384219169
 20
122.7062923227359
 30
0.0
 10
122.2199052363561
 20
122.6753365185092
 30
0.0
 10
122.2946486038461
 20
122.6383987530398
 30
0.0
 10
122.3436394351068
 20
122.5966521572315
 30
0.0
 10
122.3663825854814
 20
122.5501662865369
 30
0.0
 10
122.3619240757078
 20
122.5009994404916
 30
0.0
 10
122.3304727190714
 20
122.4496610757087
 30
0.0
 10
122.273604270244
 20
122.3987559727802
 30
0.0
 10
122.1918260574646
 20
122.3491901391842
 30
0.0
 10
122.0886895030767
 20
122.3037541661431
 30
0.0
 10
121.9651487633981
 20
122.263647949938
 30
0.0
 10
121.826753779862
 20
122.231438118971
 30
0.0
 10
121.6750911985273
 20
122.2081657768641
 30
0.0
 10
121.5174476103727
 20
122.1954216921966
 30
0.0
 10
121.3555291936027
 20
122.1935724255183
 30
0.0
 10
121.1970070271275
 20
122.2026731356213
 30
0.0
 10
121.0432482788369
 20
122.222388127825
 30
0.0
 10
120.9011177853976
 20
122.2514034062035
 30
0.0
 10
120.7719350348046
 20
122.28889598996
 30
0.0
 10
120.6615215943972
 20
122.332576196606
 30
0.0
 10
120.5712278151192
 20
122.3812816613171
 30
0.0
 10
120.5053973890348
 20
122.4321148324837
 30
0.0
 10
120.4648124102814
 20
122.4839495730193
 30
0.0
 10
120.4513574602408
 20
122.5339571056019
 30
0.0
 10
120.4650044830289
 20
122.5815356791426
 30
0.0
 10
120.5049432506539
 20
122.6246091945777
 30
0.0
 10
120.5707496543867
 20
122.6631610905091
 30
0.0
 10
120.6595026393325
 20
122.6959868098684
 30
0.0
 10
120.7704381871368
 20
122.723391988446
 30
0.0
 10
120.898692489212
 20
122.7447853903061
 30
0.0
 10
121.0428461319302
 20
122.7606073345673
 30
0.0
 10
121.1793627093615
 20
122.7694675555711
 30
0.0
 10
121.3031150989217
 20
122.773845959209
 30
0.0
 10
121.3739695196796
 20
122.7743078064683
 30
0.0
 10
121.4096194052702
 20
122.7745401815521
 30
0.0
  0
LINE
  5
25F
330
1F
100
AcDbEntity
  8
0
  6
Continuous
 62
     7
370
    15
100
AcDbLine
 10
122.4891194053
 20
111.5017921442
 30
0.0
 11
122.2870347764
 21
111.5017921442
 31
0.0
  0
LINE
  5
260
330
1F
100
AcDbEntity
  8
0
  6
Continuous
 62
     7
370
    15
100
AcDbLine
 10
120.4180375766
 20
111.5017921442
 30
0.0
 11
120.3301194053
 21
111.5017921442
 31
0.0
  0
LINE
  5
261
330
1F
100
AcDbEntity
  8
0
  6
Continuous
 62
     7
370
    15
100
AcDbLine
 10
75.6261194053
 20
113.3160521203
 30
0.0
 11
77.7851194053
 21
113.3160521203
 31
0.0
  0
LINE
  5
262
330
1F
100
AcDbEntity
  8
0
  6
Continuous
 62
     7
370
    15
100
AcDbLine
 10
122.4891194053
 20
113.5757293739
 30
0.0
 11
120.3301194053
 21
113.5757293739
 31
0.0
  0
LINE
  5
263
330
1F
100
AcDbEntity
  8
0
  6
Continuous
 62
     7
370
    15
100
AcDbLine
 10
121.9134463083
 20
112.3325565764
 30
0.0
 11
121.8975164735
 21
112.3325565764
 31
0.0
  0
LINE
  5
264
330
1F
100
AcDbEntity
  8
0
  6
Continuous
 62
     7
370
    15
100
AcDbLine
 10
121.9134463083
 20
112.3325565764
 30
0.0
 11
121.9134463083
 21
112.3841342437
 31
0.0
  0
LINE
  5
265
330
1F
100
AcDbEntity
  8
0
  6
Continuous
 62
     7
370
    15
100
AcDbLine
 10
121.9134463083
 20
112.5646925911
 30
0.0
 11
121.9134463083
 21
112.6518443299
 31
0.0
  0
LINE
  5
266
330
1F
100
AcDbEntity
  8
0
  6
Continuous
 62
     7
370
    15
100
AcDbLine
 10
121.8819615931
 20
112.6518443299
 30
0.0
 11
121.9134463083
 21
112.6518443299
 31
0.0
  0
LINE
  5
267
330
1F
100
AcDbEntity
  8
0
  6
Continuous
 62
     7
370
    15
100
AcDbLine
 10
121.4054463083
 20
112.4368422835
 30
0.0
 11
121.4054463083
 21
112.6394894888
 31
0.0
  0
LINE
  5
268
330
1F
100
AcDbEntity
  8
0
  6
Continuous
 62
     7
370
    15
100
AcDbLine
 10
121.4054463083
 20
112.3637239282
 30
0.0
 11
121.4054463083
 21
112.4368422835
 31
0.0
  0
LINE
  5
269
330
1F
100
AcDbEntity
  8
0
  6
Continuous
 62
     7
370
    15
100
AcDbLine
 10
121.9134463083
 20
112.3325565764
 30
0.0
 11
121.9134463083
 21
112.2213587638
 31
0.0
  0
ARC
  5
26A
330
1F
100
AcDbEntity
  8
0
  6
Continuous
 62
     7
370
    15
100
AcDbCircle
 10
121.3331924681
 20
106.3361487172
 30
0.0
 40
1.456245303714552
100
AcDbArc
 50
60.2658939528
 51
171.7448213298
  0
ARC
  5
26B
330
1F
100
AcDbEntity
  8
0
  6
Continuous
 62
     7
370
    15
100
AcDbCircle
 10
121.6147567334
 20
106.4847197957
 30
0.0
 40
1.19980675539281
100
AcDbArc
 50
2.8912922126
 51
68.4503448315
  0
LWPOLYLINE
  5
26C
330
1F
100
AcDbEntity
  8
0
  6
Continuous
 62
     7
370
    15
100
AcDbPolyline
 90
       38
 70
   128
 43
0.0
 10
122.0554546714
 20
104.725375087
 10
121.8289854276
 20
104.8081279903
 10
121.5888096062
 20
104.8581377275
 10
121.3418366285
 20
104.8739656096
 10
121.0951714572
 20
104.8551562971
 10
120.8559102004
 20
104.8022508999
 10
120.6309359687
 20
104.7167714098
 10
120.4267208612
 20
104.6011769162
 10
120.2491397746
 20
104.458792862
 10
120.1033013936
 20
104.2937153775
 10
119.9934012228
 20
104.1106934411
 10
119.9226008901
 20
103.9149922609
 10
119.892937192
 20
103.7122418034
 10
119.9052634993
 20
103.5082748302
 10
119.9592252065
 20
103.3089590997
 10
120.0532699334
 20
103.1200285626
 10
120.1846921846
 20
102.9469184065
 10
120.3497111812
 20
102.7946086953
 10
120.543579627
 20
102.6674811022
 10
120.76072028
 20
102.5691928566
 10
120.9948863987
 20
102.5025715323
 10
121.2393414504
 20
102.4695337034
 10
121.4870529082
 20
102.4710298083
 10
121.7308945646
 20
102.5070168067
 10
121.963851539
 20
102.5764594182
 10
122.1792220835
 20
102.6773599053
 10
122.3708103796
 20
102.8068155446
 10
122.5331047808
 20
102.9611021331
 10
122.6614363727
 20
103.1357811266
 10
122.7521132891
 20
103.3258273285
 10
122.8025269202
 20
103.5257734556
 10
122.8112269576
 20
103.7298674218
 10
122.777963117
 20
103.9322378153
 10
122.7036923386
 20
104.1270628084
 10
122.5905512575
 20
104.3087376406
 10
122.4417947365
 20
104.472035858
 10
122.26170223
 20
104.612259668
 10
122.0554546714
 20
104.725375087
  0
ARC
  5
26D
330
1F
100
AcDbEntity
  8
0
  6
Continuous
 62
     7
370
    15
100
AcDbCircle
 10
121.3446573073
 20
111.3956728556
 30
0.0
 40
0.9944927629586982
100
AcDbArc
 50
60.8351009421
 51
171.1756143405
  0
ARC
  5
26E
330
1F
100
AcDbEntity
  8
0
  6
Continuous
 62
     7
370
    15
100
AcDbCircle
 10
121.5423022347
 20
111.515736857
 30
0.0
 40
0.8014930409756047
100
AcDbArc
 50
2.3237687435
 51
69.0178683006
  0
LWPOLYLINE
  5
26F
330
1F
100
AcDbEntity
  8
0
  6
Continuous
 62
     7
370
    15
100
AcDbPolyline
 90
       38
 70
   128
 43
0.0
 10
76.0597841391
 20
119.2922752109
 10
76.286253383
 20
119.1982451111
 10
76.5264292043
 20
119.14142027
 10
76.7734021821
 20
119.1234354348
 10
77.0200673533
 20
119.1448079964
 10
77.2593286101
 20
119.2049231051
 10
77.4843028418
 20
119.3020513588
 10
77.6885179494
 20
119.4333985543
 10
77.8660990359
 20
119.5951860721
 10
78.0119374169
 20
119.7827595798
 10
78.1218375877
 20
119.9907229291
 10
78.1926379205
 20
120.213093393
 10
78.2223016185
 20
120.4434737783
 10
78.2099753112
 20
120.6752364607
 10
78.1560136041
 20
120.9017140497
 10
78.0619688771
 20
121.1163911975
 10
77.9305466259
 20
121.3130920334
 10
77.7655276293
 20
121.4861578325
 10
77.5716591835
 20
121.6306098068
 10
77.3545185306
 20
121.7422923361
 10
77.1203524119
 20
121.8179925172
 10
76.8758973602
 20
121.855532594
 10
76.6281859023
 20
121.8538326066
 10
76.3843442459
 20
121.8129414606
 10
76.1513872715
 20
121.7340355198
 10
75.936016727
 20
121.6193847646
 10
75.7444284309
 20
121.4722874883
 10
75.5821340297
 20
121.2969754118
 10
75.4538024378
 20
121.0984919443
 10
75.3631255214
 20
120.8825470939
 10
75.3127118903
 20
120.6553532007
 10
75.304011853
 20
120.4234462193
 10
75.3372756936
 20
120.1934976914
 10
75.4115464719
 20
119.9721228175
 10
75.5246875531
 20
119.7656901496
 10
75.673444074
 20
119.5801383798
 10
75.8535365805
 20
119.4208054945
 10
76.0597841391
 20
119.2922752109
  0
ARC
  5
270
330
1F
100
AcDbEntity
  8
0
  6
Continuous
 62
     7
370
    15
100
AcDbCircle
 10
76.7700992687
 20
118.7839017155
 30
0.0
 40
1.454805955786993
100
AcDbArc
 50
240.7740998244
 51
357.2277489629
  0
ARC
  5
271
330
1F
100
AcDbEntity
  8
0
  6
Continuous
 62
     7
370
    15
100
AcDbCircle
 10
76.6624349077
 20
118.7339045884
 30
0.0
 40
1.3603847304532
100
AcDbArc
 50
180.8577963692
 51
243.7045341784
  0
ARC
  5
272
330
1F
100
AcDbEntity
  8
0
  6
Continuous
 62
     7
370
    15
100
AcDbCircle
 10
76.7655504212
 20
115.6784842176
 30
0.0
 40
0.9952302839341542
100
AcDbArc
 50
241.1898788869
 51
350.1510008569
  0
ARC
  5
273
330
1F
100
AcDbEntity
  8
0
  6
Continuous
 62
     7
370
    15
100
AcDbCircle
 10
76.699297983
 20
115.6386361743
 30
0.0
 40
0.9291994223111923
100
AcDbArc
 50
188.0665491264
 51
243.586044662
  0
LWPOLYLINE
  5
274
330
1F
100
AcDbEntity
  8
0
  6
Continuous
 62
     7
370
    15
100
AcDbPolyline
 90
       11
 70
   128
 43
0.0
 10
121.6275912397
 20
112.8874039052
 10
121.4822351276
 20
112.9332673147
 10
121.3272598375
 20
112.9450996297
 10
121.1741591779
 20
112.9220233017
 10
121.0342879243
 20
112.8657497962
 10
120.9180196876
 20
112.7804526617
 10
120.8339775512
 20
112.6724579965
 10
120.7883945357
 20
112.5497752709
 10
120.784651325
 20
112.4215033014
 10
120.8230255357
 20
112.2971554331
 10
120.8490296011
 20
112.2515291355
  0
ARC
  5
275
330
1F
100
AcDbEntity
  8
0
  6
Continuous
 62
     7
370
    15
100
AcDbCircle
 10
121.4807156048
 20
112.4732834296
 30
0.0
 40
0.4393952895114492
100
AcDbArc
 50
339.6865684726
 51
70.4719891558
  0
ARC
  5
276
330
1F
100
AcDbEntity
  8
0
  6
Continuous
 62
     7
370
    15
100
AcDbCircle
 10
76.7641301757
 20
115.0904138963
 30
0.0
 40
0.582374410391093
100
AcDbArc
 50
241.6568866729
 51
333.6525943593
  0
ARC
  5
277
330
1F
100
AcDbEntity
  8
0
  6
Continuous
 62
     7
370
    15
100
AcDbCircle
 10
76.7339066207
 20
115.0667655727
 30
0.0
 40
0.5474282933354764
100
AcDbArc
 50
205.400655019
 51
243.2661232213
  0
LINE
  5
278
330
1F
100
AcDbEntity
  8
0
  6
Continuous
 62
     7
370
    15
100
AcDbLine
 10
116.0121194053
 20
103.6501083542
 30
0.0
 11
116.0121194053
 21
124.4781083542
 31
0.0
  0
LINE
  5
279
330
1F
100
AcDbEntity
  8
0
  6
Continuous
 62
     7
370
    15
100
AcDbLine
 10
115.2501194053
 20
103.6501083542
 30
0.0
 11
115.2501194053
 21
124.4781083542
 31
0.0
  0
LINE
  5
27A
330
1F
100
AcDbEntity
  8
0
  6
Continuous
 62
     7
370
    15
100
AcDbLine
 10
118.5521194053
 20
105.1741083542
 30
0.0
 11
118.5521194053
 21
122.9541083542
 31
0.0
  0
LINE
  5
27B
330
1F
100
AcDbEntity
  8
0
  6
Continuous
 62
     7
370
    15
100
AcDbLine
 10
112.2021194053
 20
125.7481083542
 30
0.0
 11
112.2021194053
 21
102.3801083542
 31
0.0
  0
LINE
  5
27C
330
1F
100
AcDbEntity
  8
0
  6
Continuous
 62
     7
370
    15
100
AcDbLine
 10
112.2021194053
 20
124.4780226585
 30
0.0
 11
112.3940599345
 21
124.4780226585
 31
0.0
  0
LINE
  5
27D
330
1F
100
AcDbEntity
  8
0
  6
Continuous
 62
     7
370
    15
100
AcDbLine
 10
114.9055003148
 20
124.4780226585
 30
0.0
 11
115.2501194053
 21
124.4780226585
 31
0.0
  0
LINE
  5
27E
330
1F
100
AcDbEntity
  8
0
  6
Continuous
 62
     7
370
    15
100
AcDbLine
 10
112.2021194053
 20
114.0641083542
 30
0.0
 11
115.2501194053
 21
114.0641083542
 31
0.0
  0
LINE
  5
27F
330
1F
100
AcDbEntity
  8
0
  6
Continuous
 62
     7
370
    15
100
AcDbLine
 10
115.2501194053
 20
114.0641083542
 30
0.0
 11
115.2501194053
 21
103.6501083542
 31
0.0
  0
LINE
  5
280
330
1F
100
AcDbEntity
  8
0
  6
Continuous
 62
     7
370
    15
100
AcDbLine
 10
115.2501194053
 20
124.4781083542
 30
0.0
 11
115.2501194053
 21
124.4780226585
 31
0.0
  0
SPLINE
  5
281
330
1F
100
AcDbEntity
  8
0
  6
Continuous
 62
     7
370
    15
100
AcDbSpline
210
0.0
220
0.0
230
1.0
 70
     8
 71
     3
 72
    21
 73
    17
 74
     0
 42
0.00000001
 43
0.00000001
 40
0.0
 40
0.0
 40
0.0
 40
0.0
 40
0.0461928881503875
 40
0.0923551215806745
 40
0.1387292164289063
 40
0.1850933939893237
 40
0.2712231842615144
 40
0.3571521270788567
 40
0.4452656588654963
 40
0.5343024797560892
 40
0.6232109258488496
 40
0.7106518581210461
 40
0.7960005055537331
 40
0.8836347371501615
 40
0.9443628620758522
 40
1.0
 40
1.0
 40
1.0
 40
1.0
 10
112.2999194052696
 20
114.4759030507083
 30
0.0
 10
112.3029772366073
 20
114.4388893751125
 30
0.0
 10
112.3090908700317
 20
114.3648865870932
 30
0.0
 10
112.3604716251266
 20
114.2748398493952
 30
0.0
 10
112.4473099318113
 20
114.2032122424927
 30
0.0
 10
112.6053826227526
 20
114.1348507211601
 30
0.0
 10
112.8766826080884
 20
114.089824731496
 30
0.0
 10
113.2825353753835
 20
114.0725287001262
 30
0.0
 10
113.7333938790688
 20
114.0700125466874
 30
0.0
 10
114.1802353698371
 20
114.0762885004701
 30
0.0
 10
114.5664720728364
 20
114.1051666164917
 30
0.0
 10
114.8442273740681
 20
114.1819797630404
 30
0.0
 10
114.992127986499
 20
114.3248880334327
 30
0.0
 10
115.0098251483648
 20
114.5121078513653
 30
0.0
 10
114.9603227701831
 20
114.706339144456
 30
0.0
 10
114.9006117198109
 20
114.8298888846252
 30
0.0
 10
114.872062375584
 20
114.8889611005592
 30
0.0
  0
SPLINE
  5
282
330
1F
100
AcDbEntity
  8
0
  6
Continuous
 62
     7
370
    15
100
AcDbSpline
210
0.0
220
0.0
230
1.0
 70
     8
 71
     3
 72
     9
 73
     5
 74
     0
 42
0.00000001
 43
0.00000001
 40
0.0
 40
0.0
 40
0.0
 40
0.0
 40
0.2549388896515731
 40
0.9999999999999999
 40
0.9999999999999999
 40
0.9999999999999999
 40
0.9999999999999999
 10
112.3629654016083
 20
114.7387606850653
 30
0.0
 10
112.3520570443393
 20
114.7139778943497
 30
0.0
 10
112.3092689185893
 20
114.6167671833849
 30
0.0
 10
112.3039112189281
 20
114.5360455789429
 30
0.0
 10
112.2999194052696
 20
114.4759030507083
 30
0.0
  0
LINE
  5
283
330
1F
100
AcDbEntity
  8
0
  6
Continuous
 62
     7
370
    15
100
AcDbLine
 10
112.2021194053
 20
116.5641169266
 30
0.0
 11
112.4433389239
 21
116.5641169266
 31
0.0
  0
LINE
  5
284
330
1F
100
AcDbEntity
  8
0
  6
Continuous
 62
     7
370
    15
100
AcDbLine
 10
114.9434357448
 20
116.5641169266
 30
0.0
 11
115.2501194053
 21
116.5641169266
 31
0.0
  0
LINE
  5
285
330
1F
100
AcDbEntity
  8
0
  6
Continuous
 62
     7
370
    15
100
AcDbLine
 10
105.6680229845
 20
135.9362462064
 30
0.0
 11
105.6680229845
 21
137.1862461561
 31
0.0
  0
LINE
  5
286
330
1F
100
AcDbEntity
  8
0
  6
Continuous
 62
     7
370
    15
100
AcDbLine
 10
105.6680229845
 20
134.6862462181
 30
0.0
 11
105.6680229845
 21
135.9362462064
 31
0.0
  0
LINE
  5
287
330
1F
100
AcDbEntity
  8
0
  6
Continuous
 62
     7
370
    15
100
AcDbLine
 10
146.6161194053
 20
111.4241083542
 30
0.0
 11
146.6161194053
 21
116.7041083542
 31
0.0
  0
DIMENSION
  5
288
330
1F
100
AcDbEntity
  8
0
  6
Continuous
 62
     7
370
     0
100
AcDbDimension
  2
*D4
 10
54.5022048197
 20
101.3641083542
 30
0.0
 11
54.5022048197
 21
114.0641083542
 31
0.0
 70
   160
  1
%%c<>
 71
     2
 42
-1.0
  3
SLDDIMSTYLE0
100
AcDbAlignedDimension
 13
84.7701194053
 23
126.7641083542
 33
0.0
 14
84.7701194053
 24
101.3641083542
 34
0.0
 50
90.0
100
AcDbRotatedDimension
  0
DIMENSION
  5
296
330
1F
100
AcDbEntity
  8
0
  6
Continuous
 62
     7
370
     0
100
AcDbDimension
  2
*D5
 10
60.1971194053
 20
102.2531083542
 30
0.0
 11
60.1971194053
 21
114.0641083542
 31
0.0
 70
   160
  1
%%c<>
 71
     2
 42
-1.0
  3
SLDDIMSTYLE0
100
AcDbAlignedDimension
 13
90.3581194053
 23
125.8751083542
 33
0.0
 14
90.3581194053
 24
102.2531083542
 34
0.0
 50
90.0
100
AcDbRotatedDimension
  0
DIMENSION
  5
2A3
330
1F
100
AcDbEntity
  8
0
  6
Continuous
 62
     7
370
     0
100
AcDbDimension
  2
*D6
 10
137.2211194053
 20
159.1862462064
 30
0.0
 11
104.7091194053
 21
159.1862462064
 31
0.0
 70
   160
 71
     2
 42
-1.0
  3
SLDDIMSTYLE1
100
AcDbAlignedDimension
 13
72.1971194053
 23
122.9541083542
 33
0.0
 14
137.2211194053
 24
122.1286083542
 34
0.0
 50
0.0
100
AcDbRotatedDimension
  0
DIMENSION
  5
2AE
330
1F
100
AcDbEntity
  8
0
  6
Continuous
 62
     7
370
     0
100
AcDbDimension
  2
*D7
 10
146.7161194053
 20
173.3208691674
 30
0.0
 11
109.4566194053
 21
173.3208691674
 31
0.0
 70
   160
 71
     2
 42
-1.0
  3
SLDDIMSTYLE1
100
AcDbAlignedDimension
 13
72.1971194053
 23
122.9541083542
 33
0.0
 14
146.7161194053
 24
116.6041083542
 34
0.0
 50
0.0
100
AcDbRotatedDimension
  0
DIMENSION
  5
2B8
330
1F
100
AcDbEntity
  8
0
  6
Continuous
 62
     7
370
     0
100
AcDbDimension
  2
*D8
 10
90.3581194053
 20
88.6527895892
 30
0.0
 11
101.2859252969
 21
88.6527895892
 31
0.0
 70
   160
 71
     2
 42
-1.0
  3
SLDDIMSTYLE0
100
AcDbAlignedDimension
 13
84.7701194053
 23
101.3641083542
 33
0.0
 14
90.3581194053
 24
101.3641083542
 34
0.0
100
AcDbRotatedDimension
  0
DIMENSION
  5
2C4
330
1F
100
AcDbEntity
  8
0
  6
Continuous
 62
     7
370
     0
100
AcDbDimension
  2
*D9
 10
112.2021194053
 20
81.3430706341
 30
0.0
 11
98.4861194053
 21
81.3430706341
 31
0.0
 70
   160
 71
     2
 42
-1.0
  3
SLDDIMSTYLE0
100
AcDbAlignedDimension
 13
84.7701194053
 23
101.3641083542
 33
0.0
 14
112.2021194053
 24
102.3801083542
 34
0.0
100
AcDbRotatedDimension
  0
DIMENSION
  5
2D0
330
1F
100
AcDbEntity
  8
0
  6
Continuous
 62
     7
370
     0
100
AcDbDimension
  2
*D10
 10
72.1971194053
 20
149.1862462064
 30
0.0
 11
85.1511194053
 21
149.1862462064
 31
0.0
 70
   160
 71
     2
 42
-1.0
  3
SLDDIMSTYLE0
100
AcDbAlignedDimension
 13
98.1051194053
 23
125.6211083542
 33
0.0
 14
72.1971194053
 24
122.9541083542
 34
0.0
100
AcDbRotatedDimension
  0
INSERT
  5
2E1
330
1F
100
AcDbEntity
  8
0
  6
Continuous
 62
     7
370
     0
100
AcDbBlockReference
  2
SW_NOTE_2
 10
113.9496986716
 20
134.5894824558
 30
0.0
  0
INSERT
  5
2E9
330
1F
100
AcDbEntity
  8
0
  6
Continuous
 62
     7
370
     0
100
AcDbBlockReference
  2
SW_NOTE_3
 10
151.6873833486
 20
118.9056961374
 30
0.0
  0
SPLINE
  5
2EA
330
1F
100
AcDbEntity
  8
0
  6
Continuous
 62
     7
370
    15
100
AcDbSpline
210
0.0
220
0.0
230
1.0
 70
     8
 71
     3
 72
    41
 73
    37
 74
     0
 42
0.00000001
 43
0.00000001
 40
0.0
 40
0.0
 40
0.0
 40
0.0
 40
0.0680149421369344
 40
0.1423247877361463
 40
0.2108485799592671
 40
0.2747182462332258
 40
0.2976595575962802
 40
0.3204320912977089
 40
0.3456625259989384
 40
0.3734422889705719
 40
0.4014977812979164
 40
0.425824606589888
 40
0.4484158537883469
 40
0.4750919895358691
 40
0.4992638656245168
 40
0.5251735793233132
 40
0.5519725926045818
 40
0.5777123898484545
 40
0.6015904687439942
 40
0.6206488888556355
 40
0.6389883974202095
 40
0.6573939441982802
 40
0.6779634401763623
 40
0.6985513708861109
 40
0.7176287176257607
 40
0.7538479584981771
 40
0.7878373234837082
 40
0.8258437966647524
 40
0.8473516564402205
 40
0.8704503574570963
 40
0.8984037471229591
 40
0.922578388266786
 40
0.9487016656608506
 40
0.9747265597222013
 40
0.9867074998252641
 40
1.0
 40
1.0
 40
1.0
 40
1.0
 10
227.4748324729041
 20
121.5549932424805
 30
0.0
 10
227.5244041808452
 20
121.9805447253971
 30
0.0
 10
227.628135546171
 20
122.8710332353333
 30
0.0
 10
227.7852133418681
 20
124.1888702965143
 30
0.0
 10
227.9384216201515
 20
125.4784871395439
 30
0.0
 10
228.0519049218921
 20
126.4430866374577
 30
0.0
 10
228.1329389494568
 20
127.1193131076563
 30
0.0
 10
228.1859918176395
 20
127.5554427940305
 30
0.0
 10
228.2434776435457
 20
128.0191429028235
 30
0.0
 10
228.3066691806405
 20
128.5124475412392
 30
0.0
 10
228.3661575933717
 20
128.9961709594352
 30
0.0
 10
228.4130479062336
 20
129.4457592791169
 30
0.0
 10
228.4470244494061
 20
129.8830992718134
 30
0.0
 10
228.463049599689
 20
130.3147180248724
 30
0.0
 10
228.4740684022877
 20
130.7393487091592
 30
0.0
 10
228.4917563737829
 20
131.1318695025597
 30
0.0
 10
228.5109935775075
 20
131.5445172571152
 30
0.0
 10
228.5157762752135
 20
131.9912356423002
 30
0.0
 10
228.4953577910237
 20
132.4012749579118
 30
0.0
 10
228.4612612884096
 20
132.7616058142051
 30
0.0
 10
228.4231842232686
 20
133.0771663667666
 30
0.0
 10
228.3778953648265
 20
133.3884529491734
 30
0.0
 10
228.3042821302143
 20
133.6695894201417
 30
0.0
 10
228.2177645146566
 20
133.9408072740995
 30
0.0
 10
228.093657476292
 20
134.2761439614358
 30
0.0
 10
227.9330441191228
 20
134.648304203233
 30
0.0
 10
227.7436888342123
 20
135.0439314268968
 30
0.0
 10
227.5805450123827
 20
135.3657149300425
 30
0.0
 10
227.4370517705294
 20
135.6333965909271
 30
0.0
 10
227.3168479566315
 20
135.8519026721224
 30
0.0
 10
227.1887024811582
 20
136.0777597600971
 30
0.0
 10
227.0620757346681
 20
136.293937781932
 30
0.0
 10
226.9530174396798
 20
136.4749783099678
 30
0.0
 10
226.879133234297
 20
136.594859102527
 30
0.0
 10
226.8272961098651
 20
136.6752448812425
 30
0.0
 10
226.8224952473771
 20
136.6824543860641
 30
0.0
 10
226.8199702462392
 20
136.6862462063722
 30
0.0
  0
SPLINE
  5
2EB
330
1F
100
AcDbEntity
  8
0
  6
Continuous
 62
     7
370
    15
100
AcDbSpline
210
0.0
220
0.0
230
1.0
 70
     8
 71
     3
 72
    40
 73
    36
 74
     0
 42
0.00000001
 43
0.00000001
 40
0.0
 40
0.0
 40
0.0
 40
0.0
 40
0.0222330471817534
 40
0.0451836775564888
 40
0.07235150459628
 40
0.1001404754774143
 40
0.1282056596552222
 40
0.1742471120511484
 40
0.2170033048400325
 40
0.2546765922254184
 40
0.2865011569456031
 40
0.3123740685456037
 40
0.334606160771936
 40
0.3572141844291929
 40
0.3771414511538341
 40
0.3953925143512598
 40
0.4236740437926851
 40
0.4537148186485107
 40
0.4809190745987268
 40
0.5045421980758618
 40
0.5257386393026313
 40
0.5518329223709254
 40
0.5813973508973234
 40
0.6183492793490986
 40
0.6580709110648609
 40
0.6895028200777975
 40
0.711181355338411
 40
0.7319445980389931
 40
0.756915620124465
 40
0.7866568033491966
 40
0.8218395284942271
 40
0.8604285360486155
 40
0.9148265747797125
 40
0.9637413810541192
 40
1.0
 40
1.0
 40
1.0
 40
1.0
 10
224.8199702462397
 20
135.1862462063715
 30
0.0
 10
224.8280660953468
 20
135.1745102163246
 30
0.0
 10
224.8445190913131
 20
135.1506594510312
 30
0.0
 10
224.9057587727774
 20
135.0498579606093
 30
0.0
 10
224.9746091961393
 20
134.9344425120767
 30
0.0
 10
225.0574197017964
 20
134.7887272702102
 30
0.0
 10
225.1588962328392
 20
134.602858423033
 30
0.0
 10
225.274843232865
 20
134.3814244128583
 30
0.0
 10
225.402974533496
 20
134.1309564175027
 30
0.0
 10
225.5212268981711
 20
133.9007193747515
 30
0.0
 10
225.6256248045934
 20
133.6871754097048
 30
0.0
 10
225.7187398620212
 20
133.4823048502106
 30
0.0
 10
225.8026439558437
 20
133.277696341376
 30
0.0
 10
225.8743777152771
 20
133.0800145706337
 30
0.0
 10
225.9362222938834
 20
132.8637232764108
 30
0.0
 10
225.954345368745
 20
132.5958798315019
 30
0.0
 10
225.9783281772186
 20
132.3173713126747
 30
0.0
 10
225.9975651189867
 20
131.988968100316
 30
0.0
 10
226.0164477986636
 20
131.651181176476
 30
0.0
 10
226.0280388398882
 20
131.3161356480088
 30
0.0
 10
226.0254309511365
 20
130.9760130379964
 30
0.0
 10
225.9998678908273
 20
130.6187196041901
 30
0.0
 10
225.9478289131266
 20
130.1804652386572
 30
0.0
 10
225.8931292513763
 20
129.6671814661397
 30
0.0
 10
225.8433456848891
 20
129.1387906205618
 30
0.0
 10
225.8002648312559
 20
128.6816960138908
 30
0.0
 10
225.7629610198544
 20
128.3133998054451
 30
0.0
 10
225.7260472830659
 20
127.9752807476845
 30
0.0
 10
225.6822351503492
 20
127.5951459724456
 30
0.0
 10
225.6274848810424
 20
127.1406039657151
 30
0.0
 10
225.5623376015007
 20
126.6154658041006
 30
0.0
 10
225.480397137635
 20
125.9634208841591
 30
0.0
 10
225.390103453466
 20
125.2395080559711
 30
0.0
 10
225.3030113685262
 20
124.5259145659662
 30
0.0
 10
225.251085795573
 20
124.0895571558553
 30
0.0
 10
225.2289809012543
 20
123.9037983112802
 30
0.0
  0
LINE
  5
2EC
330
1F
100
AcDbEntity
  8
0
  6
Continuous
 62
     7
370
    15
100
AcDbLine
 10
220.1444887308
 20
122.4642335825
 30
0.0
 11
220.1439474575
 21
122.4630877248
 31
0.0
  0
LINE
  5
2ED
330
1F
100
AcDbEntity
  8
0
  6
Continuous
 62
     7
370
    15
100
AcDbLine
 10
208.3690432416
 20
114.7820551635
 30
0.0
 11
208.3693494721
 21
114.781996831
 31
0.0
  0
LINE
  5
2EE
330
1F
100
AcDbEntity
  8
0
  6
Continuous
 62
     7
370
    15
100
AcDbLine
 10
218.7539235873
 20
105.3053280624
 30
0.0
 11
218.7539033878
 21
105.3056391441
 31
0.0
  0
LINE
  5
2EF
330
1F
100
AcDbEntity
  8
0
  6
Continuous
 62
     7
370
    15
100
AcDbLine
 10
233.1964923458
 20
104.8739979202
 30
0.0
 11
229.008516803
 21
107.7492824022
 31
0.0
  0
LINE
  5
2F0
330
1F
100
AcDbEntity
  8
0
  6
Continuous
 62
     7
370
    15
100
AcDbLine
 10
227.3552282258
 20
105.3411964651
 30
0.0
 11
231.5432037686
 21
102.4659119831
 31
0.0
  0
LINE
  5
2F1
330
1F
100
AcDbEntity
  8
0
  6
Continuous
 62
     7
370
    15
100
AcDbLine
 10
228.7425529884
 20
107.3618946645
 30
0.0
 11
228.2290376558
 21
107.714452279
 31
0.0
  0
LINE
  5
2F2
330
1F
100
AcDbEntity
  8
0
  6
Continuous
 62
     7
370
    15
100
AcDbLine
 10
227.1076767079
 20
106.0811418173
 30
0.0
 11
227.6211920404
 21
105.7285842028
 31
0.0
  0
LINE
  5
2F3
330
1F
100
AcDbEntity
  8
0
  6
Continuous
 62
     7
370
    15
100
AcDbLine
 10
233.9218252574
 20
121.8596478662
 30
0.0
 11
229.1631310919
 21
120.0816630974
 31
0.0
  0
LINE
  5
2F4
330
1F
100
AcDbEntity
  8
0
  6
Continuous
 62
     7
370
    15
100
AcDbLine
 10
230.1854723339
 20
117.3454139522
 30
0.0
 11
234.9441664995
 21
119.123398721
 31
0.0
  0
LINE
  5
2F5
330
1F
100
AcDbEntity
  8
0
  6
Continuous
 62
     7
370
    15
100
AcDbLine
 10
229.327594683
 20
119.6414838871
 30
0.0
 11
225.1594629322
 21
118.0841501922
 31
0.0
  0
LINE
  5
2F6
330
1F
100
AcDbEntity
  8
0
  6
Continuous
 62
     7
370
    15
100
AcDbLine
 10
225.852876992
 20
116.2282594676
 30
0.0
 11
230.0210087428
 21
117.7855931625
 31
0.0
  0
ARC
  5
2F7
330
1F
100
AcDbEntity
  8
0
  6
Continuous
 62
     7
370
    15
100
AcDbCircle
 10
217.2303164699
 20
114.0641083542
 30
0.0
 40
12.192
100
AcDbArc
 50
180.0
 51
15.8267123441
  0
ARC
  5
2F8
330
1F
100
AcDbEntity
  8
0
  6
Continuous
 62
     7
370
    15
100
AcDbCircle
 10
217.2303164699
 20
114.0641083542
 30
0.0
 40
12.192
100
AcDbArc
 50
25.1475511123
 51
180.0
  0
ARC
  5
2F9
330
1F
100
AcDbEntity
  8
0
  6
Continuous
 62
     7
370
    15
100
AcDbCircle
 10
217.2303164699
 20
114.0641083542
 30
0.0
 40
9.651999999999996
100
AcDbArc
 50
180.0
 51
14.5964029675
  0
ARC
  5
2FA
330
1F
100
AcDbEntity
  8
0
  6
Continuous
 62
     7
370
    15
100
AcDbCircle
 10
217.2303164699
 20
114.0641083542
 30
0.0
 40
9.651999999999987
100
AcDbArc
 50
26.3778604889
 51
180.0
  0
ARC
  5
2FB
330
1F
100
AcDbEntity
  8
0
  6
Continuous
 62
     7
370
    15
100
AcDbCircle
 10
217.2303164699
 20
114.0641083542
 30
0.0
 40
12.70000000000001
100
AcDbArc
 50
180.0
 51
16.0135168366
  0
ARC
  5
2FC
330
1F
100
AcDbEntity
  8
0
  6
Continuous
 62
     7
370
    15
100
AcDbCircle
 10
217.2303164699
 20
114.0641083542
 30
0.0
 40
12.69999999999999
100
AcDbArc
 50
24.9607466199
 51
180.0
  0
CIRCLE
  5
2FD
330
1F
100
AcDbEntity
  8
0
  6
Continuous
 62
     7
370
    15
100
AcDbCircle
 10
225.8199702462
 20
135.9362462064
 30
0.0
 40
1.25
  0
LINE
  5
2FE
330
1F
100
AcDbEntity
  8
0
  6
Continuous
 62
     7
370
    15
100
AcDbLine
 10
218.3082660541
 20
112.4934238875
 30
0.0
 11
218.5238170542
 21
112.6655801141
 31
0.0
  0
LINE
  5
2FF
330
1F
100
AcDbEntity
  8
0
  6
Continuous
 62
     7
370
    15
100
AcDbLine
 10
216.4090386125
 20
112.3452343969
 30
0.0
 11
216.6659057782
 21
112.2446398683
 31
0.0
  0
LINE
  5
300
330
1F
100
AcDbEntity
  8
0
  6
Continuous
 62
     7
370
    15
100
AcDbLine
 10
218.0515943272
 20
115.7829823115
 30
0.0
 11
217.7947271615
 21
115.8835768401
 31
0.0
  0
LINE
  5
301
330
1F
100
AcDbEntity
  8
0
  6
Continuous
 62
     7
370
    15
100
AcDbLine
 10
219.1295439114
 20
114.2122978448
 30
0.0
 11
219.0882277458
 21
114.4850486
 31
0.0
  0
LINE
  5
302
330
1F
100
AcDbEntity
  8
0
  6
Continuous
 62
     7
370
    15
100
AcDbLine
 10
215.3310890283
 20
113.9159188635
 30
0.0
 11
215.3724051939
 21
113.6431681083
 31
0.0
  0
LINE
  5
303
330
1F
100
AcDbEntity
  8
0
  6
Continuous
 62
     7
370
    15
100
AcDbLine
 10
216.1523668856
 20
115.6347928208
 30
0.0
 11
215.9368158855
 21
115.4626365942
 31
0.0
  0
CIRCLE
  5
304
330
1F
100
AcDbEntity
  8
0
  6
Continuous
 62
     7
370
    15
100
AcDbCircle
 10
217.2303164699
 20
114.0641083542
 30
0.0
 40
8.889999999999954
  0
CIRCLE
  5
305
330
1F
100
AcDbEntity
  8
0
  6
Continuous
 62
     7
370
    15
100
AcDbCircle
 10
217.2303164699
 20
114.0641083542
 30
0.0
 40
6.451599999999796
  0
CIRCLE
  5
306
330
1F
100
AcDbEntity
  8
0
  6
Continuous
 62
     7
370
    15
100
AcDbCircle
 10
217.2303164699
 20
114.0641083542
 30
0.0
 40
2.794000000000052
  0
CIRCLE
  5
307
330
1F
100
AcDbEntity
  8
0
  6
Continuous
 62
     7
370
    15
100
AcDbCircle
 10
217.2303164699
 20
114.0641083542
 30
0.0
 40
5.08000000000011
  0
LINE
  5
308
330
1F
100
AcDbEntity
  8
0
  6
Continuous
 62
     7
370
    15
100
AcDbLine
 10
229.008516803
 20
107.7492824022
 30
0.0
 11
227.3552282258
 21
105.3411964651
 31
0.0
  0
LINE
  5
309
330
1F
100
AcDbEntity
  8
0
  6
Continuous
 62
     7
370
    15
100
AcDbLine
 10
233.1964923458
 20
104.8739979202
 30
0.0
 11
231.5432037686
 21
102.4659119831
 31
0.0
  0
LINE
  5
30A
330
1F
100
AcDbEntity
  8
0
  6
Continuous
 62
     7
370
    15
100
AcDbLine
 10
230.1223752287
 20
117.514290442
 30
0.0
 11
230.1854723339
 21
117.3454139522
 31
0.0
  0
LINE
  5
30B
330
1F
100
AcDbEntity
  8
0
  6
Continuous
 62
     7
370
    15
100
AcDbLine
 10
229.1631310919
 20
120.0816630974
 30
0.0
 11
230.1223752287
 21
117.514290442
 31
0.0
  0
LINE
  5
30C
330
1F
100
AcDbEntity
  8
0
  6
Continuous
 62
     7
370
    15
100
AcDbLine
 10
234.8810693943
 20
119.2922752109
 30
0.0
 11
234.9441664995
 21
119.123398721
 31
0.0
  0
LINE
  5
30D
330
1F
100
AcDbEntity
  8
0
  6
Continuous
 62
     7
370
    15
100
AcDbLine
 10
233.9218252574
 20
121.8596478662
 30
0.0
 11
234.8810693943
 21
119.2922752109
 31
0.0
  0
CIRCLE
  5
30E
330
1F
100
AcDbEntity
  8
0
  6
Continuous
 62
     7
370
    15
100
AcDbCircle
 10
217.2303164699
 20
114.0641083542
 30
0.0
 40
2.667000000000002
  0
CIRCLE
  5
30F
330
1F
100
AcDbEntity
  8
0
  6
Continuous
 62
     7
370
    15
100
AcDbCircle
 10
217.2303164699
 20
114.0641083542
 30
0.0
 40
1.905000000000001
  0
INSERT
  5
314
330
1F
100
AcDbEntity
  8
0
  6
Continuous
 62
     7
370
     0
100
AcDbBlockReference
  2
SW_NOTE_4
 10
246.5298209886
 20
164.6415243198
 30
0.0
  0
LEADER
  5
316
330
1F
100
AcDbEntity
  8
0
  6
Continuous
 62
     7
370
     0
100
AcDbLeader
  3
SLDDIMSTYLE2
 76
     2
 10
234.0153735594
 20
121.6092701541
 30
0.0
 10
246.5298209886
 20
164.6415243198
 30
0.0
  0
INSERT
  5
31B
330
1F
100
AcDbEntity
  8
0
  6
Continuous
 62
     7
370
     0
100
AcDbBlockReference
  2
SW_NOTE_5
 10
201.7862177952
 20
164.6386439216
 30
0.0
  0
LEADER
  5
31C
330
1F
100
AcDbEntity
  8
0
  6
Continuous
 62
     7
370
     0
100
AcDbLeader
  3
SLDDIMSTYLE2
 76
     2
 10
217.6594322827
 20
116.8249588788
 30
0.0
 10
201.7862177952
 20
164.6386439216
 30
0.0
  0
ENDSEC
  0
SECTION
  2
OBJECTS
  0
DICTIONARY
  5
C
330
0
100
AcDbDictionary
281
     1
  3
ACAD_GROUP
350
D
  3
ACAD_LAYOUT
350
1A
  3
ACAD_MLEADERSTYLE
350
31E
  3
ACAD_MLINESTYLE
350
17
  3
ACAD_PLOTSETTINGS
350
19
  3
ACAD_PLOTSTYLENAME
350
E
  3
ACAD_TABLESTYLE
350
31D
  3
ACAD_VISUALSTYLE
350
2A
  3
AcDbVariableDictionary
350
31F
  0
DICTIONARY
  5
D
102
{ACAD_REACTORS
330
C
102
}
330
C
100
AcDbDictionary
281
     1
  0
DICTIONARY
  5
1A
102
{ACAD_REACTORS
330
C
102
}
330
C
100
AcDbDictionary
281
     1
  3
Layout1
350
1E
  3
Layout2
350
26
  3
Model
350
22
  0
DICTIONARY
  5
31E
102
{ACAD_REACTORS
330
C
102
}
330
C
100
AcDbDictionary
281
     1
  0
DICTIONARY
  5
17
102
{ACAD_REACTORS
330
C
102
}
330
C
100
AcDbDictionary
281
     1
  3
Standard
350
18
  0
DICTIONARY
  5
19
102
{ACAD_REACTORS
330
C
102
}
330
C
100
AcDbDictionary
281
     1
  0
ACDBDICTIONARYWDFLT
  5
E
102
{ACAD_REACTORS
330
C
102
}
330
C
100
AcDbDictionary
281
     1
  3
Normal
350
F
100
AcDbDictionaryWithDefault
340
F
  0
DICTIONARY
  5
31D
102
{ACAD_REACTORS
330
C
102
}
330
C
100
AcDbDictionary
281
     1
  0
DICTIONARY
  5
2A
102
{ACAD_REACTORS
330
C
102
}
330
C
100
AcDbDictionary
281
     1
  3
2dWireframe
350
2F
  3
3D Hidden
350
31
  3
3dWireframe
350
30
  3
Basic
350
32
  3
Brighten
350
36
  3
ColorChange
350
3A
  3
Conceptual
350
34
  3
Dim
350
35
  3
Facepattern
350
39
  3
Flat
350
2B
  3
FlatWithEdges
350
2C
  3
Gouraud
350
2D
  3
GouraudWithEdges
350
2E
  3
Linepattern
350
38
  3
Realistic
350
33
  3
Thicken
350
37
  0
DICTIONARY
  5
31F
102
{ACAD_REACTORS
330
C
102
}
330
C
100
AcDbDictionary
281
     1
  3
PSOLHEIGHT
350
321
  3
PSOLWIDTH
350
320
  0
LAYOUT
  5
1E
102
{ACAD_REACTORS
330
1A
102
}
330
1A
100
AcDbPlotSettings
  1

  2
none_device
  4

  6

 40
0.0
 41
0.0
 42
0.0
 43
0.0
 44
0.0
 45
0.0
 46
0.0
 47
0.0
 48
0.0
 49
0.0
140
0.0
141
0.0
142
1.0
143
1.0
 70
   688
 72
     0
 73
     0
 74
     5
  7

 75
    16
147
1.0
148
0.0
149
0.0
100
AcDbLayout
  1
Layout1
 70
     1
 71
     1
 10
0.0
 20
0.0
 11
420.0
 21
297.0
 12
0.0
 22
0.0
 32
0.0
 14
1.0000000000E+20
 24
1.0000000000E+20
 34
1.0000000000E+20
 15
-1.0000000000E+20
 25
-1.0000000000E+20
 35
-1.0000000000E+20
146
0.0
 13
0.0
 23
0.0
 33
0.0
 16
1.0
 26
0.0
 36
0.0
 17
0.0
 27
1.0
 37
0.0
 76
     0
330
1B
  0
LAYOUT
  5
26
102
{ACAD_REACTORS
330
1A
102
}
330
1A
100
AcDbPlotSettings
  1

  2
none_device
  4

  6

 40
0.0
 41
0.0
 42
0.0
 43
0.0
 44
0.0
 45
0.0
 46
0.0
 47
0.0
 48
0.0
 49
0.0
140
0.0
141
0.0
142
1.0
143
1.0
 70
   688
 72
     0
 73
     0
 74
     5
  7

 75
    16
147
1.0
148
0.0
149
0.0
100
AcDbLayout
  1
Layout2
 70
     1
 71
     2
 10
0.0
 20
0.0
 11
0.0
 21
0.0
 12
0.0
 22
0.0
 32
0.0
 14
0.0
 24
0.0
 34
0.0
 15
0.0
 25
0.0
 35
0.0
146
0.0
 13
0.0
 23
0.0
 33
0.0
 16
1.0
 26
0.0
 36
0.0
 17
0.0
 27
1.0
 37
0.0
 76
     0
330
23
  0
LAYOUT
  5
22
102
{ACAD_REACTORS
330
1A
102
}
330
1A
100
AcDbPlotSettings
  1

  2
none_device
  4

  6

 40
0.0
 41
0.0
 42
0.0
 43
0.0
 44
0.0
 45
0.0
 46
0.0
 47
0.0
 48
0.0
 49
0.0
140
0.0
141
0.0
142
1.0
143
1.0
 70
  1712
 72
     0
 73
     0
 74
     0
  7

 75
     0
147
1.0
148
0.0
149
0.0
100
AcDbLayout
  1
Model
 70
     1
 71
     0
 10
0.0
 20
0.0
 11
297.0
 21
210.0
 12
0.0
 22
0.0
 32
0.0
 14
0.0
 24
0.0
 34
0.0
 15
297.0
 25
210.0
 35
0.0
146
0.0
 13
0.0
 23
0.0
 33
0.0
 16
1.0
 26
0.0
 36
0.0
 17
0.0
 27
1.0
 37
0.0
 76
     0
330
1F
331
29
  0
MLINESTYLE
  5
18
102
{ACAD_REACTORS
330
17
102
}
330
17
100
AcDbMlineStyle
  2
Standard
 70
     0
  3

 62
   256
 51
90.0
 52
90.0
 71
     2
 49
0.5
 62
   256
  6
BYLAYER
 49
-0.5
 62
   256
  6
BYLAYER
  0
ACDBPLACEHOLDER
  5
F
102
{ACAD_REACTORS
330
E
102
}
330
E
  0
VISUALSTYLE
  5
2F
102
{ACAD_REACTORS
330
2A
102
}
330
2A
100
AcDbVisualStyle
  2
2dWireframe
 70
     4
 71
     0
 72
     2
 73
     0
 90
        0
 40
-0.6
 41
-30.0
 62
     5
 63
     7
 74
     1
 91
        4
 64
     7
 65
   257
 75
     1
175
     1
 42
1.0
 92
        0
 66
   257
 43
1.0
 76
     1
 77
     6
 78
     2
 67
     7
 79
     5
170
     0
171
     0
290
     0
174
     0
 93
        1
 44
0.0
173
     0
291
     0
 45
0.0
1001
ACAD
1000
AcDbSavedByObjectVersion
1070
     0
  0
VISUALSTYLE
  5
31
102
{ACAD_REACTORS
330
2A
102
}
330
2A
100
AcDbVisualStyle
  2
3D Hidden
 70
     6
 71
     1
 72
     2
 73
     2
 90
        0
 40
-0.6
 41
-30.0
 62
     5
 63
     7
 74
     2
 91
        2
 64
     7
 65
   257
 75
     2
175
     1
 42
40.0
 92
        0
 66
   257
 43
1.0
 76
     1
 77
     6
 78
     2
 67
     7
 79
     3
170
     0
171
     0
290
     0
174
     0
 93
        1
 44
0.0
173
     0
291
     0
 45
0.0
1001
ACAD
1000
AcDbSavedByObjectVersion
1070
     0
  0
VISUALSTYLE
  5
30
102
{ACAD_REACTORS
330
2A
102
}
330
2A
100
AcDbVisualStyle
  2
3dWireframe
 70
     5
 71
     0
 72
     2
 73
     0
 90
        0
 40
-0.6
 41
-30.0
 62
     5
 63
     7
 74
     1
 91
        4
 64
     7
 65
   257
 75
     1
175
     1
 42
1.0
 92
        0
 66
   257
 43
1.0
 76
     1
 77
     6
 78
     2
 67
     7
 79
     5
170
     0
171
     0
290
     0
174
     0
 93
        1
 44
0.0
173
     0
291
     0
 45
0.0
1001
ACAD
1000
AcDbSavedByObjectVersion
1070
     0
  0
VISUALSTYLE
  5
32
102
{ACAD_REACTORS
330
2A
102
}
330
2A
100
AcDbVisualStyle
  2
Basic
 70
     7
 71
     1
 72
     0
 73
     1
 90
        0
 40
-0.6
 41
-30.0
 62
     5
 63
     7
 74
     0
 91
        4
 64
     7
 65
   257
 75
     1
175
     1
 42
1.0
 92
        8
 66
     7
 43
1.0
 76
     1
 77
     6
 78
     2
 67
     7
 79
     5
170
     0
171
     0
290
     0
174
     0
 93
        1
 44
0.0
173
     0
291
     1
 45
0.0
1001
ACAD
1000
AcDbSavedByObjectVersion
1070
     0
  0
VISUALSTYLE
  5
36
102
{ACAD_REACTORS
330
2A
102
}
330
2A
100
AcDbVisualStyle
  2
Brighten
 70
    12
 71
     2
 72
     2
 73
     0
 90
        0
 40
-0.6
 41
-30.0
 62
     5
 63
     7
 74
     1
 91
        4
 64
     7
 65
   257
 75
     1
175
     1
 42
1.0
 92
        8
 66
     7
 43
1.0
 76
     1
 77
     6
 78
     2
 67
     7
 79
     5
170
     0
171
     0
290
     0
174
     0
 93
        1
 44
50.0
173
     0
291
     1
 45
0.0
1001
ACAD
1000
AcDbSavedByObjectVersion
1070
     0
  0
VISUALSTYLE
  5
3A
102
{ACAD_REACTORS
330
2A
102
}
330
2A
100
AcDbVisualStyle
  2
ColorChange
 70
    16
 71
     2
 72
     2
 73
     3
 90
        0
 40
-0.6
 41
-30.0
 62
     5
 63
     8
 74
     1
 91
        4
 64
     7
 65
   257
 75
     1
175
     1
 42
1.0
 92
        8
 66
     8
 43
1.0
 76
     1
 77
     6
 78
     2
 67
     7
 79
     5
170
     0
171
     0
290
     0
174
     0
 93
        1
 44
0.0
173
     0
291
     1
 45
0.0
1001
ACAD
1000
AcDbSavedByObjectVersion
1070
     0
  0
VISUALSTYLE
  5
34
102
{ACAD_REACTORS
330
2A
102
}
330
2A
100
AcDbVisualStyle
  2
Conceptual
 70
     9
 71
     3
 72
     2
 73
     0
 90
        0
 40
-0.6
 41
-30.0
 62
     5
 63
     7
 74
     2
 91
        2
 64
     7
 65
   257
 75
     1
175
     1
 42
40.0
 92
        8
 66
     7
 43
1.0
 76
     1
 77
     6
 78
     2
 67
     7
 79
     3
170
     0
171
     0
290
     0
174
     0
 93
        1
 44
0.0
173
     0
291
     0
 45
0.0
1001
ACAD
1000
AcDbSavedByObjectVersion
1070
     0
  0
VISUALSTYLE
  5
35
102
{ACAD_REACTORS
330
2A
102
}
330
2A
100
AcDbVisualStyle
  2
Dim
 70
    11
 71
     2
 72
     2
 73
     0
 90
        0
 40
-0.6
 41
-30.0
 62
     5
 63
     7
 74
     1
 91
        4
 64
     7
 65
   257
 75
     1
175
     1
 42
1.0
 92
        8
 66
     7
 43
1.0
 76
     1
 77
     6
 78
     2
 67
     7
 79
     5
170
     0
171
     0
290
     0
174
     0
 93
        1
 44
-50.0
173
     0
291
     1
 45
0.0
1001
ACAD
1000
AcDbSavedByObjectVersion
1070
     0
  0
VISUALSTYLE
  5
39
102
{ACAD_REACTORS
330
2A
102
}
330
2A
100
AcDbVisualStyle
  2
Facepattern
 70
    15
 71
     2
 72
     2
 73
     0
 90
        0
 40
-0.6
 41
-30.0
 62
     5
 63
     7
 74
     1
 91
        4
 64
     7
 65
   257
 75
     1
175
     1
 42
1.0
 92
        8
 66
     7
 43
1.0
 76
     1
 77
     6
 78
     2
 67
     7
 79
     5
170
     0
171
     0
290
     0
174
     0
 93
        1
 44
0.0
173
     0
291
     1
 45
0.0
1001
ACAD
1000
AcDbSavedByObjectVersion
1070
     0
  0
VISUALSTYLE
  5
2B
102
{ACAD_REACTORS
330
2A
102
}
330
2A
100
AcDbVisualStyle
  2
Flat
 70
     0
 71
     2
 72
     1
 73
     1
 90
        2
 40
-0.6
 41
30.0
 62
     5
 63
     7
 74
     0
 91
        4
 64
     7
 65
   257
 75
     1
175
     1
 42
1.0
 92
        8
 66
     7
 43
1.0
 76
     1
 77
     6
 78
     2
 67
     7
 79
     5
170
     0
171
     0
290
     0
174
     0
 93
       13
 44
0.0
173
     0
291
     1
 45
0.0
1001
ACAD
1000
AcDbSavedByObjectVersion
1070
     0
  0
VISUALSTYLE
  5
2C
102
{ACAD_REACTORS
330
2A
102
}
330
2A
100
AcDbVisualStyle
  2
FlatWithEdges
 70
     1
 71
     2
 72
     1
 73
     1
 90
        2
 40
-0.6
 41
30.0
 62
     5
 63
     7
 74
     1
 91
        4
 64
     7
 65
   257
 75
     1
175
     1
 42
1.0
 92
        0
 66
   257
 43
1.0
 76
     1
 77
     6
 78
     2
 67
     7
 79
     5
170
     0
171
     0
290
     0
174
     0
 93
       13
 44
0.0
173
     0
291
     1
 45
0.0
1001
ACAD
1000
AcDbSavedByObjectVersion
1070
     0
  0
VISUALSTYLE
  5
2D
102
{ACAD_REACTORS
330
2A
102
}
330
2A
100
AcDbVisualStyle
  2
Gouraud
 70
     2
 71
     2
 72
     2
 73
     1
 90
        2
 40
-0.6
 41
30.0
 62
     5
 63
     7
 74
     0
 91
        4
 64
     7
 65
   257
 75
     1
175
     1
 42
1.0
 92
        0
 66
     7
 43
1.0
 76
     1
 77
     6
 78
     2
 67
     7
 79
     5
170
     0
171
     0
290
     0
174
     0
 93
       13
 44
0.0
173
     0
291
     1
 45
0.0
1001
ACAD
1000
AcDbSavedByObjectVersion
1070
     0
  0
VISUALSTYLE
  5
2E
102
{ACAD_REACTORS
330
2A
102
}
330
2A
100
AcDbVisualStyle
  2
GouraudWithEdges
 70
     3
 71
     2
 72
     2
 73
     1
 90
        2
 40
-0.6
 41
30.0
 62
     5
 63
     7
 74
     1
 91
        4
 64
     7
 65
   257
 75
     1
175
     1
 42
1.0
 92
        0
 66
   257
 43
1.0
 76
     1
 77
     6
 78
     2
 67
     7
 79
     5
170
     0
171
     0
290
     0
174
     0
 93
       13
 44
0.0
173
     0
291
     1
 45
0.0
1001
ACAD
1000
AcDbSavedByObjectVersion
1070
     0
  0
VISUALSTYLE
  5
38
102
{ACAD_REACTORS
330
2A
102
}
330
2A
100
AcDbVisualStyle
  2
Linepattern
 70
    14
 71
     2
 72
     2
 73
     0
 90
        0
 40
-0.6
 41
-30.0
 62
     5
 63
     7
 74
     1
 91
        4
 64
     7
 65
   257
 75
     7
175
     7
 42
1.0
 92
        8
 66
     7
 43
1.0
 76
     1
 77
     6
 78
     2
 67
     7
 79
     5
170
     0
171
     0
290
     0
174
     0
 93
        1
 44
0.0
173
     0
291
     1
 45
0.0
1001
ACAD
1000
AcDbSavedByObjectVersion
1070
     0
  0
VISUALSTYLE
  5
33
102
{ACAD_REACTORS
330
2A
102
}
330
2A
100
AcDbVisualStyle
  2
Realistic
 70
     8
 71
     2
 72
     2
 73
     0
 90
        0
 40
-0.6
 41
-30.0
 62
     5
 63
     7
 74
     1
 91
        0
 64
     7
 65
   257
 75
     1
175
     1
 42
1.0
 92
        8
 66
     8
 43
1.0
 76
     1
 77
     6
 78
     2
 67
     7
 79
     5
170
     0
171
     0
290
     0
174
     0
 93
       13
 44
0.0
173
     0
291
     0
 45
0.0
1001
ACAD
1000
AcDbSavedByObjectVersion
1070
     0
  0
VISUALSTYLE
  5
37
102
{ACAD_REACTORS
330
2A
102
}
330
2A
100
AcDbVisualStyle
  2
Thicken
 70
    13
 71
     2
 72
     2
 73
     0
 90
        0
 40
-0.6
 41
-30.0
 62
     5
 63
     7
 74
     1
 91
        4
 64
     7
 65
   257
 75
     1
175
     1
 42
1.0
 92
       12
 66
     7
 43
1.0
 76
     1
 77
     6
 78
     2
 67
     7
 79
     5
170
     0
171
     0
290
     0
174
     0
 93
        1
 44
0.0
173
     0
291
     1
 45
0.0
1001
ACAD
1000
AcDbSavedByObjectVersion
1070
     0
  0
DICTIONARYVAR
  5
321
102
{ACAD_REACTORS
330
31F
102
}
330
31F
100
DictionaryVariables
280
     0
  1
80.000000
  0
DICTIONARYVAR
  5
320
102
{ACAD_REACTORS
330
31F
102
}
330
31F
100
DictionaryVariables
280
     0
  1
5.000000
  0
ENDSEC
  0
EOF
