  0
SECTION
  2
HEADER
  9
$ACADVER
  1
AC1015
  9
$ACADMAINTVER
 70
     6
  9
$DWGCODEPAGE
  3
ANSI_1252
  9
$INSBASE
 10
0.0
 20
0.0
 30
0.0
  9
$EXTMIN
 10
0.0
 20
0.0
 30
0.0
  9
$EXTMAX
 10
11.0
 20
8.5
 30
0.0
  9
$LIMMIN
 10
0.0
 20
0.0
  9
$LIMMAX
 10
11.0
 20
8.5
  9
$ORTHOMODE
 70
     0
  9
$REGENMODE
 70
     1
  9
$FILLMODE
 70
     1
  9
$QTEXTMODE
 70
     0
  9
$MIRRTEXT
 70
     1
  9
$LTSCALE
 40
1.0
  9
$ATTMODE
 70
     1
  9
$TEXTSIZE
 40
0.1111111111
  9
$TRACEWID
 40
0.05
  9
$TEXTSTYLE
  7
Standard
  9
$CLAYER
  8
0
  9
$CELTYPE
  6
ByLayer
  9
$CECOLOR
 62
   256
  9
$CELTSCALE
 40
1.0
  9
$DISPSILH
 70
     0
  9
$DIMSCALE
 40
1.0
  9
$DIMASZ
 40
0.125
  9
$DIMEXO
 40
0.05
  9
$DIMDLI
 40
0.38
  9
$DIMRND
 40
0.0
  9
$DIMDLE
 40
0.0
  9
$DIMEXE
 40
0.07
  9
$DIMTP
 40
0.0
  9
$DIMTM
 40
0.0
  9
$DIMTXT
 40
0.1111111111
  9
$DIMCEN
 40
0.09
  9
$DIMTSZ
 40
0.0
  9
$DIMTOL
 70
     0
  9
$DIMLIM
 70
     0
  9
$DIMTIH
 70
     1
  9
$DIMTOH
 70
     1
  9
$DIMSE1
 70
     0
  9
$DIMSE2
 70
     0
  9
$DIMTAD
 70
     0
  9
$DIMZIN
 70
     1
  9
$DIMBLK
  1

  9
$DIMASO
 70
     1
  9
$DIMSHO
 70
     1
  9
$DIMPOST
  1

  9
$DIMAPOST
  1

  9
$DIMALT
 70
     0
  9
$DIMALTD
 70
     2
  9
$DIMALTF
 40
25.4
  9
$DIMLFAC
 40
1.0
  9
$DIMTOFL
 70
     0
  9
$DIMTVP
 40
0.0
  9
$DIMTIX
 70
     0
  9
$DIMSOXD
 70
     0
  9
$DIMSAH
 70
     0
  9
$DIMBLK1
  1

  9
$DIMBLK2
  1

  9
$DIMSTYLE
  2
Standard
  9
$DIMCLRD
 70
     0
  9
$DIMCLRE
 70
     0
  9
$DIMCLRT
 70
     0
  9
$DIMTFAC
 40
1.0
  9
$DIMGAP
 40
0.1
  9
$DIMJUST
 70
     0
  9
$DIMSD1
 70
     0
  9
$DIMSD2
 70
     0
  9
$DIMTOLJ
 70
     1
  9
$DIMTZIN
 70
     1
  9
$DIMALTZ
 70
     0
  9
$DIMALTTZ
 70
     0
  9
$DIMUPT
 70
     0
  9
$DIMDEC
 70
     2
  9
$DIMTDEC
 70
     2
  9
$DIMALTU
 70
     2
  9
$DIMALTTD
 70
     2
  9
$DIMTXSTY
  7
Standard
  9
$DIMAUNIT
 70
     0
  9
$DIMADEC
 70
     0
  9
$DIMALTRND
 40
0.0
  9
$DIMAZIN
 70
     0
  9
$DIMDSEP
 70
    46
  9
$DIMATFIT
 70
     3
  9
$DIMFRAC
 70
     0
  9
$DIMLDRBLK
  1

  9
$DIMLUNIT
 70
     2
  9
$DIMLWD
 70
    -2
  9
$DIMLWE
 70
    -2
  9
$DIMTMOVE
 70
     0
  9
$LUNITS
 70
     2
  9
$LUPREC
 70
     2
  9
$SKETCHINC
 40
0.1
  9
$FILLETRAD
 40
0.5
  9
$AUNITS
 70
     0
  9
$AUPREC
 70
     0
  9
$MENU
  1
.
  9
$ELEVATION
 40
0.0
  9
$PELEVATION
 40
0.0
  9
$THICKNESS
 40
0.0
  9
$LIMCHECK
 70
     0
  9
$CHAMFERA
 40
0.0
  9
$CHAMFERB
 40
0.0
  9
$CHAMFERC
 40
0.0
  9
$CHAMFERD
 40
0.0
  9
$SKPOLY
 70
     0
  9
$TDCREATE
 40
2458681.378180058
  9
$TDUCREATE
 40
2458681.544846725
  9
$TDUPDATE
 40
2458681.378182766
  9
$TDUUPDATE
 40
2458681.544849433
  9
$TDINDWG
 40
0.0000000116
  9
$TDUSRTIMER
 40
0.0000000116
  9
$USRTIMER
 70
     1
  9
$ANGBASE
 50
0.0
  9
$ANGDIR
 70
     0
  9
$PDMODE
 70
     0
  9
$PDSIZE
 40
-1.0
  9
$PLINEWID
 40
0.0
  9
$SPLFRAME
 70
     0
  9
$SPLINETYPE
 70
     6
  9
$SPLINESEGS
 70
     8
  9
$HANDSEED
  5
1D2
  9
$SURFTAB1
 70
     6
  9
$SURFTAB2
 70
     6
  9
$SURFTYPE
 70
     6
  9
$SURFU
 70
     6
  9
$SURFV
 70
     6
  9
$UCSBASE
  2

  9
$UCSNAME
  2

  9
$UCSORG
 10
0.0
 20
0.0
 30
0.0
  9
$UCSXDIR
 10
1.0
 20
0.0
 30
0.0
  9
$UCSYDIR
 10
0.0
 20
1.0
 30
0.0
  9
$UCSORTHOREF
  2

  9
$UCSORTHOVIEW
 70
     0
  9
$UCSORGTOP
 10
0.0
 20
0.0
 30
0.0
  9
$UCSORGBOTTOM
 10
0.0
 20
0.0
 30
0.0
  9
$UCSORGLEFT
 10
0.0
 20
0.0
 30
0.0
  9
$UCSORGRIGHT
 10
0.0
 20
0.0
 30
0.0
  9
$UCSORGFRONT
 10
0.0
 20
0.0
 30
0.0
  9
$UCSORGBACK
 10
0.0
 20
0.0
 30
0.0
  9
$PUCSBASE
  2

  9
$PUCSNAME
  2

  9
$PUCSORG
 10
0.0
 20
0.0
 30
0.0
  9
$PUCSXDIR
 10
1.0
 20
0.0
 30
0.0
  9
$PUCSYDIR
 10
0.0
 20
1.0
 30
0.0
  9
$PUCSORTHOREF
  2

  9
$PUCSORTHOVIEW
 70
     0
  9
$PUCSORGTOP
 10
0.0
 20
0.0
 30
0.0
  9
$PUCSORGBOTTOM
 10
0.0
 20
0.0
 30
0.0
  9
$PUCSORGLEFT
 10
0.0
 20
0.0
 30
0.0
  9
$PUCSORGRIGHT
 10
0.0
 20
0.0
 30
0.0
  9
$PUCSORGFRONT
 10
0.0
 20
0.0
 30
0.0
  9
$PUCSORGBACK
 10
0.0
 20
0.0
 30
0.0
  9
$USERI1
 70
     0
  9
$USERI2
 70
     0
  9
$USERI3
 70
     0
  9
$USERI4
 70
     0
  9
$USERI5
 70
     0
  9
$USERR1
 40
0.0
  9
$USERR2
 40
0.0
  9
$USERR3
 40
0.0
  9
$USERR4
 40
0.0
  9
$USERR5
 40
0.0
  9
$WORLDVIEW
 70
     1
  9
$SHADEDGE
 70
     3
  9
$SHADEDIF
 70
    70
  9
$TILEMODE
 70
     1
  9
$MAXACTVP
 70
    64
  9
$PINSBASE
 10
0.0
 20
0.0
 30
0.0
  9
$PLIMCHECK
 70
     0
  9
$PEXTMIN
 10
1.0000000000E+20
 20
1.0000000000E+20
 30
1.0000000000E+20
  9
$PEXTMAX
 10
-1.0000000000E+20
 20
-1.0000000000E+20
 30
-1.0000000000E+20
  9
$PLIMMIN
 10
0.0
 20
0.0
  9
$PLIMMAX
 10
12.0
 20
9.0
  9
$UNITMODE
 70
     0
  9
$VISRETAIN
 70
     1
  9
$PLINEGEN
 70
     0
  9
$PSLTSCALE
 70
     1
  9
$TREEDEPTH
 70
  3020
  9
$CMLSTYLE
  2
Standard
  9
$CMLJUST
 70
     0
  9
$CMLSCALE
 40
1.0
  9
$PROXYGRAPHICS
 70
     1
  9
$MEASUREMENT
 70
     0
  9
$CELWEIGHT
370
    -1
  9
$ENDCAPS
280
     0
  9
$JOINSTYLE
280
     0
  9
$LWDISPLAY
290
     1
  9
$INSUNITS
 70
     1
  9
$HYPERLINKBASE
  1

  9
$STYLESHEET
  1

  9
$XEDIT
290
     1
  9
$CEPSNTYPE
380
     0
  9
$PSTYLEMODE
290
     1
  9
$FINGERPRINTGUID
  2
{83C58819-8872-4690-A367-C9F6FF25CF55}
  9
$VERSIONGUID
  2
{FAEB1C32-E019-11D5-929B-00C0DF256EC4}
  9
$EXTNAMES
290
     1
  9
$PSVPSCALE
 40
0.0
  9
$OLESTARTUP
290
     0
  0
ENDSEC
  0
SECTION
  2
CLASSES
  0
CLASS
  1
ACDBDICTIONARYWDFLT
  2
AcDbDictionaryWithDefault
  3
ObjectDBX Classes
 90
        0
280
     0
281
     0
  0
CLASS
  1
VISUALSTYLE
  2
AcDbVisualStyle
  3
ObjectDBX Classes
 90
     4095
280
     0
281
     0
  0
CLASS
  1
MATERIAL
  2
AcDbMaterial
  3
ObjectDBX Classes
 90
     1153
280
     0
281
     0
  0
CLASS
  1
SCALE
  2
AcDbScale
  3
ObjectDBX Classes
 90
     1153
280
     0
281
     0
  0
CLASS
  1
TABLESTYLE
  2
AcDbTableStyle
  3
ObjectDBX Classes
 90
     4095
280
     0
281
     0
  0
CLASS
  1
MLEADERSTYLE
  2
AcDbMLeaderStyle
  3
ACDB_MLEADERSTYLE_CLASS
 90
     4095
280
     0
281
     0
  0
CLASS
  1
SUN
  2
AcDbSun
  3
SCENEOE
 90
     1153
280
     0
281
     0
  0
CLASS
  1
ACDBPLACEHOLDER
  2
AcDbPlaceHolder
  3
ObjectDBX Classes
 90
        0
280
     0
281
     0
  0
CLASS
  1
LAYOUT
  2
AcDbLayout
  3
ObjectDBX Classes
 90
        0
280
     0
281
     0
  0
ENDSEC
  0
SECTION
  2
TABLES
  0
TABLE
  2
VPORT
  5
8
330
0
100
AcDbSymbolTable
 70
     1
  0
VPORT
  5
29
330
8
100
AcDbSymbolTableRecord
100
AcDbViewportTableRecord
  2
*Active
 70
     0
 10
0.0
 20
0.0
 11
1.0
 21
1.0
 12
5.5
 22
4.25
 13
0.0
 23
0.0
 14
0.5
 24
0.5
 15
0.5
 25
0.5
 16
0.0
 26
0.0
 36
1.0
 17
0.0
 27
0.0
 37
0.0
 40
8.5
 41
1.2941176471
 42
50.0
 43
0.0
 44
0.0
 50
0.0
 51
0.0
 71
     0
 72
  2000
 73
     1
 74
     3
 75
     0
 76
     0
 77
     0
 78
     0
281
     0
 65
     1
110
0.0
120
0.0
130
0.0
111
1.0
121
0.0
131
0.0
112
0.0
122
1.0
132
0.0
 79
     0
146
0.0
  0
ENDTAB
  0
TABLE
  2
LTYPE
  5
5
330
0
100
AcDbSymbolTable
 70
     6
  0
LTYPE
  5
14
330
5
100
AcDbSymbolTableRecord
100
AcDbLinetypeTableRecord
  2
ByBlock
 70
     0
  3

 72
    65
 73
     0
 40
0.0
  0
LTYPE
  5
15
330
5
100
AcDbSymbolTableRecord
100
AcDbLinetypeTableRecord
  2
ByLayer
 70
     0
  3

 72
    65
 73
     0
 40
0.0
  0
LTYPE
  5
16
330
5
100
AcDbSymbolTableRecord
100
AcDbLinetypeTableRecord
  2
Continuous
 70
     0
  3
Solid line
 72
    65
 73
     0
 40
0.0
  0
LTYPE
  5
6E
330
5
100
AcDbSymbolTableRecord
100
AcDbLinetypeTableRecord
  2
HIDDEN
 70
     0
  3
Hidden __ __ __ __ __ __ __ __ __ __ __ __ __ __
 72
    65
 73
     2
 40
0.075
 49
0.05
 74
     0
 49
-0.025
 74
     0
  0
LTYPE
  5
6F
330
5
100
AcDbSymbolTableRecord
100
AcDbLinetypeTableRecord
  2
PHANTOM
 70
     0
  3
Phantom ______  __  __  ______  __  __  ______
 72
    65
 73
     6
 40
0.5
 49
0.25
 74
     0
 49
-0.05
 74
     0
 49
0.05
 74
     0
 49
-0.05
 74
     0
 49
0.05
 74
     0
 49
-0.05
 74
     0
  0
LTYPE
  5
70
330
5
100
AcDbSymbolTableRecord
100
AcDbLinetypeTableRecord
  2
CENTER
 70
     0
  3
Center ____ _ ____ _ ____ _ ____ _ ____ _ ____
 72
    65
 73
     4
 40
0.4
 49
0.25
 74
     0
 49
-0.05
 74
     0
 49
0.05
 74
     0
 49
-0.05
 74
     0
  0
LTYPE
  5
71
330
5
100
AcDbSymbolTableRecord
100
AcDbLinetypeTableRecord
  2
CENTERX2
 70
     0
  3
Center (2x) ________  __  ________  __  _____
 72
    65
 73
     4
 40
0.8
 49
0.5
 74
     0
 49
-0.1
 74
     0
 49
0.1
 74
     0
 49
-0.1
 74
     0
  0
LTYPE
  5
72
330
5
100
AcDbSymbolTableRecord
100
AcDbLinetypeTableRecord
  2
DOT2
 70
     0
  3
Dot (.5x) ........................................
 72
    65
 73
     2
 40
0.025
 49
0.0
 74
     0
 49
-0.025
 74
     0
  0
ENDTAB
  0
TABLE
  2
LAYER
  5
2
330
0
100
AcDbSymbolTable
 70
     2
  0
LAYER
  5
10
330
2
100
AcDbSymbolTableRecord
100
AcDbLayerTableRecord
  2
0
 70
     0
 62
     7
  6
Continuous
370
    -3
390
F
  0
LAYER
  5
73
330
2
100
AcDbSymbolTableRecord
100
AcDbLayerTableRecord
  2
FORMAT
 70
     0
 62
     7
  6
Continuous
370
    -3
390
F
  0
ENDTAB
  0
TABLE
  2
STYLE
  5
3
330
0
100
AcDbSymbolTable
 70
     6
  0
STYLE
  5
11
330
3
100
AcDbSymbolTableRecord
100
AcDbTextStyleTableRecord
  2
Standard
 70
     0
 40
0.0
 41
1.0
 50
0.0
 71
     0
 42
0.1111111111
  3
txt
  4

  0
STYLE
  5
12F
330
3
100
AcDbSymbolTableRecord
100
AcDbTextStyleTableRecord
  2
SLDTEXTSTYLE0
 70
     0
 40
0.0
 41
0.75
 50
0.0
 71
     0
 42
0.1111111111
  3
TXT
  4

  0
STYLE
  5
13B
330
3
100
AcDbSymbolTableRecord
100
AcDbTextStyleTableRecord
  2
SLDTEXTSTYLE1
 70
     0
 40
0.0
 41
0.6
 50
0.0
 71
     0
 42
0.1111111111
  3
TXT
  4

  0
STYLE
  5
140
330
3
100
AcDbSymbolTableRecord
100
AcDbTextStyleTableRecord
  2
SLDTEXTSTYLE2
 70
     0
 40
0.0
 41
0.6875
 50
0.0
 71
     0
 42
0.1111111111
  3
TXT
  4

  0
STYLE
  5
153
330
3
100
AcDbSymbolTableRecord
100
AcDbTextStyleTableRecord
  2
SLDTEXTSTYLE3
 70
     0
 40
0.0
 41
0.7
 50
0.0
 71
     0
 42
0.1111111111
  3
TXT
  4

  0
STYLE
  5
167
330
3
100
AcDbSymbolTableRecord
100
AcDbTextStyleTableRecord
  2
SLDTEXTSTYLE4
 70
     0
 40
0.0
 41
0.7
 50
0.0
 71
     0
 42
0.1111111111
  3
TXT
  4
bigfont
  0
ENDTAB
  0
TABLE
  2
VIEW
  5
6
330
0
100
AcDbSymbolTable
 70
     0
  0
ENDTAB
  0
TABLE
  2
UCS
  5
7
330
0
100
AcDbSymbolTable
 70
     0
  0
ENDTAB
  0
TABLE
  2
APPID
  5
9
330
0
100
AcDbSymbolTable
 70
     1
  0
APPID
  5
12
330
9
100
AcDbSymbolTableRecord
100
AcDbRegAppTableRecord
  2
ACAD
 70
     0
  0
ENDTAB
  0
TABLE
  2
DIMSTYLE
  5
A
330
0
100
AcDbSymbolTable
 70
     5
100
AcDbDimStyleTable
  0
DIMSTYLE
105
27
330
A
100
AcDbSymbolTableRecord
100
AcDbDimStyleTableRecord
  2
Standard
 70
     0
178
     0
340
11
  0
DIMSTYLE
105
170
102
{ACAD_REACTORS
330
16F
102
}
330
A
100
AcDbSymbolTableRecord
100
AcDbDimStyleTableRecord
  2
SLDDIMSTYLE0
 70
     0
 41
0.125
 44
0.0
 45
0.000000001
 78
     4
 79
     1
140
0.0833333333
141
0.0
143
0.0394
144
25.4
147
0.0208333333
148
0.000000001
170
     1
173
     1
178
     0
271
     1
272
     1
274
     0
276
     2
284
    12
340
12F
  0
DIMSTYLE
105
199
102
{ACAD_REACTORS
330
198
102
}
330
A
100
AcDbSymbolTableRecord
100
AcDbDimStyleTableRecord
  2
SLDDIMSTYLE1
 70
     0
 41
0.125
 44
0.0
 45
0.000000001
 78
    12
 79
     3
140
0.0833333333
143
0.0391304348
144
25.4
147
0.0208333333
148
0.000000001
170
     1
172
     1
173
     1
178
     0
271
     1
272
     1
276
     2
284
    12
289
     0
340
12F
  0
DIMSTYLE
105
1AE
102
{ACAD_REACTORS
330
1AD
102
}
330
A
100
AcDbSymbolTableRecord
100
AcDbDimStyleTableRecord
  2
SLDDIMSTYLE2
 70
     0
 41
0.125
 44
0.0
 45
0.000000001
 78
     4
 79
     1
140
0.0833333333
141
0.0
143
0.03925
144
25.4
147
0.0208333333
148
0.000000001
170
     1
173
     1
178
     0
271
     1
272
     1
274
     1
276
     2
284
    12
340
12F
  0
DIMSTYLE
105
1BE
102
{ACAD_REACTORS
330
1BD
102
}
330
A
100
AcDbSymbolTableRecord
100
AcDbDimStyleTableRecord
  2
SLDDIMSTYLE3
 70
     0
 41
0.125
 44
0.0
 45
0.000000001
 78
     4
 79
     1
140
0.0833333333
143
0.04
144
25.4
147
0.0208333333
148
0.000000001
170
     1
172
     1
173
     1
178
     0
271
     1
272
     1
276
     2
284
    12
289
     0
340
12F
  0
ENDTAB
  0
TABLE
  2
BLOCK_RECORD
  5
1
330
0
100
AcDbSymbolTable
 70
    12
  0
BLOCK_RECORD
  5
1F
330
1
100
AcDbSymbolTableRecord
100
AcDbBlockTableRecord
  2
*Model_Space
340
22
  0
BLOCK_RECORD
  5
1B
330
1
100
AcDbSymbolTableRecord
100
AcDbBlockTableRecord
  2
*Paper_Space
340
1E
  0
BLOCK_RECORD
  5
23
330
1
100
AcDbSymbolTableRecord
100
AcDbBlockTableRecord
  2
*Paper_Space0
340
26
  0
BLOCK_RECORD
  5
74
330
1
100
AcDbSymbolTableRecord
100
AcDbBlockTableRecord
  2
Third Angle Projection Block
340
0
102
{BLKREFS
331
12D
102
}
  0
BLOCK_RECORD
  5
81
330
1
100
AcDbSymbolTableRecord
100
AcDbBlockTableRecord
  2
THORLABS LOGO1
340
0
102
{BLKREFS
331
12E
102
}
  0
BLOCK_RECORD
  5
142
330
1
100
AcDbSymbolTableRecord
100
AcDbBlockTableRecord
  2
SW_NOTE_0
340
0
102
{BLKREFS
331
147
102
}
  0
BLOCK_RECORD
  5
148
330
1
100
AcDbSymbolTableRecord
100
AcDbBlockTableRecord
  2
SW_NOTE_1
340
0
102
{BLKREFS
331
14D
102
}
  0
BLOCK_RECORD
  5
14F
330
1
100
AcDbSymbolTableRecord
100
AcDbBlockTableRecord
  2
SW_NOTE_2
340
0
102
{BLKREFS
331
155
102
}
  0
BLOCK_RECORD
  5
157
330
1
100
AcDbSymbolTableRecord
100
AcDbBlockTableRecord
  2
SW_NOTE_3
340
0
102
{BLKREFS
331
15C
102
}
  0
BLOCK_RECORD
  5
15D
330
1
100
AcDbSymbolTableRecord
100
AcDbBlockTableRecord
  2
SW_NOTE_4
340
0
102
{BLKREFS
331
16D
102
}
  0
BLOCK_RECORD
  5
171
330
1
100
AcDbSymbolTableRecord
100
AcDbBlockTableRecord
  2
_D
340
0
  0
BLOCK_RECORD
  5
19A
330
1
100
AcDbSymbolTableRecord
100
AcDbBlockTableRecord
  2
_D_1
340
0
  0
BLOCK_RECORD
  5
1AF
330
1
100
AcDbSymbolTableRecord
100
AcDbBlockTableRecord
  2
_D_2
340
0
  0
BLOCK_RECORD
  5
1BF
330
1
100
AcDbSymbolTableRecord
100
AcDbBlockTableRecord
  2
_D_3
340
0
  0
ENDTAB
  0
ENDSEC
  0
SECTION
  2
BLOCKS
  0
BLOCK
  5
20
330
1F
100
AcDbEntity
  8
0
100
AcDbBlockBegin
  2
*Model_Space
 70
     0
 10
0.0
 20
0.0
 30
0.0
  3
*Model_Space
  1

  0
ENDBLK
  5
21
330
1F
100
AcDbEntity
  8
0
100
AcDbBlockEnd
  0
BLOCK
  5
1C
330
1B
100
AcDbEntity
 67
     1
  8
0
100
AcDbBlockBegin
  2
*Paper_Space
 70
     0
 10
0.0
 20
0.0
 30
0.0
  3
*Paper_Space
  1

  0
ENDBLK
  5
1D
330
1B
100
AcDbEntity
 67
     1
  8
0
100
AcDbBlockEnd
  0
BLOCK
  5
24
330
23
100
AcDbEntity
  8
0
100
AcDbBlockBegin
  2
*Paper_Space0
 70
     0
 10
0.0
 20
0.0
 30
0.0
  3
*Paper_Space0
  1

  0
ENDBLK
  5
25
330
23
100
AcDbEntity
  8
0
100
AcDbBlockEnd
  0
BLOCK
  5
75
330
74
100
AcDbEntity
  8
0
100
AcDbBlockBegin
  2
Third Angle Projection Block
 70
     0
 10
0.0
 20
0.0
 30
0.0
  3
Third Angle Projection Block
  1

  0
CIRCLE
  5
77
330
74
100
AcDbEntity
  8
0
  6
Continuous
 62
     7
370
    35
100
AcDbCircle
 10
3.9951432636
 20
0.7456853688
 30
0.0
 40
0.0696152422706639
  0
CIRCLE
  5
78
330
74
100
AcDbEntity
  8
0
  6
Continuous
 62
     7
370
    35
100
AcDbCircle
 10
3.9951432636
 20
0.7456853688
 30
0.0
 40
0.1535916633280245
  0
LINE
  5
79
330
74
100
AcDbEntity
  8
0
  6
CENTERX2
 62
     7
370
    18
100
AcDbLine
 10
4.3360937897
 20
0.7456853688
 30
0.0
 11
4.7028635231
 21
0.7456853688
 31
0.0
  0
LINE
  5
7A
330
74
100
AcDbEntity
  8
0
  6
Continuous
 62
     7
370
    35
100
AcDbLine
 10
4.3701432636
 20
0.815300611
 30
0.0
 11
4.3701432636
 21
0.6760701265
 31
0.0
  0
LINE
  5
7B
330
74
100
AcDbEntity
  8
0
  6
Continuous
 62
     7
370
    35
100
AcDbLine
 10
4.3701432636
 20
0.6760701265
 30
0.0
 11
4.6701432636
 21
0.5956853688
 31
0.0
  0
LINE
  5
7C
330
74
100
AcDbEntity
  8
0
  6
Continuous
 62
     7
370
    35
100
AcDbLine
 10
4.6701432636
 20
0.5956853688
 30
0.0
 11
4.6701432636
 21
0.8956853688
 31
0.0
  0
LINE
  5
7D
330
74
100
AcDbEntity
  8
0
  6
Continuous
 62
     7
370
    35
100
AcDbLine
 10
4.6701432636
 20
0.8956853688
 30
0.0
 11
4.3701432636
 21
0.815300611
 31
0.0
  0
LINE
  5
7E
330
74
100
AcDbEntity
  8
0
  6
CENTERX2
 62
     7
370
    18
100
AcDbLine
 10
3.8032513961
 20
0.7456853688
 30
0.0
 11
4.187035131
 21
0.7456853688
 31
0.0
  0
LINE
  5
7F
330
74
100
AcDbEntity
  8
0
  6
CENTERX2
 62
     7
370
    18
100
AcDbLine
 10
3.9951432636
 20
0.9375772362
 30
0.0
 11
3.9951432636
 21
0.5537935013
 31
0.0
  0
POINT
  5
80
330
74
100
AcDbEntity
  8
0
  6
Continuous
 62
     7
370
     0
100
AcDbPoint
 10
3.9951432636
 20
0.7456853688
 30
0.0
  0
ENDBLK
  5
76
330
74
100
AcDbEntity
  8
0
100
AcDbBlockEnd
  0
BLOCK
  5
82
330
81
100
AcDbEntity
  8
0
100
AcDbBlockBegin
  2
THORLABS LOGO1
 70
     0
 10
0.0
 20
0.0
 30
0.0
  3
THORLABS LOGO1
  1

  0
LINE
  5
84
330
81
100
AcDbEntity
  8
0
  6
Continuous
 62
     7
370
    18
100
AcDbLine
 10
5.0027566628
 20
1.4252803453
 30
0.0
 11
5.1019592021
 21
1.728862631
 31
0.0
  0
LINE
  5
85
330
81
100
AcDbEntity
  8
0
  6
Continuous
 62
     7
370
    18
100
AcDbLine
 10
5.1019592021
 20
1.728862631
 30
0.0
 11
5.1328565749
 21
1.728862631
 31
0.0
  0
LINE
  5
86
330
81
100
AcDbEntity
  8
0
  6
Continuous
 62
     7
370
    18
100
AcDbLine
 10
5.1328565749
 20
1.728862631
 30
0.0
 11
5.2287632137
 21
1.4252803453
 31
0.0
  0
LINE
  5
87
330
81
100
AcDbEntity
  8
0
  6
Continuous
 62
     7
370
    18
100
AcDbLine
 10
5.2287632137
 20
1.4252803453
 30
0.0
 11
5.0027566628
 21
1.4252803453
 31
0.0
  0
LINE
  5
88
330
81
100
AcDbEntity
  8
0
  6
Continuous
 62
     7
370
    18
100
AcDbLine
 10
5.0560200442
 20
1.4657534622
 30
0.0
 11
5.1727057766
 21
1.4657534622
 31
0.0
  0
LINE
  5
89
330
81
100
AcDbEntity
  8
0
  6
Continuous
 62
     7
370
    18
100
AcDbLine
 10
5.1727057766
 20
1.4657534622
 30
0.0
 11
5.1153462552
 21
1.6488997419
 31
0.0
  0
LINE
  5
8A
330
81
100
AcDbEntity
  8
0
  6
Continuous
 62
     7
370
    18
100
AcDbLine
 10
5.1153462552
 20
1.6488997419
 30
0.0
 11
5.0560200442
 21
1.4657534622
 31
0.0
  0
LINE
  5
8B
330
81
100
AcDbEntity
  8
0
  6
Continuous
 62
     7
370
    18
100
AcDbLine
 10
5.8491927678
 20
1.1691359706
 30
0.0
 11
5.2940573106
 21
1.1691359706
 31
0.0
  0
LINE
  5
8C
330
81
100
AcDbEntity
  8
0
  6
Continuous
 62
     7
370
    18
100
AcDbLine
 10
5.2940573106
 20
1.1691359706
 30
0.0
 11
5.2375115919
 21
1.2980829958
 31
0.0
  0
LINE
  5
8D
330
81
100
AcDbEntity
  8
0
  6
Continuous
 62
     7
370
    18
100
AcDbLine
 10
5.2375115919
 20
1.2980829958
 30
0.0
 11
4.9921772287
 21
1.2980829958
 31
0.0
  0
LINE
  5
8E
330
81
100
AcDbEntity
  8
0
  6
Continuous
 62
     7
370
    18
100
AcDbLine
 10
4.9921772287
 20
1.2980829958
 30
0.0
 11
4.9345193131
 21
1.1701803507
 31
0.0
  0
LINE
  5
8F
330
81
100
AcDbEntity
  8
0
  6
Continuous
 62
     7
370
    18
100
AcDbLine
 10
4.9345193131
 20
1.1701803507
 30
0.0
 11
4.2326145533
 21
1.1701803507
 31
0.0
  0
LINE
  5
90
330
81
100
AcDbEntity
  8
0
  6
Continuous
 62
     7
370
    18
100
AcDbLine
 10
4.2326145533
 20
1.1701803507
 30
0.0
 11
4.2326145533
 21
1.9287122094
 31
0.0
  0
LINE
  5
91
330
81
100
AcDbEntity
  8
0
  6
Continuous
 62
     7
370
    18
100
AcDbLine
 10
4.2326145533
 20
1.9287122094
 30
0.0
 11
4.4305042238
 21
1.9287122094
 31
0.0
  0
LINE
  5
92
330
81
100
AcDbEntity
  8
0
  6
Continuous
 62
     7
370
    18
100
AcDbLine
 10
4.4305042238
 20
1.9287122094
 30
0.0
 11
4.4305042238
 21
1.3417570697
 31
0.0
  0
LINE
  5
93
330
81
100
AcDbEntity
  8
0
  6
Continuous
 62
     7
370
    18
100
AcDbLine
 10
4.4305042238
 20
1.3417570697
 30
0.0
 11
4.7945045723
 21
1.3417570697
 31
0.0
  0
LINE
  5
94
330
81
100
AcDbEntity
  8
0
  6
Continuous
 62
     7
370
    18
100
AcDbLine
 10
4.7945045723
 20
1.3417570697
 30
0.0
 11
5.0153706034
 21
1.9287122094
 31
0.0
  0
LINE
  5
95
330
81
100
AcDbEntity
  8
0
  6
Continuous
 62
     7
370
    18
100
AcDbLine
 10
5.0153706034
 20
1.9287122094
 30
0.0
 11
5.2164205406
 21
1.9287122094
 31
0.0
  0
LINE
  5
96
330
81
100
AcDbEntity
  8
0
  6
Continuous
 62
     7
370
    18
100
AcDbLine
 10
5.2164205406
 20
1.9287122094
 30
0.0
 11
5.4843243631
 21
1.2215584227
 31
0.0
  0
LINE
  5
97
330
81
100
AcDbEntity
  8
0
  6
Continuous
 62
     7
370
    18
100
AcDbLine
 10
5.4843243631
 20
1.2215584227
 30
0.0
 11
5.4843243631
 21
1.9287122094
 31
0.0
  0
LINE
  5
98
330
81
100
AcDbEntity
  8
0
  6
Continuous
 62
     7
370
    18
100
AcDbLine
 10
5.4843243631
 20
1.9287122094
 30
0.0
 11
5.8396034603
 21
1.9287122094
 31
0.0
  0
LINE
  5
99
330
81
100
AcDbEntity
  8
0
  6
Continuous
 62
     7
370
    18
100
AcDbLine
 10
6.1439656401
 20
1.4265146126
 30
0.0
 11
6.3331069324
 21
1.4265146126
 31
0.0
  0
LINE
  5
9A
330
81
100
AcDbEntity
  8
0
  6
Continuous
 62
     7
370
    18
100
AcDbLine
 10
6.7713803334
 20
1.7009356377
 30
0.0
 11
6.5735177897
 21
1.7009356377
 31
0.0
  0
LINE
  5
9B
330
81
100
AcDbEntity
  8
0
  6
Continuous
 62
     7
370
    18
100
AcDbLine
 10
6.3611288693
 20
1.4617251393
 30
0.0
 11
6.1697496198
 21
1.4617251393
 31
0.0
  0
LINE
  5
9C
330
81
100
AcDbEntity
  8
0
  6
Continuous
 62
     7
370
    18
100
AcDbLine
 10
6.5822574058
 20
1.661764605
 30
0.0
 11
6.8137468534
 21
1.6601369997
 31
0.0
  0
LINE
  5
9D
330
81
100
AcDbEntity
  8
0
  6
Continuous
 62
     7
370
    18
100
AcDbLine
 10
5.8160384047
 20
1.9703585585
 30
0.0
 11
5.445043348
 21
1.9703585585
 31
0.0
  0
LINE
  5
9E
330
81
100
AcDbEntity
  8
0
  6
Continuous
 62
     7
370
    18
100
AcDbLine
 10
5.445043348
 20
1.9703585585
 30
0.0
 11
5.445043348
 21
1.4468596781
 31
0.0
  0
LINE
  5
9F
330
81
100
AcDbEntity
  8
0
  6
Continuous
 62
     7
370
    18
100
AcDbLine
 10
5.445043348
 20
1.4468596781
 30
0.0
 11
5.2510328034
 21
1.9703585585
 31
0.0
  0
LINE
  5
A0
330
81
100
AcDbEntity
  8
0
  6
Continuous
 62
     7
370
    18
100
AcDbLine
 10
5.2510328034
 20
1.9703585585
 30
0.0
 11
4.9914754811
 21
1.9703585585
 31
0.0
  0
LINE
  5
A1
330
81
100
AcDbEntity
  8
0
  6
Continuous
 62
     7
370
    18
100
AcDbLine
 10
4.9914754811
 20
1.9703585585
 30
0.0
 11
4.7654196175
 21
1.3715077401
 31
0.0
  0
LINE
  5
A2
330
81
100
AcDbEntity
  8
0
  6
Continuous
 62
     7
370
    18
100
AcDbLine
 10
4.7654196175
 20
1.3715077401
 30
0.0
 11
4.4777117365
 21
1.3697177642
 31
0.0
  0
LINE
  5
A3
330
81
100
AcDbEntity
  8
0
  6
Continuous
 62
     7
370
    18
100
AcDbLine
 10
4.4777117365
 20
1.3697177642
 30
0.0
 11
4.473974847
 21
1.9703585585
 31
0.0
  0
LINE
  5
A4
330
81
100
AcDbEntity
  8
0
  6
Continuous
 62
     7
370
    18
100
AcDbLine
 10
4.473974847
 20
1.9703585585
 30
0.0
 11
4.1883843809
 21
1.9703585585
 31
0.0
  0
LINE
  5
A5
330
81
100
AcDbEntity
  8
0
  6
Continuous
 62
     7
370
    18
100
AcDbLine
 10
4.1883843809
 20
1.9703585585
 30
0.0
 11
4.1878689726
 21
1.1298564308
 31
0.0
  0
LINE
  5
A6
330
81
100
AcDbEntity
  8
0
  6
Continuous
 62
     7
370
    18
100
AcDbLine
 10
4.1878689726
 20
1.1298564308
 30
0.0
 11
4.9634093061
 21
1.1323114021
 31
0.0
  0
LINE
  5
A7
330
81
100
AcDbEntity
  8
0
  6
Continuous
 62
     7
370
    18
100
AcDbLine
 10
4.9634093061
 20
1.1323114021
 30
0.0
 11
5.0133903503
 21
1.2561992876
 31
0.0
  0
LINE
  5
A8
330
81
100
AcDbEntity
  8
0
  6
Continuous
 62
     7
370
    18
100
AcDbLine
 10
5.0133903503
 20
1.2561992876
 30
0.0
 11
5.2171800897
 21
1.2561992876
 31
0.0
  0
LINE
  5
A9
330
81
100
AcDbEntity
  8
0
  6
Continuous
 62
     7
370
    18
100
AcDbLine
 10
5.2171800897
 20
1.2561992876
 30
0.0
 11
5.2651401908
 21
1.1323114021
 31
0.0
  0
LINE
  5
AA
330
81
100
AcDbEntity
  8
0
  6
Continuous
 62
     7
370
    18
100
AcDbLine
 10
5.2651401908
 20
1.1323114021
 30
0.0
 11
5.8927766994
 21
1.1323114021
 31
0.0
  0
LINE
  5
AB
330
81
100
AcDbEntity
  8
0
  6
Continuous
 62
     7
370
    18
100
AcDbLine
 10
1.888727374
 20
1.7820107237
 30
0.0
 11
1.6606795348
 21
1.7820107237
 31
0.0
  0
LINE
  5
AC
330
81
100
AcDbEntity
  8
0
  6
Continuous
 62
     7
370
    18
100
AcDbLine
 10
1.6606795348
 20
1.7820107237
 30
0.0
 11
1.6606795348
 21
1.1298564308
 31
0.0
  0
LINE
  5
AD
330
81
100
AcDbEntity
  8
0
  6
Continuous
 62
     7
370
    18
100
AcDbLine
 10
1.6606795348
 20
1.1298564308
 30
0.0
 11
1.4408443204
 21
1.1298564308
 31
0.0
  0
LINE
  5
AE
330
81
100
AcDbEntity
  8
0
  6
Continuous
 62
     7
370
    18
100
AcDbLine
 10
1.4408443204
 20
1.1298564308
 30
0.0
 11
1.4408443204
 21
1.7820107237
 31
0.0
  0
LINE
  5
AF
330
81
100
AcDbEntity
  8
0
  6
Continuous
 62
     7
370
    18
100
AcDbLine
 10
1.4408443204
 20
1.7820107237
 30
0.0
 11
1.1890944799
 21
1.7820107237
 31
0.0
  0
LINE
  5
B0
330
81
100
AcDbEntity
  8
0
  6
Continuous
 62
     7
370
    18
100
AcDbLine
 10
1.1890944799
 20
1.7820107237
 30
0.0
 11
1.1890944799
 21
1.9703585585
 31
0.0
  0
LINE
  5
B1
330
81
100
AcDbEntity
  8
0
  6
Continuous
 62
     7
370
    18
100
AcDbLine
 10
1.1890944799
 20
1.9703585585
 30
0.0
 11
2.1085422433
 21
1.9703585585
 31
0.0
  0
LINE
  5
B2
330
81
100
AcDbEntity
  8
0
  6
Continuous
 62
     7
370
    18
100
AcDbLine
 10
2.1085422433
 20
1.9703585585
 30
0.0
 11
2.1085422433
 21
1.6642873931
 31
0.0
  0
LINE
  5
B3
330
81
100
AcDbEntity
  8
0
  6
Continuous
 62
     7
370
    18
100
AcDbLine
 10
2.1085422433
 20
1.6642873931
 30
0.0
 11
2.398127124
 21
1.6642873931
 31
0.0
  0
LINE
  5
B4
330
81
100
AcDbEntity
  8
0
  6
Continuous
 62
     7
370
    18
100
AcDbLine
 10
2.398127124
 20
1.6642873931
 30
0.0
 11
2.398127124
 21
1.9703585585
 31
0.0
  0
LINE
  5
B5
330
81
100
AcDbEntity
  8
0
  6
Continuous
 62
     7
370
    18
100
AcDbLine
 10
2.398127124
 20
1.9703585585
 30
0.0
 11
2.6179691201
 21
1.9703585585
 31
0.0
  0
LINE
  5
B6
330
81
100
AcDbEntity
  8
0
  6
Continuous
 62
     7
370
    18
100
AcDbLine
 10
2.6179691201
 20
1.9703585585
 30
0.0
 11
2.6179691201
 21
1.1298564308
 31
0.0
  0
LINE
  5
B7
330
81
100
AcDbEntity
  8
0
  6
Continuous
 62
     7
370
    18
100
AcDbLine
 10
2.6179691201
 20
1.1298564308
 30
0.0
 11
2.398127124
 21
1.1298564308
 31
0.0
  0
LINE
  5
B8
330
81
100
AcDbEntity
  8
0
  6
Continuous
 62
     7
370
    18
100
AcDbLine
 10
2.398127124
 20
1.1298564308
 30
0.0
 11
2.398127124
 21
1.4759666851
 31
0.0
  0
LINE
  5
B9
330
81
100
AcDbEntity
  8
0
  6
Continuous
 62
     7
370
    18
100
AcDbLine
 10
2.398127124
 20
1.4759666851
 30
0.0
 11
2.1085422433
 21
1.4759666851
 31
0.0
  0
LINE
  5
BA
330
81
100
AcDbEntity
  8
0
  6
Continuous
 62
     7
370
    18
100
AcDbLine
 10
2.1085422433
 20
1.4759666851
 30
0.0
 11
2.1085422433
 21
1.1298564308
 31
0.0
  0
LINE
  5
BB
330
81
100
AcDbEntity
  8
0
  6
Continuous
 62
     7
370
    18
100
AcDbLine
 10
2.1085422433
 20
1.1298564308
 30
0.0
 11
1.888727374
 21
1.1298564308
 31
0.0
  0
LINE
  5
BC
330
81
100
AcDbEntity
  8
0
  6
Continuous
 62
     7
370
    18
100
AcDbLine
 10
1.888727374
 20
1.1298564308
 30
0.0
 11
1.888727374
 21
1.7820107237
 31
0.0
  0
LINE
  5
BD
330
81
100
AcDbEntity
  8
0
  6
Continuous
 62
     7
370
    18
100
AcDbLine
 10
3.6696191191
 20
1.6063107381
 30
0.0
 11
3.8539996661
 21
1.6063107381
 31
0.0
  0
LINE
  5
BE
330
81
100
AcDbEntity
  8
0
  6
Continuous
 62
     7
370
    18
100
AcDbLine
 10
3.8445459923
 20
1.7958182415
 30
0.0
 11
3.6696191191
 21
1.7958182415
 31
0.0
  0
LINE
  5
BF
330
81
100
AcDbEntity
  8
0
  6
Continuous
 62
     7
370
    18
100
AcDbLine
 10
3.6696191191
 20
1.7958182415
 30
0.0
 11
3.6696191191
 21
1.6063107381
 31
0.0
  0
LINE
  5
C0
330
81
100
AcDbEntity
  8
0
  6
Continuous
 62
     7
370
    18
100
AcDbLine
 10
3.4497771227
 20
1.9703585585
 30
0.0
 11
3.8800074411
 21
1.9703585585
 31
0.0
  0
LINE
  5
C1
330
81
100
AcDbEntity
  8
0
  6
Continuous
 62
     7
370
    18
100
AcDbLine
 10
4.0430934862
 20
1.5230587301
 30
0.0
 11
4.0430934862
 21
1.5206987025
 31
0.0
  0
LINE
  5
C2
330
81
100
AcDbEntity
  8
0
  6
Continuous
 62
     7
370
    18
100
AcDbLine
 10
4.1876713682
 20
1.1298564308
 30
0.0
 11
3.9839978526
 21
1.1298564308
 31
0.0
  0
LINE
  5
C3
330
81
100
AcDbEntity
  8
0
  6
Continuous
 62
     7
370
    18
100
AcDbLine
 10
3.8362994587
 20
1.4359411596
 30
0.0
 11
3.6696191188
 21
1.4359411596
 31
0.0
  0
LINE
  5
C4
330
81
100
AcDbEntity
  8
0
  6
Continuous
 62
     7
370
    18
100
AcDbLine
 10
3.6696191188
 20
1.4359411596
 30
0.0
 11
3.6696191188
 21
1.1298564308
 31
0.0
  0
LINE
  5
C5
330
81
100
AcDbEntity
  8
0
  6
Continuous
 62
     7
370
    18
100
AcDbLine
 10
3.6696191188
 20
1.1298564308
 30
0.0
 11
3.4497771227
 21
1.1298564308
 31
0.0
  0
LINE
  5
C6
330
81
100
AcDbEntity
  8
0
  6
Continuous
 62
     7
370
    18
100
AcDbLine
 10
3.4497771227
 20
1.1298564308
 30
0.0
 11
3.4497771227
 21
1.9703585585
 31
0.0
  0
LINE
  5
C7
330
81
100
AcDbEntity
  8
0
  6
Continuous
 62
     7
370
    18
100
AcDbLine
 10
5.6646494603
 20
1.7856524905
 30
0.0
 11
5.8407563473
 21
1.7856524905
 31
0.0
  0
LINE
  5
C8
330
81
100
AcDbEntity
  8
0
  6
Continuous
 62
     7
370
    18
100
AcDbLine
 10
5.8407563473
 20
1.601936549
 30
0.0
 11
5.6646494603
 21
1.601936549
 31
0.0
  0
LINE
  5
C9
330
81
100
AcDbEntity
  8
0
  6
Continuous
 62
     7
370
    18
100
AcDbLine
 10
5.6646494603
 20
1.601936549
 30
0.0
 11
5.6646494603
 21
1.7856524905
 31
0.0
  0
LINE
  5
CA
330
81
100
AcDbEntity
  8
0
  6
Continuous
 62
     7
370
    18
100
AcDbLine
 10
5.7031965778
 20
1.7453489157
 30
0.0
 11
5.7031965778
 21
1.6393104343
 31
0.0
  0
LINE
  5
CB
330
81
100
AcDbEntity
  8
0
  6
Continuous
 62
     7
370
    18
100
AcDbLine
 10
5.7031965778
 20
1.6393104343
 30
0.0
 11
5.8261350269
 21
1.6393104343
 31
0.0
  0
LINE
  5
CC
330
81
100
AcDbEntity
  8
0
  6
Continuous
 62
     7
370
    18
100
AcDbLine
 10
5.8261350269
 20
1.7453489157
 30
0.0
 11
5.7031965778
 21
1.7453489157
 31
0.0
  0
LINE
  5
CD
330
81
100
AcDbEntity
  8
0
  6
Continuous
 62
     7
370
    18
100
AcDbLine
 10
5.6646494603
 20
1.5140797745
 30
0.0
 11
5.8602604834
 21
1.5140797745
 31
0.0
  0
LINE
  5
CE
330
81
100
AcDbEntity
  8
0
  6
Continuous
 62
     7
370
    18
100
AcDbLine
 10
5.8602604834
 20
1.3023554595
 30
0.0
 11
5.6646494603
 21
1.3023554595
 31
0.0
  0
LINE
  5
CF
330
81
100
AcDbEntity
  8
0
  6
Continuous
 62
     7
370
    18
100
AcDbLine
 10
5.6646494603
 20
1.3023554595
 30
0.0
 11
5.6646494603
 21
1.5140797745
 31
0.0
  0
LINE
  5
D0
330
81
100
AcDbEntity
  8
0
  6
Continuous
 62
     7
370
    18
100
AcDbLine
 10
5.7021793245
 20
1.4746510376
 30
0.0
 11
5.7021793245
 21
1.338420479
 31
0.0
  0
LINE
  5
D1
330
81
100
AcDbEntity
  8
0
  6
Continuous
 62
     7
370
    18
100
AcDbLine
 10
5.7021793245
 20
1.338420479
 30
0.0
 11
5.849057134
 21
1.338420479
 31
0.0
  0
LINE
  5
D2
330
81
100
AcDbEntity
  8
0
  6
Continuous
 62
     7
370
    18
100
AcDbLine
 10
5.849057134
 20
1.4746510376
 30
0.0
 11
5.7021793245
 21
1.4746510376
 31
0.0
  0
LINE
  5
D3
330
81
100
AcDbEntity
  8
0
  6
Continuous
 62
     7
370
    18
100
AcDbLine
 10
4.1876713682
 20
1.169893795
 30
0.0
 11
4.1876713682
 21
1.1298564308
 31
0.0
  0
SPLINE
  5
D4
330
81
100
AcDbEntity
  8
0
  6
Continuous
 62
     8
370
     0
100
AcDbSpline
210
0.0
220
0.0
230
1.0
 70
     8
 71
     3
 72
     8
 73
     4
 74
     0
 42
0.000000001
 43
0.00000001
 40
0.0
 40
0.0
 40
0.0
 40
0.0
 40
1.0
 40
1.0
 40
1.0
 40
1.0
 10
6.53206810961936
 20
1.672201623557404
 30
0.0
 10
6.42666710695353
 20
1.698718025592109
 30
0.0
 10
6.398197578630848
 20
1.703322792083558
 30
0.0
 10
6.398197578630848
 20
1.725763399329808
 30
0.0
  0
SPLINE
  5
D5
330
81
100
AcDbEntity
  8
0
  6
Continuous
 62
     8
370
     0
100
AcDbSpline
210
0.0
220
0.0
230
1.0
 70
     8
 71
     3
 72
     8
 73
     4
 74
     0
 42
0.000000001
 43
0.00000001
 40
1.0
 40
1.0
 40
1.0
 40
1.0
 40
2.0
 40
2.0
 40
2.0
 40
2.0
 10
6.398197578630848
 20
1.725763399329808
 30
0.0
 10
6.398197578630848
 20
1.735746044801697
 30
0.0
 10
6.444163863283336
 20
1.742378536154624
 30
0.0
 10
6.466136534023091
 20
1.741747839124131
 30
0.0
  0
SPLINE
  5
D6
330
81
100
AcDbEntity
  8
0
  6
Continuous
 62
     8
370
     0
100
AcDbSpline
210
0.0
220
0.0
230
1.0
 70
     8
 71
     3
 72
     8
 73
     4
 74
     0
 42
0.000000001
 43
0.00000001
 40
2.0
 40
2.0
 40
2.0
 40
2.0
 40
3.0
 40
3.0
 40
3.0
 40
3.0
 10
6.466136534023091
 20
1.741747839124131
 30
0.0
 10
6.511465339956586
 20
1.740405064801146
 30
0.0
 10
6.525652632298431
 20
1.731161623375749
 30
0.0
 10
6.53007429320038
 20
1.703790728590053
 30
0.0
  0
SPLINE
  5
D7
330
81
100
AcDbEntity
  8
0
  6
Continuous
 62
     8
370
     0
100
AcDbSpline
210
0.0
220
0.0
230
1.0
 70
     8
 71
     3
 72
     8
 73
     4
 74
     0
 42
0.000000001
 43
0.00000001
 40
3.0
 40
3.0
 40
3.0
 40
3.0
 40
4.0
 40
4.0
 40
4.0
 40
4.0
 10
6.53007429320038
 20
1.703790728590053
 30
0.0
 10
6.531851095587361
 20
1.692994280498173
 30
0.0
 10
6.532040982865359
 20
1.686293972260247
 30
0.0
 10
6.53206810961936
 20
1.672201623557404
 30
0.0
  0
SPLINE
  5
D8
330
81
100
AcDbEntity
  8
0
  6
Continuous
 62
     8
370
     0
100
AcDbSpline
210
0.0
220
0.0
230
1.0
 70
     8
 71
     3
 72
     8
 73
     4
 74
     0
 42
0.000000001
 43
0.00000001
 40
0.0
 40
0.0
 40
0.0
 40
0.0
 40
1.0
 40
1.0
 40
1.0
 40
1.0
 10
6.464970083601106
 20
1.146580074682249
 30
0.0
 10
6.310659543473821
 20
1.146580074682249
 30
0.0
 10
6.172313098075359
 20
1.216228015576475
 30
0.0
 10
6.1417005561867
 20
1.364258712152829
 30
0.0
  0
SPLINE
  5
D9
330
81
100
AcDbEntity
  8
0
  6
Continuous
 62
     8
370
     0
100
AcDbSpline
210
0.0
220
0.0
230
1.0
 70
     8
 71
     3
 72
     8
 73
     4
 74
     0
 42
0.000000001
 43
0.00000001
 40
1.0
 40
1.0
 40
1.0
 40
1.0
 40
2.0
 40
2.0
 40
2.0
 40
2.0
 10
6.1417005561867
 20
1.364258712152829
 30
0.0
 10
6.121531814587923
 20
1.219727366842436
 30
0.0
 10
5.997969450119299
 20
1.169135970632998
 30
0.0
 10
5.849192767807954
 20
1.169135970632998
 30
0.0
  0
SPLINE
  5
DA
330
81
100
AcDbEntity
  8
0
  6
Continuous
 62
     8
370
     0
100
AcDbSpline
210
0.0
220
0.0
230
1.0
 70
     8
 71
     3
 72
     8
 73
     4
 74
     0
 42
0.000000001
 43
0.00000001
 40
16.0
 40
16.0
 40
16.0
 40
16.0
 40
17.0
 40
17.0
 40
17.0
 40
17.0
 10
5.839603460269061
 20
1.928712209378552
 30
0.0
 10
5.970422231432604
 20
1.930828096190528
 30
0.0
 10
6.114058393861008
 20
1.896939998756405
 30
0.0
 10
6.114058393861008
 20
1.739062290478161
 30
0.0
  0
SPLINE
  5
DB
330
81
100
AcDbEntity
  8
0
  6
Continuous
 62
     8
370
     0
100
AcDbSpline
210
0.0
220
0.0
230
1.0
 70
     8
 71
     3
 72
     8
 73
     4
 74
     0
 42
0.000000001
 43
0.00000001
 40
17.0
 40
17.0
 40
17.0
 40
17.0
 40
18.0
 40
18.0
 40
18.0
 40
18.0
 10
6.114058393861008
 20
1.739062290478161
 30
0.0
 10
6.114058393861008
 20
1.671245405478915
 30
0.0
 10
6.073639530401458
 20
1.616178094859527
 30
0.0
 10
6.014055615241119
 20
1.586508207672357
 30
0.0
  0
SPLINE
  5
DC
330
81
100
AcDbEntity
  8
0
  6
Continuous
 62
     8
370
     0
100
AcDbSpline
210
0.0
220
0.0
230
1.0
 70
     8
 71
     3
 72
     8
 73
     4
 74
     0
 42
0.000000001
 43
0.00000001
 40
18.0
 40
18.0
 40
18.0
 40
18.0
 40
19.0
 40
19.0
 40
19.0
 40
19.0
 10
6.014055615241119
 20
1.586508207672357
 30
0.0
 10
6.088844076018288
 20
1.564935656554097
 30
0.0
 10
6.137129698137751
 20
1.50351390381028
 30
0.0
 10
6.143965640145676
 20
1.426514612582136
 30
0.0
  0
SPLINE
  5
DD
330
81
100
AcDbEntity
  8
0
  6
Continuous
 62
     8
370
     0
100
AcDbSpline
210
0.0
220
0.0
230
1.0
 70
     8
 71
     3
 72
     8
 73
     4
 74
     0
 42
0.000000001
 43
0.00000001
 40
20.0
 40
20.0
 40
20.0
 40
20.0
 40
21.0
 40
21.0
 40
21.0
 40
21.0
 10
6.33310693240857
 20
1.426514612582136
 30
0.0
 10
6.337338706032524
 20
1.337511732709126
 30
0.0
 10
6.392663720814909
 20
1.308906570616444
 30
0.0
 10
6.476688841328976
 20
1.308906570616444
 30
0.0
  0
SPLINE
  5
DE
330
81
100
AcDbEntity
  8
0
  6
Continuous
 62
     8
370
     0
100
AcDbSpline
210
0.0
220
0.0
230
1.0
 70
     8
 71
     3
 72
     8
 73
     4
 74
     0
 42
0.000000001
 43
0.00000001
 40
21.0
 40
21.0
 40
21.0
 40
21.0
 40
22.0
 40
22.0
 40
22.0
 40
22.0
 10
6.476688841328976
 20
1.308906570616444
 30
0.0
 10
6.536259193112312
 20
1.308906570616444
 30
0.0
 10
6.597972558461627
 20
1.330119692244208
 30
0.0
 10
6.597972558461627
 20
1.386272073023584
 30
0.0
  0
SPLINE
  5
DF
330
81
100
AcDbEntity
  8
0
  6
Continuous
 62
     8
370
     0
100
AcDbSpline
210
0.0
220
0.0
230
1.0
 70
     8
 71
     3
 72
     8
 73
     4
 74
     0
 42
0.000000001
 43
0.00000001
 40
22.0
 40
22.0
 40
22.0
 40
22.0
 40
23.0
 40
23.0
 40
23.0
 40
23.0
 10
6.597972558461627
 20
1.386272073023584
 30
0.0
 10
6.597972558461627
 20
1.453003887862842
 30
0.0
 10
6.489492669216833
 20
1.4657127721117
 30
0.0
 10
6.379887019681052
 20
1.496433821016359
 30
0.0
  0
SPLINE
  5
E0
330
81
100
AcDbEntity
  8
0
  6
Continuous
 62
     8
370
     0
100
AcDbSpline
210
0.0
220
0.0
230
1.0
 70
     8
 71
     3
 72
     8
 73
     4
 74
     0
 42
0.000000001
 43
0.00000001
 40
23.0
 40
23.0
 40
23.0
 40
23.0
 40
24.0
 40
24.0
 40
24.0
 40
24.0
 10
6.379887019681052
 20
1.496433821016359
 30
0.0
 10
6.271380003682258
 20
1.527148088232517
 30
0.0
 10
6.157569707276522
 20
1.575894865169975
 30
0.0
 10
6.157569707276522
 20
1.714702465386432
 30
0.0
  0
SPLINE
  5
E1
330
81
100
AcDbEntity
  8
0
  6
Continuous
 62
     8
370
     0
100
AcDbSpline
210
0.0
220
0.0
230
1.0
 70
     8
 71
     3
 72
     8
 73
     4
 74
     0
 42
0.000000001
 43
0.00000001
 40
24.0
 40
24.0
 40
24.0
 40
24.0
 40
25.0
 40
25.0
 40
25.0
 40
25.0
 10
6.157569707276522
 20
1.714702465386432
 30
0.0
 10
6.157569707276522
 20
1.879972214129594
 30
0.0
 10
6.324602695029665
 20
1.944588142156874
 30
0.0
 10
6.467113097167081
 20
1.944588142156874
 30
0.0
  0
SPLINE
  5
E2
330
81
100
AcDbEntity
  8
0
  6
Continuous
 62
     8
370
     0
100
AcDbSpline
210
0.0
220
0.0
230
1.0
 70
     8
 71
     3
 72
     8
 73
     4
 74
     0
 42
0.000000001
 43
0.00000001
 40
25.0
 40
25.0
 40
25.0
 40
25.0
 40
26.0
 40
26.0
 40
26.0
 40
26.0
 10
6.467113097167081
 20
1.944588142156874
 30
0.0
 10
6.6181819901914
 20
1.944588142156874
 30
0.0
 10
6.77029526324471
 20
1.871501885193187
 30
0.0
 10
6.771380333404697
 20
1.700935637731585
 30
0.0
  0
SPLINE
  5
E3
330
81
100
AcDbEntity
  8
0
  6
Continuous
 62
     8
370
     0
100
AcDbSpline
210
0.0
220
0.0
230
1.0
 70
     8
 71
     3
 72
     8
 73
     4
 74
     0
 42
0.000000001
 43
0.00000001
 40
27.0
 40
27.0
 40
27.0
 40
27.0
 40
28.0
 40
28.0
 40
28.0
 40
28.0
 10
6.573517789730897
 20
1.700935637731585
 30
0.0
 10
6.576718746702861
 20
1.769776557694319
 30
0.0
 10
6.511804424381583
 20
1.792034059351072
 30
0.0
 10
6.451149002438259
 20
1.792034059351072
 30
0.0
  0
SPLINE
  5
E4
330
81
100
AcDbEntity
  8
0
  6
Continuous
 62
     8
370
     0
100
AcDbSpline
210
0.0
220
0.0
230
1.0
 70
     8
 71
     3
 72
     8
 73
     4
 74
     0
 42
0.000000001
 43
0.00000001
 40
28.0
 40
28.0
 40
28.0
 40
28.0
 40
29.0
 40
29.0
 40
29.0
 40
29.0
 10
6.451149002438259
 20
1.792034059351072
 30
0.0
 10
6.408641378920731
 20
1.792034059351072
 30
0.0
 10
6.355459377704324
 20
1.777202506601737
 30
0.0
 10
6.355459377704324
 20
1.72741813132379
 30
0.0
  0
SPLINE
  5
E5
330
81
100
AcDbEntity
  8
0
  6
Continuous
 62
     8
370
     0
100
AcDbSpline
210
0.0
220
0.0
230
1.0
 70
     8
 71
     3
 72
     8
 73
     4
 74
     0
 42
0.000000001
 43
0.00000001
 40
29.0
 40
29.0
 40
29.0
 40
29.0
 40
30.0
 40
30.0
 40
30.0
 40
30.0
 10
6.355459377704324
 20
1.72741813132379
 30
0.0
 10
6.355459377704324
 20
1.669136300355438
 30
0.0
 10
6.464970083601106
 20
1.658529739541556
 30
0.0
 10
6.575633676542875
 20
1.627808690636898
 30
0.0
  0
SPLINE
  5
E6
330
81
100
AcDbEntity
  8
0
  6
Continuous
 62
     8
370
     0
100
AcDbSpline
210
0.0
220
0.0
230
1.0
 70
     8
 71
     3
 72
     8
 73
     4
 74
     0
 42
0.000000001
 43
0.00000001
 40
30.0
 40
30.0
 40
30.0
 40
30.0
 40
31.0
 40
31.0
 40
31.0
 40
31.0
 10
6.575633676542875
 20
1.627808690636898
 30
0.0
 10
6.685225762701656
 20
1.597094423420739
 30
0.0
 10
6.795835102135427
 20
1.546231759671305
 30
0.0
 10
6.795835102135427
 20
1.409573954709325
 30
0.0
  0
SPLINE
  5
E7
330
81
100
AcDbEntity
  8
0
  6
Continuous
 62
     8
370
     0
100
AcDbSpline
210
0.0
220
0.0
230
1.0
 70
     8
 71
     3
 72
     8
 73
     4
 74
     0
 42
0.000000001
 43
0.00000001
 40
31.0
 40
31.0
 40
31.0
 40
31.0
 40
32.0
 40
32.0
 40
32.0
 40
32.0
 10
6.795835102135427
 20
1.409573954709325
 30
0.0
 10
6.795835102135427
 20
1.217814930685457
 30
0.0
 10
6.632016634731248
 20
1.146580074682249
 30
0.0
 10
6.464970083601106
 20
1.146580074682249
 30
0.0
  0
SPLINE
  5
E8
330
81
100
AcDbEntity
  8
0
  6
Continuous
 62
     8
370
     0
100
AcDbSpline
210
0.0
220
0.0
230
1.0
 70
     8
 71
     3
 72
     8
 73
     4
 74
     0
 42
0.000000001
 43
0.00000001
 40
0.0
 40
0.0
 40
0.0
 40
0.0
 40
1.0
 40
1.0
 40
1.0
 40
1.0
 10
6.323924526179674
 20
1.472182502940628
 30
0.0
 10
6.336145128856538
 20
1.468805222067666
 30
0.0
 10
6.348623435696399
 20
1.465305870801705
 30
0.0
 10
6.361128869290259
 20
1.461725139273745
 30
0.0
  0
SPLINE
  5
E9
330
81
100
AcDbEntity
  8
0
  6
Continuous
 62
     8
370
     0
100
AcDbSpline
210
0.0
220
0.0
230
1.0
 70
     8
 71
     3
 72
     8
 73
     4
 74
     0
 42
0.000000001
 43
0.00000001
 40
3.00211844657731
 40
3.00211844657731
 40
3.00211844657731
 40
3.00211844657731
 40
4.0
 40
4.0
 40
4.0
 40
4.0
 10
2.618907161005894
 20
1.540397219651859
 30
0.0
 10
2.619039712447584
 20
1.78244579638247
 30
0.0
 10
2.768105767566222
 20
1.975436844263769
 30
0.0
 10
3.032483353120667
 20
1.975982452153303
 30
0.0
  0
SPLINE
  5
EA
330
81
100
AcDbEntity
  8
0
  6
Continuous
 62
     8
370
     0
100
AcDbSpline
210
0.0
220
0.0
230
1.0
 70
     8
 71
     3
 72
     8
 73
     4
 74
     0
 42
0.000000001
 43
0.00000001
 40
3.0
 40
3.0
 40
3.0
 40
3.0
 40
4.0
 40
4.0
 40
4.0
 40
4.0
 10
6.366310079304203
 20
1.460219604426761
 30
0.0
 10
6.459436225785168
 20
1.43335055459006
 30
0.0
 10
6.553118470723124
 20
1.401395238378416
 30
0.0
 10
6.548235655003179
 20
1.381891102252633
 30
0.0
  0
SPLINE
  5
EB
330
81
100
AcDbEntity
  8
0
  6
Continuous
 62
     8
370
     0
100
AcDbSpline
210
0.0
220
0.0
230
1.0
 70
     8
 71
     3
 72
     8
 73
     4
 74
     0
 42
0.000000001
 43
0.00000001
 40
4.0
 40
4.0
 40
4.0
 40
4.0
 40
5.0
 40
5.0
 40
5.0
 40
5.0
 10
6.548235655003179
 20
1.381891102252633
 30
0.0
 10
6.538971868512282
 20
1.344741012650046
 30
0.0
 10
6.511858677889584
 20
1.33444640950716
 30
0.0
 10
6.441261300605367
 20
1.353719968223946
 30
0.0
  0
SPLINE
  5
EC
330
81
100
AcDbEntity
  8
0
  6
Continuous
 62
     8
370
     0
100
AcDbSpline
210
0.0
220
0.0
230
1.0
 70
     8
 71
     3
 72
     8
 73
     4
 74
     0
 42
0.000000001
 43
0.00000001
 40
5.0
 40
5.0
 40
5.0
 40
5.0
 40
6.0
 40
6.0
 40
6.0
 40
6.0
 10
6.441261300605367
 20
1.353719968223946
 30
0.0
 10
6.367259515694191
 20
1.373970090084721
 30
0.0
 10
6.366323642681204
 20
1.414755164723267
 30
0.0
 10
6.366310079304203
 20
1.460219604426761
 30
0.0
  0
SPLINE
  5
ED
330
81
100
AcDbEntity
  8
0
  6
Continuous
 62
     8
370
     0
100
AcDbSpline
210
0.0
220
0.0
230
1.0
 70
     8
 71
     3
 72
     8
 73
     4
 74
     0
 42
0.000000001
 43
0.00000001
 40
8.0
 40
8.0
 40
8.0
 40
8.0
 40
9.0
 40
9.0
 40
9.0
 40
9.0
 10
6.169749619822387
 20
1.461725139273745
 30
0.0
 10
6.169749619822387
 20
1.519206730999106
 30
0.0
 10
6.12010766000294
 20
1.568855472507053
 30
0.0
 10
6.088749132379288
 20
1.589756636463821
 30
0.0
  0
SPLINE
  5
EE
330
81
100
AcDbEntity
  8
0
  6
Continuous
 62
     8
370
     0
100
AcDbSpline
210
0.0
220
0.0
230
1.0
 70
     8
 71
     3
 72
     8
 73
     4
 74
     0
 42
0.000000001
 43
0.00000001
 40
9.0
 40
9.0
 40
9.0
 40
9.0
 40
10.0
 40
10.0
 40
10.0
 40
10.0
 10
6.088749132379288
 20
1.589756636463821
 30
0.0
 10
6.104401269437113
 20
1.608040068659618
 30
0.0
 10
6.127933728531853
 20
1.626343845920914
 30
0.0
 10
6.135800487191765
 20
1.657695591856065
 30
0.0
  0
SPLINE
  5
EF
330
81
100
AcDbEntity
  8
0
  6
Continuous
 62
     8
370
     0
100
AcDbSpline
210
0.0
220
0.0
230
1.0
 70
     8
 71
     3
 72
     8
 73
     4
 74
     0
 42
0.000000001
 43
0.00000001
 40
10.0
 40
10.0
 40
10.0
 40
10.0
 40
11.0
 40
11.0
 40
11.0
 40
11.0
 10
6.135800487191765
 20
1.657695591856065
 30
0.0
 10
6.135800487191765
 20
1.568855472507053
 30
0.0
 10
6.219418706395836
 20
1.500902953737809
 30
0.0
 10
6.323924526179674
 20
1.472182502940628
 30
0.0
  0
SPLINE
  5
F0
330
81
100
AcDbEntity
  8
0
  6
Continuous
 62
     8
370
     0
100
AcDbSpline
210
0.0
220
0.0
230
1.0
 70
     8
 71
     3
 72
     8
 73
     4
 74
     0
 42
0.000000001
 43
0.00000001
 40
0.0
 40
0.0
 40
0.0
 40
0.0
 40
1.0
 40
1.0
 40
1.0
 40
1.0
 10
6.588021841015449
 20
1.660259070109037
 30
0.0
 10
6.58601446121947
 20
1.660788041812031
 30
0.0
 10
6.58427834896349
 20
1.661255978318526
 30
0.0
 10
6.582257405790513
 20
1.66176460495602
 30
0.0
  0
SPLINE
  5
F1
330
81
100
AcDbEntity
  8
0
  6
Continuous
 62
     8
370
     0
100
AcDbSpline
210
0.0
220
0.0
230
1.0
 70
     8
 71
     3
 72
     8
 73
     4
 74
     0
 42
0.000000001
 43
0.00000001
 40
2.0
 40
2.0
 40
2.0
 40
2.0
 40
3.0
 40
3.0
 40
3.0
 40
3.0
 10
6.813746853383429
 20
1.660136999716037
 30
0.0
 10
6.813746853383429
 20
1.782356589861678
 30
0.0
 10
6.789753239470694
 20
1.978347387509499
 30
0.0
 10
6.464055867573316
 20
1.978347387509499
 30
0.0
  0
SPLINE
  5
F2
330
81
100
AcDbEntity
  8
0
  6
Continuous
 62
     8
370
     0
100
AcDbSpline
210
0.0
220
0.0
230
1.0
 70
     8
 71
     3
 72
     8
 73
     4
 74
     0
 42
0.000000001
 43
0.00000001
 40
3.0
 40
3.0
 40
3.0
 40
3.0
 40
4.0
 40
4.0
 40
4.0
 40
4.0
 10
6.464055867573316
 20
1.978347387509499
 30
0.0
 10
6.274209279706429
 20
1.978347387509499
 30
0.0
 10
6.180160823589475
 20
1.885858719747527
 30
0.0
 10
6.142373255267896
 20
1.818496207877776
 30
0.0
  0
SPLINE
  5
F3
330
81
100
AcDbEntity
  8
0
  6
Continuous
 62
     8
370
     0
100
AcDbSpline
210
0.0
220
0.0
230
1.0
 70
     8
 71
     3
 72
     8
 73
     4
 74
     0
 42
0.000000001
 43
0.00000001
 40
4.0
 40
4.0
 40
4.0
 40
4.0
 40
5.0
 40
5.0
 40
5.0
 40
5.0
 10
6.142373255267896
 20
1.818496207877776
 30
0.0
 10
6.106986404675287
 20
1.885858719747527
 30
0.0
 10
6.08608524071852
 20
1.970358558456588
 30
0.0
 10
5.816038404651523
 20
1.970358558456588
 30
0.0
  0
SPLINE
  5
F4
330
81
100
AcDbEntity
  8
0
  6
Continuous
 62
     8
370
     0
100
AcDbSpline
210
0.0
220
0.0
230
1.0
 70
     8
 71
     3
 72
     8
 73
     4
 74
     0
 42
0.000000001
 43
0.00000001
 40
19.0
 40
19.0
 40
19.0
 40
19.0
 40
20.0
 40
20.0
 40
20.0
 40
20.0
 10
5.892776699380181
 20
1.132311402078408
 30
0.0
 10
6.004742376513936
 20
1.134291655120386
 30
0.0
 10
6.109207506166772
 20
1.187310895812797
 30
0.0
 10
6.140986498477418
 20
1.265490200839927
 30
0.0
  0
SPLINE
  5
F5
330
81
100
AcDbEntity
  8
0
  6
Continuous
 62
     8
370
     0
100
AcDbSpline
210
0.0
220
0.0
230
1.0
 70
     8
 71
     3
 72
     8
 73
     4
 74
     0
 42
0.000000001
 43
0.00000001
 40
20.0
 40
20.0
 40
20.0
 40
20.0
 40
21.0
 40
21.0
 40
21.0
 40
21.0
 10
6.140986498477418
 20
1.265490200839927
 30
0.0
 10
6.171124322171085
 20
1.187310895812797
 30
0.0
 10
6.276294747427915
 20
1.10880606973767
 30
0.0
 10
6.480111613604649
 20
1.10880606973767
 30
0.0
  0
SPLINE
  5
F6
330
81
100
AcDbEntity
  8
0
  6
Continuous
 62
     8
370
     0
100
AcDbSpline
210
0.0
220
0.0
230
1.0
 70
     8
 71
     3
 72
     8
 73
     4
 74
     0
 42
0.000000001
 43
0.00000001
 40
21.0
 40
21.0
 40
21.0
 40
21.0
 40
22.0
 40
22.0
 40
22.0
 40
22.0
 10
6.480111613604649
 20
1.10880606973767
 30
0.0
 10
6.683928479781382
 20
1.10880606973767
 30
0.0
 10
6.835295767099698
 20
1.232531194730293
 30
0.0
 10
6.835295767099698
 20
1.395590113022481
 30
0.0
  0
SPLINE
  5
F7
330
81
100
AcDbEntity
  8
0
  6
Continuous
 62
     8
370
     0
100
AcDbSpline
210
0.0
220
0.0
230
1.0
 70
     8
 71
     3
 72
     8
 73
     4
 74
     0
 42
0.000000001
 43
0.00000001
 40
22.0
 40
22.0
 40
22.0
 40
22.0
 40
23.0
 40
23.0
 40
23.0
 40
23.0
 10
6.835295767099698
 20
1.395590113022481
 30
0.0
 10
6.835295767099698
 20
1.561429523599636
 30
0.0
 10
6.739904536659761
 20
1.620294579778982
 30
0.0
 10
6.588021841015449
 20
1.660259070109037
 30
0.0
  0
SPLINE
  5
F8
330
81
100
AcDbEntity
  8
0
  6
Continuous
 62
     8
370
     0
100
AcDbSpline
210
0.0
220
0.0
230
1.0
 70
     8
 71
     3
 72
     8
 73
     4
 74
     0
 42
0.000000001
 43
0.00000001
 40
0.0
 40
0.0
 40
0.0
 40
0.0
 40
1.0
 40
1.0
 40
1.0
 40
1.0
 10
3.032764315477773
 20
1.301406023135528
 30
0.0
 10
3.174616893830695
 20
1.301406023135528
 30
0.0
 10
3.228951782092092
 20
1.42620265491114
 30
0.0
 10
3.228951782092092
 20
1.550965378244252
 30
0.0
  0
SPLINE
  5
F9
330
81
100
AcDbEntity
  8
0
  6
Continuous
 62
     8
370
     0
100
AcDbSpline
210
0.0
220
0.0
230
1.0
 70
     8
 71
     3
 72
     8
 73
     4
 74
     0
 42
0.000000001
 43
0.00000001
 40
1.0
 40
1.0
 40
1.0
 40
1.0
 40
2.0
 40
2.0
 40
2.0
 40
2.0
 10
3.228951782092092
 20
1.550965378244252
 30
0.0
 10
3.228951782092092
 20
1.675741664954365
 30
0.0
 10
3.174616893830695
 20
1.800517951664477
 30
0.0
 10
3.032764315477773
 20
1.800517951664477
 30
0.0
  0
SPLINE
  5
FA
330
81
100
AcDbEntity
  8
0
  6
Continuous
 62
     8
370
     0
100
AcDbSpline
210
0.0
220
0.0
230
1.0
 70
     8
 71
     3
 72
     8
 73
     4
 74
     0
 42
0.000000001
 43
0.00000001
 40
2.0
 40
2.0
 40
2.0
 40
2.0
 40
3.0
 40
3.0
 40
3.0
 40
3.0
 10
3.032764315477773
 20
1.800517951664477
 30
0.0
 10
2.890925300501851
 20
1.800517951664477
 30
0.0
 10
2.836570067174956
 20
1.675741664954365
 30
0.0
 10
2.836570067174955
 20
1.550965378244252
 30
0.0
  0
SPLINE
  5
FB
330
81
100
AcDbEntity
  8
0
  6
Continuous
 62
     8
370
     0
100
AcDbSpline
210
0.0
220
0.0
230
1.0
 70
     8
 71
     3
 72
     8
 73
     4
 74
     0
 42
0.000000001
 43
0.00000001
 40
3.0
 40
3.0
 40
3.0
 40
3.0
 40
4.0
 40
4.0
 40
4.0
 40
4.0
 10
2.836570067174955
 20
1.550965378244252
 30
0.0
 10
2.836570067174956
 20
1.42620265491114
 30
0.0
 10
2.890925300501851
 20
1.301406023135528
 30
0.0
 10
3.032764315477773
 20
1.301406023135528
 30
0.0
  0
SPLINE
  5
FC
330
81
100
AcDbEntity
  8
0
  6
Continuous
 62
     8
370
     0
100
AcDbSpline
210
0.0
220
0.0
230
1.0
 70
     8
 71
     3
 72
    11
 73
     7
 74
     0
 42
0.000000001
 43
0.00000001
 40
2.0
 40
2.0
 40
2.0
 40
2.0
 40
3.0
 40
3.0
 40
3.0
 40
3.00211844657731
 40
3.00211844657731
 40
3.00211844657731
 40
3.00211844657731
 10
3.034117935009433
 20
1.100203506378222
 30
0.0
 10
2.768194808885813
 20
1.100689084870614
 30
0.0
 10
2.61845739025513
 20
1.295190389455294
 30
0.0
 10
2.618902313994104
 20
1.538849269351653
 30
0.0
 10
2.618903256593752
 20
1.539365476405043
 30
0.0
 10
2.618904872373764
 20
1.53988146029703
 30
0.0
 10
2.618907161005894
 20
1.540397219651859
 30
0.0
  0
SPLINE
  5
FD
330
81
100
AcDbEntity
  8
0
  6
Continuous
 62
     8
370
     0
100
AcDbSpline
210
0.0
220
0.0
230
1.0
 70
     8
 71
     3
 72
    11
 73
     7
 74
     0
 42
0.000000001
 43
0.00000001
 40
0.0
 40
0.0
 40
0.0
 40
0.0
 40
1.0
 40
1.0
 40
1.0
 40
2.0
 40
2.0
 40
2.0
 40
2.0
 10
3.032483353120667
 20
1.975982452153303
 30
0.0
 10
3.298426804429495
 20
1.976478817532996
 30
0.0
 10
3.448874590455874
 20
1.782538502862197
 30
0.0
 10
3.44932938847851
 20
1.538866077795837
 30
0.0
 10
3.449784161186067
 20
1.295207216082856
 30
0.0
 10
3.300061386318252
 20
1.100699871757913
 30
0.0
 10
3.034117935009433
 20
1.100203506378222
 30
0.0
  0
SPLINE
  5
FE
330
81
100
AcDbEntity
  8
0
  6
Continuous
 62
     8
370
     0
100
AcDbSpline
210
0.0
220
0.0
230
1.0
 70
     8
 71
     3
 72
     8
 73
     4
 74
     0
 42
0.000000001
 43
0.00000001
 40
1.0
 40
1.0
 40
1.0
 40
1.0
 40
2.0
 40
2.0
 40
2.0
 40
2.0
 10
3.853999666064641
 20
1.606310738092137
 30
0.0
 10
3.920188945823905
 20
1.606310738092137
 30
0.0
 10
3.955630049924511
 20
1.641602645045744
 30
0.0
 10
3.955630049924511
 20
1.705167411355538
 30
0.0
  0
SPLINE
  5
FF
330
81
100
AcDbEntity
  8
0
  6
Continuous
 62
     8
370
     0
100
AcDbSpline
210
0.0
220
0.0
230
1.0
 70
     8
 71
     3
 72
     8
 73
     4
 74
     0
 42
0.000000001
 43
0.00000001
 40
2.0
 40
2.0
 40
2.0
 40
2.0
 40
3.0
 40
3.0
 40
3.0
 40
3.0
 10
3.955630049924511
 20
1.705167411355538
 30
0.0
 10
3.955630049924511
 20
1.767545382177844
 30
0.0
 10
3.906021998547562
 20
1.795818241534029
 30
0.0
 10
3.844545992295747
 20
1.795818241534029
 30
0.0
  0
SPLINE
  5
100
330
81
100
AcDbEntity
  8
0
  6
Continuous
 62
     8
370
     0
100
AcDbSpline
210
0.0
220
0.0
230
1.0
 70
     8
 71
     3
 72
     8
 73
     4
 74
     0
 42
0.000000001
 43
0.00000001
 40
1.0
 40
1.0
 40
1.0
 40
1.0
 40
2.0
 40
2.0
 40
2.0
 40
2.0
 10
3.880007441125517
 20
1.970358558456588
 30
0.0
 10
4.028906193829861
 20
1.970358558456588
 30
0.0
 10
4.175485609067231
 20
1.903253750749834
 30
0.0
 10
4.175485609067231
 20
1.733765791759719
 30
0.0
  0
SPLINE
  5
101
330
81
100
AcDbEntity
  8
0
  6
Continuous
 62
     8
370
     0
100
AcDbSpline
210
0.0
220
0.0
230
1.0
 70
     8
 71
     3
 72
     8
 73
     4
 74
     0
 42
0.000000001
 43
0.00000001
 40
2.0
 40
2.0
 40
2.0
 40
2.0
 40
3.0
 40
3.0
 40
3.0
 40
3.0
 10
4.175485609067231
 20
1.733765791759719
 30
0.0
 10
4.175485609067231
 20
1.643108179892727
 30
0.0
 10
4.131730154865718
 20
1.557190968287183
 30
0.0
 10
4.043093486171702
 20
1.523058730067062
 30
0.0
  0
SPLINE
  5
102
330
81
100
AcDbEntity
  8
0
  6
Continuous
 62
     8
370
     0
100
AcDbSpline
210
0.0
220
0.0
230
1.0
 70
     8
 71
     3
 72
     8
 73
     4
 74
     0
 42
0.000000001
 43
0.00000001
 40
4.0
 40
4.0
 40
4.0
 40
4.0
 40
5.0
 40
5.0
 40
5.0
 40
5.0
 10
4.043093486171702
 20
1.520698702469088
 30
0.0
 10
4.132937295418703
 20
1.499499144218324
 30
0.0
 10
4.158951852504415
 20
1.399428548713437
 30
0.0
 10
4.166045498675334
 20
1.319391061037327
 30
0.0
  0
SPLINE
  5
103
330
81
100
AcDbEntity
  8
0
  6
Continuous
 62
     8
370
     0
100
AcDbSpline
210
0.0
220
0.0
230
1.0
 70
     8
 71
     3
 72
     8
 73
     4
 74
     0
 42
0.000000001
 43
0.00000001
 40
5.0
 40
5.0
 40
5.0
 40
5.0
 40
5.74044267676188
 40
5.74044267676188
 40
5.74044267676188
 40
5.74044267676188
 10
4.166045498675334
 20
1.319391061037327
 30
0.0
 10
4.168535794277692
 20
1.293311000813384
 30
0.0
 10
4.173109208796841
 20
1.218861526889058
 30
0.0
 10
4.187671368160243
 20
1.169893794958518
 30
0.0
  0
SPLINE
  5
104
330
81
100
AcDbEntity
  8
0
  6
Continuous
 62
     8
370
     0
100
AcDbSpline
210
0.0
220
0.0
230
1.0
 70
     8
 71
     3
 72
     8
 73
     4
 74
     0
 42
0.000000001
 43
0.00000001
 40
7.0
 40
7.0
 40
7.0
 40
7.0
 40
8.0
 40
8.0
 40
8.0
 40
8.0
 10
3.983997852583361
 20
1.129856430841435
 30
0.0
 10
3.965117631799571
 20
1.15813607188612
 30
0.0
 10
3.961564027025609
 20
1.240520023783204
 30
0.0
 10
3.959190436050636
 20
1.264052482877943
 30
0.0
  0
SPLINE
  5
105
330
81
100
AcDbEntity
  8
0
  6
Continuous
 62
     8
370
     0
100
AcDbSpline
210
0.0
220
0.0
230
1.0
 70
     8
 71
     3
 72
     8
 73
     4
 74
     0
 42
0.000000001
 43
0.00000001
 40
8.0
 40
8.0
 40
8.0
 40
8.0
 40
9.0
 40
9.0
 40
9.0
 40
9.0
 10
3.959190436050636
 20
1.264052482877943
 30
0.0
 10
3.953283585367202
 20
1.348837152504
 30
0.0
 10
3.939109856402359
 20
1.435941159597031
 30
0.0
 10
3.836299458743503
 20
1.435941159597031
 30
0.0
  0
SPLINE
  5
106
330
81
100
AcDbEntity
  8
0
  6
Continuous
 62
     8
370
     0
100
AcDbSpline
210
0.0
220
0.0
230
1.0
 70
     8
 71
     3
 72
     8
 73
     4
 74
     0
 42
0.000000001
 43
0.00000001
 40
1.0
 40
1.0
 40
1.0
 40
1.0
 40
2.0
 40
2.0
 40
2.0
 40
2.0
 10
5.840756347314047
 20
1.785652490472643
 30
0.0
 10
5.888512997730517
 20
1.785652490472643
 30
0.0
 10
5.933733296648012
 20
1.762825326981896
 30
0.0
 10
5.933733296648012
 20
1.693116350891172
 30
0.0
  0
SPLINE
  5
107
330
81
100
AcDbEntity
  8
0
  6
Continuous
 62
     8
370
     0
100
AcDbSpline
210
0.0
220
0.0
230
1.0
 70
     8
 71
     3
 72
     8
 73
     4
 74
     0
 42
0.000000001
 43
0.00000001
 40
2.0
 40
2.0
 40
2.0
 40
2.0
 40
3.0
 40
3.0
 40
3.0
 40
3.0
 10
5.933733296648012
 20
1.693116350891172
 30
0.0
 10
5.933733296648012
 20
1.624750149123432
 30
0.0
 10
5.879940943466611
 20
1.601936549009686
 30
0.0
 10
5.840756347314047
 20
1.601936549009686
 30
0.0
  0
SPLINE
  5
108
330
81
100
AcDbEntity
  8
0
  6
Continuous
 62
     8
370
     0
100
AcDbSpline
210
0.0
220
0.0
230
1.0
 70
     8
 71
     3
 72
     8
 73
     4
 74
     0
 42
0.000000001
 43
0.00000001
 40
2.0
 40
2.0
 40
2.0
 40
2.0
 40
3.0
 40
3.0
 40
3.0
 40
3.0
 10
5.82613502690821
 20
1.63931043433277
 30
0.0
 10
5.853478794939905
 20
1.63931043433277
 30
0.0
 10
5.891008659098489
 20
1.652480473399623
 30
0.0
 10
5.891008659098489
 20
1.691943118780685
 30
0.0
  0
SPLINE
  5
109
330
81
100
AcDbEntity
  8
0
  6
Continuous
 62
     8
370
     0
100
AcDbSpline
210
0.0
220
0.0
230
1.0
 70
     8
 71
     3
 72
     8
 73
     4
 74
     0
 42
0.000000001
 43
0.00000001
 40
3.0
 40
3.0
 40
3.0
 40
3.0
 40
4.0
 40
4.0
 40
4.0
 40
4.0
 10
5.891008659098489
 20
1.691943118780685
 30
0.0
 10
5.891008659098489
 20
1.732178876650737
 30
0.0
 10
5.85943311744284
 20
1.745348915717591
 30
0.0
 10
5.82613502690821
 20
1.745348915717591
 30
0.0
  0
SPLINE
  5
10A
330
81
100
AcDbEntity
  8
0
  6
Continuous
 62
     8
370
     0
100
AcDbSpline
210
0.0
220
0.0
230
1.0
 70
     8
 71
     3
 72
     8
 73
     4
 74
     0
 42
0.000000001
 43
0.00000001
 40
1.0
 40
1.0
 40
1.0
 40
1.0
 40
2.0
 40
2.0
 40
2.0
 40
2.0
 10
5.860260483439831
 20
1.514079774493162
 30
0.0
 10
5.913279724132241
 20
1.514079774493162
 30
0.0
 10
5.96349134578568
 20
1.487787168178955
 30
0.0
 10
5.96349134578568
 20
1.407458067897348
 30
0.0
  0
SPLINE
  5
10B
330
81
100
AcDbEntity
  8
0
  6
Continuous
 62
     8
370
     0
100
AcDbSpline
210
0.0
220
0.0
230
1.0
 70
     8
 71
     3
 72
     8
 73
     4
 74
     0
 42
0.000000001
 43
0.00000001
 40
2.0
 40
2.0
 40
2.0
 40
2.0
 40
3.0
 40
3.0
 40
3.0
 40
3.0
 10
5.96349134578568
 20
1.407458067897348
 30
0.0
 10
5.96349134578568
 20
1.328641284151225
 30
0.0
 10
5.903771796855347
 20
1.302355459525517
 30
0.0
 10
5.860260483439831
 20
1.302355459525517
 30
0.0
  0
SPLINE
  5
10C
330
81
100
AcDbEntity
  8
0
  6
Continuous
 62
     8
370
     0
100
AcDbSpline
210
0.0
220
0.0
230
1.0
 70
     8
 71
     3
 72
     8
 73
     4
 74
     0
 42
0.000000001
 43
0.00000001
 40
2.0
 40
2.0
 40
2.0
 40
2.0
 40
3.0
 40
3.0
 40
3.0
 40
3.0
 10
5.849057134037955
 20
1.338420478968116
 30
0.0
 10
5.881731309230591
 20
1.338420478968116
 30
0.0
 10
5.926571833592093
 20
1.355320446709928
 30
0.0
 10
5.926571833592093
 20
1.406033913312364
 30
0.0
  0
SPLINE
  5
10D
330
81
100
AcDbEntity
  8
0
  6
Continuous
 62
     8
370
     0
100
AcDbSpline
210
0.0
220
0.0
230
1.0
 70
     8
 71
     3
 72
     8
 73
     4
 74
     0
 42
0.000000001
 43
0.00000001
 40
3.0
 40
3.0
 40
3.0
 40
3.0
 40
4.0
 40
4.0
 40
4.0
 40
4.0
 10
5.926571833592093
 20
1.406033913312364
 30
0.0
 10
5.926571833592093
 20
1.457723943058789
 30
0.0
 10
5.888865645532511
 20
1.474651037554601
 30
0.0
 10
5.849057134037955
 20
1.474651037554601
 30
0.0
  0
HATCH
  5
10E
330
81
100
AcDbEntity
  8
0
  6
Continuous
 62
     7
100
AcDbHatch
 10
0.0
 20
0.0
 30
0.0
210
0.0
220
0.0
230
1.0
  2
SOLID
 70
     1
 71
     0
 91
        2
 92
        0
 93
        3
 72
     4
 94
        3
 73
     1
 74
     0
 95
       11
 96
        7
 40
0.0
 40
0.0
 40
0.0
 40
0.0
 40
1.0
 40
1.0
 40
1.0
 40
2.0
 40
2.0
 40
2.0
 40
2.0
 10
3.034117935009431
 20
1.100203506378222
 42
1.0
 10
3.300061386318251
 20
1.100699871757914
 42
1.0
 10
3.449784161186065
 20
1.295207216082855
 42
1.0
 10
3.449329388478511
 20
1.538866077795837
 42
1.0
 10
3.448874590455874
 20
1.782538502862197
 42
1.0
 10
3.298426804429493
 20
1.976478817532996
 42
1.0
 10
3.032483353120669
 20
1.975982452153303
 42
1.0
 72
     4
 94
        3
 73
     1
 74
     0
 95
        8
 96
        4
 40
3.00211844657731
 40
3.00211844657731
 40
3.00211844657731
 40
3.00211844657731
 40
4.0
 40
4.0
 40
4.0
 40
4.0
 10
3.032483353120669
 20
1.975982452153303
 42
1.0
 10
2.768105767566224
 20
1.975436844263769
 42
1.0
 10
2.619039712447582
 20
1.78244579638247
 42
1.0
 10
2.618907161005896
 20
1.540397219651859
 42
1.0
 72
     4
 94
        3
 73
     1
 74
     0
 95
       11
 96
        7
 40
2.0
 40
2.0
 40
2.0
 40
2.0
 40
2.00211844657731
 40
2.00211844657731
 40
2.00211844657731
 40
3.00211844657731
 40
3.00211844657731
 40
3.00211844657731
 40
3.00211844657731
 10
2.618907161005896
 20
1.540397219651859
 42
1.0
 10
2.618904872373764
 20
1.539881460297031
 42
1.0
 10
2.618903256593752
 20
1.539365476405043
 42
1.0
 10
2.618902313994106
 20
1.538849269351653
 42
1.0
 10
2.61845739025513
 20
1.295190389455295
 42
1.0
 10
2.768194808885812
 20
1.100689084870614
 42
1.0
 10
3.034117935009431
 20
1.100203506378222
 42
1.0
 97
        0
 92
        0
 93
        4
 72
     4
 94
        3
 73
     1
 74
     0
 95
        8
 96
        4
 40
3.0
 40
3.0
 40
3.0
 40
3.0
 40
4.0
 40
4.0
 40
4.0
 40
4.0
 10
3.032764315477776
 20
1.301406023135528
 42
1.0
 10
2.890925300501853
 20
1.301406023135528
 42
1.0
 10
2.836570067174955
 20
1.42620265491114
 42
1.0
 10
2.836570067174955
 20
1.550965378244252
 42
1.0
 72
     4
 94
        3
 73
     1
 74
     0
 95
        8
 96
        4
 40
2.0
 40
2.0
 40
2.0
 40
2.0
 40
3.0
 40
3.0
 40
3.0
 40
3.0
 10
2.836570067174955
 20
1.550965378244252
 42
1.0
 10
2.836570067174955
 20
1.675741664954365
 42
1.0
 10
2.890925300501853
 20
1.800517951664477
 42
1.0
 10
3.032764315477776
 20
1.800517951664477
 42
1.0
 72
     4
 94
        3
 73
     1
 74
     0
 95
        8
 96
        4
 40
1.0
 40
1.0
 40
1.0
 40
1.0
 40
2.0
 40
2.0
 40
2.0
 40
2.0
 10
3.032764315477776
 20
1.800517951664477
 42
1.0
 10
3.174616893830695
 20
1.800517951664477
 42
1.0
 10
3.228951782092092
 20
1.675741664954365
 42
1.0
 10
3.228951782092092
 20
1.550965378244252
 42
1.0
 72
     4
 94
        3
 73
     1
 74
     0
 95
        8
 96
        4
 40
0.0
 40
0.0
 40
0.0
 40
0.0
 40
1.0
 40
1.0
 40
1.0
 40
1.0
 10
3.228951782092092
 20
1.550965378244252
 42
1.0
 10
3.228951782092092
 20
1.42620265491114
 42
1.0
 10
3.174616893830695
 20
1.301406023135528
 42
1.0
 10
3.032764315477776
 20
1.301406023135528
 42
1.0
 97
        0
 75
     0
 76
     1
 98
        1
 10
0.0
 20
0.0
  0
HATCH
  5
10F
330
81
100
AcDbEntity
  8
0
  6
Continuous
 62
     7
100
AcDbHatch
 10
0.0
 20
0.0
 30
0.0
210
0.0
220
0.0
230
1.0
  2
SOLID
 70
     1
 71
     0
 91
        1
 92
        0
 93
       18
 72
     1
 10
2.398127123966332
 20
1.664287393077992
 11
2.398127123966332
 21
1.970358558456588
 72
     1
 10
2.398127123966332
 20
1.970358558456588
 11
2.617969120068386
 21
1.970358558456588
 72
     1
 10
2.617969120068386
 20
1.970358558456588
 11
2.617969120068386
 21
1.129856430841435
 72
     1
 10
2.617969120068386
 20
1.129856430841435
 11
2.398127123966332
 21
1.129856430841435
 72
     1
 10
2.398127123966332
 20
1.129856430841435
 11
2.398127123966332
 21
1.475966685123586
 72
     1
 10
2.398127123966332
 20
1.475966685123586
 11
2.108542243331052
 21
1.475966685123586
 72
     1
 10
2.108542243331052
 20
1.475966685123586
 11
2.108542243331052
 21
1.129856430841435
 72
     1
 10
2.108542243331052
 20
1.129856430841435
 11
1.888727373982996
 21
1.129856430841435
 72
     1
 10
1.888727373982996
 20
1.129856430841435
 11
1.888727373982996
 21
1.782010723748182
 72
     1
 10
1.888727373982996
 20
1.782010723748182
 11
1.660679534796032
 21
1.782010723748182
 72
     1
 10
1.660679534796032
 20
1.782010723748182
 11
1.660679534796032
 21
1.129856430841435
 72
     1
 10
1.660679534796032
 20
1.129856430841435
 11
1.440844320382477
 21
1.129856430841435
 72
     1
 10
1.440844320382477
 20
1.129856430841435
 11
1.440844320382477
 21
1.782010723748182
 72
     1
 10
1.440844320382477
 20
1.782010723748182
 11
1.189094479888277
 21
1.782010723748182
 72
     1
 10
1.189094479888277
 20
1.782010723748182
 11
1.189094479888277
 21
1.970358558456588
 72
     1
 10
1.189094479888277
 20
1.970358558456588
 11
2.108542243331052
 21
1.970358558456588
 72
     1
 10
2.108542243331052
 20
1.970358558456588
 11
2.108542243331052
 21
1.664287393077992
 72
     1
 10
2.108542243331052
 20
1.664287393077992
 11
2.398127123966332
 21
1.664287393077992
 97
        0
 75
     0
 76
     1
 98
        1
 10
0.0
 20
0.0
  0
HATCH
  5
110
330
81
100
AcDbEntity
  8
0
  6
Continuous
 62
     7
100
AcDbHatch
 10
0.0
 20
0.0
 30
0.0
210
0.0
220
0.0
230
1.0
  2
SOLID
 70
     1
 71
     0
 91
        2
 92
        0
 93
       14
 72
     1
 10
3.449777122690302
 20
1.129856430841435
 11
3.449777122690302
 21
1.970358558456588
 72
     1
 10
3.449777122690302
 20
1.970358558456588
 11
3.880007441125517
 21
1.970358558456588
 72
     4
 94
        3
 73
     1
 74
     0
 95
        8
 96
        4
 40
1.0
 40
1.0
 40
1.0
 40
1.0
 40
2.0
 40
2.0
 40
2.0
 40
2.0
 10
3.880007441125517
 20
1.970358558456588
 42
1.0
 10
4.028906193829861
 20
1.970358558456588
 42
1.0
 10
4.175485609067231
 20
1.903253750749834
 42
1.0
 10
4.175485609067231
 20
1.733765791759719
 42
1.0
 72
     4
 94
        3
 73
     1
 74
     0
 95
        8
 96
        4
 40
2.0
 40
2.0
 40
2.0
 40
2.0
 40
3.0
 40
3.0
 40
3.0
 40
3.0
 10
4.175485609067231
 20
1.733765791759719
 42
1.0
 10
4.175485609067231
 20
1.643108179892727
 42
1.0
 10
4.131730154865718
 20
1.557190968287183
 42
1.0
 10
4.043093486171702
 20
1.523058730067062
 42
1.0
 72
     1
 10
4.043093486171702
 20
1.523058730067062
 11
4.043093486171702
 21
1.520698702469088
 72
     4
 94
        3
 73
     1
 74
     0
 95
        8
 96
        4
 40
4.0
 40
4.0
 40
4.0
 40
4.0
 40
5.0
 40
5.0
 40
5.0
 40
5.0
 10
4.043093486171702
 20
1.520698702469088
 42
1.0
 10
4.132937295418703
 20
1.499499144218324
 42
1.0
 10
4.158951852504415
 20
1.399428548713437
 42
1.0
 10
4.166045498675334
 20
1.319391061037327
 42
1.0
 72
     4
 94
        3
 73
     1
 74
     0
 95
        8
 96
        4
 40
5.0
 40
5.0
 40
5.0
 40
5.0
 40
5.74044267676188
 40
5.74044267676188
 40
5.74044267676188
 40
5.74044267676188
 10
4.166045498675334
 20
1.319391061037327
 42
1.0
 10
4.168535794277692
 20
1.293311000813384
 42
1.0
 10
4.173109208796841
 20
1.218861526889058
 42
1.0
 10
4.187671368160243
 20
1.169893794958518
 42
1.0
 72
     1
 10
4.187671368160243
 20
1.169893794958518
 11
4.187671368160243
 21
1.129856430841435
 72
     1
 10
4.187671368160243
 20
1.129856430841435
 11
3.983997852583361
 21
1.129856430841435
 72
     4
 94
        3
 73
     1
 74
     0
 95
        8
 96
        4
 40
7.0
 40
7.0
 40
7.0
 40
7.0
 40
8.0
 40
8.0
 40
8.0
 40
8.0
 10
3.983997852583361
 20
1.129856430841435
 42
1.0
 10
3.965117631799571
 20
1.15813607188612
 42
1.0
 10
3.961564027025609
 20
1.240520023783204
 42
1.0
 10
3.959190436050636
 20
1.264052482877943
 42
1.0
 72
     4
 94
        3
 73
     1
 74
     0
 95
        8
 96
        4
 40
8.0
 40
8.0
 40
8.0
 40
8.0
 40
9.0
 40
9.0
 40
9.0
 40
9.0
 10
3.959190436050636
 20
1.264052482877943
 42
1.0
 10
3.953283585367202
 20
1.348837152504
 42
1.0
 10
3.939109856402359
 20
1.435941159597031
 42
1.0
 10
3.836299458743503
 20
1.435941159597031
 42
1.0
 72
     1
 10
3.836299458743503
 20
1.435941159597031
 11
3.669619118792356
 21
1.435941159597031
 72
     1
 10
3.669619118792356
 20
1.435941159597031
 11
3.669619118792356
 21
1.129856430841435
 72
     1
 10
3.669619118792356
 20
1.129856430841435
 11
3.449777122690302
 21
1.129856430841435
 97
        0
 92
        0
 93
        5
 72
     1
 10
3.844545992295747
 20
1.795818241534029
 11
3.669619119128692
 21
1.795818241534029
 72
     1
 10
3.669619119128692
 20
1.795818241534029
 11
3.669619119128692
 21
1.606310738092137
 72
     1
 10
3.669619119128692
 20
1.606310738092137
 11
3.853999666064641
 21
1.606310738092137
 72
     4
 94
        3
 73
     1
 74
     0
 95
        8
 96
        4
 40
1.0
 40
1.0
 40
1.0
 40
1.0
 40
2.0
 40
2.0
 40
2.0
 40
2.0
 10
3.853999666064641
 20
1.606310738092137
 42
1.0
 10
3.920188945823905
 20
1.606310738092137
 42
1.0
 10
3.955630049924511
 20
1.641602645045744
 42
1.0
 10
3.955630049924511
 20
1.705167411355538
 42
1.0
 72
     4
 94
        3
 73
     1
 74
     0
 95
        8
 96
        4
 40
2.0
 40
2.0
 40
2.0
 40
2.0
 40
3.0
 40
3.0
 40
3.0
 40
3.0
 10
3.955630049924511
 20
1.705167411355538
 42
1.0
 10
3.955630049924511
 20
1.767545382177844
 42
1.0
 10
3.906021998547562
 20
1.795818241534029
 42
1.0
 10
3.844545992295747
 20
1.795818241534029
 42
1.0
 97
        0
 75
     0
 76
     1
 98
        1
 10
0.0
 20
0.0
  0
HATCH
  5
111
330
81
100
AcDbEntity
  8
0
  6
Continuous
 62
     7
100
AcDbHatch
 10
0.0
 20
0.0
 30
0.0
210
0.0
220
0.0
230
1.0
  2
SOLID
 70
     1
 71
     0
 91
        5
 92
        0
 93
       23
 72
     4
 94
        3
 73
     1
 74
     0
 95
        8
 96
        4
 40
4.0
 40
4.0
 40
4.0
 40
4.0
 40
5.0
 40
5.0
 40
5.0
 40
5.0
 10
6.142373255267896
 20
1.818496207877776
 42
1.0
 10
6.106986404675287
 20
1.885858719747527
 42
1.0
 10
6.08608524071852
 20
1.970358558456588
 42
1.0
 10
5.816038404651523
 20
1.970358558456588
 42
1.0
 72
     1
 10
5.816038404651523
 20
1.970358558456588
 11
5.445043348028588
 21
1.970358558456588
 72
     1
 10
5.445043348028588
 20
1.970358558456588
 11
5.445043348028588
 21
1.446859678081909
 72
     1
 10
5.445043348028588
 20
1.446859678081909
 11
5.251032803422746
 21
1.970358558456588
 72
     1
 10
5.251032803422746
 20
1.970358558456588
 11
4.9914754810861
 21
1.970358558456588
 72
     1
 10
4.9914754810861
 20
1.970358558456588
 11
4.76541961746511
 21
1.371507740129275
 72
     1
 10
4.76541961746511
 20
1.371507740129275
 11
4.477711736478974
 21
1.369717764235982
 72
     1
 10
4.477711736478974
 20
1.369717764235982
 11
4.473974847039246
 21
1.970358558456588
 72
     1
 10
4.473974847039246
 20
1.970358558456588
 11
4.188384380930422
 21
1.970358558456588
 72
     1
 10
4.188384380930422
 20
1.970358558456588
 11
4.187868972604427
 21
1.129856430841435
 72
     1
 10
4.187868972604427
 20
1.129856430841435
 11
4.963409306078804
 21
1.132311402078408
 72
     1
 10
4.963409306078804
 20
1.132311402078408
 11
5.013390350323246
 21
1.25619928759503
 72
     1
 10
5.013390350323246
 20
1.25619928759503
 11
5.217180089745982
 21
1.25619928759503
 72
     1
 10
5.217180089745982
 20
1.25619928759503
 11
5.265140190817449
 21
1.132311402078408
 72
     1
 10
5.265140190817449
 20
1.132311402078408
 11
5.892776699380181
 21
1.132311402078408
 72
     4
 94
        3
 73
     1
 74
     0
 95
        8
 96
        4
 40
19.0
 40
19.0
 40
19.0
 40
19.0
 40
20.0
 40
20.0
 40
20.0
 40
20.0
 10
5.892776699380181
 20
1.132311402078408
 42
1.0
 10
6.004742376513936
 20
1.134291655120386
 42
1.0
 10
6.109207506166772
 20
1.187310895812797
 42
1.0
 10
6.140986498477418
 20
1.265490200839927
 42
1.0
 72
     4
 94
        3
 73
     1
 74
     0
 95
        8
 96
        4
 40
20.0
 40
20.0
 40
20.0
 40
20.0
 40
21.0
 40
21.0
 40
21.0
 40
21.0
 10
6.140986498477418
 20
1.265490200839927
 42
1.0
 10
6.171124322171085
 20
1.187310895812797
 42
1.0
 10
6.276294747427915
 20
1.10880606973767
 42
1.0
 10
6.480111613604649
 20
1.10880606973767
 42
1.0
 72
     4
 94
        3
 73
     1
 74
     0
 95
        8
 96
        4
 40
21.0
 40
21.0
 40
21.0
 40
21.0
 40
22.0
 40
22.0
 40
22.0
 40
22.0
 10
6.480111613604649
 20
1.10880606973767
 42
1.0
 10
6.683928479781382
 20
1.10880606973767
 42
1.0
 10
6.835295767099698
 20
1.232531194730293
 42
1.0
 10
6.835295767099698
 20
1.395590113022481
 42
1.0
 72
     4
 94
        3
 73
     1
 74
     0
 95
        8
 96
        4
 40
22.0
 40
22.0
 40
22.0
 40
22.0
 40
23.0
 40
23.0
 40
23.0
 40
23.0
 10
6.835295767099698
 20
1.395590113022481
 42
1.0
 10
6.835295767099698
 20
1.561429523599636
 42
1.0
 10
6.739904536659761
 20
1.620294579778982
 42
1.0
 10
6.588021841015449
 20
1.660259070109037
 42
1.0
 72
     4
 94
        3
 73
     1
 74
     0
 95
        8
 96
        4
 40
0.0
 40
0.0
 40
0.0
 40
0.0
 40
1.0
 40
1.0
 40
1.0
 40
1.0
 10
6.588021841015449
 20
1.660259070109037
 42
1.0
 10
6.58601446121947
 20
1.660788041812031
 42
1.0
 10
6.58427834896349
 20
1.661255978318526
 42
1.0
 10
6.582257405790513
 20
1.66176460495602
 42
1.0
 72
     1
 10
6.582257405790513
 20
1.66176460495602
 11
6.813746853383429
 21
1.660136999716037
 72
     4
 94
        3
 73
     1
 74
     0
 95
        8
 96
        4
 40
2.0
 40
2.0
 40
2.0
 40
2.0
 40
3.0
 40
3.0
 40
3.0
 40
3.0
 10
6.813746853383429
 20
1.660136999716037
 42
1.0
 10
6.813746853383429
 20
1.782356589861678
 42
1.0
 10
6.789753239470694
 20
1.978347387509499
 42
1.0
 10
6.464055867573316
 20
1.978347387509499
 42
1.0
 72
     4
 94
        3
 73
     1
 74
     0
 95
        8
 96
        4
 40
3.0
 40
3.0
 40
3.0
 40
3.0
 40
4.0
 40
4.0
 40
4.0
 40
4.0
 10
6.464055867573316
 20
1.978347387509499
 42
1.0
 10
6.274209279706429
 20
1.978347387509499
 42
1.0
 10
6.180160823589475
 20
1.885858719747527
 42
1.0
 10
6.142373255267896
 20
1.818496207877776
 42
1.0
 97
        0
 92
        0
 93
        3
 72
     4
 94
        3
 73
     1
 74
     0
 95
        8
 96
        4
 40
4.0
 40
4.0
 40
4.0
 40
4.0
 40
5.0
 40
5.0
 40
5.0
 40
5.0
 10
6.548235655003179
 20
1.381891102252633
 42
1.0
 10
6.538971868512282
 20
1.344741012650046
 42
1.0
 10
6.511858677889584
 20
1.33444640950716
 42
1.0
 10
6.441261300605367
 20
1.353719968223946
 42
1.0
 72
     4
 94
        3
 73
     1
 74
     0
 95
        8
 96
        4
 40
5.0
 40
5.0
 40
5.0
 40
5.0
 40
6.0
 40
6.0
 40
6.0
 40
6.0
 10
6.441261300605367
 20
1.353719968223946
 42
1.0
 10
6.367259515694191
 20
1.373970090084721
 42
1.0
 10
6.366323642681204
 20
1.414755164723267
 42
1.0
 10
6.366310079304203
 20
1.460219604426761
 42
1.0
 72
     4
 94
        3
 73
     1
 74
     0
 95
        8
 96
        4
 40
3.0
 40
3.0
 40
3.0
 40
3.0
 40
4.0
 40
4.0
 40
4.0
 40
4.0
 10
6.366310079304203
 20
1.460219604426761
 42
1.0
 10
6.459436225785168
 20
1.43335055459006
 42
1.0
 10
6.553118470723124
 20
1.401395238378416
 42
1.0
 10
6.548235655003179
 20
1.381891102252633
 42
1.0
 97
        0
 92
        0
 93
       32
 72
     4
 94
        3
 73
     1
 74
     0
 95
        8
 96
        4
 40
17.0
 40
17.0
 40
17.0
 40
17.0
 40
18.0
 40
18.0
 40
18.0
 40
18.0
 10
6.114058393861008
 20
1.739062290478161
 42
1.0
 10
6.114058393861008
 20
1.671245405478915
 42
1.0
 10
6.073639530401458
 20
1.616178094859527
 42
1.0
 10
6.014055615241119
 20
1.586508207672357
 42
1.0
 72
     4
 94
        3
 73
     1
 74
     0
 95
        8
 96
        4
 40
18.0
 40
18.0
 40
18.0
 40
18.0
 40
19.0
 40
19.0
 40
19.0
 40
19.0
 10
6.014055615241119
 20
1.586508207672357
 42
1.0
 10
6.088844076018288
 20
1.564935656554097
 42
1.0
 10
6.137129698137751
 20
1.50351390381028
 42
1.0
 10
6.143965640145676
 20
1.426514612582136
 42
1.0
 72
     1
 10
6.143965640145676
 20
1.426514612582136
 11
6.33310693240857
 21
1.426514612582136
 72
     4
 94
        3
 73
     1
 74
     0
 95
        8
 96
        4
 40
20.0
 40
20.0
 40
20.0
 40
20.0
 40
21.0
 40
21.0
 40
21.0
 40
21.0
 10
6.33310693240857
 20
1.426514612582136
 42
1.0
 10
6.337338706032524
 20
1.337511732709126
 42
1.0
 10
6.392663720814909
 20
1.308906570616444
 42
1.0
 10
6.476688841328976
 20
1.308906570616444
 42
1.0
 72
     4
 94
        3
 73
     1
 74
     0
 95
        8
 96
        4
 40
21.0
 40
21.0
 40
21.0
 40
21.0
 40
22.0
 40
22.0
 40
22.0
 40
22.0
 10
6.476688841328976
 20
1.308906570616444
 42
1.0
 10
6.536259193112312
 20
1.308906570616444
 42
1.0
 10
6.597972558461627
 20
1.330119692244208
 42
1.0
 10
6.597972558461627
 20
1.386272073023584
 42
1.0
 72
     4
 94
        3
 73
     1
 74
     0
 95
        8
 96
        4
 40
22.0
 40
22.0
 40
22.0
 40
22.0
 40
23.0
 40
23.0
 40
23.0
 40
23.0
 10
6.597972558461627
 20
1.386272073023584
 42
1.0
 10
6.597972558461627
 20
1.453003887862842
 42
1.0
 10
6.489492669216833
 20
1.4657127721117
 42
1.0
 10
6.379887019681052
 20
1.496433821016359
 42
1.0
 72
     4
 94
        3
 73
     1
 74
     0
 95
        8
 96
        4
 40
23.0
 40
23.0
 40
23.0
 40
23.0
 40
24.0
 40
24.0
 40
24.0
 40
24.0
 10
6.379887019681052
 20
1.496433821016359
 42
1.0
 10
6.271380003682258
 20
1.527148088232517
 42
1.0
 10
6.157569707276522
 20
1.575894865169975
 42
1.0
 10
6.157569707276522
 20
1.714702465386432
 42
1.0
 72
     4
 94
        3
 73
     1
 74
     0
 95
        8
 96
        4
 40
24.0
 40
24.0
 40
24.0
 40
24.0
 40
25.0
 40
25.0
 40
25.0
 40
25.0
 10
6.157569707276522
 20
1.714702465386432
 42
1.0
 10
6.157569707276522
 20
1.879972214129594
 42
1.0
 10
6.324602695029665
 20
1.944588142156874
 42
1.0
 10
6.467113097167081
 20
1.944588142156874
 42
1.0
 72
     4
 94
        3
 73
     1
 74
     0
 95
        8
 96
        4
 40
25.0
 40
25.0
 40
25.0
 40
25.0
 40
26.0
 40
26.0
 40
26.0
 40
26.0
 10
6.467113097167081
 20
1.944588142156874
 42
1.0
 10
6.6181819901914
 20
1.944588142156874
 42
1.0
 10
6.77029526324471
 20
1.871501885193187
 42
1.0
 10
6.771380333404697
 20
1.700935637731585
 42
1.0
 72
     1
 10
6.771380333404697
 20
1.700935637731585
 11
6.573517789730897
 21
1.700935637731585
 72
     4
 94
        3
 73
     1
 74
     0
 95
        8
 96
        4
 40
27.0
 40
27.0
 40
27.0
 40
27.0
 40
28.0
 40
28.0
 40
28.0
 40
28.0
 10
6.573517789730897
 20
1.700935637731585
 42
1.0
 10
6.576718746702861
 20
1.769776557694319
 42
1.0
 10
6.511804424381583
 20
1.792034059351072
 42
1.0
 10
6.451149002438259
 20
1.792034059351072
 42
1.0
 72
     4
 94
        3
 73
     1
 74
     0
 95
        8
 96
        4
 40
28.0
 40
28.0
 40
28.0
 40
28.0
 40
29.0
 40
29.0
 40
29.0
 40
29.0
 10
6.451149002438259
 20
1.792034059351072
 42
1.0
 10
6.408641378920731
 20
1.792034059351072
 42
1.0
 10
6.355459377704324
 20
1.777202506601737
 42
1.0
 10
6.355459377704324
 20
1.72741813132379
 42
1.0
 72
     4
 94
        3
 73
     1
 74
     0
 95
        8
 96
        4
 40
29.0
 40
29.0
 40
29.0
 40
29.0
 40
30.0
 40
30.0
 40
30.0
 40
30.0
 10
6.355459377704324
 20
1.72741813132379
 42
1.0
 10
6.355459377704324
 20
1.669136300355438
 42
1.0
 10
6.464970083601106
 20
1.658529739541556
 42
1.0
 10
6.575633676542875
 20
1.627808690636898
 42
1.0
 72
     4
 94
        3
 73
     1
 74
     0
 95
        8
 96
        4
 40
30.0
 40
30.0
 40
30.0
 40
30.0
 40
31.0
 40
31.0
 40
31.0
 40
31.0
 10
6.575633676542875
 20
1.627808690636898
 42
1.0
 10
6.685225762701656
 20
1.597094423420739
 42
1.0
 10
6.795835102135427
 20
1.546231759671305
 42
1.0
 10
6.795835102135427
 20
1.409573954709325
 42
1.0
 72
     4
 94
        3
 73
     1
 74
     0
 95
        8
 96
        4
 40
31.0
 40
31.0
 40
31.0
 40
31.0
 40
32.0
 40
32.0
 40
32.0
 40
32.0
 10
6.795835102135427
 20
1.409573954709325
 42
1.0
 10
6.795835102135427
 20
1.217814930685457
 42
1.0
 10
6.632016634731248
 20
1.146580074682249
 42
1.0
 10
6.464970083601106
 20
1.146580074682249
 42
1.0
 72
     4
 94
        3
 73
     1
 74
     0
 95
        8
 96
        4
 40
0.0
 40
0.0
 40
0.0
 40
0.0
 40
1.0
 40
1.0
 40
1.0
 40
1.0
 10
6.464970083601106
 20
1.146580074682249
 42
1.0
 10
6.310659543473821
 20
1.146580074682249
 42
1.0
 10
6.172313098075359
 20
1.216228015576475
 42
1.0
 10
6.1417005561867
 20
1.364258712152829
 42
1.0
 72
     4
 94
        3
 73
     1
 74
     0
 95
        8
 96
        4
 40
1.0
 40
1.0
 40
1.0
 40
1.0
 40
2.0
 40
2.0
 40
2.0
 40
2.0
 10
6.1417005561867
 20
1.364258712152829
 42
1.0
 10
6.121531814587923
 20
1.219727366842436
 42
1.0
 10
5.997969450119299
 20
1.169135970632998
 42
1.0
 10
5.849192767807954
 20
1.169135970632998
 42
1.0
 72
     1
 10
5.849192767807954
 20
1.169135970632998
 11
5.294057310581126
 21
1.169135970632998
 72
     1
 10
5.294057310581126
 20
1.169135970632998
 11
5.237511591868754
 21
1.298082995770565
 72
     1
 10
5.237511591868754
 20
1.298082995770565
 11
4.992177228695482
 21
1.298082995770565
 72
     1
 10
4.992177228695482
 20
1.298082995770565
 11
4.934519313069123
 21
1.170180350661987
 72
     1
 10
4.934519313069123
 20
1.170180350661987
 11
4.23261455332693
 21
1.170180350661987
 72
     1
 10
4.23261455332693
 20
1.170180350661987
 11
4.23261455332693
 21
1.928712209378552
 72
     1
 10
4.23261455332693
 20
1.928712209378552
 11
4.430504223754729
 21
1.928712209378552
 72
     1
 10
4.430504223754729
 20
1.928712209378552
 11
4.430504223754729
 21
1.341757069710079
 72
     1
 10
4.430504223754729
 20
1.341757069710079
 11
4.794504572299681
 21
1.341757069710079
 72
     1
 10
4.794504572299681
 20
1.341757069710079
 11
5.015370603365226
 21
1.928712209378552
 72
     1
 10
5.015370603365226
 20
1.928712209378552
 11
5.21642054063399
 21
1.928712209378552
 72
     1
 10
5.21642054063399
 20
1.928712209378552
 11
5.48432436313501
 21
1.221558422737415
 72
     1
 10
5.48432436313501
 20
1.221558422737415
 11
5.48432436313501
 21
1.928712209378552
 72
     1
 10
5.48432436313501
 20
1.928712209378552
 11
5.839603460269061
 21
1.928712209378552
 72
     4
 94
        3
 73
     1
 74
     0
 95
        8
 96
        4
 40
16.0
 40
16.0
 40
16.0
 40
16.0
 40
17.0
 40
17.0
 40
17.0
 40
17.0
 10
5.839603460269061
 20
1.928712209378552
 42
1.0
 10
5.970422231432604
 20
1.930828096190528
 42
1.0
 10
6.114058393861008
 20
1.896939998756405
 42
1.0
 10
6.114058393861008
 20
1.739062290478161
 42
1.0
 97
        0
 92
        0
 93
        5
 72
     1
 10
6.361128869290259
 20
1.461725139273745
 11
6.169749619822387
 21
1.461725139273745
 72
     4
 94
        3
 73
     1
 74
     0
 95
        8
 96
        4
 40
8.0
 40
8.0
 40
8.0
 40
8.0
 40
9.0
 40
9.0
 40
9.0
 40
9.0
 10
6.169749619822387
 20
1.461725139273745
 42
1.0
 10
6.169749619822387
 20
1.519206730999106
 42
1.0
 10
6.12010766000294
 20
1.568855472507053
 42
1.0
 10
6.088749132379288
 20
1.589756636463821
 42
1.0
 72
     4
 94
        3
 73
     1
 74
     0
 95
        8
 96
        4
 40
9.0
 40
9.0
 40
9.0
 40
9.0
 40
10.0
 40
10.0
 40
10.0
 40
10.0
 10
6.088749132379288
 20
1.589756636463821
 42
1.0
 10
6.104401269437113
 20
1.608040068659618
 42
1.0
 10
6.127933728531853
 20
1.626343845920914
 42
1.0
 10
6.135800487191765
 20
1.657695591856065
 42
1.0
 72
     4
 94
        3
 73
     1
 74
     0
 95
        8
 96
        4
 40
10.0
 40
10.0
 40
10.0
 40
10.0
 40
11.0
 40
11.0
 40
11.0
 40
11.0
 10
6.135800487191765
 20
1.657695591856065
 42
1.0
 10
6.135800487191765
 20
1.568855472507053
 42
1.0
 10
6.219418706395836
 20
1.500902953737809
 42
1.0
 10
6.323924526179674
 20
1.472182502940628
 42
1.0
 72
     4
 94
        3
 73
     1
 74
     0
 95
        8
 96
        4
 40
0.0
 40
0.0
 40
0.0
 40
0.0
 40
1.0
 40
1.0
 40
1.0
 40
1.0
 10
6.323924526179674
 20
1.472182502940628
 42
1.0
 10
6.336145128856538
 20
1.468805222067666
 42
1.0
 10
6.348623435696399
 20
1.465305870801705
 42
1.0
 10
6.361128869290259
 20
1.461725139273745
 42
1.0
 97
        0
 92
        0
 93
        4
 72
     4
 94
        3
 73
     1
 74
     0
 95
        8
 96
        4
 40
2.0
 40
2.0
 40
2.0
 40
2.0
 40
3.0
 40
3.0
 40
3.0
 40
3.0
 10
6.466136534023091
 20
1.741747839124131
 42
1.0
 10
6.511465339956586
 20
1.740405064801146
 42
1.0
 10
6.525652632298431
 20
1.731161623375749
 42
1.0
 10
6.53007429320038
 20
1.703790728590053
 42
1.0
 72
     4
 94
        3
 73
     1
 74
     0
 95
        8
 96
        4
 40
3.0
 40
3.0
 40
3.0
 40
3.0
 40
4.0
 40
4.0
 40
4.0
 40
4.0
 10
6.53007429320038
 20
1.703790728590053
 42
1.0
 10
6.531851095587361
 20
1.692994280498173
 42
1.0
 10
6.532040982865359
 20
1.686293972260247
 42
1.0
 10
6.53206810961936
 20
1.672201623557404
 42
1.0
 72
     4
 94
        3
 73
     1
 74
     0
 95
        8
 96
        4
 40
0.0
 40
0.0
 40
0.0
 40
0.0
 40
1.0
 40
1.0
 40
1.0
 40
1.0
 10
6.53206810961936
 20
1.672201623557404
 42
1.0
 10
6.42666710695353
 20
1.698718025592109
 42
1.0
 10
6.398197578630848
 20
1.703322792083558
 42
1.0
 10
6.398197578630848
 20
1.725763399329808
 42
1.0
 72
     4
 94
        3
 73
     1
 74
     0
 95
        8
 96
        4
 40
1.0
 40
1.0
 40
1.0
 40
1.0
 40
2.0
 40
2.0
 40
2.0
 40
2.0
 10
6.398197578630848
 20
1.725763399329808
 42
1.0
 10
6.398197578630848
 20
1.735746044801697
 42
1.0
 10
6.444163863283336
 20
1.742378536154624
 42
1.0
 10
6.466136534023091
 20
1.741747839124131
 42
1.0
 97
        0
 75
     0
 76
     1
 98
        1
 10
0.0
 20
0.0
  0
HATCH
  5
112
330
81
100
AcDbEntity
  8
0
  6
Continuous
 62
     7
100
AcDbHatch
 10
0.0
 20
0.0
 30
0.0
210
0.0
220
0.0
230
1.0
  2
SOLID
 70
     1
 71
     0
 91
        2
 92
        0
 93
        4
 72
     1
 10
5.002756662755367
 20
1.425280345275149
 11
5.228763213703859
 21
1.42528034527515
 72
     1
 10
5.228763213703859
 20
1.42528034527515
 11
5.132856574937915
 21
1.728862630974274
 72
     1
 10
5.132856574937915
 20
1.728862630974274
 11
5.101959202132266
 21
1.728862630974275
 72
     1
 10
5.101959202132266
 20
1.728862630974275
 11
5.002756662755367
 21
1.425280345275149
 97
        0
 92
        0
 93
        3
 72
     1
 10
5.056020044233768
 20
1.4657534622427
 11
5.115346255231104
 21
1.648899741871664
 72
     1
 10
5.115346255231104
 20
1.648899741871664
 11
5.172705776563476
 21
1.4657534622427
 72
     1
 10
5.172705776563476
 20
1.4657534622427
 11
5.056020044233768
 21
1.4657534622427
 97
        0
 75
     0
 76
     1
 98
        1
 10
0.0
 20
0.0
  0
HATCH
  5
113
330
81
100
AcDbEntity
  8
0
  6
Continuous
 62
     7
100
AcDbHatch
 10
0.0
 20
0.0
 30
0.0
210
0.0
220
0.0
230
1.0
  2
SOLID
 70
     1
 71
     0
 91
        2
 92
        0
 93
        5
 72
     1
 10
5.664649460348006
 20
1.601936549009686
 11
5.664649460348006
 21
1.785652490472643
 72
     1
 10
5.664649460348006
 20
1.785652490472643
 11
5.840756347314047
 21
1.785652490472643
 72
     4
 94
        3
 73
     1
 74
     0
 95
        8
 96
        4
 40
1.0
 40
1.0
 40
1.0
 40
1.0
 40
2.0
 40
2.0
 40
2.0
 40
2.0
 10
5.840756347314047
 20
1.785652490472643
 42
1.0
 10
5.888512997730517
 20
1.785652490472643
 42
1.0
 10
5.933733296648012
 20
1.762825326981896
 42
1.0
 10
5.933733296648012
 20
1.693116350891172
 42
1.0
 72
     4
 94
        3
 73
     1
 74
     0
 95
        8
 96
        4
 40
2.0
 40
2.0
 40
2.0
 40
2.0
 40
3.0
 40
3.0
 40
3.0
 40
3.0
 10
5.933733296648012
 20
1.693116350891172
 42
1.0
 10
5.933733296648012
 20
1.624750149123432
 42
1.0
 10
5.879940943466611
 20
1.601936549009686
 42
1.0
 10
5.840756347314047
 20
1.601936549009686
 42
1.0
 72
     1
 10
5.840756347314047
 20
1.601936549009686
 11
5.664649460348006
 21
1.601936549009686
 97
        0
 92
        0
 93
        5
 72
     4
 94
        3
 73
     1
 74
     0
 95
        8
 96
        4
 40
3.0
 40
3.0
 40
3.0
 40
3.0
 40
4.0
 40
4.0
 40
4.0
 40
4.0
 10
5.891008659098489
 20
1.691943118780685
 42
1.0
 10
5.891008659098489
 20
1.732178876650737
 42
1.0
 10
5.85943311744284
 20
1.745348915717591
 42
1.0
 10
5.82613502690821
 20
1.745348915717591
 42
1.0
 72
     1
 10
5.82613502690821
 20
1.745348915717591
 11
5.703196577781577
 21
1.745348915717591
 72
     1
 10
5.703196577781577
 20
1.745348915717591
 11
5.703196577781577
 21
1.63931043433277
 72
     1
 10
5.703196577781577
 20
1.63931043433277
 11
5.82613502690821
 21
1.63931043433277
 72
     4
 94
        3
 73
     1
 74
     0
 95
        8
 96
        4
 40
2.0
 40
2.0
 40
2.0
 40
2.0
 40
3.0
 40
3.0
 40
3.0
 40
3.0
 10
5.82613502690821
 20
1.63931043433277
 42
1.0
 10
5.853478794939905
 20
1.63931043433277
 42
1.0
 10
5.891008659098489
 20
1.652480473399623
 42
1.0
 10
5.891008659098489
 20
1.691943118780685
 42
1.0
 97
        0
 75
     0
 76
     1
 98
        1
 10
0.0
 20
0.0
  0
HATCH
  5
114
330
81
100
AcDbEntity
  8
0
  6
Continuous
 62
     7
100
AcDbHatch
 10
0.0
 20
0.0
 30
0.0
210
0.0
220
0.0
230
1.0
  2
SOLID
 70
     1
 71
     0
 91
        2
 92
        0
 93
        5
 72
     1
 10
5.664649460348006
 20
1.302355459525517
 11
5.664649460348006
 21
1.514079774493162
 72
     1
 10
5.664649460348006
 20
1.514079774493162
 11
5.860260483439831
 21
1.514079774493162
 72
     4
 94
        3
 73
     1
 74
     0
 95
        8
 96
        4
 40
1.0
 40
1.0
 40
1.0
 40
1.0
 40
2.0
 40
2.0
 40
2.0
 40
2.0
 10
5.860260483439831
 20
1.514079774493162
 42
1.0
 10
5.913279724132241
 20
1.514079774493162
 42
1.0
 10
5.96349134578568
 20
1.487787168178955
 42
1.0
 10
5.96349134578568
 20
1.407458067897348
 42
1.0
 72
     4
 94
        3
 73
     1
 74
     0
 95
        8
 96
        4
 40
2.0
 40
2.0
 40
2.0
 40
2.0
 40
3.0
 40
3.0
 40
3.0
 40
3.0
 10
5.96349134578568
 20
1.407458067897348
 42
1.0
 10
5.96349134578568
 20
1.328641284151225
 42
1.0
 10
5.903771796855347
 20
1.302355459525517
 42
1.0
 10
5.860260483439831
 20
1.302355459525517
 42
1.0
 72
     1
 10
5.860260483439831
 20
1.302355459525517
 11
5.664649460348006
 21
1.302355459525517
 97
        0
 92
        0
 93
        5
 72
     4
 94
        3
 73
     1
 74
     0
 95
        8
 96
        4
 40
3.0
 40
3.0
 40
3.0
 40
3.0
 40
4.0
 40
4.0
 40
4.0
 40
4.0
 10
5.926571833592093
 20
1.406033913312364
 42
1.0
 10
5.926571833592093
 20
1.457723943058789
 42
1.0
 10
5.888865645532511
 20
1.474651037554601
 42
1.0
 10
5.849057134037955
 20
1.474651037554601
 42
1.0
 72
     1
 10
5.849057134037955
 20
1.474651037554601
 11
5.702179324506586
 21
1.474651037554601
 72
     1
 10
5.702179324506586
 20
1.474651037554601
 11
5.702179324506586
 21
1.338420478968116
 72
     1
 10
5.702179324506586
 20
1.338420478968116
 11
5.849057134037955
 21
1.338420478968116
 72
     4
 94
        3
 73
     1
 74
     0
 95
        8
 96
        4
 40
2.0
 40
2.0
 40
2.0
 40
2.0
 40
3.0
 40
3.0
 40
3.0
 40
3.0
 10
5.849057134037955
 20
1.338420478968116
 42
1.0
 10
5.881731309230591
 20
1.338420478968116
 42
1.0
 10
5.926571833592093
 20
1.355320446709928
 42
1.0
 10
5.926571833592093
 20
1.406033913312364
 42
1.0
 97
        0
 75
     0
 76
     1
 98
        1
 10
0.0
 20
0.0
  0
ENDBLK
  5
83
330
81
100
AcDbEntity
  8
0
100
AcDbBlockEnd
  0
BLOCK
  5
143
330
142
100
AcDbEntity
  8
0
100
AcDbBlockBegin
  2
SW_NOTE_0
 70
     0
 10
0.0
 20
0.0
 30
0.0
  3
SW_NOTE_0
  1

  0
MTEXT
  5
145
330
142
100
AcDbEntity
  8
0
  6
Continuous
 62
     0
370
     0
100
AcDbMText
 10
0.78375
 20
0.0773440644
 30
0.0
 40
0.06
 41
0.0
 71
     2
 72
     1
  1
VALUES IN PARENTHESIS ARE CALCULATED
  7
SLDTEXTSTYLE0
 73
     1
 44
1.0
  0
MTEXT
  5
146
330
142
100
AcDbEntity
  8
0
  6
Continuous
 62
     0
370
     0
100
AcDbMText
 10
0.7825936818
 20
-0.0220260102
 30
0.0
 40
0.06
 41
0.0
 71
     2
 72
     1
  1
AND MAY CONTAIN ROUNDOFF ERRORS
  7
SLDTEXTSTYLE0
 73
     1
 44
1.0
  0
ENDBLK
  5
144
330
142
100
AcDbEntity
  8
0
100
AcDbBlockEnd
  0
BLOCK
  5
149
330
148
100
AcDbEntity
  8
0
100
AcDbBlockBegin
  2
SW_NOTE_1
 70
     0
 10
0.0
 20
0.0
 30
0.0
  3
SW_NOTE_1
  1

  0
MTEXT
  5
14B
330
148
100
AcDbEntity
  8
0
  6
Continuous
 62
     0
370
     0
100
AcDbMText
 10
0.0
 20
0.1074223116
 30
0.0
 40
0.0833333333
 41
0.0
 71
     1
 72
     1
  1
DRAWING
  7
SLDTEXTSTYLE0
 73
     1
 44
1.0
  0
MTEXT
  5
14C
330
148
100
AcDbEntity
  8
0
  6
Continuous
 62
     0
370
     0
100
AcDbMText
 10
0.0
 20
-0.0036887981
 30
0.0
 40
0.0833333333
 41
0.0
 71
     1
 72
     1
  1
PROJECTION
  7
SLDTEXTSTYLE0
 73
     1
 44
1.0
  0
ENDBLK
  5
14A
330
148
100
AcDbEntity
  8
0
100
AcDbBlockEnd
  0
BLOCK
  5
150
330
14F
100
AcDbEntity
  8
0
100
AcDbBlockBegin
  2
SW_NOTE_2
 70
     0
 10
0.0
 20
0.0
 30
0.0
  3
SW_NOTE_2
  1

  0
MTEXT
  5
152
330
14F
100
AcDbEntity
  8
0
  6
Continuous
 62
     0
370
     0
100
AcDbMText
 10
0.7859700521
 20
0.1477056785
 30
0.0
 40
0.1145833333
 41
0.0
 71
     2
 72
     1
  1
PLANO CONVEX LENS
  7
SLDTEXTSTYLE0
 73
     1
 44
1.0
  0
MTEXT
  5
154
330
14F
100
AcDbEntity
  8
0
  6
Continuous
 62
     0
370
     0
100
AcDbMText
 10
0.780532683
 20
-0.0050720974
 30
0.0
 40
0.1145833333
 41
0.0
 71
     2
 72
     1
  1
f=100.0 mm  \U+220550.0 mm
  7
SLDTEXTSTYLE3
 73
     1
 44
1.0
  0
ENDBLK
  5
151
330
14F
100
AcDbEntity
  8
0
100
AcDbBlockEnd
  0
BLOCK
  5
158
330
157
100
AcDbEntity
  8
0
100
AcDbBlockBegin
  2
SW_NOTE_3
 70
     0
 10
0.0
 20
0.0
 30
0.0
  3
SW_NOTE_3
  1

  0
MTEXT
  5
15A
330
157
100
AcDbEntity
  8
0
  6
Continuous
 62
     0
370
     0
100
AcDbMText
 10
0.986328125
 20
0.1611334675
 30
0.0
 40
0.125
 41
0.0
 71
     2
 72
     1
  1
FOR INFORMATION ONLY
  7
SLDTEXTSTYLE0
 73
     1
 44
1.0
  0
MTEXT
  5
15B
330
157
100
AcDbEntity
  8
0
  6
Continuous
 62
     0
370
     0
100
AcDbMText
 10
0.999088459
 20
-0.0055331972
 30
0.0
 40
0.125
 41
0.0
 71
     2
 72
     1
  1
NOT FOR MANUFACTURING PURPOSES
  7
SLDTEXTSTYLE0
 73
     1
 44
1.0
  0
ENDBLK
  5
159
330
157
100
AcDbEntity
  8
0
100
AcDbBlockEnd
  0
BLOCK
  5
15E
330
15D
100
AcDbEntity
  8
0
100
AcDbBlockBegin
  2
SW_NOTE_4
 70
     0
 10
0.0
 20
0.0
 30
0.0
  3
SW_NOTE_4
  1

  0
MTEXT
  5
160
330
15D
100
AcDbEntity
  8
0
  6
Continuous
 62
     0
370
     0
100
AcDbMText
 10
0.0
 20
0.1074223116
 30
0.0
 40
0.0833333333
 41
0.0
 71
     1
 72
     1
  1
NOTES/SPECIFICATIONS:
  7
SLDTEXTSTYLE0
 73
     1
 44
1.0
  0
MTEXT
  5
161
330
15D
100
AcDbEntity
  8
0
  6
Continuous
 62
     0
370
     0
100
AcDbMText
 10
0.0
 20
-0.0430588741
 30
0.0
 40
0.0833333333
 41
0.0
 71
     1
 72
     1
  1
1. DESIGN FREQUENCY: 500GHz (n=1.43)
  7
SLDTEXTSTYLE0
 73
     1
 44
1.0
  0
MTEXT
  5
162
330
15D
100
AcDbEntity
  8
0
  6
Continuous
 62
     0
370
     0
100
AcDbMText
 10
0.0
 20
-0.1935400599
 30
0.0
 40
0.0833333333
 41
0.0
 71
     1
 72
     1
  1
2. FOCAL LENGTH: f=100.0 mm ± 2.0%
  7
SLDTEXTSTYLE0
 73
     1
 44
1.0
  0
MTEXT
  5
163
330
15D
100
AcDbEntity
  8
0
  6
Continuous
 62
     0
370
     0
100
AcDbMText
 10
0.0
 20
-0.3440212457
 30
0.0
 40
0.0833333333
 41
0.0
 71
     1
 72
     1
  1
3. BACK FOCAL LENGTH(REF): fb=95.0 mm
  7
SLDTEXTSTYLE0
 73
     1
 44
1.0
  0
MTEXT
  5
164
330
15D
100
AcDbEntity
  8
0
  6
Continuous
 62
     0
370
     0
100
AcDbMText
 10
0.0
 20
-0.4945024315
 30
0.0
 40
0.0833333333
 41
0.0
 71
     1
 72
     1
  1
4. CLEAR APERTURE: \U+220542.5 mm
  7
SLDTEXTSTYLE0
 73
     1
 44
1.0
  0
MTEXT
  5
165
330
15D
100
AcDbEntity
  8
0
  6
Continuous
 62
     0
370
     0
100
AcDbMText
 10
0.0
 20
-0.6449836173
 30
0.0
 40
0.0833333333
 41
0.0
 71
     1
 72
     1
  1
5. SURFACE QUALITY: 60-40 SCRATCH-DIG
  7
SLDTEXTSTYLE0
 73
     1
 44
1.0
  0
MTEXT
  5
166
330
15D
100
AcDbEntity
  8
0
  6
Continuous
 62
     0
370
     0
100
AcDbMText
 10
0.0
 20
-0.7954648031
 30
0.0
 40
0.0833333333
 41
0.0
 71
     1
 72
     1
  1
6. TRANSMITTED WAVEFRONT ERROR: <10 µm, CORRESPONDING TO
  7
SLDTEXTSTYLE0
 73
     1
 44
1.0
  0
MTEXT
  5
168
330
15D
100
AcDbEntity
  8
0
  6
Continuous
 62
     0
370
     0
100
AcDbMText
 10
0.0
 20
-0.9459459889
 30
0.0
 40
0.0833333333
 41
0.0
 71
     1
 72
     1
  1
\M+183C9/20 AT 1.5 THz
  7
SLDTEXTSTYLE4
 73
     1
 44
1.0
  0
MTEXT
  5
169
330
15D
100
AcDbEntity
  8
0
  6
Continuous
 62
     0
370
     0
100
AcDbMText
 10
0.0
 20
-1.0964271747
 30
0.0
 40
0.0833333333
 41
0.0
 71
     1
 72
     1
  1
7. CENTRATION: <3 arcmin
  7
SLDTEXTSTYLE0
 73
     1
 44
1.0
  0
MTEXT
  5
16A
330
15D
100
AcDbEntity
  8
0
  6
Continuous
 62
     0
370
     0
100
AcDbMText
 10
0.0
 20
-1.2469083605
 30
0.0
 40
0.0833333333
 41
0.0
 71
     1
 72
     1
  1
8. DIAMETER TOLERANCE: +0.0/-0.2 mm
  7
SLDTEXTSTYLE0
 73
     1
 44
1.0
  0
MTEXT
  5
16B
330
15D
100
AcDbEntity
  8
0
  6
Continuous
 62
     0
370
     0
100
AcDbMText
 10
0.0
 20
-1.3973895463
 30
0.0
 40
0.0833333333
 41
0.0
 71
     1
 72
     1
  1
9. CENTER THICKNESS TOLERANCE: ± 0.20 mm
  7
SLDTEXTSTYLE0
 73
     1
 44
1.0
  0
MTEXT
  5
16C
330
15D
100
AcDbEntity
  8
0
  6
Continuous
 62
     0
370
     0
100
AcDbMText
 10
0.0
 20
-1.5478707321
 30
0.0
 40
0.0833333333
 41
0.0
 71
     1
 72
     1
  1
10. RADIUS OF CURVATURE TOLERANCE: ± 0.50 mm
  7
SLDTEXTSTYLE0
 73
     1
 44
1.0
  0
ENDBLK
  5
15F
330
15D
100
AcDbEntity
  8
0
100
AcDbBlockEnd
  0
BLOCK
  5
172
330
171
100
AcDbEntity
  8
0
100
AcDbBlockBegin
  2
_D
 70
     0
 10
0.0
 20
0.0
 30
0.0
  3
_D
  1

  0
SOLID
  5
174
330
171
100
AcDbEntity
  8
0
  6
Continuous
 62
     7
370
    18
100
AcDbTrace
 10
3.8618956604
 20
5.3099435812
 30
0.0
 11
3.9652599492
 21
5.3830245213
 31
0.0
 12
3.9372976321
 22
5.411627123
 32
0.0
 13
3.9372976321
 23
5.411627123
 33
0.0
  0
LINE
  5
175
330
171
100
AcDbEntity
  8
0
  6
Continuous
 62
     7
370
    18
100
AcDbLine
 10
4.7340949171
 20
5.9045628711
 30
0.0
 11
4.7087476945
 21
5.9045628711
 31
0.0
  0
LINE
  5
176
330
171
100
AcDbEntity
  8
0
  6
Continuous
 62
     7
370
    18
100
AcDbLine
 10
4.7087476945
 20
5.9045628711
 30
0.0
 11
4.7087476945
 21
5.7721554665
 31
0.0
  0
LINE
  5
177
330
171
100
AcDbEntity
  8
0
  6
Continuous
 62
     7
370
    18
100
AcDbLine
 10
4.7087476945
 20
5.7721554665
 30
0.0
 11
4.7340949171
 21
5.7721554665
 31
0.0
  0
LINE
  5
178
330
171
100
AcDbEntity
  8
0
  6
Continuous
 62
     7
370
    18
100
AcDbLine
 10
5.039496159
 20
5.9045628711
 30
0.0
 11
5.0648433816
 21
5.9045628711
 31
0.0
  0
LINE
  5
179
330
171
100
AcDbEntity
  8
0
  6
Continuous
 62
     7
370
    18
100
AcDbLine
 10
5.0648433816
 20
5.9045628711
 30
0.0
 11
5.0648433816
 21
5.7721554665
 31
0.0
  0
LINE
  5
17A
330
171
100
AcDbEntity
  8
0
  6
Continuous
 62
     7
370
    18
100
AcDbLine
 10
5.0648433816
 20
5.7721554665
 30
0.0
 11
5.039496159
 21
5.7721554665
 31
0.0
  0
LINE
  5
17B
330
171
100
AcDbEntity
  8
0
  6
Continuous
 62
     7
370
    18
100
AcDbLine
 10
3.8618956604
 20
5.3099435812
 30
0.0
 11
4.5334004719
 21
5.9664163965
 31
0.0
  0
LINE
  5
17C
330
171
100
AcDbEntity
  8
0
  6
Continuous
 62
     7
370
    18
100
AcDbLine
 10
4.5334004719
 20
5.9664163965
 30
0.0
 11
4.6834004719
 21
5.9664163965
 31
0.0
  0
MTEXT
  5
17D
330
171
100
AcDbEntity
  8
0
  6
Continuous
 62
     7
370
    18
100
AcDbMText
 10
4.6834004719
 20
6.0288833296
 30
0.0
 40
0.0833333333
 41
0.0
 71
     1
 72
     1
  1
%%c
  7
SLDTEXTSTYLE0
 73
     1
 44
1.0
  0
MTEXT
  5
17E
330
171
100
AcDbEntity
  8
0
  6
Continuous
 62
     7
370
    18
100
AcDbMText
 10
4.8091875113
 20
6.0288833296
 30
0.0
 40
0.0833333333
 41
0.0
 71
     1
 72
     1
  1
50.0mm
  7
SLDTEXTSTYLE0
 73
     1
 44
1.0
  0
MTEXT
  5
17F
330
171
100
AcDbEntity
  8
0
  6
Continuous
 62
     7
370
    18
100
AcDbMText
 10
4.7340949171
 20
5.8795777736
 30
0.0
 40
0.0833333333
 41
0.0
 71
     1
 72
     1
  1
1.97in
  7
SLDTEXTSTYLE0
 73
     1
 44
1.0
  0
ENDBLK
  5
173
330
171
100
AcDbEntity
  8
0
100
AcDbBlockEnd
  0
BLOCK
  5
19B
330
19A
100
AcDbEntity
  8
0
100
AcDbBlockBegin
  2
_D_1
 70
     0
 10
0.0
 20
0.0
 30
0.0
  3
_D_1
  1

  0
SOLID
  5
19D
330
19A
100
AcDbEntity
  8
0
  6
Continuous
 62
     7
370
    18
100
AcDbTrace
 10
6.4060110934
 20
6.4722881413
 30
0.0
 11
6.2810110934
 21
6.4922881413
 31
0.0
 12
6.2810110934
 22
6.4522881413
 32
0.0
 13
6.2810110934
 23
6.4522881413
 33
0.0
  0
SOLID
  5
19E
330
19A
100
AcDbEntity
  8
0
  6
Continuous
 62
     7
370
    18
100
AcDbTrace
 10
6.9485307785
 20
6.4722881413
 30
0.0
 11
7.0735307785
 21
6.4522881413
 31
0.0
 12
7.0735307785
 22
6.4922881413
 32
0.0
 13
7.0735307785
 23
6.4922881413
 33
0.0
  0
LINE
  5
19F
330
19A
100
AcDbEntity
  8
0
  6
Continuous
 62
     7
370
    18
100
AcDbLine
 10
6.5245703241
 20
6.4722881322
 30
0.0
 11
6.4992231015
 21
6.4722881322
 31
0.0
  0
LINE
  5
1A0
330
19A
100
AcDbEntity
  8
0
  6
Continuous
 62
     7
370
    18
100
AcDbLine
 10
6.4992231015
 20
6.4722881322
 30
0.0
 11
6.4992231015
 21
6.3398807276
 31
0.0
  0
LINE
  5
1A1
330
19A
100
AcDbEntity
  8
0
  6
Continuous
 62
     7
370
    18
100
AcDbLine
 10
6.4992231015
 20
6.3398807276
 30
0.0
 11
6.5245703241
 21
6.3398807276
 31
0.0
  0
LINE
  5
1A2
330
19A
100
AcDbEntity
  8
0
  6
Continuous
 62
     7
370
    18
100
AcDbLine
 10
6.8299715661
 20
6.4722881322
 30
0.0
 11
6.8553187887
 21
6.4722881322
 31
0.0
  0
LINE
  5
1A3
330
19A
100
AcDbEntity
  8
0
  6
Continuous
 62
     7
370
    18
100
AcDbLine
 10
6.8553187887
 20
6.4722881322
 30
0.0
 11
6.8553187887
 21
6.3398807276
 31
0.0
  0
LINE
  5
1A4
330
19A
100
AcDbEntity
  8
0
  6
Continuous
 62
     7
370
    18
100
AcDbLine
 10
6.8553187887
 20
6.3398807276
 30
0.0
 11
6.8299715661
 21
6.3398807276
 31
0.0
  0
LINE
  5
1A5
330
19A
100
AcDbEntity
  8
0
  6
Continuous
 62
     7
370
    18
100
AcDbLine
 10
6.4060110934
 20
5.6463038894
 30
0.0
 11
6.4060110934
 21
6.5422881413
 31
0.0
  0
LINE
  5
1A6
330
19A
100
AcDbEntity
  8
0
  6
Continuous
 62
     7
370
    18
100
AcDbLine
 10
6.9485307785
 20
4.6718944405
 30
0.0
 11
6.9485307785
 21
6.5422881413
 31
0.0
  0
LINE
  5
1A7
330
19A
100
AcDbEntity
  8
0
  6
Continuous
 62
     7
370
    18
100
AcDbLine
 10
6.4060110934
 20
6.4722881413
 30
0.0
 11
6.1560110934
 21
6.4722881413
 31
0.0
  0
LINE
  5
1A8
330
19A
100
AcDbEntity
  8
0
  6
Continuous
 62
     7
370
    18
100
AcDbLine
 10
6.9485307785
 20
6.4722881413
 30
0.0
 11
7.1985307785
 21
6.4722881413
 31
0.0
  0
MTEXT
  5
1A9
330
19A
100
AcDbEntity
  8
0
  6
Continuous
 62
     7
370
    18
100
AcDbMText
 10
6.4664684598
 20
6.5966085907
 30
0.0
 40
0.0833333333
 41
0.0
 71
     1
 72
     1
  1

  7
SLDTEXTSTYLE0
 73
     1
 44
1.0
  0
MTEXT
  5
1AA
330
19A
100
AcDbEntity
  8
0
  6
Continuous
 62
     7
370
    18
100
AcDbMText
 10
6.465388212
 20
6.5966085907
 30
0.0
 40
0.0833333333
 41
0.0
 71
     1
 72
     1
  1
13.8mm
  7
SLDTEXTSTYLE0
 73
     1
 44
1.0
  0
MTEXT
  5
1AB
330
19A
100
AcDbEntity
  8
0
  6
Continuous
 62
     7
370
    18
100
AcDbMText
 10
6.5245703241
 20
6.4473030346
 30
0.0
 40
0.0833333333
 41
0.0
 71
     1
 72
     1
  1
0.54in
  7
SLDTEXTSTYLE0
 73
     1
 44
1.0
  0
MTEXT
  5
1AC
330
19A
100
AcDbEntity
  8
0
  6
Continuous
 62
     7
370
    18
100
AcDbMText
 10
6.9516536416
 20
6.5966085907
 30
0.0
 40
0.0833333333
 41
0.0
 71
     1
 72
     1
  1

  7
SLDTEXTSTYLE0
 73
     1
 44
1.0
  0
ENDBLK
  5
19C
330
19A
100
AcDbEntity
  8
0
100
AcDbBlockEnd
  0
BLOCK
  5
1B0
330
1AF
100
AcDbEntity
  8
0
100
AcDbBlockBegin
  2
_D_2
 70
     0
 10
0.0
 20
0.0
 30
0.0
  3
_D_2
  1

  0
SOLID
  5
1B2
330
1AF
100
AcDbEntity
  8
0
  6
Continuous
 62
     7
370
    18
100
AcDbTrace
 10
6.7547590576
 20
3.8650872306
 30
0.0
 11
6.8547669757
 21
3.7874765592
 31
0.0
 12
6.8739898788
 22
3.8225547575
 32
0.0
 13
6.8739898788
 23
3.8225547575
 33
0.0
  0
LINE
  5
1B3
330
1AF
100
AcDbEntity
  8
0
  6
Continuous
 62
     7
370
    18
100
AcDbLine
 10
7.9670008777
 20
3.2489042884
 30
0.0
 11
7.941653655
 21
3.2489042884
 31
0.0
  0
LINE
  5
1B4
330
1AF
100
AcDbEntity
  8
0
  6
Continuous
 62
     7
370
    18
100
AcDbLine
 10
7.941653655
 20
3.2489042884
 30
0.0
 11
7.941653655
 21
3.1164968839
 31
0.0
  0
LINE
  5
1B5
330
1AF
100
AcDbEntity
  8
0
  6
Continuous
 62
     7
370
    18
100
AcDbLine
 10
7.941653655
 20
3.1164968839
 30
0.0
 11
7.9670008777
 21
3.1164968839
 31
0.0
  0
LINE
  5
1B6
330
1AF
100
AcDbEntity
  8
0
  6
Continuous
 62
     7
370
    18
100
AcDbLine
 10
8.2724021196
 20
3.2489042884
 30
0.0
 11
8.2977493422
 21
3.2489042884
 31
0.0
  0
LINE
  5
1B7
330
1AF
100
AcDbEntity
  8
0
  6
Continuous
 62
     7
370
    18
100
AcDbLine
 10
8.2977493422
 20
3.2489042884
 30
0.0
 11
8.2977493422
 21
3.1164968839
 31
0.0
  0
LINE
  5
1B8
330
1AF
100
AcDbEntity
  8
0
  6
Continuous
 62
     7
370
    18
100
AcDbLine
 10
8.2977493422
 20
3.1164968839
 30
0.0
 11
8.2724021196
 21
3.1164968839
 31
0.0
  0
LINE
  5
1B9
330
1AF
100
AcDbEntity
  8
0
  6
Continuous
 62
     7
370
    18
100
AcDbLine
 10
6.7547590576
 20
3.8650872306
 30
0.0
 11
7.7663064324
 21
3.3107578139
 31
0.0
  0
LINE
  5
1BA
330
1AF
100
AcDbEntity
  8
0
  6
Continuous
 62
     7
370
    18
100
AcDbLine
 10
7.7663064324
 20
3.3107578139
 30
0.0
 11
7.9163064324
 21
3.3107578139
 31
0.0
  0
MTEXT
  5
1BB
330
1AF
100
AcDbEntity
  8
0
  6
Continuous
 62
     7
370
    18
100
AcDbMText
 10
7.9163064324
 20
3.373224747
 30
0.0
 40
0.0833333333
 41
0.0
 71
     1
 72
     1
  1
R40.0mm
  7
SLDTEXTSTYLE0
 73
     1
 44
1.0
  0
MTEXT
  5
1BC
330
1AF
100
AcDbEntity
  8
0
  6
Continuous
 62
     7
370
    18
100
AcDbMText
 10
7.9670008777
 20
3.2239191909
 30
0.0
 40
0.0833333333
 41
0.0
 71
     1
 72
     1
  1
1.57in
  7
SLDTEXTSTYLE0
 73
     1
 44
1.0
  0
ENDBLK
  5
1B1
330
1AF
100
AcDbEntity
  8
0
100
AcDbBlockEnd
  0
BLOCK
  5
1C0
330
1BF
100
AcDbEntity
  8
0
100
AcDbBlockBegin
  2
_D_3
 70
     0
 10
0.0
 20
0.0
 30
0.0
  3
_D_3
  1

  0
SOLID
  5
1C2
330
1BF
100
AcDbEntity
  8
0
  6
Continuous
 62
     7
370
    18
100
AcDbTrace
 10
6.6030579435
 20
6.0240717781
 30
0.0
 11
6.7280579435
 21
6.0040717781
 31
0.0
 12
6.7280579435
 22
6.0440717781
 32
0.0
 13
6.7280579435
 23
6.0440717781
 33
0.0
  0
SOLID
  5
1C3
330
1BF
100
AcDbEntity
  8
0
  6
Continuous
 62
     7
370
    18
100
AcDbTrace
 10
6.4060110934
 20
6.0240717781
 30
0.0
 11
6.2810110934
 21
6.0440717781
 31
0.0
 12
6.2810110934
 22
6.0040717781
 32
0.0
 13
6.2810110934
 23
6.0040717781
 33
0.0
  0
LINE
  5
1C4
330
1BF
100
AcDbEntity
  8
0
  6
Continuous
 62
     7
370
    18
100
AcDbLine
 10
5.7488271428
 20
6.1009236186
 30
0.0
 11
5.7234799201
 21
6.1009236186
 31
0.0
  0
LINE
  5
1C5
330
1BF
100
AcDbEntity
  8
0
  6
Continuous
 62
     7
370
    18
100
AcDbLine
 10
5.7234799201
 20
6.1009236186
 30
0.0
 11
5.7234799201
 21
5.968516214
 31
0.0
  0
LINE
  5
1C6
330
1BF
100
AcDbEntity
  8
0
  6
Continuous
 62
     7
370
    18
100
AcDbLine
 10
5.7234799201
 20
5.968516214
 30
0.0
 11
5.7488271428
 21
5.968516214
 31
0.0
  0
LINE
  5
1C7
330
1BF
100
AcDbEntity
  8
0
  6
Continuous
 62
     7
370
    18
100
AcDbLine
 10
6.0542283847
 20
6.1009236186
 30
0.0
 11
6.0795756073
 21
6.1009236186
 31
0.0
  0
LINE
  5
1C8
330
1BF
100
AcDbEntity
  8
0
  6
Continuous
 62
     7
370
    18
100
AcDbLine
 10
6.0795756073
 20
6.1009236186
 30
0.0
 11
6.0795756073
 21
5.968516214
 31
0.0
  0
LINE
  5
1C9
330
1BF
100
AcDbEntity
  8
0
  6
Continuous
 62
     7
370
    18
100
AcDbLine
 10
6.0795756073
 20
5.968516214
 30
0.0
 11
6.0542283847
 21
5.968516214
 31
0.0
  0
LINE
  5
1CA
330
1BF
100
AcDbEntity
  8
0
  6
Continuous
 62
     7
370
    18
100
AcDbLine
 10
6.6030579435
 20
5.656146409
 30
0.0
 11
6.6030579435
 21
6.0940717781
 31
0.0
  0
LINE
  5
1CB
330
1BF
100
AcDbEntity
  8
0
  6
Continuous
 62
     7
370
    18
100
AcDbLine
 10
6.4060110934
 20
5.6463038894
 30
0.0
 11
6.4060110934
 21
6.0940717781
 31
0.0
  0
LINE
  5
1CC
330
1BF
100
AcDbEntity
  8
0
  6
Continuous
 62
     7
370
    18
100
AcDbLine
 10
6.6030579435
 20
6.0240717781
 30
0.0
 11
6.8530579435
 21
6.0240717781
 31
0.0
  0
LINE
  5
1CD
330
1BF
100
AcDbEntity
  8
0
  6
Continuous
 62
     7
370
    18
100
AcDbLine
 10
6.4060110934
 20
6.0240717781
 30
0.0
 11
6.1218434133
 21
6.0240717781
 31
0.0
  0
MTEXT
  5
1CE
330
1BF
100
AcDbEntity
  8
0
  6
Continuous
 62
     7
370
    18
100
AcDbMText
 10
5.7204320799
 20
6.2252440771
 30
0.0
 40
0.0833333333
 41
0.0
 71
     1
 72
     1
  1
5.0mm
  7
SLDTEXTSTYLE0
 73
     1
 44
1.0
  0
MTEXT
  5
1CF
330
1BF
100
AcDbEntity
  8
0
  6
Continuous
 62
     7
370
    18
100
AcDbMText
 10
5.7488271428
 20
6.0759385211
 30
0.0
 40
0.0833333333
 41
0.0
 71
     1
 72
     1
  1
0.20in
  7
SLDTEXTSTYLE0
 73
     1
 44
1.0
  0
MTEXT
  5
1D0
330
1BF
100
AcDbEntity
  8
0
  6
Continuous
 62
     7
370
    18
100
AcDbMText
 10
5.7700462735
 20
5.9266329742
 30
0.0
 40
0.0833333333
 41
0.0
 71
     1
 72
     1
  1
(REF)
  7
SLDTEXTSTYLE0
 73
     1
 44
1.0
  0
ENDBLK
  5
1C1
330
1BF
100
AcDbEntity
  8
0
100
AcDbBlockEnd
  0
ENDSEC
  0
SECTION
  2
ENTITIES
  0
LINE
  5
115
330
1F
100
AcDbEntity
  8
0
  6
Continuous
 62
     7
370
    18
100
AcDbLine
 10
0.0621791378
 20
8.4506055117
 30
0.0
 11
10.9444569626
 21
8.4506055117
 31
0.0
  0
LINE
  5
116
330
1F
100
AcDbEntity
  8
0
  6
Continuous
 62
     7
370
    18
100
AcDbLine
 10
0.0621791378
 20
8.4506055117
 30
0.0
 11
0.0621791378
 21
0.035557648
 31
0.0
  0
LINE
  5
117
330
1F
100
AcDbEntity
  8
0
  6
Continuous
 62
     7
370
    18
100
AcDbLine
 10
10.9444569626
 20
0.035557648
 30
0.0
 11
0.0621791378
 21
0.035557648
 31
0.0
  0
LINE
  5
118
330
1F
100
AcDbEntity
  8
0
  6
Continuous
 62
     7
370
    18
100
AcDbLine
 10
10.9444569626
 20
0.035557648
 30
0.0
 11
10.9444569626
 21
8.4506055117
 31
0.0
  0
LINE
  5
119
330
1F
100
AcDbEntity
  8
0
  6
Continuous
 62
     7
370
    18
100
AcDbLine
 10
8.4938096065
 20
0.4840901186
 30
0.0
 11
6.7571952625
 21
0.4840901186
 31
0.0
  0
LINE
  5
11A
330
1F
100
AcDbEntity
  8
0
  6
Continuous
 62
     7
370
    18
100
AcDbLine
 10
6.7571952625
 20
0.4840901186
 30
0.0
 11
6.7571952625
 21
1.030163002
 31
0.0
  0
LINE
  5
11B
330
1F
100
AcDbEntity
  8
0
  6
Continuous
 62
     7
370
    18
100
AcDbLine
 10
6.7571952625
 20
0.035557648
 30
0.0
 11
6.7571952625
 21
1.030163002
 31
0.0
  0
LINE
  5
11C
330
1F
100
AcDbEntity
  8
0
  6
Continuous
 62
     7
370
    18
100
AcDbLine
 10
8.4938096065
 20
0.6756085809
 30
0.0
 11
10.9444569626
 21
0.6756085809
 31
0.0
  0
LINE
  5
11D
330
1F
100
AcDbEntity
  8
0
  6
Continuous
 62
     7
370
    18
100
AcDbLine
 10
8.4938096065
 20
1.3873799542
 30
0.0
 11
8.4938096065
 21
0.035557648
 31
0.0
  0
LINE
  5
11E
330
1F
100
AcDbEntity
  8
0
  6
Continuous
 62
     7
370
    18
100
AcDbLine
 10
8.4938096065
 20
1.030163002
 30
0.0
 11
6.7571952625
 21
1.030163002
 31
0.0
  0
LINE
  5
11F
330
1F
100
AcDbEntity
  8
0
  6
Continuous
 62
     7
370
    18
100
AcDbLine
 10
8.4938096065
 20
0.3598787426
 30
0.0
 11
10.9444569626
 21
0.3598787426
 31
0.0
  0
LINE
  5
120
330
1F
100
AcDbEntity
  8
0
  6
Continuous
 62
     7
370
    18
100
AcDbLine
 10
8.4938096065
 20
0.6662079686
 30
0.0
 11
6.7571952625
 21
0.6662079686
 31
0.0
  0
LINE
  5
121
330
1F
100
AcDbEntity
  8
0
  6
Continuous
 62
     7
370
    18
100
AcDbLine
 10
8.4938096065
 20
0.8459606517
 30
0.0
 11
6.7571952625
 21
0.8459606517
 31
0.0
  0
LINE
  5
122
330
1F
100
AcDbEntity
  8
0
  6
Continuous
 62
     7
370
    18
100
AcDbLine
 10
7.3281027587
 20
1.030163002
 30
0.0
 11
7.3281027587
 21
0.4840901186
 31
0.0
  0
LINE
  5
123
330
1F
100
AcDbEntity
  8
0
  6
Continuous
 62
     7
370
    18
100
AcDbLine
 10
7.8037240401
 20
1.030163002
 30
0.0
 11
7.8037240401
 21
0.4840901186
 31
0.0
  0
LINE
  5
124
330
1F
100
AcDbEntity
  8
0
  6
Continuous
 62
     7
370
    18
100
AcDbLine
 10
9.990119718
 20
0.3598787426
 30
0.0
 11
9.990119718
 21
0.035557648
 31
0.0
  0
LINE
  5
125
330
1F
100
AcDbEntity
  8
0
  6
Continuous
 62
     7
370
    18
100
AcDbLine
 10
6.7571952625
 20
0.4840901186
 30
0.0
 11
6.7571952625
 21
0.297745443
 31
0.0
  0
LINE
  5
126
330
1F
100
AcDbEntity
  8
0
  6
Continuous
 62
     7
370
    18
100
AcDbLine
 10
6.7571952625
 20
0.297745443
 30
0.0
 11
8.4938096065
 21
0.297745443
 31
0.0
  0
LINE
  5
127
330
1F
100
AcDbEntity
  8
0
  6
Continuous
 62
     7
370
    18
100
AcDbLine
 10
6.7571952625
 20
0.297745443
 30
0.0
 11
6.7571952625
 21
1.3873799542
 31
0.0
  0
LINE
  5
128
330
1F
100
AcDbEntity
  8
0
  6
Continuous
 62
     7
370
    18
100
AcDbLine
 10
6.7571952625
 20
1.3873799542
 30
0.0
 11
8.4938096065
 21
1.3873799542
 31
0.0
  0
LINE
  5
129
330
1F
100
AcDbEntity
  8
0
  6
Continuous
 62
     7
370
    18
100
AcDbLine
 10
10.6365495992
 20
0.6756085809
 30
0.0
 11
10.6365495992
 21
0.3598787426
 31
0.0
  0
LINE
  5
12A
330
1F
100
AcDbEntity
  8
0
  6
Continuous
 62
     7
370
    18
100
AcDbLine
 10
8.4938096065
 20
1.3873799542
 30
0.0
 11
10.9444569626
 21
1.3873799542
 31
0.0
  0
LINE
  5
12B
330
1F
100
AcDbEntity
  8
0
  6
Continuous
 62
     7
370
    18
100
AcDbLine
 10
10.9444569626
 20
1.3873799542
 30
0.0
 11
10.9444569626
 21
1.9698084888
 31
0.0
  0
LINE
  5
12C
330
1F
100
AcDbEntity
  8
0
  6
Continuous
 62
     7
370
    18
100
AcDbLine
 10
8.4938096065
 20
0.9800288797
 30
0.0
 11
10.9444569626
 21
0.9800288797
 31
0.0
  0
INSERT
  5
12D
330
1F
100
AcDbEntity
  8
0
  6
Continuous
 62
     7
100
AcDbBlockReference
  2
Third Angle Projection Block
 10
4.6348905679
 20
0.6108753523
 30
0.0
 41
0.8
 42
0.8
 43
0.8
  0
INSERT
  5
12E
330
1F
100
AcDbEntity
  8
0
  6
Continuous
 62
     7
100
AcDbBlockReference
  2
THORLABS LOGO1
 10
8.7223523294
 20
0.8395657607
 30
0.0
 41
0.25
 42
0.25
 43
0.25
  0
MTEXT
  5
130
330
1F
100
AcDbEntity
  8
0
  6
Continuous
 62
     7
370
     0
100
AcDbMText
 10
10.7953498493
 20
0.5227176726
 30
0.0
 40
0.125
 41
0.0
 71
     2
 72
     1
  1
E
  7
SLDTEXTSTYLE0
 73
     1
 44
1.0
  0
MTEXT
  5
131
330
1F
100
AcDbEntity
  8
0
  6
Continuous
 62
     7
370
     0
100
AcDbMText
 10
9.2349278783
 20
0.2019943461
 30
0.0
 40
0.125
 41
0.0
 71
     2
 72
     1
  1
LAT100
  7
SLDTEXTSTYLE0
 73
     1
 44
1.0
  0
MTEXT
  5
132
330
1F
100
AcDbEntity
  8
0
  6
Continuous
 62
     7
370
     0
100
AcDbMText
 10
8.5204715199
 20
0.6623747189
 30
0.0
 40
0.0833333333
 41
0.0
 71
     1
 72
     1
  1
MATERIAL
  7
SLDTEXTSTYLE0
 73
     1
 44
1.0
  0
MTEXT
  5
133
330
1F
100
AcDbEntity
  8
0
  6
Continuous
 62
     7
370
     0
100
AcDbMText
 10
6.8594860853
 20
0.7895493672
 30
0.0
 40
0.0729166667
 41
0.0
 71
     1
 72
     1
  1
DRAWN
  7
SLDTEXTSTYLE0
 73
     1
 44
1.0
  0
MTEXT
  5
134
330
1F
100
AcDbEntity
  8
0
  6
Continuous
 62
     7
370
     0
100
AcDbMText
 10
6.7872445848
 20
0.613335314
 30
0.0
 40
0.0729166667
 41
0.0
 71
     1
 72
     1
  1
APPROVAL
  7
SLDTEXTSTYLE0
 73
     1
 44
1.0
  0
MTEXT
  5
135
330
1F
100
AcDbEntity
  8
0
  6
Continuous
 62
     7
370
     0
100
AcDbMText
 10
10.6936137314
 20
0.6373332609
 30
0.0
 40
0.0833333333
 41
0.0
 71
     1
 72
     1
  1
REV
  7
SLDTEXTSTYLE0
 73
     1
 44
1.0
  0
MTEXT
  5
136
330
1F
100
AcDbEntity
  8
0
  6
Continuous
 62
     7
370
     0
100
AcDbMText
 10
7.4919633718
 20
0.7999100272
 30
0.0
 40
0.0833333333
 41
0.0
 71
     1
 72
     1
  1
DS
  7
SLDTEXTSTYLE0
 73
     1
 44
1.0
  0
MTEXT
  5
137
330
1F
100
AcDbEntity
  8
0
  6
Continuous
 62
     7
370
     0
100
AcDbMText
 10
7.4919633718
 20
0.623695974
 30
0.0
 40
0.0833333333
 41
0.0
 71
     1
 72
     1
  1
BW
  7
SLDTEXTSTYLE0
 73
     1
 44
1.0
  0
MTEXT
  5
138
330
1F
100
AcDbEntity
  8
0
  6
Continuous
 62
     7
370
     0
100
AcDbMText
 10
7.8687497515
 20
0.7999100272
 30
0.0
 40
0.0833333333
 41
0.0
 71
     1
 72
     1
  1
07/01/2019
  7
SLDTEXTSTYLE0
 73
     1
 44
1.0
  0
MTEXT
  5
139
330
1F
100
AcDbEntity
  8
0
  6
Continuous
 62
     7
370
     0
100
AcDbMText
 10
8.0163191884
 20
0.9772495896
 30
0.0
 40
0.0833333333
 41
0.0
 71
     1
 72
     1
  1
DATE
  7
SLDTEXTSTYLE0
 73
     1
 44
1.0
  0
MTEXT
  5
13A
330
1F
100
AcDbEntity
  8
0
  6
Continuous
 62
     7
370
     0
100
AcDbMText
 10
7.8687497515
 20
0.623695974
 30
0.0
 40
0.0833333333
 41
0.0
 71
     1
 72
     1
  1
07/10/2019
  7
SLDTEXTSTYLE0
 73
     1
 44
1.0
  0
MTEXT
  5
13C
330
1F
100
AcDbEntity
  8
0
  6
Continuous
 62
     7
370
     0
100
AcDbMText
 10
9.0316104912
 20
1.0943207896
 30
0.0
 40
0.0833333333
 41
0.0
 71
     1
 72
     1
  1
w w w . t h o r  l a b s . c o m
  7
SLDTEXTSTYLE1
 73
     1
 44
1.0
  0
MTEXT
  5
13D
330
1F
100
AcDbEntity
  8
0
  6
Continuous
 62
     7
370
     0
100
AcDbMText
 10
8.5315119501
 20
0.328719653
 30
0.0
 40
0.0833333333
 41
0.0
 71
     1
 72
     1
  1
ITEM #
  7
SLDTEXTSTYLE0
 73
     1
 44
1.0
  0
MTEXT
  5
13E
330
1F
100
AcDbEntity
  8
0
  6
Continuous
 62
     7
370
     0
100
AcDbMText
 10
10.0209370115
 20
0.328719653
 30
0.0
 40
0.0833333333
 41
0.0
 71
     1
 72
     1
  1
APPROX WEIGHT
  7
SLDTEXTSTYLE0
 73
     1
 44
1.0
  0
MTEXT
  5
13F
330
1F
100
AcDbEntity
  8
0
  6
Continuous
 62
     7
370
     0
100
AcDbMText
 10
9.5974743449
 20
0.5414715262
 30
0.0
 40
0.125
 41
0.0
 71
     2
 72
     1
  1
Virgin Grade PTFE
  7
SLDTEXTSTYLE0
 73
     1
 44
1.0
  0
MTEXT
  5
141
330
1F
100
AcDbEntity
  8
0
  6
Continuous
 62
     7
370
     0
100
AcDbMText
 10
10.4826226539
 20
0.2019943461
 30
0.0
 40
0.125
 41
0.0
 71
     2
 72
     1
  1
44 g
  7
SLDTEXTSTYLE2
 73
     1
 44
1.0
  0
INSERT
  5
147
330
1F
100
AcDbEntity
  8
0
  6
Continuous
 62
     7
370
     0
100
AcDbBlockReference
  2
SW_NOTE_0
 10
6.8835832285
 20
0.1754273811
 30
0.0
  0
INSERT
  5
14D
330
1F
100
AcDbEntity
  8
0
  6
Continuous
 62
     7
370
     0
100
AcDbBlockReference
  2
SW_NOTE_1
 10
6.8719828753
 20
1.2001390658
 30
0.0
  0
MTEXT
  5
14E
330
1F
100
AcDbEntity
  8
0
  6
Continuous
 62
     7
370
     0
100
AcDbMText
 10
7.3987149145
 20
0.9772495896
 30
0.0
 40
0.0833333333
 41
0.0
 71
     1
 72
     1
  1
NAME
  7
SLDTEXTSTYLE0
 73
     1
 44
1.0
  0
INSERT
  5
155
330
1F
100
AcDbEntity
  8
0
  6
Continuous
 62
     7
370
     0
100
AcDbBlockReference
  2
SW_NOTE_2
 10
8.9329027648
 20
0.819425093
 30
0.0
  0
MTEXT
  5
156
330
1F
100
AcDbEntity
  8
0
  6
Continuous
 62
     7
370
     0
100
AcDbMText
 10
7.0281258754
 20
0.4200025137
 30
0.0
 40
0.0625
 41
0.0
 71
     1
 72
     1
  1
COPYRIGHT © 2019 BY THORLABS
  7
SLDTEXTSTYLE0
 73
     1
 44
1.0
  0
INSERT
  5
15C
330
1F
100
AcDbEntity
  8
0
  6
Continuous
 62
     7
370
     0
100
AcDbBlockReference
  2
SW_NOTE_3
 10
2.1096529316
 20
0.3219551564
 30
0.0
  0
INSERT
  5
16D
330
1F
100
AcDbEntity
  8
0
  6
Continuous
 62
     7
370
     0
100
AcDbBlockReference
  2
SW_NOTE_4
 10
0.5443471716
 20
2.3477807043
 30
0.0
  0
CIRCLE
  5
16E
330
1F
100
AcDbEntity
  8
0
  6
Continuous
 62
     7
370
    18
100
AcDbCircle
 10
3.1580914849
 20
4.6218944405
 30
0.0
 40
0.9842519685039375
  0
DIMENSION
  5
16F
330
1F
100
AcDbEntity
  8
0
  6
Continuous
 62
     7
370
    18
100
AcDbDimension
  2
_D
 10
2.4542873093
 20
3.9338452998
 30
0.0
 11
4.9581767109
 21
5.9664163965
 31
0.0
 70
   163
  1
<>
 71
     1
 42
-1.0
  3
SLDDIMSTYLE0
100
AcDbDiametricDimension
 15
3.8618956604
 25
5.3099435812
 35
0.0
 40
0.0
  0
LINE
  5
180
330
1F
100
AcDbEntity
  8
0
  6
PHANTOM
 62
     7
370
    35
100
AcDbLine
 10
3.1580914849
 20
5.8423668815
 30
0.0
 11
3.1580914849
 21
3.4014219996
 31
0.0
  0
LINE
  5
181
330
1F
100
AcDbEntity
  8
0
  6
Continuous
 62
     7
370
    35
100
AcDbLine
 10
3.1580914849
 20
5.8423668815
 30
0.0
 11
3.5080914849
 21
5.8423668815
 31
0.0
  0
SOLID
  5
182
330
1F
100
AcDbEntity
  8
0
  6
Continuous
 62
     7
370
    35
100
AcDbTrace
 10
3.5080914849
 20
5.8423668815
 30
0.0
 11
3.3580914849
 21
5.8673668815
 31
0.0
 12
3.3580914849
 22
5.8173668815
 32
0.0
 13
3.3580914849
 23
5.8173668815
 33
0.0
  0
LINE
  5
183
330
1F
100
AcDbEntity
  8
0
  6
Continuous
 62
     7
370
    35
100
AcDbLine
 10
3.1580914849
 20
3.4014219996
 30
0.0
 11
3.5080914849
 21
3.4014219996
 31
0.0
  0
SOLID
  5
184
330
1F
100
AcDbEntity
  8
0
  6
Continuous
 62
     7
370
    35
100
AcDbTrace
 10
3.5080914849
 20
3.4014219996
 30
0.0
 11
3.3580914849
 21
3.4264219996
 31
0.0
 12
3.3580914849
 22
3.3764219996
 32
0.0
 13
3.3580914849
 23
3.3764219996
 33
0.0
  0
MTEXT
  5
185
330
1F
100
AcDbEntity
  8
0
  6
Continuous
 62
     7
100
AcDbMText
 10
3.5394518481
 20
5.9250615512
 30
0.0
 40
0.1041666667
 41
0.0
 71
     1
 72
     1
  1
A
  7
SLDTEXTSTYLE0
 73
     1
 44
1.0
  0
MTEXT
  5
186
330
1F
100
AcDbEntity
  8
0
  6
Continuous
 62
     7
100
AcDbMText
 10
3.5394518481
 20
3.4841166694
 30
0.0
 40
0.1041666667
 41
0.0
 71
     1
 72
     1
  1
A
  7
SLDTEXTSTYLE0
 73
     1
 44
1.0
  0
ARC
  5
187
330
1F
100
AcDbEntity
  8
0
  6
Continuous
 62
     7
370
    18
100
AcDbCircle
 10
10.417832982
 20
7.5511855566
 30
0.0
 40
1.574803149606299
100
AcDbArc
 50
192.9556786898
 51
227.0389447775
  0
LINE
  5
188
330
1F
100
AcDbEntity
  8
0
  6
Continuous
 62
     7
370
    18
100
AcDbLine
 10
10.0406511706
 20
6.1969576385
 30
0.0
 11
10.1730246221
 21
6.2733752055
 31
0.0
  0
LINE
  5
189
330
1F
100
AcDbEntity
  8
0
  6
Continuous
 62
     7
370
    18
100
AcDbLine
 10
9.1888526412
 20
7.9781958007
 30
0.0
 11
9.0564791897
 21
7.9017782338
 31
0.0
  0
LINE
  5
18A
330
1F
100
AcDbEntity
  8
0
  6
Continuous
 62
     7
370
    18
100
AcDbLine
 10
10.376909873
 20
6.7240098575
 30
0.0
 11
10.376909873
 21
6.7320453704
 31
0.0
  0
LINE
  5
18B
330
1F
100
AcDbEntity
  8
0
  6
Continuous
 62
     7
370
    18
100
AcDbLine
 10
9.6880103278
 20
7.9253836846
 30
0.0
 11
9.6810517465
 21
7.9294020941
 31
0.0
  0
LWPOLYLINE
  5
18C
330
1F
100
AcDbEntity
  8
0
  6
Continuous
 62
     7
370
    18
100
AcDbPolyline
 90
      132
 70
   128
 43
0.0
 10
9.5485651802
 20
6.2456860347
 10
9.5752227813
 20
6.2308866861
 10
9.6018412587
 20
6.2172885717
 10
9.6283815461
 20
6.2049116484
 10
9.654804692
 20
6.1937740813
 10
9.6810719167
 20
6.183892216
 10
9.7071446696
 20
6.1752805558
 10
9.7329846852
 20
6.1679517393
 10
9.7585540397
 20
6.1619165226
 10
9.7838152066
 20
6.1571837633
 10
9.8087311117
 20
6.1537604073
 10
9.8332651874
 20
6.1516514788
 10
9.8573814265
 20
6.150860073
 10
9.8810444353
 20
6.1513873514
 10
9.9042194848
 20
6.1532325401
 10
9.9268725627
 20
6.1563929311
 10
9.9489704223
 20
6.1608638861
 10
9.970480632
 20
6.1666388433
 10
9.9913716225
 20
6.1737093271
 10
10.0116127336
 20
6.1820649607
 10
10.0311742585
 20
6.1916934811
 10
10.0500274881
 20
6.2025807569
 10
10.0681447525
 20
6.2147108098
 10
10.0854994623
 20
6.228065837
 10
10.102066147
 20
6.2426262384
 10
10.1178204927
 20
6.2583706444
 10
10.1327393777
 20
6.275275948
 10
10.1468009065
 20
6.2933173384
 10
10.1599844419
 20
6.3124683373
 10
10.1722706353
 20
6.3327008379
 10
10.1836414548
 20
6.3539851464
 10
10.1940802124
 20
6.376290025
 10
10.2035715876
 20
6.3995827382
 10
10.2121016506
 20
6.4238291008
 10
10.2196578823
 20
6.448993528
 10
10.226229193
 20
6.4750390873
 10
10.2318059382
 20
6.5019275535
 10
10.2363799335
 20
6.5296194639
 10
10.2399444657
 20
6.5580741768
 10
10.2424943035
 20
6.5872499311
 10
10.2440257046
 20
6.6171039073
 10
10.2445364215
 20
6.6475922906
 10
10.2440257046
 20
6.678670335
 10
10.2424943035
 20
6.7102924293
 10
10.2399444657
 20
6.7424121636
 10
10.2363799335
 20
6.7749823979
 10
10.2318059382
 20
6.8079553307
 10
10.226229193
 20
6.8412825699
 10
10.2196578823
 20
6.874915203
 10
10.2121016506
 20
6.9088038696
 10
10.2035715876
 20
6.9428988333
 10
10.1940802124
 20
6.9771500552
 10
10.1836414548
 20
7.0115072667
 10
10.1722706353
 20
7.045920044
 10
10.1599844419
 20
7.0803378815
 10
10.1468009065
 20
7.1147102664
 10
10.1327393777
 20
7.1489867523
 10
10.1178204927
 20
7.183117034
 10
10.102066147
 20
7.2170510204
 10
10.0854994623
 20
7.2507389087
 10
10.0681447525
 20
7.2841312574
 10
10.0500274881
 20
7.3171790585
 10
10.0311742585
 20
7.3498338099
 10
10.0116127336
 20
7.3820475861
 10
9.9913716225
 20
7.4137731091
 10
9.970480632
 20
7.4449638173
 10
9.9489704223
 20
7.4755739339
 10
9.9268725627
 20
7.5055585345
 10
9.9042194848
 20
7.5348736125
 10
9.8810444353
 20
7.5634761439
 10
9.8573814265
 20
7.5913241507
 10
9.8332651874
 20
7.6183767619
 10
9.8087311117
 20
7.6445942743
 10
9.7838152066
 20
7.6699382099
 10
9.7585540397
 20
7.6943713731
 10
9.7329846852
 20
7.7178579047
 10
9.7071446696
 20
7.7403633352
 10
9.6810719167
 20
7.7618546346
 10
9.654804692
 20
7.7823002616
 10
9.6283815461
 20
7.8016702093
 10
9.6018412587
 20
7.8199360496
 10
9.5752227813
 20
7.837070975
 10
9.5485651802
 20
7.8530498376
 10
9.521907579
 20
7.8678491862
 10
9.4952891016
 20
7.8814473006
 10
9.4687488142
 20
7.8938242238
 10
9.4423256683
 20
7.904961791
 10
9.4160584436
 20
7.9148436562
 10
9.3899856907
 20
7.9234553165
 10
9.3641456751
 20
7.930784133
 10
9.3385763206
 20
7.9368193496
 10
9.3133151537
 20
7.941552109
 10
9.2883992486
 20
7.944975465
 10
9.263865173
 20
7.9470843935
 10
9.2397489338
 20
7.9478757993
 10
9.2160859251
 20
7.9473485209
 10
9.1929108755
 20
7.9455033322
 10
9.1702577976
 20
7.9423429412
 10
9.148159938
 20
7.9378719862
 10
9.1266497284
 20
7.932097029
 10
9.1057587378
 20
7.9250265452
 10
9.0855176267
 20
7.9166709115
 10
9.0659561018
 20
7.9070423912
 10
9.0471028723
 20
7.8961551153
 10
9.0289856078
 20
7.8840250625
 10
9.011630898
 20
7.8706700353
 10
8.9950642133
 20
7.8561096339
 10
8.9793098676
 20
7.8403652279
 10
8.9643909826
 20
7.8234599243
 10
8.9503294538
 20
7.8054185339
 10
8.9371459184
 20
7.786267535
 10
8.924859725
 20
7.7660350344
 10
8.9134889055
 20
7.7447507259
 10
8.9030501479
 20
7.7224458473
 10
8.8935587727
 20
7.6991531341
 10
8.8850287097
 20
7.6749067714
 10
8.877472478
 20
7.6497423443
 10
8.8709011673
 20
7.623696785
 10
8.8653244221
 20
7.5968083188
 10
8.8607504268
 20
7.5691164084
 10
8.8571858946
 20
7.5406616955
 10
8.8546360568
 20
7.5114859412
 10
8.8531046557
 20
7.481631965
 10
8.8525939388
 20
7.4511435817
 10
8.8531046557
 20
7.4200655373
 10
8.8546360568
 20
7.388443443
 10
8.8571858946
 20
7.3563237087
 10
8.8607504268
 20
7.3237534744
 10
8.8653244221
 20
7.2907805415
 10
8.8709011673
 20
7.2574533024
 10
8.877472478
 20
7.2238206692
 10
8.8831183603
 20
7.1981190048
  0
ARC
  5
18D
330
1F
100
AcDbEntity
  8
0
  6
Continuous
 62
     7
370
    18
100
AcDbCircle
 10
10.1247363632
 20
7.2260506903
 30
0.0
 40
1.137140312421829
100
AcDbArc
 50
226.6818756223
 51
239.5567737605
  0
LWPOLYLINE
  5
18E
330
1F
100
AcDbEntity
  8
0
  6
Continuous
 62
     7
370
    18
100
AcDbPolyline
 90
       63
 70
   128
 43
0.0
 10
10.376909873
 20
6.7240098575
 10
10.3763991561
 20
6.7550879019
 10
10.374867755
 20
6.7867099962
 10
10.3723179172
 20
6.8188297305
 10
10.368753385
 20
6.8513999648
 10
10.3641793897
 20
6.8843728977
 10
10.3586026445
 20
6.9177001369
 10
10.3520313338
 20
6.95133277
 10
10.3444751021
 20
6.9852214366
 10
10.3359450391
 20
7.0193164003
 10
10.3264536639
 20
7.0535676221
 10
10.3160149063
 20
7.0879248336
 10
10.3046440868
 20
7.1223376109
 10
10.2923578934
 20
7.1567554484
 10
10.279174358
 20
7.1911278333
 10
10.2651128292
 20
7.2254043193
 10
10.2501939442
 20
7.2595346009
 10
10.2344395985
 20
7.2934685873
 10
10.2178729138
 20
7.3271564756
 10
10.200518204
 20
7.3605488243
 10
10.1824009395
 20
7.3935966254
 10
10.16354771
 20
7.4262513768
 10
10.1439861851
 20
7.4584651531
 10
10.123745074
 20
7.4901906761
 10
10.1028540834
 20
7.5213813842
 10
10.0813438738
 20
7.5519915009
 10
10.0592460142
 20
7.5819761015
 10
10.0365929363
 20
7.6112911794
 10
10.0134178867
 20
7.6398937109
 10
9.989754878
 20
7.6677417176
 10
9.9656386388
 20
7.6947943289
 10
9.9411045632
 20
7.7210118412
 10
9.9161886581
 20
7.7463557769
 10
9.8909274912
 20
7.77078894
 10
9.8653581367
 20
7.7942754717
 10
9.8395181211
 20
7.8167809022
 10
9.8134453682
 20
7.8382722016
 10
9.7871781435
 20
7.8587178285
 10
9.7607549976
 20
7.8780877762
 10
9.7342147102
 20
7.8963536166
 10
9.7075962328
 20
7.913488542
 10
9.6809386316
 20
7.9294674046
 10
9.6542810305
 20
7.9442667531
 10
9.6276625531
 20
7.9578648675
 10
9.6011222657
 20
7.9702417908
 10
9.5746991198
 20
7.981379358
 10
9.5484318951
 20
7.9912612232
 10
9.5223591422
 20
7.9998728834
 10
9.4965191266
 20
8.0072016999
 10
9.4709497721
 20
8.0132369166
 10
9.4456886052
 20
8.0179696759
 10
9.4207727001
 20
8.021393032
 10
9.3962386244
 20
8.0235019605
 10
9.3721223853
 20
8.0242933663
 10
9.3484593766
 20
8.0237660879
 10
9.325284327
 20
8.0219208991
 10
9.3026312491
 20
8.0187605081
 10
9.2805333895
 20
8.0142895531
 10
9.2590231799
 20
8.008514596
 10
9.2381321893
 20
8.0014441121
 10
9.2178910782
 20
7.9930884785
 10
9.1983295533
 20
7.9834599582
 10
9.1888526412
 20
7.9781958007
  0
LWPOLYLINE
  5
18F
330
1F
100
AcDbEntity
  8
0
  6
Continuous
 62
     7
370
    18
100
AcDbPolyline
 90
       22
 70
   128
 43
0.0
 10
10.1730246221
 20
6.2733752055
 10
10.1824009395
 20
6.2789983239
 10
10.200518204
 20
6.2911283767
 10
10.2178729138
 20
6.304483404
 10
10.2344395985
 20
6.3190438053
 10
10.2501939442
 20
6.3347882113
 10
10.2651128292
 20
6.351693515
 10
10.279174358
 20
6.3697349053
 10
10.2923578934
 20
6.3888859042
 10
10.3046440868
 20
6.4091184049
 10
10.3160149063
 20
6.4304027133
 10
10.3264536639
 20
6.4527075919
 10
10.3359450391
 20
6.4760003052
 10
10.3444751021
 20
6.5002466678
 10
10.3520313338
 20
6.5254110949
 10
10.3586026445
 20
6.5514566543
 10
10.3641793897
 20
6.5783451204
 10
10.368753385
 20
6.6060370308
 10
10.3723179172
 20
6.6344917438
 10
10.374867755
 20
6.6636674981
 10
10.3763991561
 20
6.6935214742
 10
10.376909873
 20
6.7240098575
  0
ARC
  5
190
330
1F
100
AcDbEntity
  8
0
  6
Continuous
 62
     7
370
    18
100
AcDbCircle
 10
8.8849938643
 20
6.6662963694
 30
0.0
 40
1.493364090885314
100
AcDbArc
 50
2.5234022951
 51
57.4712211722
  0
ARC
  5
191
330
1F
100
AcDbEntity
  8
0
  6
Continuous
 62
     7
370
    18
100
AcDbCircle
 10
5.3737276289
 20
4.6218944405
 30
0.0
 40
1.5748031496063
100
AcDbArc
 50
321.3178125465
 51
38.6821874535
  0
LINE
  5
192
330
1F
100
AcDbEntity
  8
0
  6
Continuous
 62
     7
370
    18
100
AcDbLine
 10
6.6030579435
 20
3.637642472
 30
0.0
 11
6.4158536131
 21
3.637642472
 31
0.0
  0
LINE
  5
193
330
1F
100
AcDbEntity
  8
0
  6
Continuous
 62
     7
370
    18
100
AcDbLine
 10
6.4060110934
 20
3.6474849917
 30
0.0
 11
6.4158536131
 21
3.637642472
 31
0.0
  0
LINE
  5
194
330
1F
100
AcDbEntity
  8
0
  6
Continuous
 62
     7
370
    18
100
AcDbLine
 10
6.4060110934
 20
3.6474849917
 30
0.0
 11
6.4060110934
 21
5.5963038894
 31
0.0
  0
LINE
  5
195
330
1F
100
AcDbEntity
  8
0
  6
Continuous
 62
     7
370
    18
100
AcDbLine
 10
6.4158536131
 20
5.606146409
 30
0.0
 11
6.4060110934
 21
5.5963038894
 31
0.0
  0
LINE
  5
196
330
1F
100
AcDbEntity
  8
0
  6
Continuous
 62
     7
370
    18
100
AcDbLine
 10
6.4158536131
 20
5.606146409
 30
0.0
 11
6.6030579435
 21
5.606146409
 31
0.0
  0
HATCH
  5
197
330
1F
100
AcDbEntity
  8
0
  6
Continuous
 62
     7
370
    18
100
AcDbHatch
 10
0.0
 20
0.0
 30
0.0
210
0.0
220
0.0
230
1.0
  2
ANSI31
 70
     0
 71
     0
 91
        1
 92
        0
 93
        6
 72
     1
 10
6.603057943519334
 20
5.606146409038771
 11
6.415853613125949
 21
5.606146409038771
 72
     1
 10
6.415853613125949
 20
5.606146409038771
 11
6.40601109344091
 21
5.596303889353732
 72
     1
 10
6.40601109344091
 20
5.596303889353732
 11
6.40601109344091
 21
3.647484991715936
 72
     1
 10
6.40601109344091
 20
3.647484991715936
 11
6.415853613125949
 21
3.637642472030896
 72
     1
 10
6.415853613125949
 20
3.637642472030896
 11
6.603057943519334
 21
3.637642472030896
 72
     2
 10
5.37372762887398
 20
4.621894440534834
 40
1.574803149606299
 50
321.3178125465114
 51
398.6821874534903
 73
     1
 97
        0
 75
     0
 76
     1
 52
0.0
 41
1.0
 77
     0
 78
     1
 53
45.0
 43
0.0
 44
0.0
 45
-0.0883883476483184
 46
0.0883883476483184
 79
     0
 98
        1
 10
0.0
 20
0.0
  0
DIMENSION
  5
198
330
1F
100
AcDbEntity
  8
0
  6
Continuous
 62
     7
370
    18
100
AcDbDimension
  2
_D_1
 10
6.9485307785
 20
6.4722881413
 30
0.0
 11
6.677270936
 21
6.4722881413
 31
0.0
 70
   160
  1
<>
 71
     2
 42
-1.0
  3
SLDDIMSTYLE1
100
AcDbAlignedDimension
 13
6.4060110934
 23
5.5963038894
 33
0.0
 14
6.9485307785
 24
4.6218944405
 34
0.0
100
AcDbRotatedDimension
  0
DIMENSION
  5
1AD
330
1F
100
AcDbEntity
  8
0
  6
Continuous
 62
     7
370
    18
100
AcDbDimension
  2
_D_2
 10
5.3737276289
 20
4.6218944405
 30
0.0
 11
8.1619082952
 21
3.3107578139
 31
0.0
 70
   164
  1
<>
 71
     1
 42
-1.0
  3
SLDDIMSTYLE2
100
AcDbRadialDimension
 15
6.7547590576
 25
3.8650872306
 35
0.0
 40
0.0
  0
DIMENSION
  5
1BD
330
1F
100
AcDbEntity
  8
0
  6
Continuous
 62
     7
370
    18
100
AcDbDimension
  2
_D_3
 10
6.4060110934
 20
6.0240717781
 30
0.0
 11
5.9015277546
 21
6.0240717781
 31
0.0
 70
   160
  1
<>\P(REF)
 71
     2
 42
-1.0
  3
SLDDIMSTYLE3
100
AcDbAlignedDimension
 13
6.6030579435
 23
5.606146409
 33
0.0
 14
6.4060110934
 24
5.5963038894
 34
0.0
100
AcDbRotatedDimension
  0
MTEXT
  5
1D1
330
1F
100
AcDbEntity
  8
0
  6
Continuous
 62
     7
370
     0
100
AcDbMText
 10
6.6701432175
 20
3.3815477247
 30
0.0
 40
0.0833333333
 41
0.0
 71
     2
 72
     1
  1
SECTION A-A
  7
SLDTEXTSTYLE0
 73
     1
 44
1.0
  0
ENDSEC
  0
SECTION
  2
OBJECTS
  0
DICTIONARY
  5
C
330
0
100
AcDbDictionary
281
     1
  3
ACAD_GROUP
350
D
  3
ACAD_LAYOUT
350
1A
  3
ACAD_MLINESTYLE
350
17
  3
ACAD_PLOTSETTINGS
350
19
  3
ACAD_PLOTSTYLENAME
350
E
  3
ACAD_SCALELIST
350
47
  0
DICTIONARY
  5
D
102
{ACAD_REACTORS
330
C
102
}
330
C
100
AcDbDictionary
281
     1
  0
DICTIONARY
  5
1A
102
{ACAD_REACTORS
330
C
102
}
330
C
100
AcDbDictionary
281
     1
  3
Layout1
350
1E
  3
Layout2
350
26
  3
Model
350
22
  0
DICTIONARY
  5
17
102
{ACAD_REACTORS
330
C
102
}
330
C
100
AcDbDictionary
281
     1
  3
Standard
350
18
  0
DICTIONARY
  5
19
102
{ACAD_REACTORS
330
C
102
}
330
C
100
AcDbDictionary
281
     1
  0
ACDBDICTIONARYWDFLT
  5
E
102
{ACAD_REACTORS
330
C
102
}
330
C
100
AcDbDictionary
281
     1
  3
Normal
350
F
100
AcDbDictionaryWithDefault
340
F
  0
DICTIONARY
  5
47
102
{ACAD_REACTORS
330
C
102
}
330
C
100
AcDbDictionary
281
     1
  3
A0
350
48
  3
A1
350
49
  3
A2
350
4A
  3
A3
350
4B
  3
A4
350
4C
  3
A5
350
4D
  3
A6
350
4E
  3
A7
350
4F
  3
A8
350
50
  3
A9
350
51
  3
B0
350
52
  3
B1
350
53
  3
B2
350
54
  3
B3
350
55
  3
B4
350
56
  3
B5
350
57
  3
B6
350
58
  3
B7
350
59
  3
B8
350
5A
  3
B9
350
5B
  3
C0
350
5C
  3
C1
350
5D
  3
C2
350
5E
  3
C3
350
5F
  3
C4
350
60
  3
C5
350
61
  3
C6
350
62
  3
C7
350
63
  3
C8
350
64
  3
C9
350
65
  3
D0
350
66
  3
D1
350
67
  3
D2
350
68
  0
LAYOUT
  5
1E
102
{ACAD_REACTORS
330
1A
102
}
330
1A
100
AcDbPlotSettings
  1

  2
none_device
  4

  6

 40
0.0
 41
0.0
 42
0.0
 43
0.0
 44
0.0
 45
0.0
 46
0.0
 47
0.0
 48
0.0
 49
0.0
140
0.0
141
0.0
142
1.0
143
1.0
 70
   688
 72
     0
 73
     0
 74
     5
  7

 75
    16
147
1.0
148
0.0
149
0.0
100
AcDbLayout
  1
Layout1
 70
     1
 71
     1
 10
0.0
 20
0.0
 11
12.0
 21
9.0
 12
0.0
 22
0.0
 32
0.0
 14
1.0000000000E+20
 24
1.0000000000E+20
 34
1.0000000000E+20
 15
-1.0000000000E+20
 25
-1.0000000000E+20
 35
-1.0000000000E+20
146
0.0
 13
0.0
 23
0.0
 33
0.0
 16
1.0
 26
0.0
 36
0.0
 17
0.0
 27
1.0
 37
0.0
 76
     0
330
1B
  0
LAYOUT
  5
26
102
{ACAD_REACTORS
330
1A
102
}
330
1A
100
AcDbPlotSettings
  1

  2
none_device
  4

  6

 40
0.0
 41
0.0
 42
0.0
 43
0.0
 44
0.0
 45
0.0
 46
0.0
 47
0.0
 48
0.0
 49
0.0
140
0.0
141
0.0
142
1.0
143
1.0
 70
   688
 72
     0
 73
     0
 74
     5
  7

 75
    16
147
1.0
148
0.0
149
0.0
100
AcDbLayout
  1
Layout2
 70
     1
 71
     2
 10
0.0
 20
0.0
 11
0.0
 21
0.0
 12
0.0
 22
0.0
 32
0.0
 14
0.0
 24
0.0
 34
0.0
 15
0.0
 25
0.0
 35
0.0
146
0.0
 13
0.0
 23
0.0
 33
0.0
 16
1.0
 26
0.0
 36
0.0
 17
0.0
 27
1.0
 37
0.0
 76
     0
330
23
  0
LAYOUT
  5
22
102
{ACAD_REACTORS
330
1A
102
}
330
1A
100
AcDbPlotSettings
  1

  2
none_device
  4
Letter_(8.50_x_11.00_Inches)
  6

 40
6.35
 41
6.35
 42
6.35000508
 43
6.35000508
 44
215.9
 45
279.4
 46
0.0
 47
0.0
 48
0.0
 49
0.0
140
0.0
141
0.0
142
1.0
143
1.0
 70
  1712
 72
     0
 73
     0
 74
     0
  7

 75
     0
147
1.0
148
0.0
149
0.0
100
AcDbLayout
  1
Model
 70
     1
 71
     0
 10
0.0
 20
0.0
 11
11.0
 21
8.5
 12
0.0
 22
0.0
 32
0.0
 14
0.0
 24
0.0
 34
0.0
 15
11.0
 25
8.5
 35
0.0
146
0.0
 13
0.0
 23
0.0
 33
0.0
 16
1.0
 26
0.0
 36
0.0
 17
0.0
 27
1.0
 37
0.0
 76
     0
330
1F
331
29
  0
MLINESTYLE
  5
18
102
{ACAD_REACTORS
330
17
102
}
330
17
100
AcDbMlineStyle
  2
Standard
 70
     0
  3

 62
   256
 51
90.0
 52
90.0
 71
     2
 49
0.5
 62
   256
  6
BYLAYER
 49
-0.5
 62
   256
  6
BYLAYER
  0
ACDBPLACEHOLDER
  5
F
102
{ACAD_REACTORS
330
E
102
}
330
E
  0
SCALE
  5
48
102
{ACAD_REACTORS
330
47
102
}
330
47
100
AcDbScale
 70
     0
300
1:1
140
1.0
141
1.0
290
     1
  0
SCALE
  5
49
102
{ACAD_REACTORS
330
47
102
}
330
47
100
AcDbScale
 70
     0
300
1:2
140
1.0
141
2.0
290
     0
  0
SCALE
  5
4A
102
{ACAD_REACTORS
330
47
102
}
330
47
100
AcDbScale
 70
     0
300
1:4
140
1.0
141
4.0
290
     0
  0
SCALE
  5
4B
102
{ACAD_REACTORS
330
47
102
}
330
47
100
AcDbScale
 70
     0
300
1:5
140
1.0
141
5.0
290
     0
  0
SCALE
  5
4C
102
{ACAD_REACTORS
330
47
102
}
330
47
100
AcDbScale
 70
     0
300
1:8
140
1.0
141
8.0
290
     0
  0
SCALE
  5
4D
102
{ACAD_REACTORS
330
47
102
}
330
47
100
AcDbScale
 70
     0
300
1:10
140
1.0
141
10.0
290
     0
  0
SCALE
  5
4E
102
{ACAD_REACTORS
330
47
102
}
330
47
100
AcDbScale
 70
     0
300
1:16
140
1.0
141
16.0
290
     0
  0
SCALE
  5
4F
102
{ACAD_REACTORS
330
47
102
}
330
47
100
AcDbScale
 70
     0
300
1:20
140
1.0
141
20.0
290
     0
  0
SCALE
  5
50
102
{ACAD_REACTORS
330
47
102
}
330
47
100
AcDbScale
 70
     0
300
1:30
140
1.0
141
30.0
290
     0
  0
SCALE
  5
51
102
{ACAD_REACTORS
330
47
102
}
330
47
100
AcDbScale
 70
     0
300
1:40
140
1.0
141
40.0
290
     0
  0
SCALE
  5
52
102
{ACAD_REACTORS
330
47
102
}
330
47
100
AcDbScale
 70
     0
300
1:50
140
1.0
141
50.0
290
     0
  0
SCALE
  5
53
102
{ACAD_REACTORS
330
47
102
}
330
47
100
AcDbScale
 70
     0
300
1:100
140
1.0
141
100.0
290
     0
  0
SCALE
  5
54
102
{ACAD_REACTORS
330
47
102
}
330
47
100
AcDbScale
 70
     0
300
2:1
140
2.0
141
1.0
290
     0
  0
SCALE
  5
55
102
{ACAD_REACTORS
330
47
102
}
330
47
100
AcDbScale
 70
     0
300
4:1
140
4.0
141
1.0
290
     0
  0
SCALE
  5
56
102
{ACAD_REACTORS
330
47
102
}
330
47
100
AcDbScale
 70
     0
300
8:1
140
8.0
141
1.0
290
     0
  0
SCALE
  5
57
102
{ACAD_REACTORS
330
47
102
}
330
47
100
AcDbScale
 70
     0
300
10:1
140
10.0
141
1.0
290
     0
  0
SCALE
  5
58
102
{ACAD_REACTORS
330
47
102
}
330
47
100
AcDbScale
 70
     0
300
100:1
140
100.0
141
1.0
290
     0
  0
SCALE
  5
59
102
{ACAD_REACTORS
330
47
102
}
330
47
100
AcDbScale
 70
     0
300
1/128" = 1'-0"
140
0.0078125
141
12.0
290
     0
  0
SCALE
  5
5A
102
{ACAD_REACTORS
330
47
102
}
330
47
100
AcDbScale
 70
     0
300
1/64" = 1'-0"
140
0.015625
141
12.0
290
     0
  0
SCALE
  5
5B
102
{ACAD_REACTORS
330
47
102
}
330
47
100
AcDbScale
 70
     0
300
1/32" = 1'-0"
140
0.03125
141
12.0
290
     0
  0
SCALE
  5
5C
102
{ACAD_REACTORS
330
47
102
}
330
47
100
AcDbScale
 70
     0
300
1/16" = 1'-0"
140
0.0625
141
12.0
290
     0
  0
SCALE
  5
5D
102
{ACAD_REACTORS
330
47
102
}
330
47
100
AcDbScale
 70
     0
300
3/32" = 1'-0"
140
0.09375
141
12.0
290
     0
  0
SCALE
  5
5E
102
{ACAD_REACTORS
330
47
102
}
330
47
100
AcDbScale
 70
     0
300
1/8" = 1'-0"
140
0.125
141
12.0
290
     0
  0
SCALE
  5
5F
102
{ACAD_REACTORS
330
47
102
}
330
47
100
AcDbScale
 70
     0
300
3/16" = 1'-0"
140
0.1875
141
12.0
290
     0
  0
SCALE
  5
60
102
{ACAD_REACTORS
330
47
102
}
330
47
100
AcDbScale
 70
     0
300
1/4" = 1'-0"
140
0.25
141
12.0
290
     0
  0
SCALE
  5
61
102
{ACAD_REACTORS
330
47
102
}
330
47
100
AcDbScale
 70
     0
300
3/8" = 1'-0"
140
0.375
141
12.0
290
     0
  0
SCALE
  5
62
102
{ACAD_REACTORS
330
47
102
}
330
47
100
AcDbScale
 70
     0
300
1/2" = 1'-0"
140
0.5
141
12.0
290
     0
  0
SCALE
  5
63
102
{ACAD_REACTORS
330
47
102
}
330
47
100
AcDbScale
 70
     0
300
3/4" = 1'-0"
140
0.75
141
12.0
290
     0
  0
SCALE
  5
64
102
{ACAD_REACTORS
330
47
102
}
330
47
100
AcDbScale
 70
     0
300
1" = 1'-0"
140
1.0
141
12.0
290
     0
  0
SCALE
  5
65
102
{ACAD_REACTORS
330
47
102
}
330
47
100
AcDbScale
 70
     0
300
1-1/2" = 1'-0"
140
1.5
141
12.0
290
     0
  0
SCALE
  5
66
102
{ACAD_REACTORS
330
47
102
}
330
47
100
AcDbScale
 70
     0
300
3" = 1'-0"
140
3.0
141
12.0
290
     0
  0
SCALE
  5
67
102
{ACAD_REACTORS
330
47
102
}
330
47
100
AcDbScale
 70
     0
300
6" = 1'-0"
140
6.0
141
12.0
290
     0
  0
SCALE
  5
68
102
{ACAD_REACTORS
330
47
102
}
330
47
100
AcDbScale
 70
     0
300
1'-0" = 1'-0"
140
12.0
141
12.0
290
     0
  0
ENDSEC
  0
EOF
