  0
SECTION
  2
HEADER
  9
$ACADVER
  1
AC1015
  9
$ACADMAINTVER
 70
     6
  9
$DWGCODEPAGE
  3
ANSI_1252
  9
$INSBASE
 10
0.0
 20
0.0
 30
0.0
  9
$EXTMIN
 10
0.0
 20
0.0
 30
0.0
  9
$EXTMAX
 10
279.4
 20
215.9
 30
0.0
  9
$LIMMIN
 10
0.0
 20
0.0
  9
$LIMMAX
 10
279.4
 20
215.9
  9
$ORTHOMODE
 70
     0
  9
$REGENMODE
 70
     1
  9
$FILLMODE
 70
     1
  9
$QTEXTMODE
 70
     0
  9
$MIRRTEXT
 70
     1
  9
$LTSCALE
 40
1.0
  9
$ATTMODE
 70
     1
  9
$TEXTSIZE
 40
2.8222222222
  9
$TRACEWID
 40
1.0
  9
$TEXTSTYLE
  7
Standard
  9
$CLAYER
  8
0
  9
$CELTYPE
  6
ByLayer
  9
$CECOLOR
 62
   256
  9
$CELTSCALE
 40
1.0
  9
$DISPSILH
 70
     0
  9
$DIMSCALE
 40
1.0
  9
$DIMASZ
 40
3.175
  9
$DIMEXO
 40
1.27
  9
$DIMDLI
 40
3.75
  9
$DIMRND
 40
0.0
  9
$DIMDLE
 40
0.0
  9
$DIMEXE
 40
1.778
  9
$DIMTP
 40
0.0
  9
$DIMTM
 40
0.0
  9
$DIMTXT
 40
2.8222222222
  9
$DIMCEN
 40
2.5
  9
$DIMTSZ
 40
0.0
  9
$DIMTOL
 70
     0
  9
$DIMLIM
 70
     0
  9
$DIMTIH
 70
     1
  9
$DIMTOH
 70
     1
  9
$DIMSE1
 70
     0
  9
$DIMSE2
 70
     0
  9
$DIMTAD
 70
     0
  9
$DIMZIN
 70
     1
  9
$DIMBLK
  1

  9
$DIMASO
 70
     1
  9
$DIMSHO
 70
     1
  9
$DIMPOST
  1

  9
$DIMAPOST
  1

  9
$DIMALT
 70
     0
  9
$DIMALTD
 70
     3
  9
$DIMALTF
 40
0.0393700787
  9
$DIMLFAC
 40
1.0
  9
$DIMTOFL
 70
     1
  9
$DIMTVP
 40
0.0
  9
$DIMTIX
 70
     0
  9
$DIMSOXD
 70
     0
  9
$DIMSAH
 70
     0
  9
$DIMBLK1
  1

  9
$DIMBLK2
  1

  9
$DIMSTYLE
  2
ISO-25
  9
$DIMCLRD
 70
     0
  9
$DIMCLRE
 70
     0
  9
$DIMCLRT
 70
     0
  9
$DIMTFAC
 40
1.0
  9
$DIMGAP
 40
2.54
  9
$DIMJUST
 70
     0
  9
$DIMSD1
 70
     0
  9
$DIMSD2
 70
     0
  9
$DIMTOLJ
 70
     0
  9
$DIMTZIN
 70
     1
  9
$DIMALTZ
 70
     0
  9
$DIMALTTZ
 70
     0
  9
$DIMUPT
 70
     0
  9
$DIMDEC
 70
     1
  9
$DIMTDEC
 70
     1
  9
$DIMALTU
 70
     2
  9
$DIMALTTD
 70
     3
  9
$DIMTXSTY
  7
Standard
  9
$DIMAUNIT
 70
     0
  9
$DIMADEC
 70
     0
  9
$DIMALTRND
 40
0.0
  9
$DIMAZIN
 70
     0
  9
$DIMDSEP
 70
    44
  9
$DIMATFIT
 70
     3
  9
$DIMFRAC
 70
     0
  9
$DIMLDRBLK
  1

  9
$DIMLUNIT
 70
     2
  9
$DIMLWD
 70
    -2
  9
$DIMLWE
 70
    -2
  9
$DIMTMOVE
 70
     0
  9
$LUNITS
 70
     2
  9
$LUPREC
 70
     1
  9
$SKETCHINC
 40
1.0
  9
$FILLETRAD
 40
10.0
  9
$AUNITS
 70
     0
  9
$AUPREC
 70
     0
  9
$MENU
  1
.
  9
$ELEVATION
 40
0.0
  9
$PELEVATION
 40
0.0
  9
$THICKNESS
 40
0.0
  9
$LIMCHECK
 70
     0
  9
$CHAMFERA
 40
0.0
  9
$CHAMFERB
 40
0.0
  9
$CHAMFERC
 40
0.0
  9
$CHAMFERD
 40
0.0
  9
$SKPOLY
 70
     0
  9
$TDCREATE
 40
2457303.59751544
  9
$TDUCREATE
 40
2457303.764182107
  9
$TDUPDATE
 40
2457303.597517789
  9
$TDUUPDATE
 40
2457303.764184456
  9
$TDINDWG
 40
0.0000000116
  9
$TDUSRTIMER
 40
0.0000000116
  9
$USRTIMER
 70
     1
  9
$ANGBASE
 50
0.0
  9
$ANGDIR
 70
     0
  9
$PDMODE
 70
     0
  9
$PDSIZE
 40
-1.0
  9
$PLINEWID
 40
0.0
  9
$SPLFRAME
 70
     0
  9
$SPLINETYPE
 70
     6
  9
$SPLINESEGS
 70
     8
  9
$HANDSEED
  5
1FF
  9
$SURFTAB1
 70
     6
  9
$SURFTAB2
 70
     6
  9
$SURFTYPE
 70
     6
  9
$SURFU
 70
     6
  9
$SURFV
 70
     6
  9
$UCSBASE
  2

  9
$UCSNAME
  2

  9
$UCSORG
 10
0.0
 20
0.0
 30
0.0
  9
$UCSXDIR
 10
1.0
 20
0.0
 30
0.0
  9
$UCSYDIR
 10
0.0
 20
1.0
 30
0.0
  9
$UCSORTHOREF
  2

  9
$UCSORTHOVIEW
 70
     0
  9
$UCSORGTOP
 10
0.0
 20
0.0
 30
0.0
  9
$UCSORGBOTTOM
 10
0.0
 20
0.0
 30
0.0
  9
$UCSORGLEFT
 10
0.0
 20
0.0
 30
0.0
  9
$UCSORGRIGHT
 10
0.0
 20
0.0
 30
0.0
  9
$UCSORGFRONT
 10
0.0
 20
0.0
 30
0.0
  9
$UCSORGBACK
 10
0.0
 20
0.0
 30
0.0
  9
$PUCSBASE
  2

  9
$PUCSNAME
  2

  9
$PUCSORG
 10
0.0
 20
0.0
 30
0.0
  9
$PUCSXDIR
 10
1.0
 20
0.0
 30
0.0
  9
$PUCSYDIR
 10
0.0
 20
1.0
 30
0.0
  9
$PUCSORTHOREF
  2

  9
$PUCSORTHOVIEW
 70
     0
  9
$PUCSORGTOP
 10
0.0
 20
0.0
 30
0.0
  9
$PUCSORGBOTTOM
 10
0.0
 20
0.0
 30
0.0
  9
$PUCSORGLEFT
 10
0.0
 20
0.0
 30
0.0
  9
$PUCSORGRIGHT
 10
0.0
 20
0.0
 30
0.0
  9
$PUCSORGFRONT
 10
0.0
 20
0.0
 30
0.0
  9
$PUCSORGBACK
 10
0.0
 20
0.0
 30
0.0
  9
$USERI1
 70
     0
  9
$USERI2
 70
     0
  9
$USERI3
 70
     0
  9
$USERI4
 70
     0
  9
$USERI5
 70
     0
  9
$USERR1
 40
0.0
  9
$USERR2
 40
0.0
  9
$USERR3
 40
0.0
  9
$USERR4
 40
0.0
  9
$USERR5
 40
0.0
  9
$WORLDVIEW
 70
     1
  9
$SHADEDGE
 70
     3
  9
$SHADEDIF
 70
    70
  9
$TILEMODE
 70
     1
  9
$MAXACTVP
 70
    64
  9
$PINSBASE
 10
0.0
 20
0.0
 30
0.0
  9
$PLIMCHECK
 70
     0
  9
$PEXTMIN
 10
1.0000000000E+20
 20
1.0000000000E+20
 30
1.0000000000E+20
  9
$PEXTMAX
 10
-1.0000000000E+20
 20
-1.0000000000E+20
 30
-1.0000000000E+20
  9
$PLIMMIN
 10
0.0
 20
0.0
  9
$PLIMMAX
 10
420.0
 20
297.0
  9
$UNITMODE
 70
     0
  9
$VISRETAIN
 70
     1
  9
$PLINEGEN
 70
     0
  9
$PSLTSCALE
 70
     1
  9
$TREEDEPTH
 70
  3020
  9
$CMLSTYLE
  2
Standard
  9
$CMLJUST
 70
     0
  9
$CMLSCALE
 40
20.0
  9
$PROXYGRAPHICS
 70
     1
  9
$MEASUREMENT
 70
     1
  9
$CELWEIGHT
370
    -1
  9
$ENDCAPS
280
     0
  9
$JOINSTYLE
280
     0
  9
$LWDISPLAY
290
     1
  9
$INSUNITS
 70
     4
  9
$HYPERLINKBASE
  1

  9
$STYLESHEET
  1

  9
$XEDIT
290
     1
  9
$CEPSNTYPE
380
     0
  9
$PSTYLEMODE
290
     1
  9
$FINGERPRINTGUID
  2
{5A692B27-F3AC-44F8-9FC6-DE35394F90EF}
  9
$VERSIONGUID
  2
{FAEB1C32-E019-11D5-929B-00C0DF256EC4}
  9
$EXTNAMES
290
     1
  9
$PSVPSCALE
 40
0.0
  9
$OLESTARTUP
290
     0
  0
ENDSEC
  0
SECTION
  2
CLASSES
  0
CLASS
  1
ACDBDICTIONARYWDFLT
  2
AcDbDictionaryWithDefault
  3
ObjectDBX Classes
 90
        0
280
     0
281
     0
  0
CLASS
  1
VISUALSTYLE
  2
AcDbVisualStyle
  3
ObjectDBX Classes
 90
     4095
280
     0
281
     0
  0
CLASS
  1
MATERIAL
  2
AcDbMaterial
  3
ObjectDBX Classes
 90
     1153
280
     0
281
     0
  0
CLASS
  1
SCALE
  2
AcDbScale
  3
ObjectDBX Classes
 90
     1153
280
     0
281
     0
  0
CLASS
  1
SUN
  2
AcDbSun
  3
SCENEOE
 90
     1153
280
     0
281
     0
  0
CLASS
  1
ACDBPLACEHOLDER
  2
AcDbPlaceHolder
  3
ObjectDBX Classes
 90
        0
280
     0
281
     0
  0
CLASS
  1
LAYOUT
  2
AcDbLayout
  3
ObjectDBX Classes
 90
        0
280
     0
281
     0
  0
ENDSEC
  0
SECTION
  2
TABLES
  0
TABLE
  2
VPORT
  5
8
330
0
100
AcDbSymbolTable
 70
     1
  0
VPORT
  5
29
330
8
100
AcDbSymbolTableRecord
100
AcDbViewportTableRecord
  2
*Active
 70
     0
 10
0.0
 20
0.0
 11
1.0
 21
1.0
 12
139.7
 22
107.95
 13
0.0
 23
0.0
 14
10.0
 24
10.0
 15
10.0
 25
10.0
 16
0.0
 26
0.0
 36
1.0
 17
0.0
 27
0.0
 37
0.0
 40
215.9
 41
1.2941176471
 42
50.0
 43
0.0
 44
0.0
 50
0.0
 51
0.0
 71
     0
 72
  2000
 73
     1
 74
     3
 75
     0
 76
     0
 77
     0
 78
     0
281
     0
 65
     1
110
0.0
120
0.0
130
0.0
111
1.0
121
0.0
131
0.0
112
0.0
122
1.0
132
0.0
 79
     0
146
0.0
  0
ENDTAB
  0
TABLE
  2
LTYPE
  5
5
330
0
100
AcDbSymbolTable
 70
     6
  0
LTYPE
  5
14
330
5
100
AcDbSymbolTableRecord
100
AcDbLinetypeTableRecord
  2
ByBlock
 70
     0
  3

 72
    65
 73
     0
 40
0.0
  0
LTYPE
  5
15
330
5
100
AcDbSymbolTableRecord
100
AcDbLinetypeTableRecord
  2
ByLayer
 70
     0
  3

 72
    65
 73
     0
 40
0.0
  0
LTYPE
  5
16
330
5
100
AcDbSymbolTableRecord
100
AcDbLinetypeTableRecord
  2
Continuous
 70
     0
  3
Solid line
 72
    65
 73
     0
 40
0.0
  0
LTYPE
  5
6A
330
5
100
AcDbSymbolTableRecord
100
AcDbLinetypeTableRecord
  2
HIDDEN
 70
     0
  3
Hidden __ __ __ __ __ __ __ __ __ __ __ __ __ __
 72
    65
 73
     2
 40
1.905
 49
1.27
 74
     0
 49
-0.635
 74
     0
  0
LTYPE
  5
6B
330
5
100
AcDbSymbolTableRecord
100
AcDbLinetypeTableRecord
  2
PHANTOM
 70
     0
  3
Phantom ______  __  __  ______  __  __  ______
 72
    65
 73
     6
 40
12.7
 49
6.35
 74
     0
 49
-1.27
 74
     0
 49
1.27
 74
     0
 49
-1.27
 74
     0
 49
1.27
 74
     0
 49
-1.27
 74
     0
  0
LTYPE
  5
6C
330
5
100
AcDbSymbolTableRecord
100
AcDbLinetypeTableRecord
  2
CENTER
 70
     0
  3
Center ____ _ ____ _ ____ _ ____ _ ____ _ ____
 72
    65
 73
     4
 40
10.16
 49
6.35
 74
     0
 49
-1.27
 74
     0
 49
1.27
 74
     0
 49
-1.27
 74
     0
  0
LTYPE
  5
6D
330
5
100
AcDbSymbolTableRecord
100
AcDbLinetypeTableRecord
  2
CENTERX2
 70
     0
  3
Center (2x) ________  __  ________  __  _____
 72
    65
 73
     4
 40
20.32
 49
12.7
 74
     0
 49
-2.54
 74
     0
 49
2.54
 74
     0
 49
-2.54
 74
     0
  0
LTYPE
  5
6E
330
5
100
AcDbSymbolTableRecord
100
AcDbLinetypeTableRecord
  2
DOT2
 70
     0
  3
Dot (.5x) ........................................
 72
    65
 73
     2
 40
0.635
 49
0.0
 74
     0
 49
-0.635
 74
     0
  0
ENDTAB
  0
TABLE
  2
LAYER
  5
2
330
0
100
AcDbSymbolTable
 70
     2
  0
LAYER
  5
10
330
2
100
AcDbSymbolTableRecord
100
AcDbLayerTableRecord
  2
0
 70
     0
 62
     7
  6
Continuous
370
    -3
390
F
  0
LAYER
  5
6F
330
2
100
AcDbSymbolTableRecord
100
AcDbLayerTableRecord
  2
FORMAT
 70
     0
 62
     7
  6
Continuous
370
    -3
390
F
  0
ENDTAB
  0
TABLE
  2
STYLE
  5
3
330
0
100
AcDbSymbolTable
 70
     5
  0
STYLE
  5
11
330
3
100
AcDbSymbolTableRecord
100
AcDbTextStyleTableRecord
  2
Standard
 70
     0
 40
0.0
 41
1.0
 50
0.0
 71
     0
 42
2.8222222222
  3
txt
  4

  0
STYLE
  5
96
330
3
100
AcDbSymbolTableRecord
100
AcDbTextStyleTableRecord
  2
SLDTEXTSTYLE0
 70
     0
 40
0.0
 41
0.75
 50
0.0
 71
     0
 42
2.8222222222
  3
TXT
  4

  0
STYLE
  5
A0
330
3
100
AcDbSymbolTableRecord
100
AcDbTextStyleTableRecord
  2
SLDTEXTSTYLE1
 70
     0
 40
0.0
 41
0.6
 50
0.0
 71
     0
 42
2.8222222222
  3
TXT
  4

  0
STYLE
  5
C9
330
3
100
AcDbSymbolTableRecord
100
AcDbTextStyleTableRecord
  2
SLDTEXTSTYLE2
 70
     0
 40
0.0
 41
0.75
 50
0.0
 71
     0
 42
2.8222222222
  3
TXT
  4
bigfont
  0
STYLE
  5
D9
330
3
100
AcDbSymbolTableRecord
100
AcDbTextStyleTableRecord
  2
SLDTEXTSTYLE3
 70
     0
 40
0.0
 41
0.7
 50
0.0
 71
     0
 42
2.8222222222
  3
TXT
  4

  0
ENDTAB
  0
TABLE
  2
VIEW
  5
6
330
0
100
AcDbSymbolTable
 70
     0
  0
ENDTAB
  0
TABLE
  2
UCS
  5
7
330
0
100
AcDbSymbolTable
 70
     0
  0
ENDTAB
  0
TABLE
  2
APPID
  5
9
330
0
100
AcDbSymbolTable
 70
     1
  0
APPID
  5
12
330
9
100
AcDbSymbolTableRecord
100
AcDbRegAppTableRecord
  2
ACAD
 70
     0
  0
ENDTAB
  0
TABLE
  2
DIMSTYLE
  5
A
330
0
100
AcDbSymbolTable
 70
     4
100
AcDbDimStyleTable
  0
DIMSTYLE
105
27
330
A
100
AcDbSymbolTableRecord
100
AcDbDimStyleTableRecord
  2
ISO-25
 70
     0
 41
2.5
 42
0.625
 43
3.75
 44
1.25
 73
     0
 74
     0
 77
     1
 78
     8
140
2.5
141
2.5
143
0.0393700787
147
0.625
171
     3
172
     1
178
     0
271
     2
272
     2
274
     3
278
    44
283
     0
284
     8
340
11
  0
DIMSTYLE
105
E7
102
{ACAD_REACTORS
330
E6
102
}
330
A
100
AcDbSymbolTableRecord
100
AcDbDimStyleTableRecord
  2
SLDDIMSTYLE0
 70
     0
 41
3.175
 44
0.0
 45
0.000000001
 78
    12
 79
     3
140
2.1166666667
141
0.0
143
0.0393700787
147
0.5291666667
148
0.000000001
170
     1
173
     1
178
     0
271
     1
272
     1
276
     2
284
    12
340
96
  0
DIMSTYLE
105
112
102
{ACAD_REACTORS
330
111
102
}
330
A
100
AcDbSymbolTableRecord
100
AcDbDimStyleTableRecord
  2
SLDDIMSTYLE1
 70
     0
 41
3.175
 44
0.0
 45
0.000000001
 78
     4
 79
     1
140
2.1166666667
143
0.0393700787
147
0.5291666667
148
0.000000001
170
     1
173
     1
178
     0
271
     1
272
     1
276
     2
284
    12
340
96
  0
DIMSTYLE
105
127
330
A
100
AcDbSymbolTableRecord
100
AcDbDimStyleTableRecord
  2
SLDDIMSTYLE2
 70
     0
 41
3.175
 44
0.0
 45
0.000000001
146
3.175
147
0.0
173
     1
178
     0
271
     0
272
     0
276
     2
340
11
  0
ENDTAB
  0
TABLE
  2
BLOCK_RECORD
  5
1
330
0
100
AcDbSymbolTable
 70
     9
  0
BLOCK_RECORD
  5
1F
330
1
100
AcDbSymbolTableRecord
100
AcDbBlockTableRecord
  2
*Model_Space
340
22
  0
BLOCK_RECORD
  5
1B
330
1
100
AcDbSymbolTableRecord
100
AcDbBlockTableRecord
  2
*Paper_Space
340
1E
  0
BLOCK_RECORD
  5
23
330
1
100
AcDbSymbolTableRecord
100
AcDbBlockTableRecord
  2
*Paper_Space0
340
26
  0
BLOCK_RECORD
  5
70
330
1
100
AcDbSymbolTableRecord
100
AcDbBlockTableRecord
  2
Third Angle Projection Block
340
0
102
{BLKREFS
331
95
102
}
  0
BLOCK_RECORD
  5
A6
330
1
100
AcDbSymbolTableRecord
100
AcDbBlockTableRecord
  2
SW_NOTE_0
340
0
102
{BLKREFS
331
AB
102
}
  0
BLOCK_RECORD
  5
AC
330
1
100
AcDbSymbolTableRecord
100
AcDbBlockTableRecord
  2
SW_NOTE_1
340
0
102
{BLKREFS
331
B1
102
}
  0
BLOCK_RECORD
  5
B3
330
1
100
AcDbSymbolTableRecord
100
AcDbBlockTableRecord
  2
SW_NOTE_2
340
0
102
{BLKREFS
331
B8
102
}
  0
BLOCK_RECORD
  5
BA
330
1
100
AcDbSymbolTableRecord
100
AcDbBlockTableRecord
  2
SW_NOTE_3
340
0
102
{BLKREFS
331
C0
102
}
  0
BLOCK_RECORD
  5
C1
330
1
100
AcDbSymbolTableRecord
100
AcDbBlockTableRecord
  2
SW_NOTE_4
340
0
102
{BLKREFS
331
E1
102
}
  0
BLOCK_RECORD
  5
E8
330
1
100
AcDbSymbolTableRecord
100
AcDbBlockTableRecord
  2
_D
340
0
  0
BLOCK_RECORD
  5
113
330
1
100
AcDbSymbolTableRecord
100
AcDbBlockTableRecord
  2
_D_1
340
0
  0
ENDTAB
  0
ENDSEC
  0
SECTION
  2
BLOCKS
  0
BLOCK
  5
20
330
1F
100
AcDbEntity
  8
0
100
AcDbBlockBegin
  2
*Model_Space
 70
     0
 10
0.0
 20
0.0
 30
0.0
  3
*Model_Space
  1
*Model_Space
  0
ENDBLK
  5
21
330
1F
100
AcDbEntity
  8
0
100
AcDbBlockEnd
  0
BLOCK
  5
1C
330
1B
100
AcDbEntity
 67
     1
  8
0
100
AcDbBlockBegin
  2
*Paper_Space
 70
     0
 10
0.0
 20
0.0
 30
0.0
  3
*Paper_Space
  1
*Paper_Space
  0
ENDBLK
  5
1D
330
1B
100
AcDbEntity
 67
     1
  8
0
100
AcDbBlockEnd
  0
BLOCK
  5
24
330
23
100
AcDbEntity
  8
0
100
AcDbBlockBegin
  2
*Paper_Space0
 70
     0
 10
0.0
 20
0.0
 30
0.0
  3
*Paper_Space0
  1
*Paper_Space0
  0
ENDBLK
  5
25
330
23
100
AcDbEntity
  8
0
100
AcDbBlockEnd
  0
BLOCK
  5
71
330
70
100
AcDbEntity
  8
0
100
AcDbBlockBegin
  2
Third Angle Projection Block
 70
     0
 10
0.0
 20
0.0
 30
0.0
  3
Third Angle Projection Block
  1
Third Angle Projection Block
  0
CIRCLE
  5
73
330
70
100
AcDbEntity
  8
0
  6
Continuous
 62
     7
370
    30
100
AcDbCircle
 10
101.4766388944
 20
18.9404083667
 30
0.0
 40
1.768227153674871
  0
CIRCLE
  5
74
330
70
100
AcDbEntity
  8
0
  6
Continuous
 62
     7
370
    30
100
AcDbCircle
 10
101.4766388944
 20
18.9404083667
 30
0.0
 40
3.901228248531818
  0
LINE
  5
75
330
70
100
AcDbEntity
  8
0
  6
CENTERX2
 62
     7
370
     0
100
AcDbLine
 10
110.1367822585
 20
18.9404083667
 30
0.0
 11
119.4527334874
 21
18.9404083667
 31
0.0
  0
LINE
  5
76
330
70
100
AcDbEntity
  8
0
  6
Continuous
 62
     7
370
    30
100
AcDbLine
 10
111.0016388944
 20
20.7086355204
 30
0.0
 11
111.0016388944
 21
17.172181213
 31
0.0
  0
LINE
  5
77
330
70
100
AcDbEntity
  8
0
  6
Continuous
 62
     7
370
    30
100
AcDbLine
 10
111.0016388944
 20
17.172181213
 30
0.0
 11
118.6216388944
 21
15.1304083667
 31
0.0
  0
LINE
  5
78
330
70
100
AcDbEntity
  8
0
  6
Continuous
 62
     7
370
    30
100
AcDbLine
 10
118.6216388944
 20
15.1304083667
 30
0.0
 11
118.6216388944
 21
22.7504083667
 31
0.0
  0
LINE
  5
79
330
70
100
AcDbEntity
  8
0
  6
Continuous
 62
     7
370
    30
100
AcDbLine
 10
118.6216388944
 20
22.7504083667
 30
0.0
 11
111.0016388944
 21
20.7086355204
 31
0.0
  0
LINE
  5
7A
330
70
100
AcDbEntity
  8
0
  6
CENTERX2
 62
     7
370
     0
100
AcDbLine
 10
96.6025854619
 20
18.9404083667
 30
0.0
 11
106.3506923269
 21
18.9404083667
 31
0.0
  0
LINE
  5
7B
330
70
100
AcDbEntity
  8
0
  6
CENTERX2
 62
     7
370
     0
100
AcDbLine
 10
101.4766388944
 20
23.8144617992
 30
0.0
 11
101.4766388944
 21
14.0663549342
 31
0.0
  0
POINT
  5
7C
330
70
100
AcDbEntity
  8
0
  6
Continuous
 62
     7
370
     0
100
AcDbPoint
 10
101.4766388944
 20
18.9404083667
 30
0.0
  0
ENDBLK
  5
72
330
70
100
AcDbEntity
  8
0
100
AcDbBlockEnd
  0
BLOCK
  5
A7
330
A6
100
AcDbEntity
  8
0
100
AcDbBlockBegin
  2
SW_NOTE_0
 70
     0
 10
0.0
 20
0.0
 30
0.0
  3
SW_NOTE_0
  1
SW_NOTE_0
  0
MTEXT
  5
A9
330
A6
100
AcDbEntity
  8
0
  6
Continuous
 62
     0
370
     0
100
AcDbMText
 10
19.90725
 20
1.9645392354
 30
0.0
 40
1.524
 41
0.0
 71
     2
 72
     1
  1
VALUES IN PARENTHESIS ARE CALCULATED
  7
SLDTEXTSTYLE0
 73
     1
 44
1.0
  0
MTEXT
  5
AA
330
A6
100
AcDbEntity
  8
0
  6
Continuous
 62
     0
370
     0
100
AcDbMText
 10
19.8778795174
 20
-0.5594606586
 30
0.0
 40
1.524
 41
0.0
 71
     2
 72
     1
  1
AND MAY CONTAIN ROUNDOFF ERRORS
  7
SLDTEXTSTYLE0
 73
     1
 44
1.0
  0
ENDBLK
  5
A8
330
A6
100
AcDbEntity
  8
0
100
AcDbBlockEnd
  0
BLOCK
  5
AD
330
AC
100
AcDbEntity
  8
0
100
AcDbBlockBegin
  2
SW_NOTE_1
 70
     0
 10
0.0
 20
0.0
 30
0.0
  3
SW_NOTE_1
  1
SW_NOTE_1
  0
MTEXT
  5
AF
330
AC
100
AcDbEntity
  8
0
  6
Continuous
 62
     0
370
     0
100
AcDbMText
 10
0.0
 20
2.7285267159
 30
0.0
 40
2.1166666667
 41
0.0
 71
     1
 72
     1
  1
DRAWING
  7
SLDTEXTSTYLE0
 73
     1
 44
1.0
  0
MTEXT
  5
B0
330
AC
100
AcDbEntity
  8
0
  6
Continuous
 62
     0
370
     0
100
AcDbMText
 10
0.0
 20
-0.0936954723
 30
0.0
 40
2.1166666667
 41
0.0
 71
     1
 72
     1
  1
PROJECTION
  7
SLDTEXTSTYLE0
 73
     1
 44
1.0
  0
ENDBLK
  5
AE
330
AC
100
AcDbEntity
  8
0
100
AcDbBlockEnd
  0
BLOCK
  5
B4
330
B3
100
AcDbEntity
  8
0
100
AcDbBlockBegin
  2
SW_NOTE_2
 70
     0
 10
0.0
 20
0.0
 30
0.0
  3
SW_NOTE_2
  1
SW_NOTE_2
  0
MTEXT
  5
B6
330
B3
100
AcDbEntity
  8
0
  6
Continuous
 62
     0
370
     0
100
AcDbMText
 10
25.052734375
 20
4.0927900738
 30
0.0
 40
3.175
 41
0.0
 71
     2
 72
     1
  1
FOR INFORMATION ONLY
  7
SLDTEXTSTYLE0
 73
     1
 44
1.0
  0
MTEXT
  5
B7
330
B3
100
AcDbEntity
  8
0
  6
Continuous
 62
     0
370
     0
100
AcDbMText
 10
25.3768468589
 20
-0.1405432084
 30
0.0
 40
3.175
 41
0.0
 71
     2
 72
     1
  1
NOT FOR MANUFACTURING PURPOSES
  7
SLDTEXTSTYLE0
 73
     1
 44
1.0
  0
ENDBLK
  5
B5
330
B3
100
AcDbEntity
  8
0
100
AcDbBlockEnd
  0
BLOCK
  5
BB
330
BA
100
AcDbEntity
  8
0
100
AcDbBlockBegin
  2
SW_NOTE_3
 70
     0
 10
0.0
 20
0.0
 30
0.0
  3
SW_NOTE_3
  1
SW_NOTE_3
  0
MTEXT
  5
BD
330
BA
100
AcDbEntity
  8
0
  6
Continuous
 62
     0
370
     0
100
AcDbMText
 10
1.5213541667
 20
2.7285267159
 30
0.0
 40
2.1166666667
 41
0.0
 71
     2
 72
     1
  1
%%c
  7
SLDTEXTSTYLE0
 73
     1
 44
1.0
  0
MTEXT
  5
BE
330
BA
100
AcDbEntity
  8
0
  6
Continuous
 62
     0
370
     0
100
AcDbMText
 10
30.8108762174
 20
2.7285267159
 30
0.0
 40
2.1166666667
 41
0.0
 71
     2
 72
     1
  1
50.8mm BROADBAND ZERODUR® MIRROR
  7
SLDTEXTSTYLE0
 73
     1
 44
1.0
  0
MTEXT
  5
BF
330
BA
100
AcDbEntity
  8
0
  6
Continuous
 62
     0
370
     0
100
AcDbMText
 10
30.1039048731
 20
-0.0936954723
 30
0.0
 40
2.1166666667
 41
0.0
 71
     2
 72
     1
  1
750-1100nm
  7
SLDTEXTSTYLE0
 73
     1
 44
1.0
  0
ENDBLK
  5
BC
330
BA
100
AcDbEntity
  8
0
100
AcDbBlockEnd
  0
BLOCK
  5
C2
330
C1
100
AcDbEntity
  8
0
100
AcDbBlockBegin
  2
SW_NOTE_4
 70
     0
 10
0.0
 20
0.0
 30
0.0
  3
SW_NOTE_4
  1
SW_NOTE_4
  0
MTEXT
  5
C4
330
C1
100
AcDbEntity
  8
0
  6
Continuous
 62
     0
370
     0
100
AcDbMText
 10
0.0
 20
3.0695925553
 30
0.0
 40
2.38125
 41
0.0
 71
     1
 72
     1
  1
NOTES/SPECIFICATIONS
  7
SLDTEXTSTYLE0
 73
     1
 44
1.0
  0
MTEXT
  5
C5
330
C1
100
AcDbEntity
  8
0
  6
Continuous
 62
     0
370
     0
100
AcDbMText
 10
9.9999997765
 20
-3.2804073679
 30
0.0
 40
2.38125
 41
0.0
 71
     1
 72
     1
  1
CLEAR APERTURE: >85% DIAMETER
  7
SLDTEXTSTYLE0
 73
     1
 44
1.0
  0
MTEXT
  5
C6
330
C1
100
AcDbEntity
  8
0
  6
Continuous
 62
     0
370
     0
100
AcDbMText
 10
0.0
 20
-3.2804073679
 30
0.0
 40
2.38125
 41
0.0
 71
     1
 72
     1
  1
1.
  7
SLDTEXTSTYLE0
 73
     1
 44
1.0
  0
MTEXT
  5
C7
330
C1
100
AcDbEntity
  8
0
  6
Continuous
 62
     0
370
     0
100
AcDbMText
 10
9.9999997765
 20
-6.4554073296
 30
0.0
 40
2.38125
 41
0.0
 71
     1
 72
     1
  1
SURFACE QUALITY: 10-5 SCRATCH-DIG
  7
SLDTEXTSTYLE0
 73
     1
 44
1.0
  0
MTEXT
  5
C8
330
C1
100
AcDbEntity
  8
0
  6
Continuous
 62
     0
370
     0
100
AcDbMText
 10
0.0
 20
-6.4554073296
 30
0.0
 40
2.38125
 41
0.0
 71
     1
 72
     1
  1
2.
  7
SLDTEXTSTYLE0
 73
     1
 44
1.0
  0
MTEXT
  5
CA
330
C1
100
AcDbEntity
  8
0
  6
Continuous
 62
     0
370
     0
100
AcDbMText
 10
9.9999997765
 20
-9.6304072912
 30
0.0
 40
2.38125
 41
0.0
 71
     1
 72
     1
  1
SURFACE FLATNESS (S1): \M+183C9/10 AT 632.8nm
  7
SLDTEXTSTYLE2
 73
     1
 44
1.0
  0
MTEXT
  5
CB
330
C1
100
AcDbEntity
  8
0
  6
Continuous
 62
     0
370
     0
100
AcDbMText
 10
0.0
 20
-9.6304072912
 30
0.0
 40
2.38125
 41
0.0
 71
     1
 72
     1
  1
3.
  7
SLDTEXTSTYLE0
 73
     1
 44
1.0
  0
MTEXT
  5
CC
330
C1
100
AcDbEntity
  8
0
  6
Continuous
 62
     0
370
     0
100
AcDbMText
 10
15.3578125
 20
-12.8054072528
 30
0.0
 40
2.38125
 41
0.0
 71
     1
 72
     1
  1
SURFACE FINISH (S2): FINE GROUND
  7
SLDTEXTSTYLE0
 73
     1
 44
1.0
  0
MTEXT
  5
CD
330
C1
100
AcDbEntity
  8
0
  6
Continuous
 62
     0
370
     0
100
AcDbMText
 10
9.9999997765
 20
-15.9804072144
 30
0.0
 40
2.38125
 41
0.0
 71
     1
 72
     1
  1
PARALLELISM: \U+2264 3arcmin
  7
SLDTEXTSTYLE2
 73
     1
 44
1.0
  0
MTEXT
  5
CE
330
C1
100
AcDbEntity
  8
0
  6
Continuous
 62
     0
370
     0
100
AcDbMText
 10
0.0
 20
-15.9804072144
 30
0.0
 40
2.38125
 41
0.0
 71
     1
 72
     1
  1
4.
  7
SLDTEXTSTYLE0
 73
     1
 44
1.0
  0
MTEXT
  5
CF
330
C1
100
AcDbEntity
  8
0
  6
Continuous
 62
     0
370
     0
100
AcDbMText
 10
9.9999997765
 20
-19.1554071761
 30
0.0
 40
2.38125
 41
0.0
 71
     1
 72
     1
  1
DIAMETER TOLERANCE: + 0.0/-0.1mm
  7
SLDTEXTSTYLE0
 73
     1
 44
1.0
  0
MTEXT
  5
D0
330
C1
100
AcDbEntity
  8
0
  6
Continuous
 62
     0
370
     0
100
AcDbMText
 10
0.0
 20
-19.1554071761
 30
0.0
 40
2.38125
 41
0.0
 71
     1
 72
     1
  1
5.
  7
SLDTEXTSTYLE0
 73
     1
 44
1.0
  0
MTEXT
  5
D1
330
C1
100
AcDbEntity
  8
0
  6
Continuous
 62
     0
370
     0
100
AcDbMText
 10
9.9999997765
 20
-22.3304071377
 30
0.0
 40
2.38125
 41
0.0
 71
     1
 72
     1
  1
THICKNESS TOLERANCE:
  7
SLDTEXTSTYLE0
 73
     1
 44
1.0
  0
MTEXT
  5
D2
330
C1
100
AcDbEntity
  8
0
  6
Continuous
 62
     0
370
     0
100
AcDbMText
 10
46.741804108
 20
-22.3304071377
 30
0.0
 40
2.38125
 41
0.0
 71
     1
 72
     1
  1
%%p
  7
SLDTEXTSTYLE0
 73
     1
 44
1.0
  0
MTEXT
  5
D3
330
C1
100
AcDbEntity
  8
0
  6
Continuous
 62
     0
370
     0
100
AcDbMText
 10
49.0119289607
 20
-22.3304071377
 30
0.0
 40
2.38125
 41
0.0
 71
     1
 72
     1
  1
0.2mm
  7
SLDTEXTSTYLE0
 73
     1
 44
1.0
  0
MTEXT
  5
D4
330
C1
100
AcDbEntity
  8
0
  6
Continuous
 62
     0
370
     0
100
AcDbMText
 10
0.0
 20
-22.3304071377
 30
0.0
 40
2.38125
 41
0.0
 71
     1
 72
     1
  1
6.
  7
SLDTEXTSTYLE0
 73
     1
 44
1.0
  0
MTEXT
  5
D5
330
C1
100
AcDbEntity
  8
0
  6
Continuous
 62
     0
370
     0
100
AcDbMText
 10
9.9999997765
 20
-25.5054070993
 30
0.0
 40
2.38125
 41
0.0
 71
     1
 72
     1
  1
COATING(S1): BROADBAND HR, DIELECTRIC
  7
SLDTEXTSTYLE0
 73
     1
 44
1.0
  0
MTEXT
  5
D6
330
C1
100
AcDbEntity
  8
0
  6
Continuous
 62
     0
370
     0
100
AcDbMText
 10
0.0
 20
-25.5054070993
 30
0.0
 40
2.38125
 41
0.0
 71
     1
 72
     1
  1
7.
  7
SLDTEXTSTYLE0
 73
     1
 44
1.0
  0
MTEXT
  5
D7
330
C1
100
AcDbEntity
  8
0
  6
Continuous
 62
     0
370
     0
100
AcDbMText
 10
10.0
 20
-28.680407061
 30
0.0
 40
2.38125
 41
0.0
 71
     1
 72
     1
  1
R
  7
SLDTEXTSTYLE0
 73
     1
 44
1.0
  0
MTEXT
  5
D8
330
C1
100
AcDbEntity
  8
0
  6
Continuous
 62
     0
370
     0
100
AcDbMText
 10
11.9270486664
 20
-29.7330500309
 30
0.0
 40
1.3229166667
 41
0.0
 71
     1
 72
     1
  1
S
  7
SLDTEXTSTYLE0
 73
     1
 44
1.0
  0
MTEXT
  5
DA
330
C1
100
AcDbEntity
  8
0
  6
Continuous
 62
     0
370
     0
100
AcDbMText
 10
13.3915664535
 20
-28.680407061
 30
0.0
 40
2.38125
 41
0.0
 71
     1
 72
     1
  1
AND R
  7
SLDTEXTSTYLE3
 73
     1
 44
1.0
  0
MTEXT
  5
DB
330
C1
100
AcDbEntity
  8
0
  6
Continuous
 62
     0
370
     0
100
AcDbMText
 10
23.26052472
 20
-29.7330500309
 30
0.0
 40
1.3229166667
 41
0.0
 71
     1
 72
     1
  1
P
  7
SLDTEXTSTYLE0
 73
     1
 44
1.0
  0
MTEXT
  5
DC
330
C1
100
AcDbEntity
  8
0
  6
Continuous
 62
     0
370
     0
100
AcDbMText
 10
24.7916786373
 20
-28.680407061
 30
0.0
 40
2.38125
 41
0.0
 71
     1
 72
     1
  1
> 99% FROM 750-1100nm
  7
SLDTEXTSTYLE0
 73
     1
 44
1.0
  0
MTEXT
  5
DD
330
C1
100
AcDbEntity
  8
0
  6
Continuous
 62
     0
370
     0
100
AcDbMText
 10
10.0
 20
-31.8554070226
 30
0.0
 40
2.38125
 41
0.0
 71
     1
 72
     1
  1
AOI: 0
  7
SLDTEXTSTYLE0
 73
     1
 44
1.0
  0
MTEXT
  5
DE
330
C1
100
AcDbEntity
  8
0
  6
Continuous
 62
     0
370
     0
100
AcDbMText
 10
19.344201535
 20
-31.8554070226
 30
0.0
 40
2.38125
 41
0.0
 71
     1
 72
     1
  1
%%d
  7
SLDTEXTSTYLE0
 73
     1
 44
1.0
  0
MTEXT
  5
DF
330
C1
100
AcDbEntity
  8
0
  6
Continuous
 62
     0
370
     0
100
AcDbMText
 10
21.7505871639
 20
-31.8554070226
 30
0.0
 40
2.38125
 41
0.0
 71
     1
 72
     1
  1
TO 45
  7
SLDTEXTSTYLE3
 73
     1
 44
1.0
  0
MTEXT
  5
E0
330
C1
100
AcDbEntity
  8
0
  6
Continuous
 62
     0
370
     0
100
AcDbMText
 10
30.2459171414
 20
-31.8554070226
 30
0.0
 40
2.38125
 41
0.0
 71
     1
 72
     1
  1
%%d
  7
SLDTEXTSTYLE0
 73
     1
 44
1.0
  0
ENDBLK
  5
C3
330
C1
100
AcDbEntity
  8
0
100
AcDbBlockEnd
  0
BLOCK
  5
E9
330
E8
100
AcDbEntity
  8
0
100
AcDbBlockBegin
  2
_D
 70
     0
 10
0.0
 20
0.0
 30
0.0
  3
_D
  1
_D
  0
SOLID
  5
EB
330
E8
100
AcDbEntity
  8
0
  6
Continuous
 62
     7
370
     0
100
AcDbTrace
 10
66.1591994543
 20
140.7111881452
 30
0.0
 11
68.1866403594
 21
143.2068188022
 31
0.0
 12
67.3067585492
 22
143.7148188022
 32
0.0
 13
67.3067585492
 23
143.7148188022
 33
0.0
  0
LINE
  5
EC
330
E8
100
AcDbEntity
  8
0
  6
Continuous
 62
     7
370
     0
100
AcDbLine
 10
78.887870093
 20
153.1318459451
 30
0.0
 11
78.4586571332
 21
153.1318459451
 31
0.0
  0
LINE
  5
ED
330
E8
100
AcDbEntity
  8
0
  6
Continuous
 62
     7
370
     0
100
AcDbLine
 10
78.4586571332
 20
153.1318459451
 30
0.0
 11
78.4586571332
 21
149.7686978686
 31
0.0
  0
LINE
  5
EE
330
E8
100
AcDbEntity
  8
0
  6
Continuous
 62
     7
370
     0
100
AcDbLine
 10
78.4586571332
 20
149.7686978686
 30
0.0
 11
78.887870093
 21
149.7686978686
 31
0.0
  0
LINE
  5
EF
330
E8
100
AcDbEntity
  8
0
  6
Continuous
 62
     7
370
     0
100
AcDbLine
 10
87.7180940822
 20
153.1318459451
 30
0.0
 11
88.1473070419
 21
153.1318459451
 31
0.0
  0
LINE
  5
F0
330
E8
100
AcDbEntity
  8
0
  6
Continuous
 62
     7
370
     0
100
AcDbLine
 10
88.1473070419
 20
153.1318459451
 30
0.0
 11
88.1473070419
 21
149.7686978686
 31
0.0
  0
LINE
  5
F1
330
E8
100
AcDbEntity
  8
0
  6
Continuous
 62
     7
370
     0
100
AcDbLine
 10
88.1473070419
 20
149.7686978686
 30
0.0
 11
87.7180940822
 21
149.7686978686
 31
0.0
  0
LINE
  5
F2
330
E8
100
AcDbEntity
  8
0
  6
Continuous
 62
     7
370
     0
100
AcDbLine
 10
66.1591994543
 20
140.7111881452
 30
0.0
 11
74.3267474062
 21
154.8577961711
 31
0.0
  0
LINE
  5
F3
330
E8
100
AcDbEntity
  8
0
  6
Continuous
 62
     7
370
     0
100
AcDbLine
 10
74.3267474062
 20
154.8577961711
 30
0.0
 11
78.1367474062
 21
154.8577961711
 31
0.0
  0
MTEXT
  5
F4
330
E8
100
AcDbEntity
  8
0
  6
Continuous
 62
     7
370
     0
100
AcDbMText
 10
78.1367474062
 20
156.2895855915
 30
0.0
 40
2.1166666667
 41
0.0
 71
     1
 72
     1
  1
%%c
  7
SLDTEXTSTYLE0
 73
     1
 44
1.0
  0
MTEXT
  5
F5
330
E8
100
AcDbEntity
  8
0
  6
Continuous
 62
     7
370
     0
100
AcDbMText
 10
81.3317382069
 20
156.2895855915
 30
0.0
 40
2.1166666667
 41
0.0
 71
     1
 72
     1
  1
50.8mm
  7
SLDTEXTSTYLE0
 73
     1
 44
1.0
  0
MTEXT
  5
F6
330
E8
100
AcDbEntity
  8
0
  6
Continuous
 62
     7
370
     0
100
AcDbMText
 10
79.4243863144
 20
152.497224468
 30
0.0
 40
2.1166666667
 41
0.0
 71
     1
 72
     1
  1
2.00in
  7
SLDTEXTSTYLE0
 73
     1
 44
1.0
  0
ENDBLK
  5
EA
330
E8
100
AcDbEntity
  8
0
100
AcDbBlockEnd
  0
BLOCK
  5
114
330
113
100
AcDbEntity
  8
0
100
AcDbBlockBegin
  2
_D_1
 70
     0
 10
0.0
 20
0.0
 30
0.0
  3
_D_1
  1
_D_1
  0
SOLID
  5
116
330
113
100
AcDbEntity
  8
0
  6
Continuous
 62
     7
370
     0
100
AcDbTrace
 10
133.0363476209
 20
151.0481391753
 30
0.0
 11
136.2113476209
 21
150.5401391753
 31
0.0
 12
136.2113476209
 22
151.5561391753
 32
0.0
 13
136.2113476209
 23
151.5561391753
 33
0.0
  0
SOLID
  5
117
330
113
100
AcDbEntity
  8
0
  6
Continuous
 62
     7
370
     0
100
AcDbTrace
 10
145.0363476209
 20
151.0481391753
 30
0.0
 11
141.8613476209
 21
151.5561391753
 31
0.0
 12
141.8613476209
 22
150.5401391753
 32
0.0
 13
141.8613476209
 23
150.5401391753
 33
0.0
  0
LINE
  5
118
330
113
100
AcDbEntity
  8
0
  6
Continuous
 62
     7
370
     0
100
AcDbLine
 10
156.6212358591
 20
151.0481389425
 30
0.0
 11
156.1920228994
 21
151.0481389425
 31
0.0
  0
LINE
  5
119
330
113
100
AcDbEntity
  8
0
  6
Continuous
 62
     7
370
     0
100
AcDbLine
 10
156.1920228994
 20
151.0481389425
 30
0.0
 11
156.1920228994
 21
147.684990866
 31
0.0
  0
LINE
  5
11A
330
113
100
AcDbEntity
  8
0
  6
Continuous
 62
     7
370
     0
100
AcDbLine
 10
156.1920228994
 20
147.684990866
 30
0.0
 11
156.6212358591
 21
147.684990866
 31
0.0
  0
LINE
  5
11B
330
113
100
AcDbEntity
  8
0
  6
Continuous
 62
     7
370
     0
100
AcDbLine
 10
165.4514598483
 20
151.0481389425
 30
0.0
 11
165.880672808
 21
151.0481389425
 31
0.0
  0
LINE
  5
11C
330
113
100
AcDbEntity
  8
0
  6
Continuous
 62
     7
370
     0
100
AcDbLine
 10
165.880672808
 20
151.0481389425
 30
0.0
 11
165.880672808
 21
147.684990866
 31
0.0
  0
LINE
  5
11D
330
113
100
AcDbEntity
  8
0
  6
Continuous
 62
     7
370
     0
100
AcDbLine
 10
165.880672808
 20
147.684990866
 30
0.0
 11
165.4514598483
 21
147.684990866
 31
0.0
  0
LINE
  5
11E
330
113
100
AcDbEntity
  8
0
  6
Continuous
 62
     7
370
     0
100
AcDbLine
 10
133.0363476209
 20
145.134142889
 30
0.0
 11
133.0363476209
 21
152.8261391753
 31
0.0
  0
LINE
  5
11F
330
113
100
AcDbEntity
  8
0
  6
Continuous
 62
     7
370
     0
100
AcDbLine
 10
145.0363476209
 20
145.134142889
 30
0.0
 11
145.0363476209
 21
152.8261391753
 31
0.0
  0
LINE
  5
120
330
113
100
AcDbEntity
  8
0
  6
Continuous
 62
     7
370
     0
100
AcDbLine
 10
133.0363476209
 20
151.0481391753
 30
0.0
 11
145.0363476209
 21
151.0481391753
 31
0.0
  0
LINE
  5
121
330
113
100
AcDbEntity
  8
0
  6
Continuous
 62
     7
370
     0
100
AcDbLine
 10
145.0363476209
 20
151.0481391753
 30
0.0
 11
153.6649296896
 21
151.0481391753
 31
0.0
  0
MTEXT
  5
122
330
113
100
AcDbEntity
  8
0
  6
Continuous
 62
     7
370
     0
100
AcDbMText
 10
155.6819647275
 20
154.2058785889
 30
0.0
 40
2.1166666667
 41
0.0
 71
     1
 72
     1
  1

  7
SLDTEXTSTYLE0
 73
     1
 44
1.0
  0
MTEXT
  5
123
330
113
100
AcDbEntity
  8
0
  6
Continuous
 62
     7
370
     0
100
AcDbMText
 10
155.6545264318
 20
154.2058785889
 30
0.0
 40
2.1166666667
 41
0.0
 71
     1
 72
     1
  1
12.0mm
  7
SLDTEXTSTYLE0
 73
     1
 44
1.0
  0
MTEXT
  5
124
330
113
100
AcDbEntity
  8
0
  6
Continuous
 62
     7
370
     0
100
AcDbMText
 10
157.1577520806
 20
150.4135174655
 30
0.0
 40
2.1166666667
 41
0.0
 71
     1
 72
     1
  1
0.47in
  7
SLDTEXTSTYLE0
 73
     1
 44
1.0
  0
MTEXT
  5
125
330
113
100
AcDbEntity
  8
0
  6
Continuous
 62
     7
370
     0
100
AcDbMText
 10
168.0056683443
 20
154.2058785889
 30
0.0
 40
2.1166666667
 41
0.0
 71
     1
 72
     1
  1

  7
SLDTEXTSTYLE0
 73
     1
 44
1.0
  0
ENDBLK
  5
115
330
113
100
AcDbEntity
  8
0
100
AcDbBlockEnd
  0
ENDSEC
  0
SECTION
  2
ENTITIES
  0
LINE
  5
7D
330
1F
100
AcDbEntity
  8
0
  6
Continuous
 62
     7
370
     0
100
AcDbLine
 10
1.5793501011
 20
214.6453799966
 30
0.0
 11
277.9892068491
 21
214.6453799966
 31
0.0
  0
LINE
  5
7E
330
1F
100
AcDbEntity
  8
0
  6
Continuous
 62
     7
370
     0
100
AcDbLine
 10
1.5793501011
 20
214.6453799966
 30
0.0
 11
1.5793501011
 21
0.9031642596
 31
0.0
  0
LINE
  5
7F
330
1F
100
AcDbEntity
  8
0
  6
Continuous
 62
     7
370
     0
100
AcDbLine
 10
277.9892068491
 20
0.9031642596
 30
0.0
 11
1.5793501011
 21
0.9031642596
 31
0.0
  0
LINE
  5
80
330
1F
100
AcDbEntity
  8
0
  6
Continuous
 62
     7
370
     0
100
AcDbLine
 10
277.9892068491
 20
0.9031642596
 30
0.0
 11
277.9892068491
 21
214.6453799966
 31
0.0
  0
LINE
  5
81
330
1F
100
AcDbEntity
  8
0
  6
Continuous
 62
     7
370
     0
100
AcDbLine
 10
215.7427640041
 20
12.2958890132
 30
0.0
 11
171.6327596684
 21
12.2958890132
 31
0.0
  0
LINE
  5
82
330
1F
100
AcDbEntity
  8
0
  6
Continuous
 62
     7
370
     0
100
AcDbLine
 10
171.6327596684
 20
12.2958890132
 30
0.0
 11
171.6327596684
 21
26.1661402506
 31
0.0
  0
LINE
  5
83
330
1F
100
AcDbEntity
  8
0
  6
Continuous
 62
     7
370
     0
100
AcDbLine
 10
171.6327596684
 20
0.9031642596
 30
0.0
 11
171.6327596684
 21
26.1661402506
 31
0.0
  0
LINE
  5
84
330
1F
100
AcDbEntity
  8
0
  6
Continuous
 62
     7
370
     0
100
AcDbLine
 10
215.7427640041
 20
17.1604579552
 30
0.0
 11
277.9892068491
 21
17.1604579552
 31
0.0
  0
LINE
  5
85
330
1F
100
AcDbEntity
  8
0
  6
Continuous
 62
     7
370
     0
100
AcDbLine
 10
215.7427640041
 20
35.2394508358
 30
0.0
 11
215.7427640041
 21
0.9031642596
 31
0.0
  0
LINE
  5
86
330
1F
100
AcDbEntity
  8
0
  6
Continuous
 62
     7
370
     0
100
AcDbLine
 10
215.7427640041
 20
26.1661402506
 30
0.0
 11
171.6327596684
 21
26.1661402506
 31
0.0
  0
LINE
  5
87
330
1F
100
AcDbEntity
  8
0
  6
Continuous
 62
     7
370
     0
100
AcDbLine
 10
215.7427640041
 20
9.1409200612
 30
0.0
 11
277.9892068491
 21
9.1409200612
 31
0.0
  0
LINE
  5
88
330
1F
100
AcDbEntity
  8
0
  6
Continuous
 62
     7
370
     0
100
AcDbLine
 10
215.7427640041
 20
16.9216824031
 30
0.0
 11
171.6327596684
 21
16.9216824031
 31
0.0
  0
LINE
  5
89
330
1F
100
AcDbEntity
  8
0
  6
Continuous
 62
     7
370
     0
100
AcDbLine
 10
215.7427640041
 20
21.4874005542
 30
0.0
 11
171.6327596684
 21
21.4874005542
 31
0.0
  0
LINE
  5
8A
330
1F
100
AcDbEntity
  8
0
  6
Continuous
 62
     7
370
     0
100
AcDbLine
 10
186.1338100705
 20
26.1661402506
 30
0.0
 11
186.1338100705
 21
12.2958890132
 31
0.0
  0
LINE
  5
8B
330
1F
100
AcDbEntity
  8
0
  6
Continuous
 62
     7
370
     0
100
AcDbLine
 10
198.2145906188
 20
26.1661402506
 30
0.0
 11
198.2145906188
 21
12.2958890132
 31
0.0
  0
LINE
  5
8C
330
1F
100
AcDbEntity
  8
0
  6
Continuous
 62
     7
370
     0
100
AcDbLine
 10
253.7490408369
 20
9.1409200612
 30
0.0
 11
253.7490408369
 21
0.9031642596
 31
0.0
  0
LINE
  5
8D
330
1F
100
AcDbEntity
  8
0
  6
Continuous
 62
     7
370
     0
100
AcDbLine
 10
171.6327596684
 20
12.2958890132
 30
0.0
 11
171.6327596684
 21
7.5627342528
 31
0.0
  0
LINE
  5
8E
330
1F
100
AcDbEntity
  8
0
  6
Continuous
 62
     7
370
     0
100
AcDbLine
 10
171.6327596684
 20
7.5627342528
 30
0.0
 11
215.7427640041
 21
7.5627342528
 31
0.0
  0
LINE
  5
8F
330
1F
100
AcDbEntity
  8
0
  6
Continuous
 62
     7
370
     0
100
AcDbLine
 10
171.6327596684
 20
7.5627342528
 30
0.0
 11
171.6327596684
 21
35.2394508358
 31
0.0
  0
LINE
  5
90
330
1F
100
AcDbEntity
  8
0
  6
Continuous
 62
     7
370
     0
100
AcDbLine
 10
171.6327596684
 20
35.2394508358
 30
0.0
 11
215.7427640041
 21
35.2394508358
 31
0.0
  0
LINE
  5
91
330
1F
100
AcDbEntity
  8
0
  6
Continuous
 62
     7
370
     0
100
AcDbLine
 10
270.1683598194
 20
17.1604579552
 30
0.0
 11
270.1683598194
 21
9.1409200612
 31
0.0
  0
LINE
  5
92
330
1F
100
AcDbEntity
  8
0
  6
Continuous
 62
     7
370
     0
100
AcDbLine
 10
215.7427640041
 20
35.2394508358
 30
0.0
 11
277.9892068491
 21
35.2394508358
 31
0.0
  0
LINE
  5
93
330
1F
100
AcDbEntity
  8
0
  6
Continuous
 62
     7
370
     0
100
AcDbLine
 10
277.9892068491
 20
35.2394508358
 30
0.0
 11
277.9892068491
 21
50.0331356147
 31
0.0
  0
LINE
  5
94
330
1F
100
AcDbEntity
  8
0
  6
Continuous
 62
     7
370
     0
100
AcDbLine
 10
215.7427640041
 20
24.8927335446
 30
0.0
 11
277.9892068491
 21
24.8927335446
 31
0.0
  0
INSERT
  5
95
330
1F
100
AcDbEntity
  8
0
  6
Continuous
 62
     7
100
AcDbBlockReference
  2
Third Angle Projection Block
 10
117.7262204235
 20
15.5162339489
 30
0.0
 41
0.8
 42
0.8
 43
0.8
  0
MTEXT
  5
97
330
1F
100
AcDbEntity
  8
0
  6
Continuous
 62
     7
370
     0
100
AcDbMText
 10
273.7514466724
 20
13.1125292762
 30
0.0
 40
3.175
 41
0.0
 71
     2
 72
     1
  1
A
  7
SLDTEXTSTYLE0
 73
     1
 44
1.0
  0
MTEXT
  5
98
330
1F
100
AcDbEntity
  8
0
  6
Continuous
 62
     7
370
     0
100
AcDbMText
 10
234.8199923418
 20
5.1306563898
 30
0.0
 40
3.175
 41
0.0
 71
     2
 72
     1
  1
BB211-E03
  7
SLDTEXTSTYLE0
 73
     1
 44
1.0
  0
MTEXT
  5
99
330
1F
100
AcDbEntity
  8
0
  6
Continuous
 62
     7
370
     0
100
AcDbMText
 10
216.4199766059
 20
16.8243178599
 30
0.0
 40
2.1166666667
 41
0.0
 71
     1
 72
     1
  1
MATERIAL
  7
SLDTEXTSTYLE0
 73
     1
 44
1.0
  0
MTEXT
  5
9A
330
1F
100
AcDbEntity
  8
0
  6
Continuous
 62
     7
370
     0
100
AcDbMText
 10
174.230946566
 20
20.054553926
 30
0.0
 40
1.8520833333
 41
0.0
 71
     1
 72
     1
  1
DRAWN
  7
SLDTEXTSTYLE0
 73
     1
 44
1.0
  0
MTEXT
  5
9B
330
1F
100
AcDbEntity
  8
0
  6
Continuous
 62
     7
370
     0
100
AcDbMText
 10
172.3960124543
 20
15.5787169747
 30
0.0
 40
1.8520833333
 41
0.0
 71
     1
 72
     1
  1
APPROVAL
  7
SLDTEXTSTYLE0
 73
     1
 44
1.0
  0
MTEXT
  5
9C
330
1F
100
AcDbEntity
  8
0
  6
Continuous
 62
     7
370
     0
100
AcDbMText
 10
271.321689486
 20
16.0237652193
 30
0.0
 40
2.1166666667
 41
0.0
 71
     1
 72
     1
  1
REV
  7
SLDTEXTSTYLE0
 73
     1
 44
1.0
  0
MTEXT
  5
9D
330
1F
100
AcDbEntity
  8
0
  6
Continuous
 62
     7
370
     0
100
AcDbMText
 10
190.2958696448
 20
20.3177146903
 30
0.0
 40
2.1166666667
 41
0.0
 71
     1
 72
     1
  1
LM
  7
SLDTEXTSTYLE0
 73
     1
 44
1.0
  0
MTEXT
  5
9E
330
1F
100
AcDbEntity
  8
0
  6
Continuous
 62
     7
370
     0
100
AcDbMText
 10
199.8662436873
 20
20.3177146903
 30
0.0
 40
2.1166666667
 41
0.0
 71
     1
 72
     1
  1
23/JUL/15
  7
SLDTEXTSTYLE0
 73
     1
 44
1.0
  0
MTEXT
  5
9F
330
1F
100
AcDbEntity
  8
0
  6
Continuous
 62
     7
370
     0
100
AcDbMText
 10
203.6145073853
 20
24.8221395769
 30
0.0
 40
2.1166666667
 41
0.0
 71
     1
 72
     1
  1
DATE
  7
SLDTEXTSTYLE0
 73
     1
 44
1.0
  0
MTEXT
  5
A1
330
1F
100
AcDbEntity
  8
0
  6
Continuous
 62
     7
370
     0
100
AcDbMText
 10
229.402906477
 20
27.7957480569
 30
0.0
 40
2.1166666667
 41
0.0
 71
     1
 72
     1
  1
w w w . t h o r  l a b s . c o m
  7
SLDTEXTSTYLE1
 73
     1
 44
1.0
  0
MTEXT
  5
A2
330
1F
100
AcDbEntity
  8
0
  6
Continuous
 62
     7
370
     0
100
AcDbMText
 10
216.7004035316
 20
8.3494791871
 30
0.0
 40
2.1166666667
 41
0.0
 71
     1
 72
     1
  1
ITEM #
  7
SLDTEXTSTYLE0
 73
     1
 44
1.0
  0
MTEXT
  5
A3
330
1F
100
AcDbEntity
  8
0
  6
Continuous
 62
     7
370
     0
100
AcDbMText
 10
254.5318000914
 20
8.3494791871
 30
0.0
 40
2.1166666667
 41
0.0
 71
     1
 72
     1
  1
APPROX WEIGHT
  7
SLDTEXTSTYLE0
 73
     1
 44
1.0
  0
MTEXT
  5
A4
330
1F
100
AcDbEntity
  8
0
  6
Continuous
 62
     7
370
     0
100
AcDbMText
 10
243.0329852882
 20
13.1125292762
 30
0.0
 40
3.175
 41
0.0
 71
     2
 72
     1
  1
ZERODUR®
  7
SLDTEXTSTYLE0
 73
     1
 44
1.0
  0
MTEXT
  5
A5
330
1F
100
AcDbEntity
  8
0
  6
Continuous
 62
     7
370
     0
100
AcDbMText
 10
266.1678480997
 20
5.1306563898
 30
0.0
 40
3.175
 41
0.0
 71
     2
 72
     1
  1
0.05 kg
  7
SLDTEXTSTYLE0
 73
     1
 44
1.0
  0
INSERT
  5
AB
330
1F
100
AcDbEntity
  8
0
  6
Continuous
 62
     7
370
     0
100
AcDbBlockReference
  2
SW_NOTE_0
 10
174.8430140051
 20
4.4558554801
 30
0.0
  0
INSERT
  5
B1
330
1F
100
AcDbEntity
  8
0
  6
Continuous
 62
     7
370
     0
100
AcDbBlockReference
  2
SW_NOTE_1
 10
174.5483650337
 20
30.4835322715
 30
0.0
  0
MTEXT
  5
B2
330
1F
100
AcDbEntity
  8
0
  6
Continuous
 62
     7
370
     0
100
AcDbMText
 10
187.9273588276
 20
24.8221395769
 30
0.0
 40
2.1166666667
 41
0.0
 71
     1
 72
     1
  1
NAME
  7
SLDTEXTSTYLE0
 73
     1
 44
1.0
  0
INSERT
  5
B8
330
1F
100
AcDbEntity
  8
0
  6
Continuous
 62
     7
370
     0
100
AcDbBlockReference
  2
SW_NOTE_2
 10
58.6204667508
 20
8.1776609732
 30
0.0
  0
MTEXT
  5
B9
330
1F
100
AcDbEntity
  8
0
  6
Continuous
 62
     7
370
     0
100
AcDbMText
 10
179.1174811218
 20
10.6680638482
 30
0.0
 40
1.5875
 41
0.0
 71
     1
 72
     1
  1
COPYRIGHT © 2015 BY THORLABS
  7
SLDTEXTSTYLE0
 73
     1
 44
1.0
  0
INSERT
  5
C0
330
1F
100
AcDbEntity
  8
0
  6
Continuous
 62
     7
370
     0
100
AcDbBlockReference
  2
SW_NOTE_3
 10
216.4257745743
 20
21.0717740674
 30
0.0
  0
INSERT
  5
E1
330
1F
100
AcDbEntity
  8
0
  6
Continuous
 62
     7
370
     0
100
AcDbBlockReference
  2
SW_NOTE_4
 10
6.1362305299
 20
55.6112863388
 30
0.0
  0
MTEXT
  5
E2
330
1F
100
AcDbEntity
  8
0
  6
Continuous
 62
     7
370
     0
100
AcDbMText
 10
199.4817893228
 20
16.1963501534
 30
0.0
 40
2.1166666667
 41
0.0
 71
     1
 72
     1
  1
04/AUG/15
  7
SLDTEXTSTYLE0
 73
     1
 44
1.0
  0
MTEXT
  5
E3
330
1F
100
AcDbEntity
  8
0
  6
Continuous
 62
     7
370
     0
100
AcDbMText
 10
189.9114152803
 20
16.1963501534
 30
0.0
 40
2.1166666667
 41
0.0
 71
     1
 72
     1
  1
CS
  7
SLDTEXTSTYLE0
 73
     1
 44
1.0
  0
CIRCLE
  5
E4
330
1F
100
AcDbEntity
  8
0
  6
Continuous
 62
     7
370
     0
100
AcDbCircle
 10
53.4591994543
 20
118.714142889
 30
0.0
 40
25.15
  0
CIRCLE
  5
E5
330
1F
100
AcDbEntity
  8
0
  6
Continuous
 62
     7
370
     0
100
AcDbCircle
 10
53.4591994543
 20
118.714142889
 30
0.0
 40
25.40000000000001
  0
DIMENSION
  5
E6
330
1F
100
AcDbEntity
  8
0
  6
Continuous
 62
     7
370
     0
100
AcDbDimension
  2
_D
 10
40.7591994543
 20
96.7170976329
 30
0.0
 11
85.1160638792
 21
154.7019860208
 31
0.0
 70
   163
  1
<>
 71
     1
 42
-1.0
  3
SLDDIMSTYLE0
100
AcDbDiametricDimension
 15
66.1591994543
 25
140.7111881452
 35
0.0
 40
0.0
  0
LINE
  5
F7
330
1F
100
AcDbEntity
  8
0
  6
Continuous
 62
     7
370
     0
100
AcDbLine
 10
224.1404720553
 20
191.1178427326
 30
0.0
 11
224.1404720553
 21
190.9137407046
 31
0.0
  0
LINE
  5
F8
330
1F
100
AcDbEntity
  8
0
  6
Continuous
 62
     7
370
     0
100
AcDbLine
 10
241.921317245
 20
160.1130761185
 30
0.0
 11
242.0980652091
 21
160.0110085183
 31
0.0
  0
LINE
  5
F9
330
1F
100
AcDbEntity
  8
0
  6
Continuous
 62
     7
370
     0
100
AcDbLine
 10
237.5337443766
 20
207.4414474599
 30
0.0
 11
229.402016393
 21
202.7471008169
 31
0.0
  0
LINE
  5
FA
330
1F
100
AcDbEntity
  8
0
  6
Continuous
 62
     7
370
     0
100
AcDbLine
 10
254.7999522019
 20
158.751818608
 30
0.0
 11
262.9316801856
 21
163.446165251
 31
0.0
  0
LINE
  5
FB
330
1F
100
AcDbEntity
  8
0
  6
Continuous
 62
     7
370
     0
100
AcDbLine
 10
268.1932245233
 20
175.0754233353
 30
0.0
 11
268.1932245233
 21
175.2795253632
 31
0.0
  0
LINE
  5
FC
330
1F
100
AcDbEntity
  8
0
  6
Continuous
 62
     7
370
     0
100
AcDbLine
 10
250.4123793336
 20
206.0801899494
 30
0.0
 11
250.2356313695
 21
206.1822575496
 31
0.0
  0
LWPOLYLINE
  5
FD
330
1F
100
AcDbEntity
  8
0
  6
Continuous
 62
     7
370
     0
100
AcDbPolyline
 90
      165
 70
   128
 43
0.0
 10
259.707943149
 20
170.3810766923
 10
259.6948931069
 20
171.1751953147
 10
259.6557621332
 20
171.9832157164
 10
259.5906076581
 20
172.8039520161
 10
259.4995253048
 20
173.6361996701
 10
259.3826487491
 20
174.4787372401
 10
259.2401495236
 20
175.3303281862
 10
259.0722367654
 20
176.1897226811
 10
258.8791569098
 20
177.055659445
 10
258.661193328
 20
177.9268675962
 10
258.4186659116
 20
178.8020685167
 10
258.1519306031
 20
179.6799777283
 10
257.8613788734
 20
180.5593067783
 10
257.547437147
 20
181.43876513
 10
257.2105661769
 20
182.317062057
 10
256.8512603677
 20
183.1929085374
 10
256.47004705
 20
184.0650191458
 10
256.0674857072
 20
184.9321139396
 10
255.6441671534
 20
185.7929203377
 10
255.200712667
 20
186.6461749878
 10
254.7377730786
 20
187.4906256212
 10
254.2560278158
 20
188.32503289
 10
253.7561839064
 20
189.1481721867
 10
253.2389749402
 20
189.9588354406
 10
252.7051599926
 20
190.7558328919
 10
252.1555225107
 20
191.5379948366
 10
251.5908691632
 20
192.3041733444
 10
251.012028657
 20
193.0532439427
 10
250.4198505201
 20
193.784107267
 10
249.8152038557
 20
194.4956906746
 10
249.1989760661
 20
195.1869498187
 10
248.5720715507
 20
195.8568701813
 10
247.9354103782
 20
196.5044685618
 10
247.2899269366
 20
197.1287945202
 10
246.636568562
 20
197.7289317723
 10
245.9762941479
 20
198.3039995337
 10
245.310072738
 20
198.8531538132
 10
244.6388821041
 20
199.3755886512
 10
243.9637073111
 20
199.8705373026
 10
243.2855392709
 20
200.3372733619
 10
242.6053732888
 20
200.7751118296
 10
241.9242076022
 20
201.1834101174
 10
241.2430419155
 20
201.5615689912
 10
240.5628759334
 20
201.9090334508
 10
239.8847078933
 20
202.2252935441
 10
239.2095331002
 20
202.5098851158
 10
238.5383424663
 20
202.7623904886
 10
237.8721210564
 20
202.982439076
 10
237.2118466423
 20
203.1697079264
 10
236.5584882677
 20
203.3239221968
 10
235.9130048262
 20
203.4448555566
 10
235.2763436537
 20
203.5323305195
 10
234.6494391382
 20
203.5862187037
 10
234.0332113487
 20
203.6064410211
 10
233.4285646843
 20
203.5929677925
 10
232.8363865474
 20
203.5458187918
 10
232.2575460411
 20
203.4650632166
 10
231.6928926937
 20
203.3508195869
 10
231.1432552118
 20
203.203255571
 10
230.6094402642
 20
203.0225877393
 10
230.0922312979
 20
202.8090812469
 10
229.5923873885
 20
202.563049444
 10
229.1106421258
 20
202.2848534162
 10
228.6477025374
 20
201.9749014545
 10
228.204248051
 20
201.6336484561
 10
227.7809294972
 20
201.2615952569
 10
227.3783681543
 20
200.8592878963
 10
226.9971548367
 20
200.4273168158
 10
226.6378490274
 20
199.9663159924
 10
226.3009780573
 20
199.4769620086
 10
225.987036331
 20
198.9599730588
 10
225.6964846012
 20
198.4161078954
 10
225.4297492927
 20
197.8461647158
 10
225.1872218764
 20
197.25097999
 10
224.9692582946
 20
196.6314272337
 10
224.7761784389
 20
195.988415726
 10
224.6082656808
 20
195.322889175
 10
224.4657664552
 20
194.6358243327
 10
224.3488898995
 20
193.9282295615
 10
224.2578075462
 20
193.2011433543
 10
224.1926530711
 20
192.4556328103
 10
224.1535220975
 20
191.6927920691
 10
224.1404720553
 20
190.9137407046
 10
224.1535220975
 20
190.1196220823
 10
224.1926530711
 20
189.3116016806
 10
224.2578075462
 20
188.4908653809
 10
224.3488898995
 20
187.6586177269
 10
224.4657664552
 20
186.8160801568
 10
224.6082656808
 20
185.9644892108
 10
224.7761784389
 20
185.1050947158
 10
224.9692582946
 20
184.2391579519
 10
225.1872218764
 20
183.3679498007
 10
225.4297492927
 20
182.4927488803
 10
225.6964846012
 20
181.6148396687
 10
225.987036331
 20
180.7355106187
 10
226.3009780573
 20
179.856052267
 10
226.6378490274
 20
178.97775534
 10
226.9971548367
 20
178.1019088595
 10
227.3783681543
 20
177.2297982511
 10
227.7809294972
 20
176.3627034573
 10
228.204248051
 20
175.5018970593
 10
228.6477025374
 20
174.6486424092
 10
229.1106421258
 20
173.8041917758
 10
229.5923873885
 20
172.9697845069
 10
230.0922312979
 20
172.1466452103
 10
230.6094402642
 20
171.3359819563
 10
231.1432552118
 20
170.5389845051
 10
231.6928926937
 20
169.7568225603
 10
232.2575460411
 20
168.9906440525
 10
232.8363865474
 20
168.2415734543
 10
233.4285646843
 20
167.51071013
 10
234.0332113487
 20
166.7991267224
 10
234.6494391382
 20
166.1078675783
 10
235.2763436537
 20
165.4379472157
 10
235.9130048262
 20
164.7903488352
 10
236.5584882677
 20
164.1660228767
 10
237.2118466423
 20
163.5658856247
 10
237.8721210564
 20
162.9908178633
 10
238.5383424663
 20
162.4416635838
 10
239.2095331002
 20
161.9192287457
 10
239.8847078933
 20
161.4242800944
 10
240.5628759334
 20
160.957544035
 10
241.2430419155
 20
160.5197055673
 10
241.9242076022
 20
160.1114072796
 10
242.6053732888
 20
159.7332484057
 10
243.2855392709
 20
159.3857839462
 10
243.9637073111
 20
159.0695238529
 10
244.6388821041
 20
158.7849322811
 10
245.310072738
 20
158.5324269083
 10
245.9762941479
 20
158.312378321
 10
246.636568562
 20
158.1251094706
 10
247.2899269366
 20
157.9708952002
 10
247.9354103782
 20
157.8499618403
 10
248.5720715507
 20
157.7624868775
 10
249.1989760661
 20
157.7085986932
 10
249.8152038557
 20
157.6883763759
 10
250.4198505201
 20
157.7018496045
 10
251.012028657
 20
157.7489986052
 10
251.5908691632
 20
157.8297541803
 10
252.1555225107
 20
157.94399781
 10
252.7051599926
 20
158.091561826
 10
253.2389749402
 20
158.2722296576
 10
253.7561839064
 20
158.48573615
 10
254.2560278158
 20
158.7317679529
 10
254.7377730786
 20
159.0099639808
 10
255.200712667
 20
159.3199159425
 10
255.6441671534
 20
159.6611689409
 10
256.0674857072
 20
160.03322214
 10
256.47004705
 20
160.4355295007
 10
256.8512603677
 20
160.8675005812
 10
257.2105661769
 20
161.3285014045
 10
257.547437147
 20
161.8178553883
 10
257.8613788734
 20
162.3348443382
 10
258.1519306031
 20
162.8787095015
 10
258.4186659116
 20
163.4486526812
 10
258.661193328
 20
164.043837407
 10
258.8791569098
 20
164.6633901633
 10
259.0722367654
 20
165.3064016709
 10
259.2401495236
 20
165.9719282219
 10
259.3826487491
 20
166.6589930642
 10
259.4995253048
 20
167.3665878354
 10
259.5906076581
 20
168.0936740427
 10
259.6557621332
 20
168.8391845867
 10
259.6948931069
 20
169.6020253279
 10
259.707943149
 20
170.3810766923
  0
LWPOLYLINE
  5
FE
330
1F
100
AcDbEntity
  8
0
  6
Continuous
 62
     7
370
     0
100
AcDbPolyline
 90
       43
 70
   128
 43
0.0
 10
260.0614965396
 20
170.3810766923
 10
260.0484760268
 20
169.5990015794
 10
260.0094333667
 20
168.8330935649
 10
259.9444251675
 20
168.084463142
 10
259.853545685
 20
167.3541957534
 10
259.7369266856
 20
166.6433502169
 10
259.5947372557
 20
165.9529571906
 10
259.4271835565
 20
165.2840176784
 10
259.2345085247
 20
164.6375015786
 10
259.0169915208
 20
164.0143462779
 10
258.7749479236
 20
163.4154552917
 10
258.5087286732
 20
162.8416969548
 10
258.2187197621
 20
162.2939031619
 10
257.9053416754
 20
161.7728681616
 10
257.5690487814
 20
161.2793474048
 10
257.2103286726
 20
160.8140564496
 10
256.829701459
 20
160.3776699233
 10
256.4277190136
 20
159.9708205445
 10
256.0049641725
 20
159.5940982062
 10
255.5620498898
 20
159.2480491195
 10
255.0996183489
 20
158.9331750226
 10
254.6183400313
 20
158.6499324529
 10
254.1189127446
 20
158.398732085
 10
253.6020606105
 20
158.1799381353
 10
253.0685330153
 20
157.9938678343
 10
252.519103523
 20
157.8407909661
 10
251.9545687537
 20
157.7209294775
 10
251.375747229
 20
157.6344571561
 10
250.7834781848
 20
157.5814993786
 10
250.1786203544
 20
157.5621329288
 10
249.5620507241
 20
157.576385886
 10
248.9346632606
 20
157.624237585
 10
248.297367616
 20
157.7056186452
 10
247.651087808
 20
157.8204110719
 10
246.9967608804
 20
157.9684484272
 10
246.3353355449
 20
158.1495160709
 10
245.6677708048
 20
158.3633514723
 10
244.9950345653
 20
158.6096445906
 10
244.3181022296
 20
158.8880383241
 10
243.6379552849
 20
159.1981290288
 10
242.9555798791
 20
159.5394671026
 10
242.2719653915
 20
159.9115576379
 10
242.0980652091
 20
160.0110085183
  0
LWPOLYLINE
  5
FF
330
1F
100
AcDbEntity
  8
0
  6
Continuous
 62
     7
370
     0
100
AcDbPolyline
 90
       85
 70
   128
 43
0.0
 10
224.1404720553
 20
191.1178427326
 10
224.1437274786
 20
191.5108308357
 10
224.1697637842
 20
192.2849627143
 10
224.2217986454
 20
193.0423692164
 10
224.2997566165
 20
193.7819521748
 10
224.4035246659
 20
194.5026392652
 10
224.5329523399
 20
195.20338556
 10
224.6878519807
 20
195.8831750441
 10
224.8679989986
 20
196.5410220878
 10
225.0731321978
 20
197.1759728757
 10
225.3029541546
 20
197.7871067899
 10
225.5571316492
 20
198.3735377447
 10
225.8352961485
 20
198.9344154712
 10
226.1370443407
 20
199.4689267504
 10
226.4619387196
 20
199.976296592
 10
226.8095082195
 20
200.4557893582
 10
227.1792488978
 20
200.9067098303
 10
227.5706246659
 20
201.3284042168
 10
227.9830680664
 20
201.7202611012
 10
228.4159810957
 20
202.0817123284
 10
228.8687360714
 20
202.4122338286
 10
229.3406765419
 20
202.7113463774
 10
229.8311182389
 20
202.9786162901
 10
230.3393500685
 20
203.2136560509
 10
230.8646351435
 20
203.4161248746
 10
231.4062118504
 20
203.5857292008
 10
231.963294955
 20
203.7222231193
 10
232.53507674
 20
203.8254087272
 10
233.1207281764
 20
203.8951364151
 10
233.7194001257
 20
203.9313050844
 10
234.3302245707
 20
203.9338622943
 10
234.9523158744
 20
203.9028043368
 10
235.584772064
 20
203.8381762431
 10
236.2266761383
 20
203.7400717177
 10
236.8770973979
 20
203.6086330028
 10
237.535092794
 20
203.4440506721
 10
238.1997082963
 20
203.246563354
 10
238.8699802759
 20
203.0164573865
 10
239.5449369024
 20
202.754066401
 10
240.2235995533
 20
202.4597708395
 10
240.9049842326
 20
202.1339974024
 10
241.5881029976
 20
201.7772184301
 10
242.2719653915
 20
201.3899512178
 10
242.9555798791
 20
200.9727572662
 10
243.6379552849
 20
200.5262414664
 10
244.3181022296
 20
200.0510512238
 10
244.9950345653
 20
199.5478755187
 10
245.6677708048
 20
199.0174439079
 10
246.3353355449
 20
198.4605254664
 10
246.9967608804
 20
197.8779276728
 10
247.651087808
 20
197.2704952381
 10
248.297367616
 20
196.6391088814
 10
248.9346632606
 20
195.9846840524
 10
249.5620507241
 20
195.3081696046
 10
250.1786203544
 20
194.6105464193
 10
250.7834781848
 20
193.8928259835
 10
251.375747229
 20
193.156048923
 10
251.9545687537
 20
192.4012834943
 10
252.519103523
 20
191.629624035
 10
253.0685330153
 20
190.8421893776
 10
253.6020606105
 20
190.040121227
 10
254.1189127446
 20
189.2245825055
 10
254.6183400313
 20
188.3967556661
 10
255.0996183489
 20
187.5578409787
 10
255.5620498898
 20
186.7090547893
 10
256.0049641725
 20
185.8516277569
 10
256.4277190136
 20
184.9868030685
 10
256.829701459
 20
184.1158346374
 10
257.2103286726
 20
183.2399852844
 10
257.5690487814
 20
182.3605249075
 10
257.9053416754
 20
181.47872864
 10
258.2187197621
 20
180.5958750024
 10
258.5087286732
 20
179.7132440478
 10
258.7749479236
 20
178.8321155069
 10
259.0169915208
 20
177.9537669319
 10
259.2345085247
 20
177.079471844
 10
259.4271835565
 20
176.2104978878
 10
259.5947372557
 20
175.3481049922
 10
259.7369266856
 20
174.4935435447
 10
259.853545685
 20
173.6480525775
 10
259.9444251675
 20
172.8128579717
 10
260.0094333667
 20
171.9891706797
 10
260.0484760268
 20
171.1781849693
 10
260.0614965396
 20
170.3810766923
 10
260.0614965396
 20
170.3810766923
  0
LWPOLYLINE
  5
100
330
1F
100
AcDbEntity
  8
0
  6
Continuous
 62
     7
370
     0
100
AcDbPolyline
 90
       63
 70
   128
 43
0.0
 10
268.1932245233
 20
175.0754233353
 10
268.1802040104
 20
175.8725316123
 10
268.1411613503
 20
176.6835173227
 10
268.0761531512
 20
177.5072046147
 10
267.9852736686
 20
178.3423992204
 10
267.8686546692
 20
179.1878901876
 10
267.7264652393
 20
180.0424516352
 10
267.5589115401
 20
180.9048445308
 10
267.3662365084
 20
181.773818487
 10
267.1487195045
 20
182.6481135748
 10
266.9066759073
 20
183.5264621499
 10
266.6404566569
 20
184.4075906908
 10
266.3504477457
 20
185.2902216453
 10
266.037069659
 20
186.173075283
 10
265.700776765
 20
187.0548715505
 10
265.3420566563
 20
187.9343319274
 10
264.9614294427
 20
188.8101812803
 10
264.5594469972
 20
189.6811497115
 10
264.1366921561
 20
190.5459743999
 10
263.6937778735
 20
191.4034014323
 10
263.2313463326
 20
192.2521876217
 10
262.750068015
 20
193.0911023091
 10
262.2506407282
 20
193.9189291485
 10
261.7337885941
 20
194.73446787
 10
261.2002609989
 20
195.5365360206
 10
260.6508315066
 20
196.323970678
 10
260.0862967374
 20
197.0956301372
 10
259.5074752127
 20
197.850395566
 10
258.9152061684
 20
198.5871726264
 10
258.3103483381
 20
199.3048930623
 10
257.6937787077
 20
200.0025162476
 10
257.0663912443
 20
200.6790306954
 10
256.4290955997
 20
201.3334555244
 10
255.7828157916
 20
201.9648418811
 10
255.1284888641
 20
202.5722743158
 10
254.4670635285
 20
203.1548721094
 10
253.7994987885
 20
203.7117905509
 10
253.126762549
 20
204.2422221617
 10
252.4498302133
 20
204.7453978668
 10
251.7696832685
 20
205.2205881094
 10
251.0873078628
 20
205.6671039092
 10
250.4036933751
 20
206.0842978608
 10
249.7198309812
 20
206.471565073
 10
249.0367122162
 20
206.8283440454
 10
248.3553275369
 20
207.1541174825
 10
247.6766648861
 20
207.448413044
 10
247.0017082596
 20
207.7108040295
 10
246.33143628
 20
207.940909997
 10
245.6668207777
 20
208.1383973151
 10
245.0088253815
 20
208.3029796458
 10
244.3584041219
 20
208.4344183607
 10
243.7165000476
 20
208.5325228861
 10
243.0840438581
 20
208.5971509798
 10
242.4619525543
 20
208.6282089372
 10
241.8511281093
 20
208.6256517274
 10
241.25245616
 20
208.589483058
 10
240.6668047236
 20
208.5197553702
 10
240.0950229387
 20
208.4165697623
 10
239.5379398341
 20
208.2800758437
 10
238.9963631271
 20
208.1104715176
 10
238.4710780522
 20
207.9080026939
 10
237.9628462225
 20
207.6729629331
 10
237.5337443766
 20
207.4414474599
  0
LWPOLYLINE
  5
101
330
1F
100
AcDbEntity
  8
0
  6
Continuous
 62
     7
370
     0
100
AcDbPolyline
 90
       22
 70
   128
 43
0.0
 10
262.9316801856
 20
163.446165251
 10
263.2313463326
 20
163.6275216656
 10
263.6937778735
 20
163.9423957625
 10
264.1366921561
 20
164.2884448491
 10
264.5594469972
 20
164.6651671875
 10
264.9614294427
 20
165.0720165662
 10
265.3420566563
 20
165.5084030926
 10
265.700776765
 20
165.9736940478
 10
266.037069659
 20
166.4672148045
 10
266.3504477457
 20
166.9882498048
 10
266.6404566569
 20
167.5360435978
 10
266.9066759073
 20
168.1098019347
 10
267.1487195045
 20
168.7086929209
 10
267.3662365084
 20
169.3318482216
 10
267.5589115401
 20
169.9783643214
 10
267.7264652393
 20
170.6473038336
 10
267.8686546692
 20
171.3376968598
 10
267.9852736686
 20
172.0485423963
 10
268.0761531512
 20
172.778809785
 10
268.1411613503
 20
173.5274402078
 10
268.1802040104
 20
174.2933482224
 10
268.1932245233
 20
175.0754233353
  0
ARC
  5
102
330
1F
100
AcDbEntity
  8
0
  6
Continuous
 62
     7
370
     0
100
AcDbCircle
 10
229.6135770149
 20
173.5406329324
 30
0.0
 40
38.61881599370745
100
AcDbArc
 50
2.5807340673
 51
57.4138894
  0
LINE
  5
103
330
1F
100
AcDbEntity
  8
0
  6
Continuous
 62
     7
370
     0
100
AcDbLine
 10
144.7863476209
 20
144.114142889
 30
0.0
 11
133.2863476209
 21
144.114142889
 31
0.0
  0
LINE
  5
104
330
1F
100
AcDbEntity
  8
0
  6
Continuous
 62
     7
370
     0
100
AcDbLine
 10
133.2863476209
 20
93.314142889
 30
0.0
 11
144.7863476209
 21
93.314142889
 31
0.0
  0
LINE
  5
105
330
1F
100
AcDbEntity
  8
0
  6
Continuous
 62
     7
370
     0
100
AcDbLine
 10
144.7863476209
 20
93.314142889
 30
0.0
 11
145.0363476209
 21
93.564142889
 31
0.0
  0
LINE
  5
106
330
1F
100
AcDbEntity
  8
0
  6
Continuous
 62
     7
370
     0
100
AcDbLine
 10
145.0363476209
 20
143.864142889
 30
0.0
 11
144.7863476209
 21
144.114142889
 31
0.0
  0
LINE
  5
107
330
1F
100
AcDbEntity
  8
0
  6
Continuous
 62
     7
370
     0
100
AcDbLine
 10
133.2863476209
 20
144.114142889
 30
0.0
 11
133.0363476209
 21
143.864142889
 31
0.0
  0
LINE
  5
108
330
1F
100
AcDbEntity
  8
0
  6
Continuous
 62
     7
370
     0
100
AcDbLine
 10
133.0363476209
 20
93.564142889
 30
0.0
 11
133.2863476209
 21
93.314142889
 31
0.0
  0
LINE
  5
109
330
1F
100
AcDbEntity
  8
0
  6
Continuous
 62
     7
370
     0
100
AcDbLine
 10
133.2863476209
 20
118.714142889
 30
0.0
 11
133.2863476209
 21
93.314142889
 31
0.0
  0
LINE
  5
10A
330
1F
100
AcDbEntity
  8
0
  6
Continuous
 62
     7
370
     0
100
AcDbLine
 10
133.2863476209
 20
144.114142889
 30
0.0
 11
133.2863476209
 21
118.714142889
 31
0.0
  0
LINE
  5
10B
330
1F
100
AcDbEntity
  8
0
  6
Continuous
 62
     7
370
     0
100
AcDbLine
 10
144.7863476209
 20
118.714142889
 30
0.0
 11
144.7863476209
 21
144.114142889
 31
0.0
  0
LINE
  5
10C
330
1F
100
AcDbEntity
  8
0
  6
Continuous
 62
     7
370
     0
100
AcDbLine
 10
144.7863476209
 20
93.314142889
 30
0.0
 11
144.7863476209
 21
118.714142889
 31
0.0
  0
LINE
  5
10D
330
1F
100
AcDbEntity
  8
0
  6
Continuous
 62
     7
370
     0
100
AcDbLine
 10
145.0363476209
 20
118.714142889
 30
0.0
 11
145.0363476209
 21
93.564142889
 31
0.0
  0
LINE
  5
10E
330
1F
100
AcDbEntity
  8
0
  6
Continuous
 62
     7
370
     0
100
AcDbLine
 10
145.0363476209
 20
143.864142889
 30
0.0
 11
145.0363476209
 21
118.714142889
 31
0.0
  0
LINE
  5
10F
330
1F
100
AcDbEntity
  8
0
  6
Continuous
 62
     7
370
     0
100
AcDbLine
 10
133.0363476209
 20
118.714142889
 30
0.0
 11
133.0363476209
 21
143.864142889
 31
0.0
  0
LINE
  5
110
330
1F
100
AcDbEntity
  8
0
  6
Continuous
 62
     7
370
     0
100
AcDbLine
 10
133.0363476209
 20
93.564142889
 30
0.0
 11
133.0363476209
 21
118.714142889
 31
0.0
  0
DIMENSION
  5
111
330
1F
100
AcDbEntity
  8
0
  6
Continuous
 62
     7
370
     0
100
AcDbDimension
  2
_D_1
 10
145.0363476209
 20
151.0481391753
 30
0.0
 11
161.0363476209
 21
151.0481391753
 31
0.0
 70
   160
  1
<>
 71
     2
 42
-1.0
  3
SLDDIMSTYLE1
100
AcDbAlignedDimension
 13
133.0363476209
 23
143.864142889
 33
0.0
 14
145.0363476209
 24
143.864142889
 34
0.0
100
AcDbRotatedDimension
  0
MTEXT
  5
126
330
1F
100
AcDbEntity
  8
0
  6
Continuous
 62
     7
370
     0
100
AcDbMText
 10
115.1386855178
 20
126.5332319775
 30
0.0
 40
2.1166666667
 41
0.0
 71
     1
 72
     1
  1
S1
  7
SLDTEXTSTYLE0
 73
     1
 44
1.0
  0
LEADER
  5
128
330
1F
100
AcDbEntity
  8
0
  6
Continuous
 62
     7
370
     0
100
AcDbLeader
  3
SLDDIMSTYLE2
 76
     3
 10
133.0363476209
 20
116.4860641836
 30
0.0
 10
124.8507585972
 20
125.4093849462
 30
0.0
 10
118.5007585972
 20
125.4093849462
 30
0.0
  0
MTEXT
  5
129
330
1F
100
AcDbEntity
  8
0
  6
Continuous
 62
     7
370
     0
100
AcDbMText
 10
164.0737195242
 20
129.2716038374
 30
0.0
 40
2.1166666667
 41
0.0
 71
     1
 72
     1
  1
S2
  7
SLDTEXTSTYLE0
 73
     1
 44
1.0
  0
LEADER
  5
12A
330
1F
100
AcDbEntity
  8
0
  6
Continuous
 62
     7
370
     0
100
AcDbLeader
  3
SLDDIMSTYLE2
 76
     3
 10
145.0363476209
 20
115.8325352769
 30
0.0
 10
157.1736686391
 20
128.2496216326
 30
0.0
 10
163.5236686391
 20
128.2496216326
 30
0.0
  0
LINE
  5
12B
330
1F
100
AcDbEntity
  8
0
  6
Continuous
 62
     7
370
     0
100
AcDbLine
 10
213.7473259509
 20
120.8111222661
 30
0.0
 11
213.134880726
 21
120.8111222661
 31
0.0
  0
SPLINE
  5
12C
330
1F
100
AcDbEntity
  8
0
  6
Continuous
 62
     7
370
     0
100
AcDbSpline
210
0.0
220
0.0
230
1.0
 70
     8
 71
     3
 72
    23
 73
    19
 74
     0
 42
0.000000001
 43
0.00000001
 40
0.0
 40
0.0
 40
0.0
 40
0.0
 40
0.0603255293380431
 40
0.1181599905079978
 40
0.1741866762963805
 40
0.2295388181457996
 40
0.2834498146386368
 40
0.3378265119505919
 40
0.3926321025334832
 40
0.4484655764151907
 40
0.5059654091573051
 40
0.5650585322290047
 40
0.6266544786228437
 40
0.6922320330373638
 40
0.7611310781257616
 40
0.8353098773394202
 40
0.9153255598322015
 40
0.9999999999999999
 40
0.9999999999999999
 40
0.9999999999999999
 40
0.9999999999999999
 10
214.1358664698624
 20
120.4880244827745
 30
0.0
 10
214.1354840422516
 20
120.4995575601746
 30
0.0
 10
214.1347349789053
 20
120.5221474707991
 30
0.0
 10
214.1308081411048
 20
120.5553031877622
 30
0.0
 10
214.1231734361099
 20
120.586808782536
 30
0.0
 10
214.1130918268991
 20
120.6168307972357
 30
0.0
 10
214.0996207511898
 20
120.6451493420666
 30
0.0
 10
214.0836176628134
 20
120.671983854445
 30
0.0
 10
214.0645210380374
 20
120.6971856066694
 30
0.0
 10
214.0426469531641
 20
120.7208313671393
 30
0.0
 10
214.0175315285921
 20
120.7423466983365
 30
0.0
 10
213.9888438092287
 20
120.7609097626011
 30
0.0
 10
213.9568100534316
 20
120.7766843625701
 30
0.0
 10
213.9213930271718
 20
120.7892041396196
 30
0.0
 10
213.8827043005534
 20
120.7992179232897
 30
0.0
 10
213.8405236271791
 20
120.8058797705819
 30
0.0
 10
213.7950439082761
 20
120.8107002610783
 30
0.0
 10
213.7635291005186
 20
120.8109789696882
 30
0.0
 10
213.7473259508654
 20
120.8111222660506
 30
0.0
  0
SPLINE
  5
12D
330
1F
100
AcDbEntity
  8
0
  6
Continuous
 62
     7
370
     0
100
AcDbSpline
210
0.0
220
0.0
230
1.0
 70
     8
 71
     3
 72
    19
 73
    15
 74
     0
 42
0.000000001
 43
0.00000001
 40
0.0
 40
0.0
 40
0.0
 40
0.0
 40
0.1288602680417313
 40
0.2408921848092289
 40
0.3380442015575112
 40
0.4201204852136088
 40
0.494058456868551
 40
0.5660947835833202
 40
0.6368049543510104
 40
0.7091484493607203
 40
0.7819418055941268
 40
0.8542853006038366
 40
0.9261704072165587
 40
1.0
 40
1.0
 40
1.0
 40
1.0
 10
213.6851759314071
 20
120.1525790135132
 30
0.0
 10
213.712769817455
 20
120.15301074603
 30
0.0
 10
213.7643539992859
 20
120.1538178294764
 30
0.0
 10
213.8364863169955
 20
120.1607094737998
 30
0.0
 10
213.8979591011352
 20
120.1716605892917
 30
0.0
 10
213.9499875808906
 20
120.1876340737899
 30
0.0
 10
213.9936997163922
 20
120.2098105746923
 30
0.0
 10
214.0317169911694
 20
120.236836785053
 30
0.0
 10
214.0633098250635
 20
120.2706899269998
 30
0.0
 10
214.0895917993463
 20
120.3088859901644
 30
0.0
 10
214.1100213171155
 20
120.3509188510571
 30
0.0
 10
214.1247581968395
 20
120.3950682088169
 30
0.0
 10
214.1344037409328
 20
120.4409630166559
 30
0.0
 10
214.1353745751283
 20
120.4721983875259
 30
0.0
 10
214.1358664698624
 20
120.4880244827745
 30
0.0
  0
LINE
  5
12E
330
1F
100
AcDbEntity
  8
0
  6
Continuous
 62
     7
370
     0
100
AcDbLine
 10
213.134880726
 20
120.1525790135
 30
0.0
 11
213.6851759314
 21
120.1525790135
 31
0.0
  0
LINE
  5
12F
330
1F
100
AcDbEntity
  8
0
  6
Continuous
 62
     7
370
     0
100
AcDbLine
 10
213.134880726
 20
120.8111222661
 30
0.0
 11
213.134880726
 21
120.1525790135
 31
0.0
  0
LINE
  5
130
330
1F
100
AcDbEntity
  8
0
  6
Continuous
 62
     7
370
     0
100
AcDbLine
 10
219.1193925334
 20
119.9418451727
 30
0.0
 11
218.6666440473
 21
119.9418451727
 31
0.0
  0
SPLINE
  5
131
330
1F
100
AcDbEntity
  8
0
  6
Continuous
 62
     7
370
     0
100
AcDbSpline
210
0.0
220
0.0
230
1.0
 70
     8
 71
     3
 72
    19
 73
    15
 74
     0
 42
0.000000001
 43
0.00000001
 40
0.0
 40
0.0
 40
0.0
 40
0.0
 40
0.0801399024652515
 40
0.1562809906190946
 40
0.2294060490129018
 40
0.301798696972305
 40
0.3727428627695776
 40
0.4426676099026289
 40
0.5133209646126977
 40
0.586547692363209
 40
0.6683225082295049
 40
0.7636766255259052
 40
0.8740807567185483
 40
1.0
 40
1.0
 40
1.0
 40
1.0
 10
219.6149463309735
 20
119.5862318163311
 30
0.0
 10
219.6143793807329
 20
119.6049403361037
 30
0.0
 10
219.6132737698884
 20
119.6414238594565
 30
0.0
 10
219.602764559662
 20
119.6941443991922
 30
0.0
 10
219.5854050642148
 20
119.7430433552886
 30
0.0
 10
219.5609679529026
 20
119.7874435263397
 30
0.0
 10
219.5309945602671
 20
119.8273776574929
 30
0.0
 10
219.4947297817757
 20
119.8612526938976
 30
0.0
 10
219.4524447828825
 20
119.8881342105635
 30
0.0
 10
219.4040096044922
 20
119.9092309986017
 30
0.0
 10
219.3473985830688
 20
119.9242409999416
 30
0.0
 10
219.2810488007571
 20
119.9344243766689
 30
0.0
 10
219.2038989720233
 20
119.9409954655775
 30
0.0
 10
219.1487678368335
 20
119.9415498058041
 30
0.0
 10
219.1193925334391
 20
119.9418451727013
 30
0.0
  0
SPLINE
  5
132
330
1F
100
AcDbEntity
  8
0
  6
Continuous
 62
     7
370
     0
100
AcDbSpline
210
0.0
220
0.0
230
1.0
 70
     8
 71
     3
 72
    19
 73
    15
 74
     0
 42
0.000000001
 43
0.00000001
 40
0.0
 40
0.0
 40
0.0
 40
0.0
 40
0.0889709576989538
 40
0.1722707767733144
 40
0.2503120304637098
 40
0.3246551996215511
 40
0.3978444501802941
 40
0.4733008807185328
 40
0.551825888744448
 40
0.6347494834982532
 40
0.7217660118923857
 40
0.8103926655611191
 40
0.9031752367994194
 40
1.0
 40
1.0
 40
1.0
 40
1.0
 10
219.3284800161198
 20
119.240496608749
 30
0.0
 10
219.3428219535791
 20
119.2435111386781
 30
0.0
 10
219.3705916524836
 20
119.2493480480016
 30
0.0
 10
219.4097402649934
 20
119.2623754206697
 30
0.0
 10
219.4456345933993
 20
119.2772989703801
 30
0.0
 10
219.4776481564339
 20
119.2962651441328
 30
0.0
 10
219.5072919477225
 20
119.3181223601568
 30
0.0
 10
219.5330546086145
 20
119.3454230689627
 30
0.0
 10
219.5567832421956
 20
119.3764412967012
 30
0.0
 10
219.5773420141093
 20
119.4119381299637
 30
0.0
 10
219.5939667664172
 20
119.4512070850874
 30
0.0
 10
219.6066727801713
 20
119.4936414290481
 30
0.0
 10
219.6134409285756
 20
119.5390923780759
 30
0.0
 10
219.6144374486524
 20
119.5702969229163
 30
0.0
 10
219.6149463309735
 20
119.5862318163311
 30
0.0
  0
SPLINE
  5
133
330
1F
100
AcDbEntity
  8
0
  6
Continuous
 62
     7
370
     0
100
AcDbSpline
210
0.0
220
0.0
230
1.0
 70
     8
 71
     3
 72
    11
 73
     7
 74
     0
 42
0.000000001
 43
0.00000001
 40
0.0
 40
0.0
 40
0.0
 40
0.0
 40
0.3293954641291864
 40
0.6051903468528028
 40
0.8278865786947356
 40
1.0
 40
1.0
 40
1.0
 40
1.0
 10
219.1527312855989
 20
119.2306184599609
 30
0.0
 10
219.1720764363251
 20
119.2308407083586
 30
0.0
 10
219.2076188154799
 20
119.2312490399829
 30
0.0
 10
219.2562338462138
 20
119.2325299961611
 30
0.0
 10
219.2955298212646
 20
119.2356588929361
 30
0.0
 10
219.3184765940952
 20
119.2390279159803
 30
0.0
 10
219.3284800161198
 20
119.240496608749
 30
0.0
  0
LINE
  5
134
330
1F
100
AcDbEntity
  8
0
  6
Continuous
 62
     7
370
     0
100
AcDbLine
 10
218.6666440473
 20
119.23061846
 30
0.0
 11
219.1527312856
 21
119.23061846
 31
0.0
  0
LINE
  5
135
330
1F
100
AcDbEntity
  8
0
  6
Continuous
 62
     7
370
     0
100
AcDbLine
 10
218.6666440473
 20
119.9418451727
 30
0.0
 11
218.6666440473
 21
119.23061846
 31
0.0
  0
LINE
  5
136
330
1F
100
AcDbEntity
  8
0
  6
Continuous
 62
     7
370
     0
100
AcDbLine
 10
209.8602744028
 20
116.7808375605
 30
0.0
 11
209.4075259166
 21
116.7808375605
 31
0.0
  0
SPLINE
  5
137
330
1F
100
AcDbEntity
  8
0
  6
Continuous
 62
     7
370
     0
100
AcDbSpline
210
0.0
220
0.0
230
1.0
 70
     8
 71
     3
 72
    19
 73
    15
 74
     0
 42
0.000000001
 43
0.00000001
 40
0.0
 40
0.0
 40
0.0
 40
0.0
 40
0.0801399024652511
 40
0.1562809906190945
 40
0.2294060490129022
 40
0.3017986969723054
 40
0.3727428627695781
 40
0.4426676099026295
 40
0.5133209646126973
 40
0.5865476923632087
 40
0.6683225082295047
 40
0.763676625525905
 40
0.8740807567185482
 40
1.0
 40
1.0
 40
1.0
 40
1.0
 10
210.3558282002978
 20
116.4252242041516
 30
0.0
 10
210.3552612500571
 20
116.4439327239242
 30
0.0
 10
210.3541556392127
 20
116.480416247277
 30
0.0
 10
210.3436464289863
 20
116.5331367870127
 30
0.0
 10
210.326286933539
 20
116.5820357431091
 30
0.0
 10
210.3018498222268
 20
116.6264359141602
 30
0.0
 10
210.2718764295914
 20
116.6663700453134
 30
0.0
 10
210.2356116510999
 20
116.7002450817181
 30
0.0
 10
210.1933266522067
 20
116.727126598384
 30
0.0
 10
210.1448914738164
 20
116.7482233864222
 30
0.0
 10
210.088280452393
 20
116.7632333877621
 30
0.0
 10
210.0219306700814
 20
116.7734167644894
 30
0.0
 10
209.9447808413476
 20
116.779987853398
 30
0.0
 10
209.8896497061577
 20
116.7805421936246
 30
0.0
 10
209.8602744027634
 20
116.7808375605218
 30
0.0
  0
SPLINE
  5
138
330
1F
100
AcDbEntity
  8
0
  6
Continuous
 62
     7
370
     0
100
AcDbSpline
210
0.0
220
0.0
230
1.0
 70
     8
 71
     3
 72
    19
 73
    15
 74
     0
 42
0.000000001
 43
0.00000001
 40
0.0
 40
0.0
 40
0.0
 40
0.0
 40
0.0889709576989539
 40
0.1722707767733142
 40
0.2503120304637097
 40
0.3246551996215506
 40
0.3978444501802953
 40
0.4733008807185329
 40
0.5518258887444478
 40
0.6347494834982534
 40
0.7217660118923851
 40
0.810392665561119
 40
0.9031752367994188
 40
1.0
 40
1.0
 40
1.0
 40
1.0
 10
210.069361885444
 20
116.0794889965695
 30
0.0
 10
210.0837038229033
 20
116.0825035264987
 30
0.0
 10
210.1114735218078
 20
116.0883404358221
 30
0.0
 10
210.1506221343176
 20
116.1013678084902
 30
0.0
 10
210.1865164627235
 20
116.1162913582006
 30
0.0
 10
210.2185300257582
 20
116.1352575319533
 30
0.0
 10
210.2481738170467
 20
116.1571147479773
 30
0.0
 10
210.2739364779387
 20
116.1844154567832
 30
0.0
 10
210.2976651115199
 20
116.2154336845217
 30
0.0
 10
210.3182238834335
 20
116.2509305177842
 30
0.0
 10
210.3348486357415
 20
116.2901994729079
 30
0.0
 10
210.3475546494955
 20
116.3326338168686
 30
0.0
 10
210.3543227978998
 20
116.3780847658964
 30
0.0
 10
210.3553193179766
 20
116.4092893107368
 30
0.0
 10
210.3558282002978
 20
116.4252242041516
 30
0.0
  0
SPLINE
  5
139
330
1F
100
AcDbEntity
  8
0
  6
Continuous
 62
     7
370
     0
100
AcDbSpline
210
0.0
220
0.0
230
1.0
 70
     8
 71
     3
 72
    11
 73
     7
 74
     0
 42
0.000000001
 43
0.00000001
 40
0.0
 40
0.0
 40
0.0
 40
0.0
 40
0.3293954641291815
 40
0.6051903468528028
 40
0.8278865786947358
 40
1.0
 40
1.0
 40
1.0
 40
1.0
 10
209.8936131549231
 20
116.0696108477814
 30
0.0
 10
209.9129583056494
 20
116.0698330961791
 30
0.0
 10
209.9485006848041
 20
116.0702414278034
 30
0.0
 10
209.9971157155381
 20
116.0715223839817
 30
0.0
 10
210.0364116905888
 20
116.0746512807566
 30
0.0
 10
210.0593584634195
 20
116.0780203038008
 30
0.0
 10
210.069361885444
 20
116.0794889965695
 30
0.0
  0
LINE
  5
13A
330
1F
100
AcDbEntity
  8
0
  6
Continuous
 62
     7
370
     0
100
AcDbLine
 10
209.4075259166
 20
116.0696108478
 30
0.0
 11
209.8936131549
 21
116.0696108478
 31
0.0
  0
LINE
  5
13B
330
1F
100
AcDbEntity
  8
0
  6
Continuous
 62
     7
370
     0
100
AcDbLine
 10
209.4075259166
 20
116.7808375605
 30
0.0
 11
209.4075259166
 21
116.0696108478
 31
0.0
  0
LINE
  5
13C
330
1F
100
AcDbEntity
  8
0
  6
Continuous
 62
     7
370
     0
100
AcDbLine
 10
207.9636698355
 20
116.7808375605
 30
0.0
 11
207.5109213493
 21
116.7808375605
 31
0.0
  0
SPLINE
  5
13D
330
1F
100
AcDbEntity
  8
0
  6
Continuous
 62
     7
370
     0
100
AcDbSpline
210
0.0
220
0.0
230
1.0
 70
     8
 71
     3
 72
    19
 73
    15
 74
     0
 42
0.000000001
 43
0.00000001
 40
0.0
 40
0.0
 40
0.0
 40
0.0
 40
0.0801399024652518
 40
0.156280990619095
 40
0.2294060490129027
 40
0.3017986969723059
 40
0.3727428627695786
 40
0.4426676099026299
 40
0.5133209646126977
 40
0.586547692363209
 40
0.668322508229505
 40
0.7636766255259051
 40
0.8740807567185482
 40
1.0
 40
1.0
 40
1.0
 40
1.0
 10
208.4592236329901
 20
116.4252242041516
 30
0.0
 10
208.4586566827494
 20
116.4439327239242
 30
0.0
 10
208.457551071905
 20
116.480416247277
 30
0.0
 10
208.4470418616786
 20
116.5331367870127
 30
0.0
 10
208.4296823662313
 20
116.5820357431091
 30
0.0
 10
208.4052452549192
 20
116.6264359141602
 30
0.0
 10
208.3752718622837
 20
116.6663700453134
 30
0.0
 10
208.3390070837922
 20
116.7002450817181
 30
0.0
 10
208.296722084899
 20
116.727126598384
 30
0.0
 10
208.2482869065088
 20
116.7482233864222
 30
0.0
 10
208.1916758850853
 20
116.7632333877621
 30
0.0
 10
208.1253261027737
 20
116.7734167644894
 30
0.0
 10
208.0481762740399
 20
116.779987853398
 30
0.0
 10
207.9930451388501
 20
116.7805421936246
 30
0.0
 10
207.9636698354557
 20
116.7808375605218
 30
0.0
  0
SPLINE
  5
13E
330
1F
100
AcDbEntity
  8
0
  6
Continuous
 62
     7
370
     0
100
AcDbSpline
210
0.0
220
0.0
230
1.0
 70
     8
 71
     3
 72
    19
 73
    15
 74
     0
 42
0.000000001
 43
0.00000001
 40
0.0
 40
0.0
 40
0.0
 40
0.0
 40
0.0889709576989536
 40
0.1722707767733142
 40
0.2503120304637098
 40
0.3246551996215508
 40
0.3978444501802954
 40
0.473300880718533
 40
0.551825888744448
 40
0.634749483498253
 40
0.7217660118923855
 40
0.8103926655611194
 40
0.9031752367994194
 40
1.0
 40
1.0
 40
1.0
 40
1.0
 10
208.1727573181363
 20
116.0794889965695
 30
0.0
 10
208.1870992555956
 20
116.0825035264987
 30
0.0
 10
208.2148689545001
 20
116.0883404358221
 30
0.0
 10
208.2540175670099
 20
116.1013678084902
 30
0.0
 10
208.2899118954158
 20
116.1162913582006
 30
0.0
 10
208.3219254584505
 20
116.1352575319533
 30
0.0
 10
208.351569249739
 20
116.1571147479773
 30
0.0
 10
208.377331910631
 20
116.1844154567832
 30
0.0
 10
208.4010605442122
 20
116.2154336845217
 30
0.0
 10
208.4216193161259
 20
116.2509305177842
 30
0.0
 10
208.4382440684338
 20
116.2901994729079
 30
0.0
 10
208.4509500821879
 20
116.3326338168686
 30
0.0
 10
208.4577182305921
 20
116.3780847658964
 30
0.0
 10
208.4587147506689
 20
116.4092893107368
 30
0.0
 10
208.4592236329901
 20
116.4252242041516
 30
0.0
  0
SPLINE
  5
13F
330
1F
100
AcDbEntity
  8
0
  6
Continuous
 62
     7
370
     0
100
AcDbSpline
210
0.0
220
0.0
230
1.0
 70
     8
 71
     3
 72
    11
 73
     7
 74
     0
 42
0.000000001
 43
0.00000001
 40
0.0
 40
0.0
 40
0.0
 40
0.0
 40
0.3293954641291814
 40
0.6051903468528026
 40
0.8278865786947355
 40
1.0
 40
1.0
 40
1.0
 40
1.0
 10
207.9970085876154
 20
116.0696108477814
 30
0.0
 10
208.0163537383417
 20
116.0698330961791
 30
0.0
 10
208.0518961174965
 20
116.0702414278034
 30
0.0
 10
208.1005111482304
 20
116.0715223839817
 30
0.0
 10
208.1398071232811
 20
116.0746512807566
 30
0.0
 10
208.1627538961118
 20
116.0780203038008
 30
0.0
 10
208.1727573181363
 20
116.0794889965695
 30
0.0
  0
LINE
  5
140
330
1F
100
AcDbEntity
  8
0
  6
Continuous
 62
     7
370
     0
100
AcDbLine
 10
207.5109213493
 20
116.0696108478
 30
0.0
 11
207.9970085876
 21
116.0696108478
 31
0.0
  0
LINE
  5
141
330
1F
100
AcDbEntity
  8
0
  6
Continuous
 62
     7
370
     0
100
AcDbLine
 10
207.5109213493
 20
116.7808375605
 30
0.0
 11
207.5109213493
 21
116.0696108478
 31
0.0
  0
LINE
  5
142
330
1F
100
AcDbEntity
  8
0
  6
Continuous
 62
     7
370
     0
100
AcDbLine
 10
219.058065693
 20
120.8111222661
 30
0.0
 11
218.6666440473
 21
120.8111222661
 31
0.0
  0
SPLINE
  5
143
330
1F
100
AcDbEntity
  8
0
  6
Continuous
 62
     7
370
     0
100
AcDbSpline
210
0.0
220
0.0
230
1.0
 70
     8
 71
     3
 72
    23
 73
    19
 74
     0
 42
0.000000001
 43
0.00000001
 40
0.0
 40
0.0
 40
0.0
 40
0.0
 40
0.076010519206233
 40
0.1481357362434485
 40
0.2177881778331537
 40
0.2867678984972342
 40
0.3540434632439191
 40
0.418610840023479
 40
0.4836364388553436
 40
0.5502295626461514
 40
0.586927811313815
 40
0.6291578250269649
 40
0.67723822428767
 40
0.7300426397437307
 40
0.7888625661169238
 40
0.853750451461094
 40
0.9241097665384563
 40
1.0
 40
1.0
 40
1.0
 40
1.0
 10
219.535921140669
 20
120.4900824304387
 30
0.0
 10
219.5353892262621
 20
120.5069930526013
 30
0.0
 10
219.5343525864244
 20
120.5399499050287
 30
0.0
 10
219.525650921846
 20
120.5878089688086
 30
0.0
 10
219.5105930127516
 20
120.6323330393828
 30
0.0
 10
219.4902004803526
 20
120.6735123497588
 30
0.0
 10
219.4643781159724
 20
120.7101472607764
 30
0.0
 10
219.4335582233267
 20
120.7416447088811
 30
0.0
 10
219.3966381673526
 20
120.7654553928833
 30
0.0
 10
219.362128973937
 20
120.7803085466279
 30
0.0
 10
219.3310906894327
 20
120.7896005956939
 30
0.0
 10
219.3033590723154
 20
120.795098318638
 30
0.0
 10
219.2719031472003
 20
120.7999423593017
 30
0.0
 10
219.2366194012407
 20
120.8040606016043
 30
0.0
 10
219.1974944875977
 20
120.8072567370655
 30
0.0
 10
219.1544078555907
 20
120.8097958548818
 30
0.0
 10
219.1074620701001
 20
120.8108739026633
 30
0.0
 10
219.0749411151479
 20
120.8110374169737
 30
0.0
 10
219.0580656930466
 20
120.8111222660506
 30
0.0
  0
SPLINE
  5
144
330
1F
100
AcDbEntity
  8
0
  6
Continuous
 62
     7
370
     0
100
AcDbSpline
210
0.0
220
0.0
230
1.0
 70
     8
 71
     3
 72
    15
 73
    11
 74
     0
 42
0.000000001
 43
0.00000001
 40
0.0
 40
0.0
 40
0.0
 40
0.0
 40
0.1323768784386554
 40
0.2551949197670693
 40
0.3737221416536682
 40
0.4900113154474162
 40
0.6078124214239341
 40
0.7311098159015431
 40
0.8599973777575842
 40
1.0
 40
1.0
 40
1.0
 40
1.0
 10
219.3371233963094
 20
120.2032045260521
 30
0.0
 10
219.3528576397383
 20
120.2087162327578
 30
0.0
 10
219.3831899684413
 20
120.2193416498786
 30
0.0
 10
219.423838126165
 20
120.2434730403772
 30
0.0
 10
219.4584585415465
 20
120.272430591203
 30
0.0
 10
219.4869584394647
 20
120.3067256214505
 30
0.0
 10
219.5088591988212
 20
120.3461745984068
 30
0.0
 10
219.525097979706
 20
120.3899594460979
 30
0.0
 10
219.5339890725515
 20
120.4386922361624
 30
0.0
 10
219.5352596112936
 20
120.4724867137994
 30
0.0
 10
219.535921140669
 20
120.4900824304387
 30
0.0
  0
SPLINE
  5
145
330
1F
100
AcDbEntity
  8
0
  6
Continuous
 62
     7
370
     0
100
AcDbSpline
210
0.0
220
0.0
230
1.0
 70
     8
 71
     3
 72
    15
 73
    11
 74
     0
 42
0.000000001
 43
0.00000001
 40
0.0
 40
0.0
 40
0.0
 40
0.0
 40
0.1669801744060311
 40
0.3208066328848162
 40
0.4631345048703153
 40
0.5942480539785179
 40
0.7123671525397409
 40
0.8194549510427486
 40
0.9157522665813508
 40
1.0
 40
1.0
 40
1.0
 40
1.0
 10
219.0901696766078
 20
120.1789207436147
 30
0.0
 10
219.104028489731
 20
120.1789755743157
 30
0.0
 10
219.1306544002001
 20
120.1790809164776
 30
0.0
 10
219.1690616416957
 20
120.180549700563
 30
0.0
 10
219.2045096846121
 20
120.1818027836865
 30
0.0
 10
219.2368614111815
 20
120.1849479255002
 30
0.0
 10
219.2662770944717
 20
120.1880284521925
 30
0.0
 10
219.2926390164874
 20
120.1921753213169
 30
0.0
 10
219.3160762993712
 20
120.1968479022621
 30
0.0
 10
219.3304269516549
 20
120.2011820723368
 30
0.0
 10
219.3371233963094
 20
120.2032045260521
 30
0.0
  0
LINE
  5
146
330
1F
100
AcDbEntity
  8
0
  6
Continuous
 62
     7
370
     0
100
AcDbLine
 10
218.6666440473
 20
120.1789207436
 30
0.0
 11
219.0901696766
 21
120.1789207436
 31
0.0
  0
LINE
  5
147
330
1F
100
AcDbEntity
  8
0
  6
Continuous
 62
     7
370
     0
100
AcDbLine
 10
218.6666440473
 20
120.8111222661
 30
0.0
 11
218.6666440473
 21
120.1789207436
 31
0.0
  0
LINE
  5
148
330
1F
100
AcDbEntity
  8
0
  6
Continuous
 62
     7
370
     0
100
AcDbLine
 10
209.7989475624
 20
117.6501146539
 30
0.0
 11
209.4075259166
 21
117.6501146539
 31
0.0
  0
SPLINE
  5
149
330
1F
100
AcDbEntity
  8
0
  6
Continuous
 62
     7
370
     0
100
AcDbSpline
210
0.0
220
0.0
230
1.0
 70
     8
 71
     3
 72
    23
 73
    19
 74
     0
 42
0.000000001
 43
0.00000001
 40
0.0
 40
0.0
 40
0.0
 40
0.0
 40
0.076010519206233
 40
0.1481357362434485
 40
0.2177881778331538
 40
0.2867678984972342
 40
0.3540434632439184
 40
0.4186108400234793
 40
0.4836364388553449
 40
0.5502295626461514
 40
0.5869278113138151
 40
0.6291578250269663
 40
0.67723822428767
 40
0.7300426397437295
 40
0.7888625661169238
 40
0.853750451461094
 40
0.9241097665384562
 40
1.0
 40
1.0
 40
1.0
 40
1.0
 10
210.2768030099933
 20
117.3290748182592
 30
0.0
 10
210.2762710955863
 20
117.3459854404219
 30
0.0
 10
210.2752344557486
 20
117.3789422928492
 30
0.0
 10
210.2665327911702
 20
117.4268013566292
 30
0.0
 10
210.2514748820759
 20
117.4713254272033
 30
0.0
 10
210.2310823496769
 20
117.5125047375792
 30
0.0
 10
210.2052599852967
 20
117.5491396485969
 30
0.0
 10
210.1744400926509
 20
117.5806370967016
 30
0.0
 10
210.1375200366769
 20
117.6044477807038
 30
0.0
 10
210.1030108432613
 20
117.6193009344484
 30
0.0
 10
210.071972558757
 20
117.6285929835144
 30
0.0
 10
210.0442409416397
 20
117.6340907064585
 30
0.0
 10
210.0127850165246
 20
117.6389347471222
 30
0.0
 10
209.977501270565
 20
117.6430529894248
 30
0.0
 10
209.938376356922
 20
117.646249124886
 30
0.0
 10
209.8952897249149
 20
117.6487882427023
 30
0.0
 10
209.8483439394244
 20
117.6498662904839
 30
0.0
 10
209.8158229844722
 20
117.6500298047942
 30
0.0
 10
209.7989475623709
 20
117.6501146538712
 30
0.0
  0
SPLINE
  5
14A
330
1F
100
AcDbEntity
  8
0
  6
Continuous
 62
     7
370
     0
100
AcDbSpline
210
0.0
220
0.0
230
1.0
 70
     8
 71
     3
 72
    15
 73
    11
 74
     0
 42
0.000000001
 43
0.00000001
 40
0.0
 40
0.0
 40
0.0
 40
0.0
 40
0.1323768784386553
 40
0.2551949197670693
 40
0.3737221416536681
 40
0.4900113154474174
 40
0.6078124214239342
 40
0.7311098159015433
 40
0.8599973777575843
 40
1.0
 40
1.0
 40
1.0
 40
1.0
 10
210.0780052656336
 20
117.0421969138726
 30
0.0
 10
210.0937395090626
 20
117.0477086205783
 30
0.0
 10
210.1240718377655
 20
117.0583340376991
 30
0.0
 10
210.1647199954892
 20
117.0824654281977
 30
0.0
 10
210.1993404108707
 20
117.1114229790235
 30
0.0
 10
210.2278403087889
 20
117.145718009271
 30
0.0
 10
210.2497410681454
 20
117.1851669862273
 30
0.0
 10
210.2659798490303
 20
117.2289518339184
 30
0.0
 10
210.2748709418757
 20
117.2776846239829
 30
0.0
 10
210.2761414806178
 20
117.3114791016199
 30
0.0
 10
210.2768030099933
 20
117.3290748182592
 30
0.0
  0
SPLINE
  5
14B
330
1F
100
AcDbEntity
  8
0
  6
Continuous
 62
     7
370
     0
100
AcDbSpline
210
0.0
220
0.0
230
1.0
 70
     8
 71
     3
 72
    15
 73
    11
 74
     0
 42
0.000000001
 43
0.00000001
 40
0.0
 40
0.0
 40
0.0
 40
0.0
 40
0.1669801744060311
 40
0.3208066328848162
 40
0.4631345048703153
 40
0.5942480539785214
 40
0.712367152539741
 40
0.8194549510427487
 40
0.9157522665813509
 40
1.0
 40
1.0
 40
1.0
 40
1.0
 10
209.8310515459321
 20
117.0179131314353
 30
0.0
 10
209.8449103590553
 20
117.0179679621362
 30
0.0
 10
209.8715362695243
 20
117.0180733042981
 30
0.0
 10
209.90994351102
 20
117.0195420883836
 30
0.0
 10
209.9453915539364
 20
117.020795171507
 30
0.0
 10
209.9777432805058
 20
117.0239403133207
 30
0.0
 10
210.0071589637959
 20
117.027020840013
 30
0.0
 10
210.0335208858116
 20
117.0311677091374
 30
0.0
 10
210.0569581686954
 20
117.0358402900827
 30
0.0
 10
210.0713088209791
 20
117.0401744601573
 30
0.0
 10
210.0780052656336
 20
117.0421969138726
 30
0.0
  0
LINE
  5
14C
330
1F
100
AcDbEntity
  8
0
  6
Continuous
 62
     7
370
     0
100
AcDbLine
 10
209.4075259166
 20
117.0179131314
 30
0.0
 11
209.8310515459
 21
117.0179131314
 31
0.0
  0
LINE
  5
14D
330
1F
100
AcDbEntity
  8
0
  6
Continuous
 62
     7
370
     0
100
AcDbLine
 10
209.4075259166
 20
117.6501146539
 30
0.0
 11
209.4075259166
 21
117.0179131314
 31
0.0
  0
LINE
  5
14E
330
1F
100
AcDbEntity
  8
0
  6
Continuous
 62
     7
370
     0
100
AcDbLine
 10
207.9023429951
 20
117.6501146539
 30
0.0
 11
207.5109213493
 21
117.6501146539
 31
0.0
  0
SPLINE
  5
14F
330
1F
100
AcDbEntity
  8
0
  6
Continuous
 62
     7
370
     0
100
AcDbSpline
210
0.0
220
0.0
230
1.0
 70
     8
 71
     3
 72
    23
 73
    19
 74
     0
 42
0.000000001
 43
0.00000001
 40
0.0
 40
0.0
 40
0.0
 40
0.0
 40
0.076010519206233
 40
0.1481357362434485
 40
0.2177881778331538
 40
0.2867678984972342
 40
0.3540434632439184
 40
0.4186108400234793
 40
0.4836364388553449
 40
0.5502295626461514
 40
0.5869278113138151
 40
0.6291578250269663
 40
0.67723822428767
 40
0.7300426397437295
 40
0.7888625661169238
 40
0.853750451461094
 40
0.9241097665384562
 40
1.0
 40
1.0
 40
1.0
 40
1.0
 10
208.3801984426856
 20
117.3290748182592
 30
0.0
 10
208.3796665282787
 20
117.3459854404219
 30
0.0
 10
208.3786298884409
 20
117.3789422928492
 30
0.0
 10
208.3699282238625
 20
117.4268013566292
 30
0.0
 10
208.3548703147682
 20
117.4713254272033
 30
0.0
 10
208.3344777823692
 20
117.5125047375792
 30
0.0
 10
208.3086554179889
 20
117.5491396485969
 30
0.0
 10
208.2778355253432
 20
117.5806370967016
 30
0.0
 10
208.2409154693692
 20
117.6044477807038
 30
0.0
 10
208.2064062759536
 20
117.6193009344484
 30
0.0
 10
208.1753679914493
 20
117.6285929835144
 30
0.0
 10
208.147636374332
 20
117.6340907064585
 30
0.0
 10
208.1161804492169
 20
117.6389347471222
 30
0.0
 10
208.0808967032573
 20
117.6430529894248
 30
0.0
 10
208.0417717896143
 20
117.646249124886
 30
0.0
 10
207.9986851576072
 20
117.6487882427023
 30
0.0
 10
207.9517393721167
 20
117.6498662904839
 30
0.0
 10
207.9192184171645
 20
117.6500298047942
 30
0.0
 10
207.9023429950632
 20
117.6501146538712
 30
0.0
  0
SPLINE
  5
150
330
1F
100
AcDbEntity
  8
0
  6
Continuous
 62
     7
370
     0
100
AcDbSpline
210
0.0
220
0.0
230
1.0
 70
     8
 71
     3
 72
    15
 73
    11
 74
     0
 42
0.000000001
 43
0.00000001
 40
0.0
 40
0.0
 40
0.0
 40
0.0
 40
0.1323768784386553
 40
0.2551949197670693
 40
0.3737221416536681
 40
0.4900113154474174
 40
0.6078124214239342
 40
0.7311098159015433
 40
0.8599973777575843
 40
1.0
 40
1.0
 40
1.0
 40
1.0
 10
208.1814006983259
 20
117.0421969138726
 30
0.0
 10
208.1971349417549
 20
117.0477086205783
 30
0.0
 10
208.2274672704578
 20
117.0583340376991
 30
0.0
 10
208.2681154281815
 20
117.0824654281977
 30
0.0
 10
208.302735843563
 20
117.1114229790235
 30
0.0
 10
208.3312357414813
 20
117.145718009271
 30
0.0
 10
208.3531365008377
 20
117.1851669862273
 30
0.0
 10
208.3693752817226
 20
117.2289518339184
 30
0.0
 10
208.378266374568
 20
117.2776846239829
 30
0.0
 10
208.3795369133101
 20
117.3114791016199
 30
0.0
 10
208.3801984426856
 20
117.3290748182592
 30
0.0
  0
SPLINE
  5
151
330
1F
100
AcDbEntity
  8
0
  6
Continuous
 62
     7
370
     0
100
AcDbSpline
210
0.0
220
0.0
230
1.0
 70
     8
 71
     3
 72
    15
 73
    11
 74
     0
 42
0.000000001
 43
0.00000001
 40
0.0
 40
0.0
 40
0.0
 40
0.0
 40
0.1669801744060311
 40
0.3208066328848162
 40
0.4631345048703153
 40
0.5942480539785214
 40
0.712367152539741
 40
0.8194549510427487
 40
0.9157522665813509
 40
1.0
 40
1.0
 40
1.0
 40
1.0
 10
207.9344469786244
 20
117.0179131314353
 30
0.0
 10
207.9483057917476
 20
117.0179679621362
 30
0.0
 10
207.9749317022167
 20
117.0180733042981
 30
0.0
 10
208.0133389437123
 20
117.0195420883836
 30
0.0
 10
208.0487869866287
 20
117.020795171507
 30
0.0
 10
208.0811387131981
 20
117.0239403133207
 30
0.0
 10
208.1105543964882
 20
117.027020840013
 30
0.0
 10
208.1369163185039
 20
117.0311677091374
 30
0.0
 10
208.1603536013877
 20
117.0358402900827
 30
0.0
 10
208.1747042536714
 20
117.0401744601573
 30
0.0
 10
208.1814006983259
 20
117.0421969138726
 30
0.0
  0
LINE
  5
152
330
1F
100
AcDbEntity
  8
0
  6
Continuous
 62
     7
370
     0
100
AcDbLine
 10
207.5109213493
 20
117.0179131314
 30
0.0
 11
207.9344469786
 21
117.0179131314
 31
0.0
  0
LINE
  5
153
330
1F
100
AcDbEntity
  8
0
  6
Continuous
 62
     7
370
     0
100
AcDbLine
 10
207.5109213493
 20
117.6501146539
 30
0.0
 11
207.5109213493
 21
117.0179131314
 31
0.0
  0
SPLINE
  5
154
330
1F
100
AcDbEntity
  8
0
  6
Continuous
 62
     7
370
     0
100
AcDbSpline
210
0.0
220
0.0
230
1.0
 70
     8
 71
     3
 72
    23
 73
    19
 74
     0
 42
0.000000001
 43
0.00000001
 40
0.0
 40
0.0
 40
0.0
 40
0.0
 40
0.0635034414546181
 40
0.1248046405781818
 40
0.1849202801139814
 40
0.2443762015685236
 40
0.3037746372808735
 40
0.3641325964146212
 40
0.425375506355363
 40
0.4883879977208414
 40
0.5517433281320241
 40
0.6138598322814827
 40
0.6756404471380684
 40
0.7377369491926123
 40
0.8004171140764984
 40
0.8646584058363332
 40
0.9309845230655541
 40
1.0
 40
1.0
 40
1.0
 40
1.0
 10
221.3930131128245
 20
116.4507427551874
 30
0.0
 10
221.3925117607258
 20
116.4286220721203
 30
0.0
 10
221.391526442969
 20
116.385147831413
 30
0.0
 10
221.3821855996235
 20
116.3212831823832
 30
0.0
 10
221.3669205652613
 20
116.2600922627343
 30
0.0
 10
221.3457958049798
 20
116.2013672796474
 30
0.0
 10
221.3190273911637
 20
116.1448685660043
 30
0.0
 10
221.2854374468189
 20
116.091393414484
 30
0.0
 10
221.2460215016137
 20
116.0405071448606
 30
0.0
 10
221.2013957687779
 20
115.9926969741569
 30
0.0
 10
221.1525040072287
 20
115.9487579559888
 30
0.0
 10
221.0994094252532
 20
115.9107109672346
 30
0.0
 10
221.043162494079
 20
115.87840086509
 30
0.0
 10
220.9836716816509
 20
115.8520521361318
 30
0.0
 10
220.9210946965828
 20
115.8313511462628
 30
0.0
 10
220.8553692875182
 20
115.8165120152828
 30
0.0
 10
220.7862920690677
 20
115.8077909053949
 30
0.0
 10
220.7391596457906
 20
115.8067330067763
 30
0.0
 10
220.7151251522438
 20
115.8061935467664
 30
0.0
  0
SPLINE
  5
155
330
1F
100
AcDbEntity
  8
0
  6
Continuous
 62
     7
370
     0
100
AcDbSpline
210
0.0
220
0.0
230
1.0
 70
     8
 71
     3
 72
    23
 73
    19
 74
     0
 42
0.000000001
 43
0.00000001
 40
0.0
 40
0.0
 40
0.0
 40
0.0
 40
0.0658282446781897
 40
0.1289383166014411
 40
0.1908583237191141
 40
0.2511862310452439
 40
0.3109740177800719
 40
0.3700498785126945
 40
0.4296723095349292
 40
0.4895072568266741
 40
0.549975271732241
 40
0.6100748076115778
 40
0.6709148653422591
 40
0.7329088543890382
 40
0.7967107088217862
 40
0.8618253836021722
 40
0.9298919770519394
 40
0.9999999999999999
 40
0.9999999999999999
 40
0.9999999999999999
 40
0.9999999999999999
 10
221.0073537205573
 20
116.9574094701084
 30
0.0
 10
221.0221083904891
 20
116.953684207855
 30
0.0
 10
221.0510084821188
 20
116.9463875064741
 30
0.0
 10
221.0925155681182
 20
116.9312689467272
 30
0.0
 10
221.1315368883676
 20
116.9135689175234
 30
0.0
 10
221.1685917923378
 20
116.8935215506089
 30
0.0
 10
221.2026045060249
 20
116.8698122902642
 30
0.0
 10
221.2347474179225
 20
116.8438889016869
 30
0.0
 10
221.2638054508852
 20
116.8145028966748
 30
0.0
 10
221.290620468992
 20
116.7827016443069
 30
0.0
 10
221.3150188429243
 20
116.7488179502149
 30
0.0
 10
221.3355503138093
 20
116.712192700754
 30
0.0
 10
221.3532683765219
 20
116.6737887082295
 30
0.0
 10
221.3683766559908
 20
116.6333274308433
 30
0.0
 10
221.3792334315544
 20
116.5904968811409
 30
0.0
 10
221.3869963689177
 20
116.5456288679656
 30
0.0
 10
221.392119274524
 20
116.4988792773243
 30
0.0
 10
221.3927122464812
 20
116.4669455285401
 30
0.0
 10
221.3930131128245
 20
116.4507427551874
 30
0.0
  0
SPLINE
  5
156
330
1F
100
AcDbEntity
  8
0
  6
Continuous
 62
     7
370
     0
100
AcDbSpline
210
0.0
220
0.0
230
1.0
 70
     8
 71
     3
 72
    15
 73
    11
 74
     0
 42
0.000000001
 43
0.00000001
 40
0.0
 40
0.0
 40
0.0
 40
0.0
 40
0.121951202249343
 40
0.2407868053279238
 40
0.358549872370746
 40
0.479065841400276
 40
0.6015185447735336
 40
0.7275505189308984
 40
0.8599320866628438
 40
1.0
 40
1.0
 40
1.0
 40
1.0
 10
221.2876461924185
 20
117.3648831076159
 30
0.0
 10
221.2867605478424
 20
117.3435525977817
 30
0.0
 10
221.2850118850643
 20
117.3014365282042
 30
0.0
 10
221.271549247283
 20
117.2398553737415
 30
0.0
 10
221.2488000677474
 20
117.1815141546425
 30
0.0
 10
221.2180517187865
 20
117.1262081774922
 30
0.0
 10
221.1781786545149
 20
117.0751334795529
 30
0.0
 10
221.1292903941012
 20
117.0296212682378
 30
0.0
 10
221.0721690216468
 20
116.9892360602263
 30
0.0
 10
221.0293613839893
 20
116.9682160060918
 30
0.0
 10
221.0073537205573
 20
116.9574094701084
 30
0.0
  0
SPLINE
  5
157
330
1F
100
AcDbEntity
  8
0
  6
Continuous
 62
     7
370
     0
100
AcDbSpline
210
0.0
220
0.0
230
1.0
 70
     8
 71
     3
 72
    19
 73
    15
 74
     0
 42
0.000000001
 43
0.00000001
 40
0.0
 40
0.0
 40
0.0
 40
0.0
 40
0.0920539892768589
 40
0.1810079047849001
 40
0.2691300759875085
 40
0.3571374727068738
 40
0.4435490135848202
 40
0.5264334456319726
 40
0.6074529357589968
 40
0.688384638514421
 40
0.7678538499318546
 40
0.8455305897600621
 40
0.9225294439554589
 40
1.0
 40
1.0
 40
1.0
 40
1.0
 10
220.7031890557916
 20
117.8871902247846
 30
0.0
 10
220.7299976215009
 20
117.8863208889312
 30
0.0
 10
220.782711929131
 20
117.8846114935795
 30
0.0
 10
220.8601369625697
 20
117.8710352698089
 30
0.0
 10
220.9341935994005
 20
117.8487564153352
 30
0.0
 10
221.0042859113813
 20
117.8178739504178
 30
0.0
 10
221.0692079962025
 20
117.7801363929214
 30
0.0
 10
221.1266586902048
 20
117.7349102285164
 30
0.0
 10
221.1758699551774
 20
117.6829778602608
 30
0.0
 10
221.2158859714917
 20
117.6249070588291
 30
0.0
 10
221.2475730428883
 20
117.5630790090458
 30
0.0
 10
221.2710205231806
 20
117.4988988115873
 30
0.0
 10
221.2850307445729
 20
117.4324403483925
 30
0.0
 10
221.2867726034371
 20
117.3874479854661
 30
0.0
 10
221.2876461924185
 20
117.3648831076159
 30
0.0
  0
SPLINE
  5
158
330
1F
100
AcDbEntity
  8
0
  6
Continuous
 62
     7
370
     0
100
AcDbSpline
210
0.0
220
0.0
230
1.0
 70
     8
 71
     3
 72
    23
 73
    19
 74
     0
 42
0.000000001
 43
0.00000001
 40
0.0
 40
0.0
 40
0.0
 40
0.0
 40
0.0710363230120579
 40
0.1393433396034169
 40
0.2049584727025956
 40
0.2683315830770488
 40
0.3301292609669969
 40
0.3906639764805652
 40
0.4508614486151499
 40
0.5105872658343563
 40
0.5703738539616979
 40
0.6294550091547365
 40
0.687993523080573
 40
0.7475809941037844
 40
0.8078387614769661
 40
0.8700340388224003
 40
0.9338104563665488
 40
1.0
 40
1.0
 40
1.0
 40
1.0
 10
220.1022683378512
 20
117.3603556227547
 30
0.0
 10
220.106388970733
 20
117.3807233350741
 30
0.0
 10
220.1144719165088
 20
117.4206762061453
 30
0.0
 10
220.1309395092631
 20
117.4783790389951
 30
0.0
 10
220.1510215350836
 20
117.5325455669283
 30
0.0
 10
220.1751333818157
 20
117.5829274481487
 30
0.0
 10
220.2021359286392
 20
117.6301276336132
 30
0.0
 10
220.2332853255046
 20
117.673586256472
 30
0.0
 10
220.2678512746296
 20
117.713561684398
 30
0.0
 10
220.3058951735323
 20
117.7499319858692
 30
0.0
 10
220.3469005543539
 20
117.7824147332175
 30
0.0
 10
220.3906608841605
 20
117.8104353648284
 30
0.0
 10
220.4368170381693
 20
117.8341868880587
 30
0.0
 10
220.4854122302381
 20
117.8533348181389
 30
0.0
 10
220.5364079848942
 20
117.8689049865449
 30
0.0
 10
220.5899493824746
 20
117.8792202617067
 30
0.0
 10
220.6457940757476
 20
117.8861980254692
 30
0.0
 10
220.6838220360405
 20
117.8868554229653
 30
0.0
 10
220.7031890557916
 20
117.8871902247846
 30
0.0
  0
LINE
  5
159
330
1F
100
AcDbEntity
  8
0
  6
Continuous
 62
     7
370
     0
100
AcDbLine
 10
220.3656856389
 20
117.3340138927
 30
0.0
 11
220.1022683379
 21
117.3603556228
 31
0.0
  0
SPLINE
  5
15A
330
1F
100
AcDbEntity
  8
0
  6
Continuous
 62
     7
370
     0
100
AcDbSpline
210
0.0
220
0.0
230
1.0
 70
     8
 71
     3
 72
    19
 73
    15
 74
     0
 42
0.000000001
 43
0.00000001
 40
0.0
 40
0.0
 40
0.0
 40
0.0
 40
0.1277971582348374
 40
0.2467952527166551
 40
0.3622843155839157
 40
0.4776524647273049
 40
0.5362368417287133
 40
0.5955904355162851
 40
0.6563437591396383
 40
0.7190851405078749
 40
0.7843491651281221
 40
0.8528755346365583
 40
0.9245512555167001
 40
1.0
 40
1.0
 40
1.0
 40
1.0
 10
220.7114208464483
 20
117.6501146538712
 30
0.0
 10
220.6893754655756
 20
117.6492550681181
 30
0.0
 10
220.6468025678768
 20
117.6475950806341
 30
0.0
 10
220.5858502788103
 20
117.6322367530767
 30
0.0
 10
220.5306164998918
 20
117.607384980624
 30
0.0
 10
220.4897240729053
 20
117.5782407894768
 30
0.0
 10
220.4606868539926
 20
117.5503772941626
 30
0.0
 10
220.4408528953873
 20
117.5267597687482
 30
0.0
 10
220.423112543409
 20
117.5006791330889
 30
0.0
 10
220.4074155186287
 20
117.4721446835504
 30
0.0
 10
220.3939738921275
 20
117.4410416650027
 30
0.0
 10
220.381856639171
 20
117.4077553975495
 30
0.0
 10
220.3724767611318
 20
117.371752967816
 30
0.0
 10
220.3679877202754
 20
117.3468068331915
 30
0.0
 10
220.3656856388662
 20
117.3340138926532
 30
0.0
  0
SPLINE
  5
15B
330
1F
100
AcDbEntity
  8
0
  6
Continuous
 62
     7
370
     0
100
AcDbSpline
210
0.0
220
0.0
230
1.0
 70
     8
 71
     3
 72
    23
 73
    19
 74
     0
 42
0.000000001
 43
0.00000001
 40
0.0
 40
0.0
 40
0.0
 40
0.0
 40
0.0650933507070887
 40
0.1273042315324059
 40
0.1881220215801465
 40
0.2471305161007633
 40
0.3060769160082425
 40
0.3656782273658525
 40
0.4261033481625819
 40
0.487841495079736
 40
0.5503167167998646
 40
0.6118052235137849
 40
0.6727373158544524
 40
0.734883408999323
 40
0.7976802029336779
 40
0.8624746871088677
 40
0.9297754033859679
 40
1.0
 40
1.0
 40
1.0
 40
1.0
 10
221.0242288914035
 20
117.3562397274263
 30
0.0
 10
221.024034239175
 20
117.3666806679167
 30
0.0
 10
221.0236535543262
 20
117.3871002021881
 30
0.0
 10
221.0194125538941
 20
117.4170373953741
 30
0.0
 10
221.0123984599808
 20
117.4454038078647
 30
0.0
 10
221.0029182144032
 20
117.4725023149792
 30
0.0
 10
220.9904934109965
 20
117.4981908974782
 30
0.0
 10
220.9750856796223
 20
117.5224381075463
 30
0.0
 10
220.9574818234876
 20
117.5457358192141
 30
0.0
 10
220.9367010944034
 20
117.5668801591584
 30
0.0
 10
220.9144467365259
 20
117.5867315542862
 30
0.0
 10
220.8899072244826
 20
117.6034505002164
 30
0.0
 10
220.8642504564438
 20
117.6183028259241
 30
0.0
 10
220.8365715754585
 20
117.6295260352521
 30
0.0
 10
220.8075539088555
 20
117.6387533431556
 30
0.0
 10
220.7769494093598
 20
117.645219466834
 30
0.0
 10
220.7447469067328
 20
117.649561902435
 30
0.0
 10
220.722685877301
 20
117.649927810244
 30
0.0
 10
220.7114208464483
 20
117.6501146538712
 30
0.0
  0
SPLINE
  5
15C
330
1F
100
AcDbEntity
  8
0
  6
Continuous
 62
     7
370
     0
100
AcDbSpline
210
0.0
220
0.0
230
1.0
 70
     8
 71
     3
 72
    19
 73
    15
 74
     0
 42
0.000000001
 43
0.00000001
 40
0.0
 40
0.0
 40
0.0
 40
0.0
 40
0.1297890756576308
 40
0.2546053700922389
 40
0.3784354924817364
 40
0.5029195826750436
 40
0.5650179669759696
 40
0.6248477746307946
 40
0.6834480871906738
 40
0.7427645197557694
 40
0.8027569578129465
 40
0.8652203742489508
 40
0.9307788121001255
 40
1.0
 40
1.0
 40
1.0
 40
1.0
 10
220.6389810886692
 20
117.0413737348069
 30
0.0
 10
220.663206757161
 20
117.0422986614921
 30
0.0
 10
220.7107299039347
 20
117.044113076918
 30
0.0
 10
220.780009439339
 20
117.05918934951
 30
0.0
 10
220.8456661198932
 20
117.0829264539426
 30
0.0
 10
220.8963901468495
 20
117.1112482634653
 30
0.0
 10
220.934005371356
 20
117.1378864635772
 30
0.0
 10
220.9577247756541
 20
117.1619045796272
 30
0.0
 10
220.9791090421898
 20
117.1873926527707
 30
0.0
 10
220.9950634528195
 20
117.2166283957934
 30
0.0
 10
221.0088470792859
 20
117.2476920787205
 30
0.0
 10
221.0173825589158
 20
117.2818073828898
 30
0.0
 10
221.0236073286168
 20
117.3181450535246
 30
0.0
 10
221.0240179838406
 20
117.3433135114327
 30
0.0
 10
221.0242288914035
 20
117.3562397274263
 30
0.0
  0
SPLINE
  5
15D
330
1F
100
AcDbEntity
  8
0
  6
Continuous
 62
     7
370
     0
100
AcDbSpline
210
0.0
220
0.0
230
1.0
 70
     8
 71
     3
 72
     9
 73
     5
 74
     0
 42
0.000000001
 43
0.00000001
 40
0.0
 40
0.0
 40
0.0
 40
0.0
 40
0.566041224020029
 40
0.9999999999999999
 40
0.9999999999999999
 40
0.9999999999999999
 40
0.9999999999999999
 10
220.6011148516483
 20
117.0442548615367
 30
0.0
 10
220.6082422885027
 20
117.0434760274106
 30
0.0
 10
220.6208340160164
 20
117.0421000956001
 30
0.0
 10
220.6334892422034
 20
117.0415935532884
 30
0.0
 10
220.6389810886692
 20
117.0413737348069
 30
0.0
  0
LINE
  5
15E
330
1F
100
AcDbEntity
  8
0
  6
Continuous
 62
     7
370
     0
100
AcDbLine
 10
220.5739499425
 20
116.8071792906
 30
0.0
 11
220.6011148516
 21
117.0442548615
 31
0.0
  0
SPLINE
  5
15F
330
1F
100
AcDbEntity
  8
0
  6
Continuous
 62
     7
370
     0
100
AcDbSpline
210
0.0
220
0.0
230
1.0
 70
     8
 71
     3
 72
    11
 73
     7
 74
     0
 42
0.000000001
 43
0.00000001
 40
0.0
 40
0.0
 40
0.0
 40
0.0
 40
0.2094025526291361
 40
0.4444010364151486
 40
0.708272066867383
 40
1.0
 40
1.0
 40
1.0
 40
1.0
 10
220.7443480090752
 20
116.8351673788561
 30
0.0
 10
220.7322563252362
 20
116.8348470320652
 30
0.0
 10
220.7065949530964
 20
116.8341671814899
 30
0.0
 10
220.6660927204163
 20
116.8281643585258
 30
0.0
 10
220.6212296373914
 20
116.8197589984506
 30
0.0
 10
220.5902279666165
 20
116.8115103842993
 30
0.0
 10
220.5739499424811
 20
116.8071792906233
 30
0.0
  0
SPLINE
  5
160
330
1F
100
AcDbEntity
  8
0
  6
Continuous
 62
     7
370
     0
100
AcDbSpline
210
0.0
220
0.0
230
1.0
 70
     8
 71
     3
 72
    23
 73
    19
 74
     0
 42
0.000000001
 43
0.00000001
 40
0.0
 40
0.0
 40
0.0
 40
0.0
 40
0.0670509921880464
 40
0.1311799203918649
 40
0.1937216912651199
 40
0.2544994837594221
 40
0.3147627139698846
 40
0.3751170680683982
 40
0.4360228218750035
 40
0.4982967466743267
 40
0.5605706714736499
 40
0.6216191234624541
 40
0.6819734775609678
 40
0.7428529083782501
 40
0.8042715696802843
 40
0.8674725557694033
 40
0.932272823405128
 40
1.0
 40
1.0
 40
1.0
 40
1.0
 10
221.1295958118095
 20
116.4528007028516
 30
0.0
 10
221.1292871727253
 20
116.4663972407944
 30
0.0
 10
221.128683344964
 20
116.4929977832581
 30
0.0
 10
221.1237193926104
 20
116.5320416723446
 30
0.0
 10
221.1150574052187
 20
116.5691048542129
 30
0.0
 10
221.1030498202354
 20
116.6044018268628
 30
0.0
 10
221.0877065910129
 20
116.637880771904
 30
0.0
 10
221.0692644814868
 20
116.6698185281232
 30
0.0
 10
221.0467082696745
 20
116.6995151791923
 30
0.0
 10
221.021319264158
 20
116.7272896926012
 30
0.0
 10
220.9936272662679
 20
116.7528779884362
 30
0.0
 10
220.9633226280573
 20
116.7746441275526
 30
0.0
 10
220.9314307591634
 20
116.7934290148352
 30
0.0
 10
220.8975715816217
 20
116.8085970767198
 30
0.0
 10
220.8618856801794
 20
116.8206360542127
 30
0.0
 10
220.8244070743738
 20
116.8292887036396
 30
0.0
 10
220.7849555749426
 20
116.8342548102002
 30
0.0
 10
220.758081703575
 20
116.8348587432888
 30
0.0
 10
220.7443480090752
 20
116.8351673788561
 30
0.0
  0
SPLINE
  5
161
330
1F
100
AcDbEntity
  8
0
  6
Continuous
 62
     7
370
     0
100
AcDbSpline
210
0.0
220
0.0
230
1.0
 70
     8
 71
     3
 72
    23
 73
    19
 74
     0
 42
0.000000001
 43
0.00000001
 40
0.0
 40
0.0
 40
0.0
 40
0.0
 40
0.0694611184111805
 40
0.1356576792112468
 40
0.1996202009683168
 40
0.2616514289943396
 40
0.322052934607597
 40
0.3823401897046092
 40
0.4432232029819942
 40
0.5049299582480397
 40
0.5668204626337185
 40
0.627600140217707
 40
0.6874756430229487
 40
0.7473511458281905
 40
0.8081741791096778
 40
0.870133448924472
 40
0.9337207833931579
 40
1.0
 40
1.0
 40
1.0
 40
1.0
 10
220.724591711499
 20
116.0432691176799
 30
0.0
 10
220.7395710364541
 20
116.0434826865012
 30
0.0
 10
220.7688256828812
 20
116.0438997867625
 30
0.0
 10
220.8114545281282
 20
116.0501578861845
 30
0.0
 10
220.8520233923204
 20
116.0587508527668
 30
0.0
 10
220.8899534642017
 20
116.0722251156002
 30
0.0
 10
220.9257728996622
 20
116.0886931562527
 30
0.0
 10
220.9592776337613
 20
116.1090441607402
 30
0.0
 10
220.9906970041005
 20
116.1329413329347
 30
0.0
 10
221.0194112866382
 20
116.1605472234872
 30
0.0
 10
221.0450903980799
 20
116.1909145827671
 30
0.0
 10
221.0679612547268
 20
116.2229902645064
 30
0.0
 10
221.0868723805
 20
116.2570479609626
 30
0.0
 10
221.1028116117573
 20
116.29260795951
 30
0.0
 10
221.11457684899
 20
116.3302448925241
 30
0.0
 10
221.1231899522781
 20
116.3694894466355
 30
0.0
 10
221.1288186598601
 20
116.4105191021457
 30
0.0
 10
221.1293332059782
 20
116.4385134133282
 30
0.0
 10
221.1295958118095
 20
116.4528007028516
 30
0.0
  0
SPLINE
  5
162
330
1F
100
AcDbEntity
  8
0
  6
Continuous
 62
     7
370
     0
100
AcDbSpline
210
0.0
220
0.0
230
1.0
 70
     8
 71
     3
 72
    23
 73
    19
 74
     0
 42
0.000000001
 43
0.00000001
 40
0.0
 40
0.0
 40
0.0
 40
0.0
 40
0.0825664818430908
 40
0.1597600173463216
 40
0.2331545001529428
 40
0.3013562791316536
 40
0.3657520143271569
 40
0.426437172317933
 40
0.4841852540351042
 40
0.5395491542935742
 40
0.5931555898196901
 40
0.6470483404201386
 40
0.7014463748055878
 40
0.756999674377037
 40
0.8138396236591051
 40
0.8730579525107801
 40
0.9349625940127609
 40
1.0
 40
1.0
 40
1.0
 40
1.0
 10
220.3393439087647
 20
116.4120533391009
 30
0.0
 10
220.3428555768591
 20
116.3962256675886
 30
0.0
 10
220.3496503941161
 20
116.3656002973548
 30
0.0
 10
220.36272445254
 20
116.3217262725141
 30
0.0
 10
220.3765335292127
 20
116.2810013671975
 30
0.0
 10
220.3936525610064
 20
116.2443364989286
 30
0.0
 10
220.4103570152112
 20
116.2102322269074
 30
0.0
 10
220.4299872785405
 20
116.1800977075783
 30
0.0
 10
220.4509625958909
 20
116.1531466908225
 30
0.0
 10
220.4736707307761
 20
116.1294792522396
 30
0.0
 10
220.4983733534883
 20
116.1090986972949
 30
0.0
 10
220.5247411231247
 20
116.0912646127052
 30
0.0
 10
220.5533316943805
 20
116.0763707505471
 30
0.0
 10
220.5839261704759
 20
116.0645784417479
 30
0.0
 10
220.6162668721861
 20
116.0550324673851
 30
0.0
 10
220.6505295554491
 20
116.048023031588
 30
0.0
 10
220.6868953957043
 20
116.043847423341
 30
0.0
 10
220.7118212272093
 20
116.0434650318748
 30
0.0
 10
220.724591711499
 20
116.0432691176799
 30
0.0
  0
LINE
  5
163
330
1F
100
AcDbEntity
  8
0
  6
Continuous
 62
     7
370
     0
100
AcDbLine
 10
220.0759266077
 20
116.385711609
 30
0.0
 11
220.3393439088
 21
116.4120533391
 31
0.0
  0
SPLINE
  5
164
330
1F
100
AcDbEntity
  8
0
  6
Continuous
 62
     7
370
     0
100
AcDbSpline
210
0.0
220
0.0
230
1.0
 70
     8
 71
     3
 72
    23
 73
    19
 74
     0
 42
0.000000001
 43
0.00000001
 40
0.0
 40
0.0
 40
0.0
 40
0.0
 40
0.0677943994013369
 40
0.1334641369291916
 40
0.1969337335573696
 40
0.258480621611127
 40
0.3197865376803734
 40
0.3804313677830994
 40
0.4409901724489909
 40
0.5028674288973116
 40
0.5648063393097806
 40
0.6255263416925381
 40
0.6856036068581814
 40
0.7460408460006122
 40
0.8073467620698587
 40
0.8697170363588134
 40
0.9337895409055553
 40
1.0
 40
1.0
 40
1.0
 40
1.0
 10
220.7151251522438
 20
115.8061935467664
 30
0.0
 10
220.6935561888167
 20
115.8065998184166
 30
0.0
 10
220.65109422863
 20
115.8073996292509
 30
0.0
 10
220.5889386867161
 20
115.8157322956308
 30
0.0
 10
220.5293904463842
 20
115.8275573059049
 30
0.0
 10
220.4729203815999
 20
115.8457869811956
 30
0.0
 10
220.4188725432344
 20
115.8680177748838
 30
0.0
 10
220.3681623047521
 20
115.8964587217776
 30
0.0
 10
220.3198778581648
 20
115.9291078267145
 30
0.0
 10
220.2749256823765
 20
115.9668978838733
 30
0.0
 10
220.2335554220143
 20
116.0086082282671
 30
0.0
 10
220.1966482012622
 20
116.0536219287206
 30
0.0
 10
220.1649557195081
 20
116.1018390414017
 30
0.0
 10
220.1370125846987
 20
116.1525381460796
 30
0.0
 10
220.1144273048269
 20
116.2066749467667
 30
0.0
 10
220.0968410887931
 20
116.2637846431007
 30
0.0
 10
220.0834313628054
 20
116.323655284775
 30
0.0
 10
220.0784554113642
 20
116.3648010988184
 30
0.0
 10
220.0759266077497
 20
116.3857116089994
 30
0.0
  0
LINE
  5
165
330
1F
100
AcDbEntity
  8
0
  6
Continuous
 62
     7
370
     0
100
AcDbLine
 10
218.2056637705
 20
116.0696108478
 30
0.0
 11
218.2056637705
 21
115.8325352769
 31
0.0
  0
LINE
  5
166
330
1F
100
AcDbEntity
  8
0
  6
Continuous
 62
     7
370
     0
100
AcDbLine
 10
216.9939441859
 20
116.0696108478
 30
0.0
 11
218.2056637705
 21
116.0696108478
 31
0.0
  0
LINE
  5
167
330
1F
100
AcDbEntity
  8
0
  6
Continuous
 62
     7
370
     0
100
AcDbLine
 10
216.9939441859
 20
116.7808375605
 30
0.0
 11
216.9939441859
 21
116.0696108478
 31
0.0
  0
LINE
  5
168
330
1F
100
AcDbEntity
  8
0
  6
Continuous
 62
     7
370
     0
100
AcDbLine
 10
218.07395512
 20
116.7808375605
 30
0.0
 11
216.9939441859
 21
116.7808375605
 31
0.0
  0
LINE
  5
169
330
1F
100
AcDbEntity
  8
0
  6
Continuous
 62
     7
370
     0
100
AcDbLine
 10
218.07395512
 20
117.0179131314
 30
0.0
 11
218.07395512
 21
116.7808375605
 31
0.0
  0
LINE
  5
16A
330
1F
100
AcDbEntity
  8
0
  6
Continuous
 62
     7
370
     0
100
AcDbLine
 10
216.9939441859
 20
117.0179131314
 30
0.0
 11
218.07395512
 21
117.0179131314
 31
0.0
  0
LINE
  5
16B
330
1F
100
AcDbEntity
  8
0
  6
Continuous
 62
     7
370
     0
100
AcDbLine
 10
216.9939441859
 20
117.6501146539
 30
0.0
 11
216.9939441859
 21
117.0179131314
 31
0.0
  0
LINE
  5
16C
330
1F
100
AcDbEntity
  8
0
  6
Continuous
 62
     7
370
     0
100
AcDbLine
 10
218.1529803103
 20
117.6501146539
 30
0.0
 11
216.9939441859
 21
117.6501146539
 31
0.0
  0
LINE
  5
16D
330
1F
100
AcDbEntity
  8
0
  6
Continuous
 62
     7
370
     0
100
AcDbLine
 10
218.1529803103
 20
117.8871902248
 30
0.0
 11
218.1529803103
 21
117.6501146539
 31
0.0
  0
LINE
  5
16E
330
1F
100
AcDbEntity
  8
0
  6
Continuous
 62
     7
370
     0
100
AcDbLine
 10
216.7041851548
 20
117.8871902248
 30
0.0
 11
218.1529803103
 21
117.8871902248
 31
0.0
  0
LINE
  5
16F
330
1F
100
AcDbEntity
  8
0
  6
Continuous
 62
     7
370
     0
100
AcDbLine
 10
216.7041851548
 20
115.8325352769
 30
0.0
 11
216.7041851548
 21
117.8871902248
 31
0.0
  0
LINE
  5
170
330
1F
100
AcDbEntity
  8
0
  6
Continuous
 62
     7
370
     0
100
AcDbLine
 10
218.2056637705
 20
115.8325352769
 30
0.0
 11
216.7041851548
 21
115.8325352769
 31
0.0
  0
LINE
  5
171
330
1F
100
AcDbEntity
  8
0
  6
Continuous
 62
     7
370
     0
100
AcDbLine
 10
214.8223978106
 20
117.8871902248
 30
0.0
 11
214.9919726982
 21
117.8871902248
 31
0.0
  0
SPLINE
  5
172
330
1F
100
AcDbEntity
  8
0
  6
Continuous
 62
     7
370
     0
100
AcDbSpline
210
0.0
220
0.0
230
1.0
 70
     8
 71
     3
 72
    15
 73
    11
 74
     0
 42
0.000000001
 43
0.00000001
 40
0.0
 40
0.0
 40
0.0
 40
0.0
 40
0.1426572507006138
 40
0.2811689939054436
 40
0.416977192367974
 40
0.5508524927475579
 40
0.678364170261812
 40
0.7950324430070947
 40
0.9019981783473519
 40
1.0
 40
1.0
 40
1.0
 40
1.0
 10
214.2544042553192
 20
117.3735264878054
 30
0.0
 10
214.2873206512384
 20
117.3904784976039
 30
0.0
 10
214.3521969185023
 20
117.42388990513
 30
0.0
 10
214.4438530553639
 20
117.4815959989976
 30
0.0
 10
214.5294239186935
 20
117.5441517802647
 30
0.0
 10
214.6074929719254
 20
117.6115433990648
 30
0.0
 10
214.677476903485
 20
117.680429731088
 30
0.0
 10
214.7364533789004
 20
117.7499387459185
 30
0.0
 10
214.7858011406202
 20
117.8175225433326
 30
0.0
 10
214.8105598475234
 20
117.8646547470306
 30
0.0
 10
214.8223978106327
 20
117.8871902247846
 30
0.0
  0
LINE
  5
173
330
1F
100
AcDbEntity
  8
0
  6
Continuous
 62
     7
370
     0
100
AcDbLine
 10
214.2544042553
 20
117.1306886634
 30
0.0
 11
214.2544042553
 21
117.3735264878
 31
0.0
  0
SPLINE
  5
174
330
1F
100
AcDbEntity
  8
0
  6
Continuous
 62
     7
370
     0
100
AcDbSpline
210
0.0
220
0.0
230
1.0
 70
     8
 71
     3
 72
    15
 73
    11
 74
     0
 42
0.000000001
 43
0.00000001
 40
0.0
 40
0.0
 40
0.0
 40
0.0
 40
0.1116703001015866
 40
0.232094480856018
 40
0.3627434591045532
 40
0.5025575097108851
 40
0.6415251033312813
 40
0.7710984952996682
 40
0.8901617573732524
 40
1.0
 40
1.0
 40
1.0
 40
1.0
 10
214.7285553971461
 20
117.4336185595995
 30
0.0
 10
214.7133878056479
 20
117.4189912836995
 30
0.0
 10
214.6818636289293
 20
117.3885900937389
 30
0.0
 10
214.6285753384462
 20
117.3455648184804
 30
0.0
 10
214.5690987960931
 20
117.3019568782311
 30
0.0
 10
214.5042063426176
 20
117.2600229685324
 30
0.0
 10
214.4380594640197
 20
117.2205467147561
 30
0.0
 10
214.3741370220318
 20
117.1850438936063
 30
0.0
 10
214.3135062290479
 20
117.1549998929221
 30
0.0
 10
214.2735683982382
 20
117.1385717144894
 30
0.0
 10
214.2544042553192
 20
117.1306886634323
 30
0.0
  0
LINE
  5
175
330
1F
100
AcDbEntity
  8
0
  6
Continuous
 62
     7
370
     0
100
AcDbLine
 10
214.7285553971
 20
115.8325352769
 30
0.0
 11
214.7285553971
 21
117.4336185596
 31
0.0
  0
LINE
  5
176
330
1F
100
AcDbEntity
  8
0
  6
Continuous
 62
     7
370
     0
100
AcDbLine
 10
214.9919726982
 20
115.8325352769
 30
0.0
 11
214.7285553971
 21
115.8325352769
 31
0.0
  0
LINE
  5
177
330
1F
100
AcDbEntity
  8
0
  6
Continuous
 62
     7
370
     0
100
AcDbLine
 10
214.9919726982
 20
117.8871902248
 30
0.0
 11
214.9919726982
 21
115.8325352769
 31
0.0
  0
SPLINE
  5
178
330
1F
100
AcDbEntity
  8
0
  6
Continuous
 62
     7
370
     0
100
AcDbSpline
210
0.0
220
0.0
230
1.0
 70
     8
 71
     3
 72
    17
 73
    13
 74
     0
 42
0.000000001
 43
0.00000001
 40
0.0
 40
0.0
 40
0.0
 40
0.0
 40
0.1241996726524868
 40
0.2368296581100267
 40
0.3394949853062824
 40
0.4312535100312245
 40
0.5114548721194183
 40
0.581223036623458
 40
0.6404953748643702
 40
0.6883082049320183
 40
0.8503329734146882
 40
1.0
 40
1.0
 40
1.0
 40
1.0
 10
211.6033560743233
 20
116.4770844852889
 30
0.0
 10
211.585359619138
 20
116.4624334523365
 30
0.0
 10
211.5510431492335
 20
116.4344961876806
 30
0.0
 10
211.5022213227586
 20
116.393994786688
 30
0.0
 10
211.4584918157553
 20
116.3568560991677
 30
0.0
 10
211.4188320205879
 20
116.3242915190386
 30
0.0
 10
211.3846863209622
 20
116.294725938155
 30
0.0
 10
211.3548519828221
 20
116.2694541998827
 30
0.0
 10
211.3304129038377
 20
116.2472056505679
 30
0.0
 10
211.2931965131993
 20
116.2134096552345
 30
0.0
 10
211.2460587791422
 20
116.1652368797012
 30
0.0
 10
211.2113256805245
 20
116.118428739507
 30
0.0
 10
211.1946476682173
 20
116.0959525778829
 30
0.0
  0
SPLINE
  5
179
330
1F
100
AcDbEntity
  8
0
  6
Continuous
 62
     7
370
     0
100
AcDbSpline
210
0.0
220
0.0
230
1.0
 70
     8
 71
     3
 72
    23
 73
    19
 74
     0
 42
0.000000001
 43
0.00000001
 40
0.0
 40
0.0
 40
0.0
 40
0.0
 40
0.0579448754623256
 40
0.1160176254256827
 40
0.1748257843638405
 40
0.2346830900793709
 40
0.2968270303289143
 40
0.364061335963788
 40
0.436192424049739
 40
0.5142601195414407
 40
0.5569758971654882
 40
0.6048559283836539
 40
0.6576752010734875
 40
0.7157505846619325
 40
0.7788397991664557
 40
0.8475011894738632
 40
0.9212282309463236
 40
1.0
 40
1.0
 40
1.0
 40
1.0
 10
212.173407577301
 20
117.3200198485368
 30
0.0
 10
212.172841263802
 20
117.2996873935833
 30
0.0
 10
212.1717073870463
 20
117.2589776134007
 30
0.0
 10
212.16285732794
 20
117.1981284979698
 30
0.0
 10
212.1477147779966
 20
117.1379397308029
 30
0.0
 10
212.1276397982873
 20
117.0776787786037
 30
0.0
 10
212.1002131977784
 20
117.0171064681752
 30
0.0
 10
212.0655643452789
 20
116.9553872029198
 30
0.0
 10
212.0225786577213
 20
116.8922929971458
 30
0.0
 10
211.9812384782874
 20
116.8386559124606
 30
0.0
 10
211.9427574807445
 20
116.7936945097325
 30
0.0
 10
211.9086477130984
 20
116.756688648334
 30
0.0
 10
211.8691846860195
 20
116.7173723952235
 30
0.0
 10
211.8258488054217
 20
116.674384137657
 30
0.0
 10
211.776872625699
 20
116.6292496187719
 30
0.0
 10
211.7236633464277
 20
116.5806172592581
 30
0.0
 10
211.665056191288
 20
116.5297668778606
 30
0.0
 10
211.6243714035232
 20
116.4950283381923
 30
0.0
 10
211.6033560743233
 20
116.4770844852889
 30
0.0
  0
SPLINE
  5
17A
330
1F
100
AcDbEntity
  8
0
  6
Continuous
 62
     7
370
     0
100
AcDbSpline
210
0.0
220
0.0
230
1.0
 70
     8
 71
     3
 72
    23
 73
    19
 74
     0
 42
0.000000001
 43
0.00000001
 40
0.0
 40
0.0
 40
0.0
 40
0.0
 40
0.074711890304501
 40
0.1455392023749085
 40
0.2133390572509726
 40
0.2786150735384705
 40
0.3420941969414981
 40
0.4038900759591955
 40
0.4650633525655206
 40
0.526576736383486
 40
0.5873283340287675
 40
0.6463804557031434
 40
0.7043453083753259
 40
0.7616719489990784
 40
0.8194178590468649
 40
0.8780393997816817
 40
0.9377955090070548
 40
1.0
 40
1.0
 40
1.0
 40
1.0
 10
211.5412060548651
 20
117.8871902247846
 30
0.0
 10
211.5649651588933
 20
117.886783377073
 30
0.0
 10
211.6112480334841
 20
117.8859908353345
 30
0.0
 10
211.6786896209797
 20
117.8778815420676
 30
0.0
 10
211.7423226227069
 20
117.8652513916989
 30
0.0
 10
211.8023803155105
 20
117.8476488289645
 30
0.0
 10
211.8585078701921
 20
117.8245666201382
 30
0.0
 10
211.9107484617729
 20
117.7963653729697
 30
0.0
 10
211.9593429607649
 20
117.7633201826286
 30
0.0
 10
212.0034794527211
 20
117.7250343630107
 30
0.0
 10
212.0432784813283
 20
117.6832389775231
 30
0.0
 10
212.0781564613673
 20
117.6386342912655
 30
0.0
 10
212.1073161316179
 20
117.5914108562921
 30
0.0
 10
212.1321437804762
 20
117.5422123607564
 30
0.0
 10
212.1505593639389
 20
117.4899992724207
 30
0.0
 10
212.163509541549
 20
117.4354814382252
 30
0.0
 10
212.1723095628412
 20
117.3786122710649
 30
0.0
 10
212.1730367066321
 20
117.3398103082566
 30
0.0
 10
212.173407577301
 20
117.3200198485368
 30
0.0
  0
SPLINE
  5
17B
330
1F
100
AcDbEntity
  8
0
  6
Continuous
 62
     7
370
     0
100
AcDbSpline
210
0.0
220
0.0
230
1.0
 70
     8
 71
     3
 72
    23
 73
    19
 74
     0
 42
0.000000001
 43
0.00000001
 40
0.0
 40
0.0
 40
0.0
 40
0.0
 40
0.0706752902033302
 40
0.1374926938441251
 40
0.2014728253723049
 40
0.2628693217722904
 40
0.322550086526156
 40
0.3807372513385547
 40
0.4382197368560123
 40
0.4954874370602861
 40
0.5534836796953476
 40
0.6113462062294291
 40
0.6706437388141554
 40
0.7315869484227132
 40
0.7941831937999383
 40
0.8594451119347494
 40
0.92820763539981
 40
1.0
 40
1.0
 40
1.0
 40
1.0
 10
210.8826628023277
 20
117.3076721625517
 30
0.0
 10
210.885357935531
 20
117.3306296239832
 30
0.0
 10
210.8906010851994
 20
117.3752913891766
 30
0.0
 10
210.9036610557228
 20
117.439976433326
 30
0.0
 10
210.9219960724537
 20
117.5001520661517
 30
0.0
 10
210.9439354674085
 20
117.5566572624287
 30
0.0
 10
210.9714385661175
 20
117.6085301335528
 30
0.0
 10
211.0025284518336
 20
117.6568436116464
 30
0.0
 10
211.0391975377008
 20
117.7000653957615
 30
0.0
 10
211.0797071487798
 20
117.7395578984894
 30
0.0
 10
211.1245011122951
 20
117.7743611849532
 30
0.0
 10
211.1731586582553
 20
117.8047666875962
 30
0.0
 10
211.2256575291465
 20
117.830199013267
 30
0.0
 10
211.2817053246811
 20
117.8512559186029
 30
0.0
 10
211.3414307169053
 20
117.8672323226368
 30
0.0
 10
211.4047492139817
 20
117.8786889117939
 30
0.0
 10
211.4717626433985
 20
117.8857508843354
 30
0.0
 10
211.5177279704891
 20
117.8867035989723
 30
0.0
 10
211.5412060548651
 20
117.8871902247846
 30
0.0
  0
LINE
  5
17C
330
1F
100
AcDbEntity
  8
0
  6
Continuous
 62
     7
370
     0
100
AcDbLine
 10
211.1460801033
 20
117.2813304325
 30
0.0
 11
210.8826628023
 21
117.3076721626
 31
0.0
  0
SPLINE
  5
17D
330
1F
100
AcDbEntity
  8
0
  6
Continuous
 62
     7
370
     0
100
AcDbSpline
210
0.0
220
0.0
230
1.0
 70
     8
 71
     3
 72
    23
 73
    19
 74
     0
 42
0.000000001
 43
0.00000001
 40
0.0
 40
0.0
 40
0.0
 40
0.0
 40
0.0706964833433767
 40
0.1383582132030687
 40
0.2033698682591703
 40
0.2657002133402297
 40
0.3272558681973768
 40
0.3865123433292944
 40
0.4458582974819498
 40
0.5051731438069389
 40
0.5637797628070206
 40
0.6223430642934396
 40
0.6808235796100197
 40
0.7397951568104398
 40
0.8008011629883834
 40
0.8642394615769078
 40
0.9306310981734531
 40
0.9999999999999999
 40
0.9999999999999999
 40
0.9999999999999999
 40
0.9999999999999999
 10
211.5354438014054
 20
117.6501146538712
 30
0.0
 10
211.5211618815474
 20
117.6497866586398
 30
0.0
 10
211.4932111148443
 20
117.6491447478684
 30
0.0
 10
211.4523545791211
 20
117.64447216675
 30
0.0
 10
211.4135683805233
 20
117.6373330943754
 30
0.0
 10
211.3769450955726
 20
117.6264180636535
 30
0.0
 10
211.3425292994959
 20
117.6126678053184
 30
0.0
 10
211.3104611602297
 20
117.5953598921071
 30
0.0
 10
211.2802271333904
 20
117.5758223885694
 30
0.0
 10
211.2527794047714
 20
117.5526914582092
 30
0.0
 10
211.2279587837677
 20
117.5270439747934
 30
0.0
 10
211.2059238506079
 20
117.4991216234096
 30
0.0
 10
211.187869533669
 20
117.4683855610574
 30
0.0
 10
211.1729595345802
 20
117.4355116045618
 30
0.0
 10
211.1609706470452
 20
117.4003964107343
 30
0.0
 10
211.1522671224045
 20
117.3627715309733
 30
0.0
 10
211.1475219024438
 20
117.3227456017711
 30
0.0
 10
211.1465676785058
 20
117.2953358565924
 30
0.0
 10
211.1460801033427
 20
117.2813304324502
 30
0.0
  0
SPLINE
  5
17E
330
1F
100
AcDbEntity
  8
0
  6
Continuous
 62
     7
370
     0
100
AcDbSpline
210
0.0
220
0.0
230
1.0
 70
     8
 71
     3
 72
    23
 73
    19
 74
     0
 42
0.000000001
 43
0.00000001
 40
0.0
 40
0.0
 40
0.0
 40
0.0
 40
0.0617621567680711
 40
0.1211739926536296
 40
0.1794214068253157
 40
0.2368434346502756
 40
0.2943217954133984
 40
0.3531909627945249
 40
0.4127207064163252
 40
0.4745221507037179
 40
0.5370567441421366
 40
0.5995913375805559
 40
0.6623669793543062
 40
0.7252456446794925
 40
0.7903164461250802
 40
0.8577243009540932
 40
0.9272319523784931
 40
1.0
 40
1.0
 40
1.0
 40
1.0
 10
211.909990276286
 20
117.3175503113398
 30
0.0
 10
211.9097042682471
 20
117.3290976059822
 30
0.0
 10
211.9091431360293
 20
117.3517527700728
 30
0.0
 10
211.9038191413136
 20
117.384908461083
 30
0.0
 10
211.8964077137315
 20
117.4168381836749
 30
0.0
 10
211.8844256910583
 20
117.4469671330857
 30
0.0
 10
211.8701634769723
 20
117.476187544358
 30
0.0
 10
211.8518687449826
 20
117.5035760898764
 30
0.0
 10
211.8307055009395
 20
117.5298153620284
 30
0.0
 10
211.80647537765
 20
117.5542135549494
 30
0.0
 10
211.780010408748
 20
117.5771029551156
 30
0.0
 10
211.7504395774523
 20
117.5961296070769
 30
0.0
 10
211.7197050878446
 20
117.6132592630155
 30
0.0
 10
211.6867466258665
 20
117.6270324889535
 30
0.0
 10
211.6516177473044
 20
117.6371464144668
 30
0.0
 10
211.6145741739087
 20
117.6444865197165
 30
0.0
 10
211.575621783783
 20
117.6491405398016
 30
0.0
 10
211.5490395156743
 20
117.6497850261554
 30
0.0
 10
211.5354438014054
 20
117.6501146538712
 30
0.0
  0
SPLINE
  5
17F
330
1F
100
AcDbEntity
  8
0
  6
Continuous
 62
     7
370
     0
100
AcDbSpline
210
0.0
220
0.0
230
1.0
 70
     8
 71
     3
 72
    23
 73
    19
 74
     0
 42
0.000000001
 43
0.00000001
 40
0.0
 40
0.0
 40
0.0
 40
0.0
 40
0.1114096600426607
 40
0.2145263672558013
 40
0.3094172254458341
 40
0.3960871907990314
 40
0.4742842164262461
 40
0.5443738816396977
 40
0.6064195628105363
 40
0.6605816023749734
 40
0.7097938180647575
 40
0.7564506485918283
 40
0.8007673253039321
 40
0.8431682879413347
 40
0.8842948685500486
 40
0.9238845020552846
 40
0.962358710139216
 40
1.0
 40
1.0
 40
1.0
 40
1.0
 10
211.3576371232203
 20
116.6009729346725
 30
0.0
 10
211.3840745859647
 20
116.6232249178815
 30
0.0
 10
211.434981597438
 20
116.6660725230195
 30
0.0
 10
211.506870274998
 20
116.7296543979022
 30
0.0
 10
211.572528880362
 20
116.7886937701272
 30
0.0
 10
211.6309118747315
 20
116.8442254254212
 30
0.0
 10
211.6824967697445
 20
116.8957107426282
 30
0.0
 10
211.727404687638
 20
116.9430330750105
 30
0.0
 10
211.7660220299992
 20
116.9860447391916
 30
0.0
 10
211.797877354773
 20
117.0263025751563
 30
0.0
 10
211.8247546697384
 20
117.0643171701001
 30
0.0
 10
211.8475308203042
 20
117.1013980599165
 30
0.0
 10
211.866511719847
 20
117.1381929665415
 30
0.0
 10
211.8823202694732
 20
117.1745854607912
 30
0.0
 10
211.8948234890037
 20
117.2107311732244
 30
0.0
 10
211.9033462117264
 20
117.2467354127994
 30
0.0
 10
211.9091260274245
 20
117.2822409299457
 30
0.0
 10
211.9097043026528
 20
117.3058666950431
 30
0.0
 10
211.909990276286
 20
117.3175503113398
 30
0.0
  0
SPLINE
  5
180
330
1F
100
AcDbEntity
  8
0
  6
Continuous
 62
     7
370
     0
100
AcDbSpline
210
0.0
220
0.0
230
1.0
 70
     8
 71
     3
 72
    19
 73
    15
 74
     0
 42
0.000000001
 43
0.00000001
 40
0.0
 40
0.0
 40
0.0
 40
0.0
 40
0.1003881431397112
 40
0.2044067930373087
 40
0.3106860830942075
 40
0.4221572938827998
 40
0.4806854607703733
 40
0.5432381544526687
 40
0.6094995045645643
 40
0.679554608774224
 40
0.753841222051175
 40
0.8316406764893859
 40
0.9138127068095903
 40
1.0
 40
1.0
 40
1.0
 40
1.0
 10
210.8838975709262
 20
116.0152810294471
 30
0.0
 10
210.8926146002368
 20
116.0393530670169
 30
0.0
 10
210.9103639075797
 20
116.0883677000964
 30
0.0
 10
210.9463241901779
 20
116.1590889707559
 30
0.0
 10
210.9886219804867
 20
116.2293825331639
 30
0.0
 10
211.0298048332815
 20
116.2866114173873
 30
0.0
 10
211.0675194334347
 20
116.3323332949765
 30
0.0
 10
211.0991480416924
 20
116.368105372716
 30
0.0
 10
211.1341983376116
 20
116.4047223097591
 30
0.0
 10
211.1726422514907
 20
116.4421774174436
 30
0.0
 10
211.2141097837062
 20
116.4807132773295
 30
0.0
 10
211.258657516505
 20
116.5204584050525
 30
0.0
 10
211.3068114886305
 20
116.5606721066462
 30
0.0
 10
211.3404280008727
 20
116.5873274212261
 30
0.0
 10
211.3576371232203
 20
116.6009729346725
 30
0.0
  0
SPLINE
  5
181
330
1F
100
AcDbEntity
  8
0
  6
Continuous
 62
     7
370
     0
100
AcDbSpline
210
0.0
220
0.0
230
1.0
 70
     8
 71
     3
 72
    11
 73
     7
 74
     0
 42
0.000000001
 43
0.00000001
 40
0.0
 40
0.0
 40
0.0
 40
0.0
 40
0.2526433275832377
 40
0.5044398525799888
 40
0.7504068042814569
 40
1.0
 40
1.0
 40
1.0
 40
1.0
 10
210.8563210722262
 20
115.8325352768679
 30
0.0
 10
210.8562935687221
 20
115.8481909076159
 30
0.0
 10
210.8562386538993
 20
115.8794496950222
 30
0.0
 10
210.861528144253
 20
115.9256794586861
 30
0.0
 10
210.8698125451589
 20
115.9712959456674
 30
0.0
 10
210.8791797143596
 20
116.0005479845972
 30
0.0
 10
210.8838975709262
 20
116.0152810294471
 30
0.0
  0
LINE
  5
182
330
1F
100
AcDbEntity
  8
0
  6
Continuous
 62
     7
370
     0
100
AcDbLine
 10
212.1997493074
 20
115.8325352769
 30
0.0
 11
210.8563210722
 21
115.8325352769
 31
0.0
  0
LINE
  5
183
330
1F
100
AcDbEntity
  8
0
  6
Continuous
 62
     7
370
     0
100
AcDbLine
 10
212.1997493074
 20
116.0959525779
 30
0.0
 11
212.1997493074
 21
115.8325352769
 31
0.0
  0
LINE
  5
184
330
1F
100
AcDbEntity
  8
0
  6
Continuous
 62
     7
370
     0
100
AcDbLine
 10
211.1946476682
 20
116.0959525779
 30
0.0
 11
212.1997493074
 21
116.0959525779
 31
0.0
  0
SPLINE
  5
185
330
1F
100
AcDbEntity
  8
0
  6
Continuous
 62
     7
370
     0
100
AcDbSpline
210
0.0
220
0.0
230
1.0
 70
     8
 71
     3
 72
    23
 73
    19
 74
     0
 42
0.000000001
 43
0.00000001
 40
0.0
 40
0.0
 40
0.0
 40
0.0
 40
0.064254575424703
 40
0.1273603868320975
 40
0.1894718420926418
 40
0.2517207629332008
 40
0.312027284089002
 40
0.368674657115051
 40
0.4226814918055484
 40
0.4740604252251506
 40
0.5257737722739171
 40
0.5796221048577138
 40
0.6373752855308658
 40
0.6984003818208012
 40
0.7643573310122578
 40
0.8363147679791494
 40
0.9146777942540467
 40
1.0
 40
1.0
 40
1.0
 40
1.0
 10
208.7489826641065
 20
116.4211083088232
 30
0.0
 10
208.7482728963464
 20
116.3977430359493
 30
0.0
 10
208.746866050283
 20
116.3514302220836
 30
0.0
 10
208.7355675080175
 20
116.283265548436
 30
0.0
 10
208.7164735706515
 20
116.2176968773701
 30
0.0
 10
208.6901923897265
 20
116.1557843750582
 30
0.0
 10
208.6588773047516
 20
116.0985371515429
 30
0.0
 10
208.623286613518
 20
116.0474541257757
 30
0.0
 10
208.5843279522965
 20
116.0030609385699
 30
0.0
 10
208.5409042852324
 20
115.9657183332178
 30
0.0
 10
208.4932957136081
 20
115.9340253891736
 30
0.0
 10
208.4401575699198
 20
115.9073378576434
 30
0.0
 10
208.3819007086843
 20
115.8838020123741
 30
0.0
 10
208.3173410916888
 20
115.8650007103544
 30
0.0
 10
208.2465081063219
 20
115.8500649805367
 30
0.0
 10
208.1684404840468
 20
115.8403612125541
 30
0.0
 10
208.0830182857187
 20
115.8334146155348
 30
0.0
 10
208.0235035983947
 20
115.8328365815813
 30
0.0
 10
207.9924811027542
 20
115.8325352768679
 30
0.0
  0
SPLINE
  5
186
330
1F
100
AcDbEntity
  8
0
  6
Continuous
 62
     7
370
     0
100
AcDbSpline
210
0.0
220
0.0
230
1.0
 70
     8
 71
     3
 72
    23
 73
    19
 74
     0
 42
0.000000001
 43
0.00000001
 40
0.0
 40
0.0
 40
0.0
 40
0.0
 40
0.0704642259291737
 40
0.1379569656042678
 40
0.2035785636142838
 40
0.2676916802449432
 40
0.3301858648593747
 40
0.3915337640898193
 40
0.4526637734870349
 40
0.5131537880892134
 40
0.5734535531000284
 40
0.6329675593891927
 40
0.6923319074206209
 40
0.7514741915716305
 40
0.8121874455294297
 40
0.8729617178483159
 40
0.935420306759491
 40
1.0
 40
1.0
 40
1.0
 40
1.0
 10
208.361676913708
 20
116.9125462110293
 30
0.0
 10
208.3768350984064
 20
116.9078010491666
 30
0.0
 10
208.4065122450364
 20
116.8985108295802
 30
0.0
 10
208.4491762263156
 20
116.8815110307792
 30
0.0
 10
208.4892246749097
 20
116.8621543269189
 30
0.0
 10
208.5267447652356
 20
116.8404089094609
 30
0.0
 10
208.5614829787885
 20
116.8160734051282
 30
0.0
 10
208.5933412972581
 20
116.7891098762019
 30
0.0
 10
208.6225406124598
 20
116.7599355762659
 30
0.0
 10
208.649028756954
 20
116.7285682516949
 30
0.0
 10
208.6722958129199
 20
116.6952097579164
 30
0.0
 10
208.6931634554859
 20
116.6605891798603
 30
0.0
 10
208.7103950469727
 20
116.6242896094742
 30
0.0
 10
208.7245191550137
 20
116.586405289526
 30
0.0
 10
208.7355380590683
 20
116.5471703120575
 30
0.0
 10
208.7434508316107
 20
116.5064337723298
 30
0.0
 10
208.7479609099395
 20
116.4642904926183
 30
0.0
 10
208.7486383093009
 20
116.4356617043344
 30
0.0
 10
208.7489826641065
 20
116.4211083088232
 30
0.0
  0
SPLINE
  5
187
330
1F
100
AcDbEntity
  8
0
  6
Continuous
 62
     7
370
     0
100
AcDbSpline
210
0.0
220
0.0
230
1.0
 70
     8
 71
     3
 72
    15
 73
    11
 74
     0
 42
0.000000001
 43
0.00000001
 40
0.0
 40
0.0
 40
0.0
 40
0.0
 40
0.1158426906010182
 40
0.2305685484828842
 40
0.3473546045205446
 40
0.4682527467344629
 40
0.5923025714800847
 40
0.7199701656206978
 40
0.8556003811349115
 40
1.0
 40
1.0
 40
1.0
 40
1.0
 10
208.6699574738021
 20
117.354593369295
 30
0.0
 10
208.6689987771036
 20
117.3325599896425
 30
0.0
 10
208.6670906264465
 20
117.2887056528839
 30
0.0
 10
208.6519038820878
 20
117.2241055475151
 30
0.0
 10
208.6279345532549
 20
117.161379247434
 30
0.0
 10
208.5940412437002
 20
117.1012893155789
 30
0.0
 10
208.5507213456848
 20
117.0449350835863
 30
0.0
 10
208.4970170427142
 20
116.9942232581618
 30
0.0
 10
208.4337000607368
 20
116.9490451580694
 30
0.0
 10
208.3861806678676
 20
116.9249639025945
 30
0.0
 10
208.361676913708
 20
116.9125462110293
 30
0.0
  0
SPLINE
  5
188
330
1F
100
AcDbEntity
  8
0
  6
Continuous
 62
     7
370
     0
100
AcDbSpline
210
0.0
220
0.0
230
1.0
 70
     8
 71
     3
 72
    23
 73
    19
 74
     0
 42
0.000000001
 43
0.00000001
 40
0.0
 40
0.0
 40
0.0
 40
0.0
 40
0.0587320371008649
 40
0.1146029008469814
 40
0.1676568100446127
 40
0.2179667070908439
 40
0.2657752056293755
 40
0.3111706510536967
 40
0.3537918046646701
 40
0.3947449080003073
 40
0.472805951082463
 40
0.5491923665616076
 40
0.6247801075795552
 40
0.7026247640242257
 40
0.7797414321940389
 40
0.8540634639886253
 40
0.9271552664103497
 40
0.9999999999999999
 40
0.9999999999999999
 40
0.9999999999999999
 40
0.9999999999999999
 10
207.9904231550901
 20
117.8871902247846
 30
0.0
 10
208.0094995515594
 20
117.8871170431268
 30
0.0
 10
208.0467230241479
 20
117.8869742449081
 30
0.0
 10
208.1010769912651
 20
117.8834030093159
 30
0.0
 10
208.1525542568921
 20
117.878518299647
 30
0.0
 10
208.2012656396342
 20
117.8722217590859
 30
0.0
 10
208.2470003658599
 20
117.8630856065926
 30
0.0
 10
208.2897158160054
 20
117.8520177685723
 30
0.0
 10
208.329634280327
 20
117.8392513749906
 30
0.0
 10
208.378428519948
 20
117.8198040224577
 30
0.0
 10
208.4346585315662
 20
117.7898704131411
 30
0.0
 10
208.4948862158331
 20
117.7452047446243
 30
0.0
 10
208.5472866411428
 20
117.6915772987829
 30
0.0
 10
208.5904044851365
 20
117.6300903954468
 30
0.0
 10
208.625928938266
 20
117.5644107864671
 30
0.0
 10
208.6511153596541
 20
117.4957897307576
 30
0.0
 10
208.6672184030073
 20
117.4257212759154
 30
0.0
 10
208.6690454812778
 20
117.3782758966795
 30
0.0
 10
208.6699574738021
 20
117.354593369295
 30
0.0
  0
LINE
  5
189
330
1F
100
AcDbEntity
  8
0
  6
Continuous
 62
     7
370
     0
100
AcDbLine
 10
207.2211623182
 20
117.8871902248
 30
0.0
 11
207.9904231551
 21
117.8871902248
 31
0.0
  0
LINE
  5
18A
330
1F
100
AcDbEntity
  8
0
  6
Continuous
 62
     7
370
     0
100
AcDbLine
 10
207.2211623182
 20
115.8325352769
 30
0.0
 11
207.2211623182
 21
117.8871902248
 31
0.0
  0
LINE
  5
18B
330
1F
100
AcDbEntity
  8
0
  6
Continuous
 62
     7
370
     0
100
AcDbLine
 10
207.9924811028
 20
115.8325352769
 30
0.0
 11
207.2211623182
 21
115.8325352769
 31
0.0
  0
SPLINE
  5
18C
330
1F
100
AcDbEntity
  8
0
  6
Continuous
 62
     7
370
     0
100
AcDbSpline
210
0.0
220
0.0
230
1.0
 70
     8
 71
     3
 72
    23
 73
    19
 74
     0
 42
0.000000001
 43
0.00000001
 40
0.0
 40
0.0
 40
0.0
 40
0.0
 40
0.0642545754247029
 40
0.1273603868320973
 40
0.1894718420926419
 40
0.2517207629332008
 40
0.3120272840890018
 40
0.3686746571150512
 40
0.4226814918055486
 40
0.4740604252251508
 40
0.5257737722739173
 40
0.5796221048577139
 40
0.6373752855308659
 40
0.6984003818208013
 40
0.7643573310122579
 40
0.8363147679791494
 40
0.9146777942540467
 40
1.0
 40
1.0
 40
1.0
 40
1.0
 10
219.90470536209
 20
119.5821159210027
 30
0.0
 10
219.9039955943298
 20
119.5587506481288
 30
0.0
 10
219.9025887482664
 20
119.5124378342631
 30
0.0
 10
219.8912902060009
 20
119.4442731606155
 30
0.0
 10
219.872196268635
 20
119.3787044895496
 30
0.0
 10
219.84591508771
 20
119.3167919872377
 30
0.0
 10
219.8146000027351
 20
119.2595447637224
 30
0.0
 10
219.7790093115014
 20
119.2084617379551
 30
0.0
 10
219.7400506502799
 20
119.1640685507494
 30
0.0
 10
219.6966269832158
 20
119.1267259453973
 30
0.0
 10
219.6490184115915
 20
119.0950330013531
 30
0.0
 10
219.5958802679033
 20
119.0683454698229
 30
0.0
 10
219.5376234066677
 20
119.0448096245537
 30
0.0
 10
219.4730637896722
 20
119.0260083225339
 30
0.0
 10
219.4022308043053
 20
119.0110725927162
 30
0.0
 10
219.3241631820302
 20
119.0013688247336
 30
0.0
 10
219.2387409837022
 20
118.9944222277142
 30
0.0
 10
219.1792262963781
 20
118.9938441937608
 30
0.0
 10
219.1482038007377
 20
118.9935428890474
 30
0.0
  0
SPLINE
  5
18D
330
1F
100
AcDbEntity
  8
0
  6
Continuous
 62
     7
370
     0
100
AcDbSpline
210
0.0
220
0.0
230
1.0
 70
     8
 71
     3
 72
    23
 73
    19
 74
     0
 42
0.000000001
 43
0.00000001
 40
0.0
 40
0.0
 40
0.0
 40
0.0
 40
0.0704642259291749
 40
0.1379569656042689
 40
0.2035785636142837
 40
0.2676916802449441
 40
0.3301858648593755
 40
0.39153376408982
 40
0.4526637734870355
 40
0.513153788089214
 40
0.573453553100029
 40
0.6329675593891934
 40
0.6923319074206218
 40
0.7514741915716301
 40
0.8121874455294298
 40
0.8729617178483161
 40
0.9354203067594908
 40
0.9999999999999999
 40
0.9999999999999999
 40
0.9999999999999999
 40
0.9999999999999999
 10
219.5173996116914
 20
120.0735538232088
 30
0.0
 10
219.5325577963899
 20
120.0688086613461
 30
0.0
 10
219.5622349430198
 20
120.0595184417597
 30
0.0
 10
219.604898924299
 20
120.0425186429586
 30
0.0
 10
219.6449473728931
 20
120.0231619390984
 30
0.0
 10
219.682467463219
 20
120.0014165216403
 30
0.0
 10
219.7172056767719
 20
119.9770810173076
 30
0.0
 10
219.7490639952416
 20
119.9501174883813
 30
0.0
 10
219.7782633104432
 20
119.9209431884454
 30
0.0
 10
219.8047514549374
 20
119.8895758638744
 30
0.0
 10
219.8280185109033
 20
119.8562173700959
 30
0.0
 10
219.8488861534694
 20
119.8215967920397
 30
0.0
 10
219.8661177449561
 20
119.7852972216537
 30
0.0
 10
219.8802418529971
 20
119.7474129017055
 30
0.0
 10
219.8912607570517
 20
119.708177924237
 30
0.0
 10
219.8991735295942
 20
119.6674413845093
 30
0.0
 10
219.9036836079229
 20
119.6252981047978
 30
0.0
 10
219.9043610072843
 20
119.5966693165139
 30
0.0
 10
219.90470536209
 20
119.5821159210027
 30
0.0
  0
SPLINE
  5
18E
330
1F
100
AcDbEntity
  8
0
  6
Continuous
 62
     7
370
     0
100
AcDbSpline
210
0.0
220
0.0
230
1.0
 70
     8
 71
     3
 72
    15
 73
    11
 74
     0
 42
0.000000001
 43
0.00000001
 40
0.0
 40
0.0
 40
0.0
 40
0.0
 40
0.1158426906010181
 40
0.2305685484828844
 40
0.3473546045205441
 40
0.4682527467344622
 40
0.5923025714800838
 40
0.7199701656206967
 40
0.8556003811349091
 40
1.0
 40
1.0
 40
1.0
 40
1.0
 10
219.8256801717855
 20
120.5156009814745
 30
0.0
 10
219.8247214750871
 20
120.493567601822
 30
0.0
 10
219.8228133244299
 20
120.4497132650634
 30
0.0
 10
219.8076265800713
 20
120.3851131596945
 30
0.0
 10
219.7836572512383
 20
120.3223868596135
 30
0.0
 10
219.7497639416837
 20
120.2622969277584
 30
0.0
 10
219.7064440436682
 20
120.2059426957658
 30
0.0
 10
219.6527397406976
 20
120.1552308703413
 30
0.0
 10
219.5894227587202
 20
120.1100527702489
 30
0.0
 10
219.5419033658511
 20
120.0859715147739
 30
0.0
 10
219.5173996116914
 20
120.0735538232088
 30
0.0
  0
SPLINE
  5
18F
330
1F
100
AcDbEntity
  8
0
  6
Continuous
 62
     7
370
     0
100
AcDbSpline
210
0.0
220
0.0
230
1.0
 70
     8
 71
     3
 72
    23
 73
    19
 74
     0
 42
0.000000001
 43
0.00000001
 40
0.0
 40
0.0
 40
0.0
 40
0.0
 40
0.0587320371008649
 40
0.1146029008469823
 40
0.1676568100446118
 40
0.2179667070908439
 40
0.2657752056293754
 40
0.3111706510536957
 40
0.3537918046646691
 40
0.3947449080003072
 40
0.4728059510824636
 40
0.5491923665616075
 40
0.6247801075795553
 40
0.7026247640242256
 40
0.7797414321940387
 40
0.8540634639886254
 40
0.9271552664103496
 40
0.9999999999999999
 40
0.9999999999999999
 40
0.9999999999999999
 40
0.9999999999999999
 10
219.1461458530735
 20
121.0481978369641
 30
0.0
 10
219.1652222495428
 20
121.0481246553063
 30
0.0
 10
219.2024457221313
 20
121.0479818570875
 30
0.0
 10
219.2567996892485
 20
121.0444106214953
 30
0.0
 10
219.3082769548756
 20
121.0395259118265
 30
0.0
 10
219.3569883376176
 20
121.0332293712654
 30
0.0
 10
219.4027230638433
 20
121.0240932187721
 30
0.0
 10
219.4454385139888
 20
121.0130253807518
 30
0.0
 10
219.4853569783104
 20
121.0002589871701
 30
0.0
 10
219.5341512179314
 20
120.9808116346372
 30
0.0
 10
219.5903812295496
 20
120.9508780253206
 30
0.0
 10
219.6506089138166
 20
120.9062123568037
 30
0.0
 10
219.7030093391263
 20
120.8525849109624
 30
0.0
 10
219.7461271831199
 20
120.7910980076262
 30
0.0
 10
219.7816516362495
 20
120.7254183986466
 30
0.0
 10
219.8068380576376
 20
120.6567973429371
 30
0.0
 10
219.8229411009908
 20
120.5867288880948
 30
0.0
 10
219.8247681792612
 20
120.539283508859
 30
0.0
 10
219.8256801717855
 20
120.5156009814745
 30
0.0
  0
LINE
  5
190
330
1F
100
AcDbEntity
  8
0
  6
Continuous
 62
     7
370
     0
100
AcDbLine
 10
218.3768850162
 20
121.048197837
 30
0.0
 11
219.1461458531
 21
121.048197837
 31
0.0
  0
LINE
  5
191
330
1F
100
AcDbEntity
  8
0
  6
Continuous
 62
     7
370
     0
100
AcDbLine
 10
218.3768850162
 20
118.993542889
 30
0.0
 11
218.3768850162
 21
121.048197837
 31
0.0
  0
LINE
  5
192
330
1F
100
AcDbEntity
  8
0
  6
Continuous
 62
     7
370
     0
100
AcDbLine
 10
219.1482038007
 20
118.993542889
 30
0.0
 11
218.3768850162
 21
118.993542889
 31
0.0
  0
LINE
  5
193
330
1F
100
AcDbEntity
  8
0
  6
Continuous
 62
     7
370
     0
100
AcDbLine
 10
216.1641796877
 20
119.23061846
 30
0.0
 11
216.1641796877
 21
118.993542889
 31
0.0
  0
LINE
  5
194
330
1F
100
AcDbEntity
  8
0
  6
Continuous
 62
     7
370
     0
100
AcDbLine
 10
215.1895356739
 20
119.23061846
 30
0.0
 11
216.1641796877
 21
119.23061846
 31
0.0
  0
LINE
  5
195
330
1F
100
AcDbEntity
  8
0
  6
Continuous
 62
     7
370
     0
100
AcDbLine
 10
215.1895356739
 20
121.048197837
 30
0.0
 11
215.1895356739
 21
119.23061846
 31
0.0
  0
LINE
  5
196
330
1F
100
AcDbEntity
  8
0
  6
Continuous
 62
     7
370
     0
100
AcDbLine
 10
214.8997766428
 20
121.048197837
 30
0.0
 11
215.1895356739
 21
121.048197837
 31
0.0
  0
LINE
  5
197
330
1F
100
AcDbEntity
  8
0
  6
Continuous
 62
     7
370
     0
100
AcDbLine
 10
214.8997766428
 20
118.993542889
 30
0.0
 11
214.8997766428
 21
121.048197837
 31
0.0
  0
LINE
  5
198
330
1F
100
AcDbEntity
  8
0
  6
Continuous
 62
     7
370
     0
100
AcDbLine
 10
216.1641796877
 20
118.993542889
 30
0.0
 11
214.8997766428
 21
118.993542889
 31
0.0
  0
SPLINE
  5
199
330
1F
100
AcDbEntity
  8
0
  6
Continuous
 62
     7
370
     0
100
AcDbSpline
210
0.0
220
0.0
230
1.0
 70
     8
 71
     3
 72
    31
 73
    27
 74
     0
 42
0.000000001
 43
0.00000001
 40
0.0
 40
0.0
 40
0.0
 40
0.0
 40
0.0475595569054264
 40
0.0939621052432108
 40
0.1391115332408222
 40
0.1836263101269047
 40
0.2274570284004935
 40
0.2707025105518545
 40
0.3136105321155538
 40
0.3562604510849769
 40
0.3983661529550377
 40
0.4395565149792806
 40
0.4800453830214204
 40
0.5198884957050127
 40
0.5596577503171976
 40
0.5994212546627414
 40
0.6392077550883982
 40
0.6796683749857806
 40
0.7200198525128486
 40
0.7598588655624579
 40
0.7995598848323808
 40
0.8391991446364383
 40
0.8789560762302792
 40
0.9187942693024661
 40
0.9590833628432752
 40
1.0
 40
1.0
 40
1.0
 40
1.0
 10
212.4763374734682
 20
120.0175776467431
 30
0.0
 10
212.4759093719166
 20
119.992049784023
 30
0.0
 10
212.4750635834849
 20
119.9416150895134
 30
0.0
 10
212.4693406328693
 20
119.8671076147393
 30
0.0
 10
212.4592776964849
 20
119.79473909504
 30
0.0
 10
212.4459309246734
 20
119.7242937405785
 30
0.0
 10
212.4280466579167
 20
119.6559182039293
 30
0.0
 10
212.4067939551819
 20
119.589416448239
 30
0.0
 10
212.3810876105208
 20
119.525184571243
 30
0.0
 10
212.3520551482695
 20
119.4630677608202
 30
0.0
 10
212.3192049295428
 20
119.4039203386799
 30
0.0
 10
212.2829689092558
 20
119.3481558915039
 30
0.0
 10
212.2433214165166
 20
119.2962960516306
 30
0.0
 10
212.20086469214
 20
119.2477046311972
 30
0.0
 10
212.1546072591566
 20
119.2032505356862
 30
0.0
 10
212.1051187146193
 20
119.1625180866842
 30
0.0
 10
212.052589341705
 20
119.1251231309093
 30
0.0
 10
211.9968426684318
 20
119.0920784407061
 30
0.0
 10
211.9388791448874
 20
119.0631135894029
 30
0.0
 10
211.8798457778242
 20
119.0374165479362
 30
0.0
 10
211.8196987159387
 20
119.0155010883714
 30
0.0
 10
211.7582323949914
 20
118.9977407866551
 30
0.0
 10
211.6956144890714
 20
118.9843198243354
 30
0.0
 10
211.6320212124099
 20
118.9742700661918
 30
0.0
 10
211.5672440974349
 20
118.9684833809424
 30
0.0
 10
211.5236559527941
 20
118.9676307625731
 30
0.0
 10
211.5016934597129
 20
118.9672011589459
 30
0.0
  0
SPLINE
  5
19A
330
1F
100
AcDbEntity
  8
0
  6
Continuous
 62
     7
370
     0
100
AcDbSpline
210
0.0
220
0.0
230
1.0
 70
     8
 71
     3
 72
    31
 73
    27
 74
     0
 42
0.000000001
 43
0.00000001
 40
0.0
 40
0.0
 40
0.0
 40
0.0
 40
0.0430989705688968
 40
0.0855867603450731
 40
0.1269076657436391
 40
0.1679674856215208
 40
0.208449558601066
 40
0.2490254246415441
 40
0.289280534171679
 40
0.3300098489827308
 40
0.370597724099577
 40
0.4104659863326995
 40
0.4500332158929483
 40
0.4896882096042475
 40
0.5291164230741915
 40
0.5690368070925096
 40
0.6097030542359448
 40
0.6507589174942194
 40
0.6925092624061778
 40
0.7342191213706865
 40
0.7767069111468624
 40
0.8195518402403216
 40
0.8633507288313336
 40
0.9078385251300618
 40
0.9533337036124183
 40
1.0
 40
1.0
 40
1.0
 40
1.0
 10
211.5029282283114
 20
121.0745395670656
 30
0.0
 10
211.5261259533215
 20
121.0741344911154
 30
0.0
 10
211.5721924394763
 20
121.0733300835433
 30
0.0
 10
211.6402976277967
 20
121.0672096161906
 30
0.0
 10
211.7066527523014
 20
121.0562856422762
 30
0.0
 10
211.7711924698262
 20
121.041646292225
 30
0.0
 10
211.8340924578751
 20
121.0224401015895
 30
0.0
 10
211.8953902791405
 20
120.9997677779678
 30
0.0
 10
211.95454933969
 20
120.9716735765543
 30
0.0
 10
212.011963208983
 20
120.9402193224044
 30
0.0
 10
212.0669541588164
 20
120.9050363790762
 30
0.0
 10
212.1186345157761
 20
120.8661698529764
 30
0.0
 10
212.1668804890753
 20
120.8239136899217
 30
0.0
 10
212.2123401529992
 20
120.7789624660591
 30
0.0
 10
212.2534965825538
 20
120.7297991403208
 30
0.0
 10
212.2920500544897
 20
120.6779213118379
 30
0.0
 10
212.3268927121514
 20
120.6224091026455
 30
0.0
 10
212.3581481849532
 20
120.5637173413133
 30
0.0
 10
212.3860937538034
 20
120.5027525113587
 30
0.0
 10
212.4099786388296
 20
120.4392619383966
 30
0.0
 10
212.4304881537763
 20
120.3740072362754
 30
0.0
 10
212.4476563480984
 20
120.3066021668687
 30
0.0
 10
212.4599749907342
 20
120.2370697738562
 30
0.0
 10
212.4697844590519
 20
120.1657096654493
 30
0.0
 10
212.4749474532442
 20
120.0922886128113
 30
0.0
 10
212.4758702247674
 20
120.042691383385
 30
0.0
 10
212.4763374734682
 20
120.0175776467431
 30
0.0
  0
SPLINE
  5
19B
330
1F
100
AcDbEntity
  8
0
  6
Continuous
 62
     7
370
     0
100
AcDbSpline
210
0.0
220
0.0
230
1.0
 70
     8
 71
     3
 72
    23
 73
    19
 74
     0
 42
0.000000001
 43
0.00000001
 40
0.0
 40
0.0
 40
0.0
 40
0.0
 40
0.0752263466908988
 40
0.1465747215268522
 40
0.2145002518264754
 40
0.2795299716530228
 40
0.3424029515883814
 40
0.4034960527288083
 40
0.4637616065030392
 40
0.5238643590795867
 40
0.5832517242549665
 40
0.6413020392831351
 40
0.6988977748564887
 40
0.7562952438113087
 40
0.814627804812969
 40
0.874324768339998
 40
0.9357832838625453
 40
1.0
 40
1.0
 40
1.0
 40
1.0
 10
210.5270494459575
 20
119.9937054538386
 30
0.0
 10
210.5277635649515
 20
120.0348995146042
 30
0.0
 10
210.5291549895957
 20
120.1151640529061
 30
0.0
 10
210.54215581993
 20
120.2320395630181
 30
0.0
 10
210.5632658313774
 20
120.3420041298558
 30
0.0
 10
210.5934444606744
 20
120.4450491863998
 30
0.0
 10
210.6316959600354
 20
120.5413362049511
 30
0.0
 10
210.6781979646754
 20
120.6310832127358
 30
0.0
 10
210.7343492241495
 20
120.7132743382375
 30
0.0
 10
210.797870607428
 20
120.7886919875725
 30
0.0
 10
210.8688210749429
 20
120.855366717406
 30
0.0
 10
210.9443631568474
 20
120.9145834300755
 30
0.0
 10
211.0254401367737
 20
120.9639771693399
 30
0.0
 10
211.1113029256467
 20
121.0047601141721
 30
0.0
 10
211.2023163174117
 20
121.0360720782595
 30
0.0
 10
211.2982247741222
 20
121.0579933022843
 30
0.0
 10
211.3989257223185
 20
121.0721346220406
 30
0.0
 10
211.4677571771826
 20
121.073726274697
 30
0.0
 10
211.5029282283114
 20
121.0745395670656
 30
0.0
  0
SPLINE
  5
19C
330
1F
100
AcDbEntity
  8
0
  6
Continuous
 62
     7
370
     0
100
AcDbSpline
210
0.0
220
0.0
230
1.0
 70
     8
 71
     3
 72
    31
 73
    27
 74
     0
 42
0.000000001
 43
0.00000001
 40
0.0
 40
0.0
 40
0.0
 40
0.0
 40
0.0446969998899171
 40
0.0885335629185875
 40
0.1314091332352275
 40
0.1738139421467784
 40
0.2157145332694449
 40
0.2572471603264208
 40
0.2988479641797117
 40
0.3406041827148143
 40
0.3820294481091344
 40
0.4229697500404858
 40
0.4636322295306197
 40
0.5040475437003945
 40
0.5445912057564576
 40
0.5849639251690937
 40
0.6262652162680831
 40
0.6679794005009905
 40
0.7099427472053506
 40
0.7513818550852255
 40
0.7926185649779642
 40
0.8339484357458206
 40
0.8750080506311037
 40
0.9164455302232757
 40
0.957906613728307
 40
1.0
 40
1.0
 40
1.0
 40
1.0
 10
211.5016934597129
 20
118.9672011589459
 30
0.0
 10
211.4780789017153
 20
118.9675505392575
 30
0.0
 10
211.4313043763239
 20
118.9682425741562
 30
0.0
 10
211.3621703680503
 20
118.9751502620861
 30
0.0
 10
211.2947563052452
 20
118.985688180649
 30
0.0
 10
211.229258172588
 20
119.0009017514106
 30
0.0
 10
211.1657654706782
 20
119.0207489293667
 30
0.0
 10
211.1042030731184
 20
119.0447713255756
 30
0.0
 10
211.0443544584587
 20
119.0726478881617
 30
0.0
 10
210.9869622489624
 20
119.1051768143939
 30
0.0
 10
210.9322217842742
 20
119.1413454837714
 30
0.0
 10
210.880663628744
 20
119.1809741034304
 30
0.0
 10
210.8323162921416
 20
119.2236974604691
 30
0.0
 10
210.7879555513018
 20
119.2702217210033
 30
0.0
 10
210.7461447014909
 20
119.318860362539
 30
0.0
 10
210.7085555283232
 20
119.3714212532305
 30
0.0
 10
210.6739604280616
 20
119.4267123670983
 30
0.0
 10
210.6433831264235
 20
119.4852666865334
 30
0.0
 10
210.6157611103454
 20
119.5453441991704
 30
0.0
 10
210.5924889651596
 20
119.6069641221864
 30
0.0
 10
210.572037259835
 20
119.6692183417081
 30
0.0
 10
210.555749546775
 20
119.7324905667136
 30
0.0
 10
210.5427702215216
 20
119.7966348425922
 30
0.0
 10
210.5340425658355
 20
119.8615444355091
 30
0.0
 10
210.5277393865371
 20
119.9273160172589
 30
0.0
 10
210.5272805834893
 20
119.9714642769002
 30
0.0
 10
210.5270494459575
 20
119.9937054538386
 30
0.0
  0
LINE
  5
19D
330
1F
100
AcDbEntity
  8
0
  6
Continuous
 62
     7
370
     0
100
AcDbLine
 10
207.6031174047
 20
120.8111222661
 30
0.0
 11
207.6031174047
 21
118.993542889
 31
0.0
  0
LINE
  5
19E
330
1F
100
AcDbEntity
  8
0
  6
Continuous
 62
     7
370
     0
100
AcDbLine
 10
208.2616606572
 20
120.8111222661
 30
0.0
 11
207.6031174047
 21
120.8111222661
 31
0.0
  0
LINE
  5
19F
330
1F
100
AcDbEntity
  8
0
  6
Continuous
 62
     7
370
     0
100
AcDbLine
 10
208.2616606572
 20
121.048197837
 30
0.0
 11
208.2616606572
 21
120.8111222661
 31
0.0
  0
LINE
  5
1A0
330
1F
100
AcDbEntity
  8
0
  6
Continuous
 62
     7
370
     0
100
AcDbLine
 10
206.654815121
 20
121.048197837
 30
0.0
 11
208.2616606572
 21
121.048197837
 31
0.0
  0
LINE
  5
1A1
330
1F
100
AcDbEntity
  8
0
  6
Continuous
 62
     7
370
     0
100
AcDbLine
 10
206.654815121
 20
120.8111222661
 30
0.0
 11
206.654815121
 21
121.048197837
 31
0.0
  0
LINE
  5
1A2
330
1F
100
AcDbEntity
  8
0
  6
Continuous
 62
     7
370
     0
100
AcDbLine
 10
207.3133583736
 20
120.8111222661
 30
0.0
 11
206.654815121
 21
120.8111222661
 31
0.0
  0
LINE
  5
1A3
330
1F
100
AcDbEntity
  8
0
  6
Continuous
 62
     7
370
     0
100
AcDbLine
 10
207.3133583736
 20
118.993542889
 30
0.0
 11
207.3133583736
 21
120.8111222661
 31
0.0
  0
LINE
  5
1A4
330
1F
100
AcDbEntity
  8
0
  6
Continuous
 62
     7
370
     0
100
AcDbLine
 10
207.6031174047
 20
118.993542889
 30
0.0
 11
207.3133583736
 21
118.993542889
 31
0.0
  0
CIRCLE
  5
1A5
330
1F
100
AcDbEntity
  8
0
  6
Continuous
 62
     7
370
     0
100
AcDbCircle
 10
214.2544042553
 20
118.714142889
 30
0.0
 40
25.15000000000001
  0
LINE
  5
1A6
330
1F
100
AcDbEntity
  8
0
  6
Continuous
 62
     7
370
     0
100
AcDbLine
 10
208.8675204496
 20
119.9681869028
 30
0.0
 11
208.8675204496
 21
118.993542889
 31
0.0
  0
LINE
  5
1A7
330
1F
100
AcDbEntity
  8
0
  6
Continuous
 62
     7
370
     0
100
AcDbLine
 10
209.8685061934
 20
119.9681869028
 30
0.0
 11
208.8675204496
 21
119.9681869028
 31
0.0
  0
LINE
  5
1A8
330
1F
100
AcDbEntity
  8
0
  6
Continuous
 62
     7
370
     0
100
AcDbLine
 10
209.8685061934
 20
118.993542889
 30
0.0
 11
209.8685061934
 21
119.9681869028
 31
0.0
  0
LINE
  5
1A9
330
1F
100
AcDbEntity
  8
0
  6
Continuous
 62
     7
370
     0
100
AcDbLine
 10
210.1582652245
 20
118.993542889
 30
0.0
 11
209.8685061934
 21
118.993542889
 31
0.0
  0
LINE
  5
1AA
330
1F
100
AcDbEntity
  8
0
  6
Continuous
 62
     7
370
     0
100
AcDbLine
 10
210.1582652245
 20
121.048197837
 30
0.0
 11
210.1582652245
 21
118.993542889
 31
0.0
  0
LINE
  5
1AB
330
1F
100
AcDbEntity
  8
0
  6
Continuous
 62
     7
370
     0
100
AcDbLine
 10
209.8685061934
 20
121.048197837
 30
0.0
 11
210.1582652245
 21
121.048197837
 31
0.0
  0
LINE
  5
1AC
330
1F
100
AcDbEntity
  8
0
  6
Continuous
 62
     7
370
     0
100
AcDbLine
 10
209.8685061934
 20
120.2052624737
 30
0.0
 11
209.8685061934
 21
121.048197837
 31
0.0
  0
LINE
  5
1AD
330
1F
100
AcDbEntity
  8
0
  6
Continuous
 62
     7
370
     0
100
AcDbLine
 10
208.8675204496
 20
120.2052624737
 30
0.0
 11
209.8685061934
 21
120.2052624737
 31
0.0
  0
LINE
  5
1AE
330
1F
100
AcDbEntity
  8
0
  6
Continuous
 62
     7
370
     0
100
AcDbLine
 10
208.8675204496
 20
121.048197837
 30
0.0
 11
208.8675204496
 21
120.2052624737
 31
0.0
  0
LINE
  5
1AF
330
1F
100
AcDbEntity
  8
0
  6
Continuous
 62
     7
370
     0
100
AcDbLine
 10
208.5777614184
 20
121.048197837
 30
0.0
 11
208.8675204496
 21
121.048197837
 31
0.0
  0
LINE
  5
1B0
330
1F
100
AcDbEntity
  8
0
  6
Continuous
 62
     7
370
     0
100
AcDbLine
 10
208.5777614184
 20
118.993542889
 30
0.0
 11
208.5777614184
 21
121.048197837
 31
0.0
  0
LINE
  5
1B1
330
1F
100
AcDbEntity
  8
0
  6
Continuous
 62
     7
370
     0
100
AcDbLine
 10
208.8675204496
 20
118.993542889
 30
0.0
 11
208.5777614184
 21
118.993542889
 31
0.0
  0
LINE
  5
1B2
330
1F
100
AcDbEntity
  8
0
  6
Continuous
 62
     7
370
     0
100
AcDbLine
 10
213.134880726
 20
119.9155034426
 30
0.0
 11
213.134880726
 21
118.993542889
 31
0.0
  0
LINE
  5
1B3
330
1F
100
AcDbEntity
  8
0
  6
Continuous
 62
     7
370
     0
100
AcDbLine
 10
213.4316367792
 20
119.9155034426
 30
0.0
 11
213.134880726
 21
119.9155034426
 31
0.0
  0
SPLINE
  5
1B4
330
1F
100
AcDbEntity
  8
0
  6
Continuous
 62
     7
370
     0
100
AcDbSpline
210
0.0
220
0.0
230
1.0
 70
     8
 71
     3
 72
    11
 73
     7
 74
     0
 42
0.000000001
 43
0.00000001
 40
0.0
 40
0.0
 40
0.0
 40
0.0
 40
0.1774946570818496
 40
0.4052256231013751
 40
0.6783881083348569
 40
0.9999999999999999
 40
0.9999999999999999
 40
0.9999999999999999
 40
0.9999999999999999
 10
213.5744583470743
 20
119.9060368833446
 30
0.0
 10
213.5661067664225
 20
119.9075429571737
 30
0.0
 10
213.5470398574284
 20
119.9109813688753
 30
0.0
 10
213.5146642935352
 20
119.9132270010395
 30
0.0
 10
213.4754373259901
 20
119.9156104391458
 30
0.0
 10
213.4470088741131
 20
119.9155409937534
 30
0.0
 10
213.4316367791803
 20
119.9155034425998
 30
0.0
  0
SPLINE
  5
1B5
330
1F
100
AcDbEntity
  8
0
  6
Continuous
 62
     7
370
     0
100
AcDbSpline
210
0.0
220
0.0
230
1.0
 70
     8
 71
     3
 72
    21
 73
    17
 74
     0
 42
0.000000001
 43
0.00000001
 40
0.0
 40
0.0
 40
0.0
 40
0.0
 40
0.0807814705861226
 40
0.1565412257955895
 40
0.227934986843486
 40
0.2943103173046012
 40
0.3568678635548111
 40
0.4147585592592752
 40
0.467641396834016
 40
0.5167484215300129
 40
0.604729741894053
 40
0.6815706529393896
 40
0.7481095416219826
 40
0.8049410995352804
 40
0.9054060495000024
 40
1.0
 40
1.0
 40
1.0
 40
1.0
 10
214.0058041774863
 20
119.4273582566564
 30
0.0
 10
213.9965993909356
 20
119.4425791902704
 30
0.0
 10
213.9787620260128
 20
119.4720748603589
 30
0.0
 10
213.9529965914182
 20
119.5151518666103
 30
0.0
 10
213.9277344299165
 20
119.5548111144702
 30
0.0
 10
213.9043042072259
 20
119.5921860868252
 30
0.0
 10
213.8817550856489
 20
119.6265982594847
 30
0.0
 10
213.8603049424746
 20
119.658167173632
 30
0.0
 10
213.8405440951683
 20
119.6873069721799
 30
0.0
 10
213.8160677310121
 20
119.7212332810289
 30
0.0
 10
213.7875813083923
 20
119.7587730565905
 30
0.0
 10
213.75433960772
 20
119.7974319366048
 30
0.0
 10
213.7226836528802
 20
119.8282541466767
 30
0.0
 10
213.683698760283
 20
119.8584786023398
 30
0.0
 10
213.6354100728541
 20
119.8867485001817
 30
0.0
 10
213.5943637770126
 20
119.8997377416097
 30
0.0
 10
213.5744583470743
 20
119.9060368833446
 30
0.0
  0
LINE
  5
1B6
330
1F
100
AcDbEntity
  8
0
  6
Continuous
 62
     7
370
     0
100
AcDbLine
 10
214.2618128669
 20
118.993542889
 30
0.0
 11
214.0058041775
 21
119.4273582567
 31
0.0
  0
LINE
  5
1B7
330
1F
100
AcDbEntity
  8
0
  6
Continuous
 62
     7
370
     0
100
AcDbLine
 10
214.5939656199
 20
118.993542889
 30
0.0
 11
214.2618128669
 21
118.993542889
 31
0.0
  0
LINE
  5
1B8
330
1F
100
AcDbEntity
  8
0
  6
Continuous
 62
     7
370
     0
100
AcDbLine
 10
214.2568737925
 20
119.5607132653
 30
0.0
 11
214.5939656199
 21
118.993542889
 31
0.0
  0
SPLINE
  5
1B9
330
1F
100
AcDbEntity
  8
0
  6
Continuous
 62
     7
370
     0
100
AcDbSpline
210
0.0
220
0.0
230
1.0
 70
     8
 71
     3
 72
    11
 73
     7
 74
     0
 42
0.000000001
 43
0.00000001
 40
0.0
 40
0.0
 40
0.0
 40
0.0
 40
0.2295275697008571
 40
0.4714659343032296
 40
0.7281863484998697
 40
1.0
 40
1.0
 40
1.0
 40
1.0
 10
214.0403776982445
 20
119.8405941476236
 30
0.0
 10
214.0597875081165
 20
119.8215668617449
 30
0.0
 10
214.0996566365086
 20
119.7824834648103
 30
0.0
 10
214.1545980271966
 20
119.7159129908885
 30
0.0
 10
214.2078655923654
 20
119.6418098383171
 30
0.0
 10
214.2402296545369
 20
119.5882552388195
 30
0.0
 10
214.2568737925162
 20
119.5607132652953
 30
0.0
  0
SPLINE
  5
1BA
330
1F
100
AcDbEntity
  8
0
  6
Continuous
 62
     7
370
     0
100
AcDbSpline
210
0.0
220
0.0
230
1.0
 70
     8
 71
     3
 72
    11
 73
     7
 74
     0
 42
0.000000001
 43
0.00000001
 40
0.0
 40
0.0
 40
0.0
 40
0.0
 40
0.2930762433192213
 40
0.5565623371181898
 40
0.7919136092098108
 40
1.0
 40
1.0
 40
1.0
 40
1.0
 10
213.8806809595042
 20
119.9418451727013
 30
0.0
 10
213.8972228065111
 20
119.9334885964662
 30
0.0
 10
213.9286363695012
 20
119.9176191573501
 30
0.0
 10
213.9721288367189
 20
119.8927360146437
 30
0.0
 10
214.0089958956434
 20
119.8673115745245
 30
0.0
 10
214.0303548510404
 20
119.8491272676269
 30
0.0
 10
214.0403776982445
 20
119.8405941476236
 30
0.0
  0
SPLINE
  5
1BB
330
1F
100
AcDbEntity
  8
0
  6
Continuous
 62
     7
370
     0
100
AcDbSpline
210
0.0
220
0.0
230
1.0
 70
     8
 71
     3
 72
    23
 73
    19
 74
     0
 42
0.000000001
 43
0.00000001
 40
0.0
 40
0.0
 40
0.0
 40
0.0
 40
0.0614130692946597
 40
0.1212950233845471
 40
0.1792240423087202
 40
0.2359380947348319
 40
0.2922168332673612
 40
0.3481966394342069
 40
0.4044447389633588
 40
0.4620255339229974
 40
0.5203342118681488
 40
0.5803829016508381
 40
0.641825904813988
 40
0.7063632097966277
 40
0.7738513938275595
 40
0.8452662573568828
 40
0.920154675768406
 40
1.0
 40
1.0
 40
1.0
 40
1.0
 10
214.4256255009789
 20
120.494198325767
 30
0.0
 10
214.4252234407031
 20
120.4766224771417
 30
0.0
 10
214.4244293440863
 20
120.4419089708068
 30
0.0
 10
214.4183464841226
 20
120.3908708247395
 30
0.0
 10
214.4073400401437
 20
120.3421059285203
 30
0.0
 10
214.3932264451465
 20
120.2951872079305
 30
0.0
 10
214.3739092392183
 20
120.2507794262459
 30
0.0
 10
214.3515310946092
 20
120.2079755409927
 30
0.0
 10
214.3238077550425
 20
120.167951489098
 30
0.0
 10
214.2927684106944
 20
120.1296414942319
 30
0.0
 10
214.2571746063721
 20
120.0938660542041
 30
0.0
 10
214.216713224139
 20
120.0619158589326
 30
0.0
 10
214.1717853483926
 20
120.0331765943299
 30
0.0
 10
214.1221793868736
 20
120.0084411878729
 30
0.0
 10
214.068466354071
 20
119.9858318520428
 30
0.0
 10
214.0099722989708
 20
119.9676257254545
 30
0.0
 10
213.9469332987017
 20
119.9527590270343
 30
0.0
 10
213.9032317334279
 20
119.9455599979389
 30
0.0
 10
213.8806809595042
 20
119.9418451727013
 30
0.0
  0
SPLINE
  5
1BC
330
1F
100
AcDbEntity
  8
0
  6
Continuous
 62
     7
370
     0
100
AcDbSpline
210
0.0
220
0.0
230
1.0
 70
     8
 71
     3
 72
    27
 73
    23
 74
     0
 42
0.000000001
 43
0.00000001
 40
0.0
 40
0.0
 40
0.0
 40
0.0
 40
0.0621127506505294
 40
0.1202119588785538
 40
0.1743851213884739
 40
0.2254437557784867
 40
0.2723582126361769
 40
0.3163881629634408
 40
0.3568694790582282
 40
0.3939783235063667
 40
0.4295893718770922
 40
0.464683040954987
 40
0.50003634614284
 40
0.5354827477530639
 40
0.5713634671484435
 40
0.6079085322052601
 40
0.6456622985331159
 40
0.6845173397035775
 40
0.7625786223763461
 40
0.8404972886541807
 40
0.9190729926935233
 40
1.0
 40
1.0
 40
1.0
 40
1.0
 10
213.7366246230116
 20
121.0481978369641
 30
0.0
 10
213.7576167871982
 20
121.0480333546708
 30
0.0
 10
213.7982446639471
 20
121.0477150184441
 30
0.0
 10
213.8571634739807
 20
121.0454615594906
 30
0.0
 10
213.9121582765766
 20
121.0406036931344
 30
0.0
 10
213.9633301887766
 20
121.0353505877134
 30
0.0
 10
214.0106701187988
 20
121.0272877725026
 30
0.0
 10
214.0541292273267
 20
121.0180399055994
 30
0.0
 10
214.0937746130262
 20
121.0070348041682
 30
0.0
 10
214.1297835147516
 20
120.994036930994
 30
0.0
 10
214.1631919237743
 20
120.9793317847062
 30
0.0
 10
214.1941589954275
 20
120.961188008346
 30
0.0
 10
214.2239719909677
 20
120.9413062981331
 30
0.0
 10
214.2515244461231
 20
120.9179482557005
 30
0.0
 10
214.2775430595937
 20
120.8923733612409
 30
0.0
 10
214.3020037165109
 20
120.8642341061975
 30
0.0
 10
214.3245442963135
 20
120.8332862991051
 30
0.0
 10
214.3523454020978
 20
120.7889935691329
 30
0.0
 10
214.3821703204288
 20
120.7300049801767
 30
0.0
 10
214.4070191620752
 20
120.6545123678087
 30
0.0
 10
214.4230412506475
 20
120.5755443397556
 30
0.0
 10
214.4247556599018
 20
120.5215788405607
 30
0.0
 10
214.4256255009789
 20
120.494198325767
 30
0.0
  0
LINE
  5
1BD
330
1F
100
AcDbEntity
  8
0
  6
Continuous
 62
     7
370
     0
100
AcDbLine
 10
212.8451216949
 20
121.048197837
 30
0.0
 11
213.736624623
 21
121.048197837
 31
0.0
  0
LINE
  5
1BE
330
1F
100
AcDbEntity
  8
0
  6
Continuous
 62
     7
370
     0
100
AcDbLine
 10
212.8451216949
 20
118.993542889
 30
0.0
 11
212.8451216949
 21
121.048197837
 31
0.0
  0
LINE
  5
1BF
330
1F
100
AcDbEntity
  8
0
  6
Continuous
 62
     7
370
     0
100
AcDbLine
 10
213.134880726
 20
118.993542889
 30
0.0
 11
212.8451216949
 21
118.993542889
 31
0.0
  0
LINE
  5
1C0
330
1F
100
AcDbEntity
  8
0
  6
Continuous
 62
     7
370
     0
100
AcDbLine
 10
216.7404050336
 20
119.6257444115
 30
0.0
 11
216.506622179
 21
118.993542889
 31
0.0
  0
LINE
  5
1C1
330
1F
100
AcDbEntity
  8
0
  6
Continuous
 62
     7
370
     0
100
AcDbLine
 10
217.6162675595
 20
119.6257444115
 30
0.0
 11
216.7404050336
 21
119.6257444115
 31
0.0
  0
LINE
  5
1C2
330
1F
100
AcDbEntity
  8
0
  6
Continuous
 62
     7
370
     0
100
AcDbLine
 10
217.8500504142
 20
118.993542889
 30
0.0
 11
217.6162675595
 21
119.6257444115
 31
0.0
  0
LINE
  5
1C3
330
1F
100
AcDbEntity
  8
0
  6
Continuous
 62
     7
370
     0
100
AcDbLine
 10
218.1575077952
 20
118.993542889
 30
0.0
 11
217.8500504142
 21
118.993542889
 31
0.0
  0
LINE
  5
1C4
330
1F
100
AcDbEntity
  8
0
  6
Continuous
 62
     7
370
     0
100
AcDbLine
 10
217.3417373411
 20
121.048197837
 30
0.0
 11
218.1575077952
 21
118.993542889
 31
0.0
  0
LINE
  5
1C5
330
1F
100
AcDbEntity
  8
0
  6
Continuous
 62
     7
370
     0
100
AcDbLine
 10
217.014935252
 20
121.048197837
 30
0.0
 11
217.3417373411
 21
121.048197837
 31
0.0
  0
LINE
  5
1C6
330
1F
100
AcDbEntity
  8
0
  6
Continuous
 62
     7
370
     0
100
AcDbLine
 10
216.199164798
 20
118.993542889
 30
0.0
 11
217.014935252
 21
121.048197837
 31
0.0
  0
LINE
  5
1C7
330
1F
100
AcDbEntity
  8
0
  6
Continuous
 62
     7
370
     0
100
AcDbLine
 10
216.506622179
 20
118.993542889
 30
0.0
 11
216.199164798
 21
118.993542889
 31
0.0
  0
SPLINE
  5
1C8
330
1F
100
AcDbEntity
  8
0
  6
Continuous
 62
     7
370
     0
100
AcDbSpline
210
0.0
220
0.0
230
1.0
 70
     8
 71
     3
 72
    23
 73
    19
 74
     0
 42
0.000000001
 43
0.00000001
 40
0.0
 40
0.0
 40
0.0
 40
0.0
 40
0.0748159666505558
 40
0.1485345605139198
 40
0.2238723272963845
 40
0.3012971209351246
 40
0.3408936290197578
 40
0.3803400620654405
 40
0.4201265887284641
 40
0.4599499070829662
 40
0.5008311555562168
 40
0.5419071755971083
 40
0.5844387941530511
 40
0.6280801713306066
 40
0.7172666799070601
 40
0.8078600064218678
 40
0.9019246558363443
 40
1.0
 40
1.0
 40
1.0
 40
1.0
 10
221.7749681992962
 20
119.5767652570759
 30
0.0
 10
221.7738959137961
 20
119.5499127442786
 30
0.0
 10
221.771767070681
 20
119.4966015813597
 30
0.0
 10
221.753436963685
 20
119.4180184616583
 30
0.0
 10
221.7246413350658
 20
119.3418718572971
 30
0.0
 10
221.6908713276906
 20
119.2814453321618
 30
0.0
 10
221.658948463703
 20
119.2352882485428
 30
0.0
 10
221.632131752133
 20
119.2021126463236
 30
0.0
 10
221.6023935607761
 20
119.1714367466168
 30
0.0
 10
221.5704660137193
 20
119.1422995316921
 30
0.0
 10
221.536101223669
 20
119.1152954959623
 30
0.0
 10
221.4990094741282
 20
119.0904154440584
 30
0.0
 10
221.4595822509595
 20
119.0674003768686
 30
0.0
 10
221.4032811677515
 20
119.0393551697544
 30
0.0
 10
221.328503975929
 20
119.0100172200052
 30
0.0
 10
221.2332528451864
 20
118.9855855689914
 30
0.0
 10
221.1328696905022
 20
118.9697361528628
 30
0.0
 10
221.0639404199659
 20
118.9680578345537
 30
0.0
 10
221.0287563762648
 20
118.9672011589459
 30
0.0
  0
SPLINE
  5
1C9
330
1F
100
AcDbEntity
  8
0
  6
Continuous
 62
     7
370
     0
100
AcDbSpline
210
0.0
220
0.0
230
1.0
 70
     8
 71
     3
 72
    23
 73
    19
 74
     0
 42
0.000000001
 43
0.00000001
 40
0.0
 40
0.0
 40
0.0
 40
0.0
 40
0.0749313059818448
 40
0.1470775964339468
 40
0.2163644561730687
 40
0.2825027309006236
 40
0.3466877108244161
 40
0.4088355551310383
 40
0.4692619872876918
 40
0.5284320432534629
 40
0.5870013379727416
 40
0.6444163938320668
 40
0.7021887902662972
 40
0.7597671795443348
 40
0.8184897928274487
 40
0.8776328274167842
 40
0.9380195662701677
 40
1.0
 40
1.0
 40
1.0
 40
1.0
 10
221.4185316638603
 20
120.0735538232088
 30
0.0
 10
221.4333045598608
 20
120.0667425694717
 30
0.0
 10
221.4623012790245
 20
120.0533732198357
 30
0.0
 10
221.5033790145765
 20
120.0305470665324
 30
0.0
 10
221.5417089983869
 20
120.0068433351566
 30
0.0
 10
221.5769815498033
 20
119.9816238412161
 30
0.0
 10
221.6090826156215
 20
119.9548355361353
 30
0.0
 10
221.6383711232575
 20
119.9267853549554
 30
0.0
 10
221.6650239650187
 20
119.8976309442683
 30
0.0
 10
221.6879657012782
 20
119.8664391931844
 30
0.0
 10
221.7085650266784
 20
119.8344710127922
 30
0.0
 10
221.7265908080916
 20
119.801279606687
 30
0.0
 10
221.7411048211082
 20
119.7666697825692
 30
0.0
 10
221.7538345158151
 20
119.7310587297371
 30
0.0
 10
221.7629908176202
 20
119.6940503496934
 30
0.0
 10
221.7701712050491
 20
119.6560184517942
 30
0.0
 10
221.7743594049543
 20
119.6167842750636
 30
0.0
 10
221.7747635134957
 20
119.5902202519192
 30
0.0
 10
221.7749681992962
 20
119.5767652570759
 30
0.0
  0
SPLINE
  5
1CA
330
1F
100
AcDbEntity
  8
0
  6
Continuous
 62
     7
370
     0
100
AcDbSpline
210
0.0
220
0.0
230
1.0
 70
     8
 71
     3
 72
    23
 73
    19
 74
     0
 42
0.000000001
 43
0.00000001
 40
0.0
 40
0.0
 40
0.0
 40
0.0
 40
0.0327432182311376
 40
0.0724096054938575
 40
0.1196114857927602
 40
0.174672915198513
 40
0.2373450901947012
 40
0.3083524168429162
 40
0.3876300477623597
 40
0.474783615586252
 40
0.5633323159904133
 40
0.6451362168299871
 40
0.7202025267224654
 40
0.7891341563324468
 40
0.8514970735699654
 40
0.9073306044315619
 40
0.9569686823424192
 40
0.9999999999999999
 40
0.9999999999999999
 40
0.9999999999999999
 40
0.9999999999999999
 10
220.6105814109035
 20
120.3493188102088
 30
0.0
 10
220.6177168879027
 20
120.3432370638608
 30
0.0
 10
220.6334965547295
 20
120.32978765731
 30
0.0
 10
220.6628570573312
 20
120.3119889424618
 30
0.0
 10
220.6992597261697
 20
120.2940056094584
 30
0.0
 10
220.74294779792
 20
120.2761287848429
 30
0.0
 10
220.7938461056878
 20
120.258141445827
 30
0.0
 10
220.8518725494968
 20
120.2396212683522
 30
0.0
 10
220.9172481452266
 20
120.2212272695618
 30
0.0
 10
220.9879805735739
 20
120.2035016083128
 30
0.0
 10
221.0594368193021
 20
120.1857046885434
 30
0.0
 10
221.1273442758591
 20
120.1679755980393
 30
0.0
 10
221.189694815628
 20
120.1511732990171
 30
0.0
 10
221.2463895149517
 20
120.1347854086129
 30
0.0
 10
221.2974870546104
 20
120.1188582658563
 30
0.0
 10
221.3428098519313
 20
120.1030581765762
 30
0.0
 10
221.3827245854859
 20
120.0885261022332
 30
0.0
 10
221.4071770753155
 20
120.0783016014587
 30
0.0
 10
221.4185316638603
 20
120.0735538232088
 30
0.0
  0
SPLINE
  5
1CB
330
1F
100
AcDbEntity
  8
0
  6
Continuous
 62
     7
370
     0
100
AcDbSpline
210
0.0
220
0.0
230
1.0
 70
     8
 71
     3
 72
    11
 73
     7
 74
     0
 42
0.000000001
 43
0.00000001
 40
0.0
 40
0.0
 40
0.0
 40
0.0
 40
0.2627412305282689
 40
0.5099565029432328
 40
0.7533267184204503
 40
1.0
 40
1.0
 40
1.0
 40
1.0
 10
220.5369068845259
 20
120.5308297941894
 30
0.0
 10
220.5376556900666
 20
120.513152446143
 30
0.0
 10
220.5391090525791
 20
120.4788423434883
 30
0.0
 10
220.5539500087735
 20
120.4300980301077
 30
0.0
 10
220.5767755032354
 20
120.3856644301488
 30
0.0
 10
220.5992622521398
 20
120.3614883353257
 30
0.0
 10
220.6105814109035
 20
120.3493188102088
 30
0.0
  0
SPLINE
  5
1CC
330
1F
100
AcDbEntity
  8
0
  6
Continuous
 62
     7
370
     0
100
AcDbSpline
210
0.0
220
0.0
230
1.0
 70
     8
 71
     3
 72
    23
 73
    19
 74
     0
 42
0.000000001
 43
0.00000001
 40
0.0
 40
0.0
 40
0.0
 40
0.0
 40
0.0915110363280374
 40
0.1771428603141494
 40
0.257108485228235
 40
0.3311983993883849
 40
0.4005922945239579
 40
0.4656249598049641
 40
0.5269734913138601
 40
0.585443115704023
 40
0.6413985080863307
 40
0.695044167265724
 40
0.7467815514927484
 40
0.7969589345766992
 40
0.8475448623598799
 40
0.8974385414187387
 40
0.9476489188871285
 40
1.0
 40
1.0
 40
1.0
 40
1.0
 10
220.9719570207334
 20
120.8374639961521
 30
0.0
 10
220.9536973081331
 20
120.8373263630706
 30
0.0
 10
220.9183509952912
 20
120.837059939274
 30
0.0
 10
220.8672538916804
 20
120.8322033663639
 30
0.0
 10
220.8198934814454
 20
120.8255399760625
 30
0.0
 10
220.7763511111181
 20
120.8157109087523
 30
0.0
 10
220.7367694198185
 20
120.8028446266416
 30
0.0
 10
220.7005609585107
 20
120.7879870231819
 30
0.0
 10
220.6687390593952
 20
120.7691585591156
 30
0.0
 10
220.6405618991002
 20
120.7481860990022
 30
0.0
 10
220.6162555295647
 20
120.7249812304192
 30
0.0
 10
220.5953070396065
 20
120.7005289093282
 30
0.0
 10
220.5767797182426
 20
120.6755475625011
 30
0.0
 10
220.5623835808659
 20
120.6486716931476
 30
0.0
 10
220.5506629612556
 20
120.6209191312557
 30
0.0
 10
220.5431018737415
 20
120.5917682195575
 30
0.0
 10
220.5377484471525
 20
120.5617581741864
 30
0.0
 10
220.5371912818601
 20
120.5412817184372
 30
0.0
 10
220.5369068845259
 20
120.5308297941894
 30
0.0
  0
SPLINE
  5
1CD
330
1F
100
AcDbEntity
  8
0
  6
Continuous
 62
     7
370
     0
100
AcDbSpline
210
0.0
220
0.0
230
1.0
 70
     8
 71
     3
 72
    23
 73
    19
 74
     0
 42
0.000000001
 43
0.00000001
 40
0.0
 40
0.0
 40
0.0
 40
0.0
 40
0.0671554674490457
 40
0.1314033464826145
 40
0.1927317719102095
 40
0.2512526591565258
 40
0.3077037298841911
 40
0.3626989162982004
 40
0.4177783327854311
 40
0.4723043857981145
 40
0.5278725997916965
 40
0.5852299868117377
 40
0.6450565760102913
 40
0.707952356429442
 40
0.7744342720454274
 40
0.8449404313752613
 40
0.9204035944750272
 40
1.0
 40
1.0
 40
1.0
 40
1.0
 10
221.4325257079768
 20
120.4686797747312
 30
0.0
 10
221.4306846217924
 20
120.4833923859828
 30
0.0
 10
221.4270821617846
 20
120.5121806057272
 30
0.0
 10
221.4181449367123
 20
120.5538558847968
 30
0.0
 10
221.4056167455762
 20
120.5925620086618
 30
0.0
 10
221.3909423942814
 20
120.6286599381306
 30
0.0
 10
221.3731540083249
 20
120.6617742150095
 30
0.0
 10
221.3524178975867
 20
120.6922228087993
 30
0.0
 10
221.3284815402267
 20
120.7196469831113
 30
0.0
 10
221.301960843902
 20
120.7447713897657
 30
0.0
 10
221.272048788697
 20
120.7666477345937
 30
0.0
 10
221.2388990720513
 20
120.7856370735093
 30
0.0
 10
221.2024557361863
 20
120.8016787166401
 30
0.0
 10
221.1627508876136
 20
120.8148173455618
 30
0.0
 10
221.1197766655487
 20
120.8250045245062
 30
0.0
 10
221.0734353246236
 20
120.8324984078133
 30
0.0
 10
221.0237447764877
 20
120.8363363609791
 30
0.0
 10
220.9895236700513
 20
120.8370814970197
 30
0.0
 10
220.9719570207334
 20
120.8374639961521
 30
0.0
  0
LINE
  5
1CE
330
1F
100
AcDbEntity
  8
0
  6
Continuous
 62
     7
370
     0
100
AcDbLine
 10
221.7222847391
 20
120.4686797747
 30
0.0
 11
221.432525708
 21
120.4686797747
 31
0.0
  0
SPLINE
  5
1CF
330
1F
100
AcDbEntity
  8
0
  6
Continuous
 62
     7
370
     0
100
AcDbSpline
210
0.0
220
0.0
230
1.0
 70
     8
 71
     3
 72
    23
 73
    19
 74
     0
 42
0.000000001
 43
0.00000001
 40
0.0
 40
0.0
 40
0.0
 40
0.0
 40
0.1004750608070147
 40
0.1956443031597846
 40
0.2860833790699328
 40
0.3729828804699541
 40
0.4150256681909618
 40
0.4560516735090278
 40
0.4959387495188997
 40
0.5355660888033515
 40
0.574087109908504
 40
0.6125192874870975
 40
0.6510809601344449
 40
0.6895131377130385
 40
0.7662374603277345
 40
0.8423504388672224
 40
0.9199744947371037
 40
1.0
 40
1.0
 40
1.0
 40
1.0
 10
220.960432513814
 20
121.0745395670656
 30
0.0
 10
220.996966281632
 20
121.0737024515704
 30
0.0
 10
221.0681045669849
 20
121.0720724264038
 30
0.0
 10
221.1714705063413
 20
121.0585109139457
 30
0.0
 10
221.2678826303719
 20
121.0352222284545
 30
0.0
 10
221.3434923259868
 20
121.0091528815983
 30
0.0
 10
221.3993896897492
 20
120.982761205031
 30
0.0
 10
221.4391007334032
 20
120.9621680477873
 30
0.0
 10
221.4759604345887
 20
120.9383586066342
 30
0.0
 10
221.5103006049604
 20
120.9125930665054
 30
0.0
 10
221.5424402182286
 20
120.8848831944079
 30
0.0
 10
221.5715532141631
 20
120.8545698640636
 30
0.0
 10
221.5989037602469
 20
120.8226873114488
 30
0.0
 10
221.6310444631918
 20
120.7769139552197
 30
0.0
 10
221.6656989548582
 20
120.716333177213
 30
0.0
 10
221.6956624800187
 20
120.6378483730529
 30
0.0
 10
221.7162477713095
 20
120.5550141062782
 30
0.0
 10
221.720252084156
 20
120.4977486569171
 30
0.0
 10
221.7222847390932
 20
120.4686797747312
 30
0.0
  0
SPLINE
  5
1D0
330
1F
100
AcDbEntity
  8
0
  6
Continuous
 62
     7
370
     0
100
AcDbSpline
210
0.0
220
0.0
230
1.0
 70
     8
 71
     3
 72
    23
 73
    19
 74
     0
 42
0.000000001
 43
0.00000001
 40
0.0
 40
0.0
 40
0.0
 40
0.0
 40
0.0749954673898322
 40
0.1491654404266558
 40
0.2236642943382247
 40
0.3004120221906725
 40
0.3395704846106348
 40
0.3789205746932795
 40
0.4180957375990935
 40
0.4582296767501551
 40
0.4984267212184583
 40
0.5397075464534797
 40
0.5822159516458436
 40
0.6258238199943749
 40
0.7154812648736979
 40
0.8073840844133601
 40
0.9016341255073719
 40
1.0
 40
1.0
 40
1.0
 40
1.0
 10
220.2471478534094
 20
120.511896675679
 30
0.0
 10
220.2481257579425
 20
120.5373691346048
 30
0.0
 10
220.2500708029626
 20
120.5880336705651
 30
0.0
 10
220.2673244182558
 20
120.6623807186397
 30
0.0
 10
220.2948442647342
 20
120.7339223544705
 30
0.0
 10
220.3261702076957
 20
120.7907203085627
 30
0.0
 10
220.3567199246469
 20
120.833670667265
 30
0.0
 10
220.382045872044
 20
120.8646027304561
 30
0.0
 10
220.4104538754059
 20
120.8931952644072
 30
0.0
 10
220.4410690669814
 20
120.9198474016058
 30
0.0
 10
220.4744387243424
 20
120.9441609282734
 30
0.0
 10
220.5097349429612
 20
120.9671350997991
 30
0.0
 10
220.5482352488045
 20
120.9868819515449
 30
0.0
 10
220.6023339041103
 20
121.012015236698
 30
0.0
 10
220.6747048696662
 20
121.0371131722349
 30
0.0
 10
220.7658108634327
 20
121.058982839532
 30
0.0
 10
220.8616969303607
 20
121.0718614319199
 30
0.0
 10
220.9270551261525
 20
121.0736342282623
 30
0.0
 10
220.960432513814
 20
121.0745395670656
 30
0.0
  0
SPLINE
  5
1D1
330
1F
100
AcDbEntity
  8
0
  6
Continuous
 62
     7
370
     0
100
AcDbSpline
210
0.0
220
0.0
230
1.0
 70
     8
 71
     3
 72
    15
 73
    11
 74
     0
 42
0.000000001
 43
0.00000001
 40
0.0
 40
0.0
 40
0.0
 40
0.0
 40
0.1448052410584836
 40
0.2795118010254855
 40
0.4063939211311607
 40
0.5275015404829176
 40
0.6453932904726505
 40
0.7618854106740867
 40
0.8789420729184868
 40
1.0
 40
1.0
 40
1.0
 40
1.0
 10
220.5504893391095
 20
120.067791569749
 30
0.0
 10
220.5263067951115
 20
120.0808556766248
 30
0.0
 10
220.479628191652
 20
120.1060728028486
 30
0.0
 10
220.416803961258
 20
120.1511610950957
 30
0.0
 10
220.3638681694085
 20
120.2011949005935
 30
0.0
 10
220.3210441418058
 20
120.2561016682219
 30
0.0
 10
220.2874846271121
 20
120.3149527927172
 30
0.0
 10
220.2648421692876
 20
120.3778483215439
 30
0.0
 10
220.2493339548107
 20
120.4436465833526
 30
0.0
 10
220.2478846717681
 20
120.4888932043031
 30
0.0
 10
220.2471478534094
 20
120.511896675679
 30
0.0
  0
SPLINE
  5
1D2
330
1F
100
AcDbEntity
  8
0
  6
Continuous
 62
     7
370
     0
100
AcDbSpline
210
0.0
220
0.0
230
1.0
 70
     8
 71
     3
 72
    23
 73
    19
 74
     0
 42
0.000000001
 43
0.00000001
 40
0.0
 40
0.0
 40
0.0
 40
0.0
 40
0.031200111153937
 40
0.0704867190162008
 40
0.1172148300204118
 40
0.1715755269954925
 40
0.2341219784876085
 40
0.3039626396728072
 40
0.3821556401561973
 40
0.4676462220680265
 40
0.5543353814021611
 40
0.6350744656665043
 40
0.7100366878785244
 40
0.7790924037748317
 40
0.8429656453505103
 40
0.9010012068505269
 40
0.953246256459026
 40
1.0
 40
1.0
 40
1.0
 40
1.0
 10
221.2662435367111
 20
119.8401825580908
 30
0.0
 10
221.2590048884371
 20
119.8431530604622
 30
0.0
 10
221.2426514669885
 20
119.849863964951
 30
0.0
 10
221.2146224700196
 20
119.8587480470275
 30
0.0
 10
221.1813625154752
 20
119.8702360716645
 30
0.0
 10
221.142072559677
 20
119.882066867341
 30
0.0
 10
221.0969629390287
 20
119.8945821945416
 30
0.0
 10
221.0461087565132
 20
119.9087476474568
 30
0.0
 10
220.9895384286175
 20
119.9238118312719
 30
0.0
 10
220.928856387528
 20
119.9398460140767
 30
0.0
 10
220.8675860177457
 20
119.9561503191257
 30
0.0
 10
220.8090493373718
 20
119.9724698928442
 30
0.0
 10
220.7551928085927
 20
119.9890363506284
 30
0.0
 10
220.705575273731
 20
120.004987562275
 30
0.0
 10
220.6604525337537
 20
120.0210045834775
 30
0.0
 10
220.6196965199729
 20
120.0366489026139
 30
0.0
 10
220.5832564195241
 20
120.0516031172089
 30
0.0
 10
220.5610001933908
 20
120.0625987218194
 30
0.0
 10
220.5504893391095
 20
120.067791569749
 30
0.0
  0
SPLINE
  5
1D3
330
1F
100
AcDbEntity
  8
0
  6
Continuous
 62
     7
370
     0
100
AcDbSpline
210
0.0
220
0.0
230
1.0
 70
     8
 71
     3
 72
    15
 73
    11
 74
     0
 42
0.000000001
 43
0.00000001
 40
0.0
 40
0.0
 40
0.0
 40
0.0
 40
0.1177675192120365
 40
0.2301764485440569
 40
0.3398429589695383
 40
0.4506252599208613
 40
0.5669428888721608
 40
0.6960213064547938
 40
0.8394383602270619
 40
1.0
 40
1.0
 40
1.0
 40
1.0
 10
221.4852091681798
 20
119.5627712129594
 30
0.0
 10
221.4845154730646
 20
119.5776237273879
 30
0.0
 10
221.4831596469502
 20
119.6066529456815
 30
0.0
 10
221.4743241036661
 20
119.648915861269
 30
0.0
 10
221.4575309051253
 20
119.6875987049186
 30
0.0
 10
221.4357398001443
 20
119.7242803299942
 30
0.0
 10
221.4054246524749
 20
119.7578177289653
 30
0.0
 10
221.3671248845233
 20
119.7887194505864
 30
0.0
 10
221.3199966562911
 20
119.81673525066
 30
0.0
 10
221.2848225241609
 20
119.832078335789
 30
0.0
 10
221.2662435367111
 20
119.8401825580908
 30
0.0
  0
SPLINE
  5
1D4
330
1F
100
AcDbEntity
  8
0
  6
Continuous
 62
     7
370
     0
100
AcDbSpline
210
0.0
220
0.0
230
1.0
 70
     8
 71
     3
 72
    19
 73
    15
 74
     0
 42
0.000000001
 43
0.00000001
 40
0.0
 40
0.0
 40
0.0
 40
0.0
 40
0.1055838864195047
 40
0.2058681332620123
 40
0.300946717742213
 40
0.3930019285950109
 40
0.4809485116065869
 40
0.5628738662802266
 40
0.6414613436333617
 40
0.7177416181792269
 40
0.7917717603087844
 40
0.8627163930302565
 40
0.9317768462002766
 40
1.0
 40
1.0
 40
1.0
 40
1.0
 10
221.0159971007469
 20
119.2042767298594
 30
0.0
 10
221.0392246826486
 20
119.2047066476611
 30
0.0
 10
221.0845139695697
 20
119.2055449041252
 30
0.0
 10
221.1500299853188
 20
119.2156144410426
 30
0.0
 10
221.21168074651
 20
119.2298978086489
 30
0.0
 10
221.2683188681858
 20
119.2515036383633
 30
0.0
 10
221.3197354180781
 20
119.2777398901569
 30
0.0
 10
221.3643849313934
 20
119.3094732519464
 30
0.0
 10
221.4025043107924
 20
119.3452597669404
 30
0.0
 10
221.4323545479117
 20
119.3860420321119
 30
0.0
 10
221.4558042981616
 20
119.4287750261001
 30
0.0
 10
221.4730071141107
 20
119.4727001366672
 30
0.0
 10
221.4832544790097
 20
119.5175735593103
 30
0.0
 10
221.4845602597965
 20
119.5477667115759
 30
0.0
 10
221.4852091681798
 20
119.5627712129594
 30
0.0
  0
SPLINE
  5
1D5
330
1F
100
AcDbEntity
  8
0
  6
Continuous
 62
     7
370
     0
100
AcDbSpline
210
0.0
220
0.0
230
1.0
 70
     8
 71
     3
 72
    19
 73
    15
 74
     0
 42
0.000000001
 43
0.00000001
 40
0.0
 40
0.0
 40
0.0
 40
0.0
 40
0.0937964706969321
 40
0.1801880710186108
 40
0.2603631916661888
 40
0.3348466760639746
 40
0.4070930058327162
 40
0.4814483792884682
 40
0.5592709137563652
 40
0.6422698113109349
 40
0.7285859445716476
 40
0.8159775452756135
 40
0.9060351298875359
 40
1.0
 40
1.0
 40
1.0
 40
1.0
 10
220.4578816942214
 20
119.7047696017878
 30
0.0
 10
220.4610688754603
 20
119.6787532252834
 30
0.0
 10
220.4671916222455
 20
119.6287743650726
 30
0.0
 10
220.4843114338046
 20
119.5579368543841
 30
0.0
 10
220.5063457359047
 20
119.4942466623834
 30
0.0
 10
220.5337998688765
 20
119.4368585077831
 30
0.0
 10
220.5699147347474
 20
119.3864604710982
 30
0.0
 10
220.6134269358527
 20
119.3410022116493
 30
0.0
 10
220.666270135952
 20
119.3016381115859
 30
0.0
 10
220.7259180628986
 20
119.2666066415947
 30
0.0
 10
220.7923492070246
 20
119.2391013970055
 30
0.0
 10
220.863270378135
 20
119.2187113064414
 30
0.0
 10
220.9383433440691
 20
119.2066300153122
 30
0.0
 10
220.9897486911683
 20
119.205072183976
 30
0.0
 10
221.0159971007469
 20
119.2042767298594
 30
0.0
  0
LINE
  5
1D6
330
1F
100
AcDbEntity
  8
0
  6
Continuous
 62
     7
370
     0
100
AcDbLine
 10
220.1681226631
 20
119.7047696018
 30
0.0
 11
220.4578816942
 21
119.7047696018
 31
0.0
  0
SPLINE
  5
1D7
330
1F
100
AcDbEntity
  8
0
  6
Continuous
 62
     7
370
     0
100
AcDbSpline
210
0.0
220
0.0
230
1.0
 70
     8
 71
     3
 72
    31
 73
    27
 74
     0
 42
0.000000001
 43
0.00000001
 40
0.0
 40
0.0
 40
0.0
 40
0.0
 40
0.0524925849212958
 40
0.1028254751380329
 40
0.1513973394924577
 40
0.1980330772483325
 40
0.2428758954632244
 40
0.2859991683849086
 40
0.3278486614843783
 40
0.3683945968796912
 40
0.4078519911389193
 40
0.4468375528599373
 40
0.4851660451611073
 40
0.5233414044713736
 40
0.5616022144094737
 40
0.5999198855663566
 40
0.6384964264110082
 40
0.6777905770472508
 40
0.7172899891758322
 40
0.7566052415928194
 40
0.7960678905323556
 40
0.8358862309537683
 40
0.8757136832726162
 40
0.9162634539474125
 40
0.9577596754778291
 40
1.0
 40
1.0
 40
1.0
 40
1.0
 10
221.0287563762648
 20
118.9672011589459
 30
0.0
 10
221.0063856310351
 20
118.9673857725396
 30
0.0
 10
220.9625645368582
 20
118.967747404197
 30
0.0
 10
220.8981743331956
 20
118.9721268776654
 30
0.0
 10
220.8364680241729
 20
118.9784620012687
 30
0.0
 10
220.7775061659323
 20
118.9878982383998
 30
0.0
 10
220.7214736570419
 20
119.0002780691282
 30
0.0
 10
220.6681693662156
 20
119.0151438532358
 30
0.0
 10
220.617466947214
 20
119.032264868458
 30
0.0
 10
220.5695435559331
 20
119.0523988856107
 30
0.0
 10
220.5245242924561
 20
119.0757924141659
 30
0.0
 10
220.4815996649187
 20
119.1010281125157
 30
0.0
 10
220.4414713048908
 20
119.129633959256
 30
0.0
 10
220.4040547371749
 20
119.1611604571326
 30
0.0
 10
220.36840190555
 20
119.1946968337193
 30
0.0
 10
220.3359905137878
 20
119.2316126870856
 30
0.0
 10
220.3057186573661
 20
119.2708284646645
 30
0.0
 10
220.2782780394495
 20
119.3127030841838
 30
0.0
 10
220.2537640249065
 20
119.3566886870911
 30
0.0
 10
220.231718941717
 20
119.4020465824795
 30
0.0
 10
220.2131456506739
 20
119.449105806457
 30
0.0
 10
220.1981773454265
 20
119.4976285227298
 30
0.0
 10
220.1854984330329
 20
119.5472900166775
 30
0.0
 10
220.1767059003158
 20
119.5985046269148
 30
0.0
 10
220.1702413341034
 20
119.6511115580576
 30
0.0
 10
220.1688330581967
 20
119.6867779405404
 30
0.0
 10
220.168122663105
 20
119.7047696017878
 30
0.0
  0
SPLINE
  5
1D8
330
1F
100
AcDbEntity
  8
0
  6
Continuous
 62
     7
370
     0
100
AcDbSpline
210
0.0
220
0.0
230
1.0
 70
     8
 71
     3
 72
    23
 73
    19
 74
     0
 42
0.000000001
 43
0.00000001
 40
0.0
 40
0.0
 40
0.0
 40
0.0
 40
0.0642545754247026
 40
0.1273603868320974
 40
0.1894718420926418
 40
0.2517207629332009
 40
0.3120272840890019
 40
0.3686746571150511
 40
0.4226814918055485
 40
0.4740604252251507
 40
0.5257737722739171
 40
0.5796221048577139
 40
0.6373752855308659
 40
0.6984003818208013
 40
0.7643573310122579
 40
0.8363147679791494
 40
0.9146777942540467
 40
1.0
 40
1.0
 40
1.0
 40
1.0
 10
210.6455872314143
 20
116.4211083088232
 30
0.0
 10
210.6448774636541
 20
116.3977430359493
 30
0.0
 10
210.6434706175907
 20
116.3514302220836
 30
0.0
 10
210.6321720753252
 20
116.283265548436
 30
0.0
 10
210.6130781379592
 20
116.2176968773701
 30
0.0
 10
210.5867969570342
 20
116.1557843750582
 30
0.0
 10
210.5554818720593
 20
116.0985371515429
 30
0.0
 10
210.5198911808257
 20
116.0474541257756
 30
0.0
 10
210.4809325196042
 20
116.0030609385699
 30
0.0
 10
210.43750885254
 20
115.9657183332178
 30
0.0
 10
210.3899002809157
 20
115.9340253891736
 30
0.0
 10
210.3367621372275
 20
115.9073378576434
 30
0.0
 10
210.2785052759919
 20
115.8838020123741
 30
0.0
 10
210.2139456589965
 20
115.8650007103544
 30
0.0
 10
210.1431126736296
 20
115.8500649805367
 30
0.0
 10
210.0650450513545
 20
115.8403612125541
 30
0.0
 10
209.9796228530264
 20
115.8334146155347
 30
0.0
 10
209.9201081657024
 20
115.8328365815813
 30
0.0
 10
209.8890856700619
 20
115.8325352768679
 30
0.0
  0
SPLINE
  5
1D9
330
1F
100
AcDbEntity
  8
0
  6
Continuous
 62
     7
370
     0
100
AcDbSpline
210
0.0
220
0.0
230
1.0
 70
     8
 71
     3
 72
    23
 73
    19
 74
     0
 42
0.000000001
 43
0.00000001
 40
0.0
 40
0.0
 40
0.0
 40
0.0
 40
0.0704642259291737
 40
0.1379569656042678
 40
0.2035785636142833
 40
0.2676916802449432
 40
0.3301858648593747
 40
0.3915337640898193
 40
0.4526637734870349
 40
0.5131537880892134
 40
0.5734535531000284
 40
0.6329675593891932
 40
0.6923319074206212
 40
0.7514741915716296
 40
0.8121874455294297
 40
0.8729617178483159
 40
0.935420306759491
 40
1.0
 40
1.0
 40
1.0
 40
1.0
 10
210.2582814810157
 20
116.9125462110293
 30
0.0
 10
210.2734396657141
 20
116.9078010491666
 30
0.0
 10
210.3031168123441
 20
116.8985108295802
 30
0.0
 10
210.3457807936232
 20
116.8815110307792
 30
0.0
 10
210.3858292422174
 20
116.8621543269189
 30
0.0
 10
210.4233493325433
 20
116.8404089094609
 30
0.0
 10
210.4580875460962
 20
116.8160734051282
 30
0.0
 10
210.4899458645658
 20
116.7891098762019
 30
0.0
 10
210.5191451797675
 20
116.7599355762659
 30
0.0
 10
210.5456333242617
 20
116.7285682516949
 30
0.0
 10
210.5689003802275
 20
116.6952097579164
 30
0.0
 10
210.5897680227936
 20
116.6605891798603
 30
0.0
 10
210.6069996142804
 20
116.6242896094742
 30
0.0
 10
210.6211237223213
 20
116.586405289526
 30
0.0
 10
210.632142626376
 20
116.5471703120575
 30
0.0
 10
210.6400553989184
 20
116.5064337723298
 30
0.0
 10
210.6445654772471
 20
116.4642904926183
 30
0.0
 10
210.6452428766086
 20
116.4356617043344
 30
0.0
 10
210.6455872314143
 20
116.4211083088232
 30
0.0
  0
SPLINE
  5
1DA
330
1F
100
AcDbEntity
  8
0
  6
Continuous
 62
     7
370
     0
100
AcDbSpline
210
0.0
220
0.0
230
1.0
 70
     8
 71
     3
 72
    15
 73
    11
 74
     0
 42
0.000000001
 43
0.00000001
 40
0.0
 40
0.0
 40
0.0
 40
0.0
 40
0.1158426906010182
 40
0.2305685484828845
 40
0.3473546045205446
 40
0.4682527467344629
 40
0.5923025714800847
 40
0.7199701656206978
 40
0.8556003811349115
 40
1.0
 40
1.0
 40
1.0
 40
1.0
 10
210.5665620411098
 20
117.354593369295
 30
0.0
 10
210.5656033444113
 20
117.3325599896425
 30
0.0
 10
210.5636951937542
 20
117.2887056528839
 30
0.0
 10
210.5485084493955
 20
117.2241055475151
 30
0.0
 10
210.5245391205626
 20
117.161379247434
 30
0.0
 10
210.4906458110079
 20
117.1012893155789
 30
0.0
 10
210.4473259129925
 20
117.0449350835863
 30
0.0
 10
210.3936216100219
 20
116.9942232581618
 30
0.0
 10
210.3303046280444
 20
116.9490451580694
 30
0.0
 10
210.2827852351753
 20
116.9249639025945
 30
0.0
 10
210.2582814810157
 20
116.9125462110293
 30
0.0
  0
SPLINE
  5
1DB
330
1F
100
AcDbEntity
  8
0
  6
Continuous
 62
     7
370
     0
100
AcDbSpline
210
0.0
220
0.0
230
1.0
 70
     8
 71
     3
 72
    23
 73
    19
 74
     0
 42
0.000000001
 43
0.00000001
 40
0.0
 40
0.0
 40
0.0
 40
0.0
 40
0.0587320371008649
 40
0.1146029008469814
 40
0.1676568100446127
 40
0.2179667070908439
 40
0.2657752056293755
 40
0.3111706510536967
 40
0.3537918046646701
 40
0.3947449080003073
 40
0.472805951082463
 40
0.5491923665616076
 40
0.6247801075795552
 40
0.7026247640242257
 40
0.7797414321940389
 40
0.8540634639886254
 40
0.9271552664103497
 40
0.9999999999999999
 40
0.9999999999999999
 40
0.9999999999999999
 40
0.9999999999999999
 10
209.8870277223977
 20
117.8871902247846
 30
0.0
 10
209.9061041188671
 20
117.8871170431268
 30
0.0
 10
209.9433275914556
 20
117.8869742449081
 30
0.0
 10
209.9976815585728
 20
117.8834030093159
 30
0.0
 10
210.0491588241998
 20
117.878518299647
 30
0.0
 10
210.0978702069419
 20
117.8722217590859
 30
0.0
 10
210.1436049331676
 20
117.8630856065926
 30
0.0
 10
210.1863203833131
 20
117.8520177685723
 30
0.0
 10
210.2262388476347
 20
117.8392513749906
 30
0.0
 10
210.2750330872556
 20
117.8198040224577
 30
0.0
 10
210.3312630988739
 20
117.7898704131411
 30
0.0
 10
210.3914907831409
 20
117.7452047446243
 30
0.0
 10
210.4438912084506
 20
117.6915772987829
 30
0.0
 10
210.4870090524442
 20
117.6300903954468
 30
0.0
 10
210.5225335055737
 20
117.5644107864671
 30
0.0
 10
210.5477199269618
 20
117.4957897307576
 30
0.0
 10
210.563822970315
 20
117.4257212759154
 30
0.0
 10
210.5656500485855
 20
117.3782758966795
 30
0.0
 10
210.5665620411098
 20
117.354593369295
 30
0.0
  0
LINE
  5
1DC
330
1F
100
AcDbEntity
  8
0
  6
Continuous
 62
     7
370
     0
100
AcDbLine
 10
209.1177668855
 20
117.8871902248
 30
0.0
 11
209.8870277224
 21
117.8871902248
 31
0.0
  0
LINE
  5
1DD
330
1F
100
AcDbEntity
  8
0
  6
Continuous
 62
     7
370
     0
100
AcDbLine
 10
209.1177668855
 20
115.8325352769
 30
0.0
 11
209.1177668855
 21
117.8871902248
 31
0.0
  0
LINE
  5
1DE
330
1F
100
AcDbEntity
  8
0
  6
Continuous
 62
     7
370
     0
100
AcDbLine
 10
209.8890856701
 20
115.8325352769
 30
0.0
 11
209.1177668855
 21
115.8325352769
 31
0.0
  0
LINE
  5
1DF
330
1F
100
AcDbEntity
  8
0
  6
Continuous
 62
     7
370
     0
100
AcDbLine
 10
213.2418940045
 20
117.8871902248
 30
0.0
 11
213.4114688921
 21
117.8871902248
 31
0.0
  0
SPLINE
  5
1E0
330
1F
100
AcDbEntity
  8
0
  6
Continuous
 62
     7
370
     0
100
AcDbSpline
210
0.0
220
0.0
230
1.0
 70
     8
 71
     3
 72
    15
 73
    11
 74
     0
 42
0.000000001
 43
0.00000001
 40
0.0
 40
0.0
 40
0.0
 40
0.0
 40
0.1426572507006137
 40
0.2811689939054436
 40
0.4169771923679743
 40
0.550852492747558
 40
0.6783641702618118
 40
0.7950324430070947
 40
0.9019981783473519
 40
1.0
 40
1.0
 40
1.0
 40
1.0
 10
212.6739004492294
 20
117.3735264878054
 30
0.0
 10
212.7068168451486
 20
117.3904784976039
 30
0.0
 10
212.7716931124125
 20
117.42388990513
 30
0.0
 10
212.8633492492742
 20
117.4815959989976
 30
0.0
 10
212.9489201126037
 20
117.5441517802647
 30
0.0
 10
213.0269891658357
 20
117.6115433990648
 30
0.0
 10
213.0969730973953
 20
117.680429731088
 30
0.0
 10
213.1559495728107
 20
117.7499387459185
 30
0.0
 10
213.2052973345305
 20
117.8175225433326
 30
0.0
 10
213.2300560414337
 20
117.8646547470306
 30
0.0
 10
213.2418940045429
 20
117.8871902247846
 30
0.0
  0
LINE
  5
1E1
330
1F
100
AcDbEntity
  8
0
  6
Continuous
 62
     7
370
     0
100
AcDbLine
 10
212.6739004492
 20
117.1306886634
 30
0.0
 11
212.6739004492
 21
117.3735264878
 31
0.0
  0
SPLINE
  5
1E2
330
1F
100
AcDbEntity
  8
0
  6
Continuous
 62
     7
370
     0
100
AcDbSpline
210
0.0
220
0.0
230
1.0
 70
     8
 71
     3
 72
    15
 73
    11
 74
     0
 42
0.000000001
 43
0.00000001
 40
0.0
 40
0.0
 40
0.0
 40
0.0
 40
0.1116703001015865
 40
0.232094480856018
 40
0.3627434591045534
 40
0.5025575097108852
 40
0.6415251033312815
 40
0.7710984952996685
 40
0.8901617573732526
 40
1.0
 40
1.0
 40
1.0
 40
1.0
 10
213.1480515910563
 20
117.4336185595995
 30
0.0
 10
213.1328839995581
 20
117.4189912836995
 30
0.0
 10
213.1013598228396
 20
117.3885900937389
 30
0.0
 10
213.0480715323565
 20
117.3455648184804
 30
0.0
 10
212.9885949900033
 20
117.3019568782311
 30
0.0
 10
212.9237025365279
 20
117.2600229685324
 30
0.0
 10
212.85755565793
 20
117.2205467147561
 30
0.0
 10
212.7936332159421
 20
117.1850438936063
 30
0.0
 10
212.7330024229582
 20
117.1549998929221
 30
0.0
 10
212.6930645921485
 20
117.1385717144894
 30
0.0
 10
212.6739004492294
 20
117.1306886634323
 30
0.0
  0
LINE
  5
1E3
330
1F
100
AcDbEntity
  8
0
  6
Continuous
 62
     7
370
     0
100
AcDbLine
 10
213.1480515911
 20
115.8325352769
 30
0.0
 11
213.1480515911
 21
117.4336185596
 31
0.0
  0
LINE
  5
1E4
330
1F
100
AcDbEntity
  8
0
  6
Continuous
 62
     7
370
     0
100
AcDbLine
 10
213.4114688921
 20
115.8325352769
 30
0.0
 11
213.1480515911
 21
115.8325352769
 31
0.0
  0
LINE
  5
1E5
330
1F
100
AcDbEntity
  8
0
  6
Continuous
 62
     7
370
     0
100
AcDbLine
 10
213.4114688921
 20
117.8871902248
 30
0.0
 11
213.4114688921
 21
115.8325352769
 31
0.0
  0
LINE
  5
1E6
330
1F
100
AcDbEntity
  8
0
  6
Continuous
 62
     7
370
     0
100
AcDbLine
 10
216.3617426634
 20
116.6754706401
 30
0.0
 11
216.3617426634
 21
116.4383950692
 31
0.0
  0
LINE
  5
1E7
330
1F
100
AcDbEntity
  8
0
  6
Continuous
 62
     7
370
     0
100
AcDbLine
 10
215.5978324905
 20
116.6754706401
 30
0.0
 11
216.3617426634
 21
116.6754706401
 31
0.0
  0
LINE
  5
1E8
330
1F
100
AcDbEntity
  8
0
  6
Continuous
 62
     7
370
     0
100
AcDbLine
 10
215.5978324905
 20
116.4383950692
 30
0.0
 11
215.5978324905
 21
116.6754706401
 31
0.0
  0
LINE
  5
1E9
330
1F
100
AcDbEntity
  8
0
  6
Continuous
 62
     7
370
     0
100
AcDbLine
 10
216.3617426634
 20
116.4383950692
 30
0.0
 11
215.5978324905
 21
116.4383950692
 31
0.0
  0
SPLINE
  5
1EA
330
1F
100
AcDbEntity
  8
0
  6
Continuous
 62
     7
370
     0
100
AcDbSpline
210
0.0
220
0.0
230
1.0
 70
     8
 71
     3
 72
    15
 73
    11
 74
     0
 42
0.000000001
 43
0.00000001
 40
0.0
 40
0.0
 40
0.0
 40
0.0
 40
0.1379032299933933
 40
0.2688733426002942
 40
0.3951781273461129
 40
0.5170892381308878
 40
0.6367430265135473
 40
0.7562218164637978
 40
0.87662835946368
 40
1.0
 40
1.0
 40
1.0
 40
1.0
 10
219.1539660541974
 20
115.8061935467664
 30
0.0
 10
219.1302052722596
 20
115.8068713243276
 30
0.0
 10
219.0838782872957
 20
115.8081928040233
 30
0.0
 10
219.0162211417101
 20
115.8171714445857
 30
0.0
 10
218.9527213017869
 20
115.8329742735385
 30
0.0
 10
218.8928431827405
 20
115.8541680954631
 30
0.0
 10
218.8372598310012
 20
115.8825160527438
 30
0.0
 10
218.7857058581662
 20
115.9170068782737
 30
0.0
 10
218.737145324317
 20
115.9568381065679
 30
0.0
 10
218.7091909288312
 20
115.9882640313791
 30
0.0
 10
218.6950437250854
 20
116.0041681120605
 30
0.0
  0
SPLINE
  5
1EB
330
1F
100
AcDbEntity
  8
0
  6
Continuous
 62
     7
370
     0
100
AcDbSpline
210
0.0
220
0.0
230
1.0
 70
     8
 71
     3
 72
    31
 73
    27
 74
     0
 42
0.000000001
 43
0.00000001
 40
0.0
 40
0.0
 40
0.0
 40
0.0
 40
0.0628739462114324
 40
0.1228366299919129
 40
0.1796565674430314
 40
0.2339600122308621
 40
0.2855950186955591
 40
0.3345131060783806
 40
0.3809048259061764
 40
0.4248945919393348
 40
0.4665290347654876
 40
0.5064882940692466
 40
0.5450315536447544
 40
0.5818311798231345
 40
0.6174482799494432
 40
0.652066912769046
 40
0.685879714246511
 40
0.7191745547913925
 40
0.7521816462063932
 40
0.7852401639180911
 40
0.8186564497770835
 40
0.8525477406533115
 40
0.8876263422585192
 40
0.9236350780687517
 40
0.9610218444769894
 40
1.0
 40
1.0
 40
1.0
 40
1.0
 10
219.8125093067348
 20
116.8458687067099
 30
0.0
 10
219.8122389424988
 20
116.8166437233669
 30
0.0
 10
219.8117107327454
 20
116.7595469657792
 30
0.0
 10
219.8085730164691
 20
116.6760748549004
 30
0.0
 10
219.8026047969921
 20
116.5967669856178
 30
0.0
 10
219.7952607938864
 20
116.5214416866773
 30
0.0
 10
219.7841508554699
 20
116.4503000411754
 30
0.0
 10
219.7721792948797
 20
116.3830397870817
 30
0.0
 10
219.7573734315544
 20
116.3199663451854
 30
0.0
 10
219.7400984651053
 20
116.2610520720225
 30
0.0
 10
219.7206429301654
 20
116.2059854501328
 30
0.0
 10
219.6993069255244
 20
116.1543503165995
 30
0.0
 10
219.6756752517209
 20
116.1061819543601
 30
0.0
 10
219.6490445408895
 20
116.0619501734601
 30
0.0
 10
219.6206332686905
 20
116.021067871062
 30
0.0
 10
219.5902333527619
 20
115.9833816884593
 30
0.0
 10
219.5572002792964
 20
115.9494340387505
 30
0.0
 10
219.5215674271239
 20
115.919415466333
 30
0.0
 10
219.4840571568026
 20
115.8923749627787
 30
0.0
 10
219.4439232994373
 20
115.8692224817161
 30
0.0
 10
219.4013415146662
 20
115.8500410532952
 30
0.0
 10
219.3565963077901
 20
115.8336418849569
 30
0.0
 10
219.3092336741329
 20
115.8216255362603
 30
0.0
 10
219.2596271110162
 20
115.8124272091017
 30
0.0
 10
219.207593841638
 20
115.8070105679538
 30
0.0
 10
219.1720886176433
 20
115.8064696446443
 30
0.0
 10
219.1539660541974
 20
115.8061935467664
 30
0.0
  0
SPLINE
  5
1EC
330
1F
100
AcDbEntity
  8
0
  6
Continuous
 62
     7
370
     0
100
AcDbSpline
210
0.0
220
0.0
230
1.0
 70
     8
 71
     3
 72
    27
 73
    23
 74
     0
 42
0.000000001
 43
0.00000001
 40
0.0
 40
0.0
 40
0.0
 40
0.0
 40
0.0567243372181501
 40
0.1114372357370104
 40
0.1643678222229013
 40
0.2164353724620895
 40
0.2676414903219246
 40
0.3173597799690278
 40
0.3674730633322804
 40
0.418210397052808
 40
0.4714042826470199
 40
0.5279657201290492
 40
0.5880611158232136
 40
0.6521342629937142
 40
0.6863448363353054
 40
0.7232636803169651
 40
0.7626102507715418
 40
0.8047389366452182
 40
0.8494303387909499
 40
0.8967112583864923
 40
0.9468896380534765
 40
1.0
 40
1.0
 40
1.0
 40
1.0
 10
219.1539660541974
 20
117.8871902247846
 30
0.0
 10
219.1803532433067
 20
117.8864144600998
 30
0.0
 10
219.2321919347295
 20
117.8848904392598
 30
0.0
 10
219.3078766919075
 20
117.8724608018344
 30
0.0
 10
219.3792046975527
 20
117.8511979913269
 30
0.0
 10
219.4461296103794
 20
117.8225135426802
 30
0.0
 10
219.507507359371
 20
117.7860787721023
 30
0.0
 10
219.5623202762042
 20
117.7417867574537
 30
0.0
 10
219.609977115033
 20
117.6901025561414
 30
0.0
 10
219.6499577752053
 20
117.6304137273269
 30
0.0
 10
219.6849048629235
 20
117.5643668875144
 30
0.0
 10
219.7159510884987
 20
117.4916655941218
 30
0.0
 10
219.7440159746733
 20
117.4123913171583
 30
0.0
 10
219.763931428857
 20
117.3414297724829
 30
0.0
 10
219.7781371059738
 20
117.2801732491877
 30
0.0
 10
219.78754013554
 20
117.2296506016072
 30
0.0
 10
219.7953465351944
 20
117.1751363804383
 30
0.0
 10
219.8013272923244
 20
117.1167624702568
 30
0.0
 10
219.8062343624361
 20
117.0545943425973
 30
0.0
 10
219.8100238677942
 20
116.9885932903941
 30
0.0
 10
219.8119474297683
 20
116.9185943552464
 30
0.0
 10
219.8123185032815
 20
116.8705650472173
 30
0.0
 10
219.8125093067348
 20
116.8458687067099
 30
0.0
  0
SPLINE
  5
1ED
330
1F
100
AcDbEntity
  8
0
  6
Continuous
 62
     7
370
     0
100
AcDbSpline
210
0.0
220
0.0
230
1.0
 70
     8
 71
     3
 72
    31
 73
    27
 74
     0
 42
0.000000001
 43
0.00000001
 40
0.0
 40
0.0
 40
0.0
 40
0.0
 40
0.0631144583947934
 40
0.1236146457694899
 40
0.1809737111859575
 40
0.235261455008322
 40
0.2871007018338719
 40
0.3360307363034434
 40
0.3823823485850662
 40
0.426334083659707
 40
0.4682106947981599
 40
0.5082496012618049
 40
0.5466283366065846
 40
0.5836495392304459
 40
0.6189943150301614
 40
0.6535830186205956
 40
0.687156136190331
 40
0.7204221919788075
 40
0.7532302188118168
 40
0.7862601560778997
 40
0.8195039834988835
 40
0.8535452747120185
 40
0.8883082803397299
 40
0.9239958607406945
 40
0.9613503047546447
 40
1.0
 40
1.0
 40
1.0
 40
1.0
 10
218.49542280166
 20
116.8458687067099
 30
0.0
 10
218.4956881946484
 20
116.875231611912
 30
0.0
 10
218.4962079877525
 20
116.9327411781452
 30
0.0
 10
218.4994320955178
 20
117.0168880047914
 30
0.0
 10
218.5050611264227
 20
117.0967987618308
 30
0.0
 10
218.5134637199254
 20
117.1724040505047
 30
0.0
 10
218.5234139648678
 20
117.2438745268071
 30
0.0
 10
218.5363493460665
 20
117.3111081949975
 30
0.0
 10
218.5509035304103
 20
117.374255904642
 30
0.0
 10
218.5683659398336
 20
117.433251834483
 30
0.0
 10
218.5875514111791
 20
117.4886032421232
 30
0.0
 10
218.6093179404972
 20
117.5402213314085
 30
0.0
 10
218.6338082386913
 20
117.5880513750147
 30
0.0
 10
218.6598187598272
 20
117.6325893973203
 30
0.0
 10
218.6887187510605
 20
117.6731426487795
 30
0.0
 10
218.7187638668696
 20
117.7108492196427
 30
0.0
 10
218.75213760688
 20
117.7443262628284
 30
0.0
 10
218.7874522193905
 20
117.7744351456916
 30
0.0
 10
218.8252277212262
 20
117.8010044801643
 30
0.0
 10
218.8652642424788
 20
117.8239306110977
 30
0.0
 10
218.9074077335056
 20
117.844172731648
 30
0.0
 10
218.9524614026406
 20
117.8594109947101
 30
0.0
 10
218.9994899443713
 20
117.8718334094725
 30
0.0
 10
219.048855360024
 20
117.8809714883936
 30
0.0
 10
219.1006120495252
 20
117.8863586943108
 30
0.0
 10
219.1359804715118
 20
117.8869099166768
 30
0.0
 10
219.1539660541974
 20
117.8871902247846
 30
0.0
  0
SPLINE
  5
1EE
330
1F
100
AcDbEntity
  8
0
  6
Continuous
 62
     7
370
     0
100
AcDbSpline
210
0.0
220
0.0
230
1.0
 70
     8
 71
     3
 72
    15
 73
    11
 74
     0
 42
0.000000001
 43
0.00000001
 40
0.0
 40
0.0
 40
0.0
 40
0.0
 40
0.0974206681772145
 40
0.2008855880393207
 40
0.3111719701726504
 40
0.4297979458253728
 40
0.5577399263645871
 40
0.6947152693641585
 40
0.842129910206055
 40
1.0
 40
1.0
 40
1.0
 40
1.0
 10
218.6950437250854
 20
116.0041681120605
 30
0.0
 10
218.6787599681667
 20
116.0276576703085
 30
0.0
 10
218.6451821643465
 20
116.0760941449264
 30
0.0
 10
218.605882256337
 20
116.1586828272092
 30
0.0
 10
218.5708260425969
 20
116.2496013707089
 30
0.0
 10
218.543313342185
 20
116.3506335864707
 30
0.0
 10
218.521764039416
 20
116.4609753722692
 30
0.0
 10
218.5062000626197
 20
116.5808432421921
 30
0.0
 10
218.497392384011
 20
116.7101854093653
 30
0.0
 10
218.4960941498332
 20
116.799619950591
 30
0.0
 10
218.49542280166
 20
116.8458687067099
 30
0.0
  0
CIRCLE
  5
1EF
330
1F
100
AcDbEntity
  8
0
  6
Continuous
 62
     7
370
     0
100
AcDbCircle
 10
214.2544042553
 20
118.714142889
 30
0.0
 40
25.40000000000001
  0
SPLINE
  5
1F0
330
1F
100
AcDbEntity
  8
0
  6
Continuous
 62
     7
370
     0
100
AcDbSpline
210
0.0
220
0.0
230
1.0
 70
     8
 71
     3
 72
    15
 73
    11
 74
     0
 42
0.000000001
 43
0.00000001
 40
0.0
 40
0.0
 40
0.0
 40
0.0
 40
0.1276647678962251
 40
0.2517385630080497
 40
0.372753349387391
 40
0.4921467589723849
 40
0.6140696213092451
 40
0.7371973244121086
 40
0.8656069906011166
 40
1.0
 40
1.0
 40
1.0
 40
1.0
 10
219.1510849274675
 20
117.6501146538712
 30
0.0
 10
219.1374767067472
 20
117.6497574917928
 30
0.0
 10
219.1106430392782
 20
117.6490532139418
 30
0.0
 10
219.0713550358952
 20
117.642330888987
 30
0.0
 10
219.0341222566323
 20
117.6310896633436
 30
0.0
 10
218.9985181341946
 20
117.615862331713
 30
0.0
 10
218.9654315065079
 20
117.5953693510142
 30
0.0
 10
218.9335502402005
 20
117.5714423373516
 30
0.0
 10
218.9043675304352
 20
117.5422899418081
 30
0.0
 10
218.8867822855696
 20
117.5204960665864
 30
0.0
 10
218.8777894776645
 20
117.5093510336413
 30
0.0
  0
SPLINE
  5
1F1
330
1F
100
AcDbEntity
  8
0
  6
Continuous
 62
     7
370
     0
100
AcDbSpline
210
0.0
220
0.0
230
1.0
 70
     8
 71
     3
 72
    23
 73
    19
 74
     0
 42
0.000000001
 43
0.00000001
 40
0.0
 40
0.0
 40
0.0
 40
0.0
 40
0.1156291309254414
 40
0.2215410391198768
 40
0.3170478562190418
 40
0.4031508756396168
 40
0.4801812167162797
 40
0.5476493661481898
 40
0.6070358428421809
 40
0.6586524080635074
 40
0.705722890353646
 40
0.7498040879796471
 40
0.7925868153452743
 40
0.8338739610102607
 40
0.8747683933034326
 40
0.9152226988916382
 40
0.9568807037304798
 40
1.0
 40
1.0
 40
1.0
 40
1.0
 10
219.5490920057198
 20
116.8466918857755
 30
0.0
 10
219.5488425541426
 20
116.8853882963919
 30
0.0
 10
219.5483646143605
 20
116.9595291547513
 30
0.0
 10
219.5429630190221
 20
117.0655220599498
 30
0.0
 10
219.5344982336796
 20
117.1613839667098
 30
0.0
 10
219.5229197520604
 20
117.2472032508204
 30
0.0
 10
219.5075319521355
 20
117.3228867436835
 30
0.0
 10
219.4888686498986
 20
117.3885955651684
 30
0.0
 10
219.466628534683
 20
117.4441895805385
 30
0.0
 10
219.4401851170552
 20
117.4902272327728
 30
0.0
 10
219.4107483022754
 20
117.5279905971059
 30
0.0
 10
219.3799987586591
 20
117.5606780747909
 30
0.0
 10
219.3471677445155
 20
117.5884777096319
 30
0.0
 10
219.311673593066
 20
117.6107789867939
 30
0.0
 10
219.2746603475678
 20
117.6287708277114
 30
0.0
 10
219.2352775377167
 20
117.6411532707983
 30
0.0
 10
219.1939122654108
 20
117.6487606565221
 30
0.0
 10
219.1655238156872
 20
117.6496581646913
 30
0.0
 10
219.1510849274675
 20
117.6501146538712
 30
0.0
  0
SPLINE
  5
1F2
330
1F
100
AcDbEntity
  8
0
  6
Continuous
 62
     7
370
     0
100
AcDbSpline
210
0.0
220
0.0
230
1.0
 70
     8
 71
     3
 72
    23
 73
    19
 74
     0
 42
0.000000001
 43
0.00000001
 40
0.0
 40
0.0
 40
0.0
 40
0.0
 40
0.0407818458722593
 40
0.0808695887215865
 40
0.1202681657882668
 40
0.1601868504553523
 40
0.2004597376386388
 40
0.2422651778979076
 40
0.286459261549468
 40
0.3329520837492631
 40
0.3844305340495303
 40
0.4433891253601056
 40
0.5116814722136831
 40
0.5890200255490081
 40
0.6762451906507723
 40
0.7737051914728239
 40
0.881567767781983
 40
1.0
 40
1.0
 40
1.0
 40
1.0
 10
219.1539660541974
 20
116.0432691176799
 30
0.0
 10
219.1675717217743
 20
116.0437885456971
 30
0.0
 10
219.1945514897984
 20
116.0448185611174
 30
0.0
 10
219.2342681944263
 20
116.0516793308018
 30
0.0
 10
219.2721066118018
 20
116.0644974295185
 30
0.0
 10
219.3084079500418
 20
116.0812571480688
 30
0.0
 10
219.342984785202
 20
116.1029650077267
 30
0.0
 10
219.3756552753628
 20
116.1297078730384
 30
0.0
 10
219.4069411356382
 20
116.1610339078568
 30
0.0
 10
219.4369500153201
 20
116.197903417507
 30
0.0
 10
219.4642720676692
 20
116.2428210144528
 30
0.0
 10
219.4869376828124
 20
116.2981767744179
 30
0.0
 10
219.5063670678939
 20
116.3636955608569
 30
0.0
 10
219.5221722499756
 20
116.4398493389063
 30
0.0
 10
219.5341259865895
 20
116.5264989119068
 30
0.0
 10
219.5430761128632
 20
116.6237268727903
 30
0.0
 10
219.5483418964356
 20
116.7316627878015
 30
0.0
 10
219.5488343029392
 20
116.8071732196052
 30
0.0
 10
219.5490920057198
 20
116.8466918857755
 30
0.0
  0
SPLINE
  5
1F3
330
1F
100
AcDbEntity
  8
0
  6
Continuous
 62
     7
370
     0
100
AcDbSpline
210
0.0
220
0.0
230
1.0
 70
     8
 71
     3
 72
    23
 73
    19
 74
     0
 42
0.000000001
 43
0.00000001
 40
0.0
 40
0.0
 40
0.0
 40
0.0
 40
0.1184055081537694
 40
0.2266543328167021
 40
0.3240923419286017
 40
0.4117048030053216
 40
0.4890259050064154
 40
0.5569093973430753
 40
0.6162333444927065
 40
0.6673492812770746
 40
0.7135123932013472
 40
0.7576965045209778
 40
0.7994925114422906
 40
0.8399760647439392
 40
0.8798857418167756
 40
0.9191486593857411
 40
0.9592273564930826
 40
1.0
 40
1.0
 40
1.0
 40
1.0
 10
218.7588401026749
 20
116.8466918857755
 30
0.0
 10
218.7591016551079
 20
116.8071733978854
 30
0.0
 10
218.7596023243175
 20
116.7315262709372
 30
0.0
 10
218.7648331022509
 20
116.6234512987439
 30
0.0
 10
218.7738376711619
 20
116.5259529215141
 30
0.0
 10
218.7857422994113
 20
116.4391661321214
 30
0.0
 10
218.8014612286836
 20
116.3629735342712
 30
0.0
 10
218.8211982035162
 20
116.2975692901589
 30
0.0
 10
218.8434464685264
 20
116.2421684005813
 30
0.0
 10
218.8709782748852
 20
116.1974575169273
 30
0.0
 10
218.9011225619389
 20
116.161011624395
 30
0.0
 10
218.9322444782084
 20
116.1296669781634
 30
0.0
 10
218.965076214803
 20
116.1030247465789
 30
0.0
 10
218.9994035486095
 20
116.0808105587611
 30
0.0
 10
219.0357590929142
 20
116.0639914352297
 30
0.0
 10
219.0737453058834
 20
116.0518008970418
 30
0.0
 10
219.1133704529926
 20
116.0447854294879
 30
0.0
 10
219.140356978752
 20
116.0437774388079
 30
0.0
 10
219.1539660541974
 20
116.0432691176799
 30
0.0
  0
SPLINE
  5
1F4
330
1F
100
AcDbEntity
  8
0
  6
Continuous
 62
     7
370
     0
100
AcDbSpline
210
0.0
220
0.0
230
1.0
 70
     8
 71
     3
 72
    15
 73
    11
 74
     0
 42
0.000000001
 43
0.00000001
 40
0.0
 40
0.0
 40
0.0
 40
0.0
 40
0.0838881132795455
 40
0.1771540327539698
 40
0.2825136355617228
 40
0.3993998606601629
 40
0.5294908061912204
 40
0.6728021776758327
 40
0.82953576161967
 40
1.0
 40
1.0
 40
1.0
 40
1.0
 10
218.8777894776645
 20
117.5093510336413
 30
0.0
 10
218.8679990533398
 20
117.4929824322002
 30
0.0
 10
218.8473237385225
 20
117.4584153923365
 30
0.0
 10
218.8241892634217
 20
117.3983364528471
 30
0.0
 10
218.803753182664
 20
117.3296776607409
 30
0.0
 10
218.786927512714
 20
117.2513826506339
 30
0.0
 10
218.7747553208823
 20
117.1635857299607
 30
0.0
 10
218.7651458460954
 20
117.0663888582473
 30
0.0
 10
218.7601540816262
 20
116.959656337032
 30
0.0
 10
218.7592901800244
 20
116.885385611233
 30
0.0
 10
218.7588401026749
 20
116.8466918857755
 30
0.0
  0
SPLINE
  5
1F5
330
1F
100
AcDbEntity
  8
0
  6
Continuous
 62
     7
370
     0
100
AcDbSpline
210
0.0
220
0.0
230
1.0
 70
     8
 71
     3
 72
    11
 73
     7
 74
     0
 42
0.000000001
 43
0.00000001
 40
0.0
 40
0.0
 40
0.0
 40
0.0
 40
0.247294050035337
 40
0.4956077709090489
 40
0.746359172773196
 40
1.0
 40
1.0
 40
1.0
 40
1.0
 10
217.1783362965852
 20
120.8111222660506
 30
0.0
 10
217.170477505037
 20
120.7785972801748
 30
0.0
 10
217.1547275176813
 20
120.7134131977173
 30
0.0
 10
217.1217508788168
 20
120.6179097723478
 30
0.0
 10
217.0840267492804
 20
120.5232797689103
 30
0.0
 10
217.0533902610197
 20
120.4623008406677
 30
0.0
 10
217.0379842658882
 20
120.431636716776
 30
0.0
  0
SPLINE
  5
1F6
330
1F
100
AcDbEntity
  8
0
  6
Continuous
 62
     7
370
     0
100
AcDbSpline
210
0.0
220
0.0
230
1.0
 70
     8
 71
     3
 72
    15
 73
    11
 74
     0
 42
0.000000001
 43
0.00000001
 40
0.0
 40
0.0
 40
0.0
 40
0.0
 40
0.1531481085926329
 40
0.2994334688329071
 40
0.4364263514567511
 40
0.5656705729563585
 40
0.686508310287873
 40
0.7992685160630044
 40
0.9033947408013442
 40
1.0
 40
1.0
 40
1.0
 40
1.0
 10
217.329389655136
 20
120.4028254494774
 30
0.0
 10
217.3217369016358
 20
120.4236905248186
 30
0.0
 10
217.3067743235945
 20
120.4644856867325
 30
0.0
 10
217.2844606118981
 20
120.5237576131762
 30
0.0
 10
217.2640751644636
 20
120.5800446673027
 30
0.0
 10
217.2440855592447
 20
120.6325397733794
 30
0.0
 10
217.2260405855666
 20
120.6820054755861
 30
0.0
 10
217.209408070797
 20
120.7281076555092
 30
0.0
 10
217.1929586540303
 20
120.7705258809306
 30
0.0
 10
217.1830871276335
 20
120.7979324252469
 30
0.0
 10
217.1783362965852
 20
120.8111222660506
 30
0.0
  0
LINE
  5
1F7
330
1F
100
AcDbEntity
  8
0
  6
Continuous
 62
     7
370
     0
100
AcDbLine
 10
217.5290105786
 20
119.8628199824
 30
0.0
 11
217.3293896551
 21
120.4028254495
 31
0.0
  0
LINE
  5
1F8
330
1F
100
AcDbEntity
  8
0
  6
Continuous
 62
     7
370
     0
100
AcDbLine
 10
216.8276620146
 20
119.8628199824
 30
0.0
 11
217.5290105786
 21
119.8628199824
 31
0.0
  0
LINE
  5
1F9
330
1F
100
AcDbEntity
  8
0
  6
Continuous
 62
     7
370
     0
100
AcDbLine
 10
217.0379842659
 20
120.4316367168
 30
0.0
 11
216.8276620146
 21
119.8628199824
 31
0.0
  0
SPLINE
  5
1FA
330
1F
100
AcDbEntity
  8
0
  6
Continuous
 62
     7
370
     0
100
AcDbSpline
210
0.0
220
0.0
230
1.0
 70
     8
 71
     3
 72
    31
 73
    27
 74
     0
 42
0.000000001
 43
0.00000001
 40
0.0
 40
0.0
 40
0.0
 40
0.0
 40
0.0508516157922844
 40
0.0997524678094164
 40
0.1474376477769319
 40
0.1940857839327041
 40
0.239170927084144
 40
0.2833398222454342
 40
0.3265771497238441
 40
0.368936281499902
 40
0.4105718726814497
 40
0.451050593494912
 40
0.490876862992416
 40
0.530044332484386
 40
0.5689366633103307
 40
0.6075778621311337
 40
0.646420096450513
 40
0.6856793513063946
 40
0.7247985849801969
 40
0.7635130084045113
 40
0.8021725263787551
 40
0.8407403615726128
 40
0.8796493769005862
 40
0.9190706128663402
 40
0.9590978622172246
 40
1.0
 40
1.0
 40
1.0
 40
1.0
 10
212.1865784423518
 20
120.0196355944073
 30
0.0
 10
212.1864034935954
 20
120.0399500752788
 30
0.0
 10
212.1860603074465
 20
120.0797997352676
 30
0.0
 10
212.1815153726292
 20
120.1385385900527
 30
0.0
 10
212.1756529899089
 20
120.1954503301315
 30
0.0
 10
212.1667274210781
 20
120.2504615189895
 30
0.0
 10
212.1544268547699
 20
120.3033443427849
 30
0.0
 10
212.1407999161509
 20
120.3545013995389
 30
0.0
 10
212.1237599059456
 20
120.4034918458657
 30
0.0
 10
212.1044256395993
 20
120.450507803578
 30
0.0
 10
212.082790922939
 20
120.495307901668
 30
0.0
 10
212.0583898399109
 20
120.5375144574725
 30
0.0
 10
212.0315059811571
 20
120.576963381256
 30
0.0
 10
212.0028647045334
 20
120.6144025846412
 30
0.0
 10
211.9708800180981
 20
120.6483830171289
 30
0.0
 10
211.9370920034838
 20
120.6803400279563
 30
0.0
 10
211.9007331670984
 20
120.7096133782539
 30
0.0
 10
211.862166356792
 20
120.7362107147005
 30
0.0
 10
211.8219386927768
 20
120.7601525092427
 30
0.0
 10
211.780133104106
 20
120.7806435789452
 30
0.0
 10
211.7374156133026
 20
120.7986424092243
 30
0.0
 10
211.6930711900033
 20
120.8124392680441
 30
0.0
 10
211.6477121452311
 20
120.8235666371763
 30
0.0
 10
211.6011551135638
 20
120.8320189103937
 30
0.0
 10
211.553227287666
 20
120.8363958908202
 30
0.0
 10
211.5209086140296
 20
120.8371054043059
 30
0.0
 10
211.5045745864427
 20
120.8374639961521
 30
0.0
  0
SPLINE
  5
1FB
330
1F
100
AcDbEntity
  8
0
  6
Continuous
 62
     7
370
     0
100
AcDbSpline
210
0.0
220
0.0
230
1.0
 70
     8
 71
     3
 72
    23
 73
    19
 74
     0
 42
0.000000001
 43
0.00000001
 40
0.0
 40
0.0
 40
0.0
 40
0.0
 40
0.0610549117432832
 40
0.1195453450847438
 40
0.1768063562451035
 40
0.2329564830316851
 40
0.2885834899465033
 40
0.3446666617213001
 40
0.4016615108374461
 40
0.4605400973082778
 40
0.5204770623221882
 40
0.5812128653554004
 40
0.6434307597220102
 40
0.7079608695212424
 40
0.7753707435336737
 40
0.8464136772813298
 40
0.9211518871893691
 40
1.0
 40
1.0
 40
1.0
 40
1.0
 10
211.5004586911144
 20
119.2042767298594
 30
0.0
 10
211.5249116112218
 20
119.2048887781606
 30
0.0
 10
211.5727903598615
 20
119.206087167009
 30
0.0
 10
211.6430592178712
 20
119.216118450826
 30
0.0
 10
211.7098224990643
 20
119.2331962839408
 30
0.0
 10
211.7737419468715
 20
119.2559307484163
 30
0.0
 10
211.833661959515
 20
119.2866638688029
 30
0.0
 10
211.8909838949172
 20
119.3226521845991
 30
0.0
 10
211.944145149727
 20
119.3666288757022
 30
0.0
 10
211.9944506823289
 20
119.4160279140742
 30
0.0
 10
212.0395713563481
 20
119.4721789939589
 30
0.0
 10
212.0796064557992
 20
119.5336989353558
 30
0.0
 10
212.1121281526026
 20
119.6015103809917
 30
0.0
 10
212.1402062483801
 20
119.6741195375523
 30
0.0
 10
212.1607666483404
 20
119.7528987457208
 30
0.0
 10
212.1759620438328
 20
119.8369524442444
 30
0.0
 10
212.1851191108597
 20
119.9265510074304
 30
0.0
 10
212.1860833972271
 20
119.9880587585646
 30
0.0
 10
212.1865784423518
 20
120.0196355944073
 30
0.0
  0
SPLINE
  5
1FC
330
1F
100
AcDbEntity
  8
0
  6
Continuous
 62
     7
370
     0
100
AcDbSpline
210
0.0
220
0.0
230
1.0
 70
     8
 71
     3
 72
    23
 73
    19
 74
     0
 42
0.000000001
 43
0.00000001
 40
0.0
 40
0.0
 40
0.0
 40
0.0
 40
0.0759644026221998
 40
0.1481252239748712
 40
0.2172006111446031
 40
0.2832999093723612
 40
0.3472018681362411
 40
0.4092995407059241
 40
0.4704256161074027
 40
0.5315880640528347
 40
0.5917391729173697
 40
0.6502577442905726
 40
0.7073030399522856
 40
0.7642084640229152
 40
0.8211475320101304
 40
0.8791188121552541
 40
0.9384228183936666
 40
1.0
 40
1.0
 40
1.0
 40
1.0
 10
210.8168084770739
 20
119.9904127375759
 30
0.0
 10
210.8172525190574
 20
119.9607492970209
 30
0.0
 10
210.8181183695872
 20
119.9029076814168
 30
0.0
 10
210.8280241683038
 20
119.8185776817455
 30
0.0
 10
210.8430546357595
 20
119.7390080325066
 30
0.0
 10
210.8637725485588
 20
119.6639753625663
 30
0.0
 10
210.8916224969312
 20
119.594221733946
 30
0.0
 10
210.9249207161425
 20
119.5290768820538
 30
0.0
 10
210.9647883650571
 20
119.4689738526875
 30
0.0
 10
211.0103458445456
 20
119.4140807777625
 30
0.0
 10
211.0604538492845
 20
119.3647689524838
 30
0.0
 10
211.1139993375535
 20
119.3216976962584
 30
0.0
 10
211.1709943461137
 20
119.2856285658107
 30
0.0
 10
211.2308069839152
 20
119.2558457987494
 30
0.0
 10
211.293866857191
 20
119.2325976333378
 30
0.0
 10
211.3599851009731
 20
119.2162733573181
 30
0.0
 10
211.4292102952107
 20
119.2060638478077
 30
0.0
 10
211.4764133407864
 20
119.2048798575032
 30
0.0
 10
211.5004586911144
 20
119.2042767298594
 30
0.0
  0
SPLINE
  5
1FD
330
1F
100
AcDbEntity
  8
0
  6
Continuous
 62
     7
370
     0
100
AcDbSpline
210
0.0
220
0.0
230
1.0
 70
     8
 71
     3
 72
    23
 73
    19
 74
     0
 42
0.000000001
 43
0.00000001
 40
0.0
 40
0.0
 40
0.0
 40
0.0
 40
0.0559431333569187
 40
0.1103820356898407
 40
0.1640478588828499
 40
0.2167594775435861
 40
0.2696011346144475
 40
0.3230085051908687
 40
0.3775814436721363
 40
0.4334493367080539
 40
0.490921858049893
 40
0.5506247708713257
 40
0.6131168723098185
 40
0.6798607463518506
 40
0.7513577440202002
 40
0.8282611012589941
 40
0.9107950320656293
 40
1.0
 40
1.0
 40
1.0
 40
1.0
 10
211.5045745864427
 20
120.8374639961521
 30
0.0
 10
211.4814886666259
 20
120.837005518894
 30
0.0
 10
211.4359375744321
 20
120.836100892177
 30
0.0
 10
211.3688809440756
 20
120.8260445616467
 30
0.0
 10
211.3042310818389
 20
120.8110190297982
 30
0.0
 10
211.2418876580408
 20
120.7900125356399
 30
0.0
 10
211.1823838864074
 20
120.762196636048
 30
0.0
 10
211.1254114829702
 20
120.728084241945
 30
0.0
 10
211.0704647341647
 20
120.6886041799395
 30
0.0
 10
211.0184100718771
 20
120.6427945272685
 30
0.0
 10
210.9698837406929
 20
120.590170418974
 30
0.0
 10
210.9288595959653
 20
120.5281282078645
 30
0.0
 10
210.8942833259742
 20
120.4581489717965
 30
0.0
 10
210.8654127774732
 20
120.3804100918815
 30
0.0
 10
210.8433998344568
 20
120.2943095318738
 30
0.0
 10
210.8281861374203
 20
120.2002178229122
 30
0.0
 10
210.8185805195123
 20
120.0980358155007
 30
0.0
 10
210.817414258658
 20
120.0272042258665
 30
0.0
 10
210.8168084770739
 20
119.9904127375759
 30
0.0
  0
OLE2FRAME
  5
1FE
330
1F
100
AcDbEntity
  8
0
100
AcDbOle2Frame
 70
     2
  3
Paintbrush Picture
 10
229.0524258301
 20
33.6996297921
 30
0.0
 11
265.1686469208
 21
28.555479607
 31
0.0
 71
     2
 72
     0
 73
     1
 90
     7296
310
80557333EF78ADA16C40002412788DD94040000000000000000041161DC7B292
310
7040002412788DD94040000000000000000041161DC7B2927040F6DD59E9338E
310
3C4000000000000000007333EF78ADA16C40F6DD59E9338E3C40000000000000
310
00000000000001000000000100000100000001000000000001000000001C0000
310
D0CF11E0A1B11AE1000000000000000000000000000000003E000300FEFF0900
310
0600000000000000000000000100000001000000000000000010000002000000
310
01000000FEFFFFFF0000000000000000FFFFFFFFFFFFFFFFFFFFFFFFFFFFFFFF
310
FFFFFFFFFFFFFFFFFFFFFFFFFFFFFFFFFFFFFFFFFFFFFFFFFFFFFFFFFFFFFFFF
310
FFFFFFFFFFFFFFFFFFFFFFFFFFFFFFFFFFFFFFFFFFFFFFFFFFFFFFFFFFFFFFFF
310
FFFFFFFFFFFFFFFFFFFFFFFFFFFFFFFFFFFFFFFFFFFFFFFFFFFFFFFFFFFFFFFF
310
FFFFFFFFFFFFFFFFFFFFFFFFFFFFFFFFFFFFFFFFFFFFFFFFFFFFFFFFFFFFFFFF
310
FFFFFFFFFFFFFFFFFFFFFFFFFFFFFFFFFFFFFFFFFFFFFFFFFFFFFFFFFFFFFFFF
310
FFFFFFFFFFFFFFFFFFFFFFFFFFFFFFFFFFFFFFFFFFFFFFFFFFFFFFFFFFFFFFFF
310
FFFFFFFFFFFFFFFFFFFFFFFFFFFFFFFFFFFFFFFFFFFFFFFFFFFFFFFFFFFFFFFF
310
FFFFFFFFFFFFFFFFFFFFFFFFFFFFFFFFFFFFFFFFFFFFFFFFFFFFFFFFFFFFFFFF
310
FFFFFFFFFFFFFFFFFFFFFFFFFFFFFFFFFFFFFFFFFFFFFFFFFFFFFFFFFFFFFFFF
310
FFFFFFFFFFFFFFFFFFFFFFFFFFFFFFFFFFFFFFFFFFFFFFFFFFFFFFFFFFFFFFFF
310
FFFFFFFFFFFFFFFFFFFFFFFFFFFFFFFFFFFFFFFFFFFFFFFFFFFFFFFFFFFFFFFF
310
FFFFFFFFFFFFFFFFFFFFFFFFFFFFFFFFFFFFFFFFFFFFFFFFFFFFFFFFFFFFFFFF
310
FFFFFFFFFFFFFFFFFFFFFFFFFFFFFFFFFFFFFFFFFFFFFFFFFFFFFFFFFFFFFFFF
310
FDFFFFFFFEFFFFFFFEFFFFFFFEFFFFFF05000000060000000700000008000000
310
090000000A0000000B0000000C000000FEFFFFFFFFFFFFFFFFFFFFFFFFFFFFFF
310
FFFFFFFFFFFFFFFFFFFFFFFFFFFFFFFFFFFFFFFFFFFFFFFFFFFFFFFFFFFFFFFF
310
FFFFFFFFFFFFFFFFFFFFFFFFFFFFFFFFFFFFFFFFFFFFFFFFFFFFFFFFFFFFFFFF
310
FFFFFFFFFFFFFFFFFFFFFFFFFFFFFFFFFFFFFFFFFFFFFFFFFFFFFFFFFFFFFFFF
310
FFFFFFFFFFFFFFFFFFFFFFFFFFFFFFFFFFFFFFFFFFFFFFFFFFFFFFFFFFFFFFFF
310
FFFFFFFFFFFFFFFFFFFFFFFFFFFFFFFFFFFFFFFFFFFFFFFFFFFFFFFFFFFFFFFF
310
FFFFFFFFFFFFFFFFFFFFFFFFFFFFFFFFFFFFFFFFFFFFFFFFFFFFFFFFFFFFFFFF
310
FFFFFFFFFFFFFFFFFFFFFFFFFFFFFFFFFFFFFFFFFFFFFFFFFFFFFFFFFFFFFFFF
310
FFFFFFFFFFFFFFFFFFFFFFFFFFFFFFFFFFFFFFFFFFFFFFFFFFFFFFFFFFFFFFFF
310
FFFFFFFFFFFFFFFFFFFFFFFFFFFFFFFFFFFFFFFFFFFFFFFFFFFFFFFFFFFFFFFF
310
FFFFFFFFFFFFFFFFFFFFFFFFFFFFFFFFFFFFFFFFFFFFFFFFFFFFFFFFFFFFFFFF
310
FFFFFFFFFFFFFFFFFFFFFFFFFFFFFFFFFFFFFFFFFFFFFFFFFFFFFFFFFFFFFFFF
310
FFFFFFFFFFFFFFFFFFFFFFFFFFFFFFFFFFFFFFFFFFFFFFFFFFFFFFFFFFFFFFFF
310
FFFFFFFFFFFFFFFFFFFFFFFFFFFFFFFFFFFFFFFFFFFFFFFFFFFFFFFFFFFFFFFF
310
FFFFFFFFFFFFFFFFFFFFFFFFFFFFFFFFFFFFFFFFFFFFFFFFFFFFFFFFFFFFFFFF
310
52006F006F007400200045006E00740072007900000000000000000000000000
310
0000000000000000000000000000000000000000000000000000000000000000
310
16000500FFFFFFFFFFFFFFFF020000000A00030000000000C000000000000046
310
000000000000000000000000102B43D62C01D10103000000C000000000000000
310
01004F006C006500000000000000000000000000000000000000000000000000
310
0000000000000000000000000000000000000000000000000000000000000000
310
0A000200FFFFFFFFFFFFFFFFFFFFFFFF00000000000000000000000000000000
310
0000000000000000000000000000000000000000000000001400000000000000
310
010043006F006D0070004F0062006A0000000000000000000000000000000000
310
0000000000000000000000000000000000000000000000000000000000000000
310
120002010100000003000000FFFFFFFF00000000000000000000000000000000
310
0000000000000000000000000000000000000000010000004D00000000000000
310
01004F006C006500310030004E00610074006900760065000000000000000000
310
0000000000000000000000000000000000000000000000000000000000000000
310
1A000200FFFFFFFFFFFFFFFFFFFFFFFF00000000000000000000000000000000
310
000000000000000000000000000000000000000004000000E411000000000000
310
FEFFFFFF02000000FEFFFFFFFFFFFFFFFFFFFFFFFFFFFFFFFFFFFFFFFFFFFFFF
310
FFFFFFFFFFFFFFFFFFFFFFFFFFFFFFFFFFFFFFFFFFFFFFFFFFFFFFFFFFFFFFFF
310
FFFFFFFFFFFFFFFFFFFFFFFFFFFFFFFFFFFFFFFFFFFFFFFFFFFFFFFFFFFFFFFF
310
FFFFFFFFFFFFFFFFFFFFFFFFFFFFFFFFFFFFFFFFFFFFFFFFFFFFFFFFFFFFFFFF
310
FFFFFFFFFFFFFFFFFFFFFFFFFFFFFFFFFFFFFFFFFFFFFFFFFFFFFFFFFFFFFFFF
310
FFFFFFFFFFFFFFFFFFFFFFFFFFFFFFFFFFFFFFFFFFFFFFFFFFFFFFFFFFFFFFFF
310
FFFFFFFFFFFFFFFFFFFFFFFFFFFFFFFFFFFFFFFFFFFFFFFFFFFFFFFFFFFFFFFF
310
FFFFFFFFFFFFFFFFFFFFFFFFFFFFFFFFFFFFFFFFFFFFFFFFFFFFFFFFFFFFFFFF
310
FFFFFFFFFFFFFFFFFFFFFFFFFFFFFFFFFFFFFFFFFFFFFFFFFFFFFFFFFFFFFFFF
310
FFFFFFFFFFFFFFFFFFFFFFFFFFFFFFFFFFFFFFFFFFFFFFFFFFFFFFFFFFFFFFFF
310
FFFFFFFFFFFFFFFFFFFFFFFFFFFFFFFFFFFFFFFFFFFFFFFFFFFFFFFFFFFFFFFF
310
FFFFFFFFFFFFFFFFFFFFFFFFFFFFFFFFFFFFFFFFFFFFFFFFFFFFFFFFFFFFFFFF
310
FFFFFFFFFFFFFFFFFFFFFFFFFFFFFFFFFFFFFFFFFFFFFFFFFFFFFFFFFFFFFFFF
310
FFFFFFFFFFFFFFFFFFFFFFFFFFFFFFFFFFFFFFFFFFFFFFFFFFFFFFFFFFFFFFFF
310
FFFFFFFFFFFFFFFFFFFFFFFFFFFFFFFFFFFFFFFFFFFFFFFFFFFFFFFFFFFFFFFF
310
FFFFFFFFFFFFFFFFFFFFFFFFFFFFFFFFFFFFFFFFFFFFFFFFFFFFFFFFFFFFFFFF
310
0100000200000000000000000000000000000000000000000000000000000000
310
0000000000000000000000000000000000000000000000000000000000000000
310
0100FEFF030A0000FFFFFFFF0A00030000000000C00000000000004607000000
310
5042727573680007000000504272757368000700000050427275736800F439B2
310
7100000000000000000000000000000000000000000000000000000000000000
310
0000000000000000000000000000000000000000000000000000000000000000
310
0000000000000000000000000000000000000000000000000000000000000000
310
0000000000000000000000000000000000000000000000000000000000000000
310
0000000000000000000000000000000000000000000000000000000000000000
310
0000000000000000000000000000000000000000000000000000000000000000
310
0000000000000000000000000000000000000000000000000000000000000000
310
0000000000000000000000000000000000000000000000000000000000000000
310
0000000000000000000000000000000000000000000000000000000000000000
310
0000000000000000000000000000000000000000000000000000000000000000
310
0000000000000000000000000000000000000000000000000000000000000000
310
0000000000000000000000000000000000000000000000000000000000000000
310
E0110000424DDE11000000000000360400002800000096000000170000000100
310
08000000000000000000E7240000E72400000001000000010000000000FF0101
310
01FF020202FF030303FF040404FF050505FF060606FF070707FF080808FF0909
310
09FF0A0A0AFF0B0B0BFF0C0C0CFF0D0D0DFF0E0E0EFF0F0F0FFF101010FF1111
310
11FF121212FF131313FF141414FF151515FF161616FF171717FF181818FF1919
310
19FF1A1A1AFF1B1B1BFF1C1C1CFF1D1D1DFF1E1E1EFF1F1F1FFF202020FF2121
310
21FF222222FF232323FF242424FF252525FF262626FF272727FF282828FF2929
310
29FF2A2A2AFF2B2B2BFF2C2C2CFF2D2D2DFF2E2E2EFF2F2F2FFF303030FF3131
310
31FF323232FF333333FF343434FF353535FF363636FF373737FF383838FF3939
310
39FF3A3A3AFF3B3B3BFF3C3C3CFF3D3D3DFF3E3E3EFF3F3F3FFF404040FF4141
310
41FF424242FF434343FF444444FF454545FF464646FF474747FF484848FF4949
310
49FF4A4A4AFF4B4B4BFF4C4C4CFF4D4D4DFF4E4E4EFF4F4F4FFF505050FF5151
310
51FF525252FF535353FF545454FF555555FF565656FF575757FF585858FF5959
310
59FF5A5A5AFF5B5B5BFF5C5C5CFF5D5D5DFF5E5E5EFF5F5F5FFF606060FF6161
310
61FF626262FF636363FF646464FF656565FF666666FF676767FF686868FF6969
310
69FF6A6A6AFF6B6B6BFF6C6C6CFF6D6D6DFF6E6E6EFF6F6F6FFF707070FF7171
310
71FF727272FF737373FF747474FF757575FF767676FF777777FF787878FF7979
310
79FF7A7A7AFF7B7B7BFF7C7C7CFF7D7D7DFF7E7E7EFF7F7F7FFF808080FF8181
310
81FF828282FF838383FF848484FF858585FF868686FF878787FF888888FF8989
310
89FF8A8A8AFF8B8B8BFF8C8C8CFF8D8D8DFF8E8E8EFF8F8F8FFF909090FF9191
310
91FF929292FF939393FF949494FF959595FF969696FF979797FF989898FF9999
310
99FF9A9A9AFF9B9B9BFF9C9C9CFF9D9D9DFF9E9E9EFF9F9F9FFFA0A0A0FFA1A1
310
A1FFA2A2A2FFA3A3A3FFA4A4A4FFA5A5A5FFA6A6A6FFA7A7A7FFA8A8A8FFA9A9
310
A9FFAAAAAAFFABABABFFACACACFFADADADFFAEAEAEFFAFAFAFFFB0B0B0FFB1B1
310
B1FFB2B2B2FFB3B3B3FFB4B4B4FFB5B5B5FFB6B6B6FFB7B7B7FFB8B8B8FFB9B9
310
B9FFBABABAFFBBBBBBFFBCBCBCFFBDBDBDFFBEBEBEFFBFBFBFFFC0C0C0FFC1C1
310
C1FFC2C2C2FFC3C3C3FFC4C4C4FFC5C5C5FFC6C6C6FFC7C7C7FFC8C8C8FFC9C9
310
C9FFCACACAFFCBCBCBFFCCCCCCFFCDCDCDFFCECECEFFCFCFCFFFD0D0D0FFD1D1
310
D1FFD2D2D2FFD3D3D3FFD4D4D4FFD5D5D5FFD6D6D6FFD7D7D7FFD8D8D8FFD9D9
310
D9FFDADADAFFDBDBDBFFDCDCDCFFDDDDDDFFDEDEDEFFDFDFDFFFE0E0E0FFE1E1
310
E1FFE2E2E2FFE3E3E3FFE4E4E4FFE5E5E5FFE6E6E6FFE7E7E7FFE8E8E8FFE9E9
310
E9FFEAEAEAFFEBEBEBFFECECECFFEDEDEDFFEEEEEEFFEFEFEFFFF0F0F0FFF1F1
310
F1FFF2F2F2FFF3F3F3FFF4F4F4FFF5F5F5FFF6F6F6FFF7F7F7FFF8F8F8FFF9F9
310
F9FFFAFAFAFFFBFBFBFFFCFCFCFFFDFDFDFFFEFEFEFFFFFFFFFFFFFFFFFFFFFF
310
C94E4E4E4F4E4EFFFFFFFFFFC94E4E4E4E4E72FFFFFFFFFFFFFF734E4D4E4E4E
310
C9FFFFFFFFFFAA683516171616265B9BE9FFFFFFFFFF4E4E4E4D4E4EFFFFFFFF
310
FFFFFFFF4E4E4F4E4D4E4E4E4F4E4E4F4D4E4E4E4E4E4D4E4F4E4D4E4E4EAAFF
310
FFFFFFFFFFEA4E4F4F4E4E4E4E4E4D4D4F4F4E4E4E4E4E5B7FAAFFFFFFFFFFFF
310
C9744E1716171616164D8DEAFFFFFFFF0000FFFFFFFFFFFFBA161617161716FF
310
FFFFFFFFB917171616174FFFFFFFFFFFFFFF4E1716161616B9FFFFFFB9341717
310
1716171617171616268CFFFFFFFF161617161617FFFFFFFFFFFFFFB917161717
310
1617167F807F7F7F7F7F7F807F7F807F7F807F7F7F414EFFFFFFFFFFFF8C167F
310
7F807F7F7F7E7F7F807F807F7F807F4E3417258EFFFFEA4E162674AABAEAEBBA
310
AA74341680FFFFFF0000FFFFFFFFFFFFB9171717171617FFFFFFFFFFBB161616
310
16164EFFFFFFFFFFFFFF4E1717171717B9FFFF9C171617171716161616171616
310
171766FFFFFF161717161617FFFFFFFFFFFFFF8E16171717161616FFFFFFFFFF
310
FFFFFFFFFFFFFFFFFFFFFFFFFFAA16D9FFFFFFFFFF3467FFFFFFFFEAFFFFFFFF
310
FFFFFFFFFFFFFFFFFFCA671667EB26278DFFFFFFFFFFFFFFFFFFFF8C2541EAFF
310
0000FFFFFFFFFFFFB9171717171716FFFFFFFFFFBA16171617174EFFFFFFFFFF
310
FFFF4E1717161616BAFF9B1617161616171716171617161616161667FFFF1616
310
16161716FFFFFFFFFFFFFF7F16161617174017FFFFFFFFFFFFFFFFFFFFFFFFFF
310
FFFFFFFFFFFF344E7F7F7F7E7417DAFFFFFFFF80FFFFFFFFFFFFFFFFFFFFFFFF
310
FFFFFF9B163425CAFFFFFFFFFFFFFFFFFFFFFFFFCA2667FF0000FFFFFFFFFFFF
310
BA171717171617FFFFFFFFFFB916171716164EFFFFFFFFFFFFFF4F1716161717
310
B9C91716171616161716161617171616161617168DFF161716161717FFFFFFFF
310
FFFFFF7F17171716164F16FFFFFFFFFFFFFFFFFFFFFFFFFFFFFFFFFFFFFF9B16
310
17161617174EFFFFFFFFFF34FFFFFFFFD9BABABABABADAFFFFFFFFFF7F16AAFF
310
FFFFFFFFFFFFFFFFFFFFFFFFFF9C16BA0000FFFFFFFFFFFFB9161717161717FF
310
FFFFFFFFB917161716174DFFFFFFFFFFFFFF4E1616161616BA4E161617171716
310
419BEAEAAA4E16161617161726E9171717161616FFFFFFFFFFFFFF4F16161717
310
164E16FFFFFFFFFFBAB9B9B9B9B9BABABACAFFFFFFFFFFFFFFFFFFFFFFFFFFFF
310
FFFFBA16FFFFFFFF7F1617161617174DEAFFFFFFEA41FFFFFFFFFFAA4D16174E
310
9BFFFFFFFFFF34730000FFFFFFFFFFFFB9161617171617FFFFFFFFFFBA161616
310
16164EFFFFFFFFFFFFFF4F16161717169B1617161716175BFFFFFFFFFFFF7417
310
16171616168D171717161617FFFFFFFFFFFFEA2616171717167416FFFFFFFFFF
310
16171616171717171717EAFFFFFFFFFFFFFFFFFFFFFFFFFFFFFF6716FFFFFFFF
310
7F4EFFFFFFFFBA2573FFFFFFFFBAFFFFFFFFAA167FB9BB9B269BFFFFFFFF664F
310
0000FFFFFFFFFFFFB9171616161616FFFFFFFFFFBA16161717164EFFFFFFFFFF
310
FFFF4E16161616174E161617171626EAFFFFFFFFFFFFFF4E16161616164E1716
310
16161617FFFFFFFFFFFF671616161716347F16FFFFFFFFFF16B9FFFFFFFFFFFF
310
D9168DFFFFFFFFFFFFFFFFFFFFFFFFFFFFEA1716FFFFFFFF7F4EFFFFFFFFFF7F
310
4EFFFFFFFFFFFFFFFFFF5B66FFFFFFEA347FFFFFFFFF7F4D0000FFFFFFFFFFFF
310
B9171616171617FFFFFFFFFFBA17161716174EFFFFFFFFFFFFFF4D1716161617
310
17161716161673FFFFFFFFFFFFFFFF9B1617161717161616171616174F4E4E4E
310
4E341616171616167E7F16FFFFFFFFFF16BAFFFFFFFFFFFFFF5B41FFFFFFFF34
310
1616171616BAFFFFFF9B1716FFFFFFFF7F4EFFFFFFFFFF4E4EFFFFFFFF734E4E
310
4E4E267EDA9B67164EEAFFFFFFFF744D0000FFFFFFFFFFFFBA171717161617FF
310
FFFFFFFFBA1616171616347F7F7F7F80807F331616161717161717161716B9FF
310
FFFFFFFFFFFFFFE9161616161616171716161716171616161616171616171734
310
EA7F16FFFFFFFFFF16BAFFFFFFFFFFFFFFAA17C9FFFFFF7326BABA5B25FFFFFF
310
FF401716FFFFFFFF7F264F4E4E4E4217AAFFFFFFEA16677F73261616164173CA
310
FFFFFFFFFFFF417F0000FFFFFFFFFFFFBA171616171617FFFFFFFFFFBA161616
310
17171616161616161616161717161616161616161617EAFFFFFFFFFFFFFFFFFF
310
261717161716161617161616161617161617161616174EEAFF8016FFFFFFFFFF
310
17BAFFFFFFFFFFFFFFFF3467FFFFFFC916C9FF3467FFFFFFDA166716FFFFFFFF
310
9C4D4E4E4E4E67AAFFFFFFFF6834FF7F262567AAEAFFFFFFFFFFFFFFFF9B17D9
310
0000FFFFFFFFFFFFB9161616161616FFFFFFFFFFBA1617161717171616161616
310
1716171716161716161617171716FFFFFFFFFFFFFFFFFFFF4E17161716171616
310
1617171616161716171717161616169BFF7F17FFFFFFFFFF17B9FFFFFFFFFFFF
310
FFFF7326FFFFFFFF3473DA16AAFFFFFF7317AA16FFFFFFFFFFFFFFFFFFFFFFFF
310
FFFFEA6725BA4E167FEAFFFFFFFFFFFFFFFFFFFF9C167FFF0000FFFFFFFFFFFF
310
B9161717171716FFFFFFFFFFBA16161716171616171717161617161716161616
310
171617171617EAFFFFFFFFFFFFFFFFFF26161717161616161616161617171616
310
1616161616171616AA8016FFFFFFFFFF16BAFFFFFFFFFFFFFFFFDA179BFFFFFF
310
74348D26FFFFFFFF2566B917FFFFFFFFD8BAB9BAB9BADAFFFFEA41169B7425C9
310
FFFFFFFFFFFFFFFFFFFFAB4F1680FFFF0000FFFFFFFFFFFFBA161717171617FF
310
FFFFFFFFBA17161717161617171617161616161617171616171716171617BBFF
310
FFFFFFFFFFFFFFE9171616161617161617161716FFFFFFFFFFD9671616161617
310
348017FFFFFFFFFF16BAFFFFFFFFFFFFFFFFFF4E5AFFFFFFC916265AFFFFFFAA
310
16AABA16FFFFFFFF7F1617161616179BFFFFEB4127168DFFFFFFFFFFFFFFD99B
310
6734175AC9FFFFFF0000FFFFFFFFFFFFB9161617171617FFFFFFFFFFBB161616
310
1616347F807F7F7F7F8033171716171617171616161672FFFFFFFFFFFFFFFF9C
310
171617171617161716161617FFFFFFFFFFFFFF4117161616174E17FFFFFFFFFF
310
16BAFFFFFFFFFFFFFFFFFF9B16DAFFFFFF34169BFFFFFF5A26FFB917FFFFFFFF
310
7F4EFFFFFFEA5B26FFFFFFEA2616EAFFFFFFFFDA743416331617414E4E4E4ECA
310
0000FFFFFFFFFFFFBA161716161616FFFFFFFFFFBA17171616164EFFFFFFFFFF
310
FFFF4E16161717174E161717171626EBFFFFFFFFFFFFFF4E16161617165B1616
310
16171617FFFFFFFFFFFFFF6716161616161617FFFFFFFFFF16BAFFFFFFFFFFFF
310
FFFFFFEA268CFFFFFF7316EAFFFFEB1774FFB916FFFFFFFF7F4EFFFFFFFF7316
310
FFFFFFFF6826FFFFFFFFEB264D9CEABA257F807F7F6616BA0000FFFFFFFFFFFF
310
BA161716161616FFFFFFFFFFBA16171616164DFFFFFFFFFFFFFF4E1617161617
310
9B1617171717165BEBFFFFFFFFFF671616161617179B171616161616FFFFFFFF
310
FFFFFF3417161617171617FFFFFFFFFF17BAFFFFFFFFFFFFFFFFFFFF6734FFFF
310
FFEBCAFFFFFF8D17C9FFBA17FFFFFFFF7F357F808066174FFFFFFFFF7F16FFFF
310
FFFFD91673B99B415BFFFFFFFFBA16DA00009B7F7F7F807F671617161616167F
310
80807F7E6617161616164EFFFFFFFFFFFFFF4E1616161617B94E171716161616
310
349BC9D9AA4E16171616161634FF161617161717B9B9BAB9BA9B411716171716
310
163416FFFFFFFFFF16B9FFFFFFFFFFFFFFFFFFFFC917CAFFFFFFFFFFFFFF3342
310
FFFFBA17FFFFFFFF9B4E4E4F4E4E66EAFFFFFFFF5B16C9FFFFFFFFAA4E164E73
310
EAFFFFFFFF8D26FF00004E161716161616171617171616171717171617161616
310
17174EFFFFFFFFFFFFFF4E1717171616B9D92616171716171716171717171716
310
16171716AAFF161717171617161617171616161617161716166717FFFFFFFFFF
310
17B9FFFFFFFFFFFFFFFFFFFFFF3467FFFFFFFFFFFFCA168CFFFFBB17FFFFFFFF
310
FFFFFFFFFFFFFFFFFFFFFFEA26265BFFFFFFFFFFFFFFFFFFFFFFFFFFEA3467FF
310
00004D16161616161617161717161617161616171617171616164EFFFFFFFFFF
310
FFFF4D1617161616BAFF9B1616161616161716161616171717161766FFFF1616
310
16171617161617161716171616171717667F16FFFFFFFFFF17BAFFFFFFFFFFFF
310
FFFFFFFFFF8C26EAFFFFFFFFFF6617EAFFFFBA17FFFFFFFFFFFFFFFFFFFFFFFF
310
FFFFEA5A25BA269BFFFFFFFFFFFFFFFFFFFFFFFF6616DAFF00004E1616171616
310
1616161616161716161617171616171616174EFFFFFFFFFFFFFF4D1717171716
310
B9FFFF9C161616161616161716161717171667FFFFFF17161717171716161617
310
1716161616161641E97E16FFFFFFFFFF16B9FFFFFFFFFFFFFFFFFFFFFFEA169B
310
FFFFFFFFEA265BFFFFFFB916FFFFFFFFFFFFFFFFFFFFFFFFFF9B3416AAFF9B17
310
67EAFFFFFFFFFFFFFFFFEA5B169BFFFF00004D17161716161616161717171616
310
161717161716171716174EFFFFFFFFFFFFFF4D1616161616BAFFFFFFBB411616
310
161716161616171634ABFFFFFFFF161716161617171716171617171617267FFF
310
FF7F164E4E4E4E4F17BAFFFFFFFFFFFFFFFFFFFFFFFF66344D4E4E4F4117AAFF
310
FFFFBA174E4E4E4D4E4D4D4E4E4E4E4116174EBBFFFFFFCA342666ABEAFFFFEA
310
AA6725269CFFFFFF0000724F4E4D4D4D4E4D4D4E4E4E4D4E4E4E4E4E4E4E4E4D
310
4E4E74FFFFFFFFFFFFFF734E4E4E4D4ECAFFFFFFFFFFAA663416171717265B9B
310
FFFFFFFFFFFF7F8080807F80807F7F7F7F7F807FBAFFFFFFFF9B4E4E4F4D4D4E
310
4DC9FFFFFFFFFFFFFFFFFFFFFFFFBA4E4E4E4E4D4E4EFFFFFFFFC94E4E4E4F4E
310
4E4E4D4E4E5A807F9CD9FFFFFFFFFFFFFF9B5B2617171716174E8DEAFFFFFFFF
310
0000000000000000000000000000000000000000000000000000000000000000
  1
OLE
  0
ENDSEC
  0
SECTION
  2
OBJECTS
  0
DICTIONARY
  5
C
330
0
100
AcDbDictionary
281
     1
  3
ACAD_GROUP
350
D
  3
ACAD_LAYOUT
350
1A
  3
ACAD_MLINESTYLE
350
17
  3
ACAD_PLOTSETTINGS
350
19
  3
ACAD_PLOTSTYLENAME
350
E
  3
ACAD_SCALELIST
350
47
  0
DICTIONARY
  5
D
102
{ACAD_REACTORS
330
C
102
}
330
C
100
AcDbDictionary
281
     1
  0
DICTIONARY
  5
1A
102
{ACAD_REACTORS
330
C
102
}
330
C
100
AcDbDictionary
281
     1
  3
Layout1
350
1E
  3
Layout2
350
26
  3
Model
350
22
  0
DICTIONARY
  5
17
102
{ACAD_REACTORS
330
C
102
}
330
C
100
AcDbDictionary
281
     1
  3
Standard
350
18
  0
DICTIONARY
  5
19
102
{ACAD_REACTORS
330
C
102
}
330
C
100
AcDbDictionary
281
     1
  0
ACDBDICTIONARYWDFLT
  5
E
102
{ACAD_REACTORS
330
C
102
}
330
C
100
AcDbDictionary
281
     1
  3
Normal
350
F
100
AcDbDictionaryWithDefault
340
F
  0
DICTIONARY
  5
47
102
{ACAD_REACTORS
330
C
102
}
330
C
100
AcDbDictionary
281
     1
  3
A0
350
48
  3
A1
350
49
  3
A2
350
4A
  3
A3
350
4B
  3
A4
350
4C
  3
A5
350
4D
  3
A6
350
4E
  3
A7
350
4F
  3
A8
350
50
  3
A9
350
51
  3
B0
350
52
  3
B1
350
53
  3
B2
350
54
  3
B3
350
55
  3
B4
350
56
  3
B5
350
57
  3
B6
350
58
  3
B7
350
59
  3
B8
350
5A
  3
B9
350
5B
  3
C0
350
5C
  3
C1
350
5D
  3
C2
350
5E
  3
C3
350
5F
  3
C4
350
60
  3
C5
350
61
  3
C6
350
62
  3
C7
350
63
  3
C8
350
64
  3
C9
350
65
  3
D0
350
66
  3
D1
350
67
  3
D2
350
68
  0
LAYOUT
  5
1E
102
{ACAD_REACTORS
330
1A
102
}
330
1A
100
AcDbPlotSettings
  1

  2
none_device
  4

  6

 40
0.0
 41
0.0
 42
0.0
 43
0.0
 44
0.0
 45
0.0
 46
0.0
 47
0.0
 48
0.0
 49
0.0
140
0.0
141
0.0
142
1.0
143
1.0
 70
   688
 72
     1
 73
     0
 74
     5
  7

 75
    16
147
1.0
148
0.0
149
0.0
100
AcDbLayout
  1
Layout1
 70
     1
 71
     1
 10
0.0
 20
0.0
 11
420.0
 21
297.0
 12
0.0
 22
0.0
 32
0.0
 14
1.0000000000E+20
 24
1.0000000000E+20
 34
1.0000000000E+20
 15
-1.0000000000E+20
 25
-1.0000000000E+20
 35
-1.0000000000E+20
146
0.0
 13
0.0
 23
0.0
 33
0.0
 16
1.0
 26
0.0
 36
0.0
 17
0.0
 27
1.0
 37
0.0
 76
     0
330
1B
  0
LAYOUT
  5
26
102
{ACAD_REACTORS
330
1A
102
}
330
1A
100
AcDbPlotSettings
  1

  2
none_device
  4

  6

 40
0.0
 41
0.0
 42
0.0
 43
0.0
 44
0.0
 45
0.0
 46
0.0
 47
0.0
 48
0.0
 49
0.0
140
0.0
141
0.0
142
1.0
143
1.0
 70
   688
 72
     1
 73
     0
 74
     5
  7

 75
    16
147
1.0
148
0.0
149
0.0
100
AcDbLayout
  1
Layout2
 70
     1
 71
     2
 10
0.0
 20
0.0
 11
0.0
 21
0.0
 12
0.0
 22
0.0
 32
0.0
 14
0.0
 24
0.0
 34
0.0
 15
0.0
 25
0.0
 35
0.0
146
0.0
 13
0.0
 23
0.0
 33
0.0
 16
1.0
 26
0.0
 36
0.0
 17
0.0
 27
1.0
 37
0.0
 76
     0
330
23
  0
LAYOUT
  5
22
102
{ACAD_REACTORS
330
1A
102
}
330
1A
100
AcDbPlotSettings
  1

  2
none_device
  4
Letter_(8.50_x_11.00_Inches)
  6

 40
6.35
 41
6.35
 42
6.35000508
 43
6.35000508
 44
215.9
 45
279.4
 46
0.0
 47
0.0
 48
0.0
 49
0.0
140
0.0
141
0.0
142
1.0
143
1.0
 70
  1712
 72
     1
 73
     0
 74
     0
  7

 75
     0
147
1.0
148
0.0
149
0.0
100
AcDbLayout
  1
Model
 70
     1
 71
     0
 10
0.0
 20
0.0
 11
279.4
 21
215.9
 12
0.0
 22
0.0
 32
0.0
 14
0.0
 24
0.0
 34
0.0
 15
279.4
 25
215.9
 35
0.0
146
0.0
 13
0.0
 23
0.0
 33
0.0
 16
1.0
 26
0.0
 36
0.0
 17
0.0
 27
1.0
 37
0.0
 76
     0
330
1F
331
29
  0
MLINESTYLE
  5
18
102
{ACAD_REACTORS
330
17
102
}
330
17
100
AcDbMlineStyle
  2
Standard
 70
     0
  3

 62
   256
 51
90.0
 52
90.0
 71
     2
 49
0.5
 62
   256
  6
BYLAYER
 49
-0.5
 62
   256
  6
BYLAYER
  0
ACDBPLACEHOLDER
  5
F
102
{ACAD_REACTORS
330
E
102
}
330
E
  0
SCALE
  5
48
102
{ACAD_REACTORS
330
47
102
}
330
47
100
AcDbScale
 70
     0
300
1:1
140
1.0
141
1.0
290
     1
  0
SCALE
  5
49
102
{ACAD_REACTORS
330
47
102
}
330
47
100
AcDbScale
 70
     0
300
1:2
140
1.0
141
2.0
290
     0
  0
SCALE
  5
4A
102
{ACAD_REACTORS
330
47
102
}
330
47
100
AcDbScale
 70
     0
300
1:4
140
1.0
141
4.0
290
     0
  0
SCALE
  5
4B
102
{ACAD_REACTORS
330
47
102
}
330
47
100
AcDbScale
 70
     0
300
1:5
140
1.0
141
5.0
290
     0
  0
SCALE
  5
4C
102
{ACAD_REACTORS
330
47
102
}
330
47
100
AcDbScale
 70
     0
300
1:8
140
1.0
141
8.0
290
     0
  0
SCALE
  5
4D
102
{ACAD_REACTORS
330
47
102
}
330
47
100
AcDbScale
 70
     0
300
1:10
140
1.0
141
10.0
290
     0
  0
SCALE
  5
4E
102
{ACAD_REACTORS
330
47
102
}
330
47
100
AcDbScale
 70
     0
300
1:16
140
1.0
141
16.0
290
     0
  0
SCALE
  5
4F
102
{ACAD_REACTORS
330
47
102
}
330
47
100
AcDbScale
 70
     0
300
1:20
140
1.0
141
20.0
290
     0
  0
SCALE
  5
50
102
{ACAD_REACTORS
330
47
102
}
330
47
100
AcDbScale
 70
     0
300
1:30
140
1.0
141
30.0
290
     0
  0
SCALE
  5
51
102
{ACAD_REACTORS
330
47
102
}
330
47
100
AcDbScale
 70
     0
300
1:40
140
1.0
141
40.0
290
     0
  0
SCALE
  5
52
102
{ACAD_REACTORS
330
47
102
}
330
47
100
AcDbScale
 70
     0
300
1:50
140
1.0
141
50.0
290
     0
  0
SCALE
  5
53
102
{ACAD_REACTORS
330
47
102
}
330
47
100
AcDbScale
 70
     0
300
1:100
140
1.0
141
100.0
290
     0
  0
SCALE
  5
54
102
{ACAD_REACTORS
330
47
102
}
330
47
100
AcDbScale
 70
     0
300
2:1
140
2.0
141
1.0
290
     0
  0
SCALE
  5
55
102
{ACAD_REACTORS
330
47
102
}
330
47
100
AcDbScale
 70
     0
300
4:1
140
4.0
141
1.0
290
     0
  0
SCALE
  5
56
102
{ACAD_REACTORS
330
47
102
}
330
47
100
AcDbScale
 70
     0
300
8:1
140
8.0
141
1.0
290
     0
  0
SCALE
  5
57
102
{ACAD_REACTORS
330
47
102
}
330
47
100
AcDbScale
 70
     0
300
10:1
140
10.0
141
1.0
290
     0
  0
SCALE
  5
58
102
{ACAD_REACTORS
330
47
102
}
330
47
100
AcDbScale
 70
     0
300
100:1
140
100.0
141
1.0
290
     0
  0
SCALE
  5
59
102
{ACAD_REACTORS
330
47
102
}
330
47
100
AcDbScale
 70
     0
300
1/128" = 1'-0"
140
0.0078125
141
12.0
290
     0
  0
SCALE
  5
5A
102
{ACAD_REACTORS
330
47
102
}
330
47
100
AcDbScale
 70
     0
300
1/64" = 1'-0"
140
0.015625
141
12.0
290
     0
  0
SCALE
  5
5B
102
{ACAD_REACTORS
330
47
102
}
330
47
100
AcDbScale
 70
     0
300
1/32" = 1'-0"
140
0.03125
141
12.0
290
     0
  0
SCALE
  5
5C
102
{ACAD_REACTORS
330
47
102
}
330
47
100
AcDbScale
 70
     0
300
1/16" = 1'-0"
140
0.0625
141
12.0
290
     0
  0
SCALE
  5
5D
102
{ACAD_REACTORS
330
47
102
}
330
47
100
AcDbScale
 70
     0
300
3/32" = 1'-0"
140
0.09375
141
12.0
290
     0
  0
SCALE
  5
5E
102
{ACAD_REACTORS
330
47
102
}
330
47
100
AcDbScale
 70
     0
300
1/8" = 1'-0"
140
0.125
141
12.0
290
     0
  0
SCALE
  5
5F
102
{ACAD_REACTORS
330
47
102
}
330
47
100
AcDbScale
 70
     0
300
3/16" = 1'-0"
140
0.1875
141
12.0
290
     0
  0
SCALE
  5
60
102
{ACAD_REACTORS
330
47
102
}
330
47
100
AcDbScale
 70
     0
300
1/4" = 1'-0"
140
0.25
141
12.0
290
     0
  0
SCALE
  5
61
102
{ACAD_REACTORS
330
47
102
}
330
47
100
AcDbScale
 70
     0
300
3/8" = 1'-0"
140
0.375
141
12.0
290
     0
  0
SCALE
  5
62
102
{ACAD_REACTORS
330
47
102
}
330
47
100
AcDbScale
 70
     0
300
1/2" = 1'-0"
140
0.5
141
12.0
290
     0
  0
SCALE
  5
63
102
{ACAD_REACTORS
330
47
102
}
330
47
100
AcDbScale
 70
     0
300
3/4" = 1'-0"
140
0.75
141
12.0
290
     0
  0
SCALE
  5
64
102
{ACAD_REACTORS
330
47
102
}
330
47
100
AcDbScale
 70
     0
300
1" = 1'-0"
140
1.0
141
12.0
290
     0
  0
SCALE
  5
65
102
{ACAD_REACTORS
330
47
102
}
330
47
100
AcDbScale
 70
     0
300
1-1/2" = 1'-0"
140
1.5
141
12.0
290
     0
  0
SCALE
  5
66
102
{ACAD_REACTORS
330
47
102
}
330
47
100
AcDbScale
 70
     0
300
3" = 1'-0"
140
3.0
141
12.0
290
     0
  0
SCALE
  5
67
102
{ACAD_REACTORS
330
47
102
}
330
47
100
AcDbScale
 70
     0
300
6" = 1'-0"
140
6.0
141
12.0
290
     0
  0
SCALE
  5
68
102
{ACAD_REACTORS
330
47
102
}
330
47
100
AcDbScale
 70
     0
300
1'-0" = 1'-0"
140
12.0
141
12.0
290
     0
  0
ENDSEC
  0
EOF
