  0
SECTION
  2
HEADER
  9
$ACADVER
  1
AC1012
  9
$DWGCODEPAGE
  3
ansi_1252
  9
$INSBASE
 10
0.0
 20
0.0
 30
0.0
  9
$EXTMIN
 10
0.0
 20
0.0
 30
0.0
  9
$EXTMAX
 10
279.4
 20
215.9
 30
0.0
  9
$LIMMIN
 10
0.0
 20
0.0
  9
$LIMMAX
 10
279.4
 20
215.9
  9
$ORTHOMODE
 70
     0
  9
$REGENMODE
 70
     1
  9
$FILLMODE
 70
     1
  9
$QTEXTMODE
 70
     0
  9
$MIRRTEXT
 70
     1
  9
$DRAGMODE
 70
     2
  9
$LTSCALE
 40
1.0
  9
$OSMODE
 70
    37
  9
$ATTMODE
 70
     1
  9
$TEXTSIZE
 40
2.8222222222
  9
$TRACEWID
 40
1.0
  9
$TEXTSTYLE
  7
STANDARD
  9
$CLAYER
  8
0
  9
$CELTYPE
  6
BYLAYER
  9
$CECOLOR
 62
   256
  9
$CELTSCALE
 40
1.0
  9
$DELOBJ
 70
     1
  9
$DISPSILH
 70
     0
  9
$DIMSCALE
 40
1.0
  9
$DIMASZ
 40
3.175
  9
$DIMEXO
 40
1.27
  9
$DIMDLI
 40
3.75
  9
$DIMRND
 40
0.0
  9
$DIMDLE
 40
0.0
  9
$DIMEXE
 40
1.778
  9
$DIMTP
 40
0.0
  9
$DIMTM
 40
0.0
  9
$DIMTXT
 40
2.8222222222
  9
$DIMCEN
 40
2.5
  9
$DIMTSZ
 40
0.0
  9
$DIMTOL
 70
     0
  9
$DIMLIM
 70
     0
  9
$DIMTIH
 70
     1
  9
$DIMTOH
 70
     1
  9
$DIMSE1
 70
     0
  9
$DIMSE2
 70
     0
  9
$DIMTAD
 70
     0
  9
$DIMZIN
 70
     1
  9
$DIMBLK
  1

  9
$DIMASO
 70
     1
  9
$DIMSHO
 70
     1
  9
$DIMPOST
  1

  9
$DIMAPOST
  1

  9
$DIMALT
 70
     0
  9
$DIMALTD
 70
     3
  9
$DIMALTF
 40
0.0393700787
  9
$DIMLFAC
 40
1.0
  9
$DIMTOFL
 70
     1
  9
$DIMTVP
 40
0.0
  9
$DIMTIX
 70
     0
  9
$DIMSOXD
 70
     0
  9
$DIMSAH
 70
     0
  9
$DIMBLK1
  1

  9
$DIMBLK2
  1

  9
$DIMSTYLE
  2
ISO-25
  9
$DIMCLRD
 70
     0
  9
$DIMCLRE
 70
     0
  9
$DIMCLRT
 70
     0
  9
$DIMTFAC
 40
1.0
  9
$DIMGAP
 40
2.54
  9
$DIMJUST
 70
     0
  9
$DIMSD1
 70
     0
  9
$DIMSD2
 70
     0
  9
$DIMTOLJ
 70
     0
  9
$DIMTZIN
 70
     1
  9
$DIMALTZ
 70
     0
  9
$DIMALTTZ
 70
     0
  9
$DIMFIT
 70
     3
  9
$DIMUPT
 70
     0
  9
$DIMUNIT
 70
     2
  9
$DIMDEC
 70
     1
  9
$DIMTDEC
 70
     1
  9
$DIMALTU
 70
     2
  9
$DIMALTTD
 70
     3
  9
$DIMTXSTY
  7
STANDARD
  9
$DIMAUNIT
 70
     0
  9
$LUNITS
 70
     2
  9
$LUPREC
 70
     1
  9
$SKETCHINC
 40
1.0
  9
$FILLETRAD
 40
10.0
  9
$AUNITS
 70
     0
  9
$AUPREC
 70
     0
  9
$MENU
  1
.
  9
$ELEVATION
 40
0.0
  9
$PELEVATION
 40
0.0
  9
$THICKNESS
 40
0.0
  9
$LIMCHECK
 70
     0
  9
$CHAMFERA
 40
0.0
  9
$CHAMFERB
 40
0.0
  9
$CHAMFERC
 40
0.0
  9
$CHAMFERD
 40
0.0
  9
$SKPOLY
 70
     0
  9
$TDCREATE
 40
2459523.588958565
  9
$TDUPDATE
 40
2459523.588961875
  9
$TDINDWG
 40
0.0000000116
  9
$TDUSRTIMER
 40
0.0000000116
  9
$USRTIMER
 70
     1
  9
$ANGBASE
 50
0.0
  9
$ANGDIR
 70
     0
  9
$PDMODE
 70
     0
  9
$PDSIZE
 40
-1.0
  9
$PLINEWID
 40
0.0
  9
$COORDS
 70
     1
  9
$SPLFRAME
 70
     0
  9
$SPLINETYPE
 70
     6
  9
$SPLINESEGS
 70
     8
  9
$ATTDIA
 70
     0
  9
$ATTREQ
 70
     1
  9
$HANDLING
 70
     1
  9
$HANDSEED
  5
297
  9
$SURFTAB1
 70
     6
  9
$SURFTAB2
 70
     6
  9
$SURFTYPE
 70
     6
  9
$SURFU
 70
     6
  9
$SURFV
 70
     6
  9
$UCSNAME
  2

  9
$UCSORG
 10
0.0
 20
0.0
 30
0.0
  9
$UCSXDIR
 10
1.0
 20
0.0
 30
0.0
  9
$UCSYDIR
 10
0.0
 20
1.0
 30
0.0
  9
$PUCSNAME
  2

  9
$PUCSORG
 10
0.0
 20
0.0
 30
0.0
  9
$PUCSXDIR
 10
1.0
 20
0.0
 30
0.0
  9
$PUCSYDIR
 10
0.0
 20
1.0
 30
0.0
  9
$USERI1
 70
     0
  9
$USERI2
 70
     0
  9
$USERI3
 70
     0
  9
$USERI4
 70
     0
  9
$USERI5
 70
     0
  9
$USERR1
 40
0.0
  9
$USERR2
 40
0.0
  9
$USERR3
 40
0.0
  9
$USERR4
 40
0.0
  9
$USERR5
 40
0.0
  9
$WORLDVIEW
 70
     1
  9
$SHADEDGE
 70
     3
  9
$SHADEDIF
 70
    70
  9
$TILEMODE
 70
     1
  9
$MAXACTVP
 70
    64
  9
$PINSBASE
 10
0.0
 20
0.0
 30
0.0
  9
$PLIMCHECK
 70
     0
  9
$PEXTMIN
 10
1.0000000000E+20
 20
1.0000000000E+20
 30
1.0000000000E+20
  9
$PEXTMAX
 10
-1.0000000000E+20
 20
-1.0000000000E+20
 30
-1.0000000000E+20
  9
$PLIMMIN
 10
0.0
 20
0.0
  9
$PLIMMAX
 10
420.0
 20
297.0
  9
$UNITMODE
 70
     0
  9
$VISRETAIN
 70
     1
  9
$PLINEGEN
 70
     0
  9
$PSLTSCALE
 70
     1
  9
$TREEDEPTH
 70
  3020
  9
$PICKSTYLE
 70
     1
  9
$CMLSTYLE
  2
STANDARD
  9
$CMLJUST
 70
     0
  9
$CMLSCALE
 40
20.0
  9
$SAVEIMAGES
 70
     1
  0
ENDSEC
  0
SECTION
  2
CLASSES
  0
CLASS
  1
ACDBDICTIONARYWDFLT
  2
AcDbDictionaryWithDefault
  3
ObjectDBX Classes
 90
    32768
280
     0
281
     0
  0
CLASS
  1
VISUALSTYLE
  2
AcDbVisualStyle
  3
ObjectDBX Classes
 90
     4095
280
     0
281
     0
  0
CLASS
  1
MATERIAL
  2
AcDbMaterial
  3
ObjectDBX Classes
 90
     1153
280
     0
281
     0
  0
CLASS
  1
SCALE
  2
AcDbScale
  3
ObjectDBX Classes
 90
     1153
280
     0
281
     0
  0
CLASS
  1
TABLESTYLE
  2
AcDbTableStyle
  3
ObjectDBX Classes
 90
     4095
280
     0
281
     0
  0
CLASS
  1
MLEADERSTYLE
  2
AcDbMLeaderStyle
  3
ACDB_MLEADERSTYLE_CLASS
 90
     4095
280
     0
281
     0
  0
CLASS
  1
SUN
  2
AcDbSun
  3
SCENEOE
 90
     1153
280
     0
281
     0
  0
CLASS
  1
XRECORD
  2
AcDbXrecord
  3
ObjectDBX Classes
 90
    32768
280
     0
281
     0
  0
ENDSEC
  0
SECTION
  2
TABLES
  0
TABLE
  2
VPORT
  5
8
330
0
100
AcDbSymbolTable
 70
     1
  0
VPORT
  5
29
330
8
100
AcDbSymbolTableRecord
100
AcDbViewportTableRecord
  2
*ACTIVE
 70
     0
 10
0.0
 20
0.0
 11
1.0
 21
1.0
 12
139.7
 22
107.95
 13
0.0
 23
0.0
 14
10.0
 24
10.0
 15
10.0
 25
10.0
 16
0.0
 26
0.0
 36
1.0
 17
0.0
 27
0.0
 37
0.0
 40
215.9
 41
1.2941176471
 42
50.0
 43
0.0
 44
0.0
 50
0.0
 51
0.0
 71
     0
 72
  2000
 73
     1
 74
     3
 75
     0
 76
     0
 77
     0
 78
     0
  0
ENDTAB
  0
TABLE
  2
LTYPE
  5
5
330
0
100
AcDbSymbolTable
 70
     8
  0
LTYPE
  5
14
330
5
100
AcDbSymbolTableRecord
100
AcDbLinetypeTableRecord
  2
BYBLOCK
 70
     0
  3

 72
    65
 73
     0
 40
0.0
  0
LTYPE
  5
15
330
5
100
AcDbSymbolTableRecord
100
AcDbLinetypeTableRecord
  2
BYLAYER
 70
     0
  3

 72
    65
 73
     0
 40
0.0
  0
LTYPE
  5
16
330
5
100
AcDbSymbolTableRecord
100
AcDbLinetypeTableRecord
  2
CONTINUOUS
 70
     0
  3
Solid line
 72
    65
 73
     0
 40
0.0
  0
LTYPE
  5
6E
330
5
100
AcDbSymbolTableRecord
100
AcDbLinetypeTableRecord
  2
SLD-SOLID
 70
     0
  3
SolidWorks Line Style
 72
    65
 73
     0
 40
0.0
  0
LTYPE
  5
6F
330
5
100
AcDbSymbolTableRecord
100
AcDbLinetypeTableRecord
  2
SLD-DASHED
 70
     0
  3
SolidWorks Line Style
 72
    65
 73
     2
 40
1.905
 49
1.27
 74
     0
 49
-0.635
 74
     0
  0
LTYPE
  5
70
330
5
100
AcDbSymbolTableRecord
100
AcDbLinetypeTableRecord
  2
SLD-PHANTOM
 70
     0
  3
SolidWorks Line Style
 72
    65
 73
     6
 40
12.7
 49
6.35
 74
     0
 49
-1.27
 74
     0
 49
1.27
 74
     0
 49
-1.27
 74
     0
 49
1.27
 74
     0
 49
-1.27
 74
     0
  0
LTYPE
  5
71
330
5
100
AcDbSymbolTableRecord
100
AcDbLinetypeTableRecord
  2
SLD-CHAIN
 70
     0
  3
SolidWorks Line Style
 72
    65
 73
     4
 40
10.16
 49
6.35
 74
     0
 49
-1.27
 74
     0
 49
1.27
 74
     0
 49
-1.27
 74
     0
  0
LTYPE
  5
72
330
5
100
AcDbSymbolTableRecord
100
AcDbLinetypeTableRecord
  2
SLD-CENTER
 70
     0
  3
SolidWorks Line Style
 72
    65
 73
     4
 40
19.05
 49
15.24
 74
     0
 49
-1.27
 74
     0
 49
1.27
 74
     0
 49
-1.27
 74
     0
  0
LTYPE
  5
73
330
5
100
AcDbSymbolTableRecord
100
AcDbLinetypeTableRecord
  2
SLD-STITCH
 70
     0
  3
SolidWorks Line Style
 72
    65
 73
     2
 40
0.635
 49
0.0
 74
     0
 49
-0.635
 74
     0
  0
LTYPE
  5
74
330
5
100
AcDbSymbolTableRecord
100
AcDbLinetypeTableRecord
  2
SLD-THIN-THICK-CHAIN
 70
     0
  3
SolidWorks Line Style
 72
    65
 73
     4
 40
10.16
 49
6.35
 74
     0
 49
-1.27
 74
     0
 49
1.27
 74
     0
 49
-1.27
 74
     0
  0
ENDTAB
  0
TABLE
  2
LAYER
  5
2
330
0
100
AcDbSymbolTable
 70
     2
  0
LAYER
  5
10
330
2
100
AcDbSymbolTableRecord
100
AcDbLayerTableRecord
  2
0
 70
     0
 62
     7
  6
CONTINUOUS
  0
LAYER
  5
75
330
2
100
AcDbSymbolTableRecord
100
AcDbLayerTableRecord
  2
FORMAT
 70
     0
 62
     7
  6
SLD-SOLID
  0
ENDTAB
  0
TABLE
  2
STYLE
  5
3
330
0
100
AcDbSymbolTable
 70
     6
  0
STYLE
  5
11
330
3
100
AcDbSymbolTableRecord
100
AcDbTextStyleTableRecord
  2
STANDARD
 70
     0
 40
0.0
 41
1.0
 50
0.0
 71
     0
 42
2.8222222222
  3
txt
  4

  0
STYLE
  5
9F
330
3
100
AcDbSymbolTableRecord
100
AcDbTextStyleTableRecord
  2
SLDTEXTSTYLE0
 70
     0
 40
0.0
 41
0.75
 50
0.0
 71
     0
 42
2.8222222222
  3
TXT
  4

  0
STYLE
  5
A5
330
3
100
AcDbSymbolTableRecord
100
AcDbTextStyleTableRecord
  2
SLDTEXTSTYLE1
 70
     0
 40
0.0
 41
0.75
 50
0.0
 71
     0
 42
2.8222222222
  3
TXT
  4
bigfont
  0
STYLE
  5
BF
330
3
100
AcDbSymbolTableRecord
100
AcDbTextStyleTableRecord
  2
SLDTEXTSTYLE2
 70
     0
 40
0.0
 41
0.7
 50
0.0
 71
     0
 42
2.8222222222
  3
TXT
  4

  0
STYLE
  5
C4
330
3
100
AcDbSymbolTableRecord
100
AcDbTextStyleTableRecord
  2
SLDTEXTSTYLE3
 70
     0
 40
0.0
 41
0.6896551724
 50
0.0
 71
     0
 42
2.8222222222
  3
TXT
  4

  0
STYLE
  5
D7
330
3
100
AcDbSymbolTableRecord
100
AcDbTextStyleTableRecord
  2
SLDTEXTSTYLE4
 70
     0
 40
0.0
 41
0.5525
 50
0.0
 71
     0
 42
2.8222222222
  3
TXT
  4

  0
ENDTAB
  0
TABLE
  2
VIEW
  5
6
330
0
100
AcDbSymbolTable
 70
     0
  0
ENDTAB
  0
TABLE
  2
UCS
  5
7
330
0
100
AcDbSymbolTable
 70
     0
  0
ENDTAB
  0
TABLE
  2
APPID
  5
9
330
0
100
AcDbSymbolTable
 70
     1
  0
APPID
  5
12
330
9
100
AcDbSymbolTableRecord
100
AcDbRegAppTableRecord
  2
ACAD
 70
     0
  0
ENDTAB
  0
TABLE
  2
DIMSTYLE
  5
A
330
0
100
AcDbSymbolTable
 70
     4
  0
DIMSTYLE
105
27
330
A
100
AcDbSymbolTableRecord
100
AcDbDimStyleTableRecord
  2
ISO-25
 70
     0
  3

  4

  5

  6

  7

 40
1.0
 41
2.5
 42
0.625
 43
3.75
 44
1.25
 45
0.0
 46
0.0
 47
0.0
 48
0.0
140
2.5
141
2.5
142
0.0
143
0.0393700787
144
1.0
145
0.0
146
1.0
147
0.625
 71
     0
 72
     0
 73
     0
 74
     0
 75
     0
 76
     0
 77
     1
 78
     8
170
     0
171
     3
172
     1
173
     0
174
     0
175
     0
176
     0
177
     0
178
     0
270
     2
271
     2
272
     2
273
     2
274
     3
340
11
275
     0
280
     0
281
     0
282
     0
283
     0
284
     8
285
     0
286
     0
287
     3
288
     0
  0
DIMSTYLE
105
10E
102
{ACAD_REACTORS
330
10D
330
120
102
}
330
A
100
AcDbSymbolTableRecord
100
AcDbDimStyleTableRecord
  2
SLDDIMSTYLE0
 70
     0
  3

  4

  5

  6

  7

 40
1.0
 41
3.175
 42
0.0625
 43
0.38
 44
0.0
 45
0.000000001
 46
0.0
 47
0.0
 48
0.0
140
2.1166666667
141
0.09
142
0.0
143
0.0393700787
144
1.0
145
0.0
146
1.0
147
0.5291666667
 71
     0
 72
     0
 73
     1
 74
     1
 75
     0
 76
     0
 77
     0
 78
    12
170
     1
171
     2
172
     0
173
     1
174
     0
175
     0
176
     0
177
     0
178
     0
270
     2
271
     1
272
     1
273
     2
274
     2
340
9F
275
     0
280
     0
281
     0
282
     0
283
     1
284
    12
285
     0
286
     0
287
     3
288
     0
  0
DIMSTYLE
105
263
102
{ACAD_REACTORS
330
262
102
}
330
A
100
AcDbSymbolTableRecord
100
AcDbDimStyleTableRecord
  2
SLDDIMSTYLE1
 70
     0
  3

  4

  5

  6

  7

 40
1.0
 41
3.175
 42
0.0625
 43
0.38
 44
0.0
 45
0.000000001
 46
0.0
 47
0.0
 48
0.0
140
2.1166666667
141
0.09
142
0.0
143
0.0393700787
144
1.0
145
0.0
146
1.0
147
0.5291666667
 71
     0
 72
     0
 73
     1
 74
     1
 75
     0
 76
     0
 77
     0
 78
     4
170
     1
171
     2
172
     1
173
     1
174
     0
175
     0
176
     0
177
     0
178
     0
270
     2
271
     1
272
     1
273
     2
274
     2
340
9F
275
     0
280
     0
281
     0
282
     0
283
     1
284
    12
285
     0
286
     0
288
     0
  0
DIMSTYLE
105
276
330
A
100
AcDbSymbolTableRecord
100
AcDbDimStyleTableRecord
  2
SLDDIMSTYLE2
 70
     0
  3

  4

  5

  6

  7

 40
1.0
 41
3.175
 42
0.0625
 43
0.38
 44
0.0
 45
0.000000001
 46
0.0
 47
0.0
 48
0.0
140
0.18
141
0.09
142
0.0
143
25.4
144
1.0
145
0.0
146
3.175
147
0.0
 71
     0
 72
     0
 73
     1
 74
     1
 75
     0
 76
     0
 77
     0
 78
     0
170
     0
171
     2
172
     0
173
     1
174
     0
175
     0
176
     0
177
     0
178
     0
270
     2
271
     0
272
     0
273
     2
274
     2
340
11
275
     0
280
     0
281
     0
282
     0
283
     1
284
     0
285
     0
286
     0
287
     3
288
     0
  0
ENDTAB
  0
TABLE
  2
BLOCK_RECORD
  5
1
330
0
100
AcDbSymbolTable
 70
    11
  0
BLOCK_RECORD
  5
1F
330
1
100
AcDbSymbolTableRecord
100
AcDbBlockTableRecord
  2
*MODEL_SPACE
  0
BLOCK_RECORD
  5
1B
330
1
100
AcDbSymbolTableRecord
100
AcDbBlockTableRecord
  2
*PAPER_SPACE
  0
BLOCK_RECORD
  5
23
330
1
100
AcDbSymbolTableRecord
100
AcDbBlockTableRecord
  2
*PAPER_SPACE0
  0
BLOCK_RECORD
  5
76
330
1
100
AcDbSymbolTableRecord
100
AcDbBlockTableRecord
  2
THIRD_ANGLE_PROJECTION_BLO
  0
BLOCK_RECORD
  5
9C
330
1
100
AcDbSymbolTableRecord
100
AcDbBlockTableRecord
  2
SW_NOTE_0
  0
BLOCK_RECORD
  5
C8
330
1
100
AcDbSymbolTableRecord
100
AcDbBlockTableRecord
  2
SW_NOTE_1
  0
BLOCK_RECORD
  5
DD
330
1
100
AcDbSymbolTableRecord
100
AcDbBlockTableRecord
  2
SW_NOTE_2
  0
BLOCK_RECORD
  5
E3
330
1
100
AcDbSymbolTableRecord
100
AcDbBlockTableRecord
  2
SW_NOTE_3
  0
BLOCK_RECORD
  5
EA
330
1
100
AcDbSymbolTableRecord
100
AcDbBlockTableRecord
  2
SW_NOTE_4
  0
BLOCK_RECORD
  5
F1
330
1
100
AcDbSymbolTableRecord
100
AcDbBlockTableRecord
  2
SW_NOTE_5
  0
BLOCK_RECORD
  5
10F
330
1
100
AcDbSymbolTableRecord
100
AcDbBlockTableRecord
  2
_D
  0
BLOCK_RECORD
  5
121
330
1
100
AcDbSymbolTableRecord
100
AcDbBlockTableRecord
  2
_D_1
  0
BLOCK_RECORD
  5
264
330
1
100
AcDbSymbolTableRecord
100
AcDbBlockTableRecord
  2
_D_2
  0
ENDTAB
  0
ENDSEC
  0
SECTION
  2
BLOCKS
  0
BLOCK
  5
20
330
1F
100
AcDbEntity
  8
0
100
AcDbBlockBegin
  2
*MODEL_SPACE
 70
     0
 10
0.0
 20
0.0
 30
0.0
  3
*MODEL_SPACE
  1

  0
ENDBLK
  5
21
330
1F
100
AcDbEntity
  8
0
100
AcDbBlockEnd
  0
BLOCK
  5
1C
330
1B
100
AcDbEntity
 67
     1
  8
0
100
AcDbBlockBegin
  2
*PAPER_SPACE
 70
     0
 10
0.0
 20
0.0
 30
0.0
  3
*PAPER_SPACE
  1

  0
ENDBLK
  5
1D
330
1B
100
AcDbEntity
 67
     1
  8
0
100
AcDbBlockEnd
  0
BLOCK
  5
24
330
23
100
AcDbEntity
  8
0
100
AcDbBlockBegin
  2
*PAPER_SPACE0
 70
     0
 10
0.0
 20
0.0
 30
0.0
  3
*PAPER_SPACE0
  1

  0
ENDBLK
  5
25
330
23
100
AcDbEntity
  8
0
100
AcDbBlockEnd
  0
BLOCK
  5
77
330
76
100
AcDbEntity
  8
0
100
AcDbBlockBegin
  2
THIRD_ANGLE_PROJECTION_BLO
 70
     0
 10
0.0
 20
0.0
 30
0.0
  3
THIRD_ANGLE_PROJECTION_BLO
  1

  0
CIRCLE
  5
79
330
76
100
AcDbEntity
  8
0
  6
SLD-SOLID
 62
     7
100
AcDbCircle
 10
101.4766388944
 20
18.9404083667
 30
0.0
 40
1.768227153674871
  0
CIRCLE
  5
7A
330
76
100
AcDbEntity
  8
0
  6
SLD-SOLID
 62
     7
100
AcDbCircle
 10
101.4766388944
 20
18.9404083667
 30
0.0
 40
3.901228248531818
  0
LINE
  5
7B
330
76
100
AcDbEntity
  8
0
  6
SLD-CENTER
 62
     7
100
AcDbLine
 10
110.1367822585
 20
18.9404083667
 30
0.0
 11
119.4527334874
 21
18.9404083667
 31
0.0
  0
LINE
  5
7C
330
76
100
AcDbEntity
  8
0
  6
SLD-SOLID
 62
     7
100
AcDbLine
 10
111.0016388944
 20
20.7086355204
 30
0.0
 11
111.0016388944
 21
17.172181213
 31
0.0
  0
LINE
  5
7D
330
76
100
AcDbEntity
  8
0
  6
SLD-SOLID
 62
     7
100
AcDbLine
 10
111.0016388944
 20
17.172181213
 30
0.0
 11
118.6216388944
 21
15.1304083667
 31
0.0
  0
LINE
  5
7E
330
76
100
AcDbEntity
  8
0
  6
SLD-SOLID
 62
     7
100
AcDbLine
 10
118.6216388944
 20
15.1304083667
 30
0.0
 11
118.6216388944
 21
22.7504083667
 31
0.0
  0
LINE
  5
7F
330
76
100
AcDbEntity
  8
0
  6
SLD-SOLID
 62
     7
100
AcDbLine
 10
118.6216388944
 20
22.7504083667
 30
0.0
 11
111.0016388944
 21
20.7086355204
 31
0.0
  0
LINE
  5
80
330
76
100
AcDbEntity
  8
0
  6
SLD-CENTER
 62
     7
100
AcDbLine
 10
96.6025854619
 20
18.9404083667
 30
0.0
 11
106.3506923269
 21
18.9404083667
 31
0.0
  0
LINE
  5
81
330
76
100
AcDbEntity
  8
0
  6
SLD-CENTER
 62
     7
100
AcDbLine
 10
101.4766388944
 20
23.8144617992
 30
0.0
 11
101.4766388944
 21
14.0663549342
 31
0.0
  0
POINT
  5
82
330
76
100
AcDbEntity
  8
0
  6
CONTINUOUS
 62
     7
100
AcDbPoint
 10
101.4766388944
 20
18.9404083667
 30
0.0
  0
ENDBLK
  5
78
330
76
100
AcDbEntity
  8
0
100
AcDbBlockEnd
  0
BLOCK
  5
9D
330
9C
100
AcDbEntity
  8
0
100
AcDbBlockBegin
  2
SW_NOTE_0
 70
     0
 10
0.0
 20
0.0
 30
0.0
  3
SW_NOTE_0
  1

  0
MTEXT
  5
A0
330
9C
100
AcDbEntity
  8
0
  6
CONTINUOUS
 62
     0
100
AcDbMText
 10
0.0
 20
3.0695925553
 30
0.0
 40
2.38125
 41
0.0
 71
     1
 72
     1
  1
NOTES/SPECIFICATIONS:
  7
SLDTEXTSTYLE0
  0
MTEXT
  5
A1
330
9C
100
AcDbEntity
  8
0
  6
CONTINUOUS
 62
     0
100
AcDbMText
 10
9.9999997765
 20
-3.2804073679
 30
0.0
 40
2.38125
 41
0.0
 71
     1
 72
     1
  1
CLEAR APERTURE: >
  7
SLDTEXTSTYLE0
  0
MTEXT
  5
A2
330
9C
100
AcDbEntity
  8
0
  6
CONTINUOUS
 62
     0
100
AcDbMText
 10
39.5010411739
 20
-3.2804073679
 30
0.0
 40
2.38125
 41
0.0
 71
     1
 72
     1
  1
%%c
  7
SLDTEXTSTYLE0
  0
MTEXT
  5
A3
330
9C
100
AcDbEntity
  8
0
  6
CONTINUOUS
 62
     0
100
AcDbMText
 10
43.0954080075
 20
-3.2804073679
 30
0.0
 40
2.38125
 41
0.0
 71
     1
 72
     1
  1
45.72x45.72 mm
  7
SLDTEXTSTYLE0
  0
MTEXT
  5
A4
330
9C
100
AcDbEntity
  8
0
  6
CONTINUOUS
 62
     0
100
AcDbMText
 10
0.0
 20
-3.2804073679
 30
0.0
 40
2.38125
 41
0.0
 71
     1
 72
     1
  1
1.
  7
SLDTEXTSTYLE0
  0
MTEXT
  5
A6
330
9C
100
AcDbEntity
  8
0
  6
CONTINUOUS
 62
     0
100
AcDbMText
 10
9.9999997765
 20
-6.4554073296
 30
0.0
 40
2.38125
 41
0.0
 71
     1
 72
     1
  1
SURFACE FLATNESS(S1): \M+183C9/10 AT 633 nm OVER CLEAR APERTURE
  7
SLDTEXTSTYLE1
  0
MTEXT
  5
A7
330
9C
100
AcDbEntity
  8
0
  6
CONTINUOUS
 62
     0
100
AcDbMText
 10
0.0
 20
-6.4554073296
 30
0.0
 40
2.38125
 41
0.0
 71
     1
 72
     1
  1
2.
  7
SLDTEXTSTYLE0
  0
MTEXT
  5
A8
330
9C
100
AcDbEntity
  8
0
  6
CONTINUOUS
 62
     0
100
AcDbMText
 10
9.9999997765
 20
-9.6304072912
 30
0.0
 40
2.38125
 41
0.0
 71
     1
 72
     1
  1
SURFACE QUALITY (S1):  10-5 SCRATCH-DIG
  7
SLDTEXTSTYLE0
  0
MTEXT
  5
A9
330
9C
100
AcDbEntity
  8
0
  6
CONTINUOUS
 62
     0
100
AcDbMText
 10
0.0
 20
-9.6304072912
 30
0.0
 40
2.38125
 41
0.0
 71
     1
 72
     1
  1
3.
  7
SLDTEXTSTYLE0
  0
MTEXT
  5
AA
330
9C
100
AcDbEntity
  8
0
  6
CONTINUOUS
 62
     0
100
AcDbMText
 10
40.0
 20
-12.8054072528
 30
0.0
 40
2.38125
 41
0.0
 71
     1
 72
     1
  1
(S2): FINE GRIND
  7
SLDTEXTSTYLE0
  0
MTEXT
  5
AB
330
9C
100
AcDbEntity
  8
0
  6
CONTINUOUS
 62
     0
100
AcDbMText
 10
9.9999997765
 20
-15.9804072144
 30
0.0
 40
2.38125
 41
0.0
 71
     1
 72
     1
  1
PARALLELISM: \U+2264 3 arcmin
  7
SLDTEXTSTYLE1
  0
MTEXT
  5
AC
330
9C
100
AcDbEntity
  8
0
  6
CONTINUOUS
 62
     0
100
AcDbMText
 10
0.0
 20
-15.9804072144
 30
0.0
 40
2.38125
 41
0.0
 71
     1
 72
     1
  1
4.
  7
SLDTEXTSTYLE0
  0
MTEXT
  5
AD
330
9C
100
AcDbEntity
  8
0
  6
CONTINUOUS
 62
     0
100
AcDbMText
 10
9.9999997765
 20
-19.1554071761
 30
0.0
 40
2.38125
 41
0.0
 71
     1
 72
     1
  1
THICKNESS TOLERANCE:
  7
SLDTEXTSTYLE0
  0
MTEXT
  5
AE
330
9C
100
AcDbEntity
  8
0
  6
CONTINUOUS
 62
     0
100
AcDbMText
 10
46.741804108
 20
-19.1554071761
 30
0.0
 40
2.38125
 41
0.0
 71
     1
 72
     1
  1
%%p
  7
SLDTEXTSTYLE0
  0
MTEXT
  5
AF
330
9C
100
AcDbEntity
  8
0
  6
CONTINUOUS
 62
     0
100
AcDbMText
 10
49.0119289607
 20
-19.1554071761
 30
0.0
 40
2.38125
 41
0.0
 71
     1
 72
     1
  1
0.20 mm
  7
SLDTEXTSTYLE0
  0
MTEXT
  5
B0
330
9C
100
AcDbEntity
  8
0
  6
CONTINUOUS
 62
     0
100
AcDbMText
 10
0.0
 20
-19.1554071761
 30
0.0
 40
2.38125
 41
0.0
 71
     1
 72
     1
  1
5.
  7
SLDTEXTSTYLE0
  0
MTEXT
  5
B1
330
9C
100
AcDbEntity
  8
0
  6
CONTINUOUS
 62
     0
100
AcDbMText
 10
9.9999997765
 20
-22.3304071377
 30
0.0
 40
2.38125
 41
0.0
 71
     1
 72
     1
  1
DESIGN WAVELENGTH RANGE: 750-1100 nm
  7
SLDTEXTSTYLE0
  0
MTEXT
  5
B2
330
9C
100
AcDbEntity
  8
0
  6
CONTINUOUS
 62
     0
100
AcDbMText
 10
0.0
 20
-22.3304071377
 30
0.0
 40
2.38125
 41
0.0
 71
     1
 72
     1
  1
6.
  7
SLDTEXTSTYLE0
  0
MTEXT
  5
B3
330
9C
100
AcDbEntity
  8
0
  6
CONTINUOUS
 62
     0
100
AcDbMText
 10
9.9999997765
 20
-25.5054070993
 30
0.0
 40
2.38125
 41
0.0
 71
     1
 72
     1
  1
COATING (S1): BROADBAND HR, DIELECTRIC
  7
SLDTEXTSTYLE0
  0
MTEXT
  5
B4
330
9C
100
AcDbEntity
  8
0
  6
CONTINUOUS
 62
     0
100
AcDbMText
 10
0.0
 20
-25.5054070993
 30
0.0
 40
2.38125
 41
0.0
 71
     1
 72
     1
  1
7.
  7
SLDTEXTSTYLE0
  0
MTEXT
  5
B5
330
9C
100
AcDbEntity
  8
0
  6
CONTINUOUS
 62
     0
100
AcDbMText
 10
10.0
 20
-28.680407061
 30
0.0
 40
2.38125
 41
0.0
 71
     1
 72
     1
  1
R
  7
SLDTEXTSTYLE0
  0
MTEXT
  5
B6
330
9C
100
AcDbEntity
  8
0
  6
CONTINUOUS
 62
     0
100
AcDbMText
 10
11.9270486664
 20
-29.4698892957
 30
0.0
 40
1.5875
 41
0.0
 71
     1
 72
     1
  1
s
  7
SLDTEXTSTYLE0
  0
MTEXT
  5
B7
330
9C
100
AcDbEntity
  8
0
  6
CONTINUOUS
 62
     0
100
AcDbMText
 10
13.6247917451
 20
-29.4698892957
 30
0.0
 40
1.5875
 41
0.0
 71
     1
 72
     1
  1
avg
  7
SLDTEXTSTYLE0
  0
MTEXT
  5
B8
330
9C
100
AcDbEntity
  8
0
  6
CONTINUOUS
 62
     0
100
AcDbMText
 10
17.6670371927
 20
-28.680407061
 30
0.0
 40
2.38125
 41
0.0
 71
     1
 72
     1
  1
: >99% FROM 750-1100 nm
  7
SLDTEXTSTYLE0
  0
MTEXT
  5
B9
330
9C
100
AcDbEntity
  8
0
  6
CONTINUOUS
 62
     0
100
AcDbMText
 10
10.0
 20
-31.8554070226
 30
0.0
 40
2.38125
 41
0.0
 71
     1
 72
     1
  1
R
  7
SLDTEXTSTYLE0
  0
MTEXT
  5
BA
330
9C
100
AcDbEntity
  8
0
  6
CONTINUOUS
 62
     0
100
AcDbMText
 10
11.9270486664
 20
-32.6448892574
 30
0.0
 40
1.5875
 41
0.0
 71
     1
 72
     1
  1
p
  7
SLDTEXTSTYLE0
  0
MTEXT
  5
BB
330
9C
100
AcDbEntity
  8
0
  6
CONTINUOUS
 62
     0
100
AcDbMText
 10
14.2480323464
 20
-32.6448892574
 30
0.0
 40
1.5875
 41
0.0
 71
     1
 72
     1
  1
avg
  7
SLDTEXTSTYLE0
  0
MTEXT
  5
BC
330
9C
100
AcDbEntity
  8
0
  6
CONTINUOUS
 62
     0
100
AcDbMText
 10
18.290277794
 20
-31.8554070226
 30
0.0
 40
2.38125
 41
0.0
 71
     1
 72
     1
  1
: >99% FROM 750-1100 nm
  7
SLDTEXTSTYLE0
  0
MTEXT
  5
BD
330
9C
100
AcDbEntity
  8
0
  6
CONTINUOUS
 62
     0
100
AcDbMText
 10
10.0
 20
-35.085528475
 30
0.0
 40
2.38125
 41
0.0
 71
     1
 72
     1
  1
AOI: 0
  7
SLDTEXTSTYLE0
  0
MTEXT
  5
BE
330
9C
100
AcDbEntity
  8
0
  6
CONTINUOUS
 62
     0
100
AcDbMText
 10
19.344201535
 20
-34.9601352636
 30
0.0
 40
0.79375
 41
0.0
 71
     1
 72
     1
  1
O
  7
SLDTEXTSTYLE0
  0
MTEXT
  5
C0
330
9C
100
AcDbEntity
  8
0
  6
CONTINUOUS
 62
     0
100
AcDbMText
 10
21.1573318899
 20
-35.085528475
 30
0.0
 40
2.38125
 41
0.0
 71
     1
 72
     1
  1
TO 45
  7
SLDTEXTSTYLE2
  0
MTEXT
  5
C1
330
9C
100
AcDbEntity
  8
0
  6
CONTINUOUS
 62
     0
100
AcDbMText
 10
29.6526627988
 20
-34.9601352636
 30
0.0
 40
0.79375
 41
0.0
 71
     1
 72
     1
  1
O
  7
SLDTEXTSTYLE0
  0
MTEXT
  5
C2
330
9C
100
AcDbEntity
  8
0
  6
CONTINUOUS
 62
     0
100
AcDbMText
 10
9.9999997765
 20
-38.7463326014
 30
0.0
 40
2.38125
 41
0.0
 71
     1
 72
     1
  1
DAMAGE THRESHOLD: 0.50 J/cm
  7
SLDTEXTSTYLE0
  0
MTEXT
  5
C3
330
9C
100
AcDbEntity
  8
0
  6
CONTINUOUS
 62
     0
100
AcDbMText
 10
59.5696885139
 20
-38.2019687082
 30
0.0
 40
1.0583333333
 41
0.0
 71
     1
 72
     1
  1
2
  7
SLDTEXTSTYLE0
  0
MTEXT
  5
C5
330
9C
100
AcDbEntity
  8
0
  6
CONTINUOUS
 62
     0
100
AcDbMText
 10
61.2446478516
 20
-38.7463326014
 30
0.0
 40
2.38125
 41
0.0
 71
     1
 72
     1
  1
10 nm PULSE, 10 Hz AT 1064 nm
  7
SLDTEXTSTYLE3
  0
MTEXT
  5
C6
330
9C
100
AcDbEntity
  8
0
  6
CONTINUOUS
 62
     0
100
AcDbMText
 10
0.0
 20
-38.7463326014
 30
0.0
 40
2.38125
 41
0.0
 71
     1
 72
     1
  1
8.
  7
SLDTEXTSTYLE0
  0
ENDBLK
  5
9E
330
9C
100
AcDbEntity
  8
0
100
AcDbBlockEnd
  0
BLOCK
  5
C9
330
C8
100
AcDbEntity
  8
0
100
AcDbBlockBegin
  2
SW_NOTE_1
 70
     0
 10
0.0
 20
0.0
 30
0.0
  3
SW_NOTE_1
  1

  0
MTEXT
  5
CB
330
C8
100
AcDbEntity
  8
0
  6
CONTINUOUS
 62
     0
100
AcDbMText
 10
11.89434375
 20
2.9468088531
 30
0.0
 40
2.286
 41
0.0
 71
     2
 72
     1
  1
ISOMETRIC VIEW
  7
SLDTEXTSTYLE0
  0
MTEXT
  5
CC
330
C8
100
AcDbEntity
  8
0
  6
CONTINUOUS
 62
     0
100
AcDbMText
 10
11.6776502224
 20
-0.3391912552
 30
0.0
 40
2.286
 41
0.0
 71
     2
 72
     1
  1
SCALE: 1:2
  7
SLDTEXTSTYLE0
  0
ENDBLK
  5
CA
330
C8
100
AcDbEntity
  8
0
100
AcDbBlockEnd
  0
BLOCK
  5
DE
330
DD
100
AcDbEntity
  8
0
100
AcDbBlockBegin
  2
SW_NOTE_2
 70
     0
 10
0.0
 20
0.0
 30
0.0
  3
SW_NOTE_2
  1

  0
MTEXT
  5
E0
330
DD
100
AcDbEntity
  8
0
  6
CONTINUOUS
 62
     0
100
AcDbMText
 10
19.90725
 20
1.9645392354
 30
0.0
 40
1.524
 41
0.0
 71
     2
 72
     1
  1
VALUES IN PARENTHESIS ARE CALCULATED
  7
SLDTEXTSTYLE0
  0
MTEXT
  5
E1
330
DD
100
AcDbEntity
  8
0
  6
CONTINUOUS
 62
     0
100
AcDbMText
 10
19.8778795174
 20
-0.5594606586
 30
0.0
 40
1.524
 41
0.0
 71
     2
 72
     1
  1
AND MAY CONTAIN ROUNDOFF ERRORS
  7
SLDTEXTSTYLE0
  0
ENDBLK
  5
DF
330
DD
100
AcDbEntity
  8
0
100
AcDbBlockEnd
  0
BLOCK
  5
E4
330
E3
100
AcDbEntity
  8
0
100
AcDbBlockBegin
  2
SW_NOTE_3
 70
     0
 10
0.0
 20
0.0
 30
0.0
  3
SW_NOTE_3
  1

  0
MTEXT
  5
E6
330
E3
100
AcDbEntity
  8
0
  6
CONTINUOUS
 62
     0
100
AcDbMText
 10
0.0
 20
2.7285267159
 30
0.0
 40
2.1166666667
 41
0.0
 71
     1
 72
     1
  1
DRAWING
  7
SLDTEXTSTYLE0
  0
MTEXT
  5
E7
330
E3
100
AcDbEntity
  8
0
  6
CONTINUOUS
 62
     0
100
AcDbMText
 10
0.0
 20
-0.0936954723
 30
0.0
 40
2.1166666667
 41
0.0
 71
     1
 72
     1
  1
PROJECTION
  7
SLDTEXTSTYLE0
  0
ENDBLK
  5
E5
330
E3
100
AcDbEntity
  8
0
100
AcDbBlockEnd
  0
BLOCK
  5
EB
330
EA
100
AcDbEntity
  8
0
100
AcDbBlockBegin
  2
SW_NOTE_4
 70
     0
 10
0.0
 20
0.0
 30
0.0
  3
SW_NOTE_4
  1

  0
MTEXT
  5
ED
330
EA
100
AcDbEntity
  8
0
  6
CONTINUOUS
 62
     0
100
AcDbMText
 10
25.052734375
 20
4.0927900738
 30
0.0
 40
3.175
 41
0.0
 71
     2
 72
     1
  1
FOR INFORMATION ONLY
  7
SLDTEXTSTYLE0
  0
MTEXT
  5
EE
330
EA
100
AcDbEntity
  8
0
  6
CONTINUOUS
 62
     0
100
AcDbMText
 10
25.3768468589
 20
-0.1405432084
 30
0.0
 40
3.175
 41
0.0
 71
     2
 72
     1
  1
NOT FOR MANUFACTURING PURPOSES
  7
SLDTEXTSTYLE0
  0
ENDBLK
  5
EC
330
EA
100
AcDbEntity
  8
0
100
AcDbBlockEnd
  0
BLOCK
  5
F2
330
F1
100
AcDbEntity
  8
0
100
AcDbBlockBegin
  2
SW_NOTE_5
 70
     0
 10
0.0
 20
0.0
 30
0.0
  3
SW_NOTE_5
  1

  0
MTEXT
  5
F4
330
F1
100
AcDbEntity
  8
0
  6
CONTINUOUS
 62
     0
100
AcDbMText
 10
26.1276041667
 20
2.7285267159
 30
0.0
 40
2.1166666667
 41
0.0
 71
     2
 72
     1
  1
50.8 mm SQAURE BROADBAND MIRROR
  7
SLDTEXTSTYLE0
  0
MTEXT
  5
F5
330
F1
100
AcDbEntity
  8
0
  6
CONTINUOUS
 62
     0
100
AcDbMText
 10
26.623946628
 20
-0.0936954723
 30
0.0
 40
2.1166666667
 41
0.0
 71
     2
 72
     1
  1
750-1100 nm
  7
SLDTEXTSTYLE0
  0
ENDBLK
  5
F3
330
F1
100
AcDbEntity
  8
0
100
AcDbBlockEnd
  0
BLOCK
  5
110
330
10F
100
AcDbEntity
  8
0
100
AcDbBlockBegin
  2
_D
 70
     0
 10
0.0
 20
0.0
 30
0.0
  3
_D
  1

  0
SOLID
  5
112
330
10F
100
AcDbEntity
  8
0
  6
SLD-SOLID
 62
     7
100
AcDbTrace
 10
78.2082374238
 20
140.7507672724
 30
0.0
 11
75.0332374238
 21
141.2587672724
 31
0.0
 12
75.0332374238
 22
140.2427672724
 32
0.0
 13
75.0332374238
 23
140.2427672724
 33
0.0
  0
SOLID
  5
113
330
10F
100
AcDbEntity
  8
0
  6
SLD-SOLID
 62
     7
100
AcDbTrace
 10
27.4082374238
 20
140.7507672724
 30
0.0
 11
30.5832374238
 21
140.2427672724
 31
0.0
 12
30.5832374238
 22
141.2587672724
 32
0.0
 13
30.5832374238
 23
141.2587672724
 33
0.0
  0
LINE
  5
114
330
10F
100
AcDbEntity
  8
0
  6
SLD-SOLID
 62
     7
100
AcDbLine
 10
48.0954491076
 20
140.4997767546
 30
0.0
 11
48.0954491076
 21
137.6552175527
 31
0.0
  0
LINE
  5
115
330
10F
100
AcDbEntity
  8
0
  6
SLD-SOLID
 62
     7
100
AcDbLine
 10
48.0954491076
 20
137.6552175527
 30
0.0
 11
48.5176044128
 21
137.6552175527
 31
0.0
  0
LINE
  5
116
330
10F
100
AcDbEntity
  8
0
  6
SLD-SOLID
 62
     7
100
AcDbLine
 10
48.0954491076
 20
140.4997767546
 30
0.0
 11
48.5176044128
 21
140.4997767546
 31
0.0
  0
LINE
  5
117
330
10F
100
AcDbEntity
  8
0
  6
SLD-SOLID
 62
     7
100
AcDbLine
 10
57.5210257399
 20
140.4997767546
 30
0.0
 11
57.5210257399
 21
137.6552175527
 31
0.0
  0
LINE
  5
118
330
10F
100
AcDbEntity
  8
0
  6
SLD-SOLID
 62
     7
100
AcDbLine
 10
57.5210257399
 20
137.6552175527
 30
0.0
 11
57.0988704347
 21
137.6552175527
 31
0.0
  0
LINE
  5
119
330
10F
100
AcDbEntity
  8
0
  6
SLD-SOLID
 62
     7
100
AcDbLine
 10
57.5210257399
 20
140.4997767546
 30
0.0
 11
57.0988704347
 21
140.4997767546
 31
0.0
  0
LINE
  5
11A
330
10F
100
AcDbEntity
  8
0
  6
SLD-SOLID
 62
     7
100
AcDbLine
 10
78.2082374238
 20
131.8207672724
 30
0.0
 11
78.2082374238
 21
142.5287672724
 31
0.0
  0
LINE
  5
11B
330
10F
100
AcDbEntity
  8
0
  6
SLD-SOLID
 62
     7
100
AcDbLine
 10
27.4082374238
 20
131.8207672724
 30
0.0
 11
27.4082374238
 21
142.5287672724
 31
0.0
  0
LINE
  5
11C
330
10F
100
AcDbEntity
  8
0
  6
SLD-SOLID
 62
     7
100
AcDbLine
 10
78.2082374238
 20
140.7507672724
 30
0.0
 11
60.3749916555
 21
140.7507672724
 31
0.0
  0
LINE
  5
11D
330
10F
100
AcDbEntity
  8
0
  6
SLD-SOLID
 62
     7
100
AcDbLine
 10
27.4082374238
 20
140.7507672724
 30
0.0
 11
45.241483192
 21
140.7507672724
 31
0.0
  0
MTEXT
  5
11E
330
10F
100
AcDbEntity
  8
0
  6
SLD-SOLID
 62
     7
100
AcDbMText
 10
47.4353517213
 20
143.4792938718
 30
0.0
 40
2.1166666667
 41
0.0
 71
     1
 72
     1
  1
50.8mm
  7
SLDTEXTSTYLE0
  0
MTEXT
  5
11F
330
10F
100
AcDbEntity
  8
0
  6
SLD-SOLID
 62
     7
100
AcDbMText
 10
48.939759718
 20
140.1327536343
 30
0.0
 40
2.1166666667
 41
0.0
 71
     1
 72
     1
  1
2.00in
  7
SLDTEXTSTYLE0
  0
ENDBLK
  5
111
330
10F
100
AcDbEntity
  8
0
100
AcDbBlockEnd
  0
BLOCK
  5
122
330
121
100
AcDbEntity
  8
0
100
AcDbBlockBegin
  2
_D_1
 70
     0
 10
0.0
 20
0.0
 30
0.0
  3
_D_1
  1

  0
SOLID
  5
124
330
121
100
AcDbEntity
  8
0
  6
SLD-SOLID
 62
     7
100
AcDbTrace
 10
88.2082374238
 20
79.9507672724
 30
0.0
 11
88.7162374238
 21
83.1257672724
 31
0.0
 12
87.7002374238
 22
83.1257672724
 32
0.0
 13
87.7002374238
 23
83.1257672724
 33
0.0
  0
SOLID
  5
125
330
121
100
AcDbEntity
  8
0
  6
SLD-SOLID
 62
     7
100
AcDbTrace
 10
88.2082374238
 20
130.7507672724
 30
0.0
 11
87.7002374238
 21
127.5757672724
 31
0.0
 12
88.7162374238
 22
127.5757672724
 32
0.0
 13
88.7162374238
 23
127.5757672724
 33
0.0
  0
LINE
  5
126
330
121
100
AcDbEntity
  8
0
  6
SLD-SOLID
 62
     7
100
AcDbLine
 10
83.4954491076
 20
105.0997767546
 30
0.0
 11
83.4954491076
 21
102.2552175527
 31
0.0
  0
LINE
  5
127
330
121
100
AcDbEntity
  8
0
  6
SLD-SOLID
 62
     7
100
AcDbLine
 10
83.4954491076
 20
102.2552175527
 30
0.0
 11
83.9176044128
 21
102.2552175527
 31
0.0
  0
LINE
  5
128
330
121
100
AcDbEntity
  8
0
  6
SLD-SOLID
 62
     7
100
AcDbLine
 10
83.4954491076
 20
105.0997767546
 30
0.0
 11
83.9176044128
 21
105.0997767546
 31
0.0
  0
LINE
  5
129
330
121
100
AcDbEntity
  8
0
  6
SLD-SOLID
 62
     7
100
AcDbLine
 10
92.9210257399
 20
105.0997767546
 30
0.0
 11
92.9210257399
 21
102.2552175527
 31
0.0
  0
LINE
  5
12A
330
121
100
AcDbEntity
  8
0
  6
SLD-SOLID
 62
     7
100
AcDbLine
 10
92.9210257399
 20
102.2552175527
 30
0.0
 11
92.4988704347
 21
102.2552175527
 31
0.0
  0
LINE
  5
12B
330
121
100
AcDbEntity
  8
0
  6
SLD-SOLID
 62
     7
100
AcDbLine
 10
92.9210257399
 20
105.0997767546
 30
0.0
 11
92.4988704347
 21
105.0997767546
 31
0.0
  0
LINE
  5
12C
330
121
100
AcDbEntity
  8
0
  6
SLD-SOLID
 62
     7
100
AcDbLine
 10
79.2782374238
 20
79.9507672724
 30
0.0
 11
89.9862374238
 21
79.9507672724
 31
0.0
  0
LINE
  5
12D
330
121
100
AcDbEntity
  8
0
  6
SLD-SOLID
 62
     7
100
AcDbLine
 10
79.2782374238
 20
130.7507672724
 30
0.0
 11
89.9862374238
 21
130.7507672724
 31
0.0
  0
LINE
  5
12E
330
121
100
AcDbEntity
  8
0
  6
SLD-SOLID
 62
     7
100
AcDbLine
 10
88.2082374238
 20
79.9507672724
 30
0.0
 11
88.2082374238
 21
102.0042270349
 31
0.0
  0
LINE
  5
12F
330
121
100
AcDbEntity
  8
0
  6
SLD-SOLID
 62
     7
100
AcDbLine
 10
88.2082374238
 20
130.7507672724
 30
0.0
 11
88.2082374238
 21
108.6973075099
 31
0.0
  0
MTEXT
  5
130
330
121
100
AcDbEntity
  8
0
  6
SLD-SOLID
 62
     7
100
AcDbMText
 10
82.8353517213
 20
108.0792938718
 30
0.0
 40
2.1166666667
 41
0.0
 71
     1
 72
     1
  1
50.8mm
  7
SLDTEXTSTYLE0
  0
MTEXT
  5
131
330
121
100
AcDbEntity
  8
0
  6
SLD-SOLID
 62
     7
100
AcDbMText
 10
84.339759718
 20
104.7327536343
 30
0.0
 40
2.1166666667
 41
0.0
 71
     1
 72
     1
  1
2.00in
  7
SLDTEXTSTYLE0
  0
ENDBLK
  5
123
330
121
100
AcDbEntity
  8
0
100
AcDbBlockEnd
  0
BLOCK
  5
265
330
264
100
AcDbEntity
  8
0
100
AcDbBlockBegin
  2
_D_2
 70
     0
 10
0.0
 20
0.0
 30
0.0
  3
_D_2
  1

  0
SOLID
  5
267
330
264
100
AcDbEntity
  8
0
  6
SLD-SOLID
 62
     7
100
AcDbTrace
 10
147.1062976137
 20
140.7507672724
 30
0.0
 11
150.2812976137
 21
140.2427672724
 31
0.0
 12
150.2812976137
 22
141.2587672724
 32
0.0
 13
150.2812976137
 23
141.2587672724
 33
0.0
  0
SOLID
  5
268
330
264
100
AcDbEntity
  8
0
  6
SLD-SOLID
 62
     7
100
AcDbTrace
 10
141.1062976137
 20
140.7507672724
 30
0.0
 11
137.9312976137
 21
141.2587672724
 31
0.0
 12
137.9312976137
 22
140.2427672724
 32
0.0
 13
137.9312976137
 23
140.2427672724
 33
0.0
  0
LINE
  5
269
330
264
100
AcDbEntity
  8
0
  6
SLD-SOLID
 62
     7
100
AcDbLine
 10
156.2871662723
 20
140.4997767546
 30
0.0
 11
156.2871662723
 21
137.6552175527
 31
0.0
  0
LINE
  5
26A
330
264
100
AcDbEntity
  8
0
  6
SLD-SOLID
 62
     7
100
AcDbLine
 10
156.2871662723
 20
137.6552175527
 30
0.0
 11
156.7093215775
 21
137.6552175527
 31
0.0
  0
LINE
  5
26B
330
264
100
AcDbEntity
  8
0
  6
SLD-SOLID
 62
     7
100
AcDbLine
 10
156.2871662723
 20
140.4997767546
 30
0.0
 11
156.7093215775
 21
140.4997767546
 31
0.0
  0
LINE
  5
26C
330
264
100
AcDbEntity
  8
0
  6
SLD-SOLID
 62
     7
100
AcDbLine
 10
165.7127429046
 20
140.4997767546
 30
0.0
 11
165.7127429046
 21
137.6552175527
 31
0.0
  0
LINE
  5
26D
330
264
100
AcDbEntity
  8
0
  6
SLD-SOLID
 62
     7
100
AcDbLine
 10
165.7127429046
 20
137.6552175527
 30
0.0
 11
165.2905875994
 21
137.6552175527
 31
0.0
  0
LINE
  5
26E
330
264
100
AcDbEntity
  8
0
  6
SLD-SOLID
 62
     7
100
AcDbLine
 10
165.7127429046
 20
140.4997767546
 30
0.0
 11
165.2905875994
 21
140.4997767546
 31
0.0
  0
LINE
  5
26F
330
264
100
AcDbEntity
  8
0
  6
SLD-SOLID
 62
     7
100
AcDbLine
 10
147.1062976137
 20
131.8207672724
 30
0.0
 11
147.1062976137
 21
142.5287672724
 31
0.0
  0
LINE
  5
270
330
264
100
AcDbEntity
  8
0
  6
SLD-SOLID
 62
     7
100
AcDbLine
 10
141.1062976137
 20
131.8207672724
 30
0.0
 11
141.1062976137
 21
142.5287672724
 31
0.0
  0
LINE
  5
271
330
264
100
AcDbEntity
  8
0
  6
SLD-SOLID
 62
     7
100
AcDbLine
 10
147.1062976137
 20
140.7507672724
 30
0.0
 11
153.4332003567
 21
140.7507672724
 31
0.0
  0
LINE
  5
272
330
264
100
AcDbEntity
  8
0
  6
SLD-SOLID
 62
     7
100
AcDbLine
 10
141.1062976137
 20
140.7507672724
 30
0.0
 11
134.7562976137
 21
140.7507672724
 31
0.0
  0
MTEXT
  5
273
330
264
100
AcDbEntity
  8
0
  6
SLD-SOLID
 62
     7
100
AcDbMText
 10
156.4099750884
 20
143.4792938718
 30
0.0
 40
2.1166666667
 41
0.0
 71
     1
 72
     1
  1
6.0mm
  7
SLDTEXTSTYLE0
  0
MTEXT
  5
274
330
264
100
AcDbEntity
  8
0
  6
SLD-SOLID
 62
     7
100
AcDbMText
 10
157.1314768827
 20
140.1327536343
 30
0.0
 40
2.1166666667
 41
0.0
 71
     1
 72
     1
  1
0.24in
  7
SLDTEXTSTYLE0
  0
ENDBLK
  5
266
330
264
100
AcDbEntity
  8
0
100
AcDbBlockEnd
  0
ENDSEC
  0
SECTION
  2
ENTITIES
  0
LINE
  5
83
330
1F
100
AcDbEntity
  8
0
  6
SLD-SOLID
 62
     7
100
AcDbLine
 10
1.5793501011
 20
214.6453799966
 30
0.0
 11
277.9892068491
 21
214.6453799966
 31
0.0
  0
LINE
  5
84
330
1F
100
AcDbEntity
  8
0
  6
SLD-SOLID
 62
     7
100
AcDbLine
 10
1.5793501011
 20
214.6453799966
 30
0.0
 11
1.5793501011
 21
0.9031642596
 31
0.0
  0
LINE
  5
85
330
1F
100
AcDbEntity
  8
0
  6
SLD-SOLID
 62
     7
100
AcDbLine
 10
277.9892068491
 20
0.9031642596
 30
0.0
 11
1.5793501011
 21
0.9031642596
 31
0.0
  0
LINE
  5
86
330
1F
100
AcDbEntity
  8
0
  6
SLD-SOLID
 62
     7
100
AcDbLine
 10
277.9892068491
 20
0.9031642596
 30
0.0
 11
277.9892068491
 21
214.6453799966
 31
0.0
  0
LINE
  5
87
330
1F
100
AcDbEntity
  8
0
  6
SLD-SOLID
 62
     7
100
AcDbLine
 10
215.7427640041
 20
12.2958890132
 30
0.0
 11
171.6327596684
 21
12.2958890132
 31
0.0
  0
LINE
  5
88
330
1F
100
AcDbEntity
  8
0
  6
SLD-SOLID
 62
     7
100
AcDbLine
 10
171.6327596684
 20
12.2958890132
 30
0.0
 11
171.6327596684
 21
26.1661402506
 31
0.0
  0
LINE
  5
89
330
1F
100
AcDbEntity
  8
0
  6
SLD-SOLID
 62
     7
100
AcDbLine
 10
171.6327596684
 20
0.9031642596
 30
0.0
 11
171.6327596684
 21
26.1661402506
 31
0.0
  0
LINE
  5
8A
330
1F
100
AcDbEntity
  8
0
  6
SLD-SOLID
 62
     7
100
AcDbLine
 10
215.7427640041
 20
17.1604579552
 30
0.0
 11
277.9892068491
 21
17.1604579552
 31
0.0
  0
LINE
  5
8B
330
1F
100
AcDbEntity
  8
0
  6
SLD-SOLID
 62
     7
100
AcDbLine
 10
215.7427640041
 20
35.2394508358
 30
0.0
 11
215.7427640041
 21
0.9031642596
 31
0.0
  0
LINE
  5
8C
330
1F
100
AcDbEntity
  8
0
  6
SLD-SOLID
 62
     7
100
AcDbLine
 10
215.7427640041
 20
26.1661402506
 30
0.0
 11
171.6327596684
 21
26.1661402506
 31
0.0
  0
LINE
  5
8D
330
1F
100
AcDbEntity
  8
0
  6
SLD-SOLID
 62
     7
100
AcDbLine
 10
215.7427640041
 20
9.1409200612
 30
0.0
 11
277.9892068491
 21
9.1409200612
 31
0.0
  0
LINE
  5
8E
330
1F
100
AcDbEntity
  8
0
  6
SLD-SOLID
 62
     7
100
AcDbLine
 10
215.7427640041
 20
16.9216824031
 30
0.0
 11
171.6327596684
 21
16.9216824031
 31
0.0
  0
LINE
  5
8F
330
1F
100
AcDbEntity
  8
0
  6
SLD-SOLID
 62
     7
100
AcDbLine
 10
215.7427640041
 20
21.4874005542
 30
0.0
 11
171.6327596684
 21
21.4874005542
 31
0.0
  0
LINE
  5
90
330
1F
100
AcDbEntity
  8
0
  6
SLD-SOLID
 62
     7
100
AcDbLine
 10
186.1338100705
 20
26.1661402506
 30
0.0
 11
186.1338100705
 21
12.2958890132
 31
0.0
  0
LINE
  5
91
330
1F
100
AcDbEntity
  8
0
  6
SLD-SOLID
 62
     7
100
AcDbLine
 10
198.2145906188
 20
26.1661402506
 30
0.0
 11
198.2145906188
 21
12.2958890132
 31
0.0
  0
LINE
  5
92
330
1F
100
AcDbEntity
  8
0
  6
SLD-SOLID
 62
     7
100
AcDbLine
 10
253.7490408369
 20
9.1409200612
 30
0.0
 11
253.7490408369
 21
0.9031642596
 31
0.0
  0
LINE
  5
93
330
1F
100
AcDbEntity
  8
0
  6
SLD-SOLID
 62
     7
100
AcDbLine
 10
171.6327596684
 20
12.2958890132
 30
0.0
 11
171.6327596684
 21
7.5627342528
 31
0.0
  0
LINE
  5
94
330
1F
100
AcDbEntity
  8
0
  6
SLD-SOLID
 62
     7
100
AcDbLine
 10
171.6327596684
 20
7.5627342528
 30
0.0
 11
215.7427640041
 21
7.5627342528
 31
0.0
  0
LINE
  5
95
330
1F
100
AcDbEntity
  8
0
  6
SLD-SOLID
 62
     7
100
AcDbLine
 10
171.6327596684
 20
7.5627342528
 30
0.0
 11
171.6327596684
 21
35.2394508358
 31
0.0
  0
LINE
  5
96
330
1F
100
AcDbEntity
  8
0
  6
SLD-SOLID
 62
     7
100
AcDbLine
 10
171.6327596684
 20
35.2394508358
 30
0.0
 11
215.7427640041
 21
35.2394508358
 31
0.0
  0
LINE
  5
97
330
1F
100
AcDbEntity
  8
0
  6
SLD-SOLID
 62
     7
100
AcDbLine
 10
270.1683598194
 20
17.1604579552
 30
0.0
 11
270.1683598194
 21
9.1409200612
 31
0.0
  0
LINE
  5
98
330
1F
100
AcDbEntity
  8
0
  6
SLD-SOLID
 62
     7
100
AcDbLine
 10
215.7427640041
 20
35.2394508358
 30
0.0
 11
277.9892068491
 21
35.2394508358
 31
0.0
  0
LINE
  5
99
330
1F
100
AcDbEntity
  8
0
  6
SLD-SOLID
 62
     7
100
AcDbLine
 10
277.9892068491
 20
35.2394508358
 30
0.0
 11
277.9892068491
 21
50.0331356147
 31
0.0
  0
LINE
  5
9A
330
1F
100
AcDbEntity
  8
0
  6
SLD-SOLID
 62
     7
100
AcDbLine
 10
215.7427640041
 20
24.8927335446
 30
0.0
 11
277.9892068491
 21
24.8927335446
 31
0.0
  0
INSERT
  5
9B
330
1F
100
AcDbEntity
  8
0
  6
CONTINUOUS
 62
     7
100
AcDbBlockReference
  2
THIRD_ANGLE_PROJECTION_BLO
 10
117.7262204235
 20
15.5162339489
 30
0.0
 41
0.8
 42
0.8
 43
0.8
  0
INSERT
  5
C7
330
1F
100
AcDbEntity
  8
0
  6
CONTINUOUS
 62
     7
100
AcDbBlockReference
  2
SW_NOTE_0
 10
7.3581423415
 20
58.3936781986
 30
0.0
  0
INSERT
  5
CD
330
1F
100
AcDbEntity
  8
0
  6
CONTINUOUS
 62
     7
100
AcDbBlockReference
  2
SW_NOTE_1
 10
251.5348945561
 20
174.4954965804
 30
0.0
  0
MTEXT
  5
CE
330
1F
100
AcDbEntity
  8
0
  6
CONTINUOUS
 62
     7
100
AcDbMText
 10
273.8638944939
 20
13.1125292762
 30
0.0
 40
3.175
 41
0.0
 71
     2
 72
     1
  1
C
  7
SLDTEXTSTYLE0
  0
MTEXT
  5
CF
330
1F
100
AcDbEntity
  8
0
  6
CONTINUOUS
 62
     7
100
AcDbMText
 10
234.7178345717
 20
5.1306563898
 30
0.0
 40
3.175
 41
0.0
 71
     2
 72
     1
  1
BBSQ2-E03
  7
SLDTEXTSTYLE0
  0
MTEXT
  5
D0
330
1F
100
AcDbEntity
  8
0
  6
CONTINUOUS
 62
     7
100
AcDbMText
 10
216.4199766059
 20
16.8243178599
 30
0.0
 40
2.1166666667
 41
0.0
 71
     1
 72
     1
  1
MATERIAL
  7
SLDTEXTSTYLE0
  0
MTEXT
  5
D1
330
1F
100
AcDbEntity
  8
0
  6
CONTINUOUS
 62
     7
100
AcDbMText
 10
174.230946566
 20
20.054553926
 30
0.0
 40
1.8520833333
 41
0.0
 71
     1
 72
     1
  1
DRAWN
  7
SLDTEXTSTYLE0
  0
MTEXT
  5
D2
330
1F
100
AcDbEntity
  8
0
  6
CONTINUOUS
 62
     7
100
AcDbMText
 10
172.3960124543
 20
15.5787169747
 30
0.0
 40
1.8520833333
 41
0.0
 71
     1
 72
     1
  1
APPROVAL
  7
SLDTEXTSTYLE0
  0
MTEXT
  5
D3
330
1F
100
AcDbEntity
  8
0
  6
CONTINUOUS
 62
     7
100
AcDbMText
 10
271.321689486
 20
16.0237652193
 30
0.0
 40
2.1166666667
 41
0.0
 71
     1
 72
     1
  1
REV
  7
SLDTEXTSTYLE0
  0
MTEXT
  5
D4
330
1F
100
AcDbEntity
  8
0
  6
CONTINUOUS
 62
     7
100
AcDbMText
 10
190.5021465356
 20
20.3177146903
 30
0.0
 40
2.1166666667
 41
0.0
 71
     1
 72
     1
  1
RJ
  7
SLDTEXTSTYLE0
  0
MTEXT
  5
D5
330
1F
100
AcDbEntity
  8
0
  6
CONTINUOUS
 62
     7
100
AcDbMText
 10
199.8662436873
 20
20.3177146903
 30
0.0
 40
2.1166666667
 41
0.0
 71
     1
 72
     1
  1
06/DEC/10
  7
SLDTEXTSTYLE0
  0
MTEXT
  5
D6
330
1F
100
AcDbEntity
  8
0
  6
CONTINUOUS
 62
     7
100
AcDbMText
 10
203.6145073853
 20
24.8221395769
 30
0.0
 40
2.1166666667
 41
0.0
 71
     1
 72
     1
  1
DATE
  7
SLDTEXTSTYLE0
  0
MTEXT
  5
D8
330
1F
100
AcDbEntity
  8
0
  6
CONTINUOUS
 62
     7
100
AcDbMText
 10
229.402906477
 20
27.7957480569
 30
0.0
 40
2.1166666667
 41
0.0
 71
     1
 72
     1
  1
w w w . t h o r  l a b s . c o m
  7
SLDTEXTSTYLE4
  0
MTEXT
  5
D9
330
1F
100
AcDbEntity
  8
0
  6
CONTINUOUS
 62
     7
100
AcDbMText
 10
216.7004035316
 20
8.3494791871
 30
0.0
 40
2.1166666667
 41
0.0
 71
     1
 72
     1
  1
ITEM #
  7
SLDTEXTSTYLE0
  0
MTEXT
  5
DA
330
1F
100
AcDbEntity
  8
0
  6
CONTINUOUS
 62
     7
100
AcDbMText
 10
254.5318000914
 20
8.3494791871
 30
0.0
 40
2.1166666667
 41
0.0
 71
     1
 72
     1
  1
APPROX WEIGHT
  7
SLDTEXTSTYLE0
  0
MTEXT
  5
DB
330
1F
100
AcDbEntity
  8
0
  6
CONTINUOUS
 62
     7
100
AcDbMText
 10
243.6650463822
 20
13.1125292762
 30
0.0
 40
3.175
 41
0.0
 71
     2
 72
     1
  1
FUSED SILICA
  7
SLDTEXTSTYLE0
  0
MTEXT
  5
DC
330
1F
100
AcDbEntity
  8
0
  6
CONTINUOUS
 62
     7
100
AcDbMText
 10
266.1358773775
 20
5.1306563898
 30
0.0
 40
3.175
 41
0.0
 71
     2
 72
     1
  1
0.034 kg
  7
SLDTEXTSTYLE0
  0
INSERT
  5
E2
330
1F
100
AcDbEntity
  8
0
  6
CONTINUOUS
 62
     7
100
AcDbBlockReference
  2
SW_NOTE_2
 10
174.8430140051
 20
4.4558554801
 30
0.0
  0
INSERT
  5
E8
330
1F
100
AcDbEntity
  8
0
  6
CONTINUOUS
 62
     7
100
AcDbBlockReference
  2
SW_NOTE_3
 10
174.5483650337
 20
30.4835322715
 30
0.0
  0
MTEXT
  5
E9
330
1F
100
AcDbEntity
  8
0
  6
CONTINUOUS
 62
     7
100
AcDbMText
 10
187.9273588276
 20
24.8221395769
 30
0.0
 40
2.1166666667
 41
0.0
 71
     1
 72
     1
  1
NAME
  7
SLDTEXTSTYLE0
  0
INSERT
  5
EF
330
1F
100
AcDbEntity
  8
0
  6
CONTINUOUS
 62
     7
100
AcDbBlockReference
  2
SW_NOTE_4
 10
58.6204667508
 20
8.1776609732
 30
0.0
  0
MTEXT
  5
F0
330
1F
100
AcDbEntity
  8
0
  6
CONTINUOUS
 62
     7
100
AcDbMText
 10
179.1174811218
 20
10.6680638482
 30
0.0
 40
1.5875
 41
0.0
 71
     1
 72
     1
  1
COPYRIGHT © 2021 BY THORLABS
  7
SLDTEXTSTYLE0
  0
INSERT
  5
F6
330
1F
100
AcDbEntity
  8
0
  6
CONTINUOUS
 62
     7
100
AcDbBlockReference
  2
SW_NOTE_5
 10
220.3933477695
 20
20.4114101626
 30
0.0
  0
MTEXT
  5
F7
330
1F
100
AcDbEntity
  8
0
  6
CONTINUOUS
 62
     7
100
AcDbMText
 10
189.8676366983
 20
15.841877739
 30
0.0
 40
2.1166666667
 41
0.0
 71
     1
 72
     1
  1
BW
  7
SLDTEXTSTYLE0
  0
MTEXT
  5
F8
330
1F
100
AcDbEntity
  8
0
  6
CONTINUOUS
 62
     7
100
AcDbMText
 10
199.9098500729
 20
15.841877739
 30
0.0
 40
2.1166666667
 41
0.0
 71
     1
 72
     1
  1
04/NOV/21
  7
SLDTEXTSTYLE0
  0
LINE
  5
F9
330
1F
100
AcDbEntity
  8
0
  6
SLD-SOLID
 62
     7
100
AcDbLine
 10
27.608237391
 20
130.5507673052
 30
0.0
 11
27.608237391
 21
80.1507672396
 31
0.0
  0
LINE
  5
FA
330
1F
100
AcDbEntity
  8
0
  6
SLD-SOLID
 62
     7
100
AcDbLine
 10
27.608237391
 20
80.1507672396
 30
0.0
 11
27.4082377307
 21
80.1507672396
 31
0.0
  0
LINE
  5
FB
330
1F
100
AcDbEntity
  8
0
  6
SLD-SOLID
 62
     7
100
AcDbLine
 10
27.4082377307
 20
80.1507672396
 30
0.0
 11
27.4082377307
 21
130.5507673052
 31
0.0
  0
LINE
  5
FC
330
1F
100
AcDbEntity
  8
0
  6
SLD-SOLID
 62
     7
100
AcDbLine
 10
27.608237391
 20
130.5507673052
 30
0.0
 11
27.4082377307
 21
130.5507673052
 31
0.0
  0
LINE
  5
FD
330
1F
100
AcDbEntity
  8
0
  6
SLD-SOLID
 62
     7
100
AcDbLine
 10
78.0082374565
 20
79.9507675794
 30
0.0
 11
27.608237391
 21
79.9507675794
 31
0.0
  0
LINE
  5
FE
330
1F
100
AcDbEntity
  8
0
  6
SLD-SOLID
 62
     7
100
AcDbLine
 10
27.608237391
 20
79.9507675794
 30
0.0
 11
27.608237391
 21
80.1507672396
 31
0.0
  0
LINE
  5
FF
330
1F
100
AcDbEntity
  8
0
  6
SLD-SOLID
 62
     7
100
AcDbLine
 10
27.608237391
 20
80.1507672396
 30
0.0
 11
78.0082374565
 21
80.1507672396
 31
0.0
  0
LINE
  5
100
330
1F
100
AcDbEntity
  8
0
  6
SLD-SOLID
 62
     7
100
AcDbLine
 10
78.0082374565
 20
79.9507675794
 30
0.0
 11
78.0082374565
 21
80.1507672396
 31
0.0
  0
LINE
  5
101
330
1F
100
AcDbEntity
  8
0
  6
SLD-SOLID
 62
     7
100
AcDbLine
 10
27.608237391
 20
130.7507669654
 30
0.0
 11
27.4082377307
 21
130.5507673052
 31
0.0
  0
LINE
  5
102
330
1F
100
AcDbEntity
  8
0
  6
SLD-SOLID
 62
     7
100
AcDbLine
 10
27.608237391
 20
130.5507673052
 30
0.0
 11
27.608237391
 21
130.7507669654
 31
0.0
  0
LINE
  5
103
330
1F
100
AcDbEntity
  8
0
  6
SLD-SOLID
 62
     7
100
AcDbLine
 10
78.0082374565
 20
130.5507673052
 30
0.0
 11
78.0082374565
 21
130.7507669654
 31
0.0
  0
LINE
  5
104
330
1F
100
AcDbEntity
  8
0
  6
SLD-SOLID
 62
     7
100
AcDbLine
 10
78.2082371168
 20
130.5507673052
 30
0.0
 11
78.0082374565
 21
130.7507669654
 31
0.0
  0
LINE
  5
105
330
1F
100
AcDbEntity
  8
0
  6
SLD-SOLID
 62
     7
100
AcDbLine
 10
78.2082371168
 20
130.5507673052
 30
0.0
 11
78.0082374565
 21
130.5507673052
 31
0.0
  0
LINE
  5
106
330
1F
100
AcDbEntity
  8
0
  6
SLD-SOLID
 62
     7
100
AcDbLine
 10
27.608237391
 20
79.9507675794
 30
0.0
 11
27.4082377307
 21
80.1507672396
 31
0.0
  0
LINE
  5
107
330
1F
100
AcDbEntity
  8
0
  6
SLD-SOLID
 62
     7
100
AcDbLine
 10
78.0082374565
 20
130.5507673052
 30
0.0
 11
27.608237391
 21
130.5507673052
 31
0.0
  0
LINE
  5
108
330
1F
100
AcDbEntity
  8
0
  6
SLD-SOLID
 62
     7
100
AcDbLine
 10
78.0082374565
 20
80.1507672396
 30
0.0
 11
78.0082374565
 21
130.5507673052
 31
0.0
  0
LINE
  5
109
330
1F
100
AcDbEntity
  8
0
  6
SLD-SOLID
 62
     7
100
AcDbLine
 10
78.2082371168
 20
130.5507673052
 30
0.0
 11
78.2082371168
 21
80.1507672396
 31
0.0
  0
LINE
  5
10A
330
1F
100
AcDbEntity
  8
0
  6
SLD-SOLID
 62
     7
100
AcDbLine
 10
78.2082371168
 20
80.1507672396
 30
0.0
 11
78.0082374565
 21
80.1507672396
 31
0.0
  0
LINE
  5
10B
330
1F
100
AcDbEntity
  8
0
  6
SLD-SOLID
 62
     7
100
AcDbLine
 10
27.608237391
 20
130.7507669654
 30
0.0
 11
78.0082374565
 21
130.7507669654
 31
0.0
  0
LINE
  5
10C
330
1F
100
AcDbEntity
  8
0
  6
SLD-SOLID
 62
     7
100
AcDbLine
 10
78.0082374565
 20
79.9507675794
 30
0.0
 11
78.2082371168
 21
80.1507672396
 31
0.0
  0
DIMENSION
  5
10D
330
1F
100
AcDbEntity
  8
0
  6
SLD-SOLID
 62
     7
100
AcDbDimension
  2
_D
 10
27.4082374238
 20
140.7507672724
 30
0.0
 11
52.8082374238
 21
140.7507672724
 31
0.0
 70
   160
  1
<>
  3
SLDDIMSTYLE0
100
AcDbAlignedDimension
 13
78.2082374238
 23
130.5507672724
 33
0.0
 14
27.4082374238
 24
130.5507672724
 34
0.0
100
AcDbRotatedDimension
  0
DIMENSION
  5
120
330
1F
100
AcDbEntity
  8
0
  6
SLD-SOLID
 62
     7
100
AcDbDimension
  2
_D_1
 10
88.2082374238
 20
130.7507672724
 30
0.0
 11
88.2082374238
 21
105.3507672724
 31
0.0
 70
   160
  1
<>
  3
SLDDIMSTYLE0
100
AcDbAlignedDimension
 13
78.0082374238
 23
79.9507672724
 33
0.0
 14
78.0082374238
 24
130.7507672724
 34
0.0
 50
90.0
100
AcDbRotatedDimension
  0
LINE
  5
132
330
1F
100
AcDbEntity
  8
0
  6
SLD-SOLID
 62
     7
100
AcDbLine
 10
238.0130545985
 20
104.0175324407
 30
0.0
 11
238.0130545985
 21
103.9980262386
 31
0.0
  0
SPLINE
  5
133
330
1F
100
AcDbEntity
  8
0
  6
SLD-SOLID
 62
     7
100
AcDbSpline
210
0.0
220
0.0
230
1.0
 70
     8
 71
     3
 72
    23
 73
    19
 74
     0
 42
0.000000001
 43
0.00000001
 40
0.0
 40
0.0
 40
0.0
 40
0.0
 40
0.0650370850638975
 40
0.1280561137336047
 40
0.1903467475118366
 40
0.2515914275006021
 40
0.3138820612788337
 40
0.3759128600734803
 40
0.4393270148683441
 40
0.504614847639443
 40
0.5696259380863111
 40
0.633450430124235
 40
0.6954812289188816
 40
0.7566829624701173
 40
0.8175400334781563
 40
0.8779013156071077
 40
0.9387583866151467
 40
1.0
 40
1.0
 40
1.0
 40
1.0
 10
238.4092744431019
 20
104.4860880411426
 30
0.0
 10
238.4088203090625
 20
104.4717164661389
 30
0.0
 10
238.4079261324535
 20
104.4434192563025
 30
0.0
 10
238.4027389183275
 20
104.4015791963602
 30
0.0
 10
238.3931846175067
 20
104.3614086591949
 30
0.0
 10
238.3806019745784
 20
104.3222592681598
 30
0.0
 10
238.364017454381
 20
104.284654859953
 30
0.0
 10
238.3433852683895
 20
104.2485835715565
 30
0.0
 10
238.31929767455
 20
104.2139225073669
 30
0.0
 10
238.2918819205935
 20
104.1809734831009
 30
0.0
 10
238.26192540489
 20
104.1501916715678
 30
0.0
 10
238.2302023872626
 20
104.1223410442551
 30
0.0
 10
238.1976701290915
 20
104.0967744895271
 30
0.0
 10
238.1634040292629
 20
104.0746890270375
 30
0.0
 10
238.1274784984829
 20
104.0563149695229
 30
0.0
 10
238.0908233946994
 20
104.0396432691084
 30
0.0
 10
238.0525713188539
 20
104.0265848120233
 30
0.0
 10
238.0262543294178
 20
104.0205562215438
 30
0.0
 10
238.0130543928213
 20
104.0175324329646
 30
0.0
  0
SPLINE
  5
134
330
1F
100
AcDbEntity
  8
0
  6
SLD-SOLID
 62
     7
100
AcDbSpline
210
0.0
220
0.0
230
1.0
 70
     8
 71
     3
 72
    15
 73
    11
 74
     0
 42
0.000000001
 43
0.00000001
 40
0.0
 40
0.0
 40
0.0
 40
0.0
 40
0.1287807531299118
 40
0.2519360070578736
 40
0.3725821314136105
 40
0.4920524237295644
 40
0.6115661009317924
 40
0.735598972172567
 40
0.8640665895741636
 40
1.0
 40
1.0
 40
1.0
 40
1.0
 10
238.2081165714209
 20
104.8725549824932
 30
0.0
 10
238.2240238431441
 20
104.8611729302468
 30
0.0
 10
238.2551435129994
 20
104.8389060252521
 30
0.0
 10
238.2955726942917
 20
104.7991339629361
 30
0.0
 10
238.3305352057841
 20
104.7563932437413
 30
0.0
 10
238.3590702833627
 20
104.7097072466247
 30
0.0
 10
238.3818188518587
 20
104.6594059060353
 30
0.0
 10
238.3980639410026
 20
104.6051937043344
 30
0.0
 10
238.407416350786
 20
104.5468269630964
 30
0.0
 10
238.4086435285433
 20
104.5067119196248
 30
0.0
 10
238.4092744431019
 20
104.4860880411426
 30
0.0
  0
SPLINE
  5
135
330
1F
100
AcDbEntity
  8
0
  6
SLD-SOLID
 62
     7
100
AcDbSpline
210
0.0
220
0.0
230
1.0
 70
     8
 71
     3
 72
    15
 73
    11
 74
     0
 42
0.000000001
 43
0.00000001
 40
0.0
 40
0.0
 40
0.0
 40
0.0
 40
0.1476912030667308
 40
0.2866860919909795
 40
0.4174582694708097
 40
0.54040758716279
 40
0.6589271701635696
 40
0.7738202984699525
 40
0.8878126633591736
 40
1.0
 40
1.0
 40
1.0
 40
1.0
 10
237.7375290655492
 20
104.9908114282693
 30
0.0
 10
237.761785911154
 20
104.990546221647
 30
0.0
 10
237.8088713172314
 20
104.9900314242282
 30
0.0
 10
237.8772778673654
 20
104.9847284066183
 30
0.0
 10
237.9411776380525
 20
104.975786099898
 30
0.0
 10
238.0011595354384
 20
104.9637459873688
 30
0.0
 10
238.0574580954998
 20
104.9474863800992
 30
0.0
 10
238.1107549015218
 20
104.9269892261663
 30
0.0
 10
238.1612610687545
 20
104.9024952807918
 30
0.0
 10
238.1925813878536
 20
104.8824818428119
 30
0.0
 10
238.2081165714209
 20
104.8725549824932
 30
0.0
  0
SPLINE
  5
136
330
1F
100
AcDbEntity
  8
0
  6
SLD-SOLID
 62
     7
100
AcDbSpline
210
0.0
220
0.0
230
1.0
 70
     8
 71
     3
 72
    15
 73
    11
 74
     0
 42
0.000000001
 43
0.00000001
 40
0.0
 40
0.0
 40
0.0
 40
0.0
 40
0.097203018344265
 40
0.2065337599249228
 40
0.3287787808923134
 40
0.4631104020276708
 40
0.6022769086642593
 40
0.7384511479791039
 40
0.8701962613861665
 40
1.0
 40
1.0
 40
1.0
 40
1.0
 10
237.1608765000639
 20
104.861582734947
 30
0.0
 10
237.1783913311532
 20
104.8696629549354
 30
0.0
 10
237.2156062652257
 20
104.8868315392414
 30
0.0
 10
237.2768954379496
 20
104.9093422151519
 30
0.0
 10
237.3463446667546
 20
104.930510243808
 30
0.0
 10
237.4221568620609
 20
104.9509384653727
 30
0.0
 10
237.5014765597471
 20
104.9688854073301
 30
0.0
 10
237.5813337201631
 20
104.9811496713485
 30
0.0
 10
237.6598685625018
 20
104.9895049287972
 30
0.0
 10
237.7117706474898
 20
104.9903780888203
 30
0.0
 10
237.7375290655492
 20
104.9908114282693
 30
0.0
  0
LINE
  5
137
330
1F
100
AcDbEntity
  8
0
  6
SLD-SOLID
 62
     7
100
AcDbLine
 10
237.1608762819
 20
104.5746787669
 30
0.0
 11
237.1608762819
 21
104.8615827559
 31
0.0
  0
LINE
  5
138
330
1F
100
AcDbEntity
  8
0
  6
SLD-SOLID
 62
     7
100
AcDbLine
 10
237.1746933837
 20
104.5746787669
 30
0.0
 11
237.1608762819
 21
104.5746787669
 31
0.0
  0
SPLINE
  5
139
330
1F
100
AcDbEntity
  8
0
  6
SLD-SOLID
 62
     7
100
AcDbSpline
210
0.0
220
0.0
230
1.0
 70
     8
 71
     3
 72
    15
 73
    11
 74
     0
 42
0.000000001
 43
0.00000001
 40
0.0
 40
0.0
 40
0.0
 40
0.0
 40
0.1118022777586816
 40
0.2286262716886251
 40
0.3499321801770165
 40
0.4776003573855837
 40
0.607609775614423
 40
0.737894980285539
 40
0.8683716133823076
 40
1.0
 40
1.0
 40
1.0
 40
1.0
 10
237.7269631975417
 20
104.7567368139497
 30
0.0
 10
237.7049918163363
 20
104.7561855541808
 30
0.0
 10
237.6600621863722
 20
104.7550582742343
 30
0.0
 10
237.5918097694275
 20
104.7457107551296
 30
0.0
 10
237.5215733914313
 20
104.7303313009117
 30
0.0
 10
237.4498675991435
 20
104.7100177310701
 30
0.0
 10
237.3783920508478
 20
104.6833788783618
 30
0.0
 10
237.3079220366564
 20
104.6528036493829
 30
0.0
 10
237.2397865447574
 20
104.6165093797459
 30
0.0
 10
237.1964545882428
 20
104.5886631014263
 30
0.0
 10
237.1746934043813
 20
104.57467878059
 30
0.0
  0
SPLINE
  5
13A
330
1F
100
AcDbEntity
  8
0
  6
SLD-SOLID
 62
     7
100
AcDbSpline
210
0.0
220
0.0
230
1.0
 70
     8
 71
     3
 72
    13
 73
     9
 74
     0
 42
0.000000001
 43
0.00000001
 40
0.0
 40
0.0
 40
0.0
 40
0.0
 40
0.1185360514191761
 40
0.2363008558423962
 40
0.3542673412543951
 40
0.4720405559475348
 40
0.7224415536005139
 40
1.0
 40
1.0
 40
1.0
 40
1.0
 10
238.0041140429688
 20
104.691309708211
 30
0.0
 10
237.9943294822999
 20
104.6971912514964
 30
0.0
 10
237.9748240235606
 20
104.708916070194
 30
0.0
 10
237.9437219994752
 20
104.7230582964707
 30
0.0
 10
237.9116281289685
 20
104.7344702811645
 30
0.0
 10
237.8662483840985
 20
104.7460714835177
 30
0.0
 10
237.804496899386
 20
104.7547461395542
 30
0.0
 10
237.7536790955777
 20
104.7560508844389
 30
0.0
 10
237.7269631975417
 20
104.7567368139497
 30
0.0
  0
SPLINE
  5
13B
330
1F
100
AcDbEntity
  8
0
  6
SLD-SOLID
 62
     7
100
AcDbSpline
210
0.0
220
0.0
230
1.0
 70
     8
 71
     3
 72
    15
 73
    11
 74
     0
 42
0.000000001
 43
0.00000001
 40
0.0
 40
0.0
 40
0.0
 40
0.0
 40
0.1386670051085123
 40
0.2683180690088464
 40
0.3944624858496451
 40
0.5170276716350833
 40
0.6373170617144897
 40
0.7571914644221666
 40
0.877490269395345
 40
1.0
 40
1.0
 40
1.0
 40
1.0
 10
238.1231832478223
 20
104.4617052688177
 30
0.0
 10
238.1227767244561
 20
104.47418684103
 30
0.0
 10
238.1219901093233
 20
104.4983384505034
 30
0.0
 10
238.1163623131732
 20
104.5335263112632
 30
0.0
 10
238.1060687995807
 20
104.5660993762364
 30
0.0
 10
238.092172283187
 20
104.5963513822355
 30
0.0
 10
238.0749880229906
 20
104.6242066216433
 30
0.0
 10
238.0546165795318
 20
104.6495677303035
 30
0.0
 10
238.0308351603205
 20
104.6721048857266
 30
0.0
 10
238.0130749879618
 20
104.6848693578462
 30
0.0
 10
238.0041140429688
 20
104.691309708211
 30
0.0
  0
SPLINE
  5
13C
330
1F
100
AcDbEntity
  8
0
  6
SLD-SOLID
 62
     7
100
AcDbSpline
210
0.0
220
0.0
230
1.0
 70
     8
 71
     3
 72
    23
 73
    19
 74
     0
 42
0.000000001
 43
0.00000001
 40
0.0
 40
0.0
 40
0.0
 40
0.0
 40
0.0775262377302162
 40
0.1509770829334166
 40
0.2205464552176586
 40
0.2880090313218418
 40
0.35225334723399
 40
0.4138908114371812
 40
0.474299115651342
 40
0.5334130861843818
 40
0.591112409947758
 40
0.6468276798447722
 40
0.7023392369211362
 40
0.7580089118648922
 40
0.8149997400839366
 40
0.8736659338779592
 40
0.9349219351235263
 40
1.0
 40
1.0
 40
1.0
 40
1.0
 10
237.6716955802718
 20
104.1065295519507
 30
0.0
 10
237.6885062746965
 20
104.1066678765495
 30
0.0
 10
237.7212439604225
 20
104.1069372543117
 30
0.0
 10
237.7688397281606
 20
104.1117858732146
 30
0.0
 10
237.8140163014568
 20
104.1183531268802
 30
0.0
 10
237.8564549781921
 20
104.1286704340089
 30
0.0
 10
237.8965000567199
 20
104.1411068539648
 30
0.0
 10
237.9338901166464
 20
104.1565556180178
 30
0.0
 10
237.9683507300167
 20
104.1754748410972
 30
0.0
 10
238.0006441723191
 20
104.1963652261013
 30
0.0
 10
238.0295141318638
 20
104.2202793411847
 30
0.0
 10
238.0546935419805
 20
104.2469986717015
 30
0.0
 10
238.0758317817761
 20
104.2764609239458
 30
0.0
 10
238.0936045101443
 20
104.3083907452324
 30
0.0
 10
238.1069765697648
 20
104.3431633787812
 30
0.0
 10
238.1161826892813
 20
104.3804500800925
 30
0.0
 10
238.1220329807162
 20
104.4202066581615
 30
0.0
 10
238.1227921693835
 20
104.4475961877345
 30
0.0
 10
238.1231832478223
 20
104.4617052688177
 30
0.0
  0
LINE
  5
13D
330
1F
100
AcDbEntity
  8
0
  6
SLD-SOLID
 62
     7
100
AcDbLine
 10
237.5770093691
 20
104.1065295095
 30
0.0
 11
237.6716955382
 21
104.1065295095
 31
0.0
  0
LINE
  5
13E
330
1F
100
AcDbEntity
  8
0
  6
SLD-SOLID
 62
     7
100
AcDbLine
 10
237.5770093691
 20
103.8724549682
 30
0.0
 11
237.5770093691
 21
104.1065295095
 31
0.0
  0
LINE
  5
13F
330
1F
100
AcDbEntity
  8
0
  6
SLD-SOLID
 62
     7
100
AcDbLine
 10
237.7013614219
 20
103.8724549682
 30
0.0
 11
237.5770093691
 21
103.8724549682
 31
0.0
  0
SPLINE
  5
140
330
1F
100
AcDbEntity
  8
0
  6
SLD-SOLID
 62
     7
100
AcDbSpline
210
0.0
220
0.0
230
1.0
 70
     8
 71
     3
 72
    13
 73
     9
 74
     0
 42
0.000000001
 43
0.00000001
 40
0.0
 40
0.0
 40
0.0
 40
0.0
 40
0.1085340531436408
 40
0.2193570695963684
 40
0.3364601058694536
 40
0.4599442697380866
 40
0.7211714403328402
 40
1.0
 40
1.0
 40
1.0
 40
1.0
 10
238.04272009915
 20
103.7976811025012
 30
0.0
 10
238.0319041030671
 20
103.8045997203866
 30
0.0
 10
238.0100440035243
 20
103.8185828685417
 30
0.0
 10
237.9735769998346
 20
103.8347474825888
 30
0.0
 10
237.9340829577407
 20
103.8477377276283
 30
0.0
 10
237.876127327878
 20
103.8605756534613
 30
0.0
 10
237.7981162876834
 20
103.8700906451787
 30
0.0
 10
237.7343061823865
 20
103.8716499005004
 30
0.0
 10
237.7013612866005
 20
103.8724549376311
 30
0.0
  0
SPLINE
  5
141
330
1F
100
AcDbEntity
  8
0
  6
SLD-SOLID
 62
     7
100
AcDbSpline
210
0.0
220
0.0
230
1.0
 70
     8
 71
     3
 72
    15
 73
    11
 74
     0
 42
0.000000001
 43
0.00000001
 40
0.0
 40
0.0
 40
0.0
 40
0.0
 40
0.1557720971906395
 40
0.2997047241145708
 40
0.4306776952770036
 40
0.5531894973622308
 40
0.6694877699868279
 40
0.7815610721787537
 40
0.8907838177270183
 40
1.0
 40
1.0
 40
1.0
 40
1.0
 10
238.1751998287822
 20
103.5006176596755
 30
0.0
 10
238.1749214546136
 20
103.5182558966293
 30
0.0
 10
238.1743858641264
 20
103.5521917749763
 30
0.0
 10
238.1672500326461
 20
103.6005037336546
 30
0.0
 10
238.1565738384993
 20
103.6442865558566
 30
0.0
 10
238.1408516283694
 20
103.6831872272395
 30
0.0
 10
238.1217869206302
 20
103.7181320993573
 30
0.0
 10
238.0988134460493
 20
103.7487771016899
 30
0.0
 10
238.0726431592801
 20
103.7757122916477
 30
0.0
 10
238.0526942527299
 20
103.7903583122362
 30
0.0
 10
238.04272009915
 20
103.7976811025012
 30
0.0
  0
SPLINE
  5
142
330
1F
100
AcDbEntity
  8
0
  6
SLD-SOLID
 62
     7
100
AcDbSpline
210
0.0
220
0.0
230
1.0
 70
     8
 71
     3
 72
    15
 73
    11
 74
     0
 42
0.000000001
 43
0.00000001
 40
0.0
 40
0.0
 40
0.0
 40
0.0
 40
0.1217612113976691
 40
0.2388187479735819
 40
0.3527982834985522
 40
0.4651955010779933
 40
0.5816891734089795
 40
0.7097702797518272
 40
0.848412423625786
 40
1.0
 40
1.0
 40
1.0
 40
1.0
 10
238.0504413103862
 20
103.1807969626797
 30
0.0
 10
238.0605858719142
 20
103.1910019182901
 30
0.0
 10
238.0804831072904
 20
103.2110176087881
 30
0.0
 10
238.1055121587622
 20
103.2444297975328
 30
0.0
 10
238.1273986240553
 20
103.2785975365777
 30
0.0
 10
238.1453131031294
 20
103.3150144859278
 30
0.0
 10
238.1588931193417
 20
103.3550170835772
 30
0.0
 10
238.1684519893988
 20
103.3993147844375
 30
0.0
 10
238.1740577423739
 20
103.4484582751543
 30
0.0
 10
238.1748079787755
 20
103.4827217675382
 30
0.0
 10
238.1751998287822
 20
103.5006176596755
 30
0.0
  0
SPLINE
  5
143
330
1F
100
AcDbEntity
  8
0
  6
SLD-SOLID
 62
     7
100
AcDbSpline
210
0.0
220
0.0
230
1.0
 70
     8
 71
     3
 72
    15
 73
    11
 74
     0
 42
0.000000001
 43
0.00000001
 40
0.0
 40
0.0
 40
0.0
 40
0.0
 40
0.1193881396351831
 40
0.2440760875476245
 40
0.3723341602384999
 40
0.5071106630126673
 40
0.6405723747946283
 40
0.7665746571284806
 40
0.8861313339941911
 40
1.0
 40
1.0
 40
1.0
 40
1.0
 10
237.708676118298
 20
103.0661979327524
 30
0.0
 10
237.7233250947437
 20
103.0664588014677
 30
0.0
 10
237.7532733364062
 20
103.0669921192294
 30
0.0
 10
237.7985894897939
 20
103.0731799384441
 30
0.0
 10
237.8453031597003
 20
103.0820972756843
 30
0.0
 10
237.8923706867888
 20
103.0944228579632
 30
0.0
 10
237.9381976526977
 20
103.1100965571226
 30
0.0
 10
237.9801695277009
 20
103.1302056229328
 30
0.0
 10
238.0180856553803
 20
103.1530057266913
 30
0.0
 10
238.0398327332755
 20
103.1716849397604
 30
0.0
 10
238.0504413103862
 20
103.1807969626797
 30
0.0
  0
SPLINE
  5
144
330
1F
100
AcDbEntity
  8
0
  6
SLD-SOLID
 62
     7
100
AcDbSpline
210
0.0
220
0.0
230
1.0
 70
     8
 71
     3
 72
    15
 73
    11
 74
     0
 42
0.000000001
 43
0.00000001
 40
0.0
 40
0.0
 40
0.0
 40
0.0
 40
0.116278970984264
 40
0.2371699845229187
 40
0.3632450805857224
 40
0.4953530017979965
 40
0.6275137979058092
 40
0.7556842210388175
 40
0.878957376292225
 40
1.0
 40
1.0
 40
1.0
 40
1.0
 10
237.1295852755802
 20
103.2482559661121
 30
0.0
 10
237.1497410445377
 20
103.2355178644441
 30
0.0
 10
237.1908520328037
 20
103.2095364221431
 30
0.0
 10
237.2569365976963
 20
103.1750156207846
 30
0.0
 10
237.3283493559407
 20
103.1442336737009
 30
0.0
 10
237.4036558370635
 20
103.1170914356046
 30
0.0
 10
237.4808273590009
 20
103.0940405474283
 30
0.0
 10
237.558001312168
 20
103.0786252336765
 30
0.0
 10
237.6337475049286
 20
103.0680674930358
 30
0.0
 10
237.6838523948342
 20
103.0668173149268
 30
0.0
 10
237.708676118298
 20
103.0661979327524
 30
0.0
  0
LINE
  5
145
330
1F
100
AcDbEntity
  8
0
  6
SLD-SOLID
 62
     7
100
AcDbLine
 10
237.1088600535
 20
103.248256036
 30
0.0
 11
237.1295852404
 21
103.248256036
 31
0.0
  0
LINE
  5
146
330
1F
100
AcDbEntity
  8
0
  6
SLD-SOLID
 62
     7
100
AcDbLine
 10
237.1088600535
 20
102.9613521051
 30
0.0
 11
237.1088600535
 21
103.248256036
 31
0.0
  0
SPLINE
  5
147
330
1F
100
AcDbEntity
  8
0
  6
SLD-SOLID
 62
     7
100
AcDbSpline
210
0.0
220
0.0
230
1.0
 70
     8
 71
     3
 72
    15
 73
    11
 74
     0
 42
0.000000001
 43
0.00000001
 40
0.0
 40
0.0
 40
0.0
 40
0.0
 40
0.1364542308240158
 40
0.2714694274989919
 40
0.4074187810485477
 40
0.5428317818167898
 40
0.6731194516066255
 40
0.7926941018138811
 40
0.9015729906905081
 40
1.0
 40
1.0
 40
1.0
 40
1.0
 10
237.716803709073
 20
102.8321233184328
 30
0.0
 10
237.6883377813212
 20
102.8325445920772
 30
0.0
 10
237.631706124953
 20
102.8333826966518
 30
0.0
 10
237.5470588611658
 20
102.8416168109341
 30
0.0
 10
237.4631745706118
 20
102.853966911122
 30
0.0
 10
237.3812039010919
 20
102.8714652241746
 30
0.0
 10
237.3034881196826
 20
102.8919703345311
 30
0.0
 10
237.2319519965925
 20
102.913913382258
 30
0.0
 10
237.1675100461478
 20
102.9362951786131
 30
0.0
 10
237.1277416176684
 20
102.9532852675857
 30
0.0
 10
237.108859919104
 20
102.9613520117551
 30
0.0
  0
SPLINE
  5
148
330
1F
100
AcDbEntity
  8
0
  6
SLD-SOLID
 62
     7
100
AcDbSpline
210
0.0
220
0.0
230
1.0
 70
     8
 71
     3
 72
    15
 73
    11
 74
     0
 42
0.000000001
 43
0.00000001
 40
0.0
 40
0.0
 40
0.0
 40
0.0
 40
0.1181424300379617
 40
0.2361706385669609
 40
0.3557335757949138
 40
0.4773120478151734
 40
0.6019058821037551
 40
0.7304391334908846
 40
0.8628385193173097
 40
1.0
 40
1.0
 40
1.0
 40
1.0
 10
238.2670416045396
 20
103.0210898039513
 30
0.0
 10
238.249348138212
 20
103.0056460616747
 30
0.0
 10
238.213978311811
 20
102.9747735083157
 30
0.0
 10
238.1548752107531
 20
102.9356335968647
 30
0.0
 10
238.0911844342011
 20
102.9032630331477
 30
0.0
 10
238.0234755292545
 20
102.8765577205221
 30
0.0
 10
237.9515254825978
 20
102.8570997549357
 30
0.0
 10
237.8763380608007
 20
102.8422804920635
 30
0.0
 10
237.7976005142218
 20
102.8337237219065
 30
0.0
 10
237.74405131301
 20
102.8326630323474
 30
0.0
 10
237.716803709073
 20
102.8321233184328
 30
0.0
  0
SPLINE
  5
149
330
1F
100
AcDbEntity
  8
0
  6
SLD-SOLID
 62
     7
100
AcDbSpline
210
0.0
220
0.0
230
1.0
 70
     8
 71
     3
 72
    15
 73
    11
 74
     0
 42
0.000000001
 43
0.00000001
 40
0.0
 40
0.0
 40
0.0
 40
0.0
 40
0.1340236673882646
 40
0.2628785107308633
 40
0.3897031766661528
 40
0.5140413998924855
 40
0.6362490812458224
 40
0.7568707932056652
 40
0.8780183495270942
 40
1.0
 40
1.0
 40
1.0
 40
1.0
 10
238.4612910240618
 20
103.483549719048
 30
0.0
 10
238.4606490841465
 20
103.4604920296824
 30
0.0
 10
238.459389961693
 20
103.415265905376
 30
0.0
 10
238.449965276251
 20
103.3487256288489
 30
0.0
 10
238.4336184003203
 20
103.2853180479333
 30
0.0
 10
238.411299451125
 20
103.2249629744776
 30
0.0
 10
238.3829988751963
 20
103.1683846252221
 30
0.0
 10
238.3500345163488
 20
103.1150518395682
 30
0.0
 10
238.3113371366679
 20
103.0656650013052
 30
0.0
 10
238.2818405128986
 20
103.0359821470168
 30
0.0
 10
238.2670416045396
 20
103.0210898039513
 30
0.0
  0
SPLINE
  5
14A
330
1F
100
AcDbEntity
  8
0
  6
SLD-SOLID
 62
     7
100
AcDbSpline
210
0.0
220
0.0
230
1.0
 70
     8
 71
     3
 72
    15
 73
    11
 74
     0
 42
0.000000001
 43
0.00000001
 40
0.0
 40
0.0
 40
0.0
 40
0.0
 40
0.1059355053872468
 40
0.2137778907848689
 40
0.3240516067091865
 40
0.4391821480121248
 40
0.5608103045172662
 40
0.6942755088931646
 40
0.839479834508611
 40
1.0
 40
1.0
 40
1.0
 40
1.0
 10
238.3097114561082
 20
103.8643273468561
 30
0.0
 10
238.3205032781797
 20
103.8539759367876
 30
0.0
 10
238.3422811792877
 20
103.8330867872715
 30
0.0
 10
238.3711084227963
 20
103.797450797968
 30
0.0
 10
238.3968154006609
 20
103.7580321103181
 30
0.0
 10
238.4198753479084
 20
103.714767856748
 30
0.0
 10
238.4390378270634
 20
103.6660210692766
 30
0.0
 10
238.4520914014572
 20
103.6109236968758
 30
0.0
 10
238.4596562632548
 20
103.5493226899722
 30
0.0
 10
238.4607282035092
 20
103.5061942427507
 30
0.0
 10
238.4612910240618
 20
103.483549719048
 30
0.0
  0
SPLINE
  5
14B
330
1F
100
AcDbEntity
  8
0
  6
SLD-SOLID
 62
     7
100
AcDbSpline
210
0.0
220
0.0
230
1.0
 70
     8
 71
     3
 72
    15
 73
    11
 74
     0
 42
0.000000001
 43
0.00000001
 40
0.0
 40
0.0
 40
0.0
 40
0.0
 40
0.1058841036723952
 40
0.2224781058171982
 40
0.347499645430994
 40
0.4828619868399377
 40
0.6199777342240185
 40
0.7521045367214069
 40
0.8778625597288858
 40
1.0
 40
1.0
 40
1.0
 40
1.0
 10
238.0130543928213
 20
103.9980262151047
 30
0.0
 10
238.0244707922594
 20
103.9958890348299
 30
0.0
 10
238.0484583298988
 20
103.9913985041192
 30
0.0
 10
238.0851442572635
 20
103.9809579549781
 30
0.0
 10
238.1243811559246
 20
103.9679373633836
 30
0.0
 10
238.1649487351982
 20
103.9519538806066
 30
0.0
 10
238.2054242075066
 20
103.9337265962007
 30
0.0
 10
238.243553031424
 20
103.9131242143418
 30
0.0
 10
238.2786089913537
 20
103.8904293905069
 30
0.0
 10
238.2994454084276
 20
103.8729428963566
 30
0.0
 10
238.3097114561082
 20
103.8643273468561
 30
0.0
  0
LINE
  5
14C
330
1F
100
AcDbEntity
  8
0
  6
SLD-SOLID
 62
     7
100
AcDbLine
 10
233.8578236573
 20
103.1182145335
 30
0.0
 11
234.924163558
 21
103.1182145335
 31
0.0
  0
LINE
  5
14D
330
1F
100
AcDbEntity
  8
0
  6
SLD-SOLID
 62
     7
100
AcDbLine
 10
233.8578236573
 20
103.8984631988
 30
0.0
 11
233.8578236573
 21
103.1182145335
 31
0.0
  0
LINE
  5
14E
330
1F
100
AcDbEntity
  8
0
  6
SLD-SOLID
 62
     7
100
AcDbLine
 10
234.924163558
 20
103.8984631988
 30
0.0
 11
233.8578236573
 21
103.8984631988
 31
0.0
  0
LINE
  5
14F
330
1F
100
AcDbEntity
  8
0
  6
SLD-SOLID
 62
     7
100
AcDbLine
 10
234.924163558
 20
104.1325378566
 30
0.0
 11
234.924163558
 21
103.8984631988
 31
0.0
  0
LINE
  5
150
330
1F
100
AcDbEntity
  8
0
  6
SLD-SOLID
 62
     7
100
AcDbLine
 10
233.8578236573
 20
104.1325378566
 30
0.0
 11
234.924163558
 21
104.1325378566
 31
0.0
  0
LINE
  5
151
330
1F
100
AcDbEntity
  8
0
  6
SLD-SOLID
 62
     7
100
AcDbLine
 10
233.8578236573
 20
104.7047202111
 30
0.0
 11
233.8578236573
 21
104.1325378566
 31
0.0
  0
LINE
  5
152
330
1F
100
AcDbEntity
  8
0
  6
SLD-SOLID
 62
     7
100
AcDbLine
 10
234.924163558
 20
104.7047202111
 30
0.0
 11
233.8578236573
 21
104.7047202111
 31
0.0
  0
LINE
  5
153
330
1F
100
AcDbEntity
  8
0
  6
SLD-SOLID
 62
     7
100
AcDbLine
 10
234.924163558
 20
104.9387948398
 30
0.0
 11
234.924163558
 21
104.7047202111
 31
0.0
  0
LINE
  5
154
330
1F
100
AcDbEntity
  8
0
  6
SLD-SOLID
 62
     7
100
AcDbLine
 10
233.5977406524
 20
104.9387948398
 30
0.0
 11
234.924163558
 21
104.9387948398
 31
0.0
  0
LINE
  5
155
330
1F
100
AcDbEntity
  8
0
  6
SLD-SOLID
 62
     7
100
AcDbLine
 10
233.5977406524
 20
102.8841398758
 30
0.0
 11
233.5977406524
 21
104.9387948398
 31
0.0
  0
LINE
  5
156
330
1F
100
AcDbEntity
  8
0
  6
SLD-SOLID
 62
     7
100
AcDbLine
 10
234.924163558
 20
102.8841398758
 30
0.0
 11
233.5977406524
 21
102.8841398758
 31
0.0
  0
LINE
  5
157
330
1F
100
AcDbEntity
  8
0
  6
SLD-SOLID
 62
     7
100
AcDbLine
 10
234.924163558
 20
103.1182145335
 30
0.0
 11
234.924163558
 21
102.8841398758
 31
0.0
  0
LINE
  5
158
330
1F
100
AcDbEntity
  8
0
  6
SLD-SOLID
 62
     7
100
AcDbLine
 10
230.7412989372
 20
103.1182145335
 30
0.0
 11
231.8551852418
 21
103.1182145335
 31
0.0
  0
SPLINE
  5
159
330
1F
100
AcDbEntity
  8
0
  6
SLD-SOLID
 62
     7
100
AcDbSpline
210
0.0
220
0.0
230
1.0
 70
     8
 71
     3
 72
    13
 73
     9
 74
     0
 42
0.000000001
 43
0.00000001
 40
0.0
 40
0.0
 40
0.0
 40
0.0
 40
0.2582395637416162
 40
0.5175487639639188
 40
0.6446900248165452
 40
0.7675959250472248
 40
0.8859447929946764
 40
1.0
 40
1.0
 40
1.0
 40
1.0
 10
231.3504618550258
 20
103.6542291253227
 30
0.0
 10
231.2998423270679
 20
103.6060716198991
 30
0.0
 10
231.1983936034585
 20
103.5095571391337
 30
0.0
 10
231.0673192238085
 20
103.3944389325443
 30
0.0
 10
230.9624141217137
 20
103.3050977019603
 30
0.0
 10
230.886625089899
 20
103.2403756607189
 30
0.0
 10
230.8128249995042
 20
103.1787864988851
 30
0.0
 10
230.7648454772024
 20
103.1381549530868
 30
0.0
 10
230.7412989264405
 20
103.1182145137123
 30
0.0
  0
SPLINE
  5
15A
330
1F
100
AcDbEntity
  8
0
  6
SLD-SOLID
 62
     7
100
AcDbSpline
210
0.0
220
0.0
230
1.0
 70
     8
 71
     3
 72
    13
 73
     9
 74
     0
 42
0.000000001
 43
0.00000001
 40
0.0
 40
0.0
 40
0.0
 40
0.0
 40
0.2212448953598622
 40
0.4529519161069229
 40
0.5754384810760169
 40
0.7076098863437055
 40
0.848906683742578
 40
1.0
 40
1.0
 40
1.0
 40
1.0
 10
231.6576847863203
 20
104.0081857035734
 30
0.0
 10
231.6383947919916
 20
103.97938122356
 30
0.0
 10
231.5989026270823
 20
103.9204101707213
 30
0.0
 10
231.5409492093733
 20
103.8512097057296
 30
0.0
 10
231.4897828043438
 20
103.7948073706571
 30
0.0
 10
231.4471943785957
 20
103.7497303670396
 30
0.0
 10
231.4003131207181
 20
103.7025811380557
 30
0.0
 10
231.3674460139481
 20
103.6707024937933
 30
0.0
 10
231.3504618550258
 20
103.6542291253227
 30
0.0
  0
SPLINE
  5
15B
330
1F
100
AcDbEntity
  8
0
  6
SLD-SOLID
 62
     7
100
AcDbSpline
210
0.0
220
0.0
230
1.0
 70
     8
 71
     3
 72
    15
 73
    11
 74
     0
 42
0.000000001
 43
0.00000001
 40
0.0
 40
0.0
 40
0.0
 40
0.0
 40
0.1332757459911676
 40
0.2615460712952874
 40
0.3872648407613581
 40
0.510386231098707
 40
0.6320331454766884
 40
0.7534802056093571
 40
0.876361785494963
 40
1.0
 40
1.0
 40
1.0
 40
1.0
 10
231.7771603707126
 20
104.4214736944815
 30
0.0
 10
231.7767634136958
 20
104.4020869661965
 30
0.0
 10
231.7759844081276
 20
104.3640416145798
 30
0.0
 10
231.7700351237194
 20
104.3079820016618
 30
0.0
 10
231.7610006448843
 20
104.2538276370491
 30
0.0
 10
231.7471901745718
 20
104.2016994452331
 30
0.0
 10
231.7308584368516
 20
104.1509432584409
 30
0.0
 10
231.7095523053468
 20
104.1021185710555
 30
0.0
 10
231.6860527081086
 20
104.0539779438546
 30
0.0
 10
231.6671600890689
 20
104.0234809847519
 30
0.0
 10
231.6576847863203
 20
104.0081857035734
 30
0.0
  0
SPLINE
  5
15C
330
1F
100
AcDbEntity
  8
0
  6
SLD-SOLID
 62
     7
100
AcDbSpline
210
0.0
220
0.0
230
1.0
 70
     8
 71
     3
 72
    23
 73
    19
 74
     0
 42
0.000000001
 43
0.00000001
 40
0.0
 40
0.0
 40
0.0
 40
0.0
 40
0.0774903736768198
 40
0.1512671456775255
 40
0.2212332874182805
 40
0.2882533529051203
 40
0.3521853770619224
 40
0.4140857323774257
 40
0.4741366226200593
 40
0.5337591795054967
 40
0.5916985350171896
 40
0.6483613458826772
 40
0.7047506651460199
 40
0.7604985656920304
 40
0.8172976285300334
 40
0.8759030156436451
 40
0.9366034732482301
 40
1.0
 40
1.0
 40
1.0
 40
1.0
 10
231.090785329765
 20
104.9908114282693
 30
0.0
 10
231.116812520209
 20
104.9903750783144
 30
0.0
 10
231.1676195898059
 20
104.9895232897752
 30
0.0
 10
231.2416106414864
 20
104.9819841836624
 30
0.0
 10
231.3114663863362
 20
104.9703713230857
 30
0.0
 10
231.3770434159312
 20
104.9540401265574
 30
0.0
 10
231.4379523894186
 20
104.9317447993697
 30
0.0
 10
231.4946332033885
 20
104.905432903307
 30
0.0
 10
231.5472805536989
 20
104.8744228604159
 30
0.0
 10
231.5948798711858
 20
104.8383012812706
 30
0.0
 10
231.6379124672031
 20
104.7984955589654
 30
0.0
 10
231.6751148724438
 20
104.7545885493202
 30
0.0
 10
231.7069189548051
 20
104.707522536414
 30
0.0
 10
231.7328156990651
 20
104.6568941875926
 30
0.0
 10
231.7528001069317
 20
104.6028636161545
 30
0.0
 10
231.7668696033737
 20
104.5453261601714
 30
0.0
 10
231.7756244161323
 20
104.4844601255138
 30
0.0
 10
231.7766410237493
 20
104.4427710766487
 30
0.0
 10
231.7771603707126
 20
104.4214736944815
 30
0.0
  0
SPLINE
  5
15D
330
1F
100
AcDbEntity
  8
0
  6
SLD-SOLID
 62
     7
100
AcDbSpline
210
0.0
220
0.0
230
1.0
 70
     8
 71
     3
 72
    15
 73
    11
 74
     0
 42
0.000000001
 43
0.00000001
 40
0.0
 40
0.0
 40
0.0
 40
0.0
 40
0.0973331324348748
 40
0.206398068203925
 40
0.3284147680574267
 40
0.4628059424578725
 40
0.6020031849050436
 40
0.7377685464448958
 40
0.8704698767347521
 40
1.0
 40
1.0
 40
1.0
 40
1.0
 10
230.5027541371947
 20
104.863208253102
 30
0.0
 10
230.5206654935883
 20
104.8713219548761
 30
0.0
 10
230.558647106489
 20
104.8885273229791
 30
0.0
 10
230.6213319602323
 20
104.9103868889596
 30
0.0
 10
230.691933875692
 20
104.9319038826863
 30
0.0
 10
230.7693470209056
 20
104.9517331756597
 30
0.0
 10
230.8501934109508
 20
104.9691136815272
 30
0.0
 10
230.9315750060495
 20
104.9818010293859
 30
0.0
 10
231.0116680896545
 20
104.9893293559768
 30
0.0
 10
231.0646263941514
 20
104.9903214031671
 30
0.0
 10
231.090785329765
 20
104.9908114282693
 30
0.0
  0
LINE
  5
15E
330
1F
100
AcDbEntity
  8
0
  6
SLD-SOLID
 62
     7
100
AcDbLine
 10
230.5027541384
 20
104.5746787669
 30
0.0
 11
230.5027541384
 21
104.8632082631
 31
0.0
  0
LINE
  5
15F
330
1F
100
AcDbEntity
  8
0
  6
SLD-SOLID
 62
     7
100
AcDbLine
 10
230.5169774204
 20
104.5746787669
 30
0.0
 11
230.5027541384
 21
104.5746787669
 31
0.0
  0
SPLINE
  5
160
330
1F
100
AcDbEntity
  8
0
  6
SLD-SOLID
 62
     7
100
AcDbSpline
210
0.0
220
0.0
230
1.0
 70
     8
 71
     3
 72
    15
 73
    11
 74
     0
 42
0.000000001
 43
0.00000001
 40
0.0
 40
0.0
 40
0.0
 40
0.0
 40
0.107890180158777
 40
0.2212789351531518
 40
0.3407142358842425
 40
0.4663874033763461
 40
0.5959142156032917
 40
0.7271846728772223
 40
0.8621675426917214
 40
1.0
 40
1.0
 40
1.0
 40
1.0
 10
231.0838768776062
 20
104.7567368139497
 30
0.0
 10
231.0621751986286
 20
104.7561718090149
 30
0.0
 10
231.0176658242985
 20
104.7550130039213
 30
0.0
 10
230.9496785874206
 20
104.745782629332
 30
0.0
 10
230.8788286394927
 20
104.7322516087605
 30
0.0
 10
230.8062009952592
 20
104.7120233253293
 30
0.0
 10
230.7324301103214
 20
104.6873922236208
 30
0.0
 10
230.6593947067772
 20
104.6555835978293
 30
0.0
 10
230.5870095057518
 20
104.618486986432
 30
0.0
 10
230.5404834393242
 20
104.5893828478963
 30
0.0
 10
230.5169774210509
 20
104.57467878059
 30
0.0
  0
SPLINE
  5
161
330
1F
100
AcDbEntity
  8
0
  6
SLD-SOLID
 62
     7
100
AcDbSpline
210
0.0
220
0.0
230
1.0
 70
     8
 71
     3
 72
    23
 73
    19
 74
     0
 42
0.000000001
 43
0.00000001
 40
0.0
 40
0.0
 40
0.0
 40
0.0
 40
0.0653364109978345
 40
0.1272011164539617
 40
0.1866235604894537
 40
0.2445249699256979
 40
0.301108962216485
 40
0.3565487453464372
 40
0.4129041469184405
 40
0.470503606612544
 40
0.5290584110465578
 40
0.5884999074548616
 40
0.6496095755670188
 40
0.7132605076245031
 40
0.7798568377482172
 40
0.8495634501606355
 40
0.9225582804174942
 40
1.0
 40
1.0
 40
1.0
 40
1.0
 10
231.4910691754331
 20
104.412533344629
 30
0.0
 10
231.4908285375358
 20
104.4256963826552
 30
0.0
 10
231.4903600482398
 20
104.4513230295322
 30
0.0
 10
231.4846478281209
 20
104.4885303273519
 30
0.0
 10
231.4768216124975
 20
104.5237752067099
 30
0.0
 10
231.465053787414
 20
104.5568659417896
 30
0.0
 10
231.4493977356174
 20
104.587350501981
 30
0.0
 10
231.4310173547193
 20
104.6159126992633
 30
0.0
 10
231.4088374146241
 20
104.6419321384292
 30
0.0
 10
231.3836116556454
 20
104.6658549615354
 30
0.0
 10
231.3556430311017
 20
104.6876171939877
 30
0.0
 10
231.3243671292966
 20
104.7056984148673
 30
0.0
 10
231.2909138103
 20
104.7217588690373
 30
0.0
 10
231.2545955028197
 20
104.7348510514184
 30
0.0
 10
231.2154122577924
 20
104.7442246904621
 30
0.0
 10
231.173937893103
 20
104.7518093895271
 30
0.0
 10
231.1297327293173
 20
104.7556317120561
 30
0.0
 10
231.0994604434216
 20
104.7563612582147
 30
0.0
 10
231.0838768776062
 20
104.7567368139497
 30
0.0
  0
SPLINE
  5
162
330
1F
100
AcDbEntity
  8
0
  6
SLD-SOLID
 62
     7
100
AcDbSpline
210
0.0
220
0.0
230
1.0
 70
     8
 71
     3
 72
    23
 73
    19
 74
     0
 42
0.000000001
 43
0.00000001
 40
0.0
 40
0.0
 40
0.0
 40
0.0
 40
0.0998658700287555
 40
0.1933654339854248
 40
0.2798874732247333
 40
0.3597613811718556
 40
0.4327879830217737
 40
0.4992408871976366
 40
0.5592394164261346
 40
0.6128856371928201
 40
0.662945001547117
 40
0.7120250352027363
 40
0.7599773124621197
 40
0.8080517613265396
 40
0.8553927239361977
 40
0.9034650690241088
 40
0.951394140675136
 40
0.9999999999999999
 40
0.9999999999999999
 40
0.9999999999999999
 40
0.9999999999999999
 10
231.0221071877164
 20
103.6708906864114
 30
0.0
 10
231.0437365324841
 20
103.6917942307992
 30
0.0
 10
231.0856163822931
 20
103.7322687485819
 30
0.0
 10
231.1447503228362
 20
103.7923633867399
 30
0.0
 10
231.1987421921945
 20
103.8490333839116
 30
0.0
 10
231.2483644792342
 20
103.9013852934649
 30
0.0
 10
231.2911446465357
 20
103.9517527699019
 30
0.0
 10
231.329646172091
 20
103.9978813151497
 30
0.0
 10
231.3626398249666
 20
104.0409612086741
 30
0.0
 10
231.390885675686
 20
104.0813975979957
 30
0.0
 10
231.4150192232087
 20
104.1206212005788
 30
0.0
 10
231.4353199512475
 20
104.1600508084209
 30
0.0
 10
231.4525013316724
 20
104.2002629899144
 30
0.0
 10
231.466901538601
 20
104.2410355632008
 30
0.0
 10
231.4771956081813
 20
104.2830471854162
 30
0.0
 10
231.4856652982692
 20
104.3254142921697
 30
0.0
 10
231.4900029470477
 20
104.3688249762915
 30
0.0
 10
231.4907121087064
 20
104.3978959515272
 30
0.0
 10
231.4910691754331
 20
104.412533344629
 30
0.0
  0
SPLINE
  5
163
330
1F
100
AcDbEntity
  8
0
  6
SLD-SOLID
 62
     7
100
AcDbSpline
210
0.0
220
0.0
230
1.0
 70
     8
 71
     3
 72
    11
 73
     7
 74
     0
 42
0.000000001
 43
0.00000001
 40
0.0
 40
0.0
 40
0.0
 40
0.0
 40
0.2549530326516079
 40
0.5099677626423768
 40
0.7601175479723808
 40
1.0
 40
1.0
 40
1.0
 40
1.0
 10
230.4507375562348
 20
103.1702310946723
 30
0.0
 10
230.4998539650263
 20
103.2121548877982
 30
0.0
 10
230.5980986685308
 20
103.2960126193952
 30
0.0
 10
230.7455276432936
 20
103.4198109980962
 30
0.0
 10
230.8883219910758
 20
103.543261096679
 30
0.0
 10
230.9781394179456
 20
103.6289459230281
 30
0.0
 10
231.0221071877164
 20
103.6708906864114
 30
0.0
  0
LINE
  5
164
330
1F
100
AcDbEntity
  8
0
  6
SLD-SOLID
 62
     7
100
AcDbLine
 10
230.4507375561
 20
102.8841398758
 30
0.0
 11
230.4507375561
 21
103.1702309948
 31
0.0
  0
LINE
  5
165
330
1F
100
AcDbEntity
  8
0
  6
SLD-SOLID
 62
     7
100
AcDbLine
 10
231.8551852418
 20
102.8841398758
 30
0.0
 11
230.4507375561
 21
102.8841398758
 31
0.0
  0
LINE
  5
166
330
1F
100
AcDbEntity
  8
0
  6
SLD-SOLID
 62
     7
100
AcDbLine
 10
231.8551852418
 20
103.1182145335
 30
0.0
 11
231.8551852418
 21
102.8841398758
 31
0.0
  0
SPLINE
  5
167
330
1F
100
AcDbEntity
  8
0
  6
SLD-SOLID
 62
     7
100
AcDbSpline
210
0.0
220
0.0
230
1.0
 70
     8
 71
     3
 72
    15
 73
    11
 74
     0
 42
0.000000001
 43
0.00000001
 40
0.0
 40
0.0
 40
0.0
 40
0.0
 40
0.0932522940898439
 40
0.2030994356376327
 40
0.3310220938728501
 40
0.4754246486616945
 40
0.6236441625924206
 40
0.7602181276767058
 40
0.8859457116350388
 40
1.0
 40
1.0
 40
1.0
 40
1.0
 10
226.8778486515506
 20
104.1036848951795
 30
0.0
 10
226.8943679652149
 20
104.100264646172
 30
0.0
 10
226.9303463110034
 20
104.0928154927765
 30
0.0
 10
226.9891431309658
 20
104.0814573222199
 30
0.0
 10
227.0571239275916
 20
104.0688655112249
 30
0.0
 10
227.1321045701918
 20
104.0559928597868
 30
0.0
 10
227.2086605441579
 20
104.0430288243211
 30
0.0
 10
227.2815433987748
 20
104.0287370911078
 30
0.0
 10
227.3480769344644
 20
104.0142524268105
 30
0.0
 10
227.3901794347263
 20
104.0038072916299
 30
0.0
 10
227.4102058473122
 20
103.9988389741822
 30
0.0
  0
SPLINE
  5
168
330
1F
100
AcDbEntity
  8
0
  6
SLD-SOLID
 62
     7
100
AcDbSpline
210
0.0
220
0.0
230
1.0
 70
     8
 71
     3
 72
    19
 73
    15
 74
     0
 42
0.000000001
 43
0.00000001
 40
0.0
 40
0.0
 40
0.0
 40
0.0
 40
0.1268092702442913
 40
0.2428782053609817
 40
0.3498290754484311
 40
0.4530854512027858
 40
0.5058237602822869
 40
0.5624899981881457
 40
0.6231597597642975
 40
0.6883755208164098
 40
0.7578050229004751
 40
0.832834120266578
 40
0.9134179105045229
 40
0.9999999999999999
 40
0.9999999999999999
 40
0.9999999999999999
 40
0.9999999999999999
 10
226.5755022747211
 20
104.4214736944815
 30
0.0
 10
226.5761693474282
 20
104.4009471058301
 30
0.0
 10
226.5774469939412
 20
104.3616324642094
 30
0.0
 10
226.5901853963636
 20
104.3061494065647
 30
0.0
 10
226.6109589471131
 20
104.25735024277
 30
0.0
 10
226.6358910090191
 20
104.2223964942074
 30
0.0
 10
226.6606211366156
 20
104.1984325887093
 30
0.0
 10
226.6822134637752
 20
104.1813339540903
 30
0.0
 10
226.7071811785213
 20
104.1655136830231
 30
0.0
 10
226.7352535239781
 20
104.1509900432356
 30
0.0
 10
226.7664196858954
 20
104.1376177177358
 30
0.0
 10
226.8005482169032
 20
104.1249668907014
 30
0.0
 10
226.8380677021835
 20
104.1136966915019
 30
0.0
 10
226.8642748770341
 20
104.1071010495938
 30
0.0
 10
226.8778486515506
 20
104.1036848951795
 30
0.0
  0
SPLINE
  5
169
330
1F
100
AcDbEntity
  8
0
  6
SLD-SOLID
 62
     7
100
AcDbSpline
210
0.0
220
0.0
230
1.0
 70
     8
 71
     3
 72
    23
 73
    19
 74
     0
 42
0.000000001
 43
0.00000001
 40
0.0
 40
0.0
 40
0.0
 40
0.0
 40
0.0820152122453144
 40
0.1599519257716712
 40
0.2341869940922267
 40
0.3051246137515423
 40
0.3734499329597792
 40
0.4393407970318606
 40
0.5030894667964403
 40
0.5657336030606944
 40
0.625937360673197
 40
0.6822012886643631
 40
0.7364846002131625
 40
0.7890871215591241
 40
0.8410885332773576
 40
0.8925509432537753
 40
0.9454656063736531
 40
1.0
 40
1.0
 40
1.0
 40
1.0
 10
227.068440655224
 20
104.7567368139497
 30
0.0
 10
227.0502824534047
 20
104.7563660946132
 30
0.0
 10
227.0148690310647
 20
104.7556430912804
 30
0.0
 10
226.9631299030069
 20
104.751725724048
 30
0.0
 10
226.9141930867142
 20
104.7445488653172
 30
0.0
 10
226.8681530958852
 20
104.7336872914201
 30
0.0
 10
226.8244768452178
 20
104.7210496480485
 30
0.0
 10
226.7837425368976
 20
104.7046600262525
 30
0.0
 10
226.7457093588516
 20
104.6854382174147
 30
0.0
 10
226.7104516608555
 20
104.663766184438
 30
0.0
 10
226.679017737039
 20
104.6394893050609
 30
0.0
 10
226.6512259773868
 20
104.61373978923
 30
0.0
 10
226.6280422001855
 20
104.5859309165657
 30
0.0
 10
226.608508671608
 20
104.556544525026
 30
0.0
 10
226.5940241876819
 20
104.5250365497912
 30
0.0
 10
226.5832678993227
 20
104.4920676704659
 30
0.0
 10
226.5765238907913
 20
104.4573741095504
 30
0.0
 10
226.5758462185794
 20
104.4335601598717
 30
0.0
 10
226.5755022747211
 20
104.4214736944815
 30
0.0
  0
SPLINE
  5
16A
330
1F
100
AcDbEntity
  8
0
  6
SLD-SOLID
 62
     7
100
AcDbSpline
210
0.0
220
0.0
230
1.0
 70
     8
 71
     3
 72
    15
 73
    11
 74
     0
 42
0.000000001
 43
0.00000001
 40
0.0
 40
0.0
 40
0.0
 40
0.0
 40
0.1056104929821482
 40
0.2181470470918489
 40
0.3394654686690302
 40
0.4692629563420195
 40
0.6030470205796892
 40
0.7350948858466878
 40
0.8674791079275841
 40
1.0
 40
1.0
 40
1.0
 40
1.0
 10
227.7783857094191
 20
104.52266219963
 30
0.0
 10
227.7573340642712
 20
104.5392840555049
 30
0.0
 10
227.7138501821705
 20
104.5736178482361
 30
0.0
 10
227.6391920178546
 20
104.6170440868388
 30
0.0
 10
227.555854552826
 20
104.6567802354062
 30
0.0
 10
227.4644796319522
 20
104.6914949637101
 30
0.0
 10
227.3683357086705
 20
104.7207101389478
 30
0.0
 10
227.269328732874
 20
104.7413128987861
 30
0.0
 10
227.1693101532017
 20
104.7545045406788
 30
0.0
 10
227.1020753838162
 20
104.7559924669755
 30
0.0
 10
227.068440655224
 20
104.7567368139497
 30
0.0
  0
LINE
  5
16B
330
1F
100
AcDbEntity
  8
0
  6
SLD-SOLID
 62
     7
100
AcDbLine
 10
227.7978918333
 20
104.5226621892
 30
0.0
 11
227.7783857476
 21
104.5226621892
 31
0.0
  0
LINE
  5
16C
330
1F
100
AcDbEntity
  8
0
  6
SLD-SOLID
 62
     7
100
AcDbLine
 10
227.7978918333
 20
104.8469530753
 30
0.0
 11
227.7978918333
 21
104.5226621892
 31
0.0
  0
SPLINE
  5
16D
330
1F
100
AcDbEntity
  8
0
  6
SLD-SOLID
 62
     7
100
AcDbSpline
210
0.0
220
0.0
230
1.0
 70
     8
 71
     3
 72
    15
 73
    11
 74
     0
 42
0.000000001
 43
0.00000001
 40
0.0
 40
0.0
 40
0.0
 40
0.0
 40
0.1438134946436347
 40
0.2825302617167642
 40
0.4154724990798206
 40
0.5436416713555685
 40
0.6664829494542226
 40
0.7833339323015184
 40
0.8944191683275445
 40
1.0
 40
1.0
 40
1.0
 40
1.0
 10
227.0708789324565
 20
104.9908114282693
 30
0.0
 10
227.1066548893447
 20
104.9903900047288
 30
0.0
 10
227.176938908851
 20
104.9895620928317
 30
0.0
 10
227.2800466172475
 20
104.9816814804196
 30
0.0
 10
227.3787291566828
 20
104.968904439995
 30
0.0
 10
227.4724733572592
 20
104.9503715804693
 30
0.0
 10
227.5613155945728
 20
104.9283789485608
 30
0.0
 10
227.6451173486575
 20
104.9040389704811
 30
0.0
 10
227.7237797668163
 20
104.8775258057197
 30
0.0
 10
227.7736098517836
 20
104.8569699086612
 30
0.0
 10
227.7978919272791
 20
104.846953071552
 30
0.0
  0
SPLINE
  5
16E
330
1F
100
AcDbEntity
  8
0
  6
SLD-SOLID
 62
     7
100
AcDbSpline
210
0.0
220
0.0
230
1.0
 70
     8
 71
     3
 72
    23
 73
    19
 74
     0
 42
0.000000001
 43
0.00000001
 40
0.0
 40
0.0
 40
0.0
 40
0.0
 40
0.058241483108126
 40
0.1146427594695282
 40
0.169859822040876
 40
0.2249312733524661
 40
0.2800824228986797
 40
0.3366222446972302
 40
0.395571159141462
 40
0.4568580256683302
 40
0.5202638826731388
 40
0.5834528927466011
 40
0.6479660969618363
 40
0.7138123028707999
 40
0.7814741194161736
 40
0.8513965712822175
 40
0.9243885405390578
 40
1.0
 40
1.0
 40
1.0
 40
1.0
 10
226.2894110794415
 20
104.394652644924
 30
0.0
 10
226.2899324614781
 20
104.4159710236489
 30
0.0
 10
226.2909587518852
 20
104.4579342023664
 30
0.0
 10
226.3021634493675
 20
104.5192272264398
 30
0.0
 10
226.3189284009337
 20
104.5779528779317
 30
0.0
 10
226.3436638366008
 20
104.6333611441581
 30
0.0
 10
226.3748199240532
 20
104.6859191070977
 30
0.0
 10
226.4129856087916
 20
104.7354770436447
 30
0.0
 10
226.4583355420043
 20
104.7817217444929
 30
0.0
 10
226.5100803034816
 20
104.8246583284019
 30
0.0
 10
226.566711819339
 20
104.863722263551
 30
0.0
 10
226.6279114597597
 20
104.8976469865118
 30
0.0
 10
226.6926028428753
 20
104.9265541527561
 30
0.0
 10
226.7611602480625
 20
104.9501084614503
 30
0.0
 10
226.8333423785927
 20
104.9684294098495
 30
0.0
 10
226.9093274008784
 20
104.9811642602891
 30
0.0
 10
226.9888665973875
 20
104.9896972489019
 30
0.0
 10
227.0432221055672
 20
104.9904356961814
 30
0.0
 10
227.0708789324565
 20
104.9908114282693
 30
0.0
  0
SPLINE
  5
16F
330
1F
100
AcDbEntity
  8
0
  6
SLD-SOLID
 62
     7
100
AcDbSpline
210
0.0
220
0.0
230
1.0
 70
     8
 71
     3
 72
    23
 73
    19
 74
     0
 42
0.000000001
 43
0.00000001
 40
0.0
 40
0.0
 40
0.0
 40
0.0
 40
0.0791403044728405
 40
0.154595234228795
 40
0.2255894056564565
 40
0.2928483715929996
 40
0.3573318591730975
 40
0.4184027772098032
 40
0.4775728648746412
 40
0.5343477861260596
 40
0.5903113859057569
 40
0.6453917384100366
 40
0.7008449670353333
 40
0.7572537956642007
 40
0.8147232371888097
 40
0.8742035410736735
 40
0.9356396770884149
 40
1.0
 40
1.0
 40
1.0
 40
1.0
 10
226.8315213841331
 20
103.8240957725199
 30
0.0
 10
226.8092384285611
 20
103.8291125293746
 30
0.0
 10
226.7657101813687
 20
103.8389124247145
 30
0.0
 10
226.7033208792213
 20
103.8576591173933
 30
0.0
 10
226.6453470627268
 20
103.8787619109534
 30
0.0
 10
226.5917565180386
 20
103.9023349950318
 30
0.0
 10
226.5426320366003
 20
103.9285841963999
 30
0.0
 10
226.497891895449
 20
103.9576682840932
 30
0.0
 10
226.4575997818638
 20
103.9891901471932
 30
0.0
 10
226.4218724201012
 20
104.0237212925391
 30
0.0
 10
226.390477874644
 20
104.060698027322
 30
0.0
 10
226.3634234307546
 20
104.1005050812689
 30
0.0
 10
226.3405596878519
 20
104.1429993397252
 30
0.0
 10
226.3219091213039
 20
104.1882429575529
 30
0.0
 10
226.3072092650728
 20
104.2361277019643
 30
0.0
 10
226.296661184659
 20
104.2865758435865
 30
0.0
 10
226.2905297978044
 20
104.3397742934065
 30
0.0
 10
226.2897897200263
 20
104.3760785588968
 30
0.0
 10
226.2894110794415
 20
104.394652644924
 30
0.0
  0
SPLINE
  5
170
330
1F
100
AcDbEntity
  8
0
  6
SLD-SOLID
 62
     7
100
AcDbSpline
210
0.0
220
0.0
230
1.0
 70
     8
 71
     3
 72
    11
 73
     7
 74
     0
 42
0.000000001
 43
0.00000001
 40
0.0
 40
0.0
 40
0.0
 40
0.0
 40
0.2264437066147215
 40
0.4684934644352421
 40
0.72609020467842
 40
1.0
 40
1.0
 40
1.0
 40
1.0
 10
227.3167385533998
 20
103.7318476172238
 30
0.0
 10
227.2805453353969
 20
103.7409171424092
 30
0.0
 10
227.20566453458
 20
103.7596812464701
 30
0.0
 10
227.0874216028788
 20
103.7781040499354
 30
0.0
 10
226.9616161754818
 20
103.7981199039996
 30
0.0
 10
226.8757646361063
 20
103.8152617762911
 30
0.0
 10
226.8315213841331
 20
103.8240957725199
 30
0.0
  0
SPLINE
  5
171
330
1F
100
AcDbEntity
  8
0
  6
SLD-SOLID
 62
     7
100
AcDbSpline
210
0.0
220
0.0
230
1.0
 70
     8
 71
     3
 72
    19
 73
    15
 74
     0
 42
0.000000001
 43
0.00000001
 40
0.0
 40
0.0
 40
0.0
 40
0.0
 40
0.0736826146611915
 40
0.1431112576246217
 40
0.207926863199303
 40
0.2695996622420426
 40
0.3273006387183211
 40
0.3823410054467735
 40
0.4358963298045674
 40
0.4880248830426844
 40
0.5971381218227616
 40
0.7166521932471878
 40
0.8505969534355429
 40
1.0
 40
1.0
 40
1.0
 40
1.0
 10
227.5898256034394
 20
103.4254374450068
 30
0.0
 10
227.5895276634136
 20
103.4365495634047
 30
0.0
 10
227.588948984549
 20
103.4581322562299
 30
0.0
 10
227.5863251714387
 20
103.4894172993545
 30
0.0
 10
227.5810966981124
 20
103.5185701704657
 30
0.0
 10
227.5732200703126
 20
103.545239875346
 30
0.0
 10
227.5641600141075
 20
103.57000596641
 30
0.0
 10
227.552081678275
 20
103.5920696980285
 30
0.0
 10
227.5384037200958
 20
103.6121630325978
 30
0.0
 10
227.5163782318329
 20
103.636042484037
 30
0.0
 10
227.4832366834649
 20
103.6627999943071
 30
0.0
 10
227.4355363218478
 20
103.6898525903767
 30
0.0
 10
227.3796191497916
 20
103.7140691041844
 30
0.0
 10
227.3384474711263
 20
103.7257097575498
 30
0.0
 10
227.3167385533998
 20
103.7318476172238
 30
0.0
  0
SPLINE
  5
172
330
1F
100
AcDbEntity
  8
0
  6
SLD-SOLID
 62
     7
100
AcDbSpline
210
0.0
220
0.0
230
1.0
 70
     8
 71
     3
 72
    23
 73
    19
 74
     0
 42
0.000000001
 43
0.00000001
 40
0.0
 40
0.0
 40
0.0
 40
0.0
 40
0.0854151544129915
 40
0.1659823341365553
 40
0.2425656174833746
 40
0.3148369819696938
 40
0.3832803096291426
 40
0.448899034306312
 40
0.5114550916688618
 40
0.5714779974050679
 40
0.6295665825924376
 40
0.6843880566524386
 40
0.7370366993053414
 40
0.7887815262452744
 40
0.840060781171776
 40
0.8917690048341222
 40
0.944877156962971
 40
1.0
 40
1.0
 40
1.0
 40
1.0
 10
227.0529982327515
 20
103.0661979327524
 30
0.0
 10
227.0735953278655
 20
103.066531506018
 30
0.0
 10
227.1136204726649
 20
103.0671797196706
 30
0.0
 10
227.1719938118665
 20
103.0715749666731
 30
0.0
 10
227.2268023075662
 20
103.0793227871752
 30
0.0
 10
227.2782126560078
 20
103.0896747754221
 30
0.0
 10
227.3260668472219
 20
103.1035265193185
 30
0.0
 10
227.3703720152208
 20
103.1205605731021
 30
0.0
 10
227.4112385111061
 20
103.1404485466736
 30
0.0
 10
227.4484122199083
 20
103.1632866522422
 30
0.0
 10
227.4817000972065
 20
103.1885726601989
 30
0.0
 10
227.5102426838076
 20
103.2165860032297
 30
0.0
 10
227.5351747263331
 20
103.2459027335413
 30
0.0
 10
227.5551064175988
 20
103.2778580162129
 30
0.0
 10
227.5707772471523
 20
103.3118497143279
 30
0.0
 10
227.581568189979
 20
103.3479876551249
 30
0.0
 10
227.5889496477841
 20
103.3859897678153
 30
0.0
 10
227.5895300170815
 20
103.4121260460099
 30
0.0
 10
227.5898256034394
 20
103.4254374450068
 30
0.0
  0
SPLINE
  5
173
330
1F
100
AcDbEntity
  8
0
  6
SLD-SOLID
 62
     7
100
AcDbSpline
210
0.0
220
0.0
230
1.0
 70
     8
 71
     3
 72
    15
 73
    11
 74
     0
 42
0.000000001
 43
0.00000001
 40
0.0
 40
0.0
 40
0.0
 40
0.0
 40
0.1247846984405779
 40
0.2508991582111131
 40
0.3796498944864674
 40
0.5118057263052213
 40
0.6428226368571992
 40
0.7671691836151721
 40
0.8858586764781955
 40
0.9999999999999999
 40
0.9999999999999999
 40
0.9999999999999999
 40
0.9999999999999999
 10
226.3089172973015
 20
103.326280837552
 30
0.0
 10
226.3354933436881
 20
103.3060824635452
 30
0.0
 10
226.3889286426495
 20
103.2654704726611
 30
0.0
 10
226.4767668756057
 20
103.2142345777133
 30
0.0
 10
226.570001317368
 20
103.169168464556
 30
0.0
 10
226.6683149653103
 20
103.1326541641388
 30
0.0
 10
226.767677982748
 20
103.1030252936872
 30
0.0
 10
226.8656101884881
 20
103.0826390915329
 30
0.0
 10
226.9601992541218
 20
103.0684224306538
 30
0.0
 10
227.0224707147637
 20
103.066929712355
 30
0.0
 10
227.0529982327515
 20
103.0661979327524
 30
0.0
  0
LINE
  5
174
330
1F
100
AcDbEntity
  8
0
  6
SLD-SOLID
 62
     7
100
AcDbLine
 10
226.289410964
 20
103.3262808443
 30
0.0
 11
226.3089175154
 21
103.3262808443
 31
0.0
  0
LINE
  5
175
330
1F
100
AcDbEntity
  8
0
  6
SLD-SOLID
 62
     7
100
AcDbLine
 10
226.289410964
 20
102.9922368572
 30
0.0
 11
226.289410964
 21
103.3262808443
 31
0.0
  0
SPLINE
  5
176
330
1F
100
AcDbEntity
  8
0
  6
SLD-SOLID
 62
     7
100
AcDbSpline
210
0.0
220
0.0
230
1.0
 70
     8
 71
     3
 72
    15
 73
    11
 74
     0
 42
0.000000001
 43
0.00000001
 40
0.0
 40
0.0
 40
0.0
 40
0.0
 40
0.1383958837326365
 40
0.2698711435185703
 40
0.395273738971983
 40
0.5139802029772985
 40
0.6311187908923166
 40
0.7514363167928998
 40
0.8740333432057816
 40
1.0
 40
1.0
 40
1.0
 40
1.0
 10
227.0509663350578
 20
102.8321233184328
 30
0.0
 10
227.0147829730896
 20
102.8325255449061
 30
0.0
 10
226.9442256341909
 20
102.8333098841174
 30
0.0
 10
226.8411423698393
 20
102.8413179421924
 30
0.0
 10
226.7436978626557
 20
102.8536257534979
 30
0.0
 10
226.6508551535685
 20
102.8712697841071
 30
0.0
 10
226.5606921114835
 20
102.8946774005024
 30
0.0
 10
226.4707187308315
 20
102.9223513580401
 30
0.0
 10
226.3796581909675
 20
102.9542308520352
 30
0.0
 10
226.3197640995045
 20
102.9794542091161
 30
0.0
 10
226.2894110794415
 20
102.9922368567
 30
0.0
  0
SPLINE
  5
177
330
1F
100
AcDbEntity
  8
0
  6
SLD-SOLID
 62
     7
100
AcDbSpline
210
0.0
220
0.0
230
1.0
 70
     8
 71
     3
 72
    15
 73
    11
 74
     0
 42
0.000000001
 43
0.00000001
 40
0.0
 40
0.0
 40
0.0
 40
0.0
 40
0.1093762626810183
 40
0.2197856263699316
 40
0.3337354138417859
 40
0.4504044938819243
 40
0.5731494752474398
 40
0.7052672342377317
 40
0.8470508712264783
 40
1.0
 40
1.0
 40
1.0
 40
1.0
 10
227.6629739204143
 20
103.0223089425675
 30
0.0
 10
227.6439854052053
 20
103.0078687647801
 30
0.0
 10
227.6058290209336
 20
102.9788520161539
 30
0.0
 10
227.5433507933679
 20
102.9412724822144
 30
0.0
 10
227.4762732455503
 20
102.9090692988458
 30
0.0
 10
227.4044949413639
 20
102.8808609069488
 30
0.0
 10
227.3264133311887
 20
102.8588377930255
 30
0.0
 10
227.2412691994427
 20
102.8432199740263
 30
0.0
 10
227.1485682812195
 20
102.8339181592352
 30
0.0
 10
227.0843117368134
 20
102.8327365202182
 30
0.0
 10
227.0509663350578
 20
102.8321233184328
 30
0.0
  0
SPLINE
  5
178
330
1F
100
AcDbEntity
  8
0
  6
SLD-SOLID
 62
     7
100
AcDbSpline
210
0.0
220
0.0
230
1.0
 70
     8
 71
     3
 72
    15
 73
    11
 74
     0
 42
0.000000001
 43
0.00000001
 40
0.0
 40
0.0
 40
0.0
 40
0.0
 40
0.1197798184161029
 40
0.2402216975985298
 40
0.3641183838755971
 40
0.4915227685121449
 40
0.619675463346655
 40
0.7458916893167499
 40
0.8721818653816414
 40
1.0
 40
1.0
 40
1.0
 40
1.0
 10
227.8759167987189
 20
103.4644498807268
 30
0.0
 10
227.8751306282059
 20
103.4442305976097
 30
0.0
 10
227.8735539417679
 20
103.4036802730324
 30
0.0
 10
227.8632451668852
 20
103.3428698757956
 30
0.0
 10
227.8449369364643
 20
103.2827165737194
 30
0.0
 10
227.8207171662025
 20
103.2233457485149
 30
0.0
 10
227.7907683717784
 20
103.1660785583742
 30
0.0
 10
227.7534870515323
 20
103.1136102465004
 30
0.0
 10
227.7119554020432
 20
103.0643847401093
 30
0.0
 10
227.6793664004053
 20
103.0363903187606
 30
0.0
 10
227.6629739204143
 20
103.0223089425675
 30
0.0
  0
SPLINE
  5
179
330
1F
100
AcDbEntity
  8
0
  6
SLD-SOLID
 62
     7
100
AcDbSpline
210
0.0
220
0.0
230
1.0
 70
     8
 71
     3
 72
    23
 73
    19
 74
     0
 42
0.000000001
 43
0.00000001
 40
0.0
 40
0.0
 40
0.0
 40
0.0
 40
0.0751654121666886
 40
0.1466391917970251
 40
0.2151310888912576
 40
0.280406779810049
 40
0.3423148361407453
 40
0.4018062055654704
 40
0.4598162295847399
 40
0.5153089454089109
 40
0.5702365576644101
 40
0.625373039819284
 40
0.6819983768009414
 40
0.7398028123742754
 40
0.8002366825241384
 40
0.8635457338940473
 40
0.929867499577657
 40
1.0
 40
1.0
 40
1.0
 40
1.0
 10
227.4102058473122
 20
103.9988389741822
 30
0.0
 10
227.4289644804276
 20
103.9936337613314
 30
0.0
 10
227.4655604455128
 20
103.9834789815787
 30
0.0
 10
227.5181578405864
 20
103.9650101549046
 30
0.0
 10
227.56733805149
 20
103.9448179676212
 30
0.0
 10
227.6129560934698
 20
103.9226441764041
 30
0.0
 10
227.6545502641856
 20
103.8979481796919
 30
0.0
 10
227.6931479415147
 20
103.8720290229187
 30
0.0
 10
227.7279496193822
 20
103.8437100429741
 30
0.0
 10
227.7592120842139
 20
103.8132480753126
 30
0.0
 10
227.7873441158476
 20
103.7807607134237
 30
0.0
 10
227.8108322735063
 20
103.7444334236303
 30
0.0
 10
227.8313647357503
 20
103.7055310257164
 30
0.0
 10
227.8474235236165
 20
103.663113106917
 30
0.0
 10
227.8607260918396
 20
103.6179490228491
 30
0.0
 10
227.86915459088
 20
103.5694002543349
 30
0.0
 10
227.8753059130684
 20
103.5179784732301
 30
0.0
 10
227.8757094140018
 20
103.4826218774109
 30
0.0
 10
227.8759167987189
 20
103.4644498807268
 30
0.0
  0
LINE
  5
17A
330
1F
100
AcDbEntity
  8
0
  6
SLD-SOLID
 62
     7
100
AcDbLine
 10
223.6255932417
 20
104.0573576566
 30
0.0
 11
223.6255932417
 21
104.0463853962
 31
0.0
  0
SPLINE
  5
17B
330
1F
100
AcDbEntity
  8
0
  6
SLD-SOLID
 62
     7
100
AcDbSpline
210
0.0
220
0.0
230
1.0
 70
     8
 71
     3
 72
    15
 73
    11
 74
     0
 42
0.000000001
 43
0.00000001
 40
0.0
 40
0.0
 40
0.0
 40
0.0
 40
0.135431350528543
 40
0.2625253862276895
 40
0.3850207899182446
 40
0.5055598721714757
 40
0.6263115760866943
 40
0.7470410464409225
 40
0.8712388643519938
 40
1.0
 40
1.0
 40
1.0
 40
1.0
 10
223.8966483552854
 20
104.4747094140576
 30
0.0
 10
223.8958897925889
 20
104.4509289397554
 30
0.0
 10
223.8944193652167
 20
104.4048319453999
 30
0.0
 10
223.8801693850995
 20
104.3384658645043
 30
0.0
 10
223.857103198569
 20
104.2774845212434
 30
0.0
 10
223.8239227734001
 20
104.2226125175545
 30
0.0
 10
223.7833590548464
 20
104.1735515563608
 30
0.0
 10
223.7369296443589
 20
104.1291206399082
 30
0.0
 10
223.6842387441311
 20
104.089769249056
 30
0.0
 10
223.6453754116785
 20
104.0682906577073
 30
0.0
 10
223.6255932029396
 20
104.0573576277621
 30
0.0
  0
SPLINE
  5
17C
330
1F
100
AcDbEntity
  8
0
  6
SLD-SOLID
 62
     7
100
AcDbSpline
210
0.0
220
0.0
230
1.0
 70
     8
 71
     3
 72
    15
 73
    11
 74
     0
 42
0.000000001
 43
0.00000001
 40
0.0
 40
0.0
 40
0.0
 40
0.0
 40
0.1334662010766523
 40
0.2576425233118423
 40
0.3770183226342612
 40
0.4931886150663831
 40
0.6107601423166085
 40
0.732890691486317
 40
0.862283368665848
 40
0.9999999999999999
 40
0.9999999999999999
 40
0.9999999999999999
 40
0.9999999999999999
 10
223.684924615597
 20
104.8526423850945
 30
0.0
 10
223.702593513967
 20
104.8424346697405
 30
0.0
 10
223.7367014718129
 20
104.8227297442998
 30
0.0
 10
223.7812138566533
 20
104.7858197183859
 30
0.0
 10
223.8182840539556
 20
104.7450398163846
 30
0.0
 10
223.8476110281931
 20
104.6995003070193
 30
0.0
 10
223.8695400840221
 20
104.6495985421532
 30
0.0
 10
223.8855163667645
 20
104.5954180301582
 30
0.0
 10
223.8948069868706
 20
104.5365267868124
 30
0.0
 10
223.8960219451912
 20
104.4957388973386
 30
0.0
 10
223.8966483552854
 20
104.4747094140576
 30
0.0
  0
SPLINE
  5
17D
330
1F
100
AcDbEntity
  8
0
  6
SLD-SOLID
 62
     7
100
AcDbSpline
210
0.0
220
0.0
230
1.0
 70
     8
 71
     3
 72
    19
 73
    15
 74
     0
 42
0.000000001
 43
0.00000001
 40
0.0
 40
0.0
 40
0.0
 40
0.0
 40
0.096739674129717
 40
0.1868927902861626
 40
0.2704672167708685
 40
0.3489375065269757
 40
0.4201603335311133
 40
0.4855858843160354
 40
0.5445067203710997
 40
0.5977787975660718
 40
0.6978128734558183
 40
0.7975727576670734
 40
0.8987014769210815
 40
1.0
 40
1.0
 40
1.0
 40
1.0
 10
223.1432206904441
 20
104.9387948473094
 30
0.0
 10
223.161101640683
 20
104.9386905986774
 30
0.0
 10
223.1956461097766
 20
104.9384891992218
 30
0.0
 10
223.245634061062
 20
104.9376919952954
 30
0.0
 10
223.2922321547535
 20
104.9364262998702
 30
0.0
 10
223.3353298535899
 20
104.935016873401
 30
0.0
 10
223.3750141911599
 20
104.9324513732792
 30
0.0
 10
223.4110526748435
 20
104.9296477194723
 30
0.0
 10
223.4437451828463
 20
104.9265526641454
 30
0.0
 10
223.4825979665372
 20
104.921090876934
 30
0.0
 10
223.5286055994326
 20
104.9123765470989
 30
0.0
 10
223.5821903603779
 20
104.8972096272099
 30
0.0
 10
223.6345216648192
 20
104.8774209041116
 30
0.0
 10
223.6681142390862
 20
104.860906509072
 30
0.0
 10
223.684924615597
 20
104.8526423850945
 30
0.0
  0
LINE
  5
17E
330
1F
100
AcDbEntity
  8
0
  6
SLD-SOLID
 62
     7
100
AcDbLine
 10
222.5442169052
 20
104.9387948398
 30
0.0
 11
223.1432207678
 21
104.9387948398
 31
0.0
  0
LINE
  5
17F
330
1F
100
AcDbEntity
  8
0
  6
SLD-SOLID
 62
     7
100
AcDbLine
 10
222.5442169052
 20
102.8841398758
 30
0.0
 11
222.5442169052
 21
104.9387948398
 31
0.0
  0
LINE
  5
180
330
1F
100
AcDbEntity
  8
0
  6
SLD-SOLID
 62
     7
100
AcDbLine
 10
223.2655411404
 20
102.8841398758
 30
0.0
 11
222.5442169052
 21
102.8841398758
 31
0.0
  0
SPLINE
  5
181
330
1F
100
AcDbEntity
  8
0
  6
SLD-SOLID
 62
     7
100
AcDbSpline
210
0.0
220
0.0
230
1.0
 70
     8
 71
     3
 72
    15
 73
    11
 74
     0
 42
0.000000001
 43
0.00000001
 40
0.0
 40
0.0
 40
0.0
 40
0.0
 40
0.1134045825794923
 40
0.2253914394092186
 40
0.3358375342771752
 40
0.4475408704198453
 40
0.56524988226771
 40
0.6959983323304234
 40
0.8411895986933365
 40
1.0
 40
1.0
 40
1.0
 40
1.0
 10
223.8669826489567
 20
103.0515682693574
 30
0.0
 10
223.8475986943929
 20
103.0372360456426
 30
0.0
 10
223.8090731134932
 20
103.0087507723005
 30
0.0
 10
223.7471185447587
 20
102.9730145040174
 30
0.0
 10
223.6822397545164
 20
102.9439736767401
 30
0.0
 10
223.6137499596086
 20
102.9207107578561
 30
0.0
 10
223.5389219751625
 20
102.9041218649899
 30
0.0
 10
223.45601798299
 20
102.8927357826967
 30
0.0
 10
223.3638816999716
 20
102.8853501094183
 30
0.0
 10
223.2992858097895
 20
102.8845551736535
 30
0.0
 10
223.2655409316077
 20
102.8841398993927
 30
0.0
  0
SPLINE
  5
182
330
1F
100
AcDbEntity
  8
0
  6
SLD-SOLID
 62
     7
100
AcDbSpline
210
0.0
220
0.0
230
1.0
 70
     8
 71
     3
 72
    15
 73
    11
 74
     0
 42
0.000000001
 43
0.00000001
 40
0.0
 40
0.0
 40
0.0
 40
0.0
 40
0.1409007368762458
 40
0.2738791790272248
 40
0.4021896055308887
 40
0.5269778580158062
 40
0.6484963622640894
 40
0.7667002025346865
 40
0.8838344637388585
 40
1.0
 40
1.0
 40
1.0
 40
1.0
 10
224.0787063886451
 20
103.5124026662992
 30
0.0
 10
224.078015982051
 20
103.4877091628184
 30
0.0
 10
224.0766739877125
 20
103.4397105745175
 30
0.0
 10
224.0659025182358
 20
103.3698876556573
 30
0.0
 10
224.0481784484654
 20
103.3044582247647
 30
0.0
 10
224.0228351344223
 20
103.2437066716968
 30
0.0
 10
223.9912162154064
 20
103.1881074608197
 30
0.0
 10
223.9555511347107
 20
103.1366298001751
 30
0.0
 10
223.9139677564198
 20
103.0908906910358
 30
0.0
 10
223.8826009368897
 20
103.0646394090686
 30
0.0
 10
223.8669826489567
 20
103.0515682693574
 30
0.0
  0
SPLINE
  5
183
330
1F
100
AcDbEntity
  8
0
  6
SLD-SOLID
 62
     7
100
AcDbSpline
210
0.0
220
0.0
230
1.0
 70
     8
 71
     3
 72
    23
 73
    19
 74
     0
 42
0.000000001
 43
0.00000001
 40
0.0
 40
0.0
 40
0.0
 40
0.0
 40
0.0687121495540446
 40
0.134823351671607
 40
0.1993489638344453
 40
0.2615086450846674
 40
0.3229213080872078
 40
0.3828706989830162
 40
0.4430075786583642
 40
0.5030460997279668
 40
0.56269900086607
 40
0.6221463198838911
 40
0.6816977001699636
 40
0.7416916727047259
 40
0.8036336469964673
 40
0.8663701867776599
 40
0.932043596906022
 40
1.0
 40
1.0
 40
1.0
 40
1.0
 10
223.6255932029396
 20
104.0463853802158
 30
0.0
 10
223.6427220088051
 20
104.0425599009881
 30
0.0
 10
223.6763312472281
 20
104.035053747643
 30
0.0
 10
223.7249862091526
 20
104.0198852678002
 30
0.0
 10
223.7707913664687
 20
104.0017194061568
 30
0.0
 10
223.8138983501548
 20
103.9804157098608
 30
0.0
 10
223.8540630284376
 20
103.9561558334884
 30
0.0
 10
223.891420999072
 20
103.9286238549974
 30
0.0
 10
223.9259480456438
 20
103.8981504085635
 30
0.0
 10
223.9576359730019
 20
103.8648390504679
 30
0.0
 10
223.9861983987069
 20
103.8290365615053
 30
0.0
 10
224.0111810104959
 20
103.7907631280397
 30
0.0
 10
224.0318004443808
 20
103.7498903350036
 30
0.0
 10
224.0491009558319
 20
103.7068383971507
 30
0.0
 10
224.0624048998898
 20
103.6615166582935
 30
0.0
 10
224.0717311312911
 20
103.6137637655446
 30
0.0
 10
224.0774948882465
 20
103.5638832010956
 30
0.0
 10
224.0782979817067
 20
103.5297571860578
 30
0.0
 10
224.0787063886451
 20
103.5124026662992
 30
0.0
  0
LINE
  5
184
330
1F
100
AcDbEntity
  8
0
  6
SLD-SOLID
 62
     7
100
AcDbLine
 10
235.6544275586
 20
107.0084589402
 30
0.0
 11
235.6544275586
 21
106.9974866797
 31
0.0
  0
SPLINE
  5
185
330
1F
100
AcDbEntity
  8
0
  6
SLD-SOLID
 62
     7
100
AcDbSpline
210
0.0
220
0.0
230
1.0
 70
     8
 71
     3
 72
    15
 73
    11
 74
     0
 42
0.000000001
 43
0.00000001
 40
0.0
 40
0.0
 40
0.0
 40
0.0
 40
0.135431350528543
 40
0.2625253862276894
 40
0.3850207899182448
 40
0.5055598721714756
 40
0.6263115760866942
 40
0.7470410464409226
 40
0.8712388643519939
 40
1.0
 40
1.0
 40
1.0
 40
1.0
 10
235.9254827022659
 20
107.4258106835781
 30
0.0
 10
235.9247241395694
 20
107.4020302092758
 30
0.0
 10
235.9232537121972
 20
107.3559332149203
 30
0.0
 10
235.90900373208
 20
107.2895671340248
 30
0.0
 10
235.8859375455494
 20
107.2285857907638
 30
0.0
 10
235.8527571203806
 20
107.1737137870749
 30
0.0
 10
235.8121934018269
 20
107.1246528258812
 30
0.0
 10
235.7657639913394
 20
107.0802219094286
 30
0.0
 10
235.7130730911116
 20
107.0408705185765
 30
0.0
 10
235.6742097586589
 20
107.0193919272278
 30
0.0
 10
235.6544275499201
 20
107.0084588972825
 30
0.0
  0
SPLINE
  5
186
330
1F
100
AcDbEntity
  8
0
  6
SLD-SOLID
 62
     7
100
AcDbSpline
210
0.0
220
0.0
230
1.0
 70
     8
 71
     3
 72
    15
 73
    11
 74
     0
 42
0.000000001
 43
0.00000001
 40
0.0
 40
0.0
 40
0.0
 40
0.0
 40
0.1334662010766524
 40
0.2576425233118425
 40
0.3770183226342614
 40
0.4931886150663834
 40
0.6107601423166088
 40
0.7328906914863175
 40
0.8622833686658484
 40
1.0
 40
1.0
 40
1.0
 40
1.0
 10
235.7137589625775
 20
107.803743654615
 30
0.0
 10
235.7314278609474
 20
107.7935359392609
 30
0.0
 10
235.7655358187934
 20
107.7738310138202
 30
0.0
 10
235.8100482036338
 20
107.7369209879064
 30
0.0
 10
235.847118400936
 20
107.696141085905
 30
0.0
 10
235.8764453751736
 20
107.6506015765398
 30
0.0
 10
235.8983744310026
 20
107.6006998116736
 30
0.0
 10
235.914350713745
 20
107.5465192996787
 30
0.0
 10
235.9236413338511
 20
107.4876280563329
 30
0.0
 10
235.9248562921716
 20
107.446840166859
 30
0.0
 10
235.9254827022659
 20
107.4258106835781
 30
0.0
  0
SPLINE
  5
187
330
1F
100
AcDbEntity
  8
0
  6
SLD-SOLID
 62
     7
100
AcDbSpline
210
0.0
220
0.0
230
1.0
 70
     8
 71
     3
 72
    19
 73
    15
 74
     0
 42
0.000000001
 43
0.00000001
 40
0.0
 40
0.0
 40
0.0
 40
0.0
 40
0.096739674129717
 40
0.1868927902861626
 40
0.2704672167708685
 40
0.3489375065269757
 40
0.4201603335311133
 40
0.4855858843160354
 40
0.5445067203710997
 40
0.5977787975660718
 40
0.6978128734558183
 40
0.7975727576670734
 40
0.8987014769210815
 40
1.0
 40
1.0
 40
1.0
 40
1.0
 10
235.1720550374246
 20
107.8898961168298
 30
0.0
 10
235.1899359876634
 20
107.8897918681979
 30
0.0
 10
235.2244804567571
 20
107.8895904687422
 30
0.0
 10
235.2744684080425
 20
107.8887932648158
 30
0.0
 10
235.321066501734
 20
107.8875275693907
 30
0.0
 10
235.3641642005704
 20
107.8861181429214
 30
0.0
 10
235.4038485381404
 20
107.8835526427997
 30
0.0
 10
235.439887021824
 20
107.8807489889928
 30
0.0
 10
235.4725795298268
 20
107.8776539336659
 30
0.0
 10
235.5114323135177
 20
107.8721921464545
 30
0.0
 10
235.5574399464131
 20
107.8634778166194
 30
0.0
 10
235.6110247073584
 20
107.8483108967303
 30
0.0
 10
235.6633560117996
 20
107.8285221736321
 30
0.0
 10
235.6969485860666
 20
107.8120077785924
 30
0.0
 10
235.7137589625775
 20
107.803743654615
 30
0.0
  0
LINE
  5
188
330
1F
100
AcDbEntity
  8
0
  6
SLD-SOLID
 62
     7
100
AcDbLine
 10
234.5730516877
 20
107.889896036
 30
0.0
 11
235.1720550846
 21
107.889896036
 31
0.0
  0
LINE
  5
189
330
1F
100
AcDbEntity
  8
0
  6
SLD-SOLID
 62
     7
100
AcDbLine
 10
234.5730516877
 20
105.8352411593
 30
0.0
 11
234.5730516877
 21
107.889896036
 31
0.0
  0
LINE
  5
18A
330
1F
100
AcDbEntity
  8
0
  6
SLD-SOLID
 62
     7
100
AcDbLine
 10
235.2943754572
 20
105.8352411593
 30
0.0
 11
234.5730516877
 21
105.8352411593
 31
0.0
  0
SPLINE
  5
18B
330
1F
100
AcDbEntity
  8
0
  6
SLD-SOLID
 62
     7
100
AcDbSpline
210
0.0
220
0.0
230
1.0
 70
     8
 71
     3
 72
    15
 73
    11
 74
     0
 42
0.000000001
 43
0.00000001
 40
0.0
 40
0.0
 40
0.0
 40
0.0
 40
0.1134045825794924
 40
0.2253914394092185
 40
0.3358375342771752
 40
0.4475408704198453
 40
0.5652498822677101
 40
0.6959983323304234
 40
0.8411895986933365
 40
1.0
 40
1.0
 40
1.0
 40
1.0
 10
235.8958169959372
 20
106.0026695388779
 30
0.0
 10
235.8764330413734
 20
105.9883373151631
 30
0.0
 10
235.8379074604737
 20
105.959852041821
 30
0.0
 10
235.7759528917392
 20
105.9241157735378
 30
0.0
 10
235.7110741014969
 20
105.8950749462605
 30
0.0
 10
235.6425843065891
 20
105.8718120273765
 30
0.0
 10
235.5677563221429
 20
105.8552231345104
 30
0.0
 10
235.4848523299705
 20
105.8438370522172
 30
0.0
 10
235.392716046952
 20
105.8364513789388
 30
0.0
 10
235.32812015677
 20
105.835656443174
 30
0.0
 10
235.2943752785881
 20
105.8352411689132
 30
0.0
  0
SPLINE
  5
18C
330
1F
100
AcDbEntity
  8
0
  6
SLD-SOLID
 62
     7
100
AcDbSpline
210
0.0
220
0.0
230
1.0
 70
     8
 71
     3
 72
    15
 73
    11
 74
     0
 42
0.000000001
 43
0.00000001
 40
0.0
 40
0.0
 40
0.0
 40
0.0
 40
0.1409007368762454
 40
0.2738791790272245
 40
0.4021896055308888
 40
0.5269778580158064
 40
0.6484963622640892
 40
0.7667002025346868
 40
0.883834463738859
 40
1.0
 40
1.0
 40
1.0
 40
1.0
 10
236.1075407356256
 20
106.4635039358196
 30
0.0
 10
236.1068503290315
 20
106.4388104323389
 30
0.0
 10
236.105508334693
 20
106.390811844038
 30
0.0
 10
236.0947368652163
 20
106.3209889251777
 30
0.0
 10
236.0770127954459
 20
106.2555594942851
 30
0.0
 10
236.0516694814027
 20
106.1948079412173
 30
0.0
 10
236.0200505623869
 20
106.1392087303402
 30
0.0
 10
235.9843854816912
 20
106.0877310696955
 30
0.0
 10
235.9428021034003
 20
106.0419919605563
 30
0.0
 10
235.9114352838702
 20
106.0157406785891
 30
0.0
 10
235.8958169959372
 20
106.0026695388779
 30
0.0
  0
SPLINE
  5
18D
330
1F
100
AcDbEntity
  8
0
  6
SLD-SOLID
 62
     7
100
AcDbSpline
210
0.0
220
0.0
230
1.0
 70
     8
 71
     3
 72
    23
 73
    19
 74
     0
 42
0.000000001
 43
0.00000001
 40
0.0
 40
0.0
 40
0.0
 40
0.0
 40
0.0687121495540446
 40
0.134823351671607
 40
0.1993489638344452
 40
0.2615086450846673
 40
0.3229213080872076
 40
0.3828706989830162
 40
0.4430075786583642
 40
0.5030460997279665
 40
0.56269900086607
 40
0.6221463198838909
 40
0.6816977001699632
 40
0.7416916727047259
 40
0.8036336469964673
 40
0.8663701867776599
 40
0.932043596906022
 40
1.0
 40
1.0
 40
1.0
 40
1.0
 10
235.6544275499201
 20
106.9974866497363
 30
0.0
 10
235.6715563557856
 20
106.9936611705086
 30
0.0
 10
235.7051655942086
 20
106.9861550171634
 30
0.0
 10
235.7538205561331
 20
106.9709865373206
 30
0.0
 10
235.7996257134491
 20
106.9528206756772
 30
0.0
 10
235.8427326971353
 20
106.9315169793812
 30
0.0
 10
235.8828973754181
 20
106.9072571030088
 30
0.0
 10
235.9202553460525
 20
106.8797251245178
 30
0.0
 10
235.9547823926243
 20
106.8492516780839
 30
0.0
 10
235.9864703199824
 20
106.8159403199883
 30
0.0
 10
236.0150327456874
 20
106.7801378310258
 30
0.0
 10
236.0400153574764
 20
106.7418643975601
 30
0.0
 10
236.0606347913613
 20
106.700991604524
 30
0.0
 10
236.0779353028124
 20
106.6579396666712
 30
0.0
 10
236.0912392468703
 20
106.612617927814
 30
0.0
 10
236.1005654782716
 20
106.564865035065
 30
0.0
 10
236.106329235227
 20
106.5149844706161
 30
0.0
 10
236.1071323286872
 20
106.4808584555782
 30
0.0
 10
236.1075407356256
 20
106.4635039358196
 30
0.0
  0
LINE
  5
18E
330
1F
100
AcDbEntity
  8
0
  6
SLD-SOLID
 62
     7
100
AcDbLine
 10
231.3480235803
 20
106.0693157589
 30
0.0
 11
232.3623469615
 21
106.0693157589
 31
0.0
  0
LINE
  5
18F
330
1F
100
AcDbEntity
  8
0
  6
SLD-SOLID
 62
     7
100
AcDbLine
 10
231.3480235803
 20
107.889896036
 30
0.0
 11
231.3480235803
 21
106.0693157589
 31
0.0
  0
LINE
  5
190
330
1F
100
AcDbEntity
  8
0
  6
SLD-SOLID
 62
     7
100
AcDbLine
 10
231.0879406919
 20
107.889896036
 30
0.0
 11
231.3480235803
 21
107.889896036
 31
0.0
  0
LINE
  5
191
330
1F
100
AcDbEntity
  8
0
  6
SLD-SOLID
 62
     7
100
AcDbLine
 10
231.0879406919
 20
105.8352411593
 30
0.0
 11
231.0879406919
 21
107.889896036
 31
0.0
  0
LINE
  5
192
330
1F
100
AcDbEntity
  8
0
  6
SLD-SOLID
 62
     7
100
AcDbLine
 10
232.3623469615
 20
105.8352411593
 30
0.0
 11
231.0879406919
 21
105.8352411593
 31
0.0
  0
LINE
  5
193
330
1F
100
AcDbEntity
  8
0
  6
SLD-SOLID
 62
     7
100
AcDbLine
 10
232.3623469615
 20
106.0693157589
 30
0.0
 11
232.3623469615
 21
105.8352411593
 31
0.0
  0
SPLINE
  5
194
330
1F
100
AcDbEntity
  8
0
  6
SLD-SOLID
 62
     7
100
AcDbSpline
210
0.0
220
0.0
230
1.0
 70
     8
 71
     3
 72
    15
 73
    11
 74
     0
 42
0.000000001
 43
0.00000001
 40
0.0
 40
0.0
 40
0.0
 40
0.0
 40
0.1182121234008071
 40
0.2364455537483778
 40
0.3565741460782605
 40
0.4798783288897372
 40
0.6058624841179886
 40
0.7341831899954775
 40
0.8649688982559041
 40
1.0
 40
1.0
 40
1.0
 40
1.0
 10
227.0546237509065
 20
107.6606980569752
 30
0.0
 10
227.0755405294098
 20
107.6826129358783
 30
0.0
 10
227.1173778565262
 20
107.7264466436951
 30
0.0
 10
227.1892654376495
 20
107.7832792847529
 30
0.0
 10
227.2687459403856
 20
107.8311524731298
 30
0.0
 10
227.3545268570745
 20
107.871411058089
 30
0.0
 10
227.4460938961435
 20
107.9030161509811
 30
0.0
 10
227.5421896040689
 20
107.9257095714785
 30
0.0
 10
227.6423931488107
 20
107.9394327237752
 30
0.0
 10
227.7104769826259
 20
107.9410772846227
 30
0.0
 10
227.7450625872416
 20
107.9419126977897
 30
0.0
  0
SPLINE
  5
195
330
1F
100
AcDbEntity
  8
0
  6
SLD-SOLID
 62
     7
100
AcDbSpline
210
0.0
220
0.0
230
1.0
 70
     8
 71
     3
 72
    15
 73
    11
 74
     0
 42
0.000000001
 43
0.00000001
 40
0.0
 40
0.0
 40
0.0
 40
0.0
 40
0.1440471923994895
 40
0.2812270333765626
 40
0.4117342507947047
 40
0.537091668287313
 40
0.6580372759518907
 40
0.7747368868320137
 40
0.8883899708332799
 40
1.0
 40
1.0
 40
1.0
 40
1.0
 10
226.7965727438007
 20
106.861755883794
 30
0.0
 10
226.7972612259501
 20
106.9029733110914
 30
0.0
 10
226.7986053673333
 20
106.9834431530173
 30
0.0
 10
226.8117248399736
 20
107.1006260783203
 30
0.0
 10
226.8314994481232
 20
107.211412969379
 30
0.0
 10
226.8606166295371
 20
107.31534208535
 30
0.0
 10
226.8969092628318
 20
107.4127847414143
 30
0.0
 10
226.9414293057463
 20
107.5030242929219
 30
0.0
 10
226.9932130989428
 20
107.586330649649
 30
0.0
 10
227.0342776805451
 20
107.6360592613645
 30
0.0
 10
227.0546237509065
 20
107.6606980569752
 30
0.0
  0
SPLINE
  5
196
330
1F
100
AcDbEntity
  8
0
  6
SLD-SOLID
 62
     7
100
AcDbSpline
210
0.0
220
0.0
230
1.0
 70
     8
 71
     3
 72
    15
 73
    11
 74
     0
 42
0.000000001
 43
0.00000001
 40
0.0
 40
0.0
 40
0.0
 40
0.0
 40
0.1088718696517899
 40
0.2207986158587511
 40
0.3359826853622175
 40
0.4566219984155297
 40
0.5829933180737745
 40
0.7149675248572313
 40
0.8535609528352985
 40
1.0
 40
1.0
 40
1.0
 40
1.0
 10
227.0534046122903
 20
106.065658367384
 30
0.0
 10
227.0334566601063
 20
106.089475199541
 30
0.0
 10
226.9930010286787
 20
106.1377771492661
 30
0.0
 10
226.9422782970468
 20
106.2193594888865
 30
0.0
 10
226.8980910741219
 20
106.3082202363163
 30
0.0
 10
226.861179839997
 20
106.4048146097913
 30
0.0
 10
226.8319163790993
 20
106.5089756052986
 30
0.0
 10
226.8116091825809
 20
106.6204060191759
 30
0.0
 10
226.798609185525
 20
106.7387206825627
 30
0.0
 10
226.7972639008535
 20
106.8199984172996
 30
0.0
 10
226.7965727438007
 20
106.861755883794
 30
0.0
  0
SPLINE
  5
197
330
1F
100
AcDbEntity
  8
0
  6
SLD-SOLID
 62
     7
100
AcDbSpline
210
0.0
220
0.0
230
1.0
 70
     8
 71
     3
 72
    15
 73
    11
 74
     0
 42
0.000000001
 43
0.00000001
 40
0.0
 40
0.0
 40
0.0
 40
0.0
 40
0.136830998653767
 40
0.2684341735000709
 40
0.395825940726395
 40
0.5205243981053196
 40
0.6425911018977783
 40
0.7618209262601465
 40
0.8809385364926475
 40
1.0
 40
1.0
 40
1.0
 40
1.0
 10
227.7450625872416
 20
105.7832245879533
 30
0.0
 10
227.7099263545438
 20
105.7839950686093
 30
0.0
 10
227.6409963191208
 20
105.7855065926072
 30
0.0
 10
227.5402414807334
 20
105.7999864585206
 30
0.0
 10
227.444095668368
 20
105.8218898349388
 30
0.0
 10
227.3533301920336
 20
105.8538206333661
 30
0.0
 10
227.2681512456962
 20
105.8938537304543
 30
0.0
 10
227.1894562264559
 20
105.942776514361
 30
0.0
 10
227.1169471946359
 20
105.9994359679628
 30
0.0
 10
227.0745821441219
 20
106.0435877035875
 30
0.0
 10
227.0534046122903
 20
106.065658367384
 30
0.0
  0
SPLINE
  5
198
330
1F
100
AcDbEntity
  8
0
  6
SLD-SOLID
 62
     7
100
AcDbSpline
210
0.0
220
0.0
230
1.0
 70
     8
 71
     3
 72
    15
 73
    11
 74
     0
 42
0.000000001
 43
0.00000001
 40
0.0
 40
0.0
 40
0.0
 40
0.0
 40
0.1211151901410055
 40
0.2399663885965587
 40
0.3588456273643499
 40
0.4785954980210012
 40
0.6007655911570846
 40
0.7278433201485333
 40
0.8602190781814272
 40
1.0
 40
1.0
 40
1.0
 40
1.0
 10
228.4371269417318
 20
106.065658367384
 30
0.0
 10
228.4155239158578
 20
106.0432058440761
 30
0.0
 10
228.3727216868749
 20
105.9987204997784
 30
0.0
 10
228.3003160926496
 20
105.9411439817083
 30
0.0
 10
228.2224255390803
 20
105.8920702953975
 30
0.0
 10
228.1385149244144
 20
105.8521058773456
 30
0.0
 10
228.048714715021
 20
105.8209486517638
 30
0.0
 10
227.9528581255021
 20
105.7994747626144
 30
0.0
 10
227.8509922927872
 20
105.7855563532188
 30
0.0
 10
227.781007234754
 20
105.7840158153065
 30
0.0
 10
227.7450625872416
 20
105.7832245879533
 30
0.0
  0
SPLINE
  5
199
330
1F
100
AcDbEntity
  8
0
  6
SLD-SOLID
 62
     7
100
AcDbSpline
210
0.0
220
0.0
230
1.0
 70
     8
 71
     3
 72
    15
 73
    11
 74
     0
 42
0.000000001
 43
0.00000001
 40
0.0
 40
0.0
 40
0.0
 40
0.0
 40
0.1459024864097141
 40
0.284488707832862
 40
0.4169619031094048
 40
0.5443231627028047
 40
0.6659687343829642
 40
0.7811041852137092
 40
0.8925826574034774
 40
1.0
 40
1.0
 40
1.0
 40
1.0
 10
228.6951779488376
 20
106.861755883794
 30
0.0
 10
228.6945220210985
 20
106.8201304620108
 30
0.0
 10
228.6932430570484
 20
106.7389669208848
 30
0.0
 10
228.6796888889194
 20
106.6206654070792
 30
0.0
 10
228.6589768060855
 20
106.5088406840858
 30
0.0
 10
228.6293582047962
 20
106.4039926414831
 30
0.0
 10
228.5921313850379
 20
106.3068818268944
 30
0.0
 10
228.5479453963147
 20
106.2178127235535
 30
0.0
 10
228.4973147272589
 20
106.1367616524856
 30
0.0
 10
228.4569398479288
 20
106.0890644904982
 30
0.0
 10
228.4371269417318
 20
106.065658367384
 30
0.0
  0
SPLINE
  5
19A
330
1F
100
AcDbEntity
  8
0
  6
SLD-SOLID
 62
     7
100
AcDbSpline
210
0.0
220
0.0
230
1.0
 70
     8
 71
     3
 72
    15
 73
    11
 74
     0
 42
0.000000001
 43
0.00000001
 40
0.0
 40
0.0
 40
0.0
 40
0.0
 40
0.1098046821590197
 40
0.2217224113507683
 40
0.3375439380582218
 40
0.4586265414293066
 40
0.5849915563545183
 40
0.7164831233994344
 40
0.8545697046422728
 40
1.0
 40
1.0
 40
1.0
 40
1.0
 10
228.4371269417318
 20
107.6606980569752
 30
0.0
 10
228.4573863029505
 20
107.636637995911
 30
0.0
 10
228.4982948902123
 20
107.5880548694767
 30
0.0
 10
228.5490706481308
 20
107.5055613624858
 30
0.0
 10
228.5937570653381
 20
107.4162020008985
 30
0.0
 10
228.6304664253152
 20
107.3187828549641
 30
0.0
 10
228.6597994076653
 20
107.2142588282262
 30
0.0
 10
228.6801448154524
 20
107.1026991792017
 30
0.0
 10
228.6931257315956
 20
106.9845195743863
 30
0.0
 10
228.694482164883
 20
106.9033776986682
 30
0.0
 10
228.6951779488376
 20
106.861755883794
 30
0.0
  0
SPLINE
  5
19B
330
1F
100
AcDbEntity
  8
0
  6
SLD-SOLID
 62
     7
100
AcDbSpline
210
0.0
220
0.0
230
1.0
 70
     8
 71
     3
 72
    15
 73
    11
 74
     0
 42
0.000000001
 43
0.00000001
 40
0.0
 40
0.0
 40
0.0
 40
0.0
 40
0.1395096289278317
 40
0.2721984508134785
 40
0.400263434375469
 40
0.5246770396869458
 40
0.645826861465457
 40
0.7650924343224667
 40
0.8820210912425185
 40
0.9999999999999999
 40
0.9999999999999999
 40
0.9999999999999999
 40
0.9999999999999999
 10
227.7450625872416
 20
107.9419126977897
 30
0.0
 10
227.7808747484568
 20
107.9411478855599
 30
0.0
 10
227.8507481677896
 20
107.9396556537638
 30
0.0
 10
227.952643429908
 20
107.9252818401973
 30
0.0
 10
228.0490686059054
 20
107.902949550692
 30
0.0
 10
228.1394884108128
 20
107.8705334478012
 30
0.0
 10
228.2241836397278
 20
107.8302806161001
 30
0.0
 10
228.3022046197399
 20
107.7818399941598
 30
0.0
 10
228.3741680156511
 20
107.7258923472334
 30
0.0
 10
228.4160781741148
 20
107.6824941635962
 30
0.0
 10
228.4371269417318
 20
107.6606980569752
 30
0.0
  0
LINE
  5
19C
330
1F
100
AcDbEntity
  8
0
  6
SLD-SOLID
 62
     7
100
AcDbLine
 10
222.7912958529
 20
107.889896036
 30
0.0
 11
224.5078430329
 21
107.889896036
 31
0.0
  0
LINE
  5
19D
330
1F
100
AcDbEntity
  8
0
  6
SLD-SOLID
 62
     7
100
AcDbLine
 10
222.7912958529
 20
107.6558216111
 30
0.0
 11
222.7912958529
 21
107.889896036
 31
0.0
  0
LINE
  5
19E
330
1F
100
AcDbEntity
  8
0
  6
SLD-SOLID
 62
     7
100
AcDbLine
 10
223.5195281733
 20
107.6558216111
 30
0.0
 11
222.7912958529
 21
107.6558216111
 31
0.0
  0
LINE
  5
19F
330
1F
100
AcDbEntity
  8
0
  6
SLD-SOLID
 62
     7
100
AcDbLine
 10
223.5195281733
 20
105.8352411593
 30
0.0
 11
223.5195281733
 21
107.6558216111
 31
0.0
  0
LINE
  5
1A0
330
1F
100
AcDbEntity
  8
0
  6
SLD-SOLID
 62
     7
100
AcDbLine
 10
223.7796111781
 20
105.8352411593
 30
0.0
 11
223.5195281733
 21
105.8352411593
 31
0.0
  0
LINE
  5
1A1
330
1F
100
AcDbEntity
  8
0
  6
SLD-SOLID
 62
     7
100
AcDbLine
 10
223.7796111781
 20
107.6558216111
 30
0.0
 11
223.7796111781
 21
105.8352411593
 31
0.0
  0
LINE
  5
1A2
330
1F
100
AcDbEntity
  8
0
  6
SLD-SOLID
 62
     7
100
AcDbLine
 10
224.5078430329
 20
107.6558216111
 30
0.0
 11
223.7796111781
 21
107.6558216111
 31
0.0
  0
LINE
  5
1A3
330
1F
100
AcDbEntity
  8
0
  6
SLD-SOLID
 62
     7
100
AcDbLine
 10
224.5078430329
 20
107.889896036
 30
0.0
 11
224.5078430329
 21
107.6558216111
 31
0.0
  0
LINE
  5
1A4
330
1F
100
AcDbEntity
  8
0
  6
SLD-SOLID
 62
     7
100
AcDbLine
 10
205.2637416687
 20
80.1507672396
 30
0.0
 11
255.6637417343
 21
80.1507672396
 31
0.0
  0
LINE
  5
1A5
330
1F
100
AcDbEntity
  8
0
  6
SLD-SOLID
 62
     7
100
AcDbLine
 10
205.2637416687
 20
130.5507673052
 30
0.0
 11
205.2637416687
 21
80.1507672396
 31
0.0
  0
LINE
  5
1A6
330
1F
100
AcDbEntity
  8
0
  6
SLD-SOLID
 62
     7
100
AcDbLine
 10
255.6637417343
 20
130.5507673052
 30
0.0
 11
205.2637416687
 21
130.5507673052
 31
0.0
  0
LINE
  5
1A7
330
1F
100
AcDbEntity
  8
0
  6
SLD-SOLID
 62
     7
100
AcDbLine
 10
255.6637417343
 20
80.1507672396
 30
0.0
 11
255.6637417343
 21
130.5507673052
 31
0.0
  0
LINE
  5
1A8
330
1F
100
AcDbEntity
  8
0
  6
SLD-SOLID
 62
     7
100
AcDbLine
 10
226.0943487104
 20
107.889896036
 30
0.0
 11
226.3544317152
 21
107.889896036
 31
0.0
  0
LINE
  5
1A9
330
1F
100
AcDbEntity
  8
0
  6
SLD-SOLID
 62
     7
100
AcDbLine
 10
226.0943487104
 20
107.0836391401
 30
0.0
 11
226.0943487104
 21
107.889896036
 31
0.0
  0
LINE
  5
1AA
330
1F
100
AcDbEntity
  8
0
  6
SLD-SOLID
 62
     7
100
AcDbLine
 10
225.0800257366
 20
107.0836391401
 30
0.0
 11
226.0943487104
 21
107.0836391401
 31
0.0
  0
LINE
  5
1AB
330
1F
100
AcDbEntity
  8
0
  6
SLD-SOLID
 62
     7
100
AcDbLine
 10
225.0800257366
 20
107.889896036
 30
0.0
 11
225.0800257366
 21
107.0836391401
 31
0.0
  0
LINE
  5
1AC
330
1F
100
AcDbEntity
  8
0
  6
SLD-SOLID
 62
     7
100
AcDbLine
 10
224.8199427318
 20
107.889896036
 30
0.0
 11
225.0800257366
 21
107.889896036
 31
0.0
  0
LINE
  5
1AD
330
1F
100
AcDbEntity
  8
0
  6
SLD-SOLID
 62
     7
100
AcDbLine
 10
224.8199427318
 20
105.8352411593
 30
0.0
 11
224.8199427318
 21
107.889896036
 31
0.0
  0
LINE
  5
1AE
330
1F
100
AcDbEntity
  8
0
  6
SLD-SOLID
 62
     7
100
AcDbLine
 10
225.0800257366
 20
105.8352411593
 30
0.0
 11
224.8199427318
 21
105.8352411593
 31
0.0
  0
LINE
  5
1AF
330
1F
100
AcDbEntity
  8
0
  6
SLD-SOLID
 62
     7
100
AcDbLine
 10
225.0800257366
 20
106.8495644823
 30
0.0
 11
225.0800257366
 21
105.8352411593
 31
0.0
  0
LINE
  5
1B0
330
1F
100
AcDbEntity
  8
0
  6
SLD-SOLID
 62
     7
100
AcDbLine
 10
226.0943487104
 20
106.8495644823
 30
0.0
 11
225.0800257366
 21
106.8495644823
 31
0.0
  0
LINE
  5
1B1
330
1F
100
AcDbEntity
  8
0
  6
SLD-SOLID
 62
     7
100
AcDbLine
 10
226.0943487104
 20
105.8352411593
 30
0.0
 11
226.0943487104
 21
106.8495644823
 31
0.0
  0
LINE
  5
1B2
330
1F
100
AcDbEntity
  8
0
  6
SLD-SOLID
 62
     7
100
AcDbLine
 10
226.3544317152
 20
105.8352411593
 30
0.0
 11
226.0943487104
 21
105.8352411593
 31
0.0
  0
LINE
  5
1B3
330
1F
100
AcDbEntity
  8
0
  6
SLD-SOLID
 62
     7
100
AcDbLine
 10
226.3544317152
 20
107.889896036
 30
0.0
 11
226.3544317152
 21
105.8352411593
 31
0.0
  0
SPLINE
  5
1B4
330
1F
100
AcDbEntity
  8
0
  6
SLD-SOLID
 62
     7
100
AcDbSpline
210
0.0
220
0.0
230
1.0
 70
     8
 71
     3
 72
    23
 73
    19
 74
     0
 42
0.000000001
 43
0.00000001
 40
0.0
 40
0.0
 40
0.0
 40
0.0
 40
0.0703830305476864
 40
0.1379489199197071
 40
0.203488808444079
 40
0.2668116458442016
 40
0.3289395236564628
 40
0.3896346109119577
 40
0.4495664907690708
 40
0.5094054054689506
 40
0.5688230343965481
 40
0.6282063740288432
 40
0.6879203520712699
 40
0.748310414416668
 40
0.8093179049203321
 40
0.8712531512616701
 40
0.9346509967026075
 40
1.0
 40
1.0
 40
1.0
 40
1.0
 10
230.4637417014747
 20
107.3262476965845
 30
0.0
 10
230.4634824970729
 20
107.3079461213353
 30
0.0
 10
230.4629744631478
 20
107.2720755070864
 30
0.0
 10
230.4574203189269
 20
107.2194091006554
 30
0.0
 10
230.4490132921289
 20
107.1690210816281
 30
0.0
 10
230.4372916427243
 20
107.1207160047855
 30
0.0
 10
230.42176719769
 20
107.0748352275616
 30
0.0
 10
230.4031767674718
 20
107.031050345557
 30
0.0
 10
230.3805601425344
 20
106.989874161688
 30
0.0
 10
230.3549907342961
 20
106.9508947172193
 30
0.0
 10
230.3264949366567
 20
106.9141545198277
 30
0.0
 10
230.2949528759485
 20
106.8800696570566
 30
0.0
 10
230.2612780790681
 20
106.8477180367596
 30
0.0
 10
230.2245740941634
 20
106.8181571441328
 30
0.0
 10
230.1854971907312
 20
106.7908073868485
 30
0.0
 10
230.1437896817105
 20
106.7661261368801
 30
0.0
 10
230.0998890617258
 20
106.743008100993
 30
0.0
 10
230.0689847171967
 20
106.7301256717941
 30
0.0
 10
230.0532983673379
 20
106.7235868406192
 30
0.0
  0
SPLINE
  5
1B5
330
1F
100
AcDbEntity
  8
0
  6
SLD-SOLID
 62
     7
100
AcDbSpline
210
0.0
220
0.0
230
1.0
 70
     8
 71
     3
 72
    15
 73
    11
 74
     0
 42
0.000000001
 43
0.00000001
 40
0.0
 40
0.0
 40
0.0
 40
0.0
 40
0.1204601605038171
 40
0.2373845007654841
 40
0.3534929525856132
 40
0.4690032709078607
 40
0.5878575309050471
 40
0.714821261204509
 40
0.8513778055921198
 40
1.0
 40
1.0
 40
1.0
 40
1.0
 10
230.2300734666939
 20
107.7785481232125
 30
0.0
 10
230.2477363898104
 20
107.7663665551134
 30
0.0
 10
230.2825437831305
 20
107.742360979746
 30
0.0
 10
230.3287539384334
 20
107.6993934073739
 30
0.0
 10
230.3692691538592
 20
107.652257534609
 30
0.0
 10
230.4034081674634
 20
107.5998910630716
 30
0.0
 10
230.4315569516041
 20
107.5417799199589
 30
0.0
 10
230.4498624029841
 20
107.4760087149965
 30
0.0
 10
230.4621554473128
 20
107.4035145884579
 30
0.0
 10
230.463198243505
 20
107.352719689027
 30
0.0
 10
230.4637417014747
 20
107.3262476965845
 30
0.0
  0
SPLINE
  5
1B6
330
1F
100
AcDbEntity
  8
0
  6
SLD-SOLID
 62
     7
100
AcDbSpline
210
0.0
220
0.0
230
1.0
 70
     8
 71
     3
 72
    15
 73
    11
 74
     0
 42
0.000000001
 43
0.00000001
 40
0.0
 40
0.0
 40
0.0
 40
0.0
 40
0.1610519726672529
 40
0.3088852512014139
 40
0.4423350676483691
 40
0.5631769465949304
 40
0.6760013357488854
 40
0.7853868612953502
 40
0.8934793501665296
 40
1.0
 40
1.0
 40
1.0
 40
1.0
 10
229.7042183435522
 20
107.8898961168298
 30
0.0
 10
229.7334821248721
 20
107.8895641761614
 30
0.0
 10
229.7896077984319
 20
107.8889275395834
 30
0.0
 10
229.8699114375633
 20
107.8846988371678
 30
0.0
 10
229.9425880037405
 20
107.8769163889
 30
0.0
 10
230.0085619228703
 20
107.8667020568448
 30
0.0
 10
230.0691848940981
 20
107.8518565332863
 30
0.0
 10
230.1261764920404
 20
107.832811407327
 30
0.0
 10
230.1799645585104
 20
107.8085175207185
 30
0.0
 10
230.2134522525686
 20
107.7884890257628
 30
0.0
 10
230.2300734666939
 20
107.7785481232125
 30
0.0
  0
LINE
  5
1B7
330
1F
100
AcDbEntity
  8
0
  6
SLD-SOLID
 62
     7
100
AcDbLine
 10
229.1373189123
 20
107.889896036
 30
0.0
 11
229.7042183396
 21
107.889896036
 31
0.0
  0
LINE
  5
1B8
330
1F
100
AcDbEntity
  8
0
  6
SLD-SOLID
 62
     7
100
AcDbLine
 10
229.1373189123
 20
105.8352411593
 30
0.0
 11
229.1373189123
 21
107.889896036
 31
0.0
  0
LINE
  5
1B9
330
1F
100
AcDbEntity
  8
0
  6
SLD-SOLID
 62
     7
100
AcDbLine
 10
229.3974018008
 20
105.8352411593
 30
0.0
 11
229.1373189123
 21
105.8352411593
 31
0.0
  0
LINE
  5
1BA
330
1F
100
AcDbEntity
  8
0
  6
SLD-SOLID
 62
     7
100
AcDbLine
 10
229.3974018008
 20
106.6414981716
 30
0.0
 11
229.3974018008
 21
105.8352411593
 31
0.0
  0
LINE
  5
1BB
330
1F
100
AcDbEntity
  8
0
  6
SLD-SOLID
 62
     7
100
AcDbLine
 10
229.8265385957
 20
106.6414981716
 30
0.0
 11
229.3974018008
 21
106.6414981716
 31
0.0
  0
LINE
  5
1BC
330
1F
100
AcDbEntity
  8
0
  6
SLD-SOLID
 62
     7
100
AcDbLine
 10
230.514945522
 20
105.8352411593
 30
0.0
 11
229.8265385957
 21
106.6414981716
 31
0.0
  0
LINE
  5
1BD
330
1F
100
AcDbEntity
  8
0
  6
SLD-SOLID
 62
     7
100
AcDbLine
 10
230.8278577744
 20
105.8352411593
 30
0.0
 11
230.514945522
 21
105.8352411593
 31
0.0
  0
LINE
  5
1BE
330
1F
100
AcDbEntity
  8
0
  6
SLD-SOLID
 62
     7
100
AcDbLine
 10
230.053298355
 20
106.723586806
 30
0.0
 11
230.8278577744
 21
105.8352411593
 31
0.0
  0
LINE
  5
1BF
330
1F
100
AcDbEntity
  8
0
  6
SLD-SOLID
 62
     7
100
AcDbLine
 10
233.1413765255
 20
107.889896036
 30
0.0
 11
233.5079308882
 21
107.889896036
 31
0.0
  0
LINE
  5
1C0
330
1F
100
AcDbEntity
  8
0
  6
SLD-SOLID
 62
     7
100
AcDbLine
 10
232.3883551922
 20
105.8352411593
 30
0.0
 11
233.1413765255
 21
107.889896036
 31
0.0
  0
LINE
  5
1C1
330
1F
100
AcDbEntity
  8
0
  6
SLD-SOLID
 62
     7
100
AcDbLine
 10
232.6655060802
 20
105.8352411593
 30
0.0
 11
232.3883551922
 21
105.8352411593
 31
0.0
  0
LINE
  5
1C2
330
1F
100
AcDbEntity
  8
0
  6
SLD-SOLID
 62
     7
100
AcDbLine
 10
232.8682894636
 20
106.4074235138
 30
0.0
 11
232.6655060802
 21
105.8352411593
 31
0.0
  0
LINE
  5
1C3
330
1F
100
AcDbEntity
  8
0
  6
SLD-SOLID
 62
     7
100
AcDbLine
 10
233.7810179502
 20
106.4074235138
 30
0.0
 11
232.8682894636
 21
106.4074235138
 31
0.0
  0
LINE
  5
1C4
330
1F
100
AcDbEntity
  8
0
  6
SLD-SOLID
 62
     7
100
AcDbLine
 10
233.9838013336
 20
105.8352411593
 30
0.0
 11
233.7810179502
 21
106.4074235138
 31
0.0
  0
LINE
  5
1C5
330
1F
100
AcDbEntity
  8
0
  6
SLD-SOLID
 62
     7
100
AcDbLine
 10
234.2609522216
 20
105.8352411593
 30
0.0
 11
233.9838013336
 21
105.8352411593
 31
0.0
  0
LINE
  5
1C6
330
1F
100
AcDbEntity
  8
0
  6
SLD-SOLID
 62
     7
100
AcDbLine
 10
233.5079308882
 20
107.889896036
 30
0.0
 11
234.2609522216
 21
105.8352411593
 31
0.0
  0
SPLINE
  5
1C7
330
1F
100
AcDbEntity
  8
0
  6
SLD-SOLID
 62
     7
100
AcDbSpline
210
0.0
220
0.0
230
1.0
 70
     8
 71
     3
 72
    15
 73
    11
 74
     0
 42
0.000000001
 43
0.00000001
 40
0.0
 40
0.0
 40
0.0
 40
0.0
 40
0.0932522940898446
 40
0.2030994356376335
 40
0.3310220938728493
 40
0.4754246486616953
 40
0.6236441625924206
 40
0.7602181276767066
 40
0.8859457116350388
 40
1.0
 40
1.0
 40
1.0
 40
1.0
 10
236.9820695030141
 20
107.0547861646999
 30
0.0
 10
236.9985888166784
 20
107.0513659156925
 30
0.0
 10
237.034567162467
 20
107.043916762297
 30
0.0
 10
237.0933639824295
 20
107.0325585917403
 30
0.0
 10
237.1613447790552
 20
107.0199667807454
 30
0.0
 10
237.2363254216554
 20
107.0070941293073
 30
0.0
 10
237.3128813956215
 20
106.9941300938415
 30
0.0
 10
237.3857642502384
 20
106.9798383606283
 30
0.0
 10
237.452297785928
 20
106.965353696331
 30
0.0
 10
237.4944002861899
 20
106.9549085611503
 30
0.0
 10
237.5144266987758
 20
106.9499402437026
 30
0.0
  0
SPLINE
  5
1C8
330
1F
100
AcDbEntity
  8
0
  6
SLD-SOLID
 62
     7
100
AcDbSpline
210
0.0
220
0.0
230
1.0
 70
     8
 71
     3
 72
    19
 73
    15
 74
     0
 42
0.000000001
 43
0.00000001
 40
0.0
 40
0.0
 40
0.0
 40
0.0
 40
0.1268092702442908
 40
0.242878205360981
 40
0.3498290754484312
 40
0.4530854512027853
 40
0.505823760282287
 40
0.562489998188145
 40
0.6231597597642966
 40
0.68837552081641
 40
0.7578050229004751
 40
0.8328341202665781
 40
0.9134179105045231
 40
1.0
 40
1.0
 40
1.0
 40
1.0
 10
236.6797231261847
 20
107.3725749640019
 30
0.0
 10
236.6803901988918
 20
107.3520483753505
 30
0.0
 10
236.6816678454049
 20
107.3127337337298
 30
0.0
 10
236.6944062478272
 20
107.2572506760851
 30
0.0
 10
236.7151797985767
 20
107.2084515122905
 30
0.0
 10
236.7401118604827
 20
107.1734977637279
 30
0.0
 10
236.7648419880792
 20
107.1495338582297
 30
0.0
 10
236.7864343152388
 20
107.1324352236107
 30
0.0
 10
236.8114020299849
 20
107.1166149525436
 30
0.0
 10
236.8394743754417
 20
107.102091312756
 30
0.0
 10
236.870640537359
 20
107.0887189872563
 30
0.0
 10
236.9047690683668
 20
107.0760681602218
 30
0.0
 10
236.9422885536471
 20
107.0647979610224
 30
0.0
 10
236.9684957284977
 20
107.0582023191142
 30
0.0
 10
236.9820695030141
 20
107.0547861646999
 30
0.0
  0
SPLINE
  5
1C9
330
1F
100
AcDbEntity
  8
0
  6
SLD-SOLID
 62
     7
100
AcDbSpline
210
0.0
220
0.0
230
1.0
 70
     8
 71
     3
 72
    23
 73
    19
 74
     0
 42
0.000000001
 43
0.00000001
 40
0.0
 40
0.0
 40
0.0
 40
0.0
 40
0.0820152122453144
 40
0.1599519257716705
 40
0.2341869940922274
 40
0.3051246137515417
 40
0.3734499329597793
 40
0.4393407970318606
 40
0.5030894667964403
 40
0.5657336030606944
 40
0.6259373606731968
 40
0.6822012886643629
 40
0.7364846002131629
 40
0.7890871215591242
 40
0.8410885332773579
 40
0.8925509432537755
 40
0.9454656063736527
 40
1.0
 40
1.0
 40
1.0
 40
1.0
 10
237.1726615066876
 20
107.7078380834701
 30
0.0
 10
237.1545033048683
 20
107.7074673641336
 30
0.0
 10
237.1190898825283
 20
107.7067443608009
 30
0.0
 10
237.0673507544705
 20
107.7028269935684
 30
0.0
 10
237.0184139381778
 20
107.6956501348377
 30
0.0
 10
236.9723739473488
 20
107.6847885609406
 30
0.0
 10
236.9286976966815
 20
107.6721509175689
 30
0.0
 10
236.8879633883612
 20
107.655761295773
 30
0.0
 10
236.8499302103152
 20
107.6365394869352
 30
0.0
 10
236.8146725123192
 20
107.6148674539585
 30
0.0
 10
236.7832385885026
 20
107.5905905745814
 30
0.0
 10
236.7554468288504
 20
107.5648410587504
 30
0.0
 10
236.7322630516491
 20
107.5370321860862
 30
0.0
 10
236.7127295230716
 20
107.5076457945465
 30
0.0
 10
236.6982450391455
 20
107.4761378193116
 30
0.0
 10
236.6874887507863
 20
107.4431689399864
 30
0.0
 10
236.6807447422549
 20
107.4084753790709
 30
0.0
 10
236.680067070043
 20
107.3846614293922
 30
0.0
 10
236.6797231261847
 20
107.3725749640019
 30
0.0
  0
SPLINE
  5
1CA
330
1F
100
AcDbEntity
  8
0
  6
SLD-SOLID
 62
     7
100
AcDbSpline
210
0.0
220
0.0
230
1.0
 70
     8
 71
     3
 72
    15
 73
    11
 74
     0
 42
0.000000001
 43
0.00000001
 40
0.0
 40
0.0
 40
0.0
 40
0.0
 40
0.1056104929821477
 40
0.2181470470918488
 40
0.3394654686690295
 40
0.4692629563420195
 40
0.6030470205796892
 40
0.7350948858466879
 40
0.8674791079275841
 40
1.0
 40
1.0
 40
1.0
 40
1.0
 10
237.8826065608827
 20
107.4737634691505
 30
0.0
 10
237.8615549157348
 20
107.4903853250254
 30
0.0
 10
237.8180710336341
 20
107.5247191177565
 30
0.0
 10
237.7434128693182
 20
107.5681453563593
 30
0.0
 10
237.6600754042896
 20
107.6078815049267
 30
0.0
 10
237.5687004834158
 20
107.6425962332305
 30
0.0
 10
237.4725565601341
 20
107.6718114084683
 30
0.0
 10
237.3735495843376
 20
107.6924141683065
 30
0.0
 10
237.2735310046653
 20
107.7056058101992
 30
0.0
 10
237.2062962352798
 20
107.7070937364959
 30
0.0
 10
237.1726615066876
 20
107.7078380834701
 30
0.0
  0
LINE
  5
1CB
330
1F
100
AcDbEntity
  8
0
  6
SLD-SOLID
 62
     7
100
AcDbLine
 10
237.9021126594
 20
107.4737634145
 30
0.0
 11
237.8826065738
 21
107.4737634145
 31
0.0
  0
LINE
  5
1CC
330
1F
100
AcDbEntity
  8
0
  6
SLD-SOLID
 62
     7
100
AcDbLine
 10
237.9021126594
 20
107.7980543588
 30
0.0
 11
237.9021126594
 21
107.4737634145
 31
0.0
  0
SPLINE
  5
1CD
330
1F
100
AcDbEntity
  8
0
  6
SLD-SOLID
 62
     7
100
AcDbSpline
210
0.0
220
0.0
230
1.0
 70
     8
 71
     3
 72
    15
 73
    11
 74
     0
 42
0.000000001
 43
0.00000001
 40
0.0
 40
0.0
 40
0.0
 40
0.0
 40
0.1438134946436347
 40
0.2825302617167642
 40
0.4154724990798206
 40
0.5436416713555685
 40
0.6664829494542226
 40
0.7833339323015184
 40
0.8944191683275445
 40
1.0
 40
1.0
 40
1.0
 40
1.0
 10
237.1750997839201
 20
107.9419126977897
 30
0.0
 10
237.2108757408083
 20
107.9414912742493
 30
0.0
 10
237.2811597603146
 20
107.9406633623521
 30
0.0
 10
237.3842674687111
 20
107.93278274994
 30
0.0
 10
237.4829500081464
 20
107.9200057095155
 30
0.0
 10
237.5766942087228
 20
107.9014728499897
 30
0.0
 10
237.6655364460364
 20
107.8794802180812
 30
0.0
 10
237.7493382001211
 20
107.8551402400015
 30
0.0
 10
237.8280006182799
 20
107.8286270752401
 30
0.0
 10
237.8778307032472
 20
107.8080711781816
 30
0.0
 10
237.9021127787427
 20
107.7980543410725
 30
0.0
  0
SPLINE
  5
1CE
330
1F
100
AcDbEntity
  8
0
  6
SLD-SOLID
 62
     7
100
AcDbSpline
210
0.0
220
0.0
230
1.0
 70
     8
 71
     3
 72
    23
 73
    19
 74
     0
 42
0.000000001
 43
0.00000001
 40
0.0
 40
0.0
 40
0.0
 40
0.0
 40
0.0582414831081262
 40
0.1146427594695284
 40
0.169859822040876
 40
0.2249312733524663
 40
0.2800824228986797
 40
0.3366222446972302
 40
0.3955711591414621
 40
0.4568580256683302
 40
0.5202638826731385
 40
0.5834528927466012
 40
0.6479660969618364
 40
0.7138123028707999
 40
0.7814741194161741
 40
0.8513965712822176
 40
0.9243885405390578
 40
1.0
 40
1.0
 40
1.0
 40
1.0
 10
236.3936319309051
 20
107.3457539144445
 30
0.0
 10
236.3941533129417
 20
107.3670722931694
 30
0.0
 10
236.3951796033488
 20
107.4090354718869
 30
0.0
 10
236.4063843008311
 20
107.4703284959603
 30
0.0
 10
236.4231492523973
 20
107.5290541474521
 30
0.0
 10
236.4478846880644
 20
107.5844624136786
 30
0.0
 10
236.4790407755168
 20
107.6370203766181
 30
0.0
 10
236.5172064602552
 20
107.6865783131652
 30
0.0
 10
236.562556393468
 20
107.7328230140134
 30
0.0
 10
236.6143011549453
 20
107.7757595979223
 30
0.0
 10
236.6709326708027
 20
107.8148235330714
 30
0.0
 10
236.7321323112233
 20
107.8487482560323
 30
0.0
 10
236.7968236943389
 20
107.8776554222765
 30
0.0
 10
236.8653810995261
 20
107.9012097309707
 30
0.0
 10
236.9375632300563
 20
107.91953067937
 30
0.0
 10
237.013548252342
 20
107.9322655298095
 30
0.0
 10
237.0930874488511
 20
107.9407985184224
 30
0.0
 10
237.1474429570308
 20
107.9415369657019
 30
0.0
 10
237.1750997839201
 20
107.9419126977897
 30
0.0
  0
SPLINE
  5
1CF
330
1F
100
AcDbEntity
  8
0
  6
SLD-SOLID
 62
     7
100
AcDbSpline
210
0.0
220
0.0
230
1.0
 70
     8
 71
     3
 72
    23
 73
    19
 74
     0
 42
0.000000001
 43
0.00000001
 40
0.0
 40
0.0
 40
0.0
 40
0.0
 40
0.079140304472841
 40
0.1545952342287955
 40
0.2255894056564574
 40
0.2928483715929995
 40
0.3573318591730979
 40
0.4184027772098035
 40
0.4775728648746417
 40
0.5343477861260599
 40
0.590311385905757
 40
0.6453917384100367
 40
0.7008449670353334
 40
0.757253795664201
 40
0.8147232371888098
 40
0.8742035410736735
 40
0.9356396770884151
 40
1.0
 40
1.0
 40
1.0
 40
1.0
 10
236.9357422355967
 20
106.7751970420404
 30
0.0
 10
236.9134592800247
 20
106.780213798895
 30
0.0
 10
236.8699310328323
 20
106.790013694235
 30
0.0
 10
236.8075417306849
 20
106.8087603869137
 30
0.0
 10
236.7495679141904
 20
106.8298631804738
 30
0.0
 10
236.6959773695022
 20
106.8534362645523
 30
0.0
 10
236.6468528880639
 20
106.8796854659203
 30
0.0
 10
236.6021127469126
 20
106.9087695536136
 30
0.0
 10
236.5618206333274
 20
106.9402914167136
 30
0.0
 10
236.5260932715648
 20
106.9748225620595
 30
0.0
 10
236.4946987261077
 20
107.0117992968424
 30
0.0
 10
236.4676442822182
 20
107.0516063507893
 30
0.0
 10
236.4447805393154
 20
107.0941006092456
 30
0.0
 10
236.4261299727675
 20
107.1393442270733
 30
0.0
 10
236.4114301165365
 20
107.1872289714847
 30
0.0
 10
236.4008820361227
 20
107.237677113107
 30
0.0
 10
236.394750649268
 20
107.2908755629269
 30
0.0
 10
236.39401057149
 20
107.3271798284172
 30
0.0
 10
236.3936319309051
 20
107.3457539144445
 30
0.0
  0
SPLINE
  5
1D0
330
1F
100
AcDbEntity
  8
0
  6
SLD-SOLID
 62
     7
100
AcDbSpline
210
0.0
220
0.0
230
1.0
 70
     8
 71
     3
 72
    11
 73
     7
 74
     0
 42
0.000000001
 43
0.00000001
 40
0.0
 40
0.0
 40
0.0
 40
0.0
 40
0.2264437066147216
 40
0.4684934644352426
 40
0.7260902046784208
 40
1.0
 40
1.0
 40
1.0
 40
1.0
 10
237.4209594048635
 20
106.6829488867443
 30
0.0
 10
237.3847661868605
 20
106.6920184119296
 30
0.0
 10
237.3098853860436
 20
106.7107825159906
 30
0.0
 10
237.1916424543425
 20
106.7292053194559
 30
0.0
 10
237.0658370269454
 20
106.7492211735201
 30
0.0
 10
236.9799854875699
 20
106.7663630458115
 30
0.0
 10
236.9357422355967
 20
106.7751970420404
 30
0.0
  0
SPLINE
  5
1D1
330
1F
100
AcDbEntity
  8
0
  6
SLD-SOLID
 62
     7
100
AcDbSpline
210
0.0
220
0.0
230
1.0
 70
     8
 71
     3
 72
    19
 73
    15
 74
     0
 42
0.000000001
 43
0.00000001
 40
0.0
 40
0.0
 40
0.0
 40
0.0
 40
0.0736826146611911
 40
0.1431112576246217
 40
0.207926863199303
 40
0.2695996622420426
 40
0.3273006387183207
 40
0.3823410054467731
 40
0.435896329804567
 40
0.488024883042684
 40
0.5971381218227615
 40
0.7166521932471874
 40
0.8505969534355429
 40
1.0
 40
1.0
 40
1.0
 40
1.0
 10
237.694046454903
 20
106.3765387145273
 30
0.0
 10
237.6937485148772
 20
106.3876508329251
 30
0.0
 10
237.6931698360126
 20
106.4092335257504
 30
0.0
 10
237.6905460229023
 20
106.4405185688749
 30
0.0
 10
237.685317549576
 20
106.4696714399861
 30
0.0
 10
237.6774409217762
 20
106.4963411448664
 30
0.0
 10
237.6683808655711
 20
106.5211072359305
 30
0.0
 10
237.6563025297386
 20
106.5431709675489
 30
0.0
 10
237.6426245715594
 20
106.5632643021182
 30
0.0
 10
237.6205990832965
 20
106.5871437535575
 30
0.0
 10
237.5874575349285
 20
106.6139012638275
 30
0.0
 10
237.5397571733114
 20
106.6409538598971
 30
0.0
 10
237.4838400012552
 20
106.6651703737049
 30
0.0
 10
237.4426683225899
 20
106.6768110270703
 30
0.0
 10
237.4209594048635
 20
106.6829488867443
 30
0.0
  0
SPLINE
  5
1D2
330
1F
100
AcDbEntity
  8
0
  6
SLD-SOLID
 62
     7
100
AcDbSpline
210
0.0
220
0.0
230
1.0
 70
     8
 71
     3
 72
    23
 73
    19
 74
     0
 42
0.000000001
 43
0.00000001
 40
0.0
 40
0.0
 40
0.0
 40
0.0
 40
0.0854151544129921
 40
0.1659823341365558
 40
0.242565617483375
 40
0.3148369819696941
 40
0.3832803096291429
 40
0.4488990343063123
 40
0.511455091668862
 40
0.571477997405068
 40
0.6295665825924376
 40
0.6843880566524392
 40
0.7370366993053414
 40
0.7887815262452743
 40
0.8400607811717762
 40
0.8917690048341219
 40
0.9448771569629707
 40
0.9999999999999999
 40
0.9999999999999999
 40
0.9999999999999999
 40
0.9999999999999999
 10
237.1572190842151
 20
106.0172992022729
 30
0.0
 10
237.1778161793291
 20
106.0176327755384
 30
0.0
 10
237.2178413241285
 20
106.018280989191
 30
0.0
 10
237.2762146633301
 20
106.0226762361936
 30
0.0
 10
237.3310231590298
 20
106.0304240566956
 30
0.0
 10
237.3824335074714
 20
106.0407760449425
 30
0.0
 10
237.4302876986855
 20
106.054627788839
 30
0.0
 10
237.4745928666844
 20
106.0716618426225
 30
0.0
 10
237.5154593625697
 20
106.091549816194
 30
0.0
 10
237.5526330713719
 20
106.1143879217627
 30
0.0
 10
237.5859209486701
 20
106.1396739297193
 30
0.0
 10
237.6144635352712
 20
106.1676872727501
 30
0.0
 10
237.6393955777967
 20
106.1970040030617
 30
0.0
 10
237.6593272690624
 20
106.2289592857334
 30
0.0
 10
237.6749980986159
 20
106.2629509838483
 30
0.0
 10
237.6857890414426
 20
106.2990889246454
 30
0.0
 10
237.6931704992478
 20
106.3370910373357
 30
0.0
 10
237.693750868545
 20
106.3632273155303
 30
0.0
 10
237.694046454903
 20
106.3765387145273
 30
0.0
  0
SPLINE
  5
1D3
330
1F
100
AcDbEntity
  8
0
  6
SLD-SOLID
 62
     7
100
AcDbSpline
210
0.0
220
0.0
230
1.0
 70
     8
 71
     3
 72
    15
 73
    11
 74
     0
 42
0.000000001
 43
0.00000001
 40
0.0
 40
0.0
 40
0.0
 40
0.0
 40
0.1247846984405782
 40
0.2508991582111133
 40
0.3796498944864672
 40
0.5118057263052217
 40
0.6428226368571995
 40
0.7671691836151726
 40
0.885858676478196
 40
1.0
 40
1.0
 40
1.0
 40
1.0
 10
236.4131381487651
 20
106.2773821070724
 30
0.0
 10
236.4397141951517
 20
106.2571837330656
 30
0.0
 10
236.4931494941131
 20
106.2165717421815
 30
0.0
 10
236.5809877270693
 20
106.1653358472337
 30
0.0
 10
236.6742221688316
 20
106.1202697340765
 30
0.0
 10
236.7725358167739
 20
106.0837554336592
 30
0.0
 10
236.8718988342116
 20
106.0541265632076
 30
0.0
 10
236.9698310399517
 20
106.0337403610534
 30
0.0
 10
237.0644201055854
 20
106.0195237001743
 30
0.0
 10
237.1266915662273
 20
106.0180309818754
 30
0.0
 10
237.1572190842151
 20
106.0172992022729
 30
0.0
  0
LINE
  5
1D4
330
1F
100
AcDbEntity
  8
0
  6
SLD-SOLID
 62
     7
100
AcDbLine
 10
236.3936317902
 20
106.2773821278
 30
0.0
 11
236.4131383415
 21
106.2773821278
 31
0.0
  0
LINE
  5
1D5
330
1F
100
AcDbEntity
  8
0
  6
SLD-SOLID
 62
     7
100
AcDbLine
 10
236.3936317902
 20
105.9433381407
 30
0.0
 11
236.3936317902
 21
106.2773821278
 31
0.0
  0
SPLINE
  5
1D6
330
1F
100
AcDbEntity
  8
0
  6
SLD-SOLID
 62
     7
100
AcDbSpline
210
0.0
220
0.0
230
1.0
 70
     8
 71
     3
 72
    15
 73
    11
 74
     0
 42
0.000000001
 43
0.00000001
 40
0.0
 40
0.0
 40
0.0
 40
0.0
 40
0.138395883732636
 40
0.2698711435185703
 40
0.3952737389719832
 40
0.5139802029772993
 40
0.6311187908923167
 40
0.7514363167928999
 40
0.8740333432057816
 40
1.0
 40
1.0
 40
1.0
 40
1.0
 10
237.1551871865214
 20
105.7832245879533
 30
0.0
 10
237.1190038245532
 20
105.7836268144265
 30
0.0
 10
237.0484464856545
 20
105.7844111536379
 30
0.0
 10
236.9453632213029
 20
105.7924192117128
 30
0.0
 10
236.8479187141193
 20
105.8047270230183
 30
0.0
 10
236.7550760050321
 20
105.8223710536276
 30
0.0
 10
236.6649129629471
 20
105.8457786700229
 30
0.0
 10
236.5749395822951
 20
105.8734526275605
 30
0.0
 10
236.4838790424311
 20
105.9053321215557
 30
0.0
 10
236.4239849509681
 20
105.9305554786365
 30
0.0
 10
236.3936319309051
 20
105.9433381262205
 30
0.0
  0
SPLINE
  5
1D7
330
1F
100
AcDbEntity
  8
0
  6
SLD-SOLID
 62
     7
100
AcDbSpline
210
0.0
220
0.0
230
1.0
 70
     8
 71
     3
 72
    15
 73
    11
 74
     0
 42
0.000000001
 43
0.00000001
 40
0.0
 40
0.0
 40
0.0
 40
0.0
 40
0.1093762626810184
 40
0.2197856263699316
 40
0.3337354138417866
 40
0.4504044938819237
 40
0.5731494752474399
 40
0.7052672342377319
 40
0.8470508712264784
 40
1.0
 40
1.0
 40
1.0
 40
1.0
 10
237.7671947718779
 20
105.9734102120879
 30
0.0
 10
237.7482062566689
 20
105.9589700343006
 30
0.0
 10
237.7100498723972
 20
105.9299532856743
 30
0.0
 10
237.6475716448315
 20
105.8923737517349
 30
0.0
 10
237.5804940970139
 20
105.8601705683662
 30
0.0
 10
237.5087157928275
 20
105.8319621764692
 30
0.0
 10
237.4306341826523
 20
105.809939062546
 30
0.0
 10
237.3454900509062
 20
105.7943212435468
 30
0.0
 10
237.2527891326831
 20
105.7850194287556
 30
0.0
 10
237.188532588277
 20
105.7838377897386
 30
0.0
 10
237.1551871865214
 20
105.7832245879533
 30
0.0
  0
SPLINE
  5
1D8
330
1F
100
AcDbEntity
  8
0
  6
SLD-SOLID
 62
     7
100
AcDbSpline
210
0.0
220
0.0
230
1.0
 70
     8
 71
     3
 72
    15
 73
    11
 74
     0
 42
0.000000001
 43
0.00000001
 40
0.0
 40
0.0
 40
0.0
 40
0.0
 40
0.119779818416103
 40
0.2402216975985294
 40
0.3641183838755973
 40
0.491522768512145
 40
0.6196754633466552
 40
0.7458916893167501
 40
0.8721818653816417
 40
1.0
 40
1.0
 40
1.0
 40
1.0
 10
237.9801376501825
 20
106.4155511502472
 30
0.0
 10
237.9793514796695
 20
106.3953318671302
 30
0.0
 10
237.9777747932314
 20
106.3547815425528
 30
0.0
 10
237.9674660183487
 20
106.293971145316
 30
0.0
 10
237.9491577879279
 20
106.2338178432398
 30
0.0
 10
237.9249380176661
 20
106.1744470180354
 30
0.0
 10
237.894989223242
 20
106.1171798278947
 30
0.0
 10
237.8577079029959
 20
106.0647115160208
 30
0.0
 10
237.8161762535068
 20
106.0154860096297
 30
0.0
 10
237.7835872518689
 20
105.987491588281
 30
0.0
 10
237.7671947718779
 20
105.9734102120879
 30
0.0
  0
SPLINE
  5
1D9
330
1F
100
AcDbEntity
  8
0
  6
SLD-SOLID
 62
     7
100
AcDbSpline
210
0.0
220
0.0
230
1.0
 70
     8
 71
     3
 72
    23
 73
    19
 74
     0
 42
0.000000001
 43
0.00000001
 40
0.0
 40
0.0
 40
0.0
 40
0.0
 40
0.0751654121666886
 40
0.1466391917970247
 40
0.2151310888912575
 40
0.2804067798100484
 40
0.3423148361407452
 40
0.4018062055654697
 40
0.4598162295847393
 40
0.5153089454089105
 40
0.57023655766441
 40
0.6253730398192836
 40
0.681998376800941
 40
0.7398028123742753
 40
0.800236682524138
 40
0.8635457338940474
 40
0.9298674995776568
 40
1.0
 40
1.0
 40
1.0
 40
1.0
 10
237.5144266987758
 20
106.9499402437026
 30
0.0
 10
237.5331853318912
 20
106.9447350308518
 30
0.0
 10
237.5697812969763
 20
106.9345802510992
 30
0.0
 10
237.6223786920501
 20
106.9161114244251
 30
0.0
 10
237.6715589029536
 20
106.8959192371417
 30
0.0
 10
237.7171769449334
 20
106.8737454459246
 30
0.0
 10
237.7587711156492
 20
106.8490494492124
 30
0.0
 10
237.7973687929783
 20
106.8231302924391
 30
0.0
 10
237.8321704708458
 20
106.7948113124946
 30
0.0
 10
237.8634329356775
 20
106.764349344833
 30
0.0
 10
237.8915649673112
 20
106.7318619829441
 30
0.0
 10
237.91505312497
 20
106.6955346931508
 30
0.0
 10
237.9355855872139
 20
106.6566322952368
 30
0.0
 10
237.9516443750801
 20
106.6142143764374
 30
0.0
 10
237.9649469433031
 20
106.5690502923695
 30
0.0
 10
237.9733754423436
 20
106.5205015238553
 30
0.0
 10
237.979526764532
 20
106.4690797427506
 30
0.0
 10
237.9799302654654
 20
106.4337231469314
 30
0.0
 10
237.9801376501825
 20
106.4155511502472
 30
0.0
  0
LINE
  5
1DA
330
1F
100
AcDbEntity
  8
0
  6
SLD-SOLID
 62
     7
100
AcDbLine
 10
225.5502067324
 20
104.0573576566
 30
0.0
 11
225.5502067324
 21
104.0463853962
 31
0.0
  0
SPLINE
  5
1DB
330
1F
100
AcDbEntity
  8
0
  6
SLD-SOLID
 62
     7
100
AcDbSpline
210
0.0
220
0.0
230
1.0
 70
     8
 71
     3
 72
    15
 73
    11
 74
     0
 42
0.000000001
 43
0.00000001
 40
0.0
 40
0.0
 40
0.0
 40
0.0
 40
0.135431350528543
 40
0.2625253862276895
 40
0.3850207899182446
 40
0.5055598721714757
 40
0.6263115760866943
 40
0.7470410464409225
 40
0.8712388643519938
 40
1.0
 40
1.0
 40
1.0
 40
1.0
 10
225.8212618508022
 20
104.4747094140576
 30
0.0
 10
225.8205032881058
 20
104.4509289397554
 30
0.0
 10
225.8190328607335
 20
104.4048319453999
 30
0.0
 10
225.8047828806164
 20
104.3384658645043
 30
0.0
 10
225.7817166940858
 20
104.2774845212434
 30
0.0
 10
225.748536268917
 20
104.2226125175545
 30
0.0
 10
225.7079725503633
 20
104.1735515563608
 30
0.0
 10
225.6615431398758
 20
104.1291206399082
 30
0.0
 10
225.608852239648
 20
104.089769249056
 30
0.0
 10
225.5699889071953
 20
104.0682906577073
 30
0.0
 10
225.5502066984565
 20
104.0573576277621
 30
0.0
  0
SPLINE
  5
1DC
330
1F
100
AcDbEntity
  8
0
  6
SLD-SOLID
 62
     7
100
AcDbSpline
210
0.0
220
0.0
230
1.0
 70
     8
 71
     3
 72
    15
 73
    11
 74
     0
 42
0.000000001
 43
0.00000001
 40
0.0
 40
0.0
 40
0.0
 40
0.0
 40
0.1334662010766523
 40
0.2576425233118423
 40
0.3770183226342612
 40
0.4931886150663831
 40
0.6107601423166085
 40
0.732890691486317
 40
0.862283368665848
 40
0.9999999999999999
 40
0.9999999999999999
 40
0.9999999999999999
 40
0.9999999999999999
 10
225.6095381111139
 20
104.8526423850945
 30
0.0
 10
225.6272070094839
 20
104.8424346697405
 30
0.0
 10
225.6613149673298
 20
104.8227297442998
 30
0.0
 10
225.7058273521702
 20
104.7858197183859
 30
0.0
 10
225.7428975494724
 20
104.7450398163846
 30
0.0
 10
225.77222452371
 20
104.6995003070193
 30
0.0
 10
225.7941535795389
 20
104.6495985421532
 30
0.0
 10
225.8101298622814
 20
104.5954180301582
 30
0.0
 10
225.8194204823875
 20
104.5365267868124
 30
0.0
 10
225.820635440708
 20
104.4957388973386
 30
0.0
 10
225.8212618508022
 20
104.4747094140576
 30
0.0
  0
SPLINE
  5
1DD
330
1F
100
AcDbEntity
  8
0
  6
SLD-SOLID
 62
     7
100
AcDbSpline
210
0.0
220
0.0
230
1.0
 70
     8
 71
     3
 72
    19
 73
    15
 74
     0
 42
0.000000001
 43
0.00000001
 40
0.0
 40
0.0
 40
0.0
 40
0.0
 40
0.096739674129717
 40
0.1868927902861626
 40
0.2704672167708685
 40
0.3489375065269757
 40
0.4201603335311133
 40
0.4855858843160354
 40
0.5445067203710997
 40
0.5977787975660718
 40
0.6978128734558183
 40
0.7975727576670734
 40
0.8987014769210815
 40
1.0
 40
1.0
 40
1.0
 40
1.0
 10
225.067834185961
 20
104.9387948473094
 30
0.0
 10
225.0857151361998
 20
104.9386905986774
 30
0.0
 10
225.1202596052935
 20
104.9384891992218
 30
0.0
 10
225.1702475565789
 20
104.9376919952954
 30
0.0
 10
225.2168456502704
 20
104.9364262998702
 30
0.0
 10
225.2599433491068
 20
104.935016873401
 30
0.0
 10
225.2996276866768
 20
104.9324513732792
 30
0.0
 10
225.3356661703604
 20
104.9296477194723
 30
0.0
 10
225.3683586783632
 20
104.9265526641454
 30
0.0
 10
225.4072114620541
 20
104.921090876934
 30
0.0
 10
225.4532190949495
 20
104.9123765470989
 30
0.0
 10
225.5068038558948
 20
104.8972096272099
 30
0.0
 10
225.559135160336
 20
104.8774209041116
 30
0.0
 10
225.592727734603
 20
104.860906509072
 30
0.0
 10
225.6095381111139
 20
104.8526423850945
 30
0.0
  0
LINE
  5
1DE
330
1F
100
AcDbEntity
  8
0
  6
SLD-SOLID
 62
     7
100
AcDbLine
 10
224.4688308615
 20
104.9387948398
 30
0.0
 11
225.0678342585
 21
104.9387948398
 31
0.0
  0
LINE
  5
1DF
330
1F
100
AcDbEntity
  8
0
  6
SLD-SOLID
 62
     7
100
AcDbLine
 10
224.4688308615
 20
102.8841398758
 30
0.0
 11
224.4688308615
 21
104.9387948398
 31
0.0
  0
LINE
  5
1E0
330
1F
100
AcDbEntity
  8
0
  6
SLD-SOLID
 62
     7
100
AcDbLine
 10
225.1901546311
 20
102.8841398758
 30
0.0
 11
224.4688308615
 21
102.8841398758
 31
0.0
  0
SPLINE
  5
1E1
330
1F
100
AcDbEntity
  8
0
  6
SLD-SOLID
 62
     7
100
AcDbSpline
210
0.0
220
0.0
230
1.0
 70
     8
 71
     3
 72
    15
 73
    11
 74
     0
 42
0.000000001
 43
0.00000001
 40
0.0
 40
0.0
 40
0.0
 40
0.0
 40
0.1134045825794923
 40
0.2253914394092186
 40
0.3358375342771752
 40
0.4475408704198453
 40
0.56524988226771
 40
0.6959983323304234
 40
0.8411895986933365
 40
1.0
 40
1.0
 40
1.0
 40
1.0
 10
225.7915961444735
 20
103.0515682693574
 30
0.0
 10
225.7722121899098
 20
103.0372360456426
 30
0.0
 10
225.7336866090101
 20
103.0087507723005
 30
0.0
 10
225.6717320402756
 20
102.9730145040174
 30
0.0
 10
225.6068532500333
 20
102.9439736767401
 30
0.0
 10
225.5383634551255
 20
102.9207107578561
 30
0.0
 10
225.4635354706793
 20
102.9041218649899
 30
0.0
 10
225.3806314785068
 20
102.8927357826967
 30
0.0
 10
225.2884951954884
 20
102.8853501094183
 30
0.0
 10
225.2238993053063
 20
102.8845551736535
 30
0.0
 10
225.1901544271245
 20
102.8841398993927
 30
0.0
  0
SPLINE
  5
1E2
330
1F
100
AcDbEntity
  8
0
  6
SLD-SOLID
 62
     7
100
AcDbSpline
210
0.0
220
0.0
230
1.0
 70
     8
 71
     3
 72
    15
 73
    11
 74
     0
 42
0.000000001
 43
0.00000001
 40
0.0
 40
0.0
 40
0.0
 40
0.0
 40
0.1409007368762458
 40
0.2738791790272248
 40
0.4021896055308887
 40
0.5269778580158062
 40
0.6484963622640894
 40
0.7667002025346865
 40
0.8838344637388585
 40
1.0
 40
1.0
 40
1.0
 40
1.0
 10
226.003319884162
 20
103.5124026662992
 30
0.0
 10
226.0026294775679
 20
103.4877091628184
 30
0.0
 10
226.0012874832294
 20
103.4397105745175
 30
0.0
 10
225.9905160137527
 20
103.3698876556573
 30
0.0
 10
225.9727919439823
 20
103.3044582247647
 30
0.0
 10
225.9474486299391
 20
103.2437066716968
 30
0.0
 10
225.9158297109232
 20
103.1881074608197
 30
0.0
 10
225.8801646302276
 20
103.1366298001751
 30
0.0
 10
225.8385812519367
 20
103.0908906910358
 30
0.0
 10
225.8072144324066
 20
103.0646394090686
 30
0.0
 10
225.7915961444735
 20
103.0515682693574
 30
0.0
  0
SPLINE
  5
1E3
330
1F
100
AcDbEntity
  8
0
  6
SLD-SOLID
 62
     7
100
AcDbSpline
210
0.0
220
0.0
230
1.0
 70
     8
 71
     3
 72
    23
 73
    19
 74
     0
 42
0.000000001
 43
0.00000001
 40
0.0
 40
0.0
 40
0.0
 40
0.0
 40
0.0687121495540446
 40
0.134823351671607
 40
0.1993489638344453
 40
0.2615086450846674
 40
0.3229213080872078
 40
0.3828706989830162
 40
0.4430075786583642
 40
0.5030460997279668
 40
0.56269900086607
 40
0.6221463198838911
 40
0.6816977001699636
 40
0.7416916727047259
 40
0.8036336469964673
 40
0.8663701867776599
 40
0.932043596906022
 40
1.0
 40
1.0
 40
1.0
 40
1.0
 10
225.5502066984565
 20
104.0463853802158
 30
0.0
 10
225.567335504322
 20
104.0425599009881
 30
0.0
 10
225.600944742745
 20
104.035053747643
 30
0.0
 10
225.6495997046695
 20
104.0198852678002
 30
0.0
 10
225.6954048619856
 20
104.0017194061568
 30
0.0
 10
225.7385118456717
 20
103.9804157098608
 30
0.0
 10
225.7786765239545
 20
103.9561558334884
 30
0.0
 10
225.8160344945889
 20
103.9286238549974
 30
0.0
 10
225.8505615411606
 20
103.8981504085635
 30
0.0
 10
225.8822494685188
 20
103.8648390504679
 30
0.0
 10
225.9108118942238
 20
103.8290365615053
 30
0.0
 10
225.9357945060128
 20
103.7907631280397
 30
0.0
 10
225.9564139398976
 20
103.7498903350036
 30
0.0
 10
225.9737144513488
 20
103.7068383971507
 30
0.0
 10
225.9870183954067
 20
103.6615166582935
 30
0.0
 10
225.996344626808
 20
103.6137637655446
 30
0.0
 10
226.0021083837634
 20
103.5638832010956
 30
0.0
 10
226.0029114772236
 20
103.5297571860578
 30
0.0
 10
226.003319884162
 20
103.5124026662992
 30
0.0
  0
LINE
  5
1E4
330
1F
100
AcDbEntity
  8
0
  6
SLD-SOLID
 62
     7
100
AcDbLine
 10
230.1004383822
 20
102.6240571038
 30
0.0
 11
230.1386380618
 21
102.6240571038
 31
0.0
  0
SPLINE
  5
1E5
330
1F
100
AcDbEntity
  8
0
  6
SLD-SOLID
 62
     7
100
AcDbSpline
210
0.0
220
0.0
230
1.0
 70
     8
 71
     3
 72
    15
 73
    11
 74
     0
 42
0.000000001
 43
0.00000001
 40
0.0
 40
0.0
 40
0.0
 40
0.0
 40
0.1180260458129053
 40
0.2460120196536347
 40
0.3861254246280938
 40
0.5387801019104138
 40
0.6859928419595578
 40
0.8134270452387178
 40
0.917361719283178
 40
1.0
 40
1.0
 40
1.0
 40
1.0
 10
229.8484830798082
 20
102.5720404136332
 30
0.0
 10
229.8586494271066
 20
102.5723262531535
 30
0.0
 10
229.879840034774
 20
102.572922053489
 30
0.0
 10
229.9129592031889
 20
102.5763231196667
 30
0.0
 10
229.9487682387867
 20
102.5820558306264
 30
0.0
 10
229.9858120187745
 20
102.5901169873337
 30
0.0
 10
230.0216538237153
 20
102.5985550762878
 30
0.0
 10
230.0529937532682
 20
102.6075768907134
 30
0.0
 10
230.0789199694181
 20
102.615378814739
 30
0.0
 10
230.0938330023669
 20
102.6213931018265
 30
0.0
 10
230.1004383938328
 20
102.6240569945931
 30
0.0
  0
SPLINE
  5
1E6
330
1F
100
AcDbEntity
  8
0
  6
SLD-SOLID
 62
     7
100
AcDbSpline
210
0.0
220
0.0
230
1.0
 70
     8
 71
     3
 72
    19
 73
    15
 74
     0
 42
0.000000001
 43
0.00000001
 40
0.0
 40
0.0
 40
0.0
 40
0.0
 40
0.1382536399707092
 40
0.2625818875452701
 40
0.3763710320188413
 40
0.482419154542603
 40
0.5348193035125065
 40
0.5882404164254444
 40
0.645221015713341
 40
0.7056580679421591
 40
0.7703020233223358
 40
0.8409061324764973
 40
0.916920369926868
 40
1.0
 40
1.0
 40
1.0
 40
1.0
 10
229.5144390989563
 20
102.9060843944852
 30
0.0
 10
229.5160489442199
 20
102.8810743207427
 30
0.0
 10
229.5191064854756
 20
102.8335732757624
 30
0.0
 10
229.5342379237708
 20
102.7668134124166
 30
0.0
 10
229.5572039869379
 20
102.708592264915
 30
0.0
 10
229.583813586751
 20
102.6666749075106
 30
0.0
 10
229.6098391963772
 20
102.6382431876439
 30
0.0
 10
229.6337958416092
 20
102.6208686680858
 30
0.0
 10
229.6604965017494
 20
102.605082920061
 30
0.0
 10
229.6914075096387
 20
102.5933562319075
 30
0.0
 10
229.7253993049208
 20
102.5831490630274
 30
0.0
 10
229.7632821280758
 20
102.5774068791961
 30
0.0
 10
229.8045965339242
 20
102.5723512925873
 30
0.0
 10
229.8334274356795
 20
102.5721470632409
 30
0.0
 10
229.8484830798082
 20
102.5720404136332
 30
0.0
  0
SPLINE
  5
1E7
330
1F
100
AcDbEntity
  8
0
  6
SLD-SOLID
 62
     7
100
AcDbSpline
210
0.0
220
0.0
230
1.0
 70
     8
 71
     3
 72
    23
 73
    19
 74
     0
 42
0.000000001
 43
0.00000001
 40
0.0
 40
0.0
 40
0.0
 40
0.0
 40
0.0755411438013994
 40
0.148330943442821
 40
0.2185645796642544
 40
0.2862113773881361
 40
0.3522113397393868
 40
0.4162511969735729
 40
0.4789968050702688
 40
0.5406620787399432
 40
0.6008558499265478
 40
0.6594874724096383
 40
0.7169416124705639
 40
0.7736269126381349
 40
0.8297104942155993
 40
0.8860494333540183
 40
0.9427117086551209
 40
1.0
 40
1.0
 40
1.0
 40
1.0
 10
230.0866214895154
 20
103.9110609938123
 30
0.0
 10
230.0861829300599
 20
103.8800242644023
 30
0.0
 10
230.0853217842721
 20
103.8190812190219
 30
0.0
 10
230.0776751195824
 20
103.7295620168608
 30
0.0
 10
230.0662254366665
 20
103.6437397068744
 30
0.0
 10
230.0494375327605
 20
103.5616215190868
 30
0.0
 10
230.0280782611136
 20
103.4832104682537
 30
0.0
 10
230.0015924007394
 20
103.4084927684991
 30
0.0
 10
229.9701932627003
 20
103.3376592907726
 30
0.0
 10
229.9345612493868
 20
103.270641292492
 30
0.0
 10
229.894744295404
 20
103.2080074214523
 30
0.0
 10
229.8511825107986
 20
103.1500669030637
 30
0.0
 10
229.8039198745171
 20
103.0970054203188
 30
0.0
 10
229.7529929406735
 20
103.0489635204083
 30
0.0
 10
229.6985906978649
 20
103.0056440437645
 30
0.0
 10
229.6408707671109
 20
102.9668671967297
 30
0.0
 10
229.5793179749971
 20
102.9333475540293
 30
0.0
 10
229.5361444524979
 20
102.9152053372739
 30
0.0
 10
229.5144390989563
 20
102.9060843944852
 30
0.0
  0
SPLINE
  5
1E8
330
1F
100
AcDbEntity
  8
0
  6
SLD-SOLID
 62
     7
100
AcDbSpline
210
0.0
220
0.0
230
1.0
 70
     8
 71
     3
 72
    15
 73
    11
 74
     0
 42
0.000000001
 43
0.00000001
 40
0.0
 40
0.0
 40
0.0
 40
0.0
 40
0.1098547588818097
 40
0.2218235284571729
 40
0.3376978758856743
 40
0.4588356993060732
 40
0.5848022906294197
 40
0.7163538247597345
 40
0.8545033807620632
 40
1.0
 40
1.0
 40
1.0
 40
1.0
 10
229.8285704824095
 20
104.7095967874548
 30
0.0
 10
229.8488300125456
 20
104.6855367734346
 30
0.0
 10
229.8897389408925
 20
104.6369537419938
 30
0.0
 10
229.9405120725416
 20
104.5544595035773
 30
0.0
 10
229.9852090050022
 20
104.4651030705262
 30
0.0
 10
230.0218304386912
 20
104.367794511387
 30
0.0
 10
230.0513107681114
 20
104.2634478351058
 30
0.0
 10
230.0715756463898
 20
104.1520007581955
 30
0.0
 10
230.0845727157541
 20
104.0338256410737
 30
0.0
 10
230.0859268730388
 20
103.9526831330356
 30
0.0
 10
230.0866214895154
 20
103.9110609938123
 30
0.0
  0
SPLINE
  5
1E9
330
1F
100
AcDbEntity
  8
0
  6
SLD-SOLID
 62
     7
100
AcDbSpline
210
0.0
220
0.0
230
1.0
 70
     8
 71
     3
 72
    15
 73
    11
 74
     0
 42
0.000000001
 43
0.00000001
 40
0.0
 40
0.0
 40
0.0
 40
0.0
 40
0.1395096289278314
 40
0.2721984508134785
 40
0.400263434375469
 40
0.5246770396869458
 40
0.645826861465457
 40
0.7650924343224664
 40
0.8820210912425186
 40
1.0
 40
1.0
 40
1.0
 40
1.0
 10
229.1365061279194
 20
104.9908114282693
 30
0.0
 10
229.1723182891345
 20
104.9900466160394
 30
0.0
 10
229.2421917084673
 20
104.9885543842434
 30
0.0
 10
229.3440869705857
 20
104.9741805706768
 30
0.0
 10
229.4405121465832
 20
104.9518482811716
 30
0.0
 10
229.5309319514906
 20
104.9194321782807
 30
0.0
 10
229.6156271804055
 20
104.8791793465796
 30
0.0
 10
229.6936481604176
 20
104.8307387246393
 30
0.0
 10
229.7656115563288
 20
104.7747910777129
 30
0.0
 10
229.8075217147926
 20
104.7313928940757
 30
0.0
 10
229.8285704824095
 20
104.7095967874548
 30
0.0
  0
SPLINE
  5
1EA
330
1F
100
AcDbEntity
  8
0
  6
SLD-SOLID
 62
     7
100
AcDbSpline
210
0.0
220
0.0
230
1.0
 70
     8
 71
     3
 72
    15
 73
    11
 74
     0
 42
0.000000001
 43
0.00000001
 40
0.0
 40
0.0
 40
0.0
 40
0.0
 40
0.1182121234008071
 40
0.2364455537483776
 40
0.3565741460782606
 40
0.4798783288897373
 40
0.6058624841179887
 40
0.7341831899954775
 40
0.8649688982559044
 40
1.0
 40
1.0
 40
1.0
 40
1.0
 10
228.4460672915843
 20
104.7095967874548
 30
0.0
 10
228.4669840700876
 20
104.7315116663578
 30
0.0
 10
228.5088213972039
 20
104.7753453741747
 30
0.0
 10
228.5807089783272
 20
104.8321780152325
 30
0.0
 10
228.6601894810634
 20
104.8800512036094
 30
0.0
 10
228.7459703977523
 20
104.9203097885685
 30
0.0
 10
228.8375374368212
 20
104.9519148814607
 30
0.0
 10
228.9336331447467
 20
104.9746083019581
 30
0.0
 10
229.0338366894884
 20
104.9883314542548
 30
0.0
 10
229.1019205233037
 20
104.9899760151022
 30
0.0
 10
229.1365061279194
 20
104.9908114282693
 30
0.0
  0
SPLINE
  5
1EB
330
1F
100
AcDbEntity
  8
0
  6
SLD-SOLID
 62
     7
100
AcDbSpline
210
0.0
220
0.0
230
1.0
 70
     8
 71
     3
 72
    15
 73
    11
 74
     0
 42
0.000000001
 43
0.00000001
 40
0.0
 40
0.0
 40
0.0
 40
0.0
 40
0.1440471923994897
 40
0.2812270333765628
 40
0.4117342507947048
 40
0.5370916682873128
 40
0.6580372759518903
 40
0.7747368868320134
 40
0.8883899708332798
 40
1.0
 40
1.0
 40
1.0
 40
1.0
 10
228.1880162844784
 20
103.9106546142736
 30
0.0
 10
228.1887047666279
 20
103.9518720415709
 30
0.0
 10
228.190048908011
 20
104.0323418834968
 30
0.0
 10
228.2031683806513
 20
104.1495248087999
 30
0.0
 10
228.222942988801
 20
104.2603116998586
 30
0.0
 10
228.2520601702148
 20
104.3642408158295
 30
0.0
 10
228.2883528035095
 20
104.4616834718938
 30
0.0
 10
228.3328728464241
 20
104.5519230234015
 30
0.0
 10
228.3846566396205
 20
104.6352293801285
 30
0.0
 10
228.4257212212228
 20
104.684957991844
 30
0.0
 10
228.4460672915843
 20
104.7095967874548
 30
0.0
  0
SPLINE
  5
1EC
330
1F
100
AcDbEntity
  8
0
  6
SLD-SOLID
 62
     7
100
AcDbSpline
210
0.0
220
0.0
230
1.0
 70
     8
 71
     3
 72
    15
 73
    11
 74
     0
 42
0.000000001
 43
0.00000001
 40
0.0
 40
0.0
 40
0.0
 40
0.0
 40
0.10887186965179
 40
0.2207986158587513
 40
0.3359826853622173
 40
0.4566219984155296
 40
0.5829933180737745
 40
0.7149675248572313
 40
0.8535609528352989
 40
1.0
 40
1.0
 40
1.0
 40
1.0
 10
228.444848152968
 20
103.1145570978636
 30
0.0
 10
228.424900200784
 20
103.1383739300206
 30
0.0
 10
228.3844445693565
 20
103.1866758797457
 30
0.0
 10
228.3337218377245
 20
103.2682582193661
 30
0.0
 10
228.2895346147996
 20
103.3571189667958
 30
0.0
 10
228.2526233806748
 20
103.4537133402709
 30
0.0
 10
228.2233599197771
 20
103.5578743357781
 30
0.0
 10
228.2030527232587
 20
103.6693047496555
 30
0.0
 10
228.1900527262027
 20
103.7876194130422
 30
0.0
 10
228.1887074415312
 20
103.8688971477792
 30
0.0
 10
228.1880162844784
 20
103.9106546142736
 30
0.0
  0
SPLINE
  5
1ED
330
1F
100
AcDbEntity
  8
0
  6
SLD-SOLID
 62
     7
100
AcDbSpline
210
0.0
220
0.0
230
1.0
 70
     8
 71
     3
 72
    15
 73
    11
 74
     0
 42
0.000000001
 43
0.00000001
 40
0.0
 40
0.0
 40
0.0
 40
0.0
 40
0.1368309986537671
 40
0.268434173500071
 40
0.3958259407263954
 40
0.5205243981053198
 40
0.6425911018977788
 40
0.7618209262601466
 40
0.8809385364926475
 40
1.0
 40
1.0
 40
1.0
 40
1.0
 10
229.1365061279194
 20
102.8321233184328
 30
0.0
 10
229.1013698952215
 20
102.8328937990889
 30
0.0
 10
229.0324398597986
 20
102.8344053230867
 30
0.0
 10
228.9316850214112
 20
102.8488851890002
 30
0.0
 10
228.8355392090458
 20
102.8707885654184
 30
0.0
 10
228.7447737327114
 20
102.9027193638456
 30
0.0
 10
228.6595947863739
 20
102.9427524609338
 30
0.0
 10
228.5808997671336
 20
102.9916752448405
 30
0.0
 10
228.5083907353137
 20
103.0483346984423
 30
0.0
 10
228.4660256847997
 20
103.0924864340671
 30
0.0
 10
228.444848152968
 20
103.1145570978636
 30
0.0
  0
SPLINE
  5
1EE
330
1F
100
AcDbEntity
  8
0
  6
SLD-SOLID
 62
     7
100
AcDbSpline
210
0.0
220
0.0
230
1.0
 70
     8
 71
     3
 72
    11
 73
     7
 74
     0
 42
0.000000001
 43
0.00000001
 40
0.0
 40
0.0
 40
0.0
 40
0.0
 40
0.2640484710951687
 40
0.5191358345278282
 40
0.7631804784687047
 40
1.0
 40
1.0
 40
1.0
 40
1.0
 10
229.2543561941567
 20
102.8418764273628
 30
0.0
 10
229.2440814591611
 20
102.8400965348711
 30
0.0
 10
229.2238806865363
 20
102.8365971547376
 30
0.0
 10
229.1938389862125
 20
102.834084429106
 30
0.0
 10
229.1648406734799
 20
102.8322662156395
 30
0.0
 10
229.1458558925079
 20
102.8321704713063
 30
0.0
 10
229.1365061279194
 20
102.8321233184328
 30
0.0
  0
SPLINE
  5
1EF
330
1F
100
AcDbEntity
  8
0
  6
SLD-SOLID
 62
     7
100
AcDbSpline
210
0.0
220
0.0
230
1.0
 70
     8
 71
     3
 72
    23
 73
    19
 74
     0
 42
0.000000001
 43
0.00000001
 40
0.0
 40
0.0
 40
0.0
 40
0.0
 40
0.0707149303533849
 40
0.1383906187789522
 40
0.2034230975047537
 40
0.2657923960789829
 40
0.3260210615618724
 40
0.385771241440172
 40
0.4443191053976501
 40
0.5025298156249327
 40
0.5610616686806399
 40
0.6188947832060195
 40
0.6774426471634981
 40
0.7367598775409787
 40
0.7981751251443641
 40
0.8622840553168474
 40
0.929529038003815
 40
0.9999999999999999
 40
0.9999999999999999
 40
0.9999999999999999
 40
0.9999999999999999
 10
229.8058132282396
 20
102.3379657993136
 30
0.0
 10
229.7860195327305
 20
102.3383369919692
 30
0.0
 10
229.7472828507353
 20
102.3390634238704
 30
0.0
 10
229.6906226871855
 20
102.3453010781667
 30
0.0
 10
229.6369008948625
 20
102.3553032240626
 30
0.0
 10
229.586278235448
 20
102.3695193862545
 30
0.0
 10
229.538581888825
 20
102.3879018358144
 30
0.0
 10
229.4940411576348
 20
102.4107006115266
 30
0.0
 10
229.4522201710454
 20
102.43713897492
 30
0.0
 10
229.4138470698443
 20
102.46784714076
 30
0.0
 10
229.378952667411
 20
102.502175687735
 30
0.0
 10
229.3481976317029
 20
102.5403894321202
 30
0.0
 10
229.3217021295895
 20
102.5819288248276
 30
0.0
 10
229.2996584606784
 20
102.6271074699852
 30
0.0
 10
229.2817959633246
 20
102.6757353865833
 30
0.0
 10
229.267956257544
 20
102.7279506173902
 30
0.0
 10
229.2586553544624
 20
102.7837555660077
 30
0.0
 10
229.2558114536029
 20
102.8222026011983
 30
0.0
 10
229.2543561941567
 20
102.8418764273628
 30
0.0
  0
SPLINE
  5
1F0
330
1F
100
AcDbEntity
  8
0
  6
SLD-SOLID
 62
     7
100
AcDbSpline
210
0.0
220
0.0
230
1.0
 70
     8
 71
     3
 72
    11
 73
     7
 74
     0
 42
0.000000001
 43
0.00000001
 40
0.0
 40
0.0
 40
0.0
 40
0.0
 40
0.2535118768429472
 40
0.5016981143043017
 40
0.74815192061437
 40
1.0
 40
1.0
 40
1.0
 40
1.0
 10
230.1386380704753
 20
102.376165475956
 30
0.0
 10
230.1109422221878
 20
102.3699541720072
 30
0.0
 10
230.0561323449036
 20
102.3576620477987
 30
0.0
 10
229.9731113151954
 20
102.3461039205691
 30
0.0
 10
229.8897722595997
 20
102.3395409379888
 30
0.0
 10
229.8340008197605
 20
102.3384946211074
 30
0.0
 10
229.8058132282396
 20
102.3379657993136
 30
0.0
  0
LINE
  5
1F1
330
1F
100
AcDbEntity
  8
0
  6
SLD-SOLID
 62
     7
100
AcDbLine
 10
230.1386380618
 20
102.6240571038
 30
0.0
 11
230.1386380618
 21
102.3761655771
 31
0.0
  0
LINE
  5
1F2
330
1F
100
AcDbEntity
  8
0
  6
SLD-SOLID
 62
     7
100
AcDbLine
 10
232.2453096326
 20
103.8984631988
 30
0.0
 11
233.1035832226
 21
103.8984631988
 31
0.0
  0
LINE
  5
1F3
330
1F
100
AcDbEntity
  8
0
  6
SLD-SOLID
 62
     7
100
AcDbLine
 10
232.2453096326
 20
103.6643886574
 30
0.0
 11
232.2453096326
 21
103.8984631988
 31
0.0
  0
LINE
  5
1F4
330
1F
100
AcDbEntity
  8
0
  6
SLD-SOLID
 62
     7
100
AcDbLine
 10
233.1035832226
 20
103.6643886574
 30
0.0
 11
232.2453096326
 21
103.6643886574
 31
0.0
  0
LINE
  5
1F5
330
1F
100
AcDbEntity
  8
0
  6
SLD-SOLID
 62
     7
100
AcDbLine
 10
233.1035832226
 20
103.8984631988
 30
0.0
 11
233.1035832226
 21
103.6643886574
 31
0.0
  0
SPLINE
  5
1F6
330
1F
100
AcDbEntity
  8
0
  6
SLD-SOLID
 62
     7
100
AcDbSpline
210
0.0
220
0.0
230
1.0
 70
     8
 71
     3
 72
    23
 73
    19
 74
     0
 42
0.000000001
 43
0.00000001
 40
0.0
 40
0.0
 40
0.0
 40
0.0
 40
0.0906329011836336
 40
0.1753653426288618
 40
0.2541102187879563
 40
0.3274215029633282
 40
0.3955560567886145
 40
0.4588739603350013
 40
0.5179348249732569
 40
0.5729694386300633
 40
0.6252987845255902
 40
0.6761318033419801
 40
0.7265933906285924
 40
0.7771870883272604
 40
0.8289458178959394
 40
0.8827904889383932
 40
0.9396206954251711
 40
1.0
 40
1.0
 40
1.0
 40
1.0
 10
235.2622712950269
 20
103.9102482347348
 30
0.0
 10
235.262807458697
 20
103.9548281452377
 30
0.0
 10
235.2638448802568
 20
104.0410856872296
 30
0.0
 10
235.2720542512787
 20
104.1658540564744
 30
0.0
 10
235.2850732906794
 20
104.281641223161
 30
0.0
 10
235.3041021407916
 20
104.3883360474529
 30
0.0
 10
235.3282881670061
 20
104.4861781402864
 30
0.0
 10
235.3576938233113
 20
104.5752703265836
 30
0.0
 10
235.3929380614125
 20
104.6552556040989
 30
0.0
 10
235.4337265799377
 20
104.7264232585572
 30
0.0
 10
235.4803816044393
 20
104.7889393220817
 30
0.0
 10
235.5332101178862
 20
104.84330386713
 30
0.0
 10
235.5926328198934
 20
104.8889637628237
 30
0.0
 10
235.6578120288437
 20
104.9268177222983
 30
0.0
 10
235.7292424562636
 20
104.9558215342603
 30
0.0
 10
235.8067678507221
 20
104.9757173118716
 30
0.0
 10
235.8900910433253
 20
104.9888217827492
 30
0.0
 10
235.9477809210621
 20
104.9901349587944
 30
0.0
 10
235.9774992832258
 20
104.9908114282693
 30
0.0
  0
SPLINE
  5
1F7
330
1F
100
AcDbEntity
  8
0
  6
SLD-SOLID
 62
     7
100
AcDbSpline
210
0.0
220
0.0
230
1.0
 70
     8
 71
     3
 72
    23
 73
    19
 74
     0
 42
0.000000001
 43
0.00000001
 40
0.0
 40
0.0
 40
0.0
 40
0.0
 40
0.0609726139191509
 40
0.1183879945613573
 40
0.1728742277214827
 40
0.2246695210592742
 40
0.2754008809859205
 40
0.3256802771256844
 40
0.3765492057640267
 40
0.4289720610265039
 40
0.4841475253492291
 40
0.5428865512447378
 40
0.6061622082093611
 40
0.6740109616371234
 40
0.7471027693500151
 40
0.8256295092907744
 40
0.9098541721358143
 40
1.0
 40
1.0
 40
1.0
 40
1.0
 10
235.9774992832258
 20
102.8321233184328
 30
0.0
 10
235.9475123244318
 20
102.8328099102016
 30
0.0
 10
235.8892878907652
 20
102.8341430369509
 30
0.0
 10
235.8050978338237
 20
102.8471221236645
 30
0.0
 10
235.7270657670423
 20
102.8674296889976
 30
0.0
 10
235.6554446662974
 20
102.8967265096898
 30
0.0
 10
235.5897563827269
 20
102.9336368999292
 30
0.0
 10
235.5308079827463
 20
102.9798470075589
 30
0.0
 10
235.4777808658899
 20
103.0338873710537
 30
0.0
 10
235.4317097369862
 20
103.0969868382541
 30
0.0
 10
235.3915138006733
 20
103.1683364322856
 30
0.0
 10
235.3563659908855
 20
103.2481773698134
 30
0.0
 10
235.3275494093498
 20
103.3370675704906
 30
0.0
 10
235.3037803916727
 20
103.4346480746223
 30
0.0
 10
235.2846658663465
 20
103.5408807300067
 30
0.0
 10
235.271544338042
 20
103.6561176807922
 30
0.0
 10
235.2639872596137
 20
103.7802400876198
 30
0.0
 10
235.2628560871074
 20
103.8659421136078
 30
0.0
 10
235.2622712950269
 20
103.9102482347348
 30
0.0
  0
SPLINE
  5
1F8
330
1F
100
AcDbEntity
  8
0
  6
SLD-SOLID
 62
     7
100
AcDbSpline
210
0.0
220
0.0
230
1.0
 70
     8
 71
     3
 72
    23
 73
    19
 74
     0
 42
0.000000001
 43
0.00000001
 40
0.0
 40
0.0
 40
0.0
 40
0.0
 40
0.0914072369269556
 40
0.1766411179085062
 40
0.2561617773375919
 40
0.329702547505299
 40
0.3981326595607566
 40
0.4614147486825464
 40
0.5201907225520733
 40
0.5750949351457791
 40
0.6271223329766319
 40
0.6777301011362217
 40
0.7276094883997966
 40
0.7779011121402818
 40
0.8296305654851194
 40
0.8834447804353315
 40
0.9399298216911767
 40
1.0
 40
1.0
 40
1.0
 40
1.0
 10
236.6927272714246
 20
103.9126865119673
 30
0.0
 10
236.6921948400858
 20
103.8677002166771
 30
0.0
 10
236.6911659361382
 20
103.780765858329
 30
0.0
 10
236.6829186454106
 20
103.6549165964111
 30
0.0
 10
236.6699522234368
 20
103.5383176190611
 30
0.0
 10
236.6510252573964
 20
103.4308772338084
 30
0.0
 10
236.626245014643
 20
103.3328780009409
 30
0.0
 10
236.5969893190403
 20
103.2437016052018
 30
0.0
 10
236.5616802315726
 20
103.1639219537994
 30
0.0
 10
236.520585092156
 20
103.093250347472
 30
0.0
 10
236.4732381882831
 20
103.0316258336505
 30
0.0
 10
236.4207237935273
 20
102.9777007791938
 30
0.0
 10
236.3614764377974
 20
102.9325715789027
 30
0.0
 10
236.2961419323201
 20
102.8958500238394
 30
0.0
 10
236.2249693472005
 20
102.8666807940231
 30
0.0
 10
236.1475766391133
 20
102.8467464817701
 30
0.0
 10
236.064465615644
 20
102.8342438104491
 30
0.0
 10
236.0070764740382
 20
102.8328444963328
 30
0.0
 10
235.9774992832258
 20
102.8321233184328
 30
0.0
  0
SPLINE
  5
1F9
330
1F
100
AcDbEntity
  8
0
  6
SLD-SOLID
 62
     7
100
AcDbSpline
210
0.0
220
0.0
230
1.0
 70
     8
 71
     3
 72
    23
 73
    19
 74
     0
 42
0.000000001
 43
0.00000001
 40
0.0
 40
0.0
 40
0.0
 40
0.0
 40
0.0610360235752138
 40
0.1185111144595317
 40
0.1731258378212023
 40
0.2253349020485208
 40
0.2761557307410261
 40
0.3266572709749726
 40
0.3779751895595523
 40
0.4308974413397409
 40
0.4863702555085642
 40
0.5456756637640778
 40
0.6087552048826698
 40
0.6767411704922491
 40
0.749317240213279
 40
0.8273775877960802
 40
0.910863762528566
 40
1.0
 40
1.0
 40
1.0
 40
1.0
 10
235.9774992832258
 20
104.9908114282693
 30
0.0
 10
236.0074821857067
 20
104.9901111263434
 30
0.0
 10
236.0656987433986
 20
104.9887513791508
 30
0.0
 10
236.149979257443
 20
104.9759545401785
 30
0.0
 10
236.228020429625
 20
104.9549278885308
 30
0.0
 10
236.29995787059
 20
104.9257088649426
 30
0.0
 10
236.3651836854964
 20
104.8874287882106
 30
0.0
 10
236.4243617876962
 20
104.8410852937883
 30
0.0
 10
236.4772253616819
 20
104.7861435470544
 30
0.0
 10
236.5231702973658
 20
104.7223348001854
 30
0.0
 10
236.5636150900566
 20
104.6504484909928
 30
0.0
 10
236.5983889831873
 20
104.5701823366229
 30
0.0
 10
236.6274233277346
 20
104.481236227176
 30
0.0
 10
236.6517713363563
 20
104.3841763490543
 30
0.0
 10
236.6701642565286
 20
104.278344658407
 30
0.0
 10
236.6834871922469
 20
104.1641181266122
 30
0.0
 10
236.6909933191836
 20
104.0412031117116
 30
0.0
 10
236.6921368115529
 20
103.956450055858
 30
0.0
 10
236.6927272714246
 20
103.9126865119673
 30
0.0
  0
LINE
  5
1FA
330
1F
100
AcDbEntity
  8
0
  6
SLD-SOLID
 62
     7
100
AcDbLine
 10
205.2637416687
 20
130.5507673052
 30
0.0
 11
205.0637420084
 21
130.5507673052
 31
0.0
  0
LINE
  5
1FB
330
1F
100
AcDbEntity
  8
0
  6
SLD-SOLID
 62
     7
100
AcDbLine
 10
205.2637416687
 20
130.7507669654
 30
0.0
 11
205.0637420084
 21
130.5507673052
 31
0.0
  0
LINE
  5
1FC
330
1F
100
AcDbEntity
  8
0
  6
SLD-SOLID
 62
     7
100
AcDbLine
 10
205.2637416687
 20
130.7507669654
 30
0.0
 11
205.2637416687
 21
130.5507673052
 31
0.0
  0
LINE
  5
1FD
330
1F
100
AcDbEntity
  8
0
  6
SLD-SOLID
 62
     7
100
AcDbLine
 10
205.2637416687
 20
80.1507672396
 30
0.0
 11
205.0637420084
 21
80.1507672396
 31
0.0
  0
LINE
  5
1FE
330
1F
100
AcDbEntity
  8
0
  6
SLD-SOLID
 62
     7
100
AcDbLine
 10
205.0637420084
 20
80.1507672396
 30
0.0
 11
205.0637420084
 21
130.5507673052
 31
0.0
  0
LINE
  5
1FF
330
1F
100
AcDbEntity
  8
0
  6
SLD-SOLID
 62
     7
100
AcDbLine
 10
205.2637416687
 20
130.7507669654
 30
0.0
 11
255.6637417343
 21
130.7507669654
 31
0.0
  0
LINE
  5
200
330
1F
100
AcDbEntity
  8
0
  6
SLD-SOLID
 62
     7
100
AcDbLine
 10
255.6637417343
 20
130.7507669654
 30
0.0
 11
255.6637417343
 21
130.5507673052
 31
0.0
  0
SPLINE
  5
201
330
1F
100
AcDbEntity
  8
0
  6
SLD-SOLID
 62
     7
100
AcDbSpline
210
0.0
220
0.0
230
1.0
 70
     8
 71
     3
 72
    15
 73
    11
 74
     0
 42
0.000000001
 43
0.00000001
 40
0.0
 40
0.0
 40
0.0
 40
0.0
 40
0.1468601540050169
 40
0.2816102318634024
 40
0.4075522463742783
 40
0.5266292304530837
 40
0.6425611015189953
 40
0.7563519253393437
 40
0.8765532127820475
 40
1.0
 40
1.0
 40
1.0
 40
1.0
 10
223.6105571600059
 20
104.4389480146477
 30
0.0
 10
223.6102363927121
 20
104.4510179141838
 30
0.0
 10
223.6096213085692
 20
104.474162430339
 30
0.0
 10
223.6052019242005
 20
104.507434590389
 30
0.0
 10
223.5975673006791
 20
104.5377780772869
 30
0.0
 10
223.5864690697524
 20
104.5653803340092
 30
0.0
 10
223.572250645886
 20
104.59038386114
 30
0.0
 10
223.5542862959381
 20
104.6129790730459
 30
0.0
 10
223.5324158586955
 20
104.6328334813748
 30
0.0
 10
223.5155006440207
 20
104.643594205383
 30
0.0
 10
223.5069303776248
 20
104.6490462361811
 30
0.0
  0
SPLINE
  5
202
330
1F
100
AcDbEntity
  8
0
  6
SLD-SOLID
 62
     7
100
AcDbSpline
210
0.0
220
0.0
230
1.0
 70
     8
 71
     3
 72
    15
 73
    11
 74
     0
 42
0.000000001
 43
0.00000001
 40
0.0
 40
0.0
 40
0.0
 40
0.0
 40
0.0970601489001741
 40
0.1980615496336307
 40
0.3053661453037027
 40
0.4191368020036264
 40
0.5437409762099218
 40
0.6816654513080895
 40
0.8340935330739949
 40
1.0
 40
1.0
 40
1.0
 40
1.0
 10
223.5069303776248
 20
104.6490462361811
 30
0.0
 10
223.495821338781
 20
104.6550275600121
 30
0.0
 10
223.4731521643229
 20
104.6672330869999
 30
0.0
 10
223.4356180833842
 20
104.6804270794459
 30
0.0
 10
223.3948955363219
 20
104.6901995512988
 30
0.0
 10
223.3503212188234
 20
104.6958726662604
 30
0.0
 10
223.301626874153
 20
104.6998212152726
 30
0.0
 10
223.2478155184467
 20
104.702462382261
 30
0.0
 10
223.1886187975343
 20
104.7047528279318
 30
0.0
 10
223.1472871773073
 20
104.7047314003868
 30
0.0
 10
223.1257463702779
 20
104.7047202329898
 30
0.0
  0
LINE
  5
203
330
1F
100
AcDbEntity
  8
0
  6
SLD-SOLID
 62
     7
100
AcDbLine
 10
223.1257463623
 20
104.7047202111
 30
0.0
 11
222.8043003757
 21
104.7047202111
 31
0.0
  0
LINE
  5
204
330
1F
100
AcDbEntity
  8
0
  6
SLD-SOLID
 62
     7
100
AcDbLine
 10
222.8043003757
 20
104.7047202111
 30
0.0
 11
222.8043003757
 21
104.1065295095
 31
0.0
  0
LINE
  5
205
330
1F
100
AcDbEntity
  8
0
  6
SLD-SOLID
 62
     7
100
AcDbLine
 10
222.8043003757
 20
104.1065295095
 30
0.0
 11
223.1529735778
 21
104.1065295095
 31
0.0
  0
SPLINE
  5
206
330
1F
100
AcDbEntity
  8
0
  6
SLD-SOLID
 62
     7
100
AcDbSpline
210
0.0
220
0.0
230
1.0
 70
     8
 71
     3
 72
    15
 73
    11
 74
     0
 42
0.000000001
 43
0.00000001
 40
0.0
 40
0.0
 40
0.0
 40
0.0
 40
0.1705461607113629
 40
0.3227980535782387
 40
0.4569528983495535
 40
0.5732999800301544
 40
0.6797865754272859
 40
0.786913332970288
 40
0.892095296012277
 40
1.0
 40
1.0
 40
1.0
 40
1.0
 10
223.1529737993741
 20
104.1065295519507
 30
0.0
 10
223.1730242155298
 20
104.1066692356508
 30
0.0
 10
223.2109742654253
 20
104.1069336193596
 30
0.0
 10
223.2646604648048
 20
104.1093044882592
 30
0.0
 10
223.3118467419253
 20
104.1132960745391
 30
0.0
 10
223.3535072925339
 20
104.1186816023502
 30
0.0
 10
223.3913620832258
 20
104.1274796782687
 30
0.0
 10
223.4268763911761
 20
104.1396137368142
 30
0.0
 10
223.4612487511877
 20
104.1551860872413
 30
0.0
 10
223.4826715747108
 20
104.168207444725
 30
0.0
 10
223.493519852846
 20
104.1748013144606
 30
0.0
  0
SPLINE
  5
207
330
1F
100
AcDbEntity
  8
0
  6
SLD-SOLID
 62
     7
100
AcDbSpline
210
0.0
220
0.0
230
1.0
 70
     8
 71
     3
 72
    15
 73
    11
 74
     0
 42
0.000000001
 43
0.00000001
 40
0.0
 40
0.0
 40
0.0
 40
0.0
 40
0.1228317447002776
 40
0.2397191858425421
 40
0.3553248851169352
 40
0.4719261308575472
 40
0.5926220243177087
 40
0.7207504018399246
 40
0.8561034390449856
 40
1.0
 40
1.0
 40
1.0
 40
1.0
 10
223.493519852846
 20
104.1748013144606
 30
0.0
 10
223.5036580324123
 20
104.1819485737321
 30
0.0
 10
223.5234437657948
 20
104.1958972087346
 30
0.0
 10
223.5485436821669
 20
104.2217050006431
 30
0.0
 10
223.5692856973601
 20
104.2503252661819
 30
0.0
 10
223.5845341154811
 20
104.2826340616657
 30
0.0
 10
223.5963623596634
 20
104.3175735014589
 30
0.0
 10
223.6048559773098
 20
104.3554298955001
 30
0.0
 10
223.6096704904163
 20
104.3962881545476
 30
0.0
 10
223.610255636048
 20
104.4244409536074
 30
0.0
 10
223.6105571600059
 20
104.4389480146477
 30
0.0
  0
LINE
  5
208
330
1F
100
AcDbEntity
  8
0
  6
SLD-SOLID
 62
     7
100
AcDbLine
 10
223.2318114307
 20
103.8724549682
 30
0.0
 11
222.8043003757
 21
103.8724549682
 31
0.0
  0
SPLINE
  5
209
330
1F
100
AcDbEntity
  8
0
  6
SLD-SOLID
 62
     7
100
AcDbSpline
210
0.0
220
0.0
230
1.0
 70
     8
 71
     3
 72
    15
 73
    11
 74
     0
 42
0.000000001
 43
0.00000001
 40
0.0
 40
0.0
 40
0.0
 40
0.0
 40
0.0955161702706284
 40
0.1970565898426509
 40
0.3055517571330945
 40
0.4216157171813024
 40
0.5472795782555724
 40
0.6860150066494445
 40
0.8368737402452621
 40
1.0
 40
1.0
 40
1.0
 40
1.0
 10
223.6207166484746
 20
103.8180000794387
 30
0.0
 10
223.609305637274
 20
103.8234015003047
 30
0.0
 10
223.585763917087
 20
103.834545012164
 30
0.0
 10
223.5472198303257
 20
103.8467960143989
 30
0.0
 10
223.5052704085169
 20
103.8567028313947
 30
0.0
 10
223.459372985085
 20
103.8628025223627
 30
0.0
 10
223.4093216179293
 20
103.8671084862131
 30
0.0
 10
223.3545786676617
 20
103.8704529981169
 30
0.0
 10
223.2948065078
 20
103.8717921944615
 30
0.0
 10
223.2533497008404
 20
103.8722283430712
 30
0.0
 10
223.2318114298915
 20
103.8724549376311
 30
0.0
  0
SPLINE
  5
20A
330
1F
100
AcDbEntity
  8
0
  6
SLD-SOLID
 62
     7
100
AcDbSpline
210
0.0
220
0.0
230
1.0
 70
     8
 71
     3
 72
    15
 73
    11
 74
     0
 42
0.000000001
 43
0.00000001
 40
0.0
 40
0.0
 40
0.0
 40
0.0
 40
0.1299899983119069
 40
0.2523573263032184
 40
0.3686450647720556
 40
0.4799074241192082
 40
0.5945564336502942
 40
0.7178857443986447
 40
0.8526085068097677
 40
1.0
 40
1.0
 40
1.0
 40
1.0
 10
223.6442866617221
 20
103.2039605963885
 30
0.0
 10
223.6563985835471
 20
103.2129336799125
 30
0.0
 10
223.6799121788073
 20
103.2303536614206
 30
0.0
 10
223.7110987484704
 20
103.2597349418942
 30
0.0
 10
223.7369076943552
 20
103.29116082236
 30
0.0
 10
223.7578659195492
 20
103.3249615468505
 30
0.0
 10
223.7741267425948
 20
103.362228088647
 30
0.0
 10
223.7845972984402
 20
103.4042519068093
 30
0.0
 10
223.7918441969553
 20
103.4507884243368
 30
0.0
 10
223.7923506141079
 20
103.483517992391
 30
0.0
 10
223.7926151933656
 20
103.5006176596755
 30
0.0
  0
SPLINE
  5
20B
330
1F
100
AcDbEntity
  8
0
  6
SLD-SOLID
 62
     7
100
AcDbSpline
210
0.0
220
0.0
230
1.0
 70
     8
 71
     3
 72
    15
 73
    11
 74
     0
 42
0.000000001
 43
0.00000001
 40
0.0
 40
0.0
 40
0.0
 40
0.0
 40
0.1511286081911614
 40
0.2874724646289033
 40
0.4096349574839744
 40
0.519450051548831
 40
0.6272412738300441
 40
0.740819577507831
 40
0.8641764089545707
 40
1.0
 40
1.0
 40
1.0
 40
1.0
 10
223.7926151933656
 20
103.5006176596755
 30
0.0
 10
223.7921526021433
 20
103.5200080015877
 30
0.0
 10
223.7912726745083
 20
103.5568917487896
 30
0.0
 10
223.7846025842275
 20
103.6091464668558
 30
0.0
 10
223.7729547491887
 20
103.6550606720647
 30
0.0
 10
223.756501579874
 20
103.6956259378673
 30
0.0
 10
223.7334403972555
 20
103.7316158673865
 30
0.0
 10
223.703091927217
 20
103.7640537081886
 30
0.0
 10
223.6652016793303
 20
103.7936008542093
 30
0.0
 10
223.6360129908699
 20
103.8096103155988
 30
0.0
 10
223.6207166484746
 20
103.8180000794387
 30
0.0
  0
LINE
  5
20C
330
1F
100
AcDbEntity
  8
0
  6
SLD-SOLID
 62
     7
100
AcDbLine
 10
222.8043003757
 20
103.8724549682
 30
0.0
 11
222.8043003757
 21
103.1182145335
 31
0.0
  0
LINE
  5
20D
330
1F
100
AcDbEntity
  8
0
  6
SLD-SOLID
 62
     7
100
AcDbLine
 10
222.8043003757
 20
103.1182145335
 30
0.0
 11
223.164352477
 21
103.1182145335
 31
0.0
  0
SPLINE
  5
20E
330
1F
100
AcDbEntity
  8
0
  6
SLD-SOLID
 62
     7
100
AcDbSpline
210
0.0
220
0.0
230
1.0
 70
     8
 71
     3
 72
    15
 73
    11
 74
     0
 42
0.000000001
 43
0.00000001
 40
0.0
 40
0.0
 40
0.0
 40
0.0
 40
0.1727545498319415
 40
0.3291788132110008
 40
0.4694868449241915
 40
0.5939622732543325
 40
0.7064000991092388
 40
0.8112656049020814
 40
0.9085814076675977
 40
1.0
 40
1.0
 40
1.0
 40
1.0
 10
223.1643524264591
 20
103.1182145137123
 30
0.0
 10
223.1928020058685
 20
103.1184649877236
 30
0.0
 10
223.2470118590702
 20
103.1189422587295
 30
0.0
 10
223.3242811440444
 20
103.1220449876366
 30
0.0
 10
223.3934546102658
 20
103.1275522115028
 30
0.0
 10
223.4550695796349
 20
103.1356035185488
 30
0.0
 10
223.5104245613597
 20
103.1462489678081
 30
0.0
 10
223.5600264221443
 20
103.1613969467102
 30
0.0
 10
223.6050306637881
 20
103.1795783818249
 30
0.0
 10
223.6314767748647
 20
103.1960042731174
 30
0.0
 10
223.6442866617221
 20
103.2039605963885
 30
0.0
  0
LINE
  5
20F
330
1F
100
AcDbEntity
  8
0
  6
SLD-SOLID
 62
     7
100
AcDbLine
 10
205.2637416687
 20
80.1507672396
 30
0.0
 11
205.2637416687
 21
79.9507675794
 31
0.0
  0
LINE
  5
210
330
1F
100
AcDbEntity
  8
0
  6
SLD-SOLID
 62
     7
100
AcDbLine
 10
205.0637420084
 20
80.1507672396
 30
0.0
 11
205.2637416687
 21
79.9507675794
 31
0.0
  0
LINE
  5
211
330
1F
100
AcDbEntity
  8
0
  6
SLD-SOLID
 62
     7
100
AcDbLine
 10
255.8637413945
 20
130.5507673052
 30
0.0
 11
255.6637417343
 21
130.5507673052
 31
0.0
  0
LINE
  5
212
330
1F
100
AcDbEntity
  8
0
  6
SLD-SOLID
 62
     7
100
AcDbLine
 10
255.8637413945
 20
130.5507673052
 30
0.0
 11
255.6637417343
 21
130.7507669654
 31
0.0
  0
LINE
  5
213
330
1F
100
AcDbEntity
  8
0
  6
SLD-SOLID
 62
     7
100
AcDbLine
 10
255.6637417343
 20
80.1507672396
 30
0.0
 11
255.6637417343
 21
79.9507675794
 31
0.0
  0
LINE
  5
214
330
1F
100
AcDbEntity
  8
0
  6
SLD-SOLID
 62
     7
100
AcDbLine
 10
255.6637417343
 20
79.9507675794
 30
0.0
 11
205.2637416687
 21
79.9507675794
 31
0.0
  0
LINE
  5
215
330
1F
100
AcDbEntity
  8
0
  6
SLD-SOLID
 62
     7
100
AcDbLine
 10
255.8637413945
 20
130.5507673052
 30
0.0
 11
255.8637413945
 21
80.1507672396
 31
0.0
  0
LINE
  5
216
330
1F
100
AcDbEntity
  8
0
  6
SLD-SOLID
 62
     7
100
AcDbLine
 10
255.8637413945
 20
80.1507672396
 30
0.0
 11
255.6637417343
 21
80.1507672396
 31
0.0
  0
LINE
  5
217
330
1F
100
AcDbEntity
  8
0
  6
SLD-SOLID
 62
     7
100
AcDbLine
 10
255.8637413945
 20
80.1507672396
 30
0.0
 11
255.6637417343
 21
79.9507675794
 31
0.0
  0
SPLINE
  5
218
330
1F
100
AcDbEntity
  8
0
  6
SLD-SOLID
 62
     7
100
AcDbSpline
210
0.0
220
0.0
230
1.0
 70
     8
 71
     3
 72
    23
 73
    19
 74
     0
 42
0.000000001
 43
0.00000001
 40
0.0
 40
0.0
 40
0.0
 40
0.0
 40
0.0809888703979177
 40
0.1578866642454555
 40
0.2300425159408054
 40
0.2988473708066465
 40
0.364117444165082
 40
0.4268878897575072
 40
0.4869693325819693
 40
0.5457286938124095
 40
0.6028188634391741
 40
0.6582693192192547
 40
0.7131089500802867
 40
0.7677349198932854
 40
0.8229031265946571
 40
0.8795357212322894
 40
0.9383892794248829
 40
1.0
 40
1.0
 40
1.0
 40
1.0
 10
228.4090867535581
 20
106.861755883794
 30
0.0
 10
228.4085254626962
 20
106.894552766791
 30
0.0
 10
228.407431234052
 20
106.9584898291134
 30
0.0
 10
228.3994092498799
 20
107.0513876436129
 30
0.0
 10
228.3856101543697
 20
107.1385857932124
 30
0.0
 10
228.3664039948911
 20
107.219971095531
 30
0.0
 10
228.3409170022723
 20
107.295586356417
 30
0.0
 10
228.3109195617939
 20
107.3657533320245
 30
0.0
 10
228.2741833562618
 20
107.4296220782721
 30
0.0
 10
228.2329992548934
 20
107.4879083844101
 30
0.0
 10
228.1865214500806
 20
107.5395965699328
 30
0.0
 10
228.1358771201618
 20
107.5848960429204
 30
0.0
 10
228.0805850286857
 20
107.6226132414699
 30
0.0
 10
228.0218276278998
 20
107.654414303231
 30
0.0
 10
227.9586307909503
 20
107.6784007176468
 30
0.0
 10
227.8915177231969
 20
107.6952455469461
 30
0.0
 10
227.8204733373236
 20
107.7063166314652
 30
0.0
 10
227.7716556260515
 20
107.7073232530174
 30
0.0
 10
227.7466881053966
 20
107.7078380834701
 30
0.0
  0
SPLINE
  5
219
330
1F
100
AcDbEntity
  8
0
  6
SLD-SOLID
 62
     7
100
AcDbSpline
210
0.0
220
0.0
230
1.0
 70
     8
 71
     3
 72
    23
 73
    19
 74
     0
 42
0.000000001
 43
0.00000001
 40
0.0
 40
0.0
 40
0.0
 40
0.0
 40
0.0621758982186109
 40
0.1212622118067597
 40
0.1781245096613923
 40
0.2335132525089258
 40
0.2883433983195866
 40
0.3430921151912617
 40
0.3984506443469744
 40
0.4554461690063619
 40
0.5141081180577329
 40
0.5739251649583389
 40
0.6365915487339191
 40
0.7016480629930028
 40
0.7703388521048486
 40
0.8423750827117619
 40
0.9191453942057234
 40
1.0
 40
1.0
 40
1.0
 40
1.0
 10
227.7466881053966
 20
107.7078380834701
 30
0.0
 10
227.72144943683
 20
107.7073292518356
 30
0.0
 10
227.6722262352175
 20
107.7063368729362
 30
0.0
 10
227.600644347075
 20
107.6952435498852
 30
0.0
 10
227.5331243620263
 20
107.6784052952826
 30
0.0
 10
227.4695368796806
 20
107.6544025931081
 30
0.0
 10
227.4104244700913
 20
107.6227291744639
 30
0.0
 10
227.3550701514159
 20
107.584881876361
 30
0.0
 10
227.3044065723215
 20
107.5396045409046
 30
0.0
 10
227.2579700266134
 20
107.4878903943396
 30
0.0
 10
227.2166735660653
 20
107.4297429494539
 30
0.0
 10
227.1805468874016
 20
107.3656149649986
 30
0.0
 10
227.1502823231469
 20
107.2956873301445
 30
0.0
 10
227.1254876083129
 20
107.2198770548514
 30
0.0
 10
227.1060970924958
 20
107.1386008947209
 30
0.0
 10
227.0923541077385
 20
107.0513832413364
 30
0.0
 10
227.0843160068611
 20
106.9584910289138
 30
0.0
 10
227.0832240596618
 20
106.8945531735739
 30
0.0
 10
227.0826639390802
 20
106.861755883794
 30
0.0
  0
SPLINE
  5
21A
330
1F
100
AcDbEntity
  8
0
  6
SLD-SOLID
 62
     7
100
AcDbSpline
210
0.0
220
0.0
230
1.0
 70
     8
 71
     3
 72
    23
 73
    19
 74
     0
 42
0.000000001
 43
0.00000001
 40
0.0
 40
0.0
 40
0.0
 40
0.0
 40
0.082012912966411
 40
0.1589601266669503
 40
0.2317952858540716
 40
0.3010215657275456
 40
0.3663082626841795
 40
0.4289232692690997
 40
0.4891865274402118
 40
0.5478120773723745
 40
0.6048736360705036
 40
0.6603684860675251
 40
0.7150329524914525
 40
0.7693604753325475
 40
0.8242303999589778
 40
0.8805533304733976
 40
0.9390421693280478
 40
1.0
 40
1.0
 40
1.0
 40
1.0
 10
227.0826639390802
 20
106.861755883794
 30
0.0
 10
227.0831560588374
 20
106.8285460183951
 30
0.0
 10
227.0841099015447
 20
106.7641775644596
 30
0.0
 10
227.0929964351271
 20
106.6706805256055
 30
0.0
 10
227.1063152557622
 20
106.5829510813698
 30
0.0
 10
227.126280687897
 20
106.501308057158
 30
0.0
 10
227.1514150827059
 20
106.4254666759235
 30
0.0
 10
227.1822492650876
 20
106.3556658101487
 30
0.0
 10
227.2189194725635
 20
106.2918262369885
 30
0.0
 10
227.261242969279
 20
106.2343265619303
 30
0.0
 10
227.3085899262591
 20
106.183552478008
 30
0.0
 10
227.3595053264447
 20
106.1387340499232
 30
0.0
 10
227.4147034093275
 20
106.1011672031782
 30
0.0
 10
227.4737099330053
 20
106.0705701410952
 30
0.0
 10
227.5363316227499
 20
106.0462933191883
 30
0.0
 10
227.6030444067784
 20
106.0293726944007
 30
0.0
 10
227.6736171928488
 20
106.018976538716
 30
0.0
 10
227.7219977883079
 20
106.0178659663545
 30
0.0
 10
227.7466881053966
 20
106.0172992022729
 30
0.0
  0
SPLINE
  5
21B
330
1F
100
AcDbEntity
  8
0
  6
SLD-SOLID
 62
     7
100
AcDbSpline
210
0.0
220
0.0
230
1.0
 70
     8
 71
     3
 72
    23
 73
    19
 74
     0
 42
0.000000001
 43
0.00000001
 40
0.0
 40
0.0
 40
0.0
 40
0.0
 40
0.0610171585840671
 40
0.1192314497396612
 40
0.1756091971961346
 40
0.230532524609871
 40
0.2849129223394754
 40
0.339354141931375
 40
0.3949030029315307
 40
0.4517927951807841
 40
0.5104754031059191
 40
0.5706306378896772
 40
0.6333065852522923
 40
0.6987640244427148
 40
0.7679791167092035
 40
0.8408851635554743
 40
0.9179072670196686
 40
1.0
 40
1.0
 40
1.0
 40
1.0
 10
227.7466881053966
 20
106.0172992022729
 30
0.0
 10
227.7713796979079
 20
106.017857184977
 30
0.0
 10
227.8196286567222
 20
106.0189475190452
 30
0.0
 10
227.890052353699
 20
106.0294227253681
 30
0.0
 10
227.956642888111
 20
106.0462835481387
 30
0.0
 10
228.0192447995821
 20
106.0705922180316
 30
0.0
 10
228.0782222916854
 20
106.1010375799208
 30
0.0
 10
228.1330741245484
 20
106.1388953896306
 30
0.0
 10
228.1840034966359
 20
106.1833951466953
 30
0.0
 10
228.2308590822757
 20
106.2344958797918
 30
0.0
 10
228.2733208745
 20
106.291689550823
 30
0.0
 10
228.3094475743402
 20
106.3557870291277
 30
0.0
 10
228.3402270136877
 20
106.4255369465191
 30
0.0
 10
228.366119622924
 20
106.5011619558447
 30
0.0
 10
228.3852536622051
 20
106.5830304943143
 30
0.0
 10
228.398808187651
 20
106.6706666567643
 30
0.0
 10
228.4076259397268
 20
106.764181383683
 30
0.0
 10
228.4085895792775
 20
106.828547318232
 30
0.0
 10
228.4090867535581
 20
106.861755883794
 30
0.0
  0
SPLINE
  5
21C
330
1F
100
AcDbEntity
  8
0
  6
SLD-SOLID
 62
     7
100
AcDbSpline
210
0.0
220
0.0
230
1.0
 70
     8
 71
     3
 72
    15
 73
    11
 74
     0
 42
0.000000001
 43
0.00000001
 40
0.0
 40
0.0
 40
0.0
 40
0.0
 40
0.1356710519307709
 40
0.2660335683250638
 40
0.3888289124462851
 40
0.5089869504386766
 40
0.6268374756191906
 40
0.7465047924043874
 40
0.8703604505951892
 40
1.0
 40
1.0
 40
1.0
 40
1.0
 10
230.1776505061952
 20
107.3099925150345
 30
0.0
 10
230.1772274859612
 20
107.3243660400124
 30
0.0
 10
230.1763979974246
 20
107.3525506828294
 30
0.0
 10
230.1708986460954
 20
107.3934955441967
 30
0.0
 10
230.1608232018958
 20
107.4318096690673
 30
0.0
 10
230.1477378697118
 20
107.4678283405647
 30
0.0
 10
230.1295270287781
 20
107.5012297724854
 30
0.0
 10
230.1065882847712
 20
107.5320373314803
 30
0.0
 10
230.0782913733154
 20
107.5599327433092
 30
0.0
 10
230.0563776408856
 20
107.5755163559805
 30
0.0
 10
230.0451707765629
 20
107.5834859446128
 30
0.0
  0
SPLINE
  5
21D
330
1F
100
AcDbEntity
  8
0
  6
SLD-SOLID
 62
     7
100
AcDbSpline
210
0.0
220
0.0
230
1.0
 70
     8
 71
     3
 72
    15
 73
    11
 74
     0
 42
0.000000001
 43
0.00000001
 40
0.0
 40
0.0
 40
0.0
 40
0.0
 40
0.1054324257577908
 40
0.2126926066359902
 40
0.3256640625299876
 40
0.442821963509667
 40
0.5669158351674671
 40
0.7017792760429933
 40
0.8456966330967292
 40
1.0
 40
1.0
 40
1.0
 40
1.0
 10
230.0451707765629
 20
107.5834859446128
 30
0.0
 10
230.0350147479338
 20
107.5899665746508
 30
0.0
 10
230.0145266278259
 20
107.6030401816131
 30
0.0
 10
229.980559342273
 20
107.6183941729489
 30
0.0
 10
229.9441275587919
 20
107.6310518253524
 30
0.0
 10
229.9046583098881
 20
107.6400285400944
 30
0.0
 10
229.862386600059
 20
107.6476664158153
 30
0.0
 10
229.8165798134123
 20
107.6520093465688
 30
0.0
 10
229.7672651432168
 20
107.6556553946403
 30
0.0
 10
229.7332149784997
 20
107.6557648624238
 30
0.0
 10
229.7155969706372
 20
107.6558215025102
 30
0.0
  0
LINE
  5
21E
330
1F
100
AcDbEntity
  8
0
  6
SLD-SOLID
 62
     7
100
AcDbLine
 10
229.7155969477
 20
107.6558216111
 30
0.0
 11
229.3974018008
 21
107.6558216111
 31
0.0
  0
LINE
  5
21F
330
1F
100
AcDbEntity
  8
0
  6
SLD-SOLID
 62
     7
100
AcDbLine
 10
229.3974018008
 20
107.6558216111
 30
0.0
 11
229.3974018008
 21
106.8755728294
 31
0.0
  0
LINE
  5
220
330
1F
100
AcDbEntity
  8
0
  6
SLD-SOLID
 62
     7
100
AcDbLine
 10
229.3974018008
 20
106.8755728294
 30
0.0
 11
229.6708952104
 21
106.8755728294
 31
0.0
  0
SPLINE
  5
221
330
1F
100
AcDbEntity
  8
0
  6
SLD-SOLID
 62
     7
100
AcDbSpline
210
0.0
220
0.0
230
1.0
 70
     8
 71
     3
 72
    15
 73
    11
 74
     0
 42
0.000000001
 43
0.00000001
 40
0.0
 40
0.0
 40
0.0
 40
0.0
 40
0.1513319284937301
 40
0.2930698672949625
 40
0.4247940391227074
 40
0.548705003524648
 40
0.6656715592400183
 40
0.7790172397877805
 40
0.8895904654055438
 40
1.0
 40
1.0
 40
1.0
 40
1.0
 10
229.6708952213748
 20
106.8755727881115
 30
0.0
 10
229.6916236566065
 20
106.8759536797173
 30
0.0
 10
229.7317664065406
 20
106.8766913155454
 30
0.0
 10
229.7899016429797
 20
106.8803852824412
 30
0.0
 10
229.8438054045047
 20
106.8881125685088
 30
0.0
 10
229.894131513503
 20
106.8970732420708
 30
0.0
 10
229.9405352959671
 20
106.9116481079089
 30
0.0
 10
229.9835941960814
 20
106.9300138634215
 30
0.0
 10
230.02265890339
 20
106.9543403331177
 30
0.0
 10
230.0458001234982
 20
106.9738981037336
 30
0.0
 10
230.0573621627254
 20
106.9836697454188
 30
0.0
  0
SPLINE
  5
222
330
1F
100
AcDbEntity
  8
0
  6
SLD-SOLID
 62
     7
100
AcDbSpline
210
0.0
220
0.0
230
1.0
 70
     8
 71
     3
 72
    15
 73
    11
 74
     0
 42
0.000000001
 43
0.00000001
 40
0.0
 40
0.0
 40
0.0
 40
0.0
 40
0.1170339869329161
 40
0.2303551988589828
 40
0.3426861898780817
 40
0.4547596653596036
 40
0.5726627487835118
 40
0.7022310727779928
 40
0.8446465788022212
 40
1.0
 40
1.0
 40
1.0
 40
1.0
 10
230.0573621627254
 20
106.9836697454188
 30
0.0
 10
230.0672464803688
 20
106.9935953883285
 30
0.0
 10
230.086701546508
 20
107.0131317940016
 30
0.0
 10
230.111033063944
 20
107.0462381425742
 30
0.0
 10
230.1320125652862
 20
107.0807925856058
 30
0.0
 10
230.1489829392054
 20
107.1181407005832
 30
0.0
 10
230.1621396088392
 20
107.1591492251699
 30
0.0
 10
230.1713827574377
 20
107.2049222481767
 30
0.0
 10
230.1763730852179
 20
107.255833437585
 30
0.0
 10
230.1772125412177
 20
107.2914240246477
 30
0.0
 10
230.1776505061952
 20
107.3099925150345
 30
0.0
  0
LINE
  5
223
330
1F
100
AcDbEntity
  8
0
  6
SLD-SOLID
 62
     7
100
AcDbLine
 10
233.6956780687
 20
106.6414981716
 30
0.0
 11
233.3246535905
 21
107.6741085955
 31
0.0
  0
LINE
  5
224
330
1F
100
AcDbEntity
  8
0
  6
SLD-SOLID
 62
     7
100
AcDbLine
 10
233.3246535905
 20
107.6741085955
 30
0.0
 11
232.952410011
 21
106.6414981716
 31
0.0
  0
LINE
  5
225
330
1F
100
AcDbEntity
  8
0
  6
SLD-SOLID
 62
     7
100
AcDbLine
 10
232.952410011
 20
106.6414981716
 30
0.0
 11
233.6956780687
 21
106.6414981716
 31
0.0
  0
SPLINE
  5
226
330
1F
100
AcDbEntity
  8
0
  6
SLD-SOLID
 62
     7
100
AcDbSpline
210
0.0
220
0.0
230
1.0
 70
     8
 71
     3
 72
    15
 73
    11
 74
     0
 42
0.000000001
 43
0.00000001
 40
0.0
 40
0.0
 40
0.0
 40
0.0
 40
0.146860154005017
 40
0.2816102318634016
 40
0.4075522463742784
 40
0.5266292304530837
 40
0.6425611015189946
 40
0.7563519253393437
 40
0.8765532127820475
 40
1.0
 40
1.0
 40
1.0
 40
1.0
 10
235.6393915069864
 20
107.3900492841681
 30
0.0
 10
235.6390707396926
 20
107.4021191837042
 30
0.0
 10
235.6384556555497
 20
107.4252636998595
 30
0.0
 10
235.634036271181
 20
107.4585358599094
 30
0.0
 10
235.6264016476596
 20
107.4888793468074
 30
0.0
 10
235.6153034167329
 20
107.5164816035297
 30
0.0
 10
235.6010849928664
 20
107.5414851306605
 30
0.0
 10
235.5831206429186
 20
107.5640803425663
 30
0.0
 10
235.561250205676
 20
107.5839347508952
 30
0.0
 10
235.5443349910012
 20
107.5946954749034
 30
0.0
 10
235.5357647246053
 20
107.6001475057015
 30
0.0
  0
SPLINE
  5
227
330
1F
100
AcDbEntity
  8
0
  6
SLD-SOLID
 62
     7
100
AcDbSpline
210
0.0
220
0.0
230
1.0
 70
     8
 71
     3
 72
    15
 73
    11
 74
     0
 42
0.000000001
 43
0.00000001
 40
0.0
 40
0.0
 40
0.0
 40
0.0
 40
0.0970601489001738
 40
0.1980615496336306
 40
0.3053661453037026
 40
0.4191368020036264
 40
0.5437409762099218
 40
0.6816654513080895
 40
0.8340935330739949
 40
1.0
 40
1.0
 40
1.0
 40
1.0
 10
235.5357647246053
 20
107.6001475057015
 30
0.0
 10
235.5246556857614
 20
107.6061288295326
 30
0.0
 10
235.5019865113034
 20
107.6183343565203
 30
0.0
 10
235.4644524303647
 20
107.6315283489663
 30
0.0
 10
235.4237298833024
 20
107.6413008208193
 30
0.0
 10
235.3791555658039
 20
107.6469739357809
 30
0.0
 10
235.3304612211335
 20
107.650922484793
 30
0.0
 10
235.2766498654272
 20
107.6535636517815
 30
0.0
 10
235.2174531445148
 20
107.6558540974522
 30
0.0
 10
235.1761215242878
 20
107.6558326699072
 30
0.0
 10
235.1545807172584
 20
107.6558215025102
 30
0.0
  0
LINE
  5
228
330
1F
100
AcDbEntity
  8
0
  6
SLD-SOLID
 62
     7
100
AcDbLine
 10
235.1545806792
 20
107.6558216111
 30
0.0
 11
234.8331346925
 21
107.6558216111
 31
0.0
  0
LINE
  5
229
330
1F
100
AcDbEntity
  8
0
  6
SLD-SOLID
 62
     7
100
AcDbLine
 10
234.8331346925
 20
107.6558216111
 30
0.0
 11
234.8331346925
 21
107.0576307931
 31
0.0
  0
LINE
  5
22A
330
1F
100
AcDbEntity
  8
0
  6
SLD-SOLID
 62
     7
100
AcDbLine
 10
234.8331346925
 20
107.0576307931
 30
0.0
 11
235.1818083603
 21
107.0576307931
 31
0.0
  0
SPLINE
  5
22B
330
1F
100
AcDbEntity
  8
0
  6
SLD-SOLID
 62
     7
100
AcDbSpline
210
0.0
220
0.0
230
1.0
 70
     8
 71
     3
 72
    15
 73
    11
 74
     0
 42
0.000000001
 43
0.00000001
 40
0.0
 40
0.0
 40
0.0
 40
0.0
 40
0.1705461607113629
 40
0.3227980535782387
 40
0.4569528983495535
 40
0.5732999800301544
 40
0.6797865754272859
 40
0.7869133329702883
 40
0.8920952960122773
 40
1.0
 40
1.0
 40
1.0
 40
1.0
 10
235.1818081463546
 20
107.0576308214712
 30
0.0
 10
235.2018585625103
 20
107.0577705051712
 30
0.0
 10
235.2398086124058
 20
107.05803488888
 30
0.0
 10
235.2934948117853
 20
107.0604057577797
 30
0.0
 10
235.3406810889058
 20
107.0643973440596
 30
0.0
 10
235.3823416395144
 20
107.0697828718707
 30
0.0
 10
235.4201964302063
 20
107.0785809477891
 30
0.0
 10
235.4557107381565
 20
107.0907150063347
 30
0.0
 10
235.4900830981682
 20
107.1062873567617
 30
0.0
 10
235.5115059216913
 20
107.1193087142454
 30
0.0
 10
235.5223541998265
 20
107.1259025839811
 30
0.0
  0
SPLINE
  5
22C
330
1F
100
AcDbEntity
  8
0
  6
SLD-SOLID
 62
     7
100
AcDbSpline
210
0.0
220
0.0
230
1.0
 70
     8
 71
     3
 72
    15
 73
    11
 74
     0
 42
0.000000001
 43
0.00000001
 40
0.0
 40
0.0
 40
0.0
 40
0.0
 40
0.1228317447002775
 40
0.2397191858425425
 40
0.3553248851169349
 40
0.4719261308575469
 40
0.5926220243177089
 40
0.7207504018399241
 40
0.8561034390449856
 40
1.0
 40
1.0
 40
1.0
 40
1.0
 10
235.5223541998265
 20
107.1259025839811
 30
0.0
 10
235.5324923793928
 20
107.1330498432525
 30
0.0
 10
235.5522781127752
 20
107.1469984782551
 30
0.0
 10
235.5773780291474
 20
107.1728062701635
 30
0.0
 10
235.5981200443406
 20
107.2014265357023
 30
0.0
 10
235.6133684624616
 20
107.2337353311861
 30
0.0
 10
235.6251967066438
 20
107.2686747709794
 30
0.0
 10
235.6336903242903
 20
107.3065311650205
 30
0.0
 10
235.6385048373968
 20
107.347389424068
 30
0.0
 10
235.6390899830285
 20
107.3755422231279
 30
0.0
 10
235.6393915069864
 20
107.3900492841681
 30
0.0
  0
SPLINE
  5
22D
330
1F
100
AcDbEntity
  8
0
  6
SLD-SOLID
 62
     7
100
AcDbSpline
210
0.0
220
0.0
230
1.0
 70
     8
 71
     3
 72
    15
 73
    11
 74
     0
 42
0.000000001
 43
0.00000001
 40
0.0
 40
0.0
 40
0.0
 40
0.0
 40
0.1511286081911614
 40
0.2874724646289028
 40
0.4096349574839746
 40
0.5194500515488306
 40
0.6272412738300438
 40
0.7408195775078311
 40
0.8641764089545709
 40
0.9999999999999999
 40
0.9999999999999999
 40
0.9999999999999999
 40
0.9999999999999999
 10
235.821449540346
 20
106.4517189291959
 30
0.0
 10
235.8209869491237
 20
106.4711092711081
 30
0.0
 10
235.8201070214888
 20
106.50799301831
 30
0.0
 10
235.813436931208
 20
106.5602477363762
 30
0.0
 10
235.8017890961692
 20
106.6061619415851
 30
0.0
 10
235.7853359268545
 20
106.6467272073878
 30
0.0
 10
235.762274744236
 20
106.682717136907
 30
0.0
 10
235.7319262741975
 20
106.715154977709
 30
0.0
 10
235.6940360263108
 20
106.7447021237297
 30
0.0
 10
235.6648473378504
 20
106.7607115851193
 30
0.0
 10
235.6495509954551
 20
106.7691013489591
 30
0.0
  0
SPLINE
  5
22E
330
1F
100
AcDbEntity
  8
0
  6
SLD-SOLID
 62
     7
100
AcDbSpline
210
0.0
220
0.0
230
1.0
 70
     8
 71
     3
 72
    15
 73
    11
 74
     0
 42
0.000000001
 43
0.00000001
 40
0.0
 40
0.0
 40
0.0
 40
0.0
 40
0.0955161702706284
 40
0.1970565898426508
 40
0.3055517571330944
 40
0.4216157171813023
 40
0.5472795782555724
 40
0.6860150066494445
 40
0.8368737402452621
 40
1.0
 40
1.0
 40
1.0
 40
1.0
 10
235.6495509954551
 20
106.7691013489591
 30
0.0
 10
235.6381399842545
 20
106.7745027698252
 30
0.0
 10
235.6145982640674
 20
106.7856462816844
 30
0.0
 10
235.5760541773061
 20
106.7978972839193
 30
0.0
 10
235.5341047554974
 20
106.8078041009151
 30
0.0
 10
235.4882073320655
 20
106.8139037918831
 30
0.0
 10
235.4381559649098
 20
106.8182097557336
 30
0.0
 10
235.3834130146422
 20
106.8215542676374
 30
0.0
 10
235.3236408547805
 20
106.8228934639819
 30
0.0
 10
235.2821840478209
 20
106.8233296125916
 30
0.0
 10
235.2606457768719
 20
106.8235562071516
 30
0.0
  0
LINE
  5
22F
330
1F
100
AcDbEntity
  8
0
  6
SLD-SOLID
 62
     7
100
AcDbLine
 10
235.2606457476
 20
106.8235562517
 30
0.0
 11
234.8331346925
 21
106.8235562517
 31
0.0
  0
LINE
  5
230
330
1F
100
AcDbEntity
  8
0
  6
SLD-SOLID
 62
     7
100
AcDbLine
 10
234.8331346925
 20
106.8235562517
 30
0.0
 11
234.8331346925
 21
106.0693157589
 31
0.0
  0
LINE
  5
231
330
1F
100
AcDbEntity
  8
0
  6
SLD-SOLID
 62
     7
100
AcDbLine
 10
234.8331346925
 20
106.0693157589
 30
0.0
 11
235.1931867939
 21
106.0693157589
 31
0.0
  0
SPLINE
  5
232
330
1F
100
AcDbEntity
  8
0
  6
SLD-SOLID
 62
     7
100
AcDbSpline
210
0.0
220
0.0
230
1.0
 70
     8
 71
     3
 72
    15
 73
    11
 74
     0
 42
0.000000001
 43
0.00000001
 40
0.0
 40
0.0
 40
0.0
 40
0.0
 40
0.1727545498319416
 40
0.3291788132110008
 40
0.4694868449241916
 40
0.5939622732543326
 40
0.706400099109239
 40
0.8112656049020815
 40
0.9085814076675979
 40
1.0
 40
1.0
 40
1.0
 40
1.0
 10
235.1931867734395
 20
106.0693157832328
 30
0.0
 10
235.2216363528489
 20
106.0695662572441
 30
0.0
 10
235.2758462060507
 20
106.07004352825
 30
0.0
 10
235.3531154910249
 20
106.0731462571571
 30
0.0
 10
235.4222889572463
 20
106.0786534810233
 30
0.0
 10
235.4839039266154
 20
106.0867047880693
 30
0.0
 10
235.5392589083402
 20
106.0973502373286
 30
0.0
 10
235.5888607691248
 20
106.1124982162306
 30
0.0
 10
235.6338650107686
 20
106.1306796513453
 30
0.0
 10
235.6603111218452
 20
106.1471055426378
 30
0.0
 10
235.6731210087025
 20
106.1550618659089
 30
0.0
  0
SPLINE
  5
233
330
1F
100
AcDbEntity
  8
0
  6
SLD-SOLID
 62
     7
100
AcDbSpline
210
0.0
220
0.0
230
1.0
 70
     8
 71
     3
 72
    15
 73
    11
 74
     0
 42
0.000000001
 43
0.00000001
 40
0.0
 40
0.0
 40
0.0
 40
0.0
 40
0.1299899983119072
 40
0.2523573263032184
 40
0.3686450647720558
 40
0.4799074241192084
 40
0.5945564336502938
 40
0.7178857443986448
 40
0.8526085068097672
 40
1.0
 40
1.0
 40
1.0
 40
1.0
 10
235.6731210087025
 20
106.1550618659089
 30
0.0
 10
235.6852329305276
 20
106.1640349494329
 30
0.0
 10
235.7087465257878
 20
106.181454930941
 30
0.0
 10
235.7399330954509
 20
106.2108362114146
 30
0.0
 10
235.7657420413357
 20
106.2422620918804
 30
0.0
 10
235.7867002665297
 20
106.2760628163709
 30
0.0
 10
235.8029610895753
 20
106.3133293581675
 30
0.0
 10
235.8134316454206
 20
106.3553531763297
 30
0.0
 10
235.8206785439357
 20
106.4018896938572
 30
0.0
 10
235.8211849610884
 20
106.4346192619115
 30
0.0
 10
235.821449540346
 20
106.4517189291959
 30
0.0
  0
SPLINE
  5
234
330
1F
100
AcDbEntity
  8
0
  6
SLD-SOLID
 62
     7
100
AcDbSpline
210
0.0
220
0.0
230
1.0
 70
     8
 71
     3
 72
    23
 73
    19
 74
     0
 42
0.000000001
 43
0.00000001
 40
0.0
 40
0.0
 40
0.0
 40
0.0
 40
0.0809888703979177
 40
0.1578866642454557
 40
0.2300425159408056
 40
0.2988473708066464
 40
0.364117444165082
 40
0.4268878897575074
 40
0.4869693325819693
 40
0.5457286938124096
 40
0.6028188634391743
 40
0.6582693192192548
 40
0.7131089500802867
 40
0.7677349198932855
 40
0.8229031265946569
 40
0.8795357212322894
 40
0.9383892794248827
 40
1.0
 40
1.0
 40
1.0
 40
1.0
 10
229.8005302942358
 20
103.9106546142736
 30
0.0
 10
229.799969003374
 20
103.9434514972706
 30
0.0
 10
229.7988747747298
 20
104.007388559593
 30
0.0
 10
229.7908527905576
 20
104.1002863740925
 30
0.0
 10
229.7770536950474
 20
104.1874845236919
 30
0.0
 10
229.7578475355689
 20
104.2688698260106
 30
0.0
 10
229.73236054295
 20
104.3444850868965
 30
0.0
 10
229.7023631024717
 20
104.414652062504
 30
0.0
 10
229.6656268969395
 20
104.4785208087517
 30
0.0
 10
229.6244427955712
 20
104.5368071148897
 30
0.0
 10
229.5779649907583
 20
104.5884953004124
 30
0.0
 10
229.5273206608395
 20
104.6337947734
 30
0.0
 10
229.4720285693634
 20
104.6715119719494
 30
0.0
 10
229.4132711685776
 20
104.7033130337105
 30
0.0
 10
229.3500743316281
 20
104.7272994481263
 30
0.0
 10
229.2829612638747
 20
104.7441442774257
 30
0.0
 10
229.2119168780013
 20
104.7552153619447
 30
0.0
 10
229.1630991667292
 20
104.7562219834969
 30
0.0
 10
229.1381316460744
 20
104.7567368139497
 30
0.0
  0
SPLINE
  5
235
330
1F
100
AcDbEntity
  8
0
  6
SLD-SOLID
 62
     7
100
AcDbSpline
210
0.0
220
0.0
230
1.0
 70
     8
 71
     3
 72
    23
 73
    19
 74
     0
 42
0.000000001
 43
0.00000001
 40
0.0
 40
0.0
 40
0.0
 40
0.0
 40
0.0621758982186105
 40
0.1212622118067595
 40
0.1781245096613921
 40
0.2335132525089257
 40
0.2883433983195862
 40
0.3430921151912614
 40
0.3984506443469742
 40
0.4554461690063616
 40
0.5141081180577328
 40
0.5739251649583388
 40
0.6365915487339191
 40
0.7016480629930028
 40
0.7703388521048484
 40
0.8423750827117618
 40
0.9191453942057234
 40
1.0
 40
1.0
 40
1.0
 40
1.0
 10
229.1381316460744
 20
104.7567368139497
 30
0.0
 10
229.1128929775077
 20
104.7562279823151
 30
0.0
 10
229.0636697758952
 20
104.7552356034158
 30
0.0
 10
228.9920878877527
 20
104.7441422803648
 30
0.0
 10
228.924567902704
 20
104.7273040257621
 30
0.0
 10
228.8609804203583
 20
104.7033013235877
 30
0.0
 10
228.801868010769
 20
104.6716279049435
 30
0.0
 10
228.7465136920937
 20
104.6337806068405
 30
0.0
 10
228.6958501129993
 20
104.5885032713842
 30
0.0
 10
228.6494135672912
 20
104.5367891248192
 30
0.0
 10
228.6081171067431
 20
104.4786416799335
 30
0.0
 10
228.5719904280794
 20
104.4145136954782
 30
0.0
 10
228.5417258638246
 20
104.3445860606241
 30
0.0
 10
228.5169311489907
 20
104.2687757853309
 30
0.0
 10
228.4975406331735
 20
104.1874996252004
 30
0.0
 10
228.4837976484163
 20
104.100281971816
 30
0.0
 10
228.4757595475388
 20
104.0073897593934
 30
0.0
 10
228.4746676003396
 20
103.9434519040535
 30
0.0
 10
228.474107479758
 20
103.9106546142736
 30
0.0
  0
SPLINE
  5
236
330
1F
100
AcDbEntity
  8
0
  6
SLD-SOLID
 62
     7
100
AcDbSpline
210
0.0
220
0.0
230
1.0
 70
     8
 71
     3
 72
    23
 73
    19
 74
     0
 42
0.000000001
 43
0.00000001
 40
0.0
 40
0.0
 40
0.0
 40
0.0
 40
0.0820129129664109
 40
0.1589601266669504
 40
0.2317952858540716
 40
0.3010215657275455
 40
0.3663082626841796
 40
0.4289232692690998
 40
0.4891865274402118
 40
0.5478120773723745
 40
0.6048736360705035
 40
0.6603684860675249
 40
0.7150329524914525
 40
0.7693604753325474
 40
0.8242303999589777
 40
0.8805533304733977
 40
0.939042169328048
 40
1.0
 40
1.0
 40
1.0
 40
1.0
 10
228.474107479758
 20
103.9106546142736
 30
0.0
 10
228.4745995995152
 20
103.8774447488747
 30
0.0
 10
228.4755534422225
 20
103.8130762949392
 30
0.0
 10
228.4844399758049
 20
103.7195792560851
 30
0.0
 10
228.4977587964399
 20
103.6318498118493
 30
0.0
 10
228.5177242285747
 20
103.5502067876375
 30
0.0
 10
228.5428586233836
 20
103.4743654064031
 30
0.0
 10
228.5736928057653
 20
103.4045645406283
 30
0.0
 10
228.6103630132413
 20
103.3407249674681
 30
0.0
 10
228.6526865099568
 20
103.2832252924098
 30
0.0
 10
228.7000334669368
 20
103.2324512084876
 30
0.0
 10
228.7509488671224
 20
103.1876327804028
 30
0.0
 10
228.8061469500052
 20
103.1500659336577
 30
0.0
 10
228.8651534736831
 20
103.1194688715747
 30
0.0
 10
228.9277751634276
 20
103.0951920496678
 30
0.0
 10
228.9944879474562
 20
103.0782714248803
 30
0.0
 10
229.0650607335266
 20
103.0678752691955
 30
0.0
 10
229.1134413289857
 20
103.0667646968341
 30
0.0
 10
229.1381316460744
 20
103.0661979327524
 30
0.0
  0
SPLINE
  5
237
330
1F
100
AcDbEntity
  8
0
  6
SLD-SOLID
 62
     7
100
AcDbSpline
210
0.0
220
0.0
230
1.0
 70
     8
 71
     3
 72
    23
 73
    19
 74
     0
 42
0.000000001
 43
0.00000001
 40
0.0
 40
0.0
 40
0.0
 40
0.0
 40
0.0610171585840675
 40
0.1192314497396616
 40
0.1756091971961347
 40
0.2305325246098713
 40
0.2849129223394756
 40
0.3393541419313754
 40
0.3949030029315309
 40
0.4517927951807843
 40
0.5104754031059193
 40
0.5706306378896772
 40
0.6333065852522927
 40
0.698764024442715
 40
0.7679791167092038
 40
0.8408851635554743
 40
0.9179072670196687
 40
1.0
 40
1.0
 40
1.0
 40
1.0
 10
229.1381316460744
 20
103.0661979327524
 30
0.0
 10
229.1628232385856
 20
103.0667559154566
 30
0.0
 10
229.2110721974
 20
103.0678462495248
 30
0.0
 10
229.2814958943767
 20
103.0783214558476
 30
0.0
 10
229.3480864287888
 20
103.0951822786183
 30
0.0
 10
229.4106883402598
 20
103.1194909485111
 30
0.0
 10
229.4696658323632
 20
103.1499363104004
 30
0.0
 10
229.5245176652262
 20
103.1877941201102
 30
0.0
 10
229.5754470373136
 20
103.2322938771749
 30
0.0
 10
229.6223026229534
 20
103.2833946102713
 30
0.0
 10
229.6647644151778
 20
103.3405882813025
 30
0.0
 10
229.7008911150179
 20
103.4046857596072
 30
0.0
 10
229.7316705543655
 20
103.4744356769986
 30
0.0
 10
229.7575631636018
 20
103.5500606863243
 30
0.0
 10
229.7766972028828
 20
103.6319292247938
 30
0.0
 10
229.7902517283287
 20
103.7195653872438
 30
0.0
 10
229.7990694804045
 20
103.8130801141625
 30
0.0
 10
229.8000331199553
 20
103.8774460487115
 30
0.0
 10
229.8005302942358
 20
103.9106546142736
 30
0.0
  0
SPLINE
  5
238
330
1F
100
AcDbEntity
  8
0
  6
SLD-SOLID
 62
     7
100
AcDbSpline
210
0.0
220
0.0
230
1.0
 70
     8
 71
     3
 72
    15
 73
    11
 74
     0
 42
0.000000001
 43
0.00000001
 40
0.0
 40
0.0
 40
0.0
 40
0.0
 40
0.0970601489001741
 40
0.1980615496336307
 40
0.3053661453037027
 40
0.4191368020036264
 40
0.5437409762099218
 40
0.6816654513080895
 40
0.8340935330739949
 40
1.0
 40
1.0
 40
1.0
 40
1.0
 10
225.4315438731417
 20
104.6490462361811
 30
0.0
 10
225.4204348342979
 20
104.6550275600121
 30
0.0
 10
225.3977656598398
 20
104.6672330869999
 30
0.0
 10
225.3602315789011
 20
104.6804270794459
 30
0.0
 10
225.3195090318388
 20
104.6901995512988
 30
0.0
 10
225.2749347143403
 20
104.6958726662604
 30
0.0
 10
225.2262403696699
 20
104.6998212152726
 30
0.0
 10
225.1724290139636
 20
104.702462382261
 30
0.0
 10
225.1132322930511
 20
104.7047528279318
 30
0.0
 10
225.0719006728242
 20
104.7047314003868
 30
0.0
 10
225.0503598657948
 20
104.7047202329898
 30
0.0
  0
LINE
  5
239
330
1F
100
AcDbEntity
  8
0
  6
SLD-SOLID
 62
     7
100
AcDbLine
 10
225.050359853
 20
104.7047202111
 30
0.0
 11
224.7289138664
 21
104.7047202111
 31
0.0
  0
LINE
  5
23A
330
1F
100
AcDbEntity
  8
0
  6
SLD-SOLID
 62
     7
100
AcDbLine
 10
224.7289138664
 20
104.7047202111
 30
0.0
 11
224.7289138664
 21
104.1065295095
 31
0.0
  0
LINE
  5
23B
330
1F
100
AcDbEntity
  8
0
  6
SLD-SOLID
 62
     7
100
AcDbLine
 10
224.7289138664
 20
104.1065295095
 30
0.0
 11
225.0775870685
 21
104.1065295095
 31
0.0
  0
SPLINE
  5
23C
330
1F
100
AcDbEntity
  8
0
  6
SLD-SOLID
 62
     7
100
AcDbSpline
210
0.0
220
0.0
230
1.0
 70
     8
 71
     3
 72
    15
 73
    11
 74
     0
 42
0.000000001
 43
0.00000001
 40
0.0
 40
0.0
 40
0.0
 40
0.0
 40
0.1705461607113629
 40
0.3227980535782387
 40
0.4569528983495535
 40
0.5732999800301544
 40
0.6797865754272859
 40
0.786913332970288
 40
0.892095296012277
 40
1.0
 40
1.0
 40
1.0
 40
1.0
 10
225.077587294891
 20
104.1065295519507
 30
0.0
 10
225.0976377110466
 20
104.1066692356508
 30
0.0
 10
225.1355877609422
 20
104.1069336193596
 30
0.0
 10
225.1892739603216
 20
104.1093044882592
 30
0.0
 10
225.2364602374421
 20
104.1132960745391
 30
0.0
 10
225.2781207880508
 20
104.1186816023502
 30
0.0
 10
225.3159755787426
 20
104.1274796782687
 30
0.0
 10
225.3514898866929
 20
104.1396137368142
 30
0.0
 10
225.3858622467046
 20
104.1551860872413
 30
0.0
 10
225.4072850702277
 20
104.168207444725
 30
0.0
 10
225.4181333483629
 20
104.1748013144606
 30
0.0
  0
SPLINE
  5
23D
330
1F
100
AcDbEntity
  8
0
  6
SLD-SOLID
 62
     7
100
AcDbSpline
210
0.0
220
0.0
230
1.0
 70
     8
 71
     3
 72
    15
 73
    11
 74
     0
 42
0.000000001
 43
0.00000001
 40
0.0
 40
0.0
 40
0.0
 40
0.0
 40
0.1228317447002776
 40
0.2397191858425421
 40
0.3553248851169352
 40
0.4719261308575472
 40
0.5926220243177087
 40
0.7207504018399246
 40
0.8561034390449856
 40
1.0
 40
1.0
 40
1.0
 40
1.0
 10
225.4181333483629
 20
104.1748013144606
 30
0.0
 10
225.4282715279292
 20
104.1819485737321
 30
0.0
 10
225.4480572613116
 20
104.1958972087346
 30
0.0
 10
225.4731571776838
 20
104.2217050006431
 30
0.0
 10
225.493899192877
 20
104.2503252661819
 30
0.0
 10
225.5091476109979
 20
104.2826340616657
 30
0.0
 10
225.5209758551802
 20
104.3175735014589
 30
0.0
 10
225.5294694728267
 20
104.3554298955001
 30
0.0
 10
225.5342839859332
 20
104.3962881545476
 30
0.0
 10
225.5348691315649
 20
104.4244409536074
 30
0.0
 10
225.5351706555227
 20
104.4389480146477
 30
0.0
  0
SPLINE
  5
23E
330
1F
100
AcDbEntity
  8
0
  6
SLD-SOLID
 62
     7
100
AcDbSpline
210
0.0
220
0.0
230
1.0
 70
     8
 71
     3
 72
    15
 73
    11
 74
     0
 42
0.000000001
 43
0.00000001
 40
0.0
 40
0.0
 40
0.0
 40
0.0
 40
0.1468601540050169
 40
0.2816102318634024
 40
0.4075522463742783
 40
0.5266292304530837
 40
0.6425611015189953
 40
0.7563519253393437
 40
0.8765532127820475
 40
1.0
 40
1.0
 40
1.0
 40
1.0
 10
225.5351706555227
 20
104.4389480146477
 30
0.0
 10
225.534849888229
 20
104.4510179141838
 30
0.0
 10
225.5342348040861
 20
104.474162430339
 30
0.0
 10
225.5298154197174
 20
104.507434590389
 30
0.0
 10
225.522180796196
 20
104.5377780772869
 30
0.0
 10
225.5110825652693
 20
104.5653803340092
 30
0.0
 10
225.4968641414028
 20
104.59038386114
 30
0.0
 10
225.478899791455
 20
104.6129790730459
 30
0.0
 10
225.4570293542124
 20
104.6328334813748
 30
0.0
 10
225.4401141395376
 20
104.643594205383
 30
0.0
 10
225.4315438731417
 20
104.6490462361811
 30
0.0
  0
SPLINE
  5
23F
330
1F
100
AcDbEntity
  8
0
  6
SLD-SOLID
 62
     7
100
AcDbSpline
210
0.0
220
0.0
230
1.0
 70
     8
 71
     3
 72
    15
 73
    11
 74
     0
 42
0.000000001
 43
0.00000001
 40
0.0
 40
0.0
 40
0.0
 40
0.0
 40
0.1511286081911614
 40
0.2874724646289033
 40
0.4096349574839744
 40
0.519450051548831
 40
0.6272412738300441
 40
0.740819577507831
 40
0.8641764089545707
 40
1.0
 40
1.0
 40
1.0
 40
1.0
 10
225.7172286888824
 20
103.5006176596755
 30
0.0
 10
225.7167660976602
 20
103.5200080015877
 30
0.0
 10
225.7158861700252
 20
103.5568917487896
 30
0.0
 10
225.7092160797444
 20
103.6091464668558
 30
0.0
 10
225.6975682447055
 20
103.6550606720647
 30
0.0
 10
225.6811150753908
 20
103.6956259378673
 30
0.0
 10
225.6580538927724
 20
103.7316158673865
 30
0.0
 10
225.6277054227339
 20
103.7640537081886
 30
0.0
 10
225.5898151748472
 20
103.7936008542093
 30
0.0
 10
225.5606264863868
 20
103.8096103155988
 30
0.0
 10
225.5453301439915
 20
103.8180000794387
 30
0.0
  0
SPLINE
  5
240
330
1F
100
AcDbEntity
  8
0
  6
SLD-SOLID
 62
     7
100
AcDbSpline
210
0.0
220
0.0
230
1.0
 70
     8
 71
     3
 72
    15
 73
    11
 74
     0
 42
0.000000001
 43
0.00000001
 40
0.0
 40
0.0
 40
0.0
 40
0.0
 40
0.0955161702706284
 40
0.1970565898426509
 40
0.3055517571330945
 40
0.4216157171813024
 40
0.5472795782555724
 40
0.6860150066494445
 40
0.8368737402452621
 40
1.0
 40
1.0
 40
1.0
 40
1.0
 10
225.5453301439915
 20
103.8180000794387
 30
0.0
 10
225.5339191327909
 20
103.8234015003047
 30
0.0
 10
225.5103774126038
 20
103.834545012164
 30
0.0
 10
225.4718333258425
 20
103.8467960143989
 30
0.0
 10
225.4298839040337
 20
103.8567028313947
 30
0.0
 10
225.3839864806018
 20
103.8628025223627
 30
0.0
 10
225.3339351134462
 20
103.8671084862131
 30
0.0
 10
225.2791921631786
 20
103.8704529981169
 30
0.0
 10
225.2194200033169
 20
103.8717921944615
 30
0.0
 10
225.1779631963573
 20
103.8722283430712
 30
0.0
 10
225.1564249254083
 20
103.8724549376311
 30
0.0
  0
LINE
  5
241
330
1F
100
AcDbEntity
  8
0
  6
SLD-SOLID
 62
     7
100
AcDbLine
 10
225.1564249214
 20
103.8724549682
 30
0.0
 11
224.7289138664
 21
103.8724549682
 31
0.0
  0
LINE
  5
242
330
1F
100
AcDbEntity
  8
0
  6
SLD-SOLID
 62
     7
100
AcDbLine
 10
224.7289138664
 20
103.8724549682
 30
0.0
 11
224.7289138664
 21
103.1182145335
 31
0.0
  0
LINE
  5
243
330
1F
100
AcDbEntity
  8
0
  6
SLD-SOLID
 62
     7
100
AcDbLine
 10
224.7289138664
 20
103.1182145335
 30
0.0
 11
225.0889659677
 21
103.1182145335
 31
0.0
  0
SPLINE
  5
244
330
1F
100
AcDbEntity
  8
0
  6
SLD-SOLID
 62
     7
100
AcDbSpline
210
0.0
220
0.0
230
1.0
 70
     8
 71
     3
 72
    15
 73
    11
 74
     0
 42
0.000000001
 43
0.00000001
 40
0.0
 40
0.0
 40
0.0
 40
0.0
 40
0.1727545498319415
 40
0.3291788132110008
 40
0.4694868449241915
 40
0.5939622732543325
 40
0.7064000991092388
 40
0.8112656049020814
 40
0.9085814076675977
 40
1.0
 40
1.0
 40
1.0
 40
1.0
 10
225.088965921976
 20
103.1182145137123
 30
0.0
 10
225.1174155013853
 20
103.1184649877236
 30
0.0
 10
225.1716253545871
 20
103.1189422587295
 30
0.0
 10
225.2488946395613
 20
103.1220449876366
 30
0.0
 10
225.3180681057827
 20
103.1275522115028
 30
0.0
 10
225.3796830751517
 20
103.1356035185488
 30
0.0
 10
225.4350380568766
 20
103.1462489678081
 30
0.0
 10
225.4846399176612
 20
103.1613969467102
 30
0.0
 10
225.529644159305
 20
103.1795783818249
 30
0.0
 10
225.5560902703816
 20
103.1960042731174
 30
0.0
 10
225.5689001572389
 20
103.2039605963885
 30
0.0
  0
SPLINE
  5
245
330
1F
100
AcDbEntity
  8
0
  6
SLD-SOLID
 62
     7
100
AcDbSpline
210
0.0
220
0.0
230
1.0
 70
     8
 71
     3
 72
    15
 73
    11
 74
     0
 42
0.000000001
 43
0.00000001
 40
0.0
 40
0.0
 40
0.0
 40
0.0
 40
0.1299899983119069
 40
0.2523573263032184
 40
0.3686450647720556
 40
0.4799074241192082
 40
0.5945564336502942
 40
0.7178857443986447
 40
0.8526085068097677
 40
1.0
 40
1.0
 40
1.0
 40
1.0
 10
225.5689001572389
 20
103.2039605963885
 30
0.0
 10
225.581012079064
 20
103.2129336799125
 30
0.0
 10
225.6045256743242
 20
103.2303536614206
 30
0.0
 10
225.6357122439873
 20
103.2597349418942
 30
0.0
 10
225.6615211898721
 20
103.29116082236
 30
0.0
 10
225.6824794150661
 20
103.3249615468505
 30
0.0
 10
225.6987402381117
 20
103.362228088647
 30
0.0
 10
225.7092107939571
 20
103.4042519068093
 30
0.0
 10
225.7164576924721
 20
103.4507884243368
 30
0.0
 10
225.7169641096248
 20
103.483517992391
 30
0.0
 10
225.7172286888824
 20
103.5006176596755
 30
0.0
  0
SPLINE
  5
246
330
1F
100
AcDbEntity
  8
0
  6
SLD-SOLID
 62
     7
100
AcDbSpline
210
0.0
220
0.0
230
1.0
 70
     8
 71
     3
 72
    15
 73
    11
 74
     0
 42
0.000000001
 43
0.00000001
 40
0.0
 40
0.0
 40
0.0
 40
0.0
 40
0.0984900299220154
 40
0.2018380275637325
 40
0.3116948969422743
 40
0.4274599879961246
 40
0.5528053385861433
 40
0.6899099414542642
 40
0.8389457546750263
 40
1.0
 40
1.0
 40
1.0
 40
1.0
 10
236.324141029779
 20
103.2836109859833
 30
0.0
 10
236.331762071044
 20
103.3031455902486
 30
0.0
 10
236.3473800573327
 20
103.3431783326214
 30
0.0
 10
236.365540806698
 20
103.4070834856512
 30
0.0
 10
236.3795271490365
 20
103.4757270490464
 30
0.0
 10
236.3899865417583
 20
103.5497161147528
 30
0.0
 10
236.3975884114723
 20
103.629866051795
 30
0.0
 10
236.4026346511157
 20
103.7173003094451
 30
0.0
 10
236.4059239301863
 20
103.8124212718788
 30
0.0
 10
236.4063926387757
 20
103.8784122090794
 30
0.0
 10
236.4066360761451
 20
103.9126865119673
 30
0.0
  0
SPLINE
  5
247
330
1F
100
AcDbEntity
  8
0
  6
SLD-SOLID
 62
     7
100
AcDbSpline
210
0.0
220
0.0
230
1.0
 70
     8
 71
     3
 72
    15
 73
    11
 74
     0
 42
0.000000001
 43
0.00000001
 40
0.0
 40
0.0
 40
0.0
 40
0.0
 40
0.1596511372780683
 40
0.3085655703298847
 40
0.446193371006681
 40
0.5739690612705018
 40
0.6921583564928286
 40
0.8020565012233002
 40
0.9040987413505454
 40
0.9999999999999999
 40
0.9999999999999999
 40
0.9999999999999999
 40
0.9999999999999999
 10
236.4066360761451
 20
103.9126865119673
 30
0.0
 10
236.4063902390074
 20
103.9466899470119
 30
0.0
 10
236.405915097534
 20
104.0124100508997
 30
0.0
 10
236.4026264491115
 20
104.1073940946771
 30
0.0
 10
236.39755248801
 20
104.1955060703464
 30
0.0
 10
236.3899047393252
 20
104.2768541622216
 30
0.0
 10
236.3798512354497
 20
104.3520393276008
 30
0.0
 10
236.3650204064667
 20
104.4208026206101
 30
0.0
 10
236.3474025871088
 20
104.4840997519903
 30
0.0
 10
236.3309115846812
 20
104.5229429654291
 30
0.0
 10
236.3229218911627
 20
104.5417620379513
 30
0.0
  0
SPLINE
  5
248
330
1F
100
AcDbEntity
  8
0
  6
SLD-SOLID
 62
     7
100
AcDbSpline
210
0.0
220
0.0
230
1.0
 70
     8
 71
     3
 72
    15
 73
    11
 74
     0
 42
0.000000001
 43
0.00000001
 40
0.0
 40
0.0
 40
0.0
 40
0.0
 40
0.1302336202016392
 40
0.2533235947621273
 40
0.3705049145481282
 40
0.4852872396224128
 40
0.6008722347763201
 40
0.7234306548017307
 40
0.8556410648324596
 40
1.0
 40
1.0
 40
1.0
 40
1.0
 10
236.3229218911627
 20
104.5417620379513
 30
0.0
 10
236.3145041220371
 20
104.5586335745833
 30
0.0
 10
236.298130319854
 20
104.5914512011083
 30
0.0
 10
236.2677556483662
 20
104.635963574262
 30
0.0
 10
236.2316518043172
 20
104.6727766620022
 30
0.0
 10
236.1920009934136
 20
104.7040235741155
 30
0.0
 10
236.1465676209952
 20
104.7279595211586
 30
0.0
 10
236.0955516633688
 20
104.7449691578703
 30
0.0
 10
236.0384550198383
 20
104.7551795407052
 30
0.0
 10
235.9984042821061
 20
104.7562027412399
 30
0.0
 10
235.9774992832258
 20
104.7567368139497
 30
0.0
  0
SPLINE
  5
249
330
1F
100
AcDbEntity
  8
0
  6
SLD-SOLID
 62
     7
100
AcDbSpline
210
0.0
220
0.0
230
1.0
 70
     8
 71
     3
 72
    15
 73
    11
 74
     0
 42
0.000000001
 43
0.00000001
 40
0.0
 40
0.0
 40
0.0
 40
0.0
 40
0.1413728161521947
 40
0.271633327037034
 40
0.3941115680980365
 40
0.5104341139114749
 40
0.6257922686548112
 40
0.743398147937977
 40
0.8678883717593756
 40
1.0
 40
1.0
 40
1.0
 40
1.0
 10
235.9774992832258
 20
104.7567368139497
 30
0.0
 10
235.9568633212451
 20
104.7562026538352
 30
0.0
 10
235.9172134425627
 20
104.7551763201097
 30
0.0
 10
235.8604258414835
 20
104.7448569445054
 30
0.0
 10
235.8091427692391
 20
104.7278992746138
 30
0.0
 10
235.7631123277719
 20
104.7039696235781
 30
0.0
 10
235.7222404316728
 20
104.6730960318118
 30
0.0
 10
235.6867244138336
 20
104.6347119278475
 30
0.0
 10
235.6544472856429
 20
104.5904138917751
 30
0.0
 10
235.6380701677273
 20
104.5566877080551
 30
0.0
 10
235.6296383980564
 20
104.5393237607188
 30
0.0
  0
SPLINE
  5
24A
330
1F
100
AcDbEntity
  8
0
  6
SLD-SOLID
 62
     7
100
AcDbSpline
210
0.0
220
0.0
230
1.0
 70
     8
 71
     3
 72
    15
 73
    11
 74
     0
 42
0.000000001
 43
0.00000001
 40
0.0
 40
0.0
 40
0.0
 40
0.0
 40
0.1641007877079224
 40
0.3141068989893869
 40
0.4507499698644465
 40
0.5734501429382803
 40
0.6864814603067122
 40
0.7948918672846367
 40
0.8993730472043223
 40
1.0
 40
1.0
 40
1.0
 40
1.0
 10
235.5483624903065
 20
103.9102482347348
 30
0.0
 10
235.5484780284754
 20
103.8757043257046
 30
0.0
 10
235.5486991811979
 20
103.8095834965727
 30
0.0
 10
235.5514673659884
 20
103.7147247213572
 30
0.0
 10
235.5564346643559
 20
103.6286959145462
 30
0.0
 10
235.5624667121224
 20
103.5505250364935
 30
0.0
 10
235.5722185395825
 20
103.4786858391268
 30
0.0
 10
235.5859855661511
 20
103.4114360472493
 30
0.0
 10
235.6038685108347
 20
103.3477820361801
 30
0.0
 10
235.6200662149568
 20
103.3077305810854
 30
0.0
 10
235.6280128799014
 20
103.2880811609096
 30
0.0
  0
SPLINE
  5
24B
330
1F
100
AcDbEntity
  8
0
  6
SLD-SOLID
 62
     7
100
AcDbSpline
210
0.0
220
0.0
230
1.0
 70
     8
 71
     3
 72
    15
 73
    11
 74
     0
 42
0.000000001
 43
0.00000001
 40
0.0
 40
0.0
 40
0.0
 40
0.0
 40
0.1279442181211496
 40
0.2482369193370229
 40
0.3644446802024287
 40
0.4785790913491301
 40
0.5947180955730508
 40
0.7179626744033674
 40
0.8521394834580083
 40
0.9999999999999999
 40
0.9999999999999999
 40
0.9999999999999999
 40
0.9999999999999999
 10
235.6280128799014
 20
103.2880811609096
 30
0.0
 10
235.6359556620727
 20
103.2709038065256
 30
0.0
 10
235.6513662199403
 20
103.2375763643227
 30
0.0
 10
235.6815468203469
 20
103.1927072069768
 30
0.0
 10
235.7162515426513
 20
103.1540315178846
 30
0.0
 10
235.7562164519793
 20
103.1216402929715
 30
0.0
 10
235.8023045764356
 20
103.0964862530632
 30
0.0
 10
235.8547521115133
 20
103.0785916449747
 30
0.0
 10
235.913963130875
 20
103.0681470568638
 30
0.0
 10
235.955646444284
 20
103.0668683210858
 30
0.0
 10
235.9774992832258
 20
103.0661979327524
 30
0.0
  0
SPLINE
  5
24C
330
1F
100
AcDbEntity
  8
0
  6
SLD-SOLID
 62
     7
100
AcDbSpline
210
0.0
220
0.0
230
1.0
 70
     8
 71
     3
 72
    15
 73
    11
 74
     0
 42
0.000000001
 43
0.00000001
 40
0.0
 40
0.0
 40
0.0
 40
0.0
 40
0.1414581697554178
 40
0.2727119044869397
 40
0.3952640915827985
 40
0.5124813484088725
 40
0.6279091504467647
 40
0.7455860340844482
 40
0.8690789999429572
 40
1.0
 40
1.0
 40
1.0
 40
1.0
 10
235.9774992832258
 20
103.0661979327524
 30
0.0
 10
235.9981322768994
 20
103.066745310286
 30
0.0
 10
236.0379098522047
 20
103.0678005789205
 30
0.0
 10
236.0948663345048
 20
103.0779970007515
 30
0.0
 10
236.1463375022574
 20
103.0951495375216
 30
0.0
 10
236.1926393779623
 20
103.1188299497353
 30
0.0
 10
236.2335309426767
 20
103.149879687795
 30
0.0
 10
236.2691085237192
 20
103.1880023796279
 30
0.0
 10
236.3005682589649
 20
103.2325196903579
 30
0.0
 10
236.3161319701254
 20
103.2662522614756
 30
0.0
 10
236.324141029779
 20
103.2836109859833
 30
0.0
  0
SPLINE
  5
24D
330
1F
100
AcDbEntity
  8
0
  6
SLD-SOLID
 62
     7
100
AcDbSpline
210
0.0
220
0.0
230
1.0
 70
     8
 71
     3
 72
    15
 73
    11
 74
     0
 42
0.000000001
 43
0.00000001
 40
0.0
 40
0.0
 40
0.0
 40
0.0
 40
0.092932701423152
 40
0.1955187970205157
 40
0.30914605086556
 40
0.4331371720548349
 40
0.5654292707948642
 40
0.7044741864873683
 40
0.8490924635745121
 40
1.0
 40
1.0
 40
1.0
 40
1.0
 10
235.6296383980564
 20
104.5393237607188
 30
0.0
 10
235.6220872596176
 20
104.5210327218252
 30
0.0
 10
235.6062006074373
 20
104.4825506604414
 30
0.0
 10
235.588886912499
 20
104.4189434761105
 30
0.0
 10
235.574826465714
 20
104.3479122851468
 30
0.0
 10
235.5645863330621
 20
104.2698260436851
 30
0.0
 10
235.5576909397096
 20
104.1859874604653
 30
0.0
 10
235.552414783123
 20
104.0976423759326
 30
0.0
 10
235.549116190878
 20
104.0052302660495
 30
0.0
 10
235.5486172631555
 20
103.942354940814
 30
0.0
 10
235.5483624903065
 20
103.9102482347348
 30
0.0
  0
LINE
  5
24E
330
1F
100
AcDbEntity
  8
0
  6
SLD-SOLID
 62
     7
100
AcDbLine
 10
147.1062976137
 20
80.1507672396
 30
0.0
 11
146.9062976187
 21
79.9507675794
 31
0.0
  0
LINE
  5
24F
330
1F
100
AcDbEntity
  8
0
  6
SLD-SOLID
 62
     7
100
AcDbLine
 10
146.9062976187
 20
80.1507672396
 30
0.0
 11
146.9062976187
 21
79.9507675794
 31
0.0
  0
LINE
  5
250
330
1F
100
AcDbEntity
  8
0
  6
SLD-SOLID
 62
     7
100
AcDbLine
 10
147.1062976137
 20
80.1507672396
 30
0.0
 11
146.9062976187
 21
80.1507672396
 31
0.0
  0
LINE
  5
251
330
1F
100
AcDbEntity
  8
0
  6
SLD-SOLID
 62
     7
100
AcDbLine
 10
146.9062976187
 20
80.1507672396
 30
0.0
 11
146.9062976187
 21
130.5507673052
 31
0.0
  0
LINE
  5
252
330
1F
100
AcDbEntity
  8
0
  6
SLD-SOLID
 62
     7
100
AcDbLine
 10
141.3062976875
 20
80.1507672396
 30
0.0
 11
146.9062976187
 21
80.1507672396
 31
0.0
  0
LINE
  5
253
330
1F
100
AcDbEntity
  8
0
  6
SLD-SOLID
 62
     7
100
AcDbLine
 10
141.3062976875
 20
130.5507673052
 30
0.0
 11
141.3062976875
 21
80.1507672396
 31
0.0
  0
LINE
  5
254
330
1F
100
AcDbEntity
  8
0
  6
SLD-SOLID
 62
     7
100
AcDbLine
 10
146.9062976187
 20
130.5507673052
 30
0.0
 11
141.3062976875
 21
130.5507673052
 31
0.0
  0
LINE
  5
255
330
1F
100
AcDbEntity
  8
0
  6
SLD-SOLID
 62
     7
100
AcDbLine
 10
146.9062976187
 20
79.9507675794
 30
0.0
 11
141.3062976875
 21
79.9507675794
 31
0.0
  0
LINE
  5
256
330
1F
100
AcDbEntity
  8
0
  6
SLD-SOLID
 62
     7
100
AcDbLine
 10
141.3062976875
 20
79.9507675794
 30
0.0
 11
141.3062976875
 21
80.1507672396
 31
0.0
  0
LINE
  5
257
330
1F
100
AcDbEntity
  8
0
  6
SLD-SOLID
 62
     7
100
AcDbLine
 10
147.1062976137
 20
130.5507673052
 30
0.0
 11
147.1062976137
 21
80.1507672396
 31
0.0
  0
LINE
  5
258
330
1F
100
AcDbEntity
  8
0
  6
SLD-SOLID
 62
     7
100
AcDbLine
 10
147.1062976137
 20
130.5507673052
 30
0.0
 11
146.9062976187
 21
130.5507673052
 31
0.0
  0
LINE
  5
259
330
1F
100
AcDbEntity
  8
0
  6
SLD-SOLID
 62
     7
100
AcDbLine
 10
146.9062976187
 20
130.7507669654
 30
0.0
 11
146.9062976187
 21
130.5507673052
 31
0.0
  0
LINE
  5
25A
330
1F
100
AcDbEntity
  8
0
  6
SLD-SOLID
 62
     7
100
AcDbLine
 10
146.9062976187
 20
130.7507669654
 30
0.0
 11
147.1062976137
 21
130.5507673052
 31
0.0
  0
LINE
  5
25B
330
1F
100
AcDbEntity
  8
0
  6
SLD-SOLID
 62
     7
100
AcDbLine
 10
141.3062976875
 20
130.7507669654
 30
0.0
 11
146.9062976187
 21
130.7507669654
 31
0.0
  0
LINE
  5
25C
330
1F
100
AcDbEntity
  8
0
  6
SLD-SOLID
 62
     7
100
AcDbLine
 10
141.3062976875
 20
130.5507673052
 30
0.0
 11
141.3062976875
 21
130.7507669654
 31
0.0
  0
LINE
  5
25D
330
1F
100
AcDbEntity
  8
0
  6
SLD-SOLID
 62
     7
100
AcDbLine
 10
141.3062976875
 20
80.1507672396
 30
0.0
 11
141.1062975615
 21
80.1507672396
 31
0.0
  0
LINE
  5
25E
330
1F
100
AcDbEntity
  8
0
  6
SLD-SOLID
 62
     7
100
AcDbLine
 10
141.1062975615
 20
80.1507672396
 30
0.0
 11
141.1062975615
 21
130.5507673052
 31
0.0
  0
LINE
  5
25F
330
1F
100
AcDbEntity
  8
0
  6
SLD-SOLID
 62
     7
100
AcDbLine
 10
141.3062976875
 20
130.5507673052
 30
0.0
 11
141.1062975615
 21
130.5507673052
 31
0.0
  0
LINE
  5
260
330
1F
100
AcDbEntity
  8
0
  6
SLD-SOLID
 62
     7
100
AcDbLine
 10
141.3062976875
 20
79.9507675794
 30
0.0
 11
141.1062975615
 21
80.1507672396
 31
0.0
  0
LINE
  5
261
330
1F
100
AcDbEntity
  8
0
  6
SLD-SOLID
 62
     7
100
AcDbLine
 10
141.1062975615
 20
130.5507673052
 30
0.0
 11
141.3062976875
 21
130.7507669654
 31
0.0
  0
DIMENSION
  5
262
330
1F
100
AcDbEntity
  8
0
  6
SLD-SOLID
 62
     7
100
AcDbDimension
  2
_D_2
 10
141.1062976137
 20
140.7507672724
 30
0.0
 11
160.9999545885
 21
140.7507672724
 31
0.0
 70
   160
  1
<>
  3
SLDDIMSTYLE1
100
AcDbAlignedDimension
 13
147.1062976137
 23
130.5507672724
 33
0.0
 14
141.1062976137
 24
130.5507672724
 34
0.0
100
AcDbRotatedDimension
  0
MTEXT
  5
275
330
1F
100
AcDbEntity
  8
0
  6
CONTINUOUS
 62
     7
100
AcDbMText
 10
106.8063992431
 20
122.6853867197
 30
0.0
 40
2.1166666667
 41
0.0
 71
     1
 72
     1
  1
S1
  7
SLDTEXTSTYLE0
  0
LEADER
  5
277
330
1F
100
AcDbEntity
  8
0
  6
CONTINUOUS
 62
     7
100
AcDbLeader
  3
SLDDIMSTYLE2
 76
     3
 10
141.3062976137
 20
105.523422895
 30
0.0
 10
114.6625
 20
120.3125
 30
0.0
 10
108.3125
 20
120.3125
 30
0.0
1001
ACAD
1000
DSTYLE
1002
{
1070
     6
1000

1002
}
  0
MTEXT
  5
278
330
1F
100
AcDbEntity
  8
0
  6
CONTINUOUS
 62
     7
100
AcDbMText
 10
175.2897975402
 20
92.2183630679
 30
0.0
 40
2.1166666667
 41
0.0
 71
     1
 72
     1
  1
S2
  7
SLDTEXTSTYLE0
  0
LEADER
  5
279
330
1F
100
AcDbEntity
  8
0
  6
CONTINUOUS
 62
     7
100
AcDbLeader
  3
SLDDIMSTYLE2
 76
     3
 10
146.9062976137
 20
105.523422895
 30
0.0
 10
166.5875
 20
95.3125
 30
0.0
 10
172.9375
 20
95.3125
 30
0.0
1001
ACAD
1000
DSTYLE
1002
{
1070
     6
1000

1002
}
  0
LINE
  5
27A
330
1F
100
AcDbEntity
  8
0
  6
SLD-SOLID
 62
     7
100
AcDbLine
 10
270.7364800528
 20
200.4272656695
 30
0.0
 11
270.8071907309
 21
200.5497401563
 31
0.0
  0
LINE
  5
27B
330
1F
100
AcDbEntity
  8
0
  6
SLD-SOLID
 62
     7
100
AcDbLine
 10
270.877901409
 20
200.4272656695
 30
0.0
 11
270.8071907309
 21
200.5497401563
 31
0.0
  0
LINE
  5
27C
330
1F
100
AcDbEntity
  8
0
  6
SLD-SOLID
 62
     7
100
AcDbLine
 10
270.877901409
 20
200.4272656695
 30
0.0
 11
270.7364800528
 21
200.4272656695
 31
0.0
  0
LINE
  5
27D
330
1F
100
AcDbEntity
  8
0
  6
SLD-SOLID
 62
     7
100
AcDbLine
 10
270.877901409
 20
200.4272656695
 30
0.0
 11
270.877901409
 21
179.85043721
 31
0.0
  0
LINE
  5
27E
330
1F
100
AcDbEntity
  8
0
  6
SLD-SOLID
 62
     7
100
AcDbLine
 10
270.877901409
 20
179.85043721
 30
0.0
 11
270.7364800528
 21
179.85043721
 31
0.0
  0
LINE
  5
27F
330
1F
100
AcDbEntity
  8
0
  6
SLD-SOLID
 62
     7
100
AcDbLine
 10
270.7364800528
 20
179.85043721
 30
0.0
 11
270.7364800528
 21
200.4272656695
 31
0.0
  0
LINE
  5
280
330
1F
100
AcDbEntity
  8
0
  6
SLD-SOLID
 62
     7
100
AcDbLine
 10
270.7364800528
 20
200.4272656695
 30
0.0
 11
252.9173891669
 21
210.7140078785
 31
0.0
  0
LINE
  5
281
330
1F
100
AcDbEntity
  8
0
  6
SLD-SOLID
 62
     7
100
AcDbLine
 10
252.9173891669
 20
210.7140078785
 30
0.0
 11
252.988099845
 21
210.8364823653
 31
0.0
  0
LINE
  5
282
330
1F
100
AcDbEntity
  8
0
  6
SLD-SOLID
 62
     7
100
AcDbLine
 10
252.988099845
 20
210.8364823653
 30
0.0
 11
270.8071907309
 21
200.5497401563
 31
0.0
  0
LINE
  5
283
330
1F
100
AcDbEntity
  8
0
  6
SLD-SOLID
 62
     7
100
AcDbLine
 10
270.8071907309
 20
200.5497401563
 30
0.0
 11
272.7870897182
 21
201.6927115128
 31
0.0
  0
LINE
  5
284
330
1F
100
AcDbEntity
  8
0
  6
SLD-SOLID
 62
     7
100
AcDbLine
 10
272.7870897182
 20
201.6927115128
 30
0.0
 11
272.8578003964
 21
201.5702370261
 31
0.0
  0
LINE
  5
285
330
1F
100
AcDbEntity
  8
0
  6
SLD-SOLID
 62
     7
100
AcDbLine
 10
272.8578003964
 20
201.5702370261
 30
0.0
 11
270.877901409
 21
200.4272656695
 31
0.0
  0
LINE
  5
286
330
1F
100
AcDbEntity
  8
0
  6
SLD-SOLID
 62
     7
100
AcDbLine
 10
252.9173891669
 20
190.137179419
 30
0.0
 11
270.7364800528
 21
179.85043721
 31
0.0
  0
LINE
  5
287
330
1F
100
AcDbEntity
  8
0
  6
SLD-SOLID
 62
     7
100
AcDbLine
 10
252.9173891669
 20
210.7140078785
 30
0.0
 11
252.9173891669
 21
190.137179419
 31
0.0
  0
LINE
  5
288
330
1F
100
AcDbEntity
  8
0
  6
SLD-SOLID
 62
     7
100
AcDbLine
 10
272.8578003964
 20
180.9934085665
 30
0.0
 11
272.8578003964
 21
201.5702370261
 31
0.0
  0
LINE
  5
289
330
1F
100
AcDbEntity
  8
0
  6
SLD-SOLID
 62
     7
100
AcDbLine
 10
270.877901409
 20
179.85043721
 30
0.0
 11
272.8578003964
 21
180.9934085665
 31
0.0
  0
LINE
  5
28A
330
1F
100
AcDbEntity
  8
0
  6
SLD-SOLID
 62
     7
100
AcDbLine
 10
254.9679988323
 20
211.9794537218
 30
0.0
 11
252.988099845
 21
210.8364823653
 31
0.0
  0
LINE
  5
28B
330
1F
100
AcDbEntity
  8
0
  6
SLD-SOLID
 62
     7
100
AcDbLine
 10
272.7870897182
 20
201.6927115128
 30
0.0
 11
254.9679988323
 21
211.9794537218
 31
0.0
  0
LINE
  5
28C
330
1F
100
AcDbEntity
  8
0
  6
SLD-SOLID
 62
     7
100
AcDbLine
 10
272.8578003964
 20
201.6518778373
 30
0.0
 11
272.8578003964
 21
201.5702370261
 31
0.0
  0
LINE
  5
28D
330
1F
100
AcDbEntity
  8
0
  6
SLD-SOLID
 62
     7
100
AcDbLine
 10
272.7870897182
 20
201.6927115128
 30
0.0
 11
272.8578003964
 21
201.6518778373
 31
0.0
  0
LINE
  5
28E
330
1F
100
AcDbEntity
  8
0
  6
SLD-SOLID
 62
     7
100
AcDbLine
 10
270.8071907309
 20
179.8096035344
 30
0.0
 11
270.7364800528
 21
179.85043721
 31
0.0
  0
LINE
  5
28F
330
1F
100
AcDbEntity
  8
0
  6
SLD-SOLID
 62
     7
100
AcDbLine
 10
270.8071907309
 20
179.8096035344
 30
0.0
 11
270.877901409
 21
179.85043721
 31
0.0
  0
LINE
  5
290
330
1F
100
AcDbEntity
  8
0
  6
SLD-SOLID
 62
     7
100
AcDbLine
 10
252.9173891669
 20
210.7140078785
 30
0.0
 11
252.9173891669
 21
210.7956486897
 31
0.0
  0
LINE
  5
291
330
1F
100
AcDbEntity
  8
0
  6
SLD-SOLID
 62
     7
100
AcDbLine
 10
252.988099845
 20
210.8364823653
 30
0.0
 11
252.9173891669
 21
210.7956486897
 31
0.0
  0
LINE
  5
292
330
1F
100
AcDbEntity
  8
0
  6
SLD-SOLID
 62
     7
100
AcDbLine
 10
270.8071907309
 20
179.8096035344
 30
0.0
 11
252.988099845
 21
190.0963457434
 31
0.0
  0
LINE
  5
293
330
1F
100
AcDbEntity
  8
0
  6
SLD-SOLID
 62
     7
100
AcDbLine
 10
252.988099845
 20
190.0963457434
 30
0.0
 11
252.9173891669
 21
190.137179419
 31
0.0
  0
LINE
  5
294
330
1F
100
AcDbEntity
  8
0
  6
SLD-SOLID
 62
     7
100
AcDbLine
 10
272.7870897182
 20
180.952574891
 30
0.0
 11
270.8071907309
 21
179.8096035344
 31
0.0
  0
LINE
  5
295
330
1F
100
AcDbEntity
  8
0
  6
SLD-SOLID
 62
     7
100
AcDbLine
 10
272.8578003964
 20
180.9934085665
 30
0.0
 11
272.7870897182
 21
180.952574891
 31
0.0
  0
OLE2FRAME
  5
296
330
1F
100
AcDbEntity
  8
0
100
AcDbOle2Frame
 70
     2
  3
Paintbrush Picture
 10
229.0524258301
 20
33.6996297921
 30
0.0
 11
265.1686469208
 21
28.555479607
 31
0.0
 71
     2
 72
     0
 90
     7296
310
80557333EF78ADA16C40002412788DD94040000000000000000041161DC7B292
310
7040002412788DD94040000000000000000041161DC7B2927040F6DD59E9338E
310
3C4000000000000000007333EF78ADA16C40F6DD59E9338E3C40000000000000
310
00000000000001000000000100000100000001000000000001000000001C0000
310
D0CF11E0A1B11AE1000000000000000000000000000000003E000300FEFF0900
310
0600000000000000000000000100000001000000000000000010000002000000
310
01000000FEFFFFFF0000000000000000FFFFFFFFFFFFFFFFFFFFFFFFFFFFFFFF
310
FFFFFFFFFFFFFFFFFFFFFFFFFFFFFFFFFFFFFFFFFFFFFFFFFFFFFFFFFFFFFFFF
310
FFFFFFFFFFFFFFFFFFFFFFFFFFFFFFFFFFFFFFFFFFFFFFFFFFFFFFFFFFFFFFFF
310
FFFFFFFFFFFFFFFFFFFFFFFFFFFFFFFFFFFFFFFFFFFFFFFFFFFFFFFFFFFFFFFF
310
FFFFFFFFFFFFFFFFFFFFFFFFFFFFFFFFFFFFFFFFFFFFFFFFFFFFFFFFFFFFFFFF
310
FFFFFFFFFFFFFFFFFFFFFFFFFFFFFFFFFFFFFFFFFFFFFFFFFFFFFFFFFFFFFFFF
310
FFFFFFFFFFFFFFFFFFFFFFFFFFFFFFFFFFFFFFFFFFFFFFFFFFFFFFFFFFFFFFFF
310
FFFFFFFFFFFFFFFFFFFFFFFFFFFFFFFFFFFFFFFFFFFFFFFFFFFFFFFFFFFFFFFF
310
FFFFFFFFFFFFFFFFFFFFFFFFFFFFFFFFFFFFFFFFFFFFFFFFFFFFFFFFFFFFFFFF
310
FFFFFFFFFFFFFFFFFFFFFFFFFFFFFFFFFFFFFFFFFFFFFFFFFFFFFFFFFFFFFFFF
310
FFFFFFFFFFFFFFFFFFFFFFFFFFFFFFFFFFFFFFFFFFFFFFFFFFFFFFFFFFFFFFFF
310
FFFFFFFFFFFFFFFFFFFFFFFFFFFFFFFFFFFFFFFFFFFFFFFFFFFFFFFFFFFFFFFF
310
FFFFFFFFFFFFFFFFFFFFFFFFFFFFFFFFFFFFFFFFFFFFFFFFFFFFFFFFFFFFFFFF
310
FFFFFFFFFFFFFFFFFFFFFFFFFFFFFFFFFFFFFFFFFFFFFFFFFFFFFFFFFFFFFFFF
310
FDFFFFFFFEFFFFFFFEFFFFFFFEFFFFFF05000000060000000700000008000000
310
090000000A0000000B0000000C000000FEFFFFFFFFFFFFFFFFFFFFFFFFFFFFFF
310
FFFFFFFFFFFFFFFFFFFFFFFFFFFFFFFFFFFFFFFFFFFFFFFFFFFFFFFFFFFFFFFF
310
FFFFFFFFFFFFFFFFFFFFFFFFFFFFFFFFFFFFFFFFFFFFFFFFFFFFFFFFFFFFFFFF
310
FFFFFFFFFFFFFFFFFFFFFFFFFFFFFFFFFFFFFFFFFFFFFFFFFFFFFFFFFFFFFFFF
310
FFFFFFFFFFFFFFFFFFFFFFFFFFFFFFFFFFFFFFFFFFFFFFFFFFFFFFFFFFFFFFFF
310
FFFFFFFFFFFFFFFFFFFFFFFFFFFFFFFFFFFFFFFFFFFFFFFFFFFFFFFFFFFFFFFF
310
FFFFFFFFFFFFFFFFFFFFFFFFFFFFFFFFFFFFFFFFFFFFFFFFFFFFFFFFFFFFFFFF
310
FFFFFFFFFFFFFFFFFFFFFFFFFFFFFFFFFFFFFFFFFFFFFFFFFFFFFFFFFFFFFFFF
310
FFFFFFFFFFFFFFFFFFFFFFFFFFFFFFFFFFFFFFFFFFFFFFFFFFFFFFFFFFFFFFFF
310
FFFFFFFFFFFFFFFFFFFFFFFFFFFFFFFFFFFFFFFFFFFFFFFFFFFFFFFFFFFFFFFF
310
FFFFFFFFFFFFFFFFFFFFFFFFFFFFFFFFFFFFFFFFFFFFFFFFFFFFFFFFFFFFFFFF
310
FFFFFFFFFFFFFFFFFFFFFFFFFFFFFFFFFFFFFFFFFFFFFFFFFFFFFFFFFFFFFFFF
310
FFFFFFFFFFFFFFFFFFFFFFFFFFFFFFFFFFFFFFFFFFFFFFFFFFFFFFFFFFFFFFFF
310
FFFFFFFFFFFFFFFFFFFFFFFFFFFFFFFFFFFFFFFFFFFFFFFFFFFFFFFFFFFFFFFF
310
FFFFFFFFFFFFFFFFFFFFFFFFFFFFFFFFFFFFFFFFFFFFFFFFFFFFFFFFFFFFFFFF
310
52006F006F007400200045006E00740072007900000000000000000000000000
310
0000000000000000000000000000000000000000000000000000000000000000
310
16000500FFFFFFFFFFFFFFFF020000000A00030000000000C000000000000046
310
000000000000000000000000002AB2EAA6D1D70103000000C000000000000000
310
01004F006C006500000000000000000000000000000000000000000000000000
310
0000000000000000000000000000000000000000000000000000000000000000
310
0A000200FFFFFFFFFFFFFFFFFFFFFFFF00000000000000000000000000000000
310
0000000000000000000000000000000000000000000000001400000000000000
310
010043006F006D0070004F0062006A0000000000000000000000000000000000
310
0000000000000000000000000000000000000000000000000000000000000000
310
120002010100000003000000FFFFFFFF00000000000000000000000000000000
310
0000000000000000000000000000000000000000010000004D00000000000000
310
01004F006C006500310030004E00610074006900760065000000000000000000
310
0000000000000000000000000000000000000000000000000000000000000000
310
1A000200FFFFFFFFFFFFFFFFFFFFFFFF00000000000000000000000000000000
310
000000000000000000000000000000000000000004000000E411000000000000
310
FEFFFFFF02000000FEFFFFFFFFFFFFFFFFFFFFFFFFFFFFFFFFFFFFFFFFFFFFFF
310
FFFFFFFFFFFFFFFFFFFFFFFFFFFFFFFFFFFFFFFFFFFFFFFFFFFFFFFFFFFFFFFF
310
FFFFFFFFFFFFFFFFFFFFFFFFFFFFFFFFFFFFFFFFFFFFFFFFFFFFFFFFFFFFFFFF
310
FFFFFFFFFFFFFFFFFFFFFFFFFFFFFFFFFFFFFFFFFFFFFFFFFFFFFFFFFFFFFFFF
310
FFFFFFFFFFFFFFFFFFFFFFFFFFFFFFFFFFFFFFFFFFFFFFFFFFFFFFFFFFFFFFFF
310
FFFFFFFFFFFFFFFFFFFFFFFFFFFFFFFFFFFFFFFFFFFFFFFFFFFFFFFFFFFFFFFF
310
FFFFFFFFFFFFFFFFFFFFFFFFFFFFFFFFFFFFFFFFFFFFFFFFFFFFFFFFFFFFFFFF
310
FFFFFFFFFFFFFFFFFFFFFFFFFFFFFFFFFFFFFFFFFFFFFFFFFFFFFFFFFFFFFFFF
310
FFFFFFFFFFFFFFFFFFFFFFFFFFFFFFFFFFFFFFFFFFFFFFFFFFFFFFFFFFFFFFFF
310
FFFFFFFFFFFFFFFFFFFFFFFFFFFFFFFFFFFFFFFFFFFFFFFFFFFFFFFFFFFFFFFF
310
FFFFFFFFFFFFFFFFFFFFFFFFFFFFFFFFFFFFFFFFFFFFFFFFFFFFFFFFFFFFFFFF
310
FFFFFFFFFFFFFFFFFFFFFFFFFFFFFFFFFFFFFFFFFFFFFFFFFFFFFFFFFFFFFFFF
310
FFFFFFFFFFFFFFFFFFFFFFFFFFFFFFFFFFFFFFFFFFFFFFFFFFFFFFFFFFFFFFFF
310
FFFFFFFFFFFFFFFFFFFFFFFFFFFFFFFFFFFFFFFFFFFFFFFFFFFFFFFFFFFFFFFF
310
FFFFFFFFFFFFFFFFFFFFFFFFFFFFFFFFFFFFFFFFFFFFFFFFFFFFFFFFFFFFFFFF
310
FFFFFFFFFFFFFFFFFFFFFFFFFFFFFFFFFFFFFFFFFFFFFFFFFFFFFFFFFFFFFFFF
310
0100000200000000000000000000000000000000000000000000000000000000
310
0000000000000000000000000000000000000000000000000000000000000000
310
0100FEFF030A0000FFFFFFFF0A00030000000000C00000000000004607000000
310
5042727573680007000000504272757368000700000050427275736800F439B2
310
7100000000000000000000000000000000000000000000000000000000000000
310
0000000000000000000000000000000000000000000000000000000000000000
310
0000000000000000000000000000000000000000000000000000000000000000
310
0000000000000000000000000000000000000000000000000000000000000000
310
0000000000000000000000000000000000000000000000000000000000000000
310
0000000000000000000000000000000000000000000000000000000000000000
310
0000000000000000000000000000000000000000000000000000000000000000
310
0000000000000000000000000000000000000000000000000000000000000000
310
0000000000000000000000000000000000000000000000000000000000000000
310
0000000000000000000000000000000000000000000000000000000000000000
310
0000000000000000000000000000000000000000000000000000000000000000
310
0000000000000000000000000000000000000000000000000000000000000000
310
E0110000424DDE11000000000000360400002800000096000000170000000100
310
08000000000000000000E7240000E72400000001000000010000000000FF0101
310
01FF020202FF030303FF040404FF050505FF060606FF070707FF080808FF0909
310
09FF0A0A0AFF0B0B0BFF0C0C0CFF0D0D0DFF0E0E0EFF0F0F0FFF101010FF1111
310
11FF121212FF131313FF141414FF151515FF161616FF171717FF181818FF1919
310
19FF1A1A1AFF1B1B1BFF1C1C1CFF1D1D1DFF1E1E1EFF1F1F1FFF202020FF2121
310
21FF222222FF232323FF242424FF252525FF262626FF272727FF282828FF2929
310
29FF2A2A2AFF2B2B2BFF2C2C2CFF2D2D2DFF2E2E2EFF2F2F2FFF303030FF3131
310
31FF323232FF333333FF343434FF353535FF363636FF373737FF383838FF3939
310
39FF3A3A3AFF3B3B3BFF3C3C3CFF3D3D3DFF3E3E3EFF3F3F3FFF404040FF4141
310
41FF424242FF434343FF444444FF454545FF464646FF474747FF484848FF4949
310
49FF4A4A4AFF4B4B4BFF4C4C4CFF4D4D4DFF4E4E4EFF4F4F4FFF505050FF5151
310
51FF525252FF535353FF545454FF555555FF565656FF575757FF585858FF5959
310
59FF5A5A5AFF5B5B5BFF5C5C5CFF5D5D5DFF5E5E5EFF5F5F5FFF606060FF6161
310
61FF626262FF636363FF646464FF656565FF666666FF676767FF686868FF6969
310
69FF6A6A6AFF6B6B6BFF6C6C6CFF6D6D6DFF6E6E6EFF6F6F6FFF707070FF7171
310
71FF727272FF737373FF747474FF757575FF767676FF777777FF787878FF7979
310
79FF7A7A7AFF7B7B7BFF7C7C7CFF7D7D7DFF7E7E7EFF7F7F7FFF808080FF8181
310
81FF828282FF838383FF848484FF858585FF868686FF878787FF888888FF8989
310
89FF8A8A8AFF8B8B8BFF8C8C8CFF8D8D8DFF8E8E8EFF8F8F8FFF909090FF9191
310
91FF929292FF939393FF949494FF959595FF969696FF979797FF989898FF9999
310
99FF9A9A9AFF9B9B9BFF9C9C9CFF9D9D9DFF9E9E9EFF9F9F9FFFA0A0A0FFA1A1
310
A1FFA2A2A2FFA3A3A3FFA4A4A4FFA5A5A5FFA6A6A6FFA7A7A7FFA8A8A8FFA9A9
310
A9FFAAAAAAFFABABABFFACACACFFADADADFFAEAEAEFFAFAFAFFFB0B0B0FFB1B1
310
B1FFB2B2B2FFB3B3B3FFB4B4B4FFB5B5B5FFB6B6B6FFB7B7B7FFB8B8B8FFB9B9
310
B9FFBABABAFFBBBBBBFFBCBCBCFFBDBDBDFFBEBEBEFFBFBFBFFFC0C0C0FFC1C1
310
C1FFC2C2C2FFC3C3C3FFC4C4C4FFC5C5C5FFC6C6C6FFC7C7C7FFC8C8C8FFC9C9
310
C9FFCACACAFFCBCBCBFFCCCCCCFFCDCDCDFFCECECEFFCFCFCFFFD0D0D0FFD1D1
310
D1FFD2D2D2FFD3D3D3FFD4D4D4FFD5D5D5FFD6D6D6FFD7D7D7FFD8D8D8FFD9D9
310
D9FFDADADAFFDBDBDBFFDCDCDCFFDDDDDDFFDEDEDEFFDFDFDFFFE0E0E0FFE1E1
310
E1FFE2E2E2FFE3E3E3FFE4E4E4FFE5E5E5FFE6E6E6FFE7E7E7FFE8E8E8FFE9E9
310
E9FFEAEAEAFFEBEBEBFFECECECFFEDEDEDFFEEEEEEFFEFEFEFFFF0F0F0FFF1F1
310
F1FFF2F2F2FFF3F3F3FFF4F4F4FFF5F5F5FFF6F6F6FFF7F7F7FFF8F8F8FFF9F9
310
F9FFFAFAFAFFFBFBFBFFFCFCFCFFFDFDFDFFFEFEFEFFFFFFFFFFFFFFFFFFFFFF
310
C94E4E4E4F4E4EFFFFFFFFFFC94E4E4E4E4E72FFFFFFFFFFFFFF734E4D4E4E4E
310
C9FFFFFFFFFFAA683516171616265B9BE9FFFFFFFFFF4E4E4E4D4E4EFFFFFFFF
310
FFFFFFFF4E4E4F4E4D4E4E4E4F4E4E4F4D4E4E4E4E4E4D4E4F4E4D4E4E4EAAFF
310
FFFFFFFFFFEA4E4F4F4E4E4E4E4E4D4D4F4F4E4E4E4E4E5B7FAAFFFFFFFFFFFF
310
C9744E1716171616164D8DEAFFFFFFFF0000FFFFFFFFFFFFBA161617161716FF
310
FFFFFFFFB917171616174FFFFFFFFFFFFFFF4E1716161616B9FFFFFFB9341717
310
1716171617171616268CFFFFFFFF161617161617FFFFFFFFFFFFFFB917161717
310
1617167F807F7F7F7F7F7F807F7F807F7F807F7F7F414EFFFFFFFFFFFF8C167F
310
7F807F7F7F7E7F7F807F807F7F807F4E3417258EFFFFEA4E162674AABAEAEBBA
310
AA74341680FFFFFF0000FFFFFFFFFFFFB9171717171617FFFFFFFFFFBB161616
310
16164EFFFFFFFFFFFFFF4E1717171717B9FFFF9C171617171716161616171616
310
171766FFFFFF161717161617FFFFFFFFFFFFFF8E16171717161616FFFFFFFFFF
310
FFFFFFFFFFFFFFFFFFFFFFFFFFAA16D9FFFFFFFFFF3467FFFFFFFFEAFFFFFFFF
310
FFFFFFFFFFFFFFFFFFCA671667EB26278DFFFFFFFFFFFFFFFFFFFF8C2541EAFF
310
0000FFFFFFFFFFFFB9171717171716FFFFFFFFFFBA16171617174EFFFFFFFFFF
310
FFFF4E1717161616BAFF9B1617161616171716171617161616161667FFFF1616
310
16161716FFFFFFFFFFFFFF7F16161617174017FFFFFFFFFFFFFFFFFFFFFFFFFF
310
FFFFFFFFFFFF344E7F7F7F7E7417DAFFFFFFFF80FFFFFFFFFFFFFFFFFFFFFFFF
310
FFFFFF9B163425CAFFFFFFFFFFFFFFFFFFFFFFFFCA2667FF0000FFFFFFFFFFFF
310
BA171717171617FFFFFFFFFFB916171716164EFFFFFFFFFFFFFF4F1716161717
310
B9C91716171616161716161617171616161617168DFF161716161717FFFFFFFF
310
FFFFFF7F17171716164F16FFFFFFFFFFFFFFFFFFFFFFFFFFFFFFFFFFFFFF9B16
310
17161617174EFFFFFFFFFF34FFFFFFFFD9BABABABABADAFFFFFFFFFF7F16AAFF
310
FFFFFFFFFFFFFFFFFFFFFFFFFF9C16BA0000FFFFFFFFFFFFB9161717161717FF
310
FFFFFFFFB917161716174DFFFFFFFFFFFFFF4E1616161616BA4E161617171716
310
419BEAEAAA4E16161617161726E9171717161616FFFFFFFFFFFFFF4F16161717
310
164E16FFFFFFFFFFBAB9B9B9B9B9BABABACAFFFFFFFFFFFFFFFFFFFFFFFFFFFF
310
FFFFBA16FFFFFFFF7F1617161617174DEAFFFFFFEA41FFFFFFFFFFAA4D16174E
310
9BFFFFFFFFFF34730000FFFFFFFFFFFFB9161617171617FFFFFFFFFFBA161616
310
16164EFFFFFFFFFFFFFF4F16161717169B1617161716175BFFFFFFFFFFFF7417
310
16171616168D171717161617FFFFFFFFFFFFEA2616171717167416FFFFFFFFFF
310
16171616171717171717EAFFFFFFFFFFFFFFFFFFFFFFFFFFFFFF6716FFFFFFFF
310
7F4EFFFFFFFFBA2573FFFFFFFFBAFFFFFFFFAA167FB9BB9B269BFFFFFFFF664F
310
0000FFFFFFFFFFFFB9171616161616FFFFFFFFFFBA16161717164EFFFFFFFFFF
310
FFFF4E16161616174E161617171626EAFFFFFFFFFFFFFF4E16161616164E1716
310
16161617FFFFFFFFFFFF671616161716347F16FFFFFFFFFF16B9FFFFFFFFFFFF
310
D9168DFFFFFFFFFFFFFFFFFFFFFFFFFFFFEA1716FFFFFFFF7F4EFFFFFFFFFF7F
310
4EFFFFFFFFFFFFFFFFFF5B66FFFFFFEA347FFFFFFFFF7F4D0000FFFFFFFFFFFF
310
B9171616171617FFFFFFFFFFBA17161716174EFFFFFFFFFFFFFF4D1716161617
310
17161716161673FFFFFFFFFFFFFFFF9B1617161717161616171616174F4E4E4E
310
4E341616171616167E7F16FFFFFFFFFF16BAFFFFFFFFFFFFFF5B41FFFFFFFF34
310
1616171616BAFFFFFF9B1716FFFFFFFF7F4EFFFFFFFFFF4E4EFFFFFFFF734E4E
310
4E4E267EDA9B67164EEAFFFFFFFF744D0000FFFFFFFFFFFFBA171717161617FF
310
FFFFFFFFBA1616171616347F7F7F7F80807F331616161717161717161716B9FF
310
FFFFFFFFFFFFFFE9161616161616171716161716171616161616171616171734
310
EA7F16FFFFFFFFFF16BAFFFFFFFFFFFFFFAA17C9FFFFFF7326BABA5B25FFFFFF
310
FF401716FFFFFFFF7F264F4E4E4E4217AAFFFFFFEA16677F73261616164173CA
310
FFFFFFFFFFFF417F0000FFFFFFFFFFFFBA171616171617FFFFFFFFFFBA161616
310
17171616161616161616161717161616161616161617EAFFFFFFFFFFFFFFFFFF
310
261717161716161617161616161617161617161616174EEAFF8016FFFFFFFFFF
310
17BAFFFFFFFFFFFFFFFF3467FFFFFFC916C9FF3467FFFFFFDA166716FFFFFFFF
310
9C4D4E4E4E4E67AAFFFFFFFF6834FF7F262567AAEAFFFFFFFFFFFFFFFF9B17D9
310
0000FFFFFFFFFFFFB9161616161616FFFFFFFFFFBA1617161717171616161616
310
1716171716161716161617171716FFFFFFFFFFFFFFFFFFFF4E17161716171616
310
1617171616161716171717161616169BFF7F17FFFFFFFFFF17B9FFFFFFFFFFFF
310
FFFF7326FFFFFFFF3473DA16AAFFFFFF7317AA16FFFFFFFFFFFFFFFFFFFFFFFF
310
FFFFEA6725BA4E167FEAFFFFFFFFFFFFFFFFFFFF9C167FFF0000FFFFFFFFFFFF
310
B9161717171716FFFFFFFFFFBA16161716171616171717161617161716161616
310
171617171617EAFFFFFFFFFFFFFFFFFF26161717161616161616161617171616
310
1616161616171616AA8016FFFFFFFFFF16BAFFFFFFFFFFFFFFFFDA179BFFFFFF
310
74348D26FFFFFFFF2566B917FFFFFFFFD8BAB9BAB9BADAFFFFEA41169B7425C9
310
FFFFFFFFFFFFFFFFFFFFAB4F1680FFFF0000FFFFFFFFFFFFBA161717171617FF
310
FFFFFFFFBA17161717161617171617161616161617171616171716171617BBFF
310
FFFFFFFFFFFFFFE9171616161617161617161716FFFFFFFFFFD9671616161617
310
348017FFFFFFFFFF16BAFFFFFFFFFFFFFFFFFF4E5AFFFFFFC916265AFFFFFFAA
310
16AABA16FFFFFFFF7F1617161616179BFFFFEB4127168DFFFFFFFFFFFFFFD99B
310
6734175AC9FFFFFF0000FFFFFFFFFFFFB9161617171617FFFFFFFFFFBB161616
310
1616347F807F7F7F7F8033171716171617171616161672FFFFFFFFFFFFFFFF9C
310
171617171617161716161617FFFFFFFFFFFFFF4117161616174E17FFFFFFFFFF
310
16BAFFFFFFFFFFFFFFFFFF9B16DAFFFFFF34169BFFFFFF5A26FFB917FFFFFFFF
310
7F4EFFFFFFEA5B26FFFFFFEA2616EAFFFFFFFFDA743416331617414E4E4E4ECA
310
0000FFFFFFFFFFFFBA161716161616FFFFFFFFFFBA17171616164EFFFFFFFFFF
310
FFFF4E16161717174E161717171626EBFFFFFFFFFFFFFF4E16161617165B1616
310
16171617FFFFFFFFFFFFFF6716161616161617FFFFFFFFFF16BAFFFFFFFFFFFF
310
FFFFFFEA268CFFFFFF7316EAFFFFEB1774FFB916FFFFFFFF7F4EFFFFFFFF7316
310
FFFFFFFF6826FFFFFFFFEB264D9CEABA257F807F7F6616BA0000FFFFFFFFFFFF
310
BA161716161616FFFFFFFFFFBA16171616164DFFFFFFFFFFFFFF4E1617161617
310
9B1617171717165BEBFFFFFFFFFF671616161617179B171616161616FFFFFFFF
310
FFFFFF3417161617171617FFFFFFFFFF17BAFFFFFFFFFFFFFFFFFFFF6734FFFF
310
FFEBCAFFFFFF8D17C9FFBA17FFFFFFFF7F357F808066174FFFFFFFFF7F16FFFF
310
FFFFD91673B99B415BFFFFFFFFBA16DA00009B7F7F7F807F671617161616167F
310
80807F7E6617161616164EFFFFFFFFFFFFFF4E1616161617B94E171716161616
310
349BC9D9AA4E16171616161634FF161617161717B9B9BAB9BA9B411716171716
310
163416FFFFFFFFFF16B9FFFFFFFFFFFFFFFFFFFFC917CAFFFFFFFFFFFFFF3342
310
FFFFBA17FFFFFFFF9B4E4E4F4E4E66EAFFFFFFFF5B16C9FFFFFFFFAA4E164E73
310
EAFFFFFFFF8D26FF00004E161716161616171617171616171717171617161616
310
17174EFFFFFFFFFFFFFF4E1717171616B9D92616171716171716171717171716
310
16171716AAFF161717171617161617171616161617161716166717FFFFFFFFFF
310
17B9FFFFFFFFFFFFFFFFFFFFFF3467FFFFFFFFFFFFCA168CFFFFBB17FFFFFFFF
310
FFFFFFFFFFFFFFFFFFFFFFEA26265BFFFFFFFFFFFFFFFFFFFFFFFFFFEA3467FF
310
00004D16161616161617161717161617161616171617171616164EFFFFFFFFFF
310
FFFF4D1617161616BAFF9B1616161616161716161616171717161766FFFF1616
310
16171617161617161716171616171717667F16FFFFFFFFFF17BAFFFFFFFFFFFF
310
FFFFFFFFFF8C26EAFFFFFFFFFF6617EAFFFFBA17FFFFFFFFFFFFFFFFFFFFFFFF
310
FFFFEA5A25BA269BFFFFFFFFFFFFFFFFFFFFFFFF6616DAFF00004E1616171616
310
1616161616161716161617171616171616174EFFFFFFFFFFFFFF4D1717171716
310
B9FFFF9C161616161616161716161717171667FFFFFF17161717171716161617
310
1716161616161641E97E16FFFFFFFFFF16B9FFFFFFFFFFFFFFFFFFFFFFEA169B
310
FFFFFFFFEA265BFFFFFFB916FFFFFFFFFFFFFFFFFFFFFFFFFF9B3416AAFF9B17
310
67EAFFFFFFFFFFFFFFFFEA5B169BFFFF00004D17161716161616161717171616
310
161717161716171716174EFFFFFFFFFFFFFF4D1616161616BAFFFFFFBB411616
310
161716161616171634ABFFFFFFFF161716161617171716171617171617267FFF
310
FF7F164E4E4E4E4F17BAFFFFFFFFFFFFFFFFFFFFFFFF66344D4E4E4F4117AAFF
310
FFFFBA174E4E4E4D4E4D4D4E4E4E4E4116174EBBFFFFFFCA342666ABEAFFFFEA
310
AA6725269CFFFFFF0000724F4E4D4D4D4E4D4D4E4E4E4D4E4E4E4E4E4E4E4E4D
310
4E4E74FFFFFFFFFFFFFF734E4E4E4D4ECAFFFFFFFFFFAA663416171717265B9B
310
FFFFFFFFFFFF7F8080807F80807F7F7F7F7F807FBAFFFFFFFF9B4E4E4F4D4D4E
310
4DC9FFFFFFFFFFFFFFFFFFFFFFFFBA4E4E4E4E4D4E4EFFFFFFFFC94E4E4E4F4E
310
4E4E4D4E4E5A807F9CD9FFFFFFFFFFFFFF9B5B2617171716174E8DEAFFFFFFFF
310
0000000000000000000000000000000000000000000000000000000000000000
  1
OLE
  0
ENDSEC
  0
SECTION
  2
OBJECTS
  0
DICTIONARY
  5
C
330
0
100
AcDbDictionary
  3
ACAD_GROUP
350
D
  3
ACAD_MLINESTYLE
350
17
  3
ACAD_SCALELIST
350
47
1001
ACAD
1000
TREAT_AS_HARD
1070
     0
  0
DICTIONARY
  5
D
102
{ACAD_REACTORS
330
C
102
}
330
C
100
AcDbDictionary
1001
ACAD
1000
TREAT_AS_HARD
1070
     0
  0
DICTIONARY
  5
17
102
{ACAD_REACTORS
330
C
102
}
330
C
100
AcDbDictionary
  3
STANDARD
350
18
1001
ACAD
1000
TREAT_AS_HARD
1070
     0
  0
DICTIONARY
  5
47
102
{ACAD_REACTORS
330
C
102
}
330
C
100
AcDbDictionary
1001
ACAD
1000
TREAT_AS_HARD
1070
     0
  0
MLINESTYLE
  5
18
102
{ACAD_REACTORS
330
17
102
}
330
17
100
AcDbMlineStyle
  2
Standard
 70
     0
  3

 62
   256
 51
90.0
 52
90.0
 71
     2
 49
0.5
 62
   256
  6
BYLAYER
 49
-0.5
 62
   256
  6
BYLAYER
  0
ENDSEC
  0
EOF
