  0
SECTION
  2
HEADER
  9
$ACADVER
  1
AC1015
  9
$ACADMAINTVER
 70
     6
  9
$DWGCODEPAGE
  3
ANSI_1252
  9
$INSBASE
 10
0.0
 20
0.0
 30
0.0
  9
$EXTMIN
 10
0.0
 20
0.0
 30
0.0
  9
$EXTMAX
 10
279.4
 20
215.9
 30
0.0
  9
$LIMMIN
 10
0.0
 20
0.0
  9
$LIMMAX
 10
279.4
 20
215.9
  9
$ORTHOMODE
 70
     0
  9
$REGENMODE
 70
     1
  9
$FILLMODE
 70
     1
  9
$QTEXTMODE
 70
     0
  9
$MIRRTEXT
 70
     1
  9
$LTSCALE
 40
1.0
  9
$ATTMODE
 70
     1
  9
$TEXTSIZE
 40
2.8222222222
  9
$TRACEWID
 40
1.0
  9
$TEXTSTYLE
  7
Standard
  9
$CLAYER
  8
0
  9
$CELTYPE
  6
ByLayer
  9
$CECOLOR
 62
   256
  9
$CELTSCALE
 40
1.0
  9
$DISPSILH
 70
     0
  9
$DIMSCALE
 40
1.0
  9
$DIMASZ
 40
3.175
  9
$DIMEXO
 40
1.27
  9
$DIMDLI
 40
3.75
  9
$DIMRND
 40
0.0
  9
$DIMDLE
 40
0.0
  9
$DIMEXE
 40
1.778
  9
$DIMTP
 40
0.0
  9
$DIMTM
 40
0.0
  9
$DIMTXT
 40
2.8222222222
  9
$DIMCEN
 40
2.5
  9
$DIMTSZ
 40
0.0
  9
$DIMTOL
 70
     0
  9
$DIMLIM
 70
     0
  9
$DIMTIH
 70
     1
  9
$DIMTOH
 70
     1
  9
$DIMSE1
 70
     0
  9
$DIMSE2
 70
     0
  9
$DIMTAD
 70
     0
  9
$DIMZIN
 70
     1
  9
$DIMBLK
  1

  9
$DIMASO
 70
     1
  9
$DIMSHO
 70
     1
  9
$DIMPOST
  1

  9
$DIMAPOST
  1

  9
$DIMALT
 70
     0
  9
$DIMALTD
 70
     3
  9
$DIMALTF
 40
0.0393700787
  9
$DIMLFAC
 40
1.0
  9
$DIMTOFL
 70
     1
  9
$DIMTVP
 40
0.0
  9
$DIMTIX
 70
     0
  9
$DIMSOXD
 70
     0
  9
$DIMSAH
 70
     0
  9
$DIMBLK1
  1

  9
$DIMBLK2
  1

  9
$DIMSTYLE
  2
ISO-25
  9
$DIMCLRD
 70
     0
  9
$DIMCLRE
 70
     0
  9
$DIMCLRT
 70
     0
  9
$DIMTFAC
 40
1.0
  9
$DIMGAP
 40
2.54
  9
$DIMJUST
 70
     0
  9
$DIMSD1
 70
     0
  9
$DIMSD2
 70
     0
  9
$DIMTOLJ
 70
     0
  9
$DIMTZIN
 70
     1
  9
$DIMALTZ
 70
     0
  9
$DIMALTTZ
 70
     0
  9
$DIMUPT
 70
     0
  9
$DIMDEC
 70
     1
  9
$DIMTDEC
 70
     1
  9
$DIMALTU
 70
     2
  9
$DIMALTTD
 70
     3
  9
$DIMTXSTY
  7
Standard
  9
$DIMAUNIT
 70
     0
  9
$DIMADEC
 70
     0
  9
$DIMALTRND
 40
0.0
  9
$DIMAZIN
 70
     0
  9
$DIMDSEP
 70
    44
  9
$DIMATFIT
 70
     3
  9
$DIMFRAC
 70
     0
  9
$DIMLDRBLK
  1

  9
$DIMLUNIT
 70
     2
  9
$DIMLWD
 70
    -2
  9
$DIMLWE
 70
    -2
  9
$DIMTMOVE
 70
     0
  9
$LUNITS
 70
     2
  9
$LUPREC
 70
     1
  9
$SKETCHINC
 40
1.0
  9
$FILLETRAD
 40
10.0
  9
$AUNITS
 70
     0
  9
$AUPREC
 70
     0
  9
$MENU
  1
.
  9
$ELEVATION
 40
0.0
  9
$PELEVATION
 40
0.0
  9
$THICKNESS
 40
0.0
  9
$LIMCHECK
 70
     0
  9
$CHAMFERA
 40
0.0
  9
$CHAMFERB
 40
0.0
  9
$CHAMFERC
 40
0.0
  9
$CHAMFERD
 40
0.0
  9
$SKPOLY
 70
     0
  9
$TDCREATE
 40
2457227.392440764
  9
$TDUCREATE
 40
2457227.559107431
  9
$TDUPDATE
 40
2457227.392442928
  9
$TDUUPDATE
 40
2457227.559109595
  9
$TDINDWG
 40
0.0000000116
  9
$TDUSRTIMER
 40
0.0000000116
  9
$USRTIMER
 70
     1
  9
$ANGBASE
 50
0.0
  9
$ANGDIR
 70
     0
  9
$PDMODE
 70
     0
  9
$PDSIZE
 40
-1.0
  9
$PLINEWID
 40
0.0
  9
$SPLFRAME
 70
     0
  9
$SPLINETYPE
 70
     6
  9
$SPLINESEGS
 70
     8
  9
$HANDSEED
  5
1F3
  9
$SURFTAB1
 70
     6
  9
$SURFTAB2
 70
     6
  9
$SURFTYPE
 70
     6
  9
$SURFU
 70
     6
  9
$SURFV
 70
     6
  9
$UCSBASE
  2

  9
$UCSNAME
  2

  9
$UCSORG
 10
0.0
 20
0.0
 30
0.0
  9
$UCSXDIR
 10
1.0
 20
0.0
 30
0.0
  9
$UCSYDIR
 10
0.0
 20
1.0
 30
0.0
  9
$UCSORTHOREF
  2

  9
$UCSORTHOVIEW
 70
     0
  9
$UCSORGTOP
 10
0.0
 20
0.0
 30
0.0
  9
$UCSORGBOTTOM
 10
0.0
 20
0.0
 30
0.0
  9
$UCSORGLEFT
 10
0.0
 20
0.0
 30
0.0
  9
$UCSORGRIGHT
 10
0.0
 20
0.0
 30
0.0
  9
$UCSORGFRONT
 10
0.0
 20
0.0
 30
0.0
  9
$UCSORGBACK
 10
0.0
 20
0.0
 30
0.0
  9
$PUCSBASE
  2

  9
$PUCSNAME
  2

  9
$PUCSORG
 10
0.0
 20
0.0
 30
0.0
  9
$PUCSXDIR
 10
1.0
 20
0.0
 30
0.0
  9
$PUCSYDIR
 10
0.0
 20
1.0
 30
0.0
  9
$PUCSORTHOREF
  2

  9
$PUCSORTHOVIEW
 70
     0
  9
$PUCSORGTOP
 10
0.0
 20
0.0
 30
0.0
  9
$PUCSORGBOTTOM
 10
0.0
 20
0.0
 30
0.0
  9
$PUCSORGLEFT
 10
0.0
 20
0.0
 30
0.0
  9
$PUCSORGRIGHT
 10
0.0
 20
0.0
 30
0.0
  9
$PUCSORGFRONT
 10
0.0
 20
0.0
 30
0.0
  9
$PUCSORGBACK
 10
0.0
 20
0.0
 30
0.0
  9
$USERI1
 70
     0
  9
$USERI2
 70
     0
  9
$USERI3
 70
     0
  9
$USERI4
 70
     0
  9
$USERI5
 70
     0
  9
$USERR1
 40
0.0
  9
$USERR2
 40
0.0
  9
$USERR3
 40
0.0
  9
$USERR4
 40
0.0
  9
$USERR5
 40
0.0
  9
$WORLDVIEW
 70
     1
  9
$SHADEDGE
 70
     3
  9
$SHADEDIF
 70
    70
  9
$TILEMODE
 70
     1
  9
$MAXACTVP
 70
    64
  9
$PINSBASE
 10
0.0
 20
0.0
 30
0.0
  9
$PLIMCHECK
 70
     0
  9
$PEXTMIN
 10
1.0000000000E+20
 20
1.0000000000E+20
 30
1.0000000000E+20
  9
$PEXTMAX
 10
-1.0000000000E+20
 20
-1.0000000000E+20
 30
-1.0000000000E+20
  9
$PLIMMIN
 10
0.0
 20
0.0
  9
$PLIMMAX
 10
420.0
 20
297.0
  9
$UNITMODE
 70
     0
  9
$VISRETAIN
 70
     1
  9
$PLINEGEN
 70
     0
  9
$PSLTSCALE
 70
     1
  9
$TREEDEPTH
 70
  3020
  9
$CMLSTYLE
  2
Standard
  9
$CMLJUST
 70
     0
  9
$CMLSCALE
 40
20.0
  9
$PROXYGRAPHICS
 70
     1
  9
$MEASUREMENT
 70
     1
  9
$CELWEIGHT
370
    -1
  9
$ENDCAPS
280
     0
  9
$JOINSTYLE
280
     0
  9
$LWDISPLAY
290
     1
  9
$INSUNITS
 70
     4
  9
$HYPERLINKBASE
  1

  9
$STYLESHEET
  1

  9
$XEDIT
290
     1
  9
$CEPSNTYPE
380
     0
  9
$PSTYLEMODE
290
     1
  9
$FINGERPRINTGUID
  2
{13D8E285-0A08-47EA-9007-9C6D2C39302B}
  9
$VERSIONGUID
  2
{FAEB1C32-E019-11D5-929B-00C0DF256EC4}
  9
$EXTNAMES
290
     1
  9
$PSVPSCALE
 40
0.0
  9
$OLESTARTUP
290
     0
  0
ENDSEC
  0
SECTION
  2
CLASSES
  0
CLASS
  1
ACDBDICTIONARYWDFLT
  2
AcDbDictionaryWithDefault
  3
ObjectDBX Classes
 90
        0
280
     0
281
     0
  0
CLASS
  1
VISUALSTYLE
  2
AcDbVisualStyle
  3
ObjectDBX Classes
 90
     4095
280
     0
281
     0
  0
CLASS
  1
MATERIAL
  2
AcDbMaterial
  3
ObjectDBX Classes
 90
     1153
280
     0
281
     0
  0
CLASS
  1
SCALE
  2
AcDbScale
  3
ObjectDBX Classes
 90
     1153
280
     0
281
     0
  0
CLASS
  1
SUN
  2
AcDbSun
  3
SCENEOE
 90
     1153
280
     0
281
     0
  0
CLASS
  1
ACDBPLACEHOLDER
  2
AcDbPlaceHolder
  3
ObjectDBX Classes
 90
        0
280
     0
281
     0
  0
CLASS
  1
LAYOUT
  2
AcDbLayout
  3
ObjectDBX Classes
 90
        0
280
     0
281
     0
  0
ENDSEC
  0
SECTION
  2
TABLES
  0
TABLE
  2
VPORT
  5
8
330
0
100
AcDbSymbolTable
 70
     1
  0
VPORT
  5
29
330
8
100
AcDbSymbolTableRecord
100
AcDbViewportTableRecord
  2
*Active
 70
     0
 10
0.0
 20
0.0
 11
1.0
 21
1.0
 12
139.7
 22
107.95
 13
0.0
 23
0.0
 14
10.0
 24
10.0
 15
10.0
 25
10.0
 16
0.0
 26
0.0
 36
1.0
 17
0.0
 27
0.0
 37
0.0
 40
215.9
 41
1.2941176471
 42
50.0
 43
0.0
 44
0.0
 50
0.0
 51
0.0
 71
     0
 72
  2000
 73
     1
 74
     3
 75
     0
 76
     0
 77
     0
 78
     0
281
     0
 65
     1
110
0.0
120
0.0
130
0.0
111
1.0
121
0.0
131
0.0
112
0.0
122
1.0
132
0.0
 79
     0
146
0.0
  0
ENDTAB
  0
TABLE
  2
LTYPE
  5
5
330
0
100
AcDbSymbolTable
 70
     6
  0
LTYPE
  5
14
330
5
100
AcDbSymbolTableRecord
100
AcDbLinetypeTableRecord
  2
ByBlock
 70
     0
  3

 72
    65
 73
     0
 40
0.0
  0
LTYPE
  5
15
330
5
100
AcDbSymbolTableRecord
100
AcDbLinetypeTableRecord
  2
ByLayer
 70
     0
  3

 72
    65
 73
     0
 40
0.0
  0
LTYPE
  5
16
330
5
100
AcDbSymbolTableRecord
100
AcDbLinetypeTableRecord
  2
Continuous
 70
     0
  3
Solid line
 72
    65
 73
     0
 40
0.0
  0
LTYPE
  5
6A
330
5
100
AcDbSymbolTableRecord
100
AcDbLinetypeTableRecord
  2
HIDDEN
 70
     0
  3
Hidden __ __ __ __ __ __ __ __ __ __ __ __ __ __
 72
    65
 73
     2
 40
1.905
 49
1.27
 74
     0
 49
-0.635
 74
     0
  0
LTYPE
  5
6B
330
5
100
AcDbSymbolTableRecord
100
AcDbLinetypeTableRecord
  2
PHANTOM
 70
     0
  3
Phantom ______  __  __  ______  __  __  ______
 72
    65
 73
     6
 40
12.7
 49
6.35
 74
     0
 49
-1.27
 74
     0
 49
1.27
 74
     0
 49
-1.27
 74
     0
 49
1.27
 74
     0
 49
-1.27
 74
     0
  0
LTYPE
  5
6C
330
5
100
AcDbSymbolTableRecord
100
AcDbLinetypeTableRecord
  2
CENTER
 70
     0
  3
Center ____ _ ____ _ ____ _ ____ _ ____ _ ____
 72
    65
 73
     4
 40
10.16
 49
6.35
 74
     0
 49
-1.27
 74
     0
 49
1.27
 74
     0
 49
-1.27
 74
     0
  0
LTYPE
  5
6D
330
5
100
AcDbSymbolTableRecord
100
AcDbLinetypeTableRecord
  2
CENTERX2
 70
     0
  3
Center (2x) ________  __  ________  __  _____
 72
    65
 73
     4
 40
20.32
 49
12.7
 74
     0
 49
-2.54
 74
     0
 49
2.54
 74
     0
 49
-2.54
 74
     0
  0
LTYPE
  5
6E
330
5
100
AcDbSymbolTableRecord
100
AcDbLinetypeTableRecord
  2
DOT2
 70
     0
  3
Dot (.5x) ........................................
 72
    65
 73
     2
 40
0.635
 49
0.0
 74
     0
 49
-0.635
 74
     0
  0
ENDTAB
  0
TABLE
  2
LAYER
  5
2
330
0
100
AcDbSymbolTable
 70
     2
  0
LAYER
  5
10
330
2
100
AcDbSymbolTableRecord
100
AcDbLayerTableRecord
  2
0
 70
     0
 62
     7
  6
Continuous
370
    -3
390
F
  0
LAYER
  5
6F
330
2
100
AcDbSymbolTableRecord
100
AcDbLayerTableRecord
  2
FORMAT
 70
     0
 62
     7
  6
Continuous
370
    -3
390
F
  0
ENDTAB
  0
TABLE
  2
STYLE
  5
3
330
0
100
AcDbSymbolTable
 70
     5
  0
STYLE
  5
11
330
3
100
AcDbSymbolTableRecord
100
AcDbTextStyleTableRecord
  2
Standard
 70
     0
 40
0.0
 41
1.0
 50
0.0
 71
     0
 42
2.8222222222
  3
txt
  4

  0
STYLE
  5
99
330
3
100
AcDbSymbolTableRecord
100
AcDbTextStyleTableRecord
  2
SLDTEXTSTYLE0
 70
     0
 40
0.0
 41
0.75
 50
0.0
 71
     0
 42
2.8222222222
  3
TXT
  4

  0
STYLE
  5
A1
330
3
100
AcDbSymbolTableRecord
100
AcDbTextStyleTableRecord
  2
SLDTEXTSTYLE1
 70
     0
 40
0.0
 41
0.75
 50
0.0
 71
     0
 42
2.8222222222
  3
TXT
  4
bigfont
  0
STYLE
  5
BE
330
3
100
AcDbSymbolTableRecord
100
AcDbTextStyleTableRecord
  2
SLDTEXTSTYLE2
 70
     0
 40
0.0
 41
0.6
 50
0.0
 71
     0
 42
2.8222222222
  3
TXT
  4

  0
STYLE
  5
C3
330
3
100
AcDbSymbolTableRecord
100
AcDbTextStyleTableRecord
  2
SLDTEXTSTYLE3
 70
     0
 40
0.0
 41
0.6875
 50
0.0
 71
     0
 42
2.8222222222
  3
TXT
  4

  0
ENDTAB
  0
TABLE
  2
VIEW
  5
6
330
0
100
AcDbSymbolTable
 70
     0
  0
ENDTAB
  0
TABLE
  2
UCS
  5
7
330
0
100
AcDbSymbolTable
 70
     0
  0
ENDTAB
  0
TABLE
  2
APPID
  5
9
330
0
100
AcDbSymbolTable
 70
     1
  0
APPID
  5
12
330
9
100
AcDbSymbolTableRecord
100
AcDbRegAppTableRecord
  2
ACAD
 70
     0
  0
ENDTAB
  0
TABLE
  2
DIMSTYLE
  5
A
330
0
100
AcDbSymbolTable
 70
     4
100
AcDbDimStyleTable
  0
DIMSTYLE
105
27
330
A
100
AcDbSymbolTableRecord
100
AcDbDimStyleTableRecord
  2
ISO-25
 70
     0
 41
2.5
 42
0.625
 43
3.75
 44
1.25
 73
     0
 74
     0
 77
     1
 78
     8
140
2.5
141
2.5
143
0.0393700787
147
0.625
171
     3
172
     1
178
     0
271
     2
272
     2
274
     3
278
    44
283
     0
284
     8
340
11
  0
DIMSTYLE
105
E3
102
{ACAD_REACTORS
330
E2
102
}
330
A
100
AcDbSymbolTableRecord
100
AcDbDimStyleTableRecord
  2
SLDDIMSTYLE0
 70
     0
 41
3.175
 44
0.0
 45
0.000000001
 78
    12
 79
     3
140
2.1166666667
141
0.0
143
0.0393700787
147
0.5291666667
148
0.000000001
170
     1
173
     1
178
     0
271
     1
272
     1
276
     2
284
    12
340
99
  0
DIMSTYLE
105
164
102
{ACAD_REACTORS
330
163
102
}
330
A
100
AcDbSymbolTableRecord
100
AcDbDimStyleTableRecord
  2
SLDDIMSTYLE1
 70
     0
 41
3.175
 44
0.0
 45
0.000000001
 78
     4
 79
     1
140
2.1166666667
143
0.0393700787
147
0.5291666667
148
0.000000001
170
     1
172
     1
173
     1
178
     0
271
     1
272
     1
276
     2
284
    12
289
     0
340
99
  0
DIMSTYLE
105
179
330
A
100
AcDbSymbolTableRecord
100
AcDbDimStyleTableRecord
  2
SLDDIMSTYLE2
 70
     0
 41
3.175
 44
0.0
 45
0.000000001
146
3.175
147
0.0
173
     1
178
     0
271
     0
272
     0
276
     2
340
11
  0
ENDTAB
  0
TABLE
  2
BLOCK_RECORD
  5
1
330
0
100
AcDbSymbolTable
 70
    10
  0
BLOCK_RECORD
  5
1F
330
1
100
AcDbSymbolTableRecord
100
AcDbBlockTableRecord
  2
*Model_Space
340
22
  0
BLOCK_RECORD
  5
1B
330
1
100
AcDbSymbolTableRecord
100
AcDbBlockTableRecord
  2
*Paper_Space
340
1E
  0
BLOCK_RECORD
  5
23
330
1
100
AcDbSymbolTableRecord
100
AcDbBlockTableRecord
  2
*Paper_Space0
340
26
  0
BLOCK_RECORD
  5
70
330
1
100
AcDbSymbolTableRecord
100
AcDbBlockTableRecord
  2
Third Angle Projection Block
340
0
102
{BLKREFS
331
95
102
}
  0
BLOCK_RECORD
  5
96
330
1
100
AcDbSymbolTableRecord
100
AcDbBlockTableRecord
  2
SW_NOTE_0
340
0
102
{BLKREFS
331
B2
102
}
  0
BLOCK_RECORD
  5
C5
330
1
100
AcDbSymbolTableRecord
100
AcDbBlockTableRecord
  2
SW_NOTE_1
340
0
102
{BLKREFS
331
CA
102
}
  0
BLOCK_RECORD
  5
CB
330
1
100
AcDbSymbolTableRecord
100
AcDbBlockTableRecord
  2
SW_NOTE_2
340
0
102
{BLKREFS
331
D0
102
}
  0
BLOCK_RECORD
  5
D2
330
1
100
AcDbSymbolTableRecord
100
AcDbBlockTableRecord
  2
SW_NOTE_3
340
0
102
{BLKREFS
331
D7
102
}
  0
BLOCK_RECORD
  5
D8
330
1
100
AcDbSymbolTableRecord
100
AcDbBlockTableRecord
  2
SW_NOTE_4
340
0
102
{BLKREFS
331
DE
102
}
  0
BLOCK_RECORD
  5
E4
330
1
100
AcDbSymbolTableRecord
100
AcDbBlockTableRecord
  2
_D
340
0
  0
BLOCK_RECORD
  5
165
330
1
100
AcDbSymbolTableRecord
100
AcDbBlockTableRecord
  2
_D_1
340
0
  0
BLOCK_RECORD
  5
17B
330
1
100
AcDbSymbolTableRecord
100
AcDbBlockTableRecord
  2
SW_NOTE_5
340
0
102
{BLKREFS
331
180
102
}
  0
ENDTAB
  0
ENDSEC
  0
SECTION
  2
BLOCKS
  0
BLOCK
  5
20
330
1F
100
AcDbEntity
  8
0
100
AcDbBlockBegin
  2
*Model_Space
 70
     0
 10
0.0
 20
0.0
 30
0.0
  3
*Model_Space
  1
*Model_Space
  0
ENDBLK
  5
21
330
1F
100
AcDbEntity
  8
0
100
AcDbBlockEnd
  0
BLOCK
  5
1C
330
1B
100
AcDbEntity
 67
     1
  8
0
100
AcDbBlockBegin
  2
*Paper_Space
 70
     0
 10
0.0
 20
0.0
 30
0.0
  3
*Paper_Space
  1
*Paper_Space
  0
ENDBLK
  5
1D
330
1B
100
AcDbEntity
 67
     1
  8
0
100
AcDbBlockEnd
  0
BLOCK
  5
24
330
23
100
AcDbEntity
  8
0
100
AcDbBlockBegin
  2
*Paper_Space0
 70
     0
 10
0.0
 20
0.0
 30
0.0
  3
*Paper_Space0
  1
*Paper_Space0
  0
ENDBLK
  5
25
330
23
100
AcDbEntity
  8
0
100
AcDbBlockEnd
  0
BLOCK
  5
71
330
70
100
AcDbEntity
  8
0
100
AcDbBlockBegin
  2
Third Angle Projection Block
 70
     0
 10
0.0
 20
0.0
 30
0.0
  3
Third Angle Projection Block
  1
Third Angle Projection Block
  0
CIRCLE
  5
73
330
70
100
AcDbEntity
  8
0
  6
Continuous
 62
     7
370
    30
100
AcDbCircle
 10
101.4766388944
 20
18.9404083667
 30
0.0
 40
1.768227153674871
  0
CIRCLE
  5
74
330
70
100
AcDbEntity
  8
0
  6
Continuous
 62
     7
370
    30
100
AcDbCircle
 10
101.4766388944
 20
18.9404083667
 30
0.0
 40
3.901228248531818
  0
LINE
  5
75
330
70
100
AcDbEntity
  8
0
  6
CENTERX2
 62
     7
370
     0
100
AcDbLine
 10
110.1367822585
 20
18.9404083667
 30
0.0
 11
119.4527334874
 21
18.9404083667
 31
0.0
  0
LINE
  5
76
330
70
100
AcDbEntity
  8
0
  6
Continuous
 62
     7
370
    30
100
AcDbLine
 10
111.0016388944
 20
20.7086355204
 30
0.0
 11
111.0016388944
 21
17.172181213
 31
0.0
  0
LINE
  5
77
330
70
100
AcDbEntity
  8
0
  6
Continuous
 62
     7
370
    30
100
AcDbLine
 10
111.0016388944
 20
17.172181213
 30
0.0
 11
118.6216388944
 21
15.1304083667
 31
0.0
  0
LINE
  5
78
330
70
100
AcDbEntity
  8
0
  6
Continuous
 62
     7
370
    30
100
AcDbLine
 10
118.6216388944
 20
15.1304083667
 30
0.0
 11
118.6216388944
 21
22.7504083667
 31
0.0
  0
LINE
  5
79
330
70
100
AcDbEntity
  8
0
  6
Continuous
 62
     7
370
    30
100
AcDbLine
 10
118.6216388944
 20
22.7504083667
 30
0.0
 11
111.0016388944
 21
20.7086355204
 31
0.0
  0
LINE
  5
7A
330
70
100
AcDbEntity
  8
0
  6
CENTERX2
 62
     7
370
     0
100
AcDbLine
 10
96.6025854619
 20
18.9404083667
 30
0.0
 11
106.3506923269
 21
18.9404083667
 31
0.0
  0
LINE
  5
7B
330
70
100
AcDbEntity
  8
0
  6
CENTERX2
 62
     7
370
     0
100
AcDbLine
 10
101.4766388944
 20
23.8144617992
 30
0.0
 11
101.4766388944
 21
14.0663549342
 31
0.0
  0
POINT
  5
7C
330
70
100
AcDbEntity
  8
0
  6
Continuous
 62
     7
370
     0
100
AcDbPoint
 10
101.4766388944
 20
18.9404083667
 30
0.0
  0
ENDBLK
  5
72
330
70
100
AcDbEntity
  8
0
100
AcDbBlockEnd
  0
BLOCK
  5
97
330
96
100
AcDbEntity
  8
0
100
AcDbBlockBegin
  2
SW_NOTE_0
 70
     0
 10
0.0
 20
0.0
 30
0.0
  3
SW_NOTE_0
  1
SW_NOTE_0
  0
MTEXT
  5
9A
330
96
100
AcDbEntity
  8
0
  6
Continuous
 62
     0
370
     0
100
AcDbMText
 10
0.0
 20
3.0695925553
 30
0.0
 40
2.38125
 41
0.0
 71
     1
 72
     1
  1
NOTES/SPECIFICATIONS:
  7
SLDTEXTSTYLE0
 73
     1
 44
1.0
  0
MTEXT
  5
9B
330
96
100
AcDbEntity
  8
0
  6
Continuous
 62
     0
370
     0
100
AcDbMText
 10
9.9999997765
 20
-3.2804073679
 30
0.0
 40
2.38125
 41
0.0
 71
     1
 72
     1
  1
CLEAR APERTURE: >
  7
SLDTEXTSTYLE0
 73
     1
 44
1.0
  0
MTEXT
  5
9C
330
96
100
AcDbEntity
  8
0
  6
Continuous
 62
     0
370
     0
100
AcDbMText
 10
39.5010411739
 20
-3.2804073679
 30
0.0
 40
2.38125
 41
0.0
 71
     1
 72
     1
  1
%%c
  7
SLDTEXTSTYLE0
 73
     1
 44
1.0
  0
MTEXT
  5
9D
330
96
100
AcDbEntity
  8
0
  6
Continuous
 62
     0
370
     0
100
AcDbMText
 10
43.0954080075
 20
-3.2804073679
 30
0.0
 40
2.38125
 41
0.0
 71
     1
 72
     1
  1
45.72 mm
  7
SLDTEXTSTYLE0
 73
     1
 44
1.0
  0
MTEXT
  5
9E
330
96
100
AcDbEntity
  8
0
  6
Continuous
 62
     0
370
     0
100
AcDbMText
 10
0.0
 20
-3.2804073679
 30
0.0
 40
2.38125
 41
0.0
 71
     1
 72
     1
  1
1.
  7
SLDTEXTSTYLE0
 73
     1
 44
1.0
  0
MTEXT
  5
9F
330
96
100
AcDbEntity
  8
0
  6
Continuous
 62
     0
370
     0
100
AcDbMText
 10
9.9999997765
 20
-6.4554073296
 30
0.0
 40
2.38125
 41
0.0
 71
     1
 72
     1
  1
SURFACE QUALITY: 40-20 SCRATCH-DIG
  7
SLDTEXTSTYLE0
 73
     1
 44
1.0
  0
MTEXT
  5
A0
330
96
100
AcDbEntity
  8
0
  6
Continuous
 62
     0
370
     0
100
AcDbMText
 10
0.0
 20
-6.4554073296
 30
0.0
 40
2.38125
 41
0.0
 71
     1
 72
     1
  1
2.
  7
SLDTEXTSTYLE0
 73
     1
 44
1.0
  0
MTEXT
  5
A2
330
96
100
AcDbEntity
  8
0
  6
Continuous
 62
     0
370
     0
100
AcDbMText
 10
9.9999997765
 20
-9.6304072912
 30
0.0
 40
2.38125
 41
0.0
 71
     1
 72
     1
  1
TRANSMITTED WAVEFRONT ERROR: <\M+183C9/4 AT 633nm
  7
SLDTEXTSTYLE1
 73
     1
 44
1.0
  0
MTEXT
  5
A3
330
96
100
AcDbEntity
  8
0
  6
Continuous
 62
     0
370
     0
100
AcDbMText
 10
0.0
 20
-9.6304072912
 30
0.0
 40
2.38125
 41
0.0
 71
     1
 72
     1
  1
3.
  7
SLDTEXTSTYLE0
 73
     1
 44
1.0
  0
MTEXT
  5
A4
330
96
100
AcDbEntity
  8
0
  6
Continuous
 62
     0
370
     0
100
AcDbMText
 10
9.9999997765
 20
-12.8054072528
 30
0.0
 40
2.38125
 41
0.0
 71
     1
 72
     1
  1
PARALLELISM: <3 arcmin
  7
SLDTEXTSTYLE0
 73
     1
 44
1.0
  0
MTEXT
  5
A5
330
96
100
AcDbEntity
  8
0
  6
Continuous
 62
     0
370
     0
100
AcDbMText
 10
0.0
 20
-12.8054072528
 30
0.0
 40
2.38125
 41
0.0
 71
     1
 72
     1
  1
4.
  7
SLDTEXTSTYLE0
 73
     1
 44
1.0
  0
MTEXT
  5
A6
330
96
100
AcDbEntity
  8
0
  6
Continuous
 62
     0
370
     0
100
AcDbMText
 10
9.9999997765
 20
-15.9804072144
 30
0.0
 40
2.38125
 41
0.0
 71
     1
 72
     1
  1
FILTER COATING (S1):
  7
SLDTEXTSTYLE0
 73
     1
 44
1.0
  0
MTEXT
  5
A7
330
96
100
AcDbEntity
  8
0
  6
Continuous
 62
     0
370
     0
100
AcDbMText
 10
0.0
 20
-15.9804072144
 30
0.0
 40
2.38125
 41
0.0
 71
     1
 72
     1
  1
5.
  7
SLDTEXTSTYLE0
 73
     1
 44
1.0
  0
MTEXT
  5
A8
330
96
100
AcDbEntity
  8
0
  6
Continuous
 62
     0
370
     0
100
AcDbMText
 10
20.0
 20
-19.1554071761
 30
0.0
 40
2.38125
 41
0.0
 71
     1
 72
     1
  1
REFLECTION BAND (R): >95% AVERAGE, >90% ABSOLUTE 380-533nm
  7
SLDTEXTSTYLE0
 73
     1
 44
1.0
  0
MTEXT
  5
A9
330
96
100
AcDbEntity
  8
0
  6
Continuous
 62
     0
370
     0
100
AcDbMText
 10
20.0
 20
-22.3304071377
 30
0.0
 40
2.38125
 41
0.0
 71
     1
 72
     1
  1
TRANSMISSION BAND (T): >90% AVERAGE, >85% ABSOLUTE 565-800nm
  7
SLDTEXTSTYLE0
 73
     1
 44
1.0
  0
MTEXT
  5
AA
330
96
100
AcDbEntity
  8
0
  6
Continuous
 62
     0
370
     0
100
AcDbMText
 10
20.0
 20
-25.5054070993
 30
0.0
 40
2.38125
 41
0.0
 71
     1
 72
     1
  1
45
  7
SLDTEXTSTYLE0
 73
     1
 44
1.0
  0
MTEXT
  5
AB
330
96
100
AcDbEntity
  8
0
  6
Continuous
 62
     0
370
     0
100
AcDbMText
 10
23.5189583432
 20
-25.5054070993
 30
0.0
 40
2.38125
 41
0.0
 71
     1
 72
     1
  1
%%d
  7
SLDTEXTSTYLE0
 73
     1
 44
1.0
  0
MTEXT
  5
AC
330
96
100
AcDbEntity
  8
0
  6
Continuous
 62
     0
370
     0
100
AcDbMText
 10
25.9253437392
 20
-25.5054070993
 30
0.0
 40
2.38125
 41
0.0
 71
     1
 72
     1
  1
AOI
  7
SLDTEXTSTYLE0
 73
     1
 44
1.0
  0
MTEXT
  5
AD
330
96
100
AcDbEntity
  8
0
  6
Continuous
 62
     0
370
     0
100
AcDbMText
 10
9.9999997765
 20
-28.680407061
 30
0.0
 40
2.38125
 41
0.0
 71
     1
 72
     1
  1
AR COATING (S2):
  7
SLDTEXTSTYLE0
 73
     1
 44
1.0
  0
MTEXT
  5
AE
330
96
100
AcDbEntity
  8
0
  6
Continuous
 62
     0
370
     0
100
AcDbMText
 10
0.0
 20
-28.680407061
 30
0.0
 40
2.38125
 41
0.0
 71
     1
 72
     1
  1
6.
  7
SLDTEXTSTYLE0
 73
     1
 44
1.0
  0
MTEXT
  5
AF
330
96
100
AcDbEntity
  8
0
  6
Continuous
 62
     0
370
     0
100
AcDbMText
 10
20.0
 20
-31.8554070226
 30
0.0
 40
2.38125
 41
0.0
 71
     1
 72
     1
  1
R: <2% ABSOLUTE 400-800nm, 45
  7
SLDTEXTSTYLE0
 73
     1
 44
1.0
  0
MTEXT
  5
B0
330
96
100
AcDbEntity
  8
0
  6
Continuous
 62
     0
370
     0
100
AcDbMText
 10
68.4937168658
 20
-31.8554070226
 30
0.0
 40
2.38125
 41
0.0
 71
     1
 72
     1
  1
%%d
  7
SLDTEXTSTYLE0
 73
     1
 44
1.0
  0
MTEXT
  5
B1
330
96
100
AcDbEntity
  8
0
  6
Continuous
 62
     0
370
     0
100
AcDbMText
 10
70.9000997007
 20
-31.8554070226
 30
0.0
 40
2.38125
 41
0.0
 71
     1
 72
     1
  1
AOI
  7
SLDTEXTSTYLE0
 73
     1
 44
1.0
  0
ENDBLK
  5
98
330
96
100
AcDbEntity
  8
0
100
AcDbBlockEnd
  0
BLOCK
  5
C6
330
C5
100
AcDbEntity
  8
0
100
AcDbBlockBegin
  2
SW_NOTE_1
 70
     0
 10
0.0
 20
0.0
 30
0.0
  3
SW_NOTE_1
  1
SW_NOTE_1
  0
MTEXT
  5
C8
330
C5
100
AcDbEntity
  8
0
  6
Continuous
 62
     0
370
     0
100
AcDbMText
 10
19.90725
 20
1.9645392354
 30
0.0
 40
1.524
 41
0.0
 71
     2
 72
     1
  1
VALUES IN PARENTHESIS ARE CALCULATED
  7
SLDTEXTSTYLE0
 73
     1
 44
1.0
  0
MTEXT
  5
C9
330
C5
100
AcDbEntity
  8
0
  6
Continuous
 62
     0
370
     0
100
AcDbMText
 10
19.8778795174
 20
-0.5594606586
 30
0.0
 40
1.524
 41
0.0
 71
     2
 72
     1
  1
AND MAY CONTAIN ROUNDOFF ERRORS
  7
SLDTEXTSTYLE0
 73
     1
 44
1.0
  0
ENDBLK
  5
C7
330
C5
100
AcDbEntity
  8
0
100
AcDbBlockEnd
  0
BLOCK
  5
CC
330
CB
100
AcDbEntity
  8
0
100
AcDbBlockBegin
  2
SW_NOTE_2
 70
     0
 10
0.0
 20
0.0
 30
0.0
  3
SW_NOTE_2
  1
SW_NOTE_2
  0
MTEXT
  5
CE
330
CB
100
AcDbEntity
  8
0
  6
Continuous
 62
     0
370
     0
100
AcDbMText
 10
0.0
 20
2.7285267159
 30
0.0
 40
2.1166666667
 41
0.0
 71
     1
 72
     1
  1
DRAWING
  7
SLDTEXTSTYLE0
 73
     1
 44
1.0
  0
MTEXT
  5
CF
330
CB
100
AcDbEntity
  8
0
  6
Continuous
 62
     0
370
     0
100
AcDbMText
 10
0.0
 20
-0.0936954723
 30
0.0
 40
2.1166666667
 41
0.0
 71
     1
 72
     1
  1
PROJECTION
  7
SLDTEXTSTYLE0
 73
     1
 44
1.0
  0
ENDBLK
  5
CD
330
CB
100
AcDbEntity
  8
0
100
AcDbBlockEnd
  0
BLOCK
  5
D3
330
D2
100
AcDbEntity
  8
0
100
AcDbBlockBegin
  2
SW_NOTE_3
 70
     0
 10
0.0
 20
0.0
 30
0.0
  3
SW_NOTE_3
  1
SW_NOTE_3
  0
MTEXT
  5
D5
330
D2
100
AcDbEntity
  8
0
  6
Continuous
 62
     0
370
     0
100
AcDbMText
 10
25.052734375
 20
4.0927900738
 30
0.0
 40
3.175
 41
0.0
 71
     2
 72
     1
  1
FOR INFORMATION ONLY
  7
SLDTEXTSTYLE0
 73
     1
 44
1.0
  0
MTEXT
  5
D6
330
D2
100
AcDbEntity
  8
0
  6
Continuous
 62
     0
370
     0
100
AcDbMText
 10
25.3768468589
 20
-0.1405432084
 30
0.0
 40
3.175
 41
0.0
 71
     2
 72
     1
  1
NOT FOR MANUFACTURING PURPOSES
  7
SLDTEXTSTYLE0
 73
     1
 44
1.0
  0
ENDBLK
  5
D4
330
D2
100
AcDbEntity
  8
0
100
AcDbBlockEnd
  0
BLOCK
  5
D9
330
D8
100
AcDbEntity
  8
0
100
AcDbBlockBegin
  2
SW_NOTE_4
 70
     0
 10
0.0
 20
0.0
 30
0.0
  3
SW_NOTE_4
  1
SW_NOTE_4
  0
MTEXT
  5
DB
330
D8
100
AcDbEntity
  8
0
  6
Continuous
 62
     0
370
     0
100
AcDbMText
 10
1.7115234375
 20
3.0695925553
 30
0.0
 40
2.38125
 41
0.0
 71
     2
 72
     1
  1
%%c
  7
SLDTEXTSTYLE0
 73
     1
 44
1.0
  0
MTEXT
  5
DC
330
D8
100
AcDbEntity
  8
0
  6
Continuous
 62
     0
370
     0
100
AcDbMText
 10
18.1051066928
 20
3.0695925553
 30
0.0
 40
2.38125
 41
0.0
 71
     2
 72
     1
  1
50.8mm LONGPASS
  7
SLDTEXTSTYLE0
 73
     1
 44
1.0
  0
MTEXT
  5
DD
330
D8
100
AcDbEntity
  8
0
  6
Continuous
 62
     0
370
     0
100
AcDbMText
 10
16.8492152989
 20
-0.1054074063
 30
0.0
 40
2.38125
 41
0.0
 71
     2
 72
     1
  1
DICHROIC MIRROR 550nm
  7
SLDTEXTSTYLE0
 73
     1
 44
1.0
  0
ENDBLK
  5
DA
330
D8
100
AcDbEntity
  8
0
100
AcDbBlockEnd
  0
BLOCK
  5
E5
330
E4
100
AcDbEntity
  8
0
100
AcDbBlockBegin
  2
_D
 70
     0
 10
0.0
 20
0.0
 30
0.0
  3
_D
  1
_D
  0
SOLID
  5
E7
330
E4
100
AcDbEntity
  8
0
  6
Continuous
 62
     7
370
     0
100
AcDbTrace
 10
102.592764017
 20
138.8212777371
 30
0.0
 11
105.1970382921
 21
140.7071315225
 31
0.0
 12
104.4786178025
 22
141.4255520122
 32
0.0
 13
104.4786178025
 23
141.4255520122
 33
0.0
  0
LINE
  5
E8
330
E4
100
AcDbEntity
  8
0
  6
Continuous
 62
     7
370
     0
100
AcDbLine
 10
114.5564934542
 20
144.6538784523
 30
0.0
 11
114.1272804945
 21
144.6538784523
 31
0.0
  0
LINE
  5
E9
330
E4
100
AcDbEntity
  8
0
  6
Continuous
 62
     7
370
     0
100
AcDbLine
 10
114.1272804945
 20
144.6538784523
 30
0.0
 11
114.1272804945
 21
141.2907303759
 31
0.0
  0
LINE
  5
EA
330
E4
100
AcDbEntity
  8
0
  6
Continuous
 62
     7
370
     0
100
AcDbLine
 10
114.1272804945
 20
141.2907303759
 30
0.0
 11
114.5564934542
 21
141.2907303759
 31
0.0
  0
LINE
  5
EB
330
E4
100
AcDbEntity
  8
0
  6
Continuous
 62
     7
370
     0
100
AcDbLine
 10
123.3867174434
 20
144.6538784523
 30
0.0
 11
123.8159304031
 21
144.6538784523
 31
0.0
  0
LINE
  5
EC
330
E4
100
AcDbEntity
  8
0
  6
Continuous
 62
     7
370
     0
100
AcDbLine
 10
123.8159304031
 20
144.6538784523
 30
0.0
 11
123.8159304031
 21
141.2907303759
 31
0.0
  0
LINE
  5
ED
330
E4
100
AcDbEntity
  8
0
  6
Continuous
 62
     7
370
     0
100
AcDbLine
 10
123.8159304031
 20
141.2907303759
 30
0.0
 11
123.3867174434
 21
141.2907303759
 31
0.0
  0
LINE
  5
EE
330
E4
100
AcDbEntity
  8
0
  6
Continuous
 62
     7
370
     0
100
AcDbLine
 10
102.592764017
 20
138.8212777371
 30
0.0
 11
109.9953707674
 21
146.2238844875
 31
0.0
  0
LINE
  5
EF
330
E4
100
AcDbEntity
  8
0
  6
Continuous
 62
     7
370
     0
100
AcDbLine
 10
109.9953707674
 20
146.2238844875
 30
0.0
 11
113.8053707674
 21
146.2238844875
 31
0.0
  0
MTEXT
  5
F0
330
E4
100
AcDbEntity
  8
0
  6
Continuous
 62
     7
370
     0
100
AcDbMText
 10
113.8053707674
 20
147.8116180988
 30
0.0
 40
2.1166666667
 41
0.0
 71
     1
 72
     1
  1
%%c
  7
SLDTEXTSTYLE0
 73
     1
 44
1.0
  0
MTEXT
  5
F1
330
E4
100
AcDbEntity
  8
0
  6
Continuous
 62
     7
370
     0
100
AcDbMText
 10
117.0003615681
 20
147.8116180988
 30
0.0
 40
2.1166666667
 41
0.0
 71
     1
 72
     1
  1
50.8mm
  7
SLDTEXTSTYLE0
 73
     1
 44
1.0
  0
MTEXT
  5
F2
330
E4
100
AcDbEntity
  8
0
  6
Continuous
 62
     7
370
     0
100
AcDbMText
 10
115.0930096757
 20
144.0192569753
 30
0.0
 40
2.1166666667
 41
0.0
 71
     1
 72
     1
  1
2.00in
  7
SLDTEXTSTYLE0
 73
     1
 44
1.0
  0
ENDBLK
  5
E6
330
E4
100
AcDbEntity
  8
0
100
AcDbBlockEnd
  0
BLOCK
  5
166
330
165
100
AcDbEntity
  8
0
100
AcDbBlockBegin
  2
_D_1
 70
     0
 10
0.0
 20
0.0
 30
0.0
  3
_D_1
  1
_D_1
  0
SOLID
  5
168
330
165
100
AcDbEntity
  8
0
  6
Continuous
 62
     7
370
     0
100
AcDbTrace
 10
197.1060160774
 20
91.8616442501
 30
0.0
 11
193.9310160774
 21
92.3696442501
 31
0.0
 12
193.9310160774
 22
91.3536442501
 32
0.0
 13
193.9310160774
 23
91.3536442501
 33
0.0
  0
SOLID
  5
169
330
165
100
AcDbEntity
  8
0
  6
Continuous
 62
     7
370
     0
100
AcDbTrace
 10
202.1060160774
 20
91.8616442501
 30
0.0
 11
205.2810160774
 21
91.3536442501
 31
0.0
 12
205.2810160774
 22
92.3696442501
 32
0.0
 13
205.2810160774
 23
92.3696442501
 33
0.0
  0
LINE
  5
16A
330
165
100
AcDbEntity
  8
0
  6
Continuous
 62
     7
370
     0
100
AcDbLine
 10
209.6710497874
 20
91.8616440173
 30
0.0
 11
209.2418368277
 21
91.8616440173
 31
0.0
  0
LINE
  5
16B
330
165
100
AcDbEntity
  8
0
  6
Continuous
 62
     7
370
     0
100
AcDbLine
 10
209.2418368277
 20
91.8616440173
 30
0.0
 11
209.2418368277
 21
88.4984959408
 31
0.0
  0
LINE
  5
16C
330
165
100
AcDbEntity
  8
0
  6
Continuous
 62
     7
370
     0
100
AcDbLine
 10
209.2418368277
 20
88.4984959408
 30
0.0
 11
209.6710497874
 21
88.4984959408
 31
0.0
  0
LINE
  5
16D
330
165
100
AcDbEntity
  8
0
  6
Continuous
 62
     7
370
     0
100
AcDbLine
 10
218.5012737766
 20
91.8616440173
 30
0.0
 11
218.9304867364
 21
91.8616440173
 31
0.0
  0
LINE
  5
16E
330
165
100
AcDbEntity
  8
0
  6
Continuous
 62
     7
370
     0
100
AcDbLine
 10
218.9304867364
 20
91.8616440173
 30
0.0
 11
218.9304867364
 21
88.4984959408
 31
0.0
  0
LINE
  5
16F
330
165
100
AcDbEntity
  8
0
  6
Continuous
 62
     7
370
     0
100
AcDbLine
 10
218.9304867364
 20
88.4984959408
 30
0.0
 11
218.5012737766
 21
88.4984959408
 31
0.0
  0
LINE
  5
170
330
165
100
AcDbEntity
  8
0
  6
Continuous
 62
     7
370
     0
100
AcDbLine
 10
197.1060160774
 20
94.390765495
 30
0.0
 11
197.1060160774
 21
90.0836442501
 31
0.0
  0
LINE
  5
171
330
165
100
AcDbEntity
  8
0
  6
Continuous
 62
     7
370
     0
100
AcDbLine
 10
202.1060160774
 20
94.390765495
 30
0.0
 11
202.1060160774
 21
90.0836442501
 31
0.0
  0
LINE
  5
172
330
165
100
AcDbEntity
  8
0
  6
Continuous
 62
     7
370
     0
100
AcDbLine
 10
197.1060160774
 20
91.8616442501
 30
0.0
 11
190.7560160774
 21
91.8616442501
 31
0.0
  0
LINE
  5
173
330
165
100
AcDbEntity
  8
0
  6
Continuous
 62
     7
370
     0
100
AcDbLine
 10
202.1060160774
 20
91.8616442501
 30
0.0
 11
206.9303477677
 21
91.8616442501
 31
0.0
  0
MTEXT
  5
174
330
165
100
AcDbEntity
  8
0
  6
Continuous
 62
     7
370
     0
100
AcDbMText
 10
208.9473653963
 20
95.0193836637
 30
0.0
 40
2.1166666667
 41
0.0
 71
     1
 72
     1
  1

  7
SLDTEXTSTYLE0
 73
     1
 44
1.0
  0
MTEXT
  5
175
330
165
100
AcDbEntity
  8
0
  6
Continuous
 62
     7
370
     0
100
AcDbMText
 10
209.4863314135
 20
95.0193836637
 30
0.0
 40
2.1166666667
 41
0.0
 71
     1
 72
     1
  1
5.0mm
  7
SLDTEXTSTYLE0
 73
     1
 44
1.0
  0
MTEXT
  5
176
330
165
100
AcDbEntity
  8
0
  6
Continuous
 62
     7
370
     0
100
AcDbMText
 10
210.2075660089
 20
91.2270225403
 30
0.0
 40
2.1166666667
 41
0.0
 71
     1
 72
     1
  1
0.20in
  7
SLDTEXTSTYLE0
 73
     1
 44
1.0
  0
MTEXT
  5
177
330
165
100
AcDbEntity
  8
0
  6
Continuous
 62
     7
370
     0
100
AcDbMText
 10
220.8398964634
 20
95.0193836637
 30
0.0
 40
2.1166666667
 41
0.0
 71
     1
 72
     1
  1

  7
SLDTEXTSTYLE0
 73
     1
 44
1.0
  0
ENDBLK
  5
167
330
165
100
AcDbEntity
  8
0
100
AcDbBlockEnd
  0
BLOCK
  5
17C
330
17B
100
AcDbEntity
  8
0
100
AcDbBlockBegin
  2
SW_NOTE_5
 70
     0
 10
0.0
 20
0.0
 30
0.0
  3
SW_NOTE_5
  1
SW_NOTE_5
  0
MTEXT
  5
17E
330
17B
100
AcDbEntity
  8
0
  6
Continuous
 62
     0
370
     0
100
AcDbMText
 10
0.5441940225
 20
0.9764743206
 30
0.0
 40
2.1166666667
 41
0.0
 71
     1
 72
     1
  1
S2
  7
SLDTEXTSTYLE0
 73
     1
 44
1.0
  0
MTEXT
  5
17F
330
17B
100
AcDbEntity
  8
0
  6
Continuous
 62
     0
370
     0
100
AcDbMText
 10
0.5441940225
 20
-1.8457478675
 30
0.0
 40
2.1166666667
 41
0.0
 71
     1
 72
     1
  1
INDICATED BY ENGRAVED ARROW
  7
SLDTEXTSTYLE0
 73
     1
 44
1.0
  0
ENDBLK
  5
17D
330
17B
100
AcDbEntity
  8
0
100
AcDbBlockEnd
  0
ENDSEC
  0
SECTION
  2
ENTITIES
  0
LINE
  5
7D
330
1F
100
AcDbEntity
  8
0
  6
Continuous
 62
     7
370
     0
100
AcDbLine
 10
1.5793501011
 20
214.6453799966
 30
0.0
 11
277.9892068491
 21
214.6453799966
 31
0.0
  0
LINE
  5
7E
330
1F
100
AcDbEntity
  8
0
  6
Continuous
 62
     7
370
     0
100
AcDbLine
 10
1.5793501011
 20
214.6453799966
 30
0.0
 11
1.5793501011
 21
0.9031642596
 31
0.0
  0
LINE
  5
7F
330
1F
100
AcDbEntity
  8
0
  6
Continuous
 62
     7
370
     0
100
AcDbLine
 10
277.9892068491
 20
0.9031642596
 30
0.0
 11
1.5793501011
 21
0.9031642596
 31
0.0
  0
LINE
  5
80
330
1F
100
AcDbEntity
  8
0
  6
Continuous
 62
     7
370
     0
100
AcDbLine
 10
277.9892068491
 20
0.9031642596
 30
0.0
 11
277.9892068491
 21
214.6453799966
 31
0.0
  0
LINE
  5
81
330
1F
100
AcDbEntity
  8
0
  6
Continuous
 62
     7
370
     0
100
AcDbLine
 10
215.7427640041
 20
12.2958890132
 30
0.0
 11
171.6327596684
 21
12.2958890132
 31
0.0
  0
LINE
  5
82
330
1F
100
AcDbEntity
  8
0
  6
Continuous
 62
     7
370
     0
100
AcDbLine
 10
171.6327596684
 20
12.2958890132
 30
0.0
 11
171.6327596684
 21
26.1661402506
 31
0.0
  0
LINE
  5
83
330
1F
100
AcDbEntity
  8
0
  6
Continuous
 62
     7
370
     0
100
AcDbLine
 10
171.6327596684
 20
0.9031642596
 30
0.0
 11
171.6327596684
 21
26.1661402506
 31
0.0
  0
LINE
  5
84
330
1F
100
AcDbEntity
  8
0
  6
Continuous
 62
     7
370
     0
100
AcDbLine
 10
215.7427640041
 20
17.1604579552
 30
0.0
 11
277.9892068491
 21
17.1604579552
 31
0.0
  0
LINE
  5
85
330
1F
100
AcDbEntity
  8
0
  6
Continuous
 62
     7
370
     0
100
AcDbLine
 10
215.7427640041
 20
35.2394508358
 30
0.0
 11
215.7427640041
 21
0.9031642596
 31
0.0
  0
LINE
  5
86
330
1F
100
AcDbEntity
  8
0
  6
Continuous
 62
     7
370
     0
100
AcDbLine
 10
215.7427640041
 20
26.1661402506
 30
0.0
 11
171.6327596684
 21
26.1661402506
 31
0.0
  0
LINE
  5
87
330
1F
100
AcDbEntity
  8
0
  6
Continuous
 62
     7
370
     0
100
AcDbLine
 10
215.7427640041
 20
9.1409200612
 30
0.0
 11
277.9892068491
 21
9.1409200612
 31
0.0
  0
LINE
  5
88
330
1F
100
AcDbEntity
  8
0
  6
Continuous
 62
     7
370
     0
100
AcDbLine
 10
215.7427640041
 20
16.9216824031
 30
0.0
 11
171.6327596684
 21
16.9216824031
 31
0.0
  0
LINE
  5
89
330
1F
100
AcDbEntity
  8
0
  6
Continuous
 62
     7
370
     0
100
AcDbLine
 10
215.7427640041
 20
21.4874005542
 30
0.0
 11
171.6327596684
 21
21.4874005542
 31
0.0
  0
LINE
  5
8A
330
1F
100
AcDbEntity
  8
0
  6
Continuous
 62
     7
370
     0
100
AcDbLine
 10
186.1338100705
 20
26.1661402506
 30
0.0
 11
186.1338100705
 21
12.2958890132
 31
0.0
  0
LINE
  5
8B
330
1F
100
AcDbEntity
  8
0
  6
Continuous
 62
     7
370
     0
100
AcDbLine
 10
198.2145906188
 20
26.1661402506
 30
0.0
 11
198.2145906188
 21
12.2958890132
 31
0.0
  0
LINE
  5
8C
330
1F
100
AcDbEntity
  8
0
  6
Continuous
 62
     7
370
     0
100
AcDbLine
 10
253.7490408369
 20
9.1409200612
 30
0.0
 11
253.7490408369
 21
0.9031642596
 31
0.0
  0
LINE
  5
8D
330
1F
100
AcDbEntity
  8
0
  6
Continuous
 62
     7
370
     0
100
AcDbLine
 10
171.6327596684
 20
12.2958890132
 30
0.0
 11
171.6327596684
 21
7.5627342528
 31
0.0
  0
LINE
  5
8E
330
1F
100
AcDbEntity
  8
0
  6
Continuous
 62
     7
370
     0
100
AcDbLine
 10
171.6327596684
 20
7.5627342528
 30
0.0
 11
215.7427640041
 21
7.5627342528
 31
0.0
  0
LINE
  5
8F
330
1F
100
AcDbEntity
  8
0
  6
Continuous
 62
     7
370
     0
100
AcDbLine
 10
171.6327596684
 20
7.5627342528
 30
0.0
 11
171.6327596684
 21
35.2394508358
 31
0.0
  0
LINE
  5
90
330
1F
100
AcDbEntity
  8
0
  6
Continuous
 62
     7
370
     0
100
AcDbLine
 10
171.6327596684
 20
35.2394508358
 30
0.0
 11
215.7427640041
 21
35.2394508358
 31
0.0
  0
LINE
  5
91
330
1F
100
AcDbEntity
  8
0
  6
Continuous
 62
     7
370
     0
100
AcDbLine
 10
270.1683598194
 20
17.1604579552
 30
0.0
 11
270.1683598194
 21
9.1409200612
 31
0.0
  0
LINE
  5
92
330
1F
100
AcDbEntity
  8
0
  6
Continuous
 62
     7
370
     0
100
AcDbLine
 10
215.7427640041
 20
35.2394508358
 30
0.0
 11
277.9892068491
 21
35.2394508358
 31
0.0
  0
LINE
  5
93
330
1F
100
AcDbEntity
  8
0
  6
Continuous
 62
     7
370
     0
100
AcDbLine
 10
277.9892068491
 20
35.2394508358
 30
0.0
 11
277.9892068491
 21
50.0331356147
 31
0.0
  0
LINE
  5
94
330
1F
100
AcDbEntity
  8
0
  6
Continuous
 62
     7
370
     0
100
AcDbLine
 10
215.7427640041
 20
24.8927335446
 30
0.0
 11
277.9892068491
 21
24.8927335446
 31
0.0
  0
INSERT
  5
95
330
1F
100
AcDbEntity
  8
0
  6
Continuous
 62
     7
100
AcDbBlockReference
  2
Third Angle Projection Block
 10
117.7262204235
 20
15.5162339489
 30
0.0
 41
0.8
 42
0.8
 43
0.8
  0
INSERT
  5
B2
330
1F
100
AcDbEntity
  8
0
  6
Continuous
 62
     7
370
     0
100
AcDbBlockReference
  2
SW_NOTE_0
 10
14.3617258262
 20
69.5994197506
 30
0.0
  0
MTEXT
  5
B3
330
1F
100
AcDbEntity
  8
0
  6
Continuous
 62
     7
370
     0
100
AcDbMText
 10
274.2755418848
 20
13.2559386876
 30
0.0
 40
3.175
 41
0.0
 71
     2
 72
     1
  1
B
  7
SLDTEXTSTYLE0
 73
     1
 44
1.0
  0
MTEXT
  5
B4
330
1F
100
AcDbEntity
  8
0
  6
Continuous
 62
     7
370
     0
100
AcDbMText
 10
234.5506324328
 20
5.1306563898
 30
0.0
 40
3.175
 41
0.0
 71
     2
 72
     1
  1
DMLP550L
  7
SLDTEXTSTYLE0
 73
     1
 44
1.0
  0
MTEXT
  5
B5
330
1F
100
AcDbEntity
  8
0
  6
Continuous
 62
     7
370
     0
100
AcDbMText
 10
216.4199766059
 20
16.8243178599
 30
0.0
 40
2.1166666667
 41
0.0
 71
     1
 72
     1
  1
MATERIAL
  7
SLDTEXTSTYLE0
 73
     1
 44
1.0
  0
MTEXT
  5
B6
330
1F
100
AcDbEntity
  8
0
  6
Continuous
 62
     7
370
     0
100
AcDbMText
 10
174.230946566
 20
20.054553926
 30
0.0
 40
1.8520833333
 41
0.0
 71
     1
 72
     1
  1
DRAWN
  7
SLDTEXTSTYLE0
 73
     1
 44
1.0
  0
MTEXT
  5
B7
330
1F
100
AcDbEntity
  8
0
  6
Continuous
 62
     7
370
     0
100
AcDbMText
 10
172.3960124543
 20
15.5787169747
 30
0.0
 40
1.8520833333
 41
0.0
 71
     1
 72
     1
  1
APPROVAL
  7
SLDTEXTSTYLE0
 73
     1
 44
1.0
  0
MTEXT
  5
B8
330
1F
100
AcDbEntity
  8
0
  6
Continuous
 62
     7
370
     0
100
AcDbMText
 10
271.7160653675
 20
16.1671746307
 30
0.0
 40
2.1166666667
 41
0.0
 71
     1
 72
     1
  1
REV
  7
SLDTEXTSTYLE0
 73
     1
 44
1.0
  0
MTEXT
  5
B9
330
1F
100
AcDbEntity
  8
0
  6
Continuous
 62
     7
370
     0
100
AcDbMText
 10
190.2958696448
 20
20.3177146903
 30
0.0
 40
2.1166666667
 41
0.0
 71
     1
 72
     1
  1
MG
  7
SLDTEXTSTYLE0
 73
     1
 44
1.0
  0
MTEXT
  5
BA
330
1F
100
AcDbEntity
  8
0
  6
Continuous
 62
     7
370
     0
100
AcDbMText
 10
190.2958696448
 20
15.841877739
 30
0.0
 40
2.1166666667
 41
0.0
 71
     1
 72
     1
  1
RS
  7
SLDTEXTSTYLE0
 73
     1
 44
1.0
  0
MTEXT
  5
BB
330
1F
100
AcDbEntity
  8
0
  6
Continuous
 62
     7
370
     0
100
AcDbMText
 10
199.8662436873
 20
20.3177146903
 30
0.0
 40
2.1166666667
 41
0.0
 71
     1
 72
     1
  1
03/JUN/14
  7
SLDTEXTSTYLE0
 73
     1
 44
1.0
  0
MTEXT
  5
BC
330
1F
100
AcDbEntity
  8
0
  6
Continuous
 62
     7
370
     0
100
AcDbMText
 10
203.6145073853
 20
24.8221395769
 30
0.0
 40
2.1166666667
 41
0.0
 71
     1
 72
     1
  1
DATE
  7
SLDTEXTSTYLE0
 73
     1
 44
1.0
  0
MTEXT
  5
BD
330
1F
100
AcDbEntity
  8
0
  6
Continuous
 62
     7
370
     0
100
AcDbMText
 10
199.8662436873
 20
15.841877739
 30
0.0
 40
2.1166666667
 41
0.0
 71
     1
 72
     1
  1
23/JUL/15
  7
SLDTEXTSTYLE0
 73
     1
 44
1.0
  0
MTEXT
  5
BF
330
1F
100
AcDbEntity
  8
0
  6
Continuous
 62
     7
370
     0
100
AcDbMText
 10
229.402906477
 20
27.7957480569
 30
0.0
 40
2.1166666667
 41
0.0
 71
     1
 72
     1
  1
w w w . t h o r  l a b s . c o m
  7
SLDTEXTSTYLE2
 73
     1
 44
1.0
  0
MTEXT
  5
C0
330
1F
100
AcDbEntity
  8
0
  6
Continuous
 62
     7
370
     0
100
AcDbMText
 10
216.7004035316
 20
8.3494791871
 30
0.0
 40
2.1166666667
 41
0.0
 71
     1
 72
     1
  1
ITEM #
  7
SLDTEXTSTYLE0
 73
     1
 44
1.0
  0
MTEXT
  5
C1
330
1F
100
AcDbEntity
  8
0
  6
Continuous
 62
     7
370
     0
100
AcDbMText
 10
254.5318000914
 20
8.3494791871
 30
0.0
 40
2.1166666667
 41
0.0
 71
     1
 72
     1
  1
APPROX WEIGHT
  7
SLDTEXTSTYLE0
 73
     1
 44
1.0
  0
MTEXT
  5
C2
330
1F
100
AcDbEntity
  8
0
  6
Continuous
 62
     7
370
     0
100
AcDbMText
 10
243.2362589615
 20
13.8247651814
 30
0.0
 40
3.175
 41
0.0
 71
     2
 72
     1
  1
UV GRADE FUSED SILICA
  7
SLDTEXTSTYLE0
 73
     1
 44
1.0
  0
MTEXT
  5
C4
330
1F
100
AcDbEntity
  8
0
  6
Continuous
 62
     7
370
     0
100
AcDbMText
 10
266.2586154088
 20
5.1306563898
 30
0.0
 40
3.175
 41
0.0
 71
     2
 72
     1
  1
20 g
  7
SLDTEXTSTYLE3
 73
     1
 44
1.0
  0
INSERT
  5
CA
330
1F
100
AcDbEntity
  8
0
  6
Continuous
 62
     7
370
     0
100
AcDbBlockReference
  2
SW_NOTE_1
 10
174.8430140051
 20
4.4558554801
 30
0.0
  0
INSERT
  5
D0
330
1F
100
AcDbEntity
  8
0
  6
Continuous
 62
     7
370
     0
100
AcDbBlockReference
  2
SW_NOTE_2
 10
174.5483650337
 20
30.4835322715
 30
0.0
  0
MTEXT
  5
D1
330
1F
100
AcDbEntity
  8
0
  6
Continuous
 62
     7
370
     0
100
AcDbMText
 10
187.9273588276
 20
24.8221395769
 30
0.0
 40
2.1166666667
 41
0.0
 71
     1
 72
     1
  1
NAME
  7
SLDTEXTSTYLE0
 73
     1
 44
1.0
  0
INSERT
  5
D7
330
1F
100
AcDbEntity
  8
0
  6
Continuous
 62
     7
370
     0
100
AcDbBlockReference
  2
SW_NOTE_3
 10
58.6204667508
 20
8.1776609732
 30
0.0
  0
INSERT
  5
DE
330
1F
100
AcDbEntity
  8
0
  6
Continuous
 62
     7
370
     0
100
AcDbBlockReference
  2
SW_NOTE_4
 10
231.2431344853
 20
20.6862828027
 30
0.0
  0
MTEXT
  5
DF
330
1F
100
AcDbEntity
  8
0
  6
Continuous
 62
     7
370
     0
100
AcDbMText
 10
177.6925831922
 20
10.7142101515
 30
0.0
 40
1.5875
 41
0.0
 71
     1
 72
     1
  1
COPYRIGHT © 2015 BY THORLABS
  7
SLDTEXTSTYLE0
 73
     1
 44
1.0
  0
CIRCLE
  5
E0
330
1F
100
AcDbEntity
  8
0
  6
Continuous
 62
     7
370
     0
100
AcDbCircle
 10
84.6322517749
 20
120.860765495
 30
0.0
 40
25.20000000000002
  0
CIRCLE
  5
E1
330
1F
100
AcDbEntity
  8
0
  6
Continuous
 62
     7
370
     0
100
AcDbCircle
 10
84.6322517749
 20
120.860765495
 30
0.0
 40
25.39999999999999
  0
DIMENSION
  5
E2
330
1F
100
AcDbEntity
  8
0
  6
Continuous
 62
     7
370
     0
100
AcDbDimension
  2
_D
 10
66.6717395328
 20
102.9002532528
 30
0.0
 11
120.7846872404
 21
146.2238844875
 31
0.0
 70
   163
  1
<>
 71
     1
 42
-1.0
  3
SLDDIMSTYLE0
100
AcDbDiametricDimension
 15
102.592764017
 25
138.8212777371
 35
0.0
 40
0.0
  0
LINE
  5
F3
330
1F
100
AcDbEntity
  8
0
  6
Continuous
 62
     7
370
     0
100
AcDbLine
 10
201.9060161284
 20
95.4607658019
 30
0.0
 11
202.1060160215
 21
95.6607654622
 31
0.0
  0
LINE
  5
F4
330
1F
100
AcDbEntity
  8
0
  6
Continuous
 62
     7
370
     0
100
AcDbLine
 10
202.1060160215
 20
146.0607655277
 30
0.0
 11
201.9060161284
 21
146.260765188
 31
0.0
  0
LINE
  5
F5
330
1F
100
AcDbEntity
  8
0
  6
Continuous
 62
     7
370
     0
100
AcDbLine
 10
201.9060161284
 20
146.260765188
 30
0.0
 11
197.3060160264
 21
146.260765188
 31
0.0
  0
LINE
  5
F6
330
1F
100
AcDbEntity
  8
0
  6
Continuous
 62
     7
370
     0
100
AcDbLine
 10
197.3060160264
 20
95.4607658019
 30
0.0
 11
201.9060161284
 21
95.4607658019
 31
0.0
  0
LINE
  5
F7
330
1F
100
AcDbEntity
  8
0
  6
Continuous
 62
     7
370
     0
100
AcDbLine
 10
197.3060160264
 20
146.260765188
 30
0.0
 11
197.1060161333
 21
146.0607655277
 31
0.0
  0
LINE
  5
F8
330
1F
100
AcDbEntity
  8
0
  6
Continuous
 62
     7
370
     0
100
AcDbLine
 10
197.1060161333
 20
95.6607654622
 30
0.0
 11
197.3060160264
 21
95.4607658019
 31
0.0
  0
LINE
  5
F9
330
1F
100
AcDbEntity
  8
0
  6
Continuous
 62
     7
370
     0
100
AcDbLine
 10
201.9060161284
 20
95.4607658019
 30
0.0
 11
201.9060161284
 21
146.260765188
 31
0.0
  0
LINE
  5
FA
330
1F
100
AcDbEntity
  8
0
  6
Continuous
 62
     7
370
     0
100
AcDbLine
 10
202.1060160215
 20
146.0607655277
 30
0.0
 11
202.1060160215
 21
95.6607654622
 31
0.0
  0
SPLINE
  5
FB
330
1F
100
AcDbEntity
  8
0
  6
Continuous
 62
     7
370
     0
100
AcDbSpline
210
0.0
220
0.0
230
1.0
 70
     8
 71
     3
 72
    14
 73
    10
 74
     0
 42
0.000000001
 43
0.00000001
 40
0.0
 40
0.0
 40
0.0
 40
0.0
 40
0.0626203335203488
 40
0.125196523725376
 40
0.2501754384042169
 40
0.4995238900043193
 40
0.7494969757171994
 40
0.8747361469557821
 40
1.0
 40
1.0
 40
1.0
 40
1.0
 10
199.1337149410349
 20
116.2501952523379
 30
0.0
 10
199.1400168746044
 20
116.2664561810279
 30
0.0
 10
199.1526162992847
 20
116.298966575497
 30
0.0
 10
199.1886672941587
 20
116.3590459834098
 30
0.0
 10
199.2723792849379
 20
116.449811980549
 30
0.0
 10
199.4291226859308
 20
116.5370643235061
 30
0.0
 10
199.6011449364268
 20
116.5799023502803
 30
0.0
 10
199.7417495399773
 20
116.5946045945594
 30
0.0
 10
199.8124460136039
 20
116.5957668388416
 30
0.0
 10
199.8477977332427
 20
116.5963480182401
 30
0.0
  0
SPLINE
  5
FC
330
1F
100
AcDbEntity
  8
0
  6
Continuous
 62
     7
370
     0
100
AcDbSpline
210
0.0
220
0.0
230
1.0
 70
     8
 71
     3
 72
    11
 73
     7
 74
     0
 42
0.000000001
 43
0.00000001
 40
0.0
 40
0.0
 40
0.0
 40
0.0
 40
0.4000017235834427
 40
0.6400060127062173
 40
0.8200150216781176
 40
1.0
 40
1.0
 40
1.0
 40
1.0
 10
199.1060160773986
 20
116.0157301636646
 30
0.0
 10
199.1064778093766
 20
116.0473153927687
 30
0.0
 10
199.1072165842988
 20
116.0978520163566
 30
0.0
 10
199.1140455868587
 20
116.1622889101125
 30
0.0
 10
199.1213779360768
 20
116.2092297508388
 30
0.0
 10
199.1296027890599
 20
116.2365406928666
 30
0.0
 10
199.1337149410349
 20
116.2501952523379
 30
0.0
  0
LINE
  5
FD
330
1F
100
AcDbEntity
  8
0
  6
Continuous
 62
     7
370
     0
100
AcDbLine
 10
199.1060160536
 20
116.0157302326
 30
0.0
 11
199.1060160536
 21
115.6013950637
 31
0.0
  0
LINE
  5
FE
330
1F
100
AcDbEntity
  8
0
  6
Continuous
 62
     7
370
     0
100
AcDbLine
 10
200.6060161249
 20
115.6013950637
 30
0.0
 11
199.1060160536
 21
115.6013950637
 31
0.0
  0
LINE
  5
FF
330
1F
100
AcDbEntity
  8
0
  6
Continuous
 62
     7
370
     0
100
AcDbLine
 10
200.6060161249
 20
116.034854476
 30
0.0
 11
200.6060161249
 21
115.6013950637
 31
0.0
  0
SPLINE
  5
100
330
1F
100
AcDbEntity
  8
0
  6
Continuous
 62
     7
370
     0
100
AcDbSpline
210
0.0
220
0.0
230
1.0
 70
     8
 71
     3
 72
    15
 73
    11
 74
     0
 42
0.000000001
 43
0.00000001
 40
0.0
 40
0.0
 40
0.0
 40
0.0
 40
0.1002492383821552
 40
0.2004810886521584
 40
0.4005534076458178
 40
0.5506171364805615
 40
0.7000987602887071
 40
0.8496801260079839
 40
0.924824378333488
 40
1.0
 40
1.0
 40
1.0
 40
1.0
 10
199.8477977332427
 20
116.5963480182401
 30
0.0
 10
199.883833671669
 20
116.5957345798352
 30
0.0
 10
199.9558992981306
 20
116.5945078094255
 30
0.0
 10
200.09912210236
 20
116.5791335960241
 30
0.0
 10
200.257409767995
 20
116.5393713677301
 30
0.0
 10
200.4182626310496
 20
116.4583679034131
 30
0.0
 10
200.5390944145364
 20
116.3465698464762
 30
0.0
 10
200.5873416826235
 20
116.2191814839647
 30
0.0
 10
200.6041320884601
 20
116.1145079556342
 30
0.0
 10
200.6053879937233
 20
116.061409291995
 30
0.0
 10
200.6060160773986
 20
116.0348544197567
 30
0.0
  0
LINE
  5
101
330
1F
100
AcDbEntity
  8
0
  6
Continuous
 62
     7
370
     0
100
AcDbLine
 10
200.4306913906
 20
119.0321845166
 30
0.0
 11
200.4306913906
 21
118.4110385762
 31
0.0
  0
LINE
  5
102
330
1F
100
AcDbEntity
  8
0
  6
Continuous
 62
     7
370
     0
100
AcDbLine
 10
199.1060160536
 20
118.4110385762
 30
0.0
 11
200.4306913906
 21
118.4110385762
 31
0.0
  0
LINE
  5
103
330
1F
100
AcDbEntity
  8
0
  6
Continuous
 62
     7
370
     0
100
AcDbLine
 10
199.1060160536
 20
118.4110385762
 30
0.0
 11
199.1060160536
 21
118.2559680125
 31
0.0
  0
LINE
  5
104
330
1F
100
AcDbEntity
  8
0
  6
Continuous
 62
     7
370
     0
100
AcDbLine
 10
200.6060161249
 20
118.2559680125
 30
0.0
 11
199.1060160536
 21
118.2559680125
 31
0.0
  0
LINE
  5
105
330
1F
100
AcDbEntity
  8
0
  6
Continuous
 62
     7
370
     0
100
AcDbLine
 10
200.6060161249
 20
119.0321845166
 30
0.0
 11
200.6060161249
 21
118.2559680125
 31
0.0
  0
LINE
  5
106
330
1F
100
AcDbEntity
  8
0
  6
Continuous
 62
     7
370
     0
100
AcDbLine
 10
200.4306913906
 20
119.0321845166
 30
0.0
 11
200.6060161249
 21
119.0321845166
 31
0.0
  0
SPLINE
  5
107
330
1F
100
AcDbEntity
  8
0
  6
Continuous
 62
     7
370
     0
100
AcDbSpline
210
0.0
220
0.0
230
1.0
 70
     8
 71
     3
 72
    14
 73
    10
 74
     0
 42
0.000000001
 43
0.00000001
 40
0.0
 40
0.0
 40
0.0
 40
0.0
 40
0.0716150187543068
 40
0.1432023084678043
 40
0.2859674696543446
 40
0.4998846988940646
 40
0.7493386966046575
 40
0.8746339246370638
 40
1.0
 40
1.0
 40
1.0
 40
1.0
 10
199.6125095838921
 20
120.7296684869359
 30
0.0
 10
199.6132198632531
 20
120.7457326905708
 30
0.0
 10
199.614640146958
 20
120.7778548778469
 30
0.0
 10
199.6296387750368
 20
120.8405929307811
 30
0.0
 10
199.6751040659779
 20
120.9267463197907
 30
0.0
 10
199.7756033653716
 20
121.0226774461104
 30
0.0
 10
199.9000966340354
 20
121.0744990539413
 30
0.0
 10
200.0109143039498
 20
121.0932601611155
 30
0.0
 10
200.0671402755615
 20
121.0947752899978
 30
0.0
 10
200.0952612072687
 20
121.0955330685583
 30
0.0
  0
SPLINE
  5
108
330
1F
100
AcDbEntity
  8
0
  6
Continuous
 62
     7
370
     0
100
AcDbSpline
210
0.0
220
0.0
230
1.0
 70
     8
 71
     3
 72
    11
 73
     7
 74
     0
 42
0.000000001
 43
0.00000001
 40
0.0
 40
0.0
 40
0.0
 40
0.0
 40
0.2500788352574244
 40
0.5000175201570425
 40
0.749935882127305
 40
1.0
 40
1.0
 40
1.0
 40
1.0
 10
199.6712555254505
 20
120.5074796215018
 30
0.0
 10
199.6624370327931
 20
120.5247369150628
 30
0.0
 10
199.6448049895795
 20
120.5592418307713
 30
0.0
 10
199.626020726272
 20
120.6143884406199
 30
0.0
 10
199.6146319828821
 20
120.671563643829
 30
0.0
 10
199.6132171877034
 20
120.7102964420791
 30
0.0
 10
199.6125095838921
 20
120.7296684869359
 30
0.0
  0
SPLINE
  5
109
330
1F
100
AcDbEntity
  8
0
  6
Continuous
 62
     7
370
     0
100
AcDbSpline
210
0.0
220
0.0
230
1.0
 70
     8
 71
     3
 72
     8
 73
     4
 74
     0
 42
0.000000001
 43
0.00000001
 40
0.0
 40
0.0
 40
0.0
 40
0.0
 40
1.0
 40
1.0
 40
1.0
 40
1.0
 10
199.3008212722038
 20
120.5637858730509
 30
0.0
 10
199.4242993566193
 20
120.5450168638877
 30
0.0
 10
199.5477774410349
 20
120.5262480979968
 30
0.0
 10
199.6712555254505
 20
120.5074796215018
 30
0.0
  0
LINE
  5
10A
330
1F
100
AcDbEntity
  8
0
  6
Continuous
 62
     7
370
     0
100
AcDbLine
 10
199.3008212622
 20
121.0370934383
 30
0.0
 11
199.3008212622
 21
120.5637858762
 31
0.0
  0
LINE
  5
10B
330
1F
100
AcDbEntity
  8
0
  6
Continuous
 62
     7
370
     0
100
AcDbLine
 10
199.1254965862
 20
121.0370934383
 30
0.0
 11
199.3008212622
 21
121.0370934383
 31
0.0
  0
LINE
  5
10C
330
1F
100
AcDbEntity
  8
0
  6
Continuous
 62
     7
370
     0
100
AcDbLine
 10
199.1254965862
 20
121.0370934383
 30
0.0
 11
199.1254965862
 21
120.4332189333
 31
0.0
  0
SPLINE
  5
10D
330
1F
100
AcDbEntity
  8
0
  6
Continuous
 62
     7
370
     0
100
AcDbSpline
210
0.0
220
0.0
230
1.0
 70
     8
 71
     3
 72
     8
 73
     4
 74
     0
 42
0.000000001
 43
0.00000001
 40
0.0
 40
0.0
 40
0.0
 40
0.0
 40
1.0
 40
1.0
 40
1.0
 40
1.0
 10
199.8940639670089
 20
120.3163573234122
 30
0.0
 10
199.6378748436323
 20
120.3553094121832
 30
0.0
 10
199.3816857202557
 20
120.3942634223207
 30
0.0
 10
199.1254965968791
 20
120.4332189413884
 30
0.0
  0
SPLINE
  5
10E
330
1F
100
AcDbEntity
  8
0
  6
Continuous
 62
     7
370
     0
100
AcDbSpline
210
0.0
220
0.0
230
1.0
 70
     8
 71
     3
 72
     8
 73
     4
 74
     0
 42
0.000000001
 43
0.00000001
 40
0.0
 40
0.0
 40
0.0
 40
0.0
 40
1.0
 40
1.0
 40
1.0
 40
1.0
 10
199.9162839345414
 20
120.4721749481557
 30
0.0
 10
199.9088772786972
 20
120.4202329759016
 30
0.0
 10
199.9014706228531
 20
120.3682934417735
 30
0.0
 10
199.8940639670089
 20
120.3163573234122
 30
0.0
  0
SPLINE
  5
10F
330
1F
100
AcDbEntity
  8
0
  6
Continuous
 62
     7
370
     0
100
AcDbSpline
210
0.0
220
0.0
230
1.0
 70
     8
 71
     3
 72
    12
 73
     8
 74
     0
 42
0.000000001
 43
0.00000001
 40
0.0
 40
0.0
 40
0.0
 40
0.0
 40
0.1252356836856736
 40
0.2503787278448183
 40
0.5000836829238033
 40
0.749902107401867
 40
1.0
 40
1.0
 40
1.0
 40
1.0
 10
199.7683537397362
 20
120.6861424947741
 30
0.0
 10
199.7688655709916
 20
120.6746914997803
 30
0.0
 10
199.7698888548897
 20
120.6517979803397
 30
0.0
 10
199.7813871536617
 20
120.6072902370322
 30
0.0
 10
199.8083877315117
 20
120.5562038328365
 30
0.0
 10
199.8561293323973
 20
120.5055825448206
 30
0.0
 10
199.8962249289489
 20
120.4833149631246
 30
0.0
 10
199.9162839345414
 20
120.4721749481557
 30
0.0
  0
SPLINE
  5
110
330
1F
100
AcDbEntity
  8
0
  6
Continuous
 62
     7
370
     0
100
AcDbSpline
210
0.0
220
0.0
230
1.0
 70
     8
 71
     3
 72
    12
 73
     8
 74
     0
 42
0.000000001
 43
0.00000001
 40
0.0
 40
0.0
 40
0.0
 40
0.0
 40
0.2506944843951301
 40
0.500504365040652
 40
0.7494938121473119
 40
0.8746991253656958
 40
1.0
 40
1.0
 40
1.0
 40
1.0
 10
200.1037839345414
 20
120.9396921285145
 30
0.0
 10
200.0644210311516
 20
120.9379540542817
 30
0.0
 10
199.985834120814
 20
120.934484038807
 30
0.0
 10
199.8737026543705
 20
120.8909187005656
 30
0.0
 10
199.8025376666707
 20
120.8186494961768
 30
0.0
 10
199.7720899994721
 20
120.7451939620784
 30
0.0
 10
199.7695994763375
 20
120.7058313224739
 30
0.0
 10
199.7683537397362
 20
120.6861424947741
 30
0.0
  0
SPLINE
  5
111
330
1F
100
AcDbEntity
  8
0
  6
Continuous
 62
     7
370
     0
100
AcDbSpline
210
0.0
220
0.0
230
1.0
 70
     8
 71
     3
 72
    15
 73
    11
 74
     0
 42
0.000000001
 43
0.00000001
 40
0.0
 40
0.0
 40
0.0
 40
0.0
 40
0.0671957795598088
 40
0.1251134564478033
 40
0.2499060872971385
 40
0.374904505855961
 40
0.500002697277429
 40
0.7495414104980537
 40
0.8632876180135203
 40
1.0
 40
1.0
 40
1.0
 40
1.0
 10
200.4696524410349
 20
120.6821856099033
 30
0.0
 10
200.4690137468799
 20
120.6933013457832
 30
0.0
 10
200.4678245466968
 20
120.7139980047998
 30
0.0
 10
200.4590210924081
 20
120.7545856043605
 30
0.0
 10
200.4357781501485
 20
120.8009365078606
 30
0.0
 10
200.3938430093325
 20
120.847262477753
 30
0.0
 10
200.3277861460882
 20
120.8978135019117
 30
0.0
 10
200.2497882786702
 20
120.9255766466452
 30
0.0
 10
200.1678956556045
 20
120.9376643925625
 30
0.0
 10
200.1264221660857
 20
120.9389761228414
 30
0.0
 10
200.1037839345414
 20
120.9396921285145
 30
0.0
  0
SPLINE
  5
112
330
1F
100
AcDbEntity
  8
0
  6
Continuous
 62
     7
370
     0
100
AcDbSpline
210
0.0
220
0.0
230
1.0
 70
     8
 71
     3
 72
    13
 73
     9
 74
     0
 42
0.000000001
 43
0.00000001
 40
0.0
 40
0.0
 40
0.0
 40
0.0
 40
0.2503702502097807
 40
0.5001052875547836
 40
0.6145260243890044
 40
0.7857161668471957
 40
0.8714922286697324
 40
0.9999999999999999
 40
0.9999999999999999
 40
0.9999999999999999
 40
0.9999999999999999
 10
200.1774446488271
 20
120.4526968247567
 30
0.0
 10
200.2110418304203
 20
120.457913204692
 30
0.0
 10
200.2781509543982
 20
120.4683327301161
 30
0.0
 10
200.3566145860286
 20
120.5011653129848
 30
0.0
 10
200.4136755427267
 20
120.5465734238611
 30
0.0
 10
200.4455386103793
 20
120.5867464659759
 30
0.0
 10
200.4660225260054
 20
120.6354626778593
 30
0.0
 10
200.4682916367315
 20
120.6646698370883
 30
0.0
 10
200.4696524410349
 20
120.6821856099033
 30
0.0
  0
SPLINE
  5
113
330
1F
100
AcDbEntity
  8
0
  6
Continuous
 62
     7
370
     0
100
AcDbSpline
210
0.0
220
0.0
230
1.0
 70
     8
 71
     3
 72
     8
 73
     4
 74
     0
 42
0.000000001
 43
0.00000001
 40
0.0
 40
0.0
 40
0.0
 40
0.0
 40
1.0
 40
1.0
 40
1.0
 40
1.0
 10
200.1969251683076
 20
120.2968814410497
 30
0.0
 10
200.1904316618141
 20
120.3488166901971
 30
0.0
 10
200.1839381553206
 20
120.4007554773083
 30
0.0
 10
200.1774446488271
 20
120.4526968247567
 30
0.0
  0
SPLINE
  5
114
330
1F
100
AcDbEntity
  8
0
  6
Continuous
 62
     7
370
     0
100
AcDbSpline
210
0.0
220
0.0
230
1.0
 70
     8
 71
     3
 72
    13
 73
     9
 74
     0
 42
0.000000001
 43
0.00000001
 40
0.0
 40
0.0
 40
0.0
 40
0.0
 40
0.1252979724012267
 40
0.2505479492188901
 40
0.4996504656309576
 40
0.7491367961713495
 40
0.8745560122733939
 40
1.0
 40
1.0
 40
1.0
 40
1.0
 10
200.6254965968791
 20
120.6837074881921
 30
0.0
 10
200.6240762300398
 20
120.6569732993576
 30
0.0
 10
200.621236040435
 20
120.6035151622614
 30
0.0
 10
200.5863366330044
 20
120.501724088463
 30
0.0
 10
200.5003982539632
 20
120.3946427456981
 30
0.0
 10
200.3801760307285
 20
120.3314706766193
 30
0.0
 10
200.2766803399228
 20
120.3051088871822
 30
0.0
 10
200.2235119755591
 20
120.2996241036265
 30
0.0
 10
200.1969251683076
 20
120.2968814410497
 30
0.0
  0
SPLINE
  5
115
330
1F
100
AcDbEntity
  8
0
  6
Continuous
 62
     7
370
     0
100
AcDbSpline
210
0.0
220
0.0
230
1.0
 70
     8
 71
     3
 72
    14
 73
    10
 74
     0
 42
0.000000001
 43
0.00000001
 40
0.0
 40
0.0
 40
0.0
 40
0.0
 40
0.1254503143219151
 40
0.2508643752892118
 40
0.5007647188434724
 40
0.7494477027970847
 40
0.8745486466616451
 40
0.9372588824514366
 40
1.0
 40
1.0
 40
1.0
 40
1.0
 10
200.0952612072687
 20
121.0955330685583
 30
0.0
 10
200.1265071660147
 20
121.0945539145501
 30
0.0
 10
200.1889900538696
 20
121.0925958894952
 30
0.0
 10
200.3118214803452
 20
121.068560891424
 30
0.0
 10
200.4562404787035
 20
121.0064314067478
 30
0.0
 10
200.5736659145412
 20
120.8950642171056
 30
0.0
 10
200.6132244808848
 20
120.7921440424837
 30
0.0
 10
200.6241104086208
 20
120.7305774949267
 30
0.0
 10
200.6250344583034
 20
120.6993333875077
 30
0.0
 10
200.6254965968791
 20
120.6837074881921
 30
0.0
  0
SPLINE
  5
116
330
1F
100
AcDbEntity
  8
0
  6
Continuous
 62
     7
370
     0
100
AcDbSpline
210
0.0
220
0.0
230
1.0
 70
     8
 71
     3
 72
    12
 73
     8
 74
     0
 42
0.000000001
 43
0.00000001
 40
0.0
 40
0.0
 40
0.0
 40
0.0
 40
0.124992937532014
 40
0.249988352820378
 40
0.499883447594993
 40
0.7499169450320808
 40
1.0
 40
1.0
 40
1.0
 40
1.0
 10
199.2448147786973
 20
122.8801319438327
 30
0.0
 10
199.267676619803
 20
122.8931824877705
 30
0.0
 10
199.3134007552087
 20
122.9192838343492
 30
0.0
 10
199.4127143389072
 20
122.955022834616
 30
0.0
 10
199.5415830157727
 20
122.9827989138614
 30
0.0
 10
199.6987264777834
 20
122.999895222439
 30
0.0
 10
199.80398857814
 20
123.0013535161734
 30
0.0
 10
199.8566248436323
 20
123.0020827352933
 30
0.0
  0
SPLINE
  5
117
330
1F
100
AcDbEntity
  8
0
  6
Continuous
 62
     7
370
     0
100
AcDbSpline
210
0.0
220
0.0
230
1.0
 70
     8
 71
     3
 72
    12
 73
     8
 74
     0
 42
0.000000001
 43
0.00000001
 40
0.0
 40
0.0
 40
0.0
 40
0.0
 40
0.1252396549768587
 40
0.2504179599818341
 40
0.5000538618607597
 40
0.7498676072259411
 40
1.0
 40
1.0
 40
1.0
 40
1.0
 10
199.086535557918
 20
122.6048164685102
 30
0.0
 10
199.0869429574485
 20
122.6186879492824
 30
0.0
 10
199.0877575569404
 20
122.646424115735
 30
0.0
 10
199.0981699950516
 20
122.7009553901275
 30
0.0
 10
199.1241237507855
 20
122.7659728054221
 30
0.0
 10
199.1768973207167
 20
122.8317863100122
 30
0.0
 10
199.222166008501
 20
122.8640098865156
 30
0.0
 10
199.2448147786973
 20
122.8801319438327
 30
0.0
  0
SPLINE
  5
118
330
1F
100
AcDbEntity
  8
0
  6
Continuous
 62
     7
370
     0
100
AcDbSpline
210
0.0
220
0.0
230
1.0
 70
     8
 71
     3
 72
    15
 73
    11
 74
     0
 42
0.000000001
 43
0.00000001
 40
0.0
 40
0.0
 40
0.0
 40
0.0
 40
0.1252511664806186
 40
0.250493711606959
 40
0.5005606681270495
 40
0.6348746860440105
 40
0.7504894127989676
 40
0.8748893802182292
 40
0.9374179621242281
 40
1.0
 40
1.0
 40
1.0
 40
1.0
 10
199.8566248436323
 20
122.2052973227803
 30
0.0
 10
199.8163325996971
 20
122.2057376008942
 30
0.0
 10
199.7357508852435
 20
122.2066181268165
 30
0.0
 10
199.5753349775159
 20
122.2195115981497
 30
0.0
 10
199.4125479223807
 20
122.2481492346907
 30
0.0
 10
199.2635489902524
 20
122.3110151730199
 30
0.0
 10
199.1649930991194
 20
122.3827499691016
 30
0.0
 10
199.1105560872897
 20
122.466672297774
 30
0.0
 10
199.0890947949512
 20
122.544493134424
 30
0.0
 10
199.087388879891
 20
122.5847029636683
 30
0.0
 10
199.086535557918
 20
122.6048164685102
 30
0.0
  0
SPLINE
  5
119
330
1F
100
AcDbEntity
  8
0
  6
Continuous
 62
     7
370
     0
100
AcDbSpline
210
0.0
220
0.0
230
1.0
 70
     8
 71
     3
 72
    16
 73
    12
 74
     0
 42
0.000000001
 43
0.00000001
 40
0.0
 40
0.0
 40
0.0
 40
0.0
 40
0.062547979028406
 40
0.1250348464929097
 40
0.2495127039548125
 40
0.3209827069246105
 40
0.3924643609723396
 40
0.4996337873185574
 40
0.749601422808045
 40
0.8747936019449145
 40
1.0
 40
1.0
 40
1.0
 40
1.0
 10
200.6254965968791
 20
122.6029944755826
 30
0.0
 10
200.6245792446335
 20
122.5829243490243
 30
0.0
 10
200.6227454364275
 20
122.5428037051236
 30
0.0
 10
200.5990788078322
 20
122.4657332373701
 30
0.0
 10
200.5519792124051
 20
122.3950651425502
 30
0.0
 10
200.486779396053
 20
122.3389956526562
 30
0.0
 10
200.4196596044033
 20
122.2945638309226
 30
0.0
 10
200.2914451878184
 20
122.2423571728065
 30
0.0
 10
200.1372167996459
 20
122.2180255724159
 30
0.0
 10
199.9771722809412
 20
122.2065912627814
 30
0.0
 10
199.8968088438849
 20
122.2057286524418
 30
0.0
 10
199.8566248436323
 20
122.2052973227803
 30
0.0
  0
SPLINE
  5
11A
330
1F
100
AcDbEntity
  8
0
  6
Continuous
 62
     7
370
     0
100
AcDbSpline
210
0.0
220
0.0
230
1.0
 70
     8
 71
     3
 72
    14
 73
    10
 74
     0
 42
0.000000001
 43
0.00000001
 40
0.0
 40
0.0
 40
0.0
 40
0.0
 40
0.1254827438759681
 40
0.2509572551369186
 40
0.5014869882464025
 40
0.7500309116048791
 40
0.8746627465287558
 40
0.9373002352230878
 40
1.0
 40
1.0
 40
1.0
 40
1.0
 10
199.8566248436323
 20
123.0020827352933
 30
0.0
 10
199.8968574444324
 20
123.0016369779348
 30
0.0
 10
199.9773200064704
 20
123.0007454924628
 30
0.0
 10
200.1378092539085
 20
122.9877043695108
 30
0.0
 10
200.3346152510698
 20
122.953010871946
 30
0.0
 10
200.5230795691153
 20
122.8611778954562
 30
0.0
 10
200.6015277197637
 20
122.7409362085056
 30
0.0
 10
200.6230305081911
 20
122.6632490524527
 30
0.0
 10
200.624674295068
 20
122.6230859864547
 30
0.0
 10
200.6254965968791
 20
122.6029944755826
 30
0.0
  0
SPLINE
  5
11B
330
1F
100
AcDbEntity
  8
0
  6
Continuous
 62
     7
370
     0
100
AcDbSpline
210
0.0
220
0.0
230
1.0
 70
     8
 71
     3
 72
    11
 73
     7
 74
     0
 42
0.000000001
 43
0.00000001
 40
0.0
 40
0.0
 40
0.0
 40
0.0
 40
0.4999666558526491
 40
0.7499522648531692
 40
0.8655687366695679
 40
0.9999999999999999
 40
0.9999999999999999
 40
0.9999999999999999
 40
0.9999999999999999
 10
200.6215396163596
 20
124.9154727787839
 30
0.0
 10
200.6841147579179
 20
124.8482061862945
 30
0.0
 10
200.7779777557516
 20
124.7473059906597
 30
0.0
 10
200.9048210567116
 20
124.650252990578
 30
0.0
 10
200.9835429852565
 20
124.6024256091853
 30
0.0
 10
201.0246583107188
 20
124.5816303149957
 30
0.0
 10
201.0467628306453
 20
124.5704502990377
 30
0.0
  0
LINE
  5
11C
330
1F
100
AcDbEntity
  8
0
  6
Continuous
 62
     7
370
     0
100
AcDbLine
 10
200.5423999828
 20
124.91547297
 30
0.0
 11
200.6215396424
 21
124.91547297
 31
0.0
  0
SPLINE
  5
11D
330
1F
100
AcDbEntity
  8
0
  6
Continuous
 62
     7
370
     0
100
AcDbSpline
210
0.0
220
0.0
230
1.0
 70
     8
 71
     3
 72
    10
 73
     6
 74
     0
 42
0.000000001
 43
0.00000001
 40
0.0
 40
0.0
 40
0.0
 40
0.0
 40
0.2428811558034017
 40
0.4999804408039869
 40
1.0
 40
1.0
 40
1.0
 40
1.0
 10
200.7448147786973
 20
124.6017638123549
 30
0.0
 10
200.7247061521263
 20
124.6245955620271
 30
0.0
 10
200.6833117510512
 20
124.6715956194325
 30
0.0
 10
200.6130813400666
 20
124.7753783481638
 30
0.0
 10
200.5705130995029
 20
124.8597510259081
 30
0.0
 10
200.54240000597
 20
124.9154727787839
 30
0.0
  0
LINE
  5
11E
330
1F
100
AcDbEntity
  8
0
  6
Continuous
 62
     7
370
     0
100
AcDbLine
 10
199.2305087653
 20
124.6017637128
 30
0.0
 11
200.7448147371
 21
124.6017637128
 31
0.0
  0
LINE
  5
11F
330
1F
100
AcDbEntity
  8
0
  6
Continuous
 62
     7
370
     0
100
AcDbLine
 10
199.2305087653
 20
124.6017637128
 30
0.0
 11
199.2305087653
 21
124.499070265
 31
0.0
  0
LINE
  5
120
330
1F
100
AcDbEntity
  8
0
  6
Continuous
 62
     7
370
     0
100
AcDbLine
 10
200.7448147371
 20
124.499070265
 30
0.0
 11
199.2305087653
 21
124.499070265
 31
0.0
  0
SPLINE
  5
121
330
1F
100
AcDbEntity
  8
0
  6
Continuous
 62
     7
370
     0
100
AcDbSpline
210
0.0
220
0.0
230
1.0
 70
     8
 71
     3
 72
    11
 73
     7
 74
     0
 42
0.000000001
 43
0.00000001
 40
0.0
 40
0.0
 40
0.0
 40
0.0
 40
0.2843783846391184
 40
0.5000223467489632
 40
0.6940663936897697
 40
1.0
 40
1.0
 40
1.0
 40
1.0
 10
200.5442263046713
 20
124.1845963602851
 30
0.0
 10
200.5601678960547
 20
124.2162548991704
 30
0.0
 10
200.5881979868247
 20
124.2719200895053
 30
0.0
 10
200.630190979422
 20
124.347705779012
 30
0.0
 10
200.6824421118698
 20
124.4202303674364
 30
0.0
 10
200.7211373642533
 20
124.4691416328734
 30
0.0
 10
200.7448147786973
 20
124.4990701701331
 30
0.0
  0
LINE
  5
122
330
1F
100
AcDbEntity
  8
0
  6
Continuous
 62
     7
370
     0
100
AcDbLine
 10
200.6224528042
 20
124.184596392
 30
0.0
 11
200.5442263063
 21
124.184596392
 31
0.0
  0
SPLINE
  5
123
330
1F
100
AcDbEntity
  8
0
  6
Continuous
 62
     7
370
     0
100
AcDbSpline
210
0.0
220
0.0
230
1.0
 70
     8
 71
     3
 72
    11
 73
     7
 74
     0
 42
0.000000001
 43
0.00000001
 40
0.0
 40
0.0
 40
0.0
 40
0.0
 40
0.1428746598486543
 40
0.2857531594868727
 40
0.500033204824423
 40
1.0
 40
1.0
 40
1.0
 40
1.0
 10
201.0467628306453
 20
124.5234692404123
 30
0.0
 10
201.023159177094
 20
124.512305177024
 30
0.0
 10
200.9759512356377
 20
124.4899767502107
 30
0.0
 10
200.8991080870616
 20
124.4405478911591
 30
0.0
 10
200.7746633317144
 20
124.3456491882512
 30
0.0
 10
200.6851272627182
 20
124.2509117630161
 30
0.0
 10
200.6224527657102
 20
124.1845963602851
 30
0.0
  0
LINE
  5
124
330
1F
100
AcDbEntity
  8
0
  6
Continuous
 62
     7
370
     0
100
AcDbLine
 10
201.0467627871
 20
124.5704503195
 30
0.0
 11
201.0467627871
 21
124.5234692866
 31
0.0
  0
LINE
  5
125
330
1F
100
AcDbEntity
  8
0
  6
Continuous
 62
     7
370
     0
100
AcDbLine
 10
197.3060160264
 20
146.260765188
 30
0.0
 11
197.3060160264
 21
95.4607658019
 31
0.0
  0
LINE
  5
126
330
1F
100
AcDbEntity
  8
0
  6
Continuous
 62
     7
370
     0
100
AcDbLine
 10
200.4306913906
 20
123.9901620826
 30
0.0
 11
200.4306913906
 21
123.3706546878
 31
0.0
  0
LINE
  5
127
330
1F
100
AcDbEntity
  8
0
  6
Continuous
 62
     7
370
     0
100
AcDbLine
 10
199.1060160536
 20
123.3706546878
 30
0.0
 11
200.4306913906
 21
123.3706546878
 31
0.0
  0
LINE
  5
128
330
1F
100
AcDbEntity
  8
0
  6
Continuous
 62
     7
370
     0
100
AcDbLine
 10
199.1060160536
 20
123.3706546878
 30
0.0
 11
199.1060160536
 21
123.2155268477
 31
0.0
  0
LINE
  5
129
330
1F
100
AcDbEntity
  8
0
  6
Continuous
 62
     7
370
     0
100
AcDbLine
 10
200.6060161249
 20
123.2155268477
 30
0.0
 11
199.1060160536
 21
123.2155268477
 31
0.0
  0
LINE
  5
12A
330
1F
100
AcDbEntity
  8
0
  6
Continuous
 62
     7
370
     0
100
AcDbLine
 10
200.6060161249
 20
123.9901620826
 30
0.0
 11
200.6060161249
 21
123.2155268477
 31
0.0
  0
LINE
  5
12B
330
1F
100
AcDbEntity
  8
0
  6
Continuous
 62
     7
370
     0
100
AcDbLine
 10
200.4306913906
 20
123.9901620826
 30
0.0
 11
200.6060161249
 21
123.9901620826
 31
0.0
  0
SPLINE
  5
12C
330
1F
100
AcDbEntity
  8
0
  6
Continuous
 62
     7
370
     0
100
AcDbSpline
210
0.0
220
0.0
230
1.0
 70
     8
 71
     3
 72
    14
 73
    10
 74
     0
 42
0.000000001
 43
0.00000001
 40
0.0
 40
0.0
 40
0.0
 40
0.0
 40
0.0716150187543069
 40
0.1432023084677995
 40
0.2859674696543457
 40
0.4998846988940563
 40
0.7493386966046547
 40
0.8746339246370637
 40
1.0
 40
1.0
 40
1.0
 40
1.0
 10
199.6125095838921
 20
121.6840691257013
 30
0.0
 10
199.6132198632531
 20
121.7001247682507
 30
0.0
 10
199.614640146958
 20
121.7322298366708
 30
0.0
 10
199.6296387750369
 20
121.7949288079038
 30
0.0
 10
199.6751040659779
 20
121.8810198735409
 30
0.0
 10
199.7756033653716
 20
121.976866374571
 30
0.0
 10
199.9000966340354
 20
122.0286352872357
 30
0.0
 10
200.0109143039498
 20
122.0473768302554
 30
0.0
 10
200.0671402755615
 20
122.0488903540115
 30
0.0
 10
200.0952612072687
 20
122.0496473297819
 30
0.0
  0
SPLINE
  5
12D
330
1F
100
AcDbEntity
  8
0
  6
Continuous
 62
     7
370
     0
100
AcDbSpline
210
0.0
220
0.0
230
1.0
 70
     8
 71
     3
 72
    11
 73
     7
 74
     0
 42
0.000000001
 43
0.00000001
 40
0.0
 40
0.0
 40
0.0
 40
0.0
 40
0.2500788352574252
 40
0.500017520157041
 40
0.7499358821273028
 40
1.0
 40
1.0
 40
1.0
 40
1.0
 10
199.6712555254505
 20
121.4619575365916
 30
0.0
 10
199.6624370327931
 20
121.4792112996293
 30
0.0
 10
199.6448049895795
 20
121.5137091562695
 30
0.0
 10
199.626020726272
 20
121.5688389698146
 30
0.0
 10
199.6146319828821
 20
121.6259926020849
 30
0.0
 10
199.6132171877034
 20
121.6647065225091
 30
0.0
 10
199.6125095838921
 20
121.6840691257013
 30
0.0
  0
SPLINE
  5
12E
330
1F
100
AcDbEntity
  8
0
  6
Continuous
 62
     7
370
     0
100
AcDbSpline
210
0.0
220
0.0
230
1.0
 70
     8
 71
     3
 72
     8
 73
     4
 74
     0
 42
0.000000001
 43
0.00000001
 40
0.0
 40
0.0
 40
0.0
 40
0.0
 40
1.0
 40
1.0
 40
1.0
 40
1.0
 10
199.3008212722038
 20
121.5182511142295
 30
0.0
 10
199.4242993566193
 20
121.4994871115617
 30
0.0
 10
199.5477774410349
 20
121.4807225703114
 30
0.0
 10
199.6712555254505
 20
121.4619575365916
 30
0.0
  0
LINE
  5
12F
330
1F
100
AcDbEntity
  8
0
  6
Continuous
 62
     7
370
     0
100
AcDbLine
 10
199.3008212622
 20
121.991266769
 30
0.0
 11
199.3008212622
 21
121.5182511183
 31
0.0
  0
LINE
  5
130
330
1F
100
AcDbEntity
  8
0
  6
Continuous
 62
     7
370
     0
100
AcDbLine
 10
199.1254965862
 20
121.991266769
 30
0.0
 11
199.3008212622
 21
121.991266769
 31
0.0
  0
LINE
  5
131
330
1F
100
AcDbEntity
  8
0
  6
Continuous
 62
     7
370
     0
100
AcDbLine
 10
199.1254965862
 20
121.991266769
 30
0.0
 11
199.1254965862
 21
121.3877064107
 31
0.0
  0
SPLINE
  5
132
330
1F
100
AcDbEntity
  8
0
  6
Continuous
 62
     7
370
     0
100
AcDbSpline
210
0.0
220
0.0
230
1.0
 70
     8
 71
     3
 72
     8
 73
     4
 74
     0
 42
0.000000001
 43
0.00000001
 40
0.0
 40
0.0
 40
0.0
 40
0.0
 40
1.0
 40
1.0
 40
1.0
 40
1.0
 10
199.8940639670089
 20
121.2708432698466
 30
0.0
 10
199.6378748436323
 20
121.3097992307939
 30
0.0
 10
199.3816857202557
 20
121.3487537444632
 30
0.0
 10
199.1254965968791
 20
121.3877063984128
 30
0.0
  0
SPLINE
  5
133
330
1F
100
AcDbEntity
  8
0
  6
Continuous
 62
     7
370
     0
100
AcDbSpline
210
0.0
220
0.0
230
1.0
 70
     8
 71
     3
 72
     8
 73
     4
 74
     0
 42
0.000000001
 43
0.00000001
 40
0.0
 40
0.0
 40
0.0
 40
0.0
 40
1.0
 40
1.0
 40
1.0
 40
1.0
 10
199.9162839345414
 20
121.426658417182
 30
0.0
 10
199.9088772786972
 20
121.3747232594299
 30
0.0
 10
199.9014706228531
 20
121.3227845511097
 30
0.0
 10
199.8940639670089
 20
121.2708432698466
 30
0.0
  0
SPLINE
  5
134
330
1F
100
AcDbEntity
  8
0
  6
Continuous
 62
     7
370
     0
100
AcDbSpline
210
0.0
220
0.0
230
1.0
 70
     8
 71
     3
 72
    12
 73
     8
 74
     0
 42
0.000000001
 43
0.00000001
 40
0.0
 40
0.0
 40
0.0
 40
0.0
 40
0.1252356836856652
 40
0.2503787278448303
 40
0.5000836829238063
 40
0.7499021074018759
 40
1.0
 40
1.0
 40
1.0
 40
1.0
 10
199.7683537397362
 20
121.6405640238516
 30
0.0
 10
199.7688655709916
 20
121.6291179859673
 30
0.0
 10
199.7698888548897
 20
121.6062343770789
 30
0.0
 10
199.7813871536617
 20
121.5617430511793
 30
0.0
 10
199.8083877315117
 20
121.5106718517053
 30
0.0
 10
199.8561293323973
 20
121.4600612770458
 30
0.0
 10
199.8962249289489
 20
121.4377968526289
 30
0.0
 10
199.9162839345414
 20
121.426658417182
 30
0.0
  0
SPLINE
  5
135
330
1F
100
AcDbEntity
  8
0
  6
Continuous
 62
     7
370
     0
100
AcDbSpline
210
0.0
220
0.0
230
1.0
 70
     8
 71
     3
 72
    12
 73
     8
 74
     0
 42
0.000000001
 43
0.00000001
 40
0.0
 40
0.0
 40
0.0
 40
0.0
 40
0.2506944843951239
 40
0.5005043650406437
 40
0.7494938121473085
 40
0.8746991253656994
 40
1.0
 40
1.0
 40
1.0
 40
1.0
 10
200.1037839345414
 20
121.8939525808173
 30
0.0
 10
200.0644210311516
 20
121.8922159458712
 30
0.0
 10
199.985834120814
 20
121.8887488038913
 30
0.0
 10
199.8737026543705
 20
121.8452185765642
 30
0.0
 10
199.8025376666708
 20
121.7730001738817
 30
0.0
 10
199.7720899994721
 20
121.699587524933
 30
0.0
 10
199.7695994763375
 20
121.6602435271066
 30
0.0
 10
199.7683537397362
 20
121.6405640238516
 30
0.0
  0
SPLINE
  5
136
330
1F
100
AcDbEntity
  8
0
  6
Continuous
 62
     7
370
     0
100
AcDbSpline
210
0.0
220
0.0
230
1.0
 70
     8
 71
     3
 72
    15
 73
    11
 74
     0
 42
0.000000001
 43
0.00000001
 40
0.0
 40
0.0
 40
0.0
 40
0.0
 40
0.0671957795589742
 40
0.1251134564478004
 40
0.2499060872971453
 40
0.3749045058559849
 40
0.50000269727747
 40
0.7495414104981329
 40
0.8632876180201523
 40
1.0
 40
1.0
 40
1.0
 40
1.0
 10
200.4696524410349
 20
121.636608899121
 30
0.0
 10
200.4690137468798
 20
121.6477195645531
 30
0.0
 10
200.4678245466967
 20
121.6684067827798
 30
0.0
 10
200.4590210924082
 20
121.7089734889717
 30
0.0
 10
200.4357781501484
 20
121.7552975528015
 30
0.0
 10
200.3938430093325
 20
121.801593099853
 30
0.0
 10
200.3277861460882
 20
121.8521077593226
 30
0.0
 10
200.2497882786693
 20
121.8798486074636
 30
0.0
 10
200.1678956556033
 20
121.8919265222709
 30
0.0
 10
200.1264221660846
 20
121.8932371674462
 30
0.0
 10
200.1037839345414
 20
121.8939525808173
 30
0.0
  0
SPLINE
  5
137
330
1F
100
AcDbEntity
  8
0
  6
Continuous
 62
     7
370
     0
100
AcDbSpline
210
0.0
220
0.0
230
1.0
 70
     8
 71
     3
 72
    13
 73
     9
 74
     0
 42
0.000000001
 43
0.00000001
 40
0.0
 40
0.0
 40
0.0
 40
0.0
 40
0.2503702502097852
 40
0.5001052875547942
 40
0.6145260243890094
 40
0.7857161668471911
 40
0.8714922286697271
 40
1.0
 40
1.0
 40
1.0
 40
1.0
 10
200.1774446488271
 20
121.4071825685018
 30
0.0
 10
200.2110418304203
 20
121.4123984013288
 30
0.0
 10
200.2781509543982
 20
121.4228168339244
 30
0.0
 10
200.3566145860286
 20
121.4556448034694
 30
0.0
 10
200.4136755427266
 20
121.501043447244
 30
0.0
 10
200.4455386103793
 20
121.5412057020085
 30
0.0
 10
200.4660225260054
 20
121.589905559349
 30
0.0
 10
200.4682916367315
 20
121.6191004711744
 30
0.0
 10
200.4696524410349
 20
121.636608899121
 30
0.0
  0
SPLINE
  5
138
330
1F
100
AcDbEntity
  8
0
  6
Continuous
 62
     7
370
     0
100
AcDbSpline
210
0.0
220
0.0
230
1.0
 70
     8
 71
     3
 72
     8
 73
     4
 74
     0
 42
0.000000001
 43
0.00000001
 40
0.0
 40
0.0
 40
0.0
 40
0.0
 40
1.0
 40
1.0
 40
1.0
 40
1.0
 10
200.1969251683076
 20
121.2513651706762
 30
0.0
 10
200.1904316618141
 20
121.3033070798964
 30
0.0
 10
200.1839381553206
 20
121.3552465383847
 30
0.0
 10
200.1774446488271
 20
121.4071825685018
 30
0.0
  0
SPLINE
  5
139
330
1F
100
AcDbEntity
  8
0
  6
Continuous
 62
     7
370
     0
100
AcDbSpline
210
0.0
220
0.0
230
1.0
 70
     8
 71
     3
 72
    13
 73
     9
 74
     0
 42
0.000000001
 43
0.00000001
 40
0.0
 40
0.0
 40
0.0
 40
0.0
 40
0.1252979724012309
 40
0.2505479492188886
 40
0.4996504656309608
 40
0.7491367961713563
 40
0.8745560122733987
 40
0.9999999999999999
 40
0.9999999999999999
 40
0.9999999999999999
 40
0.9999999999999999
 10
200.6254965968791
 20
121.638130103174
 30
0.0
 10
200.6240762300398
 20
121.6114068550939
 30
0.0
 10
200.621236040435
 20
121.5579705953154
 30
0.0
 10
200.5863366330044
 20
121.456205968296
 30
0.0
 10
200.5003982539632
 20
121.3491345857662
 30
0.0
 10
200.3801760307285
 20
121.2859582209634
 30
0.0
 10
200.2766803399228
 20
121.2595936738893
 30
0.0
 10
200.2235119755591
 20
121.2541081856364
 30
0.0
 10
200.1969251683076
 20
121.2513651706762
 30
0.0
  0
SPLINE
  5
13A
330
1F
100
AcDbEntity
  8
0
  6
Continuous
 62
     7
370
     0
100
AcDbSpline
210
0.0
220
0.0
230
1.0
 70
     8
 71
     3
 72
    14
 73
    10
 74
     0
 42
0.000000001
 43
0.00000001
 40
0.0
 40
0.0
 40
0.0
 40
0.0
 40
0.1254503143219165
 40
0.2508643752892165
 40
0.5007647188434741
 40
0.7494477027970826
 40
0.874548646661646
 40
0.9372588824514376
 40
1.0
 40
1.0
 40
1.0
 40
1.0
 10
200.0952612072687
 20
122.0496473297819
 30
0.0
 10
200.1265071660147
 20
122.0486692138104
 30
0.0
 10
200.1889900538696
 20
122.0467132645289
 30
0.0
 10
200.3118214803452
 20
122.0227032750935
 30
0.0
 10
200.4562404787034
 20
121.9606360986641
 30
0.0
 10
200.5736659145413
 20
121.8493639813704
 30
0.0
 10
200.6132244808848
 20
121.7465109442089
 30
0.0
 10
200.6241104086208
 20
121.6849783427533
 30
0.0
 10
200.6250344583034
 20
121.6537487455806
 30
0.0
 10
200.6254965968791
 20
121.638130103174
 30
0.0
  0
LINE
  5
13B
330
1F
100
AcDbEntity
  8
0
  6
Continuous
 62
     7
370
     0
100
AcDbLine
 10
200.0021199666
 20
119.6787556797
 30
0.0
 11
200.0021199666
 21
119.3626401179
 31
0.0
  0
SPLINE
  5
13C
330
1F
100
AcDbEntity
  8
0
  6
Continuous
 62
     7
370
     0
100
AcDbSpline
210
0.0
220
0.0
230
1.0
 70
     8
 71
     3
 72
    15
 73
    11
 74
     0
 42
0.000000001
 43
0.00000001
 40
0.0
 40
0.0
 40
0.0
 40
0.0
 40
0.1429545597213982
 40
0.2858259307256618
 40
0.3930115961467938
 40
0.5001405448350671
 40
0.6181942514790063
 40
0.7497632715744822
 40
0.8748286417272916
 40
1.0
 40
1.0
 40
1.0
 40
1.0
 10
199.5406751683076
 20
120.1410872849996
 30
0.0
 10
199.5763792895053
 20
120.139746926377
 30
0.0
 10
199.6477667548085
 20
120.137066989119
 30
0.0
 10
199.7437614959669
 20
120.1126102894568
 30
0.0
 10
199.8243521604523
 20
120.0739410256248
 30
0.0
 10
199.892821942129
 20
120.0258704783168
 30
0.0
 10
199.9482515926009
 20
119.9543792471991
 30
0.0
 10
199.9826577751681
 20
119.8664996401115
 30
0.0
 10
199.9996762127264
 20
119.7723865600971
 30
0.0
 10
200.0013051565966
 20
119.7099747707455
 30
0.0
 10
200.0021199735025
 20
119.6787556587689
 30
0.0
  0
SPLINE
  5
13D
330
1F
100
AcDbEntity
  8
0
  6
Continuous
 62
     7
370
     0
100
AcDbSpline
210
0.0
220
0.0
230
1.0
 70
     8
 71
     3
 72
    14
 73
    10
 74
     0
 42
0.000000001
 43
0.00000001
 40
0.0
 40
0.0
 40
0.0
 40
0.0
 40
0.0745601870303218
 40
0.1430363259402321
 40
0.2502753544418672
 40
0.4996559586217005
 40
0.6996146735485747
 40
0.840656500597625
 40
1.0
 40
1.0
 40
1.0
 40
1.0
 10
199.1349324735025
 20
119.9086653577733
 30
0.0
 10
199.1396743391866
 20
119.9201041428528
 30
0.0
 10
199.1487711383307
 20
119.9420483178363
 30
0.0
 10
199.1694441505244
 20
119.9782092059373
 30
0.0
 10
199.2132786369567
 20
120.033891263846
 30
0.0
 10
199.289484680018
 20
120.0898625340964
 30
0.0
 10
199.3822534772522
 20
120.1236745849625
 30
0.0
 10
199.4643072121152
 20
120.1384156470487
 30
0.0
 10
199.5142057874519
 20
120.1401612866365
 30
0.0
 10
199.5406751683076
 20
120.1410872849996
 30
0.0
  0
SPLINE
  5
13E
330
1F
100
AcDbEntity
  8
0
  6
Continuous
 62
     7
370
     0
100
AcDbSpline
210
0.0
220
0.0
230
1.0
 70
     8
 71
     3
 72
    11
 73
     7
 74
     0
 42
0.000000001
 43
0.00000001
 40
0.0
 40
0.0
 40
0.0
 40
0.0
 40
0.2729389191732804
 40
0.500136088788852
 40
0.7501730734356025
 40
1.0
 40
1.0
 40
1.0
 40
1.0
 10
199.1060160773986
 20
119.6684179431016
 30
0.0
 10
199.1061557904433
 20
119.6905325990029
 30
0.0
 10
199.1064118020665
 20
119.7310557224217
 30
0.0
 10
199.1108292139167
 20
119.7916443151009
 30
0.0
 10
199.1174137394389
 20
119.8503774913822
 30
0.0
 10
199.1290945316898
 20
119.8892415129259
 30
0.0
 10
199.1349324735025
 20
119.9086653577733
 30
0.0
  0
LINE
  5
13F
330
1F
100
AcDbEntity
  8
0
  6
Continuous
 62
     7
370
     0
100
AcDbLine
 10
199.1060160536
 20
119.6684179991
 30
0.0
 11
199.1060160536
 21
119.2070964422
 31
0.0
  0
LINE
  5
140
330
1F
100
AcDbEntity
  8
0
  6
Continuous
 62
     7
370
     0
100
AcDbLine
 10
200.6060161249
 20
119.2070964422
 30
0.0
 11
199.1060160536
 21
119.2070964422
 31
0.0
  0
LINE
  5
141
330
1F
100
AcDbEntity
  8
0
  6
Continuous
 62
     7
370
     0
100
AcDbLine
 10
200.6060161249
 20
119.3626401179
 30
0.0
 11
200.6060161249
 21
119.2070964422
 31
0.0
  0
LINE
  5
142
330
1F
100
AcDbEntity
  8
0
  6
Continuous
 62
     7
370
     0
100
AcDbLine
 10
200.0021199666
 20
119.3626401179
 30
0.0
 11
200.6060161249
 21
119.3626401179
 31
0.0
  0
SPLINE
  5
143
330
1F
100
AcDbEntity
  8
0
  6
Continuous
 62
     7
370
     0
100
AcDbSpline
210
0.0
220
0.0
230
1.0
 70
     8
 71
     3
 72
     8
 73
     4
 74
     0
 42
0.000000001
 43
0.00000001
 40
0.0
 40
0.0
 40
0.0
 40
0.0
 40
1.0
 40
1.0
 40
1.0
 40
1.0
 10
200.6060160773986
 20
117.334137902074
 30
0.0
 10
200.1696321488271
 20
117.2162768329023
 30
0.0
 10
199.7332482202557
 20
117.0985319047139
 30
0.0
 10
199.2968642916843
 20
116.9809147499017
 30
0.0
  0
LINE
  5
144
330
1F
100
AcDbEntity
  8
0
  6
Continuous
 62
     7
370
     0
100
AcDbLine
 10
200.6060161249
 20
117.4921582384
 30
0.0
 11
200.6060161249
 21
117.3341379432
 31
0.0
  0
SPLINE
  5
145
330
1F
100
AcDbEntity
  8
0
  6
Continuous
 62
     7
370
     0
100
AcDbSpline
210
0.0
220
0.0
230
1.0
 70
     8
 71
     3
 72
     8
 73
     4
 74
     0
 42
0.000000001
 43
0.00000001
 40
0.0
 40
0.0
 40
0.0
 40
0.0
 40
1.0
 40
1.0
 40
1.0
 40
1.0
 10
199.367785557918
 20
117.8493893215183
 30
0.0
 10
199.7805290644116
 20
117.730207459012
 30
0.0
 10
200.193272570905
 20
117.6111264670942
 30
0.0
 10
200.6060160773986
 20
117.4921583115866
 30
0.0
  0
LINE
  5
146
330
1F
100
AcDbEntity
  8
0
  6
Continuous
 62
     7
370
     0
100
AcDbLine
 10
200.6060161249
 20
117.8493893636
 30
0.0
 11
199.3677855527
 21
117.8493893636
 31
0.0
  0
LINE
  5
147
330
1F
100
AcDbEntity
  8
0
  6
Continuous
 62
     7
370
     0
100
AcDbLine
 10
200.6060161249
 20
118.0041900767
 30
0.0
 11
200.6060161249
 21
117.8493893636
 31
0.0
  0
LINE
  5
148
330
1F
100
AcDbEntity
  8
0
  6
Continuous
 62
     7
370
     0
100
AcDbLine
 10
199.1060160536
 20
118.0041900767
 30
0.0
 11
200.6060161249
 21
118.0041900767
 31
0.0
  0
LINE
  5
149
330
1F
100
AcDbEntity
  8
0
  6
Continuous
 62
     7
370
     0
100
AcDbLine
 10
199.1060160536
 20
118.0041900767
 30
0.0
 11
199.1060160536
 21
117.7850228665
 31
0.0
  0
SPLINE
  5
14A
330
1F
100
AcDbEntity
  8
0
  6
Continuous
 62
     7
370
     0
100
AcDbSpline
210
0.0
220
0.0
230
1.0
 70
     8
 71
     3
 72
     8
 73
     4
 74
     0
 42
0.000000001
 43
0.00000001
 40
0.0
 40
0.0
 40
0.0
 40
0.0
 40
1.0
 40
1.0
 40
1.0
 40
1.0
 10
200.1497457851908
 20
117.4819009821293
 30
0.0
 10
199.8018358825934
 20
117.5828625260249
 30
0.0
 10
199.4539259799959
 20
117.6839055902058
 30
0.0
 10
199.1060160773986
 20
117.7850228614594
 30
0.0
  0
ARC
  5
14B
330
1F
100
AcDbEntity
  8
0
  6
Continuous
 62
     7
370
     0
100
AcDbCircle
 10
204.8558554603
 20
133.8428588505
 30
0.0
 40
17.02434768144768
100
AcDbArc
 50
253.9525064884
 51
254.7928598794
  0
SPLINE
  5
14C
330
1F
100
AcDbEntity
  8
0
  6
Continuous
 62
     7
370
     0
100
AcDbSpline
210
0.0
220
0.0
230
1.0
 70
     8
 71
     3
 72
     8
 73
     4
 74
     0
 42
0.000000001
 43
0.00000001
 40
0.0
 40
0.0
 40
0.0
 40
0.0
 40
1.0
 40
1.0
 40
1.0
 40
1.0
 10
200.1680087722038
 20
117.356746945374
 30
0.0
 10
200.2420753306453
 20
117.3760412059326
 30
0.0
 10
200.3161418890869
 20
117.3953385581495
 30
0.0
 10
200.3902084475284
 20
117.4146389509455
 30
0.0
  0
SPLINE
  5
14D
330
1F
100
AcDbEntity
  8
0
  6
Continuous
 62
     7
370
     0
100
AcDbSpline
210
0.0
220
0.0
230
1.0
 70
     8
 71
     3
 72
     8
 73
     4
 74
     0
 42
0.000000001
 43
0.00000001
 40
0.0
 40
0.0
 40
0.0
 40
0.0
 40
1.0
 40
1.0
 40
1.0
 40
1.0
 10
199.1060160773986
 20
117.0678722626191
 30
0.0
 10
199.4600136423336
 20
117.1640824530278
 30
0.0
 10
199.8140112072687
 20
117.2603761335213
 30
0.0
 10
200.1680087722038
 20
117.356746945374
 30
0.0
  0
LINE
  5
14E
330
1F
100
AcDbEntity
  8
0
  6
Continuous
 62
     7
370
     0
100
AcDbLine
 10
199.1060160536
 20
117.0678723535
 30
0.0
 11
199.1060160536
 21
116.8269736623
 31
0.0
  0
LINE
  5
14F
330
1F
100
AcDbEntity
  8
0
  6
Continuous
 62
     7
370
     0
100
AcDbLine
 10
200.6060161249
 20
116.8269736623
 30
0.0
 11
199.1060160536
 21
116.8269736623
 31
0.0
  0
LINE
  5
150
330
1F
100
AcDbEntity
  8
0
  6
Continuous
 62
     7
370
     0
100
AcDbLine
 10
200.6060161249
 20
116.9809147647
 30
0.0
 11
200.6060161249
 21
116.8269736623
 31
0.0
  0
LINE
  5
151
330
1F
100
AcDbEntity
  8
0
  6
Continuous
 62
     7
370
     0
100
AcDbLine
 10
199.2968643055
 20
116.9809147647
 30
0.0
 11
200.6060161249
 21
116.9809147647
 31
0.0
  0
LINE
  5
152
330
1F
100
AcDbEntity
  8
0
  6
Continuous
 62
     7
370
     0
100
AcDbLine
 10
197.1060161333
 20
95.6607654622
 30
0.0
 11
197.1060161333
 21
146.0607655277
 31
0.0
  0
LINE
  5
153
330
1F
100
AcDbEntity
  8
0
  6
Continuous
 62
     7
370
     0
100
AcDbLine
 10
199.8267953051
 20
119.6884854395
 30
0.0
 11
199.8267953051
 21
119.3626401179
 31
0.0
  0
SPLINE
  5
154
330
1F
100
AcDbEntity
  8
0
  6
Continuous
 62
     7
370
     0
100
AcDbSpline
210
0.0
220
0.0
230
1.0
 70
     8
 71
     3
 72
    13
 73
     9
 74
     0
 42
0.000000001
 43
0.00000001
 40
0.0
 40
0.0
 40
0.0
 40
0.0
 40
0.1257431705301028
 40
0.251403204778073
 40
0.5004854116416132
 40
0.7488453632207661
 40
0.9161634980058073
 40
1.0
 40
1.0
 40
1.0
 40
1.0
 10
199.8267952981778
 20
119.6884854527952
 30
0.0
 10
199.8263067582146
 20
119.7080111207264
 30
0.0
 10
199.825330001291
 20
119.7470495470094
 30
0.0
 10
199.8129100324224
 20
119.8235777653772
 30
0.0
 10
199.7723947601759
 20
119.9166943477884
 30
0.0
 10
199.6777025413201
 20
119.9710449372645
 30
0.0
 10
199.600903165628
 20
119.9840191071734
 30
0.0
 10
199.5619096997191
 20
119.9849945983711
 30
0.0
 10
199.5488935124635
 20
119.9853202215442
 30
0.0
  0
SPLINE
  5
155
330
1F
100
AcDbEntity
  8
0
  6
Continuous
 62
     7
370
     0
100
AcDbSpline
210
0.0
220
0.0
230
1.0
 70
     8
 71
     3
 72
    14
 73
    10
 74
     0
 42
0.000000001
 43
0.00000001
 40
0.0
 40
0.0
 40
0.0
 40
0.0
 40
0.1251692025470937
 40
0.2502774400662945
 40
0.3752942969246997
 40
0.5002256764783135
 40
0.624740884272907
 40
0.7496892273597416
 40
0.9999999999999999
 40
0.9999999999999999
 40
0.9999999999999999
 40
0.9999999999999999
 10
199.5488935124635
 20
119.9853202215442
 30
0.0
 10
199.5293712156515
 20
119.9846556019365
 30
0.0
 10
199.4903361305754
 20
119.9833266864316
 30
0.0
 10
199.4330099456669
 20
119.9696164956426
 30
0.0
 10
199.3797524704606
 20
119.9447371075606
 30
0.0
 10
199.3326989697736
 20
119.9093518272302
 30
0.0
 10
199.2984502472497
 20
119.8601674327504
 30
0.0
 10
199.2834173974187
 20
119.7826953793392
 30
0.0
 10
199.2821716855221
 20
119.7243579505801
 30
0.0
 10
199.2813407527233
 20
119.6854448735766
 30
0.0
  0
LINE
  5
156
330
1F
100
AcDbEntity
  8
0
  6
Continuous
 62
     7
370
     0
100
AcDbLine
 10
199.2813407588
 20
119.6854449041
 30
0.0
 11
199.2813407588
 21
119.3626401179
 31
0.0
  0
LINE
  5
157
330
1F
100
AcDbEntity
  8
0
  6
Continuous
 62
     7
370
     0
100
AcDbLine
 10
199.2813407588
 20
119.3626401179
 30
0.0
 11
199.8267953051
 21
119.3626401179
 31
0.0
  0
SPLINE
  5
158
330
1F
100
AcDbEntity
  8
0
  6
Continuous
 62
     7
370
     0
100
AcDbSpline
210
0.0
220
0.0
230
1.0
 70
     8
 71
     3
 72
    14
 73
    10
 74
     0
 42
0.000000001
 43
0.00000001
 40
0.0
 40
0.0
 40
0.0
 40
0.0
 40
0.2504567050928235
 40
0.5007685906461226
 40
0.625864467971912
 40
0.7507010938702152
 40
0.8751098530209156
 40
0.9375424545412298
 40
1.0
 40
1.0
 40
1.0
 40
1.0
 10
199.8560160773986
 20
122.3608967003017
 30
0.0
 10
199.9165798981963
 20
122.3616560376361
 30
0.0
 10
200.0376725204672
 20
122.3631742732395
 30
0.0
 10
200.1885491963702
 20
122.3790789158197
 30
0.0
 10
200.3065130543405
 20
122.4084033929635
 30
0.0
 10
200.3872525562833
 20
122.4514223718669
 30
0.0
 10
200.4417054920669
 20
122.5061578621789
 30
0.0
 10
200.4666747794933
 20
122.5621505042585
 30
0.0
 10
200.4686597550366
 20
122.5924144472388
 30
0.0
 10
200.4696524410349
 20
122.6075494409927
 30
0.0
  0
SPLINE
  5
159
330
1F
100
AcDbEntity
  8
0
  6
Continuous
 62
     7
370
     0
100
AcDbSpline
210
0.0
220
0.0
230
1.0
 70
     8
 71
     3
 72
    15
 73
    11
 74
     0
 42
0.000000001
 43
0.00000001
 40
0.0
 40
0.0
 40
0.0
 40
0.0
 40
0.0357496639709916
 40
0.0714787857971891
 40
0.1249960507389605
 40
0.2494778538486886
 40
0.3743167329173326
 40
0.4993970418671524
 40
0.7496360215701784
 40
1.0
 40
1.0
 40
1.0
 40
1.0
 10
200.4696524410349
 20
122.6075494409927
 30
0.0
 10
200.4693400688015
 20
122.6161183286204
 30
0.0
 10
200.4687155038272
 20
122.6332511801001
 30
0.0
 10
200.4606737763992
 20
122.6622541076812
 30
0.0
 10
200.4381475956212
 20
122.7086587486547
 30
0.0
 10
200.3826978741656
 20
122.758702225521
 30
0.0
 10
200.3026518993016
 20
122.8004278571207
 30
0.0
 10
200.1854605006354
 20
122.8287462334607
 30
0.0
 10
200.0360392727613
 20
122.8444462812954
 30
0.0
 10
199.9160337974955
 20
122.8459846581458
 30
0.0
 10
199.8560160773986
 20
122.8467540386346
 30
0.0
  0
SPLINE
  5
15A
330
1F
100
AcDbEntity
  8
0
  6
Continuous
 62
     7
370
     0
100
AcDbSpline
210
0.0
220
0.0
230
1.0
 70
     8
 71
     3
 72
    14
 73
    10
 74
     0
 42
0.000000001
 43
0.00000001
 40
0.0
 40
0.0
 40
0.0
 40
0.0
 40
0.2504552763300965
 40
0.5007650511731642
 40
0.6258584362837313
 40
0.750680307190223
 40
0.8751033703397859
 40
0.9375275944789334
 40
1.0
 40
1.0
 40
1.0
 40
1.0
 10
199.8560160773986
 20
122.8467540386346
 30
0.0
 10
199.7953073558452
 20
122.8459903204757
 30
0.0
 10
199.6739251813479
 20
122.8444633278386
 30
0.0
 10
199.5226602036672
 20
122.828596777814
 30
0.0
 10
199.4044595349249
 20
122.7991465146023
 30
0.0
 10
199.3235022731834
 20
122.755920962799
 30
0.0
 10
199.2697285900616
 20
122.7002412145155
 30
0.0
 10
199.2452289203341
 20
122.6439516035414
 30
0.0
 10
199.2433296935078
 20
122.6136140715369
 30
0.0
 10
199.2423797137622
 20
122.5984394538786
 30
0.0
  0
SPLINE
  5
15B
330
1F
100
AcDbEntity
  8
0
  6
Continuous
 62
     7
370
     0
100
AcDbSpline
210
0.0
220
0.0
230
1.0
 70
     8
 71
     3
 72
    14
 73
    10
 74
     0
 42
0.000000001
 43
0.00000001
 40
0.0
 40
0.0
 40
0.0
 40
0.0
 40
0.0623759841546414
 40
0.1248129722817842
 40
0.2492504649310001
 40
0.374121338438643
 40
0.4992563427513284
 40
0.7495574582203581
 40
1.0
 40
1.0
 40
1.0
 40
1.0
 10
199.2423797137622
 20
122.5984394538786
 30
0.0
 10
199.2435966575872
 20
122.5834856467456
 30
0.0
 10
199.2460317354135
 20
122.5535634075939
 30
0.0
 10
199.2732232528593
 20
122.4991641823681
 30
0.0
 10
199.3297767240906
 20
122.4480653882481
 30
0.0
 10
199.4101181775765
 20
122.4068135183959
 30
0.0
 10
199.5271065695764
 20
122.378876988372
 30
0.0
 10
199.6763052025586
 20
122.3632215862583
 30
0.0
 10
199.7961011743577
 20
122.3616718081899
 30
0.0
 10
199.8560160773986
 20
122.3608967003017
 30
0.0
  0
LINE
  5
15C
330
1F
100
AcDbEntity
  8
0
  6
Continuous
 62
     7
370
     0
100
AcDbLine
 10
200.4306913906
 20
116.016327676
 30
0.0
 11
200.4306913906
 21
115.7539601369
 31
0.0
  0
SPLINE
  5
15D
330
1F
100
AcDbEntity
  8
0
  6
Continuous
 62
     7
370
     0
100
AcDbSpline
210
0.0
220
0.0
230
1.0
 70
     8
 71
     3
 72
    12
 73
     8
 74
     0
 42
0.000000001
 43
0.00000001
 40
0.0
 40
0.0
 40
0.0
 40
0.0
 40
0.2506447700527095
 40
0.500496388892758
 40
0.7494550466348047
 40
0.8640021788814772
 40
0.9999999999999999
 40
0.9999999999999999
 40
0.9999999999999999
 40
0.9999999999999999
 10
200.4306914020739
 20
116.0163277535878
 30
0.0
 10
200.4294319906493
 20
116.0545816687211
 30
0.0
 10
200.4269171531363
 20
116.1309684466346
 30
0.0
 10
200.3964454198955
 20
116.2441249863564
 30
0.0
 10
200.3325062111005
 20
116.3182170298048
 30
0.0
 10
200.2672337793339
 20
116.3601348347044
 30
0.0
 10
200.2315265151173
 20
116.3756422061663
 30
0.0
 10
200.2121443241518
 20
116.3840597324496
 30
0.0
  0
SPLINE
  5
15E
330
1F
100
AcDbEntity
  8
0
  6
Continuous
 62
     7
370
     0
100
AcDbSpline
210
0.0
220
0.0
230
1.0
 70
     8
 71
     3
 72
    11
 73
     7
 74
     0
 42
0.000000001
 43
0.00000001
 40
0.0
 40
0.0
 40
0.0
 40
0.0
 40
0.2499306351901286
 40
0.4999282956707934
 40
0.7499583790451344
 40
1.0
 40
1.0
 40
1.0
 40
1.0
 10
200.2121443241518
 20
116.3840597324496
 30
0.0
 10
200.1827312296387
 20
116.3941330540646
 30
0.0
 10
200.123897152739
 20
116.4142823987134
 30
0.0
 10
200.0318835927697
 20
116.4310706873851
 30
0.0
 10
199.93905246197
 20
116.4414115363402
 30
0.0
 10
199.876796000397
 20
116.4423353046182
 30
0.0
 10
199.8456670514245
 20
116.4427971994137
 30
0.0
  0
SPLINE
  5
15F
330
1F
100
AcDbEntity
  8
0
  6
Continuous
 62
     7
370
     0
100
AcDbSpline
210
0.0
220
0.0
230
1.0
 70
     8
 71
     3
 72
    15
 73
    11
 74
     0
 42
0.000000001
 43
0.00000001
 40
0.0
 40
0.0
 40
0.0
 40
0.0
 40
0.1347999632652077
 40
0.2502496014357529
 40
0.5001560835052262
 40
0.6667344581242454
 40
0.750107897762363
 40
0.875014222628859
 40
0.9335799284632379
 40
1.0
 40
1.0
 40
1.0
 40
1.0
 10
199.8456670514245
 20
116.4427971994137
 30
0.0
 10
199.8181895446457
 20
116.4423319617251
 30
0.0
 10
199.7671788844548
 20
116.4414682704944
 30
0.0
 10
199.6656118575795
 20
116.4332778078851
 30
0.0
 10
199.5580862433385
 20
116.4136297357372
 30
0.0
 10
199.4644376704058
 20
116.3722284701382
 30
0.0
 10
199.4002739564962
 20
116.3313144754552
 30
0.0
 10
199.3593521299197
 20
116.295216829963
 30
0.0
 10
199.3291238792896
 20
116.2546698601471
 30
0.0
 10
199.3174004011166
 20
116.2323998998494
 30
0.0
 10
199.3111702981778
 20
116.2205651744334
 30
0.0
  0
SPLINE
  5
160
330
1F
100
AcDbEntity
  8
0
  6
Continuous
 62
     7
370
     0
100
AcDbSpline
210
0.0
220
0.0
230
1.0
 70
     8
 71
     3
 72
    10
 73
     6
 74
     0
 42
0.000000001
 43
0.00000001
 40
0.0
 40
0.0
 40
0.0
 40
0.0
 40
0.2498028102649144
 40
0.499885997509294
 40
0.9999999999999999
 40
0.9999999999999999
 40
0.9999999999999999
 40
0.9999999999999999
 10
199.3111702981778
 20
116.2205651744334
 30
0.0
 10
199.3051528192577
 20
116.2039021174444
 30
0.0
 10
199.29311110744
 20
116.1705573009641
 30
0.0
 10
199.2836667916081
 20
116.1002537019668
 30
0.0
 10
199.2822711487909
 20
116.047387552209
 30
0.0
 10
199.2813407527233
 20
116.0121446825829
 30
0.0
  0
LINE
  5
161
330
1F
100
AcDbEntity
  8
0
  6
Continuous
 62
     7
370
     0
100
AcDbLine
 10
199.2813407588
 20
116.0121446406
 30
0.0
 11
199.2813407588
 21
115.7539601369
 31
0.0
  0
LINE
  5
162
330
1F
100
AcDbEntity
  8
0
  6
Continuous
 62
     7
370
     0
100
AcDbLine
 10
199.2813407588
 20
115.7539601369
 30
0.0
 11
200.4306913906
 21
115.7539601369
 31
0.0
  0
DIMENSION
  5
163
330
1F
100
AcDbEntity
  8
0
  6
Continuous
 62
     7
370
     0
100
AcDbDimension
  2
_D_1
 10
202.1060160774
 20
91.8616442501
 30
0.0
 11
214.0861620149
 21
91.8616442501
 31
0.0
 70
   160
  1
<>
 71
     2
 42
-1.0
  3
SLDDIMSTYLE1
100
AcDbAlignedDimension
 13
197.1060160774
 23
95.660765495
 33
0.0
 14
202.1060160774
 24
95.660765495
 34
0.0
100
AcDbRotatedDimension
  0
MTEXT
  5
178
330
1F
100
AcDbEntity
  8
0
  6
Continuous
 62
     7
370
     0
100
AcDbMText
 10
166.5937569487
 20
130.3381959305
 30
0.0
 40
2.1166666667
 41
0.0
 71
     1
 72
     1
  1
S1
  7
SLDTEXTSTYLE0
 73
     1
 44
1.0
  0
LEADER
  5
17A
330
1F
100
AcDbEntity
  8
0
  6
Continuous
 62
     7
370
     0
100
AcDbLeader
  3
SLDDIMSTYLE2
 76
     3
 10
197.1060160774
 20
121.2550782554
 30
0.0
 10
176.3415254237
 20
129.2655367232
 30
0.0
 10
169.9915254237
 20
129.2655367232
 30
0.0
  0
INSERT
  5
180
102
{ACAD_REACTORS
330
181
102
}
330
1F
100
AcDbEntity
  8
0
  6
Continuous
 62
     7
370
     0
100
AcDbBlockReference
  2
SW_NOTE_5
 10
219.6129943503
 20
114.6892655367
 30
0.0
  0
LEADER
  5
181
330
1F
100
AcDbEntity
  8
0
  6
Continuous
 62
     7
370
     0
100
AcDbLeader
  3
SLDDIMSTYLE2
 73
     2
 76
     3
 10
202.1060160774
 20
119.1242669799
 30
0.0
 10
213.2629943503
 20
114.6892655367
 30
0.0
 10
219.6129943503
 20
114.6892655367
 30
0.0
340
180
  0
LINE
  5
182
330
1F
100
AcDbEntity
  8
0
  6
Continuous
 62
     7
370
     0
100
AcDbLine
 10
252.1919699178
 20
196.8859810837
 30
0.0
 11
252.1919699178
 21
196.8043402725
 31
0.0
  0
LINE
  5
183
330
1F
100
AcDbEntity
  8
0
  6
Continuous
 62
     7
370
     0
100
AcDbLine
 10
261.1000673091
 20
181.3733910166
 30
0.0
 11
261.1707664947
 21
181.3325639766
 31
0.0
  0
LINE
  5
184
330
1F
100
AcDbEntity
  8
0
  6
Continuous
 62
     7
370
     0
100
AcDbLine
 10
256.4490876834
 20
203.6394794545
 30
0.0
 11
254.8227420867
 21
202.7006101259
 31
0.0
  0
LINE
  5
185
330
1F
100
AcDbEntity
  8
0
  6
Continuous
 62
     7
370
     0
100
AcDbLine
 10
267.5217099911
 20
180.7029690214
 30
0.0
 11
269.1480555879
 21
181.64183835
 31
0.0
  0
LINE
  5
186
330
1F
100
AcDbEntity
  8
0
  6
Continuous
 62
     7
370
     0
100
AcDbLine
 10
271.7788277567
 20
187.4564673922
 30
0.0
 11
271.7788277567
 21
187.5381082033
 31
0.0
  0
LINE
  5
187
330
1F
100
AcDbEntity
  8
0
  6
Continuous
 62
     7
370
     0
100
AcDbLine
 10
262.8707303655
 20
202.9690574592
 30
0.0
 11
262.8000311798
 21
203.0098844993
 31
0.0
  0
LWPOLYLINE
  5
188
330
1F
100
AcDbEntity
  8
0
  6
Continuous
 62
     7
370
     0
100
AcDbPolyline
 90
      171
 70
   128
 43
0.0
 10
261.1015153608
 20
181.3725549383
 10
261.4307364238
 20
181.1895260322
 10
261.7595078104
 20
181.0207998579
 10
262.0873804585
 20
180.866606875
 10
262.4139065334
 20
180.7271576925
 10
262.7386400399
 20
180.6026427814
 10
263.061137431
 20
180.4932322139
 10
263.380958214
 20
180.3990754318
 10
263.6976655523
 20
180.3203010419
 10
264.0108268617
 20
180.2570166405
 10
264.3200144016
 20
180.2093086666
 10
264.6248058589
 20
180.1772422834
 10
264.9247849251
 20
180.1608612898
 10
265.2195418651
 20
180.1601880603
 10
265.5086740762
 20
180.1752235143
 10
265.7917866386
 20
180.2059471154
 10
266.0684928546
 20
180.2523168987
 10
266.3384147768
 20
180.3142695287
 10
266.6011837243
 20
180.3917203856
 10
266.8564407864
 20
180.4845636807
 10
267.1038373126
 20
180.5926726014
 10
267.343035389
 20
180.7158994839
 10
267.5737082998
 20
180.854076015
 10
267.7955409735
 20
181.0070134622
 10
268.0082304135
 20
181.1745029314
 10
268.2114861115
 20
181.3563156521
 10
268.4050304447
 20
181.55220329
 10
268.5885990548
 20
181.7618982861
 10
268.7619412091
 20
181.9851142224
 10
268.9248201432
 20
182.2215462126
 10
269.077013384
 20
182.4708713192
 10
269.2183130538
 20
182.732748994
 10
269.3485261543
 20
183.0068215435
 10
269.4674748301
 20
183.2927146178
 10
269.5749966115
 20
183.5900377212
 10
269.6709446368
 20
183.8983847462
 10
269.7551878525
 20
184.2173345277
 10
269.8276111925
 20
184.5464514188
 10
269.8881157352
 20
184.8852858854
 10
269.9366188387
 20
185.2333751203
 10
269.9730542536
 20
185.5902436755
 10
269.9973722135
 20
185.9554041115
 10
270.0095395029
 20
186.3283576631
 10
270.0095395029
 20
186.7085949206
 10
269.9973722135
 20
187.0955965255
 10
269.9730542536
 20
187.4888338804
 10
269.9366188387
 20
187.8877698702
 10
269.8881157352
 20
188.2918595964
 10
269.8276111925
 20
188.700551121
 10
269.7551878525
 20
189.1132862206
 10
269.6709446368
 20
189.5295011486
 10
269.5749966115
 20
189.9486274056
 10
269.4674748301
 20
190.3700925154
 10
269.3485261543
 20
190.7933208075
 10
269.2183130538
 20
191.2177342028
 10
269.077013384
 20
191.6427530038
 10
268.9248201432
 20
192.0677966859
 10
268.7619412091
 20
192.4922846905
 10
268.5885990548
 20
192.9156372182
 10
268.4050304447
 20
193.3372760202
 10
268.2114861115
 20
193.7566251886
 10
268.0082304135
 20
194.1731119431
 10
267.7955409735
 20
194.5861674126
 10
267.5737082998
 20
194.9952274133
 10
267.343035389
 20
195.3997332182
 10
267.1038373126
 20
195.7991323211
 10
266.8564407864
 20
196.192879191
 10
266.6011837243
 20
196.5804360169
 10
266.3384147768
 20
196.9612734428
 10
266.0684928546
 20
197.3348712906
 10
265.7917866386
 20
197.7007192707
 10
265.5086740762
 20
198.0583176785
 10
265.2195418651
 20
198.4071780779
 10
264.9247849251
 20
198.7468239673
 10
264.6248058589
 20
199.0767914314
 10
264.3200144016
 20
199.3966297743
 10
264.0108268617
 20
199.7059021353
 10
263.6976655523
 20
200.0041860856
 10
263.380958214
 20
200.2910742051
 10
263.061137431
 20
200.5661746393
 10
262.7386400399
 20
200.8291116339
 10
262.4139065334
 20
201.0795260487
 10
262.0873804585
 20
201.3170758478
 10
261.7595078104
 20
201.5414365666
 10
261.4307364238
 20
201.7523017554
 10
261.1015153608
 20
201.9493833978
 10
260.7722942978
 20
202.1324123039
 10
260.4435229112
 20
202.3011384782
 10
260.1156502631
 20
202.4553314611
 10
259.7891241881
 20
202.5947806436
 10
259.4643906817
 20
202.7192955547
 10
259.1418932906
 20
202.8287061222
 10
258.8220725076
 20
202.9228629043
 10
258.5053651693
 20
203.0016372942
 10
258.1922038599
 20
203.0649216956
 10
257.88301632
 20
203.1126296695
 10
257.5782248627
 20
203.1446960527
 10
257.2782457964
 20
203.1610770463
 10
256.9834888565
 20
203.1617502758
 10
256.6943566454
 20
203.1467148217
 10
256.411244083
 20
203.1159912207
 10
256.134537867
 20
203.0696214374
 10
255.8646159448
 20
203.0076688074
 10
255.6018469973
 20
202.9302179505
 10
255.3465899352
 20
202.8373746553
 10
255.099193409
 20
202.7292657346
 10
254.8599953326
 20
202.6060388522
 10
254.6293224218
 20
202.4678623211
 10
254.407489748
 20
202.3149248739
 10
254.1948003081
 20
202.1474354047
 10
253.9915446101
 20
201.965622684
 10
253.7980002769
 20
201.7697350461
 10
253.6144316668
 20
201.56004005
 10
253.4410895125
 20
201.3368241137
 10
253.2782105784
 20
201.1003921235
 10
253.1260173376
 20
200.8510670169
 10
252.9847176678
 20
200.5891893421
 10
252.8545045673
 20
200.3151167925
 10
252.7355558915
 20
200.0292237183
 10
252.62803411
 20
199.7319006149
 10
252.5320860847
 20
199.4235535899
 10
252.4478428691
 20
199.1046038084
 10
252.3754195291
 20
198.7754869173
 10
252.3149149864
 20
198.4366524507
 10
252.2664118829
 20
198.0885632158
 10
252.229976468
 20
197.7316946606
 10
252.2056585081
 20
197.3665342246
 10
252.1934912186
 20
196.993580673
 10
252.1934912186
 20
196.6133434155
 10
252.2056585081
 20
196.2263418106
 10
252.229976468
 20
195.8331044557
 10
252.2664118829
 20
195.4341684659
 10
252.3149149864
 20
195.0300787397
 10
252.3754195291
 20
194.6213872151
 10
252.4478428691
 20
194.2086521155
 10
252.5320860847
 20
193.7924371875
 10
252.62803411
 20
193.3733109305
 10
252.7355558915
 20
192.9518458207
 10
252.8545045673
 20
192.5286175286
 10
252.9847176678
 20
192.1042041333
 10
253.1260173376
 20
191.6791853323
 10
253.2782105784
 20
191.2541416502
 10
253.4410895125
 20
190.8296536455
 10
253.6144316668
 20
190.4063011179
 10
253.7980002769
 20
189.9846623159
 10
253.9915446101
 20
189.5653131474
 10
254.1948003081
 20
189.148826393
 10
254.407489748
 20
188.7357709235
 10
254.6293224218
 20
188.3267109228
 10
254.8599953326
 20
187.9222051179
 10
255.099193409
 20
187.5228060149
 10
255.3465899352
 20
187.1290591451
 10
255.6018469973
 20
186.7415023192
 10
255.8646159448
 20
186.3606648933
 10
256.134537867
 20
185.9870670455
 10
256.411244083
 20
185.6212190654
 10
256.6943566454
 20
185.2636206576
 10
256.9834888565
 20
184.9147602582
 10
257.2782457964
 20
184.5751143688
 10
257.5782248627
 20
184.2451469047
 10
257.88301632
 20
183.9253085618
 10
258.1922038599
 20
183.6160362008
 10
258.5053651693
 20
183.3177522505
 10
258.8220725076
 20
183.030864131
 10
259.1418932906
 20
182.7557636968
 10
259.4643906817
 20
182.4928267022
 10
259.7891241881
 20
182.2424122874
 10
260.1156502631
 20
182.0048624883
 10
260.4435229112
 20
181.7805017695
 10
260.7722942978
 20
181.5696365807
 10
261.1015153608
 20
181.3725549383
  0
LWPOLYLINE
  5
189
330
1F
100
AcDbEntity
  8
0
  6
Continuous
 62
     7
370
     0
100
AcDbPolyline
 90
      130
 70
   128
 43
0.0
 10
252.1919699178
 20
196.8859810837
 10
252.1935032925
 20
197.0767233921
 10
252.2057671477
 20
197.4526368925
 10
252.2302781073
 20
197.8206954272
 10
252.2670026921
 20
198.1803962726
 10
252.3158907409
 20
198.5312481205
 10
252.3768754784
 20
198.8727717495
 10
252.4498736068
 20
199.2045006794
 10
252.5347854194
 20
199.5259818084
 10
252.631494937
 20
199.8367760319
 10
252.7398700659
 20
200.1364588425
 10
252.8597627788
 20
200.4246209094
 10
252.9910093166
 20
200.700868638
 10
253.1334304124
 20
200.964824707
 10
253.286831536
 20
201.2161285843
 10
253.45100316
 20
201.4544370189
 10
253.6257210458
 20
201.6794245102
 10
253.8107465496
 20
201.8907837523
 10
254.0058269489
 20
202.088226054
 10
254.2106957874
 20
202.2714817328
 10
254.4250732388
 20
202.4403004835
 10
254.6486664893
 20
202.59445172
 10
254.8811701375
 20
202.7337248902
 10
255.1222666113
 20
202.8579297638
 10
255.371626602
 20
202.9668966918
 10
255.6289095138
 20
203.0604768385
 10
255.8937639291
 20
203.1385423847
 10
256.1658280888
 20
203.2009867022
 10
256.4447303859
 20
203.2477244997
 10
256.7300898734
 20
203.2786919389
 10
257.0215167846
 20
203.293846722
 10
257.3186130653
 20
203.2931681493
 10
257.6209729178
 20
203.2766571478
 10
257.9281833549
 20
203.2443362696
 10
258.2398247642
 20
203.1962496609
 10
258.5554714808
 20
203.1324630024
 10
258.8746923694
 20
203.0530634189
 10
259.1970514126
 20
202.9581593607
 10
259.5221083068
 20
202.8478804554
 10
259.8494190633
 20
202.7223773307
 10
260.178536615
 20
202.5818214087
 10
260.509011427
 20
202.426404672
 10
260.8403921103
 20
202.256339401
 10
261.1722260389
 20
202.0718578846
 10
261.5040599675
 20
201.8732121022
 10
261.8354406508
 20
201.6606733801
 10
262.1659154628
 20
201.4345320207
 10
262.4950330145
 20
201.1950969058
 10
262.822343771
 20
200.9426950749
 10
263.1474006652
 20
200.6776712788
 10
263.4697597084
 20
200.4003875078
 10
263.788980597
 20
200.1112224985
 10
264.1046273136
 20
199.8105712153
 10
264.4162687229
 20
199.4988443117
 10
264.72347916
 20
199.1764675692
 10
265.0258390125
 20
198.8438813157
 10
265.3229352932
 20
198.501539824
 10
265.6143622044
 20
198.1499106914
 10
265.8997216919
 20
197.7894742009
 10
266.178623989
 20
197.4207226655
 10
266.4506881487
 20
197.0441597553
 10
266.715542564
 20
196.6602998102
 10
266.9728254758
 20
196.2696671365
 10
267.2221854665
 20
195.8727952914
 10
267.4632819403
 20
195.4702263543
 10
267.6957855885
 20
195.0625101859
 10
267.919378839
 20
194.6502036773
 10
268.1337562905
 20
194.2338699897
 10
268.3386251289
 20
193.8140777849
 10
268.5337055282
 20
193.3914004484
 10
268.718731032
 20
192.9664153067
 10
268.8934489178
 20
192.5397028384
 10
269.0576205418
 20
192.1118458813
 10
269.2110216654
 20
191.6834288367
 10
269.3534427612
 20
191.2550368706
 10
269.484689299
 20
190.8272551149
 10
269.6045820119
 20
190.4006678682
 10
269.7129571408
 20
189.9758577972
 10
269.8096666584
 20
189.5534051414
 10
269.894578471
 20
189.1338869203
 10
269.9675765994
 20
188.7178761453
 10
270.0285613369
 20
188.3059410371
 10
270.0774493857
 20
187.8986442496
 10
270.1141739705
 20
187.4965421012
 10
270.1386849301
 20
187.1001838149
 10
270.1509487854
 20
186.7101107686
 10
270.1509487854
 20
186.3268557551
 10
270.1386849301
 20
185.9509422547
 10
270.1141739705
 20
185.58288372
 10
270.0774493857
 20
185.2231828747
 10
270.0285613369
 20
184.8723310268
 10
269.9675765994
 20
184.5308073978
 10
269.894578471
 20
184.1990784679
 10
269.8096666584
 20
183.8775973389
 10
269.7129571408
 20
183.5668031153
 10
269.6045820119
 20
183.2671203048
 10
269.484689299
 20
182.9789582378
 10
269.3534427612
 20
182.7027105093
 10
269.2110216654
 20
182.4387544403
 10
269.0576205418
 20
182.187450563
 10
268.8934489178
 20
181.9491421284
 10
268.718731032
 20
181.7241546371
 10
268.5337055282
 20
181.512795395
 10
268.3386251289
 20
181.3153530933
 10
268.1337562905
 20
181.1320974145
 10
267.919378839
 20
180.9632786638
 10
267.6957855885
 20
180.8091274273
 10
267.4632819403
 20
180.6698542571
 10
267.2221854665
 20
180.5456493835
 10
266.9728254758
 20
180.4366824555
 10
266.715542564
 20
180.3431023088
 10
266.4506881487
 20
180.2650367626
 10
266.178623989
 20
180.202592445
 10
265.8997216919
 20
180.1558546476
 10
265.6143622044
 20
180.1248872084
 10
265.3229352932
 20
180.1097324253
 10
265.0258390125
 20
180.1104109979
 10
264.72347916
 20
180.1269219994
 10
264.4162687229
 20
180.1592428777
 10
264.1046273136
 20
180.2073294864
 10
263.788980597
 20
180.2711161449
 10
263.4697597084
 20
180.3505157284
 10
263.1474006652
 20
180.4454197865
 10
262.822343771
 20
180.5556986918
 10
262.4950330145
 20
180.6812018166
 10
262.1659154628
 20
180.8217577385
 10
261.8354406508
 20
180.9771744753
 10
261.5040599675
 20
181.1472397462
 10
261.1722260389
 20
181.3317212627
 10
261.1722260389
 20
181.3317212627
  0
SPLINE
  5
18A
330
1F
100
AcDbEntity
  8
0
  6
Continuous
 62
     7
370
     0
100
AcDbSpline
210
0.0
220
0.0
230
1.0
 70
     8
 71
     3
 72
    14
 73
    10
 74
     0
 42
0.000000001
 43
0.00000001
 40
0.0
 40
0.0
 40
0.0
 40
0.0
 40
0.0626203335203488
 40
0.125196523725376
 40
0.2501754384042169
 40
0.4995238900043193
 40
0.7494969757171994
 40
0.8747361469557821
 40
1.0
 40
1.0
 40
1.0
 40
1.0
 10
270.6494870324213
 20
185.0943979623862
 30
0.0
 10
270.6527728305979
 20
185.1017124422748
 30
0.0
 10
270.6593421106744
 20
185.1163362458134
 30
0.0
 10
270.6759425764975
 20
185.1459978074633
 30
0.0
 10
270.7112770859392
 20
185.1968282740124
 30
0.0
 10
270.7720617068469
 20
185.2613439007798
 30
0.0
 10
270.8354726354573
 20
185.3124472298215
 30
0.0
 10
270.886070259104
 20
185.3466357041187
 30
0.0
 10
270.9111351696423
 20
185.3614991364783
 30
0.0
 10
270.9236688597214
 20
185.3689315848975
 30
0.0
  0
SPLINE
  5
18B
330
1F
100
AcDbEntity
  8
0
  6
Continuous
 62
     7
370
     0
100
AcDbSpline
210
0.0
220
0.0
230
1.0
 70
     8
 71
     3
 72
    11
 73
     7
 74
     0
 42
0.000000001
 43
0.00000001
 40
0.0
 40
0.0
 40
0.0
 40
0.0
 40
0.4000017235834427
 40
0.6400060127062173
 40
0.8200150216781176
 40
1.0
 40
1.0
 40
1.0
 40
1.0
 10
270.6239896374179
 20
185.0020853497993
 30
0.0
 10
270.6263106285451
 20
185.013829265316
 30
0.0
 10
270.6300242332354
 20
185.0326196257076
 30
0.0
 10
270.6367445933866
 20
185.0578353476857
 30
0.0
 10
270.6424449356595
 20
185.0767022609257
 30
0.0
 10
270.6471397712987
 20
185.0884996577362
 30
0.0
 10
270.6494870324213
 20
185.0943979623862
 30
0.0
  0
ARC
  5
18C
330
1F
100
AcDbEntity
  8
0
  6
Continuous
 62
     7
370
     0
100
AcDbCircle
 10
262.1199192851
 20
186.5867014184
 30
0.0
 40
8.650446268384345
100
AcDbArc
 50
348.418940838
 51
349.4447750307
  0
LINE
  5
18D
330
1F
100
AcDbEntity
  8
0
  6
Continuous
 62
     7
370
     0
100
AcDbLine
 10
271.1245869858
 20
185.1562420592
 30
0.0
 11
270.5942568999
 21
184.8500890173
 31
0.0
  0
ARC
  5
18E
330
1F
100
AcDbEntity
  8
0
  6
Continuous
 62
     7
370
     0
100
AcDbCircle
 10
262.6446672716
 20
186.8939629354
 30
0.0
 40
8.656137256503449
100
AcDbArc
 50
348.4191706586
 51
349.4918013463
  0
SPLINE
  5
18F
330
1F
100
AcDbEntity
  8
0
  6
Continuous
 62
     7
370
     0
100
AcDbSpline
210
0.0
220
0.0
230
1.0
 70
     8
 71
     3
 72
    15
 73
    11
 74
     0
 42
0.000000001
 43
0.00000001
 40
0.0
 40
0.0
 40
0.0
 40
0.0
 40
0.1002492383821552
 40
0.2004810886521584
 40
0.4005534076458178
 40
0.5506171364805615
 40
0.7000987602887071
 40
0.8496801260079839
 40
0.924824378333488
 40
1.0
 40
1.0
 40
1.0
 40
1.0
 10
270.9236688597214
 20
185.3689315848975
 30
0.0
 10
270.9363725843559
 20
185.3760574482459
 30
0.0
 10
270.9617778301788
 20
185.3903079389701
 30
0.0
 10
271.0114876519501
 20
185.4137983629306
 30
0.0
 10
271.0650453027667
 20
185.4312601152521
 30
0.0
 10
271.1169308211238
 20
185.4338967169138
 30
0.0
 10
271.152630544685
 20
185.4169678911901
 30
0.0
 10
271.1614242511349
 20
185.3795772245577
 30
0.0
 10
271.1603873352834
 20
185.3442946311972
 30
0.0
 10
271.1572165981943
 20
185.3249591114202
 30
0.0
 10
271.1556308988089
 20
185.3152893340257
 30
0.0
  0
ARC
  5
190
330
1F
100
AcDbEntity
  8
0
  6
Continuous
 62
     7
370
     0
100
AcDbCircle
 10
260.7562572112
 20
187.100869735
 30
0.0
 40
10.49961673380452
100
AcDbArc
 50
354.9649374631
 51
356.2942121719
  0
LINE
  5
191
330
1F
100
AcDbEntity
  8
0
  6
Continuous
 62
     7
370
     0
100
AcDbLine
 10
270.7470143197
 20
185.9089982309
 30
0.0
 11
271.2153577722
 21
186.179367151
 31
0.0
  0
ARC
  5
192
330
1F
100
AcDbEntity
  8
0
  6
Continuous
 62
     7
370
     0
100
AcDbCircle
 10
260.5449942686
 20
186.8085919976
 30
0.0
 40
10.24160544395295
100
AcDbArc
 50
354.6229298728
 51
354.9608060605
  0
LINE
  5
193
330
1F
100
AcDbEntity
  8
0
  6
Continuous
 62
     7
370
     0
100
AcDbLine
 10
271.271862097
 20
186.1550054211
 30
0.0
 11
270.7415320111
 21
185.8488523792
 31
0.0
  0
ARC
  5
194
330
1F
100
AcDbEntity
  8
0
  6
Continuous
 62
     7
370
     0
100
AcDbCircle
 10
260.8700992831
 20
187.1328416958
 30
0.0
 40
10.44762333819276
100
AcDbArc
 50
354.6295908248
 51
356.2966943383
  0
LINE
  5
195
330
1F
100
AcDbEntity
  8
0
  6
Continuous
 62
     7
370
     0
100
AcDbLine
 10
271.233920237
 20
186.4222468094
 30
0.0
 11
271.2959068704
 21
186.4580309312
 31
0.0
  0
SPLINE
  5
196
330
1F
100
AcDbEntity
  8
0
  6
Continuous
 62
     7
370
     0
100
AcDbSpline
210
0.0
220
0.0
230
1.0
 70
     8
 71
     3
 72
    14
 73
    10
 74
     0
 42
0.000000001
 43
0.00000001
 40
0.0
 40
0.0
 40
0.0
 40
0.0
 40
0.0716150187543068
 40
0.1432023084678043
 40
0.2859674696543446
 40
0.4998846988940646
 40
0.7493386966046575
 40
0.8746339246370638
 40
1.0
 40
1.0
 40
1.0
 40
1.0
 10
270.9678311461972
 20
186.9349040883511
 30
0.0
 10
270.9681084400643
 20
186.9415924878641
 30
0.0
 10
270.9686629204315
 20
186.9549666971695
 30
0.0
 10
270.9740148140887
 20
186.9836137058792
 30
0.0
 10
270.9900751680586
 20
187.0280752561502
 30
0.0
 10
271.0254480836902
 20
187.0878449681293
 30
0.0
 10
271.0693115442489
 20
187.1344990174072
 30
0.0
 10
271.1084320579875
 20
187.1648110527031
 30
0.0
 10
271.1283059032215
 20
187.1769083780009
 30
0.0
 10
271.1382456344269
 20
187.1829587502539
 30
0.0
  0
SPLINE
  5
197
330
1F
100
AcDbEntity
  8
0
  6
Continuous
 62
     7
370
     0
100
AcDbSpline
210
0.0
220
0.0
230
1.0
 70
     8
 71
     3
 72
    11
 73
     7
 74
     0
 42
0.000000001
 43
0.00000001
 40
0.0
 40
0.0
 40
0.0
 40
0.0
 40
0.2500788352574244
 40
0.5000175201570425
 40
0.749935882127305
 40
1.0
 40
1.0
 40
1.0
 40
1.0
 10
270.9878518963503
 20
186.8566135486267
 30
0.0
 10
270.9848155257259
 20
186.8618123058554
 30
0.0
 10
270.9787444861341
 20
186.8722069068007
 30
0.0
 10
270.9723115932262
 20
186.8907674531496
 30
0.0
 10
270.9684619599213
 20
186.911683811333
 30
0.0
 10
270.9680414583004
 20
186.9271624918863
 30
0.0
 10
270.9678311461972
 20
186.9349040883511
 30
0.0
  0
SPLINE
  5
198
330
1F
100
AcDbEntity
  8
0
  6
Continuous
 62
     7
370
     0
100
AcDbSpline
210
0.0
220
0.0
230
1.0
 70
     8
 71
     3
 72
     8
 73
     4
 74
     0
 42
0.000000001
 43
0.00000001
 40
0.0
 40
0.0
 40
0.0
 40
0.0
 40
1.0
 40
1.0
 40
1.0
 40
1.0
 10
270.8571384541566
 20
186.8038482241627
 30
0.0
 10
270.9007169572035
 20
186.8214323137271
 30
0.0
 10
270.9442881045318
 20
186.8390207489783
 30
0.0
 10
270.9878518963503
 20
186.8566135486267
 30
0.0
  0
ARC
  5
199
330
1F
100
AcDbEntity
  8
0
  6
Continuous
 62
     7
370
     0
100
AcDbCircle
 10
258.9255401795
 20
186.9249230017
 30
0.0
 40
11.93221255638283
100
AcDbArc
 50
359.4186163905
 51
0.3454092388
  0
LINE
  5
19A
330
1F
100
AcDbEntity
  8
0
  6
Continuous
 62
     7
370
     0
100
AcDbLine
 10
270.7955492759
 20
186.9610721275
 30
0.0
 11
270.8575359094
 21
186.9968562493
 31
0.0
  0
ARC
  5
19B
330
1F
100
AcDbEntity
  8
0
  6
Continuous
 62
     7
370
     0
100
AcDbCircle
 10
258.9097117703
 20
186.8891338348
 30
0.0
 40
11.88605520464695
100
AcDbArc
 50
359.1612351141
 51
0.3467749096
  0
SPLINE
  5
19C
330
1F
100
AcDbEntity
  8
0
  6
Continuous
 62
     7
370
     0
100
AcDbSpline
210
0.0
220
0.0
230
1.0
 70
     8
 71
     3
 72
     8
 73
     4
 74
     0
 42
0.000000001
 43
0.00000001
 40
0.0
 40
0.0
 40
0.0
 40
0.0
 40
1.0
 40
1.0
 40
1.0
 40
1.0
 10
271.0654323080518
 20
186.8247490615626
 30
0.0
 10
270.9751510157041
 20
186.7881928881182
 30
0.0
 10
270.8848380368327
 20
186.7516557913517
 30
0.0
 10
270.7944933686471
 20
186.7151376044885
 30
0.0
  0
SPLINE
  5
19D
330
1F
100
AcDbEntity
  8
0
  6
Continuous
 62
     7
370
     0
100
AcDbSpline
210
0.0
220
0.0
230
1.0
 70
     8
 71
     3
 72
     8
 73
     4
 74
     0
 42
0.000000001
 43
0.00000001
 40
0.0
 40
0.0
 40
0.0
 40
0.0
 40
1.0
 40
1.0
 40
1.0
 40
1.0
 10
271.0743002149583
 20
186.8923157336495
 30
0.0
 10
271.0714005818974
 20
186.8697598591312
 30
0.0
 10
271.0684446108121
 20
186.8472375032767
 30
0.0
 10
271.0654323080518
 20
186.8247490615626
 30
0.0
  0
SPLINE
  5
19E
330
1F
100
AcDbEntity
  8
0
  6
Continuous
 62
     7
370
     0
100
AcDbSpline
210
0.0
220
0.0
230
1.0
 70
     8
 71
     3
 72
    12
 73
     8
 74
     0
 42
0.000000001
 43
0.00000001
 40
0.0
 40
0.0
 40
0.0
 40
0.0
 40
0.1252356836856736
 40
0.2503787278448183
 40
0.5000836829238033
 40
0.749902107401867
 40
1.0
 40
1.0
 40
1.0
 40
1.0
 10
271.0228377629197
 20
186.9489952864505
 30
0.0
 10
271.0229892874452
 20
186.9444416424236
 30
0.0
 10
271.0232922244105
 20
186.9353377227982
 30
0.0
 10
271.0272162605648
 20
186.9195948827116
 30
0.0
 10
271.0365660589796
 20
186.9043620373874
 30
0.0
 10
271.053209742505
 20
186.8935749847139
 30
0.0
 10
271.067267437917
 20
186.8927356404105
 30
0.0
 10
271.0743002149583
 20
186.8923157336495
 30
0.0
  0
SPLINE
  5
19F
330
1F
100
AcDbEntity
  8
0
  6
Continuous
 62
     7
370
     0
100
AcDbSpline
210
0.0
220
0.0
230
1.0
 70
     8
 71
     3
 72
    12
 73
     8
 74
     0
 42
0.000000001
 43
0.00000001
 40
0.0
 40
0.0
 40
0.0
 40
0.0
 40
0.2506944843951301
 40
0.500504365040652
 40
0.7494938121473119
 40
0.8746991253656958
 40
1.0
 40
1.0
 40
1.0
 40
1.0
 10
271.1415991169254
 20
187.1208765940008
 30
0.0
 10
271.1276842247882
 20
187.1121317891579
 30
0.0
 10
271.0999035407796
 20
187.0946730365016
 30
0.0
 10
271.0603000235444
 20
187.0539767026305
 30
0.0
 10
271.0351372831112
 20
187.0099476294539
 30
0.0
 10
271.0242879116437
 20
186.9737922563174
 30
0.0
 10
271.0233212687439
 20
186.9572630448903
 30
0.0
 10
271.0228377629197
 20
186.9489952864505
 30
0.0
  0
SPLINE
  5
1A0
330
1F
100
AcDbEntity
  8
0
  6
Continuous
 62
     7
370
     0
100
AcDbSpline
210
0.0
220
0.0
230
1.0
 70
     8
 71
     3
 72
    15
 73
    11
 74
     0
 42
0.000000001
 43
0.00000001
 40
0.0
 40
0.0
 40
0.0
 40
0.0
 40
0.0671957795598088
 40
0.1251134564478033
 40
0.2499060872971385
 40
0.374904505855961
 40
0.500002697277429
 40
0.7495414104980537
 40
0.8632876180135203
 40
1.0
 40
1.0
 40
1.0
 40
1.0
 10
271.2707745695705
 20
187.0905219098802
 30
0.0
 10
271.2705748982034
 20
187.0949146861624
 30
0.0
 10
271.2702031252281
 20
187.1030937031731
 30
0.0
 10
271.2671636952279
 20
187.1178254387662
 30
0.0
 10
271.2590014722145
 20
187.1319732287012
 30
0.0
 10
271.2441966753582
 20
187.1423152839737
 30
0.0
 10
271.2208357202214
 20
187.1494750839737
 30
0.0
 10
271.1932339588403
 20
187.1449050661891
 30
0.0
 10
271.1642683452799
 20
187.1331327270184
 30
0.0
 10
271.1496037568244
 20
187.1252043077557
 30
0.0
 10
271.1415991169254
 20
187.1208765940008
 30
0.0
  0
SPLINE
  5
1A1
330
1F
100
AcDbEntity
  8
0
  6
Continuous
 62
     7
370
     0
100
AcDbSpline
210
0.0
220
0.0
230
1.0
 70
     8
 71
     3
 72
    13
 73
     9
 74
     0
 42
0.000000001
 43
0.00000001
 40
0.0
 40
0.0
 40
0.0
 40
0.0
 40
0.2503702502097807
 40
0.5001052875547836
 40
0.6145260243890044
 40
0.7857161668471957
 40
0.8714922286697324
 40
0.9999999999999999
 40
0.9999999999999999
 40
0.9999999999999999
 40
0.9999999999999999
 10
271.1665264608673
 20
186.9377291766235
 30
0.0
 10
271.1784343683676
 20
186.9466990872942
 30
0.0
 10
271.2022199718874
 20
186.9646161511288
 30
0.0
 10
271.2301357874431
 20
186.9939344384446
 30
0.0
 10
271.2505224937788
 20
187.023996745206
 30
0.0
 10
271.2619531947844
 20
187.0468060396368
 30
0.0
 10
271.2693651322058
 20
187.0707782242817
 30
0.0
 10
271.2702461912433
 20
187.0831202786824
 30
0.0
 10
271.2707745695705
 20
187.0905219098802
 30
0.0
  0
SPLINE
  5
1A2
330
1F
100
AcDbEntity
  8
0
  6
Continuous
 62
     7
370
     0
100
AcDbSpline
210
0.0
220
0.0
230
1.0
 70
     8
 71
     3
 72
     8
 73
     4
 74
     0
 42
0.000000001
 43
0.00000001
 40
0.0
 40
0.0
 40
0.0
 40
0.0
 40
1.0
 40
1.0
 40
1.0
 40
1.0
 10
271.172359651698
 20
186.8786989643397
 30
0.0
 10
271.1704715876915
 20
186.8983418700547
 30
0.0
 10
271.1685271929528
 20
186.9180187392552
 30
0.0
 10
271.1665264608673
 20
186.9377291766235
 30
0.0
  0
SPLINE
  5
1A3
330
1F
100
AcDbEntity
  8
0
  6
Continuous
 62
     7
370
     0
100
AcDbSpline
210
0.0
220
0.0
230
1.0
 70
     8
 71
     3
 72
    13
 73
     9
 74
     0
 42
0.000000001
 43
0.00000001
 40
0.0
 40
0.0
 40
0.0
 40
0.0
 40
0.1252979724012267
 40
0.2505479492188901
 40
0.4996504656309576
 40
0.7491367961713495
 40
0.8745560122733939
 40
1.0
 40
1.0
 40
1.0
 40
1.0
 10
271.3258775662236
 20
187.1229491813858
 30
0.0
 10
271.3253007185319
 20
187.1117876108372
 30
0.0
 10
271.3241472441111
 20
187.0894687451971
 30
0.0
 10
271.3113809926427
 20
187.0410341826161
 30
0.0
 10
271.2803794503381
 20
186.9801324538817
 30
0.0
 10
271.2374143281752
 20
186.9300692055324
 30
0.0
 10
271.2006219746116
 20
186.8982988799123
 30
0.0
 10
271.1817810461552
 20
186.8852326996063
 30
0.0
 10
271.172359651698
 20
186.8786989643397
 30
0.0
  0
SPLINE
  5
1A4
330
1F
100
AcDbEntity
  8
0
  6
Continuous
 62
     7
370
     0
100
AcDbSpline
210
0.0
220
0.0
230
1.0
 70
     8
 71
     3
 72
    14
 73
    10
 74
     0
 42
0.000000001
 43
0.00000001
 40
0.0
 40
0.0
 40
0.0
 40
0.0
 40
0.1254503143219151
 40
0.2508643752892118
 40
0.5007647188434724
 40
0.7494477027970847
 40
0.8745486466616451
 40
0.9372588824514366
 40
1.0
 40
1.0
 40
1.0
 40
1.0
 10
271.1382456344269
 20
187.1829587502539
 30
0.0
 10
271.149296011475
 20
187.1889344708567
 30
0.0
 10
271.1713935721693
 20
187.2008841851642
 30
0.0
 10
271.2148966813068
 20
187.216097882883
 30
0.0
 10
271.2661300375795
 20
187.2201082868086
 30
0.0
 10
271.3078008994499
 20
187.198517821751
 30
0.0
 10
271.3217349186278
 20
187.1646025894545
 30
0.0
 10
271.3254940545751
 20
187.1417403669547
 30
0.0
 10
271.3257497080298
 20
187.1292139377658
 30
0.0
 10
271.3258775662236
 20
187.1229491813858
 30
0.0
  0
SPLINE
  5
1A5
330
1F
100
AcDbEntity
  8
0
  6
Continuous
 62
     7
370
     0
100
AcDbSpline
210
0.0
220
0.0
230
1.0
 70
     8
 71
     3
 72
    12
 73
     8
 74
     0
 42
0.000000001
 43
0.00000001
 40
0.0
 40
0.0
 40
0.0
 40
0.0
 40
0.124992937532014
 40
0.249988352820378
 40
0.499883447594993
 40
0.7499169450320808
 40
1.0
 40
1.0
 40
1.0
 40
1.0
 10
270.8095254265126
 20
187.7541681127724
 30
0.0
 10
270.8172379526521
 20
187.7643762133391
 30
0.0
 10
270.8326631578179
 20
187.7847926168295
 30
0.0
 10
270.8667379125438
 20
187.8202530634537
 30
0.0
 10
270.9114812446905
 20
187.8583681553331
 30
0.0
 10
270.9665296766565
 20
187.8977158873853
 30
0.0
 10
271.0037017883291
 20
187.9198206785587
 30
0.0
 10
271.0222896858941
 20
187.930874169349
 30
0.0
  0
SPLINE
  5
1A6
330
1F
100
AcDbEntity
  8
0
  6
Continuous
 62
     7
370
     0
100
AcDbSpline
210
0.0
220
0.0
230
1.0
 70
     8
 71
     3
 72
    12
 73
     8
 74
     0
 42
0.000000001
 43
0.00000001
 40
0.0
 40
0.0
 40
0.0
 40
0.0
 40
0.1252396549768587
 40
0.2504179599818341
 40
0.5000538618607597
 40
0.7498676072259411
 40
1.0
 40
1.0
 40
1.0
 40
1.0
 10
270.760796395328
 20
187.6052854029363
 30
0.0
 10
270.7606005262687
 20
187.611228092964
 30
0.0
 10
270.7602088840986
 20
187.6231105619297
 30
0.0
 10
270.7625140390892
 20
187.6482937292809
 30
0.0
 10
270.7699945926755
 20
187.6811144125084
 30
0.0
 10
270.7868683119046
 20
187.7197855132666
 30
0.0
 10
270.8019698465877
 20
187.7427023774797
 30
0.0
 10
270.8095254265126
 20
187.7541681127724
 30
0.0
  0
SPLINE
  5
1A7
330
1F
100
AcDbEntity
  8
0
  6
Continuous
 62
     7
370
     0
100
AcDbSpline
210
0.0
220
0.0
230
1.0
 70
     8
 71
     3
 72
    15
 73
    11
 74
     0
 42
0.000000001
 43
0.00000001
 40
0.0
 40
0.0
 40
0.0
 40
0.0
 40
0.1252511664806186
 40
0.250493711606959
 40
0.5005606681270495
 40
0.6348746860440105
 40
0.7504894127989676
 40
0.8748893802182292
 40
0.9374179621242281
 40
1.0
 40
1.0
 40
1.0
 40
1.0
 10
271.0416681811546
 20
187.5943832983404
 30
0.0
 10
271.0274145182321
 20
187.5863440579259
 30
0.0
 10
270.9989081735029
 20
187.5702661304581
 30
0.0
 10
270.9419495742333
 20
187.5429292285221
 30
0.0
 10
270.8838555047201
 20
187.5217077843369
 30
0.0
 10
270.8299325393089
 20
187.5176811834085
 30
0.0
 10
270.7936103260133
 20
187.5277058306418
 30
0.0
 10
270.7725334858785
 20
187.5519148256354
 30
0.0
 10
270.7631541549954
 20
187.580340756094
 30
0.0
 10
270.7615825390517
 20
187.5969681525282
 30
0.0
 10
270.760796395328
 20
187.6052854029363
 30
0.0
  0
SPLINE
  5
1A8
330
1F
100
AcDbEntity
  8
0
  6
Continuous
 62
     7
370
     0
100
AcDbSpline
210
0.0
220
0.0
230
1.0
 70
     8
 71
     3
 72
    16
 73
    12
 74
     0
 42
0.000000001
 43
0.00000001
 40
0.0
 40
0.0
 40
0.0
 40
0.0
 40
0.062547979028406
 40
0.1250348464929097
 40
0.2495127039548125
 40
0.3209827069246105
 40
0.3924643609723396
 40
0.4996337873185574
 40
0.749601422808045
 40
0.8747936019449145
 40
1.0
 40
1.0
 40
1.0
 40
1.0
 10
271.3049456010529
 20
187.9186210251315
 30
0.0
 10
271.3051041580903
 20
187.9099609864774
 30
0.0
 10
271.3054211172495
 20
187.8926493703301
 30
0.0
 10
271.2988262490876
 20
187.8553301017446
 30
0.0
 10
271.2837157399073
 20
187.8159752753732
 30
0.0
 10
271.2618346980098
 20
187.7791005891086
 30
0.0
 10
271.2390066719782
 20
187.7467401589485
 30
0.0
 10
271.1947030517122
 20
187.6986640161508
 30
0.0
 10
271.1406327455469
 20
187.6569876135313
 30
0.0
 10
271.0842640232736
 20
187.6195294723478
 30
0.0
 10
271.0558673326976
 20
187.6027656736544
 30
0.0
 10
271.0416681811546
 20
187.5943832983404
 30
0.0
  0
SPLINE
  5
1A9
330
1F
100
AcDbEntity
  8
0
  6
Continuous
 62
     7
370
     0
100
AcDbSpline
210
0.0
220
0.0
230
1.0
 70
     8
 71
     3
 72
    14
 73
    10
 74
     0
 42
0.000000001
 43
0.00000001
 40
0.0
 40
0.0
 40
0.0
 40
0.0
 40
0.1254827438759681
 40
0.2509572551369186
 40
0.5014869882464025
 40
0.7500309116048791
 40
0.8746627465287558
 40
0.9373002352230878
 40
1.0
 40
1.0
 40
1.0
 40
1.0
 10
271.0222896858941
 20
187.930874169349
 30
0.0
 10
271.0365274002245
 20
187.9388960331066
 30
0.0
 10
271.0650018947838
 20
187.954939234327
 30
0.0
 10
271.1221329149561
 20
187.9821462555755
 30
0.0
 10
271.1927415583513
 20
188.007557431311
 30
0.0
 10
271.2620368768544
 20
188.0069933078643
 30
0.0
 10
271.293001731648
 20
187.9720494086164
 30
0.0
 10
271.3025940693001
 20
187.9435720286709
 30
0.0
 10
271.3041614975336
 20
187.9269407808234
 30
0.0
 10
271.3049456010529
 20
187.9186210251315
 30
0.0
  0
SPLINE
  5
1AA
330
1F
100
AcDbEntity
  8
0
  6
Continuous
 62
     7
370
     0
100
AcDbSpline
210
0.0
220
0.0
230
1.0
 70
     8
 71
     3
 72
    11
 73
     7
 74
     0
 42
0.000000001
 43
0.00000001
 40
0.0
 40
0.0
 40
0.0
 40
0.0
 40
0.4999666558526491
 40
0.7499522648531692
 40
0.8655687366695679
 40
0.9999999999999999
 40
0.9999999999999999
 40
0.9999999999999999
 40
0.9999999999999999
 10
271.2095361491927
 20
188.916200929392
 30
0.0
 10
271.2354475463954
 20
188.8993230657452
 30
0.0
 10
271.2743147604189
 20
188.8740061932706
 30
0.0
 10
271.3243525219455
 20
188.8572740905768
 30
0.0
 10
271.3547172102473
 20
188.8523530352437
 30
0.0
 10
271.3703416386842
 20
188.851626584112
 30
0.0
 10
271.3787416813895
 20
188.8512360277116
 30
0.0
  0
LINE
  5
1AB
330
1F
100
AcDbEntity
  8
0
  6
Continuous
 62
     7
370
     0
100
AcDbLine
 10
271.1815560716
 20
188.9000483744
 30
0.0
 11
271.2095361492
 21
188.9162009294
 31
0.0
  0
SPLINE
  5
1AC
330
1F
100
AcDbEntity
  8
0
  6
Continuous
 62
     7
370
     0
100
AcDbSpline
210
0.0
220
0.0
230
1.0
 70
     8
 71
     3
 72
    10
 73
     6
 74
     0
 42
0.000000001
 43
0.00000001
 40
0.0
 40
0.0
 40
0.0
 40
0.0
 40
0.2428811558034017
 40
0.4999804408039869
 40
1.0
 40
1.0
 40
1.0
 40
1.0
 10
271.2703454221176
 20
188.8033398175391
 30
0.0
 10
271.2620272095732
 20
188.8092549242095
 30
0.0
 10
271.2449038408998
 20
188.8214314046395
 30
0.0
 10
271.2144572551305
 20
188.8527109226558
 30
0.0
 10
271.1946423278535
 20
188.8812201756307
 30
0.0
 10
271.1815560716092
 20
188.9000483744199
 30
0.0
  0
LINE
  5
1AD
330
1F
100
AcDbEntity
  8
0
  6
Continuous
 62
     7
370
     0
100
AcDbLine
 10
270.7349573991
 20
188.4942668907
 30
0.0
 11
271.2703454221
 21
188.8033398175
 31
0.0
  0
ARC
  5
1AE
330
1F
100
AcDbEntity
  8
0
  6
Continuous
 62
     7
370
     0
100
AcDbCircle
 10
256.19263366
 20
186.7489308862
 30
0.0
 40
14.64668486385585
100
AcDbArc
 50
6.666491673
 51
6.8437722043
  0
LINE
  5
1AF
330
1F
100
AcDbEntity
  8
0
  6
Continuous
 62
     7
370
     0
100
AcDbLine
 10
271.2756760968
 20
188.7583357095
 30
0.0
 11
270.7402880738
 21
188.4492627827
 31
0.0
  0
SPLINE
  5
1B0
330
1F
100
AcDbEntity
  8
0
  6
Continuous
 62
     7
370
     0
100
AcDbSpline
210
0.0
220
0.0
230
1.0
 70
     8
 71
     3
 72
    11
 73
     7
 74
     0
 42
0.000000001
 43
0.00000001
 40
0.0
 40
0.0
 40
0.0
 40
0.0
 40
0.2843783846391184
 40
0.5000223467489632
 40
0.6940663936897697
 40
1.0
 40
1.0
 40
1.0
 40
1.0
 10
271.2201404768352
 20
188.5801243618673
 30
0.0
 10
271.2242871780961
 20
188.5971631889664
 30
0.0
 10
271.2315783204885
 20
188.627122548651
 30
0.0
 10
271.2427399157348
 20
188.6687618609856
 30
0.0
 10
271.2576305765635
 20
188.7111044328125
 30
0.0
 10
271.2688258003021
 20
188.7404061488767
 30
0.0
 10
271.2756760968094
 20
188.7583357095447
 30
0.0
  0
LINE
  5
1B1
330
1F
100
AcDbEntity
  8
0
  6
Continuous
 62
     7
370
     0
100
AcDbLine
 10
271.2477977074
 20
188.5960905412
 30
0.0
 11
271.2201404768
 21
188.5801243619
 31
0.0
  0
SPLINE
  5
1B2
330
1F
100
AcDbEntity
  8
0
  6
Continuous
 62
     7
370
     0
100
AcDbSpline
210
0.0
220
0.0
230
1.0
 70
     8
 71
     3
 72
    11
 73
     7
 74
     0
 42
0.000000001
 43
0.00000001
 40
0.0
 40
0.0
 40
0.0
 40
0.0
 40
0.1428746598486543
 40
0.2857531594868727
 40
0.500033204824423
 40
1.0
 40
1.0
 40
1.0
 40
1.0
 10
271.3811780600942
 20
188.8306485603468
 30
0.0
 10
271.3734068462768
 20
188.8209417227861
 30
0.0
 10
271.3578642097888
 20
188.8015277867912
 30
0.0
 10
271.3332030530399
 20
188.7642163442801
 30
0.0
 10
271.2939614442031
 20
188.6973268570347
 30
0.0
 10
271.2668061708555
 20
188.6377757890833
 30
0.0
 10
271.2477977073697
 20
188.5960905412052
 30
0.0
  0
ARC
  5
1B3
330
1F
100
AcDbEntity
  8
0
  6
Continuous
 62
     7
370
     0
100
AcDbCircle
 10
256.8372870501
 20
187.1199215516
 30
0.0
 40
14.64415762712211
100
AcDbArc
 50
6.7085972874
 51
6.7897085665
  0
LWPOLYLINE
  5
1B4
330
1F
100
AcDbEntity
  8
0
  6
Continuous
 62
     7
370
     0
100
AcDbPolyline
 90
       87
 70
   128
 43
0.0
 10
269.1480555879
 20
181.64183835
 10
269.3221311852
 20
181.7479967559
 10
269.5457244358
 20
181.9021479924
 10
269.7601018872
 20
182.0709667431
 10
269.9649707256
 20
182.2542224219
 10
270.1600511249
 20
182.4516647236
 10
270.3450766288
 20
182.6630239657
 10
270.5197945145
 20
182.888011457
 10
270.6839661385
 20
183.1263198916
 10
270.8373672622
 20
183.3776237688
 10
270.979788358
 20
183.6415798379
 10
271.1110348958
 20
183.9178275664
 10
271.2309276087
 20
184.2059896334
 10
271.3393027376
 20
184.5056724439
 10
271.4360122551
 20
184.8164666675
 10
271.5209240678
 20
185.1379477965
 10
271.5939221962
 20
185.4696767264
 10
271.6549069337
 20
185.8112003554
 10
271.7037949824
 20
186.1620522033
 10
271.7405195673
 20
186.5217530486
 10
271.7650305268
 20
186.8898115833
 10
271.7772943821
 20
187.2657250837
 10
271.7772943821
 20
187.6489800972
 10
271.7650305268
 20
188.0390531435
 10
271.7405195673
 20
188.4354114298
 10
271.7037949824
 20
188.8375135782
 10
271.6549069337
 20
189.2448103657
 10
271.5939221962
 20
189.6567454739
 10
271.5209240678
 20
190.0727562488
 10
271.4360122551
 20
190.49227447
 10
271.3393027376
 20
190.9147271258
 10
271.2309276087
 20
191.3395371968
 10
271.1110348958
 20
191.7661244435
 10
270.979788358
 20
192.1939061992
 10
270.8373672622
 20
192.6222981653
 10
270.6839661385
 20
193.0507152099
 10
270.5197945145
 20
193.478572167
 10
270.3450766288
 20
193.9052846353
 10
270.1600511249
 20
194.330269777
 10
269.9649707256
 20
194.7529471135
 10
269.7601018872
 20
195.1727393183
 10
269.5457244358
 20
195.5890730059
 10
269.3221311852
 20
196.0013795145
 10
269.0896275371
 20
196.4090956829
 10
268.8485310632
 20
196.81166462
 10
268.5991710725
 20
197.2085364651
 10
268.3418881608
 20
197.5991691388
 10
268.0770337454
 20
197.9830290839
 10
267.8049695857
 20
198.3595919941
 10
267.5260672886
 20
198.7283435295
 10
267.2407078011
 20
199.0887800199
 10
266.94928089
 20
199.4404091526
 10
266.6521846092
 20
199.7827506443
 10
266.3498247567
 20
200.1153368978
 10
266.0426143196
 20
200.4377136403
 10
265.7309729104
 20
200.7494405438
 10
265.4153261938
 20
201.0500918271
 10
265.0961053052
 20
201.3392568364
 10
264.7737462619
 20
201.6165406074
 10
264.4486893677
 20
201.8815644035
 10
264.1213786112
 20
202.1339662344
 10
263.7922610595
 20
202.3734013493
 10
263.4617862475
 20
202.5995427087
 10
263.1304055642
 20
202.8120814308
 10
262.7985716356
 20
203.0107272132
 10
262.4667377071
 20
203.1952087296
 10
262.1353570237
 20
203.3652740006
 10
261.8048822118
 20
203.5206907373
 10
261.47576466
 20
203.6612466593
 10
261.1484539035
 20
203.786749784
 10
260.8233970093
 20
203.8970286893
 10
260.5010379661
 20
203.9919327475
 10
260.1818170775
 20
204.071332331
 10
259.8661703609
 20
204.1351189895
 10
259.5545289517
 20
204.1832055982
 10
259.2473185145
 20
204.2155264764
 10
258.944958662
 20
204.2320374779
 10
258.6478623813
 20
204.2327160505
 10
258.3564354701
 20
204.2175612675
 10
258.0710759826
 20
204.1865938283
 10
257.7921736855
 20
204.1398560308
 10
257.5201095259
 20
204.0774117133
 10
257.2552551105
 20
203.9993461671
 10
256.9979721987
 20
203.9057660204
 10
256.748612208
 20
203.7967990924
 10
256.5075157342
 20
203.6725942188
 10
256.4490876834
 20
203.6394794545
  0
ARC
  5
1B5
330
1F
100
AcDbEntity
  8
0
  6
Continuous
 62
     7
370
     0
100
AcDbCircle
 10
257.2503146173
 20
187.0607888535
 30
0.0
 40
14.00979560279015
100
AcDbArc
 50
4.6864814892
 51
5.7832309739
  0
LINE
  5
1B6
330
1F
100
AcDbEntity
  8
0
  6
Continuous
 62
     7
370
     0
100
AcDbLine
 10
270.7449277039
 20
187.935067268
 30
0.0
 11
271.2132711564
 21
188.2054361881
 31
0.0
  0
ARC
  5
1B7
330
1F
100
AcDbEntity
  8
0
  6
Continuous
 62
     7
370
     0
100
AcDbCircle
 10
257.0637542234
 20
186.8141889585
 30
0.0
 40
13.72701263889669
100
AcDbArc
 50
4.4057570368
 51
4.6836977356
  0
LINE
  5
1B8
330
1F
100
AcDbEntity
  8
0
  6
Continuous
 62
     7
370
     0
100
AcDbLine
 10
271.2805341547
 20
188.1748402787
 30
0.0
 11
270.7502040688
 21
187.8686872367
 31
0.0
  0
ARC
  5
1B9
330
1F
100
AcDbEntity
  8
0
  6
Continuous
 62
     7
370
     0
100
AcDbCircle
 10
257.3688556083
 20
187.1018908237
 30
0.0
 40
13.9529932455643
100
AcDbArc
 50
4.4102525098
 51
5.784906052
  0
LINE
  5
1BA
330
1F
100
AcDbEntity
  8
0
  6
Continuous
 62
     7
370
     0
100
AcDbLine
 10
271.1888037627
 20
188.4724875386
 30
0.0
 11
271.2507903961
 21
188.5082716603
 31
0.0
  0
SPLINE
  5
1BB
330
1F
100
AcDbEntity
  8
0
  6
Continuous
 62
     7
370
     0
100
AcDbSpline
210
0.0
220
0.0
230
1.0
 70
     8
 71
     3
 72
    14
 73
    10
 74
     0
 42
0.000000001
 43
0.00000001
 40
0.0
 40
0.0
 40
0.0
 40
0.0
 40
0.0716150187543069
 40
0.1432023084677995
 40
0.2859674696543457
 40
0.4998846988940563
 40
0.7493386966046547
 40
0.8746339246370637
 40
1.0
 40
1.0
 40
1.0
 40
1.0
 10
270.9632320258387
 20
187.3272126402413
 30
0.0
 10
270.9632959108282
 20
187.3340207428392
 30
0.0
 10
270.9634236560711
 20
187.3476343119659
 30
0.0
 10
270.9679421280986
 20
187.3767464888393
 30
0.0
 10
270.9828580651386
 20
187.4218432521529
 30
0.0
 10
271.0169567826316
 20
187.4823139930589
 30
0.0
 10
271.0601319728731
 20
187.5293438584566
 30
0.0
 10
271.09900331361
 20
187.5597917507992
 30
0.0
 10
271.1188570360403
 20
187.5719000374188
 30
0.0
 10
271.1287867030001
 20
187.5779558918818
 30
0.0
  0
SPLINE
  5
1BC
330
1F
100
AcDbEntity
  8
0
  6
Continuous
 62
     7
370
     0
100
AcDbSpline
210
0.0
220
0.0
230
1.0
 70
     8
 71
     3
 72
    11
 73
     7
 74
     0
 42
0.000000001
 43
0.00000001
 40
0.0
 40
0.0
 40
0.0
 40
0.0
 40
0.2500788352574252
 40
0.500017520157041
 40
0.7499358821273028
 40
1.0
 40
1.0
 40
1.0
 40
1.0
 10
270.9862047721137
 20
187.247249499066
 30
0.0
 10
270.9829391050657
 20
187.2525791848942
 30
0.0
 10
270.9764096011301
 20
187.2632355696631
 30
0.0
 10
270.9692440158045
 20
187.2822122329077
 30
0.0
 10
270.9646347652733
 20
187.3035583020059
 30
0.0
 10
270.9636996965147
 20
187.3193263285871
 30
0.0
 10
270.9632320258387
 20
187.3272126402413
 30
0.0
  0
SPLINE
  5
1BD
330
1F
100
AcDbEntity
  8
0
  6
Continuous
 62
     7
370
     0
100
AcDbSpline
210
0.0
220
0.0
230
1.0
 70
     8
 71
     3
 72
     8
 73
     4
 74
     0
 42
0.000000001
 43
0.00000001
 40
0.0
 40
0.0
 40
0.0
 40
0.0
 40
1.0
 40
1.0
 40
1.0
 40
1.0
 10
270.8547432004602
 20
187.1949108861634
 30
0.0
 10
270.8985710782359
 20
187.212353058765
 30
0.0
 10
270.9423916022551
 20
187.2297992567126
 30
0.0
 10
270.9862047721137
 20
187.247249499066
 30
0.0
  0
ARC
  5
1BE
330
1F
100
AcDbEntity
  8
0
  6
Continuous
 62
     7
370
     0
100
AcDbCircle
 10
258.2457495743
 20
186.9153417491
 30
0.0
 40
12.61209257687982
100
AcDbArc
 50
1.2701654081
 51
2.1633441352
  0
LINE
  5
1BF
330
1F
100
AcDbEntity
  8
0
  6
Continuous
 62
     7
370
     0
100
AcDbLine
 10
270.7868665149
 20
187.3556452961
 30
0.0
 11
270.8488531484
 21
187.3914294179
 31
0.0
  0
ARC
  5
1C0
330
1F
100
AcDbEntity
  8
0
  6
Continuous
 62
     7
370
     0
100
AcDbCircle
 10
258.2306629655
 20
186.8810515396
 30
0.0
 40
12.56516958931735
100
AcDbArc
 50
1.0221820023
 51
2.164609771
  0
SPLINE
  5
1C1
330
1F
100
AcDbEntity
  8
0
  6
Continuous
 62
     7
370
     0
100
AcDbSpline
210
0.0
220
0.0
230
1.0
 70
     8
 71
     3
 72
     8
 73
     4
 74
     0
 42
0.000000001
 43
0.00000001
 40
0.0
 40
0.0
 40
0.0
 40
0.0
 40
1.0
 40
1.0
 40
1.0
 40
1.0
 10
271.0663248185273
 20
187.2139221910496
 30
0.0
 10
270.9755258938922
 20
187.1776664212592
 30
0.0
 10
270.8846952795834
 20
187.1414283546472
 30
0.0
 10
270.7938329782911
 20
187.1052078212729
 30
0.0
  0
SPLINE
  5
1C2
330
1F
100
AcDbEntity
  8
0
  6
Continuous
 62
     7
370
     0
100
AcDbSpline
210
0.0
220
0.0
230
1.0
 70
     8
 71
     3
 72
     8
 73
     4
 74
     0
 42
0.000000001
 43
0.00000001
 40
0.0
 40
0.0
 40
0.0
 40
0.0
 40
1.0
 40
1.0
 40
1.0
 40
1.0
 10
271.0731221924754
 20
187.2826831449186
 30
0.0
 10
271.0709127340065
 20
187.2597316232486
 30
0.0
 10
271.0686469449043
 20
187.2368111709691
 30
0.0
 10
271.0663248185273
 20
187.2139221910496
 30
0.0
  0
SPLINE
  5
1C3
330
1F
100
AcDbEntity
  8
0
  6
Continuous
 62
     7
370
     0
100
AcDbSpline
210
0.0
220
0.0
230
1.0
 70
     8
 71
     3
 72
    12
 73
     8
 74
     0
 42
0.000000001
 43
0.00000001
 40
0.0
 40
0.0
 40
0.0
 40
0.0
 40
0.1252356836856652
 40
0.2503787278448303
 40
0.5000836829238063
 40
0.7499021074018759
 40
1.0
 40
1.0
 40
1.0
 40
1.0
 10
271.0188168896672
 20
187.3409785522881
 30
0.0
 10
271.0191205453723
 20
187.3363391086417
 30
0.0
 10
271.0197276321621
 20
187.3270636532451
 30
0.0
 10
271.0242429909326
 20
187.3109861526201
 30
0.0
 10
271.0342715391591
 20
187.2953676810079
 30
0.0
 10
271.0515878217398
 20
187.284196719111
 30
0.0
 10
271.0659413942053
 20
187.283187857644
 30
0.0
 10
271.0731221924754
 20
187.2826831449186
 30
0.0
  0
SPLINE
  5
1C4
330
1F
100
AcDbEntity
  8
0
  6
Continuous
 62
     7
370
     0
100
AcDbSpline
210
0.0
220
0.0
230
1.0
 70
     8
 71
     3
 72
    12
 73
     8
 74
     0
 42
0.000000001
 43
0.00000001
 40
0.0
 40
0.0
 40
0.0
 40
0.0
 40
0.2506944843951239
 40
0.5005043650406437
 40
0.7494938121473085
 40
0.8746991253656994
 40
1.0
 40
1.0
 40
1.0
 40
1.0
 10
271.1342100734231
 20
187.5147385002557
 30
0.0
 10
271.1203182677535
 20
187.5059809554968
 30
0.0
 10
271.0925836752167
 20
187.4884967679631
 30
0.0
 10
271.0535588334457
 20
187.4474807066044
 30
0.0
 10
271.029356089455
 20
187.4029181801114
 30
0.0
 10
271.0194825313191
 20
187.3662169906666
 30
0.0
 10
271.0190388266383
 20
187.3493935043178
 30
0.0
 10
271.0188168896672
 20
187.3409785522881
 30
0.0
  0
SPLINE
  5
1C5
330
1F
100
AcDbEntity
  8
0
  6
Continuous
 62
     7
370
     0
100
AcDbSpline
210
0.0
220
0.0
230
1.0
 70
     8
 71
     3
 72
    15
 73
    11
 74
     0
 42
0.000000001
 43
0.00000001
 40
0.0
 40
0.0
 40
0.0
 40
0.0
 40
0.0671957795589742
 40
0.1251134564478004
 40
0.2499060872971453
 40
0.3749045058559849
 40
0.50000269727747
 40
0.7495414104981329
 40
0.8632876180201523
 40
1.0
 40
1.0
 40
1.0
 40
1.0
 10
271.2668062648478
 20
187.4824755471648
 30
0.0
 10
271.2664589180736
 20
187.486951504531
 30
0.0
 10
271.2658121846658
 20
187.4952853984255
 30
0.0
 10
271.2622335537862
 20
187.5103198779165
 30
0.0
 10
271.2534555849607
 20
187.5248121724995
 30
0.0
 10
271.2380353974245
 20
187.535497064504
 30
0.0
 10
271.2140029473499
 20
187.543029663654
 30
0.0
 10
271.1860324094569
 20
187.538663432979
 30
0.0
 10
271.1569062357709
 20
187.5269797694445
 30
0.0
 10
271.1422242238758
 20
187.5190609655037
 30
0.0
 10
271.1342100734231
 20
187.5147385002557
 30
0.0
  0
SPLINE
  5
1C6
330
1F
100
AcDbEntity
  8
0
  6
Continuous
 62
     7
370
     0
100
AcDbSpline
210
0.0
220
0.0
230
1.0
 70
     8
 71
     3
 72
    13
 73
     9
 74
     0
 42
0.000000001
 43
0.00000001
 40
0.0
 40
0.0
 40
0.0
 40
0.0
 40
0.2503702502097852
 40
0.5001052875547942
 40
0.6145260243890094
 40
0.7857161668471911
 40
0.8714922286697271
 40
1.0
 40
1.0
 40
1.0
 40
1.0
 10
271.1656072541775
 20
187.3279481054159
 30
0.0
 10
271.1774458485558
 20
187.3369578063321
 30
0.0
 10
271.2010930016855
 20
187.354954349706
 30
0.0
 10
271.2285725590872
 20
187.3845226000099
 30
0.0
 10
271.2483559322848
 20
187.4149293384408
 30
0.0
 10
271.2592528740235
 20
187.4380423613817
 30
0.0
 10
271.2660175650701
 20
187.4623815163297
 30
0.0
 10
271.2665105923478
 20
187.4749425764447
 30
0.0
 10
271.2668062648478
 20
187.4824755471648
 30
0.0
  0
SPLINE
  5
1C7
330
1F
100
AcDbEntity
  8
0
  6
Continuous
 62
     7
370
     0
100
AcDbSpline
210
0.0
220
0.0
230
1.0
 70
     8
 71
     3
 72
     8
 73
     4
 74
     0
 42
0.000000001
 43
0.00000001
 40
0.0
 40
0.0
 40
0.0
 40
0.0
 40
1.0
 40
1.0
 40
1.0
 40
1.0
 10
271.1735109780295
 20
187.2677217775564
 30
0.0
 10
271.1709327392426
 20
187.2877658318019
 30
0.0
 10
271.1682981624997
 20
187.3078414086959
 30
0.0
 10
271.1656072541775
 20
187.3279481054159
 30
0.0
  0
SPLINE
  5
1C8
330
1F
100
AcDbEntity
  8
0
  6
Continuous
 62
     7
370
     0
100
AcDbSpline
210
0.0
220
0.0
230
1.0
 70
     8
 71
     3
 72
    13
 73
     9
 74
     0
 42
0.000000001
 43
0.00000001
 40
0.0
 40
0.0
 40
0.0
 40
0.0
 40
0.1252979724012309
 40
0.2505479492188886
 40
0.4996504656309608
 40
0.7491367961713563
 40
0.8745560122733987
 40
0.9999999999999999
 40
0.9999999999999999
 40
0.9999999999999999
 40
0.9999999999999999
 10
271.3218890428241
 20
187.5149142153934
 30
0.0
 10
271.3216673740319
 20
187.5035520712168
 30
0.0
 10
271.321224121358
 20
187.4808321351507
 30
0.0
 10
271.3098103232423
 20
187.4316276153052
 30
0.0
 10
271.2802316424453
 20
187.3699085525757
 30
0.0
 10
271.2381059974493
 20
187.3193589305565
 30
0.0
 10
271.2016639652489
 20
187.2873852428565
 30
0.0
 10
271.1828959248561
 20
187.27427669746
 30
0.0
 10
271.1735109780295
 20
187.2677217775564
 30
0.0
  0
SPLINE
  5
1C9
330
1F
100
AcDbEntity
  8
0
  6
Continuous
 62
     7
370
     0
100
AcDbSpline
210
0.0
220
0.0
230
1.0
 70
     8
 71
     3
 72
    14
 73
    10
 74
     0
 42
0.000000001
 43
0.00000001
 40
0.0
 40
0.0
 40
0.0
 40
0.0
 40
0.1254503143219165
 40
0.2508643752892165
 40
0.5007647188434741
 40
0.7494477027970826
 40
0.874548646661646
 40
0.9372588824514376
 40
1.0
 40
1.0
 40
1.0
 40
1.0
 10
271.1287867030001
 20
187.5779558918818
 30
0.0
 10
271.1398500844314
 20
187.5839245290136
 30
0.0
 10
271.1619736501341
 20
187.5958600784261
 30
0.0
 10
271.2057959770787
 20
187.6108997059133
 30
0.0
 10
271.2578545138304
 20
187.6144591819013
 30
0.0
 10
271.3010046232774
 20
187.5920535806209
 30
0.0
 10
271.3163058292699
 20
187.5573764984144
 30
0.0
 10
271.320882853668
 20
187.5340559781507
 30
0.0
 10
271.3215535914013
 20
187.5212958500124
 30
0.0
 10
271.3218890428241
 20
187.5149142153934
 30
0.0
  0
ARC
  5
1CA
330
1F
100
AcDbEntity
  8
0
  6
Continuous
 62
     7
370
     0
100
AcDbCircle
 10
260.0640943927
 20
187.0463780466
 30
0.0
 40
11.04127356412225
100
AcDbArc
 50
356.9830643376
 51
357.6358244547
  0
SPLINE
  5
1CB
330
1F
100
AcDbEntity
  8
0
  6
Continuous
 62
     7
370
     0
100
AcDbSpline
210
0.0
220
0.0
230
1.0
 70
     8
 71
     3
 72
    15
 73
    11
 74
     0
 42
0.000000001
 43
0.00000001
 40
0.0
 40
0.0
 40
0.0
 40
0.0
 40
0.1429545597213982
 40
0.2858259307256618
 40
0.3930115961467938
 40
0.5001405448350671
 40
0.6181942514790063
 40
0.7497632715744822
 40
0.8748286417272916
 40
1.0
 40
1.0
 40
1.0
 40
1.0
 10
270.938948043966
 20
186.6819545623156
 30
0.0
 10
270.9515579845234
 20
186.6887023369084
 30
0.0
 10
270.9767705276087
 20
186.7021939594006
 30
0.0
 10
271.0104615469418
 20
186.7119450439199
 30
0.0
 10
271.0385423250813
 20
186.7128442758235
 30
0.0
 10
271.062211137476
 20
186.7075044219928
 30
0.0
 10
271.0809502565581
 20
186.6901254130019
 30
0.0
 10
271.091953990411
 20
186.6619391930743
 30
0.0
 10
271.0966125288693
 20
186.6277732859205
 30
0.0
 10
271.0961841172086
 20
186.6032046576285
 30
0.0
 10
271.0959698206509
 20
186.5909151404439
 30
0.0
  0
SPLINE
  5
1CC
330
1F
100
AcDbEntity
  8
0
  6
Continuous
 62
     7
370
     0
100
AcDbSpline
210
0.0
220
0.0
230
1.0
 70
     8
 71
     3
 72
    14
 73
    10
 74
     0
 42
0.000000001
 43
0.00000001
 40
0.0
 40
0.0
 40
0.0
 40
0.0
 40
0.0745601870303218
 40
0.1430363259402321
 40
0.2502753544418672
 40
0.4996559586217005
 40
0.6996146735485747
 40
0.840656500597625
 40
1.0
 40
1.0
 40
1.0
 40
1.0
 10
270.7927905930249
 20
186.505812654519
 30
0.0
 10
270.7946171835753
 20
186.511363952472
 30
0.0
 10
270.7981213164342
 20
186.5220135671661
 30
0.0
 10
270.8058838272308
 20
186.5407345929579
 30
0.0
 10
270.8220526756971
 20
186.5720272669563
 30
0.0
 10
270.849612730377
 20
186.6100762151341
 30
0.0
 10
270.8827617443121
 20
186.6426127557475
 30
0.0
 10
270.9119212014796
 20
186.6652923662093
 30
0.0
 10
270.9295804528614
 20
186.6761793912017
 30
0.0
 10
270.938948043966
 20
186.6819545623156
 30
0.0
  0
SPLINE
  5
1CD
330
1F
100
AcDbEntity
  8
0
  6
Continuous
 62
     7
370
     0
100
AcDbSpline
210
0.0
220
0.0
230
1.0
 70
     8
 71
     3
 72
    11
 73
     7
 74
     0
 42
0.000000001
 43
0.00000001
 40
0.0
 40
0.0
 40
0.0
 40
0.0
 40
0.2729389191732804
 40
0.500136088788852
 40
0.7501730734356025
 40
1.0
 40
1.0
 40
1.0
 40
1.0
 10
270.7789782338114
 20
186.4038966600812
 30
0.0
 10
270.7793892605655
 20
186.4127451703604
 30
0.0
 10
270.7801424302264
 20
186.4289592718013
 30
0.0
 10
270.7826280870896
 20
186.4540640674002
 30
0.0
 10
270.7858105484852
 20
186.4788937192894
 30
0.0
 10
270.7904645634314
 20
186.4968421902744
 30
0.0
 10
270.7927905930249
 20
186.505812654519
 30
0.0
  0
ARC
  5
1CE
330
1F
100
AcDbEntity
  8
0
  6
Continuous
 62
     7
370
     0
100
AcDbCircle
 10
259.8040627004
 20
186.8608439428
 30
0.0
 40
10.98442405342178
100
AcDbArc
 50
356.6597687831
 51
357.6158324093
  0
LINE
  5
1CF
330
1F
100
AcDbEntity
  8
0
  6
Continuous
 62
     7
370
     0
100
AcDbLine
 10
271.3001559612
 20
186.5269893461
 30
0.0
 11
270.7698258753
 21
186.2208363041
 31
0.0
  0
ARC
  5
1D0
330
1F
100
AcDbEntity
  8
0
  6
Continuous
 62
     7
370
     0
100
AcDbCircle
 10
260.4384412957
 20
187.1613112503
 30
0.0
 40
10.88022103415657
100
AcDbArc
 50
356.657734441
 51
356.9822566637
  0
LINE
  5
1D1
330
1F
100
AcDbEntity
  8
0
  6
Continuous
 62
     7
370
     0
100
AcDbLine
 10
271.0900649891
 20
186.4652633209
 30
0.0
 11
271.3035745042
 21
186.5885197404
 31
0.0
  0
SPLINE
  5
1D2
330
1F
100
AcDbEntity
  8
0
  6
Continuous
 62
     7
370
     0
100
AcDbSpline
210
0.0
220
0.0
230
1.0
 70
     8
 71
     3
 72
     8
 73
     4
 74
     0
 42
0.000000001
 43
0.00000001
 40
0.0
 40
0.0
 40
0.0
 40
0.0
 40
1.0
 40
1.0
 40
1.0
 40
1.0
 10
271.2322284648619
 20
185.8015294951282
 30
0.0
 10
271.072101223263
 20
185.6677161079404
 30
0.0
 10
270.9116811032339
 20
185.5341192127979
 30
0.0
 10
270.750968710881
 20
185.4007432089647
 30
0.0
  0
ARC
  5
1D3
330
1F
100
AcDbEntity
  8
0
  6
Continuous
 62
     7
370
     0
100
AcDbCircle
 10
261.6705114837
 20
187.0498785083
 30
0.0
 40
9.642863002627395
100
AcDbArc
 50
352.5617071556
 51
352.921672179
  0
SPLINE
  5
1D4
330
1F
100
AcDbEntity
  8
0
  6
Continuous
 62
     7
370
     0
100
AcDbSpline
210
0.0
220
0.0
230
1.0
 70
     8
 71
     3
 72
     8
 73
     4
 74
     0
 42
0.000000001
 43
0.00000001
 40
0.0
 40
0.0
 40
0.0
 40
0.0
 40
1.0
 40
1.0
 40
1.0
 40
1.0
 10
270.8180910353414
 20
185.745517130279
 30
0.0
 10
270.9589867157819
 20
185.7840049312901
 30
0.0
 10
271.0995837107943
 20
185.8227063422047
 30
0.0
 10
271.2398825559494
 20
185.8616259391352
 30
0.0
  0
LINE
  5
1D5
330
1F
100
AcDbEntity
  8
0
  6
Continuous
 62
     7
370
     0
100
AcDbLine
 10
271.2558716338
 20
185.9982424904
 30
0.0
 11
270.8180910353
 21
185.7455171303
 31
0.0
  0
ARC
  5
1D6
330
1F
100
AcDbEntity
  8
0
  6
Continuous
 62
     7
370
     0
100
AcDbCircle
 10
261.3410647013
 20
187.0884405978
 30
0.0
 40
9.974564071879335
100
AcDbArc
 50
353.725160443
 51
354.0690405138
  0
LINE
  5
1D7
330
1F
100
AcDbEntity
  8
0
  6
Continuous
 62
     7
370
     0
100
AcDbLine
 10
270.7319061273
 20
185.7516158063
 30
0.0
 11
271.2622362132
 21
186.0577688482
 31
0.0
  0
ARC
  5
1D8
330
1F
100
AcDbEntity
  8
0
  6
Continuous
 62
     7
370
     0
100
AcDbCircle
 10
260.8316017
 20
186.7800687646
 30
0.0
 40
9.953579418455293
100
AcDbArc
 50
353.5817086724
 51
354.0693324645
  0
SPLINE
  5
1D9
330
1F
100
AcDbEntity
  8
0
  6
Continuous
 62
     7
370
     0
100
AcDbSpline
210
0.0
220
0.0
230
1.0
 70
     8
 71
     3
 72
     8
 73
     4
 74
     0
 42
0.000000001
 43
0.00000001
 40
0.0
 40
0.0
 40
0.0
 40
0.0
 40
1.0
 40
1.0
 40
1.0
 40
1.0
 10
271.0780806520592
 20
185.7645930421105
 30
0.0
 10
270.9598669144013
 20
185.732037757439
 30
0.0
 10
270.8414384397874
 20
185.6996397200935
 30
0.0
 10
270.7227948970015
 20
185.6673961355127
 30
0.0
  0
ARC
  5
1DA
330
1F
100
AcDbEntity
  8
0
  6
Continuous
 62
     7
370
     0
100
AcDbCircle
 10
269.6847101821
 20
190.7727694464
 30
0.0
 40
5.198395152682614
100
AcDbArc
 50
285.5475843805
 51
286.4855015371
  0
SPLINE
  5
1DB
330
1F
100
AcDbEntity
  8
0
  6
Continuous
 62
     7
370
     0
100
AcDbSpline
210
0.0
220
0.0
230
1.0
 70
     8
 71
     3
 72
     8
 73
     4
 74
     0
 42
0.000000001
 43
0.00000001
 40
0.0
 40
0.0
 40
0.0
 40
0.0
 40
1.0
 40
1.0
 40
1.0
 40
1.0
 10
271.0784865361359
 20
185.7207170662008
 30
0.0
 10
271.1056231603556
 20
185.7431629716451
 30
0.0
 10
271.1327519368929
 20
185.7656146696927
 30
0.0
 10
271.1598728632538
 20
185.7880721409291
 30
0.0
  0
SPLINE
  5
1DC
330
1F
100
AcDbEntity
  8
0
  6
Continuous
 62
     7
370
     0
100
AcDbSpline
210
0.0
220
0.0
230
1.0
 70
     8
 71
     3
 72
     8
 73
     4
 74
     0
 42
0.000000001
 43
0.00000001
 40
0.0
 40
0.0
 40
0.0
 40
0.0
 40
1.0
 40
1.0
 40
1.0
 40
1.0
 10
270.6881911132656
 20
185.3945811085444
 30
0.0
 10
270.8184851556176
 20
185.5031469742198
 30
0.0
 10
270.9485837386788
 20
185.6118597626729
 30
0.0
 10
271.0784865361359
 20
185.7207170662008
 30
0.0
  0
ARC
  5
1DD
330
1F
100
AcDbEntity
  8
0
  6
Continuous
 62
     7
370
     0
100
AcDbCircle
 10
261.4325838049
 20
186.7037522396
 30
0.0
 40
9.347737464070349
100
AcDbArc
 50
351.3873599296
 51
351.9491335608
  0
LINE
  5
1DE
330
1F
100
AcDbEntity
  8
0
  6
Continuous
 62
     7
370
     0
100
AcDbLine
 10
271.2052403582
 20
185.6100491579
 30
0.0
 11
270.6749102723
 21
185.303896116
 31
0.0
  0
ARC
  5
1DF
330
1F
100
AcDbEntity
  8
0
  6
Continuous
 62
     7
370
     0
100
AcDbCircle
 10
261.989859113
 20
187.0058978501
 30
0.0
 40
9.32049596674734
100
AcDbArc
 50
351.386911796
 51
351.7466972807
  0
LINE
  5
1E0
330
1F
100
AcDbEntity
  8
0
  6
Continuous
 62
     7
370
     0
100
AcDbLine
 10
270.7509687109
 20
185.400743209
 30
0.0
 11
271.2138237635
 21
185.6679437433
 31
0.0
  0
ARC
  5
1E1
330
1F
100
AcDbEntity
  8
0
  6
Continuous
 62
     7
370
     0
100
AcDbCircle
 10
252.459623517
 20
186.6721111975
 30
0.0
 40
19.33860396381677
100
AcDbArc
 50
2.5666057311
 51
57.4280177362
  0
SPLINE
  5
1E2
330
1F
100
AcDbEntity
  8
0
  6
Continuous
 62
     7
370
     0
100
AcDbSpline
210
0.0
220
0.0
230
1.0
 70
     8
 71
     3
 72
    14
 73
    10
 74
     0
 42
0.000000001
 43
0.00000001
 40
0.0
 40
0.0
 40
0.0
 40
0.0
 40
0.2504567050928235
 40
0.5007685906461226
 40
0.625864467971912
 40
0.7507010938702152
 40
0.8751098530209156
 40
0.9375424545412298
 40
1.0
 40
1.0
 40
1.0
 40
1.0
 10
271.0383675318043
 20
187.6595668428317
 30
0.0
 10
271.0597641860013
 20
187.6722472295368
 30
0.0
 10
271.1025451223824
 20
187.6976006708705
 30
0.0
 10
271.1555545771824
 20
187.7350808299188
 30
0.0
 10
271.1966348773688
 20
187.7714913188744
 30
0.0
 10
271.2242439010046
 20
187.8060745369322
 30
0.0
 10
271.242261697615
 20
187.8402478744424
 30
0.0
 10
271.24978064574
 20
187.8689599811945
 30
0.0
 10
271.2497505529054
 20
187.8821435007717
 30
0.0
 10
271.2497355034828
 20
187.888736577113
 30
0.0
  0
SPLINE
  5
1E3
330
1F
100
AcDbEntity
  8
0
  6
Continuous
 62
     7
370
     0
100
AcDbSpline
210
0.0
220
0.0
230
1.0
 70
     8
 71
     3
 72
    15
 73
    11
 74
     0
 42
0.000000001
 43
0.00000001
 40
0.0
 40
0.0
 40
0.0
 40
0.0
 40
0.0357496639709916
 40
0.0714787857971891
 40
0.1249960507389605
 40
0.2494778538486886
 40
0.3743167329173326
 40
0.4993970418671524
 40
0.7496360215701784
 40
1.0
 40
1.0
 40
1.0
 40
1.0
 10
271.2497355034828
 20
187.888736577113
 30
0.0
 10
271.2494153163594
 20
187.8922923288226
 30
0.0
 10
271.2487751260954
 20
187.8994017890683
 30
0.0
 10
271.2452088917415
 20
187.9100189036037
 30
0.0
 10
271.2360685244236
 20
187.9250458885903
 30
0.0
 10
271.215154146634
 20
187.9349159713118
 30
0.0
 10
271.1857323301592
 20
187.9362610733825
 30
0.0
 10
271.1435256094456
 20
187.9243500453684
 30
0.0
 10
271.0902628998599
 20
187.90051346677
 30
0.0
 10
271.0477918817943
 20
187.8766728156251
 30
0.0
 10
271.0265510703326
 20
187.8647495135911
 30
0.0
  0
SPLINE
  5
1E4
330
1F
100
AcDbEntity
  8
0
  6
Continuous
 62
     7
370
     0
100
AcDbSpline
210
0.0
220
0.0
230
1.0
 70
     8
 71
     3
 72
    14
 73
    10
 74
     0
 42
0.000000001
 43
0.00000001
 40
0.0
 40
0.0
 40
0.0
 40
0.0
 40
0.2504552763300965
 40
0.5007650511731642
 40
0.6258584362837313
 40
0.750680307190223
 40
0.8751033703397859
 40
0.9375275944789334
 40
1.0
 40
1.0
 40
1.0
 40
1.0
 10
271.0265510703326
 20
187.8647495135911
 30
0.0
 10
271.0051084624738
 20
187.852034717733
 30
0.0
 10
270.9622357037958
 20
187.826612512652
 30
0.0
 10
270.909194639911
 20
187.7890076468426
 30
0.0
 10
270.868208015746
 20
187.7523950580243
 30
0.0
 10
270.8407468046086
 20
187.7175532815927
 30
0.0
 10
270.8231870761651
 20
187.6830072680646
 30
0.0
 10
270.8159458586462
 20
187.6542052870848
 30
0.0
 10
270.8160156211284
 20
187.6410038254606
 30
0.0
 10
270.8160505158257
 20
187.6344005482841
 30
0.0
  0
SPLINE
  5
1E5
330
1F
100
AcDbEntity
  8
0
  6
Continuous
 62
     7
370
     0
100
AcDbSpline
210
0.0
220
0.0
230
1.0
 70
     8
 71
     3
 72
    14
 73
    10
 74
     0
 42
0.000000001
 43
0.00000001
 40
0.0
 40
0.0
 40
0.0
 40
0.0
 40
0.0623759841546414
 40
0.1248129722817842
 40
0.2492504649310001
 40
0.374121338438643
 40
0.4992563427513284
 40
0.7495574582203581
 40
1.0
 40
1.0
 40
1.0
 40
1.0
 10
270.8160505158257
 20
187.6344005482841
 30
0.0
 10
270.8168405155917
 20
187.6283360556234
 30
0.0
 10
270.8184212877466
 20
187.6162011392026
 30
0.0
 10
270.8293003193223
 20
187.5988109018965
 30
0.0
 10
270.8504432842877
 20
187.5888285589387
 30
0.0
 10
270.8797456194556
 20
187.5878664704312
 30
0.0
 10
270.9217033958809
 20
187.59999423933
 30
0.0
 10
270.9747815318646
 20
187.6238647333898
 30
0.0
 10
271.0171682080319
 20
187.6476638991313
 30
0.0
 10
271.0383675318043
 20
187.6595668428317
 30
0.0
  0
ARC
  5
1E6
330
1F
100
AcDbEntity
  8
0
  6
Continuous
 62
     7
370
     0
100
AcDbCircle
 10
259.9987813439
 20
187.0107563876
 30
0.0
 40
11.04460391968292
100
AcDbArc
 50
356.9831309236
 51
357.6558407138
  0
SPLINE
  5
1E7
330
1F
100
AcDbEntity
  8
0
  6
Continuous
 62
     7
370
     0
100
AcDbSpline
210
0.0
220
0.0
230
1.0
 70
     8
 71
     3
 72
    13
 73
     9
 74
     0
 42
0.000000001
 43
0.00000001
 40
0.0
 40
0.0
 40
0.0
 40
0.0
 40
0.1257431705301028
 40
0.251403204778073
 40
0.5004854116416132
 40
0.7488453632207661
 40
0.9161634980058073
 40
1.0
 40
1.0
 40
1.0
 40
1.0
 10
271.0341427831511
 20
186.5590112728552
 30
0.0
 10
271.0342842834327
 20
186.5667019148595
 30
0.0
 10
271.0345671904417
 20
186.5820781141276
 30
0.0
 10
271.0313304670777
 20
186.6101209598657
 30
0.0
 10
271.0182927862297
 20
186.6391256992569
 30
0.0
 10
270.985489693177
 20
186.6415985112232
 30
0.0
 10
270.9584958987141
 20
186.6311288500357
 30
0.0
 10
270.9447214971089
 20
186.6235616160729
 30
0.0
 10
270.9401235423889
 20
186.6210356407083
 30
0.0
  0
SPLINE
  5
1E8
330
1F
100
AcDbEntity
  8
0
  6
Continuous
 62
     7
370
     0
100
AcDbSpline
210
0.0
220
0.0
230
1.0
 70
     8
 71
     3
 72
    14
 73
    10
 74
     0
 42
0.000000001
 43
0.00000001
 40
0.0
 40
0.0
 40
0.0
 40
0.0
 40
0.1251692025470937
 40
0.2502774400662945
 40
0.3752942969246997
 40
0.5002256764783135
 40
0.624740884272907
 40
0.7496892273597416
 40
0.9999999999999999
 40
0.9999999999999999
 40
0.9999999999999999
 40
0.9999999999999999
 10
270.9401235423889
 20
186.6210356407083
 30
0.0
 10
270.9332132814398
 20
186.6167844241851
 30
0.0
 10
270.9193961252598
 20
186.6082840617403
 30
0.0
 10
270.8989601850772
 20
186.591083232544
 30
0.0
 10
270.8798187873518
 20
186.5702358909844
 30
0.0
 10
270.8627249886695
 20
186.5464497383264
 30
0.0
 10
270.8499495775761
 20
186.5197638260231
 30
0.0
 10
270.843529395034
 20
186.4857041015456
 30
0.0
 10
270.8421595086429
 20
186.4621689697563
 30
0.0
 10
270.8412457471736
 20
186.446470225141
 30
0.0
  0
ARC
  5
1E9
330
1F
100
AcDbEntity
  8
0
  6
Continuous
 62
     7
370
     0
100
AcDbCircle
 10
259.8069735868
 20
186.899377279
 30
0.0
 40
11.04356314371162
100
AcDbArc
 50
356.9831099016
 51
357.6495862807
  0
LINE
  5
1EA
330
1F
100
AcDbEntity
  8
0
  6
Continuous
 62
     7
370
     0
100
AcDbLine
 10
270.8352310517
 20
186.3181508202
 30
0.0
 11
271.0280783557
 21
186.4294791991
 31
0.0
  0
ARC
  5
1EB
330
1F
100
AcDbEntity
  8
0
  6
Continuous
 62
     7
370
     0
100
AcDbCircle
 10
262.5432668779
 20
186.8656824329
 30
0.0
 40
8.696258341475655
100
AcDbArc
 50
348.7978811031
 51
349.4447762702
  0
SPLINE
  5
1EC
330
1F
100
AcDbEntity
  8
0
  6
Continuous
 62
     7
370
     0
100
AcDbSpline
210
0.0
220
0.0
230
1.0
 70
     8
 71
     3
 72
    12
 73
     8
 74
     0
 42
0.000000001
 43
0.00000001
 40
0.0
 40
0.0
 40
0.0
 40
0.0
 40
0.2506447700527095
 40
0.500496388892758
 40
0.7494550466348047
 40
0.8640021788814772
 40
0.9999999999999999
 40
0.9999999999999999
 40
0.9999999999999999
 40
0.9999999999999999
 10
271.092374142619
 20
185.2726745489941
 30
0.0
 10
271.0945382446158
 20
185.2865290841124
 30
0.0
 10
271.0988596004308
 20
185.3141943124555
 30
0.0
 10
271.0955577682546
 20
185.349860200906
 30
0.0
 10
271.0777355384802
 20
185.3642980994506
 30
0.0
 10
271.0573348116242
 20
185.3665445162185
 30
0.0
 10
271.0456934739162
 20
185.3650202681927
 30
0.0
 10
271.0393744619308
 20
185.3641928940725
 30
0.0
  0
SPLINE
  5
1ED
330
1F
100
AcDbEntity
  8
0
  6
Continuous
 62
     7
370
     0
100
AcDbSpline
210
0.0
220
0.0
230
1.0
 70
     8
 71
     3
 72
    11
 73
     7
 74
     0
 42
0.000000001
 43
0.00000001
 40
0.0
 40
0.0
 40
0.0
 40
0.0
 40
0.2499306351901286
 40
0.4999282956707934
 40
0.7499583790451344
 40
1.0
 40
1.0
 40
1.0
 40
1.0
 10
271.0393744619308
 20
185.3641928940725
 30
0.0
 10
271.0296115212579
 20
185.3619350143847
 30
0.0
 10
271.0100830217297
 20
185.3574186495008
 30
0.0
 10
270.9786026748416
 20
185.3448857199842
 30
0.0
 10
270.9464286626886
 20
185.3297872003421
 30
0.0
 10
270.924475283014
 20
185.317424423796
 30
0.0
 10
270.9134983399242
 20
185.3112428929069
 30
0.0
  0
SPLINE
  5
1EE
330
1F
100
AcDbEntity
  8
0
  6
Continuous
 62
     7
370
     0
100
AcDbSpline
210
0.0
220
0.0
230
1.0
 70
     8
 71
     3
 72
    15
 73
    11
 74
     0
 42
0.000000001
 43
0.00000001
 40
0.0
 40
0.0
 40
0.0
 40
0.0
 40
0.1347999632652077
 40
0.2502496014357529
 40
0.5001560835052262
 40
0.6667344581242454
 40
0.750107897762363
 40
0.875014222628859
 40
0.9335799284632379
 40
1.0
 40
1.0
 40
1.0
 40
1.0
 10
270.9134983399242
 20
185.3112428929069
 30
0.0
 10
270.9037545427766
 20
185.3054614947757
 30
0.0
 10
270.8856656554091
 20
185.2947286092243
 30
0.0
 10
270.849244177836
 20
185.2709502848715
 30
0.0
 10
270.8099994655619
 20
185.2416916567924
 30
0.0
 10
270.7742739505807
 20
185.2071849187849
 30
0.0
 10
270.7489789975678
 20
185.1788915228588
 30
0.0
 10
270.7321893601911
 20
185.1571419182442
 30
0.0
 10
270.7188696334149
 20
185.1359378105036
 30
0.0
 10
270.7132651904977
 20
185.1252954494622
 30
0.0
 10
270.7102868716256
 20
185.1196398749115
 30
0.0
  0
SPLINE
  5
1EF
330
1F
100
AcDbEntity
  8
0
  6
Continuous
 62
     7
370
     0
100
AcDbSpline
210
0.0
220
0.0
230
1.0
 70
     8
 71
     3
 72
    10
 73
     6
 74
     0
 42
0.000000001
 43
0.00000001
 40
0.0
 40
0.0
 40
0.0
 40
0.0
 40
0.2498028102649144
 40
0.499885997509294
 40
0.9999999999999999
 40
0.9999999999999999
 40
0.9999999999999999
 40
0.9999999999999999
 10
270.7102868716256
 20
185.1196398749115
 30
0.0
 10
270.7070610718043
 20
185.1122426971673
 30
0.0
 10
270.700605851546
 20
185.0974400391366
 30
0.0
 10
270.6925716132171
 20
185.0695200192701
 30
0.0
 10
270.6884664968508
 20
185.0497364610243
 30
0.0
 10
270.6857298481339
 20
185.0365478825635
 30
0.0
  0
ARC
  5
1F0
330
1F
100
AcDbEntity
  8
0
  6
Continuous
 62
     7
370
     0
100
AcDbCircle
 10
262.1381371798
 20
186.630859366
 30
0.0
 40
8.69500831111499
100
AcDbArc
 50
348.7978503667
 51
349.4345033047
  0
LINE
  5
1F1
330
1F
100
AcDbEntity
  8
0
  6
Continuous
 62
     7
370
     0
100
AcDbLine
 10
270.6674870391
 20
184.9416700609
 30
0.0
 11
271.0738438581
 21
185.1762548593
 31
0.0
  0
OLE2FRAME
  5
1F2
330
1F
100
AcDbEntity
  8
0
100
AcDbOle2Frame
 70
     2
  3
Paintbrush Picture
 10
229.0524258301
 20
33.6996297921
 30
0.0
 11
265.1686469208
 21
28.555479607
 31
0.0
 71
     2
 72
     0
 73
     1
 90
     7296
310
80557333EF78ADA16C40002412788DD94040000000000000000041161DC7B292
310
7040002412788DD94040000000000000000041161DC7B2927040F6DD59E9338E
310
3C4000000000000000007333EF78ADA16C40F6DD59E9338E3C40000000000000
310
00000000000001000000000100000100000001000000000001000000001C0000
310
D0CF11E0A1B11AE1000000000000000000000000000000003E000300FEFF0900
310
0600000000000000000000000100000001000000000000000010000002000000
310
01000000FEFFFFFF0000000000000000FFFFFFFFFFFFFFFFFFFFFFFFFFFFFFFF
310
FFFFFFFFFFFFFFFFFFFFFFFFFFFFFFFFFFFFFFFFFFFFFFFFFFFFFFFFFFFFFFFF
310
FFFFFFFFFFFFFFFFFFFFFFFFFFFFFFFFFFFFFFFFFFFFFFFFFFFFFFFFFFFFFFFF
310
FFFFFFFFFFFFFFFFFFFFFFFFFFFFFFFFFFFFFFFFFFFFFFFFFFFFFFFFFFFFFFFF
310
FFFFFFFFFFFFFFFFFFFFFFFFFFFFFFFFFFFFFFFFFFFFFFFFFFFFFFFFFFFFFFFF
310
FFFFFFFFFFFFFFFFFFFFFFFFFFFFFFFFFFFFFFFFFFFFFFFFFFFFFFFFFFFFFFFF
310
FFFFFFFFFFFFFFFFFFFFFFFFFFFFFFFFFFFFFFFFFFFFFFFFFFFFFFFFFFFFFFFF
310
FFFFFFFFFFFFFFFFFFFFFFFFFFFFFFFFFFFFFFFFFFFFFFFFFFFFFFFFFFFFFFFF
310
FFFFFFFFFFFFFFFFFFFFFFFFFFFFFFFFFFFFFFFFFFFFFFFFFFFFFFFFFFFFFFFF
310
FFFFFFFFFFFFFFFFFFFFFFFFFFFFFFFFFFFFFFFFFFFFFFFFFFFFFFFFFFFFFFFF
310
FFFFFFFFFFFFFFFFFFFFFFFFFFFFFFFFFFFFFFFFFFFFFFFFFFFFFFFFFFFFFFFF
310
FFFFFFFFFFFFFFFFFFFFFFFFFFFFFFFFFFFFFFFFFFFFFFFFFFFFFFFFFFFFFFFF
310
FFFFFFFFFFFFFFFFFFFFFFFFFFFFFFFFFFFFFFFFFFFFFFFFFFFFFFFFFFFFFFFF
310
FFFFFFFFFFFFFFFFFFFFFFFFFFFFFFFFFFFFFFFFFFFFFFFFFFFFFFFFFFFFFFFF
310
FDFFFFFFFEFFFFFFFEFFFFFFFEFFFFFF05000000060000000700000008000000
310
090000000A0000000B0000000C000000FEFFFFFFFFFFFFFFFFFFFFFFFFFFFFFF
310
FFFFFFFFFFFFFFFFFFFFFFFFFFFFFFFFFFFFFFFFFFFFFFFFFFFFFFFFFFFFFFFF
310
FFFFFFFFFFFFFFFFFFFFFFFFFFFFFFFFFFFFFFFFFFFFFFFFFFFFFFFFFFFFFFFF
310
FFFFFFFFFFFFFFFFFFFFFFFFFFFFFFFFFFFFFFFFFFFFFFFFFFFFFFFFFFFFFFFF
310
FFFFFFFFFFFFFFFFFFFFFFFFFFFFFFFFFFFFFFFFFFFFFFFFFFFFFFFFFFFFFFFF
310
FFFFFFFFFFFFFFFFFFFFFFFFFFFFFFFFFFFFFFFFFFFFFFFFFFFFFFFFFFFFFFFF
310
FFFFFFFFFFFFFFFFFFFFFFFFFFFFFFFFFFFFFFFFFFFFFFFFFFFFFFFFFFFFFFFF
310
FFFFFFFFFFFFFFFFFFFFFFFFFFFFFFFFFFFFFFFFFFFFFFFFFFFFFFFFFFFFFFFF
310
FFFFFFFFFFFFFFFFFFFFFFFFFFFFFFFFFFFFFFFFFFFFFFFFFFFFFFFFFFFFFFFF
310
FFFFFFFFFFFFFFFFFFFFFFFFFFFFFFFFFFFFFFFFFFFFFFFFFFFFFFFFFFFFFFFF
310
FFFFFFFFFFFFFFFFFFFFFFFFFFFFFFFFFFFFFFFFFFFFFFFFFFFFFFFFFFFFFFFF
310
FFFFFFFFFFFFFFFFFFFFFFFFFFFFFFFFFFFFFFFFFFFFFFFFFFFFFFFFFFFFFFFF
310
FFFFFFFFFFFFFFFFFFFFFFFFFFFFFFFFFFFFFFFFFFFFFFFFFFFFFFFFFFFFFFFF
310
FFFFFFFFFFFFFFFFFFFFFFFFFFFFFFFFFFFFFFFFFFFFFFFFFFFFFFFFFFFFFFFF
310
FFFFFFFFFFFFFFFFFFFFFFFFFFFFFFFFFFFFFFFFFFFFFFFFFFFFFFFFFFFFFFFF
310
52006F006F007400200045006E00740072007900000000000000000000000000
310
0000000000000000000000000000000000000000000000000000000000000000
310
16000500FFFFFFFFFFFFFFFF020000000A00030000000000C000000000000046
310
000000000000000000000000D082D6FD4AC5D00103000000C000000000000000
310
01004F006C006500000000000000000000000000000000000000000000000000
310
0000000000000000000000000000000000000000000000000000000000000000
310
0A000200FFFFFFFFFFFFFFFFFFFFFFFF00000000000000000000000000000000
310
0000000000000000000000000000000000000000000000001400000000000000
310
010043006F006D0070004F0062006A0000000000000000000000000000000000
310
0000000000000000000000000000000000000000000000000000000000000000
310
120002010100000003000000FFFFFFFF00000000000000000000000000000000
310
0000000000000000000000000000000000000000010000004D00000000000000
310
01004F006C006500310030004E00610074006900760065000000000000000000
310
0000000000000000000000000000000000000000000000000000000000000000
310
1A000200FFFFFFFFFFFFFFFFFFFFFFFF00000000000000000000000000000000
310
000000000000000000000000000000000000000004000000E411000000000000
310
FEFFFFFF02000000FEFFFFFFFFFFFFFFFFFFFFFFFFFFFFFFFFFFFFFFFFFFFFFF
310
FFFFFFFFFFFFFFFFFFFFFFFFFFFFFFFFFFFFFFFFFFFFFFFFFFFFFFFFFFFFFFFF
310
FFFFFFFFFFFFFFFFFFFFFFFFFFFFFFFFFFFFFFFFFFFFFFFFFFFFFFFFFFFFFFFF
310
FFFFFFFFFFFFFFFFFFFFFFFFFFFFFFFFFFFFFFFFFFFFFFFFFFFFFFFFFFFFFFFF
310
FFFFFFFFFFFFFFFFFFFFFFFFFFFFFFFFFFFFFFFFFFFFFFFFFFFFFFFFFFFFFFFF
310
FFFFFFFFFFFFFFFFFFFFFFFFFFFFFFFFFFFFFFFFFFFFFFFFFFFFFFFFFFFFFFFF
310
FFFFFFFFFFFFFFFFFFFFFFFFFFFFFFFFFFFFFFFFFFFFFFFFFFFFFFFFFFFFFFFF
310
FFFFFFFFFFFFFFFFFFFFFFFFFFFFFFFFFFFFFFFFFFFFFFFFFFFFFFFFFFFFFFFF
310
FFFFFFFFFFFFFFFFFFFFFFFFFFFFFFFFFFFFFFFFFFFFFFFFFFFFFFFFFFFFFFFF
310
FFFFFFFFFFFFFFFFFFFFFFFFFFFFFFFFFFFFFFFFFFFFFFFFFFFFFFFFFFFFFFFF
310
FFFFFFFFFFFFFFFFFFFFFFFFFFFFFFFFFFFFFFFFFFFFFFFFFFFFFFFFFFFFFFFF
310
FFFFFFFFFFFFFFFFFFFFFFFFFFFFFFFFFFFFFFFFFFFFFFFFFFFFFFFFFFFFFFFF
310
FFFFFFFFFFFFFFFFFFFFFFFFFFFFFFFFFFFFFFFFFFFFFFFFFFFFFFFFFFFFFFFF
310
FFFFFFFFFFFFFFFFFFFFFFFFFFFFFFFFFFFFFFFFFFFFFFFFFFFFFFFFFFFFFFFF
310
FFFFFFFFFFFFFFFFFFFFFFFFFFFFFFFFFFFFFFFFFFFFFFFFFFFFFFFFFFFFFFFF
310
FFFFFFFFFFFFFFFFFFFFFFFFFFFFFFFFFFFFFFFFFFFFFFFFFFFFFFFFFFFFFFFF
310
0100000200000000000000000000000000000000000000000000000000000000
310
0000000000000000000000000000000000000000000000000000000000000000
310
0100FEFF030A0000FFFFFFFF0A00030000000000C00000000000004607000000
310
5042727573680007000000504272757368000700000050427275736800F439B2
310
7100000000000000000000000000000000000000000000000000000000000000
310
0000000000000000000000000000000000000000000000000000000000000000
310
0000000000000000000000000000000000000000000000000000000000000000
310
0000000000000000000000000000000000000000000000000000000000000000
310
0000000000000000000000000000000000000000000000000000000000000000
310
0000000000000000000000000000000000000000000000000000000000000000
310
0000000000000000000000000000000000000000000000000000000000000000
310
0000000000000000000000000000000000000000000000000000000000000000
310
0000000000000000000000000000000000000000000000000000000000000000
310
0000000000000000000000000000000000000000000000000000000000000000
310
0000000000000000000000000000000000000000000000000000000000000000
310
0000000000000000000000000000000000000000000000000000000000000000
310
E0110000424DDE11000000000000360400002800000096000000170000000100
310
08000000000000000000E7240000E72400000001000000010000000000FF0101
310
01FF020202FF030303FF040404FF050505FF060606FF070707FF080808FF0909
310
09FF0A0A0AFF0B0B0BFF0C0C0CFF0D0D0DFF0E0E0EFF0F0F0FFF101010FF1111
310
11FF121212FF131313FF141414FF151515FF161616FF171717FF181818FF1919
310
19FF1A1A1AFF1B1B1BFF1C1C1CFF1D1D1DFF1E1E1EFF1F1F1FFF202020FF2121
310
21FF222222FF232323FF242424FF252525FF262626FF272727FF282828FF2929
310
29FF2A2A2AFF2B2B2BFF2C2C2CFF2D2D2DFF2E2E2EFF2F2F2FFF303030FF3131
310
31FF323232FF333333FF343434FF353535FF363636FF373737FF383838FF3939
310
39FF3A3A3AFF3B3B3BFF3C3C3CFF3D3D3DFF3E3E3EFF3F3F3FFF404040FF4141
310
41FF424242FF434343FF444444FF454545FF464646FF474747FF484848FF4949
310
49FF4A4A4AFF4B4B4BFF4C4C4CFF4D4D4DFF4E4E4EFF4F4F4FFF505050FF5151
310
51FF525252FF535353FF545454FF555555FF565656FF575757FF585858FF5959
310
59FF5A5A5AFF5B5B5BFF5C5C5CFF5D5D5DFF5E5E5EFF5F5F5FFF606060FF6161
310
61FF626262FF636363FF646464FF656565FF666666FF676767FF686868FF6969
310
69FF6A6A6AFF6B6B6BFF6C6C6CFF6D6D6DFF6E6E6EFF6F6F6FFF707070FF7171
310
71FF727272FF737373FF747474FF757575FF767676FF777777FF787878FF7979
310
79FF7A7A7AFF7B7B7BFF7C7C7CFF7D7D7DFF7E7E7EFF7F7F7FFF808080FF8181
310
81FF828282FF838383FF848484FF858585FF868686FF878787FF888888FF8989
310
89FF8A8A8AFF8B8B8BFF8C8C8CFF8D8D8DFF8E8E8EFF8F8F8FFF909090FF9191
310
91FF929292FF939393FF949494FF959595FF969696FF979797FF989898FF9999
310
99FF9A9A9AFF9B9B9BFF9C9C9CFF9D9D9DFF9E9E9EFF9F9F9FFFA0A0A0FFA1A1
310
A1FFA2A2A2FFA3A3A3FFA4A4A4FFA5A5A5FFA6A6A6FFA7A7A7FFA8A8A8FFA9A9
310
A9FFAAAAAAFFABABABFFACACACFFADADADFFAEAEAEFFAFAFAFFFB0B0B0FFB1B1
310
B1FFB2B2B2FFB3B3B3FFB4B4B4FFB5B5B5FFB6B6B6FFB7B7B7FFB8B8B8FFB9B9
310
B9FFBABABAFFBBBBBBFFBCBCBCFFBDBDBDFFBEBEBEFFBFBFBFFFC0C0C0FFC1C1
310
C1FFC2C2C2FFC3C3C3FFC4C4C4FFC5C5C5FFC6C6C6FFC7C7C7FFC8C8C8FFC9C9
310
C9FFCACACAFFCBCBCBFFCCCCCCFFCDCDCDFFCECECEFFCFCFCFFFD0D0D0FFD1D1
310
D1FFD2D2D2FFD3D3D3FFD4D4D4FFD5D5D5FFD6D6D6FFD7D7D7FFD8D8D8FFD9D9
310
D9FFDADADAFFDBDBDBFFDCDCDCFFDDDDDDFFDEDEDEFFDFDFDFFFE0E0E0FFE1E1
310
E1FFE2E2E2FFE3E3E3FFE4E4E4FFE5E5E5FFE6E6E6FFE7E7E7FFE8E8E8FFE9E9
310
E9FFEAEAEAFFEBEBEBFFECECECFFEDEDEDFFEEEEEEFFEFEFEFFFF0F0F0FFF1F1
310
F1FFF2F2F2FFF3F3F3FFF4F4F4FFF5F5F5FFF6F6F6FFF7F7F7FFF8F8F8FFF9F9
310
F9FFFAFAFAFFFBFBFBFFFCFCFCFFFDFDFDFFFEFEFEFFFFFFFFFFFFFFFFFFFFFF
310
C94E4E4E4F4E4EFFFFFFFFFFC94E4E4E4E4E72FFFFFFFFFFFFFF734E4D4E4E4E
310
C9FFFFFFFFFFAA683516171616265B9BE9FFFFFFFFFF4E4E4E4D4E4EFFFFFFFF
310
FFFFFFFF4E4E4F4E4D4E4E4E4F4E4E4F4D4E4E4E4E4E4D4E4F4E4D4E4E4EAAFF
310
FFFFFFFFFFEA4E4F4F4E4E4E4E4E4D4D4F4F4E4E4E4E4E5B7FAAFFFFFFFFFFFF
310
C9744E1716171616164D8DEAFFFFFFFF0000FFFFFFFFFFFFBA161617161716FF
310
FFFFFFFFB917171616174FFFFFFFFFFFFFFF4E1716161616B9FFFFFFB9341717
310
1716171617171616268CFFFFFFFF161617161617FFFFFFFFFFFFFFB917161717
310
1617167F807F7F7F7F7F7F807F7F807F7F807F7F7F414EFFFFFFFFFFFF8C167F
310
7F807F7F7F7E7F7F807F807F7F807F4E3417258EFFFFEA4E162674AABAEAEBBA
310
AA74341680FFFFFF0000FFFFFFFFFFFFB9171717171617FFFFFFFFFFBB161616
310
16164EFFFFFFFFFFFFFF4E1717171717B9FFFF9C171617171716161616171616
310
171766FFFFFF161717161617FFFFFFFFFFFFFF8E16171717161616FFFFFFFFFF
310
FFFFFFFFFFFFFFFFFFFFFFFFFFAA16D9FFFFFFFFFF3467FFFFFFFFEAFFFFFFFF
310
FFFFFFFFFFFFFFFFFFCA671667EB26278DFFFFFFFFFFFFFFFFFFFF8C2541EAFF
310
0000FFFFFFFFFFFFB9171717171716FFFFFFFFFFBA16171617174EFFFFFFFFFF
310
FFFF4E1717161616BAFF9B1617161616171716171617161616161667FFFF1616
310
16161716FFFFFFFFFFFFFF7F16161617174017FFFFFFFFFFFFFFFFFFFFFFFFFF
310
FFFFFFFFFFFF344E7F7F7F7E7417DAFFFFFFFF80FFFFFFFFFFFFFFFFFFFFFFFF
310
FFFFFF9B163425CAFFFFFFFFFFFFFFFFFFFFFFFFCA2667FF0000FFFFFFFFFFFF
310
BA171717171617FFFFFFFFFFB916171716164EFFFFFFFFFFFFFF4F1716161717
310
B9C91716171616161716161617171616161617168DFF161716161717FFFFFFFF
310
FFFFFF7F17171716164F16FFFFFFFFFFFFFFFFFFFFFFFFFFFFFFFFFFFFFF9B16
310
17161617174EFFFFFFFFFF34FFFFFFFFD9BABABABABADAFFFFFFFFFF7F16AAFF
310
FFFFFFFFFFFFFFFFFFFFFFFFFF9C16BA0000FFFFFFFFFFFFB9161717161717FF
310
FFFFFFFFB917161716174DFFFFFFFFFFFFFF4E1616161616BA4E161617171716
310
419BEAEAAA4E16161617161726E9171717161616FFFFFFFFFFFFFF4F16161717
310
164E16FFFFFFFFFFBAB9B9B9B9B9BABABACAFFFFFFFFFFFFFFFFFFFFFFFFFFFF
310
FFFFBA16FFFFFFFF7F1617161617174DEAFFFFFFEA41FFFFFFFFFFAA4D16174E
310
9BFFFFFFFFFF34730000FFFFFFFFFFFFB9161617171617FFFFFFFFFFBA161616
310
16164EFFFFFFFFFFFFFF4F16161717169B1617161716175BFFFFFFFFFFFF7417
310
16171616168D171717161617FFFFFFFFFFFFEA2616171717167416FFFFFFFFFF
310
16171616171717171717EAFFFFFFFFFFFFFFFFFFFFFFFFFFFFFF6716FFFFFFFF
310
7F4EFFFFFFFFBA2573FFFFFFFFBAFFFFFFFFAA167FB9BB9B269BFFFFFFFF664F
310
0000FFFFFFFFFFFFB9171616161616FFFFFFFFFFBA16161717164EFFFFFFFFFF
310
FFFF4E16161616174E161617171626EAFFFFFFFFFFFFFF4E16161616164E1716
310
16161617FFFFFFFFFFFF671616161716347F16FFFFFFFFFF16B9FFFFFFFFFFFF
310
D9168DFFFFFFFFFFFFFFFFFFFFFFFFFFFFEA1716FFFFFFFF7F4EFFFFFFFFFF7F
310
4EFFFFFFFFFFFFFFFFFF5B66FFFFFFEA347FFFFFFFFF7F4D0000FFFFFFFFFFFF
310
B9171616171617FFFFFFFFFFBA17161716174EFFFFFFFFFFFFFF4D1716161617
310
17161716161673FFFFFFFFFFFFFFFF9B1617161717161616171616174F4E4E4E
310
4E341616171616167E7F16FFFFFFFFFF16BAFFFFFFFFFFFFFF5B41FFFFFFFF34
310
1616171616BAFFFFFF9B1716FFFFFFFF7F4EFFFFFFFFFF4E4EFFFFFFFF734E4E
310
4E4E267EDA9B67164EEAFFFFFFFF744D0000FFFFFFFFFFFFBA171717161617FF
310
FFFFFFFFBA1616171616347F7F7F7F80807F331616161717161717161716B9FF
310
FFFFFFFFFFFFFFE9161616161616171716161716171616161616171616171734
310
EA7F16FFFFFFFFFF16BAFFFFFFFFFFFFFFAA17C9FFFFFF7326BABA5B25FFFFFF
310
FF401716FFFFFFFF7F264F4E4E4E4217AAFFFFFFEA16677F73261616164173CA
310
FFFFFFFFFFFF417F0000FFFFFFFFFFFFBA171616171617FFFFFFFFFFBA161616
310
17171616161616161616161717161616161616161617EAFFFFFFFFFFFFFFFFFF
310
261717161716161617161616161617161617161616174EEAFF8016FFFFFFFFFF
310
17BAFFFFFFFFFFFFFFFF3467FFFFFFC916C9FF3467FFFFFFDA166716FFFFFFFF
310
9C4D4E4E4E4E67AAFFFFFFFF6834FF7F262567AAEAFFFFFFFFFFFFFFFF9B17D9
310
0000FFFFFFFFFFFFB9161616161616FFFFFFFFFFBA1617161717171616161616
310
1716171716161716161617171716FFFFFFFFFFFFFFFFFFFF4E17161716171616
310
1617171616161716171717161616169BFF7F17FFFFFFFFFF17B9FFFFFFFFFFFF
310
FFFF7326FFFFFFFF3473DA16AAFFFFFF7317AA16FFFFFFFFFFFFFFFFFFFFFFFF
310
FFFFEA6725BA4E167FEAFFFFFFFFFFFFFFFFFFFF9C167FFF0000FFFFFFFFFFFF
310
B9161717171716FFFFFFFFFFBA16161716171616171717161617161716161616
310
171617171617EAFFFFFFFFFFFFFFFFFF26161717161616161616161617171616
310
1616161616171616AA8016FFFFFFFFFF16BAFFFFFFFFFFFFFFFFDA179BFFFFFF
310
74348D26FFFFFFFF2566B917FFFFFFFFD8BAB9BAB9BADAFFFFEA41169B7425C9
310
FFFFFFFFFFFFFFFFFFFFAB4F1680FFFF0000FFFFFFFFFFFFBA161717171617FF
310
FFFFFFFFBA17161717161617171617161616161617171616171716171617BBFF
310
FFFFFFFFFFFFFFE9171616161617161617161716FFFFFFFFFFD9671616161617
310
348017FFFFFFFFFF16BAFFFFFFFFFFFFFFFFFF4E5AFFFFFFC916265AFFFFFFAA
310
16AABA16FFFFFFFF7F1617161616179BFFFFEB4127168DFFFFFFFFFFFFFFD99B
310
6734175AC9FFFFFF0000FFFFFFFFFFFFB9161617171617FFFFFFFFFFBB161616
310
1616347F807F7F7F7F8033171716171617171616161672FFFFFFFFFFFFFFFF9C
310
171617171617161716161617FFFFFFFFFFFFFF4117161616174E17FFFFFFFFFF
310
16BAFFFFFFFFFFFFFFFFFF9B16DAFFFFFF34169BFFFFFF5A26FFB917FFFFFFFF
310
7F4EFFFFFFEA5B26FFFFFFEA2616EAFFFFFFFFDA743416331617414E4E4E4ECA
310
0000FFFFFFFFFFFFBA161716161616FFFFFFFFFFBA17171616164EFFFFFFFFFF
310
FFFF4E16161717174E161717171626EBFFFFFFFFFFFFFF4E16161617165B1616
310
16171617FFFFFFFFFFFFFF6716161616161617FFFFFFFFFF16BAFFFFFFFFFFFF
310
FFFFFFEA268CFFFFFF7316EAFFFFEB1774FFB916FFFFFFFF7F4EFFFFFFFF7316
310
FFFFFFFF6826FFFFFFFFEB264D9CEABA257F807F7F6616BA0000FFFFFFFFFFFF
310
BA161716161616FFFFFFFFFFBA16171616164DFFFFFFFFFFFFFF4E1617161617
310
9B1617171717165BEBFFFFFFFFFF671616161617179B171616161616FFFFFFFF
310
FFFFFF3417161617171617FFFFFFFFFF17BAFFFFFFFFFFFFFFFFFFFF6734FFFF
310
FFEBCAFFFFFF8D17C9FFBA17FFFFFFFF7F357F808066174FFFFFFFFF7F16FFFF
310
FFFFD91673B99B415BFFFFFFFFBA16DA00009B7F7F7F807F671617161616167F
310
80807F7E6617161616164EFFFFFFFFFFFFFF4E1616161617B94E171716161616
310
349BC9D9AA4E16171616161634FF161617161717B9B9BAB9BA9B411716171716
310
163416FFFFFFFFFF16B9FFFFFFFFFFFFFFFFFFFFC917CAFFFFFFFFFFFFFF3342
310
FFFFBA17FFFFFFFF9B4E4E4F4E4E66EAFFFFFFFF5B16C9FFFFFFFFAA4E164E73
310
EAFFFFFFFF8D26FF00004E161716161616171617171616171717171617161616
310
17174EFFFFFFFFFFFFFF4E1717171616B9D92616171716171716171717171716
310
16171716AAFF161717171617161617171616161617161716166717FFFFFFFFFF
310
17B9FFFFFFFFFFFFFFFFFFFFFF3467FFFFFFFFFFFFCA168CFFFFBB17FFFFFFFF
310
FFFFFFFFFFFFFFFFFFFFFFEA26265BFFFFFFFFFFFFFFFFFFFFFFFFFFEA3467FF
310
00004D16161616161617161717161617161616171617171616164EFFFFFFFFFF
310
FFFF4D1617161616BAFF9B1616161616161716161616171717161766FFFF1616
310
16171617161617161716171616171717667F16FFFFFFFFFF17BAFFFFFFFFFFFF
310
FFFFFFFFFF8C26EAFFFFFFFFFF6617EAFFFFBA17FFFFFFFFFFFFFFFFFFFFFFFF
310
FFFFEA5A25BA269BFFFFFFFFFFFFFFFFFFFFFFFF6616DAFF00004E1616171616
310
1616161616161716161617171616171616174EFFFFFFFFFFFFFF4D1717171716
310
B9FFFF9C161616161616161716161717171667FFFFFF17161717171716161617
310
1716161616161641E97E16FFFFFFFFFF16B9FFFFFFFFFFFFFFFFFFFFFFEA169B
310
FFFFFFFFEA265BFFFFFFB916FFFFFFFFFFFFFFFFFFFFFFFFFF9B3416AAFF9B17
310
67EAFFFFFFFFFFFFFFFFEA5B169BFFFF00004D17161716161616161717171616
310
161717161716171716174EFFFFFFFFFFFFFF4D1616161616BAFFFFFFBB411616
310
161716161616171634ABFFFFFFFF161716161617171716171617171617267FFF
310
FF7F164E4E4E4E4F17BAFFFFFFFFFFFFFFFFFFFFFFFF66344D4E4E4F4117AAFF
310
FFFFBA174E4E4E4D4E4D4D4E4E4E4E4116174EBBFFFFFFCA342666ABEAFFFFEA
310
AA6725269CFFFFFF0000724F4E4D4D4D4E4D4D4E4E4E4D4E4E4E4E4E4E4E4E4D
310
4E4E74FFFFFFFFFFFFFF734E4E4E4D4ECAFFFFFFFFFFAA663416171717265B9B
310
FFFFFFFFFFFF7F8080807F80807F7F7F7F7F807FBAFFFFFFFF9B4E4E4F4D4D4E
310
4DC9FFFFFFFFFFFFFFFFFFFFFFFFBA4E4E4E4E4D4E4EFFFFFFFFC94E4E4E4F4E
310
4E4E4D4E4E5A807F9CD9FFFFFFFFFFFFFF9B5B2617171716174E8DEAFFFFFFFF
310
0000000000000000000000000000000000000000000000000000000000000000
  1
OLE
  0
ENDSEC
  0
SECTION
  2
OBJECTS
  0
DICTIONARY
  5
C
330
0
100
AcDbDictionary
281
     1
  3
ACAD_GROUP
350
D
  3
ACAD_LAYOUT
350
1A
  3
ACAD_MLINESTYLE
350
17
  3
ACAD_PLOTSETTINGS
350
19
  3
ACAD_PLOTSTYLENAME
350
E
  3
ACAD_SCALELIST
350
47
  0
DICTIONARY
  5
D
102
{ACAD_REACTORS
330
C
102
}
330
C
100
AcDbDictionary
281
     1
  0
DICTIONARY
  5
1A
102
{ACAD_REACTORS
330
C
102
}
330
C
100
AcDbDictionary
281
     1
  3
Layout1
350
1E
  3
Layout2
350
26
  3
Model
350
22
  0
DICTIONARY
  5
17
102
{ACAD_REACTORS
330
C
102
}
330
C
100
AcDbDictionary
281
     1
  3
Standard
350
18
  0
DICTIONARY
  5
19
102
{ACAD_REACTORS
330
C
102
}
330
C
100
AcDbDictionary
281
     1
  0
ACDBDICTIONARYWDFLT
  5
E
102
{ACAD_REACTORS
330
C
102
}
330
C
100
AcDbDictionary
281
     1
  3
Normal
350
F
100
AcDbDictionaryWithDefault
340
F
  0
DICTIONARY
  5
47
102
{ACAD_REACTORS
330
C
102
}
330
C
100
AcDbDictionary
281
     1
  3
A0
350
48
  3
A1
350
49
  3
A2
350
4A
  3
A3
350
4B
  3
A4
350
4C
  3
A5
350
4D
  3
A6
350
4E
  3
A7
350
4F
  3
A8
350
50
  3
A9
350
51
  3
B0
350
52
  3
B1
350
53
  3
B2
350
54
  3
B3
350
55
  3
B4
350
56
  3
B5
350
57
  3
B6
350
58
  3
B7
350
59
  3
B8
350
5A
  3
B9
350
5B
  3
C0
350
5C
  3
C1
350
5D
  3
C2
350
5E
  3
C3
350
5F
  3
C4
350
60
  3
C5
350
61
  3
C6
350
62
  3
C7
350
63
  3
C8
350
64
  3
C9
350
65
  3
D0
350
66
  3
D1
350
67
  3
D2
350
68
  0
LAYOUT
  5
1E
102
{ACAD_REACTORS
330
1A
102
}
330
1A
100
AcDbPlotSettings
  1

  2
none_device
  4

  6

 40
0.0
 41
0.0
 42
0.0
 43
0.0
 44
0.0
 45
0.0
 46
0.0
 47
0.0
 48
0.0
 49
0.0
140
0.0
141
0.0
142
1.0
143
1.0
 70
   688
 72
     1
 73
     0
 74
     5
  7

 75
    16
147
1.0
148
0.0
149
0.0
100
AcDbLayout
  1
Layout1
 70
     1
 71
     1
 10
0.0
 20
0.0
 11
420.0
 21
297.0
 12
0.0
 22
0.0
 32
0.0
 14
1.0000000000E+20
 24
1.0000000000E+20
 34
1.0000000000E+20
 15
-1.0000000000E+20
 25
-1.0000000000E+20
 35
-1.0000000000E+20
146
0.0
 13
0.0
 23
0.0
 33
0.0
 16
1.0
 26
0.0
 36
0.0
 17
0.0
 27
1.0
 37
0.0
 76
     0
330
1B
  0
LAYOUT
  5
26
102
{ACAD_REACTORS
330
1A
102
}
330
1A
100
AcDbPlotSettings
  1

  2
none_device
  4

  6

 40
0.0
 41
0.0
 42
0.0
 43
0.0
 44
0.0
 45
0.0
 46
0.0
 47
0.0
 48
0.0
 49
0.0
140
0.0
141
0.0
142
1.0
143
1.0
 70
   688
 72
     1
 73
     0
 74
     5
  7

 75
    16
147
1.0
148
0.0
149
0.0
100
AcDbLayout
  1
Layout2
 70
     1
 71
     2
 10
0.0
 20
0.0
 11
0.0
 21
0.0
 12
0.0
 22
0.0
 32
0.0
 14
0.0
 24
0.0
 34
0.0
 15
0.0
 25
0.0
 35
0.0
146
0.0
 13
0.0
 23
0.0
 33
0.0
 16
1.0
 26
0.0
 36
0.0
 17
0.0
 27
1.0
 37
0.0
 76
     0
330
23
  0
LAYOUT
  5
22
102
{ACAD_REACTORS
330
1A
102
}
330
1A
100
AcDbPlotSettings
  1

  2
none_device
  4
Letter_(8.50_x_11.00_Inches)
  6

 40
6.35
 41
6.35
 42
6.35000508
 43
6.35000508
 44
215.9
 45
279.4
 46
0.0
 47
0.0
 48
0.0
 49
0.0
140
0.0
141
0.0
142
1.0
143
1.0
 70
  1712
 72
     1
 73
     0
 74
     0
  7

 75
     0
147
1.0
148
0.0
149
0.0
100
AcDbLayout
  1
Model
 70
     1
 71
     0
 10
0.0
 20
0.0
 11
279.4
 21
215.9
 12
0.0
 22
0.0
 32
0.0
 14
0.0
 24
0.0
 34
0.0
 15
279.4
 25
215.9
 35
0.0
146
0.0
 13
0.0
 23
0.0
 33
0.0
 16
1.0
 26
0.0
 36
0.0
 17
0.0
 27
1.0
 37
0.0
 76
     0
330
1F
331
29
  0
MLINESTYLE
  5
18
102
{ACAD_REACTORS
330
17
102
}
330
17
100
AcDbMlineStyle
  2
Standard
 70
     0
  3

 62
   256
 51
90.0
 52
90.0
 71
     2
 49
0.5
 62
   256
  6
BYLAYER
 49
-0.5
 62
   256
  6
BYLAYER
  0
ACDBPLACEHOLDER
  5
F
102
{ACAD_REACTORS
330
E
102
}
330
E
  0
SCALE
  5
48
102
{ACAD_REACTORS
330
47
102
}
330
47
100
AcDbScale
 70
     0
300
1:1
140
1.0
141
1.0
290
     1
  0
SCALE
  5
49
102
{ACAD_REACTORS
330
47
102
}
330
47
100
AcDbScale
 70
     0
300
1:2
140
1.0
141
2.0
290
     0
  0
SCALE
  5
4A
102
{ACAD_REACTORS
330
47
102
}
330
47
100
AcDbScale
 70
     0
300
1:4
140
1.0
141
4.0
290
     0
  0
SCALE
  5
4B
102
{ACAD_REACTORS
330
47
102
}
330
47
100
AcDbScale
 70
     0
300
1:5
140
1.0
141
5.0
290
     0
  0
SCALE
  5
4C
102
{ACAD_REACTORS
330
47
102
}
330
47
100
AcDbScale
 70
     0
300
1:8
140
1.0
141
8.0
290
     0
  0
SCALE
  5
4D
102
{ACAD_REACTORS
330
47
102
}
330
47
100
AcDbScale
 70
     0
300
1:10
140
1.0
141
10.0
290
     0
  0
SCALE
  5
4E
102
{ACAD_REACTORS
330
47
102
}
330
47
100
AcDbScale
 70
     0
300
1:16
140
1.0
141
16.0
290
     0
  0
SCALE
  5
4F
102
{ACAD_REACTORS
330
47
102
}
330
47
100
AcDbScale
 70
     0
300
1:20
140
1.0
141
20.0
290
     0
  0
SCALE
  5
50
102
{ACAD_REACTORS
330
47
102
}
330
47
100
AcDbScale
 70
     0
300
1:30
140
1.0
141
30.0
290
     0
  0
SCALE
  5
51
102
{ACAD_REACTORS
330
47
102
}
330
47
100
AcDbScale
 70
     0
300
1:40
140
1.0
141
40.0
290
     0
  0
SCALE
  5
52
102
{ACAD_REACTORS
330
47
102
}
330
47
100
AcDbScale
 70
     0
300
1:50
140
1.0
141
50.0
290
     0
  0
SCALE
  5
53
102
{ACAD_REACTORS
330
47
102
}
330
47
100
AcDbScale
 70
     0
300
1:100
140
1.0
141
100.0
290
     0
  0
SCALE
  5
54
102
{ACAD_REACTORS
330
47
102
}
330
47
100
AcDbScale
 70
     0
300
2:1
140
2.0
141
1.0
290
     0
  0
SCALE
  5
55
102
{ACAD_REACTORS
330
47
102
}
330
47
100
AcDbScale
 70
     0
300
4:1
140
4.0
141
1.0
290
     0
  0
SCALE
  5
56
102
{ACAD_REACTORS
330
47
102
}
330
47
100
AcDbScale
 70
     0
300
8:1
140
8.0
141
1.0
290
     0
  0
SCALE
  5
57
102
{ACAD_REACTORS
330
47
102
}
330
47
100
AcDbScale
 70
     0
300
10:1
140
10.0
141
1.0
290
     0
  0
SCALE
  5
58
102
{ACAD_REACTORS
330
47
102
}
330
47
100
AcDbScale
 70
     0
300
100:1
140
100.0
141
1.0
290
     0
  0
SCALE
  5
59
102
{ACAD_REACTORS
330
47
102
}
330
47
100
AcDbScale
 70
     0
300
1/128" = 1'-0"
140
0.0078125
141
12.0
290
     0
  0
SCALE
  5
5A
102
{ACAD_REACTORS
330
47
102
}
330
47
100
AcDbScale
 70
     0
300
1/64" = 1'-0"
140
0.015625
141
12.0
290
     0
  0
SCALE
  5
5B
102
{ACAD_REACTORS
330
47
102
}
330
47
100
AcDbScale
 70
     0
300
1/32" = 1'-0"
140
0.03125
141
12.0
290
     0
  0
SCALE
  5
5C
102
{ACAD_REACTORS
330
47
102
}
330
47
100
AcDbScale
 70
     0
300
1/16" = 1'-0"
140
0.0625
141
12.0
290
     0
  0
SCALE
  5
5D
102
{ACAD_REACTORS
330
47
102
}
330
47
100
AcDbScale
 70
     0
300
3/32" = 1'-0"
140
0.09375
141
12.0
290
     0
  0
SCALE
  5
5E
102
{ACAD_REACTORS
330
47
102
}
330
47
100
AcDbScale
 70
     0
300
1/8" = 1'-0"
140
0.125
141
12.0
290
     0
  0
SCALE
  5
5F
102
{ACAD_REACTORS
330
47
102
}
330
47
100
AcDbScale
 70
     0
300
3/16" = 1'-0"
140
0.1875
141
12.0
290
     0
  0
SCALE
  5
60
102
{ACAD_REACTORS
330
47
102
}
330
47
100
AcDbScale
 70
     0
300
1/4" = 1'-0"
140
0.25
141
12.0
290
     0
  0
SCALE
  5
61
102
{ACAD_REACTORS
330
47
102
}
330
47
100
AcDbScale
 70
     0
300
3/8" = 1'-0"
140
0.375
141
12.0
290
     0
  0
SCALE
  5
62
102
{ACAD_REACTORS
330
47
102
}
330
47
100
AcDbScale
 70
     0
300
1/2" = 1'-0"
140
0.5
141
12.0
290
     0
  0
SCALE
  5
63
102
{ACAD_REACTORS
330
47
102
}
330
47
100
AcDbScale
 70
     0
300
3/4" = 1'-0"
140
0.75
141
12.0
290
     0
  0
SCALE
  5
64
102
{ACAD_REACTORS
330
47
102
}
330
47
100
AcDbScale
 70
     0
300
1" = 1'-0"
140
1.0
141
12.0
290
     0
  0
SCALE
  5
65
102
{ACAD_REACTORS
330
47
102
}
330
47
100
AcDbScale
 70
     0
300
1-1/2" = 1'-0"
140
1.5
141
12.0
290
     0
  0
SCALE
  5
66
102
{ACAD_REACTORS
330
47
102
}
330
47
100
AcDbScale
 70
     0
300
3" = 1'-0"
140
3.0
141
12.0
290
     0
  0
SCALE
  5
67
102
{ACAD_REACTORS
330
47
102
}
330
47
100
AcDbScale
 70
     0
300
6" = 1'-0"
140
6.0
141
12.0
290
     0
  0
SCALE
  5
68
102
{ACAD_REACTORS
330
47
102
}
330
47
100
AcDbScale
 70
     0
300
1'-0" = 1'-0"
140
12.0
141
12.0
290
     0
  0
ENDSEC
  0
EOF
