  0
SECTION
  2
HEADER
  9
$ACADVER
  1
AC1015
  9
$ACADMAINTVER
 70
     6
  9
$DWGCODEPAGE
  3
ANSI_1252
  9
$INSBASE
 10
0.0
 20
0.0
 30
0.0
  9
$EXTMIN
 10
0.0
 20
0.0
 30
0.0
  9
$EXTMAX
 10
93.1333333333
 20
71.9666666667
 30
0.0
  9
$LIMMIN
 10
0.0
 20
0.0
  9
$LIMMAX
 10
93.1333333333
 20
71.9666666667
  9
$ORTHOMODE
 70
     0
  9
$REGENMODE
 70
     1
  9
$FILLMODE
 70
     1
  9
$QTEXTMODE
 70
     0
  9
$MIRRTEXT
 70
     1
  9
$LTSCALE
 40
0.3333333333
  9
$ATTMODE
 70
     1
  9
$TEXTSIZE
 40
0.9407407407
  9
$TRACEWID
 40
1.0
  9
$TEXTSTYLE
  7
Standard
  9
$CLAYER
  8
0
  9
$CELTYPE
  6
ByLayer
  9
$CECOLOR
 62
   256
  9
$CELTSCALE
 40
1.0
  9
$DISPSILH
 70
     0
  9
$DIMSCALE
 40
1.0
  9
$DIMASZ
 40
1.0583333333
  9
$DIMEXO
 40
0.4233333333
  9
$DIMDLI
 40
3.75
  9
$DIMRND
 40
0.0
  9
$DIMDLE
 40
0.0
  9
$DIMEXE
 40
0.5926666667
  9
$DIMTP
 40
0.0
  9
$DIMTM
 40
0.0
  9
$DIMTXT
 40
0.9407407407
  9
$DIMCEN
 40
2.5
  9
$DIMTSZ
 40
0.0
  9
$DIMTOL
 70
     0
  9
$DIMLIM
 70
     0
  9
$DIMTIH
 70
     1
  9
$DIMTOH
 70
     1
  9
$DIMSE1
 70
     0
  9
$DIMSE2
 70
     0
  9
$DIMTAD
 70
     0
  9
$DIMZIN
 70
     1
  9
$DIMBLK
  1

  9
$DIMASO
 70
     1
  9
$DIMSHO
 70
     1
  9
$DIMPOST
  1

  9
$DIMAPOST
  1

  9
$DIMALT
 70
     0
  9
$DIMALTD
 70
     3
  9
$DIMALTF
 40
0.0393700787
  9
$DIMLFAC
 40
1.0
  9
$DIMTOFL
 70
     1
  9
$DIMTVP
 40
0.0
  9
$DIMTIX
 70
     0
  9
$DIMSOXD
 70
     0
  9
$DIMSAH
 70
     0
  9
$DIMBLK1
  1

  9
$DIMBLK2
  1

  9
$DIMSTYLE
  2
ISO-25
  9
$DIMCLRD
 70
     0
  9
$DIMCLRE
 70
     0
  9
$DIMCLRT
 70
     0
  9
$DIMTFAC
 40
1.0
  9
$DIMGAP
 40
0.8466666667
  9
$DIMJUST
 70
     0
  9
$DIMSD1
 70
     0
  9
$DIMSD2
 70
     0
  9
$DIMTOLJ
 70
     0
  9
$DIMTZIN
 70
     1
  9
$DIMALTZ
 70
     0
  9
$DIMALTTZ
 70
     0
  9
$DIMUPT
 70
     0
  9
$DIMDEC
 70
     1
  9
$DIMTDEC
 70
     1
  9
$DIMALTU
 70
     2
  9
$DIMALTTD
 70
     3
  9
$DIMTXSTY
  7
Standard
  9
$DIMAUNIT
 70
     0
  9
$DIMADEC
 70
     1
  9
$DIMALTRND
 40
0.0
  9
$DIMAZIN
 70
     0
  9
$DIMDSEP
 70
    44
  9
$DIMATFIT
 70
     3
  9
$DIMFRAC
 70
     0
  9
$DIMLDRBLK
  1

  9
$DIMLUNIT
 70
     2
  9
$DIMLWD
 70
    -2
  9
$DIMLWE
 70
    -2
  9
$DIMTMOVE
 70
     0
  9
$LUNITS
 70
     2
  9
$LUPREC
 70
     1
  9
$SKETCHINC
 40
1.0
  9
$FILLETRAD
 40
10.0
  9
$AUNITS
 70
     0
  9
$AUPREC
 70
     0
  9
$MENU
  1
.
  9
$ELEVATION
 40
0.0
  9
$PELEVATION
 40
0.0
  9
$THICKNESS
 40
0.0
  9
$LIMCHECK
 70
     0
  9
$CHAMFERA
 40
0.0
  9
$CHAMFERB
 40
0.0
  9
$CHAMFERC
 40
0.0
  9
$CHAMFERD
 40
0.0
  9
$SKPOLY
 70
     0
  9
$TDCREATE
 40
2459741.727052789
  9
$TDUCREATE
 40
2459741.893719456
  9
$TDUPDATE
 40
2459741.727055486
  9
$TDUUPDATE
 40
2459741.893722153
  9
$TDINDWG
 40
0.0000000116
  9
$TDUSRTIMER
 40
0.0000000116
  9
$USRTIMER
 70
     1
  9
$ANGBASE
 50
0.0
  9
$ANGDIR
 70
     0
  9
$PDMODE
 70
     0
  9
$PDSIZE
 40
-1.0
  9
$PLINEWID
 40
0.0
  9
$SPLFRAME
 70
     0
  9
$SPLINETYPE
 70
     6
  9
$SPLINESEGS
 70
     8
  9
$HANDSEED
  5
499
  9
$SURFTAB1
 70
     6
  9
$SURFTAB2
 70
     6
  9
$SURFTYPE
 70
     6
  9
$SURFU
 70
     6
  9
$SURFV
 70
     6
  9
$UCSBASE
  2

  9
$UCSNAME
  2

  9
$UCSORG
 10
0.0
 20
0.0
 30
0.0
  9
$UCSXDIR
 10
1.0
 20
0.0
 30
0.0
  9
$UCSYDIR
 10
0.0
 20
1.0
 30
0.0
  9
$UCSORTHOREF
  2

  9
$UCSORTHOVIEW
 70
     0
  9
$UCSORGTOP
 10
0.0
 20
0.0
 30
0.0
  9
$UCSORGBOTTOM
 10
0.0
 20
0.0
 30
0.0
  9
$UCSORGLEFT
 10
0.0
 20
0.0
 30
0.0
  9
$UCSORGRIGHT
 10
0.0
 20
0.0
 30
0.0
  9
$UCSORGFRONT
 10
0.0
 20
0.0
 30
0.0
  9
$UCSORGBACK
 10
0.0
 20
0.0
 30
0.0
  9
$PUCSBASE
  2

  9
$PUCSNAME
  2

  9
$PUCSORG
 10
0.0
 20
0.0
 30
0.0
  9
$PUCSXDIR
 10
1.0
 20
0.0
 30
0.0
  9
$PUCSYDIR
 10
0.0
 20
1.0
 30
0.0
  9
$PUCSORTHOREF
  2

  9
$PUCSORTHOVIEW
 70
     0
  9
$PUCSORGTOP
 10
0.0
 20
0.0
 30
0.0
  9
$PUCSORGBOTTOM
 10
0.0
 20
0.0
 30
0.0
  9
$PUCSORGLEFT
 10
0.0
 20
0.0
 30
0.0
  9
$PUCSORGRIGHT
 10
0.0
 20
0.0
 30
0.0
  9
$PUCSORGFRONT
 10
0.0
 20
0.0
 30
0.0
  9
$PUCSORGBACK
 10
0.0
 20
0.0
 30
0.0
  9
$USERI1
 70
     0
  9
$USERI2
 70
     0
  9
$USERI3
 70
     0
  9
$USERI4
 70
     0
  9
$USERI5
 70
     0
  9
$USERR1
 40
0.0
  9
$USERR2
 40
0.0
  9
$USERR3
 40
0.0
  9
$USERR4
 40
0.0
  9
$USERR5
 40
0.0
  9
$WORLDVIEW
 70
     1
  9
$SHADEDGE
 70
     3
  9
$SHADEDIF
 70
    70
  9
$TILEMODE
 70
     1
  9
$MAXACTVP
 70
    64
  9
$PINSBASE
 10
0.0
 20
0.0
 30
0.0
  9
$PLIMCHECK
 70
     0
  9
$PEXTMIN
 10
1.0000000000E+20
 20
1.0000000000E+20
 30
1.0000000000E+20
  9
$PEXTMAX
 10
-1.0000000000E+20
 20
-1.0000000000E+20
 30
-1.0000000000E+20
  9
$PLIMMIN
 10
0.0
 20
0.0
  9
$PLIMMAX
 10
420.0
 20
297.0
  9
$UNITMODE
 70
     0
  9
$VISRETAIN
 70
     1
  9
$PLINEGEN
 70
     0
  9
$PSLTSCALE
 70
     1
  9
$TREEDEPTH
 70
  3020
  9
$CMLSTYLE
  2
Standard
  9
$CMLJUST
 70
     0
  9
$CMLSCALE
 40
20.0
  9
$PROXYGRAPHICS
 70
     1
  9
$MEASUREMENT
 70
     1
  9
$CELWEIGHT
370
    -1
  9
$ENDCAPS
280
     0
  9
$JOINSTYLE
280
     0
  9
$LWDISPLAY
290
     1
  9
$INSUNITS
 70
     4
  9
$HYPERLINKBASE
  1

  9
$STYLESHEET
  1

  9
$XEDIT
290
     1
  9
$CEPSNTYPE
380
     0
  9
$PSTYLEMODE
290
     1
  9
$FINGERPRINTGUID
  2
{884B3C84-D87F-495E-97CB-93B774F17068}
  9
$VERSIONGUID
  2
{FAEB1C32-E019-11D5-929B-00C0DF256EC4}
  9
$EXTNAMES
290
     1
  9
$PSVPSCALE
 40
0.0
  9
$OLESTARTUP
290
     0
  0
ENDSEC
  0
SECTION
  2
CLASSES
  0
CLASS
  1
ACDBDICTIONARYWDFLT
  2
AcDbDictionaryWithDefault
  3
ObjectDBX Classes
 90
        0
280
     0
281
     0
  0
CLASS
  1
VISUALSTYLE
  2
AcDbVisualStyle
  3
ObjectDBX Classes
 90
     4095
280
     0
281
     0
  0
CLASS
  1
MATERIAL
  2
AcDbMaterial
  3
ObjectDBX Classes
 90
     1153
280
     0
281
     0
  0
CLASS
  1
SCALE
  2
AcDbScale
  3
ObjectDBX Classes
 90
     1153
280
     0
281
     0
  0
CLASS
  1
TABLESTYLE
  2
AcDbTableStyle
  3
ObjectDBX Classes
 90
     4095
280
     0
281
     0
  0
CLASS
  1
MLEADERSTYLE
  2
AcDbMLeaderStyle
  3
ACDB_MLEADERSTYLE_CLASS
 90
     4095
280
     0
281
     0
  0
CLASS
  1
SUN
  2
AcDbSun
  3
SCENEOE
 90
     1153
280
     0
281
     0
  0
CLASS
  1
ACDBPLACEHOLDER
  2
AcDbPlaceHolder
  3
ObjectDBX Classes
 90
        0
280
     0
281
     0
  0
CLASS
  1
LAYOUT
  2
AcDbLayout
  3
ObjectDBX Classes
 90
        0
280
     0
281
     0
  0
ENDSEC
  0
SECTION
  2
TABLES
  0
TABLE
  2
VPORT
  5
8
330
0
100
AcDbSymbolTable
 70
     1
  0
VPORT
  5
29
330
8
100
AcDbSymbolTableRecord
100
AcDbViewportTableRecord
  2
*Active
 70
     0
 10
0.0
 20
0.0
 11
1.0
 21
1.0
 12
46.5666666667
 22
35.9833333333
 13
0.0
 23
0.0
 14
10.0
 24
10.0
 15
10.0
 25
10.0
 16
0.0
 26
0.0
 36
1.0
 17
0.0
 27
0.0
 37
0.0
 40
71.9666666667
 41
1.2941176471
 42
50.0
 43
0.0
 44
0.0
 50
0.0
 51
0.0
 71
     0
 72
  2000
 73
     1
 74
     3
 75
     0
 76
     0
 77
     0
 78
     0
281
     0
 65
     1
110
0.0
120
0.0
130
0.0
111
1.0
121
0.0
131
0.0
112
0.0
122
1.0
132
0.0
 79
     0
146
0.0
  0
ENDTAB
  0
TABLE
  2
LTYPE
  5
5
330
0
100
AcDbSymbolTable
 70
     6
  0
LTYPE
  5
14
330
5
100
AcDbSymbolTableRecord
100
AcDbLinetypeTableRecord
  2
ByBlock
 70
     0
  3

 72
    65
 73
     0
 40
0.0
  0
LTYPE
  5
15
330
5
100
AcDbSymbolTableRecord
100
AcDbLinetypeTableRecord
  2
ByLayer
 70
     0
  3

 72
    65
 73
     0
 40
0.0
  0
LTYPE
  5
16
330
5
100
AcDbSymbolTableRecord
100
AcDbLinetypeTableRecord
  2
Continuous
 70
     0
  3
Solid line
 72
    65
 73
     0
 40
0.0
  0
LTYPE
  5
6E
330
5
100
AcDbSymbolTableRecord
100
AcDbLinetypeTableRecord
  2
HIDDEN
 70
     0
  3
Hidden __ __ __ __ __ __ __ __ __ __ __ __ __ __
 72
    65
 73
     2
 40
1.905
 49
1.27
 74
     0
 49
-0.635
 74
     0
  0
LTYPE
  5
6F
330
5
100
AcDbSymbolTableRecord
100
AcDbLinetypeTableRecord
  2
PHANTOM
 70
     0
  3
Phantom ______  __  __  ______  __  __  ______
 72
    65
 73
     6
 40
12.7
 49
6.35
 74
     0
 49
-1.27
 74
     0
 49
1.27
 74
     0
 49
-1.27
 74
     0
 49
1.27
 74
     0
 49
-1.27
 74
     0
  0
LTYPE
  5
70
330
5
100
AcDbSymbolTableRecord
100
AcDbLinetypeTableRecord
  2
CENTER
 70
     0
  3
Center ____ _ ____ _ ____ _ ____ _ ____ _ ____
 72
    65
 73
     4
 40
10.16
 49
6.35
 74
     0
 49
-1.27
 74
     0
 49
1.27
 74
     0
 49
-1.27
 74
     0
  0
LTYPE
  5
71
330
5
100
AcDbSymbolTableRecord
100
AcDbLinetypeTableRecord
  2
CENTERX2
 70
     0
  3
Center (2x) ________  __  ________  __  _____
 72
    65
 73
     4
 40
20.32
 49
12.7
 74
     0
 49
-2.54
 74
     0
 49
2.54
 74
     0
 49
-2.54
 74
     0
  0
LTYPE
  5
72
330
5
100
AcDbSymbolTableRecord
100
AcDbLinetypeTableRecord
  2
DOT2
 70
     0
  3
Dot (.5x) ........................................
 72
    65
 73
     2
 40
0.635
 49
0.0
 74
     0
 49
-0.635
 74
     0
  0
ENDTAB
  0
TABLE
  2
LAYER
  5
2
330
0
100
AcDbSymbolTable
 70
     2
  0
LAYER
  5
10
330
2
100
AcDbSymbolTableRecord
100
AcDbLayerTableRecord
  2
0
 70
     0
 62
     7
  6
Continuous
370
    -3
390
F
  0
LAYER
  5
73
330
2
100
AcDbSymbolTableRecord
100
AcDbLayerTableRecord
  2
FORMAT
 70
     0
 62
     7
  6
Continuous
370
    -3
390
F
  0
ENDTAB
  0
TABLE
  2
STYLE
  5
3
330
0
100
AcDbSymbolTable
 70
     6
  0
STYLE
  5
11
330
3
100
AcDbSymbolTableRecord
100
AcDbTextStyleTableRecord
  2
Standard
 70
     0
 40
0.0
 41
1.0
 50
0.0
 71
     0
 42
0.9407407407
  3
txt
  4

  0
STYLE
  5
9D
330
3
100
AcDbSymbolTableRecord
100
AcDbTextStyleTableRecord
  2
SLDTEXTSTYLE0
 70
     0
 40
0.0
 41
0.75
 50
0.0
 71
     0
 42
0.9407407407
  3
TXT
  4

  0
STYLE
  5
AA
330
3
100
AcDbSymbolTableRecord
100
AcDbTextStyleTableRecord
  2
SLDTEXTSTYLE1
 70
     0
 40
0.0
 41
0.75
 50
0.0
 71
     0
 42
0.9407407407
  3
TXT
  4
bigfont
  0
STYLE
  5
AC
330
3
100
AcDbSymbolTableRecord
100
AcDbTextStyleTableRecord
  2
SLDTEXTSTYLE2
 70
     0
 40
0.0
 41
0.7
 50
0.0
 71
     0
 42
0.9407407407
  3
TXT
  4

  0
STYLE
  5
C3
330
3
100
AcDbSymbolTableRecord
100
AcDbTextStyleTableRecord
  2
SLDTEXTSTYLE3
 70
     0
 40
0.0
 41
0.6
 50
0.0
 71
     0
 42
0.9407407407
  3
TXT
  4

  0
STYLE
  5
E0
330
3
100
AcDbSymbolTableRecord
100
AcDbTextStyleTableRecord
  2
SLDTEXTSTYLE4
 70
     0
 40
0.0
 41
0.6964285714
 50
0.0
 71
     0
 42
0.9407407407
  3
TXT
  4

  0
ENDTAB
  0
TABLE
  2
VIEW
  5
6
330
0
100
AcDbSymbolTable
 70
     0
  0
ENDTAB
  0
TABLE
  2
UCS
  5
7
330
0
100
AcDbSymbolTable
 70
     0
  0
ENDTAB
  0
TABLE
  2
APPID
  5
9
330
0
100
AcDbSymbolTable
 70
     1
  0
APPID
  5
12
330
9
100
AcDbSymbolTableRecord
100
AcDbRegAppTableRecord
  2
ACAD
 70
     0
  0
ENDTAB
  0
TABLE
  2
DIMSTYLE
  5
A
330
0
100
AcDbSymbolTable
 70
     6
100
AcDbDimStyleTable
  0
DIMSTYLE
105
27
330
A
100
AcDbSymbolTableRecord
100
AcDbDimStyleTableRecord
  2
ISO-25
 70
     0
 41
2.5
 42
0.625
 43
3.75
 44
1.25
 73
     0
 74
     0
 77
     1
 78
     8
140
2.5
141
2.5
143
0.0393700787
147
0.625
171
     3
172
     1
178
     0
271
     2
272
     2
274
     3
278
    44
283
     0
284
     8
340
11
  0
DIMSTYLE
105
10E
102
{ACAD_REACTORS
330
10D
102
}
330
A
100
AcDbSymbolTableRecord
100
AcDbDimStyleTableRecord
  2
SLDDIMSTYLE0
 70
     0
 41
1.0583333333
 44
0.0
 45
0.000000001
 78
    12
 79
     3
140
0.7055555556
141
0.0
143
0.0393700787
147
0.1763888889
148
0.000000001
170
     1
173
     1
178
     0
271
     1
272
     1
276
     2
284
    12
340
9D
  0
DIMSTYLE
105
193
102
{ACAD_REACTORS
330
192
330
1A7
102
}
330
A
100
AcDbSymbolTableRecord
100
AcDbDimStyleTableRecord
  2
SLDDIMSTYLE1
 70
     0
 41
1.0583333333
 44
0.0
 45
0.000000001
 78
    12
 79
     3
140
0.7055555556
143
0.0393700787
147
0.1763888889
148
0.000000001
170
     1
173
     1
178
     0
271
     1
272
     1
276
     2
284
    12
340
9D
  0
DIMSTYLE
105
1BB
102
{ACAD_REACTORS
330
1BA
102
}
330
A
100
AcDbSymbolTableRecord
100
AcDbDimStyleTableRecord
  2
SLDDIMSTYLE2
 70
     0
 41
1.0583333333
 44
0.0
 45
0.000000001
 78
     4
 79
     1
140
0.7055555556
143
0.0393700787
147
0.1763888889
148
0.000000001
170
     1
172
     1
173
     1
178
     0
271
     1
272
     1
276
     2
284
    12
289
     0
340
9D
  0
DIMSTYLE
105
1D5
330
A
100
AcDbSymbolTableRecord
100
AcDbDimStyleTableRecord
  2
SLDDIMSTYLE3
 70
     0
 41
1.0583333333
 44
0.0
 45
0.000000001
146
1.0583333333
147
0.0
173
     1
178
     0
271
     0
272
     0
276
     2
340
11
  0
DIMSTYLE
105
475
102
{ACAD_REACTORS
330
474
102
}
330
A
100
AcDbSymbolTableRecord
100
AcDbDimStyleTableRecord
  2
SLDDIMSTYLE4
 70
     0
 41
1.0583333333
 44
0.0
 45
0.000000001
 78
    12
 79
     3
140
0.7055555556
143
0.0393700787
144
4.5
147
0.1763888889
148
0.000000001
170
     1
173
     1
178
     0
271
     1
272
     1
276
     2
284
    12
340
9D
  0
ENDTAB
  0
TABLE
  2
BLOCK_RECORD
  5
1
330
0
100
AcDbSymbolTable
 70
    21
  0
BLOCK_RECORD
  5
1F
330
1
100
AcDbSymbolTableRecord
100
AcDbBlockTableRecord
  2
*Model_Space
340
22
  0
BLOCK_RECORD
  5
1B
330
1
100
AcDbSymbolTableRecord
100
AcDbBlockTableRecord
  2
*Paper_Space
340
1E
  0
BLOCK_RECORD
  5
23
330
1
100
AcDbSymbolTableRecord
100
AcDbBlockTableRecord
  2
*Paper_Space0
340
26
  0
BLOCK_RECORD
  5
74
330
1
100
AcDbSymbolTableRecord
100
AcDbBlockTableRecord
  2
Third Angle Projection Block
340
0
102
{BLKREFS
331
99
102
}
  0
BLOCK_RECORD
  5
9A
330
1
100
AcDbSymbolTableRecord
100
AcDbBlockTableRecord
  2
SW_NOTE_0
340
0
102
{BLKREFS
331
B7
102
}
  0
BLOCK_RECORD
  5
C9
330
1
100
AcDbSymbolTableRecord
100
AcDbBlockTableRecord
  2
SW_NOTE_1
340
0
102
{BLKREFS
331
CE
102
}
  0
BLOCK_RECORD
  5
CF
330
1
100
AcDbSymbolTableRecord
100
AcDbBlockTableRecord
  2
SW_NOTE_2
340
0
102
{BLKREFS
331
D4
102
}
  0
BLOCK_RECORD
  5
D6
330
1
100
AcDbSymbolTableRecord
100
AcDbBlockTableRecord
  2
SW_NOTE_3
340
0
102
{BLKREFS
331
DB
102
}
  0
BLOCK_RECORD
  5
DC
330
1
100
AcDbSymbolTableRecord
100
AcDbBlockTableRecord
  2
SW_NOTE_4
340
0
102
{BLKREFS
331
E2
102
}
  0
BLOCK_RECORD
  5
E4
330
1
100
AcDbSymbolTableRecord
100
AcDbBlockTableRecord
  2
SW_TABLEANNOTATION_0
340
0
102
{BLKREFS
331
109
102
}
  0
BLOCK_RECORD
  5
10F
330
1
100
AcDbSymbolTableRecord
100
AcDbBlockTableRecord
  2
_D
340
0
  0
BLOCK_RECORD
  5
194
330
1
100
AcDbSymbolTableRecord
100
AcDbBlockTableRecord
  2
_D_1
340
0
  0
BLOCK_RECORD
  5
1A8
330
1
100
AcDbSymbolTableRecord
100
AcDbBlockTableRecord
  2
_D_2
340
0
  0
BLOCK_RECORD
  5
1BC
330
1
100
AcDbSymbolTableRecord
100
AcDbBlockTableRecord
  2
_D_3
340
0
  0
BLOCK_RECORD
  5
1CF
330
1
100
AcDbSymbolTableRecord
100
AcDbBlockTableRecord
  2
SW_NOTE_5
340
0
102
{BLKREFS
331
1D4
102
}
  0
BLOCK_RECORD
  5
1D7
330
1
100
AcDbSymbolTableRecord
100
AcDbBlockTableRecord
  2
SW_NOTE_6
340
0
102
{BLKREFS
331
1DC
102
}
  0
BLOCK_RECORD
  5
1DE
330
1
100
AcDbSymbolTableRecord
100
AcDbBlockTableRecord
  2
SW_NOTE_7
340
0
102
{BLKREFS
331
1E3
102
}
  0
BLOCK_RECORD
  5
1E5
330
1
100
AcDbSymbolTableRecord
100
AcDbBlockTableRecord
  2
SW_NOTE_8
340
0
102
{BLKREFS
331
1EA
102
}
  0
BLOCK_RECORD
  5
1EC
330
1
100
AcDbSymbolTableRecord
100
AcDbBlockTableRecord
  2
SW_NOTE_9
340
0
102
{BLKREFS
331
1F1
102
}
  0
BLOCK_RECORD
  5
1F3
330
1
100
AcDbSymbolTableRecord
100
AcDbBlockTableRecord
  2
SW_NOTE_10
340
0
102
{BLKREFS
331
1F8
102
}
  0
BLOCK_RECORD
  5
1FA
330
1
100
AcDbSymbolTableRecord
100
AcDbBlockTableRecord
  2
SW_BROKEN_VIEW_0
340
0
102
{BLKREFS
331
1FD
102
}
  0
BLOCK_RECORD
  5
476
330
1
100
AcDbSymbolTableRecord
100
AcDbBlockTableRecord
  2
_D_4
340
0
  0
BLOCK_RECORD
  5
484
330
1
100
AcDbSymbolTableRecord
100
AcDbBlockTableRecord
  2
SW_NOTE_11
340
0
102
{BLKREFS
331
48C
102
}
  0
ENDTAB
  0
ENDSEC
  0
SECTION
  2
BLOCKS
  0
BLOCK
  5
20
330
1F
100
AcDbEntity
  8
0
100
AcDbBlockBegin
  2
*Model_Space
 70
     0
 10
0.0
 20
0.0
 30
0.0
  3
*Model_Space
  1

  0
ENDBLK
  5
21
330
1F
100
AcDbEntity
  8
0
100
AcDbBlockEnd
  0
BLOCK
  5
1C
330
1B
100
AcDbEntity
 67
     1
  8
0
100
AcDbBlockBegin
  2
*Paper_Space
 70
     0
 10
0.0
 20
0.0
 30
0.0
  3
*Paper_Space
  1

  0
ENDBLK
  5
1D
330
1B
100
AcDbEntity
 67
     1
  8
0
100
AcDbBlockEnd
  0
BLOCK
  5
24
330
23
100
AcDbEntity
  8
0
100
AcDbBlockBegin
  2
*Paper_Space0
 70
     0
 10
0.0
 20
0.0
 30
0.0
  3
*Paper_Space0
  1

  0
ENDBLK
  5
25
330
23
100
AcDbEntity
  8
0
100
AcDbBlockEnd
  0
BLOCK
  5
75
330
74
100
AcDbEntity
  8
0
100
AcDbBlockBegin
  2
Third Angle Projection Block
 70
     0
 10
0.0
 20
0.0
 30
0.0
  3
Third Angle Projection Block
  1

  0
CIRCLE
  5
77
330
74
100
AcDbEntity
  8
0
  6
Continuous
 62
     7
370
    35
100
AcDbCircle
 10
33.8255462981
 20
6.3134694556
 30
0.0
 40
0.589409051224959
  0
CIRCLE
  5
78
330
74
100
AcDbEntity
  8
0
  6
Continuous
 62
     7
370
    35
100
AcDbCircle
 10
33.8255462981
 20
6.3134694556
 30
0.0
 40
1.300409416177277
  0
LINE
  5
79
330
74
100
AcDbEntity
  8
0
  6
CENTERX2
 62
     7
370
    18
100
AcDbLine
 10
36.7122607528
 20
6.3134694556
 30
0.0
 11
39.8175778291
 21
6.3134694556
 31
0.0
  0
LINE
  5
7A
330
74
100
AcDbEntity
  8
0
  6
Continuous
 62
     7
370
    35
100
AcDbLine
 10
37.0005462981
 20
6.9028785068
 30
0.0
 11
37.0005462981
 21
5.7240604043
 31
0.0
  0
LINE
  5
7B
330
74
100
AcDbEntity
  8
0
  6
Continuous
 62
     7
370
    35
100
AcDbLine
 10
37.0005462981
 20
5.7240604043
 30
0.0
 11
39.5405462981
 21
5.0434694556
 31
0.0
  0
LINE
  5
7C
330
74
100
AcDbEntity
  8
0
  6
Continuous
 62
     7
370
    35
100
AcDbLine
 10
39.5405462981
 20
5.0434694556
 30
0.0
 11
39.5405462981
 21
7.5834694556
 31
0.0
  0
LINE
  5
7D
330
74
100
AcDbEntity
  8
0
  6
Continuous
 62
     7
370
    35
100
AcDbLine
 10
39.5405462981
 20
7.5834694556
 30
0.0
 11
37.0005462981
 21
6.9028785068
 31
0.0
  0
LINE
  5
7E
330
74
100
AcDbEntity
  8
0
  6
CENTERX2
 62
     7
370
    18
100
AcDbLine
 10
32.2008618206
 20
6.3134694556
 30
0.0
 11
35.4502307756
 21
6.3134694556
 31
0.0
  0
LINE
  5
7F
330
74
100
AcDbEntity
  8
0
  6
CENTERX2
 62
     7
370
    18
100
AcDbLine
 10
33.8255462981
 20
7.9381539331
 30
0.0
 11
33.8255462981
 21
4.6887849781
 31
0.0
  0
POINT
  5
80
330
74
100
AcDbEntity
  8
0
  6
Continuous
 62
     7
370
     0
100
AcDbPoint
 10
33.8255462981
 20
6.3134694556
 30
0.0
  0
ENDBLK
  5
76
330
74
100
AcDbEntity
  8
0
100
AcDbBlockEnd
  0
BLOCK
  5
9B
330
9A
100
AcDbEntity
  8
0
100
AcDbBlockBegin
  2
SW_NOTE_0
 70
     0
 10
0.0
 20
0.0
 30
0.0
  3
SW_NOTE_0
  1

  0
MTEXT
  5
9E
330
9A
100
AcDbEntity
  8
0
  6
Continuous
 62
     0
370
     0
100
AcDbMText
 10
0.0
 20
1.0231975184
 30
0.0
 40
0.79375
 41
0.0
 71
     1
 72
     1
  1
NOTES/SPECIFICATIONS:
  7
SLDTEXTSTYLE0
 73
     1
 44
1.0
  0
MTEXT
  5
9F
330
9A
100
AcDbEntity
  8
0
  6
Continuous
 62
     0
370
     0
100
AcDbMText
 10
3.3333332588
 20
-1.7601357434
 30
0.0
 40
0.79375
 41
0.0
 71
     1
 72
     1
  1
DESIGN WAVELENGTH: 633 nm
  7
SLDTEXTSTYLE0
 73
     1
 44
1.0
  0
MTEXT
  5
A0
330
9A
100
AcDbEntity
  8
0
  6
Continuous
 62
     0
370
     0
100
AcDbMText
 10
0.0
 20
-1.7601357434
 30
0.0
 40
0.79375
 41
0.0
 71
     1
 72
     1
  1
1.
  7
SLDTEXTSTYLE0
 73
     1
 44
1.0
  0
MTEXT
  5
A1
330
9A
100
AcDbEntity
  8
0
  6
Continuous
 62
     0
370
     0
100
AcDbMText
 10
3.3333332588
 20
-3.1518023743
 30
0.0
 40
0.79375
 41
0.0
 71
     1
 72
     1
  1
FULL ANGLE BEAM DIVERGENCE: 0.94 +0.17/-0.00 mrad
  7
SLDTEXTSTYLE0
 73
     1
 44
1.0
  0
MTEXT
  5
A2
330
9A
100
AcDbEntity
  8
0
  6
Continuous
 62
     0
370
     0
100
AcDbMText
 10
0.0
 20
-3.1518023743
 30
0.0
 40
0.79375
 41
0.0
 71
     1
 72
     1
  1
2.
  7
SLDTEXTSTYLE0
 73
     1
 44
1.0
  0
MTEXT
  5
A3
330
9A
100
AcDbEntity
  8
0
  6
Continuous
 62
     0
370
     0
100
AcDbMText
 10
3.3333332588
 20
-4.5434690052
 30
0.0
 40
0.79375
 41
0.0
 71
     1
 72
     1
  1
1/e² BEAM DIAMETER: 0.86 mm
  7
SLDTEXTSTYLE0
 73
     1
 44
1.0
  0
MTEXT
  5
A4
330
9A
100
AcDbEntity
  8
0
  6
Continuous
 62
     0
370
     0
100
AcDbMText
 10
0.0
 20
-4.5434690052
 30
0.0
 40
0.79375
 41
0.0
 71
     1
 72
     1
  1
3.
  7
SLDTEXTSTYLE0
 73
     1
 44
1.0
  0
MTEXT
  5
A5
330
9A
100
AcDbEntity
  8
0
  6
Continuous
 62
     0
370
     0
100
AcDbMText
 10
3.3333332588
 20
-5.9351356361
 30
0.0
 40
0.79375
 41
0.0
 71
     1
 72
     1
  1
FIBER TYPE: SM600
  7
SLDTEXTSTYLE0
 73
     1
 44
1.0
  0
MTEXT
  5
A6
330
9A
100
AcDbEntity
  8
0
  6
Continuous
 62
     0
370
     0
100
AcDbMText
 10
0.0
 20
-5.9351356361
 30
0.0
 40
0.79375
 41
0.0
 71
     1
 72
     1
  1
4.
  7
SLDTEXTSTYLE0
 73
     1
 44
1.0
  0
MTEXT
  5
A7
330
9A
100
AcDbEntity
  8
0
  6
Continuous
 62
     0
370
     0
100
AcDbMText
 10
3.3333332588
 20
-7.326802267
 30
0.0
 40
0.79375
 41
0.0
 71
     1
 72
     1
  1
FIBER LENGTH: 1 m
  7
SLDTEXTSTYLE0
 73
     1
 44
1.0
  0
MTEXT
  5
A8
330
9A
100
AcDbEntity
  8
0
  6
Continuous
 62
     0
370
     0
100
AcDbMText
 10
0.0
 20
-7.326802267
 30
0.0
 40
0.79375
 41
0.0
 71
     1
 72
     1
  1
5.
  7
SLDTEXTSTYLE0
 73
     1
 44
1.0
  0
MTEXT
  5
A9
330
9A
100
AcDbEntity
  8
0
  6
Continuous
 62
     0
370
     0
100
AcDbMText
 10
3.3333332588
 20
-8.7184688979
 30
0.0
 40
0.79375
 41
0.0
 71
     1
 72
     1
  1
RETURN LOSS:
  7
SLDTEXTSTYLE0
 73
     1
 44
1.0
  0
MTEXT
  5
AB
330
9A
100
AcDbEntity
  8
0
  6
Continuous
 62
     0
370
     0
100
AcDbMText
 10
10.4550346732
 20
-8.7184688979
 30
0.0
 40
0.79375
 41
0.0
 71
     1
 72
     1
  1
\U+2265
  7
SLDTEXTSTYLE1
 73
     1
 44
1.0
  0
MTEXT
  5
AD
330
9A
100
AcDbEntity
  8
0
  6
Continuous
 62
     0
370
     0
100
AcDbMText
 10
11.035648485
 20
-8.7184688979
 30
0.0
 40
0.79375
 41
0.0
 71
     1
 72
     1
  1
50 dB
  7
SLDTEXTSTYLE2
 73
     1
 44
1.0
  0
MTEXT
  5
AE
330
9A
100
AcDbEntity
  8
0
  6
Continuous
 62
     0
370
     0
100
AcDbMText
 10
0.0
 20
-8.7184688979
 30
0.0
 40
0.79375
 41
0.0
 71
     1
 72
     1
  1
6.
  7
SLDTEXTSTYLE0
 73
     1
 44
1.0
  0
MTEXT
  5
AF
330
9A
100
AcDbEntity
  8
0
  6
Continuous
 62
     0
370
     0
100
AcDbMText
 10
3.3333332588
 20
-10.1101355288
 30
0.0
 40
0.79375
 41
0.0
 71
     1
 72
     1
  1
FIBER MODE FIELD DIAMETER: 4.3 \M+183CAm
  7
SLDTEXTSTYLE1
 73
     1
 44
1.0
  0
MTEXT
  5
B0
330
9A
100
AcDbEntity
  8
0
  6
Continuous
 62
     0
370
     0
100
AcDbMText
 10
0.0
 20
-10.1101355288
 30
0.0
 40
0.79375
 41
0.0
 71
     1
 72
     1
  1
7.
  7
SLDTEXTSTYLE0
 73
     1
 44
1.0
  0
MTEXT
  5
B1
330
9A
100
AcDbEntity
  8
0
  6
Continuous
 62
     0
370
     0
100
AcDbMText
 10
3.3333332588
 20
-11.5018021597
 30
0.0
 40
0.79375
 41
0.0
 71
     1
 72
     1
  1
CONNECTOR TYPE: FC/PC
  7
SLDTEXTSTYLE0
 73
     1
 44
1.0
  0
MTEXT
  5
B2
330
9A
100
AcDbEntity
  8
0
  6
Continuous
 62
     0
370
     0
100
AcDbMText
 10
0.0
 20
-11.5018021597
 30
0.0
 40
0.79375
 41
0.0
 71
     1
 72
     1
  1
8.
  7
SLDTEXTSTYLE0
 73
     1
 44
1.0
  0
MTEXT
  5
B3
330
9A
100
AcDbEntity
  8
0
  6
Continuous
 62
     0
370
     0
100
AcDbMText
 10
3.3333332588
 20
-12.8934687906
 30
0.0
 40
0.79375
 41
0.0
 71
     1
 72
     1
  1
AR COATING (LENS): BBAR 600-1050 nm, Ravg < 0.5%
  7
SLDTEXTSTYLE0
 73
     1
 44
1.0
  0
MTEXT
  5
B4
330
9A
100
AcDbEntity
  8
0
  6
Continuous
 62
     0
370
     0
100
AcDbMText
 10
0.0
 20
-12.8934687906
 30
0.0
 40
0.79375
 41
0.0
 71
     1
 72
     1
  1
9.
  7
SLDTEXTSTYLE0
 73
     1
 44
1.0
  0
MTEXT
  5
B5
330
9A
100
AcDbEntity
  8
0
  6
Continuous
 62
     0
370
     0
100
AcDbMText
 10
3.3333332588
 20
-14.2851354215
 30
0.0
 40
0.79375
 41
0.0
 71
     1
 72
     1
  1
AR COATING (FERRULE): BBAR 630-690 nm, Ravg < 0.25%
  7
SLDTEXTSTYLE0
 73
     1
 44
1.0
  0
MTEXT
  5
B6
330
9A
100
AcDbEntity
  8
0
  6
Continuous
 62
     0
370
     0
100
AcDbMText
 10
0.0
 20
-14.2851354215
 30
0.0
 40
0.79375
 41
0.0
 71
     1
 72
     1
  1
10.
  7
SLDTEXTSTYLE0
 73
     1
 44
1.0
  0
ENDBLK
  5
9C
330
9A
100
AcDbEntity
  8
0
100
AcDbBlockEnd
  0
BLOCK
  5
CA
330
C9
100
AcDbEntity
  8
0
100
AcDbBlockBegin
  2
SW_NOTE_1
 70
     0
 10
0.0
 20
0.0
 30
0.0
  3
SW_NOTE_1
  1

  0
MTEXT
  5
CC
330
C9
100
AcDbEntity
  8
0
  6
Continuous
 62
     0
370
     0
100
AcDbMText
 10
6.63575
 20
0.6548464118
 30
0.0
 40
0.508
 41
0.0
 71
     2
 72
     1
  1
VALUES IN PARENTHESIS ARE CALCULATED
  7
SLDTEXTSTYLE0
 73
     1
 44
1.0
  0
MTEXT
  5
CD
330
C9
100
AcDbEntity
  8
0
  6
Continuous
 62
     0
370
     0
100
AcDbMText
 10
6.6259598391
 20
-0.1864868862
 30
0.0
 40
0.508
 41
0.0
 71
     2
 72
     1
  1
AND MAY CONTAIN ROUNDOFF ERRORS
  7
SLDTEXTSTYLE0
 73
     1
 44
1.0
  0
ENDBLK
  5
CB
330
C9
100
AcDbEntity
  8
0
100
AcDbBlockEnd
  0
BLOCK
  5
D0
330
CF
100
AcDbEntity
  8
0
100
AcDbBlockBegin
  2
SW_NOTE_2
 70
     0
 10
0.0
 20
0.0
 30
0.0
  3
SW_NOTE_2
  1

  0
MTEXT
  5
D2
330
CF
100
AcDbEntity
  8
0
  6
Continuous
 62
     0
370
     0
100
AcDbMText
 10
0.0
 20
0.9095089053
 30
0.0
 40
0.7055555556
 41
0.0
 71
     1
 72
     1
  1
DRAWING
  7
SLDTEXTSTYLE0
 73
     1
 44
1.0
  0
MTEXT
  5
D3
330
CF
100
AcDbEntity
  8
0
  6
Continuous
 62
     0
370
     0
100
AcDbMText
 10
0.0
 20
-0.0312318241
 30
0.0
 40
0.7055555556
 41
0.0
 71
     1
 72
     1
  1
PROJECTION
  7
SLDTEXTSTYLE0
 73
     1
 44
1.0
  0
ENDBLK
  5
D1
330
CF
100
AcDbEntity
  8
0
100
AcDbBlockEnd
  0
BLOCK
  5
D7
330
D6
100
AcDbEntity
  8
0
100
AcDbBlockBegin
  2
SW_NOTE_3
 70
     0
 10
0.0
 20
0.0
 30
0.0
  3
SW_NOTE_3
  1

  0
MTEXT
  5
D9
330
D6
100
AcDbEntity
  8
0
  6
Continuous
 62
     0
370
     0
100
AcDbMText
 10
8.3509114583
 20
1.3642633579
 30
0.0
 40
1.0583333333
 41
0.0
 71
     2
 72
     1
  1
FOR INFORMATION ONLY
  7
SLDTEXTSTYLE0
 73
     1
 44
1.0
  0
MTEXT
  5
DA
330
D6
100
AcDbEntity
  8
0
  6
Continuous
 62
     0
370
     0
100
AcDbMText
 10
8.458948953
 20
-0.0468477361
 30
0.0
 40
1.0583333333
 41
0.0
 71
     2
 72
     1
  1
NOT FOR MANUFACTURING PURPOSES
  7
SLDTEXTSTYLE0
 73
     1
 44
1.0
  0
ENDBLK
  5
D8
330
D6
100
AcDbEntity
  8
0
100
AcDbBlockEnd
  0
BLOCK
  5
DD
330
DC
100
AcDbEntity
  8
0
100
AcDbBlockBegin
  2
SW_NOTE_4
 70
     0
 10
0.0
 20
0.0
 30
0.0
  3
SW_NOTE_4
  1

  0
MTEXT
  5
DF
330
DC
100
AcDbEntity
  8
0
  6
Continuous
 62
     0
370
     0
100
AcDbMText
 10
9.6572916667
 20
0.9095089053
 30
0.0
 40
0.7055555556
 41
0.0
 71
     2
 72
     1
  1
SM FIBER PIGTAILED ASPHERIC COLLIMATOR
  7
SLDTEXTSTYLE0
 73
     1
 44
1.0
  0
MTEXT
  5
E1
330
DC
100
AcDbEntity
  8
0
  6
Continuous
 62
     0
370
     0
100
AcDbMText
 10
9.6723193351
 20
-0.0312318241
 30
0.0
 40
0.7055555556
 41
0.0
 71
     2
 72
     1
  1
EFL = 4.59 mm, 633 nm, FC/PC
  7
SLDTEXTSTYLE4
 73
     1
 44
1.0
  0
ENDBLK
  5
DE
330
DC
100
AcDbEntity
  8
0
100
AcDbBlockEnd
  0
BLOCK
  5
E5
330
E4
100
AcDbEntity
  8
0
100
AcDbBlockBegin
  2
SW_TABLEANNOTATION_0
 70
     0
 10
0.0
 20
0.0
 30
0.0
  3
SW_TABLEANNOTATION_0
  1

  0
LINE
  5
E7
330
E4
100
AcDbEntity
  8
0
  6
Continuous
 62
     0
370
     0
100
AcDbLine
 10
0.0
 20
0.0
 30
0.0
 11
0.0
 21
-8.9243694083
 31
0.0
  0
LINE
  5
E8
330
E4
100
AcDbEntity
  8
0
  6
Continuous
 62
     0
370
     0
100
AcDbLine
 10
0.0
 20
-8.9243694083
 30
0.0
 11
23.1687149405
 21
-8.9243694083
 31
0.0
  0
LINE
  5
E9
330
E4
100
AcDbEntity
  8
0
  6
Continuous
 62
     0
370
     0
100
AcDbLine
 10
23.1687149405
 20
-8.9243694083
 30
0.0
 11
23.1687149405
 21
0.0
 31
0.0
  0
LINE
  5
EA
330
E4
100
AcDbEntity
  8
0
  6
Continuous
 62
     0
370
     0
100
AcDbLine
 10
23.1687149405
 20
0.0
 30
0.0
 11
0.0
 21
0.0
 31
0.0
  0
LINE
  5
EB
330
E4
100
AcDbEntity
  8
0
  6
Continuous
 62
     0
370
     0
100
AcDbLine
 10
3.7900404229
 20
0.0
 30
0.0
 11
3.7900404229
 21
-8.9243694083
 31
0.0
  0
LINE
  5
EC
330
E4
100
AcDbEntity
  8
0
  6
Continuous
 62
     0
370
     0
100
AcDbLine
 10
14.1202180989
 20
0.0
 30
0.0
 11
14.1202180989
 21
-8.9243694083
 31
0.0
  0
LINE
  5
ED
330
E4
100
AcDbEntity
  8
0
  6
Continuous
 62
     0
370
     0
100
AcDbLine
 10
0.0
 20
-1.2740740627
 30
0.0
 11
23.1687149405
 21
-1.2740740627
 31
0.0
  0
LINE
  5
EE
330
E4
100
AcDbEntity
  8
0
  6
Continuous
 62
     0
370
     0
100
AcDbLine
 10
0.0
 20
-2.5510736101
 30
0.0
 11
23.1687149405
 21
-2.5510736101
 31
0.0
  0
LINE
  5
EF
330
E4
100
AcDbEntity
  8
0
  6
Continuous
 62
     0
370
     0
100
AcDbLine
 10
0.0
 20
-3.8251476728
 30
0.0
 11
23.1687149405
 21
-3.8251476728
 31
0.0
  0
LINE
  5
F0
330
E4
100
AcDbEntity
  8
0
  6
Continuous
 62
     0
370
     0
100
AcDbLine
 10
0.0
 20
-5.0992217355
 30
0.0
 11
23.1687149405
 21
-5.0992217355
 31
0.0
  0
LINE
  5
F1
330
E4
100
AcDbEntity
  8
0
  6
Continuous
 62
     0
370
     0
100
AcDbLine
 10
0.0
 20
-6.3732957982
 30
0.0
 11
23.1687149405
 21
-6.3732957982
 31
0.0
  0
LINE
  5
F2
330
E4
100
AcDbEntity
  8
0
  6
Continuous
 62
     0
370
     0
100
AcDbLine
 10
0.0
 20
-7.6502953456
 30
0.0
 11
23.1687149405
 21
-7.6502953456
 31
0.0
  0
MTEXT
  5
F3
330
E4
100
AcDbEntity
  8
0
  6
Continuous
 62
     0
370
     0
100
AcDbMText
 10
0.9033226331
 20
-0.2862561808
 30
0.0
 40
0.7055555556
 41
0.0
 71
     1
 72
     1
  1
ITEM
  7
SLDTEXTSTYLE0
 73
     1
 44
1.0
  0
MTEXT
  5
F4
330
E4
100
AcDbEntity
  8
0
  6
Continuous
 62
     0
370
     0
100
AcDbMText
 10
7.8425726326
 20
-0.2862561808
 30
0.0
 40
0.7055555556
 41
0.0
 71
     1
 72
     1
  1
PART
  7
SLDTEXTSTYLE0
 73
     1
 44
1.0
  0
MTEXT
  5
F5
330
E4
100
AcDbEntity
  8
0
  6
Continuous
 62
     0
370
     0
100
AcDbMText
 10
16.4533244958
 20
-0.2862561808
 30
0.0
 40
0.7055555556
 41
0.0
 71
     1
 72
     1
  1
MATERIAL
  7
SLDTEXTSTYLE0
 73
     1
 44
1.0
  0
MTEXT
  5
F6
330
E4
100
AcDbEntity
  8
0
  6
Continuous
 62
     0
370
     0
100
AcDbMText
 10
1.634356624
 20
-1.5765192611
 30
0.0
 40
0.7055555556
 41
0.0
 71
     1
 72
     1
  1
1
  7
SLDTEXTSTYLE0
 73
     1
 44
1.0
  0
MTEXT
  5
F7
330
E4
100
AcDbEntity
  8
0
  6
Continuous
 62
     0
370
     0
100
AcDbMText
 10
4.1024093455
 20
-1.5765192611
 30
0.0
 40
0.7055555556
 41
0.0
 71
     1
 72
     1
  1
%%c
  7
SLDTEXTSTYLE0
 73
     1
 44
1.0
  0
MTEXT
  5
F8
330
E4
100
AcDbEntity
  8
0
  6
Continuous
 62
     0
370
     0
100
AcDbMText
 10
5.1674062791
 20
-1.5765192611
 30
0.0
 40
0.7055555556
 41
0.0
 71
     1
 72
     1
  1
4.0mm, f=4.59 LENS
  7
SLDTEXTSTYLE0
 73
     1
 44
1.0
  0
MTEXT
  5
F9
330
E4
100
AcDbEntity
  8
0
  6
Continuous
 62
     0
370
     0
100
AcDbMText
 10
14.5306858747
 20
-1.5765192611
 30
0.0
 40
0.7055555556
 41
0.0
 71
     1
 72
     1
  1
MOLDED ASPHERE
  7
SLDTEXTSTYLE0
 73
     1
 44
1.0
  0
MTEXT
  5
FA
330
E4
100
AcDbEntity
  8
0
  6
Continuous
 62
     0
370
     0
100
AcDbMText
 10
1.634356624
 20
-2.8373297909
 30
0.0
 40
0.7055555556
 41
0.0
 71
     1
 72
     1
  1
2
  7
SLDTEXTSTYLE0
 73
     1
 44
1.0
  0
MTEXT
  5
FB
330
E4
100
AcDbEntity
  8
0
  6
Continuous
 62
     0
370
     0
100
AcDbMText
 10
6.7032311671
 20
-2.8373297909
 30
0.0
 40
0.7055555556
 41
0.0
 71
     1
 72
     1
  1
LENS CELL
  7
SLDTEXTSTYLE0
 73
     1
 44
1.0
  0
MTEXT
  5
FC
330
E4
100
AcDbEntity
  8
0
  6
Continuous
 62
     0
370
     0
100
AcDbMText
 10
15.5557010525
 20
-2.8373297909
 30
0.0
 40
0.7055555556
 41
0.0
 71
     1
 72
     1
  1
303 STAINLESS
  7
SLDTEXTSTYLE0
 73
     1
 44
1.0
  0
MTEXT
  5
FD
330
E4
100
AcDbEntity
  8
0
  6
Continuous
 62
     0
370
     0
100
AcDbMText
 10
1.634356624
 20
-4.1114038536
 30
0.0
 40
0.7055555556
 41
0.0
 71
     1
 72
     1
  1
3
  7
SLDTEXTSTYLE0
 73
     1
 44
1.0
  0
MTEXT
  5
FE
330
E4
100
AcDbEntity
  8
0
  6
Continuous
 62
     0
370
     0
100
AcDbMText
 10
7.1265644643
 20
-4.1114038536
 30
0.0
 40
0.7055555556
 41
0.0
 71
     1
 72
     1
  1
FERRULE
  7
SLDTEXTSTYLE0
 73
     1
 44
1.0
  0
MTEXT
  5
FF
330
E4
100
AcDbEntity
  8
0
  6
Continuous
 62
     0
370
     0
100
AcDbMText
 10
16.432419098
 20
-4.1114038536
 30
0.0
 40
0.7055555556
 41
0.0
 71
     1
 72
     1
  1
ZIRCONIA
  7
SLDTEXTSTYLE0
 73
     1
 44
1.0
  0
MTEXT
  5
100
330
E4
100
AcDbEntity
  8
0
  6
Continuous
 62
     0
370
     0
100
AcDbMText
 10
1.634356624
 20
-5.3854779163
 30
0.0
 40
0.7055555556
 41
0.0
 71
     1
 72
     1
  1
4
  7
SLDTEXTSTYLE0
 73
     1
 44
1.0
  0
MTEXT
  5
101
330
E4
100
AcDbEntity
  8
0
  6
Continuous
 62
     0
370
     0
100
AcDbMText
 10
7.8353864701
 20
-5.3854779163
 30
0.0
 40
0.7055555556
 41
0.0
 71
     1
 72
     1
  1
STEM
  7
SLDTEXTSTYLE0
 73
     1
 44
1.0
  0
MTEXT
  5
102
330
E4
100
AcDbEntity
  8
0
  6
Continuous
 62
     0
370
     0
100
AcDbMText
 10
15.5557010525
 20
-5.3854779163
 30
0.0
 40
0.7055555556
 41
0.0
 71
     1
 72
     1
  1
303 STAINLESS
  7
SLDTEXTSTYLE0
 73
     1
 44
1.0
  0
MTEXT
  5
103
330
E4
100
AcDbEntity
  8
0
  6
Continuous
 62
     0
370
     0
100
AcDbMText
 10
1.634356624
 20
-6.6610147214
 30
0.0
 40
0.7055555556
 41
0.0
 71
     1
 72
     1
  1
5
  7
SLDTEXTSTYLE0
 73
     1
 44
1.0
  0
MTEXT
  5
104
330
E4
100
AcDbEntity
  8
0
  6
Continuous
 62
     0
370
     0
100
AcDbMText
 10
4.5414875821
 20
-6.6610147214
 30
0.0
 40
0.7055555556
 41
0.0
 71
     1
 72
     1
  1
STRAIN RELIEF BOOT
  7
SLDTEXTSTYLE0
 73
     1
 44
1.0
  0
MTEXT
  5
105
330
E4
100
AcDbEntity
  8
0
  6
Continuous
 62
     0
370
     0
100
AcDbMText
 10
17.8801146383
 20
-6.6610147214
 30
0.0
 40
0.7055555556
 41
0.0
 71
     1
 72
     1
  1
TPR
  7
SLDTEXTSTYLE0
 73
     1
 44
1.0
  0
MTEXT
  5
106
330
E4
100
AcDbEntity
  8
0
  6
Continuous
 62
     0
370
     0
100
AcDbMText
 10
1.634356624
 20
-7.9365515264
 30
0.0
 40
0.7055555556
 41
0.0
 71
     1
 72
     1
  1
6
  7
SLDTEXTSTYLE0
 73
     1
 44
1.0
  0
MTEXT
  5
107
330
E4
100
AcDbEntity
  8
0
  6
Continuous
 62
     0
370
     0
100
AcDbMText
 10
7.3120994432
 20
-7.9365515264
 30
0.0
 40
0.7055555556
 41
0.0
 71
     1
 72
     1
  1
TUBING
  7
SLDTEXTSTYLE0
 73
     1
 44
1.0
  0
MTEXT
  5
108
330
E4
100
AcDbEntity
  8
0
  6
Continuous
 62
     0
370
     0
100
AcDbMText
 10
17.0889779196
 20
-7.9365515264
 30
0.0
 40
0.7055555556
 41
0.0
 71
     1
 72
     1
  1
HYTREL
  7
SLDTEXTSTYLE0
 73
     1
 44
1.0
  0
ENDBLK
  5
E6
330
E4
100
AcDbEntity
  8
0
100
AcDbBlockEnd
  0
BLOCK
  5
110
330
10F
100
AcDbEntity
  8
0
100
AcDbBlockBegin
  2
_D
 70
     0
 10
0.0
 20
0.0
 30
0.0
  3
_D
  1

  0
SOLID
  5
112
330
10F
100
AcDbEntity
  8
0
  6
Continuous
 62
     7
370
    18
100
AcDbTrace
 10
16.2824549795
 20
31.816340236
 30
0.0
 11
16.8428286483
 21
30.902707611
 31
0.0
 12
17.0999184574
 22
31.1231615545
 32
0.0
 13
17.0999184574
 23
31.1231615545
 33
0.0
  0
LINE
  5
113
330
10F
100
AcDbEntity
  8
0
  6
Continuous
 62
     7
370
    18
100
AcDbLine
 10
21.4765834514
 20
27.2171559585
 30
0.0
 11
21.2619769667
 21
27.2171559585
 31
0.0
  0
LINE
  5
114
330
10F
100
AcDbEntity
  8
0
  6
Continuous
 62
     7
370
    18
100
AcDbLine
 10
21.2619769667
 20
27.2171559585
 30
0.0
 11
21.2619769667
 21
26.0961065997
 31
0.0
  0
LINE
  5
115
330
10F
100
AcDbEntity
  8
0
  6
Continuous
 62
     7
370
    18
100
AcDbLine
 10
21.2619769667
 20
26.0961065997
 30
0.0
 11
21.4765834514
 21
26.0961065997
 31
0.0
  0
LINE
  5
116
330
10F
100
AcDbEntity
  8
0
  6
Continuous
 62
     7
370
    18
100
AcDbLine
 10
24.0623139668
 20
27.2171559585
 30
0.0
 11
24.2769204516
 21
27.2171559585
 31
0.0
  0
LINE
  5
117
330
10F
100
AcDbEntity
  8
0
  6
Continuous
 62
     7
370
    18
100
AcDbLine
 10
24.2769204516
 20
27.2171559585
 30
0.0
 11
24.2769204516
 21
26.0961065997
 31
0.0
  0
LINE
  5
118
330
10F
100
AcDbEntity
  8
0
  6
Continuous
 62
     7
370
    18
100
AcDbLine
 10
24.2769204516
 20
26.0961065997
 30
0.0
 11
24.0623139668
 21
26.0961065997
 31
0.0
  0
LINE
  5
119
330
10F
100
AcDbEntity
  8
0
  6
Continuous
 62
     7
370
    18
100
AcDbLine
 10
16.2824549795
 20
31.816340236
 30
0.0
 11
19.777370482
 21
27.7406265292
 31
0.0
  0
LINE
  5
11A
330
10F
100
AcDbEntity
  8
0
  6
Continuous
 62
     7
370
    18
100
AcDbLine
 10
19.777370482
 20
27.7406265292
 30
0.0
 11
21.047370482
 21
27.7406265292
 31
0.0
  0
MTEXT
  5
11B
330
10F
100
AcDbEntity
  8
0
  6
Continuous
 62
     7
370
    18
100
AcDbMText
 10
21.047370482
 20
28.2697358407
 30
0.0
 40
0.7055555556
 41
0.0
 71
     1
 72
     1
  1
%%c
  7
SLDTEXTSTYLE0
 73
     1
 44
1.0
  0
MTEXT
  5
11C
330
10F
100
AcDbEntity
  8
0
  6
Continuous
 62
     7
370
    18
100
AcDbMText
 10
22.1123674156
 20
28.2697358407
 30
0.0
 40
0.7055555556
 41
0.0
 71
     1
 72
     1
  1
5.7mm
  7
SLDTEXTSTYLE0
 73
     1
 44
1.0
  0
MTEXT
  5
11D
330
10F
100
AcDbEntity
  8
0
  6
Continuous
 62
     7
370
    18
100
AcDbMText
 10
21.4765834514
 20
27.0056154662
 30
0.0
 40
0.7055555556
 41
0.0
 71
     1
 72
     1
  1
0.23in
  7
SLDTEXTSTYLE0
 73
     1
 44
1.0
  0
ENDBLK
  5
111
330
10F
100
AcDbEntity
  8
0
100
AcDbBlockEnd
  0
BLOCK
  5
195
330
194
100
AcDbEntity
  8
0
100
AcDbBlockBegin
  2
_D_1
 70
     0
 10
0.0
 20
0.0
 30
0.0
  3
_D_1
  1

  0
SOLID
  5
197
330
194
100
AcDbEntity
  8
0
  6
Continuous
 62
     7
370
    18
100
AcDbTrace
 10
36.511837269
 20
27.7947021665
 30
0.0
 11
37.5701706024
 21
27.6253688331
 31
0.0
 12
37.5701706024
 22
27.9640354998
 32
0.0
 13
37.5701706024
 23
27.9640354998
 33
0.0
  0
SOLID
  5
198
330
194
100
AcDbEntity
  8
0
  6
Continuous
 62
     7
370
    18
100
AcDbTrace
 10
51.751837269
 20
27.7947021665
 30
0.0
 11
50.6935039357
 21
27.9640354998
 31
0.0
 12
50.6935039357
 22
27.6253688331
 32
0.0
 13
50.6935039357
 23
27.6253688331
 33
0.0
  0
LINE
  5
199
330
194
100
AcDbEntity
  8
0
  6
Continuous
 62
     7
370
    18
100
AcDbLine
 10
42.8389720889
 20
27.7947020889
 30
0.0
 11
42.6243656042
 21
27.7947020889
 31
0.0
  0
LINE
  5
19A
330
194
100
AcDbEntity
  8
0
  6
Continuous
 62
     7
370
    18
100
AcDbLine
 10
42.6243656042
 20
27.7947020889
 30
0.0
 11
42.6243656042
 21
26.67365273
 31
0.0
  0
LINE
  5
19B
330
194
100
AcDbEntity
  8
0
  6
Continuous
 62
     7
370
    18
100
AcDbLine
 10
42.6243656042
 20
26.67365273
 30
0.0
 11
42.8389720889
 21
26.67365273
 31
0.0
  0
LINE
  5
19C
330
194
100
AcDbEntity
  8
0
  6
Continuous
 62
     7
370
    18
100
AcDbLine
 10
45.4247026044
 20
27.7947020889
 30
0.0
 11
45.6393090891
 21
27.7947020889
 31
0.0
  0
LINE
  5
19D
330
194
100
AcDbEntity
  8
0
  6
Continuous
 62
     7
370
    18
100
AcDbLine
 10
45.6393090891
 20
27.7947020889
 30
0.0
 11
45.6393090891
 21
26.67365273
 31
0.0
  0
LINE
  5
19E
330
194
100
AcDbEntity
  8
0
  6
Continuous
 62
     7
370
    18
100
AcDbLine
 10
45.6393090891
 20
26.67365273
 30
0.0
 11
45.4247026044
 21
26.67365273
 31
0.0
  0
LINE
  5
19F
330
194
100
AcDbEntity
  8
0
  6
Continuous
 62
     7
370
    18
100
AcDbLine
 10
36.511837269
 20
30.7047021665
 30
0.0
 11
36.511837269
 21
27.2020354998
 31
0.0
  0
LINE
  5
1A0
330
194
100
AcDbEntity
  8
0
  6
Continuous
 62
     7
370
    18
100
AcDbLine
 10
51.751837269
 20
30.7047021665
 30
0.0
 11
51.751837269
 21
27.2020354998
 31
0.0
  0
LINE
  5
1A1
330
194
100
AcDbEntity
  8
0
  6
Continuous
 62
     7
370
    18
100
AcDbLine
 10
36.511837269
 20
27.7947021665
 30
0.0
 11
41.6746344659
 21
27.7947021665
 31
0.0
  0
LINE
  5
1A2
330
194
100
AcDbEntity
  8
0
  6
Continuous
 62
     7
370
    18
100
AcDbLine
 10
51.751837269
 20
27.7947021665
 30
0.0
 11
46.5890400722
 21
27.7947021665
 31
0.0
  0
MTEXT
  5
1A3
330
194
100
AcDbEntity
  8
0
  6
Continuous
 62
     7
370
    18
100
AcDbMText
 10
42.3470429712
 20
28.847281971
 30
0.0
 40
0.7055555556
 41
0.0
 71
     1
 72
     1
  1

  7
SLDTEXTSTYLE0
 73
     1
 44
1.0
  0
MTEXT
  5
1A4
330
194
100
AcDbEntity
  8
0
  6
Continuous
 62
     7
370
    18
100
AcDbMText
 10
42.3378968727
 20
28.847281971
 30
0.0
 40
0.7055555556
 41
0.0
 71
     1
 72
     1
  1
15.2mm
  7
SLDTEXTSTYLE0
 73
     1
 44
1.0
  0
MTEXT
  5
1A5
330
194
100
AcDbEntity
  8
0
  6
Continuous
 62
     7
370
    18
100
AcDbMText
 10
42.8389720889
 20
27.5831615965
 30
0.0
 40
0.7055555556
 41
0.0
 71
     1
 72
     1
  1
0.60in
  7
SLDTEXTSTYLE0
 73
     1
 44
1.0
  0
MTEXT
  5
1A6
330
194
100
AcDbEntity
  8
0
  6
Continuous
 62
     7
370
    18
100
AcDbMText
 10
46.4549441768
 20
28.847281971
 30
0.0
 40
0.7055555556
 41
0.0
 71
     1
 72
     1
  1

  7
SLDTEXTSTYLE0
 73
     1
 44
1.0
  0
ENDBLK
  5
196
330
194
100
AcDbEntity
  8
0
100
AcDbBlockEnd
  0
BLOCK
  5
1A9
330
1A8
100
AcDbEntity
  8
0
100
AcDbBlockBegin
  2
_D_2
 70
     0
 10
0.0
 20
0.0
 30
0.0
  3
_D_2
  1

  0
SOLID
  5
1AB
330
1A8
100
AcDbEntity
  8
0
  6
Continuous
 62
     7
370
    18
100
AcDbTrace
 10
36.511837269
 20
25.7947021665
 30
0.0
 11
37.5701706024
 21
25.6253688331
 31
0.0
 12
37.5701706024
 22
25.9640354998
 32
0.0
 13
37.5701706024
 23
25.9640354998
 33
0.0
  0
SOLID
  5
1AC
330
1A8
100
AcDbEntity
  8
0
  6
Continuous
 62
     7
370
    18
100
AcDbTrace
 10
72.865237269
 20
25.7947021665
 30
0.0
 11
71.8069039357
 21
25.9640354998
 31
0.0
 12
71.8069039357
 22
25.6253688331
 32
0.0
 13
71.8069039357
 23
25.6253688331
 33
0.0
  0
LINE
  5
1AD
330
1A8
100
AcDbEntity
  8
0
  6
Continuous
 62
     7
370
    18
100
AcDbLine
 10
53.3956720889
 20
26.445381083
 30
0.0
 11
53.1810656042
 21
26.445381083
 31
0.0
  0
LINE
  5
1AE
330
1A8
100
AcDbEntity
  8
0
  6
Continuous
 62
     7
370
    18
100
AcDbLine
 10
53.1810656042
 20
26.445381083
 30
0.0
 11
53.1810656042
 21
25.3243317242
 31
0.0
  0
LINE
  5
1AF
330
1A8
100
AcDbEntity
  8
0
  6
Continuous
 62
     7
370
    18
100
AcDbLine
 10
53.1810656042
 20
25.3243317242
 30
0.0
 11
53.3956720889
 21
25.3243317242
 31
0.0
  0
LINE
  5
1B0
330
1A8
100
AcDbEntity
  8
0
  6
Continuous
 62
     7
370
    18
100
AcDbLine
 10
55.9814026044
 20
26.445381083
 30
0.0
 11
56.1960090891
 21
26.445381083
 31
0.0
  0
LINE
  5
1B1
330
1A8
100
AcDbEntity
  8
0
  6
Continuous
 62
     7
370
    18
100
AcDbLine
 10
56.1960090891
 20
26.445381083
 30
0.0
 11
56.1960090891
 21
25.3243317242
 31
0.0
  0
LINE
  5
1B2
330
1A8
100
AcDbEntity
  8
0
  6
Continuous
 62
     7
370
    18
100
AcDbLine
 10
56.1960090891
 20
25.3243317242
 30
0.0
 11
55.9814026044
 21
25.3243317242
 31
0.0
  0
LINE
  5
1B3
330
1A8
100
AcDbEntity
  8
0
  6
Continuous
 62
     7
370
    18
100
AcDbLine
 10
36.511837269
 20
30.7047021665
 30
0.0
 11
36.511837269
 21
25.2020354998
 31
0.0
  0
LINE
  5
1B4
330
1A8
100
AcDbEntity
  8
0
  6
Continuous
 62
     7
370
    18
100
AcDbLine
 10
72.865237269
 20
32.5462021665
 30
0.0
 11
72.865237269
 21
25.2020354998
 31
0.0
  0
LINE
  5
1B5
330
1A8
100
AcDbEntity
  8
0
  6
Continuous
 62
     7
370
    18
100
AcDbLine
 10
36.511837269
 20
25.7947021665
 30
0.0
 11
52.751355034
 21
25.7947021665
 31
0.0
  0
LINE
  5
1B6
330
1A8
100
AcDbEntity
  8
0
  6
Continuous
 62
     7
370
    18
100
AcDbLine
 10
72.865237269
 20
25.7947021665
 30
0.0
 11
56.6257195041
 21
25.7947021665
 31
0.0
  0
MTEXT
  5
1B7
330
1A8
100
AcDbEntity
  8
0
  6
Continuous
 62
     7
370
    18
100
AcDbMText
 10
52.8945968727
 20
27.4979609652
 30
0.0
 40
0.7055555556
 41
0.0
 71
     1
 72
     1
  1
36.4mm
  7
SLDTEXTSTYLE0
 73
     1
 44
1.0
  0
MTEXT
  5
1B8
330
1A8
100
AcDbEntity
  8
0
  6
Continuous
 62
     7
370
    18
100
AcDbMText
 10
53.3956720889
 20
26.2338405907
 30
0.0
 40
0.7055555556
 41
0.0
 71
     1
 72
     1
  1
1.43in
  7
SLDTEXTSTYLE0
 73
     1
 44
1.0
  0
MTEXT
  5
1B9
330
1A8
100
AcDbEntity
  8
0
  6
Continuous
 62
     7
370
    18
100
AcDbMText
 10
53.9313716278
 20
24.9697202938
 30
0.0
 40
0.7055555556
 41
0.0
 71
     1
 72
     1
  1
TYP
  7
SLDTEXTSTYLE0
 73
     1
 44
1.0
  0
ENDBLK
  5
1AA
330
1A8
100
AcDbEntity
  8
0
100
AcDbBlockEnd
  0
BLOCK
  5
1BD
330
1BC
100
AcDbEntity
  8
0
100
AcDbBlockBegin
  2
_D_3
 70
     0
 10
0.0
 20
0.0
 30
0.0
  3
_D_3
  1

  0
SOLID
  5
1BF
330
1BC
100
AcDbEntity
  8
0
  6
Continuous
 62
     7
370
    18
100
AcDbTrace
 10
31.5201639481
 20
35.9855354998
 30
0.0
 11
31.6894972814
 21
37.0438688331
 31
0.0
 12
31.3508306148
 22
37.0438688331
 32
0.0
 13
31.3508306148
 23
37.0438688331
 33
0.0
  0
SOLID
  5
1C0
330
1BC
100
AcDbEntity
  8
0
  6
Continuous
 62
     7
370
    18
100
AcDbTrace
 10
31.5201639481
 20
31.9855354998
 30
0.0
 11
31.3508306148
 21
30.9272021665
 31
0.0
 12
31.6894972814
 22
30.9272021665
 32
0.0
 13
31.6894972814
 23
30.9272021665
 33
0.0
  0
LINE
  5
1C1
330
1BC
100
AcDbEntity
  8
0
  6
Continuous
 62
     7
370
    18
100
AcDbLine
 10
30.227298768
 20
34.0756897757
 30
0.0
 11
30.0126922833
 21
34.0756897757
 31
0.0
  0
LINE
  5
1C2
330
1BC
100
AcDbEntity
  8
0
  6
Continuous
 62
     7
370
    18
100
AcDbLine
 10
30.0126922833
 20
34.0756897757
 30
0.0
 11
30.0126922833
 21
32.9546404169
 31
0.0
  0
LINE
  5
1C3
330
1BC
100
AcDbEntity
  8
0
  6
Continuous
 62
     7
370
    18
100
AcDbLine
 10
30.0126922833
 20
32.9546404169
 30
0.0
 11
30.227298768
 21
32.9546404169
 31
0.0
  0
LINE
  5
1C4
330
1BC
100
AcDbEntity
  8
0
  6
Continuous
 62
     7
370
    18
100
AcDbLine
 10
32.8130292834
 20
34.0756897757
 30
0.0
 11
33.0276357681
 21
34.0756897757
 31
0.0
  0
LINE
  5
1C5
330
1BC
100
AcDbEntity
  8
0
  6
Continuous
 62
     7
370
    18
100
AcDbLine
 10
33.0276357681
 20
34.0756897757
 30
0.0
 11
33.0276357681
 21
32.9546404169
 31
0.0
  0
LINE
  5
1C6
330
1BC
100
AcDbEntity
  8
0
  6
Continuous
 62
     7
370
    18
100
AcDbLine
 10
33.0276357681
 20
32.9546404169
 30
0.0
 11
32.8130292834
 21
32.9546404169
 31
0.0
  0
LINE
  5
1C7
330
1BC
100
AcDbEntity
  8
0
  6
Continuous
 62
     7
370
    18
100
AcDbLine
 10
37.1100595006
 20
35.9855354998
 30
0.0
 11
30.9274972814
 21
35.9855354998
 31
0.0
  0
LINE
  5
1C8
330
1BC
100
AcDbEntity
  8
0
  6
Continuous
 62
     7
370
    18
100
AcDbLine
 10
37.1100595006
 20
31.9855354998
 30
0.0
 11
30.9274972814
 21
31.9855354998
 31
0.0
  0
LINE
  5
1C9
330
1BC
100
AcDbEntity
  8
0
  6
Continuous
 62
     7
370
    18
100
AcDbLine
 10
31.5201639481
 20
35.9855354998
 30
0.0
 11
31.5201639481
 21
38.1022021665
 31
0.0
  0
LINE
  5
1CA
330
1BC
100
AcDbEntity
  8
0
  6
Continuous
 62
     7
370
    18
100
AcDbLine
 10
31.5201639481
 20
31.9855354998
 30
0.0
 11
31.5201639481
 21
29.8688688331
 31
0.0
  0
MTEXT
  5
1CB
330
1BC
100
AcDbEntity
  8
0
  6
Continuous
 62
     7
370
    18
100
AcDbMText
 10
29.454388653
 20
35.1282696579
 30
0.0
 40
0.7055555556
 41
0.0
 71
     1
 72
     1
  1
%%c
  7
SLDTEXTSTYLE0
 73
     1
 44
1.0
  0
MTEXT
  5
1CC
330
1BC
100
AcDbEntity
  8
0
  6
Continuous
 62
     7
370
    18
100
AcDbMText
 10
30.5193855866
 20
35.1282696579
 30
0.0
 40
0.7055555556
 41
0.0
 71
     1
 72
     1
  1
4.0mm
  7
SLDTEXTSTYLE0
 73
     1
 44
1.0
  0
MTEXT
  5
1CD
330
1BC
100
AcDbEntity
  8
0
  6
Continuous
 62
     7
370
    18
100
AcDbMText
 10
30.227298768
 20
33.8641492834
 30
0.0
 40
0.7055555556
 41
0.0
 71
     1
 72
     1
  1
0.16in
  7
SLDTEXTSTYLE0
 73
     1
 44
1.0
  0
ENDBLK
  5
1BE
330
1BC
100
AcDbEntity
  8
0
100
AcDbBlockEnd
  0
BLOCK
  5
1D0
330
1CF
100
AcDbEntity
  8
0
100
AcDbBlockBegin
  2
SW_NOTE_5
 70
     0
 10
0.0
 20
0.0
 30
0.0
  3
SW_NOTE_5
  1

  0
CIRCLE
  5
1D2
330
1CF
100
AcDbEntity
  8
0
  6
Continuous
 62
     0
370
     0
100
AcDbCircle
 10
1.4236248341
 20
0.0
 30
0.0
 40
1.423624834115822
  0
MTEXT
  5
1D3
330
1CF
100
AcDbEntity
  8
0
  6
Continuous
 62
     0
370
     0
100
AcDbMText
 10
1.4129680043
 20
0.5323394823
 30
0.0
 40
1.0583333333
 41
0.0
 71
     2
 72
     1
  1
4
  7
SLDTEXTSTYLE0
 73
     1
 44
1.0
  0
ENDBLK
  5
1D1
330
1CF
100
AcDbEntity
  8
0
100
AcDbBlockEnd
  0
BLOCK
  5
1D8
330
1D7
100
AcDbEntity
  8
0
100
AcDbBlockBegin
  2
SW_NOTE_6
 70
     0
 10
0.0
 20
0.0
 30
0.0
  3
SW_NOTE_6
  1

  0
CIRCLE
  5
1DA
330
1D7
100
AcDbEntity
  8
0
  6
Continuous
 62
     0
370
     0
100
AcDbCircle
 10
1.4236248341
 20
0.0
 30
0.0
 40
1.423624834115838
  0
MTEXT
  5
1DB
330
1D7
100
AcDbEntity
  8
0
  6
Continuous
 62
     0
370
     0
100
AcDbMText
 10
1.4129680043
 20
0.5323394823
 30
0.0
 40
1.0583333333
 41
0.0
 71
     2
 72
     1
  1
5
  7
SLDTEXTSTYLE0
 73
     1
 44
1.0
  0
ENDBLK
  5
1D9
330
1D7
100
AcDbEntity
  8
0
100
AcDbBlockEnd
  0
BLOCK
  5
1DF
330
1DE
100
AcDbEntity
  8
0
100
AcDbBlockBegin
  2
SW_NOTE_7
 70
     0
 10
0.0
 20
0.0
 30
0.0
  3
SW_NOTE_7
  1

  0
CIRCLE
  5
1E1
330
1DE
100
AcDbEntity
  8
0
  6
Continuous
 62
     0
370
     0
100
AcDbCircle
 10
-1.4236248341
 20
0.0
 30
0.0
 40
1.423624834115838
  0
MTEXT
  5
1E2
330
1DE
100
AcDbEntity
  8
0
  6
Continuous
 62
     0
370
     0
100
AcDbMText
 10
-1.4342816639
 20
0.5323394823
 30
0.0
 40
1.0583333333
 41
0.0
 71
     2
 72
     1
  1
1
  7
SLDTEXTSTYLE0
 73
     1
 44
1.0
  0
ENDBLK
  5
1E0
330
1DE
100
AcDbEntity
  8
0
100
AcDbBlockEnd
  0
BLOCK
  5
1E6
330
1E5
100
AcDbEntity
  8
0
100
AcDbBlockBegin
  2
SW_NOTE_8
 70
     0
 10
0.0
 20
0.0
 30
0.0
  3
SW_NOTE_8
  1

  0
CIRCLE
  5
1E8
330
1E5
100
AcDbEntity
  8
0
  6
Continuous
 62
     0
370
     0
100
AcDbCircle
 10
-1.4236248341
 20
0.0
 30
0.0
 40
1.42362483411583
  0
MTEXT
  5
1E9
330
1E5
100
AcDbEntity
  8
0
  6
Continuous
 62
     0
370
     0
100
AcDbMText
 10
-1.4342816639
 20
0.5323394823
 30
0.0
 40
1.0583333333
 41
0.0
 71
     2
 72
     1
  1
2
  7
SLDTEXTSTYLE0
 73
     1
 44
1.0
  0
ENDBLK
  5
1E7
330
1E5
100
AcDbEntity
  8
0
100
AcDbBlockEnd
  0
BLOCK
  5
1ED
330
1EC
100
AcDbEntity
  8
0
100
AcDbBlockBegin
  2
SW_NOTE_9
 70
     0
 10
0.0
 20
0.0
 30
0.0
  3
SW_NOTE_9
  1

  0
CIRCLE
  5
1EF
330
1EC
100
AcDbEntity
  8
0
  6
Continuous
 62
     0
370
     0
100
AcDbCircle
 10
-1.4236248341
 20
0.0
 30
0.0
 40
1.423624834115835
  0
MTEXT
  5
1F0
330
1EC
100
AcDbEntity
  8
0
  6
Continuous
 62
     0
370
     0
100
AcDbMText
 10
-1.4342816639
 20
0.5323394823
 30
0.0
 40
1.0583333333
 41
0.0
 71
     2
 72
     1
  1
3
  7
SLDTEXTSTYLE0
 73
     1
 44
1.0
  0
ENDBLK
  5
1EE
330
1EC
100
AcDbEntity
  8
0
100
AcDbBlockEnd
  0
BLOCK
  5
1F4
330
1F3
100
AcDbEntity
  8
0
100
AcDbBlockBegin
  2
SW_NOTE_10
 70
     0
 10
0.0
 20
0.0
 30
0.0
  3
SW_NOTE_10
  1

  0
CIRCLE
  5
1F6
330
1F3
100
AcDbEntity
  8
0
  6
Continuous
 62
     0
370
     0
100
AcDbCircle
 10
1.4236248341
 20
0.0
 30
0.0
 40
1.423624834115838
  0
MTEXT
  5
1F7
330
1F3
100
AcDbEntity
  8
0
  6
Continuous
 62
     0
370
     0
100
AcDbMText
 10
1.4129680043
 20
0.5323394823
 30
0.0
 40
1.0583333333
 41
0.0
 71
     2
 72
     1
  1
6
  7
SLDTEXTSTYLE0
 73
     1
 44
1.0
  0
ENDBLK
  5
1F5
330
1F3
100
AcDbEntity
  8
0
100
AcDbBlockEnd
  0
BLOCK
  5
1FB
330
1FA
100
AcDbEntity
  8
0
100
AcDbBlockBegin
  2
SW_BROKEN_VIEW_0
 70
     0
 10
0.0
 20
0.0
 30
0.0
  3
SW_BROKEN_VIEW_0
  1

  0
ENDBLK
  5
1FC
330
1FA
100
AcDbEntity
  8
0
100
AcDbBlockEnd
  0
BLOCK
  5
477
330
476
100
AcDbEntity
  8
0
100
AcDbBlockBegin
  2
_D_4
 70
     0
 10
0.0
 20
0.0
 30
0.0
  3
_D_4
  1

  0
SOLID
  5
479
330
476
100
AcDbEntity
  8
0
  6
Continuous
 62
     7
370
    18
100
AcDbTrace
 10
6.9074983144
 20
57.8573480986
 30
0.0
 11
7.9658316477
 21
57.6880147653
 31
0.0
 12
7.9658316477
 22
58.0266814319
 32
0.0
 13
7.9658316477
 23
58.0266814319
 33
0.0
  0
SOLID
  5
47A
330
476
100
AcDbEntity
  8
0
  6
Continuous
 62
     7
370
    18
100
AcDbTrace
 10
84.4921980321
 20
57.8573480986
 30
0.0
 11
83.4338646988
 21
58.0266814319
 31
0.0
 12
83.4338646988
 22
57.6880147653
 32
0.0
 13
83.4338646988
 23
57.6880147653
 33
0.0
  0
LINE
  5
47B
330
476
100
AcDbEntity
  8
0
  6
Continuous
 62
     7
370
    18
100
AcDbLine
 10
6.9074983144
 20
55.7308443016
 30
0.0
 11
6.9074983144
 21
58.4500147653
 31
0.0
  0
LINE
  5
47C
330
476
100
AcDbEntity
  8
0
  6
Continuous
 62
     7
370
    18
100
AcDbLine
 10
84.4921980321
 20
56.0880665238
 30
0.0
 11
84.4921980321
 21
58.4500147653
 31
0.0
  0
LINE
  5
47D
330
476
100
AcDbEntity
  8
0
  6
Continuous
 62
     7
370
    18
100
AcDbLine
 10
6.9074983144
 20
57.8573480986
 30
0.0
 11
25.8192777646
 21
57.8573480986
 31
0.0
  0
LINE
  5
47E
330
476
100
AcDbEntity
  8
0
  6
Continuous
 62
     7
370
    18
100
AcDbLine
 10
84.4921980321
 20
57.8573480986
 30
0.0
 11
49.5864538667
 21
57.8573480986
 31
0.0
  0
LINE
  5
47F
330
476
100
AcDbEntity
  8
0
  6
Continuous
 62
     7
370
    18
100
AcDbLine
 10
25.8192777646
 20
57.8573480986
 30
0.0
 11
26.0544629498
 21
57.3869777282
 31
0.0
  0
LINE
  5
480
330
476
100
AcDbEntity
  8
0
  6
Continuous
 62
     7
370
    18
100
AcDbLine
 10
26.0544629498
 20
57.3869777282
 30
0.0
 11
26.5248333202
 21
58.327718469
 31
0.0
  0
LINE
  5
481
330
476
100
AcDbEntity
  8
0
  6
Continuous
 62
     7
370
    18
100
AcDbLine
 10
26.5248333202
 20
58.327718469
 30
0.0
 11
26.7600185054
 21
57.8573480986
 31
0.0
  0
LINE
  5
482
330
476
100
AcDbEntity
  8
0
  6
Continuous
 62
     7
370
    18
100
AcDbLine
 10
26.7600185054
 20
57.8573480986
 30
0.0
 11
41.8132424798
 21
57.8573480986
 31
0.0
  0
MTEXT
  5
483
330
476
100
AcDbEntity
  8
0
  6
Continuous
 62
     7
370
    18
100
AcDbMText
 10
41.9564843185
 20
58.2063322857
 30
0.0
 40
0.7055555556
 41
0.0
 71
     1
 72
     1
  1
1m +0.075/-0.0m
  7
SLDTEXTSTYLE0
 73
     1
 44
1.0
  0
ENDBLK
  5
478
330
476
100
AcDbEntity
  8
0
100
AcDbBlockEnd
  0
BLOCK
  5
485
330
484
100
AcDbEntity
  8
0
100
AcDbBlockBegin
  2
SW_NOTE_11
 70
     0
 10
0.0
 20
0.0
 30
0.0
  3
SW_NOTE_11
  1

  0
MTEXT
  5
487
330
484
100
AcDbEntity
  8
0
  6
Continuous
 62
     0
370
     0
100
AcDbMText
 10
0.1901779901
 20
0.27940149
 30
0.0
 40
0.8819444444
 41
0.0
 71
     1
 72
     1
  1
SM600 FIBER INSIDE
  7
SLDTEXTSTYLE2
 73
     1
 44
1.0
  0
MTEXT
  5
488
330
484
100
AcDbEntity
  8
0
  6
Continuous
 62
     0
370
     0
100
AcDbMText
 10
0.1901779901
 20
-1.2298578096
 30
0.0
 40
0.8819444444
 41
0.0
 71
     1
 72
     1
  1
Ø
  7
SLDTEXTSTYLE2
 73
     1
 44
1.0
  0
MTEXT
  5
489
330
484
100
AcDbEntity
  8
0
  6
Continuous
 62
     0
370
     0
100
AcDbMText
 10
1.1047870498
 20
-1.2396571858
 30
0.0
 40
0.8819444444
 41
0.0
 71
     1
 72
     1
  1
900 µm
  7
SLDTEXTSTYLE0
 73
     1
 44
1.0
  0
MTEXT
  5
48A
330
484
100
AcDbEntity
  8
0
  6
Continuous
 62
     0
370
     0
100
AcDbMText
 10
5.495727187
 20
-1.2298578096
 30
0.0
 40
0.8819444444
 41
0.0
 71
     1
 72
     1
  1
YELLOW PVC
  7
SLDTEXTSTYLE2
 73
     1
 44
1.0
  0
MTEXT
  5
48B
330
484
100
AcDbEntity
  8
0
  6
Continuous
 62
     0
370
     0
100
AcDbMText
 10
0.1901779901
 20
-2.7489164855
 30
0.0
 40
0.8819444444
 41
0.0
 71
     1
 72
     1
  1
FURCATION TUBING
  7
SLDTEXTSTYLE2
 73
     1
 44
1.0
  0
ENDBLK
  5
486
330
484
100
AcDbEntity
  8
0
100
AcDbBlockEnd
  0
ENDSEC
  0
SECTION
  2
ENTITIES
  0
LINE
  5
81
330
1F
100
AcDbEntity
  8
0
  6
Continuous
 62
     7
370
    18
100
AcDbLine
 10
0.5264500337
 20
71.5484599989
 30
0.0
 11
92.6630689497
 21
71.5484599989
 31
0.0
  0
LINE
  5
82
330
1F
100
AcDbEntity
  8
0
  6
Continuous
 62
     7
370
    18
100
AcDbLine
 10
0.5264500337
 20
71.5484599989
 30
0.0
 11
0.5264500337
 21
0.3010547532
 31
0.0
  0
LINE
  5
83
330
1F
100
AcDbEntity
  8
0
  6
Continuous
 62
     7
370
    18
100
AcDbLine
 10
92.6630689497
 20
0.3010547532
 30
0.0
 11
0.5264500337
 21
0.3010547532
 31
0.0
  0
LINE
  5
84
330
1F
100
AcDbEntity
  8
0
  6
Continuous
 62
     7
370
    18
100
AcDbLine
 10
92.6630689497
 20
0.3010547532
 30
0.0
 11
92.6630689497
 21
71.5484599989
 31
0.0
  0
LINE
  5
85
330
1F
100
AcDbEntity
  8
0
  6
Continuous
 62
     7
370
    18
100
AcDbLine
 10
71.914254668
 20
4.0986296711
 30
0.0
 11
57.2109198895
 21
4.0986296711
 31
0.0
  0
LINE
  5
86
330
1F
100
AcDbEntity
  8
0
  6
Continuous
 62
     7
370
    18
100
AcDbLine
 10
57.2109198895
 20
4.0986296711
 30
0.0
 11
57.2109198895
 21
8.7220467502
 31
0.0
  0
LINE
  5
87
330
1F
100
AcDbEntity
  8
0
  6
Continuous
 62
     7
370
    18
100
AcDbLine
 10
57.2109198895
 20
0.3010547532
 30
0.0
 11
57.2109198895
 21
8.7220467502
 31
0.0
  0
LINE
  5
88
330
1F
100
AcDbEntity
  8
0
  6
Continuous
 62
     7
370
    18
100
AcDbLine
 10
71.914254668
 20
5.7201526517
 30
0.0
 11
92.6630689497
 21
5.7201526517
 31
0.0
  0
LINE
  5
89
330
1F
100
AcDbEntity
  8
0
  6
Continuous
 62
     7
370
    18
100
AcDbLine
 10
71.914254668
 20
11.7464836119
 30
0.0
 11
71.914254668
 21
0.3010547532
 31
0.0
  0
LINE
  5
8A
330
1F
100
AcDbEntity
  8
0
  6
Continuous
 62
     7
370
    18
100
AcDbLine
 10
71.914254668
 20
8.7220467502
 30
0.0
 11
57.2109198895
 21
8.7220467502
 31
0.0
  0
LINE
  5
8B
330
1F
100
AcDbEntity
  8
0
  6
Continuous
 62
     7
370
    18
100
AcDbLine
 10
71.914254668
 20
3.0469733537
 30
0.0
 11
92.6630689497
 21
3.0469733537
 31
0.0
  0
LINE
  5
8C
330
1F
100
AcDbEntity
  8
0
  6
Continuous
 62
     7
370
    18
100
AcDbLine
 10
71.914254668
 20
5.640560801
 30
0.0
 11
57.2109198895
 21
5.640560801
 31
0.0
  0
LINE
  5
8D
330
1F
100
AcDbEntity
  8
0
  6
Continuous
 62
     7
370
    18
100
AcDbLine
 10
71.914254668
 20
7.1624668514
 30
0.0
 11
57.2109198895
 21
7.1624668514
 31
0.0
  0
LINE
  5
8E
330
1F
100
AcDbEntity
  8
0
  6
Continuous
 62
     7
370
    18
100
AcDbLine
 10
62.0446033568
 20
8.7220467502
 30
0.0
 11
62.0446033568
 21
4.0986296711
 31
0.0
  0
LINE
  5
8F
330
1F
100
AcDbEntity
  8
0
  6
Continuous
 62
     7
370
    18
100
AcDbLine
 10
66.0715302063
 20
8.7220467502
 30
0.0
 11
66.0715302063
 21
4.0986296711
 31
0.0
  0
LINE
  5
90
330
1F
100
AcDbEntity
  8
0
  6
Continuous
 62
     7
370
    18
100
AcDbLine
 10
84.5830136123
 20
3.0469733537
 30
0.0
 11
84.5830136123
 21
0.3010547532
 31
0.0
  0
LINE
  5
91
330
1F
100
AcDbEntity
  8
0
  6
Continuous
 62
     7
370
    18
100
AcDbLine
 10
57.2109198895
 20
4.0986296711
 30
0.0
 11
57.2109198895
 21
2.5209114176
 31
0.0
  0
LINE
  5
92
330
1F
100
AcDbEntity
  8
0
  6
Continuous
 62
     7
370
    18
100
AcDbLine
 10
57.2109198895
 20
2.5209114176
 30
0.0
 11
71.914254668
 21
2.5209114176
 31
0.0
  0
LINE
  5
93
330
1F
100
AcDbEntity
  8
0
  6
Continuous
 62
     7
370
    18
100
AcDbLine
 10
57.2109198895
 20
2.5209114176
 30
0.0
 11
57.2109198895
 21
11.7464836119
 31
0.0
  0
LINE
  5
94
330
1F
100
AcDbEntity
  8
0
  6
Continuous
 62
     7
370
    18
100
AcDbLine
 10
57.2109198895
 20
11.7464836119
 30
0.0
 11
71.914254668
 21
11.7464836119
 31
0.0
  0
LINE
  5
95
330
1F
100
AcDbEntity
  8
0
  6
Continuous
 62
     7
370
    18
100
AcDbLine
 10
90.0561199398
 20
5.7201526517
 30
0.0
 11
90.0561199398
 21
3.0469733537
 31
0.0
  0
LINE
  5
96
330
1F
100
AcDbEntity
  8
0
  6
Continuous
 62
     7
370
    18
100
AcDbLine
 10
71.914254668
 20
11.7464836119
 30
0.0
 11
92.6630689497
 21
11.7464836119
 31
0.0
  0
LINE
  5
97
330
1F
100
AcDbEntity
  8
0
  6
Continuous
 62
     7
370
    18
100
AcDbLine
 10
92.6630689497
 20
11.7464836119
 30
0.0
 11
92.6630689497
 21
16.6777118716
 31
0.0
  0
LINE
  5
98
330
1F
100
AcDbEntity
  8
0
  6
Continuous
 62
     7
370
    18
100
AcDbLine
 10
71.914254668
 20
8.2975778482
 30
0.0
 11
92.6630689497
 21
8.2975778482
 31
0.0
  0
INSERT
  5
99
330
1F
100
AcDbEntity
  8
0
  6
Continuous
 62
     7
100
AcDbBlockReference
  2
Third Angle Projection Block
 10
39.2420734745
 20
5.172077983
 30
0.0
 41
0.8
 42
0.8
 43
0.8
  0
INSERT
  5
B7
330
1F
100
AcDbEntity
  8
0
  6
Continuous
 62
     7
370
     0
100
AcDbBlockReference
  2
SW_NOTE_0
 10
1.7881978345
 20
21.7925692718
 30
0.0
  0
MTEXT
  5
B8
330
1F
100
AcDbEntity
  8
0
  6
Continuous
 62
     7
370
     0
100
AcDbMText
 10
91.4251806283
 20
4.4186462292
 30
0.0
 40
1.0583333333
 41
0.0
 71
     2
 72
     1
  1
B
  7
SLDTEXTSTYLE0
 73
     1
 44
1.0
  0
MTEXT
  5
B9
330
1F
100
AcDbEntity
  8
0
  6
Continuous
 62
     7
370
     0
100
AcDbMText
 10
78.2095124167
 20
1.7102187966
 30
0.0
 40
1.0583333333
 41
0.0
 71
     2
 72
     1
  1
CFS5-633F
  7
SLDTEXTSTYLE0
 73
     1
 44
1.0
  0
MTEXT
  5
BA
330
1F
100
AcDbEntity
  8
0
  6
Continuous
 62
     7
370
     0
100
AcDbMText
 10
72.139992202
 20
5.6081059533
 30
0.0
 40
0.7055555556
 41
0.0
 71
     1
 72
     1
  1
MATERIAL
  7
SLDTEXTSTYLE0
 73
     1
 44
1.0
  0
MTEXT
  5
BB
330
1F
100
AcDbEntity
  8
0
  6
Continuous
 62
     7
370
     0
100
AcDbMText
 10
58.0769821887
 20
6.6848513087
 30
0.0
 40
0.6173611111
 41
0.0
 71
     1
 72
     1
  1
DRAWN
  7
SLDTEXTSTYLE0
 73
     1
 44
1.0
  0
MTEXT
  5
BC
330
1F
100
AcDbEntity
  8
0
  6
Continuous
 62
     7
370
     0
100
AcDbMText
 10
57.4653374848
 20
5.1929056582
 30
0.0
 40
0.6173611111
 41
0.0
 71
     1
 72
     1
  1
APPROVAL
  7
SLDTEXTSTYLE0
 73
     1
 44
1.0
  0
MTEXT
  5
BD
330
1F
100
AcDbEntity
  8
0
  6
Continuous
 62
     7
370
     0
100
AcDbMText
 10
90.5720217892
 20
5.3890582102
 30
0.0
 40
0.7055555556
 41
0.0
 71
     1
 72
     1
  1
REV
  7
SLDTEXTSTYLE0
 73
     1
 44
1.0
  0
MTEXT
  5
BE
330
1F
100
AcDbEntity
  8
0
  6
Continuous
 62
     7
370
     0
100
AcDbMText
 10
63.4319565483
 20
6.7725715634
 30
0.0
 40
0.7055555556
 41
0.0
 71
     1
 72
     1
  1
DFS
  7
SLDTEXTSTYLE0
 73
     1
 44
1.0
  0
MTEXT
  5
BF
330
1F
100
AcDbEntity
  8
0
  6
Continuous
 62
     7
370
     0
100
AcDbMText
 10
63.4319565483
 20
5.280625913
 30
0.0
 40
0.7055555556
 41
0.0
 71
     1
 72
     1
  1
BG
  7
SLDTEXTSTYLE0
 73
     1
 44
1.0
  0
MTEXT
  5
C0
330
1F
100
AcDbEntity
  8
0
  6
Continuous
 62
     7
370
     0
100
AcDbMText
 10
66.6220812291
 20
6.7725715634
 30
0.0
 40
0.7055555556
 41
0.0
 71
     1
 72
     1
  1
27/JAN/21
  7
SLDTEXTSTYLE0
 73
     1
 44
1.0
  0
MTEXT
  5
C1
330
1F
100
AcDbEntity
  8
0
  6
Continuous
 62
     7
370
     0
100
AcDbMText
 10
67.8715024618
 20
8.2740465256
 30
0.0
 40
0.7055555556
 41
0.0
 71
     1
 72
     1
  1
DATE
  7
SLDTEXTSTYLE0
 73
     1
 44
1.0
  0
MTEXT
  5
C2
330
1F
100
AcDbEntity
  8
0
  6
Continuous
 62
     7
370
     0
100
AcDbMText
 10
66.6220812291
 20
5.280625913
 30
0.0
 40
0.7055555556
 41
0.0
 71
     1
 72
     1
  1
01/FEB/21
  7
SLDTEXTSTYLE0
 73
     1
 44
1.0
  0
MTEXT
  5
C4
330
1F
100
AcDbEntity
  8
0
  6
Continuous
 62
     7
370
     0
100
AcDbMText
 10
76.4676354923
 20
9.2652493523
 30
0.0
 40
0.7055555556
 41
0.0
 71
     1
 72
     1
  1
w w w . t h o r  l a b s . c o m
  7
SLDTEXTSTYLE3
 73
     1
 44
1.0
  0
MTEXT
  5
C5
330
1F
100
AcDbEntity
  8
0
  6
Continuous
 62
     7
370
     0
100
AcDbMText
 10
72.2334678439
 20
2.783159729
 30
0.0
 40
0.7055555556
 41
0.0
 71
     1
 72
     1
  1
ITEM #
  7
SLDTEXTSTYLE0
 73
     1
 44
1.0
  0
MTEXT
  5
C6
330
1F
100
AcDbEntity
  8
0
  6
Continuous
 62
     7
370
     0
100
AcDbMText
 10
84.8439333638
 20
2.783159729
 30
0.0
 40
0.7055555556
 41
0.0
 71
     1
 72
     1
  1
APPROX WEIGHT
  7
SLDTEXTSTYLE0
 73
     1
 44
1.0
  0
MTEXT
  5
C7
330
1F
100
AcDbEntity
  8
0
  6
Continuous
 62
     7
370
     0
100
AcDbMText
 10
81.1451431628
 20
4.6082550605
 30
0.0
 40
1.0583333333
 41
0.0
 71
     2
 72
     1
  1
SEE TABLE
  7
SLDTEXTSTYLE0
 73
     1
 44
1.0
  0
MTEXT
  5
C8
330
1F
100
AcDbEntity
  8
0
  6
Continuous
 62
     7
370
     0
100
AcDbMText
 10
88.7397650733
 20
1.7102187966
 30
0.0
 40
1.0583333333
 41
0.0
 71
     2
 72
     1
  1
7.7 g
  7
SLDTEXTSTYLE2
 73
     1
 44
1.0
  0
INSERT
  5
CE
330
1F
100
AcDbEntity
  8
0
  6
Continuous
 62
     7
370
     0
100
AcDbBlockReference
  2
SW_NOTE_1
 10
58.2810046684
 20
1.48528516
 30
0.0
  0
INSERT
  5
D4
330
1F
100
AcDbEntity
  8
0
  6
Continuous
 62
     7
370
     0
100
AcDbBlockReference
  2
SW_NOTE_2
 10
58.1827883446
 20
10.1611774238
 30
0.0
  0
MTEXT
  5
D5
330
1F
100
AcDbEntity
  8
0
  6
Continuous
 62
     7
370
     0
100
AcDbMText
 10
62.6424529425
 20
8.2740465256
 30
0.0
 40
0.7055555556
 41
0.0
 71
     1
 72
     1
  1
NAME
  7
SLDTEXTSTYLE0
 73
     1
 44
1.0
  0
INSERT
  5
DB
330
1F
100
AcDbEntity
  8
0
  6
Continuous
 62
     7
370
     0
100
AcDbBlockReference
  2
SW_NOTE_3
 10
19.5401555836
 20
2.7258869911
 30
0.0
  0
INSERT
  5
E2
330
1F
100
AcDbEntity
  8
0
  6
Continuous
 62
     7
370
     0
100
AcDbBlockReference
  2
SW_NOTE_4
 10
72.5831579515
 20
7.0611786438
 30
0.0
  0
MTEXT
  5
E3
330
1F
100
AcDbEntity
  8
0
  6
Continuous
 62
     7
370
     0
100
AcDbMText
 10
59.2308610641
 20
3.5714033838
 30
0.0
 40
0.5291666667
 41
0.0
 71
     1
 72
     1
  1
COPYRIGHT © 2021 BY THORLABS
  7
SLDTEXTSTYLE0
 73
     1
 44
1.0
  0
INSERT
  5
109
330
1F
100
AcDbEntity
  8
0
  6
Continuous
 62
     7
370
     0
100
AcDbBlockReference
  2
SW_TABLEANNOTATION_0
 10
0.524836537
 20
71.5370500434
 30
0.0
  0
CIRCLE
  5
10A
330
1F
100
AcDbEntity
  8
0
  6
Continuous
 62
     7
370
    18
100
AcDbCircle
 10
14.4223748313
 20
33.9855354998
 30
0.0
 40
2.000000000000001
  0
CIRCLE
  5
10B
330
1F
100
AcDbEntity
  8
0
  6
Continuous
 62
     7
370
    18
100
AcDbCircle
 10
14.4223748313
 20
33.9855354998
 30
0.0
 40
2.857499999999999
  0
CIRCLE
  5
10C
330
1F
100
AcDbEntity
  8
0
  6
Continuous
 62
     7
370
    18
100
AcDbCircle
 10
14.4223748313
 20
33.9855354998
 30
0.0
 40
2.006599999999998
  0
DIMENSION
  5
10D
330
1F
100
AcDbEntity
  8
0
  6
Continuous
 62
     7
370
    18
100
AcDbDimension
  2
_D
 10
12.5622946832
 20
36.1547307636
 30
0.0
 11
23.1131457771
 21
27.7406265292
 31
0.0
 70
   163
  1
<>
 71
     1
 42
-1.0
  3
SLDDIMSTYLE0
100
AcDbDiametricDimension
 15
16.2824549795
 25
31.816340236
 35
0.0
 40
0.0
  0
LINE
  5
11E
330
1F
100
AcDbEntity
  8
0
  6
PHANTOM
 62
     7
370
    35
100
AcDbLine
 10
14.4223748313
 20
38.473866494
 30
0.0
 11
14.4223748313
 21
29.4972045056
 31
0.0
  0
LINE
  5
11F
330
1F
100
AcDbEntity
  8
0
  6
Continuous
 62
     7
370
    35
100
AcDbLine
 10
14.4223748313
 20
38.473866494
 30
0.0
 11
11.459041498
 21
38.473866494
 31
0.0
  0
SOLID
  5
120
330
1F
100
AcDbEntity
  8
0
  6
Continuous
 62
     7
370
    35
100
AcDbTrace
 10
11.459041498
 20
38.473866494
 30
0.0
 11
12.729041498
 21
38.2621998274
 31
0.0
 12
12.729041498
 22
38.6855331607
 32
0.0
 13
12.729041498
 23
38.6855331607
 33
0.0
  0
LINE
  5
121
330
1F
100
AcDbEntity
  8
0
  6
Continuous
 62
     7
370
    35
100
AcDbLine
 10
14.4223748313
 20
29.4972045056
 30
0.0
 11
11.459041498
 21
29.4972045056
 31
0.0
  0
SOLID
  5
122
330
1F
100
AcDbEntity
  8
0
  6
Continuous
 62
     7
370
    35
100
AcDbTrace
 10
11.459041498
 20
29.4972045056
 30
0.0
 11
12.729041498
 21
29.2855378389
 31
0.0
 12
12.729041498
 22
29.7088711722
 32
0.0
 13
12.729041498
 23
29.7088711722
 33
0.0
  0
MTEXT
  5
123
330
1F
100
AcDbEntity
  8
0
  6
Continuous
 62
     7
100
AcDbMText
 10
10.3239914268
 20
39.1739664229
 30
0.0
 40
0.8819444444
 41
0.0
 71
     1
 72
     1
  1
A
  7
SLDTEXTSTYLE0
 73
     1
 44
1.0
  0
MTEXT
  5
124
330
1F
100
AcDbEntity
  8
0
  6
Continuous
 62
     7
100
AcDbMText
 10
10.3239914268
 20
30.1973044344
 30
0.0
 40
0.8819444444
 41
0.0
 71
     1
 72
     1
  1
A
  7
SLDTEXTSTYLE0
 73
     1
 44
1.0
  0
LINE
  5
125
330
1F
100
AcDbEntity
  8
0
  6
Continuous
 62
     7
370
    18
100
AcDbLine
 10
39.9662293574
 20
35.9855355948
 30
0.0
 11
37.5334061762
 21
35.9855355948
 31
0.0
  0
ARC
  5
126
330
1F
100
AcDbEntity
  8
0
  6
Continuous
 62
     7
370
    18
100
AcDbCircle
 10
-2.1713258428
 20
33.9855354998
 30
0.0
 40
42.185
100
AcDbArc
 50
357.2825760114
 51
2.7174239886
  0
LINE
  5
127
330
1F
100
AcDbEntity
  8
0
  6
Continuous
 62
     7
370
    18
100
AcDbLine
 10
37.5334061762
 20
31.9855354048
 30
0.0
 11
39.9662293574
 21
31.9855354048
 31
0.0
  0
ARC
  5
128
330
1F
100
AcDbEntity
  8
0
  6
Continuous
 62
     7
370
    18
100
AcDbCircle
 10
40.4056741572
 20
33.9855354998
 30
0.0
 40
3.500000000000022
100
AcDbArc
 50
145.150095421
 51
214.849904579
  0
LINE
  5
129
330
1F
100
AcDbEntity
  8
0
  6
Continuous
 62
     7
370
    18
100
AcDbLine
 10
51.7518557688
 20
31.1280355111
 30
0.0
 11
36.5118421694
 21
31.1280355111
 31
0.0
  0
LINE
  5
12A
330
1F
100
AcDbEntity
  8
0
  6
Continuous
 62
     7
370
    18
100
AcDbLine
 10
36.5118421694
 20
36.8430354886
 30
0.0
 11
51.7518557688
 21
36.8430354886
 31
0.0
  0
LINE
  5
12B
330
1F
100
AcDbEntity
  8
0
  6
Continuous
 62
     7
370
    18
100
AcDbLine
 10
49.7452654024
 20
36.3477355588
 30
0.0
 11
51.7518557688
 21
36.3477355588
 31
0.0
  0
LINE
  5
12C
330
1F
100
AcDbEntity
  8
0
  6
Continuous
 62
     7
370
    18
100
AcDbLine
 10
51.7518557688
 20
31.6233354408
 30
0.0
 11
49.7452654024
 21
31.6233354408
 31
0.0
  0
LINE
  5
12D
330
1F
100
AcDbEntity
  8
0
  6
Continuous
 62
     7
370
    18
100
AcDbLine
 10
51.7518557688
 20
31.6233354408
 30
0.0
 11
51.7518557688
 21
31.7503354765
 31
0.0
  0
LINE
  5
12E
330
1F
100
AcDbEntity
  8
0
  6
Continuous
 62
     7
370
    18
100
AcDbLine
 10
51.7518557688
 20
36.2207355231
 30
0.0
 11
51.7518557688
 21
36.3477355588
 31
0.0
  0
LINE
  5
12F
330
1F
100
AcDbEntity
  8
0
  6
Continuous
 62
     7
370
    18
100
AcDbLine
 10
39.9662293574
 20
31.9789355874
 30
0.0
 11
36.5118421694
 21
31.9789355874
 31
0.0
  0
LINE
  5
130
330
1F
100
AcDbEntity
  8
0
  6
Continuous
 62
     7
370
    18
100
AcDbLine
 10
36.5118421694
 20
35.9921354122
 30
0.0
 11
39.9662293574
 21
35.9921354122
 31
0.0
  0
LINE
  5
131
330
1F
100
AcDbEntity
  8
0
  6
Continuous
 62
     7
370
    18
100
AcDbLine
 10
36.5118421694
 20
35.9921354122
 30
0.0
 11
36.5118421694
 21
31.9789355874
 31
0.0
  0
LINE
  5
132
330
1F
100
AcDbEntity
  8
0
  6
Continuous
 62
     7
370
    18
100
AcDbLine
 10
40.9314669748
 20
32.2710354833
 30
0.0
 11
39.9662293574
 21
32.2710354833
 31
0.0
  0
LINE
  5
133
330
1F
100
AcDbEntity
  8
0
  6
Continuous
 62
     7
370
    18
100
AcDbLine
 10
39.9662293574
 20
35.7000355163
 30
0.0
 11
40.9314669748
 21
35.7000355163
 31
0.0
  0
LINE
  5
134
330
1F
100
AcDbEntity
  8
0
  6
Continuous
 62
     7
370
    18
100
AcDbLine
 10
49.7452654024
 20
32.7345854623
 30
0.0
 11
40.9314669748
 21
32.7345854623
 31
0.0
  0
LINE
  5
135
330
1F
100
AcDbEntity
  8
0
  6
Continuous
 62
     7
370
    18
100
AcDbLine
 10
40.9314669748
 20
35.2364855373
 30
0.0
 11
49.7452654024
 21
35.2364855373
 31
0.0
  0
LINE
  5
136
330
1F
100
AcDbEntity
  8
0
  6
Continuous
 62
     7
370
    18
100
AcDbLine
 10
40.9314669748
 20
32.7345854623
 30
0.0
 11
40.9314669748
 21
35.2364855373
 31
0.0
  0
LINE
  5
137
330
1F
100
AcDbEntity
  8
0
  6
Continuous
 62
     7
370
    18
100
AcDbLine
 10
49.7452654024
 20
35.2364855373
 30
0.0
 11
49.7452654024
 21
35.2305355502
 31
0.0
  0
LINE
  5
138
330
1F
100
AcDbEntity
  8
0
  6
Continuous
 62
     7
370
    18
100
AcDbLine
 10
49.7452654024
 20
32.7405354494
 30
0.0
 11
49.7452654024
 21
32.7345854623
 31
0.0
  0
LINE
  5
139
330
1F
100
AcDbEntity
  8
0
  6
Continuous
 62
     7
370
    18
100
AcDbLine
 10
40.9314669748
 20
32.2710354833
 30
0.0
 11
40.9314669748
 21
32.7345854623
 31
0.0
  0
LINE
  5
13A
330
1F
100
AcDbEntity
  8
0
  6
Continuous
 62
     7
370
    18
100
AcDbLine
 10
39.9662293574
 20
31.9789355874
 30
0.0
 11
39.9662293574
 21
32.2710354833
 31
0.0
  0
LINE
  5
13B
330
1F
100
AcDbEntity
  8
0
  6
Continuous
 62
     7
370
    18
100
AcDbLine
 10
49.7452654024
 20
32.7345854623
 30
0.0
 11
49.7452654024
 21
31.6233354408
 31
0.0
  0
LINE
  5
13C
330
1F
100
AcDbEntity
  8
0
  6
Continuous
 62
     7
370
    18
100
AcDbLine
 10
36.5118421694
 20
31.1280355111
 30
0.0
 11
36.5118421694
 21
31.9789355874
 31
0.0
  0
LINE
  5
13D
330
1F
100
AcDbEntity
  8
0
  6
Continuous
 62
     7
370
    18
100
AcDbLine
 10
51.7518557688
 20
31.1280355111
 30
0.0
 11
51.7518557688
 21
31.6233354408
 31
0.0
  0
LINE
  5
13E
330
1F
100
AcDbEntity
  8
0
  6
Continuous
 62
     7
370
    18
100
AcDbLine
 10
40.9314669748
 20
35.2364855373
 30
0.0
 11
40.9314669748
 21
35.7000355163
 31
0.0
  0
LINE
  5
13F
330
1F
100
AcDbEntity
  8
0
  6
Continuous
 62
     7
370
    18
100
AcDbLine
 10
39.9662293574
 20
35.7000355163
 30
0.0
 11
39.9662293574
 21
35.9921354122
 31
0.0
  0
LINE
  5
140
330
1F
100
AcDbEntity
  8
0
  6
Continuous
 62
     7
370
    18
100
AcDbLine
 10
49.7452654024
 20
36.3477355588
 30
0.0
 11
49.7452654024
 21
35.2364855373
 31
0.0
  0
LINE
  5
141
330
1F
100
AcDbEntity
  8
0
  6
Continuous
 62
     7
370
    18
100
AcDbLine
 10
36.5118421694
 20
35.9921354122
 30
0.0
 11
36.5118421694
 21
36.8430354886
 31
0.0
  0
LINE
  5
142
330
1F
100
AcDbEntity
  8
0
  6
Continuous
 62
     7
370
    18
100
AcDbLine
 10
51.7518557688
 20
36.3477355588
 30
0.0
 11
51.7518557688
 21
36.8430354886
 31
0.0
  0
LINE
  5
143
330
1F
100
AcDbEntity
  8
0
  6
Continuous
 62
     7
370
    18
100
AcDbLine
 10
67.7852369925
 20
32.9695354469
 30
0.0
 11
72.8652514597
 21
32.9695354469
 31
0.0
  0
LINE
  5
144
330
1F
100
AcDbEntity
  8
0
  6
Continuous
 62
     7
370
    18
100
AcDbLine
 10
72.8652514597
 20
35.0015355527
 30
0.0
 11
67.7852369925
 21
35.0015355527
 31
0.0
  0
LINE
  5
145
330
1F
100
AcDbEntity
  8
0
  6
Continuous
 62
     7
370
    18
100
AcDbLine
 10
66.1167837759
 20
34.4427354887
 30
0.0
 11
72.8652514597
 21
34.4427354887
 31
0.0
  0
LINE
  5
146
330
1F
100
AcDbEntity
  8
0
  6
Continuous
 62
     7
370
    18
100
AcDbLine
 10
66.1167837759
 20
34.4427354887
 30
0.0
 11
60.0207783362
 21
35.5095354628
 31
0.0
  0
LINE
  5
147
330
1F
100
AcDbEntity
  8
0
  6
Continuous
 62
     7
370
    18
100
AcDbLine
 10
60.0207783362
 20
35.5095354628
 30
0.0
 11
52.5452531954
 21
35.5095354628
 31
0.0
  0
LINE
  5
148
330
1F
100
AcDbEntity
  8
0
  6
Continuous
 62
     7
370
    18
100
AcDbLine
 10
52.5452531954
 20
36.3350355785
 30
0.0
 11
52.5452531954
 21
35.5095354628
 31
0.0
  0
LINE
  5
149
330
1F
100
AcDbEntity
  8
0
  6
Continuous
 62
     7
370
    18
100
AcDbLine
 10
60.1652301928
 20
36.3350355785
 30
0.0
 11
52.5452531954
 21
36.3350355785
 31
0.0
  0
LINE
  5
14A
330
1F
100
AcDbEntity
  8
0
  6
Continuous
 62
     7
370
    18
100
AcDbLine
 10
67.7852369925
 20
35.0015355527
 30
0.0
 11
60.1652301928
 21
36.3350355785
 31
0.0
  0
LINE
  5
14B
330
1F
100
AcDbEntity
  8
0
  6
Continuous
 62
     7
370
    18
100
AcDbLine
 10
72.8652514597
 20
34.4427354887
 30
0.0
 11
72.8652514597
 21
35.0015355527
 31
0.0
  0
LINE
  5
14C
330
1F
100
AcDbEntity
  8
0
  6
Continuous
 62
     7
370
    18
100
AcDbLine
 10
66.1167837759
 20
33.5283355109
 30
0.0
 11
66.1167837759
 21
33.5355355075
 31
0.0
  0
LINE
  5
14D
330
1F
100
AcDbEntity
  8
0
  6
Continuous
 62
     7
370
    18
100
AcDbLine
 10
66.1167837759
 20
34.4355354921
 30
0.0
 11
66.1167837759
 21
34.4427354887
 31
0.0
  0
LINE
  5
14E
330
1F
100
AcDbEntity
  8
0
  6
Continuous
 62
     7
370
    18
100
AcDbLine
 10
72.8652514597
 20
33.5283355109
 30
0.0
 11
66.1167837759
 21
33.5283355109
 31
0.0
  0
LINE
  5
14F
330
1F
100
AcDbEntity
  8
0
  6
Continuous
 62
     7
370
    18
100
AcDbLine
 10
72.8652514597
 20
33.5283355109
 30
0.0
 11
72.8652514597
 21
33.5355355075
 31
0.0
  0
LINE
  5
150
330
1F
100
AcDbEntity
  8
0
  6
Continuous
 62
     7
370
    18
100
AcDbLine
 10
72.8652514597
 20
34.4355354921
 30
0.0
 11
72.8652514597
 21
34.4427354887
 31
0.0
  0
LINE
  5
151
330
1F
100
AcDbEntity
  8
0
  6
Continuous
 62
     7
370
    18
100
AcDbLine
 10
52.5452531954
 20
32.4615355369
 30
0.0
 11
60.0207783362
 21
32.4615355369
 31
0.0
  0
LINE
  5
152
330
1F
100
AcDbEntity
  8
0
  6
Continuous
 62
     7
370
    18
100
AcDbLine
 10
60.0207783362
 20
32.4615355369
 30
0.0
 11
66.1167837759
 21
33.5283355109
 31
0.0
  0
LINE
  5
153
330
1F
100
AcDbEntity
  8
0
  6
Continuous
 62
     7
370
    18
100
AcDbLine
 10
60.1652301928
 20
31.6360354211
 30
0.0
 11
67.7852369925
 21
32.9695354469
 31
0.0
  0
LINE
  5
154
330
1F
100
AcDbEntity
  8
0
  6
Continuous
 62
     7
370
    18
100
AcDbLine
 10
52.5452531954
 20
31.6360354211
 30
0.0
 11
60.1652301928
 21
31.6360354211
 31
0.0
  0
LINE
  5
155
330
1F
100
AcDbEntity
  8
0
  6
Continuous
 62
     7
370
    18
100
AcDbLine
 10
52.5452531954
 20
32.4615355369
 30
0.0
 11
52.5452531954
 21
31.6360354211
 31
0.0
  0
LINE
  5
156
330
1F
100
AcDbEntity
  8
0
  6
Continuous
 62
     7
370
    18
100
AcDbLine
 10
72.8652514597
 20
32.9695354469
 30
0.0
 11
72.8652514597
 21
33.5283355109
 31
0.0
  0
LINE
  5
157
330
1F
100
AcDbEntity
  8
0
  6
Continuous
 62
     7
370
    18
100
AcDbLine
 10
60.0207783362
 20
35.5095354628
 30
0.0
 11
60.0207783362
 21
34.4355354921
 31
0.0
  0
LINE
  5
158
330
1F
100
AcDbEntity
  8
0
  6
Continuous
 62
     7
370
    18
100
AcDbLine
 10
60.0207783362
 20
33.5355355075
 30
0.0
 11
60.0207783362
 21
32.4615355369
 31
0.0
  0
LINE
  5
159
330
1F
100
AcDbEntity
  8
0
  6
Continuous
 62
     7
370
    18
100
AcDbLine
 10
52.5452531954
 20
35.2305355502
 30
0.0
 11
42.9452098986
 21
35.2305355502
 31
0.0
  0
LINE
  5
15A
330
1F
100
AcDbEntity
  8
0
  6
Continuous
 62
     7
370
    18
100
AcDbLine
 10
43.0012978693
 20
32.7405354494
 30
0.0
 11
52.5452531954
 21
32.7405354494
 31
0.0
  0
LINE
  5
15B
330
1F
100
AcDbEntity
  8
0
  6
Continuous
 62
     7
370
    18
100
AcDbLine
 10
42.7959598681
 20
35.0812840063
 30
0.0
 11
42.9452098986
 21
35.2305355502
 31
0.0
  0
LINE
  5
15C
330
1F
100
AcDbEntity
  8
0
  6
Continuous
 62
     7
370
    18
100
AcDbLine
 10
52.5452531954
 20
34.0490355031
 30
0.0
 11
42.8865589281
 21
34.0490355031
 31
0.0
  0
LINE
  5
15D
330
1F
100
AcDbEntity
  8
0
  6
Continuous
 62
     7
370
    18
100
AcDbLine
 10
42.8865589281
 20
34.0490355031
 30
0.0
 11
42.7959598681
 21
35.0812840063
 31
0.0
  0
LINE
  5
15E
330
1F
100
AcDbEntity
  8
0
  6
Continuous
 62
     7
370
    18
100
AcDbLine
 10
52.5452531954
 20
34.0490355031
 30
0.0
 11
52.5452531954
 21
35.2305355502
 31
0.0
  0
LINE
  5
15F
330
1F
100
AcDbEntity
  8
0
  6
Continuous
 62
     7
370
    18
100
AcDbLine
 10
42.897645392
 20
33.9220354965
 30
0.0
 11
52.5452531954
 21
33.9220354965
 31
0.0
  0
LINE
  5
160
330
1F
100
AcDbEntity
  8
0
  6
Continuous
 62
     7
370
    18
100
AcDbLine
 10
43.0012978693
 20
32.7405354494
 30
0.0
 11
42.897645392
 21
33.9220354965
 31
0.0
  0
LINE
  5
161
330
1F
100
AcDbEntity
  8
0
  6
Continuous
 62
     7
370
    18
100
AcDbLine
 10
52.5452531954
 20
32.7405354494
 30
0.0
 11
52.5452531954
 21
33.9220354965
 31
0.0
  0
ELLIPSE
  5
162
330
1F
100
AcDbEntity
  8
0
  6
Continuous
 62
     7
370
    18
100
AcDbEllipse
 10
42.8921024413
 20
33.9855354998
 30
0.0
 11
-0.005637262796120979
 21
0.06349702932078571
 31
0.0
210
0.0
220
0.0
230
1.0
 40
0.1089573114
 41
3.131919731119691
 42
6.273512384719981
  0
LINE
  5
163
330
1F
100
AcDbEntity
  8
0
  6
Continuous
 62
     7
370
    18
100
AcDbLine
 10
52.5452531954
 20
34.0490355031
 30
0.0
 11
52.5452531954
 21
33.9220354965
 31
0.0
  0
LINE
  5
164
330
1F
100
AcDbEntity
  8
0
  6
Continuous
 62
     7
370
    18
100
AcDbLine
 10
54.245237269
 20
32.5205355204
 30
0.0
 11
52.5452531954
 21
32.5205355204
 31
0.0
  0
LINE
  5
165
330
1F
100
AcDbEntity
  8
0
  6
Continuous
 62
     7
370
    18
100
AcDbLine
 10
52.5452531954
 20
35.4505354792
 30
0.0
 11
54.245237269
 21
35.4505354792
 31
0.0
  0
LINE
  5
166
330
1F
100
AcDbEntity
  8
0
  6
Continuous
 62
     7
370
    18
100
AcDbLine
 10
52.5452531954
 20
32.7155354919
 30
0.0
 11
50.7452525278
 21
32.7155354919
 31
0.0
  0
LINE
  5
167
330
1F
100
AcDbEntity
  8
0
  6
Continuous
 62
     7
370
    18
100
AcDbLine
 10
50.7452525278
 20
35.2555355077
 30
0.0
 11
52.5452531954
 21
35.2555355077
 31
0.0
  0
LINE
  5
168
330
1F
100
AcDbEntity
  8
0
  6
Continuous
 62
     7
370
    18
100
AcDbLine
 10
50.7452525278
 20
35.2555355077
 30
0.0
 11
50.7452525278
 21
35.2305355502
 31
0.0
  0
LINE
  5
169
330
1F
100
AcDbEntity
  8
0
  6
Continuous
 62
     7
370
    18
100
AcDbLine
 10
50.7452525278
 20
32.7405354494
 30
0.0
 11
50.7452525278
 21
32.7155354919
 31
0.0
  0
LINE
  5
16A
330
1F
100
AcDbEntity
  8
0
  6
Continuous
 62
     7
370
    18
100
AcDbLine
 10
50.7452525278
 20
36.2207355231
 30
0.0
 11
52.5452531954
 21
36.2207355231
 31
0.0
  0
LINE
  5
16B
330
1F
100
AcDbEntity
  8
0
  6
Continuous
 62
     7
370
    18
100
AcDbLine
 10
54.245237269
 20
34.9755354712
 30
0.0
 11
58.8652230879
 21
34.9755354712
 31
0.0
  0
LINE
  5
16C
330
1F
100
AcDbEntity
  8
0
  6
Continuous
 62
     7
370
    18
100
AcDbLine
 10
58.8652230879
 20
34.6155355239
 30
0.0
 11
58.8652230879
 21
34.9755354712
 31
0.0
  0
ARC
  5
16D
330
1F
100
AcDbEntity
  8
0
  6
Continuous
 62
     7
370
    18
100
AcDbCircle
 10
58.765237269
 20
34.6155354998
 30
0.0
 40
0.1000000000000014
100
AcDbArc
 50
270.0
 51
0.0
  0
LINE
  5
16E
330
1F
100
AcDbEntity
  8
0
  6
Continuous
 62
     7
370
    18
100
AcDbLine
 10
54.245237269
 20
34.5155355192
 30
0.0
 11
58.7652362963
 21
34.5155355192
 31
0.0
  0
LINE
  5
16F
330
1F
100
AcDbEntity
  8
0
  6
Continuous
 62
     7
370
    18
100
AcDbLine
 10
54.245237269
 20
34.0490355031
 30
0.0
 11
54.245237269
 21
34.5155355192
 31
0.0
  0
LINE
  5
170
330
1F
100
AcDbEntity
  8
0
  6
Continuous
 62
     7
370
    18
100
AcDbLine
 10
52.5452531954
 20
34.0490355031
 30
0.0
 11
54.245237269
 21
34.0490355031
 31
0.0
  0
LINE
  5
171
330
1F
100
AcDbEntity
  8
0
  6
Continuous
 62
     7
370
    18
100
AcDbLine
 10
52.5452531954
 20
34.0490355031
 30
0.0
 11
52.5452531954
 21
35.2555355077
 31
0.0
  0
LINE
  5
172
330
1F
100
AcDbEntity
  8
0
  6
Continuous
 62
     7
370
    18
100
AcDbLine
 10
54.245237269
 20
34.9755354712
 30
0.0
 11
54.245237269
 21
35.4505354792
 31
0.0
  0
LINE
  5
173
330
1F
100
AcDbEntity
  8
0
  6
Continuous
 62
     7
370
    18
100
AcDbLine
 10
50.7452525278
 20
35.2555355077
 30
0.0
 11
50.7452525278
 21
36.2207355231
 31
0.0
  0
LINE
  5
174
330
1F
100
AcDbEntity
  8
0
  6
Continuous
 62
     7
370
    18
100
AcDbLine
 10
52.5452531954
 20
35.4505354792
 30
0.0
 11
52.5452531954
 21
36.2207355231
 31
0.0
  0
LINE
  5
175
330
1F
100
AcDbEntity
  8
0
  6
Continuous
 62
     7
370
    18
100
AcDbLine
 10
54.245237269
 20
33.9220354965
 30
0.0
 11
52.5452531954
 21
33.9220354965
 31
0.0
  0
LINE
  5
176
330
1F
100
AcDbEntity
  8
0
  6
Continuous
 62
     7
370
    18
100
AcDbLine
 10
54.245237269
 20
33.4555354805
 30
0.0
 11
54.245237269
 21
33.9220354965
 31
0.0
  0
LINE
  5
177
330
1F
100
AcDbEntity
  8
0
  6
Continuous
 62
     7
370
    18
100
AcDbLine
 10
58.7652362963
 20
33.4555354805
 30
0.0
 11
54.245237269
 21
33.4555354805
 31
0.0
  0
ARC
  5
178
330
1F
100
AcDbEntity
  8
0
  6
Continuous
 62
     7
370
    18
100
AcDbCircle
 10
58.765237269
 20
33.3555354998
 30
0.0
 40
0.0999999999999943
100
AcDbArc
 50
0.0
 51
90.0
  0
LINE
  5
179
330
1F
100
AcDbEntity
  8
0
  6
Continuous
 62
     7
370
    18
100
AcDbLine
 10
58.8652230879
 20
32.9955355285
 30
0.0
 11
58.8652230879
 21
33.3555354757
 31
0.0
  0
LINE
  5
17A
330
1F
100
AcDbEntity
  8
0
  6
Continuous
 62
     7
370
    18
100
AcDbLine
 10
58.8652230879
 20
32.9955355285
 30
0.0
 11
54.245237269
 21
32.9955355285
 31
0.0
  0
LINE
  5
17B
330
1F
100
AcDbEntity
  8
0
  6
Continuous
 62
     7
370
    18
100
AcDbLine
 10
52.5452531954
 20
31.7503354765
 30
0.0
 11
50.7452525278
 21
31.7503354765
 31
0.0
  0
LINE
  5
17C
330
1F
100
AcDbEntity
  8
0
  6
Continuous
 62
     7
370
    18
100
AcDbLine
 10
52.5452531954
 20
32.7155354919
 30
0.0
 11
52.5452531954
 21
33.9220354965
 31
0.0
  0
LINE
  5
17D
330
1F
100
AcDbEntity
  8
0
  6
Continuous
 62
     7
370
    18
100
AcDbLine
 10
54.245237269
 20
32.5205355204
 30
0.0
 11
54.245237269
 21
32.9955355285
 31
0.0
  0
LINE
  5
17E
330
1F
100
AcDbEntity
  8
0
  6
Continuous
 62
     7
370
    18
100
AcDbLine
 10
50.7452525278
 20
31.7503354765
 30
0.0
 11
50.7452525278
 21
32.7155354919
 31
0.0
  0
LINE
  5
17F
330
1F
100
AcDbEntity
  8
0
  6
Continuous
 62
     7
370
    18
100
AcDbLine
 10
52.5452531954
 20
31.7503354765
 30
0.0
 11
52.5452531954
 21
32.5205355204
 31
0.0
  0
LINE
  5
180
330
1F
100
AcDbEntity
  8
0
  6
Continuous
 62
     7
370
    18
100
AcDbLine
 10
58.8652230879
 20
34.6155355239
 30
0.0
 11
58.8652230879
 21
34.4355354921
 31
0.0
  0
LINE
  5
181
330
1F
100
AcDbEntity
  8
0
  6
Continuous
 62
     7
370
    18
100
AcDbLine
 10
58.8652230879
 20
33.5355355075
 30
0.0
 11
58.8652230879
 21
33.3555354757
 31
0.0
  0
LINE
  5
182
330
1F
100
AcDbEntity
  8
0
  6
Continuous
 62
     7
370
    18
100
AcDbLine
 10
78.8538791319
 20
34.4355354921
 30
0.0
 11
54.245237269
 21
34.4355354921
 31
0.0
  0
LINE
  5
183
330
1F
100
AcDbEntity
  8
0
  6
Continuous
 62
     7
370
    18
100
AcDbLine
 10
54.245237269
 20
33.5355355075
 30
0.0
 11
78.8538791319
 21
33.5355355075
 31
0.0
  0
LINE
  5
184
330
1F
100
AcDbEntity
  8
0
  6
Continuous
 62
     7
370
    18
100
AcDbLine
 10
54.245237269
 20
33.5355355075
 30
0.0
 11
54.245237269
 21
34.4355354921
 31
0.0
  0
LINE
  5
185
330
1F
100
AcDbEntity
  8
0
  6
Continuous
 62
     7
370
    18
100
AcDbLine
 10
78.8538791319
 20
33.5355355075
 30
0.0
 11
78.8538791319
 21
34.4355354921
 31
0.0
  0
LINE
  5
186
330
1F
100
AcDbEntity
  8
0
  6
Continuous
 62
     7
370
    18
100
AcDbLine
 10
58.7652362963
 20
33.4555354805
 30
0.0
 11
58.7652362963
 21
33.5355355075
 31
0.0
  0
LINE
  5
187
330
1F
100
AcDbEntity
  8
0
  6
Continuous
 62
     7
370
    18
100
AcDbLine
 10
58.7652362963
 20
34.4355354921
 30
0.0
 11
58.7652362963
 21
34.5155355192
 31
0.0
  0
HATCH
  5
188
330
1F
100
AcDbEntity
  8
0
  6
Continuous
 62
     7
370
    18
100
AcDbHatch
 10
0.0
 20
0.0
 30
0.0
210
0.0
220
0.0
230
1.0
  2
ANSI31
 70
     0
 71
     0
 91
        1
 92
        0
 93
        4
 72
     1
 10
54.24523726903318
 20
34.43553549980987
 11
54.24523726903318
 21
33.53553549980987
 72
     1
 10
54.24523726903318
 20
33.53553549980987
 11
78.8538754635589
 21
33.53553549980987
 72
     1
 10
78.8538754635589
 20
33.53553549980987
 11
78.8538754635589
 21
34.43553549980987
 72
     1
 10
78.8538754635589
 20
34.43553549980987
 11
54.24523726903318
 21
34.43553549980987
 97
        0
 75
     0
 76
     1
 52
0.0
 41
0.1666666667
 77
     0
 78
     1
 53
45.0
 43
0.0
 44
0.0
 45
-0.3741773383778814
 46
0.3741773383778814
 79
     0
 98
        1
 10
0.0
 20
0.0
  0
HATCH
  5
189
330
1F
100
AcDbEntity
  8
0
  6
Continuous
 62
     7
370
    18
100
AcDbHatch
 10
0.0
 20
0.0
 30
0.0
210
0.0
220
0.0
230
1.0
  2
ANSI31
 70
     0
 71
     0
 91
        1
 92
        0
 93
       13
 72
     1
 10
50.74523726903313
 20
36.22073549980988
 11
50.74523726903313
 21
35.25553549980987
 72
     1
 10
50.74523726903313
 20
35.25553549980987
 11
52.54523726903315
 21
35.25553549980987
 72
     1
 10
52.54523726903315
 20
35.25553549980987
 11
52.54523726903315
 21
34.04903549980988
 72
     1
 10
52.54523726903315
 20
34.04903549980988
 11
54.24523726903303
 21
34.04903549980988
 72
     1
 10
54.24523726903303
 20
34.04903549980988
 11
54.24523726903303
 21
34.51553549980987
 72
     1
 10
54.24523726903303
 20
34.51553549980987
 11
58.76523726903319
 21
34.51553549980987
 72
     2
 10
58.76523726903319
 20
34.61553549980987
 40
0.1
 50
270.0000000000008
 51
360.0000000000008
 73
     1
 72
     1
 10
58.8652372690331
 20
34.61553549980987
 11
58.8652372690331
 21
34.97553549980987
 72
     1
 10
58.8652372690331
 20
34.97553549980987
 11
54.24523726903303
 21
34.97553549980987
 72
     1
 10
54.24523726903303
 20
34.97553549980987
 11
54.24523726903303
 21
35.45053549980987
 72
     1
 10
54.24523726903303
 20
35.45053549980987
 11
52.54523726903315
 21
35.45053549980987
 72
     1
 10
52.54523726903315
 20
35.45053549980987
 11
52.54523726903315
 21
36.22073549980988
 72
     1
 10
52.54523726903315
 20
36.22073549980988
 11
50.74523726903313
 21
36.22073549980988
 97
        0
 75
     0
 76
     1
 52
90.0
 41
0.1666666667
 77
     0
 78
     1
 53
135.0000000000002
 43
0.0
 44
0.0
 45
-0.3741773383778801
 46
-0.3741773383778826
 79
     0
 98
        1
 10
0.0
 20
0.0
  0
HATCH
  5
18A
330
1F
100
AcDbEntity
  8
0
  6
Continuous
 62
     7
370
    18
100
AcDbHatch
 10
0.0
 20
0.0
 30
0.0
210
0.0
220
0.0
230
1.0
  2
ANSI31
 70
     0
 71
     0
 91
        1
 92
        0
 93
       13
 72
     1
 10
50.74523726903313
 20
32.71553549980987
 11
50.74523726903313
 21
31.75033549980988
 72
     1
 10
50.74523726903313
 20
31.75033549980988
 11
52.54523726903315
 21
31.75033549980988
 72
     1
 10
52.54523726903315
 20
31.75033549980988
 11
52.54523726903315
 21
32.52053549980987
 72
     1
 10
52.54523726903315
 20
32.52053549980987
 11
54.24523726903303
 21
32.52053549980987
 72
     1
 10
54.24523726903303
 20
32.52053549980987
 11
54.24523726903303
 21
32.99553549980988
 72
     1
 10
54.24523726903303
 20
32.99553549980988
 11
58.8652372690331
 21
32.99553549980988
 72
     1
 10
58.8652372690331
 20
32.99553549980988
 11
58.8652372690331
 21
33.35553549980987
 72
     2
 10
58.76523726903319
 20
33.35553549980987
 40
0.1
 50
0.0
 51
90.0
 73
     1
 72
     1
 10
58.76523726903319
 20
33.45553549980988
 11
54.24523726903303
 21
33.45553549980988
 72
     1
 10
54.24523726903303
 20
33.45553549980988
 11
54.24523726903303
 21
33.92203549980987
 72
     1
 10
54.24523726903303
 20
33.92203549980987
 11
52.54523726903315
 21
33.92203549980987
 72
     1
 10
52.54523726903315
 20
33.92203549980987
 11
52.54523726903315
 21
32.71553549980987
 72
     1
 10
52.54523726903315
 20
32.71553549980987
 11
50.74523726903313
 21
32.71553549980987
 97
        0
 75
     0
 76
     1
 52
90.0
 41
0.1666666667
 77
     0
 78
     1
 53
135.0000000000002
 43
0.0
 44
0.0
 45
-0.3741773383778801
 46
-0.3741773383778826
 79
     0
 98
        1
 10
0.0
 20
0.0
  0
HATCH
  5
18B
330
1F
100
AcDbEntity
  8
0
  6
Continuous
 62
     7
370
    18
100
AcDbHatch
 10
0.0
 20
0.0
 30
0.0
210
0.0
220
0.0
230
1.0
  2
ANSI31
 70
     0
 71
     0
 91
        1
 92
        0
 93
        5
 72
     1
 10
42.8865323629631
 20
34.04903549980988
 11
52.54523726903315
 21
34.04903549980988
 72
     1
 10
52.54523726903315
 20
34.04903549980988
 11
52.54523726903315
 21
35.23053549980987
 72
     1
 10
52.54523726903315
 20
35.23053549980987
 11
42.94523726903309
 21
35.23053549980985
 72
     1
 10
42.94523726903309
 20
35.23053549980985
 11
42.79598582273803
 21
35.08128405351477
 72
     1
 10
42.79598582273803
 20
35.08128405351477
 11
42.8865323629631
 21
34.04903549980988
 97
        0
 75
     0
 76
     1
 52
0.0
 41
0.3333333333
 77
     0
 78
     1
 53
45.0
 43
0.0
 44
0.0
 45
-0.7483546767557627
 46
0.7483546767557627
 79
     0
 98
        1
 10
0.0
 20
0.0
  0
HATCH
  5
18C
330
1F
100
AcDbEntity
  8
0
  6
Continuous
 62
     7
370
    18
100
AcDbHatch
 10
0.0
 20
0.0
 30
0.0
210
0.0
220
0.0
230
1.0
  2
ANSI31
 70
     0
 71
     0
 91
        1
 92
        0
 93
        4
 72
     1
 10
43.00131106375119
 20
32.74053549980987
 11
52.54523726903315
 21
32.74053549980987
 72
     1
 10
52.54523726903315
 20
32.74053549980987
 11
52.54523726903315
 21
33.92203549980987
 72
     1
 10
52.54523726903315
 20
33.92203549980987
 11
42.8976725196312
 21
33.92203549980987
 72
     1
 10
42.8976725196312
 20
33.92203549980987
 11
43.00131106375119
 21
32.74053549980987
 97
        0
 75
     0
 76
     1
 52
0.0
 41
0.3333333333
 77
     0
 78
     1
 53
45.0
 43
0.0
 44
0.0
 45
-0.7483546767557627
 46
0.7483546767557627
 79
     0
 98
        1
 10
0.0
 20
0.0
  0
HATCH
  5
18D
330
1F
100
AcDbEntity
  8
0
  6
Continuous
 62
     7
370
    18
100
AcDbHatch
 10
0.0
 20
0.0
 30
0.0
210
0.0
220
0.0
230
1.0
  2
ANSI31
 70
     0
 71
     0
 91
        1
 92
        0
 93
        8
 72
     1
 10
52.54523726903315
 20
32.46153549980987
 11
52.54523726903315
 21
31.63603549980987
 72
     1
 10
52.54523726903315
 20
31.63603549980987
 11
60.16523726903318
 21
31.63603549980988
 72
     1
 10
60.16523726903318
 20
31.63603549980988
 11
67.78523726903315
 21
32.96953549980987
 72
     1
 10
67.78523726903315
 20
32.96953549980987
 11
72.86523726903319
 21
32.96953549980987
 72
     1
 10
72.86523726903319
 20
32.96953549980987
 11
72.86523726903319
 21
33.52833549980988
 72
     1
 10
72.86523726903319
 20
33.52833549980988
 11
66.11677476903314
 21
33.52833549980988
 72
     1
 10
66.11677476903314
 20
33.52833549980988
 11
60.02077476903318
 21
32.46153549980987
 72
     1
 10
60.02077476903318
 20
32.46153549980987
 11
52.54523726903315
 21
32.46153549980987
 97
        0
 75
     0
 76
     1
 52
90.0
 41
0.3333333333
 77
     0
 78
     1
 53
135.0000000000002
 43
0.0
 44
0.0
 45
-0.7483546767557603
 46
-0.7483546767557653
 79
     0
 98
        1
 10
0.0
 20
0.0
  0
HATCH
  5
18E
330
1F
100
AcDbEntity
  8
0
  6
Continuous
 62
     7
370
    18
100
AcDbHatch
 10
0.0
 20
0.0
 30
0.0
210
0.0
220
0.0
230
1.0
  2
ANSI31
 70
     0
 71
     0
 91
        1
 92
        0
 93
        8
 72
     1
 10
67.78523726903315
 20
35.00153549980988
 11
60.16523726903318
 21
36.33503549980986
 72
     1
 10
60.16523726903318
 20
36.33503549980986
 11
52.54523726903315
 21
36.33503549980988
 72
     1
 10
52.54523726903315
 20
36.33503549980988
 11
52.54523726903315
 21
35.50953549980988
 72
     1
 10
52.54523726903315
 20
35.50953549980988
 11
60.02077476903318
 21
35.50953549980987
 72
     1
 10
60.02077476903318
 20
35.50953549980987
 11
66.11677476903314
 21
34.44273549980987
 72
     1
 10
66.11677476903314
 20
34.44273549980987
 11
72.86523726903319
 21
34.44273549980987
 72
     1
 10
72.86523726903319
 20
34.44273549980987
 11
72.86523726903319
 21
35.00153549980988
 72
     1
 10
72.86523726903319
 20
35.00153549980988
 11
67.78523726903315
 21
35.00153549980988
 97
        0
 75
     0
 76
     1
 52
90.0
 41
0.3333333333
 77
     0
 78
     1
 53
135.0000000000002
 43
0.0
 44
0.0
 45
-0.7483546767557603
 46
-0.7483546767557653
 79
     0
 98
        1
 10
0.0
 20
0.0
  0
HATCH
  5
18F
330
1F
100
AcDbEntity
  8
0
  6
Continuous
 62
     7
370
    18
100
AcDbHatch
 10
0.0
 20
0.0
 30
0.0
210
0.0
220
0.0
230
1.0
  2
ANSI31
 70
     0
 71
     0
 91
        1
 92
        0
 93
       10
 72
     1
 10
39.96623726903348
 20
32.27103549980988
 11
39.96623726903348
 21
31.97893549980988
 72
     1
 10
39.96623726903348
 20
31.97893549980988
 11
36.51183726903347
 21
31.97893549980988
 72
     1
 10
36.51183726903347
 20
31.97893549980988
 11
36.51183726903347
 21
31.12803549980988
 72
     1
 10
36.51183726903347
 20
31.12803549980988
 11
51.75183726903339
 21
31.12803549980988
 72
     1
 10
51.75183726903339
 20
31.12803549980988
 11
51.75183726903339
 21
31.62333549980988
 72
     1
 10
51.75183726903339
 20
31.62333549980988
 11
49.74523726903346
 21
31.62333549980989
 72
     1
 10
49.74523726903346
 20
31.62333549980989
 11
49.74523726903346
 21
32.73458549980988
 72
     1
 10
49.74523726903346
 20
32.73458549980988
 11
40.93143726903347
 21
32.73458549980988
 72
     1
 10
40.93143726903347
 20
32.73458549980988
 11
40.93143726903347
 21
32.27103549980988
 72
     1
 10
40.93143726903347
 20
32.27103549980988
 11
39.96623726903348
 21
32.27103549980988
 97
        0
 75
     0
 76
     1
 52
90.0
 41
0.3333333333
 77
     0
 78
     1
 53
135.0000000000002
 43
0.0
 44
0.0
 45
-0.7483546767557603
 46
-0.7483546767557653
 79
     0
 98
        1
 10
0.0
 20
0.0
  0
HATCH
  5
190
330
1F
100
AcDbEntity
  8
0
  6
Continuous
 62
     7
370
    18
100
AcDbHatch
 10
0.0
 20
0.0
 30
0.0
210
0.0
220
0.0
230
1.0
  2
ANSI31
 70
     0
 71
     0
 91
        1
 92
        0
 93
       10
 72
     1
 10
39.96623726903348
 20
35.99213549980988
 11
39.96623726903348
 21
35.70003549980988
 72
     1
 10
39.96623726903348
 20
35.70003549980988
 11
40.93143726903347
 21
35.70003549980988
 72
     1
 10
40.93143726903347
 20
35.70003549980988
 11
40.93143726903347
 21
35.23648549980988
 72
     1
 10
40.93143726903347
 20
35.23648549980988
 11
49.74523726903346
 21
35.23648549980988
 72
     1
 10
49.74523726903346
 20
35.23648549980988
 11
49.74523726903346
 21
36.34773549980988
 72
     1
 10
49.74523726903346
 20
36.34773549980988
 11
51.75183726903339
 21
36.34773549980987
 72
     1
 10
51.75183726903339
 20
36.34773549980987
 11
51.75183726903339
 21
36.84303549980988
 72
     1
 10
51.75183726903339
 20
36.84303549980988
 11
36.51183726903347
 21
36.84303549980988
 72
     1
 10
36.51183726903347
 20
36.84303549980988
 11
36.51183726903347
 21
35.99213549980988
 72
     1
 10
36.51183726903347
 20
35.99213549980988
 11
39.96623726903348
 21
35.99213549980988
 97
        0
 75
     0
 76
     1
 52
90.0
 41
0.3333333333
 77
     0
 78
     1
 53
135.0000000000002
 43
0.0
 44
0.0
 45
-0.7483546767557603
 46
-0.7483546767557653
 79
     0
 98
        1
 10
0.0
 20
0.0
  0
HATCH
  5
191
330
1F
100
AcDbEntity
  8
0
  6
Continuous
 62
     7
370
    18
100
AcDbHatch
 10
0.0
 20
0.0
 30
0.0
210
0.0
220
0.0
230
1.0
  2
ANSI31
 70
     0
 71
     0
 91
        1
 92
        0
 93
        4
 72
     2
 10
40.40567415724427
 20
33.9855354998099
 40
3.5
 50
145.1500954209536
 51
214.8499045790471
 73
     1
 72
     1
 10
37.53339283397523
 20
31.9855354998099
 11
39.96623726903325
 21
31.98553549980991
 72
     2
 10
-2.171325842755737
 20
33.98553549980991
 40
42.185
 50
357.282576011358
 51
362.7174239886436
 73
     1
 72
     1
 10
39.96623726903325
 20
35.98553549980991
 11
37.53339283397523
 21
35.98553549980991
 97
        0
 75
     0
 76
     1
 52
0.0
 41
0.3333333333
 77
     0
 78
     1
 53
45.0
 43
0.0
 44
0.0
 45
-0.7483546767557627
 46
0.7483546767557627
 79
     0
 98
        1
 10
0.0
 20
0.0
  0
DIMENSION
  5
192
330
1F
100
AcDbEntity
  8
0
  6
Continuous
 62
     7
370
    18
100
AcDbDimension
  2
_D_1
 10
51.751837269
 20
27.7947021665
 30
0.0
 11
44.131837269
 21
27.7947021665
 31
0.0
 70
   160
  1
<>
 71
     2
 42
-1.0
  3
SLDDIMSTYLE1
100
AcDbAlignedDimension
 13
36.511837269
 23
31.1280354998
 33
0.0
 14
51.751837269
 24
31.1280354998
 34
0.0
100
AcDbRotatedDimension
  0
DIMENSION
  5
1A7
330
1F
100
AcDbEntity
  8
0
  6
Continuous
 62
     7
370
    18
100
AcDbDimension
  2
_D_2
 10
72.865237269
 20
25.7947021665
 30
0.0
 11
54.688537269
 21
25.7947021665
 31
0.0
 70
   160
  1
<>\PTYP
 71
     2
 42
-1.0
  3
SLDDIMSTYLE1
100
AcDbAlignedDimension
 13
36.511837269
 23
31.1280354998
 33
0.0
 14
72.865237269
 24
32.9695354998
 34
0.0
100
AcDbRotatedDimension
  0
DIMENSION
  5
1BA
330
1F
100
AcDbEntity
  8
0
  6
Continuous
 62
     7
370
    18
100
AcDbDimension
  2
_D_3
 10
31.5201639481
 20
31.9855354998
 30
0.0
 11
31.5201639481
 21
33.9855354998
 31
0.0
 70
   160
  1
%%c<>
 71
     2
 42
-1.0
  3
SLDDIMSTYLE2
100
AcDbAlignedDimension
 13
37.533392834
 23
35.9855354998
 33
0.0
 14
37.533392834
 24
31.9855354998
 34
0.0
 50
90.0
100
AcDbRotatedDimension
  0
MTEXT
  5
1CE
330
1F
100
AcDbEntity
  8
0
  6
Continuous
 62
     7
370
     0
100
AcDbMText
 10
57.6225083496
 20
29.6453322945
 30
0.0
 40
0.7055555556
 41
0.0
 71
     2
 72
     1
  1
SECTION A-A
  7
SLDTEXTSTYLE0
 73
     1
 44
1.0
  0
INSERT
  5
1D4
102
{ACAD_REACTORS
330
1D6
102
}
330
1F
100
AcDbEntity
  8
0
  6
Continuous
 62
     7
370
     0
100
AcDbBlockReference
  2
SW_NOTE_5
 10
61.1109738215
 20
42.6030209569
 30
0.0
  0
LEADER
  5
1D6
330
1F
100
AcDbEntity
  8
0
  6
Continuous
 62
     7
370
     0
100
AcDbLeader
  3
SLDDIMSTYLE3
 73
     2
 76
     3
 10
55.7014022919
 20
34.9755354998
 30
0.0
 10
59.0276404881
 20
42.6030209569
 30
0.0
 10
61.1109738215
 20
42.6030209569
 30
0.0
340
1D4
  0
INSERT
  5
1DC
102
{ACAD_REACTORS
330
1DD
102
}
330
1F
100
AcDbEntity
  8
0
  6
Continuous
 62
     7
370
     0
100
AcDbBlockReference
  2
SW_NOTE_6
 10
69.2960272023
 20
42.6030209569
 30
0.0
  0
LEADER
  5
1DD
330
1F
100
AcDbEntity
  8
0
  6
Continuous
 62
     7
370
     0
100
AcDbLeader
  3
SLDDIMSTYLE3
 73
     2
 76
     3
 10
63.351719313
 20
35.7774011421
 30
0.0
 10
67.2126938689
 20
42.6030209569
 30
0.0
 10
69.2960272023
 20
42.6030209569
 30
0.0
340
1DC
  0
INSERT
  5
1E3
102
{ACAD_REACTORS
330
1E4
102
}
330
1F
100
AcDbEntity
  8
0
  6
Continuous
 62
     7
370
     0
100
AcDbBlockReference
  2
SW_NOTE_7
 10
29.7549811014
 20
40.0723764334
 30
0.0
  0
LEADER
  5
1E4
330
1F
100
AcDbEntity
  8
0
  6
Continuous
 62
     7
370
     0
100
AcDbLeader
  3
SLDDIMSTYLE3
 73
     2
 76
     3
 10
37.1491812012
 20
35.2682099039
 30
0.0
 10
31.8383144347
 20
40.0723764334
 30
0.0
 10
29.7549811014
 20
40.0723764334
 30
0.0
340
1E3
  0
INSERT
  5
1EA
102
{ACAD_REACTORS
330
1EB
102
}
330
1F
100
AcDbEntity
  8
0
  6
Continuous
 62
     7
370
     0
100
AcDbBlockReference
  2
SW_NOTE_8
 10
35.9234271275
 20
42.6030209569
 30
0.0
  0
LEADER
  5
1EB
330
1F
100
AcDbEntity
  8
0
  6
Continuous
 62
     7
370
     0
100
AcDbLeader
  3
SLDDIMSTYLE3
 73
     2
 76
     3
 10
44.205164566
 20
36.8430354998
 30
0.0
 10
38.0067604608
 20
42.6030209569
 30
0.0
 10
35.9234271275
 20
42.6030209569
 30
0.0
340
1EA
  0
INSERT
  5
1F1
102
{ACAD_REACTORS
330
1F2
102
}
330
1F
100
AcDbEntity
  8
0
  6
Continuous
 62
     7
370
     0
100
AcDbBlockReference
  2
SW_NOTE_9
 10
44.0293978669
 20
42.5239383155
 30
0.0
  0
LEADER
  5
1F2
330
1F
100
AcDbEntity
  8
0
  6
Continuous
 62
     7
370
     0
100
AcDbLeader
  3
SLDDIMSTYLE3
 73
     2
 76
     3
 10
50.3711460322
 20
35.2305354998
 30
0.0
 10
46.1127312003
 20
42.5239383155
 30
0.0
 10
44.0293978669
 20
42.5239383155
 30
0.0
340
1F1
  0
INSERT
  5
1F8
102
{ACAD_REACTORS
330
1F9
102
}
330
1F
100
AcDbEntity
  8
0
  6
Continuous
 62
     7
370
     0
100
AcDbBlockReference
  2
SW_NOTE_10
 10
81.6329192545
 20
40.0723764334
 30
0.0
  0
LEADER
  5
1F9
330
1F
100
AcDbEntity
  8
0
  6
Continuous
 62
     7
370
     0
100
AcDbLeader
  3
SLDDIMSTYLE3
 73
     2
 76
     3
 10
74.7675265919
 20
34.4355354998
 30
0.0
 10
79.5495859211
 20
40.0723764334
 30
0.0
 10
81.6329192545
 20
40.0723764334
 30
0.0
340
1F8
  0
INSERT
  5
1FD
330
1F
100
AcDbEntity
  8
0
  6
Continuous
 62
     7
100
AcDbBlockReference
  2
SW_BROKEN_VIEW_0
 10
0.0
 20
0.0
 30
0.0
  0
LINE
  5
1FE
330
1F
100
AcDbEntity
  8
0
  6
Continuous
 62
     7
370
    18
100
AcDbLine
 10
84.4922031155
 20
55.6647331751
 30
0.0
 11
81.105526804
 21
55.6647331751
 31
0.0
  0
LINE
  5
1FF
330
1F
100
AcDbEntity
  8
0
  6
Continuous
 62
     7
370
    18
100
AcDbLine
 10
81.105526804
 20
54.3947332059
 30
0.0
 11
84.4922031155
 21
54.3947332059
 31
0.0
  0
LINE
  5
200
330
1F
100
AcDbEntity
  8
0
  6
Continuous
 62
     7
370
    18
100
AcDbLine
 10
80.9292162648
 20
55.5518443062
 30
0.0
 11
79.2358880431
 21
55.5518443062
 31
0.0
  0
LINE
  5
201
330
1F
100
AcDbEntity
  8
0
  6
Continuous
 62
     7
370
    18
100
AcDbLine
 10
79.2358880431
 20
54.5076220748
 30
0.0
 11
80.9292162648
 21
54.5076220748
 31
0.0
  0
LINE
  5
202
330
1F
100
AcDbEntity
  8
0
  6
Continuous
 62
     7
370
    18
100
AcDbLine
 10
79.2358880431
 20
55.5518443062
 30
0.0
 11
77.5425523709
 21
55.2555109865
 31
0.0
  0
LINE
  5
203
330
1F
100
AcDbEntity
  8
0
  6
Continuous
 62
     7
370
    18
100
AcDbLine
 10
77.5425523709
 20
54.8039553945
 30
0.0
 11
79.2358880431
 21
54.5076220748
 31
0.0
  0
LINE
  5
204
330
1F
100
AcDbEntity
  8
0
  6
Continuous
 62
     7
370
    18
100
AcDbLine
 10
77.5425523709
 20
55.2555109865
 30
0.0
 11
76.4136602671
 21
55.2555109865
 31
0.0
  0
LINE
  5
205
330
1F
100
AcDbEntity
  8
0
  6
Continuous
 62
     7
370
    18
100
AcDbLine
 10
76.4136602671
 20
54.8039553945
 30
0.0
 11
77.5425523709
 21
54.8039553945
 31
0.0
  0
LINE
  5
206
330
1F
100
AcDbEntity
  8
0
  6
Continuous
 62
     7
370
    18
100
AcDbLine
 10
80.9292162648
 20
54.5330220742
 30
0.0
 11
81.105526804
 21
54.5330220742
 31
0.0
  0
LINE
  5
207
330
1F
100
AcDbEntity
  8
0
  6
Continuous
 62
     7
370
    18
100
AcDbLine
 10
81.105526804
 20
55.5264443068
 30
0.0
 11
80.9292162648
 21
55.5264443068
 31
0.0
  0
LINE
  5
208
330
1F
100
AcDbEntity
  8
0
  6
Continuous
 62
     7
370
    18
100
AcDbLine
 10
47.4849502746
 20
54.9297331955
 30
0.0
 11
76.4136602671
 21
54.9297331955
 31
0.0
  0
LINE
  5
209
330
1F
100
AcDbEntity
  8
0
  6
Continuous
 62
     7
370
    18
100
AcDbLine
 10
76.4136602671
 20
55.1297331856
 30
0.0
 11
47.418285739
 21
55.1297331856
 31
0.0
  0
LINE
  5
20A
330
1F
100
AcDbEntity
  8
0
  6
Continuous
 62
     7
370
    18
100
AcDbLine
 10
84.2166433921
 20
54.8648234754
 30
0.0
 11
84.1051951241
 21
54.8648234754
 31
0.0
  0
LINE
  5
20B
330
1F
100
AcDbEntity
  8
0
  6
Continuous
 62
     7
370
    18
100
AcDbLine
 10
84.2166433921
 20
54.892655158
 30
0.0
 11
84.2166433921
 21
54.8648234754
 31
0.0
  0
LINE
  5
20C
330
1F
100
AcDbEntity
  8
0
  6
Continuous
 62
     7
370
    18
100
AcDbLine
 10
84.1051951241
 20
54.892655158
 30
0.0
 11
84.2166433921
 21
54.892655158
 31
0.0
  0
LINE
  5
20D
330
1F
100
AcDbEntity
  8
0
  6
Continuous
 62
     7
370
    18
100
AcDbLine
 10
84.1051951241
 20
54.971251682
 30
0.0
 11
84.1051951241
 21
54.892655158
 31
0.0
  0
LINE
  5
20E
330
1F
100
AcDbEntity
  8
0
  6
Continuous
 62
     7
370
    18
100
AcDbLine
 10
84.2357441973
 20
54.971251682
 30
0.0
 11
84.1051951241
 21
54.971251682
 31
0.0
  0
LINE
  5
20F
330
1F
100
AcDbEntity
  8
0
  6
Continuous
 62
     7
370
    18
100
AcDbLine
 10
84.2357441973
 20
54.999836157
 30
0.0
 11
84.2357441973
 21
54.971251682
 31
0.0
  0
LINE
  5
210
330
1F
100
AcDbEntity
  8
0
  6
Continuous
 62
     7
370
    18
100
AcDbLine
 10
84.0701749117
 20
54.999836157
 30
0.0
 11
84.2357441973
 21
54.999836157
 31
0.0
  0
LINE
  5
211
330
1F
100
AcDbEntity
  8
0
  6
Continuous
 62
     7
370
    18
100
AcDbLine
 10
84.0701749117
 20
54.999836157
 30
0.0
 11
84.0701749117
 21
54.7602901804
 31
0.0
  0
LINE
  5
212
330
1F
100
AcDbEntity
  8
0
  6
Continuous
 62
     7
370
    18
100
AcDbLine
 10
84.1051951241
 20
54.7602901804
 30
0.0
 11
84.0701749117
 21
54.7602901804
 31
0.0
  0
LINE
  5
213
330
1F
100
AcDbEntity
  8
0
  6
Continuous
 62
     7
370
    18
100
AcDbLine
 10
84.1051951241
 20
54.8648234754
 30
0.0
 11
84.1051951241
 21
54.7602901804
 31
0.0
  0
SPLINE
  5
214
330
1F
100
AcDbEntity
  8
0
  6
Continuous
 62
     7
370
    18
100
AcDbSpline
210
0.0
220
0.0
230
1.0
 70
     8
 71
     3
 72
    11
 73
     7
 74
     0
 42
0.000000001
 43
0.00000001
 40
0.0
 40
0.0
 40
0.0
 40
0.0
 40
0.2550614648988806
 40
0.5071782450958571
 40
0.7552449103263211
 40
1.0
 40
1.0
 40
1.0
 40
1.0
 10
83.97897980521503
 20
54.88862614011946
 30
0.0
 10
83.98567313993682
 20
54.88656969365717
 30
0.0
 10
83.9989825348287
 20
54.88248054240769
 30
0.0
 10
84.01458630938774
 20
54.86823630975086
 30
0.0
 10
84.0242736529866
 20
54.84984307183395
 30
0.0
 10
84.02515361361584
 20
54.83635917926994
 30
0.0
 10
84.02559063742939
 20
54.82966253631371
 30
0.0
  0
SPLINE
  5
215
330
1F
100
AcDbEntity
  8
0
  6
Continuous
 62
     7
370
    18
100
AcDbSpline
210
0.0
220
0.0
230
1.0
 70
     8
 71
     3
 72
    11
 73
     7
 74
     0
 42
0.000000001
 43
0.00000001
 40
0.0
 40
0.0
 40
0.0
 40
0.0
 40
0.2495128910964835
 40
0.4987278331487443
 40
0.7485246376312027
 40
1.0
 40
1.0
 40
1.0
 40
1.0
 10
84.01286256224297
 20
54.93702400573152
 30
0.0
 10
84.01242917693526
 20
54.93179319467583
 30
0.0
 10
84.01156292383519
 20
54.92133781879543
 30
0.0
 10
84.00414980997442
 20
54.90718064179293
 30
0.0
 10
83.99306175373059
 20
54.89576812973364
 30
0.0
 10
83.98368425520438
 20
54.89101211198459
 30
0.0
 10
83.97897980521503
 20
54.88862614011946
 30
0.0
  0
SPLINE
  5
216
330
1F
100
AcDbEntity
  8
0
  6
Continuous
 62
     7
370
    18
100
AcDbSpline
210
0.0
220
0.0
230
1.0
 70
     8
 71
     3
 72
    13
 73
     9
 74
     0
 42
0.000000001
 43
0.00000001
 40
0.0
 40
0.0
 40
0.0
 40
0.0
 40
0.2504068006922687
 40
0.5004715728389398
 40
0.6237376248769555
 40
0.74939426515875
 40
0.8761078157973736
 40
1.0
 40
1.0
 40
1.0
 40
1.0
 10
83.94221118996921
 20
54.99983615698304
 30
0.0
 10
83.9510057498098
 20
54.99905053802854
 30
0.0
 10
83.96858285707553
 20
54.99748037318986
 30
0.0
 10
83.98838148461627
 20
54.98660895518324
 30
0.0
 10
84.00064510682492
 20
54.97402098860501
 30
0.0
 10
84.0074173662186
 20
54.96265706988446
 30
0.0
 10
84.0120829956675
 20
54.95017196869136
 30
0.0
 10
84.01260466439933
 20
54.94137364231447
 30
0.0
 10
84.01286256224297
 20
54.93702400573152
 30
0.0
  0
SPLINE
  5
217
330
1F
100
AcDbEntity
  8
0
  6
Continuous
 62
     7
370
    18
100
AcDbSpline
210
0.0
220
0.0
230
1.0
 70
     8
 71
     3
 72
    12
 73
     8
 74
     0
 42
0.000000001
 43
0.00000001
 40
0.0
 40
0.0
 40
0.0
 40
0.0
 40
0.2489943340914395
 40
0.4984534426359952
 40
0.6229761531683874
 40
0.7495947806302878
 40
1.0
 40
1.0
 40
1.0
 40
1.0
 10
83.86957299620293
 20
54.9364826453812
 30
0.0
 10
83.87169335258936
 20
54.94502993754173
 30
0.0
 10
83.8759380232333
 20
54.96214047629426
 30
0.0
 10
83.88958587716313
 20
54.98020723655672
 30
0.0
 10
83.90383780893602
 20
54.99059741075827
 30
0.0
 10
83.91999673898442
 20
54.99812736785317
 30
0.0
 10
83.93334546351234
 20
54.99915418392828
 30
0.0
 10
83.94221118996921
 20
54.99983615698304
 30
0.0
  0
LINE
  5
218
330
1F
100
AcDbEntity
  8
0
  6
Continuous
 62
     7
370
    18
100
AcDbLine
 10
83.9014142941
 20
54.9333343094
 30
0.0
 11
83.8695729962
 21
54.9364826454
 31
0.0
  0
SPLINE
  5
219
330
1F
100
AcDbEntity
  8
0
  6
Continuous
 62
     7
370
    18
100
AcDbSpline
210
0.0
220
0.0
230
1.0
 70
     8
 71
     3
 72
    12
 73
     8
 74
     0
 42
0.000000001
 43
0.00000001
 40
0.0
 40
0.0
 40
0.0
 40
0.0
 40
0.2506889220931438
 40
0.3773712373704917
 40
0.5019545931414399
 40
0.7449908005265399
 40
1.0
 40
1.0
 40
1.0
 40
1.0
 10
83.94320460071546
 20
54.97125168195549
 30
0.0
 10
83.93797623482993
 20
54.97085100836498
 30
0.0
 10
83.93010578372592
 20
54.97024785970021
 30
0.0
 10
83.92063751945733
 20
54.96570689404901
 30
0.0
 10
83.91240242403931
 20
54.9595777900048
 30
0.0
 10
83.90484901364225
 20
54.94860520166083
 30
0.0
 10
83.902577403783
 20
54.93850553866645
 30
0.0
 10
83.90141429414732
 20
54.93333430941771
 30
0.0
  0
SPLINE
  5
21A
330
1F
100
AcDbEntity
  8
0
  6
Continuous
 62
     7
370
    18
100
AcDbSpline
210
0.0
220
0.0
230
1.0
 70
     8
 71
     3
 72
    13
 73
     9
 74
     0
 42
0.000000001
 43
0.00000001
 40
0.0
 40
0.0
 40
0.0
 40
0.0
 40
0.2480168104771284
 40
0.3697589269870985
 40
0.4984283398693579
 40
0.6163596157826852
 40
0.7366456592697187
 40
1.0
 40
1.0
 40
1.0
 40
1.0
 10
83.98101878077172
 20
54.93599055781583
 30
0.0
 10
83.98056197065871
 20
54.9408191061455
 30
0.0
 10
83.9798809296563
 20
54.94801780709587
 30
0.0
 10
83.97497312523917
 20
54.95641824390376
 30
0.0
 10
83.97021542453271
 20
54.96171315338131
 30
0.0
 10
83.96455164481065
 20
54.96598625960784
 30
0.0
 10
83.9557398989595
 20
54.97016240293056
 30
0.0
 10
83.94830699966498
 20
54.97080829911415
 30
0.0
 10
83.94320460071546
 20
54.97125168195549
 30
0.0
  0
SPLINE
  5
21B
330
1F
100
AcDbEntity
  8
0
  6
Continuous
 62
     7
370
    18
100
AcDbSpline
210
0.0
220
0.0
230
1.0
 70
     8
 71
     3
 72
    13
 73
     9
 74
     0
 42
0.000000001
 43
0.00000001
 40
0.0
 40
0.0
 40
0.0
 40
0.0
 40
0.2516083763205305
 40
0.5021609266683827
 40
0.6292854135225533
 40
0.7514384282779725
 40
0.8669412161319483
 40
1.0
 40
1.0
 40
1.0
 40
1.0
 10
83.93444768498722
 20
54.89853913760367
 30
0.0
 10
83.94008293572918
 20
54.89895406687494
 30
0.0
 10
83.9513297899714
 20
54.89978218424688
 30
0.0
 10
83.96447976310978
 20
54.90561247727908
 30
0.0
 10
83.97328865046453
 20
54.91262239596923
 30
0.0
 10
83.97793271392456
 20
54.91947991963103
 30
0.0
 10
83.98051908753669
 20
54.92745318373476
 30
0.0
 10
83.98084455376001
 20
54.93301384916805
 30
0.0
 10
83.98101878077172
 20
54.93599055781583
 30
0.0
  0
LINE
  5
21C
330
1F
100
AcDbEntity
  8
0
  6
Continuous
 62
     7
370
    18
100
AcDbLine
 10
83.9298779956
 20
54.898879895
 30
0.0
 11
83.934447685
 21
54.8985391376
 31
0.0
  0
LINE
  5
21D
330
1F
100
AcDbEntity
  8
0
  6
Continuous
 62
     7
370
    18
100
AcDbLine
 10
83.926594773
 20
54.8709812638
 30
0.0
 11
83.9298779956
 21
54.898879895
 31
0.0
  0
LINE
  5
21E
330
1F
100
AcDbEntity
  8
0
  6
Continuous
 62
     7
370
    18
100
AcDbLine
 10
83.9471906613
 20
54.8742591215
 30
0.0
 11
83.926594773
 21
54.8709812638
 31
0.0
  0
SPLINE
  5
21F
330
1F
100
AcDbEntity
  8
0
  6
Continuous
 62
     7
370
    18
100
AcDbSpline
210
0.0
220
0.0
230
1.0
 70
     8
 71
     3
 72
    13
 73
     9
 74
     0
 42
0.000000001
 43
0.00000001
 40
0.0
 40
0.0
 40
0.0
 40
0.0
 40
0.2432945243403695
 40
0.3653074911099235
 40
0.4922096197113763
 40
0.6181255350364198
 40
0.7454594730683552
 40
0.9999999999999999
 40
0.9999999999999999
 40
0.9999999999999999
 40
0.9999999999999999
 10
83.99376175711933
 20
54.82989862658638
 30
0.0
 10
83.99322451442092
 20
54.83578181298676
 30
0.0
 10
83.99241784282482
 20
54.84461543581276
 30
0.0
 10
83.98660803485302
 20
54.85504422515908
 30
0.0
 10
83.98075536031963
 20
54.86189220441268
 30
0.0
 10
83.97356372830303
 20
54.8675382935051
 30
0.0
 10
83.96254737729987
 20
54.87300218128649
 30
0.0
 10
83.95333273313304
 20
54.87375639573392
 30
0.0
 10
83.94719066133482
 20
54.87425912152599
 30
0.0
  0
SPLINE
  5
220
330
1F
100
AcDbEntity
  8
0
  6
Continuous
 62
     7
370
    18
100
AcDbSpline
210
0.0
220
0.0
230
1.0
 70
     8
 71
     3
 72
    13
 73
     9
 74
     0
 42
0.000000001
 43
0.00000001
 40
0.0
 40
0.0
 40
0.0
 40
0.0
 40
0.2601029306188465
 40
0.3840780629404165
 40
0.5095338995334721
 40
0.6351113855917591
 40
0.7562990814107571
 40
1.0
 40
1.0
 40
1.0
 40
1.0
 10
83.9448064755438
 20
54.78356629862694
 30
0.0
 10
83.95140899513844
 20
54.78406180859013
 30
0.0
 10
83.96115853133323
 20
54.7847934977963
 30
0.0
 10
83.97285286710039
 20
54.7904041370648
 30
0.0
 10
83.98033692629292
 20
54.79624881975077
 30
0.0
 10
83.98640194281286
 20
54.80344540219742
 30
0.0
 10
83.99238565178601
 20
54.81442627647588
 30
0.0
 10
83.99321071554594
 20
54.82370294669013
 30
0.0
 10
83.99376175711933
 20
54.82989862658638
 30
0.0
  0
SPLINE
  5
221
330
1F
100
AcDbEntity
  8
0
  6
Continuous
 62
     7
370
    18
100
AcDbSpline
210
0.0
220
0.0
230
1.0
 70
     8
 71
     3
 72
    12
 73
     8
 74
     0
 42
0.000000001
 43
0.00000001
 40
0.0
 40
0.0
 40
0.0
 40
0.0
 40
0.2533551694172558
 40
0.4902252637721145
 40
0.6157395263583786
 40
0.7379538609124323
 40
1.0
 40
1.0
 40
1.0
 40
1.0
 10
83.8982353797593
 20
54.82522963488408
 30
0.0
 10
83.89971237469932
 20
54.81960017076445
 30
0.0
 10
83.90257026086648
 20
54.80870753518378
 30
0.0
 10
83.91030411959576
 20
54.79643470300318
 30
0.0
 10
83.91909828671925
 20
54.7894881814654
 30
0.0
 10
83.92986976396304
 20
54.78460702938244
 30
0.0
 10
83.93875035988088
 20
54.78398826472002
 30
0.0
 10
83.9448064755438
 20
54.78356629862694
 30
0.0
  0
LINE
  5
222
330
1F
100
AcDbEntity
  8
0
  6
Continuous
 62
     7
370
    18
100
AcDbLine
 10
83.8663940818
 20
54.8222178153
 30
0.0
 11
83.8982353798
 21
54.8252296349
 31
0.0
  0
SPLINE
  5
223
330
1F
100
AcDbEntity
  8
0
  6
Continuous
 62
     7
370
    18
100
AcDbSpline
210
0.0
220
0.0
230
1.0
 70
     8
 71
     3
 72
    11
 73
     7
 74
     0
 42
0.000000001
 43
0.00000001
 40
0.0
 40
0.0
 40
0.0
 40
0.0
 40
0.2581657491401814
 40
0.5105494984595511
 40
0.756289753582284
 40
1.0
 40
1.0
 40
1.0
 40
1.0
 10
83.94365411907815
 20
54.75741037575462
 30
0.0
 10
83.93403323356999
 20
54.75808972444489
 30
0.0
 10
83.91500693636644
 20
54.75943320681718
 30
0.0
 10
83.88989664678458
 20
54.773439932069
 30
0.0
 10
83.8715830632568
 20
54.79521875437597
 30
0.0
 10
83.8681189531332
 20
54.81324304705846
 30
0.0
 10
83.86639408181492
 20
54.82221781528799
 30
0.0
  0
SPLINE
  5
224
330
1F
100
AcDbEntity
  8
0
  6
Continuous
 62
     7
370
    18
100
AcDbSpline
210
0.0
220
0.0
230
1.0
 70
     8
 71
     3
 72
    13
 73
     9
 74
     0
 42
0.000000001
 43
0.00000001
 40
0.0
 40
0.0
 40
0.0
 40
0.0
 40
0.2430804098815693
 40
0.3620725549415061
 40
0.4895400341536933
 40
0.6148220447383818
 40
0.7424216144333999
 40
1.0
 40
1.0
 40
1.0
 40
1.0
 10
84.02559063742939
 20
54.82966253631371
 30
0.0
 10
84.02451444948036
 20
54.81967664055037
 30
0.0
 10
84.0229114485619
 20
54.80480247280408
 30
0.0
 10
84.01215426808835
 20
54.78773920338094
 30
0.0
 10
84.00170697766545
 20
54.77677691402407
 30
0.0
 10
83.98904234985538
 20
54.76781678005867
 30
0.0
 10
83.96992546259544
 20
54.75930392810531
 30
0.0
 10
83.95418210584388
 20
54.75816919854095
 30
0.0
 10
83.94365411907815
 20
54.75741037575462
 30
0.0
  0
SPLINE
  5
225
330
1F
100
AcDbEntity
  8
0
  6
Continuous
 62
     7
370
    18
100
AcDbSpline
210
0.0
220
0.0
230
1.0
 70
     8
 71
     3
 72
    11
 73
     7
 74
     0
 42
0.000000001
 43
0.00000001
 40
0.0
 40
0.0
 40
0.0
 40
0.0
 40
0.2550884234613052
 40
0.5071810142056019
 40
0.7552462855775093
 40
1.0
 40
1.0
 40
1.0
 40
1.0
 10
83.78793946812931
 20
54.88862614011946
 30
0.0
 10
83.79463383908762
 20
54.88657000854658
 30
0.0
 10
83.80794396036256
 20
54.88248189320869
 30
0.0
 10
83.82354592447737
 20
54.86823532858254
 30
0.0
 10
83.83323339998562
 20
54.84984317423152
 30
0.0
 10
83.83411330443253
 20
54.83635921324921
 30
0.0
 10
83.83455030034366
 20
54.82966253631371
 30
0.0
  0
SPLINE
  5
226
330
1F
100
AcDbEntity
  8
0
  6
Continuous
 62
     7
370
    18
100
AcDbSpline
210
0.0
220
0.0
230
1.0
 70
     8
 71
     3
 72
    11
 73
     7
 74
     0
 42
0.000000001
 43
0.00000001
 40
0.0
 40
0.0
 40
0.0
 40
0.0
 40
0.2495015242067606
 40
0.4987110017776485
 40
0.7485301516763161
 40
1.0
 40
1.0
 40
1.0
 40
1.0
 10
83.82182222515725
 20
54.93702400573152
 30
0.0
 10
83.82138983885343
 20
54.9317931988009
 30
0.0
 10
83.8205255723628
 20
54.92133770770612
 30
0.0
 10
83.81311191187679
 20
54.90717973772242
 30
0.0
 10
83.80202151568298
 20
54.89576885506237
 30
0.0
 10
83.79264377732297
 20
54.89101226610331
 30
0.0
 10
83.78793946812931
 20
54.88862614011946
 30
0.0
  0
SPLINE
  5
227
330
1F
100
AcDbEntity
  8
0
  6
Continuous
 62
     7
370
    18
100
AcDbSpline
210
0.0
220
0.0
230
1.0
 70
     8
 71
     3
 72
    13
 73
     9
 74
     0
 42
0.000000001
 43
0.00000001
 40
0.0
 40
0.0
 40
0.0
 40
0.0
 40
0.2504043599162045
 40
0.500466694620647
 40
0.6237315451544362
 40
0.7493992620647262
 40
0.8761115775955151
 40
1.0
 40
1.0
 40
1.0
 40
1.0
 10
83.75117085288349
 20
54.99983615698304
 30
0.0
 10
83.75996537529406
 20
54.99905051364538
 30
0.0
 10
83.77754240775094
 20
54.99748030007368
 30
0.0
 10
83.79734150108098
 20
54.98660918549795
 30
0.0
 10
83.80960446289927
 20
54.97402028143597
 30
0.0
 10
83.81637981830337
 20
54.96265784882999
 30
0.0
 10
83.82104563557897
 20
54.95017203256845
 30
0.0
 10
83.82156531396221
 20
54.94137363310413
 30
0.0
 10
83.82182222515725
 20
54.93702400573152
 30
0.0
  0
SPLINE
  5
228
330
1F
100
AcDbEntity
  8
0
  6
Continuous
 62
     7
370
    18
100
AcDbSpline
210
0.0
220
0.0
230
1.0
 70
     8
 71
     3
 72
    12
 73
     8
 74
     0
 42
0.000000001
 43
0.00000001
 40
0.0
 40
0.0
 40
0.0
 40
0.0
 40
0.2489926278048292
 40
0.4984500268778088
 40
0.6229909152241045
 40
0.7494800765939793
 40
1.0
 40
1.0
 40
1.0
 40
1.0
 10
83.67853265911721
 20
54.9364826453812
 30
0.0
 10
83.68065311879009
 20
54.94502976044404
 30
0.0
 10
83.68489799619977
 20
54.96213994467059
 30
0.0
 10
83.69854497347276
 20
54.98020947486739
 30
0.0
 10
83.71279665240104
 20
54.99059253649384
 30
0.0
 10
83.72895006608645
 20
54.99813442452646
 30
0.0
 10
83.74229994853671
 20
54.99915679733731
 30
0.0
 10
83.75117085288349
 20
54.99983615698304
 30
0.0
  0
LINE
  5
229
330
1F
100
AcDbEntity
  8
0
  6
Continuous
 62
     7
370
    18
100
AcDbLine
 10
83.7103739571
 20
54.9333343094
 30
0.0
 11
83.6785326591
 21
54.9364826454
 31
0.0
  0
SPLINE
  5
22A
330
1F
100
AcDbEntity
  8
0
  6
Continuous
 62
     7
370
    18
100
AcDbSpline
210
0.0
220
0.0
230
1.0
 70
     8
 71
     3
 72
    12
 73
     8
 74
     0
 42
0.000000001
 43
0.00000001
 40
0.0
 40
0.0
 40
0.0
 40
0.0
 40
0.2506448227488789
 40
0.377542429777081
 40
0.5019636319010101
 40
0.7449954285520383
 40
1.0
 40
1.0
 40
1.0
 40
1.0
 10
83.75216426362974
 20
54.97125168195549
 30
0.0
 10
83.7469379733219
 20
54.97084848898194
 30
0.0
 10
83.73906569285786
 20
54.97024116562599
 30
0.0
 10
83.72958908719296
 20
54.9657147191627
 30
0.0
 10
83.72136356314888
 20
54.9595700762447
 30
0.0
 10
83.7138075441414
 20
54.94860682469075
 30
0.0
 10
83.71153668322405
 20
54.93850608827807
 30
0.0
 10
83.71037395706159
 20
54.93333430941771
 30
0.0
  0
SPLINE
  5
22B
330
1F
100
AcDbEntity
  8
0
  6
Continuous
 62
     7
370
    18
100
AcDbSpline
210
0.0
220
0.0
230
1.0
 70
     8
 71
     3
 72
    13
 73
     9
 74
     0
 42
0.000000001
 43
0.00000001
 40
0.0
 40
0.0
 40
0.0
 40
0.0
 40
0.2480263740292303
 40
0.3699005380026553
 40
0.498431406688832
 40
0.6165395403916193
 40
0.7366355043009728
 40
0.9999999999999999
 40
0.9999999999999999
 40
0.9999999999999999
 40
0.9999999999999999
 10
83.78998092721287
 20
54.93599055781583
 30
0.0
 10
83.78952793618213
 20
54.94082154871946
 30
0.0
 10
83.78885235631026
 20
54.94802637176027
 30
0.0
 10
83.78391667366517
 20
54.95640903448941
 30
0.0
 10
83.77917587189303
 20
54.9617226183021
 30
0.0
 10
83.77350174623744
 20
54.9659782793524
 30
0.0
 10
83.764699422443
 20
54.97016905058956
 30
0.0
 10
83.75726814181544
 20
54.97081087233401
 30
0.0
 10
83.75216426362974
 20
54.97125168195549
 30
0.0
  0
SPLINE
  5
22C
330
1F
100
AcDbEntity
  8
0
  6
Continuous
 62
     7
370
    18
100
AcDbSpline
210
0.0
220
0.0
230
1.0
 70
     8
 71
     3
 72
    13
 73
     9
 74
     0
 42
0.000000001
 43
0.00000001
 40
0.0
 40
0.0
 40
0.0
 40
0.0
 40
0.2515899943213726
 40
0.5021947138266893
 40
0.629300010492824
 40
0.7513579711713759
 40
0.8669276502892675
 40
1.0
 40
1.0
 40
1.0
 40
1.0
 10
83.74340983142835
 20
54.89853913760367
 30
0.0
 10
83.7490443680311
 20
54.8989542411329
 30
0.0
 10
83.76029137530735
 20
54.89978282256609
 30
0.0
 10
83.77343899240452
 20
54.90561217530474
 30
0.0
 10
83.78225106636683
 20
54.9126191414918
 30
0.0
 10
83.78687468028751
 20
54.91948642329435
 30
0.0
 10
83.7894832009321
 20
54.92745006783543
 30
0.0
 10
83.78980741107247
 20
54.93301319271441
 30
0.0
 10
83.78998092721287
 20
54.93599055781583
 30
0.0
  0
LINE
  5
22D
330
1F
100
AcDbEntity
  8
0
  6
Continuous
 62
     7
370
    18
100
AcDbLine
 10
83.738840142
 20
54.898879895
 30
0.0
 11
83.7434098314
 21
54.8985391376
 31
0.0
  0
LINE
  5
22E
330
1F
100
AcDbEntity
  8
0
  6
Continuous
 62
     7
370
    18
100
AcDbLine
 10
83.735554436
 20
54.8709812638
 30
0.0
 11
83.738840142
 21
54.898879895
 31
0.0
  0
LINE
  5
22F
330
1F
100
AcDbEntity
  8
0
  6
Continuous
 62
     7
370
    18
100
AcDbLine
 10
83.7561503242
 20
54.8742591215
 30
0.0
 11
83.735554436
 21
54.8709812638
 31
0.0
  0
SPLINE
  5
230
330
1F
100
AcDbEntity
  8
0
  6
Continuous
 62
     7
370
    18
100
AcDbSpline
210
0.0
220
0.0
230
1.0
 70
     8
 71
     3
 72
    13
 73
     9
 74
     0
 42
0.000000001
 43
0.00000001
 40
0.0
 40
0.0
 40
0.0
 40
0.0
 40
0.2432732996612882
 40
0.3653932738846428
 40
0.4921916724992546
 40
0.6182524080656645
 40
0.7454081914547935
 40
1.0
 40
1.0
 40
1.0
 40
1.0
 10
83.80270900239927
 20
54.82989862658638
 30
0.0
 10
83.80218212204444
 20
54.83578442335205
 30
0.0
 10
83.80139075473012
 20
54.84462481213543
 30
0.0
 10
83.79555090954365
 20
54.85503514039907
 30
0.0
 10
83.78971648490409
 20
54.86190179101462
 30
0.0
 10
83.78251385302664
 20
54.86752934373859
 30
0.0
 10
83.77150819511067
 20
54.87300963817474
 30
0.0
 10
83.76229482530483
 20
54.87375921813182
 30
0.0
 10
83.75615032424909
 20
54.87425912152599
 30
0.0
  0
SPLINE
  5
231
330
1F
100
AcDbEntity
  8
0
  6
Continuous
 62
     7
370
    18
100
AcDbSpline
210
0.0
220
0.0
230
1.0
 70
     8
 71
     3
 72
    13
 73
     9
 74
     0
 42
0.000000001
 43
0.00000001
 40
0.0
 40
0.0
 40
0.0
 40
0.0
 40
0.2600771546322047
 40
0.38421841882575
 40
0.5096618228485131
 40
0.6350996592010566
 40
0.7563524543834305
 40
0.9999999999999999
 40
0.9999999999999999
 40
0.9999999999999999
 40
0.9999999999999999
 10
83.75375372082375
 20
54.78356629862694
 30
0.0
 10
83.76035555504191
 20
54.78406368548335
 30
0.0
 10
83.77010860816273
 20
54.78479848739931
 30
0.0
 10
83.78181107251035
 20
54.79040062483778
 30
0.0
 10
83.78930067188341
 20
54.79624393604117
 30
0.0
 10
83.79534549489088
 20
54.80345390127492
 30
0.0
 10
83.80135470108152
 20
54.81441843691864
 30
0.0
 10
83.80216677359614
 20
54.82370074092706
 30
0.0
 10
83.80270900239927
 20
54.82989862658638
 30
0.0
  0
SPLINE
  5
232
330
1F
100
AcDbEntity
  8
0
  6
Continuous
 62
     7
370
    18
100
AcDbSpline
210
0.0
220
0.0
230
1.0
 70
     8
 71
     3
 72
    12
 73
     8
 74
     0
 42
0.000000001
 43
0.00000001
 40
0.0
 40
0.0
 40
0.0
 40
0.0
 40
0.2533911150850482
 40
0.4902948162289107
 40
0.6156850080339131
 40
0.7379166821823372
 40
0.9999999999999999
 40
0.9999999999999999
 40
0.9999999999999999
 40
0.9999999999999999
 10
83.70719504267358
 20
54.82522963488408
 30
0.0
 10
83.70867168458602
 20
54.81959971668416
 30
0.0
 10
83.71152888766855
 20
54.80870620248857
 30
0.0
 10
83.71926508607596
 20
54.79644149902064
 30
0.0
 10
83.7280468776987
 20
54.78948470562752
 30
0.0
 10
83.73881799223022
 20
54.78460828956083
 30
0.0
 10
83.7476980037147
 20
54.78398877566155
 30
0.0
 10
83.75375372082375
 20
54.78356629862694
 30
0.0
  0
LINE
  5
233
330
1F
100
AcDbEntity
  8
0
  6
Continuous
 62
     7
370
    18
100
AcDbLine
 10
83.6753537447
 20
54.8222178153
 30
0.0
 11
83.7071950427
 21
54.8252296349
 31
0.0
  0
SPLINE
  5
234
330
1F
100
AcDbEntity
  8
0
  6
Continuous
 62
     7
370
    18
100
AcDbSpline
210
0.0
220
0.0
230
1.0
 70
     8
 71
     3
 72
    11
 73
     7
 74
     0
 42
0.000000001
 43
0.00000001
 40
0.0
 40
0.0
 40
0.0
 40
0.0
 40
0.2581657491401814
 40
0.5105494984595511
 40
0.756289753582284
 40
1.0
 40
1.0
 40
1.0
 40
1.0
 10
83.75261378199242
 20
54.75741037575462
 30
0.0
 10
83.74299289648427
 20
54.75808972444489
 30
0.0
 10
83.72396659928073
 20
54.75943320681718
 30
0.0
 10
83.69885630969884
 20
54.773439932069
 30
0.0
 10
83.68054272617107
 20
54.79521875437597
 30
0.0
 10
83.67707861604748
 20
54.81324304705846
 30
0.0
 10
83.6753537447292
 20
54.82221781528799
 30
0.0
  0
SPLINE
  5
235
330
1F
100
AcDbEntity
  8
0
  6
Continuous
 62
     7
370
    18
100
AcDbSpline
210
0.0
220
0.0
230
1.0
 70
     8
 71
     3
 72
    13
 73
     9
 74
     0
 42
0.000000001
 43
0.00000001
 40
0.0
 40
0.0
 40
0.0
 40
0.0
 40
0.2430860366705582
 40
0.3620809361428802
 40
0.4896216470143312
 40
0.6149065576082718
 40
0.7424156520474371
 40
1.0
 40
1.0
 40
1.0
 40
1.0
 10
83.83455030034366
 20
54.82966253631371
 30
0.0
 10
83.83347366818136
 20
54.81967705249836
 30
0.0
 10
83.83187000559934
 20
54.80480349835587
 30
0.0
 10
83.82111438422092
 20
54.78773490128916
 30
0.0
 10
83.81065424461396
 20
54.77678059002568
 30
0.0
 10
83.79799282972805
 20
54.76781958361675
 30
0.0
 10
83.77888260197425
 20
54.75930006806977
 30
0.0
 10
83.76314228782873
 20
54.7581677617576
 30
0.0
 10
83.75261378199242
 20
54.75741037575462
 30
0.0
  0
SPLINE
  5
236
330
1F
100
AcDbEntity
  8
0
  6
Continuous
 62
     7
370
    18
100
AcDbSpline
210
0.0
220
0.0
230
1.0
 70
     8
 71
     3
 72
    10
 73
     6
 74
     0
 42
0.000000001
 43
0.00000001
 40
0.0
 40
0.0
 40
0.0
 40
0.0
 40
0.4963253287758229
 40
0.7483513608348077
 40
1.0
 40
1.0
 40
1.0
 40
1.0
 10
83.4779431612331
 20
54.8694884313388
 30
0.0
 10
83.47870097616729
 20
54.88730449951289
 30
0.0
 10
83.47984359735624
 20
54.9141672810189
 30
0.0
 10
83.4897570547807
 20
54.94913207923067
 30
0.0
 10
83.49992400419514
 20
54.96417948317018
 30
0.0
 10
83.50500366996113
 20
54.97169754778745
 30
0.0
  0
SPLINE
  5
237
330
1F
100
AcDbEntity
  8
0
  6
Continuous
 62
     7
370
    18
100
AcDbSpline
210
0.0
220
0.0
230
1.0
 70
     8
 71
     3
 72
    13
 73
     9
 74
     0
 42
0.000000001
 43
0.00000001
 40
0.0
 40
0.0
 40
0.0
 40
0.0
 40
0.1295072330890789
 40
0.2576669272116968
 40
0.3833637330699816
 40
0.5068857822246202
 40
0.7511439817748252
 40
1.0
 40
1.0
 40
1.0
 40
1.0
 10
83.56500567903501
 20
54.75741037575462
 30
0.0
 10
83.55802483633238
 20
54.75777121069417
 30
0.0
 10
83.54413578746896
 20
54.75848912604059
 30
0.0
 10
83.52434269291003
 20
54.76526619840157
 30
0.0
 10
83.50729624890064
 20
54.77665247476187
 30
0.0
 10
83.48957633511135
 20
54.79690649044026
 30
0.0
 10
83.47932753946912
 20
54.82963456317466
 30
0.0
 10
83.47840748020282
 20
54.8561214868699
 30
0.0
 10
83.4779431612331
 20
54.8694884313388
 30
0.0
  0
SPLINE
  5
238
330
1F
100
AcDbEntity
  8
0
  6
Continuous
 62
     7
370
    18
100
AcDbSpline
210
0.0
220
0.0
230
1.0
 70
     8
 71
     3
 72
    12
 73
     8
 74
     0
 42
0.000000001
 43
0.00000001
 40
0.0
 40
0.0
 40
0.0
 40
0.0
 40
0.2452059014818417
 40
0.4901108916438299
 40
0.6123031994532353
 40
0.7423097322404353
 40
1.0
 40
1.0
 40
1.0
 40
1.0
 10
83.6435124467848
 20
54.83637956456526
 30
0.0
 10
83.6425345557089
 20
54.82616645629007
 30
0.0
 10
83.64057997360364
 20
54.80575277304285
 30
0.0
 10
83.62672486111747
 20
54.78322785684533
 30
0.0
 10
83.61100043094682
 20
54.76979718379335
 30
0.0
 10
83.59199552232532
 20
54.75983685271446
 30
0.0
 10
83.57578218864576
 20
54.75837921992303
 30
0.0
 10
83.56500567903501
 20
54.75741037575462
 30
0.0
  0
SPLINE
  5
239
330
1F
100
AcDbEntity
  8
0
  6
Continuous
 62
     7
370
    18
100
AcDbSpline
210
0.0
220
0.0
230
1.0
 70
     8
 71
     3
 72
    14
 73
    10
 74
     0
 42
0.000000001
 43
0.00000001
 40
0.0
 40
0.0
 40
0.0
 40
0.0
 40
0.1272885355484981
 40
0.2543995719089447
 40
0.3788130366968413
 40
0.5070676922120821
 40
0.6319189019867358
 40
0.7560921194066821
 40
1.0
 40
1.0
 40
1.0
 40
1.0
 10
83.5701316784857
 20
54.91449793199632
 30
0.0
 10
83.57520832508041
 20
54.91423415822485
 30
0.0
 10
83.58535453907264
 20
54.91370697850476
 30
0.0
 10
83.5998514234319
 20
54.90893065831043
 30
0.0
 10
83.61292700615053
 20
54.90116817985346
 30
0.0
 10
83.62412764899743
 20
54.8909942044408
 30
0.0
 10
83.63315410802952
 20
54.87890171629931
 30
0.0
 10
83.64158930924272
 20
54.86093015061129
 30
0.0
 10
83.64274598134445
 20
54.84616418752275
 30
0.0
 10
83.6435124467848
 20
54.83637956456526
 30
0.0
  0
SPLINE
  5
23A
330
1F
100
AcDbEntity
  8
0
  6
Continuous
 62
     7
370
    18
100
AcDbSpline
210
0.0
220
0.0
230
1.0
 70
     8
 71
     3
 72
    12
 73
     8
 74
     0
 42
0.000000001
 43
0.00000001
 40
0.0
 40
0.0
 40
0.0
 40
0.0
 40
0.2477815273802822
 40
0.4973745636250684
 40
0.7482100038422975
 40
0.8739843226580792
 40
1.0
 40
1.0
 40
1.0
 40
1.0
 10
83.50978445917748
 20
54.88247286276515
 30
0.0
 10
83.51337442423436
 20
54.88715408081093
 30
0.0
 10
83.52058060026562
 20
54.89655074087421
 30
0.0
 10
83.5354322606275
 20
54.90675159251894
 30
0.0
 10
83.54943323935206
 20
54.91199315503066
 30
0.0
 10
83.56117481141823
 20
54.91420797535866
 30
0.0
 10
83.5671441487858
 20
54.91440121803817
 30
0.0
 10
83.5701316784857
 20
54.91449793199632
 30
0.0
  0
SPLINE
  5
23B
330
1F
100
AcDbEntity
  8
0
  6
Continuous
 62
     7
370
    18
100
AcDbSpline
210
0.0
220
0.0
230
1.0
 70
     8
 71
     3
 72
    10
 73
     6
 74
     0
 42
0.000000001
 43
0.00000001
 40
0.0
 40
0.0
 40
0.0
 40
0.0
 40
0.2499217662842274
 40
0.502934043336615
 40
1.0
 40
1.0
 40
1.0
 40
1.0
 10
83.53942783584577
 20
54.96392396317884
 30
0.0
 10
83.53401189129313
 20
54.95869547271493
 30
0.0
 10
83.52311302908979
 20
54.94817383672996
 30
0.0
 10
83.51100602543455
 20
54.92002856144893
 30
0.0
 10
83.51027133070755
 20
54.89744118754943
 30
0.0
 10
83.50978445917748
 20
54.88247286276515
 30
0.0
  0
SPLINE
  5
23C
330
1F
100
AcDbEntity
  8
0
  6
Continuous
 62
     7
370
    18
100
AcDbSpline
210
0.0
220
0.0
230
1.0
 70
     8
 71
     3
 72
     9
 73
     5
 74
     0
 42
0.000000001
 43
0.00000001
 40
0.0
 40
0.0
 40
0.0
 40
0.0
 40
0.5001235349473446
 40
1.0
 40
1.0
 40
1.0
 40
1.0
 10
83.56654298216485
 20
54.97125168195549
 30
0.0
 10
83.561775956062
 20
54.97094291870425
 30
0.0
 10
83.55224425885166
 20
54.9703255447363
 30
0.0
 10
83.54369927311149
 20
54.96605747219392
 30
0.0
 10
83.53942783584577
 20
54.96392396317884
 30
0.0
  0
SPLINE
  5
23D
330
1F
100
AcDbEntity
  8
0
  6
Continuous
 62
     7
370
    18
100
AcDbSpline
210
0.0
220
0.0
230
1.0
 70
     8
 71
     3
 72
     9
 73
     5
 74
     0
 42
0.000000001
 43
0.00000001
 40
0.0
 40
0.0
 40
0.0
 40
0.0
 40
0.4993353855801515
 40
1.0
 40
1.0
 40
1.0
 40
1.0
 10
83.59699350506448
 20
54.95858224128617
 30
0.0
 10
83.59259307704362
 20
54.96229504399277
 30
0.0
 10
83.58378050707978
 20
54.96973053287222
 30
0.0
 10
83.57229391324043
 20
54.97074418313667
 30
0.0
 10
83.56654298216485
 20
54.97125168195549
 30
0.0
  0
SPLINE
  5
23E
330
1F
100
AcDbEntity
  8
0
  6
Continuous
 62
     7
370
    18
100
AcDbSpline
210
0.0
220
0.0
230
1.0
 70
     8
 71
     3
 72
     9
 73
     5
 74
     0
 42
0.000000001
 43
0.00000001
 40
0.0
 40
0.0
 40
0.0
 40
0.0
 40
0.5000601221283991
 40
1.0
 40
1.0
 40
1.0
 40
1.0
 10
83.60848975092553
 20
54.93333430941771
 30
0.0
 10
83.60734191743099
 20
54.93789271364411
 30
0.0
 10
83.60504652644946
 20
54.94700842598487
 30
0.0
 10
83.59967763033315
 20
54.95472461212809
 30
0.0
 10
83.59699350506448
 20
54.95858224128617
 30
0.0
  0
LINE
  5
23F
330
1F
100
AcDbEntity
  8
0
  6
Continuous
 62
     7
370
    18
100
AcDbLine
 10
83.6403335324
 20
54.9364826454
 30
0.0
 11
83.6084897509
 21
54.9333343094
 31
0.0
  0
SPLINE
  5
240
330
1F
100
AcDbEntity
  8
0
  6
Continuous
 62
     7
370
    18
100
AcDbSpline
210
0.0
220
0.0
230
1.0
 70
     8
 71
     3
 72
    13
 73
     9
 74
     0
 42
0.000000001
 43
0.00000001
 40
0.0
 40
0.0
 40
0.0
 40
0.0
 40
0.250364137264223
 40
0.3764095768076751
 40
0.5011601240232284
 40
0.6253583826694183
 40
0.7514633226144586
 40
1.0
 40
1.0
 40
1.0
 40
1.0
 10
83.56863411178571
 20
54.99983615698304
 30
0.0
 10
83.57751349656661
 20
54.99921062010426
 30
0.0
 10
83.59086319394824
 20
54.99827015764669
 30
0.0
 10
83.60712049295564
 20
54.99095375573859
 30
0.0
 10
83.61789462955203
 20
54.9832010098009
 30
0.0
 10
83.62683339508897
 20
54.97338932289107
 30
0.0
 10
83.63599178942196
 20
54.95819874105217
 30
0.0
 10
83.63860195351772
 20
54.94514348339435
 30
0.0
 10
83.64033353239678
 20
54.9364826453812
 30
0.0
  0
SPLINE
  5
241
330
1F
100
AcDbEntity
  8
0
  6
Continuous
 62
     7
370
    18
100
AcDbSpline
210
0.0
220
0.0
230
1.0
 70
     8
 71
     3
 72
    10
 73
     6
 74
     0
 42
0.000000001
 43
0.00000001
 40
0.0
 40
0.0
 40
0.0
 40
0.0
 40
0.2503259108003082
 40
0.5008585602628377
 40
1.0
 40
1.0
 40
1.0
 40
1.0
 10
83.50500366996113
 20
54.97169754778745
 30
0.0
 10
83.50913523995199
 20
54.97604324081879
 30
0.0
 10
83.51740179210648
 20
54.98473821589373
 30
0.0
 10
83.538476757073
 20
54.99701104434644
 30
0.0
 10
83.55658046166592
 20
54.99870698237223
 30
0.0
 10
83.56863411178571
 20
54.99983615698304
 30
0.0
  0
LINE
  5
242
330
1F
100
AcDbEntity
  8
0
  6
Continuous
 62
     7
370
    18
100
AcDbLine
 10
83.3633159787
 20
54.8556180696
 30
0.0
 11
83.4556510241
 21
54.8556180696
 31
0.0
  0
LINE
  5
243
330
1F
100
AcDbEntity
  8
0
  6
Continuous
 62
     7
370
    18
100
AcDbLine
 10
83.3633159787
 20
54.8556180696
 30
0.0
 11
83.3633159787
 21
54.8282465962
 31
0.0
  0
LINE
  5
244
330
1F
100
AcDbEntity
  8
0
  6
Continuous
 62
     7
370
    18
100
AcDbLine
 10
83.4556510241
 20
54.8282465962
 30
0.0
 11
83.3633159787
 21
54.8282465962
 31
0.0
  0
LINE
  5
245
330
1F
100
AcDbEntity
  8
0
  6
Continuous
 62
     7
370
    18
100
AcDbLine
 10
83.4556510241
 20
54.8556180696
 30
0.0
 11
83.4556510241
 21
54.8282465962
 31
0.0
  0
SPLINE
  5
246
330
1F
100
AcDbEntity
  8
0
  6
Continuous
 62
     7
370
    18
100
AcDbSpline
210
0.0
220
0.0
230
1.0
 70
     8
 71
     3
 72
     9
 73
     5
 74
     0
 42
0.000000001
 43
0.00000001
 40
0.0
 40
0.0
 40
0.0
 40
0.0
 40
0.5007446276732503
 40
1.0
 40
1.0
 40
1.0
 40
1.0
 10
83.3378449272154
 20
54.83960469583604
 30
0.0
 10
83.33716865829588
 20
54.82961210409495
 30
0.0
 10
83.33581813173572
 20
54.80965663939527
 30
0.0
 10
83.3244927525265
 20
54.79317255905831
 30
0.0
 10
83.31883849611265
 20
54.78494279339223
 30
0.0
  0
SPLINE
  5
247
330
1F
100
AcDbEntity
  8
0
  6
Continuous
 62
     7
370
    18
100
AcDbSpline
210
0.0
220
0.0
230
1.0
 70
     8
 71
     3
 72
    14
 73
    10
 74
     0
 42
0.000000001
 43
0.00000001
 40
0.0
 40
0.0
 40
0.0
 40
0.0
 40
0.1272153036414109
 40
0.2542172167522737
 40
0.3782592891880733
 40
0.5067915606594764
 40
0.6324974341823925
 40
0.7559161866432622
 40
1.0
 40
1.0
 40
1.0
 40
1.0
 10
83.2649558972357
 20
54.91763054219008
 30
0.0
 10
83.27001389432894
 20
54.9173722021526
 30
0.0
 10
83.2801214042478
 20
54.91685595541636
 30
0.0
 10
83.29455785367163
 20
54.91213147118027
 30
0.0
 10
83.30760951213531
 20
54.90441875174185
 30
0.0
 10
83.3186820040927
 20
54.89412333694282
 30
0.0
 10
83.32762458184098
 20
54.88201615897142
 30
0.0
 10
83.33597116666024
 20
54.86406319173387
 30
0.0
 10
83.33709711032937
 20
54.84936606912851
 30
0.0
 10
83.3378449272154
 20
54.83960469583604
 30
0.0
  0
SPLINE
  5
248
330
1F
100
AcDbEntity
  8
0
  6
Continuous
 62
     7
370
    18
100
AcDbSpline
210
0.0
220
0.0
230
1.0
 70
     8
 71
     3
 72
     9
 73
     5
 74
     0
 42
0.000000001
 43
0.00000001
 40
0.0
 40
0.0
 40
0.0
 40
0.0
 40
0.4995086702288277
 40
1.0
 40
1.0
 40
1.0
 40
1.0
 10
83.22067709674818
 20
54.90136376136227
 30
0.0
 10
83.22736248083217
 20
54.90594175528588
 30
0.0
 10
83.24074640083685
 20
54.91510674920184
 30
0.0
 10
83.25688078023545
 20
54.91678872692351
 30
0.0
 10
83.2649558972357
 20
54.91763054219008
 30
0.0
  0
LINE
  5
249
330
1F
100
AcDbEntity
  8
0
  6
Continuous
 62
     7
370
    18
100
AcDbLine
 10
83.2333132814
 20
54.964913702
 30
0.0
 11
83.2206770967
 21
54.9013637614
 31
0.0
  0
LINE
  5
24A
330
1F
100
AcDbEntity
  8
0
  6
Continuous
 62
     7
370
    18
100
AcDbLine
 10
83.3251044344
 20
54.964913702
 30
0.0
 11
83.2333132814
 21
54.964913702
 31
0.0
  0
LINE
  5
24B
330
1F
100
AcDbEntity
  8
0
  6
Continuous
 62
     7
370
    18
100
AcDbLine
 10
83.3251044344
 20
54.9966560299
 30
0.0
 11
83.3251044344
 21
54.964913702
 31
0.0
  0
LINE
  5
24C
330
1F
100
AcDbEntity
  8
0
  6
Continuous
 62
     7
370
    18
100
AcDbLine
 10
83.2072983375
 20
54.9966560299
 30
0.0
 11
83.3251044344
 21
54.9966560299
 31
0.0
  0
LINE
  5
24D
330
1F
100
AcDbEntity
  8
0
  6
Continuous
 62
     7
370
    18
100
AcDbLine
 10
83.181827286
 20
54.8709812638
 30
0.0
 11
83.2072983375
 21
54.9966560299
 31
0.0
  0
LINE
  5
24E
330
1F
100
AcDbEntity
  8
0
  6
Continuous
 62
     7
370
    18
100
AcDbLine
 10
83.2136685839
 20
54.8679003323
 30
0.0
 11
83.181827286
 21
54.8709812638
 31
0.0
  0
SPLINE
  5
24F
330
1F
100
AcDbEntity
  8
0
  6
Continuous
 62
     7
370
    18
100
AcDbSpline
210
0.0
220
0.0
230
1.0
 70
     8
 71
     3
 72
    11
 73
     7
 74
     0
 42
0.000000001
 43
0.00000001
 40
0.0
 40
0.0
 40
0.0
 40
0.0
 40
0.2520479092577477
 40
0.502966292307735
 40
0.7552531190686571
 40
1.0
 40
1.0
 40
1.0
 40
1.0
 10
83.25614682744327
 20
54.88954792633897
 30
0.0
 10
83.25195589730674
 20
54.8893692827204
 30
0.0
 10
83.2435928182465
 20
54.88901279605587
 30
0.0
 10
83.23160618670701
 20
54.88481379400348
 30
0.0
 10
83.22125900400444
 20
54.87763809660271
 30
0.0
 10
83.21617300594957
 20
54.87111326006946
 30
0.0
 10
83.21366858393334
 20
54.86790033232354
 30
0.0
  0
SPLINE
  5
250
330
1F
100
AcDbEntity
  8
0
  6
Continuous
 62
     7
370
    18
100
AcDbSpline
210
0.0
220
0.0
230
1.0
 70
     8
 71
     3
 72
    13
 73
     9
 74
     0
 42
0.000000001
 43
0.00000001
 40
0.0
 40
0.0
 40
0.0
 40
0.0
 40
0.2453406265521502
 40
0.3690215905439863
 40
0.4957940563747846
 40
0.6197959240166147
 40
0.7427409541076561
 40
1.0
 40
1.0
 40
1.0
 40
1.0
 10
83.30600362927102
 20
54.83780175234435
 30
0.0
 10
83.30558655720402
 20
54.84451461310018
 30
0.0
 10
83.30495923102617
 20
54.8546115570431
 30
0.0
 10
83.29978941905031
 20
54.8672022668137
 30
0.0
 10
83.29390836434544
 20
54.8756158069444
 30
0.0
 10
83.28613755791814
 20
54.88230844602763
 30
0.0
 10
83.27366228079808
 20
54.88843794375252
 30
0.0
 10
83.26321548547821
 20
54.88909997405538
 30
0.0
 10
83.25614682744327
 20
54.88954792633897
 30
0.0
  0
SPLINE
  5
251
330
1F
100
AcDbEntity
  8
0
  6
Continuous
 62
     7
370
    18
100
AcDbSpline
210
0.0
220
0.0
230
1.0
 70
     8
 71
     3
 72
    12
 73
     8
 74
     0
 42
0.000000001
 43
0.00000001
 40
0.0
 40
0.0
 40
0.0
 40
0.0
 40
0.2571419429238606
 40
0.3816056425376168
 40
0.5092475264618759
 40
0.7543303602342993
 40
1.0
 40
1.0
 40
1.0
 40
1.0
 10
83.25600278288506
 20
54.78356629862694
 30
0.0
 10
83.26321180622115
 20
54.78415769758743
 30
0.0
 10
83.27391019307692
 20
54.78503534974229
 30
0.0
 10
83.28644104732894
 20
54.79200980441519
 30
0.0
 10
83.2965134562564
 20
54.80152287745202
 30
0.0
 10
83.30476344716982
 20
54.81729477636328
 30
0.0
 10
83.30558990583097
 20
54.83096064680048
 30
0.0
 10
83.30600362927102
 20
54.83780175234435
 30
0.0
  0
SPLINE
  5
252
330
1F
100
AcDbEntity
  8
0
  6
Continuous
 62
     7
370
    18
100
AcDbSpline
210
0.0
220
0.0
230
1.0
 70
     8
 71
     3
 72
    12
 73
     8
 74
     0
 42
0.000000001
 43
0.00000001
 40
0.0
 40
0.0
 40
0.0
 40
0.0
 40
0.2446208892708299
 40
0.4898594169160339
 40
0.6147391191763493
 40
0.7427313985166055
 40
0.9999999999999999
 40
0.9999999999999999
 40
0.9999999999999999
 40
0.9999999999999999
 10
83.21047725191099
 20
54.82522963488408
 30
0.0
 10
83.21162640067267
 20
54.81976480729337
 30
0.0
 10
83.2139275996587
 20
54.80882135407844
 30
0.0
 10
83.2217256319052
 20
54.79667605275031
 30
0.0
 10
83.23062539551287
 20
54.78956102161872
 30
0.0
 10
83.24127426134348
 20
54.78459154150324
 30
0.0
 10
83.25010548751844
 20
54.78397680555033
 30
0.0
 10
83.25600278288506
 20
54.78356629862694
 30
0.0
  0
LINE
  5
253
330
1F
100
AcDbEntity
  8
0
  6
Continuous
 62
     7
370
    18
100
AcDbLine
 10
83.178635954
 20
54.8222178153
 30
0.0
 11
83.2104772519
 21
54.8252296349
 31
0.0
  0
SPLINE
  5
254
330
1F
100
AcDbEntity
  8
0
  6
Continuous
 62
     7
370
    18
100
AcDbSpline
210
0.0
220
0.0
230
1.0
 70
     8
 71
     3
 72
    13
 73
     9
 74
     0
 42
0.000000001
 43
0.00000001
 40
0.0
 40
0.0
 40
0.0
 40
0.0
 40
0.2577578538120961
 40
0.3856009020347992
 40
0.510823559661191
 40
0.6341560229188404
 40
0.7569285429551341
 40
1.0
 40
1.0
 40
1.0
 40
1.0
 10
83.25580410073582
 20
54.75741037575462
 30
0.0
 10
83.24615125080904
 20
54.75802587285511
 30
0.0
 10
83.23171076884536
 20
54.75894664494269
 30
0.0
 10
83.21400370051775
 20
54.76631732211079
 30
0.0
 10
83.20231166431341
 20
54.77416769480191
 30
0.0
 10
83.19264151601384
 20
54.78412811564895
 30
0.0
 10
83.18270310161483
 20
54.79964161472518
 30
0.0
 10
83.18025950865001
 20
54.81320567721792
 30
0.0
 10
83.1786359539666
 20
54.82221781528799
 30
0.0
  0
SPLINE
  5
255
330
1F
100
AcDbEntity
  8
0
  6
Continuous
 62
     7
370
    18
100
AcDbSpline
210
0.0
220
0.0
230
1.0
 70
     8
 71
     3
 72
    11
 73
     7
 74
     0
 42
0.000000001
 43
0.00000001
 40
0.0
 40
0.0
 40
0.0
 40
0.0
 40
0.2442951315516496
 40
0.4927368433497254
 40
0.7452341803342792
 40
1.0
 40
1.0
 40
1.0
 40
1.0
 10
83.31883849611265
 20
54.78494279339223
 30
0.0
 10
83.31485966693482
 20
54.78069906118406
 30
0.0
 10
83.30683447332228
 20
54.77213956513931
 30
0.0
 10
83.29120159556096
 20
54.76341445297424
 30
0.0
 10
83.27389944517383
 20
54.75820683913653
 30
0.0
 10
83.26185383821452
 20
54.75767665387872
 30
0.0
 10
83.25580410073582
 20
54.75741037575462
 30
0.0
  0
SPLINE
  5
256
330
1F
100
AcDbEntity
  8
0
  6
Continuous
 62
     7
370
    18
100
AcDbSpline
210
0.0
220
0.0
230
1.0
 70
     8
 71
     3
 72
    11
 73
     7
 74
     0
 42
0.000000001
 43
0.00000001
 40
0.0
 40
0.0
 40
0.0
 40
0.0
 40
0.2770697194989421
 40
0.5075683876666685
 40
0.7557341779074511
 40
0.9999999999999999
 40
0.9999999999999999
 40
0.9999999999999999
 40
0.9999999999999999
 10
83.10052655051533
 20
54.88334410533243
 30
0.0
 10
83.10688249284695
 20
54.88018950963527
 30
0.0
 10
83.11852604381744
 20
54.87441055603961
 30
0.0
 10
83.1327759779215
 20
54.86109590031729
 30
0.0
 10
83.14203672985774
 20
54.84453877378428
 30
0.0
 10
83.14309053066057
 20
54.8319153199015
 30
0.0
 10
83.14361325810734
 20
54.82565358068107
 30
0.0
  0
SPLINE
  5
257
330
1F
100
AcDbEntity
  8
0
  6
Continuous
 62
     7
370
    18
100
AcDbSpline
210
0.0
220
0.0
230
1.0
 70
     8
 71
     3
 72
    10
 73
     6
 74
     0
 42
0.000000001
 43
0.00000001
 40
0.0
 40
0.0
 40
0.0
 40
0.0
 40
0.248650001263672
 40
0.4992822258535419
 40
1.0
 40
1.0
 40
1.0
 40
1.0
 10
83.0028668235777
 20
54.91596597771094
 30
0.0
 10
83.01043727847927
 20
54.91187629086804
 30
0.0
 10
83.0256385395079
 20
54.90366431443699
 30
0.0
 10
83.05955835112059
 20
54.89658927934212
 30
0.0
 10
83.08414284824616
 20
54.88864101832065
 30
0.0
 10
83.10052655051533
 20
54.88334410533243
 30
0.0
  0
SPLINE
  5
258
330
1F
100
AcDbEntity
  8
0
  6
Continuous
 62
     7
370
    18
100
AcDbSpline
210
0.0
220
0.0
230
1.0
 70
     8
 71
     3
 72
    10
 73
     6
 74
     0
 42
0.000000001
 43
0.00000001
 40
0.0
 40
0.0
 40
0.0
 40
0.0
 40
0.4985241521013101
 40
0.7490514719060296
 40
1.0
 40
1.0
 40
1.0
 40
1.0
 10
82.99396586329125
 20
54.93761465826937
 30
0.0
 10
82.9943381243006
 20
54.93359171668654
 30
0.0
 10
82.99489746060517
 20
54.92754709417163
 30
0.0
 10
82.99874551654626
 20
54.920372057715
 30
0.0
 10
83.00149228552927
 20
54.91743549322234
 30
0.0
 10
83.0028668235777
 20
54.91596597771094
 30
0.0
  0
SPLINE
  5
259
330
1F
100
AcDbEntity
  8
0
  6
Continuous
 62
     7
370
    18
100
AcDbSpline
210
0.0
220
0.0
230
1.0
 70
     8
 71
     3
 72
    13
 73
     9
 74
     0
 42
0.000000001
 43
0.00000001
 40
0.0
 40
0.0
 40
0.0
 40
0.0
 40
0.2832147675204096
 40
0.5013784578895386
 40
0.6265843137956157
 40
0.7540961253549427
 40
0.8716564844024772
 40
1.0
 40
1.0
 40
1.0
 40
1.0
 10
83.04655206114434
 20
54.97442291293227
 30
0.0
 10
83.03975570168086
 20
54.97414071356298
 30
0.0
 10
83.02772402601332
 20
54.9736411326766
 30
0.0
 10
83.01311310028697
 20
54.96884983252071
 30
0.0
 10
83.0041164476537
 20
54.96184707830321
 30
0.0
 10
82.99842201702326
 20
54.95493824155912
 30
0.0
 10
82.9947109136754
 20
54.94661126872274
 30
0.0
 10
82.99422136910931
 20
54.94069993459767
 30
0.0
 10
82.99396586329125
 20
54.93761465826937
 30
0.0
  0
SPLINE
  5
25A
330
1F
100
AcDbEntity
  8
0
  6
Continuous
 62
     7
370
    18
100
AcDbSpline
210
0.0
220
0.0
230
1.0
 70
     8
 71
     3
 72
    13
 73
     9
 74
     0
 42
0.000000001
 43
0.00000001
 40
0.0
 40
0.0
 40
0.0
 40
0.0
 40
0.2480218315904868
 40
0.3743849355232072
 40
0.4979820780003438
 40
0.6173767973538098
 40
0.7488879377696742
 40
1.0
 40
1.0
 40
1.0
 40
1.0
 10
83.10222279936455
 20
54.93018838907215
 30
0.0
 10
83.10105209960798
 20
54.93674352152082
 30
0.0
 10
83.09928494729695
 20
54.94663838772433
 30
0.0
 10
83.09216347783885
 20
54.95798877015406
 30
0.0
 10
83.08499094073741
 20
54.96481044036832
 30
0.0
 10
83.07622895937043
 20
54.96965880494456
 30
0.0
 10
83.06343812769548
 20
54.97370603081347
 30
0.0
 10
83.05324301749414
 20
54.97413885465556
 30
0.0
 10
83.04655206114434
 20
54.97442291293227
 30
0.0
  0
LINE
  5
25B
330
1F
100
AcDbEntity
  8
0
  6
Continuous
 62
     7
370
    18
100
AcDbLine
 10
83.1372430117
 20
54.9301883891
 30
0.0
 11
83.1022227994
 21
54.9301883891
 31
0.0
  0
SPLINE
  5
25C
330
1F
100
AcDbEntity
  8
0
  6
Continuous
 62
     7
370
    18
100
AcDbSpline
210
0.0
220
0.0
230
1.0
 70
     8
 71
     3
 72
    13
 73
     9
 74
     0
 42
0.000000001
 43
0.00000001
 40
0.0
 40
0.0
 40
0.0
 40
0.0
 40
0.2508465956320305
 40
0.5008501434656624
 40
0.6263564566414468
 40
0.7506058171169018
 40
0.8765653504368355
 40
0.9999999999999999
 40
0.9999999999999999
 40
0.9999999999999999
 40
0.9999999999999999
 10
83.04516128609959
 20
55.00301703587962
 30
0.0
 10
83.05614151741688
 20
55.00239055444101
 30
0.0
 10
83.07806507757803
 20
55.00113969704902
 30
0.0
 10
83.1041615609721
 20
54.99039248585285
 30
0.0
 10
83.12060458987665
 20
54.97568833456909
 30
0.0
 10
83.129738996504
 20
54.96188166620128
 30
0.0
 10
83.13574375287291
 20
54.9464786510188
 30
0.0
 10
83.136746643199
 20
54.93558170257069
 30
0.0
 10
83.13724301169697
 20
54.93018838907215
 30
0.0
  0
SPLINE
  5
25D
330
1F
100
AcDbEntity
  8
0
  6
Continuous
 62
     7
370
    18
100
AcDbSpline
210
0.0
220
0.0
230
1.0
 70
     8
 71
     3
 72
    13
 73
     9
 74
     0
 42
0.000000001
 43
0.00000001
 40
0.0
 40
0.0
 40
0.0
 40
0.0
 40
0.1242507264885006
 40
0.2489753605084293
 40
0.3733860387982434
 40
0.4991678095886238
 40
0.749250026372242
 40
1.0
 40
1.0
 40
1.0
 40
1.0
 10
82.95894565095884
 20
54.93535093323261
 30
0.0
 10
82.95928802515012
 20
54.94043744279509
 30
0.0
 10
82.95997407938991
 20
54.95062986249224
 30
0.0
 10
82.96582481587008
 20
54.96493819981306
 30
0.0
 10
82.97450450596794
 20
54.97767925823737
 30
0.0
 10
82.99012226619168
 20
54.99113147368647
 30
0.0
 10
83.01445768355029
 20
55.00108646291247
 30
0.0
 10
83.03491765885843
 20
55.00237293980634
 30
0.0
 10
83.04516128609959
 20
55.00301703587962
 30
0.0
  0
SPLINE
  5
25E
330
1F
100
AcDbEntity
  8
0
  6
Continuous
 62
     7
370
    18
100
AcDbSpline
210
0.0
220
0.0
230
1.0
 70
     8
 71
     3
 72
    12
 73
     8
 74
     0
 42
0.000000001
 43
0.00000001
 40
0.0
 40
0.0
 40
0.0
 40
0.0
 40
0.2514612998539251
 40
0.5012366102041077
 40
0.749988968472461
 40
0.8748524923386735
 40
1.0
 40
1.0
 40
1.0
 40
1.0
 10
82.9956099580763
 20
54.88266645174407
 30
0.0
 10
82.9905932449986
 20
54.88538837631968
 30
0.0
 10
82.98059345473706
 20
54.89081397559998
 30
0.0
 10
82.96831796865656
 20
54.90298291749281
 30
0.0
 10
82.96192433659066
 20
54.91582085144049
 30
0.0
 10
82.95924148912286
 20
54.9268470041438
 30
0.0
 10
82.95904433832706
 20
54.932514144463
 30
0.0
 10
82.95894565095884
 20
54.93535093323261
 30
0.0
  0
LINE
  5
25F
330
1F
100
AcDbEntity
  8
0
  6
Continuous
 62
     7
370
    18
100
AcDbLine
 10
83.0821285835
 20
54.8560487287
 30
0.0
 11
82.9956099581
 21
54.8826664517
 31
0.0
  0
SPLINE
  5
260
330
1F
100
AcDbEntity
  8
0
  6
Continuous
 62
     7
370
    18
100
AcDbSpline
210
0.0
220
0.0
230
1.0
 70
     8
 71
     3
 72
    11
 73
     7
 74
     0
 42
0.000000001
 43
0.00000001
 40
0.0
 40
0.0
 40
0.0
 40
0.0
 40
0.2440645265967509
 40
0.4918165784432518
 40
0.7444435569803213
 40
1.0
 40
1.0
 40
1.0
 40
1.0
 10
83.10859304577492
 20
54.82405252075998
 30
0.0
 10
83.1082765125528
 20
54.82769254736273
 30
0.0
 10
83.10763866366737
 20
54.83502759704885
 30
0.0
 10
83.10151911952092
 20
54.84467154683893
 30
0.0
 10
83.09253811123334
 20
54.85158155200682
 30
0.0
 10
83.08561173529253
 20
54.85455395823854
 30
0.0
 10
83.08212858349465
 20
54.85604872869261
 30
0.0
  0
SPLINE
  5
261
330
1F
100
AcDbEntity
  8
0
  6
Continuous
 62
     7
370
    18
100
AcDbSpline
210
0.0
220
0.0
230
1.0
 70
     8
 71
     3
 72
    13
 73
     9
 74
     0
 42
0.000000001
 43
0.00000001
 40
0.0
 40
0.0
 40
0.0
 40
0.0
 40
0.2584731434309258
 40
0.5097062542825219
 40
0.6354291829694478
 40
0.7571471350709086
 40
0.8787934123737012
 40
1.0
 40
1.0
 40
1.0
 40
1.0
 10
83.05187674274427
 20
54.78356629862694
 30
0.0
 10
83.05856627191395
 20
54.78391567775384
 30
0.0
 10
83.0717579513694
 20
54.78460464962817
 30
0.0
 10
83.08748490611643
 20
54.79049564616395
 30
0.0
 10
83.0978557095603
 20
54.79833793089745
 30
0.0
 10
83.10372183085128
 20
54.80594717989253
 30
0.0
 10
83.10781992937902
 20
54.81461132743729
 30
0.0
 10
83.10833565155117
 20
54.82090925715912
 30
0.0
 10
83.10859304577492
 20
54.82405252075998
 30
0.0
  0
SPLINE
  5
262
330
1F
100
AcDbEntity
  8
0
  6
Continuous
 62
     7
370
    18
100
AcDbSpline
210
0.0
220
0.0
230
1.0
 70
     8
 71
     3
 72
    12
 73
     8
 74
     0
 42
0.000000001
 43
0.00000001
 40
0.0
 40
0.0
 40
0.0
 40
0.0
 40
0.2444908757036729
 40
0.3689701299402141
 40
0.4911096906294543
 40
0.7434436403146151
 40
1.0
 40
1.0
 40
1.0
 40
1.0
 10
82.98441670249287
 20
54.84036434461607
 30
0.0
 10
82.98570833594871
 20
54.83238708828129
 30
0.0
 10
82.98765758727627
 20
54.82034831874463
 30
0.0
 10
82.99569344758505
 20
54.80612847017866
 30
0.0
 10
83.00750565434052
 20
54.794641137732
 30
0.0
 10
83.02674155002344
 20
54.78536595405249
 30
0.0
 10
83.04345212767292
 20
54.78416949289682
 30
0.0
 10
83.05187674274427
 20
54.78356629862694
 30
0.0
  0
LINE
  5
263
330
1F
100
AcDbEntity
  8
0
  6
Continuous
 62
     7
370
    18
100
AcDbLine
 10
82.949381589
 20
54.8403643446
 30
0.0
 11
82.9844167025
 21
54.8403643446
 31
0.0
  0
SPLINE
  5
264
330
1F
100
AcDbEntity
  8
0
  6
Continuous
 62
     7
370
    18
100
AcDbSpline
210
0.0
220
0.0
230
1.0
 70
     8
 71
     3
 72
    13
 73
     9
 74
     0
 42
0.000000001
 43
0.00000001
 40
0.0
 40
0.0
 40
0.0
 40
0.0
 40
0.257295928915257
 40
0.3902917822944629
 40
0.5107205685088456
 40
0.633724916444581
 40
0.7558210028060722
 40
1.0
 40
1.0
 40
1.0
 40
1.0
 10
83.05341156234724
 20
54.75741037575462
 30
0.0
 10
83.04052277506402
 20
54.75797046409279
 30
0.0
 10
83.02097179428638
 20
54.75882006119551
 30
0.0
 10
82.99655568705397
 20
54.76672996760918
 30
0.0
 10
82.98012832548139
 20
54.77612746991097
 30
0.0
 10
82.96688082788148
 20
54.7888524797455
 30
0.0
 10
82.95338314969258
 20
54.80965896786186
 30
0.0
 10
82.95098219600332
 20
54.82808232645821
 30
0.0
 10
82.94938158899926
 20
54.84036434461607
 30
0.0
  0
SPLINE
  5
265
330
1F
100
AcDbEntity
  8
0
  6
Continuous
 62
     7
370
    18
100
AcDbSpline
210
0.0
220
0.0
230
1.0
 70
     8
 71
     3
 72
    13
 73
     9
 74
     0
 42
0.000000001
 43
0.00000001
 40
0.0
 40
0.0
 40
0.0
 40
0.0
 40
0.1216246190328989
 40
0.2431764119422331
 40
0.3657819616453372
 40
0.4897779504750812
 40
0.7427862830351397
 40
1.0
 40
1.0
 40
1.0
 40
1.0
 10
83.14361325810734
 20
54.82565358068107
 30
0.0
 10
83.14324203091189
 20
54.82053277909097
 30
0.0
 10
83.14249979880364
 20
54.81029424213317
 30
0.0
 10
83.13629731139312
 20
54.79598637197106
 30
0.0
 10
83.12716260799037
 20
54.78338503879738
 30
0.0
 10
83.11089899565606
 20
54.76989308473432
 30
0.0
 10
83.08567614100637
 20
54.75938595052791
 30
0.0
 10
83.064225356238
 20
54.75807250925526
 30
0.0
 10
83.05341156234724
 20
54.75741037575462
 30
0.0
  0
LINE
  5
266
330
1F
100
AcDbEntity
  8
0
  6
Continuous
 62
     7
370
    18
100
AcDbLine
 10
82.8984394859
 20
54.8648234754
 30
0.0
 11
82.787006119
 21
54.8648234754
 31
0.0
  0
LINE
  5
267
330
1F
100
AcDbEntity
  8
0
  6
Continuous
 62
     7
370
    18
100
AcDbLine
 10
82.8984394859
 20
54.892655158
 30
0.0
 11
82.8984394859
 21
54.8648234754
 31
0.0
  0
LINE
  5
268
330
1F
100
AcDbEntity
  8
0
  6
Continuous
 62
     7
370
    18
100
AcDbLine
 10
82.787006119
 20
54.892655158
 30
0.0
 11
82.8984394859
 21
54.892655158
 31
0.0
  0
LINE
  5
269
330
1F
100
AcDbEntity
  8
0
  6
Continuous
 62
     7
370
    18
100
AcDbLine
 10
82.787006119
 20
54.971251682
 30
0.0
 11
82.787006119
 21
54.892655158
 31
0.0
  0
LINE
  5
26A
330
1F
100
AcDbEntity
  8
0
  6
Continuous
 62
     7
370
    18
100
AcDbLine
 10
82.9175527087
 20
54.971251682
 30
0.0
 11
82.787006119
 21
54.971251682
 31
0.0
  0
LINE
  5
26B
330
1F
100
AcDbEntity
  8
0
  6
Continuous
 62
     7
370
    18
100
AcDbLine
 10
82.9175527087
 20
54.999836157
 30
0.0
 11
82.9175527087
 21
54.971251682
 31
0.0
  0
LINE
  5
26C
330
1F
100
AcDbEntity
  8
0
  6
Continuous
 62
     7
370
    18
100
AcDbLine
 10
82.7519710055
 20
54.999836157
 30
0.0
 11
82.9175527087
 21
54.999836157
 31
0.0
  0
LINE
  5
26D
330
1F
100
AcDbEntity
  8
0
  6
Continuous
 62
     7
370
    18
100
AcDbLine
 10
82.7519710055
 20
54.999836157
 30
0.0
 11
82.7519710055
 21
54.7602901804
 31
0.0
  0
LINE
  5
26E
330
1F
100
AcDbEntity
  8
0
  6
Continuous
 62
     7
370
    18
100
AcDbLine
 10
82.787006119
 20
54.7602901804
 30
0.0
 11
82.7519710055
 21
54.7602901804
 31
0.0
  0
LINE
  5
26F
330
1F
100
AcDbEntity
  8
0
  6
Continuous
 62
     7
370
    18
100
AcDbLine
 10
82.787006119
 20
54.8648234754
 30
0.0
 11
82.787006119
 21
54.7602901804
 31
0.0
  0
SPLINE
  5
270
330
1F
100
AcDbEntity
  8
0
  6
Continuous
 62
     7
370
    18
100
AcDbSpline
210
0.0
220
0.0
230
1.0
 70
     8
 71
     3
 72
    13
 73
     9
 74
     0
 42
0.000000001
 43
0.00000001
 40
0.0
 40
0.0
 40
0.0
 40
0.0
 40
0.1343017221369595
 40
0.2524150430255806
 40
0.3776507822958209
 40
0.5042448797491705
 40
0.7530407567060086
 40
0.9999999999999999
 40
0.9999999999999999
 40
0.9999999999999999
 40
0.9999999999999999
 10
82.60362249523781
 20
54.97442291293227
 30
0.0
 10
82.5973984418974
 20
54.97407589118581
 30
0.0
 10
82.58570056738982
 20
54.97342367684581
 30
0.0
 10
82.56887349686282
 20
54.96799230229995
 30
0.0
 10
82.55431319620591
 20
54.95862582930593
 30
0.0
 10
82.53862247716823
 20
54.9412179682682
 30
0.0
 10
82.52821379104778
 20
54.913402689923
 30
0.0
 10
82.52667633579244
 20
54.89049760153435
 30
0.0
 10
82.52591045608503
 20
54.87908748580387
 30
0.0
  0
SPLINE
  5
271
330
1F
100
AcDbEntity
  8
0
  6
Continuous
 62
     7
370
    18
100
AcDbSpline
210
0.0
220
0.0
230
1.0
 70
     8
 71
     3
 72
    12
 73
     8
 74
     0
 42
0.000000001
 43
0.00000001
 40
0.0
 40
0.0
 40
0.0
 40
0.0
 40
0.2488591384868623
 40
0.4982174820461878
 40
0.6210586306171325
 40
0.7493253847802542
 40
1.0
 40
1.0
 40
1.0
 40
1.0
 10
82.66600869010273
 20
54.92380603546831
 30
0.0
 10
82.66358226317776
 20
54.93062303832276
 30
0.0
 10
82.65872454197743
 20
54.94427071876518
 30
0.0
 10
82.64748273135763
 20
54.95897849806157
 30
0.0
 10
82.63551213173918
 20
54.96731537921419
 30
0.0
 10
82.62202279860477
 20
54.97319312772073
 30
0.0
 10
82.61094837177087
 20
54.97393328760152
 30
0.0
 10
82.60362249523781
 20
54.97442291293227
 30
0.0
  0
LINE
  5
272
330
1F
100
AcDbEntity
  8
0
  6
Continuous
 62
     7
370
    18
100
AcDbLine
 10
82.7010289024
 20
54.9312203721
 30
0.0
 11
82.6660086901
 21
54.9238060355
 31
0.0
  0
SPLINE
  5
273
330
1F
100
AcDbEntity
  8
0
  6
Continuous
 62
     7
370
    18
100
AcDbSpline
210
0.0
220
0.0
230
1.0
 70
     8
 71
     3
 72
    11
 73
     7
 74
     0
 42
0.000000001
 43
0.00000001
 40
0.0
 40
0.0
 40
0.0
 40
0.0
 40
0.2531958093891065
 40
0.5004504835831921
 40
0.7499551460724291
 40
0.9999999999999999
 40
0.9999999999999999
 40
0.9999999999999999
 40
0.9999999999999999
 10
82.60531874408704
 20
55.00301703587962
 30
0.0
 10
82.61627398057932
 20
55.00229593241247
 30
0.0
 10
82.63792739345985
 20
55.00087064587353
 30
0.0
 10
82.66733054370971
 20
54.98572997382275
 30
0.0
 10
82.68992286443134
 20
54.96175622786588
 30
0.0
 10
82.69732422193026
 20
54.94140632585596
 30
0.0
 10
82.70102890243513
 20
54.93122037209504
 30
0.0
  0
SPLINE
  5
274
330
1F
100
AcDbEntity
  8
0
  6
Continuous
 62
     7
370
    18
100
AcDbSpline
210
0.0
220
0.0
230
1.0
 70
     8
 71
     3
 72
    13
 73
     9
 74
     0
 42
0.000000001
 43
0.00000001
 40
0.0
 40
0.0
 40
0.0
 40
0.0
 40
0.2466386639197601
 40
0.3741441683178288
 40
0.497098908695293
 40
0.6197199722349005
 40
0.7489047097764999
 40
1.0
 40
1.0
 40
1.0
 40
1.0
 10
82.49089024375263
 20
54.87894249052054
 30
0.0
 10
82.49194940029125
 20
54.89462760036255
 30
0.0
 10
82.49355611205317
 20
54.91842148686661
 30
0.0
 10
82.50593856295275
 20
54.94760111850874
 30
0.0
 10
82.5192157894245
 20
54.96727326335923
 30
0.0
 10
82.5369500441
 20
54.98322549626554
 30
0.0
 10
82.56509747001057
 20
54.99891858321641
 30
0.0
 10
82.58932291371539
 20
55.00138709861154
 30
0.0
 10
82.60531874408704
 20
55.00301703587962
 30
0.0
  0
SPLINE
  5
275
330
1F
100
AcDbEntity
  8
0
  6
Continuous
 62
     7
370
    18
100
AcDbSpline
210
0.0
220
0.0
230
1.0
 70
     8
 71
     3
 72
    12
 73
     8
 74
     0
 42
0.000000001
 43
0.00000001
 40
0.0
 40
0.0
 40
0.0
 40
0.0
 40
0.256670105205477
 40
0.3822682438037541
 40
0.5072993360803878
 40
0.7518770870284058
 40
1.0
 40
1.0
 40
1.0
 40
1.0
 10
82.60600668102883
 20
54.75741037575462
 30
0.0
 10
82.58958400706635
 20
54.75835321148583
 30
0.0
 10
82.56512511369749
 20
54.75975741147586
 30
0.0
 10
82.53596280447142
 20
54.7743729612339
 30
0.0
 10
82.51266421220876
 20
54.79573110115634
 30
0.0
 10
82.49451676401992
 20
54.83201414217816
 30
0.0
 10
82.49210486866568
 20
54.86322485024169
 30
0.0
 10
82.49089024375263
 20
54.87894249052054
 30
0.0
  0
SPLINE
  5
276
330
1F
100
AcDbEntity
  8
0
  6
Continuous
 62
     7
370
    18
100
AcDbSpline
210
0.0
220
0.0
230
1.0
 70
     8
 71
     3
 72
    11
 73
     7
 74
     0
 42
0.000000001
 43
0.00000001
 40
0.0
 40
0.0
 40
0.0
 40
0.0
 40
0.2464209498163462
 40
0.4920691737629896
 40
0.7427789384563713
 40
1.0
 40
1.0
 40
1.0
 40
1.0
 10
82.70740163237237
 20
54.83420096823259
 30
0.0
 10
82.7037831465356
 20
54.82338576739314
 30
0.0
 10
82.69655752169609
 20
54.80178927997959
 30
0.0
 10
82.67309341202903
 20
54.77571097455583
 30
0.0
 10
82.64132814662649
 20
54.75973562391676
 30
0.0
 10
82.61788069587662
 20
54.75819205428168
 30
0.0
 10
82.60600668102883
 20
54.75741037575462
 30
0.0
  0
LINE
  5
277
330
1F
100
AcDbEntity
  8
0
  6
Continuous
 62
     7
370
    18
100
AcDbLine
 10
82.6723789365
 20
54.8419795684
 30
0.0
 11
82.7074016324
 21
54.8342009682
 31
0.0
  0
SPLINE
  5
278
330
1F
100
AcDbEntity
  8
0
  6
Continuous
 62
     7
370
    18
100
AcDbSpline
210
0.0
220
0.0
230
1.0
 70
     8
 71
     3
 72
    12
 73
     8
 74
     0
 42
0.000000001
 43
0.00000001
 40
0.0
 40
0.0
 40
0.0
 40
0.0
 40
0.2573238599191625
 40
0.3835128520092671
 40
0.5071343638450894
 40
0.75014592329022
 40
1.0
 40
1.0
 40
1.0
 40
1.0
 10
82.60272097498559
 20
54.78356629862694
 30
0.0
 10
82.61129036492989
 20
54.78420302052569
 30
0.0
 10
82.62406209615817
 20
54.78515198433886
 30
0.0
 10
82.63948094189948
 20
54.79217203256612
 30
0.0
 10
82.65281431356664
 20
54.80160728083141
 30
0.0
 10
82.66576059695375
 20
54.81818412452602
 30
0.0
 10
82.67015249887946
 20
54.8339746796709
 30
0.0
 10
82.6723789365131
 20
54.84197956840131
 30
0.0
  0
SPLINE
  5
279
330
1F
100
AcDbEntity
  8
0
  6
Continuous
 62
     7
370
    18
100
AcDbSpline
210
0.0
220
0.0
230
1.0
 70
     8
 71
     3
 72
    13
 73
     9
 74
     0
 42
0.000000001
 43
0.00000001
 40
0.0
 40
0.0
 40
0.0
 40
0.0
 40
0.2485850270771664
 40
0.4938922303196795
 40
0.6165354411891377
 40
0.7437479554127042
 40
0.8713515022218438
 40
1.0
 40
1.0
 40
1.0
 40
1.0
 10
82.52591045608503
 20
54.87908748580387
 30
0.0
 10
82.52647511326994
 20
54.86759495441049
 30
0.0
 10
82.52759698211173
 20
54.84476143129516
 30
0.0
 10
82.53748956393699
 20
54.81708033870149
 30
0.0
 10
82.55286489033837
 20
54.79966439400123
 30
0.0
 10
82.5679775800414
 20
54.79058246189024
 30
0.0
 10
82.58487288605127
 20
54.7845832111412
 30
0.0
 10
82.59675546032172
 20
54.78390618972329
 30
0.0
 10
82.60272097498559
 20
54.78356629862694
 30
0.0
  0
LINE
  5
27A
330
1F
100
AcDbEntity
  8
0
  6
Continuous
 62
     7
370
    18
100
AcDbLine
 10
82.8841095359
 20
55.3075567844
 30
0.0
 11
82.9494883807
 21
55.3075567844
 31
0.0
  0
LINE
  5
27B
330
1F
100
AcDbEntity
  8
0
  6
Continuous
 62
     7
370
    18
100
AcDbLine
 10
82.8841095359
 20
55.3075567844
 30
0.0
 11
82.8841095359
 21
55.2231339647
 31
0.0
  0
LINE
  5
27C
330
1F
100
AcDbEntity
  8
0
  6
Continuous
 62
     7
370
    18
100
AcDbLine
 10
82.7979857913
 20
55.2231339647
 30
0.0
 11
82.8841095359
 21
55.2231339647
 31
0.0
  0
LINE
  5
27D
330
1F
100
AcDbEntity
  8
0
  6
Continuous
 62
     7
370
    18
100
AcDbLine
 10
82.7979857913
 20
55.3075567844
 30
0.0
 11
82.7979857913
 21
55.2231339647
 31
0.0
  0
LINE
  5
27E
330
1F
100
AcDbEntity
  8
0
  6
Continuous
 62
     7
370
    18
100
AcDbLine
 10
82.5245345822
 20
55.3075567844
 30
0.0
 11
82.7979857913
 21
55.3075567844
 31
0.0
  0
LINE
  5
27F
330
1F
100
AcDbEntity
  8
0
  6
Continuous
 62
     7
370
    18
100
AcDbLine
 10
82.5245345822
 20
55.3075567844
 30
0.0
 11
82.5245345822
 21
55.2561716047
 31
0.0
  0
LINE
  5
280
330
1F
100
AcDbEntity
  8
0
  6
Continuous
 62
     7
370
    18
100
AcDbLine
 10
82.599398016
 20
55.2561716047
 30
0.0
 11
82.5245345822
 21
55.2561716047
 31
0.0
  0
LINE
  5
281
330
1F
100
AcDbEntity
  8
0
  6
Continuous
 62
     7
370
    18
100
AcDbLine
 10
82.599398016
 20
55.2561716047
 30
0.0
 11
82.599398016
 21
55.0675360686
 31
0.0
  0
LINE
  5
282
330
1F
100
AcDbEntity
  8
0
  6
Continuous
 62
     7
370
    18
100
AcDbLine
 10
82.6647892784
 20
55.0675360686
 30
0.0
 11
82.599398016
 21
55.0675360686
 31
0.0
  0
LINE
  5
283
330
1F
100
AcDbEntity
  8
0
  6
Continuous
 62
     7
370
    18
100
AcDbLine
 10
82.6647892784
 20
55.2564014473
 30
0.0
 11
82.6647892784
 21
55.0675360686
 31
0.0
  0
LINE
  5
284
330
1F
100
AcDbEntity
  8
0
  6
Continuous
 62
     7
370
    18
100
AcDbLine
 10
82.7326069465
 20
55.2564014473
 30
0.0
 11
82.6647892784
 21
55.2564014473
 31
0.0
  0
LINE
  5
285
330
1F
100
AcDbEntity
  8
0
  6
Continuous
 62
     7
370
    18
100
AcDbLine
 10
82.7326069465
 20
55.2564014473
 30
0.0
 11
82.7326069465
 21
55.0675360686
 31
0.0
  0
LINE
  5
286
330
1F
100
AcDbEntity
  8
0
  6
Continuous
 62
     7
370
    18
100
AcDbLine
 10
82.7979857913
 20
55.0675360686
 30
0.0
 11
82.7326069465
 21
55.0675360686
 31
0.0
  0
LINE
  5
287
330
1F
100
AcDbEntity
  8
0
  6
Continuous
 62
     7
370
    18
100
AcDbLine
 10
82.7979857913
 20
55.1693442749
 30
0.0
 11
82.7979857913
 21
55.0675360686
 31
0.0
  0
LINE
  5
288
330
1F
100
AcDbEntity
  8
0
  6
Continuous
 62
     7
370
    18
100
AcDbLine
 10
82.8841095359
 20
55.1693442749
 30
0.0
 11
82.7979857913
 21
55.1693442749
 31
0.0
  0
LINE
  5
289
330
1F
100
AcDbEntity
  8
0
  6
Continuous
 62
     7
370
    18
100
AcDbLine
 10
82.8841095359
 20
55.1693442749
 30
0.0
 11
82.8841095359
 21
55.0675360686
 31
0.0
  0
LINE
  5
28A
330
1F
100
AcDbEntity
  8
0
  6
Continuous
 62
     7
370
    18
100
AcDbLine
 10
82.9494883807
 20
55.0675360686
 30
0.0
 11
82.8841095359
 21
55.0675360686
 31
0.0
  0
LINE
  5
28B
330
1F
100
AcDbEntity
  8
0
  6
Continuous
 62
     7
370
    18
100
AcDbLine
 10
82.9494883807
 20
55.3075567844
 30
0.0
 11
82.9494883807
 21
55.0675360686
 31
0.0
  0
SPLINE
  5
28C
330
1F
100
AcDbEntity
  8
0
  6
Continuous
 62
     7
370
    18
100
AcDbSpline
210
0.0
220
0.0
230
1.0
 70
     8
 71
     3
 72
    19
 73
    15
 74
     0
 42
0.000000001
 43
0.00000001
 40
0.0
 40
0.0
 40
0.0
 40
0.0
 40
0.1267130952737106
 40
0.1895451753603845
 40
0.2508514329703342
 40
0.3105896156145609
 40
0.3723536867359278
 40
0.4944038761899381
 40
0.6188579364665936
 40
0.683162097805146
 40
0.7455240566391647
 40
0.8089080180268762
 40
0.8729164680261974
 40
1.0
 40
1.0
 40
1.0
 40
1.0
 10
83.07276320368432
 20
55.30905980326169
 30
0.0
 10
83.08961111378139
 20
55.30778348602909
 30
0.0
 10
83.11481324515469
 20
55.30587429287786
 30
0.0
 10
83.14499255037214
 20
55.29137916051966
 30
0.0
 10
83.16413769048842
 20
55.2762315891122
 30
0.0
 10
83.1792095912215
 20
55.25715466054681
 30
0.0
 10
83.19305532142648
 20
55.22792950487124
 30
0.0
 10
83.19918016583675
 20
55.18695826265616
 30
0.0
 10
83.19305511783952
 20
55.14572690592723
 30
0.0
 10
83.1794674443933
 20
55.11532003736465
 30
0.0
 10
83.1645648957118
 20
55.09493046584542
 30
0.0
 10
83.14556359777986
 20
55.07841506057999
 30
0.0
 10
83.11560255501253
 20
55.06229335289896
 30
0.0
 10
83.09016914185857
 20
55.06000522726594
 30
0.0
 10
83.07325494200371
 20
55.05848353554428
 30
0.0
  0
SPLINE
  5
28D
330
1F
100
AcDbEntity
  8
0
  6
Continuous
 62
     7
370
    18
100
AcDbSpline
210
0.0
220
0.0
230
1.0
 70
     8
 71
     3
 72
    13
 73
     9
 74
     0
 42
0.000000001
 43
0.00000001
 40
0.0
 40
0.0
 40
0.0
 40
0.0
 40
0.2468821399767672
 40
0.3717479138183098
 40
0.4926384518409053
 40
0.6165802177431672
 40
0.7437140513848495
 40
1.0
 40
1.0
 40
1.0
 40
1.0
 10
82.94976653566343
 20
55.18773283169539
 30
0.0
 10
82.95109140886046
 20
55.20384939037326
 30
0.0
 10
82.95308636421494
 20
55.22811723359186
 30
0.0
 10
82.96715174902727
 20
55.25718716961428
 30
0.0
 10
82.98202103515767
 20
55.27617249728124
 30
0.0
 10
83.00103680440414
 20
55.29126817141607
 30
0.0
 10
83.03098141929333
 20
55.30575384765229
 30
0.0
 10
83.05602412549459
 20
55.30773533494986
 30
0.0
 10
83.07276320368432
 20
55.30905980326169
 30
0.0
  0
SPLINE
  5
28E
330
1F
100
AcDbEntity
  8
0
  6
Continuous
 62
     7
370
    18
100
AcDbSpline
210
0.0
220
0.0
230
1.0
 70
     8
 71
     3
 72
    13
 73
     9
 74
     0
 42
0.000000001
 43
0.00000001
 40
0.0
 40
0.0
 40
0.0
 40
0.0
 40
0.2513076154786483
 40
0.3779188482667081
 40
0.5033155887054939
 40
0.6266130587542721
 40
0.7538619292512904
 40
1.0
 40
1.0
 40
1.0
 40
1.0
 10
83.07325494200371
 20
55.05848353554428
 30
0.0
 10
83.05630683076127
 20
55.06001523027049
 30
0.0
 10
83.03082009543557
 20
55.06231860776951
 30
0.0
 10
83.0008083286778
 20
55.07849707133106
 30
0.0
 10
82.98178535690712
 20
55.09509541353126
 30
0.0
 10
82.96695872301996
 20
55.11555710428343
 30
0.0
 10
82.95303736771614
 20
55.14606492538342
 30
0.0
 10
82.95106604137443
 20
55.17117811982226
 30
0.0
 10
82.94976653566343
 20
55.18773283169539
 30
0.0
  0
SPLINE
  5
28F
330
1F
100
AcDbEntity
  8
0
  6
Continuous
 62
     7
370
    18
100
AcDbSpline
210
0.0
220
0.0
230
1.0
 70
     8
 71
     3
 72
    13
 73
     9
 74
     0
 42
0.000000001
 43
0.00000001
 40
0.0
 40
0.0
 40
0.0
 40
0.0
 40
0.2865779799899
 40
0.4052532942133868
 40
0.5120072401654787
 40
0.6328546743383812
 40
0.7565616726162998
 40
1.0
 40
1.0
 40
1.0
 40
1.0
 10
84.09334125032407
 20
55.30969129817494
 30
0.0
 10
84.10839070275858
 20
55.30904535375844
 30
0.0
 10
84.12967231056186
 20
55.308131916157
 30
0.0
 10
84.15520390332061
 20
55.29962834944585
 30
0.0
 10
84.17104573054205
 20
55.29064181733052
 30
0.0
 10
84.18416705557262
 20
55.27743072776104
 30
0.0
 10
84.19589323956366
 20
55.25425558250096
 30
0.0
 10
84.19676552788331
 20
55.23483490057254
 30
0.0
 10
84.19734390487653
 20
55.22195787887333
 30
0.0
  0
SPLINE
  5
290
330
1F
100
AcDbEntity
  8
0
  6
Continuous
 62
     7
370
    18
100
AcDbSpline
210
0.0
220
0.0
230
1.0
 70
     8
 71
     3
 72
    11
 73
     7
 74
     0
 42
0.000000001
 43
0.00000001
 40
0.0
 40
0.0
 40
0.0
 40
0.0
 40
0.2379070256268521
 40
0.4915766553588441
 40
0.7324499874449557
 40
1.0
 40
1.0
 40
1.0
 40
1.0
 10
83.99766834487897
 20
55.26627571729877
 30
0.0
 10
84.00298555283344
 20
55.27325148208488
 30
0.0
 10
84.01397226201199
 20
55.28766519312639
 30
0.0
 10
84.03806851955743
 20
55.30068355370372
 30
0.0
 10
84.06493254347076
 20
55.30847203310599
 30
0.0
 10
84.08354613325622
 20
55.30927090437986
 30
0.0
 10
84.09334125032407
 20
55.30969129817494
 30
0.0
  0
SPLINE
  5
291
330
1F
100
AcDbEntity
  8
0
  6
Continuous
 62
     7
370
    18
100
AcDbSpline
210
0.0
220
0.0
230
1.0
 70
     8
 71
     3
 72
    15
 73
    11
 74
     0
 42
0.000000001
 43
0.00000001
 40
0.0
 40
0.0
 40
0.0
 40
0.0
 40
0.5091380081784652
 40
0.6424859700528426
 40
0.7587605095941019
 40
0.8796770590546693
 40
0.9398039044100754
 40
0.9816024489123465
 40
0.9937723166067195
 40
1.0
 40
1.0
 40
1.0
 40
1.0
 10
83.90061956555031
 20
55.30755678444414
 30
0.0
 10
83.91995612542874
 20
55.30718555017472
 30
0.0
 10
83.94435710950654
 20
55.30671708621038
 30
0.0
 10
83.97126485634699
 20
55.29679810762656
 30
0.0
 10
83.98300552265678
 20
55.28901697356042
 30
0.0
 10
83.99001993655844
 20
55.28012754999252
 30
0.0
 10
83.9941135464605
 20
55.27284033309637
 30
0.0
 10
83.99612784152038
 20
55.26906115201329
 30
0.0
 10
83.99723522485104
 20
55.26709207228352
 30
0.0
 10
83.99755880949944
 20
55.26648217220118
 30
0.0
 10
83.99766834487897
 20
55.26627571729877
 30
0.0
  0
LINE
  5
292
330
1F
100
AcDbEntity
  8
0
  6
Continuous
 62
     7
370
    18
100
AcDbLine
 10
83.7902839175
 20
55.3075567844
 30
0.0
 11
83.9006195656
 21
55.3075567844
 31
0.0
  0
LINE
  5
293
330
1F
100
AcDbEntity
  8
0
  6
Continuous
 62
     7
370
    18
100
AcDbLine
 10
83.7902839175
 20
55.3075567844
 30
0.0
 11
83.7902839175
 21
55.1606459743
 31
0.0
  0
LINE
  5
294
330
1F
100
AcDbEntity
  8
0
  6
Continuous
 62
     7
370
    18
100
AcDbLine
 10
83.7325866213
 20
55.3075567844
 30
0.0
 11
83.7902839175
 21
55.1606459743
 31
0.0
  0
LINE
  5
295
330
1F
100
AcDbEntity
  8
0
  6
Continuous
 62
     7
370
    18
100
AcDbLine
 10
83.6553936393
 20
55.3075567844
 30
0.0
 11
83.7325866213
 21
55.3075567844
 31
0.0
  0
LINE
  5
296
330
1F
100
AcDbEntity
  8
0
  6
Continuous
 62
     7
370
    18
100
AcDbLine
 10
83.58704698
 20
55.1386367846
 30
0.0
 11
83.6553936393
 21
55.3075567844
 31
0.0
  0
LINE
  5
297
330
1F
100
AcDbEntity
  8
0
  6
Continuous
 62
     7
370
    18
100
AcDbLine
 10
83.5014795453
 20
55.1386367846
 30
0.0
 11
83.58704698
 21
55.1386367846
 31
0.0
  0
LINE
  5
298
330
1F
100
AcDbEntity
  8
0
  6
Continuous
 62
     7
370
    18
100
AcDbLine
 10
83.5014795453
 20
55.3075567844
 30
0.0
 11
83.5014795453
 21
55.1386367846
 31
0.0
  0
LINE
  5
299
330
1F
100
AcDbEntity
  8
0
  6
Continuous
 62
     7
370
    18
100
AcDbLine
 10
83.4165379595
 20
55.3075567844
 30
0.0
 11
83.5014795453
 21
55.3075567844
 31
0.0
  0
LINE
  5
29A
330
1F
100
AcDbEntity
  8
0
  6
Continuous
 62
     7
370
    18
100
AcDbLine
 10
83.4163914314
 20
55.0789518666
 30
0.0
 11
83.4165379595
 21
55.3075567844
 31
0.0
  0
SPLINE
  5
29B
330
1F
100
AcDbEntity
  8
0
  6
Continuous
 62
     7
370
    18
100
AcDbSpline
210
0.0
220
0.0
230
1.0
 70
     8
 71
     3
 72
    10
 73
     6
 74
     0
 42
0.000000001
 43
0.00000001
 40
0.0
 40
0.0
 40
0.0
 40
0.0
 40
0.3311631589079556
 40
0.4992387074238715
 40
1.0
 40
1.0
 40
1.0
 40
1.0
 10
83.40990197569512
 20
55.12333903520302
 30
0.0
 10
83.41037481210537
 20
55.1184052776094
 30
0.0
 10
83.41108762762224
 20
55.11096748539876
 30
0.0
 10
83.41250223607136
 20
55.09605592776713
 30
0.0
 10
83.414726279561
 20
55.08627493897303
 30
0.0
 10
83.41639143139504
 20
55.07895186660279
 30
0.0
  0
SPLINE
  5
29C
330
1F
100
AcDbEntity
  8
0
  6
Continuous
 62
     7
370
    18
100
AcDbSpline
210
0.0
220
0.0
230
1.0
 70
     8
 71
     3
 72
    12
 73
     8
 74
     0
 42
0.000000001
 43
0.00000001
 40
0.0
 40
0.0
 40
0.0
 40
0.0
 40
0.1077287802687488
 40
0.2125968118702684
 40
0.430273941723111
 40
0.6856752990905174
 40
1.0
 40
1.0
 40
1.0
 40
1.0
 10
83.37332955907169
 20
55.18205193861321
 30
0.0
 10
83.37588437888604
 20
55.1812914681866
 30
0.0
 10
83.38092617501593
 20
55.17979072170253
 30
0.0
 10
83.39012958168267
 20
55.17429675601173
 30
0.0
 10
83.39975520219711
 20
55.16331673350576
 30
0.0
 10
83.40708259779416
 20
55.14501428869544
 30
0.0
 10
83.40889954443621
 20
55.13104568270074
 30
0.0
 10
83.40990197569512
 20
55.12333903520302
 30
0.0
  0
LINE
  5
29D
330
1F
100
AcDbEntity
  8
0
  6
Continuous
 62
     7
370
    18
100
AcDbLine
 10
83.3733295591
 20
55.1827332399
 30
0.0
 11
83.3733295591
 21
55.1820519386
 31
0.0
  0
SPLINE
  5
29E
330
1F
100
AcDbEntity
  8
0
  6
Continuous
 62
     7
370
    18
100
AcDbSpline
210
0.0
220
0.0
230
1.0
 70
     8
 71
     3
 72
    11
 73
     7
 74
     0
 42
0.000000001
 43
0.00000001
 40
0.0
 40
0.0
 40
0.0
 40
0.0
 40
0.2520177092711873
 40
0.4926885383921634
 40
0.7433357558765766
 40
1.0
 40
1.0
 40
1.0
 40
1.0
 10
83.41270836105329
 20
55.24270980250645
 30
0.0
 10
83.41224489555216
 20
55.23627685031785
 30
0.0
 10
83.41133883168467
 20
55.22370058406849
 30
0.0
 10
83.40348236311792
 20
55.20619393978392
 30
0.0
 10
83.3910138573528
 20
55.19122401517269
 30
0.0
 10
83.37927075198806
 20
55.1855857892569
 30
0.0
 10
83.37332955907169
 20
55.18273323988165
 30
0.0
  0
SPLINE
  5
29F
330
1F
100
AcDbEntity
  8
0
  6
Continuous
 62
     7
370
    18
100
AcDbSpline
210
0.0
220
0.0
230
1.0
 70
     8
 71
     3
 72
    13
 73
     9
 74
     0
 42
0.000000001
 43
0.00000001
 40
0.0
 40
0.0
 40
0.0
 40
0.0
 40
0.2627395082738655
 40
0.5114473965034613
 40
0.6358328110131609
 40
0.7528123172425417
 40
0.8712558342458843
 40
1.0
 40
1.0
 40
1.0
 40
1.0
 10
83.32482627938572
 20
55.30755678444414
 30
0.0
 10
83.33558153503024
 20
55.30697814654977
 30
0.0
 10
83.35651766121194
 20
55.30585177295438
 30
0.0
 10
83.38142338120605
 20
55.29649565337263
 30
0.0
 10
83.3974202025427
 20
55.28414691558594
 30
0.0
 10
83.40634186602885
 20
55.27223729124522
 30
0.0
 10
83.41176342765695
 20
55.25811545574622
 30
0.0
 10
83.41238475276553
 20
55.24798572680524
 30
0.0
 10
83.41270836105329
 20
55.24270980250645
 30
0.0
  0
LINE
  5
2A0
330
1F
100
AcDbEntity
  8
0
  6
Continuous
 62
     7
370
    18
100
AcDbLine
 10
83.1968749753
 20
55.3075567844
 30
0.0
 11
83.3248262794
 21
55.3075567844
 31
0.0
  0
LINE
  5
2A1
330
1F
100
AcDbEntity
  8
0
  6
Continuous
 62
     7
370
    18
100
AcDbLine
 10
83.1968749753
 20
55.3075567844
 30
0.0
 11
83.1968749753
 21
55.0675360686
 31
0.0
  0
LINE
  5
2A2
330
1F
100
AcDbEntity
  8
0
  6
Continuous
 62
     7
370
    18
100
AcDbLine
 10
83.26225382
 20
55.0675360686
 30
0.0
 11
83.1968749753
 21
55.0675360686
 31
0.0
  0
LINE
  5
2A3
330
1F
100
AcDbEntity
  8
0
  6
Continuous
 62
     7
370
    18
100
AcDbLine
 10
83.26225382
 20
55.1577078068
 30
0.0
 11
83.26225382
 21
55.0675360686
 31
0.0
  0
LINE
  5
2A4
330
1F
100
AcDbEntity
  8
0
  6
Continuous
 62
     7
370
    18
100
AcDbLine
 10
83.3118324668
 20
55.1577078068
 30
0.0
 11
83.26225382
 21
55.1577078068
 31
0.0
  0
SPLINE
  5
2A5
330
1F
100
AcDbEntity
  8
0
  6
Continuous
 62
     7
370
    18
100
AcDbSpline
210
0.0
220
0.0
230
1.0
 70
     8
 71
     3
 72
    13
 73
     9
 74
     0
 42
0.000000001
 43
0.00000001
 40
0.0
 40
0.0
 40
0.0
 40
0.0
 40
0.2502247116653757
 40
0.4989274193798201
 40
0.6272751676838297
 40
0.748294712903092
 40
0.8650649255394001
 40
0.9999999999999999
 40
0.9999999999999999
 40
0.9999999999999999
 40
0.9999999999999999
 10
83.34837508112572
 20
55.10727533605349
 30
0.0
 10
83.3478967998998
 20
55.11312748609177
 30
0.0
 10
83.3469431466167
 20
55.12479619018174
 30
0.0
 10
83.34305961950105
 20
55.13929281541907
 30
0.0
 10
83.33634390246058
 20
55.1490786025489
 30
0.0
 10
83.32934480141583
 20
55.15433995489332
 30
0.0
 10
83.32093192056715
 20
55.15721179991697
 30
0.0
 10
83.31500811942169
 20
55.15753470348981
 30
0.0
 10
83.31183246682468
 20
55.15770780679703
 30
0.0
  0
SPLINE
  5
2A6
330
1F
100
AcDbEntity
  8
0
  6
Continuous
 62
     7
370
    18
100
AcDbSpline
210
0.0
220
0.0
230
1.0
 70
     8
 71
     3
 72
    10
 73
     6
 74
     0
 42
0.000000001
 43
0.00000001
 40
0.0
 40
0.0
 40
0.0
 40
0.0
 40
0.2042438556758123
 40
0.5001911013170786
 40
1.0
 40
1.0
 40
1.0
 40
1.0
 10
83.35575363944355
 20
55.06753606857976
 30
0.0
 10
83.35462232315645
 20
55.07007349313619
 30
0.0
 10
83.35185174120822
 20
55.07628761977023
 30
0.0
 10
83.34984398994827
 20
55.08981227694242
 30
0.0
 10
83.3489417633659
 20
55.10053835870986
 30
0.0
 10
83.34837508112572
 20
55.10727533605349
 30
0.0
  0
LINE
  5
2A7
330
1F
100
AcDbEntity
  8
0
  6
Continuous
 62
     7
370
    18
100
AcDbLine
 10
83.647048989
 20
55.0675360686
 30
0.0
 11
83.3557536394
 21
55.0675360686
 31
0.0
  0
LINE
  5
2A8
330
1F
100
AcDbEntity
  8
0
  6
Continuous
 62
     7
370
    18
100
AcDbLine
 10
83.6619104138
 20
55.1042316575
 30
0.0
 11
83.647048989
 21
55.0675360686
 31
0.0
  0
LINE
  5
2A9
330
1F
100
AcDbEntity
  8
0
  6
Continuous
 62
     7
370
    18
100
AcDbLine
 10
83.722520887
 20
55.1042316575
 30
0.0
 11
83.6619104138
 21
55.1042316575
 31
0.0
  0
LINE
  5
2AA
330
1F
100
AcDbEntity
  8
0
  6
Continuous
 62
     7
370
    18
100
AcDbLine
 10
83.7367738476
 20
55.0675360686
 30
0.0
 11
83.722520887
 21
55.1042316575
 31
0.0
  0
LINE
  5
2AB
330
1F
100
AcDbEntity
  8
0
  6
Continuous
 62
     7
370
    18
100
AcDbLine
 10
83.9234406939
 20
55.0675360686
 30
0.0
 11
83.7367738476
 21
55.0675360686
 31
0.0
  0
SPLINE
  5
2AC
330
1F
100
AcDbEntity
  8
0
  6
Continuous
 62
     7
370
    18
100
AcDbSpline
210
0.0
220
0.0
230
1.0
 70
     8
 71
     3
 72
    12
 73
     8
 74
     0
 42
0.000000001
 43
0.00000001
 40
0.0
 40
0.0
 40
0.0
 40
0.0
 40
0.1151510240768425
 40
0.2339582350525493
 40
0.4991831019428499
 40
0.7436119177415906
 40
1.0
 40
1.0
 40
1.0
 40
1.0
 10
83.99725856294614
 20
55.10697504758148
 30
0.0
 10
83.99574976727996
 20
55.10394139388193
 30
0.0
 10
83.99268426982616
 20
55.09777776423989
 30
0.0
 10
83.98285293715166
 20
55.08673101405846
 30
0.0
 10
83.96705075970848
 20
55.07673283366251
 30
0.0
 10
83.94566397709102
 20
55.06918981710682
 30
0.0
 10
83.93096545287058
 20
55.06809602450241
 30
0.0
 10
83.92344069391869
 20
55.06753606857976
 30
0.0
  0
SPLINE
  5
2AD
330
1F
100
AcDbEntity
  8
0
  6
Continuous
 62
     7
370
    18
100
AcDbSpline
210
0.0
220
0.0
230
1.0
 70
     8
 71
     3
 72
    11
 73
     7
 74
     0
 42
0.000000001
 43
0.00000001
 40
0.0
 40
0.0
 40
0.0
 40
0.0
 40
0.5001040898298255
 40
0.7501613846581291
 40
0.87924435204485
 40
1.0
 40
1.0
 40
1.0
 40
1.0
 10
84.09704915593449
 20
55.05831505589509
 30
0.0
 10
84.07733463317815
 20
55.05998670178499
 30
0.0
 10
84.04776264208768
 20
55.0624941881682
 30
0.0
 10
84.01737467403797
 20
55.07978912197611
 30
0.0
 10
84.0034677220399
 20
55.09383133796021
 30
0.0
 10
83.99928177567199
 20
55.10269225821035
 30
0.0
 10
83.99725856294614
 20
55.10697504758148
 30
0.0
  0
SPLINE
  5
2AE
330
1F
100
AcDbEntity
  8
0
  6
Continuous
 62
     7
370
    18
100
AcDbSpline
210
0.0
220
0.0
230
1.0
 70
     8
 71
     3
 72
    13
 73
     9
 74
     0
 42
0.000000001
 43
0.00000001
 40
0.0
 40
0.0
 40
0.0
 40
0.0
 40
0.1247550416698121
 40
0.2482896362838506
 40
0.3708684319878053
 40
0.4987706239122316
 40
0.7490959054241481
 40
1.0
 40
1.0
 40
1.0
 40
1.0
 10
84.20209985882424
 20
55.14372165063019
 30
0.0
 10
84.20168123439545
 20
55.13745666616191
 30
0.0
 10
84.20084808083489
 20
55.12498798598566
 30
0.0
 10
84.19370675072497
 20
55.10753640943617
 30
0.0
 10
84.18283351642795
 20
55.09212459715451
 30
0.0
 10
84.16394791295882
 20
55.07541077921933
 30
0.0
 10
84.13480813740196
 20
55.06128943958841
 30
0.0
 10
84.10964516904482
 20
55.05930728011671
 30
0.0
 10
84.09704915593449
 20
55.05831505589509
 30
0.0
  0
SPLINE
  5
2AF
330
1F
100
AcDbEntity
  8
0
  6
Continuous
 62
     7
370
    18
100
AcDbSpline
210
0.0
220
0.0
230
1.0
 70
     8
 71
     3
 72
    12
 73
     8
 74
     0
 42
0.000000001
 43
0.00000001
 40
0.0
 40
0.0
 40
0.0
 40
0.0
 40
0.2530082214644933
 40
0.5034513554309299
 40
0.6272678087010637
 40
0.7518190345962167
 40
1.0
 40
1.0
 40
1.0
 40
1.0
 10
84.13021665722512
 20
55.22153110030352
 30
0.0
 10
84.13964022779031
 20
55.21874670022444
 30
0.0
 10
84.15839182940464
 20
55.21320612930641
 30
0.0
 10
84.18009750107647
 20
55.20083359117759
 30
0.0
 10
84.1927159790602
 20
55.18586993734206
 30
0.0
 10
84.20110033521316
 20
55.168153905907
 30
0.0
 10
84.20170034605493
 20
55.15348730084413
 30
0.0
 10
84.20209985882424
 20
55.14372165063019
 30
0.0
  0
LINE
  5
2B0
330
1F
100
AcDbEntity
  8
0
  6
Continuous
 62
     7
370
    18
100
AcDbLine
 10
84.1284955731
 20
55.2219578789
 30
0.0
 11
84.1302166572
 21
55.2215311003
 31
0.0
  0
LINE
  5
2B1
330
1F
100
AcDbEntity
  8
0
  6
Continuous
 62
     7
370
    18
100
AcDbLine
 10
84.1973439049
 20
55.2219578789
 30
0.0
 11
84.1284955731
 21
55.2219578789
 31
0.0
  0
SPLINE
  5
2B2
330
1F
100
AcDbEntity
  8
0
  6
Continuous
 62
     7
370
    18
100
AcDbSpline
210
0.0
220
0.0
230
1.0
 70
    11
 71
     3
 72
    26
 73
    22
 74
     0
 42
0.000000001
 43
0.00000001
 40
0.0
 40
0.0
 40
0.0
 40
0.0
 40
0.0389697993889894
 40
0.0921768543856502
 40
0.145251248752053
 40
0.1987808537459125
 40
0.2527674100032217
 40
0.3062732772866125
 40
0.3591127143197845
 40
0.4121392414632057
 40
0.4659058941977662
 40
0.5198402035318149
 40
0.5730978673362496
 40
0.6258768898405394
 40
0.6790819312577472
 40
0.7329767274686859
 40
0.7867579384951129
 40
0.8397709842048393
 40
0.892587386342213
 40
0.9460400617273476
 40
1.0
 40
1.0
 40
1.0
 40
1.0
 10
81.66204047114037
 20
55.06100110419028
 30
0.0
 10
81.66046198435389
 20
55.05192322896328
 30
0.0
 10
81.6567283252397
 20
55.03045096079536
 30
0.0
 10
81.66305702629303
 20
54.99594749037474
 30
0.0
 10
81.68128999380204
 20
54.96238548736819
 30
0.0
 10
81.70989108123814
 20
54.93653400775865
 30
0.0
 10
81.74549491040273
 20
54.92157292549496
 30
0.0
 10
81.78388339679363
 20
54.91927970218348
 30
0.0
 10
81.82064981161959
 20
54.92965095509289
 30
0.0
 10
81.85207706809791
 20
54.95148836194581
 30
0.0
 10
81.87472706423938
 20
54.98268545924469
 30
0.0
 10
81.88577208210023
 20
55.01968629106413
 30
0.0
 10
81.88396943635274
 20
55.05800046412461
 30
0.0
 10
81.8698261968999
 20
55.09345297054373
 30
0.0
 10
81.84473696211795
 20
55.12243968435611
 30
0.0
 10
81.81125325706228
 20
55.14163828119557
 30
0.0
 10
81.77336419599472
 20
55.14863482939367
 30
0.0
 10
81.73549639268691
 20
55.14283282303472
 30
0.0
 10
81.70190019601284
 20
55.12499911191922
 30
0.0
 10
81.67494593127779
 20
55.09710785187788
 30
0.0
 10
81.6663558136448
 20
55.07307451973178
 30
0.0
 10
81.66204047114037
 20
55.06100110419028
 30
0.0
  0
LINE
  5
2B3
330
1F
100
AcDbEntity
  8
0
  6
Continuous
 62
     7
370
    18
100
AcDbLine
 10
81.105526804
 20
55.6647331751
 30
0.0
 11
81.105526804
 21
54.3947332059
 31
0.0
  0
LINE
  5
2B4
330
1F
100
AcDbEntity
  8
0
  6
Continuous
 62
     7
370
    18
100
AcDbLine
 10
84.4922031155
 20
55.6647331751
 30
0.0
 11
84.4922031155
 21
54.3947332059
 31
0.0
  0
SPLINE
  5
2B5
330
1F
100
AcDbEntity
  8
0
  6
Continuous
 62
     7
370
    18
100
AcDbSpline
210
0.0
220
0.0
230
1.0
 70
     8
 71
     3
 72
    12
 73
     8
 74
     0
 42
0.000000001
 43
0.00000001
 40
0.0
 40
0.0
 40
0.0
 40
0.0
 40
0.2445076745605207
 40
0.4907811119196149
 40
0.6171833974294278
 40
0.7430152694756363
 40
1.0
 40
1.0
 40
1.0
 40
1.0
 10
83.50978445917748
 20
54.83699571205857
 30
0.0
 10
83.5105178441921
 20
54.83015404240379
 30
0.0
 10
83.51198991051305
 20
54.8164212945602
 30
0.0
 10
83.52135445905083
 20
54.80118093515831
 30
0.0
 10
83.53184682979561
 20
54.79198460465443
 30
0.0
 10
83.54453482556502
 20
54.78512920656568
 30
0.0
 10
83.55532553648403
 20
54.78419406142563
 30
0.0
 10
83.56256933917982
 20
54.78356629862694
 30
0.0
  0
SPLINE
  5
2B6
330
1F
100
AcDbEntity
  8
0
  6
Continuous
 62
     7
370
    18
100
AcDbSpline
210
0.0
220
0.0
230
1.0
 70
     8
 71
     3
 72
    13
 73
     9
 74
     0
 42
0.000000001
 43
0.00000001
 40
0.0
 40
0.0
 40
0.0
 40
0.0
 40
0.2568106390306811
 40
0.3828463695438096
 40
0.5089527862968498
 40
0.6303205893982753
 40
0.755069192402848
 40
1.0
 40
1.0
 40
1.0
 40
1.0
 10
83.56256933917982
 20
54.78356629862694
 30
0.0
 10
83.56952902891273
 20
54.78416509452115
 30
0.0
 10
83.57990434652987
 20
54.78505776327919
 30
0.0
 10
83.59200208399075
 20
54.79176543195528
 30
0.0
 10
83.59954765696085
 20
54.79843997943669
 30
0.0
 10
83.60536997651502
 20
54.80662325962363
 30
0.0
 10
83.61061558179631
 20
54.81884347912228
 30
0.0
 10
83.61124899673547
 20
54.82882126592721
 30
0.0
 10
83.61166866531354
 20
54.83543204085835
 30
0.0
  0
SPLINE
  5
2B7
330
1F
100
AcDbEntity
  8
0
  6
Continuous
 62
     7
370
    18
100
AcDbSpline
210
0.0
220
0.0
230
1.0
 70
     8
 71
     3
 72
    13
 73
     9
 74
     0
 42
0.000000001
 43
0.00000001
 40
0.0
 40
0.0
 40
0.0
 40
0.0
 40
0.2440579276488396
 40
0.3709418448788621
 40
0.4927048818680181
 40
0.6196817740246826
 40
0.7456618257902538
 40
1.0
 40
1.0
 40
1.0
 40
1.0
 10
83.61166866531354
 20
54.83543204085835
 30
0.0
 10
83.6112310543467
 20
54.8420660779551
 30
0.0
 10
83.61056593266453
 20
54.85214910202799
 30
0.0
 10
83.60497779416026
 20
54.86437641689395
 30
0.0
 10
83.59883717345133
 20
54.87251520929556
 30
0.0
 10
83.59099889372382
 20
54.87900961589465
 30
0.0
 10
83.5786113467683
 20
54.88522344797818
 30
0.0
 10
83.56825106017521
 20
54.88595499409178
 30
0.0
 10
83.56132260869327
 20
54.88644421624885
 30
0.0
  0
SPLINE
  5
2B8
330
1F
100
AcDbEntity
  8
0
  6
Continuous
 62
     7
370
    18
100
AcDbSpline
210
0.0
220
0.0
230
1.0
 70
     8
 71
     3
 72
    12
 73
     8
 74
     0
 42
0.000000001
 43
0.00000001
 40
0.0
 40
0.0
 40
0.0
 40
0.0
 40
0.2543085033754162
 40
0.5064802182191038
 40
0.6324749130170195
 40
0.7558774604066386
 40
0.9999999999999999
 40
0.9999999999999999
 40
0.9999999999999999
 40
0.9999999999999999
 10
83.56132260869327
 20
54.88644421624885
 30
0.0
 10
83.5545236021599
 20
54.88583583715306
 30
0.0
 10
83.54098271671177
 20
54.88462419077433
 30
0.0
 10
83.52637275811804
 20
54.87505382506823
 30
0.0
 10
83.51758135634773
 20
54.86505222000576
 30
0.0
 10
83.51118105342447
 20
54.85339470503747
 30
0.0
 10
83.51034187184376
 20
54.84354092475758
 30
0.0
 10
83.50978445917748
 20
54.83699571205857
 30
0.0
  0
SPLINE
  5
2B9
330
1F
100
AcDbEntity
  8
0
  6
Continuous
 62
     7
370
    18
100
AcDbSpline
210
0.0
220
0.0
230
1.0
 70
     8
 71
     3
 72
    18
 73
    14
 74
     0
 42
0.000000001
 43
0.00000001
 40
0.0
 40
0.0
 40
0.0
 40
0.0
 40
0.0455195572732573
 40
0.1446660795275592
 40
0.2456666783970446
 40
0.3533910562519754
 40
0.4636954683658583
 40
0.5665876556472923
 40
0.6641875645189087
 40
0.766371846668762
 40
0.8759015412924109
 40
0.9847306749406682
 40
1.0
 40
1.0
 40
1.0
 40
1.0
 10
81.88297502110782
 20
55.03149428254291
 30
0.0
 10
81.88332626338526
 20
55.03686487216616
 30
0.0
 10
81.88444254935739
 20
55.0539331872397
 30
0.0
 10
81.87418564907601
 20
55.08201188926309
 30
0.0
 10
81.85351491414441
 20
55.1121080414334
 30
0.0
 10
81.82242370657795
 20
55.1346094207465
 30
0.0
 10
81.78551679039072
 20
55.1454839552788
 30
0.0
 10
81.74835544237166
 20
55.14370882068601
 30
0.0
 10
81.71453946596556
 20
55.13092747998326
 30
0.0
 10
81.68563507982392
 20
55.1077900718298
 30
0.0
 10
81.6651429039231
 20
55.07529507947813
 30
0.0
 10
81.65894978344328
 20
55.04785516041979
 30
0.0
 10
81.65871863443907
 20
55.03326175811944
 30
0.0
 10
81.65869019339863
 20
55.03146615641926
 30
0.0
  0
LINE
  5
2BA
330
1F
100
AcDbEntity
  8
0
  6
Continuous
 62
     7
370
    18
100
AcDbLine
 10
83.26225382
 20
55.260003318
 30
0.0
 11
83.3142812243
 21
55.260003318
 31
0.0
  0
LINE
  5
2BB
330
1F
100
AcDbEntity
  8
0
  6
Continuous
 62
     7
370
    18
100
AcDbLine
 10
83.26225382
 20
55.260003318
 30
0.0
 11
83.26225382
 21
55.2066411926
 31
0.0
  0
LINE
  5
2BC
330
1F
100
AcDbEntity
  8
0
  6
Continuous
 62
     7
370
    18
100
AcDbLine
 10
83.3170900932
 20
55.2066411926
 30
0.0
 11
83.26225382
 21
55.2066411926
 31
0.0
  0
SPLINE
  5
2BD
330
1F
100
AcDbEntity
  8
0
  6
Continuous
 62
     7
370
    18
100
AcDbSpline
210
0.0
220
0.0
230
1.0
 70
     8
 71
     3
 72
    13
 73
     9
 74
     0
 42
0.000000001
 43
0.00000001
 40
0.0
 40
0.0
 40
0.0
 40
0.0
 40
0.2616562273993359
 40
0.3759303603754028
 40
0.4857296550077163
 40
0.5977977759223806
 40
0.717537166113031
 40
1.0
 40
1.0
 40
1.0
 40
1.0
 10
83.34731709868096
 20
55.23467821244084
 30
0.0
 10
83.34700760085873
 20
55.23054301116397
 30
0.0
 10
83.34656293485938
 20
55.22460182749071
 30
0.0
 10
83.34312598038592
 20
55.21772396377654
 30
0.0
 10
83.33973496977009
 20
55.21364612822572
 30
0.0
 10
83.33534817238566
 20
55.2105163326386
 30
0.0
 10
83.32788743332443
 20
55.20731631805239
 30
0.0
 10
83.32154460311577
 20
55.20691971980478
 30
0.0
 10
83.31709009319924
 20
55.20664119259077
 30
0.0
  0
SPLINE
  5
2BE
330
1F
100
AcDbEntity
  8
0
  6
Continuous
 62
     7
370
    18
100
AcDbSpline
210
0.0
220
0.0
230
1.0
 70
     8
 71
     3
 72
    13
 73
     9
 74
     0
 42
0.000000001
 43
0.00000001
 40
0.0
 40
0.0
 40
0.0
 40
0.0
 40
0.2768602464372153
 40
0.5097542806596099
 40
0.6315446215498671
 40
0.7484122591917274
 40
0.8687231609016074
 40
1.0
 40
1.0
 40
1.0
 40
1.0
 10
83.3142812243142
 20
55.26000331796639
 30
0.0
 10
83.31861530241781
 20
55.25976496580105
 30
0.0
 10
83.32659519441914
 20
55.2593261124873
 30
0.0
 10
83.33594559635048
 20
55.25551359102802
 30
0.0
 10
83.34167452240445
 20
55.25078421129963
 30
0.0
 10
83.3449156734433
 20
55.24613849791211
 30
0.0
 10
83.34693086397942
 20
55.24066581814915
 30
0.0
 10
83.34718466629249
 20
55.2367312463134
 30
0.0
 10
83.34731709868096
 20
55.23467821244084
 30
0.0
  0
SPLINE
  5
2BF
330
1F
100
AcDbEntity
  8
0
  6
Continuous
 62
     7
370
    18
100
AcDbSpline
210
0.0
220
0.0
230
1.0
 70
     8
 71
     3
 72
    13
 73
     9
 74
     0
 42
0.000000001
 43
0.00000001
 40
0.0
 40
0.0
 40
0.0
 40
0.0
 40
0.5096391715132377
 40
0.8083566375110398
 40
0.9327632461215538
 40
0.971741153012686
 40
0.9868447284866702
 40
1.0
 40
1.0
 40
1.0
 40
1.0
 10
84.06428150246921
 20
55.1645313744706
 30
0.0
 10
84.0740521885635
 20
55.16169216485736
 30
0.0
 10
84.0895498178645
 20
55.15718879450352
 30
0.0
 10
84.10693079278859
 20
55.15067704533499
 30
0.0
 10
84.11518931258621
 20
55.14630299633477
 30
0.0
 10
84.11768688404902
 20
55.14372468716515
 30
0.0
 10
84.11833430969591
 20
55.14251525260054
 30
0.0
 10
84.11836221188999
 20
55.14194615192113
 30
0.0
 10
84.11837520112974
 20
55.14168121988198
 30
0.0
  0
SPLINE
  5
2C0
330
1F
100
AcDbEntity
  8
0
  6
Continuous
 62
     7
370
    18
100
AcDbSpline
210
0.0
220
0.0
230
1.0
 70
     8
 71
     3
 72
    13
 73
     9
 74
     0
 42
0.000000001
 43
0.00000001
 40
0.0
 40
0.0
 40
0.0
 40
0.0
 40
0.2817561439497536
 40
0.3980599451739034
 40
0.5030114594569647
 40
0.6212166957498834
 40
0.7520384456012862
 40
1.0
 40
1.0
 40
1.0
 40
1.0
 10
84.08655873845402
 20
55.13342463780439
 30
0.0
 10
84.08273099696731
 20
55.1346755423336
 30
0.0
 10
84.07732323355538
 20
55.13644279745479
 30
0.0
 10
84.07145906219199
 20
55.1405991150616
 30
0.0
 10
84.06816657496711
 20
55.14416783878413
 30
0.0
 10
84.06587140905626
 20
55.1487013696551
 30
0.0
 10
84.06425221685706
 20
55.15561269599308
 30
0.0
 10
84.0642699160863
 20
55.16100284232877
 30
0.0
 10
84.06428150246921
 20
55.1645313744706
 30
0.0
  0
SPLINE
  5
2C1
330
1F
100
AcDbEntity
  8
0
  6
Continuous
 62
     7
370
    18
100
AcDbSpline
210
0.0
220
0.0
230
1.0
 70
     8
 71
     3
 72
    12
 73
     8
 74
     0
 42
0.000000001
 43
0.00000001
 40
0.0
 40
0.0
 40
0.0
 40
0.0
 40
0.1358394802911233
 40
0.2479090222460059
 40
0.3632613547059528
 40
0.4982653572610355
 40
1.0
 40
1.0
 40
1.0
 40
1.0
 10
84.11837520112974
 20
55.14168121988198
 30
0.0
 10
84.117852879705
 20
55.14006010795009
 30
0.0
 10
84.11689963552715
 20
55.13710155515584
 30
0.0
 10
84.11403554984845
 20
55.1334307910923
 30
0.0
 10
84.10993860079822
 20
55.13126495031288
 30
0.0
 10
84.10054328537204
 20
55.12984094976013
 30
0.0
 10
84.09272184454137
 20
55.13184527669029
 30
0.0
 10
84.08655873845402
 20
55.13342463780439
 30
0.0
  0
SPLINE
  5
2C2
330
1F
100
AcDbEntity
  8
0
  6
Continuous
 62
     7
370
    18
100
AcDbSpline
210
0.0
220
0.0
230
1.0
 70
     8
 71
     3
 72
    10
 73
     6
 74
     0
 42
0.000000001
 43
0.00000001
 40
0.0
 40
0.0
 40
0.0
 40
0.0
 40
0.2385099882504514
 40
0.4986355787718329
 40
1.0
 40
1.0
 40
1.0
 40
1.0
 10
84.00581431299828
 20
55.16496888265258
 30
0.0
 10
84.00537360142177
 20
55.16859362646725
 30
0.0
 10
84.00445223760957
 20
55.17617161614889
 30
0.0
 10
83.9967782440704
 20
55.18975159078877
 30
0.0
 10
83.98769923274669
 20
55.19708150382873
 30
0.0
 10
83.9817216188747
 20
55.20190751277465
 30
0.0
  0
LINE
  5
2C3
330
1F
100
AcDbEntity
  8
0
  6
Continuous
 62
     7
370
    18
100
AcDbLine
 10
84.0627317817
 20
55.1649688827
 30
0.0
 11
84.005814313
 21
55.1649688827
 31
0.0
  0
LINE
  5
2C4
330
1F
100
AcDbEntity
  8
0
  6
Continuous
 62
     7
370
    18
100
AcDbLine
 10
84.051670153
 20
55.1680060032
 30
0.0
 11
84.0627317817
 21
55.1649688827
 31
0.0
  0
SPLINE
  5
2C5
330
1F
100
AcDbEntity
  8
0
  6
Continuous
 62
     7
370
    18
100
AcDbSpline
210
0.0
220
0.0
230
1.0
 70
     8
 71
     3
 72
    12
 73
     8
 74
     0
 42
0.000000001
 43
0.00000001
 40
0.0
 40
0.0
 40
0.0
 40
0.0
 40
0.1169759139629668
 40
0.2341808508361471
 40
0.4933102413298871
 40
0.7329495976946909
 40
1.0
 40
1.0
 40
1.0
 40
1.0
 10
83.99572125981632
 20
55.22126573157741
 30
0.0
 10
83.99597989814218
 20
55.21804036721887
 30
0.0
 10
83.99649768117256
 20
55.2115833236776
 30
0.0
 10
84.00166817614569
 20
55.19881119561015
 30
0.0
 10
84.01333866654784
 20
55.1859284432314
 30
0.0
 10
84.03131799537876
 20
55.17454693284368
 30
0.0
 10
84.04464576402343
 20
55.17026355421009
 30
0.0
 10
84.05167015304548
 20
55.16800600317861
 30
0.0
  0
SPLINE
  5
2C6
330
1F
100
AcDbEntity
  8
0
  6
Continuous
 62
     7
370
    18
100
AcDbSpline
210
0.0
220
0.0
230
1.0
 70
     8
 71
     3
 72
    10
 73
     6
 74
     0
 42
0.000000001
 43
0.00000001
 40
0.0
 40
0.0
 40
0.0
 40
0.0
 40
0.5039950454650135
 40
0.7581912381563396
 40
1.0
 40
1.0
 40
1.0
 40
1.0
 10
83.9817216188747
 20
55.20190751277465
 30
0.0
 10
83.98461260582708
 20
55.20475795521792
 30
0.0
 10
83.98896169813793
 20
55.20904605389035
 30
0.0
 10
83.99371787350424
 20
55.21564319945421
 30
0.0
 10
83.99506467624668
 20
55.21942302046896
 30
0.0
 10
83.99572125981632
 20
55.22126573157741
 30
0.0
  0
SPLINE
  5
2C7
330
1F
100
AcDbEntity
  8
0
  6
Continuous
 62
     7
370
    18
100
AcDbSpline
210
0.0
220
0.0
230
1.0
 70
     8
 71
     3
 72
    13
 73
     9
 74
     0
 42
0.000000001
 43
0.00000001
 40
0.0
 40
0.0
 40
0.0
 40
0.0
 40
0.2570160477330629
 40
0.5102718052846823
 40
0.6361537636496276
 40
0.7539774211308038
 40
0.8724026023966397
 40
1.0
 40
1.0
 40
1.0
 40
1.0
 10
84.09425518821064
 20
55.30064485754131
 30
0.0
 10
84.10506901992517
 20
55.30001472090958
 30
0.0
 10
84.12653847087847
 20
55.29876366690154
 30
0.0
 10
84.15205131805358
 20
55.28885263292865
 30
0.0
 10
84.16867200322709
 20
55.27593666022607
 30
0.0
 10
84.17793837110584
 20
55.26365831309942
 30
0.0
 10
84.18366405562273
 20
55.24921924142232
 30
0.0
 10
84.18437745726773
 20
55.23885956012871
 30
0.0
 10
84.184747456614
 20
55.23348660460918
 30
0.0
  0
SPLINE
  5
2C8
330
1F
100
AcDbEntity
  8
0
  6
Continuous
 62
     7
370
    18
100
AcDbSpline
210
0.0
220
0.0
230
1.0
 70
     8
 71
     3
 72
    13
 73
     9
 74
     0
 42
0.000000001
 43
0.00000001
 40
0.0
 40
0.0
 40
0.0
 40
0.0
 40
0.1236677106773071
 40
0.2399082049873193
 40
0.3587824368868884
 40
0.4895287038844907
 40
0.7431517890919028
 40
0.9999999999999999
 40
0.9999999999999999
 40
0.9999999999999999
 40
0.9999999999999999
 10
84.0021982978819
 20
55.23736020802765
 30
0.0
 10
84.00256282155536
 20
55.24250915870355
 30
0.0
 10
84.00326997639547
 20
55.25249782516676
 30
0.0
 10
84.00943871535303
 20
55.2663723992215
 30
0.0
 10
84.01942658141886
 20
55.27803452879587
 30
0.0
 10
84.03679620885192
 20
55.28991001967328
 30
0.0
 10
84.06239228237479
 20
55.29883715608716
 30
0.0
 10
84.0835895785352
 20
55.30003975773594
 30
0.0
 10
84.09425518821064
 20
55.30064485754131
 30
0.0
  0
SPLINE
  5
2C9
330
1F
100
AcDbEntity
  8
0
  6
Continuous
 62
     7
370
    18
100
AcDbSpline
210
0.0
220
0.0
230
1.0
 70
     8
 71
     3
 72
    13
 73
     9
 74
     0
 42
0.000000001
 43
0.00000001
 40
0.0
 40
0.0
 40
0.0
 40
0.0
 40
0.2548077359819448
 40
0.5077784673733846
 40
0.6332002117094366
 40
0.7527093865336498
 40
0.8728281919435429
 40
1.0
 40
1.0
 40
1.0
 40
1.0
 10
84.06830729951841
 20
55.17503639237268
 30
0.0
 10
84.06027221343474
 20
55.17741678244337
 30
0.0
 10
84.0442599692183
 20
55.18216040145943
 30
0.0
 10
84.02553557956978
 20
55.19196913737391
 30
0.0
 10
84.0135384630873
 20
55.20330854621094
 30
0.0
 10
84.00697579769648
 20
55.21348647082746
 30
0.0
 10
84.00294800702515
 20
55.2250217578496
 30
0.0
 10
84.00245290785551
 20
55.23316992636633
 30
0.0
 10
84.0021982978819
 20
55.23736020802765
 30
0.0
  0
SPLINE
  5
2CA
330
1F
100
AcDbEntity
  8
0
  6
Continuous
 62
     7
370
    18
100
AcDbSpline
210
0.0
220
0.0
230
1.0
 70
     8
 71
     3
 72
    13
 73
     9
 74
     0
 42
0.000000001
 43
0.00000001
 40
0.0
 40
0.0
 40
0.0
 40
0.0
 40
0.0635528984383373
 40
0.1232441006116091
 40
0.1811987155690096
 40
0.2476323629810546
 40
0.4977940576722727
 40
1.0
 40
1.0
 40
1.0
 40
1.0
 10
84.13316957066837
 20
55.14296350554807
 30
0.0
 10
84.1330176285615
 20
55.14459165096597
 30
0.0
 10
84.13272297688133
 20
55.14774900999483
 30
0.0
 10
84.13056700675872
 20
55.15196370688889
 30
0.0
 10
84.1273389939301
 20
55.1554254871733
 30
0.0
 10
84.11949042929149
 20
55.16098849009052
 30
0.0
 10
84.09937911085973
 20
55.16765694230365
 30
0.0
 10
84.08074534902893
 20
55.17208239769529
 30
0.0
 10
84.06830729951841
 20
55.17503639237268
 30
0.0
  0
SPLINE
  5
2CB
330
1F
100
AcDbEntity
  8
0
  6
Continuous
 62
     7
370
    18
100
AcDbSpline
210
0.0
220
0.0
230
1.0
 70
     8
 71
     3
 72
    13
 73
     9
 74
     0
 42
0.000000001
 43
0.00000001
 40
0.0
 40
0.0
 40
0.0
 40
0.0
 40
0.2712085243200676
 40
0.5025876737514897
 40
0.6387600558352894
 40
0.7602162432610802
 40
0.8769358756097657
 40
1.0
 40
1.0
 40
1.0
 40
1.0
 10
84.09710379352552
 20
55.12025381574652
 30
0.0
 10
84.1013940394896
 20
55.1204494104787
 30
0.0
 10
84.10934447078345
 20
55.12081187512356
 30
0.0
 10
84.11911901690303
 20
55.12378778046919
 30
0.0
 10
84.12584224230238
 20
55.12771544451609
 30
0.0
 10
84.13001903210377
 20
55.13200233101488
 30
0.0
 10
84.132648778967
 20
55.13721446717117
 30
0.0
 10
84.1329929380406
 20
55.14101365159897
 30
0.0
 10
84.13316957066837
 20
55.14296350554807
 30
0.0
  0
SPLINE
  5
2CC
330
1F
100
AcDbEntity
  8
0
  6
Continuous
 62
     7
370
    18
100
AcDbSpline
210
0.0
220
0.0
230
1.0
 70
     8
 71
     3
 72
    12
 73
     8
 74
     0
 42
0.000000001
 43
0.00000001
 40
0.0
 40
0.0
 40
0.0
 40
0.0
 40
0.2676176194076142
 40
0.3837357762663057
 40
0.4968499894995525
 40
0.7172630224006364
 40
0.9999999999999999
 40
0.9999999999999999
 40
0.9999999999999999
 40
0.9999999999999999
 10
84.05439954907082
 20
55.15471931877169
 30
0.0
 10
84.0551116292778
 20
55.14912839807168
 30
0.0
 10
84.05613267808468
 20
55.14111160044973
 30
0.0
 10
84.06163866858077
 20
55.13221823087277
 30
0.0
 10
84.06853414326848
 20
55.12580667531846
 30
0.0
 10
84.08078601092983
 20
55.12098001209031
 30
0.0
 10
84.09123317777276
 20
55.12051507794133
 30
0.0
 10
84.09710379352552
 20
55.12025381574652
 30
0.0
  0
LINE
  5
2CD
330
1F
100
AcDbEntity
  8
0
  6
Continuous
 62
     7
370
    18
100
AcDbLine
 10
83.998145182
 20
55.1547193188
 30
0.0
 11
84.0543995491
 21
55.1547193188
 31
0.0
  0
SPLINE
  5
2CE
330
1F
100
AcDbEntity
  8
0
  6
Continuous
 62
     7
370
    18
100
AcDbSpline
210
0.0
220
0.0
230
1.0
 70
     8
 71
     3
 72
    11
 73
     7
 74
     0
 42
0.000000001
 43
0.00000001
 40
0.0
 40
0.0
 40
0.0
 40
0.0
 40
0.2572831493393635
 40
0.5026468588624904
 40
0.745347112412149
 40
0.9999999999999999
 40
0.9999999999999999
 40
0.9999999999999999
 40
0.9999999999999999
 10
83.9595089545884
 20
55.20097741256091
 30
0.0
 10
83.96471554932114
 20
55.19907898281252
 30
0.0
 10
83.97488752713818
 20
55.19537007396151
 30
0.0
 10
83.98695796099834
 20
55.18448461766208
 30
0.0
 10
83.99542985090119
 20
55.17068755113441
 30
0.0
 10
83.99722568553298
 20
55.16012666435871
 30
0.0
 10
83.99814518203718
 20
55.15471931877169
 30
0.0
  0
SPLINE
  5
2CF
330
1F
100
AcDbEntity
  8
0
  6
Continuous
 62
     7
370
    18
100
AcDbSpline
210
0.0
220
0.0
230
1.0
 70
     8
 71
     3
 72
    11
 73
     7
 74
     0
 42
0.000000001
 43
0.00000001
 40
0.0
 40
0.0
 40
0.0
 40
0.0
 40
0.2468184150712025
 40
0.4921284498010793
 40
0.7370025790225476
 40
1.0
 40
1.0
 40
1.0
 40
1.0
 10
83.98925912291192
 20
55.24419312773206
 30
0.0
 10
83.98883744579759
 20
55.2396283226563
 30
0.0
 10
83.98799666856247
 20
55.23052660937882
 30
0.0
 10
83.98149383341668
 20
55.2182793582497
 30
0.0
 10
83.9719573016177
 20
55.20796199103763
 30
0.0
 10
83.96375595801771
 20
55.20336034168982
 30
0.0
 10
83.9595089545884
 20
55.20097741256091
 30
0.0
  0
SPLINE
  5
2D0
330
1F
100
AcDbEntity
  8
0
  6
Continuous
 62
     7
370
    18
100
AcDbSpline
210
0.0
220
0.0
230
1.0
 70
     8
 71
     3
 72
    13
 73
     9
 74
     0
 42
0.000000001
 43
0.00000001
 40
0.0
 40
0.0
 40
0.0
 40
0.0
 40
0.2846640053424913
 40
0.5118807964760174
 40
0.6373398773810742
 40
0.7531788969113354
 40
0.8704052954383721
 40
0.9999999999999999
 40
0.9999999999999999
 40
0.9999999999999999
 40
0.9999999999999999
 10
83.9076255948383
 20
55.29636706012545
 30
0.0
 10
83.91804309884347
 20
55.29614609687244
 30
0.0
 10
83.9367757806978
 20
55.29574876231725
 30
0.0
 10
83.95960056668872
 20
55.28953690023869
 30
0.0
 10
83.97434256799333
 20
55.28046194148229
 30
0.0
 10
83.98308906010226
 20
55.2704421525916
 30
0.0
 10
83.98837007393641
 20
55.25799387642132
 30
0.0
 10
83.98895303576843
 20
55.24894453272825
 30
0.0
 10
83.98925912291192
 20
55.24419312773206
 30
0.0
  0
LINE
  5
2D1
330
1F
100
AcDbEntity
  8
0
  6
Continuous
 62
     7
370
    18
100
AcDbLine
 10
83.8019664279
 20
55.2963670601
 30
0.0
 11
83.9076255948
 21
55.2963670601
 31
0.0
  0
LINE
  5
2D2
330
1F
100
AcDbEntity
  8
0
  6
Continuous
 62
     7
370
    18
100
AcDbLine
 10
83.8019664279
 20
55.2963670601
 30
0.0
 11
83.8019664279
 21
55.0944725513
 31
0.0
  0
LINE
  5
2D3
330
1F
100
AcDbEntity
  8
0
  6
Continuous
 62
     7
370
    18
100
AcDbLine
 10
83.7222824684
 20
55.2963670601
 30
0.0
 11
83.8019664279
 21
55.0944725513
 31
0.0
  0
LINE
  5
2D4
330
1F
100
AcDbEntity
  8
0
  6
Continuous
 62
     7
370
    18
100
AcDbLine
 10
83.6624915591
 20
55.2963670601
 30
0.0
 11
83.7222824684
 21
55.2963670601
 31
0.0
  0
LINE
  5
2D5
330
1F
100
AcDbEntity
  8
0
  6
Continuous
 62
     7
370
    18
100
AcDbLine
 10
83.5968072405
 20
55.1299129308
 30
0.0
 11
83.6624915591
 21
55.2963670601
 31
0.0
  0
LINE
  5
2D6
330
1F
100
AcDbEntity
  8
0
  6
Continuous
 62
     7
370
    18
100
AcDbLine
 10
83.488552788
 20
55.1299129308
 30
0.0
 11
83.5968072405
 21
55.1299129308
 31
0.0
  0
LINE
  5
2D7
330
1F
100
AcDbEntity
  8
0
  6
Continuous
 62
     7
370
    18
100
AcDbLine
 10
83.488552788
 20
55.2963670601
 30
0.0
 11
83.488552788
 21
55.1299129308
 31
0.0
  0
LINE
  5
2D8
330
1F
100
AcDbEntity
  8
0
  6
Continuous
 62
     7
370
    18
100
AcDbLine
 10
83.4297031354
 20
55.2963670601
 30
0.0
 11
83.488552788
 21
55.2963670601
 31
0.0
  0
LINE
  5
2D9
330
1F
100
AcDbEntity
  8
0
  6
Continuous
 62
     7
370
    18
100
AcDbLine
 10
83.4297031354
 20
55.2963670601
 30
0.0
 11
83.4297031354
 21
55.0792546726
 31
0.0
  0
LINE
  5
2DA
330
1F
100
AcDbEntity
  8
0
  6
Continuous
 62
     7
370
    18
100
AcDbLine
 10
83.638451019
 20
55.0792546726
 30
0.0
 11
83.4297031354
 21
55.0792546726
 31
0.0
  0
LINE
  5
2DB
330
1F
100
AcDbEntity
  8
0
  6
Continuous
 62
     7
370
    18
100
AcDbLine
 10
83.6555923215
 20
55.1170665292
 30
0.0
 11
83.638451019
 21
55.0792546726
 31
0.0
  0
LINE
  5
2DC
330
1F
100
AcDbEntity
  8
0
  6
Continuous
 62
     7
370
    18
100
AcDbLine
 10
83.7285608243
 20
55.1170665292
 30
0.0
 11
83.6555923215
 21
55.1170665292
 31
0.0
  0
LINE
  5
2DD
330
1F
100
AcDbEntity
  8
0
  6
Continuous
 62
     7
370
    18
100
AcDbLine
 10
83.7453817518
 20
55.0789450078
 30
0.0
 11
83.7285608243
 21
55.1170665292
 31
0.0
  0
LINE
  5
2DE
330
1F
100
AcDbEntity
  8
0
  6
Continuous
 62
     7
370
    18
100
AcDbLine
 10
83.9104742002
 20
55.0789450078
 30
0.0
 11
83.7453817518
 21
55.0789450078
 31
0.0
  0
SPLINE
  5
2DF
330
1F
100
AcDbEntity
  8
0
  6
Continuous
 62
     7
370
    18
100
AcDbSpline
210
0.0
220
0.0
230
1.0
 70
     8
 71
     3
 72
    13
 73
     9
 74
     0
 42
0.000000001
 43
0.00000001
 40
0.0
 40
0.0
 40
0.0
 40
0.0
 40
0.1307043035473179
 40
0.252752513285707
 40
0.372981478510915
 40
0.4984467897681769
 40
0.7262598962165302
 40
1.0
 40
1.0
 40
1.0
 40
1.0
 10
83.99746966272973
 20
55.13651559071549
 30
0.0
 10
83.99647631727028
 20
55.13158441614247
 30
0.0
 10
83.99455541218437
 20
55.12204864162737
 30
0.0
 10
83.98792347078331
 20
55.10916685284325
 30
0.0
 10
83.97854491324341
 20
55.09845928933681
 30
0.0
 10
83.96345759780127
 20
55.08809256221974
 30
0.0
 10
83.94026291437967
 20
55.08025029222732
 30
0.0
 10
83.920991981716
 20
55.07940587685199
 30
0.0
 10
83.91047420015317
 20
55.07894500780008
 30
0.0
  0
SPLINE
  5
2E0
330
1F
100
AcDbEntity
  8
0
  6
Continuous
 62
     7
370
    18
100
AcDbSpline
210
0.0
220
0.0
230
1.0
 70
     8
 71
     3
 72
    13
 73
     9
 74
     0
 42
0.000000001
 43
0.00000001
 40
0.0
 40
0.0
 40
0.0
 40
0.0
 40
0.263867669920994
 40
0.5011450850847443
 40
0.6293868593869516
 40
0.7516669214069075
 40
0.8733719320823683
 40
1.0
 40
1.0
 40
1.0
 40
1.0
 10
84.09361940533303
 20
55.07225426515809
 30
0.0
 10
84.08254526715919
 20
55.07289793870495
 30
0.0
 10
84.0615129447112
 20
55.07412042205997
 30
0.0
 10
84.03660733941965
 20
55.08416383870458
 30
0.0
 10
84.01995042035644
 20
55.09612773641741
 30
0.0
 10
84.00943704981093
 20
55.10775946687063
 30
0.0
 10
84.00159508421125
 20
55.12132861208038
 30
0.0
 10
83.99886285814856
 20
55.13138679862605
 30
0.0
 10
83.99746966272973
 20
55.13651559071549
 30
0.0
  0
SPLINE
  5
2E1
330
1F
100
AcDbEntity
  8
0
  6
Continuous
 62
     7
370
    18
100
AcDbSpline
210
0.0
220
0.0
230
1.0
 70
     8
 71
     3
 72
    13
 73
     9
 74
     0
 42
0.000000001
 43
0.00000001
 40
0.0
 40
0.0
 40
0.0
 40
0.0
 40
0.132239528568609
 40
0.2542712058808075
 40
0.3735233337292348
 40
0.4981992210774767
 40
0.7300251526435558
 40
0.9999999999999999
 40
0.9999999999999999
 40
0.9999999999999999
 40
0.9999999999999999
 10
84.1920192232766
 20
55.14977571302648
 30
0.0
 10
84.19166034524268
 20
55.14354887590353
 30
0.0
 10
84.19097029173572
 20
55.13157586449602
 30
0.0
 10
84.18494579354666
 20
55.1148302423585
 30
0.0
 10
84.17507006759845
 20
55.10052254254798
 30
0.0
 10
84.15776666837263
 20
55.08606599246373
 30
0.0
 10
84.13001141969079
 20
55.07426508531618
 30
0.0
 10
84.1063496966077
 20
55.07295767019805
 30
0.0
 10
84.09361940533303
 20
55.07225426515809
 30
0.0
  0
SPLINE
  5
2E2
330
1F
100
AcDbEntity
  8
0
  6
Continuous
 62
     7
370
    18
100
AcDbSpline
210
0.0
220
0.0
230
1.0
 70
     8
 71
     3
 72
    13
 73
     9
 74
     0
 42
0.000000001
 43
0.00000001
 40
0.0
 40
0.0
 40
0.0
 40
0.0
 40
0.2526176969556563
 40
0.5034220918554071
 40
0.6281521284612461
 40
0.7479196834750833
 40
0.8696694602628987
 40
1.0
 40
1.0
 40
1.0
 40
1.0
 10
84.12653358688337
 20
55.21277263237097
 30
0.0
 10
84.13452510611845
 20
55.2104357131424
 30
0.0
 10
84.15045078107673
 20
55.2057786492046
 30
0.0
 10
84.16901245318383
 20
55.19589681021673
 30
0.0
 10
84.18085550131492
 20
55.18446955024648
 30
0.0
 10
84.18731603119878
 20
55.17415016077494
 30
0.0
 10
84.19129163472238
 20
55.162401348206
 30
0.0
 10
84.19177125173648
 20
55.1540786919313
 30
0.0
 10
84.1920192232766
 20
55.14977571302648
 30
0.0
  0
SPLINE
  5
2E3
330
1F
100
AcDbEntity
  8
0
  6
Continuous
 62
     7
370
    18
100
AcDbSpline
210
0.0
220
0.0
230
1.0
 70
     8
 71
     3
 72
    12
 73
     8
 74
     0
 42
0.000000001
 43
0.00000001
 40
0.0
 40
0.0
 40
0.0
 40
0.0
 40
0.0602206859341936
 40
0.1199640709751347
 40
0.2436907859343974
 40
0.4949565658440939
 40
1.0
 40
1.0
 40
1.0
 40
1.0
 10
84.06104795049015
 20
55.24093035550722
 30
0.0
 10
84.06124408753743
 20
55.23942329826099
 30
0.0
 10
84.06163480707666
 20
55.23642112849746
 30
0.0
 10
84.0652728542838
 20
55.23131541079909
 30
0.0
 10
84.07478460562534
 20
55.22569810061454
 30
0.0
 10
84.09593910526635
 20
55.21977255039985
 30
0.0
 10
84.11428360898553
 20
55.21557538752838
 30
0.0
 10
84.12653358688337
 20
55.21277263237097
 30
0.0
  0
SPLINE
  5
2E4
330
1F
100
AcDbEntity
  8
0
  6
Continuous
 62
     7
370
    18
100
AcDbSpline
210
0.0
220
0.0
230
1.0
 70
     8
 71
     3
 72
    13
 73
     9
 74
     0
 42
0.000000001
 43
0.00000001
 40
0.0
 40
0.0
 40
0.0
 40
0.0
 40
0.2763553459264574
 40
0.5097711589180555
 40
0.6418285917958642
 40
0.7605425034169503
 40
0.8765142964849635
 40
0.9999999999999999
 40
0.9999999999999999
 40
0.9999999999999999
 40
0.9999999999999999
 10
84.08949923426293
 20
55.25895412487843
 30
0.0
 10
84.0860399441588
 20
55.25878977475384
 30
0.0
 10
84.07965886142814
 20
55.25848661089355
 30
0.0
 10
84.07188735749995
 20
55.2561049581801
 30
0.0
 10
84.06664291160335
 20
55.25297641983373
 30
0.0
 10
84.06347429047695
 20
55.24958516726865
 30
0.0
 10
84.06145464843028
 20
55.2454809413008
 30
0.0
 10
84.06118632305433
 20
55.24247862060207
 30
0.0
 10
84.06104795049015
 20
55.24093035550722
 30
0.0
  0
SPLINE
  5
2E5
330
1F
100
AcDbEntity
  8
0
  6
Continuous
 62
     7
370
    18
100
AcDbSpline
210
0.0
220
0.0
230
1.0
 70
     8
 71
     3
 72
    13
 73
     9
 74
     0
 42
0.000000001
 43
0.00000001
 40
0.0
 40
0.0
 40
0.0
 40
0.0
 40
0.1284028872989302
 40
0.2458334877287838
 40
0.3628499271704002
 40
0.4900318876788546
 40
0.7211828692638979
 40
0.9999999999999999
 40
0.9999999999999999
 40
0.9999999999999999
 40
0.9999999999999999
 10
84.12589780400577
 20
55.23348660460918
 30
0.0
 10
84.12583921018444
 20
55.23564768852511
 30
0.0
 10
84.12572702950254
 20
55.23978518735792
 30
0.0
 10
84.12350269079688
 20
55.24557025719204
 30
0.0
 10
84.11965848703814
 20
55.25036089922247
 30
0.0
 10
84.11302151586844
 20
55.25489809633148
 30
0.0
 10
84.10272914353833
 20
55.25833963947144
 30
0.0
 10
84.09417569769391
 20
55.25873691866221
 30
0.0
 10
84.08949923426293
 20
55.25895412487843
 30
0.0
  0
LINE
  5
2E6
330
1F
100
AcDbEntity
  8
0
  6
Continuous
 62
     7
370
    18
100
AcDbLine
 10
84.1847474566
 20
55.2334866046
 30
0.0
 11
84.125897804
 21
55.2334866046
 31
0.0
  0
SPLINE
  5
2E7
330
1F
100
AcDbEntity
  8
0
  6
Continuous
 62
     7
370
    18
100
AcDbSpline
210
0.0
220
0.0
230
1.0
 70
     8
 71
     3
 72
    18
 73
    14
 74
     0
 42
0.000000001
 43
0.00000001
 40
0.0
 40
0.0
 40
0.0
 40
0.0
 40
0.3669113698625597
 40
0.4642336717278794
 40
0.4910501687689218
 40
0.499086182134801
 40
0.5037046686239881
 40
0.7551404574398262
 40
0.8795950195488816
 40
0.9105261776649826
 40
0.9397422782901665
 40
0.9690519761598243
 40
1.0
 40
1.0
 40
1.0
 40
1.0
 10
84.11356709311787
 20
55.22537455215363
 30
0.0
 10
84.10830910123723
 20
55.22663423178839
 30
0.0
 10
84.1016564404664
 20
55.22822803822253
 30
0.0
 10
84.09461713953172
 20
55.22990401573801
 30
0.0
 10
84.09272336246197
 20
55.23035926051062
 30
0.0
 10
84.09215850279188
 20
55.23049796497276
 30
0.0
 10
84.08837014609448
 20
55.23138920074158
 30
0.0
 10
84.08298411267538
 20
55.23284848681819
 30
0.0
 10
84.07731010138443
 20
55.23506100960569
 30
0.0
 10
84.07519632078554
 20
55.2368088849797
 30
0.0
 10
84.07442369711227
 20
55.23789192105806
 30
0.0
 10
84.0739082243422
 20
55.23912384473575
 30
0.0
 10
84.07381267938825
 20
55.24001070289822
 30
0.0
 10
84.07376360804223
 20
55.24046618821654
 30
0.0
  0
LINE
  5
2E8
330
1F
100
AcDbEntity
  8
0
  6
Continuous
 62
     7
370
    18
100
AcDbLine
 10
84.1129834643
 20
55.2342906464
 30
0.0
 11
84.1135670931
 21
55.2253745522
 31
0.0
  0
SPLINE
  5
2E9
330
1F
100
AcDbEntity
  8
0
  6
Continuous
 62
     7
370
    18
100
AcDbSpline
210
0.0
220
0.0
230
1.0
 70
     8
 71
     3
 72
    12
 73
     8
 74
     0
 42
0.000000001
 43
0.00000001
 40
0.0
 40
0.0
 40
0.0
 40
0.0
 40
0.5080620657881141
 40
0.6389652519905783
 40
0.7574058203185178
 40
0.864227419819388
 40
1.0
 40
1.0
 40
1.0
 40
1.0
 10
84.09396461556736
 20
55.24494472445233
 30
0.0
 10
84.09813426090228
 20
55.24482465022076
 30
0.0
 10
84.10337822352328
 20
55.2446736386283
 30
0.0
 10
84.10893878850047
 20
55.24197614776568
 30
0.0
 10
84.11103568125668
 20
55.23992714127556
 30
0.0
 10
84.11230797167482
 20
55.23726760080191
 30
0.0
 10
84.11274107150741
 20
55.235358892427
 30
0.0
 10
84.11298346430443
 20
55.23429064643192
 30
0.0
  0
SPLINE
  5
2EA
330
1F
100
AcDbEntity
  8
0
  6
Continuous
 62
     7
370
    18
100
AcDbSpline
210
0.0
220
0.0
230
1.0
 70
     8
 71
     3
 72
    12
 73
     8
 74
     0
 42
0.000000001
 43
0.00000001
 40
0.0
 40
0.0
 40
0.0
 40
0.0
 40
0.0323859492471313
 40
0.0708888059745169
 40
0.1728126295835492
 40
0.4956176305240083
 40
1.0
 40
1.0
 40
1.0
 40
1.0
 10
84.07376360804223
 20
55.24046618821654
 30
0.0
 10
84.07387778852326
 20
55.240666108605
 30
0.0
 10
84.0741277153636
 20
55.24110370941513
 30
0.0
 10
84.07508723927866
 20
55.2418893797641
 30
0.0
 10
84.07807614478521
 20
55.24326658501234
 30
0.0
 10
84.08458052219484
 20
55.24451949291435
 30
0.0
 10
84.09041003550384
 20
55.24478365193448
 30
0.0
 10
84.09396461556736
 20
55.24494472445233
 30
0.0
  0
SPLINE
  5
2EB
330
1F
100
AcDbEntity
  8
0
  6
Continuous
 62
     7
370
    18
100
AcDbSpline
210
0.0
220
0.0
230
1.0
 70
     8
 71
     3
 72
    13
 73
     9
 74
     0
 42
0.000000001
 43
0.00000001
 40
0.0
 40
0.0
 40
0.0
 40
0.0
 40
0.2650034860708242
 40
0.4934990342965377
 40
0.6181546574116065
 40
0.7387968165394602
 40
0.8635251815185039
 40
1.0
 40
1.0
 40
1.0
 40
1.0
 10
83.0144971798895
 20
55.19077507449558
 30
0.0
 10
83.0150299537387
 20
55.19992686288224
 30
0.0
 10
83.0160221043854
 20
55.2169696527635
 30
0.0
 10
83.02493992759004
 20
55.23688496665987
 30
0.0
 10
83.0357864966879
 20
55.24923815813167
 30
0.0
 10
83.0465610936096
 20
55.25627142241672
 30
0.0
 10
83.05915505192365
 20
55.26054297912362
 30
0.0
 10
83.06815515587236
 20
55.2610437301126
 30
0.0
 10
83.07285757770521
 20
55.26130536513337
 30
0.0
  0
SPLINE
  5
2EC
330
1F
100
AcDbEntity
  8
0
  6
Continuous
 62
     7
370
    18
100
AcDbSpline
210
0.0
220
0.0
230
1.0
 70
     8
 71
     3
 72
    13
 73
     9
 74
     0
 42
0.000000001
 43
0.00000001
 40
0.0
 40
0.0
 40
0.0
 40
0.0
 40
0.1344742919860433
 40
0.258073048609923
 40
0.3787809593816913
 40
0.5048682704772922
 40
0.7361357919220044
 40
1.0
 40
1.0
 40
1.0
 40
1.0
 10
83.07285757770521
 20
55.11804532007869
 30
0.0
 10
83.06815083034311
 20
55.11832490657307
 30
0.0
 10
83.05911799125668
 20
55.11886146815586
 30
0.0
 10
83.04649875208956
 20
55.1234184544503
 30
0.0
 10
83.03575130439852
 20
55.13087376096728
 30
0.0
 10
83.02493867156561
 20
55.14377841225168
 30
0.0
 10
83.01608379843807
 20
55.16417057176993
 30
0.0
 10
83.0150487663027
 20
55.18152604469813
 30
0.0
 10
83.0144971798895
 20
55.19077507449558
 30
0.0
  0
SPLINE
  5
2ED
330
1F
100
AcDbEntity
  8
0
  6
Continuous
 62
     7
370
    18
100
AcDbSpline
210
0.0
220
0.0
230
1.0
 70
     8
 71
     3
 72
    13
 73
     9
 74
     0
 42
0.000000001
 43
0.00000001
 40
0.0
 40
0.0
 40
0.0
 40
0.0
 40
0.2639866000775322
 40
0.4951936303277477
 40
0.6212091898246591
 40
0.7419073822868902
 40
0.8656529087914818
 40
1.0
 40
1.0
 40
1.0
 40
1.0
 10
83.13120307435972
 20
55.19077507449558
 30
0.0
 10
83.13065305377546
 20
55.181521911892
 30
0.0
 10
83.12962130939982
 20
55.16416456428294
 30
0.0
 10
83.12075618902001
 20
55.14378201041926
 30
0.0
 10
83.10996151941877
 20
55.1308716932878
 30
0.0
 10
83.0992118010877
 20
55.1234152622124
 30
0.0
 10
83.0865910448957
 20
55.11886645708739
 30
0.0
 10
83.0775590677107
 20
55.11832642661835
 30
0.0
 10
83.07285757770521
 20
55.11804532007869
 30
0.0
  0
SPLINE
  5
2EE
330
1F
100
AcDbEntity
  8
0
  6
Continuous
 62
     7
370
    18
100
AcDbSpline
210
0.0
220
0.0
230
1.0
 70
     8
 71
     3
 72
    13
 73
     9
 74
     0
 42
0.000000001
 43
0.00000001
 40
0.0
 40
0.0
 40
0.0
 40
0.0
 40
0.1363417641977387
 40
0.2612162182091278
 40
0.3817479824034943
 40
0.5064172725039275
 40
0.7350652469467549
 40
0.9999999999999999
 40
0.9999999999999999
 40
0.9999999999999999
 40
0.9999999999999999
 10
83.07285757770521
 20
55.26130536513337
 30
0.0
 10
83.07755456383686
 20
55.26104255235022
 30
0.0
 10
83.08655348622504
 20
55.26053903120454
 30
0.0
 10
83.09914826497884
 20
55.25628058205139
 30
0.0
 10
83.10991556960427
 20
55.24923372619295
 30
0.0
 10
83.12076161426018
 20
55.23688252238446
 30
0.0
 10
83.12969817954438
 20
55.21697126533338
 30
0.0
 10
83.13067744516
 20
55.19992487199994
 30
0.0
 10
83.13120307435972
 20
55.19077507449558
 30
0.0
  0
LINE
  5
2EF
330
1F
100
AcDbEntity
  8
0
  6
Continuous
 62
     7
370
    18
100
AcDbLine
 10
83.8555981905
 20
55.2571831374
 30
0.0
 11
83.8555981905
 21
55.2053913965
 31
0.0
  0
LINE
  5
2F0
330
1F
100
AcDbEntity
  8
0
  6
Continuous
 62
     7
370
    18
100
AcDbLine
 10
83.9079708051
 20
55.2053913965
 30
0.0
 11
83.8555981905
 21
55.2053913965
 31
0.0
  0
SPLINE
  5
2F1
330
1F
100
AcDbEntity
  8
0
  6
Continuous
 62
     7
370
    18
100
AcDbSpline
210
0.0
220
0.0
230
1.0
 70
     8
 71
     3
 72
    12
 73
     8
 74
     0
 42
0.000000001
 43
0.00000001
 40
0.0
 40
0.0
 40
0.0
 40
0.0
 40
0.2562417731282336
 40
0.3739809138582893
 40
0.4916805904475163
 40
0.7336111295434649
 40
1.0
 40
1.0
 40
1.0
 40
1.0
 10
83.93562736024839
 20
55.23128270734656
 30
0.0
 10
83.93528520091425
 20
55.22762507751019
 30
0.0
 10
83.9347858246459
 20
55.22228682320427
 30
0.0
 10
83.93136335460629
 20
55.21612693828946
 30
0.0
 10
83.92685303910942
 20
55.21108513939494
 30
0.0
 10
83.91897618408613
 20
55.20637020211473
 30
0.0
 10
83.91175508176102
 20
55.2057279656696
 30
0.0
 10
83.90797080507261
 20
55.20539139650075
 30
0.0
  0
SPLINE
  5
2F2
330
1F
100
AcDbEntity
  8
0
  6
Continuous
 62
     7
370
    18
100
AcDbSpline
210
0.0
220
0.0
230
1.0
 70
     8
 71
     3
 72
    13
 73
     9
 74
     0
 42
0.000000001
 43
0.00000001
 40
0.0
 40
0.0
 40
0.0
 40
0.0
 40
0.2766471171507803
 40
0.3967640226944255
 40
0.5103863055171118
 40
0.6215825937982873
 40
0.7365272030491811
 40
1.0
 40
1.0
 40
1.0
 40
1.0
 10
83.90797080507261
 20
55.25718313739258
 30
0.0
 10
83.91196717878798
 20
55.25691145089883
 30
0.0
 10
83.91769873069366
 20
55.25652180134354
 30
0.0
 10
83.92447064921545
 20
55.25357328244961
 30
0.0
 10
83.92851424052823
 20
55.2506632422161
 30
0.0
 10
83.93169884144173
 20
55.24692363683408
 30
0.0
 10
83.93488640524933
 20
55.24057255944336
 30
0.0
 10
83.93532322492266
 20
55.23509585685902
 30
0.0
 10
83.93562736024839
 20
55.23128270734656
 30
0.0
  0
LINE
  5
2F3
330
1F
100
AcDbEntity
  8
0
  6
Continuous
 62
     7
370
    18
100
AcDbLine
 10
83.8555981905
 20
55.2571831374
 30
0.0
 11
83.9079708051
 21
55.2571831374
 31
0.0
  0
LINE
  5
2F4
330
1F
100
AcDbEntity
  8
0
  6
Continuous
 62
     7
370
    18
100
AcDbLine
 10
83.8555981905
 20
55.1801401662
 30
0.0
 11
83.8555981905
 21
55.11832494
 31
0.0
  0
LINE
  5
2F5
330
1F
100
AcDbEntity
  8
0
  6
Continuous
 62
     7
370
    18
100
AcDbLine
 10
83.9137723238
 20
55.11832494
 30
0.0
 11
83.8555981905
 21
55.11832494
 31
0.0
  0
SPLINE
  5
2F6
330
1F
100
AcDbEntity
  8
0
  6
Continuous
 62
     7
370
    18
100
AcDbSpline
210
0.0
220
0.0
230
1.0
 70
     8
 71
     3
 72
    13
 73
     9
 74
     0
 42
0.000000001
 43
0.00000001
 40
0.0
 40
0.0
 40
0.0
 40
0.0
 40
0.2617638618150098
 40
0.3803533743699907
 40
0.4968782893069055
 40
0.6183963346647402
 40
0.7395782291394805
 40
1.0
 40
1.0
 40
1.0
 40
1.0
 10
83.94447616647068
 20
55.14915773199184
 30
0.0
 10
83.94411638645383
 20
55.14486183228238
 30
0.0
 10
83.94359361168084
 20
55.13861971796178
 30
0.0
 10
83.93989396417432
 20
55.13133146582521
 30
0.0
 10
83.93622022965718
 20
55.12680035222879
 30
0.0
 10
83.93163717244931
 20
55.12312927559705
 30
0.0
 10
83.92430208433407
 20
55.11930472507681
 30
0.0
 10
83.91804346126925
 20
55.11872236562041
 30
0.0
 10
83.91377232383076
 20
55.11832493998044
 30
0.0
  0
SPLINE
  5
2F7
330
1F
100
AcDbEntity
  8
0
  6
Continuous
 62
     7
370
    18
100
AcDbSpline
210
0.0
220
0.0
230
1.0
 70
     8
 71
     3
 72
    13
 73
     9
 74
     0
 42
0.000000001
 43
0.00000001
 40
0.0
 40
0.0
 40
0.0
 40
0.0
 40
0.2705738896598283
 40
0.3892007722980893
 40
0.5036505205566199
 40
0.6145162192100811
 40
0.7309812975229208
 40
1.0
 40
1.0
 40
1.0
 40
1.0
 10
83.91377232383076
 20
55.18014016619817
 30
0.0
 10
83.91828169664173
 20
55.17980805940355
 30
0.0
 10
83.92476809997802
 20
55.17933034804302
 30
0.0
 10
83.9323364281649
 20
55.17566842675468
 30
0.0
 10
83.93680918488222
 20
55.17209855644944
 30
0.0
 10
83.94026633897583
 20
55.16758355404176
 30
0.0
 10
83.94371168983179
 20
55.16005440006712
 30
0.0
 10
83.9441619453352
 20
55.15363656527648
 30
0.0
 10
83.94447616647068
 20
55.14915773199184
 30
0.0
  0
LINE
  5
2F8
330
1F
100
AcDbEntity
  8
0
  6
Continuous
 62
     7
370
    18
100
AcDbLine
 10
83.8555981905
 20
55.1801401662
 30
0.0
 11
83.9137723238
 21
55.1801401662
 31
0.0
  0
LINE
  5
2F9
330
1F
100
AcDbEntity
  8
0
  6
Continuous
 62
     7
370
    18
100
AcDbLine
 10
83.6587439171
 20
55.1543594014
 30
0.0
 11
83.6882407656
 21
55.2413354614
 31
0.0
  0
LINE
  5
2FA
330
1F
100
AcDbEntity
  8
0
  6
Continuous
 62
     7
370
    18
100
AcDbLine
 10
83.7259655387
 20
55.1543594014
 30
0.0
 11
83.6587439171
 21
55.1543594014
 31
0.0
  0
LINE
  5
2FB
330
1F
100
AcDbEntity
  8
0
  6
Continuous
 62
     7
370
    18
100
AcDbLine
 10
83.6974347821
 20
55.2413354614
 30
0.0
 11
83.7259655387
 21
55.1543594014
 31
0.0
  0
LINE
  5
2FC
330
1F
100
AcDbEntity
  8
0
  6
Continuous
 62
     7
370
    18
100
AcDbLine
 10
83.6882407656
 20
55.2413354614
 30
0.0
 11
83.6974347821
 21
55.2413354614
 31
0.0
  0
LINE
  5
2FD
330
1F
100
AcDbEntity
  8
0
  6
Continuous
 62
     7
370
    18
100
AcDbLine
 10
83.8667517097
 20
55.1687224522
 30
0.0
 11
83.9104344637
 21
55.1687224522
 31
0.0
  0
LINE
  5
2FE
330
1F
100
AcDbEntity
  8
0
  6
Continuous
 62
     7
370
    18
100
AcDbLine
 10
83.8667517097
 20
55.1687224522
 30
0.0
 11
83.8667517097
 21
55.1289329078
 31
0.0
  0
LINE
  5
2FF
330
1F
100
AcDbEntity
  8
0
  6
Continuous
 62
     7
370
    18
100
AcDbLine
 10
83.9104344637
 20
55.1289329078
 30
0.0
 11
83.8667517097
 21
55.1289329078
 31
0.0
  0
SPLINE
  5
300
330
1F
100
AcDbEntity
  8
0
  6
Continuous
 62
     7
370
    18
100
AcDbSpline
210
0.0
220
0.0
230
1.0
 70
     8
 71
     3
 72
    13
 73
     9
 74
     0
 42
0.000000001
 43
0.00000001
 40
0.0
 40
0.0
 40
0.0
 40
0.0
 40
0.1339857452397178
 40
0.2573389851794953
 40
0.3761550274962431
 40
0.4972841499157279
 40
0.7349712473816293
 40
1.0
 40
1.0
 40
1.0
 40
1.0
 10
83.93349401067081
 20
55.14874170243674
 30
0.0
 10
83.93338888938483
 20
55.14722154071568
 30
0.0
 10
83.9331869887647
 20
55.14430185046127
 30
0.0
 10
83.93180693226049
 20
55.14021720619798
 30
0.0
 10
83.92961259919028
 20
55.13668484935663
 30
0.0
 10
83.92566390523747
 20
55.13292412663979
 30
0.0
 10
83.91917332064514
 20
55.12962224210029
 30
0.0
 10
83.91345115487445
 20
55.12917086899861
 30
0.0
 10
83.91043446372333
 20
55.12893290783212
 30
0.0
  0
SPLINE
  5
301
330
1F
100
AcDbEntity
  8
0
  6
Continuous
 62
     7
370
    18
100
AcDbSpline
210
0.0
220
0.0
230
1.0
 70
     8
 71
     3
 72
    12
 73
     8
 74
     0
 42
0.000000001
 43
0.00000001
 40
0.0
 40
0.0
 40
0.0
 40
0.0
 40
0.2760521253787998
 40
0.5037105233654827
 40
0.6193626714441626
 40
0.7363893928184704
 40
1.0
 40
1.0
 40
1.0
 40
1.0
 10
83.91043446372333
 20
55.16872245217296
 30
0.0
 10
83.91362162072053
 20
55.16852398155981
 30
0.0
 10
83.91943720542905
 20
55.16816183351878
 30
0.0
 10
83.9261106197973
 20
55.16504231726549
 30
0.0
 10
83.92987416294443
 20
55.16125677134047
 30
0.0
 10
83.93281814694365
 20
55.15625454465405
 30
0.0
 10
83.9332174636497
 20
55.15181577499283
 30
0.0
 10
83.93349401067081
 20
55.14874170243674
 30
0.0
  0
LINE
  5
302
330
1F
100
AcDbEntity
  8
0
  6
Continuous
 62
     7
370
    18
100
AcDbLine
 10
83.6922293098
 20
55.2187700005
 30
0.0
 11
83.7092886558
 21
55.1661392253
 31
0.0
  0
LINE
  5
303
330
1F
100
AcDbEntity
  8
0
  6
Continuous
 62
     7
370
    18
100
AcDbLine
 10
83.6745863349
 20
55.1661392253
 30
0.0
 11
83.6922293098
 21
55.2187700005
 31
0.0
  0
LINE
  5
304
330
1F
100
AcDbEntity
  8
0
  6
Continuous
 62
     7
370
    18
100
AcDbLine
 10
83.7092886558
 20
55.1661392253
 30
0.0
 11
83.6745863349
 21
55.1661392253
 31
0.0
  0
LINE
  5
305
330
1F
100
AcDbEntity
  8
0
  6
Continuous
 62
     7
370
    18
100
AcDbLine
 10
83.8670547
 20
55.245952008
 30
0.0
 11
83.9036271166
 21
55.245952008
 31
0.0
  0
LINE
  5
306
330
1F
100
AcDbEntity
  8
0
  6
Continuous
 62
     7
370
    18
100
AcDbLine
 10
83.8670547
 20
55.245952008
 30
0.0
 11
83.8670547
 21
55.2160454745
 31
0.0
  0
LINE
  5
307
330
1F
100
AcDbEntity
  8
0
  6
Continuous
 62
     7
370
    18
100
AcDbLine
 10
83.9036271166
 20
55.2160454745
 30
0.0
 11
83.8670547
 21
55.2160454745
 31
0.0
  0
SPLINE
  5
308
330
1F
100
AcDbEntity
  8
0
  6
Continuous
 62
     7
370
    18
100
AcDbSpline
210
0.0
220
0.0
230
1.0
 70
     8
 71
     3
 72
    13
 73
     9
 74
     0
 42
0.000000001
 43
0.00000001
 40
0.0
 40
0.0
 40
0.0
 40
0.0
 40
0.129327541229348
 40
0.2493685427973792
 40
0.3674108207927866
 40
0.4918232909942563
 40
0.729239484732489
 40
1.0
 40
1.0
 40
1.0
 40
1.0
 10
83.92291170269631
 20
55.23095177739172
 30
0.0
 10
83.9228138812261
 20
55.22977900537764
 30
0.0
 10
83.92262526248913
 20
55.227517673836
 30
0.0
 10
83.92141088873439
 20
55.22436857139975
 30
0.0
 10
83.91948342854096
 20
55.22166283377534
 30
0.0
 10
83.91607680759867
 20
55.21890364801006
 30
0.0
 10
83.91070744897922
 20
55.21654909447049
 30
0.0
 10
83.9060882577237
 20
55.21622053406733
 30
0.0
 10
83.9036271165846
 20
55.21604547452115
 30
0.0
  0
SPLINE
  5
309
330
1F
100
AcDbEntity
  8
0
  6
Continuous
 62
     7
370
    18
100
AcDbSpline
210
0.0
220
0.0
230
1.0
 70
     8
 71
     3
 72
    13
 73
     9
 74
     0
 42
0.000000001
 43
0.00000001
 40
0.0
 40
0.0
 40
0.0
 40
0.0
 40
0.3024180841184014
 40
0.4286300766945571
 40
0.5433096022434742
 40
0.6517950379282664
 40
0.7598597236627506
 40
1.0
 40
1.0
 40
1.0
 40
1.0
 10
83.9036271165846
 20
55.24595200802444
 30
0.0
 10
83.90642392264068
 20
55.24579321009534
 30
0.0
 10
83.9103879554062
 20
55.24556813900304
 30
0.0
 10
83.9151252761735
 20
55.24387307795229
 30
0.0
 10
83.91790578727009
 20
55.24221705870534
 30
0.0
 10
83.92010633731743
 20
55.2400726677905
 30
0.0
 10
83.9223153052642
 20
55.23642120575433
 30
0.0
 10
83.92266827581902
 20
55.23318419120704
 30
0.0
 10
83.92291170269631
 20
55.23095177739172
 30
0.0
  0
LINE
  5
30A
330
1F
100
AcDbEntity
  8
0
  6
Continuous
 62
     7
370
    18
100
AcDbLine
 10
79.2358880431
 20
55.0297331905
 30
0.0
 11
79.2358880431
 21
54.5076220748
 31
0.0
  0
LINE
  5
30B
330
1F
100
AcDbEntity
  8
0
  6
Continuous
 62
     7
370
    18
100
AcDbLine
 10
79.2358880431
 20
55.5518443062
 30
0.0
 11
79.2358880431
 21
55.0297331905
 31
0.0
  0
LINE
  5
30C
330
1F
100
AcDbEntity
  8
0
  6
Continuous
 62
     7
370
    18
100
AcDbLine
 10
80.9292162648
 20
55.0297331905
 30
0.0
 11
80.9292162648
 21
54.5076220748
 31
0.0
  0
LINE
  5
30D
330
1F
100
AcDbEntity
  8
0
  6
Continuous
 62
     7
370
    18
100
AcDbLine
 10
80.9292162648
 20
55.5518443062
 30
0.0
 11
80.9292162648
 21
55.0297331905
 31
0.0
  0
LINE
  5
30E
330
1F
100
AcDbEntity
  8
0
  6
Continuous
 62
     7
370
    18
100
AcDbLine
 10
77.5425523709
 20
55.0297331905
 30
0.0
 11
77.5425523709
 21
54.8039553945
 31
0.0
  0
LINE
  5
30F
330
1F
100
AcDbEntity
  8
0
  6
Continuous
 62
     7
370
    18
100
AcDbLine
 10
77.5425523709
 20
55.2555109865
 30
0.0
 11
77.5425523709
 21
55.0297331905
 31
0.0
  0
LINE
  5
310
330
1F
100
AcDbEntity
  8
0
  6
Continuous
 62
     7
370
    18
100
AcDbLine
 10
76.4136602671
 20
55.0297331905
 30
0.0
 11
76.4136602671
 21
54.8039553945
 31
0.0
  0
LINE
  5
311
330
1F
100
AcDbEntity
  8
0
  6
Continuous
 62
     7
370
    18
100
AcDbLine
 10
76.4136602671
 20
55.2555109865
 30
0.0
 11
76.4136602671
 21
55.0297331905
 31
0.0
  0
LINE
  5
312
330
1F
100
AcDbEntity
  8
0
  6
Continuous
 62
     7
370
    18
100
AcDbLine
 10
81.105526804
 20
54.8701390475
 30
0.0
 11
80.9292162648
 21
54.8701390475
 31
0.0
  0
LINE
  5
313
330
1F
100
AcDbEntity
  8
0
  6
Continuous
 62
     7
370
    18
100
AcDbLine
 10
80.9292162648
 20
55.289285031
 30
0.0
 11
81.105526804
 21
55.289285031
 31
0.0
  0
LINE
  5
314
330
1F
100
AcDbEntity
  8
0
  6
Continuous
 62
     7
370
    18
100
AcDbLine
 10
80.9292162648
 20
54.6864018607
 30
0.0
 11
81.105526804
 21
54.6864018607
 31
0.0
  0
LINE
  5
315
330
1F
100
AcDbEntity
  8
0
  6
Continuous
 62
     7
370
    18
100
AcDbLine
 10
80.9292162648
 20
55.3997475718
 30
0.0
 11
81.105526804
 21
55.3997475718
 31
0.0
  0
LINE
  5
316
330
1F
100
AcDbEntity
  8
0
  6
Continuous
 62
     7
370
    18
100
AcDbLine
 10
80.9292162648
 20
54.6062301986
 30
0.0
 11
81.105526804
 21
54.6062301986
 31
0.0
  0
LINE
  5
317
330
1F
100
AcDbEntity
  8
0
  6
Continuous
 62
     7
370
    18
100
AcDbLine
 10
81.105526804
 20
55.5001071253
 30
0.0
 11
80.9292162648
 21
55.5001071253
 31
0.0
  0
LINE
  5
318
330
1F
100
AcDbEntity
  8
0
  6
Continuous
 62
     7
370
    18
100
AcDbLine
 10
11.1577625266
 20
54.3665109887
 30
0.0
 11
12.8200913659
 21
54.3665109887
 31
0.0
  0
LINE
  5
319
330
1F
100
AcDbEntity
  8
0
  6
Continuous
 62
     7
370
    18
100
AcDbLine
 10
12.8200913659
 20
55.6929553923
 30
0.0
 11
11.1577625266
 21
55.6929553923
 31
0.0
  0
ARC
  5
31A
330
1F
100
AcDbEntity
  8
0
  6
Continuous
 62
     7
370
    18
100
AcDbCircle
 10
12.8200944149
 20
55.6703873342
 30
0.0
 40
0.022568084352982
100
AcDbArc
 50
3.1964508648
 51
90.0106758509
  0
ARC
  5
31B
330
1F
100
AcDbEntity
  8
0
  6
Continuous
 62
     7
370
    18
100
AcDbCircle
 10
12.8200944149
 20
54.3890790468
 30
0.0
 40
0.022568084352958
100
AcDbArc
 50
269.989324149
 51
356.8035491353
  0
LINE
  5
31C
330
1F
100
AcDbEntity
  8
0
  6
Continuous
 62
     7
370
    18
100
AcDbLine
 10
14.4202500772
 20
54.7055612227
 30
0.0
 11
14.9508307567
 21
54.8124220868
 31
0.0
  0
LINE
  5
31D
330
1F
100
AcDbEntity
  8
0
  6
Continuous
 62
     7
370
    18
100
AcDbLine
 10
13.9178946804
 20
54.6043844337
 30
0.0
 11
14.349698046
 21
54.6913509864
 31
0.0
  0
LINE
  5
31E
330
1F
100
AcDbEntity
  8
0
  6
Continuous
 62
     7
370
    18
100
AcDbLine
 10
13.4155417672
 20
54.5032076446
 30
0.0
 11
13.8473426492
 21
54.5901741974
 31
0.0
  0
LINE
  5
31F
330
1F
100
AcDbEntity
  8
0
  6
Continuous
 62
     7
370
    18
100
AcDbLine
 10
12.9131863704
 20
54.4020308944
 30
0.0
 11
13.344989736
 21
54.4889974084
 31
0.0
  0
LINE
  5
320
330
1F
100
AcDbEntity
  8
0
  6
Continuous
 62
     7
370
    18
100
AcDbLine
 10
13.344989736
 20
55.5704689726
 30
0.0
 11
12.9131863704
 21
55.6574354866
 31
0.0
  0
LINE
  5
321
330
1F
100
AcDbEntity
  8
0
  6
Continuous
 62
     7
370
    18
100
AcDbLine
 10
13.8473426492
 20
55.4692921836
 30
0.0
 11
13.4155417672
 21
55.5562587364
 31
0.0
  0
LINE
  5
322
330
1F
100
AcDbEntity
  8
0
  6
Continuous
 62
     7
370
    18
100
AcDbLine
 10
14.349698046
 20
55.3681153946
 30
0.0
 11
13.9178946804
 21
55.4550819473
 31
0.0
  0
LINE
  5
323
330
1F
100
AcDbEntity
  8
0
  6
Continuous
 62
     7
370
    18
100
AcDbLine
 10
14.9508307567
 20
55.2470442942
 30
0.0
 11
14.4202500772
 21
55.3539051583
 31
0.0
  0
LINE
  5
324
330
1F
100
AcDbEntity
  8
0
  6
Continuous
 62
     7
370
    18
100
AcDbLine
 10
11.1351872674
 20
53.9637776156
 30
0.0
 11
11.1577625266
 21
53.9863554359
 31
0.0
  0
LINE
  5
325
330
1F
100
AcDbEntity
  8
0
  6
Continuous
 62
     7
370
    18
100
AcDbLine
 10
11.1577625266
 20
56.0731109451
 30
0.0
 11
11.1351872674
 21
56.0956887654
 31
0.0
  0
LINE
  5
326
330
1F
100
AcDbEntity
  8
0
  6
Continuous
 62
     7
370
    18
100
AcDbLine
 10
9.2047964723
 20
56.0956887654
 30
0.0
 11
9.1822137625
 21
56.0731109451
 31
0.0
  0
LINE
  5
327
330
1F
100
AcDbEntity
  8
0
  6
Continuous
 62
     7
370
    18
100
AcDbLine
 10
9.1822137625
 20
53.9863554359
 30
0.0
 11
9.2047964723
 21
53.9637776156
 31
0.0
  0
LINE
  5
328
330
1F
100
AcDbEntity
  8
0
  6
Continuous
 62
     7
370
    18
100
AcDbLine
 10
8.4202155661
 20
54.0278443044
 30
0.0
 11
9.1822137625
 21
54.0278443044
 31
0.0
  0
LINE
  5
329
330
1F
100
AcDbEntity
  8
0
  6
Continuous
 62
     7
370
    18
100
AcDbLine
 10
9.1822137625
 20
56.0316220766
 30
0.0
 11
8.4202155661
 21
56.0316220766
 31
0.0
  0
LINE
  5
32A
330
1F
100
AcDbEntity
  8
0
  6
Continuous
 62
     7
370
    18
100
AcDbLine
 10
7.7682847968
 20
55.6929553923
 30
0.0
 11
7.7541659465
 21
55.6788442643
 31
0.0
  0
LINE
  5
32B
330
1F
100
AcDbEntity
  8
0
  6
Continuous
 62
     7
370
    18
100
AcDbLine
 10
7.7541659465
 20
54.3806221167
 30
0.0
 11
7.7682847968
 21
54.3665109887
 31
0.0
  0
LINE
  5
32C
330
1F
100
AcDbEntity
  8
0
  6
Continuous
 62
     7
370
    18
100
AcDbLine
 10
7.7682847968
 20
54.3665109887
 30
0.0
 11
8.4202155661
 21
54.3665109887
 31
0.0
  0
LINE
  5
32D
330
1F
100
AcDbEntity
  8
0
  6
Continuous
 62
     7
370
    18
100
AcDbLine
 10
8.4202155661
 20
55.6929553923
 30
0.0
 11
7.7682847968
 21
55.6929553923
 31
0.0
  0
LINE
  5
32E
330
1F
100
AcDbEntity
  8
0
  6
Continuous
 62
     7
370
    18
100
AcDbLine
 10
6.9075018357
 20
54.7519554254
 30
0.0
 11
7.7541659465
 21
54.7519554254
 31
0.0
  0
LINE
  5
32F
330
1F
100
AcDbEntity
  8
0
  6
Continuous
 62
     7
370
    18
100
AcDbLine
 10
7.7541659465
 20
55.3075109556
 30
0.0
 11
6.9075018357
 21
55.3075109556
 31
0.0
  0
LINE
  5
330
330
1F
100
AcDbEntity
  8
0
  6
Continuous
 62
     7
370
    18
100
AcDbLine
 10
6.9075018357
 20
55.3075109556
 30
0.0
 11
6.8510636877
 21
55.2510665212
 31
0.0
  0
LINE
  5
331
330
1F
100
AcDbEntity
  8
0
  6
Continuous
 62
     7
370
    18
100
AcDbLine
 10
6.8510636877
 20
54.8083998599
 30
0.0
 11
6.9075018357
 21
54.7519554254
 31
0.0
  0
LINE
  5
332
330
1F
100
AcDbEntity
  8
0
  6
Continuous
 62
     7
370
    18
100
AcDbLine
 10
14.9508307567
 20
54.9297331955
 30
0.0
 11
43.2516191655
 21
54.9297331955
 31
0.0
  0
LINE
  5
333
330
1F
100
AcDbEntity
  8
0
  6
Continuous
 62
     7
370
    18
100
AcDbLine
 10
43.1849479555
 20
55.1297331856
 30
0.0
 11
14.9508307567
 21
55.1297331856
 31
0.0
  0
LINE
  5
334
330
1F
100
AcDbEntity
  8
0
  6
Continuous
 62
     7
370
    18
100
AcDbLine
 10
12.2048124861
 20
54.714548505
 30
0.0
 11
12.4305874299
 21
54.714548505
 31
0.0
  0
ARC
  5
335
330
1F
100
AcDbEntity
  8
0
  6
Continuous
 62
     7
370
    18
100
AcDbCircle
 10
12.1551320749
 20
55.0297331905
 30
0.0
 40
0.418589343624617
100
AcDbArc
 50
311.1518031692
 51
48.8481968308
  0
LINE
  5
336
330
1F
100
AcDbEntity
  8
0
  6
Continuous
 62
     7
370
    18
100
AcDbLine
 10
12.4305874299
 20
55.3449178761
 30
0.0
 11
12.2048124861
 21
55.3449178761
 31
0.0
  0
ARC
  5
337
330
1F
100
AcDbEntity
  8
0
  6
Continuous
 62
     7
370
    18
100
AcDbCircle
 10
12.4802480091
 20
55.0297331905
 30
0.0
 40
0.4185762933572011
100
AcDbArc
 50
131.1497591256
 51
228.8502408744
  0
LINE
  5
338
330
1F
100
AcDbEntity
  8
0
  6
Continuous
 62
     7
370
    18
100
AcDbLine
 10
12.2048124861
 20
54.714548505
 30
0.0
 11
12.2048124861
 21
55.3449178761
 31
0.0
  0
LINE
  5
339
330
1F
100
AcDbEntity
  8
0
  6
Continuous
 62
     7
370
    18
100
AcDbLine
 10
12.4305874299
 20
54.714548505
 30
0.0
 11
12.4305874299
 21
55.3449178761
 31
0.0
  0
LINE
  5
33A
330
1F
100
AcDbEntity
  8
0
  6
Continuous
 62
     7
370
    18
100
AcDbLine
 10
12.8426268887
 20
54.9168442925
 30
0.0
 11
12.8426268887
 21
55.1426220885
 31
0.0
  0
LINE
  5
33B
330
1F
100
AcDbEntity
  8
0
  6
Continuous
 62
     7
370
    18
100
AcDbLine
 10
12.8426268887
 20
54.3878206582
 30
0.0
 11
12.8426268887
 21
54.9168442925
 31
0.0
  0
LINE
  5
33C
330
1F
100
AcDbEntity
  8
0
  6
Continuous
 62
     7
370
    18
100
AcDbLine
 10
12.8426268887
 20
55.1426220885
 30
0.0
 11
12.8426268887
 21
55.6716457229
 31
0.0
  0
SPLINE
  5
33D
330
1F
100
AcDbEntity
  8
0
  6
Continuous
 62
     7
370
    18
100
AcDbSpline
210
0.0
220
0.0
230
1.0
 70
     8
 71
     3
 72
    10
 73
     6
 74
     0
 42
0.000000001
 43
0.00000001
 40
0.0
 40
0.0
 40
0.0
 40
0.0
 40
0.0553926974487336
 40
0.8501818062735885
 40
1.0
 40
1.0
 40
1.0
 40
1.0
 10
13.56088272641483
 20
54.83934732096203
 30
0.0
 10
13.5636780640197
 20
54.84082867605733
 30
0.0
 10
13.60658164668518
 20
54.86356490680007
 30
0.0
 10
13.65659509014823
 20
54.89294530145703
 30
0.0
 10
13.69578588561636
 20
54.9300862801525
 30
0.0
 10
13.7020016899743
 20
54.93597697602829
 30
0.0
  0
LINE
  5
33E
330
1F
100
AcDbEntity
  8
0
  6
Continuous
 62
     7
370
    18
100
AcDbLine
 10
13.70200169
 20
54.935976976
 30
0.0
 11
13.70200169
 21
55.123489405
 31
0.0
  0
SPLINE
  5
33F
330
1F
100
AcDbEntity
  8
0
  6
Continuous
 62
     7
370
    18
100
AcDbSpline
210
0.0
220
0.0
230
1.0
 70
     8
 71
     3
 72
     9
 73
     5
 74
     0
 42
0.000000001
 43
0.00000001
 40
0.0
 40
0.0
 40
0.0
 40
0.0
 40
0.3160488982115029
 40
1.0
 40
1.0
 40
1.0
 40
1.0
 10
13.7020016899743
 20
55.12348940499371
 30
0.0
 10
13.68853565989731
 20
55.13559347564931
 30
0.0
 10
13.64592823378954
 20
55.17389157041912
 30
0.0
 10
13.59542468455679
 20
55.20134337088515
 30
0.0
 10
13.56088272641483
 20
55.22011906005996
 30
0.0
  0
LINE
  5
340
330
1F
100
AcDbEntity
  8
0
  6
Continuous
 62
     7
370
    18
100
AcDbLine
 10
13.5608827264
 20
55.2201190601
 30
0.0
 11
13.5608827264
 21
54.839347321
 31
0.0
  0
LINE
  5
341
330
1F
100
AcDbEntity
  8
0
  6
Continuous
 62
     7
370
    18
100
AcDbLine
 10
13.9178946804
 20
54.9168442925
 30
0.0
 11
13.8473426492
 21
54.9168442925
 31
0.0
  0
LINE
  5
342
330
1F
100
AcDbEntity
  8
0
  6
Continuous
 62
     7
370
    18
100
AcDbLine
 10
13.8473426492
 20
54.9168442925
 30
0.0
 11
13.8473426492
 21
54.5901741974
 31
0.0
  0
LINE
  5
343
330
1F
100
AcDbEntity
  8
0
  6
Continuous
 62
     7
370
    18
100
AcDbLine
 10
13.9178946804
 20
54.6043844337
 30
0.0
 11
13.9178946804
 21
54.9168442925
 31
0.0
  0
LINE
  5
344
330
1F
100
AcDbEntity
  8
0
  6
Continuous
 62
     7
370
    18
100
AcDbLine
 10
12.9131863704
 20
55.1426220885
 30
0.0
 11
12.8426268887
 21
55.1426220885
 31
0.0
  0
LINE
  5
345
330
1F
100
AcDbEntity
  8
0
  6
Continuous
 62
     7
370
    18
100
AcDbLine
 10
12.9131863704
 20
55.6574354866
 30
0.0
 11
12.9131863704
 21
55.1426220885
 31
0.0
  0
LINE
  5
346
330
1F
100
AcDbEntity
  8
0
  6
Continuous
 62
     7
370
    18
100
AcDbLine
 10
12.9131863704
 20
54.4020308944
 30
0.0
 11
12.9131863704
 21
54.9168442925
 31
0.0
  0
LINE
  5
347
330
1F
100
AcDbEntity
  8
0
  6
Continuous
 62
     7
370
    18
100
AcDbLine
 10
12.9131863704
 20
54.9168442925
 30
0.0
 11
12.8426268887
 21
54.9168442925
 31
0.0
  0
LINE
  5
348
330
1F
100
AcDbEntity
  8
0
  6
Continuous
 62
     7
370
    18
100
AcDbLine
 10
14.9508307567
 20
55.0297331905
 30
0.0
 11
14.9508307567
 21
55.2470442942
 31
0.0
  0
LINE
  5
349
330
1F
100
AcDbEntity
  8
0
  6
Continuous
 62
     7
370
    18
100
AcDbLine
 10
14.9508307567
 20
54.8124220868
 30
0.0
 11
14.9508307567
 21
55.0297331905
 31
0.0
  0
LINE
  5
34A
330
1F
100
AcDbEntity
  8
0
  6
Continuous
 62
     7
370
    18
100
AcDbLine
 10
13.4155417672
 20
55.1426220885
 30
0.0
 11
13.344989736
 21
55.1426220885
 31
0.0
  0
LINE
  5
34B
330
1F
100
AcDbEntity
  8
0
  6
Continuous
 62
     7
370
    18
100
AcDbLine
 10
13.4155417672
 20
55.5562587364
 30
0.0
 11
13.4155417672
 21
55.1426220885
 31
0.0
  0
LINE
  5
34C
330
1F
100
AcDbEntity
  8
0
  6
Continuous
 62
     7
370
    18
100
AcDbLine
 10
13.344989736
 20
55.1426220885
 30
0.0
 11
13.344989736
 21
55.5704689726
 31
0.0
  0
LINE
  5
34D
330
1F
100
AcDbEntity
  8
0
  6
Continuous
 62
     7
370
    18
100
AcDbLine
 10
13.9178946804
 20
55.1426220885
 30
0.0
 11
13.8473426492
 21
55.1426220885
 31
0.0
  0
LINE
  5
34E
330
1F
100
AcDbEntity
  8
0
  6
Continuous
 62
     7
370
    18
100
AcDbLine
 10
13.9178946804
 20
55.4550819473
 30
0.0
 11
13.9178946804
 21
55.1426220885
 31
0.0
  0
LINE
  5
34F
330
1F
100
AcDbEntity
  8
0
  6
Continuous
 62
     7
370
    18
100
AcDbLine
 10
13.8473426492
 20
55.1426220885
 30
0.0
 11
13.8473426492
 21
55.4692921836
 31
0.0
  0
LINE
  5
350
330
1F
100
AcDbEntity
  8
0
  6
Continuous
 62
     7
370
    18
100
AcDbLine
 10
14.4202500772
 20
55.1426220885
 30
0.0
 11
14.349698046
 21
55.1426220885
 31
0.0
  0
LINE
  5
351
330
1F
100
AcDbEntity
  8
0
  6
Continuous
 62
     7
370
    18
100
AcDbLine
 10
14.4202500772
 20
55.3539051583
 30
0.0
 11
14.4202500772
 21
55.1426220885
 31
0.0
  0
LINE
  5
352
330
1F
100
AcDbEntity
  8
0
  6
Continuous
 62
     7
370
    18
100
AcDbLine
 10
14.349698046
 20
55.1426220885
 30
0.0
 11
14.349698046
 21
55.3681153946
 31
0.0
  0
LINE
  5
353
330
1F
100
AcDbEntity
  8
0
  6
Continuous
 62
     7
370
    18
100
AcDbLine
 10
13.4155417672
 20
54.9168442925
 30
0.0
 11
13.344989736
 21
54.9168442925
 31
0.0
  0
LINE
  5
354
330
1F
100
AcDbEntity
  8
0
  6
Continuous
 62
     7
370
    18
100
AcDbLine
 10
13.344989736
 20
54.9168442925
 30
0.0
 11
13.344989736
 21
54.4889974084
 31
0.0
  0
LINE
  5
355
330
1F
100
AcDbEntity
  8
0
  6
Continuous
 62
     7
370
    18
100
AcDbLine
 10
13.4155417672
 20
54.5032076446
 30
0.0
 11
13.4155417672
 21
54.9168442925
 31
0.0
  0
LINE
  5
356
330
1F
100
AcDbEntity
  8
0
  6
Continuous
 62
     7
370
    18
100
AcDbLine
 10
14.4202500772
 20
54.9168442925
 30
0.0
 11
14.349698046
 21
54.9168442925
 31
0.0
  0
LINE
  5
357
330
1F
100
AcDbEntity
  8
0
  6
Continuous
 62
     7
370
    18
100
AcDbLine
 10
14.349698046
 20
54.9168442925
 30
0.0
 11
14.349698046
 21
54.6913509864
 31
0.0
  0
LINE
  5
358
330
1F
100
AcDbEntity
  8
0
  6
Continuous
 62
     7
370
    18
100
AcDbLine
 10
14.4202500772
 20
54.7055612227
 30
0.0
 11
14.4202500772
 21
54.9168442925
 31
0.0
  0
LINE
  5
359
330
1F
100
AcDbEntity
  8
0
  6
Continuous
 62
     7
370
    18
100
AcDbLine
 10
13.0585298132
 20
54.6461913876
 30
0.0
 11
13.1996388426
 21
54.6922471904
 31
0.0
  0
LINE
  5
35A
330
1F
100
AcDbEntity
  8
0
  6
Continuous
 62
     7
370
    18
100
AcDbLine
 10
13.1996388426
 20
54.6922471904
 30
0.0
 11
13.1996388426
 21
55.3672191906
 31
0.0
  0
LINE
  5
35B
330
1F
100
AcDbEntity
  8
0
  6
Continuous
 62
     7
370
    18
100
AcDbLine
 10
13.1996388426
 20
55.3672191906
 30
0.0
 11
13.0585298132
 21
55.4132749934
 31
0.0
  0
LINE
  5
35C
330
1F
100
AcDbEntity
  8
0
  6
Continuous
 62
     7
370
    18
100
AcDbLine
 10
13.0585298132
 20
55.4132749934
 30
0.0
 11
13.0585298132
 21
54.6461913876
 31
0.0
  0
LINE
  5
35D
330
1F
100
AcDbEntity
  8
0
  6
Continuous
 62
     7
370
    18
100
AcDbLine
 10
9.2499519578
 20
54.9854600362
 30
0.0
 11
11.0900317819
 21
54.9854600362
 31
0.0
  0
LINE
  5
35E
330
1F
100
AcDbEntity
  8
0
  6
Continuous
 62
     7
370
    18
100
AcDbLine
 10
11.0900317819
 20
54.9577133125
 30
0.0
 11
11.0900317819
 21
54.9854600362
 31
0.0
  0
LINE
  5
35F
330
1F
100
AcDbEntity
  8
0
  6
Continuous
 62
     7
370
    18
100
AcDbLine
 10
9.2499519578
 20
54.9577133125
 30
0.0
 11
11.0900317819
 21
54.9577133125
 31
0.0
  0
LINE
  5
360
330
1F
100
AcDbEntity
  8
0
  6
Continuous
 62
     7
370
    18
100
AcDbLine
 10
9.2499519578
 20
54.9854600362
 30
0.0
 11
9.2499519578
 21
54.9577133125
 31
0.0
  0
LINE
  5
361
330
1F
100
AcDbEntity
  8
0
  6
Continuous
 62
     7
370
    18
100
AcDbLine
 10
9.2499519578
 20
55.0740063449
 30
0.0
 11
11.0900317819
 21
55.0740063449
 31
0.0
  0
LINE
  5
362
330
1F
100
AcDbEntity
  8
0
  6
Continuous
 62
     7
370
    18
100
AcDbLine
 10
9.2499519578
 20
55.1017530685
 30
0.0
 11
9.2499519578
 21
55.0740063449
 31
0.0
  0
LINE
  5
363
330
1F
100
AcDbEntity
  8
0
  6
Continuous
 62
     7
370
    18
100
AcDbLine
 10
9.2499519578
 20
55.1017530685
 30
0.0
 11
11.0900317819
 21
55.1017530685
 31
0.0
  0
LINE
  5
364
330
1F
100
AcDbEntity
  8
0
  6
Continuous
 62
     7
370
    18
100
AcDbLine
 10
11.0900317819
 20
55.0740063449
 30
0.0
 11
11.0900317819
 21
55.1017530685
 31
0.0
  0
LINE
  5
365
330
1F
100
AcDbEntity
  8
0
  6
Continuous
 62
     7
370
    18
100
AcDbLine
 10
11.1577625266
 20
56.0731109451
 30
0.0
 11
11.1577625266
 21
53.9863554359
 31
0.0
  0
LINE
  5
366
330
1F
100
AcDbEntity
  8
0
  6
Continuous
 62
     7
370
    18
100
AcDbLine
 10
11.1351872674
 20
54.918310495
 30
0.0
 11
11.0900317819
 21
54.9577133125
 31
0.0
  0
LINE
  5
367
330
1F
100
AcDbEntity
  8
0
  6
Continuous
 62
     7
370
    18
100
AcDbLine
 10
11.0900317819
 20
54.9854600362
 30
0.0
 11
11.1351872674
 21
55.0297331905
 31
0.0
  0
LINE
  5
368
330
1F
100
AcDbEntity
  8
0
  6
Continuous
 62
     7
370
    18
100
AcDbLine
 10
11.1351872674
 20
55.0297331905
 30
0.0
 11
11.0900317819
 21
55.0740063449
 31
0.0
  0
LINE
  5
369
330
1F
100
AcDbEntity
  8
0
  6
Continuous
 62
     7
370
    18
100
AcDbLine
 10
11.0900317819
 20
55.1017530685
 30
0.0
 11
11.1351872674
 21
55.141155886
 31
0.0
  0
LINE
  5
36A
330
1F
100
AcDbEntity
  8
0
  6
Continuous
 62
     7
370
    18
100
AcDbLine
 10
11.1351872674
 20
55.141155886
 30
0.0
 11
11.0900317819
 21
55.1898143085
 31
0.0
  0
LINE
  5
36B
330
1F
100
AcDbEntity
  8
0
  6
Continuous
 62
     7
370
    18
100
AcDbLine
 10
11.0900317819
 20
55.1898143085
 30
0.0
 11
11.0900317819
 21
55.2172570282
 31
0.0
  0
LINE
  5
36C
330
1F
100
AcDbEntity
  8
0
  6
Continuous
 62
     7
370
    18
100
AcDbLine
 10
11.0900317819
 20
55.2172570282
 30
0.0
 11
11.1351872674
 21
55.2513578311
 31
0.0
  0
LINE
  5
36D
330
1F
100
AcDbEntity
  8
0
  6
Continuous
 62
     7
370
    18
100
AcDbLine
 10
11.1351872674
 20
55.2513578311
 30
0.0
 11
11.0900317819
 21
55.3038683978
 31
0.0
  0
LINE
  5
36E
330
1F
100
AcDbEntity
  8
0
  6
Continuous
 62
     7
370
    18
100
AcDbLine
 10
11.0900317819
 20
55.3038683978
 30
0.0
 11
11.0900317819
 21
55.3307064563
 31
0.0
  0
LINE
  5
36F
330
1F
100
AcDbEntity
  8
0
  6
Continuous
 62
     7
370
    18
100
AcDbLine
 10
11.0900317819
 20
55.3307064563
 30
0.0
 11
11.1351872674
 21
55.3591315466
 31
0.0
  0
LINE
  5
370
330
1F
100
AcDbEntity
  8
0
  6
Continuous
 62
     7
370
    18
100
AcDbLine
 10
11.1351872674
 20
55.3591315466
 30
0.0
 11
11.0900317819
 21
55.4149190106
 31
0.0
  0
LINE
  5
371
330
1F
100
AcDbEntity
  8
0
  6
Continuous
 62
     7
370
    18
100
AcDbLine
 10
11.0900317819
 20
55.4149190106
 30
0.0
 11
11.0900317819
 21
55.4408583621
 31
0.0
  0
LINE
  5
372
330
1F
100
AcDbEntity
  8
0
  6
Continuous
 62
     7
370
    18
100
AcDbLine
 10
11.0900317819
 20
55.4408583621
 30
0.0
 11
11.1351872674
 21
55.4632963677
 31
0.0
  0
LINE
  5
373
330
1F
100
AcDbEntity
  8
0
  6
Continuous
 62
     7
370
    18
100
AcDbLine
 10
11.1351872674
 20
55.4632963677
 30
0.0
 11
11.0900317819
 21
55.5217493933
 31
0.0
  0
LINE
  5
374
330
1F
100
AcDbEntity
  8
0
  6
Continuous
 62
     7
370
    18
100
AcDbLine
 10
11.0900317819
 20
55.5217493933
 30
0.0
 11
11.0900317819
 21
55.5465058876
 31
0.0
  0
LINE
  5
375
330
1F
100
AcDbEntity
  8
0
  6
Continuous
 62
     7
370
    18
100
AcDbLine
 10
11.0900317819
 20
55.5465058876
 30
0.0
 11
11.1351872674
 21
55.562710978
 31
0.0
  0
LINE
  5
376
330
1F
100
AcDbEntity
  8
0
  6
Continuous
 62
     7
370
    18
100
AcDbLine
 10
11.1351872674
 20
55.562710978
 30
0.0
 11
11.0900317819
 21
55.6231892033
 31
0.0
  0
LINE
  5
377
330
1F
100
AcDbEntity
  8
0
  6
Continuous
 62
     7
370
    18
100
AcDbLine
 10
11.0900317819
 20
55.6231892033
 30
0.0
 11
11.0900317819
 21
55.646491515
 31
0.0
  0
LINE
  5
378
330
1F
100
AcDbEntity
  8
0
  6
Continuous
 62
     7
370
    18
100
AcDbLine
 10
11.0900317819
 20
55.646491515
 30
0.0
 11
11.1351872674
 21
55.6562861569
 31
0.0
  0
LINE
  5
379
330
1F
100
AcDbEntity
  8
0
  6
Continuous
 62
     7
370
    18
100
AcDbLine
 10
11.1351872674
 20
55.6562861569
 30
0.0
 11
11.0900317819
 21
55.7181270236
 31
0.0
  0
LINE
  5
37A
330
1F
100
AcDbEntity
  8
0
  6
Continuous
 62
     7
370
    18
100
AcDbLine
 10
11.0900317819
 20
55.7181270236
 30
0.0
 11
11.0900317819
 21
55.7397198151
 31
0.0
  0
LINE
  5
37B
330
1F
100
AcDbEntity
  8
0
  6
Continuous
 62
     7
370
    18
100
AcDbLine
 10
11.0900317819
 20
55.7397198151
 30
0.0
 11
11.1351872674
 21
55.7429966736
 31
0.0
  0
LINE
  5
37C
330
1F
100
AcDbEntity
  8
0
  6
Continuous
 62
     7
370
    18
100
AcDbLine
 10
11.1351872674
 20
55.7429966736
 30
0.0
 11
11.0900317819
 21
55.8055225669
 31
0.0
  0
LINE
  5
37D
330
1F
100
AcDbEntity
  8
0
  6
Continuous
 62
     7
370
    18
100
AcDbLine
 10
11.0900317819
 20
55.8055225669
 30
0.0
 11
11.0900317819
 21
55.8251693598
 31
0.0
  0
LINE
  5
37E
330
1F
100
AcDbEntity
  8
0
  6
Continuous
 62
     7
370
    18
100
AcDbLine
 10
11.0900317819
 20
55.8251693598
 30
0.0
 11
11.1351872674
 21
55.8218925014
 31
0.0
  0
LINE
  5
37F
330
1F
100
AcDbEntity
  8
0
  6
Continuous
 62
     7
370
    18
100
AcDbLine
 10
11.1351872674
 20
55.8218925014
 30
0.0
 11
11.0900317819
 21
55.8844183946
 31
0.0
  0
LINE
  5
380
330
1F
100
AcDbEntity
  8
0
  6
Continuous
 62
     7
370
    18
100
AcDbLine
 10
11.0900317819
 20
55.8844183946
 30
0.0
 11
11.0900317819
 21
55.901903976
 31
0.0
  0
LINE
  5
381
330
1F
100
AcDbEntity
  8
0
  6
Continuous
 62
     7
370
    18
100
AcDbLine
 10
11.0900317819
 20
55.901903976
 30
0.0
 11
11.1351872674
 21
55.892109334
 31
0.0
  0
LINE
  5
382
330
1F
100
AcDbEntity
  8
0
  6
Continuous
 62
     7
370
    18
100
AcDbLine
 10
11.1351872674
 20
55.892109334
 30
0.0
 11
11.0900317819
 21
55.9539501619
 31
0.0
  0
LINE
  5
383
330
1F
100
AcDbEntity
  8
0
  6
Continuous
 62
     7
370
    18
100
AcDbLine
 10
11.0900317819
 20
55.9539501619
 30
0.0
 11
11.0900317819
 21
55.9690828344
 31
0.0
  0
LINE
  5
384
330
1F
100
AcDbEntity
  8
0
  6
Continuous
 62
     7
370
    18
100
AcDbLine
 10
11.0900317819
 20
55.9690828344
 30
0.0
 11
11.1351872674
 21
55.9528778216
 31
0.0
  0
LINE
  5
385
330
1F
100
AcDbEntity
  8
0
  6
Continuous
 62
     7
370
    18
100
AcDbLine
 10
11.1351872674
 20
55.9528778216
 30
0.0
 11
11.0900317819
 21
56.0133560469
 31
0.0
  0
LINE
  5
386
330
1F
100
AcDbEntity
  8
0
  6
Continuous
 62
     7
370
    18
100
AcDbLine
 10
11.0900317819
 20
56.0133560469
 30
0.0
 11
11.0900317819
 21
56.0259701127
 31
0.0
  0
LINE
  5
387
330
1F
100
AcDbEntity
  8
0
  6
Continuous
 62
     7
370
    18
100
AcDbLine
 10
11.0900317819
 20
56.0259701127
 30
0.0
 11
11.1351872674
 21
56.0035320684
 31
0.0
  0
LINE
  5
388
330
1F
100
AcDbEntity
  8
0
  6
Continuous
 62
     7
370
    18
100
AcDbLine
 10
11.1351872674
 20
56.0035320684
 30
0.0
 11
11.0900317819
 21
56.0619850552
 31
0.0
  0
LINE
  5
389
330
1F
100
AcDbEntity
  8
0
  6
Continuous
 62
     7
370
    18
100
AcDbLine
 10
11.0900317819
 20
56.0619850552
 30
0.0
 11
11.0900317819
 21
56.0719422129
 31
0.0
  0
LINE
  5
38A
330
1F
100
AcDbEntity
  8
0
  6
Continuous
 62
     7
370
    18
100
AcDbLine
 10
11.0900317819
 20
56.0719422129
 30
0.0
 11
11.1351872674
 21
56.0435171614
 31
0.0
  0
LINE
  5
38B
330
1F
100
AcDbEntity
  8
0
  6
Continuous
 62
     7
370
    18
100
AcDbLine
 10
11.1351872674
 20
56.0435171614
 30
0.0
 11
11.0900317819
 21
56.0993046253
 31
0.0
  0
LINE
  5
38C
330
1F
100
AcDbEntity
  8
0
  6
Continuous
 62
     7
370
    18
100
AcDbLine
 10
11.0900317819
 20
56.0993046253
 30
0.0
 11
11.0900317819
 21
56.1064958326
 31
0.0
  0
LINE
  5
38D
330
1F
100
AcDbEntity
  8
0
  6
Continuous
 62
     7
370
    18
100
AcDbLine
 10
11.0900317819
 20
56.1064958326
 30
0.0
 11
11.1351872674
 21
56.0723950685
 31
0.0
  0
LINE
  5
38E
330
1F
100
AcDbEntity
  8
0
  6
Continuous
 62
     7
370
    18
100
AcDbLine
 10
11.1351872674
 20
56.0723950685
 30
0.0
 11
11.0900317819
 21
56.1249055964
 31
0.0
  0
LINE
  5
38F
330
1F
100
AcDbEntity
  8
0
  6
Continuous
 62
     7
370
    18
100
AcDbLine
 10
11.0900317819
 20
56.1249055964
 30
0.0
 11
11.0900317819
 21
56.1292520788
 31
0.0
  0
LINE
  5
390
330
1F
100
AcDbEntity
  8
0
  6
Continuous
 62
     7
370
    18
100
AcDbLine
 10
11.0900317819
 20
56.1292520788
 30
0.0
 11
11.1351872674
 21
56.0898492953
 31
0.0
  0
LINE
  5
391
330
1F
100
AcDbEntity
  8
0
  6
Continuous
 62
     7
370
    18
100
AcDbLine
 10
11.1351872674
 20
56.0898492953
 30
0.0
 11
11.0900317819
 21
56.1385077954
 31
0.0
  0
LINE
  5
392
330
1F
100
AcDbEntity
  8
0
  6
Continuous
 62
     7
370
    18
100
AcDbLine
 10
11.0900317819
 20
56.1385077954
 30
0.0
 11
11.0900317819
 21
56.1399619004
 31
0.0
  0
LINE
  5
393
330
1F
100
AcDbEntity
  8
0
  6
Continuous
 62
     7
370
    18
100
AcDbLine
 10
11.0900317819
 20
56.1399619004
 30
0.0
 11
11.1351872674
 21
56.0956887654
 31
0.0
  0
LINE
  5
394
330
1F
100
AcDbEntity
  8
0
  6
Continuous
 62
     7
370
    18
100
AcDbLine
 10
11.1351872674
 20
53.9637776156
 30
0.0
 11
11.0900317819
 21
53.9195044806
 31
0.0
  0
LINE
  5
395
330
1F
100
AcDbEntity
  8
0
  6
Continuous
 62
     7
370
    18
100
AcDbLine
 10
11.0900317819
 20
53.9195044806
 30
0.0
 11
11.0900317819
 21
53.9209585856
 31
0.0
  0
LINE
  5
396
330
1F
100
AcDbEntity
  8
0
  6
Continuous
 62
     7
370
    18
100
AcDbLine
 10
11.0900317819
 20
53.9209585856
 30
0.0
 11
11.1351872674
 21
53.9696170857
 31
0.0
  0
LINE
  5
397
330
1F
100
AcDbEntity
  8
0
  6
Continuous
 62
     7
370
    18
100
AcDbLine
 10
11.1351872674
 20
53.9696170857
 30
0.0
 11
11.0900317819
 21
53.9302143022
 31
0.0
  0
LINE
  5
398
330
1F
100
AcDbEntity
  8
0
  6
Continuous
 62
     7
370
    18
100
AcDbLine
 10
11.0900317819
 20
53.9302143022
 30
0.0
 11
11.0900317819
 21
53.9345607846
 31
0.0
  0
LINE
  5
399
330
1F
100
AcDbEntity
  8
0
  6
Continuous
 62
     7
370
    18
100
AcDbLine
 10
11.0900317819
 20
53.9345607846
 30
0.0
 11
11.1351872674
 21
53.9870713125
 31
0.0
  0
LINE
  5
39A
330
1F
100
AcDbEntity
  8
0
  6
Continuous
 62
     7
370
    18
100
AcDbLine
 10
11.1351872674
 20
53.9870713125
 30
0.0
 11
11.0900317819
 21
53.9529705484
 31
0.0
  0
LINE
  5
39B
330
1F
100
AcDbEntity
  8
0
  6
Continuous
 62
     7
370
    18
100
AcDbLine
 10
11.0900317819
 20
53.9529705484
 30
0.0
 11
11.0900317819
 21
53.9601617557
 31
0.0
  0
LINE
  5
39C
330
1F
100
AcDbEntity
  8
0
  6
Continuous
 62
     7
370
    18
100
AcDbLine
 10
11.0900317819
 20
53.9601617557
 30
0.0
 11
11.1351872674
 21
54.0159492197
 31
0.0
  0
LINE
  5
39D
330
1F
100
AcDbEntity
  8
0
  6
Continuous
 62
     7
370
    18
100
AcDbLine
 10
11.1351872674
 20
54.0159492197
 30
0.0
 11
11.0900317819
 21
53.9875241681
 31
0.0
  0
LINE
  5
39E
330
1F
100
AcDbEntity
  8
0
  6
Continuous
 62
     7
370
    18
100
AcDbLine
 10
11.0900317819
 20
53.9875241681
 30
0.0
 11
11.0900317819
 21
53.9974813258
 31
0.0
  0
LINE
  5
39F
330
1F
100
AcDbEntity
  8
0
  6
Continuous
 62
     7
370
    18
100
AcDbLine
 10
11.0900317819
 20
53.9974813258
 30
0.0
 11
11.1351872674
 21
54.0559343126
 31
0.0
  0
LINE
  5
3A0
330
1F
100
AcDbEntity
  8
0
  6
Continuous
 62
     7
370
    18
100
AcDbLine
 10
11.1351872674
 20
54.0559343126
 30
0.0
 11
11.0900317819
 21
54.0334962683
 31
0.0
  0
LINE
  5
3A1
330
1F
100
AcDbEntity
  8
0
  6
Continuous
 62
     7
370
    18
100
AcDbLine
 10
11.0900317819
 20
54.0334962683
 30
0.0
 11
11.0900317819
 21
54.0461103341
 31
0.0
  0
LINE
  5
3A2
330
1F
100
AcDbEntity
  8
0
  6
Continuous
 62
     7
370
    18
100
AcDbLine
 10
11.0900317819
 20
54.0461103341
 30
0.0
 11
11.1351872674
 21
54.1065885594
 31
0.0
  0
LINE
  5
3A3
330
1F
100
AcDbEntity
  8
0
  6
Continuous
 62
     7
370
    18
100
AcDbLine
 10
11.1351872674
 20
54.1065885594
 30
0.0
 11
11.0900317819
 21
54.0903835466
 31
0.0
  0
LINE
  5
3A4
330
1F
100
AcDbEntity
  8
0
  6
Continuous
 62
     7
370
    18
100
AcDbLine
 10
11.0900317819
 20
54.0903835466
 30
0.0
 11
11.0900317819
 21
54.1055162191
 31
0.0
  0
LINE
  5
3A5
330
1F
100
AcDbEntity
  8
0
  6
Continuous
 62
     7
370
    18
100
AcDbLine
 10
11.0900317819
 20
54.1055162191
 30
0.0
 11
11.1351872674
 21
54.167357047
 31
0.0
  0
LINE
  5
3A6
330
1F
100
AcDbEntity
  8
0
  6
Continuous
 62
     7
370
    18
100
AcDbLine
 10
11.1351872674
 20
54.167357047
 30
0.0
 11
11.0900317819
 21
54.1575624051
 31
0.0
  0
LINE
  5
3A7
330
1F
100
AcDbEntity
  8
0
  6
Continuous
 62
     7
370
    18
100
AcDbLine
 10
11.0900317819
 20
54.1575624051
 30
0.0
 11
11.0900317819
 21
54.1750479864
 31
0.0
  0
LINE
  5
3A8
330
1F
100
AcDbEntity
  8
0
  6
Continuous
 62
     7
370
    18
100
AcDbLine
 10
11.0900317819
 20
54.1750479864
 30
0.0
 11
11.1351872674
 21
54.2375738797
 31
0.0
  0
LINE
  5
3A9
330
1F
100
AcDbEntity
  8
0
  6
Continuous
 62
     7
370
    18
100
AcDbLine
 10
11.1351872674
 20
54.2375738797
 30
0.0
 11
11.0900317819
 21
54.2342970212
 31
0.0
  0
LINE
  5
3AA
330
1F
100
AcDbEntity
  8
0
  6
Continuous
 62
     7
370
    18
100
AcDbLine
 10
11.0900317819
 20
54.2342970212
 30
0.0
 11
11.0900317819
 21
54.2539438142
 31
0.0
  0
LINE
  5
3AB
330
1F
100
AcDbEntity
  8
0
  6
Continuous
 62
     7
370
    18
100
AcDbLine
 10
11.0900317819
 20
54.2539438142
 30
0.0
 11
11.1351872674
 21
54.3164697074
 31
0.0
  0
LINE
  5
3AC
330
1F
100
AcDbEntity
  8
0
  6
Continuous
 62
     7
370
    18
100
AcDbLine
 10
11.1351872674
 20
54.3164697074
 30
0.0
 11
11.0900317819
 21
54.3197465659
 31
0.0
  0
LINE
  5
3AD
330
1F
100
AcDbEntity
  8
0
  6
Continuous
 62
     7
370
    18
100
AcDbLine
 10
11.0900317819
 20
54.3197465659
 30
0.0
 11
11.0900317819
 21
54.3413393574
 31
0.0
  0
LINE
  5
3AE
330
1F
100
AcDbEntity
  8
0
  6
Continuous
 62
     7
370
    18
100
AcDbLine
 10
11.0900317819
 20
54.3413393574
 30
0.0
 11
11.1351872674
 21
54.4031802241
 31
0.0
  0
LINE
  5
3AF
330
1F
100
AcDbEntity
  8
0
  6
Continuous
 62
     7
370
    18
100
AcDbLine
 10
11.1351872674
 20
54.4031802241
 30
0.0
 11
11.0900317819
 21
54.412974866
 31
0.0
  0
LINE
  5
3B0
330
1F
100
AcDbEntity
  8
0
  6
Continuous
 62
     7
370
    18
100
AcDbLine
 10
11.0900317819
 20
54.412974866
 30
0.0
 11
11.0900317819
 21
54.4362771777
 31
0.0
  0
LINE
  5
3B1
330
1F
100
AcDbEntity
  8
0
  6
Continuous
 62
     7
370
    18
100
AcDbLine
 10
11.0900317819
 20
54.4362771777
 30
0.0
 11
11.1351872674
 21
54.496755403
 31
0.0
  0
LINE
  5
3B2
330
1F
100
AcDbEntity
  8
0
  6
Continuous
 62
     7
370
    18
100
AcDbLine
 10
11.1351872674
 20
54.496755403
 30
0.0
 11
11.0900317819
 21
54.5129604935
 31
0.0
  0
LINE
  5
3B3
330
1F
100
AcDbEntity
  8
0
  6
Continuous
 62
     7
370
    18
100
AcDbLine
 10
11.0900317819
 20
54.5129604935
 30
0.0
 11
11.0900317819
 21
54.5377169877
 31
0.0
  0
LINE
  5
3B4
330
1F
100
AcDbEntity
  8
0
  6
Continuous
 62
     7
370
    18
100
AcDbLine
 10
11.0900317819
 20
54.5377169877
 30
0.0
 11
11.1351872674
 21
54.5961700133
 31
0.0
  0
LINE
  5
3B5
330
1F
100
AcDbEntity
  8
0
  6
Continuous
 62
     7
370
    18
100
AcDbLine
 10
11.1351872674
 20
54.5961700133
 30
0.0
 11
11.0900317819
 21
54.6186080189
 31
0.0
  0
LINE
  5
3B6
330
1F
100
AcDbEntity
  8
0
  6
Continuous
 62
     7
370
    18
100
AcDbLine
 10
11.0900317819
 20
54.6186080189
 30
0.0
 11
11.0900317819
 21
54.6445473705
 31
0.0
  0
LINE
  5
3B7
330
1F
100
AcDbEntity
  8
0
  6
Continuous
 62
     7
370
    18
100
AcDbLine
 10
11.0900317819
 20
54.6445473705
 30
0.0
 11
11.1351872674
 21
54.7003348344
 31
0.0
  0
LINE
  5
3B8
330
1F
100
AcDbEntity
  8
0
  6
Continuous
 62
     7
370
    18
100
AcDbLine
 10
11.1351872674
 20
54.7003348344
 30
0.0
 11
11.0900317819
 21
54.7287599248
 31
0.0
  0
LINE
  5
3B9
330
1F
100
AcDbEntity
  8
0
  6
Continuous
 62
     7
370
    18
100
AcDbLine
 10
11.0900317819
 20
54.7287599248
 30
0.0
 11
11.0900317819
 21
54.7555979832
 31
0.0
  0
LINE
  5
3BA
330
1F
100
AcDbEntity
  8
0
  6
Continuous
 62
     7
370
    18
100
AcDbLine
 10
11.0900317819
 20
54.7555979832
 30
0.0
 11
11.1351872674
 21
54.8081085499
 31
0.0
  0
LINE
  5
3BB
330
1F
100
AcDbEntity
  8
0
  6
Continuous
 62
     7
370
    18
100
AcDbLine
 10
11.1351872674
 20
54.8081085499
 30
0.0
 11
11.0900317819
 21
54.8422093528
 31
0.0
  0
LINE
  5
3BC
330
1F
100
AcDbEntity
  8
0
  6
Continuous
 62
     7
370
    18
100
AcDbLine
 10
11.0900317819
 20
54.8422093528
 30
0.0
 11
11.0900317819
 21
54.8696520725
 31
0.0
  0
LINE
  5
3BD
330
1F
100
AcDbEntity
  8
0
  6
Continuous
 62
     7
370
    18
100
AcDbLine
 10
11.0900317819
 20
54.8696520725
 30
0.0
 11
11.1351872674
 21
54.918310495
 31
0.0
  0
LINE
  5
3BE
330
1F
100
AcDbEntity
  8
0
  6
Continuous
 62
     7
370
    18
100
AcDbLine
 10
9.2047964723
 20
55.0297331905
 30
0.0
 11
11.1351872674
 21
55.0297331905
 31
0.0
  0
LINE
  5
3BF
330
1F
100
AcDbEntity
  8
0
  6
Continuous
 62
     7
370
    18
100
AcDbLine
 10
9.2047964723
 20
55.0297331905
 30
0.0
 11
9.2499519578
 21
54.9854600362
 31
0.0
  0
LINE
  5
3C0
330
1F
100
AcDbEntity
  8
0
  6
Continuous
 62
     7
370
    18
100
AcDbLine
 10
9.2499519578
 20
55.0740063449
 30
0.0
 11
9.2047964723
 21
55.0297331905
 31
0.0
  0
LINE
  5
3C1
330
1F
100
AcDbEntity
  8
0
  6
Continuous
 62
     7
370
    18
100
AcDbLine
 10
9.1822137625
 20
53.9863554359
 30
0.0
 11
9.1822137625
 21
56.0731109451
 31
0.0
  0
LINE
  5
3C2
330
1F
100
AcDbEntity
  8
0
  6
Continuous
 62
     7
370
    18
100
AcDbLine
 10
9.2499519578
 20
54.8696520725
 30
0.0
 11
9.2499519578
 21
54.8422093528
 31
0.0
  0
LINE
  5
3C3
330
1F
100
AcDbEntity
  8
0
  6
Continuous
 62
     7
370
    18
100
AcDbLine
 10
9.2499519578
 20
54.8422093528
 30
0.0
 11
9.2047964723
 21
54.8081085499
 31
0.0
  0
LINE
  5
3C4
330
1F
100
AcDbEntity
  8
0
  6
Continuous
 62
     7
370
    18
100
AcDbLine
 10
9.2047964723
 20
54.8081085499
 30
0.0
 11
9.2499519578
 21
54.7555979832
 31
0.0
  0
LINE
  5
3C5
330
1F
100
AcDbEntity
  8
0
  6
Continuous
 62
     7
370
    18
100
AcDbLine
 10
9.2499519578
 20
54.7555979832
 30
0.0
 11
9.2499519578
 21
54.7287599248
 31
0.0
  0
LINE
  5
3C6
330
1F
100
AcDbEntity
  8
0
  6
Continuous
 62
     7
370
    18
100
AcDbLine
 10
9.2499519578
 20
54.7287599248
 30
0.0
 11
9.2047964723
 21
54.7003348344
 31
0.0
  0
LINE
  5
3C7
330
1F
100
AcDbEntity
  8
0
  6
Continuous
 62
     7
370
    18
100
AcDbLine
 10
9.2047964723
 20
54.7003348344
 30
0.0
 11
9.2499519578
 21
54.6445473705
 31
0.0
  0
LINE
  5
3C8
330
1F
100
AcDbEntity
  8
0
  6
Continuous
 62
     7
370
    18
100
AcDbLine
 10
9.2499519578
 20
54.6445473705
 30
0.0
 11
9.2499519578
 21
54.6186080189
 31
0.0
  0
LINE
  5
3C9
330
1F
100
AcDbEntity
  8
0
  6
Continuous
 62
     7
370
    18
100
AcDbLine
 10
9.2499519578
 20
54.6186080189
 30
0.0
 11
9.2047964723
 21
54.5961700133
 31
0.0
  0
LINE
  5
3CA
330
1F
100
AcDbEntity
  8
0
  6
Continuous
 62
     7
370
    18
100
AcDbLine
 10
9.2047964723
 20
54.5961700133
 30
0.0
 11
9.2499519578
 21
54.5377169877
 31
0.0
  0
LINE
  5
3CB
330
1F
100
AcDbEntity
  8
0
  6
Continuous
 62
     7
370
    18
100
AcDbLine
 10
9.2499519578
 20
54.5377169877
 30
0.0
 11
9.2499519578
 21
54.5129604935
 31
0.0
  0
LINE
  5
3CC
330
1F
100
AcDbEntity
  8
0
  6
Continuous
 62
     7
370
    18
100
AcDbLine
 10
9.2499519578
 20
54.5129604935
 30
0.0
 11
9.2047964723
 21
54.496755403
 31
0.0
  0
LINE
  5
3CD
330
1F
100
AcDbEntity
  8
0
  6
Continuous
 62
     7
370
    18
100
AcDbLine
 10
9.2047964723
 20
54.496755403
 30
0.0
 11
9.2499519578
 21
54.4362771777
 31
0.0
  0
LINE
  5
3CE
330
1F
100
AcDbEntity
  8
0
  6
Continuous
 62
     7
370
    18
100
AcDbLine
 10
9.2499519578
 20
54.4362771777
 30
0.0
 11
9.2499519578
 21
54.412974866
 31
0.0
  0
LINE
  5
3CF
330
1F
100
AcDbEntity
  8
0
  6
Continuous
 62
     7
370
    18
100
AcDbLine
 10
9.2499519578
 20
54.412974866
 30
0.0
 11
9.2047964723
 21
54.4031802241
 31
0.0
  0
LINE
  5
3D0
330
1F
100
AcDbEntity
  8
0
  6
Continuous
 62
     7
370
    18
100
AcDbLine
 10
9.2047964723
 20
54.4031802241
 30
0.0
 11
9.2499519578
 21
54.3413393574
 31
0.0
  0
LINE
  5
3D1
330
1F
100
AcDbEntity
  8
0
  6
Continuous
 62
     7
370
    18
100
AcDbLine
 10
9.2499519578
 20
54.3413393574
 30
0.0
 11
9.2499519578
 21
54.3197465659
 31
0.0
  0
LINE
  5
3D2
330
1F
100
AcDbEntity
  8
0
  6
Continuous
 62
     7
370
    18
100
AcDbLine
 10
9.2499519578
 20
54.3197465659
 30
0.0
 11
9.2047964723
 21
54.3164697074
 31
0.0
  0
LINE
  5
3D3
330
1F
100
AcDbEntity
  8
0
  6
Continuous
 62
     7
370
    18
100
AcDbLine
 10
9.2047964723
 20
54.3164697074
 30
0.0
 11
9.2499519578
 21
54.2539438142
 31
0.0
  0
LINE
  5
3D4
330
1F
100
AcDbEntity
  8
0
  6
Continuous
 62
     7
370
    18
100
AcDbLine
 10
9.2499519578
 20
54.2539438142
 30
0.0
 11
9.2499519578
 21
54.2342970212
 31
0.0
  0
LINE
  5
3D5
330
1F
100
AcDbEntity
  8
0
  6
Continuous
 62
     7
370
    18
100
AcDbLine
 10
9.2499519578
 20
54.2342970212
 30
0.0
 11
9.2047964723
 21
54.2375738797
 31
0.0
  0
LINE
  5
3D6
330
1F
100
AcDbEntity
  8
0
  6
Continuous
 62
     7
370
    18
100
AcDbLine
 10
9.2047964723
 20
54.2375738797
 30
0.0
 11
9.2499519578
 21
54.1750479864
 31
0.0
  0
LINE
  5
3D7
330
1F
100
AcDbEntity
  8
0
  6
Continuous
 62
     7
370
    18
100
AcDbLine
 10
9.2499519578
 20
54.1750479864
 30
0.0
 11
9.2499519578
 21
54.1575624051
 31
0.0
  0
LINE
  5
3D8
330
1F
100
AcDbEntity
  8
0
  6
Continuous
 62
     7
370
    18
100
AcDbLine
 10
9.2499519578
 20
54.1575624051
 30
0.0
 11
9.2047964723
 21
54.167357047
 31
0.0
  0
LINE
  5
3D9
330
1F
100
AcDbEntity
  8
0
  6
Continuous
 62
     7
370
    18
100
AcDbLine
 10
9.2047964723
 20
54.167357047
 30
0.0
 11
9.2499519578
 21
54.1055162191
 31
0.0
  0
LINE
  5
3DA
330
1F
100
AcDbEntity
  8
0
  6
Continuous
 62
     7
370
    18
100
AcDbLine
 10
9.2499519578
 20
54.1055162191
 30
0.0
 11
9.2499519578
 21
54.0903835466
 31
0.0
  0
LINE
  5
3DB
330
1F
100
AcDbEntity
  8
0
  6
Continuous
 62
     7
370
    18
100
AcDbLine
 10
9.2499519578
 20
54.0903835466
 30
0.0
 11
9.2047964723
 21
54.1065885594
 31
0.0
  0
LINE
  5
3DC
330
1F
100
AcDbEntity
  8
0
  6
Continuous
 62
     7
370
    18
100
AcDbLine
 10
9.2047964723
 20
54.1065885594
 30
0.0
 11
9.2499519578
 21
54.0461103341
 31
0.0
  0
LINE
  5
3DD
330
1F
100
AcDbEntity
  8
0
  6
Continuous
 62
     7
370
    18
100
AcDbLine
 10
9.2499519578
 20
54.0461103341
 30
0.0
 11
9.2499519578
 21
54.0334962683
 31
0.0
  0
LINE
  5
3DE
330
1F
100
AcDbEntity
  8
0
  6
Continuous
 62
     7
370
    18
100
AcDbLine
 10
9.2499519578
 20
54.0334962683
 30
0.0
 11
9.2047964723
 21
54.0559343126
 31
0.0
  0
LINE
  5
3DF
330
1F
100
AcDbEntity
  8
0
  6
Continuous
 62
     7
370
    18
100
AcDbLine
 10
9.2047964723
 20
54.0559343126
 30
0.0
 11
9.2499519578
 21
53.9974813258
 31
0.0
  0
LINE
  5
3E0
330
1F
100
AcDbEntity
  8
0
  6
Continuous
 62
     7
370
    18
100
AcDbLine
 10
9.2499519578
 20
53.9974813258
 30
0.0
 11
9.2499519578
 21
53.9875241681
 31
0.0
  0
LINE
  5
3E1
330
1F
100
AcDbEntity
  8
0
  6
Continuous
 62
     7
370
    18
100
AcDbLine
 10
9.2499519578
 20
53.9875241681
 30
0.0
 11
9.2047964723
 21
54.0159492197
 31
0.0
  0
LINE
  5
3E2
330
1F
100
AcDbEntity
  8
0
  6
Continuous
 62
     7
370
    18
100
AcDbLine
 10
9.2047964723
 20
54.0159492197
 30
0.0
 11
9.2499519578
 21
53.9601617557
 31
0.0
  0
LINE
  5
3E3
330
1F
100
AcDbEntity
  8
0
  6
Continuous
 62
     7
370
    18
100
AcDbLine
 10
9.2499519578
 20
53.9601617557
 30
0.0
 11
9.2499519578
 21
53.9529705484
 31
0.0
  0
LINE
  5
3E4
330
1F
100
AcDbEntity
  8
0
  6
Continuous
 62
     7
370
    18
100
AcDbLine
 10
9.2499519578
 20
53.9529705484
 30
0.0
 11
9.2047964723
 21
53.9870713125
 31
0.0
  0
LINE
  5
3E5
330
1F
100
AcDbEntity
  8
0
  6
Continuous
 62
     7
370
    18
100
AcDbLine
 10
9.2047964723
 20
53.9870713125
 30
0.0
 11
9.2499519578
 21
53.9345607846
 31
0.0
  0
LINE
  5
3E6
330
1F
100
AcDbEntity
  8
0
  6
Continuous
 62
     7
370
    18
100
AcDbLine
 10
9.2499519578
 20
53.9345607846
 30
0.0
 11
9.2499519578
 21
53.9302143022
 31
0.0
  0
LINE
  5
3E7
330
1F
100
AcDbEntity
  8
0
  6
Continuous
 62
     7
370
    18
100
AcDbLine
 10
9.2499519578
 20
53.9302143022
 30
0.0
 11
9.2047964723
 21
53.9696170857
 31
0.0
  0
LINE
  5
3E8
330
1F
100
AcDbEntity
  8
0
  6
Continuous
 62
     7
370
    18
100
AcDbLine
 10
9.2047964723
 20
53.9696170857
 30
0.0
 11
9.2499519578
 21
53.9209585856
 31
0.0
  0
LINE
  5
3E9
330
1F
100
AcDbEntity
  8
0
  6
Continuous
 62
     7
370
    18
100
AcDbLine
 10
9.2499519578
 20
53.9209585856
 30
0.0
 11
9.2499519578
 21
53.9195044806
 31
0.0
  0
LINE
  5
3EA
330
1F
100
AcDbEntity
  8
0
  6
Continuous
 62
     7
370
    18
100
AcDbLine
 10
9.2499519578
 20
53.9195044806
 30
0.0
 11
9.2047964723
 21
53.9637776156
 31
0.0
  0
LINE
  5
3EB
330
1F
100
AcDbEntity
  8
0
  6
Continuous
 62
     7
370
    18
100
AcDbLine
 10
9.2047964723
 20
56.0956887654
 30
0.0
 11
9.2499519578
 21
56.1399619004
 31
0.0
  0
LINE
  5
3EC
330
1F
100
AcDbEntity
  8
0
  6
Continuous
 62
     7
370
    18
100
AcDbLine
 10
9.2499519578
 20
56.1399619004
 30
0.0
 11
9.2499519578
 21
56.1385077954
 31
0.0
  0
LINE
  5
3ED
330
1F
100
AcDbEntity
  8
0
  6
Continuous
 62
     7
370
    18
100
AcDbLine
 10
9.2499519578
 20
56.1385077954
 30
0.0
 11
9.2047964723
 21
56.0898492953
 31
0.0
  0
LINE
  5
3EE
330
1F
100
AcDbEntity
  8
0
  6
Continuous
 62
     7
370
    18
100
AcDbLine
 10
9.2047964723
 20
56.0898492953
 30
0.0
 11
9.2499519578
 21
56.1292520788
 31
0.0
  0
LINE
  5
3EF
330
1F
100
AcDbEntity
  8
0
  6
Continuous
 62
     7
370
    18
100
AcDbLine
 10
9.2499519578
 20
56.1292520788
 30
0.0
 11
9.2499519578
 21
56.1249055964
 31
0.0
  0
LINE
  5
3F0
330
1F
100
AcDbEntity
  8
0
  6
Continuous
 62
     7
370
    18
100
AcDbLine
 10
9.2499519578
 20
56.1249055964
 30
0.0
 11
9.2047964723
 21
56.0723950685
 31
0.0
  0
LINE
  5
3F1
330
1F
100
AcDbEntity
  8
0
  6
Continuous
 62
     7
370
    18
100
AcDbLine
 10
9.2047964723
 20
56.0723950685
 30
0.0
 11
9.2499519578
 21
56.1064958326
 31
0.0
  0
LINE
  5
3F2
330
1F
100
AcDbEntity
  8
0
  6
Continuous
 62
     7
370
    18
100
AcDbLine
 10
9.2499519578
 20
56.1064958326
 30
0.0
 11
9.2499519578
 21
56.0993046253
 31
0.0
  0
LINE
  5
3F3
330
1F
100
AcDbEntity
  8
0
  6
Continuous
 62
     7
370
    18
100
AcDbLine
 10
9.2499519578
 20
56.0993046253
 30
0.0
 11
9.2047964723
 21
56.0435171614
 31
0.0
  0
LINE
  5
3F4
330
1F
100
AcDbEntity
  8
0
  6
Continuous
 62
     7
370
    18
100
AcDbLine
 10
9.2047964723
 20
56.0435171614
 30
0.0
 11
9.2499519578
 21
56.0719422129
 31
0.0
  0
LINE
  5
3F5
330
1F
100
AcDbEntity
  8
0
  6
Continuous
 62
     7
370
    18
100
AcDbLine
 10
9.2499519578
 20
56.0719422129
 30
0.0
 11
9.2499519578
 21
56.0619850552
 31
0.0
  0
LINE
  5
3F6
330
1F
100
AcDbEntity
  8
0
  6
Continuous
 62
     7
370
    18
100
AcDbLine
 10
9.2499519578
 20
56.0619850552
 30
0.0
 11
9.2047964723
 21
56.0035320684
 31
0.0
  0
LINE
  5
3F7
330
1F
100
AcDbEntity
  8
0
  6
Continuous
 62
     7
370
    18
100
AcDbLine
 10
9.2047964723
 20
56.0035320684
 30
0.0
 11
9.2499519578
 21
56.0259701127
 31
0.0
  0
LINE
  5
3F8
330
1F
100
AcDbEntity
  8
0
  6
Continuous
 62
     7
370
    18
100
AcDbLine
 10
9.2499519578
 20
56.0259701127
 30
0.0
 11
9.2499519578
 21
56.0133560469
 31
0.0
  0
LINE
  5
3F9
330
1F
100
AcDbEntity
  8
0
  6
Continuous
 62
     7
370
    18
100
AcDbLine
 10
9.2499519578
 20
56.0133560469
 30
0.0
 11
9.2047964723
 21
55.9528778216
 31
0.0
  0
LINE
  5
3FA
330
1F
100
AcDbEntity
  8
0
  6
Continuous
 62
     7
370
    18
100
AcDbLine
 10
9.2047964723
 20
55.9528778216
 30
0.0
 11
9.2499519578
 21
55.9690828344
 31
0.0
  0
LINE
  5
3FB
330
1F
100
AcDbEntity
  8
0
  6
Continuous
 62
     7
370
    18
100
AcDbLine
 10
9.2499519578
 20
55.9690828344
 30
0.0
 11
9.2499519578
 21
55.9539501619
 31
0.0
  0
LINE
  5
3FC
330
1F
100
AcDbEntity
  8
0
  6
Continuous
 62
     7
370
    18
100
AcDbLine
 10
9.2499519578
 20
55.9539501619
 30
0.0
 11
9.2047964723
 21
55.892109334
 31
0.0
  0
LINE
  5
3FD
330
1F
100
AcDbEntity
  8
0
  6
Continuous
 62
     7
370
    18
100
AcDbLine
 10
9.2047964723
 20
55.892109334
 30
0.0
 11
9.2499519578
 21
55.901903976
 31
0.0
  0
LINE
  5
3FE
330
1F
100
AcDbEntity
  8
0
  6
Continuous
 62
     7
370
    18
100
AcDbLine
 10
9.2499519578
 20
55.901903976
 30
0.0
 11
9.2499519578
 21
55.8844183946
 31
0.0
  0
LINE
  5
3FF
330
1F
100
AcDbEntity
  8
0
  6
Continuous
 62
     7
370
    18
100
AcDbLine
 10
9.2499519578
 20
55.8844183946
 30
0.0
 11
9.2047964723
 21
55.8218925014
 31
0.0
  0
LINE
  5
400
330
1F
100
AcDbEntity
  8
0
  6
Continuous
 62
     7
370
    18
100
AcDbLine
 10
9.2047964723
 20
55.8218925014
 30
0.0
 11
9.2499519578
 21
55.8251693598
 31
0.0
  0
LINE
  5
401
330
1F
100
AcDbEntity
  8
0
  6
Continuous
 62
     7
370
    18
100
AcDbLine
 10
9.2499519578
 20
55.8251693598
 30
0.0
 11
9.2499519578
 21
55.8055225669
 31
0.0
  0
LINE
  5
402
330
1F
100
AcDbEntity
  8
0
  6
Continuous
 62
     7
370
    18
100
AcDbLine
 10
9.2499519578
 20
55.8055225669
 30
0.0
 11
9.2047964723
 21
55.7429966736
 31
0.0
  0
LINE
  5
403
330
1F
100
AcDbEntity
  8
0
  6
Continuous
 62
     7
370
    18
100
AcDbLine
 10
9.2047964723
 20
55.7429966736
 30
0.0
 11
9.2499519578
 21
55.7397198151
 31
0.0
  0
LINE
  5
404
330
1F
100
AcDbEntity
  8
0
  6
Continuous
 62
     7
370
    18
100
AcDbLine
 10
9.2499519578
 20
55.7397198151
 30
0.0
 11
9.2499519578
 21
55.7181270236
 31
0.0
  0
LINE
  5
405
330
1F
100
AcDbEntity
  8
0
  6
Continuous
 62
     7
370
    18
100
AcDbLine
 10
9.2499519578
 20
55.7181270236
 30
0.0
 11
9.2047964723
 21
55.6562861569
 31
0.0
  0
LINE
  5
406
330
1F
100
AcDbEntity
  8
0
  6
Continuous
 62
     7
370
    18
100
AcDbLine
 10
9.2047964723
 20
55.6562861569
 30
0.0
 11
9.2499519578
 21
55.646491515
 31
0.0
  0
LINE
  5
407
330
1F
100
AcDbEntity
  8
0
  6
Continuous
 62
     7
370
    18
100
AcDbLine
 10
9.2499519578
 20
55.646491515
 30
0.0
 11
9.2499519578
 21
55.6231892033
 31
0.0
  0
LINE
  5
408
330
1F
100
AcDbEntity
  8
0
  6
Continuous
 62
     7
370
    18
100
AcDbLine
 10
9.2499519578
 20
55.6231892033
 30
0.0
 11
9.2047964723
 21
55.562710978
 31
0.0
  0
LINE
  5
409
330
1F
100
AcDbEntity
  8
0
  6
Continuous
 62
     7
370
    18
100
AcDbLine
 10
9.2047964723
 20
55.562710978
 30
0.0
 11
9.2499519578
 21
55.5465058876
 31
0.0
  0
LINE
  5
40A
330
1F
100
AcDbEntity
  8
0
  6
Continuous
 62
     7
370
    18
100
AcDbLine
 10
9.2499519578
 20
55.5465058876
 30
0.0
 11
9.2499519578
 21
55.5217493933
 31
0.0
  0
LINE
  5
40B
330
1F
100
AcDbEntity
  8
0
  6
Continuous
 62
     7
370
    18
100
AcDbLine
 10
9.2499519578
 20
55.5217493933
 30
0.0
 11
9.2047964723
 21
55.4632963677
 31
0.0
  0
LINE
  5
40C
330
1F
100
AcDbEntity
  8
0
  6
Continuous
 62
     7
370
    18
100
AcDbLine
 10
9.2047964723
 20
55.4632963677
 30
0.0
 11
9.2499519578
 21
55.4408583621
 31
0.0
  0
LINE
  5
40D
330
1F
100
AcDbEntity
  8
0
  6
Continuous
 62
     7
370
    18
100
AcDbLine
 10
9.2499519578
 20
55.4408583621
 30
0.0
 11
9.2499519578
 21
55.4149190106
 31
0.0
  0
LINE
  5
40E
330
1F
100
AcDbEntity
  8
0
  6
Continuous
 62
     7
370
    18
100
AcDbLine
 10
9.2499519578
 20
55.4149190106
 30
0.0
 11
9.2047964723
 21
55.3591315466
 31
0.0
  0
LINE
  5
40F
330
1F
100
AcDbEntity
  8
0
  6
Continuous
 62
     7
370
    18
100
AcDbLine
 10
9.2047964723
 20
55.3591315466
 30
0.0
 11
9.2499519578
 21
55.3307064563
 31
0.0
  0
LINE
  5
410
330
1F
100
AcDbEntity
  8
0
  6
Continuous
 62
     7
370
    18
100
AcDbLine
 10
9.2499519578
 20
55.3307064563
 30
0.0
 11
9.2499519578
 21
55.3038683978
 31
0.0
  0
LINE
  5
411
330
1F
100
AcDbEntity
  8
0
  6
Continuous
 62
     7
370
    18
100
AcDbLine
 10
9.2499519578
 20
55.3038683978
 30
0.0
 11
9.2047964723
 21
55.2513578311
 31
0.0
  0
LINE
  5
412
330
1F
100
AcDbEntity
  8
0
  6
Continuous
 62
     7
370
    18
100
AcDbLine
 10
9.2047964723
 20
55.2513578311
 30
0.0
 11
9.2499519578
 21
55.2172570282
 31
0.0
  0
LINE
  5
413
330
1F
100
AcDbEntity
  8
0
  6
Continuous
 62
     7
370
    18
100
AcDbLine
 10
9.2499519578
 20
55.2172570282
 30
0.0
 11
9.2499519578
 21
55.1898143085
 31
0.0
  0
LINE
  5
414
330
1F
100
AcDbEntity
  8
0
  6
Continuous
 62
     7
370
    18
100
AcDbLine
 10
9.2499519578
 20
55.1898143085
 30
0.0
 11
9.2047964723
 21
55.141155886
 31
0.0
  0
LINE
  5
415
330
1F
100
AcDbEntity
  8
0
  6
Continuous
 62
     7
370
    18
100
AcDbLine
 10
9.2047964723
 20
55.141155886
 30
0.0
 11
9.2499519578
 21
55.1017530685
 31
0.0
  0
LINE
  5
416
330
1F
100
AcDbEntity
  8
0
  6
Continuous
 62
     7
370
    18
100
AcDbLine
 10
9.2499519578
 20
54.9577133125
 30
0.0
 11
9.2047964723
 21
54.918310495
 31
0.0
  0
LINE
  5
417
330
1F
100
AcDbEntity
  8
0
  6
Continuous
 62
     7
370
    18
100
AcDbLine
 10
9.2047964723
 20
54.918310495
 30
0.0
 11
9.2499519578
 21
54.8696520725
 31
0.0
  0
LINE
  5
418
330
1F
100
AcDbEntity
  8
0
  6
Continuous
 62
     7
370
    18
100
AcDbLine
 10
9.2047964723
 20
54.918310495
 30
0.0
 11
11.1351872674
 21
54.918310495
 31
0.0
  0
LINE
  5
419
330
1F
100
AcDbEntity
  8
0
  6
Continuous
 62
     7
370
    18
100
AcDbLine
 10
9.2047964723
 20
55.141155886
 30
0.0
 11
11.1351872674
 21
55.141155886
 31
0.0
  0
LINE
  5
41A
330
1F
100
AcDbEntity
  8
0
  6
Continuous
 62
     7
370
    18
100
AcDbLine
 10
9.2499519578
 20
54.8696520725
 30
0.0
 11
11.0900317819
 21
54.8696520725
 31
0.0
  0
LINE
  5
41B
330
1F
100
AcDbEntity
  8
0
  6
Continuous
 62
     7
370
    18
100
AcDbLine
 10
9.2499519578
 20
54.8422093528
 30
0.0
 11
11.0900317819
 21
54.8422093528
 31
0.0
  0
LINE
  5
41C
330
1F
100
AcDbEntity
  8
0
  6
Continuous
 62
     7
370
    18
100
AcDbLine
 10
9.2499519578
 20
55.1898143085
 30
0.0
 11
11.0900317819
 21
55.1898143085
 31
0.0
  0
LINE
  5
41D
330
1F
100
AcDbEntity
  8
0
  6
Continuous
 62
     7
370
    18
100
AcDbLine
 10
9.2499519578
 20
55.2172570282
 30
0.0
 11
11.0900317819
 21
55.2172570282
 31
0.0
  0
LINE
  5
41E
330
1F
100
AcDbEntity
  8
0
  6
Continuous
 62
     7
370
    18
100
AcDbLine
 10
9.2047964723
 20
54.8081085499
 30
0.0
 11
11.1351872674
 21
54.8081085499
 31
0.0
  0
LINE
  5
41F
330
1F
100
AcDbEntity
  8
0
  6
Continuous
 62
     7
370
    18
100
AcDbLine
 10
9.2047964723
 20
55.2513578311
 30
0.0
 11
11.1351872674
 21
55.2513578311
 31
0.0
  0
LINE
  5
420
330
1F
100
AcDbEntity
  8
0
  6
Continuous
 62
     7
370
    18
100
AcDbLine
 10
9.2499519578
 20
54.7555979832
 30
0.0
 11
11.0900317819
 21
54.7555979832
 31
0.0
  0
LINE
  5
421
330
1F
100
AcDbEntity
  8
0
  6
Continuous
 62
     7
370
    18
100
AcDbLine
 10
9.2499519578
 20
54.7287599248
 30
0.0
 11
11.0900317819
 21
54.7287599248
 31
0.0
  0
LINE
  5
422
330
1F
100
AcDbEntity
  8
0
  6
Continuous
 62
     7
370
    18
100
AcDbLine
 10
9.2499519578
 20
55.3038683978
 30
0.0
 11
11.0900317819
 21
55.3038683978
 31
0.0
  0
LINE
  5
423
330
1F
100
AcDbEntity
  8
0
  6
Continuous
 62
     7
370
    18
100
AcDbLine
 10
9.2499519578
 20
55.3307064563
 30
0.0
 11
11.0900317819
 21
55.3307064563
 31
0.0
  0
LINE
  5
424
330
1F
100
AcDbEntity
  8
0
  6
Continuous
 62
     7
370
    18
100
AcDbLine
 10
9.2047964723
 20
54.7003348344
 30
0.0
 11
11.1351872674
 21
54.7003348344
 31
0.0
  0
LINE
  5
425
330
1F
100
AcDbEntity
  8
0
  6
Continuous
 62
     7
370
    18
100
AcDbLine
 10
9.2047964723
 20
55.3591315466
 30
0.0
 11
11.1351872674
 21
55.3591315466
 31
0.0
  0
LINE
  5
426
330
1F
100
AcDbEntity
  8
0
  6
Continuous
 62
     7
370
    18
100
AcDbLine
 10
9.2499519578
 20
54.6186080189
 30
0.0
 11
11.0900317819
 21
54.6186080189
 31
0.0
  0
LINE
  5
427
330
1F
100
AcDbEntity
  8
0
  6
Continuous
 62
     7
370
    18
100
AcDbLine
 10
9.2499519578
 20
54.6445473705
 30
0.0
 11
11.0900317819
 21
54.6445473705
 31
0.0
  0
LINE
  5
428
330
1F
100
AcDbEntity
  8
0
  6
Continuous
 62
     7
370
    18
100
AcDbLine
 10
9.2499519578
 20
55.4149190106
 30
0.0
 11
11.0900317819
 21
55.4149190106
 31
0.0
  0
LINE
  5
429
330
1F
100
AcDbEntity
  8
0
  6
Continuous
 62
     7
370
    18
100
AcDbLine
 10
9.2499519578
 20
55.4408583621
 30
0.0
 11
11.0900317819
 21
55.4408583621
 31
0.0
  0
LINE
  5
42A
330
1F
100
AcDbEntity
  8
0
  6
Continuous
 62
     7
370
    18
100
AcDbLine
 10
9.2047964723
 20
54.5961700133
 30
0.0
 11
11.1351872674
 21
54.5961700133
 31
0.0
  0
LINE
  5
42B
330
1F
100
AcDbEntity
  8
0
  6
Continuous
 62
     7
370
    18
100
AcDbLine
 10
9.2047964723
 20
55.4632963677
 30
0.0
 11
11.1351872674
 21
55.4632963677
 31
0.0
  0
LINE
  5
42C
330
1F
100
AcDbEntity
  8
0
  6
Continuous
 62
     7
370
    18
100
AcDbLine
 10
8.4202155661
 20
54.0278443044
 30
0.0
 11
8.4202155661
 21
56.0316220766
 31
0.0
  0
LINE
  5
42D
330
1F
100
AcDbEntity
  8
0
  6
Continuous
 62
     7
370
    18
100
AcDbLine
 10
9.2499519578
 20
54.5377169877
 30
0.0
 11
11.0900317819
 21
54.5377169877
 31
0.0
  0
LINE
  5
42E
330
1F
100
AcDbEntity
  8
0
  6
Continuous
 62
     7
370
    18
100
AcDbLine
 10
9.2499519578
 20
54.5129604935
 30
0.0
 11
11.0900317819
 21
54.5129604935
 31
0.0
  0
LINE
  5
42F
330
1F
100
AcDbEntity
  8
0
  6
Continuous
 62
     7
370
    18
100
AcDbLine
 10
9.2499519578
 20
55.5217493933
 30
0.0
 11
11.0900317819
 21
55.5217493933
 31
0.0
  0
LINE
  5
430
330
1F
100
AcDbEntity
  8
0
  6
Continuous
 62
     7
370
    18
100
AcDbLine
 10
9.2499519578
 20
55.5465058876
 30
0.0
 11
11.0900317819
 21
55.5465058876
 31
0.0
  0
LINE
  5
431
330
1F
100
AcDbEntity
  8
0
  6
Continuous
 62
     7
370
    18
100
AcDbLine
 10
9.2047964723
 20
54.496755403
 30
0.0
 11
11.1351872674
 21
54.496755403
 31
0.0
  0
LINE
  5
432
330
1F
100
AcDbEntity
  8
0
  6
Continuous
 62
     7
370
    18
100
AcDbLine
 10
9.2047964723
 20
55.562710978
 30
0.0
 11
11.1351872674
 21
55.562710978
 31
0.0
  0
LINE
  5
433
330
1F
100
AcDbEntity
  8
0
  6
Continuous
 62
     7
370
    18
100
AcDbLine
 10
9.2499519578
 20
54.412974866
 30
0.0
 11
11.0900317819
 21
54.412974866
 31
0.0
  0
LINE
  5
434
330
1F
100
AcDbEntity
  8
0
  6
Continuous
 62
     7
370
    18
100
AcDbLine
 10
9.2499519578
 20
54.4362771777
 30
0.0
 11
11.0900317819
 21
54.4362771777
 31
0.0
  0
LINE
  5
435
330
1F
100
AcDbEntity
  8
0
  6
Continuous
 62
     7
370
    18
100
AcDbLine
 10
9.2499519578
 20
55.6231892033
 30
0.0
 11
11.0900317819
 21
55.6231892033
 31
0.0
  0
LINE
  5
436
330
1F
100
AcDbEntity
  8
0
  6
Continuous
 62
     7
370
    18
100
AcDbLine
 10
9.2499519578
 20
55.646491515
 30
0.0
 11
11.0900317819
 21
55.646491515
 31
0.0
  0
LINE
  5
437
330
1F
100
AcDbEntity
  8
0
  6
Continuous
 62
     7
370
    18
100
AcDbLine
 10
9.2047964723
 20
54.4031802241
 30
0.0
 11
11.1351872674
 21
54.4031802241
 31
0.0
  0
LINE
  5
438
330
1F
100
AcDbEntity
  8
0
  6
Continuous
 62
     7
370
    18
100
AcDbLine
 10
9.2047964723
 20
55.6562861569
 30
0.0
 11
11.1351872674
 21
55.6562861569
 31
0.0
  0
LINE
  5
439
330
1F
100
AcDbEntity
  8
0
  6
Continuous
 62
     7
370
    18
100
AcDbLine
 10
9.2499519578
 20
54.3197465659
 30
0.0
 11
11.0900317819
 21
54.3197465659
 31
0.0
  0
LINE
  5
43A
330
1F
100
AcDbEntity
  8
0
  6
Continuous
 62
     7
370
    18
100
AcDbLine
 10
9.2499519578
 20
54.3413393574
 30
0.0
 11
11.0900317819
 21
54.3413393574
 31
0.0
  0
LINE
  5
43B
330
1F
100
AcDbEntity
  8
0
  6
Continuous
 62
     7
370
    18
100
AcDbLine
 10
9.2499519578
 20
55.7181270236
 30
0.0
 11
11.0900317819
 21
55.7181270236
 31
0.0
  0
LINE
  5
43C
330
1F
100
AcDbEntity
  8
0
  6
Continuous
 62
     7
370
    18
100
AcDbLine
 10
9.2499519578
 20
55.7397198151
 30
0.0
 11
11.0900317819
 21
55.7397198151
 31
0.0
  0
LINE
  5
43D
330
1F
100
AcDbEntity
  8
0
  6
Continuous
 62
     7
370
    18
100
AcDbLine
 10
9.2047964723
 20
54.3164697074
 30
0.0
 11
11.1351872674
 21
54.3164697074
 31
0.0
  0
LINE
  5
43E
330
1F
100
AcDbEntity
  8
0
  6
Continuous
 62
     7
370
    18
100
AcDbLine
 10
9.2047964723
 20
55.7429966736
 30
0.0
 11
11.1351872674
 21
55.7429966736
 31
0.0
  0
LINE
  5
43F
330
1F
100
AcDbEntity
  8
0
  6
Continuous
 62
     7
370
    18
100
AcDbLine
 10
9.2499519578
 20
54.2539438142
 30
0.0
 11
11.0900317819
 21
54.2539438142
 31
0.0
  0
LINE
  5
440
330
1F
100
AcDbEntity
  8
0
  6
Continuous
 62
     7
370
    18
100
AcDbLine
 10
9.2499519578
 20
54.2342970212
 30
0.0
 11
11.0900317819
 21
54.2342970212
 31
0.0
  0
LINE
  5
441
330
1F
100
AcDbEntity
  8
0
  6
Continuous
 62
     7
370
    18
100
AcDbLine
 10
9.2499519578
 20
55.8055225669
 30
0.0
 11
11.0900317819
 21
55.8055225669
 31
0.0
  0
LINE
  5
442
330
1F
100
AcDbEntity
  8
0
  6
Continuous
 62
     7
370
    18
100
AcDbLine
 10
9.2499519578
 20
55.8251693598
 30
0.0
 11
11.0900317819
 21
55.8251693598
 31
0.0
  0
LINE
  5
443
330
1F
100
AcDbEntity
  8
0
  6
Continuous
 62
     7
370
    18
100
AcDbLine
 10
9.2499519578
 20
54.1750479864
 30
0.0
 11
11.0900317819
 21
54.1750479864
 31
0.0
  0
LINE
  5
444
330
1F
100
AcDbEntity
  8
0
  6
Continuous
 62
     7
370
    18
100
AcDbLine
 10
9.2499519578
 20
55.8844183946
 30
0.0
 11
11.0900317819
 21
55.8844183946
 31
0.0
  0
LINE
  5
445
330
1F
100
AcDbEntity
  8
0
  6
Continuous
 62
     7
370
    18
100
AcDbLine
 10
9.2499519578
 20
54.1575624051
 30
0.0
 11
11.0900317819
 21
54.1575624051
 31
0.0
  0
LINE
  5
446
330
1F
100
AcDbEntity
  8
0
  6
Continuous
 62
     7
370
    18
100
AcDbLine
 10
9.2499519578
 20
55.901903976
 30
0.0
 11
11.0900317819
 21
55.901903976
 31
0.0
  0
LINE
  5
447
330
1F
100
AcDbEntity
  8
0
  6
Continuous
 62
     7
370
    18
100
AcDbLine
 10
9.2499519578
 20
54.1055162191
 30
0.0
 11
11.0900317819
 21
54.1055162191
 31
0.0
  0
LINE
  5
448
330
1F
100
AcDbEntity
  8
0
  6
Continuous
 62
     7
370
    18
100
AcDbLine
 10
9.2499519578
 20
55.9539501619
 30
0.0
 11
11.0900317819
 21
55.9539501619
 31
0.0
  0
LINE
  5
449
330
1F
100
AcDbEntity
  8
0
  6
Continuous
 62
     7
370
    18
100
AcDbLine
 10
9.2499519578
 20
54.0903835466
 30
0.0
 11
11.0900317819
 21
54.0903835466
 31
0.0
  0
LINE
  5
44A
330
1F
100
AcDbEntity
  8
0
  6
Continuous
 62
     7
370
    18
100
AcDbLine
 10
9.2499519578
 20
55.9690828344
 30
0.0
 11
11.0900317819
 21
55.9690828344
 31
0.0
  0
LINE
  5
44B
330
1F
100
AcDbEntity
  8
0
  6
Continuous
 62
     7
370
    18
100
AcDbLine
 10
9.2499519578
 20
54.0461103341
 30
0.0
 11
11.0900317819
 21
54.0461103341
 31
0.0
  0
LINE
  5
44C
330
1F
100
AcDbEntity
  8
0
  6
Continuous
 62
     7
370
    18
100
AcDbLine
 10
9.2499519578
 20
56.0133560469
 30
0.0
 11
11.0900317819
 21
56.0133560469
 31
0.0
  0
LINE
  5
44D
330
1F
100
AcDbEntity
  8
0
  6
Continuous
 62
     7
370
    18
100
AcDbLine
 10
9.2499519578
 20
54.0334962683
 30
0.0
 11
11.0900317819
 21
54.0334962683
 31
0.0
  0
LINE
  5
44E
330
1F
100
AcDbEntity
  8
0
  6
Continuous
 62
     7
370
    18
100
AcDbLine
 10
9.2499519578
 20
56.0259701127
 30
0.0
 11
11.0900317819
 21
56.0259701127
 31
0.0
  0
LINE
  5
44F
330
1F
100
AcDbEntity
  8
0
  6
Continuous
 62
     7
370
    18
100
AcDbLine
 10
9.2499519578
 20
53.9974813258
 30
0.0
 11
11.0900317819
 21
53.9974813258
 31
0.0
  0
LINE
  5
450
330
1F
100
AcDbEntity
  8
0
  6
Continuous
 62
     7
370
    18
100
AcDbLine
 10
9.2499519578
 20
56.0619850552
 30
0.0
 11
11.0900317819
 21
56.0619850552
 31
0.0
  0
LINE
  5
451
330
1F
100
AcDbEntity
  8
0
  6
Continuous
 62
     7
370
    18
100
AcDbLine
 10
9.2499519578
 20
53.9875241681
 30
0.0
 11
11.0900317819
 21
53.9875241681
 31
0.0
  0
LINE
  5
452
330
1F
100
AcDbEntity
  8
0
  6
Continuous
 62
     7
370
    18
100
AcDbLine
 10
9.2499519578
 20
56.0719422129
 30
0.0
 11
11.0900317819
 21
56.0719422129
 31
0.0
  0
LINE
  5
453
330
1F
100
AcDbEntity
  8
0
  6
Continuous
 62
     7
370
    18
100
AcDbLine
 10
9.2499519578
 20
53.9601617557
 30
0.0
 11
11.0900317819
 21
53.9601617557
 31
0.0
  0
LINE
  5
454
330
1F
100
AcDbEntity
  8
0
  6
Continuous
 62
     7
370
    18
100
AcDbLine
 10
9.2499519578
 20
56.0993046253
 30
0.0
 11
11.0900317819
 21
56.0993046253
 31
0.0
  0
LINE
  5
455
330
1F
100
AcDbEntity
  8
0
  6
Continuous
 62
     7
370
    18
100
AcDbLine
 10
9.2499519578
 20
53.9529705484
 30
0.0
 11
11.0900317819
 21
53.9529705484
 31
0.0
  0
LINE
  5
456
330
1F
100
AcDbEntity
  8
0
  6
Continuous
 62
     7
370
    18
100
AcDbLine
 10
9.2499519578
 20
56.1064958326
 30
0.0
 11
11.0900317819
 21
56.1064958326
 31
0.0
  0
LINE
  5
457
330
1F
100
AcDbEntity
  8
0
  6
Continuous
 62
     7
370
    18
100
AcDbLine
 10
9.2499519578
 20
53.9345607846
 30
0.0
 11
11.0900317819
 21
53.9345607846
 31
0.0
  0
LINE
  5
458
330
1F
100
AcDbEntity
  8
0
  6
Continuous
 62
     7
370
    18
100
AcDbLine
 10
9.2499519578
 20
56.1249055964
 30
0.0
 11
11.0900317819
 21
56.1249055964
 31
0.0
  0
LINE
  5
459
330
1F
100
AcDbEntity
  8
0
  6
Continuous
 62
     7
370
    18
100
AcDbLine
 10
9.2499519578
 20
53.9302143022
 30
0.0
 11
11.0900317819
 21
53.9302143022
 31
0.0
  0
LINE
  5
45A
330
1F
100
AcDbEntity
  8
0
  6
Continuous
 62
     7
370
    18
100
AcDbLine
 10
9.2499519578
 20
56.1292520788
 30
0.0
 11
11.0900317819
 21
56.1292520788
 31
0.0
  0
LINE
  5
45B
330
1F
100
AcDbEntity
  8
0
  6
Continuous
 62
     7
370
    18
100
AcDbLine
 10
9.2499519578
 20
53.9209585856
 30
0.0
 11
11.0900317819
 21
53.9209585856
 31
0.0
  0
LINE
  5
45C
330
1F
100
AcDbEntity
  8
0
  6
Continuous
 62
     7
370
    18
100
AcDbLine
 10
9.2499519578
 20
56.1385077954
 30
0.0
 11
11.0900317819
 21
56.1385077954
 31
0.0
  0
LINE
  5
45D
330
1F
100
AcDbEntity
  8
0
  6
Continuous
 62
     7
370
    18
100
AcDbLine
 10
9.2499519578
 20
53.9195044806
 30
0.0
 11
11.0900317819
 21
53.9195044806
 31
0.0
  0
LINE
  5
45E
330
1F
100
AcDbEntity
  8
0
  6
Continuous
 62
     7
370
    18
100
AcDbLine
 10
9.2499519578
 20
56.1399619004
 30
0.0
 11
11.0900317819
 21
56.1399619004
 31
0.0
  0
LINE
  5
45F
330
1F
100
AcDbEntity
  8
0
  6
Continuous
 62
     7
370
    18
100
AcDbLine
 10
8.360953648
 20
54.817135491
 30
0.0
 11
8.360953648
 21
55.2340390341
 31
0.0
  0
LINE
  5
460
330
1F
100
AcDbEntity
  8
0
  6
Continuous
 62
     7
370
    18
100
AcDbLine
 10
8.3742007803
 20
55.2555109865
 30
0.0
 11
8.360953648
 21
55.2340390341
 31
0.0
  0
LINE
  5
461
330
1F
100
AcDbEntity
  8
0
  6
Continuous
 62
     7
370
    18
100
AcDbLine
 10
8.3742007803
 20
55.2555109865
 30
0.0
 11
8.3750600806
 21
55.2555109865
 31
0.0
  0
LINE
  5
462
330
1F
100
AcDbEntity
  8
0
  6
Continuous
 62
     7
370
    18
100
AcDbLine
 10
8.3750600806
 20
55.2555109865
 30
0.0
 11
8.3750600806
 21
54.8087591952
 31
0.0
  0
LINE
  5
463
330
1F
100
AcDbEntity
  8
0
  6
Continuous
 62
     7
370
    18
100
AcDbLine
 10
8.360953648
 20
54.817135491
 30
0.0
 11
8.3750600806
 21
54.8087591952
 31
0.0
  0
LINE
  5
464
330
1F
100
AcDbEntity
  8
0
  6
Continuous
 62
     7
370
    18
100
AcDbLine
 10
8.1633990199
 20
55.2340390341
 30
0.0
 11
8.1633990199
 21
54.817135491
 31
0.0
  0
LINE
  5
465
330
1F
100
AcDbEntity
  8
0
  6
Continuous
 62
     7
370
    18
100
AcDbLine
 10
8.360953648
 20
55.2340390341
 30
0.0
 11
8.1633990199
 21
55.2340390341
 31
0.0
  0
LINE
  5
466
330
1F
100
AcDbEntity
  8
0
  6
Continuous
 62
     7
370
    18
100
AcDbLine
 10
8.1633990199
 20
54.817135491
 30
0.0
 11
8.360953648
 21
54.817135491
 31
0.0
  0
LINE
  5
467
330
1F
100
AcDbEntity
  8
0
  6
Continuous
 62
     7
370
    18
100
AcDbLine
 10
8.15013947
 20
55.2555109865
 30
0.0
 11
8.1633990199
 21
55.2340390341
 31
0.0
  0
LINE
  5
468
330
1F
100
AcDbEntity
  8
0
  6
Continuous
 62
     7
370
    18
100
AcDbLine
 10
8.1633990199
 20
54.817135491
 30
0.0
 11
8.1492776862
 21
54.8087591952
 31
0.0
  0
LINE
  5
469
330
1F
100
AcDbEntity
  8
0
  6
Continuous
 62
     7
370
    18
100
AcDbLine
 10
8.1492776862
 20
54.8087591952
 30
0.0
 11
8.1492776862
 21
55.2555109865
 31
0.0
  0
LINE
  5
46A
330
1F
100
AcDbEntity
  8
0
  6
Continuous
 62
     7
370
    18
100
AcDbLine
 10
8.1492776862
 20
55.2555109865
 30
0.0
 11
8.15013947
 21
55.2555109865
 31
0.0
  0
LINE
  5
46B
330
1F
100
AcDbEntity
  8
0
  6
Continuous
 62
     7
370
    18
100
AcDbLine
 10
8.15013947
 20
55.2555109865
 30
0.0
 11
8.3742007803
 21
55.2555109865
 31
0.0
  0
LINE
  5
46C
330
1F
100
AcDbEntity
  8
0
  6
Continuous
 62
     7
370
    18
100
AcDbLine
 10
8.3750600806
 20
54.8039553945
 30
0.0
 11
8.1492776862
 21
54.8039553945
 31
0.0
  0
LINE
  5
46D
330
1F
100
AcDbEntity
  8
0
  6
Continuous
 62
     7
370
    18
100
AcDbLine
 10
8.3750600806
 20
54.8087591952
 30
0.0
 11
8.3750600806
 21
54.8039553945
 31
0.0
  0
LINE
  5
46E
330
1F
100
AcDbEntity
  8
0
  6
Continuous
 62
     7
370
    18
100
AcDbLine
 10
8.1492776862
 20
54.8039553945
 30
0.0
 11
8.1492776862
 21
54.8087591952
 31
0.0
  0
LINE
  5
46F
330
1F
100
AcDbEntity
  8
0
  6
Continuous
 62
     7
370
    18
100
AcDbLine
 10
7.7541659465
 20
54.3806221167
 30
0.0
 11
7.7541659465
 21
55.6788442643
 31
0.0
  0
LINE
  5
470
330
1F
100
AcDbEntity
  8
0
  6
Continuous
 62
     7
370
    18
100
AcDbLine
 10
7.7682847968
 20
55.6929553923
 30
0.0
 11
7.7682847968
 21
54.3665109887
 31
0.0
  0
LINE
  5
471
330
1F
100
AcDbEntity
  8
0
  6
Continuous
 62
     7
370
    18
100
AcDbLine
 10
6.9075018357
 20
55.3075109556
 30
0.0
 11
6.9075018357
 21
54.7519554254
 31
0.0
  0
LINE
  5
472
330
1F
100
AcDbEntity
  8
0
  6
Continuous
 62
     7
370
    18
100
AcDbLine
 10
6.8510636877
 20
54.8083998599
 30
0.0
 11
6.8510636877
 21
55.2510665212
 31
0.0
  0
LINE
  5
473
330
1F
100
AcDbEntity
  8
0
  6
Continuous
 62
     7
370
    18
100
AcDbLine
 10
12.8200913659
 20
54.3665109887
 30
0.0
 11
12.8200913659
 21
55.6929553923
 31
0.0
  0
DIMENSION
  5
474
330
1F
100
AcDbEntity
  8
0
  6
Continuous
 62
     7
370
    18
100
AcDbDimension
  2
_D_4
 10
84.4921980321
 20
57.8573480986
 30
0.0
 11
45.6998481733
 21
57.8573480986
 31
0.0
 70
   160
  1
1m +0.075/-0.0m
 71
     2
 42
-1.0
  3
SLDDIMSTYLE4
100
AcDbAlignedDimension
 13
6.9074983144
 23
55.3075109683
 33
0.0
 14
84.4921980321
 24
55.6647331905
 34
0.0
 50
0.0
100
AcDbRotatedDimension
  0
INSERT
  5
48C
102
{ACAD_REACTORS
330
48D
102
}
330
1F
100
AcDbEntity
  8
0
  6
Continuous
 62
     7
370
     0
100
AcDbBlockReference
  2
SW_NOTE_11
 10
56.1204033215
 20
52.3161409029
 30
0.0
  0
LEADER
  5
48D
330
1F
100
AcDbEntity
  8
0
  6
Continuous
 62
     7
370
     0
100
AcDbLeader
  3
SLDDIMSTYLE3
 73
     2
 76
     3
 10
51.4338426218
 20
54.9297331905
 30
0.0
 10
54.0037366548
 20
52.3161409029
 30
0.0
 10
56.1204033215
 20
52.3161409029
 30
0.0
340
48C
  0
LINE
  5
48E
330
1F
100
AcDbEntity
  8
0
  6
HIDDEN
 62
     7
370
    18
100
AcDbLine
 10
43.2182829664
 20
55.7223998555
 30
0.0
 11
43.3048662996
 21
55.4626498561
 31
0.0
  0
LINE
  5
48F
330
1F
100
AcDbEntity
  8
0
  6
HIDDEN
 62
     7
370
    18
100
AcDbLine
 10
43.3048662996
 20
55.4626498561
 30
0.0
 11
43.1316996333
 21
55.2894831899
 31
0.0
  0
LINE
  5
490
330
1F
100
AcDbEntity
  8
0
  6
HIDDEN
 62
     7
370
    18
100
AcDbLine
 10
43.1316996333
 20
55.2894831899
 30
0.0
 11
43.3048662996
 21
54.7699831912
 31
0.0
  0
LINE
  5
491
330
1F
100
AcDbEntity
  8
0
  6
HIDDEN
 62
     7
370
    18
100
AcDbLine
 10
43.3048662996
 20
54.7699831912
 30
0.0
 11
43.1316996333
 21
54.5968165249
 31
0.0
  0
LINE
  5
492
330
1F
100
AcDbEntity
  8
0
  6
HIDDEN
 62
     7
370
    18
100
AcDbLine
 10
43.1316996333
 20
54.5968165249
 30
0.0
 11
43.2182829664
 21
54.3370665256
 31
0.0
  0
LINE
  5
493
330
1F
100
AcDbEntity
  8
0
  6
HIDDEN
 62
     7
370
    18
100
AcDbLine
 10
47.4516162998
 20
55.7223998555
 30
0.0
 11
47.5381996329
 21
55.4626498561
 31
0.0
  0
LINE
  5
494
330
1F
100
AcDbEntity
  8
0
  6
HIDDEN
 62
     7
370
    18
100
AcDbLine
 10
47.5381996329
 20
55.4626498561
 30
0.0
 11
47.3650329666
 21
55.2894831899
 31
0.0
  0
LINE
  5
495
330
1F
100
AcDbEntity
  8
0
  6
HIDDEN
 62
     7
370
    18
100
AcDbLine
 10
47.3650329666
 20
55.2894831899
 30
0.0
 11
47.5381996329
 21
54.7699831912
 31
0.0
  0
LINE
  5
496
330
1F
100
AcDbEntity
  8
0
  6
HIDDEN
 62
     7
370
    18
100
AcDbLine
 10
47.5381996329
 20
54.7699831912
 30
0.0
 11
47.3650329666
 21
54.5968165249
 31
0.0
  0
LINE
  5
497
330
1F
100
AcDbEntity
  8
0
  6
HIDDEN
 62
     7
370
    18
100
AcDbLine
 10
47.3650329666
 20
54.5968165249
 30
0.0
 11
47.4516162998
 21
54.3370665256
 31
0.0
  0
OLE2FRAME
  5
498
330
1F
100
AcDbEntity
  8
0
100
AcDbOle2Frame
 70
     2
  3
Paintbrush Picture
 10
76.35080861
 20
11.2332099307
 30
0.0
 11
88.3895489736
 21
9.5184932023
 31
0.0
 71
     2
 72
     0
 73
     1
 90
     7296
310
8055F7CCF4A573165340ABDAC24A6777264000000000000000000173D15EEE18
310
5640ABDAC24A6777264000000000000000000173D15EEE185640F993E6F07709
310
23400000000000000000F7CCF4A573165340F993E6F077092340000000000000
310
00000000000001000000000100000100000001000000000001000000001C0000
310
D0CF11E0A1B11AE1000000000000000000000000000000003E000300FEFF0900
310
0600000000000000000000000100000001000000000000000010000002000000
310
01000000FEFFFFFF0000000000000000FFFFFFFFFFFFFFFFFFFFFFFFFFFFFFFF
310
FFFFFFFFFFFFFFFFFFFFFFFFFFFFFFFFFFFFFFFFFFFFFFFFFFFFFFFFFFFFFFFF
310
FFFFFFFFFFFFFFFFFFFFFFFFFFFFFFFFFFFFFFFFFFFFFFFFFFFFFFFFFFFFFFFF
310
FFFFFFFFFFFFFFFFFFFFFFFFFFFFFFFFFFFFFFFFFFFFFFFFFFFFFFFFFFFFFFFF
310
FFFFFFFFFFFFFFFFFFFFFFFFFFFFFFFFFFFFFFFFFFFFFFFFFFFFFFFFFFFFFFFF
310
FFFFFFFFFFFFFFFFFFFFFFFFFFFFFFFFFFFFFFFFFFFFFFFFFFFFFFFFFFFFFFFF
310
FFFFFFFFFFFFFFFFFFFFFFFFFFFFFFFFFFFFFFFFFFFFFFFFFFFFFFFFFFFFFFFF
310
FFFFFFFFFFFFFFFFFFFFFFFFFFFFFFFFFFFFFFFFFFFFFFFFFFFFFFFFFFFFFFFF
310
FFFFFFFFFFFFFFFFFFFFFFFFFFFFFFFFFFFFFFFFFFFFFFFFFFFFFFFFFFFFFFFF
310
FFFFFFFFFFFFFFFFFFFFFFFFFFFFFFFFFFFFFFFFFFFFFFFFFFFFFFFFFFFFFFFF
310
FFFFFFFFFFFFFFFFFFFFFFFFFFFFFFFFFFFFFFFFFFFFFFFFFFFFFFFFFFFFFFFF
310
FFFFFFFFFFFFFFFFFFFFFFFFFFFFFFFFFFFFFFFFFFFFFFFFFFFFFFFFFFFFFFFF
310
FFFFFFFFFFFFFFFFFFFFFFFFFFFFFFFFFFFFFFFFFFFFFFFFFFFFFFFFFFFFFFFF
310
FFFFFFFFFFFFFFFFFFFFFFFFFFFFFFFFFFFFFFFFFFFFFFFFFFFFFFFFFFFFFFFF
310
FDFFFFFFFEFFFFFFFEFFFFFFFEFFFFFF05000000060000000700000008000000
310
090000000A0000000B0000000C000000FEFFFFFFFFFFFFFFFFFFFFFFFFFFFFFF
310
FFFFFFFFFFFFFFFFFFFFFFFFFFFFFFFFFFFFFFFFFFFFFFFFFFFFFFFFFFFFFFFF
310
FFFFFFFFFFFFFFFFFFFFFFFFFFFFFFFFFFFFFFFFFFFFFFFFFFFFFFFFFFFFFFFF
310
FFFFFFFFFFFFFFFFFFFFFFFFFFFFFFFFFFFFFFFFFFFFFFFFFFFFFFFFFFFFFFFF
310
FFFFFFFFFFFFFFFFFFFFFFFFFFFFFFFFFFFFFFFFFFFFFFFFFFFFFFFFFFFFFFFF
310
FFFFFFFFFFFFFFFFFFFFFFFFFFFFFFFFFFFFFFFFFFFFFFFFFFFFFFFFFFFFFFFF
310
FFFFFFFFFFFFFFFFFFFFFFFFFFFFFFFFFFFFFFFFFFFFFFFFFFFFFFFFFFFFFFFF
310
FFFFFFFFFFFFFFFFFFFFFFFFFFFFFFFFFFFFFFFFFFFFFFFFFFFFFFFFFFFFFFFF
310
FFFFFFFFFFFFFFFFFFFFFFFFFFFFFFFFFFFFFFFFFFFFFFFFFFFFFFFFFFFFFFFF
310
FFFFFFFFFFFFFFFFFFFFFFFFFFFFFFFFFFFFFFFFFFFFFFFFFFFFFFFFFFFFFFFF
310
FFFFFFFFFFFFFFFFFFFFFFFFFFFFFFFFFFFFFFFFFFFFFFFFFFFFFFFFFFFFFFFF
310
FFFFFFFFFFFFFFFFFFFFFFFFFFFFFFFFFFFFFFFFFFFFFFFFFFFFFFFFFFFFFFFF
310
FFFFFFFFFFFFFFFFFFFFFFFFFFFFFFFFFFFFFFFFFFFFFFFFFFFFFFFFFFFFFFFF
310
FFFFFFFFFFFFFFFFFFFFFFFFFFFFFFFFFFFFFFFFFFFFFFFFFFFFFFFFFFFFFFFF
310
FFFFFFFFFFFFFFFFFFFFFFFFFFFFFFFFFFFFFFFFFFFFFFFFFFFFFFFFFFFFFFFF
310
52006F006F007400200045006E00740072007900000000000000000000000000
310
0000000000000000000000000000000000000000000000000000000000000000
310
16000500FFFFFFFFFFFFFFFF020000000A00030000000000C000000000000046
310
000000000000000000000000709459D0107DD80103000000C000000000000000
310
01004F006C006500000000000000000000000000000000000000000000000000
310
0000000000000000000000000000000000000000000000000000000000000000
310
0A000200FFFFFFFFFFFFFFFFFFFFFFFF00000000000000000000000000000000
310
0000000000000000000000000000000000000000000000001400000000000000
310
010043006F006D0070004F0062006A0000000000000000000000000000000000
310
0000000000000000000000000000000000000000000000000000000000000000
310
120002010100000003000000FFFFFFFF00000000000000000000000000000000
310
0000000000000000000000000000000000000000010000004D00000000000000
310
01004F006C006500310030004E00610074006900760065000000000000000000
310
0000000000000000000000000000000000000000000000000000000000000000
310
1A000200FFFFFFFFFFFFFFFFFFFFFFFF00000000000000000000000000000000
310
000000000000000000000000000000000000000004000000E411000000000000
310
FEFFFFFF02000000FEFFFFFFFFFFFFFFFFFFFFFFFFFFFFFFFFFFFFFFFFFFFFFF
310
FFFFFFFFFFFFFFFFFFFFFFFFFFFFFFFFFFFFFFFFFFFFFFFFFFFFFFFFFFFFFFFF
310
FFFFFFFFFFFFFFFFFFFFFFFFFFFFFFFFFFFFFFFFFFFFFFFFFFFFFFFFFFFFFFFF
310
FFFFFFFFFFFFFFFFFFFFFFFFFFFFFFFFFFFFFFFFFFFFFFFFFFFFFFFFFFFFFFFF
310
FFFFFFFFFFFFFFFFFFFFFFFFFFFFFFFFFFFFFFFFFFFFFFFFFFFFFFFFFFFFFFFF
310
FFFFFFFFFFFFFFFFFFFFFFFFFFFFFFFFFFFFFFFFFFFFFFFFFFFFFFFFFFFFFFFF
310
FFFFFFFFFFFFFFFFFFFFFFFFFFFFFFFFFFFFFFFFFFFFFFFFFFFFFFFFFFFFFFFF
310
FFFFFFFFFFFFFFFFFFFFFFFFFFFFFFFFFFFFFFFFFFFFFFFFFFFFFFFFFFFFFFFF
310
FFFFFFFFFFFFFFFFFFFFFFFFFFFFFFFFFFFFFFFFFFFFFFFFFFFFFFFFFFFFFFFF
310
FFFFFFFFFFFFFFFFFFFFFFFFFFFFFFFFFFFFFFFFFFFFFFFFFFFFFFFFFFFFFFFF
310
FFFFFFFFFFFFFFFFFFFFFFFFFFFFFFFFFFFFFFFFFFFFFFFFFFFFFFFFFFFFFFFF
310
FFFFFFFFFFFFFFFFFFFFFFFFFFFFFFFFFFFFFFFFFFFFFFFFFFFFFFFFFFFFFFFF
310
FFFFFFFFFFFFFFFFFFFFFFFFFFFFFFFFFFFFFFFFFFFFFFFFFFFFFFFFFFFFFFFF
310
FFFFFFFFFFFFFFFFFFFFFFFFFFFFFFFFFFFFFFFFFFFFFFFFFFFFFFFFFFFFFFFF
310
FFFFFFFFFFFFFFFFFFFFFFFFFFFFFFFFFFFFFFFFFFFFFFFFFFFFFFFFFFFFFFFF
310
FFFFFFFFFFFFFFFFFFFFFFFFFFFFFFFFFFFFFFFFFFFFFFFFFFFFFFFFFFFFFFFF
310
0100000200000000000000000000000000000000000000000000000000000000
310
0000000000000000000000000000000000000000000000000000000000000000
310
0100FEFF030A0000FFFFFFFF0A00030000000000C00000000000004607000000
310
5042727573680007000000504272757368000700000050427275736800F439B2
310
7100000000000000000000000000000000000000000000000000000000000000
310
0000000000000000000000000000000000000000000000000000000000000000
310
0000000000000000000000000000000000000000000000000000000000000000
310
0000000000000000000000000000000000000000000000000000000000000000
310
0000000000000000000000000000000000000000000000000000000000000000
310
0000000000000000000000000000000000000000000000000000000000000000
310
0000000000000000000000000000000000000000000000000000000000000000
310
0000000000000000000000000000000000000000000000000000000000000000
310
0000000000000000000000000000000000000000000000000000000000000000
310
0000000000000000000000000000000000000000000000000000000000000000
310
0000000000000000000000000000000000000000000000000000000000000000
310
0000000000000000000000000000000000000000000000000000000000000000
310
E0110000424DDE11000000000000360400002800000096000000170000000100
310
08000000000000000000E7240000E72400000001000000010000000000FF0101
310
01FF020202FF030303FF040404FF050505FF060606FF070707FF080808FF0909
310
09FF0A0A0AFF0B0B0BFF0C0C0CFF0D0D0DFF0E0E0EFF0F0F0FFF101010FF1111
310
11FF121212FF131313FF141414FF151515FF161616FF171717FF181818FF1919
310
19FF1A1A1AFF1B1B1BFF1C1C1CFF1D1D1DFF1E1E1EFF1F1F1FFF202020FF2121
310
21FF222222FF232323FF242424FF252525FF262626FF272727FF282828FF2929
310
29FF2A2A2AFF2B2B2BFF2C2C2CFF2D2D2DFF2E2E2EFF2F2F2FFF303030FF3131
310
31FF323232FF333333FF343434FF353535FF363636FF373737FF383838FF3939
310
39FF3A3A3AFF3B3B3BFF3C3C3CFF3D3D3DFF3E3E3EFF3F3F3FFF404040FF4141
310
41FF424242FF434343FF444444FF454545FF464646FF474747FF484848FF4949
310
49FF4A4A4AFF4B4B4BFF4C4C4CFF4D4D4DFF4E4E4EFF4F4F4FFF505050FF5151
310
51FF525252FF535353FF545454FF555555FF565656FF575757FF585858FF5959
310
59FF5A5A5AFF5B5B5BFF5C5C5CFF5D5D5DFF5E5E5EFF5F5F5FFF606060FF6161
310
61FF626262FF636363FF646464FF656565FF666666FF676767FF686868FF6969
310
69FF6A6A6AFF6B6B6BFF6C6C6CFF6D6D6DFF6E6E6EFF6F6F6FFF707070FF7171
310
71FF727272FF737373FF747474FF757575FF767676FF777777FF787878FF7979
310
79FF7A7A7AFF7B7B7BFF7C7C7CFF7D7D7DFF7E7E7EFF7F7F7FFF808080FF8181
310
81FF828282FF838383FF848484FF858585FF868686FF878787FF888888FF8989
310
89FF8A8A8AFF8B8B8BFF8C8C8CFF8D8D8DFF8E8E8EFF8F8F8FFF909090FF9191
310
91FF929292FF939393FF949494FF959595FF969696FF979797FF989898FF9999
310
99FF9A9A9AFF9B9B9BFF9C9C9CFF9D9D9DFF9E9E9EFF9F9F9FFFA0A0A0FFA1A1
310
A1FFA2A2A2FFA3A3A3FFA4A4A4FFA5A5A5FFA6A6A6FFA7A7A7FFA8A8A8FFA9A9
310
A9FFAAAAAAFFABABABFFACACACFFADADADFFAEAEAEFFAFAFAFFFB0B0B0FFB1B1
310
B1FFB2B2B2FFB3B3B3FFB4B4B4FFB5B5B5FFB6B6B6FFB7B7B7FFB8B8B8FFB9B9
310
B9FFBABABAFFBBBBBBFFBCBCBCFFBDBDBDFFBEBEBEFFBFBFBFFFC0C0C0FFC1C1
310
C1FFC2C2C2FFC3C3C3FFC4C4C4FFC5C5C5FFC6C6C6FFC7C7C7FFC8C8C8FFC9C9
310
C9FFCACACAFFCBCBCBFFCCCCCCFFCDCDCDFFCECECEFFCFCFCFFFD0D0D0FFD1D1
310
D1FFD2D2D2FFD3D3D3FFD4D4D4FFD5D5D5FFD6D6D6FFD7D7D7FFD8D8D8FFD9D9
310
D9FFDADADAFFDBDBDBFFDCDCDCFFDDDDDDFFDEDEDEFFDFDFDFFFE0E0E0FFE1E1
310
E1FFE2E2E2FFE3E3E3FFE4E4E4FFE5E5E5FFE6E6E6FFE7E7E7FFE8E8E8FFE9E9
310
E9FFEAEAEAFFEBEBEBFFECECECFFEDEDEDFFEEEEEEFFEFEFEFFFF0F0F0FFF1F1
310
F1FFF2F2F2FFF3F3F3FFF4F4F4FFF5F5F5FFF6F6F6FFF7F7F7FFF8F8F8FFF9F9
310
F9FFFAFAFAFFFBFBFBFFFCFCFCFFFDFDFDFFFEFEFEFFFFFFFFFFFFFFFFFFFFFF
310
C94E4E4E4F4E4EFFFFFFFFFFC94E4E4E4E4E72FFFFFFFFFFFFFF734E4D4E4E4E
310
C9FFFFFFFFFFAA683516171616265B9BE9FFFFFFFFFF4E4E4E4D4E4EFFFFFFFF
310
FFFFFFFF4E4E4F4E4D4E4E4E4F4E4E4F4D4E4E4E4E4E4D4E4F4E4D4E4E4EAAFF
310
FFFFFFFFFFEA4E4F4F4E4E4E4E4E4D4D4F4F4E4E4E4E4E5B7FAAFFFFFFFFFFFF
310
C9744E1716171616164D8DEAFFFFFFFF0000FFFFFFFFFFFFBA161617161716FF
310
FFFFFFFFB917171616174FFFFFFFFFFFFFFF4E1716161616B9FFFFFFB9341717
310
1716171617171616268CFFFFFFFF161617161617FFFFFFFFFFFFFFB917161717
310
1617167F807F7F7F7F7F7F807F7F807F7F807F7F7F414EFFFFFFFFFFFF8C167F
310
7F807F7F7F7E7F7F807F807F7F807F4E3417258EFFFFEA4E162674AABAEAEBBA
310
AA74341680FFFFFF0000FFFFFFFFFFFFB9171717171617FFFFFFFFFFBB161616
310
16164EFFFFFFFFFFFFFF4E1717171717B9FFFF9C171617171716161616171616
310
171766FFFFFF161717161617FFFFFFFFFFFFFF8E16171717161616FFFFFFFFFF
310
FFFFFFFFFFFFFFFFFFFFFFFFFFAA16D9FFFFFFFFFF3467FFFFFFFFEAFFFFFFFF
310
FFFFFFFFFFFFFFFFFFCA671667EB26278DFFFFFFFFFFFFFFFFFFFF8C2541EAFF
310
0000FFFFFFFFFFFFB9171717171716FFFFFFFFFFBA16171617174EFFFFFFFFFF
310
FFFF4E1717161616BAFF9B1617161616171716171617161616161667FFFF1616
310
16161716FFFFFFFFFFFFFF7F16161617174017FFFFFFFFFFFFFFFFFFFFFFFFFF
310
FFFFFFFFFFFF344E7F7F7F7E7417DAFFFFFFFF80FFFFFFFFFFFFFFFFFFFFFFFF
310
FFFFFF9B163425CAFFFFFFFFFFFFFFFFFFFFFFFFCA2667FF0000FFFFFFFFFFFF
310
BA171717171617FFFFFFFFFFB916171716164EFFFFFFFFFFFFFF4F1716161717
310
B9C91716171616161716161617171616161617168DFF161716161717FFFFFFFF
310
FFFFFF7F17171716164F16FFFFFFFFFFFFFFFFFFFFFFFFFFFFFFFFFFFFFF9B16
310
17161617174EFFFFFFFFFF34FFFFFFFFD9BABABABABADAFFFFFFFFFF7F16AAFF
310
FFFFFFFFFFFFFFFFFFFFFFFFFF9C16BA0000FFFFFFFFFFFFB9161717161717FF
310
FFFFFFFFB917161716174DFFFFFFFFFFFFFF4E1616161616BA4E161617171716
310
419BEAEAAA4E16161617161726E9171717161616FFFFFFFFFFFFFF4F16161717
310
164E16FFFFFFFFFFBAB9B9B9B9B9BABABACAFFFFFFFFFFFFFFFFFFFFFFFFFFFF
310
FFFFBA16FFFFFFFF7F1617161617174DEAFFFFFFEA41FFFFFFFFFFAA4D16174E
310
9BFFFFFFFFFF34730000FFFFFFFFFFFFB9161617171617FFFFFFFFFFBA161616
310
16164EFFFFFFFFFFFFFF4F16161717169B1617161716175BFFFFFFFFFFFF7417
310
16171616168D171717161617FFFFFFFFFFFFEA2616171717167416FFFFFFFFFF
310
16171616171717171717EAFFFFFFFFFFFFFFFFFFFFFFFFFFFFFF6716FFFFFFFF
310
7F4EFFFFFFFFBA2573FFFFFFFFBAFFFFFFFFAA167FB9BB9B269BFFFFFFFF664F
310
0000FFFFFFFFFFFFB9171616161616FFFFFFFFFFBA16161717164EFFFFFFFFFF
310
FFFF4E16161616174E161617171626EAFFFFFFFFFFFFFF4E16161616164E1716
310
16161617FFFFFFFFFFFF671616161716347F16FFFFFFFFFF16B9FFFFFFFFFFFF
310
D9168DFFFFFFFFFFFFFFFFFFFFFFFFFFFFEA1716FFFFFFFF7F4EFFFFFFFFFF7F
310
4EFFFFFFFFFFFFFFFFFF5B66FFFFFFEA347FFFFFFFFF7F4D0000FFFFFFFFFFFF
310
B9171616171617FFFFFFFFFFBA17161716174EFFFFFFFFFFFFFF4D1716161617
310
17161716161673FFFFFFFFFFFFFFFF9B1617161717161616171616174F4E4E4E
310
4E341616171616167E7F16FFFFFFFFFF16BAFFFFFFFFFFFFFF5B41FFFFFFFF34
310
1616171616BAFFFFFF9B1716FFFFFFFF7F4EFFFFFFFFFF4E4EFFFFFFFF734E4E
310
4E4E267EDA9B67164EEAFFFFFFFF744D0000FFFFFFFFFFFFBA171717161617FF
310
FFFFFFFFBA1616171616347F7F7F7F80807F331616161717161717161716B9FF
310
FFFFFFFFFFFFFFE9161616161616171716161716171616161616171616171734
310
EA7F16FFFFFFFFFF16BAFFFFFFFFFFFFFFAA17C9FFFFFF7326BABA5B25FFFFFF
310
FF401716FFFFFFFF7F264F4E4E4E4217AAFFFFFFEA16677F73261616164173CA
310
FFFFFFFFFFFF417F0000FFFFFFFFFFFFBA171616171617FFFFFFFFFFBA161616
310
17171616161616161616161717161616161616161617EAFFFFFFFFFFFFFFFFFF
310
261717161716161617161616161617161617161616174EEAFF8016FFFFFFFFFF
310
17BAFFFFFFFFFFFFFFFF3467FFFFFFC916C9FF3467FFFFFFDA166716FFFFFFFF
310
9C4D4E4E4E4E67AAFFFFFFFF6834FF7F262567AAEAFFFFFFFFFFFFFFFF9B17D9
310
0000FFFFFFFFFFFFB9161616161616FFFFFFFFFFBA1617161717171616161616
310
1716171716161716161617171716FFFFFFFFFFFFFFFFFFFF4E17161716171616
310
1617171616161716171717161616169BFF7F17FFFFFFFFFF17B9FFFFFFFFFFFF
310
FFFF7326FFFFFFFF3473DA16AAFFFFFF7317AA16FFFFFFFFFFFFFFFFFFFFFFFF
310
FFFFEA6725BA4E167FEAFFFFFFFFFFFFFFFFFFFF9C167FFF0000FFFFFFFFFFFF
310
B9161717171716FFFFFFFFFFBA16161716171616171717161617161716161616
310
171617171617EAFFFFFFFFFFFFFFFFFF26161717161616161616161617171616
310
1616161616171616AA8016FFFFFFFFFF16BAFFFFFFFFFFFFFFFFDA179BFFFFFF
310
74348D26FFFFFFFF2566B917FFFFFFFFD8BAB9BAB9BADAFFFFEA41169B7425C9
310
FFFFFFFFFFFFFFFFFFFFAB4F1680FFFF0000FFFFFFFFFFFFBA161717171617FF
310
FFFFFFFFBA17161717161617171617161616161617171616171716171617BBFF
310
FFFFFFFFFFFFFFE9171616161617161617161716FFFFFFFFFFD9671616161617
310
348017FFFFFFFFFF16BAFFFFFFFFFFFFFFFFFF4E5AFFFFFFC916265AFFFFFFAA
310
16AABA16FFFFFFFF7F1617161616179BFFFFEB4127168DFFFFFFFFFFFFFFD99B
310
6734175AC9FFFFFF0000FFFFFFFFFFFFB9161617171617FFFFFFFFFFBB161616
310
1616347F807F7F7F7F8033171716171617171616161672FFFFFFFFFFFFFFFF9C
310
171617171617161716161617FFFFFFFFFFFFFF4117161616174E17FFFFFFFFFF
310
16BAFFFFFFFFFFFFFFFFFF9B16DAFFFFFF34169BFFFFFF5A26FFB917FFFFFFFF
310
7F4EFFFFFFEA5B26FFFFFFEA2616EAFFFFFFFFDA743416331617414E4E4E4ECA
310
0000FFFFFFFFFFFFBA161716161616FFFFFFFFFFBA17171616164EFFFFFFFFFF
310
FFFF4E16161717174E161717171626EBFFFFFFFFFFFFFF4E16161617165B1616
310
16171617FFFFFFFFFFFFFF6716161616161617FFFFFFFFFF16BAFFFFFFFFFFFF
310
FFFFFFEA268CFFFFFF7316EAFFFFEB1774FFB916FFFFFFFF7F4EFFFFFFFF7316
310
FFFFFFFF6826FFFFFFFFEB264D9CEABA257F807F7F6616BA0000FFFFFFFFFFFF
310
BA161716161616FFFFFFFFFFBA16171616164DFFFFFFFFFFFFFF4E1617161617
310
9B1617171717165BEBFFFFFFFFFF671616161617179B171616161616FFFFFFFF
310
FFFFFF3417161617171617FFFFFFFFFF17BAFFFFFFFFFFFFFFFFFFFF6734FFFF
310
FFEBCAFFFFFF8D17C9FFBA17FFFFFFFF7F357F808066174FFFFFFFFF7F16FFFF
310
FFFFD91673B99B415BFFFFFFFFBA16DA00009B7F7F7F807F671617161616167F
310
80807F7E6617161616164EFFFFFFFFFFFFFF4E1616161617B94E171716161616
310
349BC9D9AA4E16171616161634FF161617161717B9B9BAB9BA9B411716171716
310
163416FFFFFFFFFF16B9FFFFFFFFFFFFFFFFFFFFC917CAFFFFFFFFFFFFFF3342
310
FFFFBA17FFFFFFFF9B4E4E4F4E4E66EAFFFFFFFF5B16C9FFFFFFFFAA4E164E73
310
EAFFFFFFFF8D26FF00004E161716161616171617171616171717171617161616
310
17174EFFFFFFFFFFFFFF4E1717171616B9D92616171716171716171717171716
310
16171716AAFF161717171617161617171616161617161716166717FFFFFFFFFF
310
17B9FFFFFFFFFFFFFFFFFFFFFF3467FFFFFFFFFFFFCA168CFFFFBB17FFFFFFFF
310
FFFFFFFFFFFFFFFFFFFFFFEA26265BFFFFFFFFFFFFFFFFFFFFFFFFFFEA3467FF
310
00004D16161616161617161717161617161616171617171616164EFFFFFFFFFF
310
FFFF4D1617161616BAFF9B1616161616161716161616171717161766FFFF1616
310
16171617161617161716171616171717667F16FFFFFFFFFF17BAFFFFFFFFFFFF
310
FFFFFFFFFF8C26EAFFFFFFFFFF6617EAFFFFBA17FFFFFFFFFFFFFFFFFFFFFFFF
310
FFFFEA5A25BA269BFFFFFFFFFFFFFFFFFFFFFFFF6616DAFF00004E1616171616
310
1616161616161716161617171616171616174EFFFFFFFFFFFFFF4D1717171716
310
B9FFFF9C161616161616161716161717171667FFFFFF17161717171716161617
310
1716161616161641E97E16FFFFFFFFFF16B9FFFFFFFFFFFFFFFFFFFFFFEA169B
310
FFFFFFFFEA265BFFFFFFB916FFFFFFFFFFFFFFFFFFFFFFFFFF9B3416AAFF9B17
310
67EAFFFFFFFFFFFFFFFFEA5B169BFFFF00004D17161716161616161717171616
310
161717161716171716174EFFFFFFFFFFFFFF4D1616161616BAFFFFFFBB411616
310
161716161616171634ABFFFFFFFF161716161617171716171617171617267FFF
310
FF7F164E4E4E4E4F17BAFFFFFFFFFFFFFFFFFFFFFFFF66344D4E4E4F4117AAFF
310
FFFFBA174E4E4E4D4E4D4D4E4E4E4E4116174EBBFFFFFFCA342666ABEAFFFFEA
310
AA6725269CFFFFFF0000724F4E4D4D4D4E4D4D4E4E4E4D4E4E4E4E4E4E4E4E4D
310
4E4E74FFFFFFFFFFFFFF734E4E4E4D4ECAFFFFFFFFFFAA663416171717265B9B
310
FFFFFFFFFFFF7F8080807F80807F7F7F7F7F807FBAFFFFFFFF9B4E4E4F4D4D4E
310
4DC9FFFFFFFFFFFFFFFFFFFFFFFFBA4E4E4E4E4D4E4EFFFFFFFFC94E4E4E4F4E
310
4E4E4D4E4E5A807F9CD9FFFFFFFFFFFFFF9B5B2617171716174E8DEAFFFFFFFF
310
0000000000000000000000000000000000000000000000000000000000000000
  1
OLE
  0
ENDSEC
  0
SECTION
  2
OBJECTS
  0
DICTIONARY
  5
C
330
0
100
AcDbDictionary
281
     1
  3
ACAD_GROUP
350
D
  3
ACAD_LAYOUT
350
1A
  3
ACAD_MLINESTYLE
350
17
  3
ACAD_PLOTSETTINGS
350
19
  3
ACAD_PLOTSTYLENAME
350
E
  3
ACAD_SCALELIST
350
47
  0
DICTIONARY
  5
D
102
{ACAD_REACTORS
330
C
102
}
330
C
100
AcDbDictionary
281
     1
  0
DICTIONARY
  5
1A
102
{ACAD_REACTORS
330
C
102
}
330
C
100
AcDbDictionary
281
     1
  3
Layout1
350
1E
  3
Layout2
350
26
  3
Model
350
22
  0
DICTIONARY
  5
17
102
{ACAD_REACTORS
330
C
102
}
330
C
100
AcDbDictionary
281
     1
  3
Standard
350
18
  0
DICTIONARY
  5
19
102
{ACAD_REACTORS
330
C
102
}
330
C
100
AcDbDictionary
281
     1
  0
ACDBDICTIONARYWDFLT
  5
E
102
{ACAD_REACTORS
330
C
102
}
330
C
100
AcDbDictionary
281
     1
  3
Normal
350
F
100
AcDbDictionaryWithDefault
340
F
  0
DICTIONARY
  5
47
102
{ACAD_REACTORS
330
C
102
}
330
C
100
AcDbDictionary
281
     1
  3
A0
350
48
  3
A1
350
49
  3
A2
350
4A
  3
A3
350
4B
  3
A4
350
4C
  3
A5
350
4D
  3
A6
350
4E
  3
A7
350
4F
  3
A8
350
50
  3
A9
350
51
  3
B0
350
52
  3
B1
350
53
  3
B2
350
54
  3
B3
350
55
  3
B4
350
56
  3
B5
350
57
  3
B6
350
58
  3
B7
350
59
  3
B8
350
5A
  3
B9
350
5B
  3
C0
350
5C
  3
C1
350
5D
  3
C2
350
5E
  3
C3
350
5F
  3
C4
350
60
  3
C5
350
61
  3
C6
350
62
  3
C7
350
63
  3
C8
350
64
  3
C9
350
65
  3
D0
350
66
  3
D1
350
67
  3
D2
350
68
  0
LAYOUT
  5
1E
102
{ACAD_REACTORS
330
1A
102
}
330
1A
100
AcDbPlotSettings
  1

  2
none_device
  4

  6

 40
0.0
 41
0.0
 42
0.0
 43
0.0
 44
0.0
 45
0.0
 46
0.0
 47
0.0
 48
0.0
 49
0.0
140
0.0
141
0.0
142
1.0
143
1.0
 70
   688
 72
     1
 73
     0
 74
     5
  7

 75
    16
147
1.0
148
0.0
149
0.0
100
AcDbLayout
  1
Layout1
 70
     1
 71
     1
 10
0.0
 20
0.0
 11
420.0
 21
297.0
 12
0.0
 22
0.0
 32
0.0
 14
1.0000000000E+20
 24
1.0000000000E+20
 34
1.0000000000E+20
 15
-1.0000000000E+20
 25
-1.0000000000E+20
 35
-1.0000000000E+20
146
0.0
 13
0.0
 23
0.0
 33
0.0
 16
1.0
 26
0.0
 36
0.0
 17
0.0
 27
1.0
 37
0.0
 76
     0
330
1B
  0
LAYOUT
  5
26
102
{ACAD_REACTORS
330
1A
102
}
330
1A
100
AcDbPlotSettings
  1

  2
none_device
  4

  6

 40
0.0
 41
0.0
 42
0.0
 43
0.0
 44
0.0
 45
0.0
 46
0.0
 47
0.0
 48
0.0
 49
0.0
140
0.0
141
0.0
142
1.0
143
1.0
 70
   688
 72
     1
 73
     0
 74
     5
  7

 75
    16
147
1.0
148
0.0
149
0.0
100
AcDbLayout
  1
Layout2
 70
     1
 71
     2
 10
0.0
 20
0.0
 11
0.0
 21
0.0
 12
0.0
 22
0.0
 32
0.0
 14
0.0
 24
0.0
 34
0.0
 15
0.0
 25
0.0
 35
0.0
146
0.0
 13
0.0
 23
0.0
 33
0.0
 16
1.0
 26
0.0
 36
0.0
 17
0.0
 27
1.0
 37
0.0
 76
     0
330
23
  0
LAYOUT
  5
22
102
{ACAD_REACTORS
330
1A
102
}
330
1A
100
AcDbPlotSettings
  1

  2
none_device
  4
Letter_(8.50_x_11.00_Inches)
  6

 40
6.35
 41
6.35
 42
6.35000508
 43
6.35000508
 44
215.9
 45
279.4
 46
0.0
 47
0.0
 48
0.0
 49
0.0
140
0.0
141
0.0
142
1.0
143
1.0
 70
  1712
 72
     1
 73
     0
 74
     0
  7

 75
     0
147
1.0
148
0.0
149
0.0
100
AcDbLayout
  1
Model
 70
     1
 71
     0
 10
0.0
 20
0.0
 11
93.1333333333
 21
71.9666666667
 12
0.0
 22
0.0
 32
0.0
 14
0.0
 24
0.0
 34
0.0
 15
93.1333333333
 25
71.9666666667
 35
0.0
146
0.0
 13
0.0
 23
0.0
 33
0.0
 16
1.0
 26
0.0
 36
0.0
 17
0.0
 27
1.0
 37
0.0
 76
     0
330
1F
331
29
  0
MLINESTYLE
  5
18
102
{ACAD_REACTORS
330
17
102
}
330
17
100
AcDbMlineStyle
  2
Standard
 70
     0
  3

 62
   256
 51
90.0
 52
90.0
 71
     2
 49
0.5
 62
   256
  6
BYLAYER
 49
-0.5
 62
   256
  6
BYLAYER
  0
ACDBPLACEHOLDER
  5
F
102
{ACAD_REACTORS
330
E
102
}
330
E
  0
SCALE
  5
48
102
{ACAD_REACTORS
330
47
102
}
330
47
100
AcDbScale
 70
     0
300
1:1
140
1.0
141
1.0
290
     1
  0
SCALE
  5
49
102
{ACAD_REACTORS
330
47
102
}
330
47
100
AcDbScale
 70
     0
300
1:2
140
1.0
141
2.0
290
     0
  0
SCALE
  5
4A
102
{ACAD_REACTORS
330
47
102
}
330
47
100
AcDbScale
 70
     0
300
1:4
140
1.0
141
4.0
290
     0
  0
SCALE
  5
4B
102
{ACAD_REACTORS
330
47
102
}
330
47
100
AcDbScale
 70
     0
300
1:5
140
1.0
141
5.0
290
     0
  0
SCALE
  5
4C
102
{ACAD_REACTORS
330
47
102
}
330
47
100
AcDbScale
 70
     0
300
1:8
140
1.0
141
8.0
290
     0
  0
SCALE
  5
4D
102
{ACAD_REACTORS
330
47
102
}
330
47
100
AcDbScale
 70
     0
300
1:10
140
1.0
141
10.0
290
     0
  0
SCALE
  5
4E
102
{ACAD_REACTORS
330
47
102
}
330
47
100
AcDbScale
 70
     0
300
1:16
140
1.0
141
16.0
290
     0
  0
SCALE
  5
4F
102
{ACAD_REACTORS
330
47
102
}
330
47
100
AcDbScale
 70
     0
300
1:20
140
1.0
141
20.0
290
     0
  0
SCALE
  5
50
102
{ACAD_REACTORS
330
47
102
}
330
47
100
AcDbScale
 70
     0
300
1:30
140
1.0
141
30.0
290
     0
  0
SCALE
  5
51
102
{ACAD_REACTORS
330
47
102
}
330
47
100
AcDbScale
 70
     0
300
1:40
140
1.0
141
40.0
290
     0
  0
SCALE
  5
52
102
{ACAD_REACTORS
330
47
102
}
330
47
100
AcDbScale
 70
     0
300
1:50
140
1.0
141
50.0
290
     0
  0
SCALE
  5
53
102
{ACAD_REACTORS
330
47
102
}
330
47
100
AcDbScale
 70
     0
300
1:100
140
1.0
141
100.0
290
     0
  0
SCALE
  5
54
102
{ACAD_REACTORS
330
47
102
}
330
47
100
AcDbScale
 70
     0
300
2:1
140
2.0
141
1.0
290
     0
  0
SCALE
  5
55
102
{ACAD_REACTORS
330
47
102
}
330
47
100
AcDbScale
 70
     0
300
4:1
140
4.0
141
1.0
290
     0
  0
SCALE
  5
56
102
{ACAD_REACTORS
330
47
102
}
330
47
100
AcDbScale
 70
     0
300
8:1
140
8.0
141
1.0
290
     0
  0
SCALE
  5
57
102
{ACAD_REACTORS
330
47
102
}
330
47
100
AcDbScale
 70
     0
300
10:1
140
10.0
141
1.0
290
     0
  0
SCALE
  5
58
102
{ACAD_REACTORS
330
47
102
}
330
47
100
AcDbScale
 70
     0
300
100:1
140
100.0
141
1.0
290
     0
  0
SCALE
  5
59
102
{ACAD_REACTORS
330
47
102
}
330
47
100
AcDbScale
 70
     0
300
1/128" = 1'-0"
140
0.0078125
141
12.0
290
     0
  0
SCALE
  5
5A
102
{ACAD_REACTORS
330
47
102
}
330
47
100
AcDbScale
 70
     0
300
1/64" = 1'-0"
140
0.015625
141
12.0
290
     0
  0
SCALE
  5
5B
102
{ACAD_REACTORS
330
47
102
}
330
47
100
AcDbScale
 70
     0
300
1/32" = 1'-0"
140
0.03125
141
12.0
290
     0
  0
SCALE
  5
5C
102
{ACAD_REACTORS
330
47
102
}
330
47
100
AcDbScale
 70
     0
300
1/16" = 1'-0"
140
0.0625
141
12.0
290
     0
  0
SCALE
  5
5D
102
{ACAD_REACTORS
330
47
102
}
330
47
100
AcDbScale
 70
     0
300
3/32" = 1'-0"
140
0.09375
141
12.0
290
     0
  0
SCALE
  5
5E
102
{ACAD_REACTORS
330
47
102
}
330
47
100
AcDbScale
 70
     0
300
1/8" = 1'-0"
140
0.125
141
12.0
290
     0
  0
SCALE
  5
5F
102
{ACAD_REACTORS
330
47
102
}
330
47
100
AcDbScale
 70
     0
300
3/16" = 1'-0"
140
0.1875
141
12.0
290
     0
  0
SCALE
  5
60
102
{ACAD_REACTORS
330
47
102
}
330
47
100
AcDbScale
 70
     0
300
1/4" = 1'-0"
140
0.25
141
12.0
290
     0
  0
SCALE
  5
61
102
{ACAD_REACTORS
330
47
102
}
330
47
100
AcDbScale
 70
     0
300
3/8" = 1'-0"
140
0.375
141
12.0
290
     0
  0
SCALE
  5
62
102
{ACAD_REACTORS
330
47
102
}
330
47
100
AcDbScale
 70
     0
300
1/2" = 1'-0"
140
0.5
141
12.0
290
     0
  0
SCALE
  5
63
102
{ACAD_REACTORS
330
47
102
}
330
47
100
AcDbScale
 70
     0
300
3/4" = 1'-0"
140
0.75
141
12.0
290
     0
  0
SCALE
  5
64
102
{ACAD_REACTORS
330
47
102
}
330
47
100
AcDbScale
 70
     0
300
1" = 1'-0"
140
1.0
141
12.0
290
     0
  0
SCALE
  5
65
102
{ACAD_REACTORS
330
47
102
}
330
47
100
AcDbScale
 70
     0
300
1-1/2" = 1'-0"
140
1.5
141
12.0
290
     0
  0
SCALE
  5
66
102
{ACAD_REACTORS
330
47
102
}
330
47
100
AcDbScale
 70
     0
300
3" = 1'-0"
140
3.0
141
12.0
290
     0
  0
SCALE
  5
67
102
{ACAD_REACTORS
330
47
102
}
330
47
100
AcDbScale
 70
     0
300
6" = 1'-0"
140
6.0
141
12.0
290
     0
  0
SCALE
  5
68
102
{ACAD_REACTORS
330
47
102
}
330
47
100
AcDbScale
 70
     0
300
1'-0" = 1'-0"
140
12.0
141
12.0
290
     0
  0
ENDSEC
  0
EOF
