  0
SECTION
  2
HEADER
  9
$ACADVER
  1
AC1015
  9
$ACADMAINTVER
 70
     6
  9
$DWGCODEPAGE
  3
ANSI_1252
  9
$INSBASE
 10
0.0
 20
0.0
 30
0.0
  9
$EXTMIN
 10
0.0
 20
0.0
 30
0.0
  9
$EXTMAX
 10
279.4
 20
215.9
 30
0.0
  9
$LIMMIN
 10
0.0
 20
0.0
  9
$LIMMAX
 10
279.4
 20
215.9
  9
$ORTHOMODE
 70
     0
  9
$REGENMODE
 70
     1
  9
$FILLMODE
 70
     1
  9
$QTEXTMODE
 70
     0
  9
$MIRRTEXT
 70
     1
  9
$LTSCALE
 40
1.0
  9
$ATTMODE
 70
     1
  9
$TEXTSIZE
 40
2.8222222222
  9
$TRACEWID
 40
1.0
  9
$TEXTSTYLE
  7
Standard
  9
$CLAYER
  8
0
  9
$CELTYPE
  6
ByLayer
  9
$CECOLOR
 62
   256
  9
$CELTSCALE
 40
1.0
  9
$DISPSILH
 70
     0
  9
$DIMSCALE
 40
1.0
  9
$DIMASZ
 40
3.175
  9
$DIMEXO
 40
1.27
  9
$DIMDLI
 40
3.75
  9
$DIMRND
 40
0.0
  9
$DIMDLE
 40
0.0
  9
$DIMEXE
 40
1.778
  9
$DIMTP
 40
0.0
  9
$DIMTM
 40
0.0
  9
$DIMTXT
 40
2.8222222222
  9
$DIMCEN
 40
2.5
  9
$DIMTSZ
 40
0.0
  9
$DIMTOL
 70
     0
  9
$DIMLIM
 70
     0
  9
$DIMTIH
 70
     1
  9
$DIMTOH
 70
     1
  9
$DIMSE1
 70
     0
  9
$DIMSE2
 70
     0
  9
$DIMTAD
 70
     1
  9
$DIMZIN
 70
     1
  9
$DIMBLK
  1

  9
$DIMASO
 70
     1
  9
$DIMSHO
 70
     1
  9
$DIMPOST
  1

  9
$DIMAPOST
  1

  9
$DIMALT
 70
     0
  9
$DIMALTD
 70
     3
  9
$DIMALTF
 40
0.0393700787
  9
$DIMLFAC
 40
1.0
  9
$DIMTOFL
 70
     1
  9
$DIMTVP
 40
0.0
  9
$DIMTIX
 70
     0
  9
$DIMSOXD
 70
     0
  9
$DIMSAH
 70
     0
  9
$DIMBLK1
  1

  9
$DIMBLK2
  1

  9
$DIMSTYLE
  2
ISO-25
  9
$DIMCLRD
 70
     0
  9
$DIMCLRE
 70
     0
  9
$DIMCLRT
 70
     0
  9
$DIMTFAC
 40
1.0
  9
$DIMGAP
 40
2.54
  9
$DIMJUST
 70
     0
  9
$DIMSD1
 70
     0
  9
$DIMSD2
 70
     0
  9
$DIMTOLJ
 70
     0
  9
$DIMTZIN
 70
     1
  9
$DIMALTZ
 70
     0
  9
$DIMALTTZ
 70
     0
  9
$DIMUPT
 70
     0
  9
$DIMDEC
 70
     1
  9
$DIMTDEC
 70
     1
  9
$DIMALTU
 70
     2
  9
$DIMALTTD
 70
     3
  9
$DIMTXSTY
  7
Standard
  9
$DIMAUNIT
 70
     0
  9
$DIMADEC
 70
     0
  9
$DIMALTRND
 40
0.0
  9
$DIMAZIN
 70
     0
  9
$DIMDSEP
 70
    44
  9
$DIMATFIT
 70
     3
  9
$DIMFRAC
 70
     0
  9
$DIMLDRBLK
  1

  9
$DIMLUNIT
 70
     2
  9
$DIMLWD
 70
    -2
  9
$DIMLWE
 70
    -2
  9
$DIMTMOVE
 70
     0
  9
$LUNITS
 70
     2
  9
$LUPREC
 70
     1
  9
$SKETCHINC
 40
1.0
  9
$FILLETRAD
 40
10.0
  9
$AUNITS
 70
     0
  9
$AUPREC
 70
     0
  9
$MENU
  1
.
  9
$ELEVATION
 40
0.0
  9
$PELEVATION
 40
0.0
  9
$THICKNESS
 40
0.0
  9
$LIMCHECK
 70
     0
  9
$CHAMFERA
 40
10.0
  9
$CHAMFERB
 40
10.0
  9
$CHAMFERC
 40
20.0
  9
$CHAMFERD
 40
0.0
  9
$SKPOLY
 70
     0
  9
$TDCREATE
 40
2456244.562621551
  9
$TDUCREATE
 40
2456244.770954884
  9
$TDUPDATE
 40
2456244.562621562
  9
$TDUUPDATE
 40
2456244.770954896
  9
$TDINDWG
 40
0.0000000116
  9
$TDUSRTIMER
 40
0.0000000116
  9
$USRTIMER
 70
     1
  9
$ANGBASE
 50
0.0
  9
$ANGDIR
 70
     0
  9
$PDMODE
 70
     0
  9
$PDSIZE
 40
-1.0
  9
$PLINEWID
 40
0.0
  9
$SPLFRAME
 70
     0
  9
$SPLINETYPE
 70
     6
  9
$SPLINESEGS
 70
     8
  9
$HANDSEED
  5
237
  9
$SURFTAB1
 70
     6
  9
$SURFTAB2
 70
     6
  9
$SURFTYPE
 70
     6
  9
$SURFU
 70
     6
  9
$SURFV
 70
     6
  9
$UCSBASE
  2

  9
$UCSNAME
  2

  9
$UCSORG
 10
0.0
 20
0.0
 30
0.0
  9
$UCSXDIR
 10
1.0
 20
0.0
 30
0.0
  9
$UCSYDIR
 10
0.0
 20
1.0
 30
0.0
  9
$UCSORTHOREF
  2

  9
$UCSORTHOVIEW
 70
     0
  9
$UCSORGTOP
 10
0.0
 20
0.0
 30
0.0
  9
$UCSORGBOTTOM
 10
0.0
 20
0.0
 30
0.0
  9
$UCSORGLEFT
 10
0.0
 20
0.0
 30
0.0
  9
$UCSORGRIGHT
 10
0.0
 20
0.0
 30
0.0
  9
$UCSORGFRONT
 10
0.0
 20
0.0
 30
0.0
  9
$UCSORGBACK
 10
0.0
 20
0.0
 30
0.0
  9
$PUCSBASE
  2

  9
$PUCSNAME
  2

  9
$PUCSORG
 10
0.0
 20
0.0
 30
0.0
  9
$PUCSXDIR
 10
1.0
 20
0.0
 30
0.0
  9
$PUCSYDIR
 10
0.0
 20
1.0
 30
0.0
  9
$PUCSORTHOREF
  2

  9
$PUCSORTHOVIEW
 70
     0
  9
$PUCSORGTOP
 10
0.0
 20
0.0
 30
0.0
  9
$PUCSORGBOTTOM
 10
0.0
 20
0.0
 30
0.0
  9
$PUCSORGLEFT
 10
0.0
 20
0.0
 30
0.0
  9
$PUCSORGRIGHT
 10
0.0
 20
0.0
 30
0.0
  9
$PUCSORGFRONT
 10
0.0
 20
0.0
 30
0.0
  9
$PUCSORGBACK
 10
0.0
 20
0.0
 30
0.0
  9
$USERI1
 70
     0
  9
$USERI2
 70
     0
  9
$USERI3
 70
     0
  9
$USERI4
 70
     0
  9
$USERI5
 70
     0
  9
$USERR1
 40
0.0
  9
$USERR2
 40
0.0
  9
$USERR3
 40
0.0
  9
$USERR4
 40
0.0
  9
$USERR5
 40
0.0
  9
$WORLDVIEW
 70
     1
  9
$SHADEDGE
 70
     3
  9
$SHADEDIF
 70
    70
  9
$TILEMODE
 70
     1
  9
$MAXACTVP
 70
    64
  9
$PINSBASE
 10
0.0
 20
0.0
 30
0.0
  9
$PLIMCHECK
 70
     0
  9
$PEXTMIN
 10
1.0000000000E+20
 20
1.0000000000E+20
 30
1.0000000000E+20
  9
$PEXTMAX
 10
-1.0000000000E+20
 20
-1.0000000000E+20
 30
-1.0000000000E+20
  9
$PLIMMIN
 10
0.0
 20
0.0
  9
$PLIMMAX
 10
420.0
 20
297.0
  9
$UNITMODE
 70
     0
  9
$VISRETAIN
 70
     1
  9
$PLINEGEN
 70
     0
  9
$PSLTSCALE
 70
     1
  9
$TREEDEPTH
 70
  3020
  9
$CMLSTYLE
  2
Standard
  9
$CMLJUST
 70
     0
  9
$CMLSCALE
 40
20.0
  9
$PROXYGRAPHICS
 70
     1
  9
$MEASUREMENT
 70
     1
  9
$CELWEIGHT
370
    -1
  9
$ENDCAPS
280
     0
  9
$JOINSTYLE
280
     0
  9
$LWDISPLAY
290
     1
  9
$INSUNITS
 70
     4
  9
$HYPERLINKBASE
  1

  9
$STYLESHEET
  1

  9
$XEDIT
290
     1
  9
$CEPSNTYPE
380
     0
  9
$PSTYLEMODE
290
     1
  9
$FINGERPRINTGUID
  2
{C4967520-87DD-497A-B82B-EEC29DFEF707}
  9
$VERSIONGUID
  2
{FAEB1C32-E019-11D5-929B-00C0DF256EC4}
  9
$EXTNAMES
290
     1
  9
$PSVPSCALE
 40
0.0
  9
$OLESTARTUP
290
     0
  0
ENDSEC
  0
SECTION
  2
CLASSES
  0
CLASS
  1
ACDBDICTIONARYWDFLT
  2
AcDbDictionaryWithDefault
  3
ObjectDBX Classes
 90
        0
280
     0
281
     0
  0
CLASS
  1
VISUALSTYLE
  2
AcDbVisualStyle
  3
ObjectDBX Classes
 90
     4095
280
     0
281
     0
  0
CLASS
  1
MATERIAL
  2
AcDbMaterial
  3
ObjectDBX Classes
 90
     1153
280
     0
281
     0
  0
CLASS
  1
ACDBPLACEHOLDER
  2
AcDbPlaceHolder
  3
ObjectDBX Classes
 90
        0
280
     0
281
     0
  0
CLASS
  1
LAYOUT
  2
AcDbLayout
  3
ObjectDBX Classes
 90
        0
280
     0
281
     0
  0
ENDSEC
  0
SECTION
  2
TABLES
  0
TABLE
  2
VPORT
  5
8
330
0
100
AcDbSymbolTable
 70
     1
  0
VPORT
  5
29
330
8
100
AcDbSymbolTableRecord
100
AcDbViewportTableRecord
  2
*Active
 70
     0
 10
0.0
 20
0.0
 11
1.0
 21
1.0
 12
139.7
 22
107.95
 13
0.0
 23
0.0
 14
10.0
 24
10.0
 15
10.0
 25
10.0
 16
0.0
 26
0.0
 36
1.0
 17
0.0
 27
0.0
 37
0.0
 40
215.9
 41
1.2941176471
 42
50.0
 43
0.0
 44
0.0
 50
0.0
 51
0.0
 71
     0
 72
  2000
 73
     1
 74
     3
 75
     0
 76
     0
 77
     0
 78
     0
281
     0
 65
     1
110
0.0
120
0.0
130
0.0
111
1.0
121
0.0
131
0.0
112
0.0
122
1.0
132
0.0
 79
     0
146
0.0
  0
ENDTAB
  0
TABLE
  2
LTYPE
  5
5
330
0
100
AcDbSymbolTable
 70
     6
  0
LTYPE
  5
14
330
5
100
AcDbSymbolTableRecord
100
AcDbLinetypeTableRecord
  2
ByBlock
 70
     0
  3

 72
    65
 73
     0
 40
0.0
  0
LTYPE
  5
15
330
5
100
AcDbSymbolTableRecord
100
AcDbLinetypeTableRecord
  2
ByLayer
 70
     0
  3

 72
    65
 73
     0
 40
0.0
  0
LTYPE
  5
16
330
5
100
AcDbSymbolTableRecord
100
AcDbLinetypeTableRecord
  2
Continuous
 70
     0
  3
Solid line
 72
    65
 73
     0
 40
0.0
  0
LTYPE
  5
3F
330
5
100
AcDbSymbolTableRecord
100
AcDbLinetypeTableRecord
  2
HIDDEN
 70
     0
  3
Hidden __ __ __ __ __ __ __ __ __ __ __ __ __ __
 72
    65
 73
     2
 40
1.905
 49
1.27
 74
     0
 49
-0.635
 74
     0
  0
LTYPE
  5
40
330
5
100
AcDbSymbolTableRecord
100
AcDbLinetypeTableRecord
  2
PHANTOM
 70
     0
  3
Phantom ______  __  __  ______  __  __  ______
 72
    65
 73
     6
 40
12.7
 49
6.35
 74
     0
 49
-1.27
 74
     0
 49
1.27
 74
     0
 49
-1.27
 74
     0
 49
1.27
 74
     0
 49
-1.27
 74
     0
  0
LTYPE
  5
41
330
5
100
AcDbSymbolTableRecord
100
AcDbLinetypeTableRecord
  2
CENTER
 70
     0
  3
Center ____ _ ____ _ ____ _ ____ _ ____ _ ____
 72
    65
 73
     4
 40
10.16
 49
6.35
 74
     0
 49
-1.27
 74
     0
 49
1.27
 74
     0
 49
-1.27
 74
     0
  0
LTYPE
  5
42
330
5
100
AcDbSymbolTableRecord
100
AcDbLinetypeTableRecord
  2
CENTERX2
 70
     0
  3
Center (2x) ________  __  ________  __  _____
 72
    65
 73
     4
 40
20.32
 49
12.7
 74
     0
 49
-2.54
 74
     0
 49
2.54
 74
     0
 49
-2.54
 74
     0
  0
LTYPE
  5
43
330
5
100
AcDbSymbolTableRecord
100
AcDbLinetypeTableRecord
  2
DOT2
 70
     0
  3
Dot (.5x) ........................................
 72
    65
 73
     2
 40
0.635
 49
0.0
 74
     0
 49
-0.635
 74
     0
  0
ENDTAB
  0
TABLE
  2
LAYER
  5
2
330
0
100
AcDbSymbolTable
 70
     2
  0
LAYER
  5
10
330
2
100
AcDbSymbolTableRecord
100
AcDbLayerTableRecord
  2
0
 70
     0
 62
     7
  6
Continuous
370
    -3
390
F
  0
LAYER
  5
44
330
2
100
AcDbSymbolTableRecord
100
AcDbLayerTableRecord
  2
FORMAT
 70
     0
 62
     7
  6
Continuous
370
    -3
390
F
  0
ENDTAB
  0
TABLE
  2
STYLE
  5
3
330
0
100
AcDbSymbolTable
 70
     5
  0
STYLE
  5
11
330
3
100
AcDbSymbolTableRecord
100
AcDbTextStyleTableRecord
  2
Standard
 70
     0
 40
0.0
 41
1.0
 50
0.0
 71
     0
 42
2.5
  3
txt
  4

  0
STYLE
  5
6B
330
3
100
AcDbSymbolTableRecord
100
AcDbTextStyleTableRecord
  2
SLDTEXTSTYLE0
 70
     0
 40
0.0
 41
0.75
 50
0.0
 71
     0
 42
0.2
  3
TXT
  4

  0
STYLE
  5
75
330
3
100
AcDbSymbolTableRecord
100
AcDbTextStyleTableRecord
  2
SLDTEXTSTYLE1
 70
     0
 40
0.0
 41
0.6
 50
0.0
 71
     0
 42
0.2
  3
TXT
  4

  0
STYLE
  5
9E
330
3
100
AcDbSymbolTableRecord
100
AcDbTextStyleTableRecord
  2
SLDTEXTSTYLE2
 70
     0
 40
0.0
 41
0.75
 50
0.0
 71
     0
 42
0.2
  3
TXT
  4
bigfont
  0
STYLE
  5
B3
330
3
100
AcDbSymbolTableRecord
100
AcDbTextStyleTableRecord
  2
SLDTEXTSTYLE3
 70
     0
 40
0.0
 41
0.7
 50
0.0
 71
     0
 42
0.2
  3
TXT
  4

  0
ENDTAB
  0
TABLE
  2
VIEW
  5
6
330
0
100
AcDbSymbolTable
 70
     0
  0
ENDTAB
  0
TABLE
  2
UCS
  5
7
330
0
100
AcDbSymbolTable
 70
     0
  0
ENDTAB
  0
TABLE
  2
APPID
  5
9
330
0
100
AcDbSymbolTable
 70
     1
  0
APPID
  5
12
330
9
100
AcDbSymbolTableRecord
100
AcDbRegAppTableRecord
  2
ACAD
 70
     0
  0
ENDTAB
  0
TABLE
  2
DIMSTYLE
  5
A
330
0
100
AcDbSymbolTable
 70
     5
100
AcDbDimStyleTable
  0
DIMSTYLE
105
27
330
A
100
AcDbSymbolTableRecord
100
AcDbDimStyleTableRecord
  2
ISO-25
 70
     0
 41
2.5
 42
0.625
 43
3.75
 44
1.25
 73
     0
 74
     0
 77
     1
 78
     8
140
2.5
141
2.5
143
0.0393700787
147
0.625
171
     3
172
     1
178
     0
271
     2
272
     2
274
     3
278
    44
283
     0
284
     8
340
11
  0
DIMSTYLE
105
C0
102
{ACAD_REACTORS
330
BF
102
}
330
A
100
AcDbSymbolTableRecord
100
AcDbDimStyleTableRecord
  2
SLDDIMSTYLE0
 70
     0
 41
3.175
 44
0.0
 45
0.000000001
 78
    12
 79
     3
140
2.1166666667
141
0.0
143
0.0393700787
147
0.5291666667
148
0.000000001
170
     1
173
     1
178
     0
271
     1
272
     1
276
     2
284
    12
340
6B
  0
DIMSTYLE
105
1FE
102
{ACAD_REACTORS
330
1FD
102
}
330
A
100
AcDbSymbolTableRecord
100
AcDbDimStyleTableRecord
  2
SLDDIMSTYLE1
 70
     0
 41
3.175
 44
0.0
 45
0.000000001
 78
     4
 79
     1
140
2.1166666667
141
0.0
143
0.0393700787
147
0.5291666667
148
0.000000001
170
     1
173
     1
178
     0
271
     1
272
     1
276
     2
284
    12
340
6B
  0
DIMSTYLE
105
20F
102
{ACAD_REACTORS
330
20E
102
}
330
A
100
AcDbSymbolTableRecord
100
AcDbDimStyleTableRecord
  2
SLDDIMSTYLE2
 70
     0
 41
3.175
 44
0.0
 45
0.000000001
 78
     4
 79
     1
140
2.1166666667
143
0.0393700787
147
0.5291666667
148
0.000000001
170
     1
172
     1
173
     1
178
     0
271
     1
272
     1
276
     2
284
    12
289
     0
340
6B
  0
DIMSTYLE
105
222
102
{ACAD_REACTORS
330
221
102
}
330
A
100
AcDbSymbolTableRecord
100
AcDbDimStyleTableRecord
  2
SLDDIMSTYLE3
 70
     0
 41
3.175
 44
0.0
 45
0.000000001
 78
    12
 79
     3
140
2.1166666667
143
0.0393700787
147
0.5291666667
148
0.000000001
170
     1
172
     1
173
     1
178
     0
271
     1
272
     1
276
     2
284
    12
289
     0
340
6B
  0
ENDTAB
  0
TABLE
  2
BLOCK_RECORD
  5
1
330
0
100
AcDbSymbolTable
 70
    12
  0
BLOCK_RECORD
  5
1F
330
1
100
AcDbSymbolTableRecord
100
AcDbBlockTableRecord
  2
*Model_Space
340
22
  0
BLOCK_RECORD
  5
1B
330
1
100
AcDbSymbolTableRecord
100
AcDbBlockTableRecord
  2
*Paper_Space
340
1E
  0
BLOCK_RECORD
  5
23
330
1
100
AcDbSymbolTableRecord
100
AcDbBlockTableRecord
  2
*Paper_Space0
340
26
  0
BLOCK_RECORD
  5
45
330
1
100
AcDbSymbolTableRecord
100
AcDbBlockTableRecord
  2
Third Angle Projection Block
340
0
102
{BLKREFS
331
6A
102
}
  0
BLOCK_RECORD
  5
7B
330
1
100
AcDbSymbolTableRecord
100
AcDbBlockTableRecord
  2
SW_NOTE_0
340
0
102
{BLKREFS
331
80
102
}
  0
BLOCK_RECORD
  5
81
330
1
100
AcDbSymbolTableRecord
100
AcDbBlockTableRecord
  2
SW_NOTE_1
340
0
102
{BLKREFS
331
86
102
}
  0
BLOCK_RECORD
  5
88
330
1
100
AcDbSymbolTableRecord
100
AcDbBlockTableRecord
  2
SW_NOTE_2
340
0
102
{BLKREFS
331
8D
102
}
  0
BLOCK_RECORD
  5
8F
330
1
100
AcDbSymbolTableRecord
100
AcDbBlockTableRecord
  2
SW_NOTE_3
340
0
102
{BLKREFS
331
95
102
}
  0
BLOCK_RECORD
  5
96
330
1
100
AcDbSymbolTableRecord
100
AcDbBlockTableRecord
  2
SW_NOTE_4
340
0
102
{BLKREFS
331
BA
102
}
  0
BLOCK_RECORD
  5
C1
330
1
100
AcDbSymbolTableRecord
100
AcDbBlockTableRecord
  2
*D7
340
0
  0
BLOCK_RECORD
  5
D0
330
1
100
AcDbSymbolTableRecord
100
AcDbBlockTableRecord
  2
SW_CENTERMARKSYMBOL_0
340
0
102
{BLKREFS
331
D7
102
}
  0
BLOCK_RECORD
  5
1FF
330
1
100
AcDbSymbolTableRecord
100
AcDbBlockTableRecord
  2
*D9
340
0
  0
BLOCK_RECORD
  5
210
330
1
100
AcDbSymbolTableRecord
100
AcDbBlockTableRecord
  2
*D10
340
0
  0
BLOCK_RECORD
  5
223
330
1
100
AcDbSymbolTableRecord
100
AcDbBlockTableRecord
  2
*D11
340
0
  0
ENDTAB
  0
ENDSEC
  0
SECTION
  2
BLOCKS
  0
BLOCK
  5
20
330
1F
100
AcDbEntity
  8
0
100
AcDbBlockBegin
  2
*Model_Space
 70
     0
 10
0.0
 20
0.0
 30
0.0
  3
*Model_Space
  1

  0
ENDBLK
  5
21
330
1F
100
AcDbEntity
  8
0
100
AcDbBlockEnd
  0
BLOCK
  5
1C
330
1B
100
AcDbEntity
 67
     1
  8
0
100
AcDbBlockBegin
  2
*Paper_Space
 70
     0
 10
0.0
 20
0.0
 30
0.0
  3
*Paper_Space
  1

  0
ENDBLK
  5
1D
330
1B
100
AcDbEntity
 67
     1
  8
0
100
AcDbBlockEnd
  0
BLOCK
  5
24
330
23
100
AcDbEntity
  8
0
100
AcDbBlockBegin
  2
*Paper_Space0
 70
     0
 10
0.0
 20
0.0
 30
0.0
  3
*Paper_Space0
  1

  0
ENDBLK
  5
25
330
23
100
AcDbEntity
  8
0
100
AcDbBlockEnd
  0
BLOCK
  5
46
330
45
100
AcDbEntity
  8
0
100
AcDbBlockBegin
  2
Third Angle Projection Block
 70
     0
 10
0.0
 20
0.0
 30
0.0
  3
Third Angle Projection Block
  1

  0
CIRCLE
  5
48
330
45
100
AcDbEntity
  8
0
  6
Continuous
 62
     7
370
    30
100
AcDbCircle
 10
101.4766388944
 20
18.9404083667
 30
0.0
 40
1.768227153674871
  0
CIRCLE
  5
49
330
45
100
AcDbEntity
  8
0
  6
Continuous
 62
     7
370
    30
100
AcDbCircle
 10
101.4766388944
 20
18.9404083667
 30
0.0
 40
3.901228248531818
  0
LINE
  5
4A
330
45
100
AcDbEntity
  8
0
  6
CENTERX2
 62
     7
370
     0
100
AcDbLine
 10
110.1367822585
 20
18.9404083667
 30
0.0
 11
119.4527334874
 21
18.9404083667
 31
0.0
  0
LINE
  5
4B
330
45
100
AcDbEntity
  8
0
  6
Continuous
 62
     7
370
    30
100
AcDbLine
 10
111.0016388944
 20
20.7086355204
 30
0.0
 11
111.0016388944
 21
17.172181213
 31
0.0
  0
LINE
  5
4C
330
45
100
AcDbEntity
  8
0
  6
Continuous
 62
     7
370
    30
100
AcDbLine
 10
111.0016388944
 20
17.172181213
 30
0.0
 11
118.6216388944
 21
15.1304083667
 31
0.0
  0
LINE
  5
4D
330
45
100
AcDbEntity
  8
0
  6
Continuous
 62
     7
370
    30
100
AcDbLine
 10
118.6216388944
 20
15.1304083667
 30
0.0
 11
118.6216388944
 21
22.7504083667
 31
0.0
  0
LINE
  5
4E
330
45
100
AcDbEntity
  8
0
  6
Continuous
 62
     7
370
    30
100
AcDbLine
 10
118.6216388944
 20
22.7504083667
 30
0.0
 11
111.0016388944
 21
20.7086355204
 31
0.0
  0
LINE
  5
4F
330
45
100
AcDbEntity
  8
0
  6
CENTERX2
 62
     7
370
     0
100
AcDbLine
 10
96.6025854619
 20
18.9404083667
 30
0.0
 11
106.3506923269
 21
18.9404083667
 31
0.0
  0
LINE
  5
50
330
45
100
AcDbEntity
  8
0
  6
CENTERX2
 62
     7
370
     0
100
AcDbLine
 10
101.4766388944
 20
23.8144617992
 30
0.0
 11
101.4766388944
 21
14.0663549342
 31
0.0
  0
POINT
  5
51
330
45
100
AcDbEntity
  8
0
  6
Continuous
 62
     7
370
     0
100
AcDbPoint
 10
101.4766388944
 20
18.9404083667
 30
0.0
  0
ENDBLK
  5
47
330
45
100
AcDbEntity
  8
0
100
AcDbBlockEnd
  0
BLOCK
  5
7C
330
7B
100
AcDbEntity
  8
0
100
AcDbBlockBegin
  2
SW_NOTE_0
 70
     0
 10
0.0
 20
0.0
 30
0.0
  3
SW_NOTE_0
  1

  0
MTEXT
  5
7E
330
7B
100
AcDbEntity
  8
0
  6
Continuous
 62
     0
370
     0
100
AcDbMText
 10
19.90725
 20
1.9645392354
 30
0.0
 40
1.524
 41
0.0
 71
     2
 72
     1
  1
VALUES IN PARENTHESIS ARE CALCULATED
  7
SLDTEXTSTYLE0
 73
     1
 44
1.0
  0
MTEXT
  5
7F
330
7B
100
AcDbEntity
  8
0
  6
Continuous
 62
     0
370
     0
100
AcDbMText
 10
19.8778795174
 20
-0.5594606586
 30
0.0
 40
1.524
 41
0.0
 71
     2
 72
     1
  1
AND MAY CONTAIN ROUNDOFF ERRORS
  7
SLDTEXTSTYLE0
 73
     1
 44
1.0
  0
ENDBLK
  5
7D
330
7B
100
AcDbEntity
  8
0
100
AcDbBlockEnd
  0
BLOCK
  5
82
330
81
100
AcDbEntity
  8
0
100
AcDbBlockBegin
  2
SW_NOTE_1
 70
     0
 10
0.0
 20
0.0
 30
0.0
  3
SW_NOTE_1
  1

  0
MTEXT
  5
84
330
81
100
AcDbEntity
  8
0
  6
Continuous
 62
     0
370
     0
100
AcDbMText
 10
0.0
 20
2.7285267159
 30
0.0
 40
2.1166666667
 41
0.0
 71
     1
 72
     1
  1
DRAWING
  7
SLDTEXTSTYLE0
 73
     1
 44
1.0
  0
MTEXT
  5
85
330
81
100
AcDbEntity
  8
0
  6
Continuous
 62
     0
370
     0
100
AcDbMText
 10
0.0
 20
-0.0936954723
 30
0.0
 40
2.1166666667
 41
0.0
 71
     1
 72
     1
  1
PROJECTION
  7
SLDTEXTSTYLE0
 73
     1
 44
1.0
  0
ENDBLK
  5
83
330
81
100
AcDbEntity
  8
0
100
AcDbBlockEnd
  0
BLOCK
  5
89
330
88
100
AcDbEntity
  8
0
100
AcDbBlockBegin
  2
SW_NOTE_2
 70
     0
 10
0.0
 20
0.0
 30
0.0
  3
SW_NOTE_2
  1

  0
MTEXT
  5
8B
330
88
100
AcDbEntity
  8
0
  6
Continuous
 62
     0
370
     0
100
AcDbMText
 10
25.052734375
 20
4.0927900738
 30
0.0
 40
3.175
 41
0.0
 71
     2
 72
     1
  1
FOR INFORMATION ONLY
  7
SLDTEXTSTYLE0
 73
     1
 44
1.0
  0
MTEXT
  5
8C
330
88
100
AcDbEntity
  8
0
  6
Continuous
 62
     0
370
     0
100
AcDbMText
 10
25.3768468589
 20
-0.1405432084
 30
0.0
 40
3.175
 41
0.0
 71
     2
 72
     1
  1
NOT FOR MANUFACTURING PURPOSES
  7
SLDTEXTSTYLE0
 73
     1
 44
1.0
  0
ENDBLK
  5
8A
330
88
100
AcDbEntity
  8
0
100
AcDbBlockEnd
  0
BLOCK
  5
90
330
8F
100
AcDbEntity
  8
0
100
AcDbBlockBegin
  2
SW_NOTE_3
 70
     0
 10
0.0
 20
0.0
 30
0.0
  3
SW_NOTE_3
  1

  0
MTEXT
  5
92
330
8F
100
AcDbEntity
  8
0
  6
Continuous
 62
     0
370
     0
100
AcDbMText
 10
1.9016927083
 20
3.4106583948
 30
0.0
 40
2.6458333333
 41
0.0
 71
     2
 72
     1
  1
%%c
  7
SLDTEXTSTYLE0
 73
     1
 44
1.0
  0
MTEXT
  5
93
330
8F
100
AcDbEntity
  8
0
  6
Continuous
 62
     0
370
     0
100
AcDbMText
 10
30.4934129218
 20
3.4106583948
 30
0.0
 40
2.6458333333
 41
0.0
 71
     2
 72
     1
  1
50.8mm, f= 200.0mm CONCAVE
  7
SLDTEXTSTYLE0
 73
     1
 44
1.0
  0
MTEXT
  5
94
330
8F
100
AcDbEntity
  8
0
  6
Continuous
 62
     0
370
     0
100
AcDbMText
 10
28.888212204
 20
-0.1171193403
 30
0.0
 40
2.6458333333
 41
0.0
 71
     2
 72
     1
  1
PROTECTED SILVER MIRROR
  7
SLDTEXTSTYLE0
 73
     1
 44
1.0
  0
ENDBLK
  5
91
330
8F
100
AcDbEntity
  8
0
100
AcDbBlockEnd
  0
BLOCK
  5
97
330
96
100
AcDbEntity
  8
0
100
AcDbBlockBegin
  2
SW_NOTE_4
 70
     0
 10
0.0
 20
0.0
 30
0.0
  3
SW_NOTE_4
  1

  0
MTEXT
  5
99
330
96
100
AcDbEntity
  8
0
  6
Continuous
 62
     0
370
     0
100
AcDbMText
 10
0.0
 20
3.0695925553
 30
0.0
 40
2.38125
 41
0.0
 71
     1
 72
     1
  1
NOTES/SPECIFICATIONS:
  7
SLDTEXTSTYLE0
 73
     1
 44
1.0
  0
MTEXT
  5
9A
330
96
100
AcDbEntity
  8
0
  6
Continuous
 62
     0
370
     0
100
AcDbMText
 10
9.9999997765
 20
-3.2804073679
 30
0.0
 40
2.38125
 41
0.0
 71
     1
 72
     1
  1
CLEAR APERTURE: >90% DIAMETER
  7
SLDTEXTSTYLE0
 73
     1
 44
1.0
  0
MTEXT
  5
9B
330
96
100
AcDbEntity
  8
0
  6
Continuous
 62
     0
370
     0
100
AcDbMText
 10
0.0
 20
-3.2804073679
 30
0.0
 40
2.38125
 41
0.0
 71
     1
 72
     1
  1
1.
  7
SLDTEXTSTYLE0
 73
     1
 44
1.0
  0
MTEXT
  5
9C
330
96
100
AcDbEntity
  8
0
  6
Continuous
 62
     0
370
     0
100
AcDbMText
 10
9.9999997765
 20
-6.5976282029
 30
0.0
 40
2.38125
 41
0.0
 71
     1
 72
     1
  1
SURFACE ACCURACY
  7
SLDTEXTSTYLE0
 73
     1
 44
1.0
  0
MTEXT
  5
9D
330
96
100
AcDbEntity
  8
0
  6
Continuous
 62
     0
370
     0
100
AcDbMText
 10
42.9582651705
 20
-6.6891910621
 30
0.0
 40
2.286
 41
0.0
 71
     1
 72
     1
  1
:
  7
SLDTEXTSTYLE0
 73
     1
 44
1.0
  0
MTEXT
  5
9F
330
96
100
AcDbEntity
  8
0
  6
Continuous
 62
     0
370
     0
100
AcDbMText
 10
44.6957833081
 20
-6.5976282029
 30
0.0
 40
2.38125
 41
0.0
 71
     1
 72
     1
  1
\M+183C9/
  7
SLDTEXTSTYLE2
 73
     1
 44
1.0
  0
MTEXT
  5
A0
330
96
100
AcDbEntity
  8
0
  6
Continuous
 62
     0
370
     0
100
AcDbMText
 10
47.7715637535
 20
-6.6891910621
 30
0.0
 40
2.286
 41
0.0
 71
     1
 72
     1
  1
4
  7
SLDTEXTSTYLE0
 73
     1
 44
1.0
  0
MTEXT
  5
A1
330
96
100
AcDbEntity
  8
0
  6
Continuous
 62
     0
370
     0
100
AcDbMText
 10
50.3052156419
 20
-6.5976282029
 30
0.0
 40
2.38125
 41
0.0
 71
     1
 72
     1
  1
AT 632.8nm OVER CLEAR APERTURE
  7
SLDTEXTSTYLE0
 73
     1
 44
1.0
  0
MTEXT
  5
A2
330
96
100
AcDbEntity
  8
0
  6
Continuous
 62
     0
370
     0
100
AcDbMText
 10
0.0
 20
-6.5976282029
 30
0.0
 40
2.38125
 41
0.0
 71
     1
 72
     1
  1
2.
  7
SLDTEXTSTYLE0
 73
     1
 44
1.0
  0
MTEXT
  5
A3
330
96
100
AcDbEntity
  8
0
  6
Continuous
 62
     0
370
     0
100
AcDbMText
 10
9.9999997765
 20
-9.7726281646
 30
0.0
 40
2.38125
 41
0.0
 71
     1
 72
     1
  1
SURFACE QUALITY: 40-20 SCRATCH-DIG
  7
SLDTEXTSTYLE0
 73
     1
 44
1.0
  0
MTEXT
  5
A4
330
96
100
AcDbEntity
  8
0
  6
Continuous
 62
     0
370
     0
100
AcDbMText
 10
0.0
 20
-9.7726281646
 30
0.0
 40
2.38125
 41
0.0
 71
     1
 72
     1
  1
3.
  7
SLDTEXTSTYLE0
 73
     1
 44
1.0
  0
MTEXT
  5
A5
330
96
100
AcDbEntity
  8
0
  6
Continuous
 62
     0
370
     0
100
AcDbMText
 10
9.9999997765
 20
-12.9476281262
 30
0.0
 40
2.38125
 41
0.0
 71
     1
 72
     1
  1
BACK SURFACE: FINE GROUND
  7
SLDTEXTSTYLE0
 73
     1
 44
1.0
  0
MTEXT
  5
A6
330
96
100
AcDbEntity
  8
0
  6
Continuous
 62
     0
370
     0
100
AcDbMText
 10
0.0
 20
-12.9476281262
 30
0.0
 40
2.38125
 41
0.0
 71
     1
 72
     1
  1
4.
  7
SLDTEXTSTYLE0
 73
     1
 44
1.0
  0
MTEXT
  5
A7
330
96
100
AcDbEntity
  8
0
  6
Continuous
 62
     0
370
     0
100
AcDbMText
 10
9.9999997765
 20
-16.1226280878
 30
0.0
 40
2.38125
 41
0.0
 71
     1
 72
     1
  1
THICKNESS TOLERANCE:
  7
SLDTEXTSTYLE0
 73
     1
 44
1.0
  0
MTEXT
  5
A8
330
96
100
AcDbEntity
  8
0
  6
Continuous
 62
     0
370
     0
100
AcDbMText
 10
46.741804108
 20
-16.1226280878
 30
0.0
 40
2.38125
 41
0.0
 71
     1
 72
     1
  1
%%p
  7
SLDTEXTSTYLE0
 73
     1
 44
1.0
  0
MTEXT
  5
A9
330
96
100
AcDbEntity
  8
0
  6
Continuous
 62
     0
370
     0
100
AcDbMText
 10
49.0119289607
 20
-16.1226280878
 30
0.0
 40
2.38125
 41
0.0
 71
     1
 72
     1
  1
0.2 mm
  7
SLDTEXTSTYLE0
 73
     1
 44
1.0
  0
MTEXT
  5
AA
330
96
100
AcDbEntity
  8
0
  6
Continuous
 62
     0
370
     0
100
AcDbMText
 10
0.0
 20
-16.1226280878
 30
0.0
 40
2.38125
 41
0.0
 71
     1
 72
     1
  1
5.
  7
SLDTEXTSTYLE0
 73
     1
 44
1.0
  0
MTEXT
  5
AB
330
96
100
AcDbEntity
  8
0
  6
Continuous
 62
     0
370
     0
100
AcDbMText
 10
9.9999997765
 20
-19.2976280495
 30
0.0
 40
2.38125
 41
0.0
 71
     1
 72
     1
  1
DIAMETER TOLERANCE: + 0.0/-0.2 mm
  7
SLDTEXTSTYLE0
 73
     1
 44
1.0
  0
MTEXT
  5
AC
330
96
100
AcDbEntity
  8
0
  6
Continuous
 62
     0
370
     0
100
AcDbMText
 10
0.0
 20
-19.2976280495
 30
0.0
 40
2.38125
 41
0.0
 71
     1
 72
     1
  1
6.
  7
SLDTEXTSTYLE0
 73
     1
 44
1.0
  0
MTEXT
  5
AD
330
96
100
AcDbEntity
  8
0
  6
Continuous
 62
     0
370
     0
100
AcDbMText
 10
9.9999997765
 20
-22.4726280111
 30
0.0
 40
2.38125
 41
0.0
 71
     1
 72
     1
  1
COATING: PROTECTED SILVER
  7
SLDTEXTSTYLE0
 73
     1
 44
1.0
  0
MTEXT
  5
AE
330
96
100
AcDbEntity
  8
0
  6
Continuous
 62
     0
370
     0
100
AcDbMText
 10
0.0
 20
-22.4726280111
 30
0.0
 40
2.38125
 41
0.0
 71
     1
 72
     1
  1
7.
  7
SLDTEXTSTYLE0
 73
     1
 44
1.0
  0
MTEXT
  5
AF
330
96
100
AcDbEntity
  8
0
  6
Continuous
 62
     0
370
     0
100
AcDbMText
 10
10.0
 20
-25.6476279727
 30
0.0
 40
2.38125
 41
0.0
 71
     1
 72
     1
  1
Ravg: >97.5% FROM 450nm - 2µm
  7
SLDTEXTSTYLE0
 73
     1
 44
1.0
  0
MTEXT
  5
B0
330
96
100
AcDbEntity
  8
0
  6
Continuous
 62
     0
370
     0
100
AcDbMText
 10
10.0
 20
-28.8226279343
 30
0.0
 40
2.38125
 41
0.0
 71
     1
 72
     1
  1
Ravg: >96% FROM 2µm - 20µm
  7
SLDTEXTSTYLE0
 73
     1
 44
1.0
  0
MTEXT
  5
B1
330
96
100
AcDbEntity
  8
0
  6
Continuous
 62
     0
370
     0
100
AcDbMText
 10
10.0
 20
-31.997627896
 30
0.0
 40
2.38125
 41
0.0
 71
     1
 72
     1
  1
AOI: 0
  7
SLDTEXTSTYLE0
 73
     1
 44
1.0
  0
MTEXT
  5
B2
330
96
100
AcDbEntity
  8
0
  6
Continuous
 62
     0
370
     0
100
AcDbMText
 10
19.344201535
 20
-31.997627896
 30
0.0
 40
2.38125
 41
0.0
 71
     1
 72
     1
  1
%%d
  7
SLDTEXTSTYLE0
 73
     1
 44
1.0
  0
MTEXT
  5
B4
330
96
100
AcDbEntity
  8
0
  6
Continuous
 62
     0
370
     0
100
AcDbMText
 10
21.7505871639
 20
-31.997627896
 30
0.0
 40
2.38125
 41
0.0
 71
     1
 72
     1
  1
TO 45
  7
SLDTEXTSTYLE3
 73
     1
 44
1.0
  0
MTEXT
  5
B5
330
96
100
AcDbEntity
  8
0
  6
Continuous
 62
     0
370
     0
100
AcDbMText
 10
30.2459171414
 20
-31.997627896
 30
0.0
 40
2.38125
 41
0.0
 71
     1
 72
     1
  1
%%d
  7
SLDTEXTSTYLE0
 73
     1
 44
1.0
  0
MTEXT
  5
B6
330
96
100
AcDbEntity
  8
0
  6
Continuous
 62
     0
370
     0
100
AcDbMText
 10
9.9999997765
 20
-35.1726278576
 30
0.0
 40
2.38125
 41
0.0
 71
     1
 72
     1
  1
DAMAGE THRESHOLD: 3J/cm
  7
SLDTEXTSTYLE0
 73
     1
 44
1.0
  0
MTEXT
  5
B7
330
96
100
AcDbEntity
  8
0
  6
Continuous
 62
     0
370
     0
100
AcDbMText
 10
54.2956609279
 20
-35.1257800342
 30
0.0
 40
1.3229166667
 41
0.0
 71
     1
 72
     1
  1
2
  7
SLDTEXTSTYLE0
 73
     1
 44
1.0
  0
MTEXT
  5
B8
330
96
100
AcDbEntity
  8
0
  6
Continuous
 62
     0
370
     0
100
AcDbMText
 10
56.1661160499
 20
-35.1726278576
 30
0.0
 40
2.38125
 41
0.0
 71
     1
 72
     1
  1
10ns PULSE, 10Hz AT 1064nm
  7
SLDTEXTSTYLE0
 73
     1
 44
1.0
  0
MTEXT
  5
B9
330
96
100
AcDbEntity
  8
0
  6
Continuous
 62
     0
370
     0
100
AcDbMText
 10
0.0
 20
-35.1726278576
 30
0.0
 40
2.38125
 41
0.0
 71
     1
 72
     1
  1
8.
  7
SLDTEXTSTYLE0
 73
     1
 44
1.0
  0
ENDBLK
  5
98
330
96
100
AcDbEntity
  8
0
100
AcDbBlockEnd
  0
BLOCK
  5
C2
330
C1
100
AcDbEntity
  8
0
100
AcDbBlockBegin
  2
*D7
 70
     1
 10
0.0
 20
0.0
 30
0.0
  3
*D7
  1

  0
SOLID
  5
C4
330
C1
100
AcDbEntity
  8
0
  6
Continuous
 62
     7
370
     0
100
AcDbTrace
 10
76.1430414739
 20
88.5610840015
 30
0.0
 11
78.0280530302
 21
85.9562000439
 31
0.0
 12
78.7467057942
 22
86.6743881842
 32
0.0
 13
78.7467057942
 23
86.6743881842
 33
0.0
  0
LINE
  5
C5
330
C1
100
AcDbEntity
  8
0
  6
Continuous
 62
     7
370
     0
100
AcDbLine
 10
90.8434703074
 20
78.3467142823
 30
0.0
 11
90.8434703074
 21
75.4881075017
 31
0.0
  0
LINE
  5
C6
330
C1
100
AcDbEntity
  8
0
  6
Continuous
 62
     7
370
     0
100
AcDbLine
 10
90.8434703074
 20
75.4881075017
 30
0.0
 11
91.2726455634
 21
75.4881075017
 31
0.0
  0
LINE
  5
C7
330
C1
100
AcDbEntity
  8
0
  6
Continuous
 62
     7
370
     0
100
AcDbLine
 10
90.8434703074
 20
78.3467142823
 30
0.0
 11
91.2726455634
 21
78.3467142823
 31
0.0
  0
LINE
  5
C8
330
C1
100
AcDbEntity
  8
0
  6
Continuous
 62
     7
370
     0
100
AcDbLine
 10
100.3152835433
 20
78.3467142823
 30
0.0
 11
100.3152835433
 21
75.4881075017
 31
0.0
  0
LINE
  5
C9
330
C1
100
AcDbEntity
  8
0
  6
Continuous
 62
     7
370
     0
100
AcDbLine
 10
100.3152835433
 20
75.4881075017
 30
0.0
 11
99.8861082873
 21
75.4881075017
 31
0.0
  0
LINE
  5
CA
330
C1
100
AcDbEntity
  8
0
  6
Continuous
 62
     7
370
     0
100
AcDbLine
 10
100.3152835433
 20
78.3467142823
 30
0.0
 11
99.8861082873
 21
78.3467142823
 31
0.0
  0
LINE
  5
CB
330
C1
100
AcDbEntity
  8
0
  6
Continuous
 62
     7
370
     0
100
AcDbLine
 10
76.1430414739
 20
88.5610840015
 30
0.0
 11
84.4182942014
 21
80.2804776927
 31
0.0
  0
LINE
  5
CC
330
C1
100
AcDbEntity
  8
0
  6
Continuous
 62
     7
370
     0
100
AcDbLine
 10
84.4182942014
 20
80.2804776927
 30
0.0
 11
88.2282942014
 21
80.2804776927
 31
0.0
  0
MTEXT
  5
CD
330
C1
100
AcDbEntity
  8
0
  6
Continuous
 62
     7
370
     0
100
AcDbMText
 10
89.9851197956
 20
81.3274708918
 30
0.0
 40
2.1166666667
 41
0.0
 71
     1
 72
     1
  1
%%c
  7
SLDTEXTSTYLE0
 73
     1
 44
1.0
  0
MTEXT
  5
CE
330
C1
100
AcDbEntity
  8
0
  6
Continuous
 62
     7
370
     0
100
AcDbMText
 10
93.0118799162
 20
81.3274708918
 30
0.0
 40
2.1166666667
 41
0.0
 71
     1
 72
     1
  1
50.8mm
  7
SLDTEXTSTYLE0
 73
     1
 44
1.0
  0
MTEXT
  5
CF
330
C1
100
AcDbEntity
  8
0
  6
Continuous
 62
     7
370
     0
100
AcDbMText
 10
91.7018208193
 20
77.9644040911
 30
0.0
 40
2.1166666667
 41
0.0
 71
     1
 72
     1
  1
2.00in
  7
SLDTEXTSTYLE0
 73
     1
 44
1.0
  0
ENDBLK
  5
C3
330
C1
100
AcDbEntity
  8
0
100
AcDbBlockEnd
  0
BLOCK
  5
D1
330
D0
100
AcDbEntity
  8
0
100
AcDbBlockBegin
  2
SW_CENTERMARKSYMBOL_0
 70
     0
 10
0.0
 20
0.0
 30
0.0
  3
SW_CENTERMARKSYMBOL_0
  1

  0
LINE
  5
D3
330
D0
100
AcDbEntity
  8
0
  6
Continuous
 62
     0
370
     0
100
AcDbLine
 10
0.0
 20
0.0
 30
0.0
 11
0.0
 21
2.0
 31
0.0
  0
LINE
  5
D4
330
D0
100
AcDbEntity
  8
0
  6
Continuous
 62
     0
370
     0
100
AcDbLine
 10
0.0
 20
0.0
 30
0.0
 11
-2.0
 21
0.0
 31
0.0
  0
LINE
  5
D5
330
D0
100
AcDbEntity
  8
0
  6
Continuous
 62
     0
370
     0
100
AcDbLine
 10
0.0
 20
0.0
 30
0.0
 11
0.0
 21
-2.0
 31
0.0
  0
LINE
  5
D6
330
D0
100
AcDbEntity
  8
0
  6
Continuous
 62
     0
370
     0
100
AcDbLine
 10
0.0
 20
0.0
 30
0.0
 11
2.0
 21
0.0
 31
0.0
  0
ENDBLK
  5
D2
330
D0
100
AcDbEntity
  8
0
100
AcDbBlockEnd
  0
BLOCK
  5
200
330
1FF
100
AcDbEntity
  8
0
100
AcDbBlockBegin
  2
*D9
 70
     1
 10
0.0
 20
0.0
 30
0.0
  3
*D9
  1

  0
SOLID
  5
202
330
1FF
100
AcDbEntity
  8
0
  6
Continuous
 62
     7
370
     0
100
AcDbTrace
 10
133.0530505999
 20
92.1654226442
 30
0.0
 11
136.2077636744
 21
91.543751978
 31
0.0
 12
136.2442431048
 22
92.5590968707
 32
0.0
 13
136.2442431048
 23
92.5590968707
 33
0.0
  0
LINE
  5
203
330
1FF
100
AcDbEntity
  8
0
  6
Continuous
 62
     7
370
     0
100
AcDbLine
 10
162.9397543936
 20
89.3826471662
 30
0.0
 11
162.9397543936
 21
86.5240403856
 31
0.0
  0
LINE
  5
204
330
1FF
100
AcDbEntity
  8
0
  6
Continuous
 62
     7
370
     0
100
AcDbLine
 10
162.9397543936
 20
86.5240403856
 30
0.0
 11
163.3689296495
 21
86.5240403856
 31
0.0
  0
LINE
  5
205
330
1FF
100
AcDbEntity
  8
0
  6
Continuous
 62
     7
370
     0
100
AcDbLine
 10
162.9397543936
 20
89.3826471662
 30
0.0
 11
163.3689296495
 21
89.3826471662
 31
0.0
  0
LINE
  5
206
330
1FF
100
AcDbEntity
  8
0
  6
Continuous
 62
     7
370
     0
100
AcDbLine
 10
173.977178123
 20
89.3826471662
 30
0.0
 11
173.977178123
 21
86.5240403856
 31
0.0
  0
LINE
  5
207
330
1FF
100
AcDbEntity
  8
0
  6
Continuous
 62
     7
370
     0
100
AcDbLine
 10
173.977178123
 20
86.5240403856
 30
0.0
 11
173.5480028671
 21
86.5240403856
 31
0.0
  0
LINE
  5
208
330
1FF
100
AcDbEntity
  8
0
  6
Continuous
 62
     7
370
     0
100
AcDbLine
 10
173.977178123
 20
89.3826471662
 30
0.0
 11
173.5480028671
 21
89.3826471662
 31
0.0
  0
LINE
  5
209
330
1FF
100
AcDbEntity
  8
0
  6
Continuous
 62
     7
370
     0
100
AcDbLine
 10
133.0530505999
 20
92.1654226442
 30
0.0
 11
156.6839038817
 21
91.3164105767
 31
0.0
  0
LINE
  5
20A
330
1FF
100
AcDbEntity
  8
0
  6
Continuous
 62
     7
370
     0
100
AcDbLine
 10
156.6839038817
 20
91.3164105767
 30
0.0
 11
160.4939038817
 21
91.3164105767
 31
0.0
  0
MTEXT
  5
20B
330
1FF
100
AcDbEntity
  8
0
  6
Continuous
 62
     7
370
     0
100
AcDbMText
 10
162.0814038817
 20
92.3634037757
 30
0.0
 40
2.1166666667
 41
0.0
 71
     1
 72
     1
  1
R
  7
SLDTEXTSTYLE0
 73
     1
 44
1.0
  0
MTEXT
  5
20C
330
1FF
100
AcDbEntity
  8
0
  6
Continuous
 62
     7
370
     0
100
AcDbMText
 10
163.7928948872
 20
92.3634037757
 30
0.0
 40
2.1166666667
 41
0.0
 71
     1
 72
     1
  1
400.0mm
  7
SLDTEXTSTYLE0
 73
     1
 44
1.0
  0
MTEXT
  5
20D
330
1FF
100
AcDbEntity
  8
0
  6
Continuous
 62
     7
370
     0
100
AcDbMText
 10
163.7981049055
 20
89.000336975
 30
0.0
 40
2.1166666667
 41
0.0
 71
     1
 72
     1
  1
15.75in
  7
SLDTEXTSTYLE0
 73
     1
 44
1.0
  0
ENDBLK
  5
201
330
1FF
100
AcDbEntity
  8
0
100
AcDbBlockEnd
  0
BLOCK
  5
211
330
210
100
AcDbEntity
  8
0
100
AcDbBlockBegin
  2
*D10
 70
     1
 10
0.0
 20
0.0
 30
0.0
  3
*D10
  1

  0
SOLID
  5
213
330
210
100
AcDbEntity
  8
0
  6
Continuous
 62
     7
370
     0
100
AcDbTrace
 10
142.3109668541
 20
141.9274031008
 30
0.0
 11
145.4859668541
 21
141.4194031008
 31
0.0
 12
145.4859668541
 22
142.4354031008
 32
0.0
 13
145.4859668541
 23
142.4354031008
 33
0.0
  0
SOLID
  5
214
330
210
100
AcDbEntity
  8
0
  6
Continuous
 62
     7
370
     0
100
AcDbTrace
 10
133.3109668541
 20
141.9274031008
 30
0.0
 11
130.1359668541
 21
142.4354031008
 31
0.0
 12
130.1359668541
 22
141.4194031008
 32
0.0
 13
130.1359668541
 23
141.4194031008
 33
0.0
  0
LINE
  5
215
330
210
100
AcDbEntity
  8
0
  6
Continuous
 62
     7
370
     0
100
AcDbLine
 10
151.6253766825
 20
141.6751730907
 30
0.0
 11
151.6253766825
 21
138.8165663101
 31
0.0
  0
LINE
  5
216
330
210
100
AcDbEntity
  8
0
  6
Continuous
 62
     7
370
     0
100
AcDbLine
 10
151.6253766825
 20
138.8165663101
 30
0.0
 11
152.0545519385
 21
138.8165663101
 31
0.0
  0
LINE
  5
217
330
210
100
AcDbEntity
  8
0
  6
Continuous
 62
     7
370
     0
100
AcDbLine
 10
151.6253766825
 20
141.6751730907
 30
0.0
 11
152.0545519385
 21
141.6751730907
 31
0.0
  0
LINE
  5
218
330
210
100
AcDbEntity
  8
0
  6
Continuous
 62
     7
370
     0
100
AcDbLine
 10
161.0971899184
 20
141.6751730907
 30
0.0
 11
161.0971899184
 21
138.8165663101
 31
0.0
  0
LINE
  5
219
330
210
100
AcDbEntity
  8
0
  6
Continuous
 62
     7
370
     0
100
AcDbLine
 10
161.0971899184
 20
138.8165663101
 30
0.0
 11
160.6680146624
 21
138.8165663101
 31
0.0
  0
LINE
  5
21A
330
210
100
AcDbEntity
  8
0
  6
Continuous
 62
     7
370
     0
100
AcDbLine
 10
161.0971899184
 20
141.6751730907
 30
0.0
 11
160.6680146624
 21
141.6751730907
 31
0.0
  0
LINE
  5
21B
330
210
100
AcDbEntity
  8
0
  6
Continuous
 62
     7
370
     0
100
AcDbLine
 10
142.3109668541
 20
132.9974031008
 30
0.0
 11
142.3109668541
 21
143.7054031008
 31
0.0
  0
LINE
  5
21C
330
210
100
AcDbEntity
  8
0
  6
Continuous
 62
     7
370
     0
100
AcDbLine
 10
133.3109668541
 20
107.7974031008
 30
0.0
 11
133.3109668541
 21
143.7054031008
 31
0.0
  0
LINE
  5
21D
330
210
100
AcDbEntity
  8
0
  6
Continuous
 62
     7
370
     0
100
AcDbLine
 10
142.3109668541
 20
141.9274031008
 30
0.0
 11
148.7503509147
 21
141.9274031008
 31
0.0
  0
LINE
  5
21E
330
210
100
AcDbEntity
  8
0
  6
Continuous
 62
     7
370
     0
100
AcDbLine
 10
133.3109668541
 20
141.9274031008
 30
0.0
 11
126.9609668541
 21
141.9274031008
 31
0.0
  0
MTEXT
  5
21F
330
210
100
AcDbEntity
  8
0
  6
Continuous
 62
     7
370
     0
100
AcDbMText
 10
151.7621396624
 20
144.6559297002
 30
0.0
 40
2.1166666667
 41
0.0
 71
     1
 72
     1
  1
9.0mm
  7
SLDTEXTSTYLE0
 73
     1
 44
1.0
  0
MTEXT
  5
220
330
210
100
AcDbEntity
  8
0
  6
Continuous
 62
     7
370
     0
100
AcDbMText
 10
152.4837271944
 20
141.2928628995
 30
0.0
 40
2.1166666667
 41
0.0
 71
     1
 72
     1
  1
0.35in
  7
SLDTEXTSTYLE0
 73
     1
 44
1.0
  0
ENDBLK
  5
212
330
210
100
AcDbEntity
  8
0
100
AcDbBlockEnd
  0
BLOCK
  5
224
330
223
100
AcDbEntity
  8
0
100
AcDbBlockBegin
  2
*D11
 70
     1
 10
0.0
 20
0.0
 30
0.0
  3
*D11
  1

  0
SOLID
  5
226
330
223
100
AcDbEntity
  8
0
  6
Continuous
 62
     7
370
     0
100
AcDbTrace
 10
142.3109668541
 20
153.9274031008
 30
0.0
 11
145.4859668541
 21
153.4194031008
 31
0.0
 12
145.4859668541
 22
154.4354031008
 32
0.0
 13
145.4859668541
 23
154.4354031008
 33
0.0
  0
SOLID
  5
227
330
223
100
AcDbEntity
  8
0
  6
Continuous
 62
     7
370
     0
100
AcDbTrace
 10
132.5163553173
 20
153.9274031008
 30
0.0
 11
129.3413553173
 21
154.4354031008
 31
0.0
 12
129.3413553173
 22
153.4194031008
 32
0.0
 13
129.3413553173
 23
153.4194031008
 33
0.0
  0
LINE
  5
228
330
223
100
AcDbEntity
  8
0
  6
Continuous
 62
     7
370
     0
100
AcDbLine
 10
150.8892958121
 20
153.6751730907
 30
0.0
 11
150.8892958121
 21
150.8165663101
 31
0.0
  0
LINE
  5
229
330
223
100
AcDbEntity
  8
0
  6
Continuous
 62
     7
370
     0
100
AcDbLine
 10
150.8892958121
 20
150.8165663101
 30
0.0
 11
151.318471068
 21
150.8165663101
 31
0.0
  0
LINE
  5
22A
330
223
100
AcDbEntity
  8
0
  6
Continuous
 62
     7
370
     0
100
AcDbLine
 10
150.8892958121
 20
153.6751730907
 30
0.0
 11
151.318471068
 21
153.6751730907
 31
0.0
  0
LINE
  5
22B
330
223
100
AcDbEntity
  8
0
  6
Continuous
 62
     7
370
     0
100
AcDbLine
 10
160.3611090479
 20
153.6751730907
 30
0.0
 11
160.3611090479
 21
150.8165663101
 31
0.0
  0
LINE
  5
22C
330
223
100
AcDbEntity
  8
0
  6
Continuous
 62
     7
370
     0
100
AcDbLine
 10
160.3611090479
 20
150.8165663101
 30
0.0
 11
159.931933792
 21
150.8165663101
 31
0.0
  0
LINE
  5
22D
330
223
100
AcDbEntity
  8
0
  6
Continuous
 62
     7
370
     0
100
AcDbLine
 10
160.3611090479
 20
153.6751730907
 30
0.0
 11
159.931933792
 21
153.6751730907
 31
0.0
  0
LINE
  5
22E
330
223
100
AcDbEntity
  8
0
  6
Continuous
 62
     7
370
     0
100
AcDbLine
 10
142.3109668541
 20
132.9974031008
 30
0.0
 11
142.3109668541
 21
155.7054031008
 31
0.0
  0
LINE
  5
22F
330
223
100
AcDbEntity
  8
0
  6
Continuous
 62
     7
370
     0
100
AcDbLine
 10
132.5163553173
 20
132.9977567096
 30
0.0
 11
132.5163553173
 21
155.7054031008
 31
0.0
  0
LINE
  5
230
330
223
100
AcDbEntity
  8
0
  6
Continuous
 62
     7
370
     0
100
AcDbLine
 10
142.3109668541
 20
153.9274031008
 30
0.0
 11
148.0142700443
 21
153.9274031008
 31
0.0
  0
LINE
  5
231
330
223
100
AcDbEntity
  8
0
  6
Continuous
 62
     7
370
     0
100
AcDbLine
 10
132.5163553173
 20
153.9274031008
 30
0.0
 11
126.1663553173
 21
153.9274031008
 31
0.0
  0
MTEXT
  5
232
330
223
100
AcDbEntity
  8
0
  6
Continuous
 62
     7
370
     0
100
AcDbMText
 10
151.026058792
 20
156.6559297002
 30
0.0
 40
2.1166666667
 41
0.0
 71
     1
 72
     1
  1
9.8mm
  7
SLDTEXTSTYLE0
 73
     1
 44
1.0
  0
MTEXT
  5
233
330
223
100
AcDbEntity
  8
0
  6
Continuous
 62
     7
370
     0
100
AcDbMText
 10
162.0132095598
 20
156.6559297002
 30
0.0
 40
2.1166666667
 41
0.0
 71
     1
 72
     1
  1
REF
  7
SLDTEXTSTYLE0
 73
     1
 44
1.0
  0
MTEXT
  5
234
330
223
100
AcDbEntity
  8
0
  6
Continuous
 62
     7
370
     0
100
AcDbMText
 10
151.747646324
 20
153.2928628995
 30
0.0
 40
2.1166666667
 41
0.0
 71
     1
 72
     1
  1
0.39in
  7
SLDTEXTSTYLE0
 73
     1
 44
1.0
  0
ENDBLK
  5
225
330
223
100
AcDbEntity
  8
0
100
AcDbBlockEnd
  0
ENDSEC
  0
SECTION
  2
ENTITIES
  0
LINE
  5
52
330
1F
100
AcDbEntity
  8
0
  6
Continuous
 62
     7
370
     0
100
AcDbLine
 10
1.5793501011
 20
214.6453799966
 30
0.0
 11
277.9892068491
 21
214.6453799966
 31
0.0
  0
LINE
  5
53
330
1F
100
AcDbEntity
  8
0
  6
Continuous
 62
     7
370
     0
100
AcDbLine
 10
1.5793501011
 20
214.6453799966
 30
0.0
 11
1.5793501011
 21
0.9031642596
 31
0.0
  0
LINE
  5
54
330
1F
100
AcDbEntity
  8
0
  6
Continuous
 62
     7
370
     0
100
AcDbLine
 10
277.9892068491
 20
0.9031642596
 30
0.0
 11
1.5793501011
 21
0.9031642596
 31
0.0
  0
LINE
  5
55
330
1F
100
AcDbEntity
  8
0
  6
Continuous
 62
     7
370
     0
100
AcDbLine
 10
277.9892068491
 20
0.9031642596
 30
0.0
 11
277.9892068491
 21
214.6453799966
 31
0.0
  0
LINE
  5
56
330
1F
100
AcDbEntity
  8
0
  6
Continuous
 62
     7
370
     0
100
AcDbLine
 10
215.7427640041
 20
12.2958890132
 30
0.0
 11
171.6327596684
 21
12.2958890132
 31
0.0
  0
LINE
  5
57
330
1F
100
AcDbEntity
  8
0
  6
Continuous
 62
     7
370
     0
100
AcDbLine
 10
171.6327596684
 20
12.2958890132
 30
0.0
 11
171.6327596684
 21
26.1661402506
 31
0.0
  0
LINE
  5
58
330
1F
100
AcDbEntity
  8
0
  6
Continuous
 62
     7
370
     0
100
AcDbLine
 10
171.6327596684
 20
0.9031642596
 30
0.0
 11
171.6327596684
 21
26.1661402506
 31
0.0
  0
LINE
  5
59
330
1F
100
AcDbEntity
  8
0
  6
Continuous
 62
     7
370
     0
100
AcDbLine
 10
215.7427640041
 20
17.1604579552
 30
0.0
 11
277.9892068491
 21
17.1604579552
 31
0.0
  0
LINE
  5
5A
330
1F
100
AcDbEntity
  8
0
  6
Continuous
 62
     7
370
     0
100
AcDbLine
 10
215.7427640041
 20
35.2394508358
 30
0.0
 11
215.7427640041
 21
0.9031642596
 31
0.0
  0
LINE
  5
5B
330
1F
100
AcDbEntity
  8
0
  6
Continuous
 62
     7
370
     0
100
AcDbLine
 10
215.7427640041
 20
26.1661402506
 30
0.0
 11
171.6327596684
 21
26.1661402506
 31
0.0
  0
LINE
  5
5C
330
1F
100
AcDbEntity
  8
0
  6
Continuous
 62
     7
370
     0
100
AcDbLine
 10
215.7427640041
 20
9.1409200612
 30
0.0
 11
277.9892068491
 21
9.1409200612
 31
0.0
  0
LINE
  5
5D
330
1F
100
AcDbEntity
  8
0
  6
Continuous
 62
     7
370
     0
100
AcDbLine
 10
215.7427640041
 20
16.9216824031
 30
0.0
 11
171.6327596684
 21
16.9216824031
 31
0.0
  0
LINE
  5
5E
330
1F
100
AcDbEntity
  8
0
  6
Continuous
 62
     7
370
     0
100
AcDbLine
 10
215.7427640041
 20
21.4874005542
 30
0.0
 11
171.6327596684
 21
21.4874005542
 31
0.0
  0
LINE
  5
5F
330
1F
100
AcDbEntity
  8
0
  6
Continuous
 62
     7
370
     0
100
AcDbLine
 10
186.1338100705
 20
26.1661402506
 30
0.0
 11
186.1338100705
 21
12.2958890132
 31
0.0
  0
LINE
  5
60
330
1F
100
AcDbEntity
  8
0
  6
Continuous
 62
     7
370
     0
100
AcDbLine
 10
198.2145906188
 20
26.1661402506
 30
0.0
 11
198.2145906188
 21
12.2958890132
 31
0.0
  0
LINE
  5
61
330
1F
100
AcDbEntity
  8
0
  6
Continuous
 62
     7
370
     0
100
AcDbLine
 10
253.7490408369
 20
9.1409200612
 30
0.0
 11
253.7490408369
 21
0.9031642596
 31
0.0
  0
LINE
  5
62
330
1F
100
AcDbEntity
  8
0
  6
Continuous
 62
     7
370
     0
100
AcDbLine
 10
171.6327596684
 20
12.2958890132
 30
0.0
 11
171.6327596684
 21
7.5627342528
 31
0.0
  0
LINE
  5
63
330
1F
100
AcDbEntity
  8
0
  6
Continuous
 62
     7
370
     0
100
AcDbLine
 10
171.6327596684
 20
7.5627342528
 30
0.0
 11
215.7427640041
 21
7.5627342528
 31
0.0
  0
LINE
  5
64
330
1F
100
AcDbEntity
  8
0
  6
Continuous
 62
     7
370
     0
100
AcDbLine
 10
171.6327596684
 20
7.5627342528
 30
0.0
 11
171.6327596684
 21
35.2394508358
 31
0.0
  0
LINE
  5
65
330
1F
100
AcDbEntity
  8
0
  6
Continuous
 62
     7
370
     0
100
AcDbLine
 10
171.6327596684
 20
35.2394508358
 30
0.0
 11
215.7427640041
 21
35.2394508358
 31
0.0
  0
LINE
  5
66
330
1F
100
AcDbEntity
  8
0
  6
Continuous
 62
     7
370
     0
100
AcDbLine
 10
270.1683598194
 20
17.1604579552
 30
0.0
 11
270.1683598194
 21
9.1409200612
 31
0.0
  0
LINE
  5
67
330
1F
100
AcDbEntity
  8
0
  6
Continuous
 62
     7
370
     0
100
AcDbLine
 10
215.7427640041
 20
35.2394508358
 30
0.0
 11
277.9892068491
 21
35.2394508358
 31
0.0
  0
LINE
  5
68
330
1F
100
AcDbEntity
  8
0
  6
Continuous
 62
     7
370
     0
100
AcDbLine
 10
277.9892068491
 20
35.2394508358
 30
0.0
 11
277.9892068491
 21
50.0331356147
 31
0.0
  0
LINE
  5
69
330
1F
100
AcDbEntity
  8
0
  6
Continuous
 62
     7
370
     0
100
AcDbLine
 10
215.7427640041
 20
24.8927335446
 30
0.0
 11
277.9892068491
 21
24.8927335446
 31
0.0
  0
INSERT
  5
6A
330
1F
100
AcDbEntity
  8
0
  6
Continuous
 62
     7
100
AcDbBlockReference
  2
Third Angle Projection Block
 10
117.7262204235
 20
15.5162339489
 30
0.0
 41
0.8
 42
0.8
 43
0.8
  0
MTEXT
  5
6C
330
1F
100
AcDbEntity
  8
0
  6
Continuous
 62
     7
370
     0
100
AcDbMText
 10
273.8638944939
 20
13.1125292762
 30
0.0
 40
3.175
 41
0.0
 71
     2
 72
     1
  1
C
  7
SLDTEXTSTYLE0
 73
     1
 44
1.0
  0
MTEXT
  5
6D
330
1F
100
AcDbEntity
  8
0
  6
Continuous
 62
     7
370
     0
100
AcDbMText
 10
234.5796639613
 20
5.1306563898
 30
0.0
 40
3.175
 41
0.0
 71
     2
 72
     1
  1
CM508-200-P01
  7
SLDTEXTSTYLE0
 73
     1
 44
1.0
  0
MTEXT
  5
6E
330
1F
100
AcDbEntity
  8
0
  6
Continuous
 62
     7
370
     0
100
AcDbMText
 10
216.4199766059
 20
16.8243178599
 30
0.0
 40
2.1166666667
 41
0.0
 71
     1
 72
     1
  1
MATERIAL
  7
SLDTEXTSTYLE0
 73
     1
 44
1.0
  0
MTEXT
  5
6F
330
1F
100
AcDbEntity
  8
0
  6
Continuous
 62
     7
370
     0
100
AcDbMText
 10
174.230946566
 20
20.054553926
 30
0.0
 40
1.8520833333
 41
0.0
 71
     1
 72
     1
  1
DRAWN
  7
SLDTEXTSTYLE0
 73
     1
 44
1.0
  0
MTEXT
  5
70
330
1F
100
AcDbEntity
  8
0
  6
Continuous
 62
     7
370
     0
100
AcDbMText
 10
172.3960124543
 20
15.5787169747
 30
0.0
 40
1.8520833333
 41
0.0
 71
     1
 72
     1
  1
APPROVAL
  7
SLDTEXTSTYLE0
 73
     1
 44
1.0
  0
MTEXT
  5
71
330
1F
100
AcDbEntity
  8
0
  6
Continuous
 62
     7
370
     0
100
AcDbMText
 10
271.321689486
 20
16.0237652193
 30
0.0
 40
2.1166666667
 41
0.0
 71
     1
 72
     1
  1
REV
  7
SLDTEXTSTYLE0
 73
     1
 44
1.0
  0
MTEXT
  5
72
330
1F
100
AcDbEntity
  8
0
  6
Continuous
 62
     7
370
     0
100
AcDbMText
 10
190.2958696448
 20
20.3177146903
 30
0.0
 40
2.1166666667
 41
0.0
 71
     1
 72
     1
  1
BAG
  7
SLDTEXTSTYLE0
 73
     1
 44
1.0
  0
MTEXT
  5
73
330
1F
100
AcDbEntity
  8
0
  6
Continuous
 62
     7
370
     0
100
AcDbMText
 10
199.8662436873
 20
20.3177146903
 30
0.0
 40
2.1166666667
 41
0.0
 71
     1
 72
     1
  1
28/OCT/10
  7
SLDTEXTSTYLE0
 73
     1
 44
1.0
  0
MTEXT
  5
74
330
1F
100
AcDbEntity
  8
0
  6
Continuous
 62
     7
370
     0
100
AcDbMText
 10
203.6145073853
 20
24.8221395769
 30
0.0
 40
2.1166666667
 41
0.0
 71
     1
 72
     1
  1
DATE
  7
SLDTEXTSTYLE0
 73
     1
 44
1.0
  0
MTEXT
  5
76
330
1F
100
AcDbEntity
  8
0
  6
Continuous
 62
     7
370
     0
100
AcDbMText
 10
229.402906477
 20
27.7957480569
 30
0.0
 40
2.1166666667
 41
0.0
 71
     1
 72
     1
  1
w w w . t h o r  l a b s . c o m
  7
SLDTEXTSTYLE1
 73
     1
 44
1.0
  0
MTEXT
  5
77
330
1F
100
AcDbEntity
  8
0
  6
Continuous
 62
     7
370
     0
100
AcDbMText
 10
216.7004035316
 20
8.3494791871
 30
0.0
 40
2.1166666667
 41
0.0
 71
     1
 72
     1
  1
ITEM #
  7
SLDTEXTSTYLE0
 73
     1
 44
1.0
  0
MTEXT
  5
78
330
1F
100
AcDbEntity
  8
0
  6
Continuous
 62
     7
370
     0
100
AcDbMText
 10
254.5318000914
 20
8.3494791871
 30
0.0
 40
2.1166666667
 41
0.0
 71
     1
 72
     1
  1
APPROX WEIGHT
  7
SLDTEXTSTYLE0
 73
     1
 44
1.0
  0
MTEXT
  5
79
330
1F
100
AcDbEntity
  8
0
  6
Continuous
 62
     7
370
     0
100
AcDbMText
 10
243.7058359879
 20
13.1125292762
 30
0.0
 40
3.175
 41
0.0
 71
     2
 72
     1
  1
N-BK7
  7
SLDTEXTSTYLE0
 73
     1
 44
1.0
  0
MTEXT
  5
7A
330
1F
100
AcDbEntity
  8
0
  6
Continuous
 62
     7
370
     0
100
AcDbMText
 10
266.1678480997
 20
5.1306563898
 30
0.0
 40
3.175
 41
0.0
 71
     2
 72
     1
  1
0.05 kg
  7
SLDTEXTSTYLE0
 73
     1
 44
1.0
  0
INSERT
  5
80
330
1F
100
AcDbEntity
  8
0
  6
Continuous
 62
     7
370
     0
100
AcDbBlockReference
  2
SW_NOTE_0
 10
174.8430140051
 20
4.4558554801
 30
0.0
  0
INSERT
  5
86
330
1F
100
AcDbEntity
  8
0
  6
Continuous
 62
     7
370
     0
100
AcDbBlockReference
  2
SW_NOTE_1
 10
174.5483650337
 20
30.4835322715
 30
0.0
  0
MTEXT
  5
87
330
1F
100
AcDbEntity
  8
0
  6
Continuous
 62
     7
370
     0
100
AcDbMText
 10
187.9273588276
 20
24.8221395769
 30
0.0
 40
2.1166666667
 41
0.0
 71
     1
 72
     1
  1
NAME
  7
SLDTEXTSTYLE0
 73
     1
 44
1.0
  0
INSERT
  5
8D
330
1F
100
AcDbEntity
  8
0
  6
Continuous
 62
     7
370
     0
100
AcDbBlockReference
  2
SW_NOTE_2
 10
58.6204667508
 20
8.1776609732
 30
0.0
  0
MTEXT
  5
8E
330
1F
100
AcDbEntity
  8
0
  6
Continuous
 62
     7
370
     0
100
AcDbMText
 10
179.1174811218
 20
10.6680638482
 30
0.0
 40
1.5875
 41
0.0
 71
     1
 72
     1
  1
COPYRIGHT © 2010 BY THORLABS
  7
SLDTEXTSTYLE0
 73
     1
 44
1.0
  0
INSERT
  5
95
330
1F
100
AcDbEntity
  8
0
  6
Continuous
 62
     7
370
     0
100
AcDbBlockReference
  2
SW_NOTE_3
 10
218.0010743732
 20
20.5867261075
 30
0.0
  0
INSERT
  5
BA
330
1F
100
AcDbEntity
  8
0
  6
Continuous
 62
     7
370
     0
100
AcDbBlockReference
  2
SW_NOTE_4
 10
7.0257848731
 20
55.7535067465
 30
0.0
  0
MTEXT
  5
BB
330
1F
100
AcDbEntity
  8
0
  6
Continuous
 62
     7
370
     0
100
AcDbMText
 10
199.8233943397
 20
15.8194410333
 30
0.0
 40
2.1166666667
 41
0.0
 71
     1
 72
     1
  1
08/NOV/12
  7
SLDTEXTSTYLE0
 73
     1
 44
1.0
  0
MTEXT
  5
BC
330
1F
100
AcDbEntity
  8
0
  6
Continuous
 62
     7
370
     0
100
AcDbMText
 10
190.2530202972
 20
15.8194410333
 30
0.0
 40
2.1166666667
 41
0.0
 71
     1
 72
     1
  1
WD
  7
SLDTEXTSTYLE0
 73
     1
 44
1.0
  0
CIRCLE
  5
BD
330
1F
100
AcDbEntity
  8
0
  6
Continuous
 62
     7
370
     0
100
AcDbCircle
 10
58.1883379669
 20
106.5274031008
 30
0.0
 40
25.39999999999998
  0
CIRCLE
  5
BE
330
1F
100
AcDbEntity
  8
0
  6
Continuous
 62
     7
370
     0
100
AcDbCircle
 10
58.1883379669
 20
106.5274031008
 30
0.0
 40
25.20035360882085
  0
DIMENSION
  5
BF
330
1F
100
AcDbEntity
  8
0
  6
Continuous
 62
     7
370
     0
100
AcDbDimension
  2
*D7
 10
40.23363446
 20
124.4937222001
 30
0.0
 11
96.7086483879
 21
80.2804776927
 31
0.0
 70
   163
  1
<>
 71
     1
 42
-1.0
  3
SLDDIMSTYLE0
100
AcDbDiametricDimension
 15
76.1430414739
 25
88.5610840015
 35
0.0
 40
0.0
  0
INSERT
  5
D7
330
1F
100
AcDbEntity
  8
0
  6
Continuous
 62
     7
370
     0
100
AcDbBlockReference
  2
SW_CENTERMARKSYMBOL_0
 10
58.1883379669
 20
106.5274031008
 30
0.0
  0
LINE
  5
D8
330
1F
100
AcDbEntity
  8
0
  6
PHANTOM
 62
     7
370
    30
100
AcDbLine
 10
58.1883379669
 20
138.7114050478
 30
0.0
 11
58.1883379669
 21
74.8365955166
 31
0.0
  0
LINE
  5
D9
330
1F
100
AcDbEntity
  8
0
  6
Continuous
 62
     7
370
    30
100
AcDbLine
 10
58.1883379669
 20
138.7114050478
 30
0.0
 11
49.2983379669
 21
138.7114050478
 31
0.0
  0
SOLID
  5
DA
330
1F
100
AcDbEntity
  8
0
  6
Continuous
 62
     7
370
    30
100
AcDbTrace
 10
49.2983379669
 20
138.7114050478
 30
0.0
 11
53.1083379669
 21
138.0764050478
 31
0.0
 12
53.1083379669
 22
139.3464050478
 32
0.0
 13
53.1083379669
 23
139.3464050478
 33
0.0
  0
LINE
  5
DB
330
1F
100
AcDbEntity
  8
0
  6
Continuous
 62
     7
370
    30
100
AcDbLine
 10
58.1883379669
 20
74.8365955166
 30
0.0
 11
49.2983379669
 21
74.8365955166
 31
0.0
  0
SOLID
  5
DC
330
1F
100
AcDbEntity
  8
0
  6
Continuous
 62
     7
370
    30
100
AcDbTrace
 10
49.2983379669
 20
74.8365955166
 30
0.0
 11
53.1083379669
 21
74.2015955166
 31
0.0
 12
53.1083379669
 22
75.4715955166
 32
0.0
 13
53.1083379669
 23
75.4715955166
 33
0.0
  0
MTEXT
  5
DD
330
1F
100
AcDbEntity
  8
0
  6
Continuous
 62
     7
100
AcDbMText
 10
45.8922885154
 20
140.8123449199
 30
0.0
 40
2.6458333333
 41
0.0
 71
     1
 72
     1
  1
A
  7
SLDTEXTSTYLE0
 73
     1
 44
1.0
  0
MTEXT
  5
DE
330
1F
100
AcDbEntity
  8
0
  6
Continuous
 62
     7
100
AcDbMText
 10
45.8922885154
 20
76.9375353886
 30
0.0
 40
2.6458333333
 41
0.0
 71
     1
 72
     1
  1
A
  7
SLDTEXTSTYLE0
 73
     1
 44
1.0
  0
LINE
  5
DF
330
1F
100
AcDbEntity
  8
0
  6
Continuous
 62
     7
370
     0
100
AcDbLine
 10
218.6132921425
 20
184.0133655369
 30
0.0
 11
218.6216626442
 21
183.8666629752
 31
0.0
  0
LINE
  5
E0
330
1F
100
AcDbEntity
  8
0
  6
Continuous
 62
     7
370
     0
100
AcDbLine
 10
235.1856353384
 20
155.1739117743
 30
0.0
 11
235.3084906688
 21
155.0932998975
 31
0.0
  0
LINE
  5
E1
330
1F
100
AcDbEntity
  8
0
  6
Continuous
 62
     7
370
     0
100
AcDbLine
 10
230.4852352715
 20
200.916492356
 30
0.0
 11
223.8332946838
 21
197.0764087932
 31
0.0
  0
LINE
  5
E2
330
1F
100
AcDbEntity
  8
0
  6
Continuous
 62
     7
370
     0
100
AcDbLine
 10
249.2312304928
 20
153.0811265843
 30
0.0
 11
255.8831710805
 21
156.9212101471
 31
0.0
  0
LINE
  5
E3
330
1F
100
AcDbEntity
  8
0
  6
Continuous
 62
     7
370
     0
100
AcDbLine
 10
261.1447154181
 20
168.5504682314
 30
0.0
 11
261.1447154181
 21
168.7137498538
 31
0.0
  0
LINE
  5
E4
330
1F
100
AcDbEntity
  8
0
  6
Continuous
 62
     7
370
     0
100
AcDbLine
 10
243.3285206356
 20
199.5756483656
 30
0.0
 11
243.1871222643
 21
199.6573024457
 31
0.0
  0
LWPOLYLINE
  5
E5
330
1F
100
AcDbEntity
  8
0
  6
Continuous
 62
     7
370
     0
100
AcDbPolyline
 90
       45
 70
   128
 43
0.0
 10
254.4927748305
 20
164.7103846686
 10
254.4800642821
 20
163.9375823156
 10
254.4419506275
 20
163.1805490646
 10
254.3784878122
 20
162.4403564116
 10
254.2897656607
 20
161.7180520165
 10
254.1759097494
 20
161.0146582203
 10
254.0370812284
 20
160.3311705984
 10
253.8734765942
 20
159.668556551
 10
253.6853274107
 20
159.0277539343
 10
253.4728999821
 20
158.4096697326
 10
253.2364949756
 20
157.8151787751
 10
252.9764469961
 20
157.2451224972
 10
252.6931241124
 20
156.7003077498
 10
252.3869273364
 20
156.1815056573
 10
252.0582900554
 20
155.6894505261
 10
251.7076774187
 20
155.2248388051
 10
251.3355856793
 20
154.7883281003
 10
250.9425414915
 20
154.3805362438
 10
250.5291011652
 20
154.0020404193
 10
250.0958498792
 20
153.6533763453
 10
249.6434008521
 20
153.335037517
 10
249.1723944749
 20
153.0474745072
 10
248.6834974045
 20
152.7910943293
 10
248.17740162
 20
152.5662598607
 10
247.6548234434
 20
152.3732893295
 10
247.1165025257
 20
152.212455864
 10
246.5632007999
 20
152.0839871057
 10
245.9957014028
 20
151.9880648881
 10
245.4148075663
 20
151.9248249781
 10
244.8213414807
 20
151.8943568849
 10
244.2161431308
 20
151.8967037326
 10
243.6000691073
 20
151.9318621995
 10
242.973991394
 20
151.9997825228
 10
242.3387961339
 20
152.1003685687
 10
241.6953823749
 20
152.2334779691
 10
241.0446607971
 20
152.3989223224
 10
240.3875524243
 20
152.5964674607
 10
239.7249873199
 20
152.8258337809
 10
239.0579032706
 20
153.0866966406
 10
238.3872444594
 20
153.3786868176
 10
237.7139601288
 20
153.7013910325
 10
237.0390032374
 20
154.0543525336
 10
236.3633291113
 20
154.4370717433
 10
235.6878940917
 20
154.8490069653
 10
235.3084906688
 20
155.0932998975
  0
LWPOLYLINE
  5
E6
330
1F
100
AcDbEntity
  8
0
  6
Continuous
 62
     7
370
     0
100
AcDbPolyline
 90
       88
 70
   128
 43
0.0
 10
218.6132921425
 20
184.0133655369
 10
218.6003448631
 20
184.2607785566
 10
218.5749282644
 20
185.0551771067
 10
218.5749282644
 20
185.8354551649
 10
218.6003448631
 20
186.6005083347
 10
218.6511420861
 20
187.3492537691
 10
218.7272480356
 20
188.0806317026
 10
218.8285549922
 20
188.7936069515
 10
218.9549195672
 20
189.4871703791
 10
219.1061629056
 20
190.1603403239
 10
219.2820709395
 20
190.8121639891
 10
219.4823946907
 20
191.4417187912
 10
219.7068506233
 20
192.0481136658
 10
219.9551210451
 20
192.6304903288
 10
220.226854557
 20
193.188024491
 10
220.5216665506
 20
193.7199270254
 10
220.8391397525
 20
194.2254450832
 10
221.1788248149
 20
194.7038631602
 10
221.5402409517
 20
195.1545041091
 10
221.9228766185
 20
195.5767300981
 10
222.3261902376
 20
195.9699435135
 10
222.7496109634
 20
196.3335878056
 10
223.1925394914
 20
196.6671482767
 10
223.6543489058
 20
196.9701528091
 10
224.1343855668
 20
197.2421725339
 10
224.6319700365
 20
197.4828224375
 10
225.1463980395
 20
197.691761907
 10
225.6769414605
 20
197.8686952118
 10
226.2228493748
 20
198.0133719227
 10
226.7833491106
 20
198.1255872659
 10
227.3576473432
 20
198.2051824132
 10
227.9449312178
 20
198.2520447066
 10
228.5443694997
 20
198.2661078176
 10
229.1551137509
 20
198.2473518417
 10
229.7762995315
 20
198.1958033256
 10
230.4070476222
 20
198.1115352307
 10
231.0464652698
 20
197.9946668289
 10
231.6936474501
 20
197.8453635345
 10
232.347678149
 20
197.6638366695
 10
233.0076316592
 20
197.4503431649
 10
233.6725738904
 20
197.2051851969
 10
234.3415636912
 20
196.9287097592
 10
235.0136541812
 20
196.6213081718
 10
235.6878940917
 20
196.2834155274
 10
236.3633291113
 20
195.9155100751
 10
237.0390032374
 20
195.5181125441
 10
237.7139601288
 20
195.091785406
 10
238.3872444594
 20
194.6371320793
 10
239.0579032706
 20
194.1547960749
 10
239.7249873199
 20
193.6454600854
 10
240.3875524243
 20
193.1098450191
 10
241.0446607971
 20
192.5487089792
 10
241.6953823749
 20
191.9628461909
 10
242.3387961339
 20
191.3530858775
 10
242.973991394
 20
190.7202910866
 10
243.6000691073
 20
190.0653574684
 10
244.2161431308
 20
189.3892120083
 10
244.8213414807
 20
188.6928117145
 10
245.4148075663
 20
187.9771422637
 10
245.9957014028
 20
187.2432166061
 10
246.5632007999
 20
186.4920735313
 10
247.1165025257
 20
185.7247761984
 10
247.6548234434
 20
184.9424106309
 10
248.17740162
 20
184.1460841798
 10
248.6834974045
 20
183.3369239562
 10
249.1723944749
 20
182.5160752359
 10
249.6434008521
 20
181.6846998384
 10
250.0958498792
 20
180.8439744826
 10
250.5291011652
 20
179.9950891213
 10
250.9425414915
 20
179.1392452568
 10
251.3355856793
 20
178.2776542403
 10
251.7076774187
 20
177.4115355577
 10
252.0582900554
 20
176.5421151029
 10
252.3869273364
 20
175.6706234436
 10
252.6931241124
 20
174.7982940786
 10
252.9764469961
 20
173.9263616927
 10
253.2364949756
 20
173.0560604085
 10
253.4728999821
 20
172.1886220404
 10
253.6853274107
 20
171.3252743502
 10
253.8734765942
 20
170.4672393101
 10
254.0370812284
 20
169.6157313727
 10
254.1759097494
 20
168.7719557524
 10
254.2897656607
 20
167.9371067191
 10
254.3784878122
 20
167.1123659083
 10
254.4419506275
 20
166.2989006483
 10
254.4800642821
 20
165.4978623084
 10
254.4927748305
 20
164.7103846686
 10
254.4927748305
 20
164.7103846686
  0
LWPOLYLINE
  5
E7
330
1F
100
AcDbEntity
  8
0
  6
Continuous
 62
     7
370
     0
100
AcDbPolyline
 90
      167
 70
   128
 43
0.0
 10
254.2191292205
 20
164.7154053538
 10
254.2063662034
 20
165.501441788
 10
254.1680954349
 20
166.3010880985
 10
254.1043717377
 20
167.1131987996
 10
254.0152863952
 20
167.9366105507
 10
253.9009670213
 20
168.7701438222
 10
253.7615773775
 20
169.6126045858
 10
253.5973171381
 20
170.4627860246
 10
253.4084216043
 20
171.3194702618
 10
253.1951613671
 20
172.1814301055
 10
252.9578419198
 20
173.0474308066
 10
252.6968032201
 20
173.9162318275
 10
252.4124192036
 20
174.7865886189
 10
252.1050972475
 20
175.6572544032
 10
251.7752775876
 20
176.52698196
 10
251.4234326875
 20
177.394525413
 10
251.0500665614
 20
178.2586420146
 10
250.6557140529
 20
179.118093926
 10
250.240940068
 20
179.9716499906
 10
249.8063387665
 20
180.8180874977
 10
249.3525327107
 20
181.6561939336
 10
248.8801719732
 20
182.484768719
 10
248.3899332063
 20
183.3026249284
 10
247.8825186724
 20
184.1085909907
 10
247.3586552378
 20
184.9015123672
 10
246.8190933318
 20
185.6802532059
 10
246.2646058718
 20
186.4436979678
 10
245.6959871556
 20
187.1907530257
 10
245.1140517241
 20
187.9203482305
 10
244.5196331941
 20
188.6314384441
 10
243.9135830646
 20
189.3230050365
 10
243.2967694964
 20
189.9940573454
 10
242.6700760691
 20
190.6436340946
 10
242.034400515
 20
191.2708047718
 10
241.3906534331
 20
191.8746709611
 10
240.739756985
 20
192.4543676299
 10
240.0826435735
 20
193.0090643683
 10
239.4202545074
 20
193.5379665786
 10
238.7535386525
 20
194.0403166135
 10
238.0834510729
 20
194.5153948614
 10
237.4109516625
 20
194.9625207773
 10
236.7370037704
 20
195.3810538576
 10
236.0625728204
 20
195.7703945577
 10
235.3886249283
 20
196.1299851508
 10
234.7161255179
 20
196.4593105269
 10
234.0460379383
 20
196.7578989304
 10
233.3793220834
 20
197.0253226365
 10
232.7169330172
 20
197.2611985632
 10
232.0598196058
 20
197.4651888205
 10
231.4089231577
 20
197.6370011944
 10
230.7651760758
 20
197.7763895653
 10
230.1295005217
 20
197.8831542606
 10
229.5028070944
 20
197.957142341
 10
228.8859935262
 20
197.9982478193
 10
228.2799433967
 20
198.0064118122
 10
227.6855248667
 20
197.981622625
 10
227.1035894352
 20
197.9239157679
 10
226.534970719
 20
197.8333739054
 10
225.980483259
 20
197.7101267379
 10
225.440921353
 20
197.5543508157
 10
224.9170579184
 20
197.3662692863
 10
224.4096433845
 20
197.1461515748
 10
223.9194046176
 20
196.8943129976
 10
223.4470438801
 20
196.6111143111
 10
222.9932378243
 20
196.2969611946
 10
222.5586365228
 20
195.9523036695
 10
222.1438625379
 20
195.5776354544
 10
221.7495100294
 20
195.1734932578
 10
221.3761439033
 20
194.7404560096
 10
221.0242990032
 20
194.2791440314
 10
220.6944793433
 20
193.7902181483
 10
220.3871573872
 20
193.2743787418
 10
220.1027733707
 20
192.7323647469
 10
219.841734671
 20
192.1649525935
 10
219.6044152237
 20
191.5729550939
 10
219.3911549865
 20
190.957220279
 10
219.2022594527
 20
190.3186301828
 10
219.0379992133
 20
189.6580995797
 10
218.8986095695
 20
188.9765746732
 10
218.7842901956
 20
188.2750317412
 10
218.6952048531
 20
187.5544757373
 10
218.6314811559
 20
186.8159388509
 10
218.5932103874
 20
186.0604790291
 10
218.5804473703
 20
185.2891784608
 10
218.5932103874
 20
184.5031420266
 10
218.6314811559
 20
183.7034957161
 10
218.6952048531
 20
182.891385015
 10
218.7842901956
 20
182.0679732639
 10
218.8986095695
 20
181.2344399924
 10
219.0379992133
 20
180.3919792288
 10
219.2022594527
 20
179.5417977901
 10
219.3911549865
 20
178.6851135528
 10
219.6044152237
 20
177.8231537091
 10
219.841734671
 20
176.957153008
 10
220.1027733707
 20
176.0883519871
 10
220.3871573872
 20
175.2179951957
 10
220.6944793433
 20
174.3473294114
 10
221.0242990032
 20
173.4776018546
 10
221.3761439033
 20
172.6100584016
 10
221.7495100294
 20
171.7459418
 10
222.1438625379
 20
170.8864898886
 10
222.5586365228
 20
170.032933824
 10
222.9932378243
 20
169.1864963169
 10
223.4470438801
 20
168.348389881
 10
223.9194046176
 20
167.5198150956
 10
224.4096433845
 20
166.7019588862
 10
224.9170579184
 20
165.8959928239
 10
225.440921353
 20
165.1030714474
 10
225.980483259
 20
164.3243306087
 10
226.534970719
 20
163.5608858468
 10
227.1035894352
 20
162.8138307889
 10
227.6855248667
 20
162.0842355841
 10
228.2799433967
 20
161.3731453705
 10
228.8859935262
 20
160.6815787781
 10
229.5028070944
 20
160.0105264693
 10
230.1295005217
 20
159.36094972
 10
230.7651760758
 20
158.7337790428
 10
231.4089231577
 20
158.1299128535
 10
232.0598196058
 20
157.5502161848
 10
232.7169330172
 20
156.9955194463
 10
233.3793220834
 20
156.466617236
 10
234.0460379383
 20
155.9642672011
 10
234.7161255179
 20
155.4891889532
 10
235.3886249283
 20
155.0420630373
 10
236.0625728204
 20
154.623529957
 10
236.7370037704
 20
154.2341892569
 10
237.4109516625
 20
153.8745986638
 10
238.0834510729
 20
153.5452732877
 10
238.7535386525
 20
153.2466848842
 10
239.4202545074
 20
152.9792611781
 10
240.0826435735
 20
152.7433852514
 10
240.739756985
 20
152.5393949941
 10
241.3906534331
 20
152.3675826202
 10
242.034400515
 20
152.2281942494
 10
242.6700760691
 20
152.121429554
 10
243.2967694964
 20
152.0474414736
 10
243.9135830646
 20
152.0063359953
 10
244.5196331941
 20
151.9981720024
 10
245.1140517241
 20
152.0229611896
 10
245.6959871556
 20
152.0806680467
 10
246.2646058718
 20
152.1712099092
 10
246.8190933318
 20
152.2944570768
 10
247.3586552378
 20
152.450232999
 10
247.8825186724
 20
152.6383145283
 10
248.3899332063
 20
152.8584322398
 10
248.8801719732
 20
153.110270817
 10
249.3525327107
 20
153.3934695035
 10
249.8063387665
 20
153.70762262
 10
250.240940068
 20
154.0522801451
 10
250.6557140529
 20
154.4269483602
 10
251.0500665614
 20
154.8310905568
 10
251.4234326875
 20
155.264127805
 10
251.7752775876
 20
155.7254397832
 10
252.1050972475
 20
156.2143656663
 10
252.4124192036
 20
156.7302050728
 10
252.6968032201
 20
157.2722190677
 10
252.9578419198
 20
157.8396312211
 10
253.1951613671
 20
158.4316287207
 10
253.4084216043
 20
159.0473635356
 10
253.5973171381
 20
159.6859536318
 10
253.7615773775
 20
160.346484235
 10
253.9009670213
 20
161.0280091415
 10
254.0152863952
 20
161.7295520734
 10
254.1043717377
 20
162.4501080773
 10
254.1680954349
 20
163.1886449637
 10
254.2063662034
 20
163.9441047855
 10
254.2191292205
 20
164.7154053538
  0
LWPOLYLINE
  5
E8
330
1F
100
AcDbEntity
  8
0
  6
Continuous
 62
     7
370
     0
100
AcDbPolyline
 90
       86
 70
   128
 43
0.0
 10
255.8831710805
 20
156.9212101471
 10
256.0621168585
 20
157.0274661312
 10
256.5239262729
 20
157.3304706637
 10
256.9668548009
 20
157.6640311347
 10
257.3902755267
 20
158.0276754269
 10
257.7935891458
 20
158.4208888422
 10
258.1762248127
 20
158.8431148312
 10
258.5376409494
 20
159.2937557802
 10
258.8773260118
 20
159.7721738572
 10
259.1947992137
 20
160.277691915
 10
259.4896112074
 20
160.8095944493
 10
259.7613447192
 20
161.3671286116
 10
260.009615141
 20
161.9495052745
 10
260.2340710736
 20
162.5559001491
 10
260.4343948248
 20
163.1854549512
 10
260.6103028587
 20
163.8372786164
 10
260.7615461971
 20
164.5104485612
 10
260.8879107721
 20
165.2040119888
 10
260.9892177287
 20
165.9169872377
 10
261.0653236782
 20
166.6483651712
 10
261.1161209012
 20
167.3971106056
 10
261.1415374999
 20
168.1621637755
 10
261.1415374999
 20
168.9424418336
 10
261.1161209012
 20
169.7368403837
 10
261.0653236782
 20
170.5442350434
 10
260.9892177287
 20
171.3634830358
 10
260.8879107721
 20
172.1934248071
 10
260.7615461971
 20
173.0328856674
 10
260.6103028587
 20
173.8806774539
 10
260.4343948248
 20
174.7356002119
 10
260.2340710736
 20
175.596443894
 10
260.009615141
 20
176.4619900722
 10
259.7613447192
 20
177.3310136627
 10
259.4896112074
 20
178.2022846597
 10
259.1947992137
 20
179.0745698766
 10
258.8773260118
 20
179.9466346912
 10
258.5376409494
 20
180.8172447933
 10
258.1762248127
 20
181.6851679316
 10
257.7935891458
 20
182.5491756579
 10
257.3902755267
 20
183.4080450661
 10
256.9668548009
 20
184.2605605223
 10
256.5239262729
 20
185.1055153865
 10
256.0621168585
 20
185.9417137194
 10
255.5820801975
 20
186.7679719758
 10
255.0844957278
 20
187.5831206795
 10
254.5700677248
 20
188.3860060787
 10
254.0395243038
 20
189.175491779
 10
253.4936163895
 20
189.9504603515
 10
252.9331166538
 20
190.7098149149
 10
252.3588184211
 20
191.4524806877
 10
251.7715345465
 20
192.1774065097
 10
251.1720962646
 20
192.8835663293
 10
250.5613520134
 20
193.5699606564
 10
249.9401662328
 20
194.2356179764
 10
249.3094181421
 20
194.8795961259
 10
248.6700004945
 20
195.5009836258
 10
248.0228183142
 20
196.0989009716
 10
247.3687876153
 20
196.6725018782
 10
246.7088341051
 20
197.2209744777
 10
246.0438918739
 20
197.7435424683
 10
245.3749020731
 20
198.2394662135
 10
244.7028115831
 20
198.7080437888
 10
244.0285716726
 20
199.148611975
 10
243.353136653
 20
199.5605471971
 10
242.6774625269
 20
199.9432664067
 10
242.0025056355
 20
200.2962279078
 10
241.3292213049
 20
200.6189321227
 10
240.6585624937
 20
200.9109222997
 10
239.9914784444
 20
201.1717851595
 10
239.32891334
 20
201.4011514796
 10
238.6718049672
 20
201.5986966179
 10
238.0210833894
 20
201.7641409712
 10
237.3776696304
 20
201.8972503716
 10
236.7424743703
 20
201.9978364176
 10
236.116396657
 20
202.0657567408
 10
235.5003226335
 20
202.1009152077
 10
234.8951242836
 20
202.1032620554
 10
234.301658198
 20
202.0727939622
 10
233.7207643615
 20
202.0095540523
 10
233.1532649644
 20
201.9136318346
 10
232.5999632386
 20
201.7851630764
 10
232.0616423209
 20
201.6243296108
 10
231.5390641443
 20
201.4313590796
 10
231.0329683598
 20
201.206524611
 10
230.5440712894
 20
200.9501444331
 10
230.4852352715
 20
200.916492356
  0
ARC
  5
E9
330
1F
100
AcDbEntity
  8
0
  6
Continuous
 62
     7
370
     0
100
AcDbCircle
 10
222.5352069813
 20
166.9984394815
 30
0.0
 40
38.64759282808912
100
AcDbArc
 50
2.5438153591
 51
57.4508081082
  0
SPLINE
  5
EA
330
1F
100
AcDbEntity
  8
0
  6
Continuous
 62
     7
370
     0
100
AcDbSpline
210
0.0
220
0.0
230
1.0
 70
     8
 71
     3
 72
    15
 73
    11
 74
     0
 42
0.00000001
 43
0.00000001
 40
0.0
 40
0.0
 40
0.0
 40
0.0
 40
0.0763829976036969
 40
0.1659855054655332
 40
0.2707148802617357
 40
0.3888240826834133
 40
0.5206018700426673
 40
0.6660294782576531
 40
0.8252434598020228
 40
1.0
 40
1.0
 40
1.0
 40
1.0
 10
225.9043006391782
 20
105.7158649261542
 30
0.0
 10
225.8984153245644
 20
105.7173040156194
 30
0.0
 10
225.8856261312671
 20
105.7204312559713
 30
0.0
 10
225.8644409327038
 20
105.7239807209085
 30
0.0
 10
225.8398884037515
 20
105.7273417489213
 30
0.0
 10
225.8118488631014
 20
105.7295716345715
 30
0.0
 10
225.7805780243505
 20
105.731786194754
 30
0.0
 10
225.7459802886385
 20
105.7328070518373
 30
0.0
 10
225.707976843224
 20
105.7336887812921
 30
0.0
 10
225.6814942088568
 20
105.733876590694
 30
0.0
 10
225.6676366577975
 20
105.7339748655989
 30
0.0
  0
SPLINE
  5
EB
330
1F
100
AcDbEntity
  8
0
  6
Continuous
 62
     7
370
     0
100
AcDbSpline
210
0.0
220
0.0
230
1.0
 70
     8
 71
     3
 72
    15
 73
    11
 74
     0
 42
0.00000001
 43
0.00000001
 40
0.0
 40
0.0
 40
0.0
 40
0.0
 40
0.1428946013811191
 40
0.2768798469236296
 40
0.4054067255101085
 40
0.5318333729300085
 40
0.6542249868698854
 40
0.7698109407908951
 40
0.8841096717431476
 40
0.9999999999999999
 40
0.9999999999999999
 40
0.9999999999999999
 40
0.9999999999999999
 10
226.125324218311
 20
105.3721876662362
 30
0.0
 10
226.1247104304351
 20
105.3931035319447
 30
0.0
 10
226.123521123831
 20
105.4336311770737
 30
0.0
 10
226.1115385636823
 20
105.4919492103951
 30
0.0
 10
226.0927524408335
 20
105.5458361071902
 30
0.0
 10
226.0658562413266
 20
105.5942716187366
 30
0.0
 10
226.033304016533
 20
105.6367624628934
 30
0.0
 10
225.9950395661876
 20
105.6715269676027
 30
0.0
 10
225.9522896591151
 20
105.6993199079139
 30
0.0
 10
225.9203705453172
 20
105.7103245569085
 30
0.0
 10
225.9043006391782
 20
105.7158649261542
 30
0.0
  0
SPLINE
  5
EC
330
1F
100
AcDbEntity
  8
0
  6
Continuous
 62
     7
370
     0
100
AcDbSpline
210
0.0
220
0.0
230
1.0
 70
     8
 71
     3
 72
    23
 73
    19
 74
     0
 42
0.00000001
 43
0.00000001
 40
0.0
 40
0.0
 40
0.0
 40
0.0
 40
0.0877310226443747
 40
0.169005684660542
 40
0.2448021443962134
 40
0.3142317617715646
 40
0.3789415805204463
 40
0.439171854935432
 40
0.4957867026411701
 40
0.5494347689706728
 40
0.6020003354234685
 40
0.6542545252912737
 40
0.7069046930323722
 40
0.7612021463875933
 40
0.8168623067330519
 40
0.8746699957507752
 40
0.9360077445631972
 40
0.9999999999999999
 40
0.9999999999999999
 40
0.9999999999999999
 40
0.9999999999999999
 10
225.6725757321916
 20
104.996406422757
 30
0.0
 10
225.6923403649504
 20
104.9967368949262
 30
0.0
 10
225.730415098275
 20
104.9973735189336
 30
0.0
 10
225.7854313514145
 20
105.0018162270696
 30
0.0
 10
225.8359226962219
 20
105.0095063500747
 30
0.0
 10
225.8820291911957
 20
105.0202318202127
 30
0.0
 10
225.9238095448894
 20
105.0335632717374
 30
0.0
 10
225.9611890036183
 20
105.0504238884916
 30
0.0
 10
225.9939748132396
 20
105.0706491563556
 30
0.0
 10
226.022384220722
 20
105.0940329780483
 30
0.0
 10
226.0467704909725
 20
105.1202285633171
 30
0.0
 10
226.0679006144209
 20
105.1488065009992
 30
0.0
 10
226.0858539094624
 20
105.1799710128723
 30
0.0
 10
226.0999271711997
 20
105.2138524884484
 30
0.0
 10
226.111849164174
 20
105.2497918670987
 30
0.0
 10
226.1192906400973
 20
105.2885338150834
 30
0.0
 10
226.1244646749246
 20
105.3295165172571
 30
0.0
 10
226.1250336866005
 20
105.3577645177391
 30
0.0
 10
226.125324218311
 20
105.3721876662362
 30
0.0
  0
LINE
  5
ED
330
1F
100
AcDbEntity
  8
0
  6
Continuous
 62
     7
370
     0
100
AcDbLine
 10
225.1770219347
 20
104.9964064228
 30
0.0
 11
225.6725757322
 21
104.9964064228
 31
0.0
  0
LINE
  5
EE
330
1F
100
AcDbEntity
  8
0
  6
Continuous
 62
     7
370
     0
100
AcDbLine
 10
225.1770219347
 20
105.7339748656
 30
0.0
 11
225.1770219347
 21
104.9964064228
 31
0.0
  0
LINE
  5
EF
330
1F
100
AcDbEntity
  8
0
  6
Continuous
 62
     7
370
     0
100
AcDbLine
 10
225.6676366578
 20
105.7339748656
 30
0.0
 11
225.1770219347
 21
105.7339748656
 31
0.0
  0
SPLINE
  5
F0
330
1F
100
AcDbEntity
  8
0
  6
Continuous
 62
     7
370
     0
100
AcDbSpline
210
0.0
220
0.0
230
1.0
 70
     8
 71
     3
 72
    15
 73
    11
 74
     0
 42
0.00000001
 43
0.00000001
 40
0.0
 40
0.0
 40
0.0
 40
0.0
 40
0.1426572507006123
 40
0.2811689939054435
 40
0.416977192367973
 40
0.5508524927475571
 40
0.6783641702618121
 40
0.795032443007094
 40
0.9019981783473521
 40
1.0
 40
1.0
 40
1.0
 40
1.0
 10
228.4433964672426
 20
105.4573866995332
 30
0.0
 10
228.4763128631618
 20
105.4743387093317
 30
0.0
 10
228.5411891304258
 20
105.5077501168578
 30
0.0
 10
228.6328452672874
 20
105.5654562107254
 30
0.0
 10
228.7184161306169
 20
105.6280119919925
 30
0.0
 10
228.7964851838489
 20
105.6954036107926
 30
0.0
 10
228.8664691154085
 20
105.7642899428158
 30
0.0
 10
228.925445590824
 20
105.8337989576463
 30
0.0
 10
228.9747933525437
 20
105.9013827550604
 30
0.0
 10
228.9995520594469
 20
105.9485149587584
 30
0.0
 10
229.0113900225562
 20
105.9710504365124
 30
0.0
  0
LINE
  5
F1
330
1F
100
AcDbEntity
  8
0
  6
Continuous
 62
     7
370
     0
100
AcDbLine
 10
228.4433964672
 20
105.2145488752
 30
0.0
 11
228.4433964672
 21
105.4573866995
 31
0.0
  0
SPLINE
  5
F2
330
1F
100
AcDbEntity
  8
0
  6
Continuous
 62
     7
370
     0
100
AcDbSpline
210
0.0
220
0.0
230
1.0
 70
     8
 71
     3
 72
    15
 73
    11
 74
     0
 42
0.00000001
 43
0.00000001
 40
0.0
 40
0.0
 40
0.0
 40
0.0
 40
0.111670300101588
 40
0.2320944808560198
 40
0.3627434591045547
 40
0.5025575097108851
 40
0.6415251033312812
 40
0.7710984952996689
 40
0.8901617573732539
 40
1.0
 40
1.0
 40
1.0
 40
1.0
 10
228.9175476090696
 20
105.5174787713273
 30
0.0
 10
228.9023800175713
 20
105.5028514954273
 30
0.0
 10
228.8708558408528
 20
105.4724503054667
 30
0.0
 10
228.8175675503697
 20
105.4294250302082
 30
0.0
 10
228.7580910080166
 20
105.3858170899589
 30
0.0
 10
228.6931985545411
 20
105.3438831802602
 30
0.0
 10
228.6270516759432
 20
105.3044069264839
 30
0.0
 10
228.5631292339553
 20
105.2689041053341
 30
0.0
 10
228.5024984409714
 20
105.2388601046499
 30
0.0
 10
228.4625606101617
 20
105.2224319262172
 30
0.0
 10
228.4433964672426
 20
105.2145488751601
 30
0.0
  0
LINE
  5
F3
330
1F
100
AcDbEntity
  8
0
  6
Continuous
 62
     7
370
     0
100
AcDbLine
 10
228.9175476091
 20
103.9163954886
 30
0.0
 11
228.9175476091
 21
105.5174787713
 31
0.0
  0
LINE
  5
F4
330
1F
100
AcDbEntity
  8
0
  6
Continuous
 62
     7
370
     0
100
AcDbLine
 10
229.1809649101
 20
103.9163954886
 30
0.0
 11
228.9175476091
 21
103.9163954886
 31
0.0
  0
LINE
  5
F5
330
1F
100
AcDbEntity
  8
0
  6
Continuous
 62
     7
370
     0
100
AcDbLine
 10
229.1809649101
 20
105.9710504365
 30
0.0
 11
229.1809649101
 21
103.9163954886
 31
0.0
  0
LINE
  5
F6
330
1F
100
AcDbEntity
  8
0
  6
Continuous
 62
     7
370
     0
100
AcDbLine
 10
229.0113900226
 20
105.9710504365
 30
0.0
 11
229.1809649101
 21
105.9710504365
 31
0.0
  0
LINE
  5
F7
330
1F
100
AcDbEntity
  8
0
  6
Continuous
 62
     7
370
     0
100
AcDbLine
 10
225.6803959333
 20
104.7593308518
 30
0.0
 11
225.1770219347
 21
104.7593308518
 31
0.0
  0
SPLINE
  5
F8
330
1F
100
AcDbEntity
  8
0
  6
Continuous
 62
     7
370
     0
100
AcDbSpline
210
0.0
220
0.0
230
1.0
 70
     8
 71
     3
 72
    23
 73
    19
 74
     0
 42
0.00000001
 43
0.00000001
 40
0.0
 40
0.0
 40
0.0
 40
0.0
 40
0.058048068659147
 40
0.1142127550191541
 40
0.1688916471752764
 40
0.2226262701242397
 40
0.2756512298918107
 40
0.3287250271459033
 40
0.3816587912372605
 40
0.4359534350342106
 40
0.4912638558489658
 40
0.548992591180569
 40
0.6104165486580292
 40
0.6762479649809728
 40
0.7474094740183921
 40
0.8248664857445538
 40
0.9090259917114393
 40
1.0
 40
1.0
 40
1.0
 40
1.0
 10
226.4150832494275
 20
105.3804194568929
 30
0.0
 10
226.4146295449934
 20
105.3591305793935
 30
0.0
 10
226.413736856665
 20
105.3172435466869
 30
0.0
 10
226.4060714835624
 20
105.2557054505356
 30
0.0
 10
226.3939815329809
 20
105.1965032999684
 30
0.0
 10
226.3759477321769
 20
105.1400422244914
 30
0.0
 10
226.3539009262495
 20
105.0856621386633
 30
0.0
 10
226.326116856413
 20
105.0342801755897
 30
0.0
 10
226.2936729018067
 20
104.9851986115671
 30
0.0
 10
226.256449617401
 20
104.9385510018143
 30
0.0
 10
226.2126274735922
 20
104.8952839326125
 30
0.0
 10
226.1599040473787
 20
104.8585803306914
 30
0.0
 10
226.0992958514675
 20
104.8277596226363
 30
0.0
 10
226.0307887501603
 20
104.8028568238622
 30
0.0
 10
225.9545490459385
 20
104.7832623341211
 30
0.0
 10
225.8703269368839
 20
104.7689057301775
 30
0.0
 10
225.7779583560217
 20
104.7609796900293
 30
0.0
 10
225.7137495362767
 20
104.759894539098
 30
0.0
 10
225.6803959333155
 20
104.7593308518436
 30
0.0
  0
SPLINE
  5
F9
330
1F
100
AcDbEntity
  8
0
  6
Continuous
 62
     7
370
     0
100
AcDbSpline
210
0.0
220
0.0
230
1.0
 70
     8
 71
     3
 72
    19
 73
    15
 74
     0
 42
0.00000001
 43
0.00000001
 40
0.0
 40
0.0
 40
0.0
 40
0.0
 40
0.0892424937815279
 40
0.1729768290722685
 40
0.2526551372368087
 40
0.3289533944009836
 40
0.4046880824662921
 40
0.4814988935669583
 40
0.5618700905962241
 40
0.6456290048367237
 40
0.7322912491886802
 40
0.8191788448148045
 40
0.908074685965368
 40
0.9999999999999999
 40
0.9999999999999999
 40
0.9999999999999999
 40
0.9999999999999999
 10
225.9466943610603
 20
105.9517057284691
 30
0.0
 10
225.9704172507624
 20
105.9471402053149
 30
0.0
 10
226.0163988237017
 20
105.9382909488137
 30
0.0
 10
226.0815016039787
 20
105.9169573109691
 30
0.0
 10
226.1408140081717
 20
105.8904092272155
 30
0.0
 10
226.1942433423408
 20
105.857333054264
 30
0.0
 10
226.2426772328229
 20
105.818476641527
 30
0.0
 10
226.2854254414128
 20
105.7719175377528
 30
0.0
 10
226.3233185018875
 20
105.7186953257079
 30
0.0
 10
226.3555391783484
 20
105.6588516486507
 30
0.0
 10
226.3823579546103
 20
105.5944598778023
 30
0.0
 10
226.4011419300985
 20
105.5258603611384
 30
0.0
 10
226.4131731002306
 20
105.4542449218775
 30
0.0
 10
226.4144394608377
 20
105.405301278725
 30
0.0
 10
226.4150832494275
 20
105.3804194568929
 30
0.0
  0
SPLINE
  5
FA
330
1F
100
AcDbEntity
  8
0
  6
Continuous
 62
     7
370
     0
100
AcDbSpline
210
0.0
220
0.0
230
1.0
 70
     8
 71
     3
 72
    11
 73
     7
 74
     0
 42
0.00000001
 43
0.00000001
 40
0.0
 40
0.0
 40
0.0
 40
0.0
 40
0.3071626301099397
 40
0.576852859909682
 40
0.8066330493509283
 40
1.0
 40
1.0
 40
1.0
 40
1.0
 10
225.6421181067617
 20
105.9710504365124
 30
0.0
 10
225.6734062465179
 20
105.9708721854205
 30
0.0
 10
225.7321655197184
 20
105.9705374290339
 30
0.0
 10
225.8142220898089
 20
105.9666170013176
 30
0.0
 10
225.8846853991809
 20
105.9617667833
 30
0.0
 10
225.9272455211203
 20
105.9548613343542
 30
0.0
 10
225.9466943610603
 20
105.9517057284691
 30
0.0
  0
LINE
  5
FB
330
1F
100
AcDbEntity
  8
0
  6
Continuous
 62
     7
370
     0
100
AcDbLine
 10
224.8872629035
 20
105.9710504365
 30
0.0
 11
225.6421181068
 21
105.9710504365
 31
0.0
  0
LINE
  5
FC
330
1F
100
AcDbEntity
  8
0
  6
Continuous
 62
     7
370
     0
100
AcDbLine
 10
224.8872629035
 20
103.9163954886
 30
0.0
 11
224.8872629035
 21
105.9710504365
 31
0.0
  0
LINE
  5
FD
330
1F
100
AcDbEntity
  8
0
  6
Continuous
 62
     7
370
     0
100
AcDbLine
 10
225.1770219347
 20
103.9163954886
 30
0.0
 11
224.8872629035
 21
103.9163954886
 31
0.0
  0
LINE
  5
FE
330
1F
100
AcDbEntity
  8
0
  6
Continuous
 62
     7
370
     0
100
AcDbLine
 10
225.1770219347
 20
104.7593308518
 30
0.0
 11
225.1770219347
 21
103.9163954886
 31
0.0
  0
SPLINE
  5
FF
330
1F
100
AcDbEntity
  8
0
  6
Continuous
 62
     7
370
     0
100
AcDbSpline
210
0.0
220
0.0
230
1.0
 70
     8
 71
     3
 72
    31
 73
    27
 74
     0
 42
0.00000001
 43
0.00000001
 40
0.0
 40
0.0
 40
0.0
 40
0.0
 40
0.0628739462114324
 40
0.1228366299919129
 40
0.1796565674430314
 40
0.233960012230862
 40
0.285595018695559
 40
0.3345131060783805
 40
0.3809048259061763
 40
0.4248945919393346
 40
0.4665290347654874
 40
0.5064882940692463
 40
0.5450315536447542
 40
0.5818311798231344
 40
0.617448279949443
 40
0.6520669127690458
 40
0.6858797142465107
 40
0.7191745547913923
 40
0.7521816462063928
 40
0.7852401639180908
 40
0.8186564497770833
 40
0.8525477406533113
 40
0.8876263422585189
 40
0.923635078068751
 40
0.9610218444769891
 40
1.0
 40
1.0
 40
1.0
 40
1.0
 10
223.5701763984659
 20
104.9297289184376
 30
0.0
 10
223.5699060342299
 20
104.9005039350947
 30
0.0
 10
223.5693778244766
 20
104.8434071775069
 30
0.0
 10
223.5662401082002
 20
104.7599350666282
 30
0.0
 10
223.5602718887233
 20
104.6806271973456
 30
0.0
 10
223.5529278856175
 20
104.6053018984051
 30
0.0
 10
223.5418179472011
 20
104.5341602529032
 30
0.0
 10
223.5298463866109
 20
104.4668999988095
 30
0.0
 10
223.5150405232856
 20
104.4038265569132
 30
0.0
 10
223.4977655568365
 20
104.3449122837503
 30
0.0
 10
223.4783100218966
 20
104.2898456618606
 30
0.0
 10
223.4569740172556
 20
104.2382105283273
 30
0.0
 10
223.433342343452
 20
104.1900421660879
 30
0.0
 10
223.4067116326206
 20
104.1458103851879
 30
0.0
 10
223.3783003604216
 20
104.1049280827898
 30
0.0
 10
223.347900444493
 20
104.067241900187
 30
0.0
 10
223.3148673710276
 20
104.0332942504783
 30
0.0
 10
223.279234518855
 20
104.0032756780608
 30
0.0
 10
223.2417242485338
 20
103.9762351745065
 30
0.0
 10
223.2015903911685
 20
103.9530826934439
 30
0.0
 10
223.1590086063974
 20
103.933901265023
 30
0.0
 10
223.1142633995212
 20
103.9175020966847
 30
0.0
 10
223.0669007658641
 20
103.9054857479881
 30
0.0
 10
223.0172942027474
 20
103.8962874208295
 30
0.0
 10
222.9652609333691
 20
103.8908707796816
 30
0.0
 10
222.9297557093745
 20
103.8903298563721
 30
0.0
 10
222.9116331459285
 20
103.8900537584942
 30
0.0
  0
SPLINE
  5
100
330
1F
100
AcDbEntity
  8
0
  6
Continuous
 62
     7
370
     0
100
AcDbSpline
210
0.0
220
0.0
230
1.0
 70
     8
 71
     3
 72
    27
 73
    23
 74
     0
 42
0.00000001
 43
0.00000001
 40
0.0
 40
0.0
 40
0.0
 40
0.0
 40
0.0567243372181507
 40
0.1114372357370107
 40
0.1643678222229016
 40
0.2164353724620897
 40
0.2676414903219248
 40
0.317359779969028
 40
0.3674730633322805
 40
0.4182103970528082
 40
0.4714042826470201
 40
0.5279657201290493
 40
0.5880611158232137
 40
0.6521342629937144
 40
0.6863448363353055
 40
0.7232636803169652
 40
0.7626102507715419
 40
0.8047389366452182
 40
0.84943033879095
 40
0.8967112583864923
 40
0.9468896380534765
 40
1.0
 40
1.0
 40
1.0
 40
1.0
 10
222.9116331459285
 20
105.9710504365124
 30
0.0
 10
222.9380203350379
 20
105.9702746718276
 30
0.0
 10
222.9898590264607
 20
105.9687506509876
 30
0.0
 10
223.0655437836386
 20
105.9563210135622
 30
0.0
 10
223.1368717892838
 20
105.9350582030547
 30
0.0
 10
223.2037967021106
 20
105.906373754408
 30
0.0
 10
223.2651744511021
 20
105.8699389838301
 30
0.0
 10
223.3199873679354
 20
105.8256469691815
 30
0.0
 10
223.3676442067641
 20
105.7739627678692
 30
0.0
 10
223.4076248669365
 20
105.7142739390547
 30
0.0
 10
223.4425719546547
 20
105.6482270992422
 30
0.0
 10
223.4736181802299
 20
105.5755258058496
 30
0.0
 10
223.5016830664045
 20
105.496251528886
 30
0.0
 10
223.5215985205882
 20
105.4252899842107
 30
0.0
 10
223.535804197705
 20
105.3640334609155
 30
0.0
 10
223.5452072272712
 20
105.313510813335
 30
0.0
 10
223.5530136269256
 20
105.2589965921661
 30
0.0
 10
223.5589943840555
 20
105.2006226819846
 30
0.0
 10
223.5639014541673
 20
105.1384545543251
 30
0.0
 10
223.5676909595253
 20
105.0724535021219
 30
0.0
 10
223.5696145214995
 20
105.0024545669742
 30
0.0
 10
223.5699855950126
 20
104.9544252589451
 30
0.0
 10
223.5701763984659
 20
104.9297289184376
 30
0.0
  0
SPLINE
  5
101
330
1F
100
AcDbEntity
  8
0
  6
Continuous
 62
     7
370
     0
100
AcDbSpline
210
0.0
220
0.0
230
1.0
 70
     8
 71
     3
 72
    31
 73
    27
 74
     0
 42
0.00000001
 43
0.00000001
 40
0.0
 40
0.0
 40
0.0
 40
0.0
 40
0.0631144583947934
 40
0.1236146457694899
 40
0.1809737111859575
 40
0.2352614550083221
 40
0.2871007018338719
 40
0.3360307363034435
 40
0.3823823485850661
 40
0.4263340836597072
 40
0.4682106947981602
 40
0.5082496012618051
 40
0.546628336606585
 40
0.5836495392304462
 40
0.6189943150301618
 40
0.653583018620596
 40
0.6871561361903314
 40
0.7204221919788074
 40
0.7532302188118172
 40
0.7862601560778999
 40
0.8195039834988841
 40
0.8535452747120185
 40
0.8883082803397299
 40
0.9239958607406952
 40
0.961350304754645
 40
1.0
 40
1.0
 40
1.0
 40
1.0
 10
222.2530898933911
 20
104.9297289184376
 30
0.0
 10
222.2533552863795
 20
104.9590918236398
 30
0.0
 10
222.2538750794837
 20
105.016601389873
 30
0.0
 10
222.257099187249
 20
105.1007482165192
 30
0.0
 10
222.2627282181539
 20
105.1806589735586
 30
0.0
 10
222.2711308116565
 20
105.2562642622325
 30
0.0
 10
222.281081056599
 20
105.3277347385349
 30
0.0
 10
222.2940164377977
 20
105.3949684067253
 30
0.0
 10
222.3085706221415
 20
105.4581161163698
 30
0.0
 10
222.3260330315648
 20
105.5171120462108
 30
0.0
 10
222.3452185029103
 20
105.572463453851
 30
0.0
 10
222.3669850322284
 20
105.6240815431363
 30
0.0
 10
222.3914753304225
 20
105.6719115867425
 30
0.0
 10
222.4174858515584
 20
105.7164496090481
 30
0.0
 10
222.4463858427917
 20
105.7570028605073
 30
0.0
 10
222.4764309586008
 20
105.7947094313704
 30
0.0
 10
222.5098046986111
 20
105.8281864745562
 30
0.0
 10
222.5451193111217
 20
105.8582953574194
 30
0.0
 10
222.5828948129574
 20
105.8848646918921
 30
0.0
 10
222.6229313342099
 20
105.9077908228255
 30
0.0
 10
222.6650748252368
 20
105.9280329433758
 30
0.0
 10
222.7101284943718
 20
105.9432712064379
 30
0.0
 10
222.7571570361025
 20
105.9556936212003
 30
0.0
 10
222.8065224517551
 20
105.9648317001214
 30
0.0
 10
222.8582791412563
 20
105.9702189060386
 30
0.0
 10
222.893647563243
 20
105.9707701284046
 30
0.0
 10
222.9116331459285
 20
105.9710504365124
 30
0.0
  0
SPLINE
  5
102
330
1F
100
AcDbEntity
  8
0
  6
Continuous
 62
     7
370
     0
100
AcDbSpline
210
0.0
220
0.0
230
1.0
 70
     8
 71
     3
 72
    15
 73
    11
 74
     0
 42
0.00000001
 43
0.00000001
 40
0.0
 40
0.0
 40
0.0
 40
0.0
 40
0.0974206681772145
 40
0.2008855880393207
 40
0.3111719701726506
 40
0.429797945825373
 40
0.5577399263645872
 40
0.6947152693641585
 40
0.8421299102060552
 40
1.0
 40
1.0
 40
1.0
 40
1.0
 10
222.4527108168166
 20
104.0880283237883
 30
0.0
 10
222.4364270598979
 20
104.1115178820363
 30
0.0
 10
222.4028492560777
 20
104.1599543566542
 30
0.0
 10
222.3635493480682
 20
104.242543038937
 30
0.0
 10
222.3284931343281
 20
104.3334615824366
 30
0.0
 10
222.3009804339162
 20
104.4344937981985
 30
0.0
 10
222.2794311311471
 20
104.544835583997
 30
0.0
 10
222.2638671543509
 20
104.6647034539199
 30
0.0
 10
222.2550594757421
 20
104.7940456210931
 30
0.0
 10
222.2537612415644
 20
104.8834801623188
 30
0.0
 10
222.2530898933911
 20
104.9297289184376
 30
0.0
  0
SPLINE
  5
103
330
1F
100
AcDbEntity
  8
0
  6
Continuous
 62
     7
370
     0
100
AcDbSpline
210
0.0
220
0.0
230
1.0
 70
     8
 71
     3
 72
    15
 73
    11
 74
     0
 42
0.00000001
 43
0.00000001
 40
0.0
 40
0.0
 40
0.0
 40
0.0
 40
0.1379032299933934
 40
0.2688733426002937
 40
0.3951781273461133
 40
0.5170892381308875
 40
0.6367430265135479
 40
0.756221816463797
 40
0.8766283594636795
 40
1.0
 40
1.0
 40
1.0
 40
1.0
 10
222.9116331459285
 20
103.8900537584942
 30
0.0
 10
222.8878723639908
 20
103.8907315360554
 30
0.0
 10
222.8415453790268
 20
103.8920530157511
 30
0.0
 10
222.7738882334413
 20
103.9010316563135
 30
0.0
 10
222.710388393518
 20
103.9168344852663
 30
0.0
 10
222.6505102744717
 20
103.9380283071909
 30
0.0
 10
222.5949269227324
 20
103.9663762644716
 30
0.0
 10
222.5433729498973
 20
104.0008670900015
 30
0.0
 10
222.4948124160482
 20
104.0406983182956
 30
0.0
 10
222.4668580205624
 20
104.0721242431069
 30
0.0
 10
222.4527108168166
 20
104.0880283237883
 30
0.0
  0
SPLINE
  5
104
330
1F
100
AcDbEntity
  8
0
  6
Continuous
 62
     7
370
     0
100
AcDbSpline
210
0.0
220
0.0
230
1.0
 70
     8
 71
     3
 72
    23
 73
    19
 74
     0
 42
0.00000001
 43
0.00000001
 40
0.0
 40
0.0
 40
0.0
 40
0.0
 40
0.0579448754623256
 40
0.1160176254256826
 40
0.1748257843638405
 40
0.2346830900793709
 40
0.2968270303289143
 40
0.3640613359637881
 40
0.436192424049739
 40
0.5142601195414407
 40
0.5569758971654883
 40
0.6048559283836539
 40
0.6576752010734876
 40
0.7157505846619323
 40
0.7788397991664556
 40
0.847501189473863
 40
0.9212282309463236
 40
1.0
 40
1.0
 40
1.0
 40
1.0
 10
220.3564853260835
 20
105.4038800602646
 30
0.0
 10
220.3559190125845
 20
105.3835476053111
 30
0.0
 10
220.3547851358287
 20
105.3428378251285
 30
0.0
 10
220.3459350767224
 20
105.2819887096976
 30
0.0
 10
220.330792526779
 20
105.2217999425307
 30
0.0
 10
220.3107175470697
 20
105.1615389903315
 30
0.0
 10
220.2832909465609
 20
105.100966679903
 30
0.0
 10
220.2486420940614
 20
105.0392474146476
 30
0.0
 10
220.2056564065038
 20
104.9761532088736
 30
0.0
 10
220.1643162270698
 20
104.9225161241884
 30
0.0
 10
220.125835229527
 20
104.8775547214603
 30
0.0
 10
220.0917254618809
 20
104.8405488600618
 30
0.0
 10
220.052262434802
 20
104.8012326069513
 30
0.0
 10
220.0089265542042
 20
104.7582443493848
 30
0.0
 10
219.9599503744815
 20
104.7131098304996
 30
0.0
 10
219.9067410952101
 20
104.6644774709859
 30
0.0
 10
219.8481339400705
 20
104.6136270895884
 30
0.0
 10
219.8074491523057
 20
104.5788885499201
 30
0.0
 10
219.7864338231058
 20
104.5609446970167
 30
0.0
  0
SPLINE
  5
105
330
1F
100
AcDbEntity
  8
0
  6
Continuous
 62
     7
370
     0
100
AcDbSpline
210
0.0
220
0.0
230
1.0
 70
     8
 71
     3
 72
    23
 73
    19
 74
     0
 42
0.00000001
 43
0.00000001
 40
0.0
 40
0.0
 40
0.0
 40
0.0
 40
0.0747118903045011
 40
0.1455392023749086
 40
0.2133390572509725
 40
0.2786150735384709
 40
0.3420941969414983
 40
0.4038900759591959
 40
0.4650633525655206
 40
0.5265767363834861
 40
0.5873283340287676
 40
0.6463804557031434
 40
0.7043453083753259
 40
0.7616719489990784
 40
0.8194178590468651
 40
0.8780393997816818
 40
0.9377955090070548
 40
1.0
 40
1.0
 40
1.0
 40
1.0
 10
219.7242838036476
 20
105.9710504365124
 30
0.0
 10
219.7480429076757
 20
105.9706435888008
 30
0.0
 10
219.7943257822666
 20
105.9698510470623
 30
0.0
 10
219.8617673697622
 20
105.9617417537953
 30
0.0
 10
219.9254003714894
 20
105.9491116034267
 30
0.0
 10
219.985458064293
 20
105.9315090406922
 30
0.0
 10
220.0415856189746
 20
105.908426831866
 30
0.0
 10
220.0938262105554
 20
105.8802255846974
 30
0.0
 10
220.1424207095474
 20
105.8471803943564
 30
0.0
 10
220.1865572015036
 20
105.8088945747385
 30
0.0
 10
220.2263562301107
 20
105.7670991892509
 30
0.0
 10
220.2612342101498
 20
105.7224945029933
 30
0.0
 10
220.2903938804003
 20
105.6752710680199
 30
0.0
 10
220.3152215292587
 20
105.6260725724842
 30
0.0
 10
220.3336371127213
 20
105.5738594841485
 30
0.0
 10
220.3465872903314
 20
105.519341649953
 30
0.0
 10
220.3553873116237
 20
105.4624724827927
 30
0.0
 10
220.3561144554145
 20
105.4236705199844
 30
0.0
 10
220.3564853260835
 20
105.4038800602646
 30
0.0
  0
SPLINE
  5
106
330
1F
100
AcDbEntity
  8
0
  6
Continuous
 62
     7
370
     0
100
AcDbSpline
210
0.0
220
0.0
230
1.0
 70
     8
 71
     3
 72
    23
 73
    19
 74
     0
 42
0.00000001
 43
0.00000001
 40
0.0
 40
0.0
 40
0.0
 40
0.0
 40
0.0706752902033302
 40
0.137492693844125
 40
0.2014728253723049
 40
0.2628693217722904
 40
0.322550086526156
 40
0.3807372513385548
 40
0.4382197368560125
 40
0.4954874370602862
 40
0.5534836796953478
 40
0.6113462062294291
 40
0.6706437388141558
 40
0.7315869484227135
 40
0.7941831937999383
 40
0.8594451119347498
 40
0.92820763539981
 40
1.0
 40
1.0
 40
1.0
 40
1.0
 10
219.0657405511102
 20
105.3915323742795
 30
0.0
 10
219.0684356843135
 20
105.414489835711
 30
0.0
 10
219.0736788339819
 20
105.4591516009044
 30
0.0
 10
219.0867388045052
 20
105.5238366450538
 30
0.0
 10
219.1050738212361
 20
105.5840122778794
 30
0.0
 10
219.127013216191
 20
105.6405174741565
 30
0.0
 10
219.1545163149
 20
105.6923903452806
 30
0.0
 10
219.185606200616
 20
105.7407038233742
 30
0.0
 10
219.2222752864832
 20
105.7839256074893
 30
0.0
 10
219.2627848975622
 20
105.8234181102172
 30
0.0
 10
219.3075788610775
 20
105.858221396681
 30
0.0
 10
219.3562364070378
 20
105.888626899324
 30
0.0
 10
219.408735277929
 20
105.9140592249947
 30
0.0
 10
219.4647830734635
 20
105.9351161303307
 30
0.0
 10
219.5245084656877
 20
105.9510925343646
 30
0.0
 10
219.5878269627641
 20
105.9625491235217
 30
0.0
 10
219.654840392181
 20
105.9696110960631
 30
0.0
 10
219.7008057192716
 20
105.9705638107001
 30
0.0
 10
219.7242838036476
 20
105.9710504365124
 30
0.0
  0
LINE
  5
107
330
1F
100
AcDbEntity
  8
0
  6
Continuous
 62
     7
370
     0
100
AcDbLine
 10
219.3291578521
 20
105.3651906442
 30
0.0
 11
219.0657405511
 21
105.3915323743
 31
0.0
  0
SPLINE
  5
108
330
1F
100
AcDbEntity
  8
0
  6
Continuous
 62
     7
370
     0
100
AcDbSpline
210
0.0
220
0.0
230
1.0
 70
     8
 71
     3
 72
    23
 73
    19
 74
     0
 42
0.00000001
 43
0.00000001
 40
0.0
 40
0.0
 40
0.0
 40
0.0
 40
0.0706964833433765
 40
0.1383582132030687
 40
0.20336986825917
 40
0.2657002133402299
 40
0.3272558681973766
 40
0.3865123433292945
 40
0.4458582974819498
 40
0.5051731438069392
 40
0.5637797628070206
 40
0.6223430642934399
 40
0.6808235796100197
 40
0.7397951568104401
 40
0.8008011629883836
 40
0.864239461576908
 40
0.9306310981734532
 40
1.0
 40
1.0
 40
1.0
 40
1.0
 10
219.7185215501879
 20
105.7339748655989
 30
0.0
 10
219.7042396303299
 20
105.7336468703675
 30
0.0
 10
219.6762888636267
 20
105.7330049595962
 30
0.0
 10
219.6354323279035
 20
105.7283323784778
 30
0.0
 10
219.5966461293058
 20
105.7211933061032
 30
0.0
 10
219.5600228443551
 20
105.7102782753813
 30
0.0
 10
219.5256070482784
 20
105.6965280170462
 30
0.0
 10
219.4935389090121
 20
105.6792201038348
 30
0.0
 10
219.4633048821729
 20
105.6596826002972
 30
0.0
 10
219.4358571535539
 20
105.636551669937
 30
0.0
 10
219.4110365325502
 20
105.6109041865212
 30
0.0
 10
219.3890015993904
 20
105.5829818351374
 30
0.0
 10
219.3709472824514
 20
105.5522457727852
 30
0.0
 10
219.3560372833626
 20
105.5193718162896
 30
0.0
 10
219.3440483958277
 20
105.4842566224621
 30
0.0
 10
219.335344871187
 20
105.4466317427011
 30
0.0
 10
219.3305996512262
 20
105.4066058134989
 30
0.0
 10
219.3296454272883
 20
105.3791960683202
 30
0.0
 10
219.3291578521251
 20
105.365190644178
 30
0.0
  0
SPLINE
  5
109
330
1F
100
AcDbEntity
  8
0
  6
Continuous
 62
     7
370
     0
100
AcDbSpline
210
0.0
220
0.0
230
1.0
 70
     8
 71
     3
 72
    23
 73
    19
 74
     0
 42
0.00000001
 43
0.00000001
 40
0.0
 40
0.0
 40
0.0
 40
0.0
 40
0.061762156768071
 40
0.1211739926536296
 40
0.1794214068253156
 40
0.2368434346502754
 40
0.2943217954133984
 40
0.3531909627945248
 40
0.4127207064163249
 40
0.4745221507037176
 40
0.5370567441421369
 40
0.599591337580556
 40
0.6623669793543064
 40
0.7252456446794925
 40
0.7903164461250805
 40
0.8577243009540928
 40
0.927231952378493
 40
1.0
 40
1.0
 40
1.0
 40
1.0
 10
220.0930680250685
 20
105.4014105230676
 30
0.0
 10
220.0927820170296
 20
105.41295781771
 30
0.0
 10
220.0922208848117
 20
105.4356129818005
 30
0.0
 10
220.086896890096
 20
105.4687686728108
 30
0.0
 10
220.079485462514
 20
105.5006983954027
 30
0.0
 10
220.0675034398408
 20
105.5308273448135
 30
0.0
 10
220.0532412257548
 20
105.5600477560858
 30
0.0
 10
220.0349464937651
 20
105.5874363016042
 30
0.0
 10
220.0137832497219
 20
105.6136755737562
 30
0.0
 10
219.9895531264325
 20
105.6380737666772
 30
0.0
 10
219.9630881575304
 20
105.6609631668434
 30
0.0
 10
219.9335173262347
 20
105.6799898188047
 30
0.0
 10
219.902782836627
 20
105.6971194747433
 30
0.0
 10
219.8698243746489
 20
105.7108927006813
 30
0.0
 10
219.8346954960868
 20
105.7210066261946
 30
0.0
 10
219.7976519226912
 20
105.7283467314443
 30
0.0
 10
219.7586995325655
 20
105.7330007515294
 30
0.0
 10
219.7321172644567
 20
105.7336452378832
 30
0.0
 10
219.7185215501879
 20
105.7339748655989
 30
0.0
  0
SPLINE
  5
10A
330
1F
100
AcDbEntity
  8
0
  6
Continuous
 62
     7
370
     0
100
AcDbSpline
210
0.0
220
0.0
230
1.0
 70
     8
 71
     3
 72
    23
 73
    19
 74
     0
 42
0.00000001
 43
0.00000001
 40
0.0
 40
0.0
 40
0.0
 40
0.0
 40
0.1114096600426609
 40
0.2145263672558013
 40
0.3094172254458342
 40
0.3960871907990314
 40
0.4742842164262461
 40
0.5443738816396977
 40
0.6064195628105363
 40
0.6605816023749734
 40
0.7097938180647575
 40
0.7564506485918284
 40
0.8007673253039324
 40
0.8431682879413349
 40
0.8842948685500487
 40
0.9238845020552847
 40
0.9623587101392161
 40
1.0
 40
1.0
 40
1.0
 40
1.0
 10
219.5407148720028
 20
104.6848331464003
 30
0.0
 10
219.5671523347472
 20
104.7070851296093
 30
0.0
 10
219.6180593462204
 20
104.7499327347473
 30
0.0
 10
219.6899480237804
 20
104.81351460963
 30
0.0
 10
219.7556066291444
 20
104.872553981855
 30
0.0
 10
219.813989623514
 20
104.928085637149
 30
0.0
 10
219.865574518527
 20
104.979570954356
 30
0.0
 10
219.9104824364204
 20
105.0268932867383
 30
0.0
 10
219.9490997787817
 20
105.0699049509194
 30
0.0
 10
219.9809551035555
 20
105.1101627868841
 30
0.0
 10
220.0078324185209
 20
105.1481773818279
 30
0.0
 10
220.0306085690866
 20
105.1852582716443
 30
0.0
 10
220.0495894686295
 20
105.2220531782693
 30
0.0
 10
220.0653980182557
 20
105.258445672519
 30
0.0
 10
220.0779012377862
 20
105.2945913849522
 30
0.0
 10
220.0864239605089
 20
105.3305956245272
 30
0.0
 10
220.092203776207
 20
105.3661011416734
 30
0.0
 10
220.0927820514353
 20
105.3897269067709
 30
0.0
 10
220.0930680250685
 20
105.4014105230676
 30
0.0
  0
SPLINE
  5
10B
330
1F
100
AcDbEntity
  8
0
  6
Continuous
 62
     7
370
     0
100
AcDbSpline
210
0.0
220
0.0
230
1.0
 70
     8
 71
     3
 72
    19
 73
    15
 74
     0
 42
0.00000001
 43
0.00000001
 40
0.0
 40
0.0
 40
0.0
 40
0.0
 40
0.1003881431397112
 40
0.204406793037309
 40
0.3106860830942076
 40
0.4221572938827998
 40
0.480685460770374
 40
0.5432381544526687
 40
0.6094995045645645
 40
0.6795546087742242
 40
0.753841222051175
 40
0.8316406764893858
 40
0.9138127068095903
 40
0.9999999999999999
 40
0.9999999999999999
 40
0.9999999999999999
 40
0.9999999999999999
 10
219.0669753197087
 20
104.0991412411748
 30
0.0
 10
219.0756923490192
 20
104.1232132787447
 30
0.0
 10
219.0934416563622
 20
104.1722279118242
 30
0.0
 10
219.1294019389603
 20
104.2429491824837
 30
0.0
 10
219.1716997292691
 20
104.3132427448917
 30
0.0
 10
219.212882582064
 20
104.3704716291151
 30
0.0
 10
219.2505971822172
 20
104.4161935067043
 30
0.0
 10
219.2822257904749
 20
104.4519655844438
 30
0.0
 10
219.3172760863941
 20
104.4885825214868
 30
0.0
 10
219.3557200002732
 20
104.5260376291713
 30
0.0
 10
219.3971875324887
 20
104.5645734890573
 30
0.0
 10
219.4417352652875
 20
104.6043186167802
 30
0.0
 10
219.489889237413
 20
104.644532318374
 30
0.0
 10
219.5235057496552
 20
104.6711876329539
 30
0.0
 10
219.5407148720028
 20
104.6848331464003
 30
0.0
  0
SPLINE
  5
10C
330
1F
100
AcDbEntity
  8
0
  6
Continuous
 62
     7
370
     0
100
AcDbSpline
210
0.0
220
0.0
230
1.0
 70
     8
 71
     3
 72
    11
 73
     7
 74
     0
 42
0.00000001
 43
0.00000001
 40
0.0
 40
0.0
 40
0.0
 40
0.0
 40
0.2526433275832378
 40
0.504439852579989
 40
0.750406804281457
 40
1.0
 40
1.0
 40
1.0
 40
1.0
 10
219.0393988210087
 20
103.9163954885957
 30
0.0
 10
219.0393713175046
 20
103.9320511193437
 30
0.0
 10
219.0393164026818
 20
103.9633099067499
 30
0.0
 10
219.0446058930354
 20
104.0095396704139
 30
0.0
 10
219.0528902939413
 20
104.0551561573952
 30
0.0
 10
219.0622574631421
 20
104.084408196325
 30
0.0
 10
219.0669753197087
 20
104.0991412411748
 30
0.0
  0
LINE
  5
10D
330
1F
100
AcDbEntity
  8
0
  6
Continuous
 62
     7
370
     0
100
AcDbLine
 10
220.3828270562
 20
103.9163954886
 30
0.0
 11
219.039398821
 21
103.9163954886
 31
0.0
  0
LINE
  5
10E
330
1F
100
AcDbEntity
  8
0
  6
Continuous
 62
     7
370
     0
100
AcDbLine
 10
220.3828270562
 20
104.1798127896
 30
0.0
 11
220.3828270562
 21
103.9163954886
 31
0.0
  0
LINE
  5
10F
330
1F
100
AcDbEntity
  8
0
  6
Continuous
 62
     7
370
     0
100
AcDbLine
 10
219.377725417
 20
104.1798127896
 30
0.0
 11
220.3828270562
 21
104.1798127896
 31
0.0
  0
SPLINE
  5
110
330
1F
100
AcDbEntity
  8
0
  6
Continuous
 62
     7
370
     0
100
AcDbSpline
210
0.0
220
0.0
230
1.0
 70
     8
 71
     3
 72
    17
 73
    13
 74
     0
 42
0.00000001
 43
0.00000001
 40
0.0
 40
0.0
 40
0.0
 40
0.0
 40
0.1241996726524869
 40
0.2368296581100271
 40
0.3394949853062825
 40
0.4312535100312251
 40
0.5114548721194184
 40
0.5812230366234586
 40
0.6404953748643705
 40
0.6883082049320186
 40
0.8503329734146889
 40
1.0
 40
1.0
 40
1.0
 40
1.0
 10
219.7864338231058
 20
104.5609446970167
 30
0.0
 10
219.7684373679205
 20
104.5462936640643
 30
0.0
 10
219.734120898016
 20
104.5183563994084
 30
0.0
 10
219.6852990715411
 20
104.4778549984158
 30
0.0
 10
219.6415695645378
 20
104.4407163108955
 30
0.0
 10
219.6019097693703
 20
104.4081517307664
 30
0.0
 10
219.5677640697446
 20
104.3785861498827
 30
0.0
 10
219.5379297316045
 20
104.3533144116105
 30
0.0
 10
219.5134906526202
 20
104.3310658622956
 30
0.0
 10
219.4762742619817
 20
104.2972698669623
 30
0.0
 10
219.4291365279246
 20
104.249097091429
 30
0.0
 10
219.394403429307
 20
104.2022889512348
 30
0.0
 10
219.3777254169998
 20
104.1798127896107
 30
0.0
  0
SPLINE
  5
111
330
1F
100
AcDbEntity
  8
0
  6
Continuous
 62
     7
370
     0
100
AcDbSpline
210
0.0
220
0.0
230
1.0
 70
     8
 71
     3
 72
    23
 73
    19
 74
     0
 42
0.00000001
 43
0.00000001
 40
0.0
 40
0.0
 40
0.0
 40
0.0
 40
0.0635999003471699
 40
0.1252966507935535
 40
0.1855687201945882
 40
0.2446982110006627
 40
0.303716806189989
 40
0.3629196509481438
 40
0.4233003138688771
 40
0.4851773095450755
 40
0.5470834132243567
 40
0.608524799634247
 40
0.6699648532447271
 40
0.7322993779782991
 40
0.7956502934901157
 40
0.8610554709467161
 40
0.929122115173219
 40
1.0
 40
1.0
 40
1.0
 40
1.0
 10
217.8803626965429
 20
104.5144350798062
 30
0.0
 10
217.8798392108929
 20
104.492862813906
 30
0.0
 10
217.8788079042662
 20
104.4503638060055
 30
0.0
 10
217.8697465198424
 20
104.3879802498666
 30
0.0
 10
217.856036244081
 20
104.3280523317698
 30
0.0
 10
217.8360450792308
 20
104.2708332094245
 30
0.0
 10
217.8105113948842
 20
104.2162824340547
 30
0.0
 10
217.7789259186519
 20
104.1644792193472
 30
0.0
 10
217.74159898838
 20
104.1154768543172
 30
0.0
 10
217.6996316838137
 20
104.0691230241178
 30
0.0
 10
217.652712262372
 20
104.0272211692247
 30
0.0
 10
217.6019541395142
 20
103.990296389533
 30
0.0
 10
217.5471668642486
 20
103.9593671786077
 30
0.0
 10
217.489015193579
 20
103.9337579031578
 30
0.0
 10
217.4272206772799
 20
103.9139108096257
 30
0.0
 10
217.3618627479085
 20
103.900013636034
 30
0.0
 10
217.292963154427
 20
103.8917384807395
 30
0.0
 10
217.2458517464662
 20
103.8906228566523
 30
0.0
 10
217.2218194440055
 20
103.8900537584942
 30
0.0
  0
SPLINE
  5
112
330
1F
100
AcDbEntity
  8
0
  6
Continuous
 62
     7
370
     0
100
AcDbSpline
210
0.0
220
0.0
230
1.0
 70
     8
 71
     3
 72
    23
 73
    19
 74
     0
 42
0.00000001
 43
0.00000001
 40
0.0
 40
0.0
 40
0.0
 40
0.0
 40
0.0690130029109932
 40
0.1352355440560497
 40
0.1996111851157138
 40
0.2624185195032886
 40
0.3237234972102992
 40
0.3837653656042444
 40
0.4437730350956272
 40
0.5037949564977896
 40
0.5638225777168209
 40
0.6234843128834681
 40
0.6834691722744386
 40
0.7435907624559172
 40
0.8057272199738402
 40
0.8686162107352969
 40
0.933278202847215
 40
1.0
 40
1.0
 40
1.0
 40
1.0
 10
217.4967612519398
 20
105.0433276295003
 30
0.0
 10
217.5121002387706
 20
105.0381207702948
 30
0.0
 10
217.54215799806
 20
105.0279175852748
 30
0.0
 10
217.5846507018018
 20
105.0080794491533
 30
0.0
 10
217.6246563051665
 20
104.9866892295216
 30
0.0
 10
217.6624004041661
 20
104.9635343037912
 30
0.0
 10
217.6964897711096
 20
104.9368926952964
 30
0.0
 10
217.7280617274212
 20
104.908339611954
 30
0.0
 10
217.7569835306449
 20
104.8774726846737
 30
0.0
 10
217.782860139655
 20
104.8440293869874
 30
0.0
 10
217.8059626808592
 20
104.8087116365798
 30
0.0
 10
217.8257402899685
 20
104.7714333271775
 30
0.0
 10
217.8425370335763
 20
104.7327250667544
 30
0.0
 10
217.8568921090852
 20
104.6924073577601
 30
0.0
 10
217.867377357027
 20
104.6501962070784
 30
0.0
 10
217.8747137445201
 20
104.6062855972506
 30
0.0
 10
217.8793684755463
 20
104.560906952581
 30
0.0
 10
217.8800278437361
 20
104.5300867680027
 30
0.0
 10
217.8803626965429
 20
104.5144350798062
 30
0.0
  0
SPLINE
  5
113
330
1F
100
AcDbEntity
  8
0
  6
Continuous
 62
     7
370
     0
100
AcDbSpline
210
0.0
220
0.0
230
1.0
 70
     8
 71
     3
 72
    15
 73
    11
 74
     0
 42
0.00000001
 43
0.00000001
 40
0.0
 40
0.0
 40
0.0
 40
0.0
 40
0.1248350921668871
 40
0.2447781332833286
 40
0.3609889778410595
 40
0.4779641722472781
 40
0.5969221175582977
 40
0.7215907566966706
 40
0.8550978657574203
 40
1.0
 40
1.0
 40
1.0
 40
1.0
 10
217.8013375062384
 20
105.4462737821467
 30
0.0
 10
217.8005846830059
 20
105.4236869800977
 30
0.0
 10
217.7991085382589
 20
105.3793985100337
 30
0.0
 10
217.7840659631331
 20
105.315556312307
 30
0.0
 10
217.7606208230652
 20
105.2559564209448
 30
0.0
 10
217.7267355209829
 20
105.2017347062801
 30
0.0
 10
217.6838210461533
 20
105.1523311794883
 30
0.0
 10
217.6305676054478
 20
105.1093841518868
 30
0.0
 10
217.5677839487307
 20
105.0719247390157
 30
0.0
 10
217.5210727656164
 20
105.0531165990904
 30
0.0
 10
217.4967612519398
 20
105.0433276295003
 30
0.0
  0
SPLINE
  5
114
330
1F
100
AcDbEntity
  8
0
  6
Continuous
 62
     7
370
     0
100
AcDbSpline
210
0.0
220
0.0
230
1.0
 70
     8
 71
     3
 72
    23
 73
    19
 74
     0
 42
0.00000001
 43
0.00000001
 40
0.0
 40
0.0
 40
0.0
 40
0.0
 40
0.0732007449685416
 40
0.1425867913224124
 40
0.2096247814680876
 40
0.274882926768208
 40
0.3379306095315751
 40
0.4004618221882003
 40
0.4625006206857345
 40
0.5250054581372535
 40
0.5866888527108447
 40
0.6468127657705337
 40
0.7052153157505644
 40
0.7628810210075593
 40
0.8207275416930105
 40
0.8792954957245831
 40
0.9385111654136069
 40
0.9999999999999999
 40
0.9999999999999999
 40
0.9999999999999999
 40
0.9999999999999999
 10
217.2185267277428
 20
105.9710504365124
 30
0.0
 10
217.2399486942174
 20
105.9705677190908
 30
0.0
 10
217.2816762676834
 20
105.9696274400227
 30
0.0
 10
217.3426991413083
 20
105.9625476354909
 30
0.0
 10
217.4005851171234
 20
105.9506814420402
 30
0.0
 10
217.4553001149065
 20
105.9338463008414
 30
0.0
 10
217.5069303946941
 20
105.9123215591374
 30
0.0
 10
217.5551366943361
 20
105.8858648260487
 30
0.0
 10
217.6004152684225
 20
105.8549124572918
 30
0.0
 10
217.6416088121943
 20
105.8190953348614
 30
0.0
 10
217.6790900269078
 20
105.7802095874877
 30
0.0
 10
217.7115639591268
 20
105.7385497901108
 30
0.0
 10
217.739415817204
 20
105.6950880459254
 30
0.0
 10
217.7624311932395
 20
105.649560314829
 30
0.0
 10
217.7794580554524
 20
105.6014481578697
 30
0.0
 10
217.7924363464979
 20
105.5516580303599
 30
0.0
 10
217.7999643569192
 20
105.4995983285409
 30
0.0
 10
217.8008740790249
 20
105.4642704017438
 30
0.0
 10
217.8013375062384
 20
105.4462737821467
 30
0.0
  0
SPLINE
  5
115
330
1F
100
AcDbEntity
  8
0
  6
Continuous
 62
     7
370
     0
100
AcDbSpline
210
0.0
220
0.0
230
1.0
 70
     8
 71
     3
 72
    23
 73
    19
 74
     0
 42
0.00000001
 43
0.00000001
 40
0.0
 40
0.0
 40
0.0
 40
0.0
 40
0.0621313717366117
 40
0.1219658247853497
 40
0.1805702366487598
 40
0.2385759705888209
 40
0.2960002420906481
 40
0.3543589964435931
 40
0.4137812280524365
 40
0.4750979653520684
 40
0.5372798973856026
 40
0.5989179536770425
 40
0.6612351129787322
 40
0.7243219805737479
 40
0.7892171825086325
 40
0.8563966620881328
 40
0.9265077687361052
 40
1.0
 40
1.0
 40
1.0
 40
1.0
 10
216.6423013817726
 20
105.452859214672
 30
0.0
 10
216.6427533840901
 20
105.4708591427554
 30
0.0
 10
216.6436406787678
 20
105.5061935642143
 30
0.0
 10
216.6513071067098
 20
105.558040845709
 30
0.0
 10
216.6635859955846
 20
105.6077235126269
 30
0.0
 10
216.6810126118326
 20
105.6551013407061
 30
0.0
 10
216.702845305854
 20
105.7005642928786
 30
0.0
 10
216.7303944838274
 20
105.743279467664
 30
0.0
 10
216.7620605527874
 20
105.7844540823522
 30
0.0
 10
216.7991558478224
 20
105.8224237336962
 30
0.0
 10
216.8400342216588
 20
105.8572002594197
 30
0.0
 10
216.8843118799481
 20
105.8881479517292
 30
0.0
 10
216.9323276359314
 20
105.9134556404063
 30
0.0
 10
216.9832809301814
 20
105.9346150007351
 30
0.0
 10
217.0374237015751
 20
105.9511805425987
 30
0.0
 10
217.0949466701107
 20
105.962462599478
 30
0.0
 10
217.1556470547407
 20
105.9696388246355
 30
0.0
 10
217.1972403998476
 20
105.9705725709028
 30
0.0
 10
217.2185267277428
 20
105.9710504365124
 30
0.0
  0
SPLINE
  5
116
330
1F
100
AcDbEntity
  8
0
  6
Continuous
 62
     7
370
     0
100
AcDbSpline
210
0.0
220
0.0
230
1.0
 70
     8
 71
     3
 72
    15
 73
    11
 74
     0
 42
0.00000001
 43
0.00000001
 40
0.0
 40
0.0
 40
0.0
 40
0.0
 40
0.1453591950554989
 40
0.2787017789350165
 40
0.4036022344180536
 40
0.5216687911804251
 40
0.6375206936077398
 40
0.7537041507630958
 40
0.8732127703640606
 40
1.0
 40
1.0
 40
1.0
 40
1.0
 10
216.9534630685965
 20
105.0433276295003
 30
0.0
 10
216.9284694181816
 20
105.0531052870906
 30
0.0
 10
216.8805483022864
 20
105.0718522990232
 30
0.0
 10
216.8159150715966
 20
105.109370346828
 30
0.0
 10
216.7612133730866
 20
105.1525299199858
 30
0.0
 10
216.7171148713045
 20
105.2023717833712
 30
0.0
 10
216.6835037956419
 20
105.2578655693755
 30
0.0
 10
216.6593024923284
 20
105.3183037342586
 30
0.0
 10
216.6451273645196
 20
105.3840229855577
 30
0.0
 10
216.6432617537213
 20
105.4294661548357
 30
0.0
 10
216.6423013817726
 20
105.452859214672
 30
0.0
  0
SPLINE
  5
117
330
1F
100
AcDbEntity
  8
0
  6
Continuous
 62
     7
370
     0
100
AcDbSpline
210
0.0
220
0.0
230
1.0
 70
     8
 71
     3
 72
    23
 73
    19
 74
     0
 42
0.00000001
 43
0.00000001
 40
0.0
 40
0.0
 40
0.0
 40
0.0
 40
0.0698340680322546
 40
0.1370265239564767
 40
0.2014822968650622
 40
0.2645399492437557
 40
0.3259725932884495
 40
0.3863863095292152
 40
0.4457607667910172
 40
0.5056119070745054
 40
0.5651144217391008
 40
0.6247503916637622
 40
0.6841789512645825
 40
0.7442191416569944
 40
0.8051791454666236
 40
0.8683948608225696
 40
0.9332039334133245
 40
1.0
 40
1.0
 40
1.0
 40
1.0
 10
216.5632761914681
 20
104.5214321018645
 30
0.0
 10
216.5636335025742
 20
104.5379026499796
 30
0.0
 10
216.5643346087853
 20
104.5702207150654
 30
0.0
 10
216.5686174290787
 20
104.61762252233
 30
0.0
 10
216.5771530076554
 20
104.6628014270589
 30
0.0
 10
216.5881473765169
 20
104.7060236682613
 30
0.0
 10
216.6021067849005
 20
104.7473973763066
 30
0.0
 10
216.6193283721704
 20
104.7865976432517
 30
0.0
 10
216.6402225943956
 20
104.8235297262677
 30
0.0
 10
216.6639598009207
 20
104.8584339408727
 30
0.0
 10
216.6908395281029
 20
104.8910652465645
 30
0.0
 10
216.7204261177666
 20
104.921137884028
 30
0.0
 10
216.7528270419056
 20
104.948309797204
 30
0.0
 10
216.7873141942049
 20
104.9733745958298
 30
0.0
 10
216.8253331524886
 20
104.9945592682193
 30
0.0
 10
216.8654700037562
 20
105.0140001523275
 30
0.0
 10
216.9084148068265
 20
105.03057962174
 30
0.0
 10
216.9382965947779
 20
105.0390357363542
 30
0.0
 10
216.9534630685965
 20
105.0433276295003
 30
0.0
  0
SPLINE
  5
118
330
1F
100
AcDbEntity
  8
0
  6
Continuous
 62
     7
370
     0
100
AcDbSpline
210
0.0
220
0.0
230
1.0
 70
     8
 71
     3
 72
    23
 73
    19
 74
     0
 42
0.00000001
 43
0.00000001
 40
0.0
 40
0.0
 40
0.0
 40
0.0
 40
0.0704416310595481
 40
0.1380893247200281
 40
0.2031777335235315
 40
0.2661387238052539
 40
0.3279287813674604
 40
0.3891903607612971
 40
0.4502535751031184
 40
0.5123465781279282
 40
0.5738427205586503
 40
0.6339325568070916
 40
0.6934598075975581
 40
0.7524794354833053
 40
0.8123859308429278
 40
0.8730704652319968
 40
0.9351843065837714
 40
1.0
 40
1.0
 40
1.0
 40
1.0
 10
217.2218194440055
 20
103.8900537584942
 30
0.0
 10
217.197789545359
 20
103.8906351213709
 30
0.0
 10
217.1506828496839
 20
103.8917747884378
 30
0.0
 10
217.0817203059773
 20
103.899880770883
 30
0.0
 10
217.016455887566
 20
103.9144079405019
 30
0.0
 10
216.9547417190035
 20
103.9342752083009
 30
0.0
 10
216.8962430218953
 20
103.959191109618
 30
0.0
 10
216.8418236955045
 20
103.9908172342746
 30
0.0
 10
216.7907340214297
 20
104.0276952328584
 30
0.0
 10
216.7437819756411
 20
104.0698562626816
 30
0.0
 10
216.7014660700532
 20
104.1162051483838
 30
0.0
 10
216.6646311911472
 20
104.1659312025364
 30
0.0
 10
216.6332332211873
 20
104.2182691566855
 30
0.0
 10
216.6073933732663
 20
104.2735140525467
 30
0.0
 10
216.5876975169035
 20
104.3316663934718
 30
0.0
 10
216.5738747312925
 20
104.3925078548669
 30
0.0
 10
216.5647969456318
 20
104.4559919446341
 30
0.0
 10
216.5637902524258
 20
104.4993113471092
 30
0.0
 10
216.5632761914681
 20
104.5214321018645
 30
0.0
  0
SPLINE
  5
119
330
1F
100
AcDbEntity
  8
0
  6
Continuous
 62
     7
370
     0
100
AcDbSpline
210
0.0
220
0.0
230
1.0
 70
     8
 71
     3
 72
    15
 73
    11
 74
     0
 42
0.00000001
 43
0.00000001
 40
0.0
 40
0.0
 40
0.0
 40
0.0
 40
0.132461622242638
 40
0.26164950103549
 40
0.3875466984163659
 40
0.5107816292933464
 40
0.6326753605997106
 40
0.7546603541381373
 40
0.8765227798028644
 40
1.0
 40
1.0
 40
1.0
 40
1.0
 10
214.7193550843634
 20
104.6210367688107
 30
0.0
 10
214.7188886787041
 20
104.5982427162238
 30
0.0
 10
214.7179673944411
 20
104.5532179582223
 30
0.0
 10
214.7104172793621
 20
104.4868656538929
 30
0.0
 10
214.6979802591232
 20
104.4229299860427
 30
0.0
 10
214.6813305208657
 20
104.3612216214957
 30
0.0
 10
214.6588344900978
 20
104.3020910160264
 30
0.0
 10
214.6315489104053
 20
104.245347172984
 30
0.0
 10
214.6000734637704
 20
104.1903979895814
 30
0.0
 10
214.5748317889743
 20
104.1565249893906
 30
0.0
 10
214.5621278828201
 20
104.1394770153928
 30
0.0
  0
SPLINE
  5
11A
330
1F
100
AcDbEntity
  8
0
  6
Continuous
 62
     7
370
     0
100
AcDbSpline
210
0.0
220
0.0
230
1.0
 70
     8
 71
     3
 72
    23
 73
    19
 74
     0
 42
0.00000001
 43
0.00000001
 40
0.0
 40
0.0
 40
0.0
 40
0.0
 40
0.0619974190757221
 40
0.1220879540822937
 40
0.1813753107870036
 40
0.2395080083953663
 40
0.2978356978967516
 40
0.3568799706531185
 40
0.4172818251154289
 40
0.4796404090798165
 40
0.5425000674783568
 40
0.6049624196481908
 40
0.6669910330782646
 40
0.7302162430101637
 40
0.794172863251256
 40
0.8604581431502615
 40
0.9285781799847829
 40
1.0
 40
1.0
 40
1.0
 40
1.0
 10
214.1163764187588
 20
105.2861654538735
 30
0.0
 10
214.1371216388278
 20
105.285621912651
 30
0.0
 10
214.1779740083776
 20
105.2845515481615
 30
0.0
 10
214.2381713894558
 20
105.2757571561569
 30
0.0
 10
214.2957302120564
 20
105.2608280927226
 30
0.0
 10
214.3511019627695
 20
105.2407208208035
 30
0.0
 10
214.4035565004416
 20
105.214065197022
 30
0.0
 10
214.4536251518101
 20
105.1817908966198
 30
0.0
 10
214.5011057724067
 20
105.1436318915698
 30
0.0
 10
214.5457299406227
 20
105.1003081635476
 30
0.0
 10
214.5862058358721
 20
105.0522142708878
 30
0.0
 10
214.6224330831612
 20
105.000918730096
 30
0.0
 10
214.6520215199141
 20
104.9453947455965
 30
0.0
 10
214.6769074259755
 20
104.8870920581124
 30
0.0
 10
214.6956769091831
 20
104.8250536078538
 30
0.0
 10
214.709923602041
 20
104.7601598471347
 30
0.0
 10
214.7175408357451
 20
104.6915994557986
 30
0.0
 10
214.7187408699156
 20
104.6449257889716
 30
0.0
 10
214.7193550843634
 20
104.6210367688107
 30
0.0
  0
SPLINE
  5
11B
330
1F
100
AcDbEntity
  8
0
  6
Continuous
 62
     7
370
     0
100
AcDbSpline
210
0.0
220
0.0
230
1.0
 70
     8
 71
     3
 72
    15
 73
    11
 74
     0
 42
0.00000001
 43
0.00000001
 40
0.0
 40
0.0
 40
0.0
 40
0.0
 40
0.1367294018595733
 40
0.2685149167908308
 40
0.3955294046848096
 40
0.5199999535658124
 40
0.640496476841269
 40
0.7612361017625323
 40
0.8801067171759528
 40
1.0
 40
1.0
 40
1.0
 40
1.0
 10
213.7500617345349
 20
105.1491061394392
 30
0.0
 10
213.7645963957553
 20
105.1600131529425
 30
0.0
 10
213.7931401712351
 20
105.1814328021435
 30
0.0
 10
213.8376633446833
 20
105.2094790093792
 30
0.0
 10
213.8828231527984
 20
105.2331200919334
 30
0.0
 10
213.9283567088362
 20
105.2524801505569
 30
0.0
 10
213.9746257054364
 20
105.2675616021682
 30
0.0
 10
214.021350934055
 20
105.2780394983367
 30
0.0
 10
214.0686914862432
 20
105.2851210771047
 30
0.0
 10
214.1004361186549
 20
105.285816335646
 30
0.0
 10
214.1163764187588
 20
105.2861654538735
 30
0.0
  0
LINE
  5
11C
330
1F
100
AcDbEntity
  8
0
  6
Continuous
 62
     7
370
     0
100
AcDbLine
 10
213.8546054759
 20
105.6812914054
 30
0.0
 11
213.7500617345
 21
105.1491061394
 31
0.0
  0
LINE
  5
11D
330
1F
100
AcDbEntity
  8
0
  6
Continuous
 62
     7
370
     0
100
AcDbLine
 10
214.613988164
 20
105.6812914054
 30
0.0
 11
213.8546054759
 21
105.6812914054
 31
0.0
  0
LINE
  5
11E
330
1F
100
AcDbEntity
  8
0
  6
Continuous
 62
     7
370
     0
100
AcDbLine
 10
214.613988164
 20
105.9447087064
 30
0.0
 11
214.613988164
 21
105.6812914054
 31
0.0
  0
LINE
  5
11F
330
1F
100
AcDbEntity
  8
0
  6
Continuous
 62
     7
370
     0
100
AcDbLine
 10
213.6393441502
 20
105.9447087064
 30
0.0
 11
214.613988164
 21
105.9447087064
 31
0.0
  0
LINE
  5
120
330
1F
100
AcDbEntity
  8
0
  6
Continuous
 62
     7
370
     0
100
AcDbLine
 10
213.4286103094
 20
104.8910395024
 30
0.0
 11
213.6393441502
 21
105.9447087064
 31
0.0
  0
LINE
  5
121
330
1F
100
AcDbEntity
  8
0
  6
Continuous
 62
     7
370
     0
100
AcDbLine
 10
213.6920276104
 20
104.8646977722
 30
0.0
 11
213.4286103094
 21
104.8910395024
 31
0.0
  0
SPLINE
  5
122
330
1F
100
AcDbEntity
  8
0
  6
Continuous
 62
     7
370
     0
100
AcDbSpline
210
0.0
220
0.0
230
1.0
 70
     8
 71
     3
 72
    15
 73
    11
 74
     0
 42
0.00000001
 43
0.00000001
 40
0.0
 40
0.0
 40
0.0
 40
0.0
 40
0.1478596367312514
 40
0.283561321939547
 40
0.4123693961385312
 40
0.5342363558879457
 40
0.6526916293119823
 40
0.7686630594981229
 40
0.8836524018604046
 40
1.0
 40
1.0
 40
1.0
 40
1.0
 10
214.0435250714469
 20
105.04908988296
 30
0.0
 10
214.0230403025814
 20
105.0484906634311
 30
0.0
 10
213.9837551516942
 20
105.0473414959805
 30
0.0
 10
213.9273064297636
 20
105.037673962272
 30
0.0
 10
213.8759191144636
 20
105.022057293092
 30
0.0
 10
213.8301750111819
 20
104.9987825476084
 30
0.0
 10
213.7893049153062
 20
104.970977041119
 30
0.0
 10
213.7524597725847
 20
104.939513849114
 30
0.0
 10
213.7193357573948
 20
104.9044142434878
 30
0.0
 10
213.7011658865111
 20
104.8779883144555
 30
0.0
 10
213.692027610405
 20
104.8646977722496
 30
0.0
  0
SPLINE
  5
123
330
1F
100
AcDbEntity
  8
0
  6
Continuous
 62
     7
370
     0
100
AcDbSpline
210
0.0
220
0.0
230
1.0
 70
     8
 71
     3
 72
    23
 73
    19
 74
     0
 42
0.00000001
 43
0.00000001
 40
0.0
 40
0.0
 40
0.0
 40
0.0
 40
0.0728659334565351
 40
0.1418868719641256
 40
0.2074526264147115
 40
0.2704376800000974
 40
0.3316408722476697
 40
0.3901075774931577
 40
0.4480692869488358
 40
0.505502951924537
 40
0.5624881528337238
 40
0.6190843288847293
 40
0.6764155306922391
 40
0.7354523604507931
 40
0.7962407694486783
 40
0.8604056780892032
 40
0.9283049272851064
 40
1.0
 40
1.0
 40
1.0
 40
1.0
 10
214.4559377833484
 20
104.605396366563
 30
0.0
 10
214.4556353927585
 20
104.622145974917
 30
0.0
 10
214.4550465681475
 20
104.6547613470564
 30
0.0
 10
214.4500877042712
 20
104.7022547517571
 30
0.0
 10
214.4417215171109
 20
104.7469129250202
 30
0.0
 10
214.4308964542749
 20
104.7892280778628
 30
0.0
 10
214.4159754705188
 20
104.8285389839071
 30
0.0
 10
214.3982783436137
 20
104.8654156128557
 30
0.0
 10
214.3765986193715
 20
104.8990753340751
 30
0.0
 10
214.3524784955608
 20
104.9305661893862
 30
0.0
 10
214.3249302690118
 20
104.9587964722713
 30
0.0
 10
214.2935817678129
 20
104.9826333705391
 30
0.0
 10
214.2596627751571
 20
105.003495470432
 30
0.0
 10
214.2224901277842
 20
105.0204133319926
 30
0.0
 10
214.1820419366362
 20
105.0329826674076
 30
0.0
 10
214.1387201452767
 20
105.0426536400055
 30
0.0
 10
214.0920752259498
 20
105.0477401755876
 30
0.0
 10
214.0599991915208
 20
105.0486318979846
 30
0.0
 10
214.0435250714469
 20
105.04908988296
 30
0.0
  0
SPLINE
  5
124
330
1F
100
AcDbEntity
  8
0
  6
Continuous
 62
     7
370
     0
100
AcDbSpline
210
0.0
220
0.0
230
1.0
 70
     8
 71
     3
 72
    23
 73
    19
 74
     0
 42
0.00000001
 43
0.00000001
 40
0.0
 40
0.0
 40
0.0
 40
0.0
 40
0.0658010376094729
 40
0.1286767959489733
 40
0.1886758749524341
 40
0.2475984367338953
 40
0.304849420118827
 40
0.3617858992828986
 40
0.4195227063685901
 40
0.4786818154207406
 40
0.5387695030440189
 40
0.5987990560131542
 40
0.6601842815006784
 40
0.722951530610966
 40
0.7879926891048742
 40
0.8554037684344732
 40
0.9261530612840041
 40
1.0
 40
1.0
 40
1.0
 40
1.0
 10
214.0422903028484
 20
104.1271293294077
 30
0.0
 10
214.0579515819408
 20
104.1275077513727
 30
0.0
 10
214.0885778955565
 20
104.1282477720129
 30
0.0
 10
214.1331333803404
 20
104.1345065692705
 30
0.0
 10
214.17521964421
 20
104.1448266008523
 30
0.0
 10
214.2146353107941
 20
104.1592687184124
 30
0.0
 10
214.2518424523651
 20
104.1772292004623
 30
0.0
 10
214.2856067446805
 20
104.2004847530166
 30
0.0
 10
214.3177692030422
 20
104.2266262919942
 30
0.0
 10
214.3462601659685
 20
104.2577920235864
 30
0.0
 10
214.372194946993
 20
104.2917211282783
 30
0.0
 10
214.3945786127863
 20
104.3287561893253
 30
0.0
 10
214.4134224968827
 20
104.3683773903372
 30
0.0
 10
214.4292869876503
 20
104.4105771351988
 30
0.0
 10
214.441001756365
 20
104.4555964964088
 30
0.0
 10
214.4496189150125
 20
104.5031959795502
 30
0.0
 10
214.4551507868759
 20
104.5534059055391
 30
0.0
 10
214.4556717311748
 20
104.5878204616533
 30
0.0
 10
214.4559377833484
 20
104.605396366563
 30
0.0
  0
SPLINE
  5
125
330
1F
100
AcDbEntity
  8
0
  6
Continuous
 62
     7
370
     0
100
AcDbSpline
210
0.0
220
0.0
230
1.0
 70
     8
 71
     3
 72
    23
 73
    19
 74
     0
 42
0.00000001
 43
0.00000001
 40
0.0
 40
0.0
 40
0.0
 40
0.0
 40
0.0773613371189759
 40
0.1504798322806804
 40
0.2199772368520742
 40
0.2866809968624409
 40
0.3496784941856623
 40
0.4106796250174851
 40
0.4694271135192905
 40
0.5267557014271295
 40
0.583141980834837
 40
0.6388244277786258
 40
0.6952634704038123
 40
0.7526958048985352
 40
0.8108491833348948
 40
0.8713563036360843
 40
0.934436430984128
 40
1.0
 40
1.0
 40
1.0
 40
1.0
 10
213.6656858803036
 20
104.4959135508286
 30
0.0
 10
213.6682941251336
 20
104.4810714316084
 30
0.0
 10
213.6733675669741
 20
104.4522012014117
 30
0.0
 10
213.6830355711253
 20
104.4104106868876
 30
0.0
 10
213.6955915564556
 20
104.3715861307975
 30
0.0
 10
213.7096995883079
 20
104.3353912903106
 30
0.0
 10
213.7264693642428
 20
104.3022088805445
 30
0.0
 10
213.7446395554049
 20
104.2715149686073
 30
0.0
 10
213.7660675824411
 20
104.2443990926889
 30
0.0
 10
213.7885962758074
 20
104.2194430669044
 30
0.0
 10
213.8133232382003
 20
104.197452394663
 30
0.0
 10
213.8404870662934
 20
104.1789134993255
 30
0.0
 10
213.8693298714753
 20
104.1627394357472
 30
0.0
 10
213.9002029482402
 20
104.1494968310552
 30
0.0
 10
213.9331536131742
 20
104.1398039418407
 30
0.0
 10
213.9677624923725
 20
104.1321385304683
 30
0.0
 10
214.0044752377697
 20
104.1282759658304
 30
0.0
 10
214.0295240933851
 20
104.1275164291184
 30
0.0
 10
214.0422903028484
 20
104.1271293294077
 30
0.0
  0
LINE
  5
126
330
1F
100
AcDbEntity
  8
0
  6
Continuous
 62
     7
370
     0
100
AcDbLine
 10
213.4022685793
 20
104.4695718207
 30
0.0
 11
213.6656858803
 21
104.4959135508
 31
0.0
  0
SPLINE
  5
127
330
1F
100
AcDbEntity
  8
0
  6
Continuous
 62
     7
370
     0
100
AcDbSpline
210
0.0
220
0.0
230
1.0
 70
     8
 71
     3
 72
    23
 73
    19
 74
     0
 42
0.00000001
 43
0.00000001
 40
0.0
 40
0.0
 40
0.0
 40
0.0
 40
0.0692980234597528
 40
0.135560844101282
 40
0.1996709556470567
 40
0.2617162384956084
 40
0.3226619299471026
 40
0.3829069237782244
 40
0.4430320330728902
 40
0.503500787350163
 40
0.5637242810171083
 40
0.6239800220534739
 40
0.6836293869955233
 40
0.7438482724857305
 40
0.80519184622951
 40
0.8676487429597676
 40
0.9327780842312613
 40
1.0
 40
1.0
 40
1.0
 40
1.0
 10
214.040643944717
 20
103.8900537584942
 30
0.0
 10
214.018532931815
 20
103.8905022767866
 30
0.0
 10
213.975279352228
 20
103.8913796685977
 30
0.0
 10
213.9119484159128
 20
103.8990072974294
 30
0.0
 10
213.8517132065091
 20
103.9111706758216
 30
0.0
 10
213.7945548533112
 20
103.9286167257912
 30
0.0
 10
213.7403011535388
 20
103.950661442601
 30
0.0
 10
213.6895827358035
 20
103.9786657919884
 30
0.0
 10
213.6415194366175
 20
104.0107010234506
 30
0.0
 10
213.5971684883839
 20
104.0477541365638
 30
0.0
 10
213.5567589999752
 20
104.089082602631
 30
0.0
 10
213.5205512776816
 20
104.1338107605278
 30
0.0
 10
213.489035310634
 20
104.1819677762771
 30
0.0
 10
213.4622263099679
 20
104.2332654889734
 30
0.0
 10
213.4398822458776
 20
104.2876547026845
 30
0.0
 10
213.4227881534253
 20
104.345506644561
 30
0.0
 10
213.4092482096635
 20
104.4062536979492
 30
0.0
 10
213.4046195171354
 20
104.4482444776975
 30
0.0
 10
213.4022685792886
 20
104.4695718207271
 30
0.0
  0
SPLINE
  5
128
330
1F
100
AcDbEntity
  8
0
  6
Continuous
 62
     7
370
     0
100
AcDbSpline
210
0.0
220
0.0
230
1.0
 70
     8
 71
     3
 72
    15
 73
    11
 74
     0
 42
0.00000001
 43
0.00000001
 40
0.0
 40
0.0
 40
0.0
 40
0.0
 40
0.1278926194654212
 40
0.2515785135038573
 40
0.3727928197023035
 40
0.4927776986078535
 40
0.6135900692425712
 40
0.7378086492801463
 40
0.8661799015391671
 40
0.9999999999999999
 40
0.9999999999999999
 40
0.9999999999999999
 40
0.9999999999999999
 10
214.5621278828201
 20
104.1394770153928
 30
0.0
 10
214.5459879262313
 20
104.1195766644677
 30
0.0
 10
214.5142388987769
 20
104.0804305376243
 30
0.0
 10
214.4592658043084
 20
104.0296212079771
 30
0.0
 10
214.4001689483487
 20
103.9864402703793
 30
0.0
 10
214.3365966383301
 20
103.9513588879594
 30
0.0
 10
214.2689756557438
 20
103.923168026519
 30
0.0
 10
214.1964752953555
 20
103.904408066786
 30
0.0
 10
214.1199715992946
 20
103.8918100107339
 30
0.0
 10
214.067450327634
 20
103.8906472308499
 30
0.0
 10
214.040643944717
 20
103.8900537584942
 30
0.0
  0
SPLINE
  5
129
330
1F
100
AcDbEntity
  8
0
  6
Continuous
 62
     7
370
     0
100
AcDbSpline
210
0.0
220
0.0
230
1.0
 70
     8
 71
     3
 72
    27
 73
    23
 74
     0
 42
0.00000001
 43
0.00000001
 40
0.0
 40
0.0
 40
0.0
 40
0.0
 40
0.0467628351215619
 40
0.091968696607212
 40
0.1358043853805056
 40
0.1782315801839235
 40
0.2194414332265379
 40
0.2601769432685921
 40
0.3002796061140319
 40
0.3405476414666171
 40
0.3803111902076692
 40
0.4196419535698123
 40
0.4590173240985177
 40
0.4981819588897615
 40
0.5376702145628715
 40
0.5779133315743612
 40
0.6186488416164155
 40
0.6607616027603175
 40
0.7452991770631804
 40
0.8297447416906314
 40
0.9146020866092538
 40
1.0
 40
1.0
 40
1.0
 40
1.0
 10
209.9358615337449
 20
105.7603165957004
 30
0.0
 10
209.9177359560493
 20
105.760053611571
 30
0.0
 10
209.8820882937212
 20
105.7595363993972
 30
0.0
 10
209.829717589405
 20
105.7538755695321
 30
0.0
 10
209.7794234979304
 20
105.7455377195285
 30
0.0
 10
209.7315808594409
 20
105.7330343966856
 30
0.0
 10
209.6859278756022
 20
105.7174460045185
 30
0.0
 10
209.6427354592362
 20
105.6980356981012
 30
0.0
 10
209.6016361963948
 20
105.6752845421551
 30
0.0
 10
209.5630887757899
 20
105.6490559132211
 30
0.0
 10
209.5274171536367
 20
105.6195698865516
 30
0.0
 10
209.4936533053573
 20
105.5883985428784
 30
0.0
 10
209.4634182702648
 20
105.5540881219198
 30
0.0
 10
209.4355590959278
 20
105.5177699741504
 30
0.0
 10
209.4108870405409
 20
105.4788023315984
 30
0.0
 10
209.3886780577119
 20
105.4377159807288
 30
0.0
 10
209.3690737127726
 20
105.3941741866494
 30
0.0
 10
209.3477036455688
 20
105.3328924094312
 30
0.0
 10
209.3259139978168
 20
105.2539628976444
 30
0.0
 10
209.3070114515212
 20
105.1573787577006
 30
0.0
 10
209.2949709751861
 20
105.0592729412323
 30
0.0
 10
209.2936308656692
 20
104.9932851810723
 30
0.0
 10
209.2929586834553
 20
104.9601865438675
 30
0.0
  0
SPLINE
  5
12A
330
1F
100
AcDbEntity
  8
0
  6
Continuous
 62
     7
370
     0
100
AcDbSpline
210
0.0
220
0.0
230
1.0
 70
     8
 71
     3
 72
    23
 73
    19
 74
     0
 42
0.00000001
 43
0.00000001
 40
0.0
 40
0.0
 40
0.0
 40
0.0
 40
0.0772311103286299
 40
0.1511651795217243
 40
0.2207847057253998
 40
0.2871495176777696
 40
0.3506324812950841
 40
0.4113067715078916
 40
0.4699644151376497
 40
0.5267072266832779
 40
0.5824983333641278
 40
0.6385087274080254
 40
0.6949179812139082
 40
0.7524203526591543
 40
0.8112509754155086
 40
0.8718561089908092
 40
0.9346441878526853
 40
1.0
 40
1.0
 40
1.0
 40
1.0
 10
210.4519948079211
 20
105.3380257350108
 30
0.0
 10
210.4463043928452
 20
105.3557973885829
 30
0.0
 10
210.4351664898312
 20
105.3905820134729
 30
0.0
 10
210.4153900535237
 20
105.4401562858195
 30
0.0
 10
210.3940321616918
 20
105.48617740736
 30
0.0
 10
210.3705840517993
 20
105.5283325472028
 30
0.0
 10
210.3449949068855
 20
105.5666318027517
 30
0.0
 10
210.3178539769789
 20
105.6015406445254
 30
0.0
 10
210.2885109925966
 20
105.6324074936482
 30
0.0
 10
210.257562814562
 20
105.6599440629068
 30
0.0
 10
210.2242102700584
 20
105.6834025847668
 30
0.0
 10
210.1892352875668
 20
105.7041906956428
 30
0.0
 10
210.1519004199997
 20
105.7213896873797
 30
0.0
 10
210.1127427569266
 20
105.7359364813982
 30
0.0
 10
210.071396295827
 20
105.7470081591008
 30
0.0
 10
210.0280294050016
 20
105.7547975211171
 30
0.0
 10
209.9826039812757
 20
105.7593056222309
 30
0.0
 10
209.9516491063887
 20
105.7599751326848
 30
0.0
 10
209.9358615337449
 20
105.7603165957004
 30
0.0
  0
LINE
  5
12B
330
1F
100
AcDbEntity
  8
0
  6
Continuous
 62
     7
370
     0
100
AcDbLine
 10
210.741753839
 20
105.4001757545
 30
0.0
 11
210.4519948079
 21
105.338025735
 31
0.0
  0
SPLINE
  5
12C
330
1F
100
AcDbEntity
  8
0
  6
Continuous
 62
     7
370
     0
100
AcDbSpline
210
0.0
220
0.0
230
1.0
 70
     8
 71
     3
 72
    23
 73
    19
 74
     0
 42
0.00000001
 43
0.00000001
 40
0.0
 40
0.0
 40
0.0
 40
0.0
 40
0.0686494919759957
 40
0.134937373785155
 40
0.1988418982006104
 40
0.2614093284183097
 40
0.3225167637069052
 40
0.3823768656987784
 40
0.4424709047536874
 40
0.5022278334792912
 40
0.5621014330908561
 40
0.62173160809488
 40
0.6818513124344153
 40
0.7420491672939588
 40
0.8039081304743815
 40
0.8671621602461707
 40
0.9323605979385298
 40
1.0
 40
1.0
 40
1.0
 40
1.0
 10
209.9498555778613
 20
105.9973921666139
 30
0.0
 10
209.9744314714708
 20
105.9969289231786
 30
0.0
 10
210.0227378237339
 20
105.9960183723385
 30
0.0
 10
210.0936187891556
 20
105.9885289120651
 30
0.0
 10
210.1615042474134
 20
105.9759848865193
 30
0.0
 10
210.2266883584136
 20
105.9595283112728
 30
0.0
 10
210.2884934151388
 20
105.9369958340995
 30
0.0
 10
210.3475904181746
 20
105.9102073084412
 30
0.0
 10
210.4033914693692
 20
105.8780241398426
 30
0.0
 10
210.4563307485119
 20
105.8413307799807
 30
0.0
 10
210.5055464854207
 20
105.8000595577224
 30
0.0
 10
210.5517274020363
 20
105.7551964312762
 30
0.0
 10
210.5929904831783
 20
105.7056201497478
 30
0.0
 10
210.6309699977054
 20
105.6525305474889
 30
0.0
 10
210.6644709834415
 20
105.5951914528892
 30
0.0
 10
210.6947259077667
 20
105.5341028012853
 30
0.0
 10
210.7207442621266
 20
105.4688104683986
 30
0.0
 10
210.7346653774897
 20
105.4233325525615
 30
0.0
 10
210.7417538390375
 20
105.400175754469
 30
0.0
  0
SPLINE
  5
12D
330
1F
100
AcDbEntity
  8
0
  6
Continuous
 62
     7
370
     0
100
AcDbSpline
210
0.0
220
0.0
230
1.0
 70
     8
 71
     3
 72
    31
 73
    27
 74
     0
 42
0.00000001
 43
0.00000001
 40
0.0
 40
0.0
 40
0.0
 40
0.0
 40
0.0494014326173349
 40
0.0976047534771127
 40
0.1442547055445423
 40
0.1894721438466749
 40
0.2339150059350921
 40
0.2772371111508619
 40
0.3198588355644323
 40
0.3619566544332702
 40
0.4034857542265475
 40
0.4439336363338552
 40
0.4836491750513743
 40
0.5228932833172718
 40
0.5618583840947368
 40
0.6007948668981946
 40
0.6401043361891355
 40
0.6796434268265384
 40
0.7193997691904886
 40
0.7588541926680972
 40
0.7983154646830742
 40
0.8378024081343659
 40
0.8774685864444087
 40
0.9176827969423332
 40
0.9583928898538524
 40
0.9999999999999999
 40
0.9999999999999999
 40
0.9999999999999999
 40
0.9999999999999999
 10
209.0031996523388
 20
104.958951775269
 30
0.0
 10
209.003664510713
 20
104.9850263110429
 30
0.0
 10
209.0045829534507
 20
105.0365430080577
 30
0.0
 10
209.0097675478088
 20
105.1125573898898
 30
0.0
 10
209.0192897683805
 20
105.1859205675447
 30
0.0
 10
209.0325133630594
 20
105.2566807977483
 30
0.0
 10
209.0492465005098
 20
105.3248953861207
 30
0.0
 10
209.0699016829865
 20
105.3905975665158
 30
0.0
 10
209.0942176233018
 20
105.4537032736969
 30
0.0
 10
209.1221201903948
 20
105.5142820943517
 30
0.0
 10
209.153794763965
 20
105.5716578090935
 30
0.0
 10
209.1882959875881
 20
105.6259119821484
 30
0.0
 10
209.2264468479363
 20
105.6761537841289
 30
0.0
 10
209.2671162287486
 20
105.7233430984982
 30
0.0
 10
209.3113198750661
 20
105.7666941702079
 30
0.0
 10
209.358922808382
 20
105.806305199587
 30
0.0
 10
209.4095143308524
 20
105.8425374894241
 30
0.0
 10
209.4630870580233
 20
105.8750546737448
 30
0.0
 10
209.5189407319665
 20
105.9035868016519
 30
0.0
 10
209.576245745867
 20
105.9290006165984
 30
0.0
 10
209.6352300261277
 20
105.9498306925173
 30
0.0
 10
209.6954259287141
 20
105.9671500632898
 30
0.0
 10
209.756963049942
 20
105.9809378913178
 30
0.0
 10
209.8199851779728
 20
105.9901578549215
 30
0.0
 10
209.8844340793383
 20
105.9961662975549
 30
0.0
 10
209.9278905620819
 20
105.9969805858059
 30
0.0
 10
209.9498555778613
 20
105.9973921666139
 30
0.0
  0
SPLINE
  5
12E
330
1F
100
AcDbEntity
  8
0
  6
Continuous
 62
     7
370
     0
100
AcDbSpline
210
0.0
220
0.0
230
1.0
 70
     8
 71
     3
 72
    31
 73
    27
 74
     0
 42
0.00000001
 43
0.00000001
 40
0.0
 40
0.0
 40
0.0
 40
0.0
 40
0.0491959188678573
 40
0.0962478839423339
 40
0.1413486305545651
 40
0.18465611934875
 40
0.226058682310063
 40
0.2661730836384061
 40
0.3052898413966903
 40
0.3432450951047079
 40
0.3808772760868657
 40
0.4184957931350257
 40
0.4563187508918002
 40
0.494236737091876
 40
0.533023528957667
 40
0.572473194333944
 40
0.613078809089891
 40
0.6549344546107934
 40
0.6973967795046183
 40
0.7398840686663996
 40
0.7821947798191174
 40
0.8250615348667028
 40
0.8679874655774052
 40
0.9114105439600777
 40
0.9553719455228146
 40
1.0
 40
1.0
 40
1.0
 40
1.0
 10
209.955617831321
 20
103.8900537584942
 30
0.0
 10
209.9289904414836
 20
103.8904406066576
 30
0.0
 10
209.8768960811029
 20
103.8911974441757
 30
0.0
 10
209.8005808465243
 20
103.8973533594649
 30
0.0
 10
209.727997564651
 20
103.9080298365343
 30
0.0
 10
209.6592817831097
 20
103.9228632734367
 30
0.0
 10
209.5942022127566
 20
103.9412038960259
 30
0.0
 10
209.5330287208313
 20
103.9642780244307
 30
0.0
 10
209.4758684548115
 20
103.9919191702871
 30
0.0
 10
209.4222446221247
 20
104.0233542967409
 30
0.0
 10
209.372384981475
 20
104.0590660159478
 30
0.0
 10
209.3251557072201
 20
104.0980905656666
 30
0.0
 10
209.2817033691043
 20
104.1415022486378
 30
0.0
 10
209.2409414943258
 20
104.1882760747676
 30
0.0
 10
209.2037578913441
 20
104.2390290558052
 30
0.0
 10
209.1687845672763
 20
104.293071691186
 30
0.0
 10
209.1377285499207
 20
104.3513562098707
 30
0.0
 10
209.1094389272687
 20
104.4128020153963
 30
0.0
 10
209.0846085208031
 20
104.4768142019729
 30
0.0
 10
209.062642296284
 20
104.5421283520985
 30
0.0
 10
209.0446837068752
 20
104.6088746112642
 30
0.0
 10
209.0292225202719
 20
104.6764913213046
 30
0.0
 10
209.0179907173686
 20
104.7455474303514
 30
0.0
 10
209.0090730136092
 20
104.8155248062562
 30
0.0
 10
209.0041698807922
 20
104.8868524708715
 30
0.0
 10
209.0035246802432
 20
104.9347984063017
 30
0.0
 10
209.0031996523388
 20
104.958951775269
 30
0.0
  0
SPLINE
  5
12F
330
1F
100
AcDbEntity
  8
0
  6
Continuous
 62
     7
370
     0
100
AcDbSpline
210
0.0
220
0.0
230
1.0
 70
     8
 71
     3
 72
    23
 73
    19
 74
     0
 42
0.00000001
 43
0.00000001
 40
0.0
 40
0.0
 40
0.0
 40
0.0
 40
0.0715783870982365
 40
0.140016209075356
 40
0.206197439946981
 40
0.2701561038056543
 40
0.3320010402688309
 40
0.3927550109285565
 40
0.4525790344906381
 40
0.512252798847904
 40
0.5715322524285594
 40
0.630151752872219
 40
0.6887691695485556
 40
0.7481639008503594
 40
0.8087033721996509
 40
0.8702562984804197
 40
0.9339000275070017
 40
1.0
 40
1.0
 40
1.0
 40
1.0
 10
210.7944372992405
 20
104.5741155620674
 30
0.0
 10
210.7871780266641
 20
104.5469572530171
 30
0.0
 10
210.772977988524
 20
104.4938322297764
 30
0.0
 10
210.7449027882132
 20
104.4178044409236
 30
0.0
 10
210.7133918189567
 20
104.3464556040685
 30
0.0
 10
210.6776804819524
 20
104.2799736647122
 30
0.0
 10
210.6373779199039
 20
104.2187408527196
 30
0.0
 10
210.5935519878847
 20
104.161970208334
 30
0.0
 10
210.5444668024274
 20
104.1108522656828
 30
0.0
 10
210.4919233576256
 20
104.0642072493341
 30
0.0
 10
210.435512545408
 20
104.0230664693794
 30
0.0
 10
210.3759144868962
 20
103.9875406511526
 30
0.0
 10
210.3134172662906
 20
103.9573153912634
 30
0.0
 10
210.2477682893083
 20
103.9324599934393
 30
0.0
 10
210.1789249951447
 20
103.9137541755348
 30
0.0
 10
210.1072418590418
 20
103.9001202795558
 30
0.0
 10
210.0325098577117
 20
103.891722593702
 30
0.0
 10
209.9815699630658
 20
103.8906170136613
 30
0.0
 10
209.955617831321
 20
103.8900537584942
 30
0.0
  0
LINE
  5
130
330
1F
100
AcDbEntity
  8
0
  6
Continuous
 62
     7
370
     0
100
AcDbLine
 10
210.5046782681
 20
104.6416162455
 30
0.0
 11
210.7944372992
 21
104.5741155621
 31
0.0
  0
SPLINE
  5
131
330
1F
100
AcDbEntity
  8
0
  6
Continuous
 62
     7
370
     0
100
AcDbSpline
210
0.0
220
0.0
230
1.0
 70
     8
 71
     3
 72
    23
 73
    19
 74
     0
 42
0.00000001
 43
0.00000001
 40
0.0
 40
0.0
 40
0.0
 40
0.0
 40
0.0633358805656859
 40
0.1251107589802128
 40
0.1846884118917139
 40
0.2432104439678636
 40
0.3008880404131166
 40
0.358370115531299
 40
0.4157614077031932
 40
0.4743866229897766
 40
0.533966264972407
 40
0.5940075641988068
 40
0.6550724073076795
 40
0.7186100426051375
 40
0.7843747830517759
 40
0.8529914722129185
 40
0.9249004292977553
 40
0.9999999999999999
 40
0.9999999999999999
 40
0.9999999999999999
 40
0.9999999999999999
 10
209.9284529221538
 20
104.1271293294077
 30
0.0
 10
209.9463090276878
 20
104.1275038094995
 30
0.0
 10
209.9815811498376
 20
104.1282435400928
 30
0.0
 10
210.0332945596208
 20
104.1347184435843
 30
0.0
 10
210.0831455737413
 20
104.1442600608024
 30
0.0
 10
210.1305302541313
 20
104.1589837396663
 30
0.0
 10
210.1760859783091
 20
104.1770111593695
 30
0.0
 10
210.2194394951514
 20
104.1992421206784
 30
0.0
 10
210.2604544645633
 20
104.2259794786335
 30
0.0
 10
210.2996133127357
 20
104.2563372371381
 30
0.0
 10
210.3361939159089
 20
104.2908791785986
 30
0.0
 10
210.369718072153
 20
104.3293270163659
 30
0.0
 10
210.3997930280003
 20
104.3718560285024
 30
0.0
 10
210.4276800802709
 20
104.4177836864473
 30
0.0
 10
210.4511103295501
 20
104.4684820189815
 30
0.0
 10
210.4728122727105
 20
104.5224399319828
 30
0.0
 10
210.4908958994621
 20
104.5805442716956
 30
0.0
 10
210.5000181500247
 20
104.6209664850778
 30
0.0
 10
210.5046782681241
 20
104.6416162454525
 30
0.0
  0
SPLINE
  5
132
330
1F
100
AcDbEntity
  8
0
  6
Continuous
 62
     7
370
     0
100
AcDbSpline
210
0.0
220
0.0
230
1.0
 70
     8
 71
     3
 72
    27
 73
    23
 74
     0
 42
0.00000001
 43
0.00000001
 40
0.0
 40
0.0
 40
0.0
 40
0.0
 40
0.1053432609984026
 40
0.2043754661654296
 40
0.2980686612490644
 40
0.3870699389029766
 40
0.4297257277325169
 40
0.4709012389537418
 40
0.5111216710274202
 40
0.5501787824700682
 40
0.5883543698960263
 40
0.6266830105708967
 40
0.6644516852874769
 40
0.7025148539501567
 40
0.7404811716294024
 40
0.777618121594641
 40
0.8147160450669567
 40
0.8515265100150813
 40
0.8880984508373161
 40
0.9251116757437154
 40
0.9621036957071507
 40
1.0
 40
1.0
 40
1.0
 40
1.0
 10
209.2929586834553
 20
104.9601865438675
 30
0.0
 10
209.2937168095917
 20
104.918570546639
 30
0.0
 10
209.295187642952
 20
104.8378317432936
 30
0.0
 10
209.3097011530528
 20
104.720827880828
 30
0.0
 10
209.3318289894331
 20
104.611694771135
 30
0.0
 10
209.3585340999583
 20
104.526549200893
 30
0.0
 10
209.3853220089877
 20
104.4637442251431
 30
0.0
 10
209.4069867238456
 20
104.4197609948682
 30
0.0
 10
209.4317161315626
 20
104.379061047322
 30
0.0
 10
209.4588951216363
 20
104.3414132425485
 30
0.0
 10
209.4888737879857
 20
104.3069273980842
 30
0.0
 10
209.5212344670962
 20
104.2754203226998
 30
0.0
 10
209.5559843874608
 20
104.2465888441529
 30
0.0
 10
209.593535303371
 20
104.2217826163491
 30
0.0
 10
209.632441832866
 20
104.1997568491225
 30
0.0
 10
209.672213006892
 20
104.1801711162857
 30
0.0
 10
209.7128738658163
 20
104.1636063702996
 30
0.0
 10
209.7545884590317
 20
104.1507385392005
 30
0.0
 10
209.7967710020611
 20
104.1396189441638
 30
0.0
 10
209.8398860921436
 20
104.1323551028001
 30
0.0
 10
209.8839214345315
 20
104.1282556195891
 30
0.0
 10
209.9134900781275
 20
104.1275077695904
 30
0.0
 10
209.9284529221538
 20
104.1271293294077
 30
0.0
  0
SPLINE
  5
133
330
1F
100
AcDbEntity
  8
0
  6
Continuous
 62
     7
370
     0
100
AcDbSpline
210
0.0
220
0.0
230
1.0
 70
     8
 71
     3
 72
    23
 73
    19
 74
     0
 42
0.00000001
 43
0.00000001
 40
0.0
 40
0.0
 40
0.0
 40
0.0
 40
0.0704642259291749
 40
0.137956965604269
 40
0.2035785636142838
 40
0.2676916802449431
 40
0.3301858648593746
 40
0.3915337640898202
 40
0.4526637734870348
 40
0.5131537880892133
 40
0.5734535531000283
 40
0.6329675593891928
 40
0.6923319074206212
 40
0.75147419157163
 40
0.8121874455294295
 40
0.872961717848316
 40
0.935420306759491
 40
1.0
 40
1.0
 40
1.0
 40
1.0
 10
224.5526406133452
 20
108.1574140349365
 30
0.0
 10
224.5677987980436
 20
108.1526688730739
 30
0.0
 10
224.5974759446736
 20
108.1433786534875
 30
0.0
 10
224.6401399259527
 20
108.1263788546864
 30
0.0
 10
224.6801883745468
 20
108.1070221508261
 30
0.0
 10
224.7177084648728
 20
108.0852767333681
 30
0.0
 10
224.7524466784256
 20
108.0609412290354
 30
0.0
 10
224.7843049968953
 20
108.0339777001091
 30
0.0
 10
224.813504312097
 20
108.0048034001732
 30
0.0
 10
224.8399924565911
 20
107.9734360756022
 30
0.0
 10
224.863259512557
 20
107.9400775818237
 30
0.0
 10
224.8841271551231
 20
107.9054570037675
 30
0.0
 10
224.9013587466099
 20
107.8691574333814
 30
0.0
 10
224.9154828546508
 20
107.8312731134333
 30
0.0
 10
224.9265017587055
 20
107.7920381359648
 30
0.0
 10
224.9344145312479
 20
107.7513015962371
 30
0.0
 10
224.9389246095766
 20
107.7091583165255
 30
0.0
 10
224.9396020089381
 20
107.6805295282417
 30
0.0
 10
224.9399463637437
 20
107.6659761327305
 30
0.0
  0
SPLINE
  5
134
330
1F
100
AcDbEntity
  8
0
  6
Continuous
 62
     7
370
     0
100
AcDbSpline
210
0.0
220
0.0
230
1.0
 70
     8
 71
     3
 72
    15
 73
    11
 74
     0
 42
0.00000001
 43
0.00000001
 40
0.0
 40
0.0
 40
0.0
 40
0.0
 40
0.1158426906010177
 40
0.2305685484828844
 40
0.3473546045205441
 40
0.4682527467344622
 40
0.5923025714800838
 40
0.7199701656206967
 40
0.8556003811349103
 40
1.0
 40
1.0
 40
1.0
 40
1.0
 10
224.8609211734392
 20
108.5994611932023
 30
0.0
 10
224.8599624767408
 20
108.5774278135498
 30
0.0
 10
224.8580543260837
 20
108.5335734767911
 30
0.0
 10
224.842867581725
 20
108.4689733714223
 30
0.0
 10
224.8188982528921
 20
108.4062470713413
 30
0.0
 10
224.7850049433374
 20
108.3461571394862
 30
0.0
 10
224.7416850453219
 20
108.2898029074935
 30
0.0
 10
224.6879807423513
 20
108.2390910820691
 30
0.0
 10
224.6246637603739
 20
108.1939129819766
 30
0.0
 10
224.5771443675048
 20
108.1698317265017
 30
0.0
 10
224.5526406133452
 20
108.1574140349365
 30
0.0
  0
SPLINE
  5
135
330
1F
100
AcDbEntity
  8
0
  6
Continuous
 62
     7
370
     0
100
AcDbSpline
210
0.0
220
0.0
230
1.0
 70
     8
 71
     3
 72
    23
 73
    19
 74
     0
 42
0.00000001
 43
0.00000001
 40
0.0
 40
0.0
 40
0.0
 40
0.0
 40
0.0587320371008649
 40
0.1146029008469815
 40
0.1676568100446119
 40
0.2179667070908431
 40
0.2657752056293755
 40
0.3111706510536958
 40
0.3537918046646693
 40
0.3947449080003065
 40
0.472805951082463
 40
0.549192366561607
 40
0.6247801075795548
 40
0.7026247640242256
 40
0.7797414321940388
 40
0.8540634639886252
 40
0.92715526641035
 40
0.9999999999999999
 40
0.9999999999999999
 40
0.9999999999999999
 40
0.9999999999999999
 10
224.1813868547272
 20
109.1320580486919
 30
0.0
 10
224.2004632511965
 20
109.131984867034
 30
0.0
 10
224.2376867237851
 20
109.1318420688153
 30
0.0
 10
224.2920406909022
 20
109.1282708332231
 30
0.0
 10
224.3435179565293
 20
109.1233861235543
 30
0.0
 10
224.3922293392714
 20
109.1170895829932
 30
0.0
 10
224.4379640654971
 20
109.1079534304999
 30
0.0
 10
224.4806795156426
 20
109.0968855924796
 30
0.0
 10
224.5205979799642
 20
109.0841191988978
 30
0.0
 10
224.5693922195851
 20
109.064671846365
 30
0.0
 10
224.6256222312034
 20
109.0347382370484
 30
0.0
 10
224.6858499154703
 20
108.9900725685315
 30
0.0
 10
224.73825034078
 20
108.9364451226901
 30
0.0
 10
224.7813681847736
 20
108.874958219354
 30
0.0
 10
224.8168926379032
 20
108.8092786103744
 30
0.0
 10
224.8420790592913
 20
108.7406575546649
 30
0.0
 10
224.8581821026445
 20
108.6705890998226
 30
0.0
 10
224.860009180915
 20
108.6231437205868
 30
0.0
 10
224.8609211734392
 20
108.5994611932023
 30
0.0
  0
LINE
  5
136
330
1F
100
AcDbEntity
  8
0
  6
Continuous
 62
     7
370
     0
100
AcDbLine
 10
223.4121260179
 20
109.1320580487
 30
0.0
 11
224.1813868547
 21
109.1320580487
 31
0.0
  0
LINE
  5
137
330
1F
100
AcDbEntity
  8
0
  6
Continuous
 62
     7
370
     0
100
AcDbLine
 10
223.4121260179
 20
107.0774031008
 30
0.0
 11
223.4121260179
 21
109.1320580487
 31
0.0
  0
LINE
  5
138
330
1F
100
AcDbEntity
  8
0
  6
Continuous
 62
     7
370
     0
100
AcDbLine
 10
224.1834448024
 20
107.0774031008
 30
0.0
 11
223.4121260179
 21
107.0774031008
 31
0.0
  0
SPLINE
  5
139
330
1F
100
AcDbEntity
  8
0
  6
Continuous
 62
     7
370
     0
100
AcDbSpline
210
0.0
220
0.0
230
1.0
 70
     8
 71
     3
 72
    23
 73
    19
 74
     0
 42
0.00000001
 43
0.00000001
 40
0.0
 40
0.0
 40
0.0
 40
0.0
 40
0.0642545754247028
 40
0.1273603868320974
 40
0.1894718420926419
 40
0.2517207629332009
 40
0.3120272840890018
 40
0.3686746571150508
 40
0.4226814918055488
 40
0.4740604252251504
 40
0.525773772273917
 40
0.5796221048577136
 40
0.6373752855308656
 40
0.698400381820801
 40
0.7643573310122576
 40
0.8363147679791493
 40
0.9146777942540475
 40
1.0
 40
1.0
 40
1.0
 40
1.0
 10
224.9399463637437
 20
107.6659761327305
 30
0.0
 10
224.9392365959836
 20
107.6426108598566
 30
0.0
 10
224.9378297499201
 20
107.5962980459909
 30
0.0
 10
224.9265312076546
 20
107.5281333723433
 30
0.0
 10
224.9074372702887
 20
107.4625647012774
 30
0.0
 10
224.8811560893637
 20
107.4006521989655
 30
0.0
 10
224.8498410043888
 20
107.3434049754502
 30
0.0
 10
224.8142503131551
 20
107.2923219496829
 30
0.0
 10
224.7752916519336
 20
107.2479287624772
 30
0.0
 10
224.7318679848695
 20
107.210586157125
 30
0.0
 10
224.6842594132452
 20
107.1788932130809
 30
0.0
 10
224.631121269557
 20
107.1522056815507
 30
0.0
 10
224.5728644083214
 20
107.1286698362814
 30
0.0
 10
224.508304791326
 20
107.1098685342617
 30
0.0
 10
224.437471805959
 20
107.094932804444
 30
0.0
 10
224.359404183684
 20
107.0852290364614
 30
0.0
 10
224.2739819853559
 20
107.078282439442
 30
0.0
 10
224.2144672980318
 20
107.0777044054885
 30
0.0
 10
224.1834448023914
 20
107.0774031007752
 30
0.0
  0
LINE
  5
13A
330
1F
100
AcDbEntity
  8
0
  6
Continuous
 62
     7
370
     0
100
AcDbLine
 10
220.2247766756
 20
107.3144786717
 30
0.0
 11
221.1994206893
 21
107.3144786717
 31
0.0
  0
LINE
  5
13B
330
1F
100
AcDbEntity
  8
0
  6
Continuous
 62
     7
370
     0
100
AcDbLine
 10
220.2247766756
 20
109.1320580487
 30
0.0
 11
220.2247766756
 21
107.3144786717
 31
0.0
  0
LINE
  5
13C
330
1F
100
AcDbEntity
  8
0
  6
Continuous
 62
     7
370
     0
100
AcDbLine
 10
219.9350176445
 20
109.1320580487
 30
0.0
 11
220.2247766756
 21
109.1320580487
 31
0.0
  0
LINE
  5
13D
330
1F
100
AcDbEntity
  8
0
  6
Continuous
 62
     7
370
     0
100
AcDbLine
 10
219.9350176445
 20
107.0774031008
 30
0.0
 11
219.9350176445
 21
109.1320580487
 31
0.0
  0
LINE
  5
13E
330
1F
100
AcDbEntity
  8
0
  6
Continuous
 62
     7
370
     0
100
AcDbLine
 10
221.1994206893
 20
107.0774031008
 30
0.0
 11
219.9350176445
 21
107.0774031008
 31
0.0
  0
LINE
  5
13F
330
1F
100
AcDbEntity
  8
0
  6
Continuous
 62
     7
370
     0
100
AcDbLine
 10
221.1994206893
 20
107.3144786717
 30
0.0
 11
221.1994206893
 21
107.0774031008
 31
0.0
  0
SPLINE
  5
140
330
1F
100
AcDbEntity
  8
0
  6
Continuous
 62
     7
370
     0
100
AcDbSpline
210
0.0
220
0.0
230
1.0
 70
     8
 71
     3
 72
    31
 73
    27
 74
     0
 42
0.00000001
 43
0.00000001
 40
0.0
 40
0.0
 40
0.0
 40
0.0
 40
0.0430989705688968
 40
0.0855867603450731
 40
0.1269076657436391
 40
0.1679674856215208
 40
0.208449558601066
 40
0.2490254246415441
 40
0.289280534171679
 40
0.3300098489827308
 40
0.370597724099577
 40
0.4104659863326995
 40
0.4500332158929483
 40
0.4896882096042475
 40
0.5291164230741915
 40
0.5690368070925096
 40
0.6097030542359448
 40
0.6507589174942197
 40
0.6925092624061777
 40
0.7342191213706863
 40
0.7767069111468624
 40
0.8195518402403216
 40
0.8633507288313336
 40
0.9078385251300618
 40
0.9533337036124183
 40
1.0
 40
1.0
 40
1.0
 40
1.0
 10
216.5381692299651
 20
109.1583997787934
 30
0.0
 10
216.5613669549753
 20
109.1579947028432
 30
0.0
 10
216.60743344113
 20
109.1571902952711
 30
0.0
 10
216.6755386294504
 20
109.1510698279184
 30
0.0
 10
216.7418937539551
 20
109.1401458540039
 30
0.0
 10
216.8064334714799
 20
109.1255065039528
 30
0.0
 10
216.8693334595289
 20
109.1063003133173
 30
0.0
 10
216.9306312807942
 20
109.0836279896956
 30
0.0
 10
216.9897903413438
 20
109.0555337882821
 30
0.0
 10
217.0472042106368
 20
109.0240795341322
 30
0.0
 10
217.1021951604701
 20
108.988896590804
 30
0.0
 10
217.1538755174298
 20
108.9500300647042
 30
0.0
 10
217.202121490729
 20
108.9077739016495
 30
0.0
 10
217.2475811546529
 20
108.8628226777869
 30
0.0
 10
217.2887375842075
 20
108.8136593520486
 30
0.0
 10
217.3272910561434
 20
108.7617815235657
 30
0.0
 10
217.3621337138051
 20
108.7062693143733
 30
0.0
 10
217.393389186607
 20
108.6475775530411
 30
0.0
 10
217.4213347554571
 20
108.5866127230865
 30
0.0
 10
217.4452196404834
 20
108.5231221501244
 30
0.0
 10
217.46572915543
 20
108.4578674480032
 30
0.0
 10
217.4828973497522
 20
108.3904623785965
 30
0.0
 10
217.495215992388
 20
108.320929985584
 30
0.0
 10
217.5050254607056
 20
108.2495698771771
 30
0.0
 10
217.5101884548979
 20
108.176148824539
 30
0.0
 10
217.5111112264211
 20
108.1265515951127
 30
0.0
 10
217.5115784751219
 20
108.1014378584709
 30
0.0
  0
SPLINE
  5
141
330
1F
100
AcDbEntity
  8
0
  6
Continuous
 62
     7
370
     0
100
AcDbSpline
210
0.0
220
0.0
230
1.0
 70
     8
 71
     3
 72
    23
 73
    19
 74
     0
 42
0.00000001
 43
0.00000001
 40
0.0
 40
0.0
 40
0.0
 40
0.0
 40
0.0752263466908988
 40
0.1465747215268522
 40
0.2145002518264754
 40
0.2795299716530227
 40
0.3424029515883814
 40
0.4034960527288082
 40
0.4637616065030392
 40
0.5238643590795866
 40
0.5832517242549664
 40
0.6413020392831351
 40
0.6988977748564887
 40
0.7562952438113087
 40
0.814627804812969
 40
0.874324768339998
 40
0.9357832838625453
 40
1.0
 40
1.0
 40
1.0
 40
1.0
 10
215.5622904476112
 20
108.0775656655664
 30
0.0
 10
215.5630045666052
 20
108.118759726332
 30
0.0
 10
215.5643959912494
 20
108.1990242646339
 30
0.0
 10
215.5773968215837
 20
108.3158997747459
 30
0.0
 10
215.5985068330311
 20
108.4258643415835
 30
0.0
 10
215.6286854623281
 20
108.5289093981276
 30
0.0
 10
215.6669369616891
 20
108.6251964166789
 30
0.0
 10
215.7134389663291
 20
108.7149434244636
 30
0.0
 10
215.7695902258033
 20
108.7971345499653
 30
0.0
 10
215.8331116090817
 20
108.8725521993003
 30
0.0
 10
215.9040620765966
 20
108.9392269291338
 30
0.0
 10
215.9796041585011
 20
108.9984436418033
 30
0.0
 10
216.0606811384275
 20
109.0478373810676
 30
0.0
 10
216.1465439273004
 20
109.0886203258999
 30
0.0
 10
216.2375573190654
 20
109.1199322899873
 30
0.0
 10
216.333465775776
 20
109.1418535140121
 30
0.0
 10
216.4341667239722
 20
109.1559948337684
 30
0.0
 10
216.5029981788363
 20
109.1575864864248
 30
0.0
 10
216.5381692299651
 20
109.1583997787934
 30
0.0
  0
SPLINE
  5
142
330
1F
100
AcDbEntity
  8
0
  6
Continuous
 62
     7
370
     0
100
AcDbSpline
210
0.0
220
0.0
230
1.0
 70
     8
 71
     3
 72
    31
 73
    27
 74
     0
 42
0.00000001
 43
0.00000001
 40
0.0
 40
0.0
 40
0.0
 40
0.0
 40
0.0446969998899171
 40
0.0885335629185875
 40
0.1314091332352275
 40
0.1738139421467784
 40
0.2157145332694449
 40
0.2572471603264208
 40
0.2988479641797117
 40
0.3406041827148143
 40
0.3820294481091344
 40
0.4229697500404858
 40
0.4636322295306197
 40
0.5040475437003945
 40
0.5445912057564576
 40
0.5849639251690937
 40
0.6262652162680831
 40
0.6679794005009905
 40
0.7099427472053506
 40
0.7513818550852256
 40
0.7926185649779642
 40
0.8339484357458206
 40
0.8750080506311037
 40
0.9164455302232757
 40
0.957906613728307
 40
1.0
 40
1.0
 40
1.0
 40
1.0
 10
216.5369344613666
 20
107.0510613706737
 30
0.0
 10
216.513319903369
 20
107.0514107509853
 30
0.0
 10
216.4665453779776
 20
107.052102785884
 30
0.0
 10
216.397411369704
 20
107.0590104738139
 30
0.0
 10
216.3299973068989
 20
107.0695483923768
 30
0.0
 10
216.2644991742417
 20
107.0847619631384
 30
0.0
 10
216.2010064723319
 20
107.1046091410945
 30
0.0
 10
216.1394440747721
 20
107.1286315373034
 30
0.0
 10
216.0795954601124
 20
107.1565080998894
 30
0.0
 10
216.0222032506161
 20
107.1890370261217
 30
0.0
 10
215.9674627859279
 20
107.2252056954992
 30
0.0
 10
215.9159046303977
 20
107.2648343151581
 30
0.0
 10
215.8675572937954
 20
107.3075576721969
 30
0.0
 10
215.8231965529555
 20
107.3540819327311
 30
0.0
 10
215.7813857031446
 20
107.4027205742668
 30
0.0
 10
215.743796529977
 20
107.4552814649583
 30
0.0
 10
215.7092014297153
 20
107.5105725788261
 30
0.0
 10
215.6786241280772
 20
107.5691268982611
 30
0.0
 10
215.6510021119992
 20
107.6292044108982
 30
0.0
 10
215.6277299668133
 20
107.6908243339141
 30
0.0
 10
215.6072782614887
 20
107.7530785534359
 30
0.0
 10
215.5909905484287
 20
107.8163507784414
 30
0.0
 10
215.5780112231754
 20
107.88049505432
 30
0.0
 10
215.5692835674892
 20
107.9454046472369
 30
0.0
 10
215.5629803881909
 20
108.0111762289867
 30
0.0
 10
215.562521585143
 20
108.0553244886279
 30
0.0
 10
215.5622904476112
 20
108.0775656655664
 30
0.0
  0
SPLINE
  5
143
330
1F
100
AcDbEntity
  8
0
  6
Continuous
 62
     7
370
     0
100
AcDbSpline
210
0.0
220
0.0
230
1.0
 70
     8
 71
     3
 72
    31
 73
    27
 74
     0
 42
0.00000001
 43
0.00000001
 40
0.0
 40
0.0
 40
0.0
 40
0.0
 40
0.0475595569054264
 40
0.0939621052432108
 40
0.1391115332408221
 40
0.1836263101269046
 40
0.2274570284004936
 40
0.2707025105518545
 40
0.3136105321155538
 40
0.3562604510849769
 40
0.3983661529550377
 40
0.4395565149792806
 40
0.4800453830214204
 40
0.5198884957050127
 40
0.5596577503171976
 40
0.5994212546627414
 40
0.6392077550883982
 40
0.6796683749857806
 40
0.7200198525128486
 40
0.7598588655624579
 40
0.7995598848323808
 40
0.8391991446364383
 40
0.8789560762302792
 40
0.918794269302466
 40
0.9590833628432752
 40
1.0
 40
1.0
 40
1.0
 40
1.0
 10
217.5115784751219
 20
108.1014378584709
 30
0.0
 10
217.5111503735703
 20
108.0759099957508
 30
0.0
 10
217.5103045851386
 20
108.0254753012412
 30
0.0
 10
217.5045816345231
 20
107.9509678264671
 30
0.0
 10
217.4945186981386
 20
107.8785993067678
 30
0.0
 10
217.4811719263271
 20
107.8081539523063
 30
0.0
 10
217.4632876595705
 20
107.739778415657
 30
0.0
 10
217.4420349568356
 20
107.6732766599668
 30
0.0
 10
217.4163286121745
 20
107.6090447829708
 30
0.0
 10
217.3872961499232
 20
107.546927972548
 30
0.0
 10
217.3544459311966
 20
107.4877805504077
 30
0.0
 10
217.3182099109096
 20
107.4320161032317
 30
0.0
 10
217.2785624181703
 20
107.3801562633584
 30
0.0
 10
217.2361056937937
 20
107.331564842925
 30
0.0
 10
217.1898482608104
 20
107.287110747414
 30
0.0
 10
217.140359716273
 20
107.246378298412
 30
0.0
 10
217.0878303433588
 20
107.2089833426371
 30
0.0
 10
217.0320836700855
 20
107.1759386524339
 30
0.0
 10
216.9741201465411
 20
107.1469738011307
 30
0.0
 10
216.9150867794779
 20
107.121276759664
 30
0.0
 10
216.8549397175924
 20
107.0993613000992
 30
0.0
 10
216.7934733966451
 20
107.0816009983829
 30
0.0
 10
216.7308554907251
 20
107.0681800360632
 30
0.0
 10
216.6672622140636
 20
107.0581302779196
 30
0.0
 10
216.6024850990887
 20
107.0523435926702
 30
0.0
 10
216.5588969544478
 20
107.0514909743008
 30
0.0
 10
216.5369344613666
 20
107.0510613706737
 30
0.0
  0
LINE
  5
144
330
1F
100
AcDbEntity
  8
0
  6
Continuous
 62
     7
370
     0
100
AcDbLine
 10
213.2969016589
 20
108.8949824778
 30
0.0
 11
212.6383584063
 21
108.8949824778
 31
0.0
  0
LINE
  5
145
330
1F
100
AcDbEntity
  8
0
  6
Continuous
 62
     7
370
     0
100
AcDbLine
 10
213.2969016589
 20
109.1320580487
 30
0.0
 11
213.2969016589
 21
108.8949824778
 31
0.0
  0
LINE
  5
146
330
1F
100
AcDbEntity
  8
0
  6
Continuous
 62
     7
370
     0
100
AcDbLine
 10
211.6900561227
 20
109.1320580487
 30
0.0
 11
213.2969016589
 21
109.1320580487
 31
0.0
  0
LINE
  5
147
330
1F
100
AcDbEntity
  8
0
  6
Continuous
 62
     7
370
     0
100
AcDbLine
 10
211.6900561227
 20
108.8949824778
 30
0.0
 11
211.6900561227
 21
109.1320580487
 31
0.0
  0
LINE
  5
148
330
1F
100
AcDbEntity
  8
0
  6
Continuous
 62
     7
370
     0
100
AcDbLine
 10
212.3485993752
 20
108.8949824778
 30
0.0
 11
211.6900561227
 21
108.8949824778
 31
0.0
  0
LINE
  5
149
330
1F
100
AcDbEntity
  8
0
  6
Continuous
 62
     7
370
     0
100
AcDbLine
 10
212.3485993752
 20
107.0774031008
 30
0.0
 11
212.3485993752
 21
108.8949824778
 31
0.0
  0
LINE
  5
14A
330
1F
100
AcDbEntity
  8
0
  6
Continuous
 62
     7
370
     0
100
AcDbLine
 10
212.6383584063
 20
107.0774031008
 30
0.0
 11
212.3485993752
 21
107.0774031008
 31
0.0
  0
LINE
  5
14B
330
1F
100
AcDbEntity
  8
0
  6
Continuous
 62
     7
370
     0
100
AcDbLine
 10
212.6383584063
 20
108.8949824778
 30
0.0
 11
212.6383584063
 21
107.0774031008
 31
0.0
  0
CIRCLE
  5
14C
330
1F
100
AcDbEntity
  8
0
  6
Continuous
 62
     7
370
     0
100
AcDbCircle
 10
219.289645257
 20
106.5274031008
 30
0.0
 40
25.19999999999996
  0
LINE
  5
14D
330
1F
100
AcDbEntity
  8
0
  6
Continuous
 62
     7
370
     0
100
AcDbLine
 10
214.9037471951
 20
108.0520471145
 30
0.0
 11
213.9027614512
 21
108.0520471145
 31
0.0
  0
LINE
  5
14E
330
1F
100
AcDbEntity
  8
0
  6
Continuous
 62
     7
370
     0
100
AcDbLine
 10
214.9037471951
 20
107.0774031008
 30
0.0
 11
214.9037471951
 21
108.0520471145
 31
0.0
  0
LINE
  5
14F
330
1F
100
AcDbEntity
  8
0
  6
Continuous
 62
     7
370
     0
100
AcDbLine
 10
215.1935062262
 20
107.0774031008
 30
0.0
 11
214.9037471951
 21
107.0774031008
 31
0.0
  0
LINE
  5
150
330
1F
100
AcDbEntity
  8
0
  6
Continuous
 62
     7
370
     0
100
AcDbLine
 10
215.1935062262
 20
109.1320580487
 30
0.0
 11
215.1935062262
 21
107.0774031008
 31
0.0
  0
LINE
  5
151
330
1F
100
AcDbEntity
  8
0
  6
Continuous
 62
     7
370
     0
100
AcDbLine
 10
214.9037471951
 20
109.1320580487
 30
0.0
 11
215.1935062262
 21
109.1320580487
 31
0.0
  0
LINE
  5
152
330
1F
100
AcDbEntity
  8
0
  6
Continuous
 62
     7
370
     0
100
AcDbLine
 10
214.9037471951
 20
108.2891226854
 30
0.0
 11
214.9037471951
 21
109.1320580487
 31
0.0
  0
LINE
  5
153
330
1F
100
AcDbEntity
  8
0
  6
Continuous
 62
     7
370
     0
100
AcDbLine
 10
213.9027614512
 20
108.2891226854
 30
0.0
 11
214.9037471951
 21
108.2891226854
 31
0.0
  0
LINE
  5
154
330
1F
100
AcDbEntity
  8
0
  6
Continuous
 62
     7
370
     0
100
AcDbLine
 10
213.9027614512
 20
109.1320580487
 30
0.0
 11
213.9027614512
 21
108.2891226854
 31
0.0
  0
LINE
  5
155
330
1F
100
AcDbEntity
  8
0
  6
Continuous
 62
     7
370
     0
100
AcDbLine
 10
213.6130024201
 20
109.1320580487
 30
0.0
 11
213.9027614512
 21
109.1320580487
 31
0.0
  0
LINE
  5
156
330
1F
100
AcDbEntity
  8
0
  6
Continuous
 62
     7
370
     0
100
AcDbLine
 10
213.6130024201
 20
107.0774031008
 30
0.0
 11
213.6130024201
 21
109.1320580487
 31
0.0
  0
LINE
  5
157
330
1F
100
AcDbEntity
  8
0
  6
Continuous
 62
     7
370
     0
100
AcDbLine
 10
213.9027614512
 20
107.0774031008
 30
0.0
 11
213.6130024201
 21
107.0774031008
 31
0.0
  0
LINE
  5
158
330
1F
100
AcDbEntity
  8
0
  6
Continuous
 62
     7
370
     0
100
AcDbLine
 10
213.9027614512
 20
108.0520471145
 30
0.0
 11
213.9027614512
 21
107.0774031008
 31
0.0
  0
LINE
  5
159
330
1F
100
AcDbEntity
  8
0
  6
Continuous
 62
     7
370
     0
100
AcDbLine
 10
218.4668777808
 20
107.9993636543
 30
0.0
 11
218.1701217277
 21
107.9993636543
 31
0.0
  0
SPLINE
  5
15A
330
1F
100
AcDbEntity
  8
0
  6
Continuous
 62
     7
370
     0
100
AcDbSpline
210
0.0
220
0.0
230
1.0
 70
     8
 71
     3
 72
    11
 73
     7
 74
     0
 42
0.00000001
 43
0.00000001
 40
0.0
 40
0.0
 40
0.0
 40
0.0
 40
0.1774946570818496
 40
0.4052256231013751
 40
0.6783881083348569
 40
0.9999999999999999
 40
0.9999999999999999
 40
0.9999999999999999
 40
0.9999999999999999
 10
218.609699348728
 20
107.9898970950723
 30
0.0
 10
218.6013477680762
 20
107.9914031689015
 30
0.0
 10
218.5822808590821
 20
107.9948415806031
 30
0.0
 10
218.549905295189
 20
107.9970872127673
 30
0.0
 10
218.5106783276437
 20
107.9994706508735
 30
0.0
 10
218.4822498757667
 20
107.9994012054812
 30
0.0
 10
218.466877780834
 20
107.9993636543276
 30
0.0
  0
SPLINE
  5
15B
330
1F
100
AcDbEntity
  8
0
  6
Continuous
 62
     7
370
     0
100
AcDbSpline
210
0.0
220
0.0
230
1.0
 70
     8
 71
     3
 72
    21
 73
    17
 74
     0
 42
0.00000001
 43
0.00000001
 40
0.0
 40
0.0
 40
0.0
 40
0.0
 40
0.0807814705861227
 40
0.1565412257955895
 40
0.227934986843486
 40
0.2943103173046012
 40
0.3568678635548113
 40
0.4147585592592751
 40
0.4676413968340161
 40
0.5167484215300129
 40
0.604729741894053
 40
0.6815706529393896
 40
0.7481095416219826
 40
0.8049410995352804
 40
0.9054060495000024
 40
1.0
 40
1.0
 40
1.0
 40
1.0
 10
219.04104517914
 20
107.5112184683842
 30
0.0
 10
219.0318403925892
 20
107.5264394019981
 30
0.0
 10
219.0140030276665
 20
107.5559350720867
 30
0.0
 10
218.9882375930719
 20
107.5990120783381
 30
0.0
 10
218.9629754315702
 20
107.638671326198
 30
0.0
 10
218.9395452088797
 20
107.676046298553
 30
0.0
 10
218.9169960873027
 20
107.7104584712125
 30
0.0
 10
218.8955459441283
 20
107.7420273853598
 30
0.0
 10
218.875785096822
 20
107.7711671839077
 30
0.0
 10
218.8513087326658
 20
107.8050934927567
 30
0.0
 10
218.8228223100461
 20
107.8426332683183
 30
0.0
 10
218.7895806093737
 20
107.8812921483326
 30
0.0
 10
218.7579246545339
 20
107.9121143584045
 30
0.0
 10
218.7189397619367
 20
107.9423388140676
 30
0.0
 10
218.6706510745078
 20
107.9706087119095
 30
0.0
 10
218.6296047786663
 20
107.9835979533375
 30
0.0
 10
218.609699348728
 20
107.9898970950723
 30
0.0
  0
LINE
  5
15C
330
1F
100
AcDbEntity
  8
0
  6
Continuous
 62
     7
370
     0
100
AcDbLine
 10
219.2970538686
 20
107.0774031008
 30
0.0
 11
219.0410451791
 21
107.5112184684
 31
0.0
  0
LINE
  5
15D
330
1F
100
AcDbEntity
  8
0
  6
Continuous
 62
     7
370
     0
100
AcDbLine
 10
219.6292066216
 20
107.0774031008
 30
0.0
 11
219.2970538686
 21
107.0774031008
 31
0.0
  0
LINE
  5
15E
330
1F
100
AcDbEntity
  8
0
  6
Continuous
 62
     7
370
     0
100
AcDbLine
 10
219.2921147942
 20
107.644573477
 30
0.0
 11
219.6292066216
 21
107.0774031008
 31
0.0
  0
SPLINE
  5
15F
330
1F
100
AcDbEntity
  8
0
  6
Continuous
 62
     7
370
     0
100
AcDbSpline
210
0.0
220
0.0
230
1.0
 70
     8
 71
     3
 72
    11
 73
     7
 74
     0
 42
0.00000001
 43
0.00000001
 40
0.0
 40
0.0
 40
0.0
 40
0.0
 40
0.2295275697008571
 40
0.4714659343032296
 40
0.7281863484998701
 40
1.0
 40
1.0
 40
1.0
 40
1.0
 10
219.0756186998982
 20
107.9244543593514
 30
0.0
 10
219.0950285097702
 20
107.9054270734727
 30
0.0
 10
219.1348976381623
 20
107.8663436765381
 30
0.0
 10
219.1898390288504
 20
107.7997732026163
 30
0.0
 10
219.2431065940191
 20
107.7256700500449
 30
0.0
 10
219.2754706561906
 20
107.6721154505473
 30
0.0
 10
219.2921147941699
 20
107.644573477023
 30
0.0
  0
SPLINE
  5
160
330
1F
100
AcDbEntity
  8
0
  6
Continuous
 62
     7
370
     0
100
AcDbSpline
210
0.0
220
0.0
230
1.0
 70
     8
 71
     3
 72
    11
 73
     7
 74
     0
 42
0.00000001
 43
0.00000001
 40
0.0
 40
0.0
 40
0.0
 40
0.0
 40
0.2930762433192213
 40
0.5565623371181898
 40
0.7919136092098108
 40
1.0
 40
1.0
 40
1.0
 40
1.0
 10
218.9159219611579
 20
108.0257053844291
 30
0.0
 10
218.9324638081648
 20
108.0173488081939
 30
0.0
 10
218.9638773711549
 20
108.0014793690779
 30
0.0
 10
219.0073698383726
 20
107.9765962263715
 30
0.0
 10
219.0442368972972
 20
107.9511717862523
 30
0.0
 10
219.0655958526941
 20
107.9329874793547
 30
0.0
 10
219.0756186998982
 20
107.9244543593514
 30
0.0
  0
SPLINE
  5
161
330
1F
100
AcDbEntity
  8
0
  6
Continuous
 62
     7
370
     0
100
AcDbSpline
210
0.0
220
0.0
230
1.0
 70
     8
 71
     3
 72
    23
 73
    19
 74
     0
 42
0.00000001
 43
0.00000001
 40
0.0
 40
0.0
 40
0.0
 40
0.0
 40
0.0614130692946597
 40
0.1212950233845471
 40
0.1792240423087202
 40
0.2359380947348319
 40
0.2922168332673612
 40
0.3481966394342069
 40
0.4044447389633588
 40
0.4620255339229974
 40
0.5203342118681488
 40
0.5803829016508381
 40
0.641825904813988
 40
0.7063632097966277
 40
0.7738513938275595
 40
0.8452662573568828
 40
0.920154675768406
 40
1.0
 40
1.0
 40
1.0
 40
1.0
 10
219.4608665026326
 20
108.5780585374948
 30
0.0
 10
219.4604644423568
 20
108.5604826888695
 30
0.0
 10
219.4596703457401
 20
108.5257691825346
 30
0.0
 10
219.4535874857763
 20
108.4747310364673
 30
0.0
 10
219.4425810417974
 20
108.4259661402481
 30
0.0
 10
219.4284674468002
 20
108.3790474196583
 30
0.0
 10
219.409150240872
 20
108.3346396379737
 30
0.0
 10
219.3867720962629
 20
108.2918357527205
 30
0.0
 10
219.3590487566962
 20
108.2518117008258
 30
0.0
 10
219.3280094123481
 20
108.2135017059597
 30
0.0
 10
219.2924156080258
 20
108.1777262659319
 30
0.0
 10
219.2519542257928
 20
108.1457760706604
 30
0.0
 10
219.2070263500463
 20
108.1170368060577
 30
0.0
 10
219.1574203885273
 20
108.0923013996007
 30
0.0
 10
219.1037073557247
 20
108.0696920637706
 30
0.0
 10
219.0452133006245
 20
108.0514859371822
 30
0.0
 10
218.9821743003554
 20
108.0366192387621
 30
0.0
 10
218.9384727350816
 20
108.0294202096667
 30
0.0
 10
218.9159219611579
 20
108.0257053844291
 30
0.0
  0
SPLINE
  5
162
330
1F
100
AcDbEntity
  8
0
  6
Continuous
 62
     7
370
     0
100
AcDbSpline
210
0.0
220
0.0
230
1.0
 70
     8
 71
     3
 72
    27
 73
    23
 74
     0
 42
0.00000001
 43
0.00000001
 40
0.0
 40
0.0
 40
0.0
 40
0.0
 40
0.0621127506505295
 40
0.1202119588785538
 40
0.1743851213884739
 40
0.2254437557784867
 40
0.2723582126361769
 40
0.3163881629634409
 40
0.3568694790582284
 40
0.3939783235063669
 40
0.4295893718770922
 40
0.4646830409549871
 40
0.5000363461428401
 40
0.535482747753064
 40
0.5713634671484438
 40
0.6079085322052602
 40
0.645662298533116
 40
0.6845173397035776
 40
0.7625786223763463
 40
0.8404972886541806
 40
0.9190729926935233
 40
1.0
 40
1.0
 40
1.0
 40
1.0
 10
218.7718656246654
 20
109.1320580486919
 30
0.0
 10
218.7928577888519
 20
109.1318935663986
 30
0.0
 10
218.8334856656008
 20
109.1315752301719
 30
0.0
 10
218.8924044756344
 20
109.1293217712184
 30
0.0
 10
218.9473992782303
 20
109.1244639048622
 30
0.0
 10
218.9985711904303
 20
109.1192107994412
 30
0.0
 10
219.0459111204525
 20
109.1111479842304
 30
0.0
 10
219.0893702289804
 20
109.1019001173272
 30
0.0
 10
219.1290156146799
 20
109.090895015896
 30
0.0
 10
219.1650245164053
 20
109.0778971427218
 30
0.0
 10
219.1984329254281
 20
109.063191996434
 30
0.0
 10
219.2293999970813
 20
109.0450482200738
 30
0.0
 10
219.2592129926214
 20
109.0251665098608
 30
0.0
 10
219.2867654477768
 20
109.0018084674283
 30
0.0
 10
219.3127840612474
 20
108.9762335729687
 30
0.0
 10
219.3372447181646
 20
108.9480943179253
 30
0.0
 10
219.3597852979672
 20
108.9171465108329
 30
0.0
 10
219.3875864037515
 20
108.8728537808607
 30
0.0
 10
219.4174113220825
 20
108.8138651919045
 30
0.0
 10
219.4422601637289
 20
108.7383725795365
 30
0.0
 10
219.4582822523012
 20
108.6594045514834
 30
0.0
 10
219.4599966615555
 20
108.6054390522885
 30
0.0
 10
219.4608665026326
 20
108.5780585374948
 30
0.0
  0
LINE
  5
163
330
1F
100
AcDbEntity
  8
0
  6
Continuous
 62
     7
370
     0
100
AcDbLine
 10
217.8803626965
 20
109.1320580487
 30
0.0
 11
218.7718656247
 21
109.1320580487
 31
0.0
  0
LINE
  5
164
330
1F
100
AcDbEntity
  8
0
  6
Continuous
 62
     7
370
     0
100
AcDbLine
 10
217.8803626965
 20
107.0774031008
 30
0.0
 11
217.8803626965
 21
109.1320580487
 31
0.0
  0
LINE
  5
165
330
1F
100
AcDbEntity
  8
0
  6
Continuous
 62
     7
370
     0
100
AcDbLine
 10
218.1701217277
 20
107.0774031008
 30
0.0
 11
217.8803626965
 21
107.0774031008
 31
0.0
  0
LINE
  5
166
330
1F
100
AcDbEntity
  8
0
  6
Continuous
 62
     7
370
     0
100
AcDbLine
 10
218.1701217277
 20
107.9993636543
 30
0.0
 11
218.1701217277
 21
107.0774031008
 31
0.0
  0
LINE
  5
167
330
1F
100
AcDbEntity
  8
0
  6
Continuous
 62
     7
370
     0
100
AcDbLine
 10
222.6515085612
 20
107.7096046232
 30
0.0
 11
221.7756460353
 21
107.7096046232
 31
0.0
  0
LINE
  5
168
330
1F
100
AcDbEntity
  8
0
  6
Continuous
 62
     7
370
     0
100
AcDbLine
 10
222.8852914158
 20
107.0774031008
 30
0.0
 11
222.6515085612
 21
107.7096046232
 31
0.0
  0
LINE
  5
169
330
1F
100
AcDbEntity
  8
0
  6
Continuous
 62
     7
370
     0
100
AcDbLine
 10
223.1927487969
 20
107.0774031008
 30
0.0
 11
222.8852914158
 21
107.0774031008
 31
0.0
  0
LINE
  5
16A
330
1F
100
AcDbEntity
  8
0
  6
Continuous
 62
     7
370
     0
100
AcDbLine
 10
222.3769783428
 20
109.1320580487
 30
0.0
 11
223.1927487969
 21
107.0774031008
 31
0.0
  0
LINE
  5
16B
330
1F
100
AcDbEntity
  8
0
  6
Continuous
 62
     7
370
     0
100
AcDbLine
 10
222.0501762537
 20
109.1320580487
 30
0.0
 11
222.3769783428
 21
109.1320580487
 31
0.0
  0
LINE
  5
16C
330
1F
100
AcDbEntity
  8
0
  6
Continuous
 62
     7
370
     0
100
AcDbLine
 10
221.2344057996
 20
107.0774031008
 30
0.0
 11
222.0501762537
 21
109.1320580487
 31
0.0
  0
LINE
  5
16D
330
1F
100
AcDbEntity
  8
0
  6
Continuous
 62
     7
370
     0
100
AcDbLine
 10
221.5418631807
 20
107.0774031008
 30
0.0
 11
221.2344057996
 21
107.0774031008
 31
0.0
  0
LINE
  5
16E
330
1F
100
AcDbEntity
  8
0
  6
Continuous
 62
     7
370
     0
100
AcDbLine
 10
221.7756460353
 20
107.7096046232
 30
0.0
 11
221.5418631807
 21
107.0774031008
 31
0.0
  0
SPLINE
  5
16F
330
1F
100
AcDbEntity
  8
0
  6
Continuous
 62
     7
370
     0
100
AcDbSpline
210
0.0
220
0.0
230
1.0
 70
     8
 71
     3
 72
    23
 73
    19
 74
     0
 42
0.00000001
 43
0.00000001
 40
0.0
 40
0.0
 40
0.0
 40
0.0
 40
0.0749313059818448
 40
0.1470775964339469
 40
0.2163644561730687
 40
0.2825027309006237
 40
0.3466877108244162
 40
0.4088355551310375
 40
0.4692619872876909
 40
0.5284320432534628
 40
0.5870013379727417
 40
0.644416393832067
 40
0.7021887902662974
 40
0.7597671795443349
 40
0.8184897928274489
 40
0.8776328274167843
 40
0.9380195662701677
 40
1.0
 40
1.0
 40
1.0
 40
1.0
 10
226.4537726655141
 20
108.1574140349365
 30
0.0
 10
226.4685455615146
 20
108.1506027811995
 30
0.0
 10
226.4975422806782
 20
108.1372334315635
 30
0.0
 10
226.5386200162302
 20
108.1144072782601
 30
0.0
 10
226.5769500000407
 20
108.0907035468844
 30
0.0
 10
226.612222551457
 20
108.0654840529439
 30
0.0
 10
226.6443236172752
 20
108.0386957478631
 30
0.0
 10
226.6736121249112
 20
108.0106455666832
 30
0.0
 10
226.7002649666724
 20
107.9814911559961
 30
0.0
 10
226.7232067029319
 20
107.9502994049122
 30
0.0
 10
226.7438060283322
 20
107.91833122452
 30
0.0
 10
226.7618318097453
 20
107.8851398184148
 30
0.0
 10
226.776345822762
 20
107.8505299942969
 30
0.0
 10
226.7890755174688
 20
107.8149189414649
 30
0.0
 10
226.798231819274
 20
107.7779105614212
 30
0.0
 10
226.8054122067028
 20
107.7398786635219
 30
0.0
 10
226.809600406608
 20
107.7006444867914
 30
0.0
 10
226.8100045151494
 20
107.674080463647
 30
0.0
 10
226.8102092009499
 20
107.6606254688036
 30
0.0
  0
SPLINE
  5
170
330
1F
100
AcDbEntity
  8
0
  6
Continuous
 62
     7
370
     0
100
AcDbSpline
210
0.0
220
0.0
230
1.0
 70
     8
 71
     3
 72
    23
 73
    19
 74
     0
 42
0.00000001
 43
0.00000001
 40
0.0
 40
0.0
 40
0.0
 40
0.0
 40
0.0327432182311376
 40
0.0724096054938575
 40
0.1196114857927603
 40
0.1746729151985131
 40
0.2373450901947013
 40
0.3083524168429163
 40
0.3876300477623597
 40
0.4747836155862522
 40
0.5633323159904144
 40
0.6451362168299873
 40
0.7202025267224655
 40
0.7891341563324459
 40
0.8514970735699655
 40
0.9073306044315619
 40
0.9569686823424193
 40
1.0
 40
1.0
 40
1.0
 40
1.0
 10
225.6458224125572
 20
108.4331790219366
 30
0.0
 10
225.6529578895564
 20
108.4270972755886
 30
0.0
 10
225.6687375563832
 20
108.4136478690377
 30
0.0
 10
225.6980980589849
 20
108.3958491541895
 30
0.0
 10
225.7345007278235
 20
108.3778658211862
 30
0.0
 10
225.7781887995737
 20
108.3599889965706
 30
0.0
 10
225.8290871073416
 20
108.3420016575547
 30
0.0
 10
225.8871135511505
 20
108.32348148008
 30
0.0
 10
225.9524891468803
 20
108.3050874812896
 30
0.0
 10
226.0232215752276
 20
108.2873618200406
 30
0.0
 10
226.0946778209558
 20
108.2695649002712
 30
0.0
 10
226.1625852775128
 20
108.2518358097671
 30
0.0
 10
226.2249358172818
 20
108.2350335107449
 30
0.0
 10
226.2816305166054
 20
108.2186456203407
 30
0.0
 10
226.3327280562642
 20
108.202718477584
 30
0.0
 10
226.3780508535851
 20
108.186918388304
 30
0.0
 10
226.4179655871396
 20
108.172386313961
 30
0.0
 10
226.4424180769692
 20
108.1621618131865
 30
0.0
 10
226.4537726655141
 20
108.1574140349365
 30
0.0
  0
SPLINE
  5
171
330
1F
100
AcDbEntity
  8
0
  6
Continuous
 62
     7
370
     0
100
AcDbSpline
210
0.0
220
0.0
230
1.0
 70
     8
 71
     3
 72
    11
 73
     7
 74
     0
 42
0.00000001
 43
0.00000001
 40
0.0
 40
0.0
 40
0.0
 40
0.0
 40
0.2627412305282691
 40
0.5099565029432329
 40
0.7533267184204503
 40
1.0
 40
1.0
 40
1.0
 40
1.0
 10
225.5721478861796
 20
108.6146900059172
 30
0.0
 10
225.5728966917203
 20
108.5970126578708
 30
0.0
 10
225.5743500542328
 20
108.562702555216
 30
0.0
 10
225.5891910104272
 20
108.5139582418355
 30
0.0
 10
225.6120165048891
 20
108.4695246418766
 30
0.0
 10
225.6345032537935
 20
108.4453485470535
 30
0.0
 10
225.6458224125572
 20
108.4331790219366
 30
0.0
  0
SPLINE
  5
172
330
1F
100
AcDbEntity
  8
0
  6
Continuous
 62
     7
370
     0
100
AcDbSpline
210
0.0
220
0.0
230
1.0
 70
     8
 71
     3
 72
    23
 73
    19
 74
     0
 42
0.00000001
 43
0.00000001
 40
0.0
 40
0.0
 40
0.0
 40
0.0
 40
0.0915110363280375
 40
0.177142860314148
 40
0.257108485228235
 40
0.3311983993883849
 40
0.4005922945239581
 40
0.4656249598049642
 40
0.5269734913138602
 40
0.5854431157040231
 40
0.6413985080863308
 40
0.6950441672657243
 40
0.7467815514927477
 40
0.7969589345766993
 40
0.8475448623598797
 40
0.8974385414187385
 40
0.9476489188871287
 40
1.0
 40
1.0
 40
1.0
 40
1.0
 10
226.0071980223871
 20
108.9213242078799
 30
0.0
 10
225.9889383097868
 20
108.9211865747984
 30
0.0
 10
225.9535919969449
 20
108.9209201510018
 30
0.0
 10
225.9024948933341
 20
108.9160635780917
 30
0.0
 10
225.8551344830991
 20
108.9094001877902
 30
0.0
 10
225.8115921127718
 20
108.8995711204801
 30
0.0
 10
225.7720104214722
 20
108.8867048383693
 30
0.0
 10
225.7358019601644
 20
108.8718472349096
 30
0.0
 10
225.7039800610489
 20
108.8530187708434
 30
0.0
 10
225.675802900754
 20
108.83204631073
 30
0.0
 10
225.6514965312184
 20
108.808841442147
 30
0.0
 10
225.6305480412603
 20
108.784389121056
 30
0.0
 10
225.6120207198963
 20
108.7594077742289
 30
0.0
 10
225.5976245825196
 20
108.7325319048754
 30
0.0
 10
225.5859039629094
 20
108.7047793429835
 30
0.0
 10
225.5783428753952
 20
108.6756284312853
 30
0.0
 10
225.5729894488062
 20
108.6456183859141
 30
0.0
 10
225.5724322835138
 20
108.625141930165
 30
0.0
 10
225.5721478861796
 20
108.6146900059172
 30
0.0
  0
SPLINE
  5
173
330
1F
100
AcDbEntity
  8
0
  6
Continuous
 62
     7
370
     0
100
AcDbSpline
210
0.0
220
0.0
230
1.0
 70
     8
 71
     3
 72
    23
 73
    19
 74
     0
 42
0.00000001
 43
0.00000001
 40
0.0
 40
0.0
 40
0.0
 40
0.0
 40
0.0671554674490462
 40
0.1314033464826141
 40
0.1927317719102091
 40
0.2512526591565257
 40
0.3077037298841914
 40
0.3626989162982003
 40
0.417778332785431
 40
0.4723043857981144
 40
0.5278725997916964
 40
0.5852299868117375
 40
0.6450565760102912
 40
0.707952356429442
 40
0.7744342720454286
 40
0.84494043137526
 40
0.9204035944750272
 40
1.0
 40
1.0
 40
1.0
 40
1.0
 10
226.4677667096305
 20
108.552539986459
 30
0.0
 10
226.4659256234461
 20
108.5672525977106
 30
0.0
 10
226.4623231634384
 20
108.596040817455
 30
0.0
 10
226.453385938366
 20
108.6377160965246
 30
0.0
 10
226.4408577472299
 20
108.6764222203896
 30
0.0
 10
226.4261833959352
 20
108.7125201498584
 30
0.0
 10
226.4083950099787
 20
108.7456344267373
 30
0.0
 10
226.3876588992404
 20
108.7760830205271
 30
0.0
 10
226.3637225418804
 20
108.8035071948391
 30
0.0
 10
226.3372018455557
 20
108.8286316014935
 30
0.0
 10
226.3072897903507
 20
108.8505079463215
 30
0.0
 10
226.274140073705
 20
108.8694972852371
 30
0.0
 10
226.23769673784
 20
108.8855389283679
 30
0.0
 10
226.1979918892673
 20
108.8986775572896
 30
0.0
 10
226.1550176672024
 20
108.9088647362339
 30
0.0
 10
226.1086763262773
 20
108.9163586195411
 30
0.0
 10
226.0589857781414
 20
108.9201965727068
 30
0.0
 10
226.0247646717051
 20
108.9209417087475
 30
0.0
 10
226.0071980223871
 20
108.9213242078799
 30
0.0
  0
LINE
  5
174
330
1F
100
AcDbEntity
  8
0
  6
Continuous
 62
     7
370
     0
100
AcDbLine
 10
226.7575257407
 20
108.5525399865
 30
0.0
 11
226.4677667096
 21
108.5525399865
 31
0.0
  0
SPLINE
  5
175
330
1F
100
AcDbEntity
  8
0
  6
Continuous
 62
     7
370
     0
100
AcDbSpline
210
0.0
220
0.0
230
1.0
 70
     8
 71
     3
 72
    23
 73
    19
 74
     0
 42
0.00000001
 43
0.00000001
 40
0.0
 40
0.0
 40
0.0
 40
0.0
 40
0.1004750608070148
 40
0.1956443031597846
 40
0.286083379069932
 40
0.3729828804699542
 40
0.4150256681909619
 40
0.4560516735090279
 40
0.4959387495188998
 40
0.5355660888033517
 40
0.5740871099085042
 40
0.6125192874870976
 40
0.651080960134445
 40
0.6895131377130386
 40
0.7662374603277348
 40
0.8423504388672227
 40
0.9199744947371038
 40
1.0
 40
1.0
 40
1.0
 40
1.0
 10
225.9956735154677
 20
109.1583997787934
 30
0.0
 10
226.0322072832857
 20
109.1575626632982
 30
0.0
 10
226.1033455686386
 20
109.1559326381316
 30
0.0
 10
226.206711507995
 20
109.1423711256734
 30
0.0
 10
226.3031236320256
 20
109.1190824401823
 30
0.0
 10
226.3787333276405
 20
109.0930130933261
 30
0.0
 10
226.4346306914029
 20
109.0666214167588
 30
0.0
 10
226.4743417350569
 20
109.0460282595151
 30
0.0
 10
226.5112014362424
 20
109.022218818362
 30
0.0
 10
226.5455416066141
 20
108.9964532782332
 30
0.0
 10
226.5776812198823
 20
108.9687434061357
 30
0.0
 10
226.6067942158169
 20
108.9384300757914
 30
0.0
 10
226.6341447619006
 20
108.9065475231766
 30
0.0
 10
226.6662854648455
 20
108.8607741669475
 30
0.0
 10
226.7009399565119
 20
108.8001933889408
 30
0.0
 10
226.7309034816725
 20
108.7217085847807
 30
0.0
 10
226.7514887729632
 20
108.638874318006
 30
0.0
 10
226.7554930858098
 20
108.5816088686449
 30
0.0
 10
226.7575257407469
 20
108.552539986459
 30
0.0
  0
SPLINE
  5
176
330
1F
100
AcDbEntity
  8
0
  6
Continuous
 62
     7
370
     0
100
AcDbSpline
210
0.0
220
0.0
230
1.0
 70
     8
 71
     3
 72
    23
 73
    19
 74
     0
 42
0.00000001
 43
0.00000001
 40
0.0
 40
0.0
 40
0.0
 40
0.0
 40
0.0749954673898322
 40
0.1491654404266561
 40
0.2236642943382247
 40
0.3004120221906725
 40
0.3395704846106348
 40
0.3789205746932795
 40
0.4180957375990935
 40
0.4582296767501551
 40
0.4984267212184583
 40
0.5397075464534805
 40
0.5822159516458436
 40
0.6258238199943749
 40
0.7154812648736979
 40
0.8073840844133601
 40
0.9016341255073719
 40
1.0
 40
1.0
 40
1.0
 40
1.0
 10
225.2823888550631
 20
108.5957568874068
 30
0.0
 10
225.2833667595962
 20
108.6212293463326
 30
0.0
 10
225.2853118046163
 20
108.6718938822928
 30
0.0
 10
225.3025654199095
 20
108.7462409303675
 30
0.0
 10
225.3300852663879
 20
108.8177825661982
 30
0.0
 10
225.3614112093495
 20
108.8745805202905
 30
0.0
 10
225.3919609263006
 20
108.9175308789928
 30
0.0
 10
225.4172868736977
 20
108.9484629421839
 30
0.0
 10
225.4456948770597
 20
108.977055476135
 30
0.0
 10
225.4763100686351
 20
109.0037076133336
 30
0.0
 10
225.5096797259961
 20
109.0280211400012
 30
0.0
 10
225.5449759446149
 20
109.0509953115268
 30
0.0
 10
225.5834762504582
 20
109.0707421632727
 30
0.0
 10
225.637574905764
 20
109.0958754484258
 30
0.0
 10
225.7099458713199
 20
109.1209733839627
 30
0.0
 10
225.8010518650864
 20
109.1428430512598
 30
0.0
 10
225.8969379320144
 20
109.1557216436477
 30
0.0
 10
225.9622961278062
 20
109.1574944399901
 30
0.0
 10
225.9956735154677
 20
109.1583997787934
 30
0.0
  0
SPLINE
  5
177
330
1F
100
AcDbEntity
  8
0
  6
Continuous
 62
     7
370
     0
100
AcDbSpline
210
0.0
220
0.0
230
1.0
 70
     8
 71
     3
 72
    15
 73
    11
 74
     0
 42
0.00000001
 43
0.00000001
 40
0.0
 40
0.0
 40
0.0
 40
0.0
 40
0.1448052410584837
 40
0.2795118010254855
 40
0.4063939211311608
 40
0.5275015404829168
 40
0.6453932904726503
 40
0.7618854106740865
 40
0.8789420729184871
 40
1.0
 40
1.0
 40
1.0
 40
1.0
 10
225.5857303407632
 20
108.1516517814768
 30
0.0
 10
225.5615477967653
 20
108.1647158883526
 30
0.0
 10
225.5148691933057
 20
108.1899330145764
 30
0.0
 10
225.4520449629118
 20
108.2350213068235
 30
0.0
 10
225.3991091710622
 20
108.2850551123213
 30
0.0
 10
225.3562851434595
 20
108.3399618799497
 30
0.0
 10
225.3227256287659
 20
108.3988130044449
 30
0.0
 10
225.3000831709413
 20
108.4617085332717
 30
0.0
 10
225.2845749564644
 20
108.5275067950803
 30
0.0
 10
225.2831256734218
 20
108.5727534160309
 30
0.0
 10
225.2823888550631
 20
108.5957568874068
 30
0.0
  0
SPLINE
  5
178
330
1F
100
AcDbEntity
  8
0
  6
Continuous
 62
     7
370
     0
100
AcDbSpline
210
0.0
220
0.0
230
1.0
 70
     8
 71
     3
 72
    23
 73
    19
 74
     0
 42
0.00000001
 43
0.00000001
 40
0.0
 40
0.0
 40
0.0
 40
0.0
 40
0.031200111153937
 40
0.0704867190162008
 40
0.1172148300204117
 40
0.1715755269954914
 40
0.2341219784876085
 40
0.3039626396728061
 40
0.3821556401561972
 40
0.4676462220680265
 40
0.5543353814021599
 40
0.6350744656665042
 40
0.7100366878785244
 40
0.7790924037748317
 40
0.8429656453505103
 40
0.9010012068505269
 40
0.953246256459026
 40
1.0
 40
1.0
 40
1.0
 40
1.0
 10
226.3014845383648
 20
107.9240427698186
 30
0.0
 10
226.2942458900908
 20
107.92701327219
 30
0.0
 10
226.2778924686422
 20
107.9337241766787
 30
0.0
 10
226.2498634716734
 20
107.9426082587553
 30
0.0
 10
226.216603517129
 20
107.9540962833922
 30
0.0
 10
226.1773135613307
 20
107.9659270790688
 30
0.0
 10
226.1322039406824
 20
107.9784424062694
 30
0.0
 10
226.0813497581669
 20
107.9926078591846
 30
0.0
 10
226.0247794302712
 20
108.0076720429996
 30
0.0
 10
225.9640973891817
 20
108.0237062258045
 30
0.0
 10
225.9028270193994
 20
108.0400105308535
 30
0.0
 10
225.8442903390255
 20
108.056330104572
 30
0.0
 10
225.7904338102464
 20
108.0728965623562
 30
0.0
 10
225.7408162753848
 20
108.0888477740028
 30
0.0
 10
225.6956935354074
 20
108.1048647952053
 30
0.0
 10
225.6549375216266
 20
108.1205091143417
 30
0.0
 10
225.6184974211779
 20
108.1354633289367
 30
0.0
 10
225.5962411950446
 20
108.1464589335472
 30
0.0
 10
225.5857303407632
 20
108.1516517814768
 30
0.0
  0
SPLINE
  5
179
330
1F
100
AcDbEntity
  8
0
  6
Continuous
 62
     7
370
     0
100
AcDbSpline
210
0.0
220
0.0
230
1.0
 70
     8
 71
     3
 72
    15
 73
    11
 74
     0
 42
0.00000001
 43
0.00000001
 40
0.0
 40
0.0
 40
0.0
 40
0.0
 40
0.1177675192120368
 40
0.230176448544057
 40
0.3398429589695384
 40
0.4506252599208614
 40
0.5669428888721625
 40
0.6960213064547937
 40
0.8394383602270619
 40
1.0
 40
1.0
 40
1.0
 40
1.0
 10
226.5204501698335
 20
107.6466314246872
 30
0.0
 10
226.5197564747183
 20
107.6614839391157
 30
0.0
 10
226.5184006486039
 20
107.6905131574093
 30
0.0
 10
226.5095651053199
 20
107.7327760729968
 30
0.0
 10
226.4927719067791
 20
107.7714589166463
 30
0.0
 10
226.470980801798
 20
107.808140541722
 30
0.0
 10
226.4406656541286
 20
107.841677940693
 30
0.0
 10
226.4023658861771
 20
107.8725796623142
 30
0.0
 10
226.3552376579448
 20
107.9005954623878
 30
0.0
 10
226.3200635258146
 20
107.9159385475168
 30
0.0
 10
226.3014845383648
 20
107.9240427698186
 30
0.0
  0
SPLINE
  5
17A
330
1F
100
AcDbEntity
  8
0
  6
Continuous
 62
     7
370
     0
100
AcDbSpline
210
0.0
220
0.0
230
1.0
 70
     8
 71
     3
 72
    19
 73
    15
 74
     0
 42
0.00000001
 43
0.00000001
 40
0.0
 40
0.0
 40
0.0
 40
0.0
 40
0.1055838864195047
 40
0.2058681332620123
 40
0.300946717742213
 40
0.3930019285950097
 40
0.4809485116065868
 40
0.5628738662802266
 40
0.6414613436333616
 40
0.7177416181792268
 40
0.7917717603087844
 40
0.8627163930302565
 40
0.9317768462002763
 40
1.0
 40
1.0
 40
1.0
 40
1.0
 10
226.0512381024006
 20
107.2881369415872
 30
0.0
 10
226.0744656843023
 20
107.2885668593889
 30
0.0
 10
226.1197549712234
 20
107.289405115853
 30
0.0
 10
226.1852709869725
 20
107.2994746527703
 30
0.0
 10
226.2469217481637
 20
107.3137580203767
 30
0.0
 10
226.3035598698395
 20
107.3353638500911
 30
0.0
 10
226.3549764197318
 20
107.3616001018847
 30
0.0
 10
226.3996259330471
 20
107.3933334636742
 30
0.0
 10
226.4377453124461
 20
107.4291199786681
 30
0.0
 10
226.4675955495654
 20
107.4699022438397
 30
0.0
 10
226.4910452998153
 20
107.5126352378279
 30
0.0
 10
226.5082481157644
 20
107.556560348395
 30
0.0
 10
226.5184954806635
 20
107.6014337710381
 30
0.0
 10
226.5198012614503
 20
107.6316269233037
 30
0.0
 10
226.5204501698335
 20
107.6466314246872
 30
0.0
  0
SPLINE
  5
17B
330
1F
100
AcDbEntity
  8
0
  6
Continuous
 62
     7
370
     0
100
AcDbSpline
210
0.0
220
0.0
230
1.0
 70
     8
 71
     3
 72
    19
 73
    15
 74
     0
 42
0.00000001
 43
0.00000001
 40
0.0
 40
0.0
 40
0.0
 40
0.0
 40
0.0937964706969321
 40
0.1801880710186105
 40
0.2603631916661885
 40
0.3348466760639744
 40
0.4070930058327154
 40
0.4814483792884674
 40
0.5592709137563652
 40
0.6422698113109349
 40
0.7285859445716477
 40
0.8159775452756136
 40
0.9060351298875359
 40
1.0
 40
1.0
 40
1.0
 40
1.0
 10
225.4931226958751
 20
107.7886298135156
 30
0.0
 10
225.496309877114
 20
107.7626134370112
 30
0.0
 10
225.5024326238992
 20
107.7126345768003
 30
0.0
 10
225.5195524354584
 20
107.6417970661119
 30
0.0
 10
225.5415867375584
 20
107.5781068741112
 30
0.0
 10
225.5690408705302
 20
107.5207187195109
 30
0.0
 10
225.6051557364011
 20
107.470320682826
 30
0.0
 10
225.6486679375064
 20
107.424862423377
 30
0.0
 10
225.7015111376058
 20
107.3854983233136
 30
0.0
 10
225.7611590645524
 20
107.3504668533225
 30
0.0
 10
225.8275902086783
 20
107.3229616087333
 30
0.0
 10
225.8985113797887
 20
107.3025715181692
 30
0.0
 10
225.9735843457229
 20
107.29049022704
 30
0.0
 10
226.024989692822
 20
107.2889323957038
 30
0.0
 10
226.0512381024006
 20
107.2881369415872
 30
0.0
  0
LINE
  5
17C
330
1F
100
AcDbEntity
  8
0
  6
Continuous
 62
     7
370
     0
100
AcDbLine
 10
225.2033636648
 20
107.7886298135
 30
0.0
 11
225.4931226959
 21
107.7886298135
 31
0.0
  0
SPLINE
  5
17D
330
1F
100
AcDbEntity
  8
0
  6
Continuous
 62
     7
370
     0
100
AcDbSpline
210
0.0
220
0.0
230
1.0
 70
     8
 71
     3
 72
    31
 73
    27
 74
     0
 42
0.00000001
 43
0.00000001
 40
0.0
 40
0.0
 40
0.0
 40
0.0
 40
0.0524925849212958
 40
0.1028254751380329
 40
0.1513973394924577
 40
0.1980330772483325
 40
0.2428758954632244
 40
0.2859991683849086
 40
0.3278486614843784
 40
0.3683945968796912
 40
0.4078519911389193
 40
0.4468375528599374
 40
0.4851660451611074
 40
0.5233414044713737
 40
0.5616022144094732
 40
0.5999198855663566
 40
0.6384964264110082
 40
0.6777905770472508
 40
0.7172899891758322
 40
0.7566052415928194
 40
0.7960678905323556
 40
0.8358862309537681
 40
0.8757136832726162
 40
0.9162634539474125
 40
0.9577596754778293
 40
1.0
 40
1.0
 40
1.0
 40
1.0
 10
226.0639973779185
 20
107.0510613706737
 30
0.0
 10
226.0416266326889
 20
107.0512459842674
 30
0.0
 10
225.997805538512
 20
107.0516076159248
 30
0.0
 10
225.9334153348493
 20
107.0559870893932
 30
0.0
 10
225.8717090258266
 20
107.0623222129964
 30
0.0
 10
225.8127471675861
 20
107.0717584501275
 30
0.0
 10
225.7567146586956
 20
107.084138280856
 30
0.0
 10
225.7034103678693
 20
107.0990040649636
 30
0.0
 10
225.6527079488678
 20
107.1161250801857
 30
0.0
 10
225.6047845575868
 20
107.1362590973384
 30
0.0
 10
225.5597652941098
 20
107.1596526258936
 30
0.0
 10
225.5168406665724
 20
107.1848883242435
 30
0.0
 10
225.4767123065445
 20
107.2134941709838
 30
0.0
 10
225.4392957388286
 20
107.2450206688604
 30
0.0
 10
225.4036429072038
 20
107.2785570454471
 30
0.0
 10
225.3712315154415
 20
107.3154728988134
 30
0.0
 10
225.3409596590198
 20
107.3546886763923
 30
0.0
 10
225.3135190411032
 20
107.3965632959115
 30
0.0
 10
225.2890050265602
 20
107.4405488988189
 30
0.0
 10
225.2669599433708
 20
107.4859067942073
 30
0.0
 10
225.2483866523277
 20
107.5329660181848
 30
0.0
 10
225.2334183470802
 20
107.5814887344576
 30
0.0
 10
225.2207394346866
 20
107.6311502284053
 30
0.0
 10
225.2119469019695
 20
107.6823648386425
 30
0.0
 10
225.2054823357571
 20
107.7349717697854
 30
0.0
 10
225.2040740598504
 20
107.7706381522682
 30
0.0
 10
225.2033636647587
 20
107.7886298135156
 30
0.0
  0
SPLINE
  5
17E
330
1F
100
AcDbEntity
  8
0
  6
Continuous
 62
     7
370
     0
100
AcDbSpline
210
0.0
220
0.0
230
1.0
 70
     8
 71
     3
 72
    23
 73
    19
 74
     0
 42
0.00000001
 43
0.00000001
 40
0.0
 40
0.0
 40
0.0
 40
0.0
 40
0.0748159666505558
 40
0.1485345605139197
 40
0.2238723272963846
 40
0.3012971209351247
 40
0.3408936290197579
 40
0.38034006206544
 40
0.4201265887284643
 40
0.4599499070829665
 40
0.5008311555562169
 40
0.5419071755971084
 40
0.5844387941530512
 40
0.6280801713306066
 40
0.7172666799070602
 40
0.8078600064218678
 40
0.9019246558363443
 40
1.0
 40
1.0
 40
1.0
 40
1.0
 10
226.8102092009499
 20
107.6606254688036
 30
0.0
 10
226.8091369154498
 20
107.6337729560064
 30
0.0
 10
226.8070080723347
 20
107.5804617930875
 30
0.0
 10
226.7886779653387
 20
107.5018786733861
 30
0.0
 10
226.7598823367196
 20
107.4257320690249
 30
0.0
 10
226.7261123293443
 20
107.3653055438895
 30
0.0
 10
226.6941894653567
 20
107.3191484602706
 30
0.0
 10
226.6673727537867
 20
107.2859728580514
 30
0.0
 10
226.6376345624298
 20
107.2552969583446
 30
0.0
 10
226.605707015373
 20
107.2261597434199
 30
0.0
 10
226.5713422253227
 20
107.1991557076901
 30
0.0
 10
226.5342504757819
 20
107.1742756557862
 30
0.0
 10
226.4948232526133
 20
107.1512605885964
 30
0.0
 10
226.4385221694053
 20
107.1232153814821
 30
0.0
 10
226.3637449775827
 20
107.0938774317329
 30
0.0
 10
226.26849384684
 20
107.0694457807192
 30
0.0
 10
226.1681106921559
 20
107.0535963645905
 30
0.0
 10
226.0991814216196
 20
107.0519180462815
 30
0.0
 10
226.0639973779185
 20
107.0510613706737
 30
0.0
  0
LINE
  5
17F
330
1F
100
AcDbEntity
  8
0
  6
Continuous
 62
     7
370
     0
100
AcDbLine
 10
211.945241633
 20
103.9163954886
 30
0.0
 11
211.4002970916
 21
105.6549496753
 31
0.0
  0
LINE
  5
180
330
1F
100
AcDbEntity
  8
0
  6
Continuous
 62
     7
370
     0
100
AcDbLine
 10
212.2481715292
 20
103.9163954886
 30
0.0
 11
211.945241633
 21
103.9163954886
 31
0.0
  0
LINE
  5
181
330
1F
100
AcDbEntity
  8
0
  6
Continuous
 62
     7
370
     0
100
AcDbLine
 10
212.796408787
 20
105.6549496753
 30
0.0
 11
212.2481715292
 21
103.9163954886
 31
0.0
  0
LINE
  5
182
330
1F
100
AcDbEntity
  8
0
  6
Continuous
 62
     7
370
     0
100
AcDbLine
 10
212.796408787
 20
103.9163954886
 30
0.0
 11
212.796408787
 21
105.6549496753
 31
0.0
  0
LINE
  5
183
330
1F
100
AcDbEntity
  8
0
  6
Continuous
 62
     7
370
     0
100
AcDbLine
 10
213.0861678181
 20
103.9163954886
 30
0.0
 11
212.796408787
 21
103.9163954886
 31
0.0
  0
LINE
  5
184
330
1F
100
AcDbEntity
  8
0
  6
Continuous
 62
     7
370
     0
100
AcDbLine
 10
213.0861678181
 20
105.9710504365
 30
0.0
 11
213.0861678181
 21
103.9163954886
 31
0.0
  0
LINE
  5
185
330
1F
100
AcDbEntity
  8
0
  6
Continuous
 62
     7
370
     0
100
AcDbLine
 10
212.6539988086
 20
105.9710504365
 30
0.0
 11
213.0861678181
 21
105.9710504365
 31
0.0
  0
LINE
  5
186
330
1F
100
AcDbEntity
  8
0
  6
Continuous
 62
     7
370
     0
100
AcDbLine
 10
212.1991923748
 20
104.553947675
 30
0.0
 11
212.6539988086
 21
105.9710504365
 31
0.0
  0
SPLINE
  5
187
330
1F
100
AcDbEntity
  8
0
  6
Continuous
 62
     7
370
     0
100
AcDbSpline
210
0.0
220
0.0
230
1.0
 70
     8
 71
     3
 72
    15
 73
    11
 74
     0
 42
0.00000001
 43
0.00000001
 40
0.0
 40
0.0
 40
0.0
 40
0.0
 40
0.0892047702332451
 40
0.1898334556643485
 40
0.2992325919749813
 40
0.4192609378429071
 40
0.5492073901909386
 40
0.6890743636843492
 40
0.8395791979483176
 40
1.0
 40
1.0
 40
1.0
 40
1.0
 10
212.0983529392645
 20
104.2275571754196
 30
0.0
 10
212.1012212768311
 20
104.2373019637915
 30
0.0
 10
212.1073252826018
 20
104.258039496622
 30
0.0
 10
212.1172208517097
 20
104.2906457121845
 30
0.0
 10
212.1277500189814
 20
104.3267281587363
 30
0.0
 10
212.1403502047854
 20
104.3656666378643
 30
0.0
 10
212.1534844072573
 20
104.4080719720831
 30
0.0
 10
212.1672704621094
 20
104.4539089451324
 30
0.0
 10
212.18317240792
 20
104.5027199298079
 30
0.0
 10
212.1937400456348
 20
104.5365125247263
 30
0.0
 10
212.1991923748093
 20
104.5539476749585
 30
0.0
  0
SPLINE
  5
188
330
1F
100
AcDbEntity
  8
0
  6
Continuous
 62
     7
370
     0
100
AcDbSpline
210
0.0
220
0.0
230
1.0
 70
     8
 71
     3
 72
    15
 73
    11
 74
     0
 42
0.00000001
 43
0.00000001
 40
0.0
 40
0.0
 40
0.0
 40
0.0
 40
0.1625255217041868
 40
0.3143148980392372
 40
0.4549784905465745
 40
0.5845192373661998
 40
0.7045671033090736
 40
0.8134949897289286
 40
0.9116812596826069
 40
0.9999999999999999
 40
0.9999999999999999
 40
0.9999999999999999
 40
0.9999999999999999
 10
212.0057452943765
 20
104.5292523029883
 30
0.0
 10
212.0108002836784
 20
104.5129192428146
 30
0.0
 10
212.0205763387273
 20
104.4813320552187
 30
0.0
 10
212.0350730685177
 20
104.435717249801
 30
0.0
 10
212.0482626623135
 20
104.3933285127556
 30
0.0
 10
212.0601419684429
 20
104.3540309184966
 30
0.0
 10
212.071352623115
 20
104.318019577783
 30
0.0
 10
212.0810592836346
 20
104.2849989910035
 30
0.0
 10
212.0903391668843
 20
104.2553360902828
 30
0.0
 10
212.0957775931371
 20
104.2364843469718
 30
0.0
 10
212.0983529392645
 20
104.2275571754196
 30
0.0
  0
LINE
  5
189
330
1F
100
AcDbEntity
  8
0
  6
Continuous
 62
     7
370
     0
100
AcDbLine
 10
211.5464113757
 20
105.9710504365
 30
0.0
 11
212.0057452944
 21
104.529252303
 31
0.0
  0
LINE
  5
18A
330
1F
100
AcDbEntity
  8
0
  6
Continuous
 62
     7
370
     0
100
AcDbLine
 10
211.1105380605
 20
105.9710504365
 30
0.0
 11
211.5464113757
 21
105.9710504365
 31
0.0
  0
LINE
  5
18B
330
1F
100
AcDbEntity
  8
0
  6
Continuous
 62
     7
370
     0
100
AcDbLine
 10
211.1105380605
 20
103.9163954886
 30
0.0
 11
211.1105380605
 21
105.9710504365
 31
0.0
  0
LINE
  5
18C
330
1F
100
AcDbEntity
  8
0
  6
Continuous
 62
     7
370
     0
100
AcDbLine
 10
211.4002970916
 20
103.9163954886
 30
0.0
 11
211.1105380605
 21
103.9163954886
 31
0.0
  0
LINE
  5
18D
330
1F
100
AcDbEntity
  8
0
  6
Continuous
 62
     7
370
     0
100
AcDbLine
 10
211.4002970916
 20
105.6549496753
 30
0.0
 11
211.4002970916
 21
103.9163954886
 31
0.0
  0
SPLINE
  5
18E
330
1F
100
AcDbEntity
  8
0
  6
Continuous
 62
     7
370
     0
100
AcDbSpline
210
0.0
220
0.0
230
1.0
 70
     8
 71
     3
 72
    31
 73
    27
 74
     0
 42
0.00000001
 43
0.00000001
 40
0.0
 40
0.0
 40
0.0
 40
0.0
 40
0.0628739462114324
 40
0.1228366299919128
 40
0.1796565674430314
 40
0.233960012230862
 40
0.2855950186955586
 40
0.3345131060783809
 40
0.3809048259061764
 40
0.4248945919393347
 40
0.4665290347654873
 40
0.5064882940692464
 40
0.5450315536447543
 40
0.5818311798231344
 40
0.617448279949443
 40
0.652066912769046
 40
0.6858797142465105
 40
0.7191745547913924
 40
0.7521816462063929
 40
0.7852401639180909
 40
0.8186564497770833
 40
0.8525477406533113
 40
0.887626342258519
 40
0.923635078068751
 40
0.9610218444769891
 40
1.0
 40
1.0
 40
1.0
 40
1.0
 10
216.2998588904531
 20
104.9297289184376
 30
0.0
 10
216.2995885262171
 20
104.9005039350947
 30
0.0
 10
216.2990603164638
 20
104.8434071775069
 30
0.0
 10
216.2959226001874
 20
104.7599350666282
 30
0.0
 10
216.2899543807105
 20
104.6806271973456
 30
0.0
 10
216.2826103776047
 20
104.6053018984051
 30
0.0
 10
216.2715004391883
 20
104.5341602529032
 30
0.0
 10
216.259528878598
 20
104.4668999988095
 30
0.0
 10
216.2447230152727
 20
104.4038265569132
 30
0.0
 10
216.2274480488237
 20
104.3449122837503
 30
0.0
 10
216.2079925138837
 20
104.2898456618606
 30
0.0
 10
216.1866565092427
 20
104.2382105283273
 30
0.0
 10
216.1630248354392
 20
104.1900421660879
 30
0.0
 10
216.1363941246078
 20
104.1458103851879
 30
0.0
 10
216.1079828524088
 20
104.1049280827898
 30
0.0
 10
216.0775829364802
 20
104.067241900187
 30
0.0
 10
216.0445498630148
 20
104.0332942504783
 30
0.0
 10
216.0089170108422
 20
104.0032756780608
 30
0.0
 10
215.971406740521
 20
103.9762351745065
 30
0.0
 10
215.9312728831556
 20
103.9530826934439
 30
0.0
 10
215.8886910983845
 20
103.933901265023
 30
0.0
 10
215.8439458915084
 20
103.9175020966847
 30
0.0
 10
215.7965832578513
 20
103.9054857479881
 30
0.0
 10
215.7469766947345
 20
103.8962874208295
 30
0.0
 10
215.6949434253563
 20
103.8908707796816
 30
0.0
 10
215.6594382013617
 20
103.8903298563721
 30
0.0
 10
215.6413156379157
 20
103.8900537584942
 30
0.0
  0
SPLINE
  5
18F
330
1F
100
AcDbEntity
  8
0
  6
Continuous
 62
     7
370
     0
100
AcDbSpline
210
0.0
220
0.0
230
1.0
 70
     8
 71
     3
 72
    27
 73
    23
 74
     0
 42
0.00000001
 43
0.00000001
 40
0.0
 40
0.0
 40
0.0
 40
0.0
 40
0.0567243372181508
 40
0.1114372357370108
 40
0.1643678222229016
 40
0.21643537246209
 40
0.2676414903219249
 40
0.3173597799690281
 40
0.3674730633322806
 40
0.4182103970528083
 40
0.4714042826470201
 40
0.5279657201290494
 40
0.5880611158232139
 40
0.6521342629937146
 40
0.6863448363353056
 40
0.7232636803169652
 40
0.762610250771542
 40
0.8047389366452182
 40
0.8494303387909499
 40
0.8967112583864923
 40
0.9468896380534765
 40
1.0
 40
1.0
 40
1.0
 40
1.0
 10
215.6413156379157
 20
105.9710504365124
 30
0.0
 10
215.6677028270251
 20
105.9702746718276
 30
0.0
 10
215.7195415184479
 20
105.9687506509876
 30
0.0
 10
215.7952262756258
 20
105.9563210135622
 30
0.0
 10
215.866554281271
 20
105.9350582030547
 30
0.0
 10
215.9334791940978
 20
105.906373754408
 30
0.0
 10
215.9948569430893
 20
105.8699389838301
 30
0.0
 10
216.0496698599226
 20
105.8256469691815
 30
0.0
 10
216.0973266987513
 20
105.7739627678692
 30
0.0
 10
216.1373073589236
 20
105.7142739390547
 30
0.0
 10
216.1722544466419
 20
105.6482270992422
 30
0.0
 10
216.203300672217
 20
105.5755258058496
 30
0.0
 10
216.2313655583916
 20
105.496251528886
 30
0.0
 10
216.2512810125753
 20
105.4252899842107
 30
0.0
 10
216.2654866896922
 20
105.3640334609155
 30
0.0
 10
216.2748897192584
 20
105.313510813335
 30
0.0
 10
216.2826961189128
 20
105.2589965921661
 30
0.0
 10
216.2886768760427
 20
105.2006226819846
 30
0.0
 10
216.2935839461545
 20
105.1384545543251
 30
0.0
 10
216.2973734515125
 20
105.0724535021219
 30
0.0
 10
216.2992970134867
 20
105.0024545669742
 30
0.0
 10
216.2996680869998
 20
104.9544252589451
 30
0.0
 10
216.2998588904531
 20
104.9297289184376
 30
0.0
  0
SPLINE
  5
190
330
1F
100
AcDbEntity
  8
0
  6
Continuous
 62
     7
370
     0
100
AcDbSpline
210
0.0
220
0.0
230
1.0
 70
     8
 71
     3
 72
    31
 73
    27
 74
     0
 42
0.00000001
 43
0.00000001
 40
0.0
 40
0.0
 40
0.0
 40
0.0
 40
0.0631144583947934
 40
0.12361464576949
 40
0.1809737111859576
 40
0.2352614550083222
 40
0.287100701833872
 40
0.3360307363034436
 40
0.3823823485850662
 40
0.4263340836597073
 40
0.4682106947981602
 40
0.5082496012618052
 40
0.5466283366065849
 40
0.5836495392304463
 40
0.6189943150301618
 40
0.6535830186205963
 40
0.6871561361903312
 40
0.7204221919788076
 40
0.7532302188118171
 40
0.7862601560778999
 40
0.8195039834988841
 40
0.8535452747120184
 40
0.8883082803397299
 40
0.9239958607406951
 40
0.961350304754645
 40
1.0
 40
1.0
 40
1.0
 40
1.0
 10
214.9827723853783
 20
104.9297289184376
 30
0.0
 10
214.9830377783667
 20
104.9590918236398
 30
0.0
 10
214.9835575714709
 20
105.016601389873
 30
0.0
 10
214.9867816792362
 20
105.1007482165192
 30
0.0
 10
214.9924107101411
 20
105.1806589735586
 30
0.0
 10
215.0008133036437
 20
105.2562642622325
 30
0.0
 10
215.0107635485862
 20
105.3277347385349
 30
0.0
 10
215.0236989297848
 20
105.3949684067253
 30
0.0
 10
215.0382531141287
 20
105.4581161163698
 30
0.0
 10
215.055715523552
 20
105.5171120462108
 30
0.0
 10
215.0749009948975
 20
105.572463453851
 30
0.0
 10
215.0966675242156
 20
105.6240815431363
 30
0.0
 10
215.1211578224097
 20
105.6719115867425
 30
0.0
 10
215.1471683435456
 20
105.7164496090481
 30
0.0
 10
215.1760683347789
 20
105.7570028605073
 30
0.0
 10
215.206113450588
 20
105.7947094313704
 30
0.0
 10
215.2394871905983
 20
105.8281864745562
 30
0.0
 10
215.2748018031088
 20
105.8582953574194
 30
0.0
 10
215.3125773049446
 20
105.8848646918921
 30
0.0
 10
215.3526138261971
 20
105.9077908228255
 30
0.0
 10
215.394757317224
 20
105.9280329433758
 30
0.0
 10
215.4398109863589
 20
105.9432712064379
 30
0.0
 10
215.4868395280896
 20
105.9556936212003
 30
0.0
 10
215.5362049437423
 20
105.9648317001214
 30
0.0
 10
215.5879616332435
 20
105.9702189060386
 30
0.0
 10
215.6233300552302
 20
105.9707701284046
 30
0.0
 10
215.6413156379157
 20
105.9710504365124
 30
0.0
  0
SPLINE
  5
191
330
1F
100
AcDbEntity
  8
0
  6
Continuous
 62
     7
370
     0
100
AcDbSpline
210
0.0
220
0.0
230
1.0
 70
     8
 71
     3
 72
    15
 73
    11
 74
     0
 42
0.00000001
 43
0.00000001
 40
0.0
 40
0.0
 40
0.0
 40
0.0
 40
0.0974206681772145
 40
0.2008855880393207
 40
0.3111719701726504
 40
0.4297979458253723
 40
0.5577399263645877
 40
0.6947152693641585
 40
0.8421299102060552
 40
1.0
 40
1.0
 40
1.0
 40
1.0
 10
215.1823933088037
 20
104.0880283237883
 30
0.0
 10
215.1661095518851
 20
104.1115178820363
 30
0.0
 10
215.1325317480648
 20
104.1599543566542
 30
0.0
 10
215.0932318400554
 20
104.242543038937
 30
0.0
 10
215.0581756263153
 20
104.3334615824366
 30
0.0
 10
215.0306629259033
 20
104.4344937981985
 30
0.0
 10
215.0091136231343
 20
104.544835583997
 30
0.0
 10
214.993549646338
 20
104.6647034539199
 30
0.0
 10
214.9847419677293
 20
104.7940456210931
 30
0.0
 10
214.9834437335516
 20
104.8834801623188
 30
0.0
 10
214.9827723853783
 20
104.9297289184376
 30
0.0
  0
SPLINE
  5
192
330
1F
100
AcDbEntity
  8
0
  6
Continuous
 62
     7
370
     0
100
AcDbSpline
210
0.0
220
0.0
230
1.0
 70
     8
 71
     3
 72
    15
 73
    11
 74
     0
 42
0.00000001
 43
0.00000001
 40
0.0
 40
0.0
 40
0.0
 40
0.0
 40
0.1379032299933934
 40
0.2688733426002937
 40
0.3951781273461133
 40
0.5170892381308875
 40
0.6367430265135471
 40
0.7562218164637977
 40
0.87662835946368
 40
1.0
 40
1.0
 40
1.0
 40
1.0
 10
215.6413156379157
 20
103.8900537584942
 30
0.0
 10
215.617554855978
 20
103.8907315360554
 30
0.0
 10
215.571227871014
 20
103.8920530157511
 30
0.0
 10
215.5035707254285
 20
103.9010316563135
 30
0.0
 10
215.4400708855052
 20
103.9168344852663
 30
0.0
 10
215.3801927664588
 20
103.9380283071909
 30
0.0
 10
215.3246094147196
 20
103.9663762644716
 30
0.0
 10
215.2730554418845
 20
104.0008670900015
 30
0.0
 10
215.2244949080354
 20
104.0406983182956
 30
0.0
 10
215.1965405125496
 20
104.0721242431069
 30
0.0
 10
215.1823933088037
 20
104.0880283237883
 30
0.0
  0
LINE
  5
193
330
1F
100
AcDbEntity
  8
0
  6
Continuous
 62
     7
370
     0
100
AcDbLine
 10
218.0910965374
 20
104.7593308518
 30
0.0
 11
218.8550067103
 21
104.7593308518
 31
0.0
  0
LINE
  5
194
330
1F
100
AcDbEntity
  8
0
  6
Continuous
 62
     7
370
     0
100
AcDbLine
 10
218.0910965374
 20
104.5222552809
 30
0.0
 11
218.0910965374
 21
104.7593308518
 31
0.0
  0
LINE
  5
195
330
1F
100
AcDbEntity
  8
0
  6
Continuous
 62
     7
370
     0
100
AcDbLine
 10
218.8550067103
 20
104.5222552809
 30
0.0
 11
218.0910965374
 21
104.5222552809
 31
0.0
  0
LINE
  5
196
330
1F
100
AcDbEntity
  8
0
  6
Continuous
 62
     7
370
     0
100
AcDbLine
 10
218.8550067103
 20
104.7593308518
 30
0.0
 11
218.8550067103
 21
104.5222552809
 31
0.0
  0
SPLINE
  5
197
330
1F
100
AcDbEntity
  8
0
  6
Continuous
 62
     7
370
     0
100
AcDbSpline
210
0.0
220
0.0
230
1.0
 70
     8
 71
     3
 72
    31
 73
    27
 74
     0
 42
0.00000001
 43
0.00000001
 40
0.0
 40
0.0
 40
0.0
 40
0.0
 40
0.0628739462114324
 40
0.1228366299919129
 40
0.1796565674430314
 40
0.233960012230862
 40
0.2855950186955589
 40
0.3345131060783805
 40
0.3809048259061762
 40
0.4248945919393347
 40
0.4665290347654872
 40
0.5064882940692462
 40
0.5450315536447543
 40
0.5818311798231344
 40
0.6174482799494428
 40
0.6520669127690459
 40
0.6858797142465104
 40
0.719174554791392
 40
0.7521816462063926
 40
0.7852401639180911
 40
0.8186564497770833
 40
0.852547740653311
 40
0.8876263422585189
 40
0.923635078068751
 40
0.9610218444769894
 40
1.0
 40
1.0
 40
1.0
 40
1.0
 10
221.9896725923762
 20
104.9297289184376
 30
0.0
 10
221.9894022281402
 20
104.9005039350947
 30
0.0
 10
221.9888740183868
 20
104.8434071775069
 30
0.0
 10
221.9857363021105
 20
104.7599350666282
 30
0.0
 10
221.9797680826336
 20
104.6806271973456
 30
0.0
 10
221.9724240795278
 20
104.6053018984051
 30
0.0
 10
221.9613141411113
 20
104.5341602529032
 30
0.0
 10
221.9493425805211
 20
104.4668999988095
 30
0.0
 10
221.9345367171958
 20
104.4038265569132
 30
0.0
 10
221.9172617507468
 20
104.3449122837503
 30
0.0
 10
221.8978062158068
 20
104.2898456618606
 30
0.0
 10
221.8764702111658
 20
104.2382105283273
 30
0.0
 10
221.8528385373623
 20
104.1900421660879
 30
0.0
 10
221.8262078265309
 20
104.1458103851879
 30
0.0
 10
221.7977965543319
 20
104.1049280827898
 30
0.0
 10
221.7673966384033
 20
104.067241900187
 30
0.0
 10
221.7343635649379
 20
104.0332942504783
 30
0.0
 10
221.6987307127653
 20
104.0032756780608
 30
0.0
 10
221.6612204424441
 20
103.9762351745065
 30
0.0
 10
221.6210865850787
 20
103.9530826934439
 30
0.0
 10
221.5785048003076
 20
103.933901265023
 30
0.0
 10
221.5337595934315
 20
103.9175020966847
 30
0.0
 10
221.4863969597744
 20
103.9054857479881
 30
0.0
 10
221.4367903966576
 20
103.8962874208295
 30
0.0
 10
221.3847571272794
 20
103.8908707796816
 30
0.0
 10
221.3492519032847
 20
103.8903298563721
 30
0.0
 10
221.3311293398388
 20
103.8900537584942
 30
0.0
  0
SPLINE
  5
198
330
1F
100
AcDbEntity
  8
0
  6
Continuous
 62
     7
370
     0
100
AcDbSpline
210
0.0
220
0.0
230
1.0
 70
     8
 71
     3
 72
    27
 73
    23
 74
     0
 42
0.00000001
 43
0.00000001
 40
0.0
 40
0.0
 40
0.0
 40
0.0
 40
0.0567243372181508
 40
0.1114372357370108
 40
0.1643678222229013
 40
0.21643537246209
 40
0.2676414903219251
 40
0.3173597799690279
 40
0.3674730633322809
 40
0.4182103970528082
 40
0.4714042826470201
 40
0.5279657201290494
 40
0.5880611158232139
 40
0.6521342629937146
 40
0.6863448363353056
 40
0.7232636803169653
 40
0.762610250771542
 40
0.8047389366452182
 40
0.84943033879095
 40
0.8967112583864923
 40
0.9468896380534765
 40
1.0
 40
1.0
 40
1.0
 40
1.0
 10
221.3311293398388
 20
105.9710504365124
 30
0.0
 10
221.3575165289481
 20
105.9702746718276
 30
0.0
 10
221.409355220371
 20
105.9687506509876
 30
0.0
 10
221.4850399775489
 20
105.9563210135622
 30
0.0
 10
221.5563679831941
 20
105.9350582030546
 30
0.0
 10
221.6232928960209
 20
105.906373754408
 30
0.0
 10
221.6846706450124
 20
105.8699389838301
 30
0.0
 10
221.7394835618456
 20
105.8256469691815
 30
0.0
 10
221.7871404006744
 20
105.7739627678692
 30
0.0
 10
221.8271210608467
 20
105.7142739390547
 30
0.0
 10
221.862068148565
 20
105.6482270992422
 30
0.0
 10
221.8931143741401
 20
105.5755258058496
 30
0.0
 10
221.9211792603147
 20
105.496251528886
 30
0.0
 10
221.9410947144984
 20
105.4252899842107
 30
0.0
 10
221.9553003916152
 20
105.3640334609155
 30
0.0
 10
221.9647034211815
 20
105.313510813335
 30
0.0
 10
221.9725098208359
 20
105.2589965921661
 30
0.0
 10
221.9784905779658
 20
105.2006226819846
 30
0.0
 10
221.9833976480775
 20
105.1384545543251
 30
0.0
 10
221.9871871534356
 20
105.0724535021219
 30
0.0
 10
221.9891107154098
 20
105.0024545669742
 30
0.0
 10
221.9894817889229
 20
104.9544252589451
 30
0.0
 10
221.9896725923762
 20
104.9297289184376
 30
0.0
  0
SPLINE
  5
199
330
1F
100
AcDbEntity
  8
0
  6
Continuous
 62
     7
370
     0
100
AcDbSpline
210
0.0
220
0.0
230
1.0
 70
     8
 71
     3
 72
    31
 73
    27
 74
     0
 42
0.00000001
 43
0.00000001
 40
0.0
 40
0.0
 40
0.0
 40
0.0
 40
0.0631144583947934
 40
0.12361464576949
 40
0.1809737111859576
 40
0.2352614550083222
 40
0.287100701833872
 40
0.3360307363034436
 40
0.3823823485850663
 40
0.4263340836597073
 40
0.4682106947981602
 40
0.5082496012618052
 40
0.546628336606585
 40
0.5836495392304463
 40
0.6189943150301618
 40
0.6535830186205961
 40
0.6871561361903314
 40
0.7204221919788075
 40
0.753230218811817
 40
0.7862601560779
 40
0.8195039834988841
 40
0.8535452747120184
 40
0.8883082803397299
 40
0.9239958607406952
 40
0.961350304754645
 40
1.0
 40
1.0
 40
1.0
 40
1.0
 10
220.6725860873014
 20
104.9297289184376
 30
0.0
 10
220.6728514802898
 20
104.9590918236398
 30
0.0
 10
220.6733712733939
 20
105.016601389873
 30
0.0
 10
220.6765953811593
 20
105.1007482165192
 30
0.0
 10
220.6822244120641
 20
105.1806589735586
 30
0.0
 10
220.6906270055668
 20
105.2562642622325
 30
0.0
 10
220.7005772505093
 20
105.3277347385349
 30
0.0
 10
220.7135126317079
 20
105.3949684067253
 30
0.0
 10
220.7280668160517
 20
105.4581161163698
 30
0.0
 10
220.7455292254751
 20
105.5171120462108
 30
0.0
 10
220.7647146968206
 20
105.572463453851
 30
0.0
 10
220.7864812261387
 20
105.6240815431363
 30
0.0
 10
220.8109715243328
 20
105.6719115867425
 30
0.0
 10
220.8369820454686
 20
105.7164496090481
 30
0.0
 10
220.8658820367019
 20
105.7570028605073
 30
0.0
 10
220.8959271525111
 20
105.7947094313704
 30
0.0
 10
220.9293008925214
 20
105.8281864745562
 30
0.0
 10
220.9646155050319
 20
105.8582953574194
 30
0.0
 10
221.0023910068677
 20
105.8848646918921
 30
0.0
 10
221.0424275281202
 20
105.9077908228255
 30
0.0
 10
221.084571019147
 20
105.9280329433758
 30
0.0
 10
221.129624688282
 20
105.9432712064379
 30
0.0
 10
221.1766532300127
 20
105.9556936212003
 30
0.0
 10
221.2260186456654
 20
105.9648317001214
 30
0.0
 10
221.2777753351666
 20
105.9702189060386
 30
0.0
 10
221.3131437571533
 20
105.9707701284046
 30
0.0
 10
221.3311293398388
 20
105.9710504365124
 30
0.0
  0
SPLINE
  5
19A
330
1F
100
AcDbEntity
  8
0
  6
Continuous
 62
     7
370
     0
100
AcDbSpline
210
0.0
220
0.0
230
1.0
 70
     8
 71
     3
 72
    15
 73
    11
 74
     0
 42
0.00000001
 43
0.00000001
 40
0.0
 40
0.0
 40
0.0
 40
0.0
 40
0.0974206681772144
 40
0.2008855880393207
 40
0.3111719701726504
 40
0.4297979458253729
 40
0.5577399263645872
 40
0.6947152693641585
 40
0.8421299102060553
 40
1.0
 40
1.0
 40
1.0
 40
1.0
 10
220.8722070107268
 20
104.0880283237883
 30
0.0
 10
220.8559232538082
 20
104.1115178820363
 30
0.0
 10
220.8223454499879
 20
104.1599543566542
 30
0.0
 10
220.7830455419785
 20
104.242543038937
 30
0.0
 10
220.7479893282384
 20
104.3334615824366
 30
0.0
 10
220.7204766278264
 20
104.4344937981985
 30
0.0
 10
220.6989273250574
 20
104.544835583997
 30
0.0
 10
220.6833633482611
 20
104.6647034539199
 30
0.0
 10
220.6745556696524
 20
104.7940456210931
 30
0.0
 10
220.6732574354747
 20
104.8834801623188
 30
0.0
 10
220.6725860873014
 20
104.9297289184376
 30
0.0
  0
SPLINE
  5
19B
330
1F
100
AcDbEntity
  8
0
  6
Continuous
 62
     7
370
     0
100
AcDbSpline
210
0.0
220
0.0
230
1.0
 70
     8
 71
     3
 72
    15
 73
    11
 74
     0
 42
0.00000001
 43
0.00000001
 40
0.0
 40
0.0
 40
0.0
 40
0.0
 40
0.1379032299933933
 40
0.2688733426002935
 40
0.3951781273461131
 40
0.5170892381308876
 40
0.6367430265135475
 40
0.7562218164637967
 40
0.8766283594636793
 40
1.0
 40
1.0
 40
1.0
 40
1.0
 10
221.3311293398388
 20
103.8900537584942
 30
0.0
 10
221.3073685579011
 20
103.8907315360554
 30
0.0
 10
221.2610415729371
 20
103.8920530157511
 30
0.0
 10
221.1933844273516
 20
103.9010316563135
 30
0.0
 10
221.1298845874283
 20
103.9168344852663
 30
0.0
 10
221.0700064683819
 20
103.9380283071909
 30
0.0
 10
221.0144231166427
 20
103.9663762644716
 30
0.0
 10
220.9628691438076
 20
104.0008670900015
 30
0.0
 10
220.9143086099585
 20
104.0406983182956
 30
0.0
 10
220.8863542144727
 20
104.0721242431069
 30
0.0
 10
220.8722070107268
 20
104.0880283237883
 30
0.0
  0
LINE
  5
19C
330
1F
100
AcDbEntity
  8
0
  6
Continuous
 62
     7
370
     0
100
AcDbLine
 10
223.7809102393
 20
104.7593308518
 30
0.0
 11
224.5448204122
 21
104.7593308518
 31
0.0
  0
LINE
  5
19D
330
1F
100
AcDbEntity
  8
0
  6
Continuous
 62
     7
370
     0
100
AcDbLine
 10
223.7809102393
 20
104.5222552809
 30
0.0
 11
223.7809102393
 21
104.7593308518
 31
0.0
  0
LINE
  5
19E
330
1F
100
AcDbEntity
  8
0
  6
Continuous
 62
     7
370
     0
100
AcDbLine
 10
224.5448204122
 20
104.5222552809
 30
0.0
 11
223.7809102393
 21
104.5222552809
 31
0.0
  0
LINE
  5
19F
330
1F
100
AcDbEntity
  8
0
  6
Continuous
 62
     7
370
     0
100
AcDbLine
 10
224.5448204122
 20
104.7593308518
 30
0.0
 11
224.5448204122
 21
104.5222552809
 31
0.0
  0
SPLINE
  5
1A0
330
1F
100
AcDbEntity
  8
0
  6
Continuous
 62
     7
370
     0
100
AcDbSpline
210
0.0
220
0.0
230
1.0
 70
     8
 71
     3
 72
    31
 73
    27
 74
     0
 42
0.00000001
 43
0.00000001
 40
0.0
 40
0.0
 40
0.0
 40
0.0
 40
0.0628739462114324
 40
0.1228366299919129
 40
0.1796565674430315
 40
0.2339600122308621
 40
0.2855950186955591
 40
0.3345131060783806
 40
0.3809048259061764
 40
0.4248945919393348
 40
0.4665290347654876
 40
0.5064882940692463
 40
0.5450315536447548
 40
0.5818311798231349
 40
0.6174482799494435
 40
0.652066912769046
 40
0.685879714246511
 40
0.7191745547913925
 40
0.7521816462063932
 40
0.7852401639180917
 40
0.8186564497770835
 40
0.852547740653311
 40
0.8876263422585192
 40
0.9236350780687517
 40
0.9610218444769894
 40
1.0
 40
1.0
 40
1.0
 40
1.0
 10
227.9955870555172
 20
104.9297289184376
 30
0.0
 10
227.9953166912812
 20
104.9005039350947
 30
0.0
 10
227.9947884815279
 20
104.8434071775069
 30
0.0
 10
227.9916507652515
 20
104.7599350666282
 30
0.0
 10
227.9856825457746
 20
104.6806271973456
 30
0.0
 10
227.9783385426688
 20
104.6053018984051
 30
0.0
 10
227.9672286042524
 20
104.5341602529032
 30
0.0
 10
227.9552570436622
 20
104.4668999988095
 30
0.0
 10
227.9404511803369
 20
104.4038265569132
 30
0.0
 10
227.9231762138878
 20
104.3449122837503
 30
0.0
 10
227.9037206789478
 20
104.2898456618606
 30
0.0
 10
227.8823846743068
 20
104.2382105283273
 30
0.0
 10
227.8587530005033
 20
104.1900421660879
 30
0.0
 10
227.8321222896719
 20
104.1458103851879
 30
0.0
 10
227.8037110174729
 20
104.1049280827898
 30
0.0
 10
227.7733111015443
 20
104.067241900187
 30
0.0
 10
227.7402780280789
 20
104.0332942504783
 30
0.0
 10
227.7046451759063
 20
104.0032756780608
 30
0.0
 10
227.6671349055851
 20
103.9762351745065
 30
0.0
 10
227.6270010482197
 20
103.9530826934439
 30
0.0
 10
227.5844192634486
 20
103.933901265023
 30
0.0
 10
227.5396740565725
 20
103.9175020966847
 30
0.0
 10
227.4923114229154
 20
103.9054857479881
 30
0.0
 10
227.4427048597987
 20
103.8962874208295
 30
0.0
 10
227.3906715904204
 20
103.8908707796816
 30
0.0
 10
227.3551663664258
 20
103.8903298563721
 30
0.0
 10
227.3370438029798
 20
103.8900537584942
 30
0.0
  0
SPLINE
  5
1A1
330
1F
100
AcDbEntity
  8
0
  6
Continuous
 62
     7
370
     0
100
AcDbSpline
210
0.0
220
0.0
230
1.0
 70
     8
 71
     3
 72
    27
 73
    23
 74
     0
 42
0.00000001
 43
0.00000001
 40
0.0
 40
0.0
 40
0.0
 40
0.0
 40
0.0567243372181508
 40
0.1114372357370111
 40
0.1643678222229013
 40
0.2164353724620895
 40
0.2676414903219251
 40
0.3173597799690279
 40
0.3674730633322808
 40
0.4182103970528078
 40
0.4714042826470199
 40
0.5279657201290492
 40
0.5880611158232136
 40
0.6521342629937142
 40
0.6863448363353056
 40
0.7232636803169652
 40
0.7626102507715418
 40
0.8047389366452182
 40
0.8494303387909499
 40
0.8967112583864923
 40
0.9468896380534765
 40
1.0
 40
1.0
 40
1.0
 40
1.0
 10
227.3370438029798
 20
105.9710504365124
 30
0.0
 10
227.3634309920892
 20
105.9702746718276
 30
0.0
 10
227.415269683512
 20
105.9687506509876
 30
0.0
 10
227.4909544406899
 20
105.9563210135622
 30
0.0
 10
227.5622824463351
 20
105.9350582030546
 30
0.0
 10
227.6292073591619
 20
105.906373754408
 30
0.0
 10
227.6905851081534
 20
105.8699389838301
 30
0.0
 10
227.7453980249867
 20
105.8256469691815
 30
0.0
 10
227.7930548638154
 20
105.7739627678692
 30
0.0
 10
227.8330355239877
 20
105.7142739390547
 30
0.0
 10
227.867982611706
 20
105.6482270992422
 30
0.0
 10
227.8990288372812
 20
105.5755258058496
 30
0.0
 10
227.9270937234558
 20
105.496251528886
 30
0.0
 10
227.9470091776394
 20
105.4252899842107
 30
0.0
 10
227.9612148547563
 20
105.3640334609155
 30
0.0
 10
227.9706178843225
 20
105.313510813335
 30
0.0
 10
227.9784242839769
 20
105.2589965921661
 30
0.0
 10
227.9844050411068
 20
105.2006226819846
 30
0.0
 10
227.9893121112185
 20
105.1384545543251
 30
0.0
 10
227.9931016165766
 20
105.0724535021219
 30
0.0
 10
227.9950251785508
 20
105.0024545669742
 30
0.0
 10
227.9953962520639
 20
104.9544252589451
 30
0.0
 10
227.9955870555172
 20
104.9297289184376
 30
0.0
  0
SPLINE
  5
1A2
330
1F
100
AcDbEntity
  8
0
  6
Continuous
 62
     7
370
     0
100
AcDbSpline
210
0.0
220
0.0
230
1.0
 70
     8
 71
     3
 72
    31
 73
    27
 74
     0
 42
0.00000001
 43
0.00000001
 40
0.0
 40
0.0
 40
0.0
 40
0.0
 40
0.0631144583947934
 40
0.1236146457694899
 40
0.1809737111859575
 40
0.235261455008322
 40
0.2871007018338719
 40
0.3360307363034434
 40
0.3823823485850662
 40
0.426334083659707
 40
0.4682106947981599
 40
0.5082496012618049
 40
0.5466283366065846
 40
0.5836495392304459
 40
0.6189943150301614
 40
0.6535830186205956
 40
0.687156136190331
 40
0.7204221919788075
 40
0.7532302188118168
 40
0.7862601560778997
 40
0.8195039834988835
 40
0.8535452747120178
 40
0.8883082803397293
 40
0.9239958607406945
 40
0.9613503047546453
 40
1.0
 40
1.0
 40
1.0
 40
1.0
 10
226.6785005504424
 20
104.9297289184376
 30
0.0
 10
226.6787659434308
 20
104.9590918236398
 30
0.0
 10
226.679285736535
 20
105.016601389873
 30
0.0
 10
226.6825098443003
 20
105.1007482165192
 30
0.0
 10
226.6881388752052
 20
105.1806589735586
 30
0.0
 10
226.6965414687078
 20
105.2562642622325
 30
0.0
 10
226.7064917136503
 20
105.3277347385349
 30
0.0
 10
226.719427094849
 20
105.3949684067253
 30
0.0
 10
226.7339812791928
 20
105.4581161163698
 30
0.0
 10
226.7514436886161
 20
105.5171120462108
 30
0.0
 10
226.7706291599616
 20
105.572463453851
 30
0.0
 10
226.7923956892797
 20
105.6240815431363
 30
0.0
 10
226.8168859874738
 20
105.6719115867425
 30
0.0
 10
226.8428965086097
 20
105.7164496090481
 30
0.0
 10
226.871796499843
 20
105.7570028605073
 30
0.0
 10
226.9018416156521
 20
105.7947094313704
 30
0.0
 10
226.9352153556625
 20
105.8281864745562
 30
0.0
 10
226.9705299681729
 20
105.8582953574194
 30
0.0
 10
227.0083054700087
 20
105.8848646918921
 30
0.0
 10
227.0483419912612
 20
105.9077908228255
 30
0.0
 10
227.090485482288
 20
105.9280329433758
 30
0.0
 10
227.135539151423
 20
105.9432712064379
 30
0.0
 10
227.1825676931538
 20
105.9556936212003
 30
0.0
 10
227.2319331088064
 20
105.9648317001214
 30
0.0
 10
227.2836897983076
 20
105.9702189060386
 30
0.0
 10
227.3190582202943
 20
105.9707701284046
 30
0.0
 10
227.3370438029798
 20
105.9710504365124
 30
0.0
  0
SPLINE
  5
1A3
330
1F
100
AcDbEntity
  8
0
  6
Continuous
 62
     7
370
     0
100
AcDbSpline
210
0.0
220
0.0
230
1.0
 70
     8
 71
     3
 72
    15
 73
    11
 74
     0
 42
0.00000001
 43
0.00000001
 40
0.0
 40
0.0
 40
0.0
 40
0.0
 40
0.0974206681772145
 40
0.2008855880393207
 40
0.3111719701726504
 40
0.4297979458253728
 40
0.5577399263645871
 40
0.6947152693641585
 40
0.8421299102060552
 40
1.0
 40
1.0
 40
1.0
 40
1.0
 10
226.8781214738678
 20
104.0880283237883
 30
0.0
 10
226.8618377169492
 20
104.1115178820363
 30
0.0
 10
226.828259913129
 20
104.1599543566542
 30
0.0
 10
226.7889600051195
 20
104.242543038937
 30
0.0
 10
226.7539037913794
 20
104.3334615824366
 30
0.0
 10
226.7263910909675
 20
104.4344937981985
 30
0.0
 10
226.7048417881984
 20
104.544835583997
 30
0.0
 10
226.6892778114021
 20
104.6647034539199
 30
0.0
 10
226.6804701327934
 20
104.7940456210931
 30
0.0
 10
226.6791718986156
 20
104.8834801623188
 30
0.0
 10
226.6785005504424
 20
104.9297289184376
 30
0.0
  0
SPLINE
  5
1A4
330
1F
100
AcDbEntity
  8
0
  6
Continuous
 62
     7
370
     0
100
AcDbSpline
210
0.0
220
0.0
230
1.0
 70
     8
 71
     3
 72
    15
 73
    11
 74
     0
 42
0.00000001
 43
0.00000001
 40
0.0
 40
0.0
 40
0.0
 40
0.0
 40
0.1379032299933933
 40
0.2688733426002926
 40
0.3951781273461146
 40
0.5170892381308878
 40
0.6367430265135473
 40
0.7562218164637978
 40
0.87662835946368
 40
1.0
 40
1.0
 40
1.0
 40
1.0
 10
227.3370438029798
 20
103.8900537584942
 30
0.0
 10
227.3132830210421
 20
103.8907315360554
 30
0.0
 10
227.2669560360781
 20
103.8920530157511
 30
0.0
 10
227.1992988904926
 20
103.9010316563135
 30
0.0
 10
227.1357990505693
 20
103.9168344852663
 30
0.0
 10
227.0759209315229
 20
103.9380283071909
 30
0.0
 10
227.0203375797837
 20
103.9663762644716
 30
0.0
 10
226.9687836069486
 20
104.0008670900015
 30
0.0
 10
226.9202230730995
 20
104.0406983182956
 30
0.0
 10
226.8922686776137
 20
104.0721242431069
 30
0.0
 10
226.8781214738678
 20
104.0880283237883
 30
0.0
  0
CIRCLE
  5
1A5
330
1F
100
AcDbEntity
  8
0
  6
Continuous
 62
     7
370
     0
100
AcDbCircle
 10
219.289645257
 20
106.5274031008
 30
0.0
 40
25.40000000000001
  0
SPLINE
  5
1A6
330
1F
100
AcDbEntity
  8
0
  6
Continuous
 62
     7
370
     0
100
AcDbSpline
210
0.0
220
0.0
230
1.0
 70
     8
 71
     3
 72
    23
 73
    19
 74
     0
 42
0.00000001
 43
0.00000001
 40
0.0
 40
0.0
 40
0.0
 40
0.0
 40
0.1156291309254413
 40
0.2215410391198766
 40
0.3170478562190415
 40
0.4031508756396164
 40
0.4801812167162793
 40
0.5476493661481896
 40
0.6070358428421807
 40
0.6586524080635068
 40
0.7057228903536447
 40
0.7498040879796465
 40
0.7925868153452744
 40
0.8338739610102599
 40
0.8747683933034318
 40
0.9152226988916382
 40
0.9568807037304797
 40
1.0
 40
1.0
 40
1.0
 40
1.0
 10
227.7321697545023
 20
104.9305520975033
 30
0.0
 10
227.731920302925
 20
104.9692485081197
 30
0.0
 10
227.731442363143
 20
105.043389366479
 30
0.0
 10
227.7260407678046
 20
105.1493822716775
 30
0.0
 10
227.717575982462
 20
105.2452441784376
 30
0.0
 10
227.7059975008429
 20
105.3310634625482
 30
0.0
 10
227.6906097009179
 20
105.4067469554113
 30
0.0
 10
227.6719463986811
 20
105.4724557768962
 30
0.0
 10
227.6497062834654
 20
105.5280497922663
 30
0.0
 10
227.6232628658376
 20
105.5740874445006
 30
0.0
 10
227.5938260510578
 20
105.6118508088337
 30
0.0
 10
227.5630765074416
 20
105.6445382865187
 30
0.0
 10
227.5302454932979
 20
105.6723379213597
 30
0.0
 10
227.4947513418484
 20
105.6946391985217
 30
0.0
 10
227.4577380963502
 20
105.7126310394392
 30
0.0
 10
227.4183552864992
 20
105.7250134825261
 30
0.0
 10
227.3769900141933
 20
105.7326208682499
 30
0.0
 10
227.3486015644696
 20
105.7335183764191
 30
0.0
 10
227.33416267625
 20
105.7339748655989
 30
0.0
  0
SPLINE
  5
1A7
330
1F
100
AcDbEntity
  8
0
  6
Continuous
 62
     7
370
     0
100
AcDbSpline
210
0.0
220
0.0
230
1.0
 70
     8
 71
     3
 72
    23
 73
    19
 74
     0
 42
0.00000001
 43
0.00000001
 40
0.0
 40
0.0
 40
0.0
 40
0.0
 40
0.0407818458722593
 40
0.0808695887215865
 40
0.1202681657882668
 40
0.1601868504553523
 40
0.2004597376386395
 40
0.2422651778979076
 40
0.2864592615494688
 40
0.3329520837492632
 40
0.3844305340495304
 40
0.4433891253601054
 40
0.5116814722136832
 40
0.589020025549008
 40
0.6762451906507723
 40
0.7737051914728237
 40
0.881567767781983
 40
1.0
 40
1.0
 40
1.0
 40
1.0
 10
227.3370438029798
 20
104.1271293294077
 30
0.0
 10
227.3506494705568
 20
104.1276487574249
 30
0.0
 10
227.3776292385809
 20
104.1286787728452
 30
0.0
 10
227.4173459432088
 20
104.1355395425296
 30
0.0
 10
227.4551843605843
 20
104.1483576412462
 30
0.0
 10
227.4914856988242
 20
104.1651173597966
 30
0.0
 10
227.5260625339845
 20
104.1868252194545
 30
0.0
 10
227.5587330241453
 20
104.2135680847662
 30
0.0
 10
227.5900188844207
 20
104.2448941195846
 30
0.0
 10
227.6200277641026
 20
104.2817636292348
 30
0.0
 10
227.6473498164516
 20
104.3266812261806
 30
0.0
 10
227.6700154315948
 20
104.3820369861456
 30
0.0
 10
227.6894448166764
 20
104.4475557725847
 30
0.0
 10
227.705249998758
 20
104.5237095506341
 30
0.0
 10
227.7172037353719
 20
104.6103591236346
 30
0.0
 10
227.7261538616457
 20
104.7075870845181
 30
0.0
 10
227.731419645218
 20
104.8155229995292
 30
0.0
 10
227.7319120517217
 20
104.891033431333
 30
0.0
 10
227.7321697545023
 20
104.9305520975033
 30
0.0
  0
SPLINE
  5
1A8
330
1F
100
AcDbEntity
  8
0
  6
Continuous
 62
     7
370
     0
100
AcDbSpline
210
0.0
220
0.0
230
1.0
 70
     8
 71
     3
 72
    23
 73
    19
 74
     0
 42
0.00000001
 43
0.00000001
 40
0.0
 40
0.0
 40
0.0
 40
0.0
 40
0.1184055081537694
 40
0.2266543328167019
 40
0.324092341928602
 40
0.4117048030053217
 40
0.4890259050064155
 40
0.5569093973430755
 40
0.6162333444927066
 40
0.6673492812770748
 40
0.7135123932013473
 40
0.7576965045209773
 40
0.7994925114422908
 40
0.8399760647439393
 40
0.8798857418167766
 40
0.919148659385742
 40
0.9592273564930833
 40
1.0
 40
1.0
 40
1.0
 40
1.0
 10
226.9419178514574
 20
104.9305520975033
 30
0.0
 10
226.9421794038903
 20
104.8910336096131
 30
0.0
 10
226.9426800730999
 20
104.815386482665
 30
0.0
 10
226.9479108510334
 20
104.7073115104717
 30
0.0
 10
226.9569154199444
 20
104.6098131332419
 30
0.0
 10
226.9688200481937
 20
104.5230263438492
 30
0.0
 10
226.984538977466
 20
104.446833745999
 30
0.0
 10
227.0042759522987
 20
104.3814295018867
 30
0.0
 10
227.0265242173088
 20
104.326028612309
 30
0.0
 10
227.0540560236676
 20
104.2813177286551
 30
0.0
 10
227.0842003107214
 20
104.2448718361228
 30
0.0
 10
227.1153222269908
 20
104.2135271898912
 30
0.0
 10
227.1481539635855
 20
104.1868849583066
 30
0.0
 10
227.182481297392
 20
104.1646707704888
 30
0.0
 10
227.2188368416967
 20
104.1478516469575
 30
0.0
 10
227.2568230546659
 20
104.1356611087696
 30
0.0
 10
227.296448201775
 20
104.1286456412157
 30
0.0
 10
227.3234347275344
 20
104.1276376505356
 30
0.0
 10
227.3370438029798
 20
104.1271293294077
 30
0.0
  0
SPLINE
  5
1A9
330
1F
100
AcDbEntity
  8
0
  6
Continuous
 62
     7
370
     0
100
AcDbSpline
210
0.0
220
0.0
230
1.0
 70
     8
 71
     3
 72
    15
 73
    11
 74
     0
 42
0.00000001
 43
0.00000001
 40
0.0
 40
0.0
 40
0.0
 40
0.0
 40
0.0838881132795455
 40
0.1771540327539698
 40
0.2825136355617228
 40
0.3993998606601629
 40
0.5294908061912204
 40
0.6728021776758327
 40
0.82953576161967
 40
1.0
 40
1.0
 40
1.0
 40
1.0
 10
227.060867226447
 20
105.5932112453691
 30
0.0
 10
227.0510768021223
 20
105.576842643928
 30
0.0
 10
227.0304014873049
 20
105.5422756040643
 30
0.0
 10
227.0072670122042
 20
105.4821966645749
 30
0.0
 10
226.9868309314464
 20
105.4135378724687
 30
0.0
 10
226.9700052614964
 20
105.3352428623617
 30
0.0
 10
226.9578330696648
 20
105.2474459416885
 30
0.0
 10
226.9482235948778
 20
105.150249069975
 30
0.0
 10
226.9432318304087
 20
105.0435165487598
 30
0.0
 10
226.9423679288068
 20
104.9692458229608
 30
0.0
 10
226.9419178514574
 20
104.9305520975033
 30
0.0
  0
SPLINE
  5
1AA
330
1F
100
AcDbEntity
  8
0
  6
Continuous
 62
     7
370
     0
100
AcDbSpline
210
0.0
220
0.0
230
1.0
 70
     8
 71
     3
 72
    15
 73
    11
 74
     0
 42
0.00000001
 43
0.00000001
 40
0.0
 40
0.0
 40
0.0
 40
0.0
 40
0.1276647678962228
 40
0.2517385630080477
 40
0.3727533493873867
 40
0.4921467589723859
 40
0.6140696213092441
 40
0.737197324412108
 40
0.8656069906011162
 40
1.0
 40
1.0
 40
1.0
 40
1.0
 10
227.33416267625
 20
105.7339748655989
 30
0.0
 10
227.3205544555296
 20
105.7336177035205
 30
0.0
 10
227.2937207880606
 20
105.7329134256696
 30
0.0
 10
227.2544327846777
 20
105.7261911007148
 30
0.0
 10
227.2172000054148
 20
105.7149498750714
 30
0.0
 10
227.181595882977
 20
105.6997225434408
 30
0.0
 10
227.1485092552904
 20
105.679229562742
 30
0.0
 10
227.1166279889829
 20
105.6553025490793
 30
0.0
 10
227.0874452792177
 20
105.6261501535359
 30
0.0
 10
227.0698600343521
 20
105.6043562783142
 30
0.0
 10
227.060867226447
 20
105.5932112453691
 30
0.0
  0
SPLINE
  5
1AB
330
1F
100
AcDbEntity
  8
0
  6
Continuous
 62
     7
370
     0
100
AcDbSpline
210
0.0
220
0.0
230
1.0
 70
     8
 71
     3
 72
    15
 73
    11
 74
     0
 42
0.00000001
 43
0.00000001
 40
0.0
 40
0.0
 40
0.0
 40
0.0
 40
0.1323768784386572
 40
0.2551949197670689
 40
0.3737221416536693
 40
0.4900113154474169
 40
0.6078124214239345
 40
0.7311098159015433
 40
0.8599973777575841
 40
1.0
 40
1.0
 40
1.0
 40
1.0
 10
224.3723643979631
 20
108.2870647377798
 30
0.0
 10
224.388098641392
 20
108.2925764444856
 30
0.0
 10
224.418430970095
 20
108.3032018616064
 30
0.0
 10
224.4590791278187
 20
108.327333252105
 30
0.0
 10
224.4936995432002
 20
108.3562908029308
 30
0.0
 10
224.5221994411184
 20
108.3905858331783
 30
0.0
 10
224.5441002004749
 20
108.4300348101346
 30
0.0
 10
224.5603389813597
 20
108.4738196578257
 30
0.0
 10
224.5692300742052
 20
108.5225524478902
 30
0.0
 10
224.5705006129473
 20
108.5563469255271
 30
0.0
 10
224.5711621423228
 20
108.5739426421664
 30
0.0
  0
SPLINE
  5
1AC
330
1F
100
AcDbEntity
  8
0
  6
Continuous
 62
     7
370
     0
100
AcDbSpline
210
0.0
220
0.0
230
1.0
 70
     8
 71
     3
 72
    15
 73
    11
 74
     0
 42
0.00000001
 43
0.00000001
 40
0.0
 40
0.0
 40
0.0
 40
0.0
 40
0.1669801744060282
 40
0.3208066328848138
 40
0.4631345048703168
 40
0.5942480539785199
 40
0.7123671525397434
 40
0.8194549510427512
 40
0.9157522665813538
 40
1.0
 40
1.0
 40
1.0
 40
1.0
 10
224.1254106782615
 20
108.2627809553425
 30
0.0
 10
224.1392694913847
 20
108.2628357860435
 30
0.0
 10
224.1658954018538
 20
108.2629411282053
 30
0.0
 10
224.2043026433495
 20
108.2644099122908
 30
0.0
 10
224.2397506862659
 20
108.2656629954143
 30
0.0
 10
224.2721024128353
 20
108.2688081372279
 30
0.0
 10
224.3015180961254
 20
108.2718886639203
 30
0.0
 10
224.3278800181411
 20
108.2760355330447
 30
0.0
 10
224.3513173010249
 20
108.2807081139899
 30
0.0
 10
224.3656679533086
 20
108.2850422840646
 30
0.0
 10
224.3723643979631
 20
108.2870647377798
 30
0.0
  0
LINE
  5
1AD
330
1F
100
AcDbEntity
  8
0
  6
Continuous
 62
     7
370
     0
100
AcDbLine
 10
223.701885049
 20
108.2627809553
 30
0.0
 11
224.1254106783
 21
108.2627809553
 31
0.0
  0
LINE
  5
1AE
330
1F
100
AcDbEntity
  8
0
  6
Continuous
 62
     7
370
     0
100
AcDbLine
 10
223.701885049
 20
108.8949824778
 30
0.0
 11
223.701885049
 21
108.2627809553
 31
0.0
  0
LINE
  5
1AF
330
1F
100
AcDbEntity
  8
0
  6
Continuous
 62
     7
370
     0
100
AcDbLine
 10
224.0933066947
 20
108.8949824778
 30
0.0
 11
223.701885049
 21
108.8949824778
 31
0.0
  0
SPLINE
  5
1B0
330
1F
100
AcDbEntity
  8
0
  6
Continuous
 62
     7
370
     0
100
AcDbSpline
210
0.0
220
0.0
230
1.0
 70
     8
 71
     3
 72
    23
 73
    19
 74
     0
 42
0.00000001
 43
0.00000001
 40
0.0
 40
0.0
 40
0.0
 40
0.0
 40
0.076010519206233
 40
0.1481357362434483
 40
0.217788177833154
 40
0.2867678984972345
 40
0.3540434632439188
 40
0.4186108400234796
 40
0.4836364388553443
 40
0.5502295626461522
 40
0.5869278113138146
 40
0.6291578250269657
 40
0.6772382242876696
 40
0.7300426397437304
 40
0.7888625661169236
 40
0.8537504514610937
 40
0.9241097665384561
 40
0.9999999999999999
 40
0.9999999999999999
 40
0.9999999999999999
 40
0.9999999999999999
 10
224.5711621423228
 20
108.5739426421664
 30
0.0
 10
224.5706302279158
 20
108.5908532643291
 30
0.0
 10
224.5695935880781
 20
108.6238101167565
 30
0.0
 10
224.5608919234997
 20
108.6716691805364
 30
0.0
 10
224.5458340144053
 20
108.7161932511106
 30
0.0
 10
224.5254414820063
 20
108.7573725614865
 30
0.0
 10
224.4996191176261
 20
108.7940074725041
 30
0.0
 10
224.4687992249804
 20
108.8255049206089
 30
0.0
 10
224.4318791690064
 20
108.8493156046111
 30
0.0
 10
224.3973699755908
 20
108.8641687583557
 30
0.0
 10
224.3663316910864
 20
108.8734608074217
 30
0.0
 10
224.3386000739691
 20
108.8789585303658
 30
0.0
 10
224.307144148854
 20
108.8838025710295
 30
0.0
 10
224.2718604028945
 20
108.8879208133321
 30
0.0
 10
224.2327354892515
 20
108.8911169487933
 30
0.0
 10
224.1896488572444
 20
108.8936560666096
 30
0.0
 10
224.1427030717538
 20
108.8947341143911
 30
0.0
 10
224.1101821168016
 20
108.8948976287015
 30
0.0
 10
224.0933066947003
 20
108.8949824777784
 30
0.0
  0
SPLINE
  5
1B1
330
1F
100
AcDbEntity
  8
0
  6
Continuous
 62
     7
370
     0
100
AcDbSpline
210
0.0
220
0.0
230
1.0
 70
     8
 71
     3
 72
    19
 73
    15
 74
     0
 42
0.00000001
 43
0.00000001
 40
0.0
 40
0.0
 40
0.0
 40
0.0
 40
0.0801399024652513
 40
0.1562809906190948
 40
0.229406049012902
 40
0.3017986969723052
 40
0.3727428627695777
 40
0.442667609902629
 40
0.5133209646126967
 40
0.586547692363208
 40
0.6683225082295051
 40
0.7636766255259053
 40
0.8740807567185483
 40
1.0
 40
1.0
 40
1.0
 40
1.0
 10
224.6501873326273
 20
107.6700920280589
 30
0.0
 10
224.6496203823866
 20
107.6888005478315
 30
0.0
 10
224.6485147715421
 20
107.7252840711842
 30
0.0
 10
224.6380055613157
 20
107.77800461092
 30
0.0
 10
224.6206460658685
 20
107.8269035670164
 30
0.0
 10
224.5962089545563
 20
107.8713037380675
 30
0.0
 10
224.5662355619208
 20
107.9112378692207
 30
0.0
 10
224.5299707834294
 20
107.9451129056254
 30
0.0
 10
224.4876857845362
 20
107.9719944222913
 30
0.0
 10
224.4392506061459
 20
107.9930912103295
 30
0.0
 10
224.3826395847225
 20
108.0081012116694
 30
0.0
 10
224.3162898024109
 20
108.0182845883967
 30
0.0
 10
224.2391399736771
 20
108.0248556773053
 30
0.0
 10
224.1840088384872
 20
108.0254100175319
 30
0.0
 10
224.1546335350929
 20
108.0257053844291
 30
0.0
  0
SPLINE
  5
1B2
330
1F
100
AcDbEntity
  8
0
  6
Continuous
 62
     7
370
     0
100
AcDbSpline
210
0.0
220
0.0
230
1.0
 70
     8
 71
     3
 72
    19
 73
    15
 74
     0
 42
0.00000001
 43
0.00000001
 40
0.0
 40
0.0
 40
0.0
 40
0.0
 40
0.0889709576989538
 40
0.1722707767733128
 40
0.2503120304637083
 40
0.3246551996215513
 40
0.3978444501802943
 40
0.4733008807185318
 40
0.551825888744447
 40
0.6347494834982523
 40
0.7217660118923853
 40
0.8103926655611188
 40
0.903175236799419
 40
1.0
 40
1.0
 40
1.0
 40
1.0
 10
224.3637210177735
 20
107.3243568204767
 30
0.0
 10
224.3780629552328
 20
107.3273713504059
 30
0.0
 10
224.4058326541373
 20
107.3332082597294
 30
0.0
 10
224.4449812666471
 20
107.3462356323975
 30
0.0
 10
224.480875595053
 20
107.3611591821079
 30
0.0
 10
224.5128891580877
 20
107.3801253558606
 30
0.0
 10
224.5425329493762
 20
107.4019825718846
 30
0.0
 10
224.5682956102682
 20
107.4292832806905
 30
0.0
 10
224.5920242438493
 20
107.460301508429
 30
0.0
 10
224.612583015763
 20
107.4957983416915
 30
0.0
 10
224.629207768071
 20
107.5350672968152
 30
0.0
 10
224.641913781825
 20
107.5775016407759
 30
0.0
 10
224.6486819302293
 20
107.6229525898037
 30
0.0
 10
224.6496784503061
 20
107.6541571346441
 30
0.0
 10
224.6501873326273
 20
107.6700920280589
 30
0.0
  0
SPLINE
  5
1B3
330
1F
100
AcDbEntity
  8
0
  6
Continuous
 62
     7
370
     0
100
AcDbSpline
210
0.0
220
0.0
230
1.0
 70
     8
 71
     3
 72
    11
 73
     7
 74
     0
 42
0.00000001
 43
0.00000001
 40
0.0
 40
0.0
 40
0.0
 40
0.0
 40
0.3293954641291814
 40
0.6051903468527978
 40
0.8278865786947356
 40
1.0
 40
1.0
 40
1.0
 40
1.0
 10
224.1879722872526
 20
107.3144786716887
 30
0.0
 10
224.2073174379788
 20
107.3147009200864
 30
0.0
 10
224.2428598171336
 20
107.3151092517107
 30
0.0
 10
224.2914748478676
 20
107.3163902078889
 30
0.0
 10
224.3307708229183
 20
107.3195191046639
 30
0.0
 10
224.3537175957489
 20
107.322888127708
 30
0.0
 10
224.3637210177735
 20
107.3243568204767
 30
0.0
  0
LINE
  5
1B4
330
1F
100
AcDbEntity
  8
0
  6
Continuous
 62
     7
370
     0
100
AcDbLine
 10
223.701885049
 20
107.3144786717
 30
0.0
 11
224.1879722873
 21
107.3144786717
 31
0.0
  0
LINE
  5
1B5
330
1F
100
AcDbEntity
  8
0
  6
Continuous
 62
     7
370
     0
100
AcDbLine
 10
223.701885049
 20
108.0257053844
 30
0.0
 11
223.701885049
 21
107.3144786717
 31
0.0
  0
LINE
  5
1B6
330
1F
100
AcDbEntity
  8
0
  6
Continuous
 62
     7
370
     0
100
AcDbLine
 10
224.1546335351
 20
108.0257053844
 30
0.0
 11
223.701885049
 21
108.0257053844
 31
0.0
  0
SPLINE
  5
1B7
330
1F
100
AcDbEntity
  8
0
  6
Continuous
 62
     7
370
     0
100
AcDbSpline
210
0.0
220
0.0
230
1.0
 70
     8
 71
     3
 72
    23
 73
    19
 74
     0
 42
0.00000001
 43
0.00000001
 40
0.0
 40
0.0
 40
0.0
 40
0.0
 40
0.1156291309254414
 40
0.2215410391198768
 40
0.3170478562190418
 40
0.4031508756396168
 40
0.4801812167162797
 40
0.5476493661481898
 40
0.6070358428421809
 40
0.6586524080635074
 40
0.705722890353646
 40
0.7498040879796471
 40
0.7925868153452743
 40
0.8338739610102607
 40
0.874768393303433
 40
0.9152226988916382
 40
0.9568807037304802
 40
1.0
 40
1.0
 40
1.0
 40
1.0
 10
223.306759097451
 20
104.9305520975033
 30
0.0
 10
223.3065096458737
 20
104.9692485081197
 30
0.0
 10
223.3060317060917
 20
105.043389366479
 30
0.0
 10
223.3006301107533
 20
105.1493822716775
 30
0.0
 10
223.2921653254107
 20
105.2452441784376
 30
0.0
 10
223.2805868437916
 20
105.3310634625482
 30
0.0
 10
223.2651990438667
 20
105.4067469554113
 30
0.0
 10
223.2465357416298
 20
105.4724557768962
 30
0.0
 10
223.2242956264141
 20
105.5280497922663
 30
0.0
 10
223.1978522087863
 20
105.5740874445006
 30
0.0
 10
223.1684153940066
 20
105.6118508088337
 30
0.0
 10
223.1376658503903
 20
105.6445382865187
 30
0.0
 10
223.1048348362467
 20
105.6723379213597
 30
0.0
 10
223.0693406847971
 20
105.6946391985217
 30
0.0
 10
223.0323274392989
 20
105.7126310394392
 30
0.0
 10
222.9929446294479
 20
105.7250134825261
 30
0.0
 10
222.951579357142
 20
105.7326208682499
 30
0.0
 10
222.9231909074183
 20
105.7335183764191
 30
0.0
 10
222.9087520191987
 20
105.7339748655989
 30
0.0
  0
SPLINE
  5
1B8
330
1F
100
AcDbEntity
  8
0
  6
Continuous
 62
     7
370
     0
100
AcDbSpline
210
0.0
220
0.0
230
1.0
 70
     8
 71
     3
 72
    23
 73
    19
 74
     0
 42
0.00000001
 43
0.00000001
 40
0.0
 40
0.0
 40
0.0
 40
0.0
 40
0.0407818458722597
 40
0.0808695887215869
 40
0.1202681657882672
 40
0.1601868504553523
 40
0.2004597376386391
 40
0.2422651778979082
 40
0.2864592615494684
 40
0.3329520837492633
 40
0.3844305340495305
 40
0.4433891253601058
 40
0.5116814722136833
 40
0.5890200255490083
 40
0.6762451906507724
 40
0.7737051914728238
 40
0.881567767781983
 40
1.0
 40
1.0
 40
1.0
 40
1.0
 10
222.9116331459285
 20
104.1271293294077
 30
0.0
 10
222.9252388135054
 20
104.1276487574249
 30
0.0
 10
222.9522185815296
 20
104.1286787728452
 30
0.0
 10
222.9919352861575
 20
104.1355395425296
 30
0.0
 10
223.029773703533
 20
104.1483576412462
 30
0.0
 10
223.066075041773
 20
104.1651173597966
 30
0.0
 10
223.1006518769332
 20
104.1868252194545
 30
0.0
 10
223.133322367094
 20
104.2135680847662
 30
0.0
 10
223.1646082273694
 20
104.2448941195846
 30
0.0
 10
223.1946171070513
 20
104.2817636292348
 30
0.0
 10
223.2219391594003
 20
104.3266812261806
 30
0.0
 10
223.2446047745435
 20
104.3820369861456
 30
0.0
 10
223.2640341596251
 20
104.4475557725847
 30
0.0
 10
223.2798393417067
 20
104.5237095506341
 30
0.0
 10
223.2917930783206
 20
104.6103591236346
 30
0.0
 10
223.3007432045944
 20
104.7075870845181
 30
0.0
 10
223.3060089881667
 20
104.8155229995292
 30
0.0
 10
223.3065013946704
 20
104.891033431333
 30
0.0
 10
223.306759097451
 20
104.9305520975033
 30
0.0
  0
SPLINE
  5
1B9
330
1F
100
AcDbEntity
  8
0
  6
Continuous
 62
     7
370
     0
100
AcDbSpline
210
0.0
220
0.0
230
1.0
 70
     8
 71
     3
 72
    23
 73
    19
 74
     0
 42
0.00000001
 43
0.00000001
 40
0.0
 40
0.0
 40
0.0
 40
0.0
 40
0.1184055081537694
 40
0.2266543328167019
 40
0.3240923419286019
 40
0.4117048030053216
 40
0.4890259050064157
 40
0.5569093973430758
 40
0.6162333444927067
 40
0.6673492812770749
 40
0.7135123932013474
 40
0.757696504520978
 40
0.7994925114422909
 40
0.8399760647439395
 40
0.879885741816776
 40
0.9191486593857414
 40
0.959227356493083
 40
1.0
 40
1.0
 40
1.0
 40
1.0
 10
222.5165071944061
 20
104.9305520975033
 30
0.0
 10
222.516768746839
 20
104.8910336096131
 30
0.0
 10
222.5172694160486
 20
104.815386482665
 30
0.0
 10
222.5225001939821
 20
104.7073115104717
 30
0.0
 10
222.531504762893
 20
104.6098131332419
 30
0.0
 10
222.5434093911425
 20
104.5230263438492
 30
0.0
 10
222.5591283204147
 20
104.446833745999
 30
0.0
 10
222.5788652952474
 20
104.3814295018867
 30
0.0
 10
222.6011135602575
 20
104.326028612309
 30
0.0
 10
222.6286453666164
 20
104.2813177286551
 30
0.0
 10
222.6587896536701
 20
104.2448718361228
 30
0.0
 10
222.6899115699395
 20
104.2135271898912
 30
0.0
 10
222.7227433065342
 20
104.1868849583066
 30
0.0
 10
222.7570706403407
 20
104.1646707704888
 30
0.0
 10
222.7934261846454
 20
104.1478516469575
 30
0.0
 10
222.8314123976146
 20
104.1356611087696
 30
0.0
 10
222.8710375447237
 20
104.1286456412157
 30
0.0
 10
222.8980240704832
 20
104.1276376505356
 30
0.0
 10
222.9116331459285
 20
104.1271293294077
 30
0.0
  0
SPLINE
  5
1BA
330
1F
100
AcDbEntity
  8
0
  6
Continuous
 62
     7
370
     0
100
AcDbSpline
210
0.0
220
0.0
230
1.0
 70
     8
 71
     3
 72
    15
 73
    11
 74
     0
 42
0.00000001
 43
0.00000001
 40
0.0
 40
0.0
 40
0.0
 40
0.0
 40
0.0838881132795455
 40
0.1771540327539696
 40
0.2825136355617228
 40
0.3993998606601629
 40
0.5294908061912204
 40
0.6728021776758328
 40
0.8295357616196702
 40
1.0
 40
1.0
 40
1.0
 40
1.0
 10
222.6354565693957
 20
105.5932112453691
 30
0.0
 10
222.625666145071
 20
105.576842643928
 30
0.0
 10
222.6049908302537
 20
105.5422756040643
 30
0.0
 10
222.5818563551529
 20
105.4821966645749
 30
0.0
 10
222.5614202743951
 20
105.4135378724687
 30
0.0
 10
222.5445946044451
 20
105.3352428623617
 30
0.0
 10
222.5324224126135
 20
105.2474459416885
 30
0.0
 10
222.5228129378266
 20
105.150249069975
 30
0.0
 10
222.5178211733574
 20
105.0435165487598
 30
0.0
 10
222.5169572717555
 20
104.9692458229608
 30
0.0
 10
222.5165071944061
 20
104.9305520975033
 30
0.0
  0
SPLINE
  5
1BB
330
1F
100
AcDbEntity
  8
0
  6
Continuous
 62
     7
370
     0
100
AcDbSpline
210
0.0
220
0.0
230
1.0
 70
     8
 71
     3
 72
    15
 73
    11
 74
     0
 42
0.00000001
 43
0.00000001
 40
0.0
 40
0.0
 40
0.0
 40
0.0
 40
0.1276647678962251
 40
0.2517385630080496
 40
0.3727533493873896
 40
0.492146758972386
 40
0.614069621309245
 40
0.7371973244121095
 40
0.8656069906011175
 40
1.0
 40
1.0
 40
1.0
 40
1.0
 10
222.9087520191987
 20
105.7339748655989
 30
0.0
 10
222.8951437984784
 20
105.7336177035205
 30
0.0
 10
222.8683101310093
 20
105.7329134256696
 30
0.0
 10
222.8290221276264
 20
105.7261911007148
 30
0.0
 10
222.7917893483635
 20
105.7149498750714
 30
0.0
 10
222.7561852259257
 20
105.6997225434408
 30
0.0
 10
222.7230985982391
 20
105.679229562742
 30
0.0
 10
222.6912173319317
 20
105.6553025490793
 30
0.0
 10
222.6620346221663
 20
105.6261501535359
 30
0.0
 10
222.6444493773008
 20
105.6043562783142
 30
0.0
 10
222.6354565693957
 20
105.5932112453691
 30
0.0
  0
SPLINE
  5
1BC
330
1F
100
AcDbEntity
  8
0
  6
Continuous
 62
     7
370
     0
100
AcDbSpline
210
0.0
220
0.0
230
1.0
 70
     8
 71
     3
 72
    15
 73
    11
 74
     0
 42
0.00000001
 43
0.00000001
 40
0.0
 40
0.0
 40
0.0
 40
0.0
 40
0.1531481085926319
 40
0.2994334688329067
 40
0.4364263514567512
 40
0.5656705729563586
 40
0.6865083102878727
 40
0.7992685160630042
 40
0.9033947408013441
 40
1.0
 40
1.0
 40
1.0
 40
1.0
 10
222.3646306567897
 20
108.4866856612052
 30
0.0
 10
222.3569779032895
 20
108.5075507365463
 30
0.0
 10
222.3420153252482
 20
108.5483458984603
 30
0.0
 10
222.3197016135518
 20
108.607617824904
 30
0.0
 10
222.2993161661173
 20
108.6639048790305
 30
0.0
 10
222.2793265608984
 20
108.7163999851072
 30
0.0
 10
222.2612815872203
 20
108.7658656873138
 30
0.0
 10
222.2446490724507
 20
108.811967867237
 30
0.0
 10
222.228199655684
 20
108.8543860926584
 30
0.0
 10
222.2183281292872
 20
108.8817926369747
 30
0.0
 10
222.2135772982389
 20
108.8949824777784
 30
0.0
  0
LINE
  5
1BD
330
1F
100
AcDbEntity
  8
0
  6
Continuous
 62
     7
370
     0
100
AcDbLine
 10
222.5642515802
 20
107.9466801941
 30
0.0
 11
222.3646306568
 21
108.4866856612
 31
0.0
  0
LINE
  5
1BE
330
1F
100
AcDbEntity
  8
0
  6
Continuous
 62
     7
370
     0
100
AcDbLine
 10
221.8629030163
 20
107.9466801941
 30
0.0
 11
222.5642515802
 21
107.9466801941
 31
0.0
  0
LINE
  5
1BF
330
1F
100
AcDbEntity
  8
0
  6
Continuous
 62
     7
370
     0
100
AcDbLine
 10
222.0732252675
 20
108.5154969285
 30
0.0
 11
221.8629030163
 21
107.9466801941
 31
0.0
  0
SPLINE
  5
1C0
330
1F
100
AcDbEntity
  8
0
  6
Continuous
 62
     7
370
     0
100
AcDbSpline
210
0.0
220
0.0
230
1.0
 70
     8
 71
     3
 72
    11
 73
     7
 74
     0
 42
0.00000001
 43
0.00000001
 40
0.0
 40
0.0
 40
0.0
 40
0.0
 40
0.247294050035337
 40
0.4956077709090489
 40
0.746359172773196
 40
1.0
 40
1.0
 40
1.0
 40
1.0
 10
222.2135772982389
 20
108.8949824777784
 30
0.0
 10
222.2057185066908
 20
108.8624574919026
 30
0.0
 10
222.189968519335
 20
108.7972734094451
 30
0.0
 10
222.1569918804705
 20
108.7017699840756
 30
0.0
 10
222.1192677509341
 20
108.6071399806381
 30
0.0
 10
222.0886312626734
 20
108.5461610523954
 30
0.0
 10
222.0732252675419
 20
108.5154969285038
 30
0.0
  0
SPLINE
  5
1C1
330
1F
100
AcDbEntity
  8
0
  6
Continuous
 62
     7
370
     0
100
AcDbSpline
210
0.0
220
0.0
230
1.0
 70
     8
 71
     3
 72
    23
 73
    19
 74
     0
 42
0.00000001
 43
0.00000001
 40
0.0
 40
0.0
 40
0.0
 40
0.0
 40
0.0407818458722601
 40
0.0808695887215869
 40
0.1202681657882672
 40
0.1601868504553522
 40
0.2004597376386394
 40
0.2422651778979082
 40
0.2864592615494687
 40
0.3329520837492634
 40
0.3844305340495304
 40
0.4433891253601058
 40
0.5116814722136832
 40
0.5890200255490082
 40
0.6762451906507722
 40
0.7737051914728236
 40
0.8815677677819829
 40
1.0
 40
1.0
 40
1.0
 40
1.0
 10
221.3311293398388
 20
104.1271293294077
 30
0.0
 10
221.3447350074157
 20
104.1276487574249
 30
0.0
 10
221.3717147754398
 20
104.1286787728452
 30
0.0
 10
221.4114314800678
 20
104.1355395425296
 30
0.0
 10
221.4492698974432
 20
104.1483576412462
 30
0.0
 10
221.4855712356832
 20
104.1651173597966
 30
0.0
 10
221.5201480708435
 20
104.1868252194545
 30
0.0
 10
221.5528185610043
 20
104.2135680847662
 30
0.0
 10
221.5841044212796
 20
104.2448941195846
 30
0.0
 10
221.6141133009616
 20
104.2817636292348
 30
0.0
 10
221.6414353533106
 20
104.3266812261806
 30
0.0
 10
221.6641009684538
 20
104.3820369861456
 30
0.0
 10
221.6835303535354
 20
104.4475557725847
 30
0.0
 10
221.699335535617
 20
104.5237095506341
 30
0.0
 10
221.7112892722309
 20
104.6103591236346
 30
0.0
 10
221.7202393985047
 20
104.7075870845181
 30
0.0
 10
221.725505182077
 20
104.8155229995292
 30
0.0
 10
221.7259975885807
 20
104.891033431333
 30
0.0
 10
221.7262552913612
 20
104.9305520975033
 30
0.0
  0
SPLINE
  5
1C2
330
1F
100
AcDbEntity
  8
0
  6
Continuous
 62
     7
370
     0
100
AcDbSpline
210
0.0
220
0.0
230
1.0
 70
     8
 71
     3
 72
    23
 73
    19
 74
     0
 42
0.00000001
 43
0.00000001
 40
0.0
 40
0.0
 40
0.0
 40
0.0
 40
0.1184055081537694
 40
0.2266543328167019
 40
0.324092341928602
 40
0.4117048030053217
 40
0.4890259050064157
 40
0.5569093973430758
 40
0.6162333444927066
 40
0.667349281277075
 40
0.7135123932013474
 40
0.7576965045209779
 40
0.7994925114422909
 40
0.8399760647439393
 40
0.879885741816776
 40
0.9191486593857419
 40
0.959227356493083
 40
1.0
 40
1.0
 40
1.0
 40
1.0
 10
220.9360033883164
 20
104.9305520975033
 30
0.0
 10
220.9362649407493
 20
104.8910336096131
 30
0.0
 10
220.9367656099589
 20
104.815386482665
 30
0.0
 10
220.9419963878923
 20
104.7073115104717
 30
0.0
 10
220.9510009568033
 20
104.6098131332419
 30
0.0
 10
220.9629055850527
 20
104.5230263438492
 30
0.0
 10
220.978624514325
 20
104.446833745999
 30
0.0
 10
220.9983614891576
 20
104.3814295018867
 30
0.0
 10
221.0206097541678
 20
104.326028612309
 30
0.0
 10
221.0481415605266
 20
104.2813177286551
 30
0.0
 10
221.0782858475804
 20
104.2448718361228
 30
0.0
 10
221.1094077638498
 20
104.2135271898912
 30
0.0
 10
221.1422395004445
 20
104.1868849583066
 30
0.0
 10
221.1765668342509
 20
104.1646707704888
 30
0.0
 10
221.2129223785556
 20
104.1478516469575
 30
0.0
 10
221.2509085915248
 20
104.1356611087696
 30
0.0
 10
221.290533738634
 20
104.1286456412157
 30
0.0
 10
221.3175202643934
 20
104.1276376505356
 30
0.0
 10
221.3311293398388
 20
104.1271293294077
 30
0.0
  0
SPLINE
  5
1C3
330
1F
100
AcDbEntity
  8
0
  6
Continuous
 62
     7
370
     0
100
AcDbSpline
210
0.0
220
0.0
230
1.0
 70
     8
 71
     3
 72
    15
 73
    11
 74
     0
 42
0.00000001
 43
0.00000001
 40
0.0
 40
0.0
 40
0.0
 40
0.0
 40
0.0838881132795455
 40
0.1771540327539697
 40
0.2825136355617227
 40
0.3993998606601629
 40
0.5294908061912204
 40
0.6728021776758328
 40
0.82953576161967
 40
1.0
 40
1.0
 40
1.0
 40
1.0
 10
221.0549527633059
 20
105.5932112453691
 30
0.0
 10
221.0451623389813
 20
105.576842643928
 30
0.0
 10
221.0244870241639
 20
105.5422756040643
 30
0.0
 10
221.0013525490631
 20
105.4821966645749
 30
0.0
 10
220.9809164683054
 20
105.4135378724687
 30
0.0
 10
220.9640907983554
 20
105.3352428623617
 30
0.0
 10
220.9519186065238
 20
105.2474459416885
 30
0.0
 10
220.9423091317368
 20
105.150249069975
 30
0.0
 10
220.9373173672677
 20
105.0435165487598
 30
0.0
 10
220.9364534656657
 20
104.9692458229608
 30
0.0
 10
220.9360033883164
 20
104.9305520975033
 30
0.0
  0
SPLINE
  5
1C4
330
1F
100
AcDbEntity
  8
0
  6
Continuous
 62
     7
370
     0
100
AcDbSpline
210
0.0
220
0.0
230
1.0
 70
     8
 71
     3
 72
    15
 73
    11
 74
     0
 42
0.00000001
 43
0.00000001
 40
0.0
 40
0.0
 40
0.0
 40
0.0
 40
0.1276647678962239
 40
0.2517385630080486
 40
0.3727533493873887
 40
0.4921467589723853
 40
0.6140696213092445
 40
0.7371973244121091
 40
0.8656069906011172
 40
1.0
 40
1.0
 40
1.0
 40
1.0
 10
221.328248213109
 20
105.7339748655989
 30
0.0
 10
221.3146399923886
 20
105.7336177035205
 30
0.0
 10
221.2878063249196
 20
105.7329134256696
 30
0.0
 10
221.2485183215366
 20
105.7261911007148
 30
0.0
 10
221.2112855422737
 20
105.7149498750714
 30
0.0
 10
221.175681419836
 20
105.6997225434408
 30
0.0
 10
221.1425947921493
 20
105.679229562742
 30
0.0
 10
221.1107135258419
 20
105.6553025490793
 30
0.0
 10
221.0815308160766
 20
105.6261501535359
 30
0.0
 10
221.063945571211
 20
105.6043562783142
 30
0.0
 10
221.0549527633059
 20
105.5932112453691
 30
0.0
  0
SPLINE
  5
1C5
330
1F
100
AcDbEntity
  8
0
  6
Continuous
 62
     7
370
     0
100
AcDbSpline
210
0.0
220
0.0
230
1.0
 70
     8
 71
     3
 72
    23
 73
    19
 74
     0
 42
0.00000001
 43
0.00000001
 40
0.0
 40
0.0
 40
0.0
 40
0.0
 40
0.1156291309254413
 40
0.2215410391198767
 40
0.3170478562190416
 40
0.4031508756396165
 40
0.4801812167162793
 40
0.5476493661481897
 40
0.6070358428421808
 40
0.6586524080635069
 40
0.7057228903536454
 40
0.7498040879796471
 40
0.7925868153452743
 40
0.8338739610102602
 40
0.8747683933034326
 40
0.9152226988916381
 40
0.9568807037304797
 40
1.0
 40
1.0
 40
1.0
 40
1.0
 10
221.7262552913612
 20
104.9305520975033
 30
0.0
 10
221.726005839784
 20
104.9692485081197
 30
0.0
 10
221.725527900002
 20
105.043389366479
 30
0.0
 10
221.7201263046636
 20
105.1493822716775
 30
0.0
 10
221.711661519321
 20
105.2452441784376
 30
0.0
 10
221.7000830377019
 20
105.3310634625482
 30
0.0
 10
221.684695237777
 20
105.4067469554113
 30
0.0
 10
221.6660319355401
 20
105.4724557768962
 30
0.0
 10
221.6437918203244
 20
105.5280497922663
 30
0.0
 10
221.6173484026966
 20
105.5740874445006
 30
0.0
 10
221.5879115879168
 20
105.6118508088337
 30
0.0
 10
221.5571620443006
 20
105.6445382865187
 30
0.0
 10
221.5243310301569
 20
105.6723379213597
 30
0.0
 10
221.4888368787074
 20
105.6946391985217
 30
0.0
 10
221.4518236332092
 20
105.7126310394392
 30
0.0
 10
221.4124408233581
 20
105.7250134825261
 30
0.0
 10
221.3710755510523
 20
105.7326208682499
 30
0.0
 10
221.3426871013286
 20
105.7335183764191
 30
0.0
 10
221.328248213109
 20
105.7339748655989
 30
0.0
  0
SPLINE
  5
1C6
330
1F
100
AcDbEntity
  8
0
  6
Continuous
 62
     7
370
     0
100
AcDbSpline
210
0.0
220
0.0
230
1.0
 70
     8
 71
     3
 72
    23
 73
    19
 74
     0
 42
0.00000001
 43
0.00000001
 40
0.0
 40
0.0
 40
0.0
 40
0.0
 40
0.0603255293380428
 40
0.1181599905079977
 40
0.1741866762963808
 40
0.2295388181457999
 40
0.2834498146386372
 40
0.337826511950592
 40
0.3926321025334832
 40
0.4484655764151909
 40
0.5059654091573053
 40
0.5650585322290048
 40
0.6266544786228438
 40
0.6922320330373639
 40
0.7611310781257618
 40
0.8353098773394203
 40
0.9153255598322017
 40
1.0
 40
1.0
 40
1.0
 40
1.0
 10
219.1711074715162
 20
108.5718846945023
 30
0.0
 10
219.1707250439053
 20
108.5834177719024
 30
0.0
 10
219.169975980559
 20
108.6060076825269
 30
0.0
 10
219.1660491427585
 20
108.63916339949
 30
0.0
 10
219.1584144377636
 20
108.6706689942637
 30
0.0
 10
219.1483328285528
 20
108.7006910089634
 30
0.0
 10
219.1348617528435
 20
108.7290095537944
 30
0.0
 10
219.1188586644671
 20
108.7558440661728
 30
0.0
 10
219.0997620396911
 20
108.7810458183971
 30
0.0
 10
219.0778879548178
 20
108.8046915788671
 30
0.0
 10
219.0527725302458
 20
108.8262069100643
 30
0.0
 10
219.0240848108825
 20
108.8447699743289
 30
0.0
 10
218.9920510550853
 20
108.8605445742979
 30
0.0
 10
218.9566340288255
 20
108.8730643513474
 30
0.0
 10
218.9179453022071
 20
108.8830781350175
 30
0.0
 10
218.8757646288329
 20
108.8897399823097
 30
0.0
 10
218.8302849099299
 20
108.8945604728061
 30
0.0
 10
218.7987701021723
 20
108.8948391814159
 30
0.0
 10
218.7825669525191
 20
108.8949824777784
 30
0.0
  0
SPLINE
  5
1C7
330
1F
100
AcDbEntity
  8
0
  6
Continuous
 62
     7
370
     0
100
AcDbSpline
210
0.0
220
0.0
230
1.0
 70
     8
 71
     3
 72
    19
 73
    15
 74
     0
 42
0.00000001
 43
0.00000001
 40
0.0
 40
0.0
 40
0.0
 40
0.0
 40
0.1288602680417313
 40
0.2408921848092289
 40
0.3380442015575112
 40
0.4201204852136088
 40
0.494058456868551
 40
0.5660947835833202
 40
0.6368049543510104
 40
0.7091484493607203
 40
0.7819418055941268
 40
0.8542853006038366
 40
0.9261704072165587
 40
1.0
 40
1.0
 40
1.0
 40
1.0
 10
218.7204169330609
 20
108.236439225241
 30
0.0
 10
218.7480108191087
 20
108.2368709577578
 30
0.0
 10
218.7995950009396
 20
108.2376780412041
 30
0.0
 10
218.8717273186492
 20
108.2445696855276
 30
0.0
 10
218.933200102789
 20
108.2555208010194
 30
0.0
 10
218.9852285825443
 20
108.2714942855177
 30
0.0
 10
219.0289407180459
 20
108.2936707864201
 30
0.0
 10
219.0669579928231
 20
108.3206969967808
 30
0.0
 10
219.0985508267172
 20
108.3545501387275
 30
0.0
 10
219.1248328010001
 20
108.3927462018922
 30
0.0
 10
219.1452623187692
 20
108.4347790627849
 30
0.0
 10
219.1599991984932
 20
108.4789284205446
 30
0.0
 10
219.1696447425865
 20
108.5248232283837
 30
0.0
 10
219.170615576782
 20
108.5560585992536
 30
0.0
 10
219.1711074715162
 20
108.5718846945023
 30
0.0
  0
LINE
  5
1C8
330
1F
100
AcDbEntity
  8
0
  6
Continuous
 62
     7
370
     0
100
AcDbLine
 10
218.1701217277
 20
108.2364392252
 30
0.0
 11
218.7204169331
 21
108.2364392252
 31
0.0
  0
LINE
  5
1C9
330
1F
100
AcDbEntity
  8
0
  6
Continuous
 62
     7
370
     0
100
AcDbLine
 10
218.1701217277
 20
108.8949824778
 30
0.0
 11
218.1701217277
 21
108.2364392252
 31
0.0
  0
LINE
  5
1CA
330
1F
100
AcDbEntity
  8
0
  6
Continuous
 62
     7
370
     0
100
AcDbLine
 10
218.7825669525
 20
108.8949824778
 30
0.0
 11
218.1701217277
 21
108.8949824778
 31
0.0
  0
SPLINE
  5
1CB
330
1F
100
AcDbEntity
  8
0
  6
Continuous
 62
     7
370
     0
100
AcDbSpline
210
0.0
220
0.0
230
1.0
 70
     8
 71
     3
 72
    23
 73
    19
 74
     0
 42
0.00000001
 43
0.00000001
 40
0.0
 40
0.0
 40
0.0
 40
0.0
 40
0.0718367171319505
 40
0.1395582629178172
 40
0.2049233526537264
 40
0.2678265586039221
 40
0.3285473200936659
 40
0.3887551463289839
 40
0.4480299679797879
 40
0.5086005276974233
 40
0.5693212891871666
 40
0.6285118954019238
 40
0.687493275539241
 40
0.747078295388978
 40
0.8077025413165653
 40
0.8697098126206608
 40
0.933428331305089
 40
1.0
 40
1.0
 40
1.0
 40
1.0
 10
217.2238773916696
 20
104.1271293294077
 30
0.0
 10
217.2388505051544
 20
104.1273829629935
 30
0.0
 10
217.2679389962748
 20
104.1278757007475
 30
0.0
 10
217.3103409087187
 20
104.1335062866263
 30
0.0
 10
217.350293096667
 20
104.1420497273082
 30
0.0
 10
217.3879785991055
 20
104.1537641848478
 30
0.0
 10
217.4228427273947
 20
104.1697903381985
 30
0.0
 10
217.4554532296718
 20
104.1885214303129
 30
0.0
 10
217.4854765424048
 20
104.2111593889712
 30
0.0
 10
217.5129041661923
 20
104.236995014054
 30
0.0
 10
217.5374567517222
 20
104.2655740572705
 30
0.0
 10
217.5584891460498
 20
104.2964046004327
 30
0.0
 10
217.5768359520461
 20
104.3286196099263
 30
0.0
 10
217.5918152803663
 20
104.36291433535
 30
0.0
 10
217.6026477490153
 20
104.3993594954071
 30
0.0
 10
217.6110065285678
 20
104.4372975404426
 30
0.0
 10
217.6160491329783
 20
104.4771197806224
 30
0.0
 10
217.6166423114531
 20
104.5042680160681
 30
0.0
 10
217.6169453955279
 20
104.5181393856018
 30
0.0
  0
SPLINE
  5
1CC
330
1F
100
AcDbEntity
  8
0
  6
Continuous
 62
     7
370
     0
100
AcDbSpline
210
0.0
220
0.0
230
1.0
 70
     8
 71
     3
 72
    19
 73
    15
 74
     0
 42
0.00000001
 43
0.00000001
 40
0.0
 40
0.0
 40
0.0
 40
0.0
 40
0.079823271279787
 40
0.1598568116661127
 40
0.2397327021152788
 40
0.3213646023254474
 40
0.4025836963489389
 40
0.483265588546352
 40
0.5660170116609762
 40
0.6530713596602558
 40
0.7418556865073695
 40
0.8285909050739395
 40
0.9142807452008549
 40
1.0
 40
1.0
 40
1.0
 40
1.0
 10
216.826693492483
 20
104.5263711762585
 30
0.0
 10
216.827149000423
 20
104.5094688796322
 30
0.0
 10
216.8280612161941
 20
104.4756197626368
 30
0.0
 10
216.8360633119059
 20
104.4253466509382
 30
0.0
 10
216.8496412108215
 20
104.3760097164685
 30
0.0
 10
216.8670436519895
 20
104.3275623571039
 30
0.0
 10
216.8915908774202
 20
104.2819599930343
 30
0.0
 10
216.9241432590974
 20
104.2412565278581
 30
0.0
 10
216.9649904010674
 20
104.2070355085081
 30
0.0
 10
217.0116400707556
 20
104.1781242926435
 30
0.0
 10
217.0625468543765
 20
104.1553686792685
 30
0.0
 10
217.1155932114469
 20
104.1394844879127
 30
0.0
 10
217.1694100429484
 20
104.1289890071262
 30
0.0
 10
217.2057195317983
 20
104.1277492928943
 30
0.0
 10
217.2238773916696
 20
104.1271293294077
 30
0.0
  0
SPLINE
  5
1CD
330
1F
100
AcDbEntity
  8
0
  6
Continuous
 62
     7
370
     0
100
AcDbSpline
210
0.0
220
0.0
230
1.0
 70
     8
 71
     3
 72
    23
 73
    19
 74
     0
 42
0.00000001
 43
0.00000001
 40
0.0
 40
0.0
 40
0.0
 40
0.0
 40
0.0709524654154269
 40
0.1390889271416602
 40
0.2035598239190671
 40
0.2664237811295191
 40
0.3275165661984789
 40
0.3878608717608968
 40
0.4478987850107178
 40
0.5088188285885856
 40
0.5694824568188307
 40
0.6290357116670982
 40
0.6883784585529115
 40
0.7480679615575835
 40
0.8086301697509072
 40
0.8702311456070247
 40
0.933682580472202
 40
1.0
 40
1.0
 40
1.0
 40
1.0
 10
217.2160571905458
 20
104.9173812324526
 30
0.0
 10
217.2013587213269
 20
104.9171156410001
 30
0.0
 10
217.1725451444863
 20
104.9165949990468
 30
0.0
 10
217.1306869819784
 20
104.911054920861
 30
0.0
 10
217.0910601622498
 20
104.9025471982104
 30
0.0
 10
217.0540133237447
 20
104.8900950135786
 30
0.0
 10
217.0190832663968
 20
104.8745347433989
 30
0.0
 10
216.9869088491645
 20
104.8549688171337
 30
0.0
 10
216.9569160827119
 20
104.832258359635
 30
0.0
 10
216.9300211387083
 20
104.8058617726239
 30
0.0
 10
216.9057549294571
 20
104.7771879024491
 30
0.0
 10
216.8847741927944
 20
104.7464496017276
 30
0.0
 10
216.8662398383656
 20
104.7143599069797
 30
0.0
 10
216.8521745082774
 20
104.6798658382993
 30
0.0
 10
216.8402694655143
 20
104.6440825259107
 30
0.0
 10
216.8328269306837
 20
104.606315454465
 30
0.0
 10
216.8275362184307
 20
104.5669937240883
 30
0.0
 10
216.8269785068754
 20
104.5401099377376
 30
0.0
 10
216.826693492483
 20
104.5263711762585
 30
0.0
  0
SPLINE
  5
1CE
330
1F
100
AcDbEntity
  8
0
  6
Continuous
 62
     7
370
     0
100
AcDbSpline
210
0.0
220
0.0
230
1.0
 70
     8
 71
     3
 72
    23
 73
    19
 74
     0
 42
0.00000001
 43
0.00000001
 40
0.0
 40
0.0
 40
0.0
 40
0.0
 40
0.0666161804351809
 40
0.130423869924064
 40
0.1926709575700171
 40
0.2529685047960665
 40
0.312880382805784
 40
0.3722002559180861
 40
0.4319271071459047
 40
0.4924217452545999
 40
0.5527712209075776
 40
0.6132624068156192
 40
0.6735564905563718
 40
0.7343197960333021
 40
0.7968580801403251
 40
0.8617690047507051
 40
0.9288631073150267
 40
0.9999999999999999
 40
0.9999999999999999
 40
0.9999999999999999
 40
0.9999999999999999
 10
217.6169453955279
 20
104.5181393856018
 30
0.0
 10
217.6166326588808
 20
104.532283033793
 30
0.0
 10
217.616020370342
 20
104.5599740439935
 30
0.0
 10
217.6111059148675
 20
104.6006702999881
 30
0.0
 10
217.6022784286138
 20
104.6392758085189
 30
0.0
 10
217.5909262445407
 20
104.6763737864177
 30
0.0
 10
217.5755407891294
 20
104.7113188350749
 30
0.0
 10
217.5570727039844
 20
104.7446120247521
 30
0.0
 10
217.5344568026767
 20
104.7753758209473
 30
0.0
 10
217.5096566628252
 20
104.8046546594361
 30
0.0
 10
217.4815912093308
 20
104.8311587760397
 30
0.0
 10
217.4505981642925
 20
104.8540142771882
 30
0.0
 10
217.4176597675683
 20
104.8741995554817
 30
0.0
 10
217.3817796027841
 20
104.8896833680589
 30
0.0
 10
217.343748158594
 20
104.9020862550015
 30
0.0
 10
217.3033847540783
 20
104.9110983811528
 30
0.0
 10
217.2605248157151
 20
104.916607254177
 30
0.0
 10
217.2311659482012
 20
104.9171182579818
 30
0.0
 10
217.2160571905458
 20
104.9173812324526
 30
0.0
  0
SPLINE
  5
1CF
330
1F
100
AcDbEntity
  8
0
  6
Continuous
 62
     7
370
     0
100
AcDbSpline
210
0.0
220
0.0
230
1.0
 70
     8
 71
     3
 72
    19
 73
    15
 74
     0
 42
0.00000001
 43
0.00000001
 40
0.0
 40
0.0
 40
0.0
 40
0.0
 40
0.0768426979287827
 40
0.1498390532852208
 40
0.2183793964454711
 40
0.2849970207005652
 40
0.3476576708142682
 40
0.4098471591145119
 40
0.4699357615076958
 40
0.5304196066566044
 40
0.6487517360264009
 40
0.7637748930771634
 40
0.8787494877784697
 40
0.9999999999999999
 40
0.9999999999999999
 40
0.9999999999999999
 40
0.9999999999999999
 10
217.2242889812025
 20
105.154456803366
 30
0.0
 10
217.2365150673273
 20
105.1546312210034
 30
0.0
 10
217.2603552658069
 20
105.1549713258457
 30
0.0
 10
217.2948413121698
 20
105.1594099053519
 30
0.0
 10
217.327430505804
 20
105.1653380460413
 30
0.0
 10
217.3576412740435
 20
105.1743212321139
 30
0.0
 10
217.385822398663
 20
105.1860019939006
 30
0.0
 10
217.4115155258892
 20
105.200401489822
 30
0.0
 10
217.4354895175609
 20
105.2169506428283
 30
0.0
 10
217.4635184567907
 20
105.2426933305878
 30
0.0
 10
217.4935966104784
 20
105.2788754241511
 30
0.0
 10
217.5193750163298
 20
105.3282707656637
 30
0.0
 10
217.5354390215857
 20
105.3823122025338
 30
0.0
 10
217.5370786239494
 20
105.419955213633
 30
0.0
 10
217.5379202052234
 20
105.4392767600884
 30
0.0
  0
SPLINE
  5
1D0
330
1F
100
AcDbEntity
  8
0
  6
Continuous
 62
     7
370
     0
100
AcDbSpline
210
0.0
220
0.0
230
1.0
 70
     8
 71
     3
 72
    19
 73
    15
 74
     0
 42
0.00000001
 43
0.00000001
 40
0.0
 40
0.0
 40
0.0
 40
0.0
 40
0.1273939413394724
 40
0.2461816112928118
 40
0.3612680043537856
 40
0.477140268037225
 40
0.5363265834357714
 40
0.5956719150436505
 40
0.6566189532057533
 40
0.7188356214960797
 40
0.7835815527063736
 40
0.8515878166889451
 40
0.9239265274809916
 40
1.0
 40
1.0
 40
1.0
 40
1.0
 10
216.9057186827875
 20
105.4516244460735
 30
0.0
 10
216.9065005023411
 20
105.4306545821776
 30
0.0
 10
216.9080113245623
 20
105.39013150213
 30
0.0
 10
216.9244416780427
 20
105.3325714358929
 30
0.0
 10
216.9501339826545
 20
105.2808663545576
 30
0.0
 10
216.9802537009566
 20
105.2433710265853
 30
0.0
 10
217.0091309466056
 20
105.2178235203326
 30
0.0
 10
217.0332329848843
 20
105.2007663581755
 30
0.0
 10
217.0595718518346
 20
105.1862851718822
 30
0.0
 10
217.0883383603898
 20
105.1750294806248
 30
0.0
 10
217.1188357844308
 20
105.1650576389858
 30
0.0
 10
217.1521159366887
 20
105.1594841044472
 30
0.0
 10
217.1873965869968
 20
105.1549531520793
 30
0.0
 10
217.2117869238822
 20
105.1546250055171
 30
0.0
 10
217.2242889812025
 20
105.154456803366
 30
0.0
  0
SPLINE
  5
1D1
330
1F
100
AcDbEntity
  8
0
  6
Continuous
 62
     7
370
     0
100
AcDbSpline
210
0.0
220
0.0
230
1.0
 70
     8
 71
     3
 72
    19
 73
    15
 74
     0
 42
0.00000001
 43
0.00000001
 40
0.0
 40
0.0
 40
0.0
 40
0.0
 40
0.0762358674075237
 40
0.1486180999543649
 40
0.2182394281414515
 40
0.2842516902686069
 40
0.3482575207850561
 40
0.4106562042500674
 40
0.4728623729995132
 40
0.5341947480221281
 40
0.653476101422413
 40
0.7677667895221957
 40
0.8817126094674202
 40
1.0
 40
1.0
 40
1.0
 40
1.0
 10
217.2218194440055
 20
105.7339748655989
 30
0.0
 10
217.2097293225151
 20
105.7338063169585
 30
0.0
 10
217.1861602211825
 20
105.7334777396162
 30
0.0
 10
217.1518317306084
 20
105.7289262456354
 30
0.0
 10
217.1193379602157
 20
105.7232096617476
 30
0.0
 10
217.088978685973
 20
105.7140356024169
 30
0.0
 10
217.0608801015584
 20
105.7020472395836
 30
0.0
 10
217.0347487164693
 20
105.6874571448997
 30
0.0
 10
217.010390561771
 20
105.670761544714
 30
0.0
 10
216.981665385683
 20
105.6450466653143
 30
0.0
 10
216.9515804963251
 20
105.6088637522492
 30
0.0
 10
216.9250765548933
 20
105.5602573129391
 30
0.0
 10
216.9086962615501
 20
105.5072598894837
 30
0.0
 10
216.9067235025354
 20
105.470399295264
 30
0.0
 10
216.9057186827875
 20
105.4516244460735
 30
0.0
  0
SPLINE
  5
1D2
330
1F
100
AcDbEntity
  8
0
  6
Continuous
 62
     7
370
     0
100
AcDbSpline
210
0.0
220
0.0
230
1.0
 70
     8
 71
     3
 72
    19
 73
    15
 74
     0
 42
0.00000001
 43
0.00000001
 40
0.0
 40
0.0
 40
0.0
 40
0.0
 40
0.1233861213626085
 40
0.2414346864233538
 40
0.3574485461509667
 40
0.4767139204528327
 40
0.5378895868739915
 40
0.5992703938301226
 40
0.6603520522565615
 40
0.7230069362990812
 40
0.7878755372012023
 40
0.855360105861051
 40
0.9253732137563339
 40
0.9999999999999999
 40
0.9999999999999999
 40
0.9999999999999999
 40
0.9999999999999999
 10
217.5379202052234
 20
105.4392767600884
 30
0.0
 10
217.5369062180339
 20
105.4592737333159
 30
0.0
 10
217.5349221076945
 20
105.4984026313417
 30
0.0
 10
217.5188973417212
 20
105.5545739281631
 30
0.0
 10
217.4919182449467
 20
105.6054483475806
 30
0.0
 10
217.4610983670509
 20
105.6426012155527
 30
0.0
 10
217.4325735972034
 20
105.6695162808996
 30
0.0
 10
217.4081692024148
 20
105.6866495225515
 30
0.0
 10
217.381934386717
 20
105.7012314269438
 30
0.0
 10
217.3537693008106
 20
105.7131395149787
 30
0.0
 10
217.3236332162025
 20
105.7227435119321
 30
0.0
 10
217.2914444979732
 20
105.7290441965532
 30
0.0
 10
217.2573384034483
 20
105.7334630881259
 30
0.0
 10
217.2339082200535
 20
105.7338006836027
 30
0.0
 10
217.2218194440055
 20
105.7339748655989
 30
0.0
  0
SPLINE
  5
1D3
330
1F
100
AcDbEntity
  8
0
  6
Continuous
 62
     7
370
     0
100
AcDbSpline
210
0.0
220
0.0
230
1.0
 70
     8
 71
     3
 72
    23
 73
    19
 74
     0
 42
0.00000001
 43
0.00000001
 40
0.0
 40
0.0
 40
0.0
 40
0.0
 40
0.0610549117432832
 40
0.1195453450847438
 40
0.1768063562451035
 40
0.2329564830316851
 40
0.2885834899465033
 40
0.3446666617213001
 40
0.4016615108374461
 40
0.4605400973082778
 40
0.5204770623221882
 40
0.5812128653554004
 40
0.6434307597220102
 40
0.7079608695212424
 40
0.7753707435336737
 40
0.8464136772813298
 40
0.9211518871893691
 40
1.0
 40
1.0
 40
1.0
 40
1.0
 10
216.5356996927681
 20
107.2881369415872
 30
0.0
 10
216.5601526128755
 20
107.2887489898884
 30
0.0
 10
216.6080313615152
 20
107.2899473787368
 30
0.0
 10
216.6783002195249
 20
107.2999786625538
 30
0.0
 10
216.745063500718
 20
107.3170564956686
 30
0.0
 10
216.8089829485252
 20
107.3397909601441
 30
0.0
 10
216.8689029611687
 20
107.3705240805307
 30
0.0
 10
216.9262248965709
 20
107.4065123963269
 30
0.0
 10
216.9793861513808
 20
107.45048908743
 30
0.0
 10
217.0296916839826
 20
107.499888125802
 30
0.0
 10
217.0748123580018
 20
107.5560392056867
 30
0.0
 10
217.1148474574529
 20
107.6175591470836
 30
0.0
 10
217.1473691542563
 20
107.6853705927195
 30
0.0
 10
217.1754472500338
 20
107.7579797492801
 30
0.0
 10
217.1960076499942
 20
107.8367589574486
 30
0.0
 10
217.2112030454865
 20
107.9208126559722
 30
0.0
 10
217.2203601125135
 20
108.0104112191581
 30
0.0
 10
217.2213243988808
 20
108.0719189702924
 30
0.0
 10
217.2218194440055
 20
108.103495806135
 30
0.0
  0
SPLINE
  5
1D4
330
1F
100
AcDbEntity
  8
0
  6
Continuous
 62
     7
370
     0
100
AcDbSpline
210
0.0
220
0.0
230
1.0
 70
     8
 71
     3
 72
    23
 73
    19
 74
     0
 42
0.00000001
 43
0.00000001
 40
0.0
 40
0.0
 40
0.0
 40
0.0
 40
0.0759644026221998
 40
0.1481252239748712
 40
0.2172006111446031
 40
0.2832999093723612
 40
0.347201868136241
 40
0.4092995407059241
 40
0.4704256161074027
 40
0.5315880640528347
 40
0.5917391729173698
 40
0.6502577442905727
 40
0.7073030399522857
 40
0.7642084640229153
 40
0.8211475320101305
 40
0.8791188121552541
 40
0.9384228183936666
 40
1.0
 40
1.0
 40
1.0
 40
1.0
 10
215.8520494787277
 20
108.0742729493037
 30
0.0
 10
215.8524935207111
 20
108.0446095087487
 30
0.0
 10
215.8533593712409
 20
107.9867678931446
 30
0.0
 10
215.8632651699575
 20
107.9024378934732
 30
0.0
 10
215.8782956374133
 20
107.8228682442344
 30
0.0
 10
215.8990135502126
 20
107.7478355742941
 30
0.0
 10
215.9268634985849
 20
107.6780819456737
 30
0.0
 10
215.9601617177962
 20
107.6129370937816
 30
0.0
 10
216.0000293667108
 20
107.5528340644153
 30
0.0
 10
216.0455868461994
 20
107.4979409894903
 30
0.0
 10
216.0956948509382
 20
107.4486291642116
 30
0.0
 10
216.1492403392072
 20
107.4055579079862
 30
0.0
 10
216.2062353477675
 20
107.3694887775385
 30
0.0
 10
216.2660479855689
 20
107.3397060104772
 30
0.0
 10
216.3291078588447
 20
107.3164578450655
 30
0.0
 10
216.3952261026268
 20
107.3001335690459
 30
0.0
 10
216.4644512968644
 20
107.2899240595355
 30
0.0
 10
216.5116543424401
 20
107.288740069231
 30
0.0
 10
216.5356996927681
 20
107.2881369415872
 30
0.0
  0
SPLINE
  5
1D5
330
1F
100
AcDbEntity
  8
0
  6
Continuous
 62
     7
370
     0
100
AcDbSpline
210
0.0
220
0.0
230
1.0
 70
     8
 71
     3
 72
    23
 73
    19
 74
     0
 42
0.00000001
 43
0.00000001
 40
0.0
 40
0.0
 40
0.0
 40
0.0
 40
0.0559431333569187
 40
0.1103820356898407
 40
0.1640478588828499
 40
0.2167594775435861
 40
0.2696011346144475
 40
0.3230085051908687
 40
0.3775814436721363
 40
0.4334493367080539
 40
0.490921858049893
 40
0.5506247708713257
 40
0.6131168723098183
 40
0.6798607463518506
 40
0.7513577440202002
 40
0.8282611012589941
 40
0.9107950320656293
 40
1.0
 40
1.0
 40
1.0
 40
1.0
 10
216.5398155880964
 20
108.9213242078799
 30
0.0
 10
216.5167296682797
 20
108.9208657306218
 30
0.0
 10
216.4711785760859
 20
108.9199611039048
 30
0.0
 10
216.4041219457293
 20
108.9099047733745
 30
0.0
 10
216.3394720834927
 20
108.894879241526
 30
0.0
 10
216.2771286596945
 20
108.8738727473677
 30
0.0
 10
216.2176248880612
 20
108.8460568477758
 30
0.0
 10
216.160652484624
 20
108.8119444536728
 30
0.0
 10
216.1057057358184
 20
108.7724643916673
 30
0.0
 10
216.0536510735308
 20
108.7266547389963
 30
0.0
 10
216.0051247423467
 20
108.6740306307017
 30
0.0
 10
215.964100597619
 20
108.6119884195923
 30
0.0
 10
215.9295243276279
 20
108.5420091835243
 30
0.0
 10
215.9006537791269
 20
108.4642703036093
 30
0.0
 10
215.8786408361105
 20
108.3781697436016
 30
0.0
 10
215.863427139074
 20
108.2840780346399
 30
0.0
 10
215.853821521166
 20
108.1818960272285
 30
0.0
 10
215.8526552603117
 20
108.1110644375943
 30
0.0
 10
215.8520494787277
 20
108.0742729493037
 30
0.0
  0
SPLINE
  5
1D6
330
1F
100
AcDbEntity
  8
0
  6
Continuous
 62
     7
370
     0
100
AcDbSpline
210
0.0
220
0.0
230
1.0
 70
     8
 71
     3
 72
    31
 73
    27
 74
     0
 42
0.00000001
 43
0.00000001
 40
0.0
 40
0.0
 40
0.0
 40
0.0
 40
0.0508516157922844
 40
0.0997524678094164
 40
0.1474376477769319
 40
0.1940857839327041
 40
0.239170927084144
 40
0.2833398222454342
 40
0.3265771497238441
 40
0.368936281499902
 40
0.4105718726814497
 40
0.4510505934949118
 40
0.4908768629924158
 40
0.5300443324843861
 40
0.5689366633103304
 40
0.6075778621311337
 40
0.646420096450513
 40
0.6856793513063945
 40
0.7247985849801968
 40
0.7635130084045112
 40
0.802172526378755
 40
0.8407403615726128
 40
0.8796493769005862
 40
0.9190706128663402
 40
0.9590978622172246
 40
1.0
 40
1.0
 40
1.0
 40
1.0
 10
217.2218194440055
 20
108.103495806135
 30
0.0
 10
217.2216444952491
 20
108.1238102870066
 30
0.0
 10
217.2213013091002
 20
108.1636599469954
 30
0.0
 10
217.2167563742829
 20
108.2223988017805
 30
0.0
 10
217.2108939915626
 20
108.2793105418593
 30
0.0
 10
217.2019684227318
 20
108.3343217307173
 30
0.0
 10
217.1896678564236
 20
108.3872045545127
 30
0.0
 10
217.1760409178046
 20
108.4383616112667
 30
0.0
 10
217.1590009075994
 20
108.4873520575935
 30
0.0
 10
217.139666641253
 20
108.5343680153058
 30
0.0
 10
217.1180319245927
 20
108.5791681133958
 30
0.0
 10
217.0936308415646
 20
108.6213746692003
 30
0.0
 10
217.0667469828108
 20
108.6608235929838
 30
0.0
 10
217.0381057061871
 20
108.698262796369
 30
0.0
 10
217.0061210197518
 20
108.7322432288567
 30
0.0
 10
216.9723330051375
 20
108.7642002396841
 30
0.0
 10
216.9359741687522
 20
108.7934735899817
 30
0.0
 10
216.8974073584457
 20
108.8200709264283
 30
0.0
 10
216.8571796944306
 20
108.8440127209705
 30
0.0
 10
216.8153741057597
 20
108.864503790673
 30
0.0
 10
216.7726566149564
 20
108.8825026209521
 30
0.0
 10
216.728312191657
 20
108.8962994797719
 30
0.0
 10
216.6829531468848
 20
108.9074268489041
 30
0.0
 10
216.6363961152176
 20
108.9158791221215
 30
0.0
 10
216.5884682893197
 20
108.920256102548
 30
0.0
 10
216.5561496156834
 20
108.9209656160337
 30
0.0
 10
216.5398155880964
 20
108.9213242078799
 30
0.0
  0
SPLINE
  5
1D7
330
1F
100
AcDbEntity
  8
0
  6
Continuous
 62
     7
370
     0
100
AcDbSpline
210
0.0
220
0.0
230
1.0
 70
     8
 71
     3
 72
    23
 73
    19
 74
     0
 42
0.00000001
 43
0.00000001
 40
0.0
 40
0.0
 40
0.0
 40
0.0
 40
0.1156291309254414
 40
0.2215410391198768
 40
0.3170478562190417
 40
0.4031508756396167
 40
0.4801812167162795
 40
0.5476493661481898
 40
0.6070358428421809
 40
0.6586524080635072
 40
0.705722890353646
 40
0.749804087979647
 40
0.7925868153452743
 40
0.8338739610102607
 40
0.8747683933034329
 40
0.9152226988916381
 40
0.9568807037304801
 40
1.0
 40
1.0
 40
1.0
 40
1.0
 10
216.0364415894382
 20
104.9305520975033
 30
0.0
 10
216.0361921378609
 20
104.9692485081197
 30
0.0
 10
216.0357141980789
 20
105.043389366479
 30
0.0
 10
216.0303126027405
 20
105.1493822716775
 30
0.0
 10
216.0218478173979
 20
105.2452441784376
 30
0.0
 10
216.0102693357788
 20
105.3310634625482
 30
0.0
 10
215.9948815358539
 20
105.4067469554113
 30
0.0
 10
215.976218233617
 20
105.4724557768962
 30
0.0
 10
215.9539781184013
 20
105.5280497922663
 30
0.0
 10
215.9275347007735
 20
105.5740874445006
 30
0.0
 10
215.8980978859937
 20
105.6118508088337
 30
0.0
 10
215.8673483423775
 20
105.6445382865187
 30
0.0
 10
215.8345173282339
 20
105.6723379213597
 30
0.0
 10
215.7990231767843
 20
105.6946391985217
 30
0.0
 10
215.7620099312861
 20
105.7126310394392
 30
0.0
 10
215.7226271214351
 20
105.7250134825261
 30
0.0
 10
215.6812618491292
 20
105.7326208682499
 30
0.0
 10
215.6528733994055
 20
105.7335183764191
 30
0.0
 10
215.6384345111859
 20
105.7339748655989
 30
0.0
  0
SPLINE
  5
1D8
330
1F
100
AcDbEntity
  8
0
  6
Continuous
 62
     7
370
     0
100
AcDbSpline
210
0.0
220
0.0
230
1.0
 70
     8
 71
     3
 72
    23
 73
    19
 74
     0
 42
0.00000001
 43
0.00000001
 40
0.0
 40
0.0
 40
0.0
 40
0.0
 40
0.0407818458722597
 40
0.0808695887215869
 40
0.1202681657882671
 40
0.1601868504553522
 40
0.2004597376386391
 40
0.2422651778979079
 40
0.2864592615494684
 40
0.3329520837492633
 40
0.3844305340495303
 40
0.4433891253601058
 40
0.5116814722136833
 40
0.5890200255490083
 40
0.6762451906507723
 40
0.7737051914728237
 40
0.881567767781983
 40
1.0
 40
1.0
 40
1.0
 40
1.0
 10
215.6413156379157
 20
104.1271293294077
 30
0.0
 10
215.6549213054926
 20
104.1276487574249
 30
0.0
 10
215.6819010735168
 20
104.1286787728452
 30
0.0
 10
215.7216177781447
 20
104.1355395425296
 30
0.0
 10
215.7594561955201
 20
104.1483576412462
 30
0.0
 10
215.7957575337601
 20
104.1651173597966
 30
0.0
 10
215.8303343689204
 20
104.1868252194545
 30
0.0
 10
215.8630048590812
 20
104.2135680847662
 30
0.0
 10
215.8942907193566
 20
104.2448941195846
 30
0.0
 10
215.9242995990385
 20
104.2817636292348
 30
0.0
 10
215.9516216513875
 20
104.3266812261806
 30
0.0
 10
215.9742872665307
 20
104.3820369861456
 30
0.0
 10
215.9937166516123
 20
104.4475557725847
 30
0.0
 10
216.009521833694
 20
104.5237095506341
 30
0.0
 10
216.0214755703078
 20
104.6103591236346
 30
0.0
 10
216.0304256965816
 20
104.7075870845181
 30
0.0
 10
216.0356914801539
 20
104.8155229995292
 30
0.0
 10
216.0361838866576
 20
104.891033431333
 30
0.0
 10
216.0364415894382
 20
104.9305520975033
 30
0.0
  0
SPLINE
  5
1D9
330
1F
100
AcDbEntity
  8
0
  6
Continuous
 62
     7
370
     0
100
AcDbSpline
210
0.0
220
0.0
230
1.0
 70
     8
 71
     3
 72
    23
 73
    19
 74
     0
 42
0.00000001
 43
0.00000001
 40
0.0
 40
0.0
 40
0.0
 40
0.0
 40
0.1184055081537695
 40
0.226654332816702
 40
0.3240923419286021
 40
0.4117048030053219
 40
0.4890259050064157
 40
0.5569093973430758
 40
0.6162333444927074
 40
0.6673492812770747
 40
0.7135123932013476
 40
0.7576965045209786
 40
0.7994925114422912
 40
0.8399760647439397
 40
0.8798857418167761
 40
0.9191486593857416
 40
0.9592273564930831
 40
1.0
 40
1.0
 40
1.0
 40
1.0
 10
215.2461896863933
 20
104.9305520975033
 30
0.0
 10
215.2464512388262
 20
104.8910336096131
 30
0.0
 10
215.2469519080358
 20
104.815386482665
 30
0.0
 10
215.2521826859693
 20
104.7073115104717
 30
0.0
 10
215.2611872548802
 20
104.6098131332419
 30
0.0
 10
215.2730918831296
 20
104.5230263438492
 30
0.0
 10
215.2888108124019
 20
104.446833745999
 30
0.0
 10
215.3085477872346
 20
104.3814295018867
 30
0.0
 10
215.3307960522447
 20
104.326028612309
 30
0.0
 10
215.3583278586035
 20
104.2813177286551
 30
0.0
 10
215.3884721456573
 20
104.2448718361228
 30
0.0
 10
215.4195940619267
 20
104.2135271898912
 30
0.0
 10
215.4524257985214
 20
104.1868849583066
 30
0.0
 10
215.4867531323279
 20
104.1646707704888
 30
0.0
 10
215.5231086766326
 20
104.1478516469575
 30
0.0
 10
215.5610948896018
 20
104.1356611087696
 30
0.0
 10
215.6007200367109
 20
104.1286456412157
 30
0.0
 10
215.6277065624703
 20
104.1276376505356
 30
0.0
 10
215.6413156379157
 20
104.1271293294077
 30
0.0
  0
SPLINE
  5
1DA
330
1F
100
AcDbEntity
  8
0
  6
Continuous
 62
     7
370
     0
100
AcDbSpline
210
0.0
220
0.0
230
1.0
 70
     8
 71
     3
 72
    15
 73
    11
 74
     0
 42
0.00000001
 43
0.00000001
 40
0.0
 40
0.0
 40
0.0
 40
0.0
 40
0.0838881132795455
 40
0.1771540327539698
 40
0.2825136355617228
 40
0.3993998606601629
 40
0.5294908061912204
 40
0.6728021776758327
 40
0.82953576161967
 40
1.0
 40
1.0
 40
1.0
 40
1.0
 10
215.3651390613828
 20
105.5932112453691
 30
0.0
 10
215.3553486370582
 20
105.576842643928
 30
0.0
 10
215.3346733222408
 20
105.5422756040643
 30
0.0
 10
215.31153884714
 20
105.4821966645749
 30
0.0
 10
215.2911027663823
 20
105.4135378724687
 30
0.0
 10
215.2742770964323
 20
105.3352428623617
 30
0.0
 10
215.2621049046007
 20
105.2474459416885
 30
0.0
 10
215.2524954298138
 20
105.150249069975
 30
0.0
 10
215.2475036653446
 20
105.0435165487598
 30
0.0
 10
215.2466397637427
 20
104.9692458229608
 30
0.0
 10
215.2461896863933
 20
104.9305520975033
 30
0.0
  0
SPLINE
  5
1DB
330
1F
100
AcDbEntity
  8
0
  6
Continuous
 62
     7
370
     0
100
AcDbSpline
210
0.0
220
0.0
230
1.0
 70
     8
 71
     3
 72
    15
 73
    11
 74
     0
 42
0.00000001
 43
0.00000001
 40
0.0
 40
0.0
 40
0.0
 40
0.0
 40
0.1276647678962251
 40
0.2517385630080496
 40
0.3727533493873896
 40
0.492146758972386
 40
0.614069621309245
 40
0.7371973244121095
 40
0.8656069906011175
 40
1.0
 40
1.0
 40
1.0
 40
1.0
 10
215.6384345111859
 20
105.7339748655989
 30
0.0
 10
215.6248262904655
 20
105.7336177035205
 30
0.0
 10
215.5979926229965
 20
105.7329134256696
 30
0.0
 10
215.5587046196136
 20
105.7261911007148
 30
0.0
 10
215.5214718403507
 20
105.7149498750714
 30
0.0
 10
215.4858677179129
 20
105.6997225434408
 30
0.0
 10
215.4527810902263
 20
105.679229562742
 30
0.0
 10
215.4208998239188
 20
105.6553025490793
 30
0.0
 10
215.3917171141535
 20
105.6261501535359
 30
0.0
 10
215.3741318692879
 20
105.6043562783142
 30
0.0
 10
215.3651390613828
 20
105.5932112453691
 30
0.0
  0
LINE
  5
1DC
330
1F
100
AcDbEntity
  8
0
  6
Continuous
 62
     7
370
     0
100
AcDbLine
 10
142.3106668541
 20
107.644573477
 30
0.0
 11
142.3109668541
 21
107.644573477
 31
0.0
  0
LINE
  5
1DD
330
1F
100
AcDbEntity
  8
0
  6
Continuous
 62
     7
370
     0
100
AcDbLine
 10
142.3109668541
 20
107.6486596483
 30
0.0
 11
142.3106668541
 21
107.6486596625
 31
0.0
  0
LINE
  5
1DE
330
1F
100
AcDbEntity
  8
0
  6
Continuous
 62
     7
370
     0
100
AcDbLine
 10
142.3109668541
 20
107.6486596483
 30
0.0
 11
142.3109668541
 21
107.644573477
 31
0.0
  0
LINE
  5
1DF
330
1F
100
AcDbEntity
  8
0
  6
Continuous
 62
     7
370
     0
100
AcDbLine
 10
142.3106668541
 20
108.5780585375
 30
0.0
 11
142.3109668541
 21
108.5780585375
 31
0.0
  0
LINE
  5
1E0
330
1F
100
AcDbEntity
  8
0
  6
Continuous
 62
     7
370
     0
100
AcDbLine
 10
142.3106668541
 20
108.1766279558
 30
0.0
 11
142.3109668541
 21
108.1766279473
 31
0.0
  0
LINE
  5
1E1
330
1F
100
AcDbEntity
  8
0
  6
Continuous
 62
     7
370
     0
100
AcDbLine
 10
142.3109668541
 20
108.9985514551
 30
0.0
 11
142.3106668541
 21
108.9985514553
 31
0.0
  0
LINE
  5
1E2
330
1F
100
AcDbEntity
  8
0
  6
Continuous
 62
     7
370
     0
100
AcDbLine
 10
142.3106668541
 20
107.0899572432
 30
0.0
 11
142.3109668541
 21
107.0899572432
 31
0.0
  0
LINE
  5
1E3
330
1F
100
AcDbEntity
  8
0
  6
Continuous
 62
     7
370
     0
100
AcDbLine
 10
142.3106668541
 20
105.3691419037
 30
0.0
 11
142.3109668541
 21
105.3691419037
 31
0.0
  0
LINE
  5
1E4
330
1F
100
AcDbEntity
  8
0
  6
Continuous
 62
     7
370
     0
100
AcDbLine
 10
142.3109668541
 20
105.3691419037
 30
0.0
 11
142.3109668541
 21
104.4594824614
 31
0.0
  0
LINE
  5
1E5
330
1F
100
AcDbEntity
  8
0
  6
Continuous
 62
     7
370
     0
100
AcDbLine
 10
142.3106668541
 20
103.9163954886
 30
0.0
 11
142.3109668541
 21
103.9163954886
 31
0.0
  0
LINE
  5
1E6
330
1F
100
AcDbEntity
  8
0
  6
Continuous
 62
     7
370
     0
100
AcDbLine
 10
142.3109668541
 20
81.3274031008
 30
0.0
 11
142.1109668541
 21
81.1274031008
 31
0.0
  0
LINE
  5
1E7
330
1F
100
AcDbEntity
  8
0
  6
Continuous
 62
     7
370
     0
100
AcDbLine
 10
142.1109668541
 20
81.1274031008
 30
0.0
 11
132.703702259
 21
81.1274031008
 31
0.0
  0
LINE
  5
1E8
330
1F
100
AcDbEntity
  8
0
  6
Continuous
 62
     7
370
     0
100
AcDbLine
 10
132.703702259
 20
81.1274031008
 30
0.0
 11
132.5163553173
 21
81.327049492
 31
0.0
  0
ARC
  5
1E9
330
1F
100
AcDbEntity
  8
0
  6
Continuous
 62
     7
370
     0
100
AcDbCircle
 10
-266.6890331459
 20
106.5274031008
 30
0.0
 40
399.9999999999999
100
AcDbArc
 50
356.3879230914
 51
3.6120769086
  0
LINE
  5
1EA
330
1F
100
AcDbEntity
  8
0
  6
Continuous
 62
     7
370
     0
100
AcDbLine
 10
132.5163553173
 20
131.7277567096
 30
0.0
 11
132.703702259
 21
131.9274031008
 31
0.0
  0
LINE
  5
1EB
330
1F
100
AcDbEntity
  8
0
  6
Continuous
 62
     7
370
     0
100
AcDbLine
 10
132.703702259
 20
131.9274031008
 30
0.0
 11
142.1109668541
 21
131.9274031008
 31
0.0
  0
LINE
  5
1EC
330
1F
100
AcDbEntity
  8
0
  6
Continuous
 62
     7
370
     0
100
AcDbLine
 10
142.1109668541
 20
131.9274031008
 30
0.0
 11
142.3109668541
 21
131.7274031008
 31
0.0
  0
LINE
  5
1ED
330
1F
100
AcDbEntity
  8
0
  6
Continuous
 62
     7
370
     0
100
AcDbLine
 10
142.3106668541
 20
108.9985514553
 30
0.0
 11
142.3106668541
 21
108.1766279558
 31
0.0
  0
LINE
  5
1EE
330
1F
100
AcDbEntity
  8
0
  6
Continuous
 62
     7
370
     0
100
AcDbLine
 10
142.3109668541
 20
105.843937884
 30
0.0
 11
142.3106668541
 21
105.8439378838
 31
0.0
  0
LINE
  5
1EF
330
1F
100
AcDbEntity
  8
0
  6
Continuous
 62
     7
370
     0
100
AcDbLine
 10
142.3106668541
 20
104.4594824553
 30
0.0
 11
142.3106668541
 21
103.9163954886
 31
0.0
  0
LINE
  5
1F0
330
1F
100
AcDbEntity
  8
0
  6
Continuous
 62
     7
370
     0
100
AcDbLine
 10
142.3106668541
 20
105.8439378838
 30
0.0
 11
142.3106668541
 21
105.3691419037
 31
0.0
  0
LINE
  5
1F1
330
1F
100
AcDbEntity
  8
0
  6
Continuous
 62
     7
370
     0
100
AcDbLine
 10
142.3109668541
 20
104.4594824614
 30
0.0
 11
142.3106668541
 21
104.4594824553
 31
0.0
  0
LINE
  5
1F2
330
1F
100
AcDbEntity
  8
0
  6
Continuous
 62
     7
370
     0
100
AcDbLine
 10
142.3109668541
 20
103.9163954886
 30
0.0
 11
142.3109668541
 21
81.3274031008
 31
0.0
  0
LINE
  5
1F3
330
1F
100
AcDbEntity
  8
0
  6
Continuous
 62
     7
370
     0
100
AcDbLine
 10
142.3109668541
 20
107.0899572432
 30
0.0
 11
142.3109668541
 21
105.843937884
 31
0.0
  0
LINE
  5
1F4
330
1F
100
AcDbEntity
  8
0
  6
Continuous
 62
     7
370
     0
100
AcDbLine
 10
142.3109668541
 20
108.1766279473
 30
0.0
 11
142.3109668541
 21
107.6486596483
 31
0.0
  0
LINE
  5
1F5
330
1F
100
AcDbEntity
  8
0
  6
Continuous
 62
     7
370
     0
100
AcDbLine
 10
142.3109668541
 20
131.7274031008
 30
0.0
 11
142.3109668541
 21
108.9985514551
 31
0.0
  0
LINE
  5
1F6
330
1F
100
AcDbEntity
  8
0
  6
Continuous
 62
     7
370
     0
100
AcDbLine
 10
142.3106668541
 20
107.6486596625
 30
0.0
 11
142.3106668541
 21
107.0899572432
 31
0.0
  0
LINE
  5
1F7
330
1F
100
AcDbEntity
  8
0
  6
Continuous
 62
     7
370
     0
100
AcDbLine
 10
132.5163553173
 20
131.7277567096
 30
0.0
 11
132.5163553173
 21
81.327049492
 31
0.0
  0
LINE
  5
1F8
330
1F
100
AcDbEntity
  8
0
  6
Continuous
 62
     7
370
     0
100
AcDbLine
 10
142.3109668541
 20
107.644573477
 30
0.0
 11
142.3109668541
 21
107.0899572432
 31
0.0
  0
LINE
  5
1F9
330
1F
100
AcDbEntity
  8
0
  6
Continuous
 62
     7
370
     0
100
AcDbLine
 10
142.3106668541
 20
105.7339748656
 30
0.0
 11
142.3109668541
 21
105.7339748656
 31
0.0
  0
LINE
  5
1FA
330
1F
100
AcDbEntity
  8
0
  6
Continuous
 62
     7
370
     0
100
AcDbLine
 10
142.3106668541
 20
104.1798127896
 30
0.0
 11
142.3109668541
 21
104.1798127896
 31
0.0
  0
LINE
  5
1FB
330
1F
100
AcDbEntity
  8
0
  6
Continuous
 62
     7
370
     0
100
AcDbLine
 10
142.3109668541
 20
104.1798127896
 30
0.0
 11
142.3109668541
 21
103.9163954886
 31
0.0
  0
HATCH
  5
1FC
330
1F
100
AcDbEntity
  8
0
  6
Continuous
 62
     7
370
     0
100
AcDbHatch
 10
0.0
 20
0.0
 30
0.0
210
0.0
220
0.0
230
1.0
  2
ANSI31
 70
     0
 71
     0
 91
        1
 92
        0
 93
       24
 72
     1
 10
142.3106668541405
 20
108.1766279557779
 11
142.3106668541405
 21
108.9985514552934
 72
     1
 10
142.3106668541405
 20
108.9985514552934
 11
142.3109668541406
 21
108.9985514550682
 72
     1
 10
142.3109668541406
 20
108.9985514550682
 11
142.3109668541406
 21
131.7274031007752
 72
     1
 10
142.3109668541406
 20
131.7274031007752
 11
142.1109668541405
 21
131.9274031007752
 72
     1
 10
142.1109668541405
 20
131.9274031007752
 11
132.7037022589823
 21
131.9274031007752
 72
     1
 10
132.7037022589823
 20
131.9274031007752
 11
132.5163553172603
 21
131.7277567095962
 72
     2
 10
-266.6890331458595
 20
106.5274031007752
 40
400.0
 50
356.3879230913782
 51
363.6120769086234
 73
     0
 72
     1
 10
132.5163553172603
 20
81.32704949195438
 11
132.7037022589823
 21
81.12740310077521
 72
     1
 10
132.7037022589823
 20
81.12740310077521
 11
142.1109668541405
 21
81.12740310077521
 72
     1
 10
142.1109668541405
 20
81.12740310077521
 11
142.3109668541406
 21
81.32740310077523
 72
     1
 10
142.3109668541406
 20
81.32740310077523
 11
142.3109668541406
 21
103.9163954885957
 72
     1
 10
142.3109668541406
 20
103.9163954885957
 11
142.3106668541405
 21
103.9163954885957
 72
     1
 10
142.3106668541405
 20
103.9163954885957
 11
142.3106668541404
 21
104.4594824553374
 72
     1
 10
142.3106668541404
 20
104.4594824553374
 11
142.3109668541406
 21
104.4594824613789
 72
     1
 10
142.3109668541406
 20
104.4594824613789
 11
142.3109668541406
 21
105.3691419036932
 72
     1
 10
142.3109668541406
 20
105.3691419036932
 11
142.3106668541405
 21
105.3691419036932
 72
     1
 10
142.3106668541405
 20
105.3691419036932
 11
142.3106668541404
 21
105.8439378837988
 72
     1
 10
142.3106668541404
 20
105.8439378837988
 11
142.3109668541406
 21
105.8439378839635
 72
     1
 10
142.3109668541406
 20
105.8439378839635
 11
142.3109668541406
 21
107.0899572432462
 72
     1
 10
142.3109668541406
 20
107.0899572432462
 11
142.3106668541405
 21
107.0899572432462
 72
     1
 10
142.3106668541405
 20
107.0899572432462
 11
142.3106668541399
 21
107.6486596624766
 72
     1
 10
142.3106668541399
 20
107.6486596624766
 11
142.3109668541406
 21
107.6486596483427
 72
     1
 10
142.3109668541406
 20
107.6486596483427
 11
142.3109668541406
 21
108.1766279473201
 72
     1
 10
142.3109668541406
 20
108.1766279473201
 11
142.3106668541405
 21
108.1766279557779
 97
        0
 75
     0
 76
     1
 52
0.0
 41
0.5
 77
     0
 78
     1
 53
45.0
 43
0.0
 44
0.0
 45
-1.122532015133644
 46
1.122532015133644
 79
     0
 98
        1
 10
0.0
 20
0.0
  0
DIMENSION
  5
1FD
330
1F
100
AcDbEntity
  8
0
  6
Continuous
 62
     7
370
     0
100
AcDbDimension
  2
*D9
 10
-266.6890331459
 20
106.5274031008
 30
0.0
 11
169.1006010115
 21
91.3164105767
 31
0.0
 70
   164
  1
<>
 71
     1
 42
-1.0
  3
SLDDIMSTYLE1
100
AcDbRadialDimension
 15
133.0530505999
 25
92.1654226442
 35
0.0
 40
0.0
  0
DIMENSION
  5
20E
330
1F
100
AcDbEntity
  8
0
  6
Continuous
 62
     7
370
     0
100
AcDbDimension
  2
*D10
 10
133.3109668541
 20
141.9274031008
 30
0.0
 11
156.3612833004
 21
141.9274031008
 31
0.0
 70
   160
 71
     2
 42
-1.0
  3
SLDDIMSTYLE2
100
AcDbAlignedDimension
 13
142.3109668541
 23
131.7274031008
 33
0.0
 14
133.3109668541
 24
106.5274031008
 34
0.0
100
AcDbRotatedDimension
  0
DIMENSION
  5
221
330
1F
100
AcDbEntity
  8
0
  6
Continuous
 62
     7
370
     0
100
AcDbDimension
  2
*D11
 10
132.5163553173
 20
153.9274031008
 30
0.0
 11
158.3109668541
 21
153.9274031008
 31
0.0
 70
   160
  1
<> REF
 71
     2
 42
-1.0
  3
SLDDIMSTYLE3
100
AcDbAlignedDimension
 13
142.3109668541
 23
131.7274031008
 33
0.0
 14
132.5163553173
 24
131.7277567096
 34
0.0
100
AcDbRotatedDimension
  0
MTEXT
  5
235
330
1F
100
AcDbEntity
  8
0
  6
Continuous
 62
     7
370
     0
100
AcDbMText
 10
137.2326170356
 20
74.542596401
 30
0.0
 40
2.1166666667
 41
0.0
 71
     2
 72
     1
  1
SECTION A-A
  7
SLDTEXTSTYLE0
 73
     1
 44
1.0
  0
OLE2FRAME
  5
236
330
1F
100
AcDbEntity
  8
0
100
AcDbOle2Frame
 70
     2
  3
Paintbrush Picture
 10
229.0524258301
 20
33.6996297921
 30
0.0
 11
265.1686469208
 21
28.555479607
 31
0.0
 71
     2
 72
     0
 73
     1
 90
     7296
310
80557333EF78ADA16C40002412788DD94040000000000000000041161DC7B292
310
7040002412788DD94040000000000000000041161DC7B2927040F6DD59E9338E
310
3C4000000000000000007333EF78ADA16C40F6DD59E9338E3C40000000000000
310
00000000000001000000000100000100000001000000000001000000001C0000
310
D0CF11E0A1B11AE1000000000000000000000000000000003E000300FEFF0900
310
0600000000000000000000000100000001000000000000000010000002000000
310
01000000FEFFFFFF0000000000000000FFFFFFFFFFFFFFFFFFFFFFFFFFFFFFFF
310
FFFFFFFFFFFFFFFFFFFFFFFFFFFFFFFFFFFFFFFFFFFFFFFFFFFFFFFFFFFFFFFF
310
FFFFFFFFFFFFFFFFFFFFFFFFFFFFFFFFFFFFFFFFFFFFFFFFFFFFFFFFFFFFFFFF
310
FFFFFFFFFFFFFFFFFFFFFFFFFFFFFFFFFFFFFFFFFFFFFFFFFFFFFFFFFFFFFFFF
310
FFFFFFFFFFFFFFFFFFFFFFFFFFFFFFFFFFFFFFFFFFFFFFFFFFFFFFFFFFFFFFFF
310
FFFFFFFFFFFFFFFFFFFFFFFFFFFFFFFFFFFFFFFFFFFFFFFFFFFFFFFFFFFFFFFF
310
FFFFFFFFFFFFFFFFFFFFFFFFFFFFFFFFFFFFFFFFFFFFFFFFFFFFFFFFFFFFFFFF
310
FFFFFFFFFFFFFFFFFFFFFFFFFFFFFFFFFFFFFFFFFFFFFFFFFFFFFFFFFFFFFFFF
310
FFFFFFFFFFFFFFFFFFFFFFFFFFFFFFFFFFFFFFFFFFFFFFFFFFFFFFFFFFFFFFFF
310
FFFFFFFFFFFFFFFFFFFFFFFFFFFFFFFFFFFFFFFFFFFFFFFFFFFFFFFFFFFFFFFF
310
FFFFFFFFFFFFFFFFFFFFFFFFFFFFFFFFFFFFFFFFFFFFFFFFFFFFFFFFFFFFFFFF
310
FFFFFFFFFFFFFFFFFFFFFFFFFFFFFFFFFFFFFFFFFFFFFFFFFFFFFFFFFFFFFFFF
310
FFFFFFFFFFFFFFFFFFFFFFFFFFFFFFFFFFFFFFFFFFFFFFFFFFFFFFFFFFFFFFFF
310
FFFFFFFFFFFFFFFFFFFFFFFFFFFFFFFFFFFFFFFFFFFFFFFFFFFFFFFFFFFFFFFF
310
FDFFFFFFFEFFFFFFFEFFFFFFFEFFFFFF05000000060000000700000008000000
310
090000000A0000000B0000000C000000FEFFFFFFFFFFFFFFFFFFFFFFFFFFFFFF
310
FFFFFFFFFFFFFFFFFFFFFFFFFFFFFFFFFFFFFFFFFFFFFFFFFFFFFFFFFFFFFFFF
310
FFFFFFFFFFFFFFFFFFFFFFFFFFFFFFFFFFFFFFFFFFFFFFFFFFFFFFFFFFFFFFFF
310
FFFFFFFFFFFFFFFFFFFFFFFFFFFFFFFFFFFFFFFFFFFFFFFFFFFFFFFFFFFFFFFF
310
FFFFFFFFFFFFFFFFFFFFFFFFFFFFFFFFFFFFFFFFFFFFFFFFFFFFFFFFFFFFFFFF
310
FFFFFFFFFFFFFFFFFFFFFFFFFFFFFFFFFFFFFFFFFFFFFFFFFFFFFFFFFFFFFFFF
310
FFFFFFFFFFFFFFFFFFFFFFFFFFFFFFFFFFFFFFFFFFFFFFFFFFFFFFFFFFFFFFFF
310
FFFFFFFFFFFFFFFFFFFFFFFFFFFFFFFFFFFFFFFFFFFFFFFFFFFFFFFFFFFFFFFF
310
FFFFFFFFFFFFFFFFFFFFFFFFFFFFFFFFFFFFFFFFFFFFFFFFFFFFFFFFFFFFFFFF
310
FFFFFFFFFFFFFFFFFFFFFFFFFFFFFFFFFFFFFFFFFFFFFFFFFFFFFFFFFFFFFFFF
310
FFFFFFFFFFFFFFFFFFFFFFFFFFFFFFFFFFFFFFFFFFFFFFFFFFFFFFFFFFFFFFFF
310
FFFFFFFFFFFFFFFFFFFFFFFFFFFFFFFFFFFFFFFFFFFFFFFFFFFFFFFFFFFFFFFF
310
FFFFFFFFFFFFFFFFFFFFFFFFFFFFFFFFFFFFFFFFFFFFFFFFFFFFFFFFFFFFFFFF
310
FFFFFFFFFFFFFFFFFFFFFFFFFFFFFFFFFFFFFFFFFFFFFFFFFFFFFFFFFFFFFFFF
310
FFFFFFFFFFFFFFFFFFFFFFFFFFFFFFFFFFFFFFFFFFFFFFFFFFFFFFFFFFFFFFFF
310
52006F006F007400200045006E00740072007900000000000000000000000000
310
0000000000000000000000000000000000000000000000000000000000000000
310
16000500FFFFFFFFFFFFFFFF020000000A00030000000000C000000000000046
310
00000000000000000000000000D9AABF03C1CD0103000000C000000000000000
310
01004F006C006500000000000000000000000000000000000000000000000000
310
0000000000000000000000000000000000000000000000000000000000000000
310
0A000200FFFFFFFFFFFFFFFFFFFFFFFF00000000000000000000000000000000
310
0000000000000000000000000000000000000000000000001400000000000000
310
010043006F006D0070004F0062006A0000000000000000000000000000000000
310
0000000000000000000000000000000000000000000000000000000000000000
310
120002010100000003000000FFFFFFFF00000000000000000000000000000000
310
0000000000000000000000000000000000000000010000004D00000000000000
310
01004F006C006500310030004E00610074006900760065000000000000000000
310
0000000000000000000000000000000000000000000000000000000000000000
310
1A000200FFFFFFFFFFFFFFFFFFFFFFFF00000000000000000000000000000000
310
000000000000000000000000000000000000000004000000E411000000000000
310
FEFFFFFF02000000FEFFFFFFFFFFFFFFFFFFFFFFFFFFFFFFFFFFFFFFFFFFFFFF
310
FFFFFFFFFFFFFFFFFFFFFFFFFFFFFFFFFFFFFFFFFFFFFFFFFFFFFFFFFFFFFFFF
310
FFFFFFFFFFFFFFFFFFFFFFFFFFFFFFFFFFFFFFFFFFFFFFFFFFFFFFFFFFFFFFFF
310
FFFFFFFFFFFFFFFFFFFFFFFFFFFFFFFFFFFFFFFFFFFFFFFFFFFFFFFFFFFFFFFF
310
FFFFFFFFFFFFFFFFFFFFFFFFFFFFFFFFFFFFFFFFFFFFFFFFFFFFFFFFFFFFFFFF
310
FFFFFFFFFFFFFFFFFFFFFFFFFFFFFFFFFFFFFFFFFFFFFFFFFFFFFFFFFFFFFFFF
310
FFFFFFFFFFFFFFFFFFFFFFFFFFFFFFFFFFFFFFFFFFFFFFFFFFFFFFFFFFFFFFFF
310
FFFFFFFFFFFFFFFFFFFFFFFFFFFFFFFFFFFFFFFFFFFFFFFFFFFFFFFFFFFFFFFF
310
FFFFFFFFFFFFFFFFFFFFFFFFFFFFFFFFFFFFFFFFFFFFFFFFFFFFFFFFFFFFFFFF
310
FFFFFFFFFFFFFFFFFFFFFFFFFFFFFFFFFFFFFFFFFFFFFFFFFFFFFFFFFFFFFFFF
310
FFFFFFFFFFFFFFFFFFFFFFFFFFFFFFFFFFFFFFFFFFFFFFFFFFFFFFFFFFFFFFFF
310
FFFFFFFFFFFFFFFFFFFFFFFFFFFFFFFFFFFFFFFFFFFFFFFFFFFFFFFFFFFFFFFF
310
FFFFFFFFFFFFFFFFFFFFFFFFFFFFFFFFFFFFFFFFFFFFFFFFFFFFFFFFFFFFFFFF
310
FFFFFFFFFFFFFFFFFFFFFFFFFFFFFFFFFFFFFFFFFFFFFFFFFFFFFFFFFFFFFFFF
310
FFFFFFFFFFFFFFFFFFFFFFFFFFFFFFFFFFFFFFFFFFFFFFFFFFFFFFFFFFFFFFFF
310
FFFFFFFFFFFFFFFFFFFFFFFFFFFFFFFFFFFFFFFFFFFFFFFFFFFFFFFFFFFFFFFF
310
0100000200000000000000000000000000000000000000000000000000000000
310
0000000000000000000000000000000000000000000000000000000000000000
310
0100FEFF030A0000FFFFFFFF0A00030000000000C00000000000004607000000
310
5042727573680007000000504272757368000700000050427275736800F439B2
310
7100000000000000000000000000000000000000000000000000000000000000
310
0000000000000000000000000000000000000000000000000000000000000000
310
0000000000000000000000000000000000000000000000000000000000000000
310
0000000000000000000000000000000000000000000000000000000000000000
310
0000000000000000000000000000000000000000000000000000000000000000
310
0000000000000000000000000000000000000000000000000000000000000000
310
0000000000000000000000000000000000000000000000000000000000000000
310
0000000000000000000000000000000000000000000000000000000000000000
310
0000000000000000000000000000000000000000000000000000000000000000
310
0000000000000000000000000000000000000000000000000000000000000000
310
0000000000000000000000000000000000000000000000000000000000000000
310
0000000000000000000000000000000000000000000000000000000000000000
310
E0110000424DDE11000000000000360400002800000096000000170000000100
310
08000000000000000000E7240000E72400000001000000010000000000FF0101
310
01FF020202FF030303FF040404FF050505FF060606FF070707FF080808FF0909
310
09FF0A0A0AFF0B0B0BFF0C0C0CFF0D0D0DFF0E0E0EFF0F0F0FFF101010FF1111
310
11FF121212FF131313FF141414FF151515FF161616FF171717FF181818FF1919
310
19FF1A1A1AFF1B1B1BFF1C1C1CFF1D1D1DFF1E1E1EFF1F1F1FFF202020FF2121
310
21FF222222FF232323FF242424FF252525FF262626FF272727FF282828FF2929
310
29FF2A2A2AFF2B2B2BFF2C2C2CFF2D2D2DFF2E2E2EFF2F2F2FFF303030FF3131
310
31FF323232FF333333FF343434FF353535FF363636FF373737FF383838FF3939
310
39FF3A3A3AFF3B3B3BFF3C3C3CFF3D3D3DFF3E3E3EFF3F3F3FFF404040FF4141
310
41FF424242FF434343FF444444FF454545FF464646FF474747FF484848FF4949
310
49FF4A4A4AFF4B4B4BFF4C4C4CFF4D4D4DFF4E4E4EFF4F4F4FFF505050FF5151
310
51FF525252FF535353FF545454FF555555FF565656FF575757FF585858FF5959
310
59FF5A5A5AFF5B5B5BFF5C5C5CFF5D5D5DFF5E5E5EFF5F5F5FFF606060FF6161
310
61FF626262FF636363FF646464FF656565FF666666FF676767FF686868FF6969
310
69FF6A6A6AFF6B6B6BFF6C6C6CFF6D6D6DFF6E6E6EFF6F6F6FFF707070FF7171
310
71FF727272FF737373FF747474FF757575FF767676FF777777FF787878FF7979
310
79FF7A7A7AFF7B7B7BFF7C7C7CFF7D7D7DFF7E7E7EFF7F7F7FFF808080FF8181
310
81FF828282FF838383FF848484FF858585FF868686FF878787FF888888FF8989
310
89FF8A8A8AFF8B8B8BFF8C8C8CFF8D8D8DFF8E8E8EFF8F8F8FFF909090FF9191
310
91FF929292FF939393FF949494FF959595FF969696FF979797FF989898FF9999
310
99FF9A9A9AFF9B9B9BFF9C9C9CFF9D9D9DFF9E9E9EFF9F9F9FFFA0A0A0FFA1A1
310
A1FFA2A2A2FFA3A3A3FFA4A4A4FFA5A5A5FFA6A6A6FFA7A7A7FFA8A8A8FFA9A9
310
A9FFAAAAAAFFABABABFFACACACFFADADADFFAEAEAEFFAFAFAFFFB0B0B0FFB1B1
310
B1FFB2B2B2FFB3B3B3FFB4B4B4FFB5B5B5FFB6B6B6FFB7B7B7FFB8B8B8FFB9B9
310
B9FFBABABAFFBBBBBBFFBCBCBCFFBDBDBDFFBEBEBEFFBFBFBFFFC0C0C0FFC1C1
310
C1FFC2C2C2FFC3C3C3FFC4C4C4FFC5C5C5FFC6C6C6FFC7C7C7FFC8C8C8FFC9C9
310
C9FFCACACAFFCBCBCBFFCCCCCCFFCDCDCDFFCECECEFFCFCFCFFFD0D0D0FFD1D1
310
D1FFD2D2D2FFD3D3D3FFD4D4D4FFD5D5D5FFD6D6D6FFD7D7D7FFD8D8D8FFD9D9
310
D9FFDADADAFFDBDBDBFFDCDCDCFFDDDDDDFFDEDEDEFFDFDFDFFFE0E0E0FFE1E1
310
E1FFE2E2E2FFE3E3E3FFE4E4E4FFE5E5E5FFE6E6E6FFE7E7E7FFE8E8E8FFE9E9
310
E9FFEAEAEAFFEBEBEBFFECECECFFEDEDEDFFEEEEEEFFEFEFEFFFF0F0F0FFF1F1
310
F1FFF2F2F2FFF3F3F3FFF4F4F4FFF5F5F5FFF6F6F6FFF7F7F7FFF8F8F8FFF9F9
310
F9FFFAFAFAFFFBFBFBFFFCFCFCFFFDFDFDFFFEFEFEFFFFFFFFFFFFFFFFFFFFFF
310
C94E4E4E4F4E4EFFFFFFFFFFC94E4E4E4E4E72FFFFFFFFFFFFFF734E4D4E4E4E
310
C9FFFFFFFFFFAA683516171616265B9BE9FFFFFFFFFF4E4E4E4D4E4EFFFFFFFF
310
FFFFFFFF4E4E4F4E4D4E4E4E4F4E4E4F4D4E4E4E4E4E4D4E4F4E4D4E4E4EAAFF
310
FFFFFFFFFFEA4E4F4F4E4E4E4E4E4D4D4F4F4E4E4E4E4E5B7FAAFFFFFFFFFFFF
310
C9744E1716171616164D8DEAFFFFFFFF0000FFFFFFFFFFFFBA161617161716FF
310
FFFFFFFFB917171616174FFFFFFFFFFFFFFF4E1716161616B9FFFFFFB9341717
310
1716171617171616268CFFFFFFFF161617161617FFFFFFFFFFFFFFB917161717
310
1617167F807F7F7F7F7F7F807F7F807F7F807F7F7F414EFFFFFFFFFFFF8C167F
310
7F807F7F7F7E7F7F807F807F7F807F4E3417258EFFFFEA4E162674AABAEAEBBA
310
AA74341680FFFFFF0000FFFFFFFFFFFFB9171717171617FFFFFFFFFFBB161616
310
16164EFFFFFFFFFFFFFF4E1717171717B9FFFF9C171617171716161616171616
310
171766FFFFFF161717161617FFFFFFFFFFFFFF8E16171717161616FFFFFFFFFF
310
FFFFFFFFFFFFFFFFFFFFFFFFFFAA16D9FFFFFFFFFF3467FFFFFFFFEAFFFFFFFF
310
FFFFFFFFFFFFFFFFFFCA671667EB26278DFFFFFFFFFFFFFFFFFFFF8C2541EAFF
310
0000FFFFFFFFFFFFB9171717171716FFFFFFFFFFBA16171617174EFFFFFFFFFF
310
FFFF4E1717161616BAFF9B1617161616171716171617161616161667FFFF1616
310
16161716FFFFFFFFFFFFFF7F16161617174017FFFFFFFFFFFFFFFFFFFFFFFFFF
310
FFFFFFFFFFFF344E7F7F7F7E7417DAFFFFFFFF80FFFFFFFFFFFFFFFFFFFFFFFF
310
FFFFFF9B163425CAFFFFFFFFFFFFFFFFFFFFFFFFCA2667FF0000FFFFFFFFFFFF
310
BA171717171617FFFFFFFFFFB916171716164EFFFFFFFFFFFFFF4F1716161717
310
B9C91716171616161716161617171616161617168DFF161716161717FFFFFFFF
310
FFFFFF7F17171716164F16FFFFFFFFFFFFFFFFFFFFFFFFFFFFFFFFFFFFFF9B16
310
17161617174EFFFFFFFFFF34FFFFFFFFD9BABABABABADAFFFFFFFFFF7F16AAFF
310
FFFFFFFFFFFFFFFFFFFFFFFFFF9C16BA0000FFFFFFFFFFFFB9161717161717FF
310
FFFFFFFFB917161716174DFFFFFFFFFFFFFF4E1616161616BA4E161617171716
310
419BEAEAAA4E16161617161726E9171717161616FFFFFFFFFFFFFF4F16161717
310
164E16FFFFFFFFFFBAB9B9B9B9B9BABABACAFFFFFFFFFFFFFFFFFFFFFFFFFFFF
310
FFFFBA16FFFFFFFF7F1617161617174DEAFFFFFFEA41FFFFFFFFFFAA4D16174E
310
9BFFFFFFFFFF34730000FFFFFFFFFFFFB9161617171617FFFFFFFFFFBA161616
310
16164EFFFFFFFFFFFFFF4F16161717169B1617161716175BFFFFFFFFFFFF7417
310
16171616168D171717161617FFFFFFFFFFFFEA2616171717167416FFFFFFFFFF
310
16171616171717171717EAFFFFFFFFFFFFFFFFFFFFFFFFFFFFFF6716FFFFFFFF
310
7F4EFFFFFFFFBA2573FFFFFFFFBAFFFFFFFFAA167FB9BB9B269BFFFFFFFF664F
310
0000FFFFFFFFFFFFB9171616161616FFFFFFFFFFBA16161717164EFFFFFFFFFF
310
FFFF4E16161616174E161617171626EAFFFFFFFFFFFFFF4E16161616164E1716
310
16161617FFFFFFFFFFFF671616161716347F16FFFFFFFFFF16B9FFFFFFFFFFFF
310
D9168DFFFFFFFFFFFFFFFFFFFFFFFFFFFFEA1716FFFFFFFF7F4EFFFFFFFFFF7F
310
4EFFFFFFFFFFFFFFFFFF5B66FFFFFFEA347FFFFFFFFF7F4D0000FFFFFFFFFFFF
310
B9171616171617FFFFFFFFFFBA17161716174EFFFFFFFFFFFFFF4D1716161617
310
17161716161673FFFFFFFFFFFFFFFF9B1617161717161616171616174F4E4E4E
310
4E341616171616167E7F16FFFFFFFFFF16BAFFFFFFFFFFFFFF5B41FFFFFFFF34
310
1616171616BAFFFFFF9B1716FFFFFFFF7F4EFFFFFFFFFF4E4EFFFFFFFF734E4E
310
4E4E267EDA9B67164EEAFFFFFFFF744D0000FFFFFFFFFFFFBA171717161617FF
310
FFFFFFFFBA1616171616347F7F7F7F80807F331616161717161717161716B9FF
310
FFFFFFFFFFFFFFE9161616161616171716161716171616161616171616171734
310
EA7F16FFFFFFFFFF16BAFFFFFFFFFFFFFFAA17C9FFFFFF7326BABA5B25FFFFFF
310
FF401716FFFFFFFF7F264F4E4E4E4217AAFFFFFFEA16677F73261616164173CA
310
FFFFFFFFFFFF417F0000FFFFFFFFFFFFBA171616171617FFFFFFFFFFBA161616
310
17171616161616161616161717161616161616161617EAFFFFFFFFFFFFFFFFFF
310
261717161716161617161616161617161617161616174EEAFF8016FFFFFFFFFF
310
17BAFFFFFFFFFFFFFFFF3467FFFFFFC916C9FF3467FFFFFFDA166716FFFFFFFF
310
9C4D4E4E4E4E67AAFFFFFFFF6834FF7F262567AAEAFFFFFFFFFFFFFFFF9B17D9
310
0000FFFFFFFFFFFFB9161616161616FFFFFFFFFFBA1617161717171616161616
310
1716171716161716161617171716FFFFFFFFFFFFFFFFFFFF4E17161716171616
310
1617171616161716171717161616169BFF7F17FFFFFFFFFF17B9FFFFFFFFFFFF
310
FFFF7326FFFFFFFF3473DA16AAFFFFFF7317AA16FFFFFFFFFFFFFFFFFFFFFFFF
310
FFFFEA6725BA4E167FEAFFFFFFFFFFFFFFFFFFFF9C167FFF0000FFFFFFFFFFFF
310
B9161717171716FFFFFFFFFFBA16161716171616171717161617161716161616
310
171617171617EAFFFFFFFFFFFFFFFFFF26161717161616161616161617171616
310
1616161616171616AA8016FFFFFFFFFF16BAFFFFFFFFFFFFFFFFDA179BFFFFFF
310
74348D26FFFFFFFF2566B917FFFFFFFFD8BAB9BAB9BADAFFFFEA41169B7425C9
310
FFFFFFFFFFFFFFFFFFFFAB4F1680FFFF0000FFFFFFFFFFFFBA161717171617FF
310
FFFFFFFFBA17161717161617171617161616161617171616171716171617BBFF
310
FFFFFFFFFFFFFFE9171616161617161617161716FFFFFFFFFFD9671616161617
310
348017FFFFFFFFFF16BAFFFFFFFFFFFFFFFFFF4E5AFFFFFFC916265AFFFFFFAA
310
16AABA16FFFFFFFF7F1617161616179BFFFFEB4127168DFFFFFFFFFFFFFFD99B
310
6734175AC9FFFFFF0000FFFFFFFFFFFFB9161617171617FFFFFFFFFFBB161616
310
1616347F807F7F7F7F8033171716171617171616161672FFFFFFFFFFFFFFFF9C
310
171617171617161716161617FFFFFFFFFFFFFF4117161616174E17FFFFFFFFFF
310
16BAFFFFFFFFFFFFFFFFFF9B16DAFFFFFF34169BFFFFFF5A26FFB917FFFFFFFF
310
7F4EFFFFFFEA5B26FFFFFFEA2616EAFFFFFFFFDA743416331617414E4E4E4ECA
310
0000FFFFFFFFFFFFBA161716161616FFFFFFFFFFBA17171616164EFFFFFFFFFF
310
FFFF4E16161717174E161717171626EBFFFFFFFFFFFFFF4E16161617165B1616
310
16171617FFFFFFFFFFFFFF6716161616161617FFFFFFFFFF16BAFFFFFFFFFFFF
310
FFFFFFEA268CFFFFFF7316EAFFFFEB1774FFB916FFFFFFFF7F4EFFFFFFFF7316
310
FFFFFFFF6826FFFFFFFFEB264D9CEABA257F807F7F6616BA0000FFFFFFFFFFFF
310
BA161716161616FFFFFFFFFFBA16171616164DFFFFFFFFFFFFFF4E1617161617
310
9B1617171717165BEBFFFFFFFFFF671616161617179B171616161616FFFFFFFF
310
FFFFFF3417161617171617FFFFFFFFFF17BAFFFFFFFFFFFFFFFFFFFF6734FFFF
310
FFEBCAFFFFFF8D17C9FFBA17FFFFFFFF7F357F808066174FFFFFFFFF7F16FFFF
310
FFFFD91673B99B415BFFFFFFFFBA16DA00009B7F7F7F807F671617161616167F
310
80807F7E6617161616164EFFFFFFFFFFFFFF4E1616161617B94E171716161616
310
349BC9D9AA4E16171616161634FF161617161717B9B9BAB9BA9B411716171716
310
163416FFFFFFFFFF16B9FFFFFFFFFFFFFFFFFFFFC917CAFFFFFFFFFFFFFF3342
310
FFFFBA17FFFFFFFF9B4E4E4F4E4E66EAFFFFFFFF5B16C9FFFFFFFFAA4E164E73
310
EAFFFFFFFF8D26FF00004E161716161616171617171616171717171617161616
310
17174EFFFFFFFFFFFFFF4E1717171616B9D92616171716171716171717171716
310
16171716AAFF161717171617161617171616161617161716166717FFFFFFFFFF
310
17B9FFFFFFFFFFFFFFFFFFFFFF3467FFFFFFFFFFFFCA168CFFFFBB17FFFFFFFF
310
FFFFFFFFFFFFFFFFFFFFFFEA26265BFFFFFFFFFFFFFFFFFFFFFFFFFFEA3467FF
310
00004D16161616161617161717161617161616171617171616164EFFFFFFFFFF
310
FFFF4D1617161616BAFF9B1616161616161716161616171717161766FFFF1616
310
16171617161617161716171616171717667F16FFFFFFFFFF17BAFFFFFFFFFFFF
310
FFFFFFFFFF8C26EAFFFFFFFFFF6617EAFFFFBA17FFFFFFFFFFFFFFFFFFFFFFFF
310
FFFFEA5A25BA269BFFFFFFFFFFFFFFFFFFFFFFFF6616DAFF00004E1616171616
310
1616161616161716161617171616171616174EFFFFFFFFFFFFFF4D1717171716
310
B9FFFF9C161616161616161716161717171667FFFFFF17161717171716161617
310
1716161616161641E97E16FFFFFFFFFF16B9FFFFFFFFFFFFFFFFFFFFFFEA169B
310
FFFFFFFFEA265BFFFFFFB916FFFFFFFFFFFFFFFFFFFFFFFFFF9B3416AAFF9B17
310
67EAFFFFFFFFFFFFFFFFEA5B169BFFFF00004D17161716161616161717171616
310
161717161716171716174EFFFFFFFFFFFFFF4D1616161616BAFFFFFFBB411616
310
161716161616171634ABFFFFFFFF161716161617171716171617171617267FFF
310
FF7F164E4E4E4E4F17BAFFFFFFFFFFFFFFFFFFFFFFFF66344D4E4E4F4117AAFF
310
FFFFBA174E4E4E4D4E4D4D4E4E4E4E4116174EBBFFFFFFCA342666ABEAFFFFEA
310
AA6725269CFFFFFF0000724F4E4D4D4D4E4D4D4E4E4E4D4E4E4E4E4E4E4E4E4D
310
4E4E74FFFFFFFFFFFFFF734E4E4E4D4ECAFFFFFFFFFFAA663416171717265B9B
310
FFFFFFFFFFFF7F8080807F80807F7F7F7F7F807FBAFFFFFFFF9B4E4E4F4D4D4E
310
4DC9FFFFFFFFFFFFFFFFFFFFFFFFBA4E4E4E4E4D4E4EFFFFFFFFC94E4E4E4F4E
310
4E4E4D4E4E5A807F9CD9FFFFFFFFFFFFFF9B5B2617171716174E8DEAFFFFFFFF
310
0000000000000000000000000000000000000000000000000000000000000000
  1
OLE
  0
ENDSEC
  0
SECTION
  2
OBJECTS
  0
DICTIONARY
  5
C
330
0
100
AcDbDictionary
281
     1
  3
ACAD_GROUP
350
D
  3
ACAD_LAYOUT
350
1A
  3
ACAD_MLINESTYLE
350
17
  3
ACAD_PLOTSETTINGS
350
19
  3
ACAD_PLOTSTYLENAME
350
E
  0
DICTIONARY
  5
D
102
{ACAD_REACTORS
330
C
102
}
330
C
100
AcDbDictionary
281
     1
  0
DICTIONARY
  5
1A
102
{ACAD_REACTORS
330
C
102
}
330
C
100
AcDbDictionary
281
     1
  3
Layout1
350
1E
  3
Layout2
350
26
  3
Model
350
22
  0
DICTIONARY
  5
17
102
{ACAD_REACTORS
330
C
102
}
330
C
100
AcDbDictionary
281
     1
  3
Standard
350
18
  0
DICTIONARY
  5
19
102
{ACAD_REACTORS
330
C
102
}
330
C
100
AcDbDictionary
281
     1
  0
ACDBDICTIONARYWDFLT
  5
E
102
{ACAD_REACTORS
330
C
102
}
330
C
100
AcDbDictionary
281
     1
  3
Normal
350
F
100
AcDbDictionaryWithDefault
340
F
  0
LAYOUT
  5
1E
102
{ACAD_REACTORS
330
1A
102
}
330
1A
100
AcDbPlotSettings
  1

  2
none_device
  4

  6

 40
0.0
 41
0.0
 42
0.0
 43
0.0
 44
0.0
 45
0.0
 46
0.0
 47
0.0
 48
0.0
 49
0.0
140
0.0
141
0.0
142
1.0
143
1.0
 70
   688
 72
     0
 73
     0
 74
     5
  7

 75
    16
147
1.0
148
0.0
149
0.0
100
AcDbLayout
  1
Layout1
 70
     1
 71
     1
 10
0.0
 20
0.0
 11
420.0
 21
297.0
 12
0.0
 22
0.0
 32
0.0
 14
1.0000000000E+20
 24
1.0000000000E+20
 34
1.0000000000E+20
 15
-1.0000000000E+20
 25
-1.0000000000E+20
 35
-1.0000000000E+20
146
0.0
 13
0.0
 23
0.0
 33
0.0
 16
1.0
 26
0.0
 36
0.0
 17
0.0
 27
1.0
 37
0.0
 76
     0
330
1B
  0
LAYOUT
  5
26
102
{ACAD_REACTORS
330
1A
102
}
330
1A
100
AcDbPlotSettings
  1

  2
none_device
  4

  6

 40
0.0
 41
0.0
 42
0.0
 43
0.0
 44
0.0
 45
0.0
 46
0.0
 47
0.0
 48
0.0
 49
0.0
140
0.0
141
0.0
142
1.0
143
1.0
 70
   688
 72
     0
 73
     0
 74
     5
  7

 75
    16
147
1.0
148
0.0
149
0.0
100
AcDbLayout
  1
Layout2
 70
     1
 71
     2
 10
0.0
 20
0.0
 11
0.0
 21
0.0
 12
0.0
 22
0.0
 32
0.0
 14
0.0
 24
0.0
 34
0.0
 15
0.0
 25
0.0
 35
0.0
146
0.0
 13
0.0
 23
0.0
 33
0.0
 16
1.0
 26
0.0
 36
0.0
 17
0.0
 27
1.0
 37
0.0
 76
     0
330
23
  0
LAYOUT
  5
22
102
{ACAD_REACTORS
330
1A
102
}
330
1A
100
AcDbPlotSettings
  1

  2
none_device
  4

  6

 40
0.0
 41
0.0
 42
0.0
 43
0.0
 44
0.0
 45
0.0
 46
0.0
 47
0.0
 48
0.0
 49
0.0
140
0.0
141
0.0
142
1.0
143
1.0
 70
  1712
 72
     0
 73
     0
 74
     0
  7

 75
     0
147
1.0
148
0.0
149
0.0
100
AcDbLayout
  1
Model
 70
     1
 71
     0
 10
0.0
 20
0.0
 11
279.4
 21
215.9
 12
0.0
 22
0.0
 32
0.0
 14
0.0
 24
0.0
 34
0.0
 15
279.4
 25
215.9
 35
0.0
146
0.0
 13
0.0
 23
0.0
 33
0.0
 16
1.0
 26
0.0
 36
0.0
 17
0.0
 27
1.0
 37
0.0
 76
     0
330
1F
331
29
  0
MLINESTYLE
  5
18
102
{ACAD_REACTORS
330
17
102
}
330
17
100
AcDbMlineStyle
  2
Standard
 70
     0
  3

 62
   256
 51
90.0
 52
90.0
 71
     2
 49
0.5
 62
   256
  6
BYLAYER
 49
-0.5
 62
   256
  6
BYLAYER
  0
ACDBPLACEHOLDER
  5
F
102
{ACAD_REACTORS
330
E
102
}
330
E
  0
ENDSEC
  0
EOF
