  0
SECTION
  2
HEADER
  9
$ACADVER
  1
AC1015
  9
$ACADMAINTVER
 70
     6
  9
$DWGCODEPAGE
  3
ANSI_1252
  9
$INSBASE
 10
0.0
 20
0.0
 30
0.0
  9
$EXTMIN
 10
0.0
 20
0.0
 30
0.0
  9
$EXTMAX
 10
279.4
 20
215.9
 30
0.0
  9
$LIMMIN
 10
0.0
 20
0.0
  9
$LIMMAX
 10
279.4
 20
215.9
  9
$ORTHOMODE
 70
     0
  9
$REGENMODE
 70
     1
  9
$FILLMODE
 70
     1
  9
$QTEXTMODE
 70
     0
  9
$MIRRTEXT
 70
     1
  9
$LTSCALE
 40
1.0
  9
$ATTMODE
 70
     1
  9
$TEXTSIZE
 40
2.8222222222
  9
$TRACEWID
 40
1.0
  9
$TEXTSTYLE
  7
Standard
  9
$CLAYER
  8
0
  9
$CELTYPE
  6
ByLayer
  9
$CECOLOR
 62
   256
  9
$CELTSCALE
 40
1.0
  9
$DISPSILH
 70
     0
  9
$DIMSCALE
 40
1.0
  9
$DIMASZ
 40
3.175
  9
$DIMEXO
 40
1.27
  9
$DIMDLI
 40
3.75
  9
$DIMRND
 40
0.0
  9
$DIMDLE
 40
0.0
  9
$DIMEXE
 40
1.778
  9
$DIMTP
 40
0.0
  9
$DIMTM
 40
0.0
  9
$DIMTXT
 40
2.8222222222
  9
$DIMCEN
 40
2.5
  9
$DIMTSZ
 40
0.0
  9
$DIMTOL
 70
     0
  9
$DIMLIM
 70
     0
  9
$DIMTIH
 70
     1
  9
$DIMTOH
 70
     1
  9
$DIMSE1
 70
     0
  9
$DIMSE2
 70
     0
  9
$DIMTAD
 70
     0
  9
$DIMZIN
 70
     1
  9
$DIMBLK
  1

  9
$DIMASO
 70
     1
  9
$DIMSHO
 70
     1
  9
$DIMPOST
  1

  9
$DIMAPOST
  1

  9
$DIMALT
 70
     0
  9
$DIMALTD
 70
     3
  9
$DIMALTF
 40
0.0393700787
  9
$DIMLFAC
 40
1.0
  9
$DIMTOFL
 70
     1
  9
$DIMTVP
 40
0.0
  9
$DIMTIX
 70
     0
  9
$DIMSOXD
 70
     0
  9
$DIMSAH
 70
     0
  9
$DIMBLK1
  1

  9
$DIMBLK2
  1

  9
$DIMSTYLE
  2
ISO-25
  9
$DIMCLRD
 70
     0
  9
$DIMCLRE
 70
     0
  9
$DIMCLRT
 70
     0
  9
$DIMTFAC
 40
1.0
  9
$DIMGAP
 40
2.54
  9
$DIMJUST
 70
     0
  9
$DIMSD1
 70
     0
  9
$DIMSD2
 70
     0
  9
$DIMTOLJ
 70
     0
  9
$DIMTZIN
 70
     1
  9
$DIMALTZ
 70
     0
  9
$DIMALTTZ
 70
     0
  9
$DIMUPT
 70
     0
  9
$DIMDEC
 70
     1
  9
$DIMTDEC
 70
     1
  9
$DIMALTU
 70
     2
  9
$DIMALTTD
 70
     3
  9
$DIMTXSTY
  7
Standard
  9
$DIMAUNIT
 70
     0
  9
$DIMADEC
 70
     0
  9
$DIMALTRND
 40
0.0
  9
$DIMAZIN
 70
     0
  9
$DIMDSEP
 70
    44
  9
$DIMATFIT
 70
     3
  9
$DIMFRAC
 70
     0
  9
$DIMLDRBLK
  1

  9
$DIMLUNIT
 70
     2
  9
$DIMLWD
 70
    -2
  9
$DIMLWE
 70
    -2
  9
$DIMTMOVE
 70
     0
  9
$LUNITS
 70
     2
  9
$LUPREC
 70
     1
  9
$SKETCHINC
 40
1.0
  9
$FILLETRAD
 40
10.0
  9
$AUNITS
 70
     0
  9
$AUPREC
 70
     0
  9
$MENU
  1
.
  9
$ELEVATION
 40
0.0
  9
$PELEVATION
 40
0.0
  9
$THICKNESS
 40
0.0
  9
$LIMCHECK
 70
     0
  9
$CHAMFERA
 40
0.0
  9
$CHAMFERB
 40
0.0
  9
$CHAMFERC
 40
0.0
  9
$CHAMFERD
 40
0.0
  9
$SKPOLY
 70
     0
  9
$TDCREATE
 40
2457085.732046123
  9
$TDUCREATE
 40
2457085.398712789
  9
$TDUPDATE
 40
2457085.732051377
  9
$TDUUPDATE
 40
2457085.398718044
  9
$TDINDWG
 40
0.0000000116
  9
$TDUSRTIMER
 40
0.0000000116
  9
$USRTIMER
 70
     1
  9
$ANGBASE
 50
0.0
  9
$ANGDIR
 70
     0
  9
$PDMODE
 70
     0
  9
$PDSIZE
 40
-1.0
  9
$PLINEWID
 40
0.0
  9
$SPLFRAME
 70
     0
  9
$SPLINETYPE
 70
     6
  9
$SPLINESEGS
 70
     8
  9
$HANDSEED
  5
434
  9
$SURFTAB1
 70
     6
  9
$SURFTAB2
 70
     6
  9
$SURFTYPE
 70
     6
  9
$SURFU
 70
     6
  9
$SURFV
 70
     6
  9
$UCSBASE
  2

  9
$UCSNAME
  2

  9
$UCSORG
 10
0.0
 20
0.0
 30
0.0
  9
$UCSXDIR
 10
1.0
 20
0.0
 30
0.0
  9
$UCSYDIR
 10
0.0
 20
1.0
 30
0.0
  9
$UCSORTHOREF
  2

  9
$UCSORTHOVIEW
 70
     0
  9
$UCSORGTOP
 10
0.0
 20
0.0
 30
0.0
  9
$UCSORGBOTTOM
 10
0.0
 20
0.0
 30
0.0
  9
$UCSORGLEFT
 10
0.0
 20
0.0
 30
0.0
  9
$UCSORGRIGHT
 10
0.0
 20
0.0
 30
0.0
  9
$UCSORGFRONT
 10
0.0
 20
0.0
 30
0.0
  9
$UCSORGBACK
 10
0.0
 20
0.0
 30
0.0
  9
$PUCSBASE
  2

  9
$PUCSNAME
  2

  9
$PUCSORG
 10
0.0
 20
0.0
 30
0.0
  9
$PUCSXDIR
 10
1.0
 20
0.0
 30
0.0
  9
$PUCSYDIR
 10
0.0
 20
1.0
 30
0.0
  9
$PUCSORTHOREF
  2

  9
$PUCSORTHOVIEW
 70
     0
  9
$PUCSORGTOP
 10
0.0
 20
0.0
 30
0.0
  9
$PUCSORGBOTTOM
 10
0.0
 20
0.0
 30
0.0
  9
$PUCSORGLEFT
 10
0.0
 20
0.0
 30
0.0
  9
$PUCSORGRIGHT
 10
0.0
 20
0.0
 30
0.0
  9
$PUCSORGFRONT
 10
0.0
 20
0.0
 30
0.0
  9
$PUCSORGBACK
 10
0.0
 20
0.0
 30
0.0
  9
$USERI1
 70
     0
  9
$USERI2
 70
     0
  9
$USERI3
 70
     0
  9
$USERI4
 70
     0
  9
$USERI5
 70
     0
  9
$USERR1
 40
0.0
  9
$USERR2
 40
0.0
  9
$USERR3
 40
0.0
  9
$USERR4
 40
0.0
  9
$USERR5
 40
0.0
  9
$WORLDVIEW
 70
     1
  9
$SHADEDGE
 70
     3
  9
$SHADEDIF
 70
    70
  9
$TILEMODE
 70
     1
  9
$MAXACTVP
 70
    64
  9
$PINSBASE
 10
0.0
 20
0.0
 30
0.0
  9
$PLIMCHECK
 70
     0
  9
$PEXTMIN
 10
1.0000000000E+20
 20
1.0000000000E+20
 30
1.0000000000E+20
  9
$PEXTMAX
 10
-1.0000000000E+20
 20
-1.0000000000E+20
 30
-1.0000000000E+20
  9
$PLIMMIN
 10
0.0
 20
0.0
  9
$PLIMMAX
 10
420.0
 20
297.0
  9
$UNITMODE
 70
     0
  9
$VISRETAIN
 70
     1
  9
$PLINEGEN
 70
     0
  9
$PSLTSCALE
 70
     1
  9
$TREEDEPTH
 70
  3020
  9
$CMLSTYLE
  2
Standard
  9
$CMLJUST
 70
     0
  9
$CMLSCALE
 40
20.0
  9
$PROXYGRAPHICS
 70
     1
  9
$MEASUREMENT
 70
     1
  9
$CELWEIGHT
370
    -1
  9
$ENDCAPS
280
     0
  9
$JOINSTYLE
280
     0
  9
$LWDISPLAY
290
     1
  9
$INSUNITS
 70
     4
  9
$HYPERLINKBASE
  1

  9
$STYLESHEET
  1

  9
$XEDIT
290
     1
  9
$CEPSNTYPE
380
     0
  9
$PSTYLEMODE
290
     1
  9
$FINGERPRINTGUID
  2
{ED5242BD-57F1-42AF-B64A-AD66C2785041}
  9
$VERSIONGUID
  2
{FAEB1C32-E019-11D5-929B-00C0DF256EC4}
  9
$EXTNAMES
290
     1
  9
$PSVPSCALE
 40
0.0
  9
$OLESTARTUP
290
     0
  0
ENDSEC
  0
SECTION
  2
CLASSES
  0
CLASS
  1
ACDBDICTIONARYWDFLT
  2
AcDbDictionaryWithDefault
  3
ObjectDBX Classes
 90
        0
280
     0
281
     0
  0
CLASS
  1
VISUALSTYLE
  2
AcDbVisualStyle
  3
ObjectDBX Classes
 90
     4095
280
     0
281
     0
  0
CLASS
  1
MATERIAL
  2
AcDbMaterial
  3
ObjectDBX Classes
 90
     1153
280
     0
281
     0
  0
CLASS
  1
SCALE
  2
AcDbScale
  3
ObjectDBX Classes
 90
     1153
280
     0
281
     0
  0
CLASS
  1
SUN
  2
AcDbSun
  3
SCENEOE
 90
     1153
280
     0
281
     0
  0
CLASS
  1
ACDBPLACEHOLDER
  2
AcDbPlaceHolder
  3
ObjectDBX Classes
 90
        0
280
     0
281
     0
  0
CLASS
  1
LAYOUT
  2
AcDbLayout
  3
ObjectDBX Classes
 90
        0
280
     0
281
     0
  0
ENDSEC
  0
SECTION
  2
TABLES
  0
TABLE
  2
VPORT
  5
8
330
0
100
AcDbSymbolTable
 70
     1
  0
VPORT
  5
29
330
8
100
AcDbSymbolTableRecord
100
AcDbViewportTableRecord
  2
*Active
 70
     0
 10
0.0
 20
0.0
 11
1.0
 21
1.0
 12
139.7
 22
107.95
 13
0.0
 23
0.0
 14
10.0
 24
10.0
 15
10.0
 25
10.0
 16
0.0
 26
0.0
 36
1.0
 17
0.0
 27
0.0
 37
0.0
 40
215.9
 41
1.2941176471
 42
50.0
 43
0.0
 44
0.0
 50
0.0
 51
0.0
 71
     0
 72
  2000
 73
     1
 74
     3
 75
     0
 76
     0
 77
     0
 78
     0
281
     0
 65
     1
110
0.0
120
0.0
130
0.0
111
1.0
121
0.0
131
0.0
112
0.0
122
1.0
132
0.0
 79
     0
146
0.0
  0
ENDTAB
  0
TABLE
  2
LTYPE
  5
5
330
0
100
AcDbSymbolTable
 70
     6
  0
LTYPE
  5
14
330
5
100
AcDbSymbolTableRecord
100
AcDbLinetypeTableRecord
  2
ByBlock
 70
     0
  3

 72
    65
 73
     0
 40
0.0
  0
LTYPE
  5
15
330
5
100
AcDbSymbolTableRecord
100
AcDbLinetypeTableRecord
  2
ByLayer
 70
     0
  3

 72
    65
 73
     0
 40
0.0
  0
LTYPE
  5
16
330
5
100
AcDbSymbolTableRecord
100
AcDbLinetypeTableRecord
  2
Continuous
 70
     0
  3
Solid line
 72
    65
 73
     0
 40
0.0
  0
LTYPE
  5
6A
330
5
100
AcDbSymbolTableRecord
100
AcDbLinetypeTableRecord
  2
HIDDEN
 70
     0
  3
Hidden __ __ __ __ __ __ __ __ __ __ __ __ __ __
 72
    65
 73
     2
 40
1.905
 49
1.27
 74
     0
 49
-0.635
 74
     0
  0
LTYPE
  5
6B
330
5
100
AcDbSymbolTableRecord
100
AcDbLinetypeTableRecord
  2
PHANTOM
 70
     0
  3
Phantom ______  __  __  ______  __  __  ______
 72
    65
 73
     6
 40
12.7
 49
6.35
 74
     0
 49
-1.27
 74
     0
 49
1.27
 74
     0
 49
-1.27
 74
     0
 49
1.27
 74
     0
 49
-1.27
 74
     0
  0
LTYPE
  5
6C
330
5
100
AcDbSymbolTableRecord
100
AcDbLinetypeTableRecord
  2
CENTER
 70
     0
  3
Center ____ _ ____ _ ____ _ ____ _ ____ _ ____
 72
    65
 73
     4
 40
10.16
 49
6.35
 74
     0
 49
-1.27
 74
     0
 49
1.27
 74
     0
 49
-1.27
 74
     0
  0
LTYPE
  5
6D
330
5
100
AcDbSymbolTableRecord
100
AcDbLinetypeTableRecord
  2
CENTERX2
 70
     0
  3
Center (2x) ________  __  ________  __  _____
 72
    65
 73
     4
 40
20.32
 49
12.7
 74
     0
 49
-2.54
 74
     0
 49
2.54
 74
     0
 49
-2.54
 74
     0
  0
LTYPE
  5
6E
330
5
100
AcDbSymbolTableRecord
100
AcDbLinetypeTableRecord
  2
DOT2
 70
     0
  3
Dot (.5x) ........................................
 72
    65
 73
     2
 40
0.635
 49
0.0
 74
     0
 49
-0.635
 74
     0
  0
ENDTAB
  0
TABLE
  2
LAYER
  5
2
330
0
100
AcDbSymbolTable
 70
     2
  0
LAYER
  5
10
330
2
100
AcDbSymbolTableRecord
100
AcDbLayerTableRecord
  2
0
 70
     0
 62
     7
  6
Continuous
370
    -3
390
F
  0
LAYER
  5
6F
330
2
100
AcDbSymbolTableRecord
100
AcDbLayerTableRecord
  2
FORMAT
 70
     0
 62
     7
  6
Continuous
370
    -3
390
F
  0
ENDTAB
  0
TABLE
  2
STYLE
  5
3
330
0
100
AcDbSymbolTable
 70
     4
  0
STYLE
  5
11
330
3
100
AcDbSymbolTableRecord
100
AcDbTextStyleTableRecord
  2
Standard
 70
     0
 40
0.0
 41
1.0
 50
0.0
 71
     0
 42
2.8222222222
  3
txt
  4

  0
STYLE
  5
96
330
3
100
AcDbSymbolTableRecord
100
AcDbTextStyleTableRecord
  2
SLDTEXTSTYLE0
 70
     0
 40
0.0
 41
0.75
 50
0.0
 71
     0
 42
2.8222222222
  3
TXT
  4

  0
STYLE
  5
A2
330
3
100
AcDbSymbolTableRecord
100
AcDbTextStyleTableRecord
  2
SLDTEXTSTYLE1
 70
     0
 40
0.0
 41
0.5525
 50
0.0
 71
     0
 42
2.8222222222
  3
TXT
  4

  0
STYLE
  5
42F
330
3
100
AcDbSymbolTableRecord
100
AcDbTextStyleTableRecord
  2
SLDTEXTSTYLE2
 70
     0
 40
0.0
 41
0.7
 50
0.0
 71
     0
 42
2.8222222222
  3
TXT
  4

  0
ENDTAB
  0
TABLE
  2
VIEW
  5
6
330
0
100
AcDbSymbolTable
 70
     0
  0
ENDTAB
  0
TABLE
  2
UCS
  5
7
330
0
100
AcDbSymbolTable
 70
     0
  0
ENDTAB
  0
TABLE
  2
APPID
  5
9
330
0
100
AcDbSymbolTable
 70
     1
  0
APPID
  5
12
330
9
100
AcDbSymbolTableRecord
100
AcDbRegAppTableRecord
  2
ACAD
 70
     0
  0
ENDTAB
  0
TABLE
  2
DIMSTYLE
  5
A
330
0
100
AcDbSymbolTable
 70
     7
100
AcDbDimStyleTable
  0
DIMSTYLE
105
27
330
A
100
AcDbSymbolTableRecord
100
AcDbDimStyleTableRecord
  2
ISO-25
 70
     0
 41
2.5
 42
0.625
 43
3.75
 44
1.25
 73
     0
 74
     0
 77
     1
 78
     8
140
2.5
141
2.5
143
0.0393700787
147
0.625
171
     3
172
     1
178
     0
271
     2
272
     2
274
     3
278
    44
283
     0
284
     8
340
11
  0
DIMSTYLE
105
E2
102
{ACAD_REACTORS
330
E1
330
2AD
102
}
330
A
100
AcDbSymbolTableRecord
100
AcDbDimStyleTableRecord
  2
SLDDIMSTYLE0
 70
     0
 41
3.175
 44
0.0
 45
0.000000001
 78
     4
 79
     1
140
2.1166666667
143
0.0393700787
147
0.5291666667
148
0.000000001
170
     1
172
     1
173
     1
178
     0
271
     1
272
     1
276
     2
284
    12
289
     0
340
96
  0
DIMSTYLE
105
F8
102
{ACAD_REACTORS
330
F7
330
10D
330
298
102
}
330
A
100
AcDbSymbolTableRecord
100
AcDbDimStyleTableRecord
  2
SLDDIMSTYLE1
 70
     0
 41
3.175
 44
0.0
 45
0.000000001
 78
    12
 79
     3
140
2.1166666667
143
0.0393700787
147
0.5291666667
148
0.000000001
170
     1
172
     1
173
     1
178
     0
271
     1
272
     1
276
     2
284
    12
289
     0
340
96
  0
DIMSTYLE
105
11A
102
{ACAD_REACTORS
330
119
102
}
330
A
100
AcDbSymbolTableRecord
100
AcDbDimStyleTableRecord
  2
SLDDIMSTYLE2
 70
     0
 41
3.175
 44
0.0
 45
0.000000001
 78
     4
 79
     1
140
2.1166666667
143
0.0393700787
147
0.5291666667
148
0.000000001
170
     1
173
     1
178
     0
271
     1
272
     1
276
     2
284
    12
340
96
  0
DIMSTYLE
105
12F
330
A
100
AcDbSymbolTableRecord
100
AcDbDimStyleTableRecord
  2
SLDDIMSTYLE3
 70
     0
 41
3.175
 44
0.0
 45
0.000000001
146
3.175
147
0.0
173
     1
178
     0
271
     0
272
     0
276
     2
340
11
  0
DIMSTYLE
105
229
102
{ACAD_REACTORS
330
228
102
}
330
A
100
AcDbSymbolTableRecord
100
AcDbDimStyleTableRecord
  2
SLDDIMSTYLE4
 70
     0
 41
3.175
 44
0.0
 45
0.000000001
 78
    12
 79
     3
140
2.1166666667
141
0.0
143
0.0393700787
147
0.5291666667
148
0.000000001
170
     1
173
     1
178
     0
271
     1
272
     1
276
     2
284
    12
340
96
  0
DIMSTYLE
105
23A
102
{ACAD_REACTORS
330
239
330
24E
102
}
330
A
100
AcDbSymbolTableRecord
100
AcDbDimStyleTableRecord
  2
SLDDIMSTYLE5
 70
     0
 41
3.175
 44
0.0
 45
0.000000001
 78
    12
 79
     3
140
2.1166666667
143
0.0393700787
147
0.5291666667
148
0.000000001
170
     1
173
     1
178
     0
271
     1
272
     1
276
     2
284
    12
340
96
  0
ENDTAB
  0
TABLE
  2
BLOCK_RECORD
  5
1
330
0
100
AcDbSymbolTable
 70
    19
  0
BLOCK_RECORD
  5
1F
330
1
100
AcDbSymbolTableRecord
100
AcDbBlockTableRecord
  2
*Model_Space
340
22
  0
BLOCK_RECORD
  5
1B
330
1
100
AcDbSymbolTableRecord
100
AcDbBlockTableRecord
  2
*Paper_Space
340
1E
  0
BLOCK_RECORD
  5
23
330
1
100
AcDbSymbolTableRecord
100
AcDbBlockTableRecord
  2
*Paper_Space0
340
26
  0
BLOCK_RECORD
  5
70
330
1
100
AcDbSymbolTableRecord
100
AcDbBlockTableRecord
  2
Third Angle Projection Block
340
0
102
{BLKREFS
331
95
102
}
  0
BLOCK_RECORD
  5
A8
330
1
100
AcDbSymbolTableRecord
100
AcDbBlockTableRecord
  2
SW_NOTE_0
340
0
102
{BLKREFS
331
AD
102
}
  0
BLOCK_RECORD
  5
AE
330
1
100
AcDbSymbolTableRecord
100
AcDbBlockTableRecord
  2
SW_NOTE_1
340
0
102
{BLKREFS
331
B3
102
}
  0
BLOCK_RECORD
  5
B5
330
1
100
AcDbSymbolTableRecord
100
AcDbBlockTableRecord
  2
SW_NOTE_2
340
0
102
{BLKREFS
331
BA
102
}
  0
BLOCK_RECORD
  5
E3
330
1
100
AcDbSymbolTableRecord
100
AcDbBlockTableRecord
  2
_D
340
0
  0
BLOCK_RECORD
  5
F9
330
1
100
AcDbSymbolTableRecord
100
AcDbBlockTableRecord
  2
_D_1
340
0
  0
BLOCK_RECORD
  5
10E
330
1
100
AcDbSymbolTableRecord
100
AcDbBlockTableRecord
  2
_D_2
340
0
  0
BLOCK_RECORD
  5
11B
330
1
100
AcDbSymbolTableRecord
100
AcDbBlockTableRecord
  2
_D_3
340
0
  0
BLOCK_RECORD
  5
137
330
1
100
AcDbSymbolTableRecord
100
AcDbBlockTableRecord
  2
SW_CENTERMARKSYMBOL_0
340
0
102
{BLKREFS
331
13E
102
}
  0
BLOCK_RECORD
  5
13F
330
1
100
AcDbSymbolTableRecord
100
AcDbBlockTableRecord
  2
SW_CENTERMARKSYMBOL_1
340
0
102
{BLKREFS
331
146
102
}
  0
BLOCK_RECORD
  5
147
330
1
100
AcDbSymbolTableRecord
100
AcDbBlockTableRecord
  2
SW_CENTERMARKSYMBOL_2
340
0
102
{BLKREFS
331
14E
102
}
  0
BLOCK_RECORD
  5
22A
330
1
100
AcDbSymbolTableRecord
100
AcDbBlockTableRecord
  2
_D_4
340
0
  0
BLOCK_RECORD
  5
23B
330
1
100
AcDbSymbolTableRecord
100
AcDbBlockTableRecord
  2
_D_5
340
0
  0
BLOCK_RECORD
  5
24F
330
1
100
AcDbSymbolTableRecord
100
AcDbBlockTableRecord
  2
_D_6
340
0
  0
BLOCK_RECORD
  5
299
330
1
100
AcDbSymbolTableRecord
100
AcDbBlockTableRecord
  2
_D_7
340
0
  0
BLOCK_RECORD
  5
2AE
330
1
100
AcDbSymbolTableRecord
100
AcDbBlockTableRecord
  2
_D_8
340
0
  0
BLOCK_RECORD
  5
2C2
330
1
100
AcDbSymbolTableRecord
100
AcDbBlockTableRecord
  2
SW_CENTERMARKSYMBOL_3
340
0
102
{BLKREFS
331
2C9
102
}
  0
BLOCK_RECORD
  5
42C
330
1
100
AcDbSymbolTableRecord
100
AcDbBlockTableRecord
  2
SW_NOTE_3
340
0
102
{BLKREFS
331
432
102
}
  0
ENDTAB
  0
ENDSEC
  0
SECTION
  2
BLOCKS
  0
BLOCK
  5
20
330
1F
100
AcDbEntity
  8
0
100
AcDbBlockBegin
  2
*Model_Space
 70
     0
 10
0.0
 20
0.0
 30
0.0
  3
*Model_Space
  1
*Model_Space
  0
ENDBLK
  5
21
330
1F
100
AcDbEntity
  8
0
100
AcDbBlockEnd
  0
BLOCK
  5
1C
330
1B
100
AcDbEntity
 67
     1
  8
0
100
AcDbBlockBegin
  2
*Paper_Space
 70
     0
 10
0.0
 20
0.0
 30
0.0
  3
*Paper_Space
  1
*Paper_Space
  0
ENDBLK
  5
1D
330
1B
100
AcDbEntity
 67
     1
  8
0
100
AcDbBlockEnd
  0
BLOCK
  5
24
330
23
100
AcDbEntity
  8
0
100
AcDbBlockBegin
  2
*Paper_Space0
 70
     0
 10
0.0
 20
0.0
 30
0.0
  3
*Paper_Space0
  1
*Paper_Space0
  0
ENDBLK
  5
25
330
23
100
AcDbEntity
  8
0
100
AcDbBlockEnd
  0
BLOCK
  5
71
330
70
100
AcDbEntity
  8
0
100
AcDbBlockBegin
  2
Third Angle Projection Block
 70
     0
 10
0.0
 20
0.0
 30
0.0
  3
Third Angle Projection Block
  1
Third Angle Projection Block
  0
CIRCLE
  5
73
330
70
100
AcDbEntity
  8
0
  6
Continuous
 62
     7
370
    30
100
AcDbCircle
 10
101.4766388944
 20
18.9404083667
 30
0.0
 40
1.768227153674871
  0
CIRCLE
  5
74
330
70
100
AcDbEntity
  8
0
  6
Continuous
 62
     7
370
    30
100
AcDbCircle
 10
101.4766388944
 20
18.9404083667
 30
0.0
 40
3.901228248531818
  0
LINE
  5
75
330
70
100
AcDbEntity
  8
0
  6
CENTERX2
 62
     7
370
     0
100
AcDbLine
 10
110.1367822585
 20
18.9404083667
 30
0.0
 11
119.4527334874
 21
18.9404083667
 31
0.0
  0
LINE
  5
76
330
70
100
AcDbEntity
  8
0
  6
Continuous
 62
     7
370
    30
100
AcDbLine
 10
111.0016388944
 20
20.7086355204
 30
0.0
 11
111.0016388944
 21
17.172181213
 31
0.0
  0
LINE
  5
77
330
70
100
AcDbEntity
  8
0
  6
Continuous
 62
     7
370
    30
100
AcDbLine
 10
111.0016388944
 20
17.172181213
 30
0.0
 11
118.6216388944
 21
15.1304083667
 31
0.0
  0
LINE
  5
78
330
70
100
AcDbEntity
  8
0
  6
Continuous
 62
     7
370
    30
100
AcDbLine
 10
118.6216388944
 20
15.1304083667
 30
0.0
 11
118.6216388944
 21
22.7504083667
 31
0.0
  0
LINE
  5
79
330
70
100
AcDbEntity
  8
0
  6
Continuous
 62
     7
370
    30
100
AcDbLine
 10
118.6216388944
 20
22.7504083667
 30
0.0
 11
111.0016388944
 21
20.7086355204
 31
0.0
  0
LINE
  5
7A
330
70
100
AcDbEntity
  8
0
  6
CENTERX2
 62
     7
370
     0
100
AcDbLine
 10
96.6025854619
 20
18.9404083667
 30
0.0
 11
106.3506923269
 21
18.9404083667
 31
0.0
  0
LINE
  5
7B
330
70
100
AcDbEntity
  8
0
  6
CENTERX2
 62
     7
370
     0
100
AcDbLine
 10
101.4766388944
 20
23.8144617992
 30
0.0
 11
101.4766388944
 21
14.0663549342
 31
0.0
  0
POINT
  5
7C
330
70
100
AcDbEntity
  8
0
  6
Continuous
 62
     7
370
     0
100
AcDbPoint
 10
101.4766388944
 20
18.9404083667
 30
0.0
  0
ENDBLK
  5
72
330
70
100
AcDbEntity
  8
0
100
AcDbBlockEnd
  0
BLOCK
  5
A9
330
A8
100
AcDbEntity
  8
0
100
AcDbBlockBegin
  2
SW_NOTE_0
 70
     0
 10
0.0
 20
0.0
 30
0.0
  3
SW_NOTE_0
  1
SW_NOTE_0
  0
MTEXT
  5
AB
330
A8
100
AcDbEntity
  8
0
  6
Continuous
 62
     0
370
     0
100
AcDbMText
 10
19.90725
 20
1.9645392354
 30
0.0
 40
1.524
 41
0.0
 71
     2
 72
     1
  1
VALUES IN PARENTHESIS ARE CALCULATED
  7
SLDTEXTSTYLE0
 73
     1
 44
1.0
  0
MTEXT
  5
AC
330
A8
100
AcDbEntity
  8
0
  6
Continuous
 62
     0
370
     0
100
AcDbMText
 10
19.8778795174
 20
-0.5594606586
 30
0.0
 40
1.524
 41
0.0
 71
     2
 72
     1
  1
AND MAY CONTAIN ROUNDOFF ERRORS
  7
SLDTEXTSTYLE0
 73
     1
 44
1.0
  0
ENDBLK
  5
AA
330
A8
100
AcDbEntity
  8
0
100
AcDbBlockEnd
  0
BLOCK
  5
AF
330
AE
100
AcDbEntity
  8
0
100
AcDbBlockBegin
  2
SW_NOTE_1
 70
     0
 10
0.0
 20
0.0
 30
0.0
  3
SW_NOTE_1
  1
SW_NOTE_1
  0
MTEXT
  5
B1
330
AE
100
AcDbEntity
  8
0
  6
Continuous
 62
     0
370
     0
100
AcDbMText
 10
0.0
 20
2.7285267159
 30
0.0
 40
2.1166666667
 41
0.0
 71
     1
 72
     1
  1
DRAWING
  7
SLDTEXTSTYLE0
 73
     1
 44
1.0
  0
MTEXT
  5
B2
330
AE
100
AcDbEntity
  8
0
  6
Continuous
 62
     0
370
     0
100
AcDbMText
 10
0.0
 20
-0.0936954723
 30
0.0
 40
2.1166666667
 41
0.0
 71
     1
 72
     1
  1
PROJECTION
  7
SLDTEXTSTYLE0
 73
     1
 44
1.0
  0
ENDBLK
  5
B0
330
AE
100
AcDbEntity
  8
0
100
AcDbBlockEnd
  0
BLOCK
  5
B6
330
B5
100
AcDbEntity
  8
0
100
AcDbBlockBegin
  2
SW_NOTE_2
 70
     0
 10
0.0
 20
0.0
 30
0.0
  3
SW_NOTE_2
  1
SW_NOTE_2
  0
MTEXT
  5
B8
330
B5
100
AcDbEntity
  8
0
  6
Continuous
 62
     0
370
     0
100
AcDbMText
 10
25.052734375
 20
4.0927900738
 30
0.0
 40
3.175
 41
0.0
 71
     2
 72
     1
  1
FOR INFORMATION ONLY
  7
SLDTEXTSTYLE0
 73
     1
 44
1.0
  0
MTEXT
  5
B9
330
B5
100
AcDbEntity
  8
0
  6
Continuous
 62
     0
370
     0
100
AcDbMText
 10
25.3768468589
 20
-0.1405432084
 30
0.0
 40
3.175
 41
0.0
 71
     2
 72
     1
  1
NOT FOR MANUFACTURING PURPOSES
  7
SLDTEXTSTYLE0
 73
     1
 44
1.0
  0
ENDBLK
  5
B7
330
B5
100
AcDbEntity
  8
0
100
AcDbBlockEnd
  0
BLOCK
  5
E4
330
E3
100
AcDbEntity
  8
0
100
AcDbBlockBegin
  2
_D
 70
     0
 10
0.0
 20
0.0
 30
0.0
  3
_D
  1
_D
  0
SOLID
  5
E6
330
E3
100
AcDbEntity
  8
0
  6
Continuous
 62
     7
370
     0
100
AcDbTrace
 10
130.7618850508
 20
79.763742116
 30
0.0
 11
131.2698850508
 21
82.938742116
 31
0.0
 12
130.2538850508
 22
82.938742116
 32
0.0
 13
130.2538850508
 23
82.938742116
 33
0.0
  0
SOLID
  5
E7
330
E3
100
AcDbEntity
  8
0
  6
Continuous
 62
     7
370
     0
100
AcDbTrace
 10
130.7618850508
 20
68.763742116
 30
0.0
 11
130.2538850508
 21
65.588742116
 31
0.0
 12
131.2698850508
 22
65.588742116
 32
0.0
 13
131.2698850508
 23
65.588742116
 33
0.0
  0
LINE
  5
E8
330
E3
100
AcDbEntity
  8
0
  6
Continuous
 62
     7
370
     0
100
AcDbLine
 10
138.3859666922
 20
60.0130130117
 30
0.0
 11
137.9567537325
 21
60.0130130117
 31
0.0
  0
LINE
  5
E9
330
E3
100
AcDbEntity
  8
0
  6
Continuous
 62
     7
370
     0
100
AcDbLine
 10
137.9567537325
 20
60.0130130117
 30
0.0
 11
137.9567537325
 21
56.6498649353
 31
0.0
  0
LINE
  5
EA
330
E3
100
AcDbEntity
  8
0
  6
Continuous
 62
     7
370
     0
100
AcDbLine
 10
137.9567537325
 20
56.6498649353
 30
0.0
 11
138.3859666922
 21
56.6498649353
 31
0.0
  0
LINE
  5
EB
330
E3
100
AcDbEntity
  8
0
  6
Continuous
 62
     7
370
     0
100
AcDbLine
 10
147.2161906814
 20
60.0130130117
 30
0.0
 11
147.6454036412
 21
60.0130130117
 31
0.0
  0
LINE
  5
EC
330
E3
100
AcDbEntity
  8
0
  6
Continuous
 62
     7
370
     0
100
AcDbLine
 10
147.6454036412
 20
60.0130130117
 30
0.0
 11
147.6454036412
 21
56.6498649353
 31
0.0
  0
LINE
  5
ED
330
E3
100
AcDbEntity
  8
0
  6
Continuous
 62
     7
370
     0
100
AcDbLine
 10
147.6454036412
 20
56.6498649353
 30
0.0
 11
147.2161906814
 21
56.6498649353
 31
0.0
  0
LINE
  5
EE
330
E3
100
AcDbEntity
  8
0
  6
Continuous
 62
     7
370
     0
100
AcDbLine
 10
124.5337908302
 20
79.763742116
 30
0.0
 11
132.5398850508
 21
79.763742116
 31
0.0
  0
LINE
  5
EF
330
E3
100
AcDbEntity
  8
0
  6
Continuous
 62
     7
370
     0
100
AcDbLine
 10
124.5337908302
 20
68.763742116
 30
0.0
 11
132.5398850508
 21
68.763742116
 31
0.0
  0
LINE
  5
F0
330
E3
100
AcDbEntity
  8
0
  6
Continuous
 62
     7
370
     0
100
AcDbLine
 10
134.5718850508
 20
60.0130132446
 30
0.0
 11
130.7618850508
 21
60.0130132446
 31
0.0
  0
LINE
  5
F1
330
E3
100
AcDbEntity
  8
0
  6
Continuous
 62
     7
370
     0
100
AcDbLine
 10
130.7618850508
 20
60.0130132446
 30
0.0
 11
130.7618850508
 21
68.763742116
 31
0.0
  0
LINE
  5
F2
330
E3
100
AcDbEntity
  8
0
  6
Continuous
 62
     7
370
     0
100
AcDbLine
 10
130.7618850508
 20
79.763742116
 30
0.0
 11
130.7618850508
 21
86.113742116
 31
0.0
  0
MTEXT
  5
F3
330
E3
100
AcDbEntity
  8
0
  6
Continuous
 62
     7
370
     0
100
AcDbMText
 10
137.4466955606
 20
63.1707526582
 30
0.0
 40
2.1166666667
 41
0.0
 71
     1
 72
     1
  1

  7
SLDTEXTSTYLE0
 73
     1
 44
1.0
  0
MTEXT
  5
F4
330
E3
100
AcDbEntity
  8
0
  6
Continuous
 62
     7
370
     0
100
AcDbMText
 10
137.4192572649
 20
63.1707526582
 30
0.0
 40
2.1166666667
 41
0.0
 71
     1
 72
     1
  1
11.0mm
  7
SLDTEXTSTYLE0
 73
     1
 44
1.0
  0
MTEXT
  5
F5
330
E3
100
AcDbEntity
  8
0
  6
Continuous
 62
     7
370
     0
100
AcDbMText
 10
138.9224829137
 20
59.3783915347
 30
0.0
 40
2.1166666667
 41
0.0
 71
     1
 72
     1
  1
0.43in
  7
SLDTEXTSTYLE0
 73
     1
 44
1.0
  0
MTEXT
  5
F6
330
E3
100
AcDbEntity
  8
0
  6
Continuous
 62
     7
370
     0
100
AcDbMText
 10
149.7703991774
 20
63.1707526582
 30
0.0
 40
2.1166666667
 41
0.0
 71
     1
 72
     1
  1

  7
SLDTEXTSTYLE0
 73
     1
 44
1.0
  0
ENDBLK
  5
E5
330
E3
100
AcDbEntity
  8
0
100
AcDbBlockEnd
  0
BLOCK
  5
FA
330
F9
100
AcDbEntity
  8
0
100
AcDbBlockBegin
  2
_D_1
 70
     0
 10
0.0
 20
0.0
 30
0.0
  3
_D_1
  1
_D_1
  0
SOLID
  5
FC
330
F9
100
AcDbEntity
  8
0
  6
Continuous
 62
     7
370
     0
100
AcDbTrace
 10
151.4638939078
 20
68.763742116
 30
0.0
 11
150.9558939078
 21
65.588742116
 31
0.0
 12
151.9718939078
 22
65.588742116
 32
0.0
 13
151.9718939078
 23
65.588742116
 33
0.0
  0
SOLID
  5
FD
330
F9
100
AcDbEntity
  8
0
  6
Continuous
 62
     7
370
     0
100
AcDbTrace
 10
151.4638939078
 20
74.263742116
 30
0.0
 11
151.9718939078
 21
77.438742116
 31
0.0
 12
150.9558939078
 22
77.438742116
 32
0.0
 13
150.9558939078
 23
77.438742116
 33
0.0
  0
LINE
  5
FE
330
F9
100
AcDbEntity
  8
0
  6
Continuous
 62
     7
370
     0
100
AcDbLine
 10
158.8723888087
 20
60.0130130117
 30
0.0
 11
158.443175849
 21
60.0130130117
 31
0.0
  0
LINE
  5
FF
330
F9
100
AcDbEntity
  8
0
  6
Continuous
 62
     7
370
     0
100
AcDbLine
 10
158.443175849
 20
60.0130130117
 30
0.0
 11
158.443175849
 21
56.6498649353
 31
0.0
  0
LINE
  5
100
330
F9
100
AcDbEntity
  8
0
  6
Continuous
 62
     7
370
     0
100
AcDbLine
 10
158.443175849
 20
56.6498649353
 30
0.0
 11
158.8723888087
 21
56.6498649353
 31
0.0
  0
LINE
  5
101
330
F9
100
AcDbEntity
  8
0
  6
Continuous
 62
     7
370
     0
100
AcDbLine
 10
167.7026127979
 20
60.0130130117
 30
0.0
 11
168.1318257576
 21
60.0130130117
 31
0.0
  0
LINE
  5
102
330
F9
100
AcDbEntity
  8
0
  6
Continuous
 62
     7
370
     0
100
AcDbLine
 10
168.1318257576
 20
60.0130130117
 30
0.0
 11
168.1318257576
 21
56.6498649353
 31
0.0
  0
LINE
  5
103
330
F9
100
AcDbEntity
  8
0
  6
Continuous
 62
     7
370
     0
100
AcDbLine
 10
168.1318257576
 20
56.6498649353
 30
0.0
 11
167.7026127979
 21
56.6498649353
 31
0.0
  0
LINE
  5
104
330
F9
100
AcDbEntity
  8
0
  6
Continuous
 62
     7
370
     0
100
AcDbLine
 10
124.5337908302
 20
68.763742116
 30
0.0
 11
153.2418939078
 21
68.763742116
 31
0.0
  0
LINE
  5
105
330
F9
100
AcDbEntity
  8
0
  6
Continuous
 62
     7
370
     0
100
AcDbLine
 10
124.6333147832
 20
74.263742116
 30
0.0
 11
153.2418939078
 21
74.263742116
 31
0.0
  0
LINE
  5
106
330
F9
100
AcDbEntity
  8
0
  6
Continuous
 62
     7
370
     0
100
AcDbLine
 10
155.2738939078
 20
60.0130132446
 30
0.0
 11
151.4638939078
 21
60.0130132446
 31
0.0
  0
LINE
  5
107
330
F9
100
AcDbEntity
  8
0
  6
Continuous
 62
     7
370
     0
100
AcDbLine
 10
151.4638939078
 20
60.0130132446
 30
0.0
 11
151.4638939078
 21
68.763742116
 31
0.0
  0
LINE
  5
108
330
F9
100
AcDbEntity
  8
0
  6
Continuous
 62
     7
370
     0
100
AcDbLine
 10
151.4638939078
 20
74.263742116
 30
0.0
 11
151.4638939078
 21
80.613742116
 31
0.0
  0
MTEXT
  5
109
330
F9
100
AcDbEntity
  8
0
  6
Continuous
 62
     7
370
     0
100
AcDbMText
 10
158.1487044176
 20
63.1707526582
 30
0.0
 40
2.1166666667
 41
0.0
 71
     1
 72
     1
  1

  7
SLDTEXTSTYLE0
 73
     1
 44
1.0
  0
MTEXT
  5
10A
330
F9
100
AcDbEntity
  8
0
  6
Continuous
 62
     7
370
     0
100
AcDbMText
 10
158.6876704348
 20
63.1707526582
 30
0.0
 40
2.1166666667
 41
0.0
 71
     1
 72
     1
  1
5.5mm
  7
SLDTEXTSTYLE0
 73
     1
 44
1.0
  0
MTEXT
  5
10B
330
F9
100
AcDbEntity
  8
0
  6
Continuous
 62
     7
370
     0
100
AcDbMText
 10
159.4089050302
 20
59.3783915347
 30
0.0
 40
2.1166666667
 41
0.0
 71
     1
 72
     1
  1
0.22in
  7
SLDTEXTSTYLE0
 73
     1
 44
1.0
  0
MTEXT
  5
10C
330
F9
100
AcDbEntity
  8
0
  6
Continuous
 62
     7
370
     0
100
AcDbMText
 10
170.0412354847
 20
63.1707526582
 30
0.0
 40
2.1166666667
 41
0.0
 71
     1
 72
     1
  1

  7
SLDTEXTSTYLE0
 73
     1
 44
1.0
  0
ENDBLK
  5
FB
330
F9
100
AcDbEntity
  8
0
100
AcDbBlockEnd
  0
BLOCK
  5
10F
330
10E
100
AcDbEntity
  8
0
100
AcDbBlockBegin
  2
_D_2
 70
     0
 10
0.0
 20
0.0
 30
0.0
  3
_D_2
  1
_D_2
  0
SOLID
  5
111
330
10E
100
AcDbEntity
  8
0
  6
Continuous
 62
     7
370
     0
100
AcDbTrace
 10
70.0637908302
 20
62.7946556571
 30
0.0
 11
66.8887908302
 21
63.3026556571
 31
0.0
 12
66.8887908302
 22
62.2866556571
 32
0.0
 13
66.8887908302
 23
62.2866556571
 33
0.0
  0
SOLID
  5
112
330
10E
100
AcDbEntity
  8
0
  6
Continuous
 62
     7
370
     0
100
AcDbTrace
 10
76.7637908302
 20
62.7946556571
 30
0.0
 11
79.9387908302
 21
62.2866556571
 31
0.0
 12
79.9387908302
 22
63.3026556571
 32
0.0
 13
79.9387908302
 23
63.3026556571
 33
0.0
  0
LINE
  5
113
330
10E
100
AcDbEntity
  8
0
  6
Continuous
 62
     7
370
     0
100
AcDbLine
 10
70.0637908302
 20
67.693742116
 30
0.0
 11
70.0637908302
 21
61.0166556571
 31
0.0
  0
LINE
  5
114
330
10E
100
AcDbEntity
  8
0
  6
Continuous
 62
     7
370
     0
100
AcDbLine
 10
76.7637908302
 20
67.8416350986
 30
0.0
 11
76.7637908302
 21
61.0166556571
 31
0.0
  0
LINE
  5
115
330
10E
100
AcDbEntity
  8
0
  6
Continuous
 62
     7
370
     0
100
AcDbLine
 10
70.0637908302
 20
62.7946556571
 30
0.0
 11
63.9124232475
 21
62.7946556571
 31
0.0
  0
LINE
  5
116
330
10E
100
AcDbEntity
  8
0
  6
Continuous
 62
     7
370
     0
100
AcDbLine
 10
76.7637908302
 20
62.7946556571
 30
0.0
 11
83.1137908302
 21
62.7946556571
 31
0.0
  0
MTEXT
  5
117
330
10E
100
AcDbEntity
  8
0
  6
Continuous
 62
     7
370
     0
100
AcDbMText
 10
48.9606350062
 20
65.5231822566
 30
0.0
 40
2.1166666667
 41
0.0
 71
     1
 72
     1
  1
6.7mm TYP
  7
SLDTEXTSTYLE0
 73
     1
 44
1.0
  0
MTEXT
  5
118
330
10E
100
AcDbEntity
  8
0
  6
Continuous
 62
     7
370
     0
100
AcDbMText
 10
51.351684179
 20
62.1600341801
 30
0.0
 40
2.1166666667
 41
0.0
 71
     1
 72
     1
  1
[0.26in]
  7
SLDTEXTSTYLE0
 73
     1
 44
1.0
  0
ENDBLK
  5
110
330
10E
100
AcDbEntity
  8
0
100
AcDbBlockEnd
  0
BLOCK
  5
11C
330
11B
100
AcDbEntity
  8
0
100
AcDbBlockBegin
  2
_D_3
 70
     0
 10
0.0
 20
0.0
 30
0.0
  3
_D_3
  1
_D_3
  0
SOLID
  5
11E
330
11B
100
AcDbEntity
  8
0
  6
Continuous
 62
     7
370
     0
100
AcDbTrace
 10
76.7637908302
 20
62.7946556571
 30
0.0
 11
79.9387908302
 21
62.2866556571
 31
0.0
 12
79.9387908302
 22
63.3026556571
 32
0.0
 13
79.9387908302
 23
63.3026556571
 33
0.0
  0
SOLID
  5
11F
330
11B
100
AcDbEntity
  8
0
  6
Continuous
 62
     7
370
     0
100
AcDbTrace
 10
96.7637908302
 20
62.7946556571
 30
0.0
 11
93.5887908302
 21
63.3026556571
 31
0.0
 12
93.5887908302
 22
62.2866556571
 32
0.0
 13
93.5887908302
 23
62.2866556571
 33
0.0
  0
LINE
  5
120
330
11B
100
AcDbEntity
  8
0
  6
Continuous
 62
     7
370
     0
100
AcDbLine
 10
82.0688432796
 20
62.7946554243
 30
0.0
 11
81.6396303199
 21
62.7946554243
 31
0.0
  0
LINE
  5
121
330
11B
100
AcDbEntity
  8
0
  6
Continuous
 62
     7
370
     0
100
AcDbLine
 10
81.6396303199
 20
62.7946554243
 30
0.0
 11
81.6396303199
 21
59.4315073478
 31
0.0
  0
LINE
  5
122
330
11B
100
AcDbEntity
  8
0
  6
Continuous
 62
     7
370
     0
100
AcDbLine
 10
81.6396303199
 20
59.4315073478
 30
0.0
 11
82.0688432796
 21
59.4315073478
 31
0.0
  0
LINE
  5
123
330
11B
100
AcDbEntity
  8
0
  6
Continuous
 62
     7
370
     0
100
AcDbLine
 10
90.8990672689
 20
62.7946554243
 30
0.0
 11
91.3282802286
 21
62.7946554243
 31
0.0
  0
LINE
  5
124
330
11B
100
AcDbEntity
  8
0
  6
Continuous
 62
     7
370
     0
100
AcDbLine
 10
91.3282802286
 20
62.7946554243
 30
0.0
 11
91.3282802286
 21
59.4315073478
 31
0.0
  0
LINE
  5
125
330
11B
100
AcDbEntity
  8
0
  6
Continuous
 62
     7
370
     0
100
AcDbLine
 10
91.3282802286
 20
59.4315073478
 30
0.0
 11
90.8990672689
 21
59.4315073478
 31
0.0
  0
LINE
  5
126
330
11B
100
AcDbEntity
  8
0
  6
Continuous
 62
     7
370
     0
100
AcDbLine
 10
76.7637908302
 20
68.2302721725
 30
0.0
 11
76.7637908302
 21
61.0166556571
 31
0.0
  0
LINE
  5
127
330
11B
100
AcDbEntity
  8
0
  6
Continuous
 62
     7
370
     0
100
AcDbLine
 10
96.7637908302
 20
68.5373613827
 30
0.0
 11
96.7637908302
 21
61.0166556571
 31
0.0
  0
LINE
  5
128
330
11B
100
AcDbEntity
  8
0
  6
Continuous
 62
     7
370
     0
100
AcDbLine
 10
76.7637908302
 20
62.7946556571
 30
0.0
 11
79.1129686447
 21
62.7946556571
 31
0.0
  0
LINE
  5
129
330
11B
100
AcDbEntity
  8
0
  6
Continuous
 62
     7
370
     0
100
AcDbLine
 10
96.7637908302
 20
62.7946556571
 30
0.0
 11
93.8549414381
 21
62.7946556571
 31
0.0
  0
MTEXT
  5
12A
330
11B
100
AcDbEntity
  8
0
  6
Continuous
 62
     7
370
     0
100
AcDbMText
 10
81.129572148
 20
65.9523950708
 30
0.0
 40
2.1166666667
 41
0.0
 71
     1
 72
     1
  1

  7
SLDTEXTSTYLE0
 73
     1
 44
1.0
  0
MTEXT
  5
12B
330
11B
100
AcDbEntity
  8
0
  6
Continuous
 62
     7
370
     0
100
AcDbMText
 10
81.1021338523
 20
65.9523950708
 30
0.0
 40
2.1166666667
 41
0.0
 71
     1
 72
     1
  1
20.0mm
  7
SLDTEXTSTYLE0
 73
     1
 44
1.0
  0
MTEXT
  5
12C
330
11B
100
AcDbEntity
  8
0
  6
Continuous
 62
     7
370
     0
100
AcDbMText
 10
82.6053595011
 20
62.1600339473
 30
0.0
 40
2.1166666667
 41
0.0
 71
     1
 72
     1
  1
0.79in
  7
SLDTEXTSTYLE0
 73
     1
 44
1.0
  0
MTEXT
  5
12D
330
11B
100
AcDbEntity
  8
0
  6
Continuous
 62
     7
370
     0
100
AcDbMText
 10
93.4532757648
 20
65.9523950708
 30
0.0
 40
2.1166666667
 41
0.0
 71
     1
 72
     1
  1

  7
SLDTEXTSTYLE0
 73
     1
 44
1.0
  0
ENDBLK
  5
11D
330
11B
100
AcDbEntity
  8
0
100
AcDbBlockEnd
  0
BLOCK
  5
138
330
137
100
AcDbEntity
  8
0
100
AcDbBlockBegin
  2
SW_CENTERMARKSYMBOL_0
 70
     0
 10
0.0
 20
0.0
 30
0.0
  3
SW_CENTERMARKSYMBOL_0
  1
SW_CENTERMARKSYMBOL_0
  0
LINE
  5
13A
330
137
100
AcDbEntity
  8
0
  6
Continuous
 62
     0
370
     0
100
AcDbLine
 10
0.0
 20
0.0
 30
0.0
 11
0.0
 21
1.27
 31
0.0
  0
LINE
  5
13B
330
137
100
AcDbEntity
  8
0
  6
Continuous
 62
     0
370
     0
100
AcDbLine
 10
0.0
 20
0.0
 30
0.0
 11
-1.27
 21
0.0
 31
0.0
  0
LINE
  5
13C
330
137
100
AcDbEntity
  8
0
  6
Continuous
 62
     0
370
     0
100
AcDbLine
 10
0.0
 20
0.0
 30
0.0
 11
0.0
 21
-1.27
 31
0.0
  0
LINE
  5
13D
330
137
100
AcDbEntity
  8
0
  6
Continuous
 62
     0
370
     0
100
AcDbLine
 10
0.0
 20
0.0
 30
0.0
 11
1.27
 21
0.0
 31
0.0
  0
ENDBLK
  5
139
330
137
100
AcDbEntity
  8
0
100
AcDbBlockEnd
  0
BLOCK
  5
140
330
13F
100
AcDbEntity
  8
0
100
AcDbBlockBegin
  2
SW_CENTERMARKSYMBOL_1
 70
     0
 10
0.0
 20
0.0
 30
0.0
  3
SW_CENTERMARKSYMBOL_1
  1
SW_CENTERMARKSYMBOL_1
  0
LINE
  5
142
330
13F
100
AcDbEntity
  8
0
  6
Continuous
 62
     0
370
     0
100
AcDbLine
 10
0.0
 20
0.0
 30
0.0
 11
0.0
 21
1.27
 31
0.0
  0
LINE
  5
143
330
13F
100
AcDbEntity
  8
0
  6
Continuous
 62
     0
370
     0
100
AcDbLine
 10
0.0
 20
0.0
 30
0.0
 11
-1.27
 21
0.0
 31
0.0
  0
LINE
  5
144
330
13F
100
AcDbEntity
  8
0
  6
Continuous
 62
     0
370
     0
100
AcDbLine
 10
0.0
 20
0.0
 30
0.0
 11
0.0
 21
-1.27
 31
0.0
  0
LINE
  5
145
330
13F
100
AcDbEntity
  8
0
  6
Continuous
 62
     0
370
     0
100
AcDbLine
 10
0.0
 20
0.0
 30
0.0
 11
1.27
 21
0.0
 31
0.0
  0
ENDBLK
  5
141
330
13F
100
AcDbEntity
  8
0
100
AcDbBlockEnd
  0
BLOCK
  5
148
330
147
100
AcDbEntity
  8
0
100
AcDbBlockBegin
  2
SW_CENTERMARKSYMBOL_2
 70
     0
 10
0.0
 20
0.0
 30
0.0
  3
SW_CENTERMARKSYMBOL_2
  1
SW_CENTERMARKSYMBOL_2
  0
LINE
  5
14A
330
147
100
AcDbEntity
  8
0
  6
Continuous
 62
     0
370
     0
100
AcDbLine
 10
0.0
 20
0.0
 30
0.0
 11
0.0
 21
1.27
 31
0.0
  0
LINE
  5
14B
330
147
100
AcDbEntity
  8
0
  6
Continuous
 62
     0
370
     0
100
AcDbLine
 10
0.0
 20
0.0
 30
0.0
 11
-1.27
 21
0.0
 31
0.0
  0
LINE
  5
14C
330
147
100
AcDbEntity
  8
0
  6
Continuous
 62
     0
370
     0
100
AcDbLine
 10
0.0
 20
0.0
 30
0.0
 11
0.0
 21
-1.27
 31
0.0
  0
LINE
  5
14D
330
147
100
AcDbEntity
  8
0
  6
Continuous
 62
     0
370
     0
100
AcDbLine
 10
0.0
 20
0.0
 30
0.0
 11
1.27
 21
0.0
 31
0.0
  0
ENDBLK
  5
149
330
147
100
AcDbEntity
  8
0
100
AcDbBlockEnd
  0
BLOCK
  5
22B
330
22A
100
AcDbEntity
  8
0
100
AcDbBlockBegin
  2
_D_4
 70
     0
 10
0.0
 20
0.0
 30
0.0
  3
_D_4
  1
_D_4
  0
SOLID
  5
22D
330
22A
100
AcDbEntity
  8
0
  6
Continuous
 62
     7
370
     0
100
AcDbTrace
 10
97.976823388
 20
175.5953401085
 30
0.0
 11
100.7299700128
 21
177.2563255576
 31
0.0
 12
100.0742792456
 22
178.0324219548
 32
0.0
 13
100.0742792456
 23
178.0324219548
 33
0.0
  0
LINE
  5
22E
330
22A
100
AcDbEntity
  8
0
  6
Continuous
 62
     7
370
     0
100
AcDbLine
 10
128.0176907093
 20
188.2550951621
 30
0.0
 11
127.5884777496
 21
188.2550951621
 31
0.0
  0
LINE
  5
22F
330
22A
100
AcDbEntity
  8
0
  6
Continuous
 62
     7
370
     0
100
AcDbLine
 10
127.5884777496
 20
188.2550951621
 30
0.0
 11
127.5884777496
 21
184.8919470857
 31
0.0
  0
LINE
  5
230
330
22A
100
AcDbEntity
  8
0
  6
Continuous
 62
     7
370
     0
100
AcDbLine
 10
127.5884777496
 20
184.8919470857
 30
0.0
 11
128.0176907093
 21
184.8919470857
 31
0.0
  0
LINE
  5
231
330
22A
100
AcDbEntity
  8
0
  6
Continuous
 62
     7
370
     0
100
AcDbLine
 10
136.8479146985
 20
188.2550951621
 30
0.0
 11
137.2771276582
 21
188.2550951621
 31
0.0
  0
LINE
  5
232
330
22A
100
AcDbEntity
  8
0
  6
Continuous
 62
     7
370
     0
100
AcDbLine
 10
137.2771276582
 20
188.2550951621
 30
0.0
 11
137.2771276582
 21
184.8919470857
 31
0.0
  0
LINE
  5
233
330
22A
100
AcDbEntity
  8
0
  6
Continuous
 62
     7
370
     0
100
AcDbLine
 10
137.2771276582
 20
184.8919470857
 30
0.0
 11
136.8479146985
 21
184.8919470857
 31
0.0
  0
LINE
  5
234
330
22A
100
AcDbEntity
  8
0
  6
Continuous
 62
     7
370
     0
100
AcDbLine
 10
97.976823388
 20
175.5953401085
 30
0.0
 11
115.0048365938
 21
189.9815826996
 31
0.0
  0
LINE
  5
235
330
22A
100
AcDbEntity
  8
0
  6
Continuous
 62
     7
370
     0
100
AcDbLine
 10
115.0048365938
 20
189.9815826996
 30
0.0
 11
127.2665680225
 21
189.9815826996
 31
0.0
  0
MTEXT
  5
236
330
22A
100
AcDbEntity
  8
0
  6
Continuous
 62
     7
370
     0
100
AcDbMText
 10
127.2665680225
 20
191.4128348086
 30
0.0
 40
2.1166666667
 41
0.0
 71
     1
 72
     1
  1
%%c
  7
SLDTEXTSTYLE0
 73
     1
 44
1.0
  0
MTEXT
  5
237
330
22A
100
AcDbEntity
  8
0
  6
Continuous
 62
     7
370
     0
100
AcDbMText
 10
130.4615588232
 20
191.4128348086
 30
0.0
 40
2.1166666667
 41
0.0
 71
     1
 72
     1
  1
3.2mm
  7
SLDTEXTSTYLE0
 73
     1
 44
1.0
  0
MTEXT
  5
238
330
22A
100
AcDbEntity
  8
0
  6
Continuous
 62
     7
370
     0
100
AcDbMText
 10
128.5542069308
 20
187.6204736851
 30
0.0
 40
2.1166666667
 41
0.0
 71
     1
 72
     1
  1
0.13in
  7
SLDTEXTSTYLE0
 73
     1
 44
1.0
  0
ENDBLK
  5
22C
330
22A
100
AcDbEntity
  8
0
100
AcDbBlockEnd
  0
BLOCK
  5
23C
330
23B
100
AcDbEntity
  8
0
100
AcDbBlockBegin
  2
_D_5
 70
     0
 10
0.0
 20
0.0
 30
0.0
  3
_D_5
  1
_D_5
  0
SOLID
  5
23E
330
23B
100
AcDbEntity
  8
0
  6
Continuous
 62
     7
370
     0
100
AcDbTrace
 10
70.0637908302
 20
142.6916172855
 30
0.0
 11
73.2387908302
 21
142.1836172855
 31
0.0
 12
73.2387908302
 22
143.1996172855
 32
0.0
 13
73.2387908302
 23
143.1996172855
 33
0.0
  0
SOLID
  5
23F
330
23B
100
AcDbEntity
  8
0
  6
Continuous
 62
     7
370
     0
100
AcDbTrace
 10
123.4637908302
 20
142.6916172855
 30
0.0
 11
120.2887908302
 21
143.1996172855
 31
0.0
 12
120.2887908302
 22
142.1836172855
 32
0.0
 13
120.2887908302
 23
142.1836172855
 33
0.0
  0
LINE
  5
240
330
23B
100
AcDbEntity
  8
0
  6
Continuous
 62
     7
370
     0
100
AcDbLine
 10
91.4559726789
 20
142.6916170527
 30
0.0
 11
91.0267597192
 21
142.6916170527
 31
0.0
  0
LINE
  5
241
330
23B
100
AcDbEntity
  8
0
  6
Continuous
 62
     7
370
     0
100
AcDbLine
 10
91.0267597192
 20
142.6916170527
 30
0.0
 11
91.0267597192
 21
139.3284689762
 31
0.0
  0
LINE
  5
242
330
23B
100
AcDbEntity
  8
0
  6
Continuous
 62
     7
370
     0
100
AcDbLine
 10
91.0267597192
 20
139.3284689762
 30
0.0
 11
91.4559726789
 21
139.3284689762
 31
0.0
  0
LINE
  5
243
330
23B
100
AcDbEntity
  8
0
  6
Continuous
 62
     7
370
     0
100
AcDbLine
 10
100.2861966681
 20
142.6916170527
 30
0.0
 11
100.7154096278
 21
142.6916170527
 31
0.0
  0
LINE
  5
244
330
23B
100
AcDbEntity
  8
0
  6
Continuous
 62
     7
370
     0
100
AcDbLine
 10
100.7154096278
 20
142.6916170527
 30
0.0
 11
100.7154096278
 21
139.3284689762
 31
0.0
  0
LINE
  5
245
330
23B
100
AcDbEntity
  8
0
  6
Continuous
 62
     7
370
     0
100
AcDbLine
 10
100.7154096278
 20
139.3284689762
 30
0.0
 11
100.2861966681
 21
139.3284689762
 31
0.0
  0
LINE
  5
246
330
23B
100
AcDbEntity
  8
0
  6
Continuous
 62
     7
370
     0
100
AcDbLine
 10
70.0637908302
 20
151.310042033
 30
0.0
 11
70.0637908302
 21
140.9136172855
 31
0.0
  0
LINE
  5
247
330
23B
100
AcDbEntity
  8
0
  6
Continuous
 62
     7
370
     0
100
AcDbLine
 10
123.4637908302
 20
150.9144620718
 30
0.0
 11
123.4637908302
 21
140.9136172855
 31
0.0
  0
LINE
  5
248
330
23B
100
AcDbEntity
  8
0
  6
Continuous
 62
     7
370
     0
100
AcDbLine
 10
70.0637908302
 20
142.6916172855
 30
0.0
 11
88.500098044
 21
142.6916172855
 31
0.0
  0
LINE
  5
249
330
23B
100
AcDbEntity
  8
0
  6
Continuous
 62
     7
370
     0
100
AcDbLine
 10
123.4637908302
 20
142.6916172855
 30
0.0
 11
103.2420708373
 21
142.6916172855
 31
0.0
  0
MTEXT
  5
24A
330
23B
100
AcDbEntity
  8
0
  6
Continuous
 62
     7
370
     0
100
AcDbMText
 10
90.5167015472
 20
145.8493566991
 30
0.0
 40
2.1166666667
 41
0.0
 71
     1
 72
     1
  1

  7
SLDTEXTSTYLE0
 73
     1
 44
1.0
  0
MTEXT
  5
24B
330
23B
100
AcDbEntity
  8
0
  6
Continuous
 62
     7
370
     0
100
AcDbMText
 10
90.4892632516
 20
145.8493566991
 30
0.0
 40
2.1166666667
 41
0.0
 71
     1
 72
     1
  1
53.4mm
  7
SLDTEXTSTYLE0
 73
     1
 44
1.0
  0
MTEXT
  5
24C
330
23B
100
AcDbEntity
  8
0
  6
Continuous
 62
     7
370
     0
100
AcDbMText
 10
91.9924889004
 20
142.0569955757
 30
0.0
 40
2.1166666667
 41
0.0
 71
     1
 72
     1
  1
2.10in
  7
SLDTEXTSTYLE0
 73
     1
 44
1.0
  0
MTEXT
  5
24D
330
23B
100
AcDbEntity
  8
0
  6
Continuous
 62
     7
370
     0
100
AcDbMText
 10
102.8404051641
 20
145.8493566991
 30
0.0
 40
2.1166666667
 41
0.0
 71
     1
 72
     1
  1

  7
SLDTEXTSTYLE0
 73
     1
 44
1.0
  0
ENDBLK
  5
23D
330
23B
100
AcDbEntity
  8
0
100
AcDbBlockEnd
  0
BLOCK
  5
250
330
24F
100
AcDbEntity
  8
0
100
AcDbBlockBegin
  2
_D_6
 70
     0
 10
0.0
 20
0.0
 30
0.0
  3
_D_6
  1
_D_6
  0
SOLID
  5
252
330
24F
100
AcDbEntity
  8
0
  6
Continuous
 62
     7
370
     0
100
AcDbTrace
 10
133.4638939078
 20
174.9890172855
 30
0.0
 11
132.9558939078
 21
171.8140172855
 31
0.0
 12
133.9718939078
 22
171.8140172855
 32
0.0
 13
133.9718939078
 23
171.8140172855
 33
0.0
  0
SOLID
  5
253
330
24F
100
AcDbEntity
  8
0
  6
Continuous
 62
     7
370
     0
100
AcDbTrace
 10
133.4638939078
 20
152.6916172855
 30
0.0
 11
133.9718939078
 21
155.8666172855
 31
0.0
 12
132.9558939078
 22
155.8666172855
 32
0.0
 13
132.9558939078
 23
155.8666172855
 33
0.0
  0
LINE
  5
254
330
24F
100
AcDbEntity
  8
0
  6
Continuous
 62
     7
370
     0
100
AcDbLine
 10
129.0487821461
 20
163.8603046686
 30
0.0
 11
128.6195691863
 21
163.8603046686
 31
0.0
  0
LINE
  5
255
330
24F
100
AcDbEntity
  8
0
  6
Continuous
 62
     7
370
     0
100
AcDbLine
 10
128.6195691863
 20
163.8603046686
 30
0.0
 11
128.6195691863
 21
160.4971565921
 31
0.0
  0
LINE
  5
256
330
24F
100
AcDbEntity
  8
0
  6
Continuous
 62
     7
370
     0
100
AcDbLine
 10
128.6195691863
 20
160.4971565921
 30
0.0
 11
129.0487821461
 21
160.4971565921
 31
0.0
  0
LINE
  5
257
330
24F
100
AcDbEntity
  8
0
  6
Continuous
 62
     7
370
     0
100
AcDbLine
 10
137.8790061353
 20
163.8603046686
 30
0.0
 11
138.308219095
 21
163.8603046686
 31
0.0
  0
LINE
  5
258
330
24F
100
AcDbEntity
  8
0
  6
Continuous
 62
     7
370
     0
100
AcDbLine
 10
138.308219095
 20
163.8603046686
 30
0.0
 11
138.308219095
 21
160.4971565921
 31
0.0
  0
LINE
  5
259
330
24F
100
AcDbEntity
  8
0
  6
Continuous
 62
     7
370
     0
100
AcDbLine
 10
138.308219095
 20
160.4971565921
 30
0.0
 11
137.8790061353
 21
160.4971565921
 31
0.0
  0
LINE
  5
25A
330
24F
100
AcDbEntity
  8
0
  6
Continuous
 62
     7
370
     0
100
AcDbLine
 10
124.7037908302
 20
174.9890172855
 30
0.0
 11
135.2418939078
 21
174.9890172855
 31
0.0
  0
LINE
  5
25B
330
24F
100
AcDbEntity
  8
0
  6
Continuous
 62
     7
370
     0
100
AcDbLine
 10
124.5337908302
 20
152.6916172855
 30
0.0
 11
135.2418939078
 21
152.6916172855
 31
0.0
  0
LINE
  5
25C
330
24F
100
AcDbEntity
  8
0
  6
Continuous
 62
     7
370
     0
100
AcDbLine
 10
133.4638939078
 20
174.9890172855
 30
0.0
 11
133.4638939078
 21
167.6526657921
 31
0.0
  0
LINE
  5
25D
330
24F
100
AcDbEntity
  8
0
  6
Continuous
 62
     7
370
     0
100
AcDbLine
 10
133.4638939078
 20
152.6916172855
 30
0.0
 11
133.4638939078
 21
160.0679440107
 31
0.0
  0
MTEXT
  5
25E
330
24F
100
AcDbEntity
  8
0
  6
Continuous
 62
     7
370
     0
100
AcDbMText
 10
128.1095110144
 20
167.018044315
 30
0.0
 40
2.1166666667
 41
0.0
 71
     1
 72
     1
  1

  7
SLDTEXTSTYLE0
 73
     1
 44
1.0
  0
MTEXT
  5
25F
330
24F
100
AcDbEntity
  8
0
  6
Continuous
 62
     7
370
     0
100
AcDbMText
 10
128.0820727188
 20
167.018044315
 30
0.0
 40
2.1166666667
 41
0.0
 71
     1
 72
     1
  1
22.3mm
  7
SLDTEXTSTYLE0
 73
     1
 44
1.0
  0
MTEXT
  5
260
330
24F
100
AcDbEntity
  8
0
  6
Continuous
 62
     7
370
     0
100
AcDbMText
 10
129.5852983675
 20
163.2256831915
 30
0.0
 40
2.1166666667
 41
0.0
 71
     1
 72
     1
  1
0.88in
  7
SLDTEXTSTYLE0
 73
     1
 44
1.0
  0
MTEXT
  5
261
330
24F
100
AcDbEntity
  8
0
  6
Continuous
 62
     7
370
     0
100
AcDbMText
 10
140.4332146312
 20
167.018044315
 30
0.0
 40
2.1166666667
 41
0.0
 71
     1
 72
     1
  1

  7
SLDTEXTSTYLE0
 73
     1
 44
1.0
  0
ENDBLK
  5
251
330
24F
100
AcDbEntity
  8
0
100
AcDbBlockEnd
  0
BLOCK
  5
29A
330
299
100
AcDbEntity
  8
0
100
AcDbBlockBegin
  2
_D_7
 70
     0
 10
0.0
 20
0.0
 30
0.0
  3
_D_7
  1
_D_7
  0
SOLID
  5
29C
330
299
100
AcDbEntity
  8
0
  6
Continuous
 62
     7
370
     0
100
AcDbTrace
 10
248.3193274567
 20
71.183992116
 30
0.0
 11
247.8113274567
 21
68.008992116
 31
0.0
 12
248.8273274567
 22
68.008992116
 32
0.0
 13
248.8273274567
 23
68.008992116
 33
0.0
  0
SOLID
  5
29D
330
299
100
AcDbEntity
  8
0
  6
Continuous
 62
     7
370
     0
100
AcDbTrace
 10
248.3193274567
 20
77.343492116
 30
0.0
 11
248.8273274567
 21
80.518492116
 31
0.0
 12
247.8113274567
 22
80.518492116
 32
0.0
 13
247.8113274567
 23
80.518492116
 33
0.0
  0
LINE
  5
29E
330
299
100
AcDbEntity
  8
0
  6
Continuous
 62
     7
370
     0
100
AcDbLine
 10
255.7278223575
 20
92.2685505811
 30
0.0
 11
255.2986093978
 21
92.2685505811
 31
0.0
  0
LINE
  5
29F
330
299
100
AcDbEntity
  8
0
  6
Continuous
 62
     7
370
     0
100
AcDbLine
 10
255.2986093978
 20
92.2685505811
 30
0.0
 11
255.2986093978
 21
88.9054025047
 31
0.0
  0
LINE
  5
2A0
330
299
100
AcDbEntity
  8
0
  6
Continuous
 62
     7
370
     0
100
AcDbLine
 10
255.2986093978
 20
88.9054025047
 30
0.0
 11
255.7278223575
 21
88.9054025047
 31
0.0
  0
LINE
  5
2A1
330
299
100
AcDbEntity
  8
0
  6
Continuous
 62
     7
370
     0
100
AcDbLine
 10
264.5580463467
 20
92.2685505811
 30
0.0
 11
264.9872593065
 21
92.2685505811
 31
0.0
  0
LINE
  5
2A2
330
299
100
AcDbEntity
  8
0
  6
Continuous
 62
     7
370
     0
100
AcDbLine
 10
264.9872593065
 20
92.2685505811
 30
0.0
 11
264.9872593065
 21
88.9054025047
 31
0.0
  0
LINE
  5
2A3
330
299
100
AcDbEntity
  8
0
  6
Continuous
 62
     7
370
     0
100
AcDbLine
 10
264.9872593065
 20
88.9054025047
 30
0.0
 11
264.5580463467
 21
88.9054025047
 31
0.0
  0
LINE
  5
2A4
330
299
100
AcDbEntity
  8
0
  6
Continuous
 62
     7
370
     0
100
AcDbLine
 10
220.41984414
 20
71.183992116
 30
0.0
 11
250.0973274567
 21
71.183992116
 31
0.0
  0
LINE
  5
2A5
330
299
100
AcDbEntity
  8
0
  6
Continuous
 62
     7
370
     0
100
AcDbLine
 10
220.41984414
 20
77.343492116
 30
0.0
 11
250.0973274567
 21
77.343492116
 31
0.0
  0
LINE
  5
2A6
330
299
100
AcDbEntity
  8
0
  6
Continuous
 62
     7
370
     0
100
AcDbLine
 10
252.1293274567
 20
92.268550814
 30
0.0
 11
248.3193274567
 21
92.268550814
 31
0.0
  0
LINE
  5
2A7
330
299
100
AcDbEntity
  8
0
  6
Continuous
 62
     7
370
     0
100
AcDbLine
 10
248.3193274567
 20
92.268550814
 30
0.0
 11
248.3193274567
 21
77.343492116
 31
0.0
  0
LINE
  5
2A8
330
299
100
AcDbEntity
  8
0
  6
Continuous
 62
     7
370
     0
100
AcDbLine
 10
248.3193274567
 20
71.183992116
 30
0.0
 11
248.3193274567
 21
64.833992116
 31
0.0
  0
MTEXT
  5
2A9
330
299
100
AcDbEntity
  8
0
  6
Continuous
 62
     7
370
     0
100
AcDbMText
 10
255.0041379664
 20
95.4262902276
 30
0.0
 40
2.1166666667
 41
0.0
 71
     1
 72
     1
  1

  7
SLDTEXTSTYLE0
 73
     1
 44
1.0
  0
MTEXT
  5
2AA
330
299
100
AcDbEntity
  8
0
  6
Continuous
 62
     7
370
     0
100
AcDbMText
 10
255.5431039836
 20
95.4262902276
 30
0.0
 40
2.1166666667
 41
0.0
 71
     1
 72
     1
  1
6.2mm
  7
SLDTEXTSTYLE0
 73
     1
 44
1.0
  0
MTEXT
  5
2AB
330
299
100
AcDbEntity
  8
0
  6
Continuous
 62
     7
370
     0
100
AcDbMText
 10
256.264338579
 20
91.6339291041
 30
0.0
 40
2.1166666667
 41
0.0
 71
     1
 72
     1
  1
0.24in
  7
SLDTEXTSTYLE0
 73
     1
 44
1.0
  0
MTEXT
  5
2AC
330
299
100
AcDbEntity
  8
0
  6
Continuous
 62
     7
370
     0
100
AcDbMText
 10
266.8966690335
 20
95.4262902276
 30
0.0
 40
2.1166666667
 41
0.0
 71
     1
 72
     1
  1

  7
SLDTEXTSTYLE0
 73
     1
 44
1.0
  0
ENDBLK
  5
29B
330
299
100
AcDbEntity
  8
0
100
AcDbBlockEnd
  0
BLOCK
  5
2AF
330
2AE
100
AcDbEntity
  8
0
100
AcDbBlockBegin
  2
_D_8
 70
     0
 10
0.0
 20
0.0
 30
0.0
  3
_D_8
  1
_D_8
  0
SOLID
  5
2B1
330
2AE
100
AcDbEntity
  8
0
  6
Continuous
 62
     7
370
     0
100
AcDbTrace
 10
227.6310623881
 20
68.763742116
 30
0.0
 11
227.1230623881
 21
65.588742116
 31
0.0
 12
228.1390623881
 22
65.588742116
 32
0.0
 13
228.1390623881
 23
65.588742116
 33
0.0
  0
SOLID
  5
2B2
330
2AE
100
AcDbEntity
  8
0
  6
Continuous
 62
     7
370
     0
100
AcDbTrace
 10
227.6310623881
 20
78.763742116
 30
0.0
 11
228.1390623881
 21
81.938742116
 31
0.0
 12
227.1230623881
 22
81.938742116
 32
0.0
 13
227.1230623881
 23
81.938742116
 33
0.0
  0
LINE
  5
2B3
330
2AE
100
AcDbEntity
  8
0
  6
Continuous
 62
     7
370
     0
100
AcDbLine
 10
235.2551440295
 20
92.2685505811
 30
0.0
 11
234.8259310698
 21
92.2685505811
 31
0.0
  0
LINE
  5
2B4
330
2AE
100
AcDbEntity
  8
0
  6
Continuous
 62
     7
370
     0
100
AcDbLine
 10
234.8259310698
 20
92.2685505811
 30
0.0
 11
234.8259310698
 21
88.9054025047
 31
0.0
  0
LINE
  5
2B5
330
2AE
100
AcDbEntity
  8
0
  6
Continuous
 62
     7
370
     0
100
AcDbLine
 10
234.8259310698
 20
88.9054025047
 30
0.0
 11
235.2551440295
 21
88.9054025047
 31
0.0
  0
LINE
  5
2B6
330
2AE
100
AcDbEntity
  8
0
  6
Continuous
 62
     7
370
     0
100
AcDbLine
 10
244.0853680187
 20
92.2685505811
 30
0.0
 11
244.5145809784
 21
92.2685505811
 31
0.0
  0
LINE
  5
2B7
330
2AE
100
AcDbEntity
  8
0
  6
Continuous
 62
     7
370
     0
100
AcDbLine
 10
244.5145809784
 20
92.2685505811
 30
0.0
 11
244.5145809784
 21
88.9054025047
 31
0.0
  0
LINE
  5
2B8
330
2AE
100
AcDbEntity
  8
0
  6
Continuous
 62
     7
370
     0
100
AcDbLine
 10
244.5145809784
 20
88.9054025047
 30
0.0
 11
244.0853680187
 21
88.9054025047
 31
0.0
  0
LINE
  5
2B9
330
2AE
100
AcDbEntity
  8
0
  6
Continuous
 62
     7
370
     0
100
AcDbLine
 10
219.42244414
 20
68.763742116
 30
0.0
 11
229.4090623881
 21
68.763742116
 31
0.0
  0
LINE
  5
2BA
330
2AE
100
AcDbEntity
  8
0
  6
Continuous
 62
     7
370
     0
100
AcDbLine
 10
219.92244414
 20
78.763742116
 30
0.0
 11
229.4090623881
 21
78.763742116
 31
0.0
  0
LINE
  5
2BB
330
2AE
100
AcDbEntity
  8
0
  6
Continuous
 62
     7
370
     0
100
AcDbLine
 10
231.4410623881
 20
92.268550814
 30
0.0
 11
227.6310623881
 21
92.268550814
 31
0.0
  0
LINE
  5
2BC
330
2AE
100
AcDbEntity
  8
0
  6
Continuous
 62
     7
370
     0
100
AcDbLine
 10
227.6310623881
 20
92.268550814
 30
0.0
 11
227.6310623881
 21
78.763742116
 31
0.0
  0
LINE
  5
2BD
330
2AE
100
AcDbEntity
  8
0
  6
Continuous
 62
     7
370
     0
100
AcDbLine
 10
227.6310623881
 20
68.763742116
 30
0.0
 11
227.6310623881
 21
62.413742116
 31
0.0
  0
MTEXT
  5
2BE
330
2AE
100
AcDbEntity
  8
0
  6
Continuous
 62
     7
370
     0
100
AcDbMText
 10
234.3158728978
 20
95.4262902276
 30
0.0
 40
2.1166666667
 41
0.0
 71
     1
 72
     1
  1

  7
SLDTEXTSTYLE0
 73
     1
 44
1.0
  0
MTEXT
  5
2BF
330
2AE
100
AcDbEntity
  8
0
  6
Continuous
 62
     7
370
     0
100
AcDbMText
 10
234.2884346022
 20
95.4262902276
 30
0.0
 40
2.1166666667
 41
0.0
 71
     1
 72
     1
  1
10.0mm
  7
SLDTEXTSTYLE0
 73
     1
 44
1.0
  0
MTEXT
  5
2C0
330
2AE
100
AcDbEntity
  8
0
  6
Continuous
 62
     7
370
     0
100
AcDbMText
 10
235.791660251
 20
91.6339291041
 30
0.0
 40
2.1166666667
 41
0.0
 71
     1
 72
     1
  1
0.39in
  7
SLDTEXTSTYLE0
 73
     1
 44
1.0
  0
MTEXT
  5
2C1
330
2AE
100
AcDbEntity
  8
0
  6
Continuous
 62
     7
370
     0
100
AcDbMText
 10
246.6395765147
 20
95.4262902276
 30
0.0
 40
2.1166666667
 41
0.0
 71
     1
 72
     1
  1

  7
SLDTEXTSTYLE0
 73
     1
 44
1.0
  0
ENDBLK
  5
2B0
330
2AE
100
AcDbEntity
  8
0
100
AcDbBlockEnd
  0
BLOCK
  5
2C3
330
2C2
100
AcDbEntity
  8
0
100
AcDbBlockBegin
  2
SW_CENTERMARKSYMBOL_3
 70
     0
 10
0.0
 20
0.0
 30
0.0
  3
SW_CENTERMARKSYMBOL_3
  1
SW_CENTERMARKSYMBOL_3
  0
LINE
  5
2C5
330
2C2
100
AcDbEntity
  8
0
  6
Continuous
 62
     0
370
     0
100
AcDbLine
 10
0.0
 20
0.0
 30
0.0
 11
0.0
 21
1.27
 31
0.0
  0
LINE
  5
2C6
330
2C2
100
AcDbEntity
  8
0
  6
Continuous
 62
     0
370
     0
100
AcDbLine
 10
0.0
 20
0.0
 30
0.0
 11
-1.27
 21
0.0
 31
0.0
  0
LINE
  5
2C7
330
2C2
100
AcDbEntity
  8
0
  6
Continuous
 62
     0
370
     0
100
AcDbLine
 10
0.0
 20
0.0
 30
0.0
 11
0.0
 21
-1.27
 31
0.0
  0
LINE
  5
2C8
330
2C2
100
AcDbEntity
  8
0
  6
Continuous
 62
     0
370
     0
100
AcDbLine
 10
0.0
 20
0.0
 30
0.0
 11
1.27
 21
0.0
 31
0.0
  0
ENDBLK
  5
2C4
330
2C2
100
AcDbEntity
  8
0
100
AcDbBlockEnd
  0
BLOCK
  5
42D
330
42C
100
AcDbEntity
  8
0
100
AcDbBlockBegin
  2
SW_NOTE_3
 70
     0
 10
0.0
 20
0.0
 30
0.0
  3
SW_NOTE_3
  1
SW_NOTE_3
  0
MTEXT
  5
430
330
42C
100
AcDbEntity
  8
0
  6
Continuous
 62
     0
370
     0
100
AcDbMText
 10
20.3150390625
 20
3.0695925553
 30
0.0
 40
2.38125
 41
0.0
 71
     2
 72
     1
  1
1:1 ISOMETRIC VIEW FOR
  7
SLDTEXTSTYLE2
 73
     1
 44
1.0
  0
MTEXT
  5
431
330
42C
100
AcDbEntity
  8
0
  6
Continuous
 62
     0
370
     0
100
AcDbMText
 10
20.1234882563
 20
-0.1054074063
 30
0.0
 40
2.38125
 41
0.0
 71
     2
 72
     1
  1
REFERENCE ONLY
  7
SLDTEXTSTYLE2
 73
     1
 44
1.0
  0
ENDBLK
  5
42E
330
42C
100
AcDbEntity
  8
0
100
AcDbBlockEnd
  0
ENDSEC
  0
SECTION
  2
ENTITIES
  0
LINE
  5
7D
330
1F
100
AcDbEntity
  8
0
  6
Continuous
 62
     7
370
     0
100
AcDbLine
 10
1.5793501011
 20
214.6453799966
 30
0.0
 11
277.9892068491
 21
214.6453799966
 31
0.0
  0
LINE
  5
7E
330
1F
100
AcDbEntity
  8
0
  6
Continuous
 62
     7
370
     0
100
AcDbLine
 10
1.5793501011
 20
214.6453799966
 30
0.0
 11
1.5793501011
 21
0.9031642596
 31
0.0
  0
LINE
  5
7F
330
1F
100
AcDbEntity
  8
0
  6
Continuous
 62
     7
370
     0
100
AcDbLine
 10
277.9892068491
 20
0.9031642596
 30
0.0
 11
1.5793501011
 21
0.9031642596
 31
0.0
  0
LINE
  5
80
330
1F
100
AcDbEntity
  8
0
  6
Continuous
 62
     7
370
     0
100
AcDbLine
 10
277.9892068491
 20
0.9031642596
 30
0.0
 11
277.9892068491
 21
214.6453799966
 31
0.0
  0
LINE
  5
81
330
1F
100
AcDbEntity
  8
0
  6
Continuous
 62
     7
370
     0
100
AcDbLine
 10
215.7427640041
 20
12.2958890132
 30
0.0
 11
171.6327596684
 21
12.2958890132
 31
0.0
  0
LINE
  5
82
330
1F
100
AcDbEntity
  8
0
  6
Continuous
 62
     7
370
     0
100
AcDbLine
 10
171.6327596684
 20
12.2958890132
 30
0.0
 11
171.6327596684
 21
26.1661402506
 31
0.0
  0
LINE
  5
83
330
1F
100
AcDbEntity
  8
0
  6
Continuous
 62
     7
370
     0
100
AcDbLine
 10
171.6327596684
 20
0.9031642596
 30
0.0
 11
171.6327596684
 21
26.1661402506
 31
0.0
  0
LINE
  5
84
330
1F
100
AcDbEntity
  8
0
  6
Continuous
 62
     7
370
     0
100
AcDbLine
 10
215.7427640041
 20
17.1604579552
 30
0.0
 11
277.9892068491
 21
17.1604579552
 31
0.0
  0
LINE
  5
85
330
1F
100
AcDbEntity
  8
0
  6
Continuous
 62
     7
370
     0
100
AcDbLine
 10
215.7427640041
 20
35.2394508358
 30
0.0
 11
215.7427640041
 21
0.9031642596
 31
0.0
  0
LINE
  5
86
330
1F
100
AcDbEntity
  8
0
  6
Continuous
 62
     7
370
     0
100
AcDbLine
 10
215.7427640041
 20
26.1661402506
 30
0.0
 11
171.6327596684
 21
26.1661402506
 31
0.0
  0
LINE
  5
87
330
1F
100
AcDbEntity
  8
0
  6
Continuous
 62
     7
370
     0
100
AcDbLine
 10
215.7427640041
 20
9.1409200612
 30
0.0
 11
277.9892068491
 21
9.1409200612
 31
0.0
  0
LINE
  5
88
330
1F
100
AcDbEntity
  8
0
  6
Continuous
 62
     7
370
     0
100
AcDbLine
 10
215.7427640041
 20
16.9216824031
 30
0.0
 11
171.6327596684
 21
16.9216824031
 31
0.0
  0
LINE
  5
89
330
1F
100
AcDbEntity
  8
0
  6
Continuous
 62
     7
370
     0
100
AcDbLine
 10
215.7427640041
 20
21.4874005542
 30
0.0
 11
171.6327596684
 21
21.4874005542
 31
0.0
  0
LINE
  5
8A
330
1F
100
AcDbEntity
  8
0
  6
Continuous
 62
     7
370
     0
100
AcDbLine
 10
186.1338100705
 20
26.1661402506
 30
0.0
 11
186.1338100705
 21
12.2958890132
 31
0.0
  0
LINE
  5
8B
330
1F
100
AcDbEntity
  8
0
  6
Continuous
 62
     7
370
     0
100
AcDbLine
 10
198.2145906188
 20
26.1661402506
 30
0.0
 11
198.2145906188
 21
12.2958890132
 31
0.0
  0
LINE
  5
8C
330
1F
100
AcDbEntity
  8
0
  6
Continuous
 62
     7
370
     0
100
AcDbLine
 10
253.7490408369
 20
9.1409200612
 30
0.0
 11
253.7490408369
 21
0.9031642596
 31
0.0
  0
LINE
  5
8D
330
1F
100
AcDbEntity
  8
0
  6
Continuous
 62
     7
370
     0
100
AcDbLine
 10
171.6327596684
 20
12.2958890132
 30
0.0
 11
171.6327596684
 21
7.5627342528
 31
0.0
  0
LINE
  5
8E
330
1F
100
AcDbEntity
  8
0
  6
Continuous
 62
     7
370
     0
100
AcDbLine
 10
171.6327596684
 20
7.5627342528
 30
0.0
 11
215.7427640041
 21
7.5627342528
 31
0.0
  0
LINE
  5
8F
330
1F
100
AcDbEntity
  8
0
  6
Continuous
 62
     7
370
     0
100
AcDbLine
 10
171.6327596684
 20
7.5627342528
 30
0.0
 11
171.6327596684
 21
35.2394508358
 31
0.0
  0
LINE
  5
90
330
1F
100
AcDbEntity
  8
0
  6
Continuous
 62
     7
370
     0
100
AcDbLine
 10
171.6327596684
 20
35.2394508358
 30
0.0
 11
215.7427640041
 21
35.2394508358
 31
0.0
  0
LINE
  5
91
330
1F
100
AcDbEntity
  8
0
  6
Continuous
 62
     7
370
     0
100
AcDbLine
 10
270.1683598194
 20
17.1604579552
 30
0.0
 11
270.1683598194
 21
9.1409200612
 31
0.0
  0
LINE
  5
92
330
1F
100
AcDbEntity
  8
0
  6
Continuous
 62
     7
370
     0
100
AcDbLine
 10
215.7427640041
 20
35.2394508358
 30
0.0
 11
277.9892068491
 21
35.2394508358
 31
0.0
  0
LINE
  5
93
330
1F
100
AcDbEntity
  8
0
  6
Continuous
 62
     7
370
     0
100
AcDbLine
 10
277.9892068491
 20
35.2394508358
 30
0.0
 11
277.9892068491
 21
50.0331356147
 31
0.0
  0
LINE
  5
94
330
1F
100
AcDbEntity
  8
0
  6
Continuous
 62
     7
370
     0
100
AcDbLine
 10
215.7427640041
 20
24.8927335446
 30
0.0
 11
277.9892068491
 21
24.8927335446
 31
0.0
  0
INSERT
  5
95
330
1F
100
AcDbEntity
  8
0
  6
Continuous
 62
     7
100
AcDbBlockReference
  2
Third Angle Projection Block
 10
117.7262204235
 20
15.5162339489
 30
0.0
 41
0.8
 42
0.8
 43
0.8
  0
MTEXT
  5
97
330
1F
100
AcDbEntity
  8
0
  6
Continuous
 62
     7
370
     0
100
AcDbMText
 10
274.1458225539
 20
13.2559386876
 30
0.0
 40
3.175
 41
0.0
 71
     2
 72
     1
  1
A
  7
SLDTEXTSTYLE0
 73
     1
 44
1.0
  0
MTEXT
  5
98
330
1F
100
AcDbEntity
  8
0
  6
Continuous
 62
     7
370
     0
100
AcDbMText
 10
234.7178335867
 20
5.1306563898
 30
0.0
 40
3.175
 41
0.0
 71
     2
 72
     1
  1
PK2FVF1
  7
SLDTEXTSTYLE0
 73
     1
 44
1.0
  0
MTEXT
  5
99
330
1F
100
AcDbEntity
  8
0
  6
Continuous
 62
     7
370
     0
100
AcDbMText
 10
216.4199766059
 20
16.8243178599
 30
0.0
 40
2.1166666667
 41
0.0
 71
     1
 72
     1
  1
MATERIAL
  7
SLDTEXTSTYLE0
 73
     1
 44
1.0
  0
MTEXT
  5
9A
330
1F
100
AcDbEntity
  8
0
  6
Continuous
 62
     7
370
     0
100
AcDbMText
 10
174.230946566
 20
20.054553926
 30
0.0
 40
1.8520833333
 41
0.0
 71
     1
 72
     1
  1
DRAWN
  7
SLDTEXTSTYLE0
 73
     1
 44
1.0
  0
MTEXT
  5
9B
330
1F
100
AcDbEntity
  8
0
  6
Continuous
 62
     7
370
     0
100
AcDbMText
 10
172.3960124543
 20
15.5787169747
 30
0.0
 40
1.8520833333
 41
0.0
 71
     1
 72
     1
  1
APPROVAL
  7
SLDTEXTSTYLE0
 73
     1
 44
1.0
  0
MTEXT
  5
9C
330
1F
100
AcDbEntity
  8
0
  6
Continuous
 62
     7
370
     0
100
AcDbMText
 10
271.7160653675
 20
16.1671746307
 30
0.0
 40
2.1166666667
 41
0.0
 71
     1
 72
     1
  1
REV
  7
SLDTEXTSTYLE0
 73
     1
 44
1.0
  0
MTEXT
  5
9D
330
1F
100
AcDbEntity
  8
0
  6
Continuous
 62
     7
370
     0
100
AcDbMText
 10
188.5647772477
 20
20.204393719
 30
0.0
 40
2.1166666667
 41
0.0
 71
     1
 72
     1
  1
YWA
  7
SLDTEXTSTYLE0
 73
     1
 44
1.0
  0
MTEXT
  5
9E
330
1F
100
AcDbEntity
  8
0
  6
Continuous
 62
     7
370
     0
100
AcDbMText
 10
190.2958696448
 20
15.841877739
 30
0.0
 40
2.1166666667
 41
0.0
 71
     1
 72
     1
  1
SS
  7
SLDTEXTSTYLE0
 73
     1
 44
1.0
  0
MTEXT
  5
9F
330
1F
100
AcDbEntity
  8
0
  6
Continuous
 62
     7
370
     0
100
AcDbMText
 10
199.8662436873
 20
20.3177146903
 30
0.0
 40
2.1166666667
 41
0.0
 71
     1
 72
     1
  1
16/FEB/15
  7
SLDTEXTSTYLE0
 73
     1
 44
1.0
  0
MTEXT
  5
A0
330
1F
100
AcDbEntity
  8
0
  6
Continuous
 62
     7
370
     0
100
AcDbMText
 10
203.6145073853
 20
24.8221395769
 30
0.0
 40
2.1166666667
 41
0.0
 71
     1
 72
     1
  1
DATE
  7
SLDTEXTSTYLE0
 73
     1
 44
1.0
  0
MTEXT
  5
A1
330
1F
100
AcDbEntity
  8
0
  6
Continuous
 62
     7
370
     0
100
AcDbMText
 10
199.8662436873
 20
15.841877739
 30
0.0
 40
2.1166666667
 41
0.0
 71
     1
 72
     1
  1
16/FEB/15
  7
SLDTEXTSTYLE0
 73
     1
 44
1.0
  0
MTEXT
  5
A3
330
1F
100
AcDbEntity
  8
0
  6
Continuous
 62
     7
370
     0
100
AcDbMText
 10
229.402906477
 20
27.7957480569
 30
0.0
 40
2.1166666667
 41
0.0
 71
     1
 72
     1
  1
w w w . t h o r  l a b s . c o m
  7
SLDTEXTSTYLE1
 73
     1
 44
1.0
  0
MTEXT
  5
A4
330
1F
100
AcDbEntity
  8
0
  6
Continuous
 62
     7
370
     0
100
AcDbMText
 10
216.7004035316
 20
8.3494791871
 30
0.0
 40
2.1166666667
 41
0.0
 71
     1
 72
     1
  1
ITEM #
  7
SLDTEXTSTYLE0
 73
     1
 44
1.0
  0
MTEXT
  5
A5
330
1F
100
AcDbEntity
  8
0
  6
Continuous
 62
     7
370
     0
100
AcDbMText
 10
254.5318000914
 20
8.3494791871
 30
0.0
 40
2.1166666667
 41
0.0
 71
     1
 72
     1
  1
APPROX WEIGHT
  7
SLDTEXTSTYLE0
 73
     1
 44
1.0
  0
MTEXT
  5
A6
330
1F
100
AcDbEntity
  8
0
  6
Continuous
 62
     7
370
     0
100
AcDbMText
 10
243.4273448343
 20
13.8247651814
 30
0.0
 40
3.175
 41
0.0
 71
     2
 72
     1
  1
N/A
  7
SLDTEXTSTYLE0
 73
     1
 44
1.0
  0
MTEXT
  5
A7
330
1F
100
AcDbEntity
  8
0
  6
Continuous
 62
     7
370
     0
100
AcDbMText
 10
266.1873244978
 20
5.1306563898
 30
0.0
 40
3.175
 41
0.0
 71
     2
 72
     1
  1
72.0 g
  7
SLDTEXTSTYLE0
 73
     1
 44
1.0
  0
INSERT
  5
AD
330
1F
100
AcDbEntity
  8
0
  6
Continuous
 62
     7
370
     0
100
AcDbBlockReference
  2
SW_NOTE_0
 10
174.8430140051
 20
4.4558554801
 30
0.0
  0
INSERT
  5
B3
330
1F
100
AcDbEntity
  8
0
  6
Continuous
 62
     7
370
     0
100
AcDbBlockReference
  2
SW_NOTE_1
 10
174.5483650337
 20
30.4835322715
 30
0.0
  0
MTEXT
  5
B4
330
1F
100
AcDbEntity
  8
0
  6
Continuous
 62
     7
370
     0
100
AcDbMText
 10
187.9273588276
 20
24.8221395769
 30
0.0
 40
2.1166666667
 41
0.0
 71
     1
 72
     1
  1
NAME
  7
SLDTEXTSTYLE0
 73
     1
 44
1.0
  0
INSERT
  5
BA
330
1F
100
AcDbEntity
  8
0
  6
Continuous
 62
     7
370
     0
100
AcDbBlockReference
  2
SW_NOTE_2
 10
58.6204667508
 20
8.1776609732
 30
0.0
  0
MTEXT
  5
BB
330
1F
100
AcDbEntity
  8
0
  6
Continuous
 62
     7
370
     0
100
AcDbMText
 10
247.2497025996
 20
22.4815957924
 30
0.0
 40
2.6458333333
 41
0.0
 71
     2
 72
     1
  1
AMPLIFIED PIEZO ACTUATOR STACK
  7
SLDTEXTSTYLE0
 73
     1
 44
1.0
  0
MTEXT
  5
BC
330
1F
100
AcDbEntity
  8
0
  6
Continuous
 62
     7
370
     0
100
AcDbMText
 10
177.6925831922
 20
10.7142101515
 30
0.0
 40
1.5875
 41
0.0
 71
     1
 72
     1
  1
COPYRIGHT © 2015 BY THORLABS
  7
SLDTEXTSTYLE0
 73
     1
 44
1.0
  0
LINE
  5
BD
330
1F
100
AcDbEntity
  8
0
  6
Continuous
 62
     7
370
     0
100
AcDbLine
 10
22.7897078559
 20
78.4986974423
 30
0.0
 11
70.063790755
 21
77.8319002812
 31
0.0
  0
LINE
  5
BE
330
1F
100
AcDbEntity
  8
0
  6
Continuous
 62
     7
370
     0
100
AcDbLine
 10
70.063790755
 20
78.531956834
 30
0.0
 11
22.7995724246
 21
79.1986198847
 31
0.0
  0
LINE
  5
BF
330
1F
100
AcDbEntity
  8
0
  6
Continuous
 62
     7
370
     0
100
AcDbLine
 10
22.7995724246
 20
69.3288655703
 30
0.0
 11
70.063790755
 21
69.9955137198
 31
0.0
  0
LINE
  5
C0
330
1F
100
AcDbEntity
  8
0
  6
Continuous
 62
     7
370
     0
100
AcDbLine
 10
70.063790755
 20
70.6955851738
 30
0.0
 11
22.7897078559
 21
70.0287880127
 31
0.0
  0
CIRCLE
  5
C1
330
1F
100
AcDbEntity
  8
0
  6
Continuous
 62
     7
370
     0
100
AcDbCircle
 10
96.7637908302
 20
74.263742116
 30
0.0
 40
1.799999999999997
  0
CIRCLE
  5
C2
330
1F
100
AcDbEntity
  8
0
  6
Continuous
 62
     7
370
     0
100
AcDbCircle
 10
76.7637908302
 20
74.263742116
 30
0.0
 40
1.025000000000006
  0
CIRCLE
  5
C3
330
1F
100
AcDbEntity
  8
0
  6
Continuous
 62
     7
370
     0
100
AcDbCircle
 10
76.7637908302
 20
74.263742116
 30
0.0
 40
1.224999999999994
  0
LINE
  5
C4
330
1F
100
AcDbEntity
  8
0
  6
Continuous
 62
     7
370
     0
100
AcDbLine
 10
123.2637897894
 20
69.7637410586
 30
0.0
 11
123.2637897894
 21
78.7637443964
 31
0.0
  0
LINE
  5
C5
330
1F
100
AcDbEntity
  8
0
  6
Continuous
 62
     7
370
     0
100
AcDbLine
 10
123.2637897894
 20
78.7637443964
 30
0.0
 11
123.4637931749
 21
78.7637443964
 31
0.0
  0
LINE
  5
C6
330
1F
100
AcDbEntity
  8
0
  6
Continuous
 62
     7
370
     0
100
AcDbLine
 10
123.4637931749
 20
78.7637443964
 30
0.0
 11
123.4637931749
 21
69.7637410586
 31
0.0
  0
LINE
  5
C7
330
1F
100
AcDbEntity
  8
0
  6
Continuous
 62
     7
370
     0
100
AcDbLine
 10
123.4637931749
 20
69.7637410586
 30
0.0
 11
123.2637897894
 21
69.7637410586
 31
0.0
  0
LINE
  5
C8
330
1F
100
AcDbEntity
  8
0
  6
Continuous
 62
     7
370
     0
100
AcDbLine
 10
123.2637897894
 20
78.7637443964
 30
0.0
 11
123.2637897894
 21
79.763746423
 31
0.0
  0
LINE
  5
C9
330
1F
100
AcDbEntity
  8
0
  6
Continuous
 62
     7
370
     0
100
AcDbLine
 10
123.2637897894
 20
79.763746423
 30
0.0
 11
123.4637931749
 21
79.5637430374
 31
0.0
  0
LINE
  5
CA
330
1F
100
AcDbEntity
  8
0
  6
Continuous
 62
     7
370
     0
100
AcDbLine
 10
123.4637931749
 20
79.5637430374
 30
0.0
 11
123.4637931749
 21
78.7637443964
 31
0.0
  0
LINE
  5
CB
330
1F
100
AcDbEntity
  8
0
  6
Continuous
 62
     7
370
     0
100
AcDbLine
 10
123.4637931749
 20
69.7637410586
 30
0.0
 11
123.4637931749
 21
68.9637424175
 31
0.0
  0
LINE
  5
CC
330
1F
100
AcDbEntity
  8
0
  6
Continuous
 62
     7
370
     0
100
AcDbLine
 10
123.4637931749
 20
68.9637424175
 30
0.0
 11
123.2637897894
 21
68.763739032
 31
0.0
  0
LINE
  5
CD
330
1F
100
AcDbEntity
  8
0
  6
Continuous
 62
     7
370
     0
100
AcDbLine
 10
123.2637897894
 20
68.763739032
 30
0.0
 11
123.2637897894
 21
69.7637410586
 31
0.0
  0
LINE
  5
CE
330
1F
100
AcDbEntity
  8
0
  6
Continuous
 62
     7
370
     0
100
AcDbLine
 10
70.2637941405
 20
78.7637443964
 30
0.0
 11
123.2637897894
 21
78.7637443964
 31
0.0
  0
LINE
  5
CF
330
1F
100
AcDbEntity
  8
0
  6
Continuous
 62
     7
370
     0
100
AcDbLine
 10
70.2637941405
 20
79.763746423
 30
0.0
 11
70.2637941405
 21
78.7637443964
 31
0.0
  0
LINE
  5
D0
330
1F
100
AcDbEntity
  8
0
  6
Continuous
 62
     7
370
     0
100
AcDbLine
 10
70.2637941405
 20
79.763746423
 30
0.0
 11
123.2637897894
 21
79.763746423
 31
0.0
  0
LINE
  5
D1
330
1F
100
AcDbEntity
  8
0
  6
Continuous
 62
     7
370
     0
100
AcDbLine
 10
123.2637897894
 20
69.7637410586
 30
0.0
 11
70.2637941405
 21
69.7637410586
 31
0.0
  0
LINE
  5
D2
330
1F
100
AcDbEntity
  8
0
  6
Continuous
 62
     7
370
     0
100
AcDbLine
 10
70.2637941405
 20
78.7637443964
 30
0.0
 11
70.2637941405
 21
69.7637410586
 31
0.0
  0
CIRCLE
  5
D3
330
1F
100
AcDbEntity
  8
0
  6
Continuous
 62
     7
370
     0
100
AcDbCircle
 10
116.7637908302
 20
74.263742116
 30
0.0
 40
1.224999999999994
  0
CIRCLE
  5
D4
330
1F
100
AcDbEntity
  8
0
  6
Continuous
 62
     7
370
     0
100
AcDbCircle
 10
96.7637908302
 20
74.263742116
 30
0.0
 40
2.000000000000028
  0
LINE
  5
D5
330
1F
100
AcDbEntity
  8
0
  6
Continuous
 62
     7
370
     0
100
AcDbLine
 10
70.063790755
 20
68.9637424175
 30
0.0
 11
70.063790755
 21
69.7637410586
 31
0.0
  0
LINE
  5
D6
330
1F
100
AcDbEntity
  8
0
  6
Continuous
 62
     7
370
     0
100
AcDbLine
 10
70.063790755
 20
69.7637410586
 30
0.0
 11
70.2637941405
 21
69.7637410586
 31
0.0
  0
LINE
  5
D7
330
1F
100
AcDbEntity
  8
0
  6
Continuous
 62
     7
370
     0
100
AcDbLine
 10
70.2637941405
 20
69.7637410586
 30
0.0
 11
70.2637941405
 21
68.763739032
 31
0.0
  0
LINE
  5
D8
330
1F
100
AcDbEntity
  8
0
  6
Continuous
 62
     7
370
     0
100
AcDbLine
 10
70.063790755
 20
68.9637424175
 30
0.0
 11
70.2637941405
 21
68.763739032
 31
0.0
  0
LINE
  5
D9
330
1F
100
AcDbEntity
  8
0
  6
Continuous
 62
     7
370
     0
100
AcDbLine
 10
70.063790755
 20
69.7637410586
 30
0.0
 11
70.063790755
 21
78.7637443964
 31
0.0
  0
LINE
  5
DA
330
1F
100
AcDbEntity
  8
0
  6
Continuous
 62
     7
370
     0
100
AcDbLine
 10
70.2637941405
 20
78.7637443964
 30
0.0
 11
70.063790755
 21
78.7637443964
 31
0.0
  0
CIRCLE
  5
DB
330
1F
100
AcDbEntity
  8
0
  6
Continuous
 62
     7
370
     0
100
AcDbCircle
 10
116.7637908302
 20
74.263742116
 30
0.0
 40
1.025000000000006
  0
LINE
  5
DC
330
1F
100
AcDbEntity
  8
0
  6
Continuous
 62
     7
370
     0
100
AcDbLine
 10
70.063790755
 20
78.7637443964
 30
0.0
 11
70.063790755
 21
79.5637430374
 31
0.0
  0
LINE
  5
DD
330
1F
100
AcDbEntity
  8
0
  6
Continuous
 62
     7
370
     0
100
AcDbLine
 10
70.2637941405
 20
79.763746423
 30
0.0
 11
70.063790755
 21
79.5637430374
 31
0.0
  0
LINE
  5
DE
330
1F
100
AcDbEntity
  8
0
  6
Continuous
 62
     7
370
     0
100
AcDbLine
 10
70.2637941405
 20
68.763739032
 30
0.0
 11
123.2637897894
 21
68.763739032
 31
0.0
  0
LWPOLYLINE
  5
DF
330
1F
100
AcDbEntity
  8
0
  6
Continuous
 62
     7
370
     0
100
AcDbPolyline
 90
       11
 70
   128
 43
0.0
 10
22.7897078559
 20
78.4986974423
 10
22.7899760768
 20
78.5176517193
 10
22.7907509372
 20
78.5724879925
 10
22.7919430301
 20
78.6572457974
 10
22.7934331462
 20
78.7627460186
 10
22.7950573728
 20
78.8775594656
 10
22.7966219947
 20
78.9892436688
 10
22.7979929015
 20
79.085683984
 10
22.7989912793
 20
79.1564495985
 10
22.79951282
 20
79.1938515131
 10
22.7995724246
 20
79.1986198847
  0
LWPOLYLINE
  5
E0
330
1F
100
AcDbEntity
  8
0
  6
Continuous
 62
     7
370
     0
100
AcDbPolyline
 90
       11
 70
   128
 43
0.0
 10
22.7897078559
 20
70.0287880127
 10
22.7899760768
 20
70.0098337357
 10
22.7907509372
 20
69.9549974625
 10
22.7919430301
 20
69.8702396576
 10
22.7934331462
 20
69.7647394364
 10
22.7950573728
 20
69.6499259894
 10
22.7966219947
 20
69.5382417862
 10
22.7979929015
 20
69.441801471
 10
22.7989912793
 20
69.3710358565
 10
22.79951282
 20
69.3336339419
 10
22.7995724246
 20
69.3288655703
  0
DIMENSION
  5
E1
330
1F
100
AcDbEntity
  8
0
  6
Continuous
 62
     7
370
     0
100
AcDbDimension
  2
_D
 10
130.7618850508
 20
68.763742116
 30
0.0
 11
130.7618850508
 21
60.0130132446
 31
0.0
 70
   160
  1
<>
 71
     2
 42
-1.0
  3
SLDDIMSTYLE0
100
AcDbAlignedDimension
 13
123.2637908302
 23
79.763742116
 33
0.0
 14
123.2637908302
 24
68.763742116
 34
0.0
 50
90.0
100
AcDbRotatedDimension
  0
DIMENSION
  5
F7
330
1F
100
AcDbEntity
  8
0
  6
Continuous
 62
     7
370
     0
100
AcDbDimension
  2
_D_1
 10
151.4638939078
 20
74.263742116
 30
0.0
 11
151.4638939078
 21
60.0130132446
 31
0.0
 70
   160
  1
<>
 71
     2
 42
-1.0
  3
SLDDIMSTYLE1
100
AcDbAlignedDimension
 13
123.2637908302
 23
68.763742116
 33
0.0
 14
116.7637908302
 24
74.263742116
 34
0.0
 50
90.0
100
AcDbRotatedDimension
  0
DIMENSION
  5
10D
330
1F
100
AcDbEntity
  8
0
  6
Continuous
 62
     7
370
     0
100
AcDbDimension
  2
_D_2
 10
76.7637908302
 20
62.7946556571
 30
0.0
 11
56.2219773753
 21
62.7946556571
 31
0.0
 70
   160
  1
6.7mm TYP\P[0.26in]
 71
     2
 42
-1.0
  3
SLDDIMSTYLE1
100
AcDbAlignedDimension
 13
70.0637908302
 23
68.963742116
 33
0.0
 14
76.7637908302
 24
74.263742116
 34
0.0
100
AcDbRotatedDimension
  0
DIMENSION
  5
119
330
1F
100
AcDbEntity
  8
0
  6
Continuous
 62
     7
370
     0
100
AcDbDimension
  2
_D_3
 10
96.7637908302
 20
62.7946556571
 30
0.0
 11
86.4839550414
 21
62.7946556571
 31
0.0
 70
   160
  1
<>
 71
     2
 42
-1.0
  3
SLDDIMSTYLE2
100
AcDbAlignedDimension
 13
76.7637908302
 23
74.263742116
 33
0.0
 14
96.7637908302
 24
72.993742116
 34
0.0
100
AcDbRotatedDimension
  0
MTEXT
  5
12E
330
1F
100
AcDbEntity
  8
0
  6
Continuous
 62
     7
370
     0
100
AcDbMText
 10
55.5181183632
 20
103.5351145332
 30
0.0
 40
2.1166666667
 41
0.0
 71
     1
 72
     1
  1
NEGATIVE WIRE(~75mm LONG)
  7
SLDTEXTSTYLE0
 73
     1
 44
1.0
  0
LEADER
  5
130
330
1F
100
AcDbEntity
  8
0
  6
Continuous
 62
     7
370
     0
100
AcDbLeader
  3
SLDDIMSTYLE3
 76
     3
 10
41.1105258452
 20
78.9403497604
 30
0.0
 10
48.5884017758
 20
102.4521185296
 30
0.0
 10
54.9384017758
 20
102.4521185296
 30
0.0
  0
MTEXT
  5
131
330
1F
100
AcDbEntity
  8
0
  6
Continuous
 62
     7
370
     0
100
AcDbMText
 10
55.5181183632
 20
48.0691608604
 30
0.0
 40
2.1166666667
 41
0.0
 71
     1
 72
     1
  1
POSITIVE WIRE(~75mm LONG)
  7
SLDTEXTSTYLE0
 73
     1
 44
1.0
  0
LEADER
  5
132
330
1F
100
AcDbEntity
  8
0
  6
Continuous
 62
     7
370
     0
100
AcDbLeader
  3
SLDDIMSTYLE3
 76
     3
 10
40.8207767326
 20
69.5830475622
 30
0.0
 10
48.5884017758
 20
47.0692106494
 30
0.0
 10
54.9384017758
 20
47.0692106494
 30
0.0
  0
MTEXT
  5
133
330
1F
100
AcDbEntity
  8
0
  6
Continuous
 62
     7
370
     0
100
AcDbMText
 10
126.9866848063
 20
92.1020441607
 30
0.0
 40
2.1166666667
 41
0.0
 71
     1
 72
     1
  1
M2.50 x 0.45, 3.0mm DEEP (2x)
  7
SLDTEXTSTYLE0
 73
     1
 44
1.0
  0
LEADER
  5
134
330
1F
100
AcDbEntity
  8
0
  6
Continuous
 62
     7
370
     0
100
AcDbLeader
  3
SLDDIMSTYLE3
 76
     3
 10
116.7520825686
 20
75.4886861623
 30
0.0
 10
120.0645394007
 20
91.1313638126
 30
0.0
 10
126.4145394007
 20
91.1313638126
 30
0.0
  0
MTEXT
  5
135
330
1F
100
AcDbEntity
  8
0
  6
Continuous
 62
     7
370
     0
100
AcDbMText
 10
107.4887175722
 20
98.4840674497
 30
0.0
 40
2.1166666667
 41
0.0
 71
     1
 72
     1
  1
M2.0 CAP SCREW, 2MM HEX
  7
SLDTEXTSTYLE0
 73
     1
 44
1.0
  0
LEADER
  5
136
330
1F
100
AcDbEntity
  8
0
  6
Continuous
 62
     7
370
     0
100
AcDbLeader
  3
SLDDIMSTYLE3
 76
     3
 10
96.8275653646
 20
76.2627250596
 30
0.0
 10
100.5306881243
 20
97.5686557105
 30
0.0
 10
106.8806881243
 20
97.5686557105
 30
0.0
  0
INSERT
  5
13E
330
1F
100
AcDbEntity
  8
0
  6
Continuous
 62
     7
370
     0
100
AcDbBlockReference
  2
SW_CENTERMARKSYMBOL_0
 10
76.7637908302
 20
74.263742116
 30
0.0
  0
INSERT
  5
146
330
1F
100
AcDbEntity
  8
0
  6
Continuous
 62
     7
370
     0
100
AcDbBlockReference
  2
SW_CENTERMARKSYMBOL_1
 10
96.7637908302
 20
74.263742116
 30
0.0
  0
INSERT
  5
14E
330
1F
100
AcDbEntity
  8
0
  6
Continuous
 62
     7
370
     0
100
AcDbBlockReference
  2
SW_CENTERMARKSYMBOL_2
 10
116.7637908302
 20
74.263742116
 30
0.0
  0
LINE
  5
14F
330
1F
100
AcDbEntity
  8
0
  6
Continuous
 62
     7
370
     0
100
AcDbLine
 10
22.7946401402
 20
167.5403228006
 30
0.0
 11
70.063790755
 21
167.5403228006
 31
0.0
  0
LINE
  5
150
330
1F
100
AcDbEntity
  8
0
  6
Continuous
 62
     7
370
     0
100
AcDbLine
 10
70.063790755
 20
168.2403197488
 30
0.0
 11
22.7946401402
 21
168.2403197488
 31
0.0
  0
ARC
  5
151
330
1F
100
AcDbEntity
  8
0
  6
Continuous
 62
     7
370
     0
100
AcDbCircle
 10
96.7637908302
 20
174.5705006022
 30
0.0
 40
1.588000000000022
100
AcDbArc
 50
90.0
 51
164.7192154538
  0
ARC
  5
152
330
1F
100
AcDbEntity
  8
0
  6
Continuous
 62
     7
370
     0
100
AcDbCircle
 10
96.7637908302
 20
174.5705006022
 30
0.0
 40
1.588000000000022
100
AcDbArc
 50
15.2807845462
 51
90.0
  0
SPLINE
  5
153
330
1F
100
AcDbEntity
  8
0
  6
Continuous
 62
     7
370
     0
100
AcDbSpline
210
0.0
220
0.0
230
1.0
 70
     8
 71
     3
 72
    11
 73
     7
 74
     0
 42
0.000000001
 43
0.00000001
 40
0.0
 40
0.0
 40
0.0
 40
0.0
 40
0.279853489638809
 40
0.5590614042677488
 40
0.7794268921602435
 40
1.0
 40
1.0
 40
1.0
 40
1.0
 10
76.39712698907977
 20
159.0650191506957
 30
0.0
 10
76.39393708965467
 20
159.1025926768867
 30
0.0
 10
76.38756464936687
 20
159.1776530534528
 30
0.0
 10
76.3250982567026
 20
159.2653412958006
 30
0.0
 10
76.2465629080669
 20
159.3226594273336
 30
0.0
 10
76.18935822679119
 20
159.337062156205
 30
0.0
 10
76.16074241848116
 20
159.3442669114685
 30
0.0
  0
SPLINE
  5
154
330
1F
100
AcDbEntity
  8
0
  6
Continuous
 62
     7
370
     0
100
AcDbSpline
210
0.0
220
0.0
230
1.0
 70
     8
 71
     3
 72
    13
 73
     9
 74
     0
 42
0.000000001
 43
0.00000001
 40
0.0
 40
0.0
 40
0.0
 40
0.0
 40
0.2505155081589283
 40
0.5003183427571534
 40
0.6253134870335353
 40
0.7501404859432197
 40
0.8750517884102871
 40
0.9999999999999999
 40
0.9999999999999999
 40
0.9999999999999999
 40
0.9999999999999999
 10
75.8843035265935
 20
158.768545647583
 30
0.0
 10
75.94043921205959
 20
158.7694221310549
 30
0.0
 10
76.0525508866155
 20
158.7711726045541
 30
0.0
 10
76.19589501852512
 20
158.7838745963216
 30
0.0
 10
76.29564539389827
 20
158.8399989077141
 30
0.0
 10
76.35421642617571
 20
158.9022355827492
 30
0.0
 10
76.39113012605499
 20
158.9803178400365
 30
0.0
 10
76.39512783789151
 20
159.0367826001606
 30
0.0
 10
76.39712698907977
 20
159.0650191506957
 30
0.0
  0
LINE
  5
155
330
1F
100
AcDbEntity
  8
0
  6
Continuous
 62
     7
370
     0
100
AcDbLine
 10
75.6535366938
 20
158.7685456476
 30
0.0
 11
75.8843035266
 21
158.7685456476
 31
0.0
  0
SPLINE
  5
156
330
1F
100
AcDbEntity
  8
0
  6
Continuous
 62
     7
370
     0
100
AcDbSpline
210
0.0
220
0.0
230
1.0
 70
     8
 71
     3
 72
     9
 73
     5
 74
     0
 42
0.000000001
 43
0.00000001
 40
0.0
 40
0.0
 40
0.0
 40
0.0
 40
0.5598278052661202
 40
1.0
 40
1.0
 40
1.0
 40
1.0
 10
76.16074241848116
 20
159.3442669114685
 30
0.0
 10
76.1041798546627
 20
159.3494285304265
 30
0.0
 10
76.00314420890449
 20
159.3586485422043
 30
0.0
 10
75.9017067168545
 20
159.3583988234181
 30
0.0
 10
75.85705675335055
 20
159.3582889041519
 30
0.0
  0
LINE
  5
157
330
1F
100
AcDbEntity
  8
0
  6
Continuous
 62
     7
370
     0
100
AcDbLine
 10
75.8570567534
 20
159.3582889042
 30
0.0
 11
75.6535366938
 21
159.3582889042
 31
0.0
  0
LINE
  5
158
330
1F
100
AcDbEntity
  8
0
  6
Continuous
 62
     7
370
     0
100
AcDbLine
 10
75.6535366938
 20
159.3582889042
 30
0.0
 11
75.6535366938
 21
158.7685456476
 31
0.0
  0
LINE
  5
159
330
1F
100
AcDbEntity
  8
0
  6
Continuous
 62
     7
370
     0
100
AcDbLine
 10
123.2637897894
 20
153.6916157207
 30
0.0
 11
123.2637897894
 21
173.9916166267
 31
0.0
  0
LINE
  5
15A
330
1F
100
AcDbEntity
  8
0
  6
Continuous
 62
     7
370
     0
100
AcDbLine
 10
123.2637897894
 20
173.9916166267
 30
0.0
 11
123.4637931749
 21
173.9916166267
 31
0.0
  0
LINE
  5
15B
330
1F
100
AcDbEntity
  8
0
  6
Continuous
 62
     7
370
     0
100
AcDbLine
 10
123.4637931749
 20
173.9916166267
 30
0.0
 11
123.4637931749
 21
153.6916157207
 31
0.0
  0
LINE
  5
15C
330
1F
100
AcDbEntity
  8
0
  6
Continuous
 62
     7
370
     0
100
AcDbLine
 10
123.2637897894
 20
153.6916157207
 30
0.0
 11
123.4637931749
 21
153.6916157207
 31
0.0
  0
LINE
  5
15D
330
1F
100
AcDbEntity
  8
0
  6
Continuous
 62
     7
370
     0
100
AcDbLine
 10
122.9637921617
 20
174.291621705
 30
0.0
 11
70.5637843177
 21
174.291621705
 31
0.0
  0
LINE
  5
15E
330
1F
100
AcDbEntity
  8
0
  6
Continuous
 62
     7
370
     0
100
AcDbLine
 10
70.5637843177
 20
174.291621705
 30
0.0
 11
70.5637843177
 21
174.4916101894
 31
0.0
  0
LINE
  5
15F
330
1F
100
AcDbEntity
  8
0
  6
Continuous
 62
     7
370
     0
100
AcDbLine
 10
70.5637843177
 20
174.4916101894
 30
0.0
 11
122.9637921617
 21
174.4916101894
 31
0.0
  0
LINE
  5
160
330
1F
100
AcDbEntity
  8
0
  6
Continuous
 62
     7
370
     0
100
AcDbLine
 10
122.9637921617
 20
174.291621705
 30
0.0
 11
122.9637921617
 21
174.4916101894
 31
0.0
  0
LINE
  5
161
330
1F
100
AcDbEntity
  8
0
  6
Continuous
 62
     7
370
     0
100
AcDbLine
 10
70.2637941405
 20
173.9916166267
 30
0.0
 11
70.2637941405
 21
153.6916157207
 31
0.0
  0
LINE
  5
162
330
1F
100
AcDbEntity
  8
0
  6
Continuous
 62
     7
370
     0
100
AcDbLine
 10
70.2637941405
 20
153.6916157207
 30
0.0
 11
70.063790755
 21
153.6916157207
 31
0.0
  0
LINE
  5
163
330
1F
100
AcDbEntity
  8
0
  6
Continuous
 62
     7
370
     0
100
AcDbLine
 10
70.063790755
 20
153.6916157207
 30
0.0
 11
70.063790755
 21
173.9916166267
 31
0.0
  0
LINE
  5
164
330
1F
100
AcDbEntity
  8
0
  6
Continuous
 62
     7
370
     0
100
AcDbLine
 10
70.2637941405
 20
173.9916166267
 30
0.0
 11
70.063790755
 21
173.9916166267
 31
0.0
  0
SPLINE
  5
165
330
1F
100
AcDbEntity
  8
0
  6
Continuous
 62
     7
370
     0
100
AcDbSpline
210
0.0
220
0.0
230
1.0
 70
     8
 71
     3
 72
    11
 73
     7
 74
     0
 42
0.000000001
 43
0.00000001
 40
0.0
 40
0.0
 40
0.0
 40
0.0
 40
0.2799513282003046
 40
0.5602215141985183
 40
0.7801647009984048
 40
1.0
 40
1.0
 40
1.0
 40
1.0
 10
85.88430144043093
 20
159.1787895164108
 30
0.0
 10
85.95125265706616
 20
159.208720641445
 30
0.0
 10
86.08523134615449
 20
159.2686169823414
 30
0.0
 10
86.24758145658676
 20
159.3938336610691
 30
0.0
 10
86.37734848953161
 20
159.5331004340536
 30
0.0
 10
86.42418838445336
 20
159.6387841061627
 30
0.0
 10
86.44760258646136
 20
159.691612978897
 30
0.0
  0
LINE
  5
166
330
1F
100
AcDbEntity
  8
0
  6
Continuous
 62
     7
370
     0
100
AcDbLine
 10
85.8843014404
 20
158.7941756448
 30
0.0
 11
85.8843014404
 21
159.1787895164
 31
0.0
  0
SPLINE
  5
167
330
1F
100
AcDbEntity
  8
0
  6
Continuous
 62
     7
370
     0
100
AcDbSpline
210
0.0
220
0.0
230
1.0
 70
     8
 71
     3
 72
     9
 73
     5
 74
     0
 42
0.000000001
 43
0.00000001
 40
0.0
 40
0.0
 40
0.0
 40
0.0
 40
0.5597316899113817
 40
1.0
 40
1.0
 40
1.0
 40
1.0
 10
86.37148000450257
 20
159.1154893836593
 30
0.0
 10
86.29029936570838
 20
159.0403589458072
 30
0.0
 10
86.14526444941296
 20
158.9061331386816
 30
0.0
 10
85.96407389821213
 20
158.8283993629254
 30
0.0
 10
85.88430144043093
 20
158.7941756448364
 30
0.0
  0
LINE
  5
168
330
1F
100
AcDbEntity
  8
0
  6
Continuous
 62
     7
370
     0
100
AcDbLine
 10
86.3714800045
 20
157.6916238269
 30
0.0
 11
86.3714800045
 21
159.1154893837
 31
0.0
  0
LINE
  5
169
330
1F
100
AcDbEntity
  8
0
  6
Continuous
 62
     7
370
     0
100
AcDbLine
 10
86.7561013267
 20
157.6916238269
 30
0.0
 11
86.3714800045
 21
157.6916238269
 31
0.0
  0
LINE
  5
16A
330
1F
100
AcDbEntity
  8
0
  6
Continuous
 62
     7
370
     0
100
AcDbLine
 10
86.7561013267
 20
159.6916129789
 30
0.0
 11
86.7561013267
 21
157.6916238269
 31
0.0
  0
LINE
  5
16B
330
1F
100
AcDbEntity
  8
0
  6
Continuous
 62
     7
370
     0
100
AcDbLine
 10
86.4476025865
 20
159.6916129789
 30
0.0
 11
86.7561013267
 21
159.6916129789
 31
0.0
  0
LINE
  5
16C
330
1F
100
AcDbEntity
  8
0
  6
Continuous
 62
     7
370
     0
100
AcDbLine
 10
83.6042524144
 20
159.6916129789
 30
0.0
 11
84.0125069782
 21
159.6916129789
 31
0.0
  0
LINE
  5
16D
330
1F
100
AcDbEntity
  8
0
  6
Continuous
 62
     7
370
     0
100
AcDbLine
 10
83.0766097471
 20
158.2044323883
 30
0.0
 11
83.6042524144
 21
159.6916129789
 31
0.0
  0
LINE
  5
16E
330
1F
100
AcDbEntity
  8
0
  6
Continuous
 62
     7
370
     0
100
AcDbLine
 10
82.5469628737
 20
159.6916129789
 30
0.0
 11
83.0766097471
 21
158.2044323883
 31
0.0
  0
LINE
  5
16F
330
1F
100
AcDbEntity
  8
0
  6
Continuous
 62
     7
370
     0
100
AcDbLine
 10
82.140712516
 20
159.6916129789
 30
0.0
 11
82.5469628737
 21
159.6916129789
 31
0.0
  0
LINE
  5
170
330
1F
100
AcDbEntity
  8
0
  6
Continuous
 62
     7
370
     0
100
AcDbLine
 10
82.880294399
 20
157.6916238269
 30
0.0
 11
82.140712516
 21
159.6916129789
 31
0.0
  0
LINE
  5
171
330
1F
100
AcDbEntity
  8
0
  6
Continuous
 62
     7
370
     0
100
AcDbLine
 10
83.2757265136
 20
157.6916238269
 30
0.0
 11
82.880294399
 21
157.6916238269
 31
0.0
  0
LINE
  5
172
330
1F
100
AcDbEntity
  8
0
  6
Continuous
 62
     7
370
     0
100
AcDbLine
 10
84.0125069782
 20
159.6916129789
 30
0.0
 11
83.2757265136
 21
157.6916238269
 31
0.0
  0
SPLINE
  5
173
330
1F
100
AcDbEntity
  8
0
  6
Continuous
 62
     7
370
     0
100
AcDbSpline
210
0.0
220
0.0
230
1.0
 70
     8
 71
     3
 72
    10
 73
     6
 74
     0
 42
0.000000001
 43
0.00000001
 40
0.0
 40
0.0
 40
0.0
 40
0.0
 40
0.2800183979163936
 40
0.5600457576744453
 40
1.0
 40
1.0
 40
1.0
 40
1.0
 10
80.32020040006762
 20
159.1475417813873
 30
0.0
 10
80.31711449363887
 20
159.0963421806875
 30
0.0
 10
80.31094258201853
 20
158.9939413406715
 30
0.0
 10
80.24918362146971
 20
158.8193823910878
 30
0.0
 10
80.17290353880666
 20
158.7117246029226
 30
0.0
 10
80.12629158945208
 20
158.64593889328
 30
0.0
  0
SPLINE
  5
174
330
1F
100
AcDbEntity
  8
0
  6
Continuous
 62
     7
370
     0
100
AcDbSpline
210
0.0
220
0.0
230
1.0
 70
     8
 71
     3
 72
    11
 73
     7
 74
     0
 42
0.000000001
 43
0.00000001
 40
0.0
 40
0.0
 40
0.0
 40
0.0
 40
0.2805680186593779
 40
0.5597089766151532
 40
0.7797523894044627
 40
1.0
 40
1.0
 40
1.0
 40
1.0
 10
79.70642157049303
 20
159.691612978897
 30
0.0
 10
79.79306196775597
 20
159.6859982784383
 30
0.0
 10
79.96590208088534
 20
159.6747974357237
 30
0.0
 10
80.17455354354799
 20
159.5399280813878
 30
0.0
 10
80.30143815688719
 20
159.3512340751464
 30
0.0
 10
80.31394438563134
 20
159.2154602023384
 30
0.0
 10
80.32020040006762
 20
159.1475417813873
 30
0.0
  0
SPLINE
  5
175
330
1F
100
AcDbEntity
  8
0
  6
Continuous
 62
     7
370
     0
100
AcDbSpline
210
0.0
220
0.0
230
1.0
 70
     8
 71
     3
 72
    12
 73
     8
 74
     0
 42
0.000000001
 43
0.00000001
 40
0.0
 40
0.0
 40
0.0
 40
0.0
 40
0.1871388615708675
 40
0.3738912203330986
 40
0.5601616643299631
 40
0.7798710232644196
 40
1.0
 40
1.0
 40
1.0
 40
1.0
 10
79.06379409284716
 20
159.088250060997
 30
0.0
 10
79.07245675781333
 20
159.1490742520381
 30
0.0
 10
79.08976419651607
 20
159.2705970123203
 30
0.0
 10
79.16060584823475
 20
159.4439705824337
 30
0.0
 10
79.29824406966594
 20
159.5869919732552
 30
0.0
 10
79.48909128333602
 20
159.677530857201
 30
0.0
 10
79.63393208074675
 20
159.6869159537854
 30
0.0
 10
79.70642157049303
 20
159.691612978897
 30
0.0
  0
LINE
  5
176
330
1F
100
AcDbEntity
  8
0
  6
Continuous
 62
     7
370
     0
100
AcDbLine
 10
79.4484079644
 20
159.0505948267
 30
0.0
 11
79.0637940928
 21
159.088250061
 31
0.0
  0
SPLINE
  5
177
330
1F
100
AcDbEntity
  8
0
  6
Continuous
 62
     7
370
     0
100
AcDbSpline
210
0.0
220
0.0
230
1.0
 70
     8
 71
     3
 72
    11
 73
     7
 74
     0
 42
0.000000001
 43
0.00000001
 40
0.0
 40
0.0
 40
0.0
 40
0.0
 40
0.1872285676722901
 40
0.3740962035888713
 40
0.5606857722090879
 40
1.0
 40
1.0
 40
1.0
 40
1.0
 10
79.69840474577074
 20
159.3582889041519
 30
0.0
 10
79.67044584097323
 20
159.3564358124739
 30
0.0
 10
79.61458192943832
 20
159.3527332014341
 30
0.0
 10
79.53935798465271
 20
159.310723488719
 30
0.0
 10
79.46443727201046
 20
159.2120636214292
 30
0.0
 10
79.45501872646786
 20
159.1171873338038
 30
0.0
 10
79.44840796442155
 20
159.0505948266601
 30
0.0
  0
SPLINE
  5
178
330
1F
100
AcDbEntity
  8
0
  6
Continuous
 62
     7
370
     0
100
AcDbSpline
210
0.0
220
0.0
230
1.0
 70
     8
 71
     3
 72
    11
 73
     7
 74
     0
 42
0.000000001
 43
0.00000001
 40
0.0
 40
0.0
 40
0.0
 40
0.0
 40
0.2806185909688108
 40
0.5594843479965882
 40
0.7793821152097222
 40
1.0
 40
1.0
 40
1.0
 40
1.0
 10
79.93558652849322
 20
159.095864554367
 30
0.0
 10
79.93354391708061
 20
159.1335429924365
 30
0.0
 10
79.929471453063
 20
159.2086645169375
 30
0.0
 10
79.87270032073843
 20
159.3017867395186
 30
0.0
 10
79.7871596340217
 20
159.3525371761044
 30
0.0
 10
79.72802193295155
 20
159.3563695731769
 30
0.0
 10
79.69840474577074
 20
159.3582889041519
 30
0.0
  0
SPLINE
  5
179
330
1F
100
AcDbEntity
  8
0
  6
Continuous
 62
     7
370
     0
100
AcDbSpline
210
0.0
220
0.0
230
1.0
 70
     8
 71
     3
 72
     9
 73
     5
 74
     0
 42
0.000000001
 43
0.00000001
 40
0.0
 40
0.0
 40
0.0
 40
0.0
 40
0.5600841827436631
 40
1.0
 40
1.0
 40
1.0
 40
1.0
 10
79.85946394653445
 20
158.8646879396057
 30
0.0
 10
79.88305900093309
 20
158.904944159719
 30
0.0
 10
79.92518669374356
 20
158.9768194623141
 30
0.0
 10
79.93240922343941
 20
159.059494498331
 30
0.0
 10
79.93558652849322
 20
159.095864554367
 30
0.0
  0
SPLINE
  5
17A
330
1F
100
AcDbEntity
  8
0
  6
Continuous
 62
     7
370
     0
100
AcDbSpline
210
0.0
220
0.0
230
1.0
 70
     8
 71
     3
 72
     9
 73
     5
 74
     0
 42
0.000000001
 43
0.00000001
 40
0.0
 40
0.0
 40
0.0
 40
0.0
 40
0.5602379335590237
 40
1.0
 40
1.0
 40
1.0
 40
1.0
 10
79.55337174387103
 20
158.541779776535
 30
0.0
 10
79.61387808481432
 20
158.5989401318578
 30
0.0
 10
79.72187923453822
 20
158.7009688448364
 30
0.0
 10
79.81743996308022
 20
158.8146814495684
 30
0.0
 10
79.85946394653445
 20
158.8646879396057
 30
0.0
  0
SPLINE
  5
17B
330
1F
100
AcDbEntity
  8
0
  6
Continuous
 62
     7
370
     0
100
AcDbSpline
210
0.0
220
0.0
230
1.0
 70
     8
 71
     3
 72
    10
 73
     6
 74
     0
 42
0.000000001
 43
0.00000001
 40
0.0
 40
0.0
 40
0.0
 40
0.0
 40
0.2795644125661092
 40
0.5593381774780196
 40
1.0
 40
1.0
 40
1.0
 40
1.0
 10
79.01251174659853
 20
157.6916238269424
 30
0.0
 10
79.0311810288361
 20
157.7867177805941
 30
0.0
 10
79.06853357383902
 20
157.976976899187
 30
0.0
 10
79.26796377374885
 20
158.2645587396649
 30
0.0
 10
79.44505318661828
 20
158.4365683392333
 30
0.0
 10
79.55337174387103
 20
158.541779776535
 30
0.0
  0
LINE
  5
17C
330
1F
100
AcDbEntity
  8
0
  6
Continuous
 62
     7
370
     0
100
AcDbLine
 10
80.3202004001
 20
157.6916238269
 30
0.0
 11
79.0125117466
 21
157.6916238269
 31
0.0
  0
LINE
  5
17D
330
1F
100
AcDbEntity
  8
0
  6
Continuous
 62
     7
370
     0
100
AcDbLine
 10
80.3202004001
 20
158.0762376985
 30
0.0
 11
80.3202004001
 21
157.6916238269
 31
0.0
  0
LINE
  5
17E
330
1F
100
AcDbEntity
  8
0
  6
Continuous
 62
     7
370
     0
100
AcDbLine
 10
79.5770124361
 20
158.0762376985
 30
0.0
 11
80.3202004001
 21
158.0762376985
 31
0.0
  0
SPLINE
  5
17F
330
1F
100
AcDbEntity
  8
0
  6
Continuous
 62
     7
370
     0
100
AcDbSpline
210
0.0
220
0.0
230
1.0
 70
     8
 71
     3
 72
    11
 73
     7
 74
     0
 42
0.000000001
 43
0.00000001
 40
0.0
 40
0.0
 40
0.0
 40
0.0
 40
0.2800140318308847
 40
0.5602438356337164
 40
0.7804105574970934
 40
0.9999999999999999
 40
0.9999999999999999
 40
0.9999999999999999
 40
0.9999999999999999
 10
80.12629158945208
 20
158.64593889328
 30
0.0
 10
80.07653978392004
 20
158.5910344410758
 30
0.0
 10
79.97699783533011
 20
158.4811832286379
 30
0.0
 10
79.82270465549745
 20
158.3443425256138
 30
0.0
 10
79.67887352787581
 20
158.2184088307615
 30
0.0
 10
79.61093640575264
 20
158.1235865840547
 30
0.0
 10
79.57701243610506
 20
158.0762376985168
 30
0.0
  0
LINE
  5
180
330
1F
100
AcDbEntity
  8
0
  6
Continuous
 62
     7
370
     0
100
AcDbLine
 10
75.9167582557
 20
158.4352066717
 30
0.0
 11
75.6535366938
 21
158.4352066717
 31
0.0
  0
SPLINE
  5
181
330
1F
100
AcDbEntity
  8
0
  6
Continuous
 62
     7
370
     0
100
AcDbSpline
210
0.0
220
0.0
230
1.0
 70
     8
 71
     3
 72
     9
 73
     5
 74
     0
 42
0.000000001
 43
0.00000001
 40
0.0
 40
0.0
 40
0.0
 40
0.0
 40
0.5598147220281774
 40
1.0
 40
1.0
 40
1.0
 40
1.0
 10
76.33582361192828
 20
158.4640553197479
 30
0.0
 10
76.25793004403053
 20
158.4538682174915
 30
0.0
 10
76.1187883515513
 20
158.4356709428298
 30
0.0
 10
75.97850772310181
 20
158.4353485737845
 30
0.0
 10
75.91675825567368
 20
158.4352066716766
 30
0.0
  0
SPLINE
  5
182
330
1F
100
AcDbEntity
  8
0
  6
Continuous
 62
     7
370
     0
100
AcDbSpline
210
0.0
220
0.0
230
1.0
 70
     8
 71
     3
 72
    11
 73
     7
 74
     0
 42
0.000000001
 43
0.00000001
 40
0.0
 40
0.0
 40
0.0
 40
0.0
 40
0.2802815751319743
 40
0.5598706943486792
 40
0.7799140546013317
 40
1.0
 40
1.0
 40
1.0
 40
1.0
 10
76.78174086065417
 20
159.0710243186569
 30
0.0
 10
76.77707945817235
 20
158.9942921559667
 30
0.0
 10
76.76776816954096
 20
158.8410174029473
 30
0.0
 10
76.65929623390721
 20
158.6504631498686
 30
0.0
 10
76.50688752497489
 20
158.521826892217
 30
0.0
 10
76.39284859426029
 20
158.4833137526965
 30
0.0
 10
76.33582361192826
 20
158.4640553197479
 30
0.0
  0
SPLINE
  5
183
330
1F
100
AcDbEntity
  8
0
  6
Continuous
 62
     7
370
     0
100
AcDbSpline
210
0.0
220
0.0
230
1.0
 70
     8
 71
     3
 72
    11
 73
     7
 74
     0
 42
0.000000001
 43
0.00000001
 40
0.0
 40
0.0
 40
0.0
 40
0.0
 40
0.2791425334618846
 40
0.5589196960252285
 40
0.7792876330939338
 40
1.0
 40
1.0
 40
1.0
 40
1.0
 10
76.38310499639636
 20
159.661169906578
 30
0.0
 10
76.44980996930938
 20
159.6335616563655
 30
0.0
 10
76.5833715685452
 20
159.578282388727
 30
0.0
 10
76.71162156538371
 20
159.4158541432265
 30
0.0
 10
76.77400911312695
 20
159.2404745399261
 30
0.0
 10
76.77916227014971
 20
159.1275371225223
 30
0.0
 10
76.78174086065417
 20
159.0710243186569
 30
0.0
  0
SPLINE
  5
184
330
1F
100
AcDbEntity
  8
0
  6
Continuous
 62
     7
370
     0
100
AcDbSpline
210
0.0
220
0.0
230
1.0
 70
     8
 71
     3
 72
     9
 73
     5
 74
     0
 42
0.000000001
 43
0.00000001
 40
0.0
 40
0.0
 40
0.0
 40
0.0
 40
0.5603481582647882
 40
0.9999999999999999
 40
0.9999999999999999
 40
0.9999999999999999
 40
0.9999999999999999
 10
75.90874143095141
 20
159.691612978897
 30
0.0
 10
75.99777842732885
 20
159.69212191214
 30
0.0
 10
76.15667427639019
 20
159.6930301568364
 30
0.0
 10
76.313955858952
 20
159.6708996324035
 30
0.0
 10
76.38310499639634
 20
159.661169906578
 30
0.0
  0
LINE
  5
185
330
1F
100
AcDbEntity
  8
0
  6
Continuous
 62
     7
370
     0
100
AcDbLine
 10
75.2689153716
 20
159.6916129789
 30
0.0
 11
75.908741431
 21
159.6916129789
 31
0.0
  0
LINE
  5
186
330
1F
100
AcDbEntity
  8
0
  6
Continuous
 62
     7
370
     0
100
AcDbLine
 10
75.2689153716
 20
157.6916238269
 30
0.0
 11
75.2689153716
 21
159.6916129789
 31
0.0
  0
LINE
  5
187
330
1F
100
AcDbEntity
  8
0
  6
Continuous
 62
     7
370
     0
100
AcDbLine
 10
75.6535366938
 20
157.6916238269
 30
0.0
 11
75.2689153716
 21
157.6916238269
 31
0.0
  0
LINE
  5
188
330
1F
100
AcDbEntity
  8
0
  6
Continuous
 62
     7
370
     0
100
AcDbLine
 10
75.6535366938
 20
158.4352066717
 30
0.0
 11
75.6535366938
 21
157.6916238269
 31
0.0
  0
SPLINE
  5
189
330
1F
100
AcDbEntity
  8
0
  6
Continuous
 62
     7
370
     0
100
AcDbSpline
210
0.0
220
0.0
230
1.0
 70
     8
 71
     3
 72
    14
 73
    10
 74
     0
 42
0.000000001
 43
0.00000001
 40
0.0
 40
0.0
 40
0.0
 40
0.0
 40
0.140158112338765
 40
0.2802308497334606
 40
0.4201658982286018
 40
0.5600479636318761
 40
0.7065604206440858
 40
0.8532168439588993
 40
1.0
 40
1.0
 40
1.0
 40
1.0
 10
81.85511686058169
 20
163.8932486972427
 30
0.0
 10
81.95792747783304
 20
163.8896222181692
 30
0.0
 10
82.16348608698675
 20
163.8823714690305
 30
0.0
 10
82.46539403986598
 20
163.8100613892561
 30
0.0
 10
82.74387422264427
 20
163.6718286428483
 30
0.0
 10
82.97784464701009
 20
163.4580734340786
 30
0.0
 10
83.14241944038511
 20
163.1819193884014
 30
0.0
 10
83.23138615046838
 20
162.8681774830678
 30
0.0
 10
83.24039639411943
 20
162.6528505893382
 30
0.0
 10
83.24490346164828
 20
162.5451406440353
 30
0.0
  0
SPLINE
  5
18A
330
1F
100
AcDbEntity
  8
0
  6
Continuous
 62
     7
370
     0
100
AcDbSpline
210
0.0
220
0.0
230
1.0
 70
     8
 71
     3
 72
    14
 73
    10
 74
     0
 42
0.000000001
 43
0.00000001
 40
0.0
 40
0.0
 40
0.0
 40
0.0
 40
0.1401542089665579
 40
0.2802045304361779
 40
0.4201181404663621
 40
0.5599998592516424
 40
0.7065229412993703
 40
0.8532032897261883
 40
1.0
 40
1.0
 40
1.0
 40
1.0
 10
80.47398783416872
 20
162.5234892568206
 30
0.0
 10
80.4779279653766
 20
162.6266432864912
 30
0.0
 10
80.48580530722094
 20
162.8328748842403
 30
0.0
 10
80.56532791691801
 20
163.1343455997867
 30
0.0
 10
80.71298132292843
 20
163.4091474892963
 30
0.0
 10
80.93520110601814
 20
163.6362571112775
 30
0.0
 10
81.2157184301019
 20
163.7945054307117
 30
0.0
 10
81.5310820624118
 20
163.8802799919976
 30
0.0
 10
81.74707671434182
 20
163.888924652976
 30
0.0
 10
81.85511686058169
 20
163.8932486972427
 30
0.0
  0
SPLINE
  5
18B
330
1F
100
AcDbEntity
  8
0
  6
Continuous
 62
     7
370
     0
100
AcDbSpline
210
0.0
220
0.0
230
1.0
 70
     8
 71
     3
 72
    14
 73
    10
 74
     0
 42
0.000000001
 43
0.00000001
 40
0.0
 40
0.0
 40
0.0
 40
0.0
 40
0.1401853706124344
 40
0.2802686183795485
 40
0.4201113620347094
 40
0.5599974741575854
 40
0.7065537502752637
 40
0.8532036929979321
 40
1.0
 40
1.0
 40
1.0
 40
1.0
 10
81.88758649082308
 20
161.1569782695388
 30
0.0
 10
81.78297175945222
 20
161.1602750078841
 30
0.0
 10
81.57381850690264
 20
161.1668660829526
 30
0.0
 10
81.26546010206052
 20
161.2340884258108
 30
0.0
 10
80.98008056563525
 20
161.3729776778926
 30
0.0
 10
80.74765349289159
 20
161.5962820206279
 30
0.0
 10
80.57741115442455
 20
161.8749503048125
 30
0.0
 10
80.48732441115996
 20
162.1948290200716
 30
0.0
 10
80.47843483780446
 20
162.4138994221352
 30
0.0
 10
80.47398783416872
 20
162.5234892568206
 30
0.0
  0
SPLINE
  5
18C
330
1F
100
AcDbEntity
  8
0
  6
Continuous
 62
     7
370
     0
100
AcDbSpline
210
0.0
220
0.0
230
1.0
 70
     8
 71
     3
 72
    14
 73
    10
 74
     0
 42
0.000000001
 43
0.00000001
 40
0.0
 40
0.0
 40
0.0
 40
0.0
 40
0.1401968215881502
 40
0.2802642828664043
 40
0.4201696335096027
 40
0.5600094488719364
 40
0.7065336405165662
 40
0.8531747241845398
 40
1.0
 40
1.0
 40
1.0
 40
1.0
 10
83.24490346164828
 20
162.5451406440353
 30
0.0
 10
83.24153324619012
 20
162.4418716528305
 30
0.0
 10
83.23479592498845
 20
162.2354289572366
 30
0.0
 10
83.16550645591973
 20
161.9311808840967
 30
0.0
 10
83.02325437469834
 20
161.6527249668608
 30
0.0
 10
82.80601741874985
 20
161.4204536851212
 30
0.0
 10
82.52799788673425
 20
161.2563252569686
 30
0.0
 10
82.21211567234651
 20
161.1694044117409
 30
0.0
 10
81.9958081393107
 20
161.1611220497287
 30
0.0
 10
81.88758649082308
 20
161.1569782695388
 30
0.0
  0
LINE
  5
18D
330
1F
100
AcDbEntity
  8
0
  6
Continuous
 62
     7
370
     0
100
AcDbLine
 10
75.9989754126
 20
161.1916234693
 30
0.0
 11
75.9989754126
 21
163.2351687154
 31
0.0
  0
LINE
  5
18E
330
1F
100
AcDbEntity
  8
0
  6
Continuous
 62
     7
370
     0
100
AcDbLine
 10
76.8302441403
 20
161.1916234693
 30
0.0
 11
75.9989754126
 21
161.1916234693
 31
0.0
  0
LINE
  5
18F
330
1F
100
AcDbEntity
  8
0
  6
Continuous
 62
     7
370
     0
100
AcDbLine
 10
76.8302441403
 20
163.2351687154
 30
0.0
 11
76.8302441403
 21
161.1916234693
 31
0.0
  0
LINE
  5
190
330
1F
100
AcDbEntity
  8
0
  6
Continuous
 62
     7
370
     0
100
AcDbLine
 10
77.6615203187
 20
163.2351687154
 30
0.0
 11
76.8302441403
 21
163.2351687154
 31
0.0
  0
LINE
  5
191
330
1F
100
AcDbEntity
  8
0
  6
Continuous
 62
     7
370
     0
100
AcDbLine
 10
77.6615203187
 20
163.8586183986
 30
0.0
 11
77.6615203187
 21
163.2351687154
 31
0.0
  0
LINE
  5
192
330
1F
100
AcDbEntity
  8
0
  6
Continuous
 62
     7
370
     0
100
AcDbLine
 10
75.1676992342
 20
163.8586183986
 30
0.0
 11
77.6615203187
 21
163.8586183986
 31
0.0
  0
LINE
  5
193
330
1F
100
AcDbEntity
  8
0
  6
Continuous
 62
     7
370
     0
100
AcDbLine
 10
75.1676992342
 20
163.2351687154
 30
0.0
 11
75.1676992342
 21
163.8586183986
 31
0.0
  0
LINE
  5
194
330
1F
100
AcDbEntity
  8
0
  6
Continuous
 62
     7
370
     0
100
AcDbLine
 10
75.9989754126
 20
163.2351687154
 30
0.0
 11
75.1676992342
 21
163.2351687154
 31
0.0
  0
ARC
  5
195
330
1F
100
AcDbEntity
  8
0
  6
Continuous
 62
     7
370
     0
100
AcDbCircle
 10
122.9637908302
 20
173.9916172855
 30
0.0
 40
0.3000000000000114
100
AcDbArc
 50
0.0
 51
90.0
  0
LINE
  5
196
330
1F
100
AcDbEntity
  8
0
  6
Continuous
 62
     7
370
     0
100
AcDbLine
 10
70.2637941405
 20
153.6916157207
 30
0.0
 11
123.2637897894
 21
153.6916157207
 31
0.0
  0
ARC
  5
197
330
1F
100
AcDbEntity
  8
0
  6
Continuous
 62
     7
370
     0
100
AcDbCircle
 10
70.5637908302
 20
173.9916172855
 30
0.0
 40
0.3000000000000114
100
AcDbArc
 50
90.0
 51
180.0
  0
LINE
  5
198
330
1F
100
AcDbEntity
  8
0
  6
Continuous
 62
     7
370
     0
100
AcDbLine
 10
78.5828442142
 20
162.2653415403
 30
0.0
 11
78.5828442142
 21
161.1916234693
 31
0.0
  0
LINE
  5
199
330
1F
100
AcDbEntity
  8
0
  6
Continuous
 62
     7
370
     0
100
AcDbLine
 10
79.4833884403
 20
162.2653415403
 30
0.0
 11
78.5828442142
 21
162.2653415403
 31
0.0
  0
LINE
  5
19A
330
1F
100
AcDbEntity
  8
0
  6
Continuous
 62
     7
370
     0
100
AcDbLine
 10
79.4833884403
 20
161.1916234693
 30
0.0
 11
79.4833884403
 21
162.2653415403
 31
0.0
  0
LINE
  5
19B
330
1F
100
AcDbEntity
  8
0
  6
Continuous
 62
     7
370
     0
100
AcDbLine
 10
80.3146646187
 20
161.1916234693
 30
0.0
 11
79.4833884403
 21
161.1916234693
 31
0.0
  0
LINE
  5
19C
330
1F
100
AcDbEntity
  8
0
  6
Continuous
 62
     7
370
     0
100
AcDbLine
 10
80.3146646187
 20
163.8586183986
 30
0.0
 11
80.3146646187
 21
161.1916234693
 31
0.0
  0
LINE
  5
19D
330
1F
100
AcDbEntity
  8
0
  6
Continuous
 62
     7
370
     0
100
AcDbLine
 10
79.4833884403
 20
163.8586183986
 30
0.0
 11
80.3146646187
 21
163.8586183986
 31
0.0
  0
LINE
  5
19E
330
1F
100
AcDbEntity
  8
0
  6
Continuous
 62
     7
370
     0
100
AcDbLine
 10
79.4833884403
 20
162.9234364233
 30
0.0
 11
79.4833884403
 21
163.8586183986
 31
0.0
  0
LINE
  5
19F
330
1F
100
AcDbEntity
  8
0
  6
Continuous
 62
     7
370
     0
100
AcDbLine
 10
78.5828442142
 20
162.9234364233
 30
0.0
 11
79.4833884403
 21
162.9234364233
 31
0.0
  0
LINE
  5
1A0
330
1F
100
AcDbEntity
  8
0
  6
Continuous
 62
     7
370
     0
100
AcDbLine
 10
78.5828442142
 20
163.8586183986
 30
0.0
 11
78.5828442142
 21
162.9234364233
 31
0.0
  0
LINE
  5
1A1
330
1F
100
AcDbEntity
  8
0
  6
Continuous
 62
     7
370
     0
100
AcDbLine
 10
77.7515754864
 20
163.8586183986
 30
0.0
 11
78.5828442142
 21
163.8586183986
 31
0.0
  0
LINE
  5
1A2
330
1F
100
AcDbEntity
  8
0
  6
Continuous
 62
     7
370
     0
100
AcDbLine
 10
77.7515754864
 20
161.1916234693
 30
0.0
 11
77.7515754864
 21
163.8586183986
 31
0.0
  0
LINE
  5
1A3
330
1F
100
AcDbEntity
  8
0
  6
Continuous
 62
     7
370
     0
100
AcDbLine
 10
78.5828442142
 20
161.1916234693
 30
0.0
 11
77.7515754864
 21
161.1916234693
 31
0.0
  0
LINE
  5
1A4
330
1F
100
AcDbEntity
  8
0
  6
Continuous
 62
     7
370
     0
100
AcDbLine
 10
84.3085632488
 20
162.2653415403
 30
0.0
 11
84.2355028555
 21
162.2653415403
 31
0.0
  0
SPLINE
  5
1A5
330
1F
100
AcDbEntity
  8
0
  6
Continuous
 62
     7
370
     0
100
AcDbSpline
210
0.0
220
0.0
230
1.0
 70
     8
 71
     3
 72
     9
 73
     5
 74
     0
 42
0.000000001
 43
0.00000001
 40
0.0
 40
0.0
 40
0.0
 40
0.0
 40
0.5595396813534942
 40
1.0
 40
1.0
 40
1.0
 40
1.0
 10
84.51096572132235
 20
162.2041871747589
 30
0.0
 10
84.47561688383234
 20
162.2241104088058
 30
0.0
 10
84.41244203016603
 20
162.259716880895
 30
0.0
 10
84.3403270402597
 20
162.26362164615
 30
0.0
 10
84.30856324882632
 20
162.2653415402984
 30
0.0
  0
SPLINE
  5
1A6
330
1F
100
AcDbEntity
  8
0
  6
Continuous
 62
     7
370
     0
100
AcDbSpline
210
0.0
220
0.0
230
1.0
 70
     8
 71
     3
 72
     9
 73
     5
 74
     0
 42
0.000000001
 43
0.00000001
 40
0.0
 40
0.0
 40
0.0
 40
0.0
 40
0.5606933541209218
 40
1.0
 40
1.0
 40
1.0
 40
1.0
 10
84.66033496112948
 20
162.0001604756927
 30
0.0
 10
84.63788929534267
 20
162.0424015960631
 30
0.0
 10
84.59785731418604
 20
162.1177388906109
 30
0.0
 10
84.53748686212674
 20
162.1778013410939
 30
0.0
 10
84.51096572132235
 20
162.2041871747589
 30
0.0
  0
LINE
  5
1A7
330
1F
100
AcDbEntity
  8
0
  6
Continuous
 62
     7
370
     0
100
AcDbLine
 10
85.0987047717
 20
161.1916234693
 30
0.0
 11
84.6603349611
 21
162.0001604757
 31
0.0
  0
LINE
  5
1A8
330
1F
100
AcDbEntity
  8
0
  6
Continuous
 62
     7
370
     0
100
AcDbLine
 10
86.0365913078
 20
161.1916234693
 30
0.0
 11
85.0987047717
 21
161.1916234693
 31
0.0
  0
LINE
  5
1A9
330
1F
100
AcDbEntity
  8
0
  6
Continuous
 62
     7
370
     0
100
AcDbLine
 10
85.6247455642
 20
161.9519999227
 30
0.0
 11
86.0365913078
 21
161.1916234693
 31
0.0
  0
SPLINE
  5
1AA
330
1F
100
AcDbEntity
  8
0
  6
Continuous
 62
     7
370
     0
100
AcDbSpline
210
0.0
220
0.0
230
1.0
 70
     8
 71
     3
 72
     9
 73
     5
 74
     0
 42
0.000000001
 43
0.00000001
 40
0.0
 40
0.0
 40
0.0
 40
0.0
 40
0.5597885421157911
 40
1.0
 40
1.0
 40
1.0
 40
1.0
 10
85.37958420963412
 20
162.2626444301223
 30
0.0
 10
85.43137616895675
 20
162.2093668717315
 30
0.0
 10
85.52389674668571
 20
162.1141924364181
 30
0.0
 10
85.59392036504958
 20
162.0015752836966
 30
0.0
 10
85.62474556417588
 20
161.9519999227142
 30
0.0
  0
SPLINE
  5
1AB
330
1F
100
AcDbEntity
  8
0
  6
Continuous
 62
     7
370
     0
100
AcDbSpline
210
0.0
220
0.0
230
1.0
 70
     8
 71
     3
 72
     9
 73
     5
 74
     0
 42
0.000000001
 43
0.00000001
 40
0.0
 40
0.0
 40
0.0
 40
0.0
 40
0.560173479772154
 40
1.0
 40
1.0
 40
1.0
 40
1.0
 10
85.16689248533373
 20
162.3627653321838
 30
0.0
 10
85.2086549261124
 20
162.3483207863182
 30
0.0
 10
85.28320761788864
 20
162.3225349424911
 30
0.0
 10
85.3501438705493
 20
162.2809392977885
 30
0.0
 10
85.37958420963412
 20
162.2626444301223
 30
0.0
  0
SPLINE
  5
1AC
330
1F
100
AcDbEntity
  8
0
  6
Continuous
 62
     7
370
     0
100
AcDbSpline
210
0.0
220
0.0
230
1.0
 70
     8
 71
     3
 72
     9
 73
     5
 74
     0
 42
0.000000001
 43
0.00000001
 40
0.0
 40
0.0
 40
0.0
 40
0.0
 40
0.5596597805933766
 40
1.0
 40
1.0
 40
1.0
 40
1.0
 10
85.46400673837786
 20
162.4688317975616
 30
0.0
 10
85.41058607934599
 20
162.4432661364164
 30
0.0
 10
85.31513405494778
 20
162.397585417466
 30
0.0
 10
85.21221283701836
 20
162.3734105143334
 30
0.0
 10
85.16689248533373
 20
162.3627653321838
 30
0.0
  0
SPLINE
  5
1AD
330
1F
100
AcDbEntity
  8
0
  6
Continuous
 62
     7
370
     0
100
AcDbSpline
210
0.0
220
0.0
230
1.0
 70
     8
 71
     3
 72
    11
 73
     7
 74
     0
 42
0.000000001
 43
0.00000001
 40
0.0
 40
0.0
 40
0.0
 40
0.0
 40
0.2800149480068871
 40
0.5596159780211346
 40
0.7797888939323256
 40
0.9999999999999999
 40
0.9999999999999999
 40
0.9999999999999999
 40
0.9999999999999999
 10
85.82877226324206
 20
163.1150206527328
 30
0.0
 10
85.82442292180333
 20
163.0420481177194
 30
0.0
 10
85.81573066812085
 20
162.8962109156668
 30
0.0
 10
85.7279541041145
 20
162.7091109136434
 30
0.0
 10
85.6068352888085
 20
162.5645523197908
 30
0.0
 10
85.51161900757728
 20
162.5007404828948
 30
0.0
 10
85.46400673837786
 20
162.4688317975616
 30
0.0
  0
SPLINE
  5
1AE
330
1F
100
AcDbEntity
  8
0
  6
Continuous
 62
     7
370
     0
100
AcDbSpline
210
0.0
220
0.0
230
1.0
 70
     8
 71
     3
 72
    13
 73
     9
 74
     0
 42
0.000000001
 43
0.00000001
 40
0.0
 40
0.0
 40
0.0
 40
0.0
 40
0.1872125099930673
 40
0.3742576991801406
 40
0.5601811675565048
 40
0.7067103289186871
 40
0.8532361359162169
 40
1.0
 40
1.0
 40
1.0
 40
1.0
 10
84.78806026430254
 20
163.8586183986282
 30
0.0
 10
84.87940402974937
 20
163.8568742970904
 30
0.0
 10
85.06200992233549
 20
163.853387652802
 30
0.0
 10
85.33449018145446
 20
163.8194793018269
 30
0.0
 10
85.5724997742213
 20
163.711544612426
 30
0.0
 10
85.72878893124182
 20
163.5315945570207
 30
0.0
 10
85.81632024422363
 20
163.3307796196183
 30
0.0
 10
85.82461934483383
 20
163.186979214954
 30
0.0
 10
85.82877226324206
 20
163.1150206527328
 30
0.0
  0
LINE
  5
1AF
330
1F
100
AcDbEntity
  8
0
  6
Continuous
 62
     7
370
     0
100
AcDbLine
 10
83.4042266771
 20
163.8586183986
 30
0.0
 11
84.7880602643
 21
163.8586183986
 31
0.0
  0
LINE
  5
1B0
330
1F
100
AcDbEntity
  8
0
  6
Continuous
 62
     7
370
     0
100
AcDbLine
 10
83.4042266771
 20
161.1916234693
 30
0.0
 11
83.4042266771
 21
163.8586183986
 31
0.0
  0
LINE
  5
1B1
330
1F
100
AcDbEntity
  8
0
  6
Continuous
 62
     7
370
     0
100
AcDbLine
 10
84.2355028555
 20
161.1916234693
 30
0.0
 11
83.4042266771
 21
161.1916234693
 31
0.0
  0
LINE
  5
1B2
330
1F
100
AcDbEntity
  8
0
  6
Continuous
 62
     7
370
     0
100
AcDbLine
 10
84.2355028555
 20
162.2653415403
 30
0.0
 11
84.2355028555
 21
161.1916234693
 31
0.0
  0
LINE
  5
1B3
330
1F
100
AcDbEntity
  8
0
  6
Continuous
 62
     7
370
     0
100
AcDbLine
 10
77.8202027843
 20
158.6207112274
 30
0.0
 11
77.4996862576
 21
158.2945844135
 31
0.0
  0
LINE
  5
1B4
330
1F
100
AcDbEntity
  8
0
  6
Continuous
 62
     7
370
     0
100
AcDbLine
 10
78.3847034738
 20
157.6916238269
 30
0.0
 11
77.8202027843
 21
158.6207112274
 31
0.0
  0
LINE
  5
1B5
330
1F
100
AcDbEntity
  8
0
  6
Continuous
 62
     7
370
     0
100
AcDbLine
 10
78.8971246049
 20
157.6916238269
 30
0.0
 11
78.3847034738
 21
157.6916238269
 31
0.0
  0
LINE
  5
1B6
330
1F
100
AcDbEntity
  8
0
  6
Continuous
 62
     7
370
     0
100
AcDbLine
 10
78.1118706629
 20
158.9183768234
 30
0.0
 11
78.8971246049
 21
157.6916238269
 31
0.0
  0
LINE
  5
1B7
330
1F
100
AcDbEntity
  8
0
  6
Continuous
 62
     7
370
     0
100
AcDbLine
 10
78.8714797065
 20
159.6916129789
 30
0.0
 11
78.1118706629
 21
158.9183768234
 31
0.0
  0
LINE
  5
1B8
330
1F
100
AcDbEntity
  8
0
  6
Continuous
 62
     7
370
     0
100
AcDbLine
 10
78.3430398271
 20
159.6916129789
 30
0.0
 11
78.8714797065
 21
159.6916129789
 31
0.0
  0
LINE
  5
1B9
330
1F
100
AcDbEntity
  8
0
  6
Continuous
 62
     7
370
     0
100
AcDbLine
 10
77.4996862576
 20
158.7961873016
 30
0.0
 11
78.3430398271
 21
159.6916129789
 31
0.0
  0
LINE
  5
1BA
330
1F
100
AcDbEntity
  8
0
  6
Continuous
 62
     7
370
     0
100
AcDbLine
 10
77.4996862576
 20
159.6916129789
 30
0.0
 11
77.4996862576
 21
158.7961873016
 31
0.0
  0
LINE
  5
1BB
330
1F
100
AcDbEntity
  8
0
  6
Continuous
 62
     7
370
     0
100
AcDbLine
 10
77.115072386
 20
159.6916129789
 30
0.0
 11
77.4996862576
 21
159.6916129789
 31
0.0
  0
LINE
  5
1BC
330
1F
100
AcDbEntity
  8
0
  6
Continuous
 62
     7
370
     0
100
AcDbLine
 10
77.115072386
 20
157.6916238269
 30
0.0
 11
77.115072386
 21
159.6916129789
 31
0.0
  0
LINE
  5
1BD
330
1F
100
AcDbEntity
  8
0
  6
Continuous
 62
     7
370
     0
100
AcDbLine
 10
77.4996862576
 20
157.6916238269
 30
0.0
 11
77.115072386
 21
157.6916238269
 31
0.0
  0
LINE
  5
1BE
330
1F
100
AcDbEntity
  8
0
  6
Continuous
 62
     7
370
     0
100
AcDbLine
 10
77.4996862576
 20
158.2945844135
 30
0.0
 11
77.4996862576
 21
157.6916238269
 31
0.0
  0
LINE
  5
1BF
330
1F
100
AcDbEntity
  8
0
  6
Continuous
 62
     7
370
     0
100
AcDbLine
 10
81.8843007848
 20
158.5377713642
 30
0.0
 11
81.0381532475
 21
158.5377713642
 31
0.0
  0
LINE
  5
1C0
330
1F
100
AcDbEntity
  8
0
  6
Continuous
 62
     7
370
     0
100
AcDbLine
 10
81.8843007848
 20
158.8711103401
 30
0.0
 11
81.8843007848
 21
158.5377713642
 31
0.0
  0
LINE
  5
1C1
330
1F
100
AcDbEntity
  8
0
  6
Continuous
 62
     7
370
     0
100
AcDbLine
 10
81.0381532475
 20
158.8711103401
 30
0.0
 11
81.8843007848
 21
158.8711103401
 31
0.0
  0
LINE
  5
1C2
330
1F
100
AcDbEntity
  8
0
  6
Continuous
 62
     7
370
     0
100
AcDbLine
 10
81.0381532475
 20
159.3582889042
 30
0.0
 11
81.0381532475
 21
158.8711103401
 31
0.0
  0
LINE
  5
1C3
330
1F
100
AcDbEntity
  8
0
  6
Continuous
 62
     7
370
     0
100
AcDbLine
 10
82.0125103757
 20
159.3582889042
 30
0.0
 11
81.0381532475
 21
159.3582889042
 31
0.0
  0
LINE
  5
1C4
330
1F
100
AcDbEntity
  8
0
  6
Continuous
 62
     7
370
     0
100
AcDbLine
 10
82.0125103757
 20
159.6916129789
 30
0.0
 11
82.0125103757
 21
159.3582889042
 31
0.0
  0
LINE
  5
1C5
330
1F
100
AcDbEntity
  8
0
  6
Continuous
 62
     7
370
     0
100
AcDbLine
 10
80.6535319254
 20
159.6916129789
 30
0.0
 11
82.0125103757
 21
159.6916129789
 31
0.0
  0
LINE
  5
1C6
330
1F
100
AcDbEntity
  8
0
  6
Continuous
 62
     7
370
     0
100
AcDbLine
 10
80.6535319254
 20
157.6916238269
 30
0.0
 11
80.6535319254
 21
159.6916129789
 31
0.0
  0
LINE
  5
1C7
330
1F
100
AcDbEntity
  8
0
  6
Continuous
 62
     7
370
     0
100
AcDbLine
 10
81.0381532475
 20
157.6916238269
 30
0.0
 11
80.6535319254
 21
157.6916238269
 31
0.0
  0
LINE
  5
1C8
330
1F
100
AcDbEntity
  8
0
  6
Continuous
 62
     7
370
     0
100
AcDbLine
 10
81.0381532475
 20
158.5377713642
 30
0.0
 11
81.0381532475
 21
157.6916238269
 31
0.0
  0
LINE
  5
1C9
330
1F
100
AcDbEntity
  8
0
  6
Continuous
 62
     7
370
     0
100
AcDbLine
 10
85.4227677748
 20
158.5377713642
 30
0.0
 11
84.576612787
 21
158.5377713642
 31
0.0
  0
LINE
  5
1CA
330
1F
100
AcDbEntity
  8
0
  6
Continuous
 62
     7
370
     0
100
AcDbLine
 10
85.4227677748
 20
158.8711103401
 30
0.0
 11
85.4227677748
 21
158.5377713642
 31
0.0
  0
LINE
  5
1CB
330
1F
100
AcDbEntity
  8
0
  6
Continuous
 62
     7
370
     0
100
AcDbLine
 10
84.576612787
 20
158.8711103401
 30
0.0
 11
85.4227677748
 21
158.8711103401
 31
0.0
  0
LINE
  5
1CC
330
1F
100
AcDbEntity
  8
0
  6
Continuous
 62
     7
370
     0
100
AcDbLine
 10
84.576612787
 20
159.3582889042
 30
0.0
 11
84.576612787
 21
158.8711103401
 31
0.0
  0
LINE
  5
1CD
330
1F
100
AcDbEntity
  8
0
  6
Continuous
 62
     7
370
     0
100
AcDbLine
 10
85.5509699151
 20
159.3582889042
 30
0.0
 11
84.576612787
 21
159.3582889042
 31
0.0
  0
LINE
  5
1CE
330
1F
100
AcDbEntity
  8
0
  6
Continuous
 62
     7
370
     0
100
AcDbLine
 10
85.5509699151
 20
159.6916129789
 30
0.0
 11
85.5509699151
 21
159.3582889042
 31
0.0
  0
LINE
  5
1CF
330
1F
100
AcDbEntity
  8
0
  6
Continuous
 62
     7
370
     0
100
AcDbLine
 10
84.1919989154
 20
159.6916129789
 30
0.0
 11
85.5509699151
 21
159.6916129789
 31
0.0
  0
LINE
  5
1D0
330
1F
100
AcDbEntity
  8
0
  6
Continuous
 62
     7
370
     0
100
AcDbLine
 10
84.1919989154
 20
157.6916238269
 30
0.0
 11
84.1919989154
 21
159.6916129789
 31
0.0
  0
LINE
  5
1D1
330
1F
100
AcDbEntity
  8
0
  6
Continuous
 62
     7
370
     0
100
AcDbLine
 10
84.576612787
 20
157.6916238269
 30
0.0
 11
84.1919989154
 21
157.6916238269
 31
0.0
  0
LINE
  5
1D2
330
1F
100
AcDbEntity
  8
0
  6
Continuous
 62
     7
370
     0
100
AcDbLine
 10
84.576612787
 20
158.5377713642
 30
0.0
 11
84.576612787
 21
157.6916238269
 31
0.0
  0
LINE
  5
1D3
330
1F
100
AcDbEntity
  8
0
  6
Continuous
 62
     7
370
     0
100
AcDbLine
 10
87.8143296406
 20
161.3039633236
 30
0.0
 11
87.8143296406
 21
161.6289576492
 31
0.0
  0
LINE
  5
1D4
330
1F
100
AcDbEntity
  8
0
  6
Continuous
 62
     7
370
     0
100
AcDbLine
 10
87.8143296406
 20
161.6289576492
 30
0.0
 11
86.5858704612
 21
161.6289576492
 31
0.0
  0
LINE
  5
1D5
330
1F
100
AcDbEntity
  8
0
  6
Continuous
 62
     7
370
     0
100
AcDbLine
 10
86.5858704612
 20
161.6289576492
 30
0.0
 11
86.5858704612
 21
163.9347484312
 31
0.0
  0
LINE
  5
1D6
330
1F
100
AcDbEntity
  8
0
  6
Continuous
 62
     7
370
     0
100
AcDbLine
 10
86.5858704612
 20
163.9347484312
 30
0.0
 11
86.1267731354
 21
163.9347484312
 31
0.0
  0
LINE
  5
1D7
330
1F
100
AcDbEntity
  8
0
  6
Continuous
 62
     7
370
     0
100
AcDbLine
 10
86.1267731354
 20
163.9347484312
 30
0.0
 11
86.1267731354
 21
161.2677535019
 31
0.0
  0
LINE
  5
1D8
330
1F
100
AcDbEntity
  8
0
  6
Continuous
 62
     7
370
     0
100
AcDbLine
 10
86.1267731354
 20
161.2677535019
 30
0.0
 11
87.8040254876
 21
161.2677535019
 31
0.0
  0
LINE
  5
1D9
330
1F
100
AcDbEntity
  8
0
  6
Continuous
 62
     7
370
     0
100
AcDbLine
 10
87.8040254876
 20
161.2677535019
 30
0.0
 11
88.2677049205
 21
161.2677535019
 31
0.0
  0
LINE
  5
1DA
330
1F
100
AcDbEntity
  8
0
  6
Continuous
 62
     7
370
     0
100
AcDbLine
 10
88.2677049205
 20
161.2677535019
 30
0.0
 11
88.4800762698
 21
162.071462532
 31
0.0
  0
LINE
  5
1DB
330
1F
100
AcDbEntity
  8
0
  6
Continuous
 62
     7
370
     0
100
AcDbLine
 10
88.4800762698
 20
162.071462532
 30
0.0
 11
89.0559539959
 21
162.071462532
 31
0.0
  0
LINE
  5
1DC
330
1F
100
AcDbEntity
  8
0
  6
Continuous
 62
     7
370
     0
100
AcDbLine
 10
89.0559539959
 20
162.071462532
 30
0.0
 11
89.2683253452
 21
161.2677535019
 31
0.0
  0
LINE
  5
1DD
330
1F
100
AcDbEntity
  8
0
  6
Continuous
 62
     7
370
     0
100
AcDbLine
 10
89.2683253452
 20
161.2677535019
 30
0.0
 11
89.7342921063
 21
161.2677535019
 31
0.0
  0
LINE
  5
1DE
330
1F
100
AcDbEntity
  8
0
  6
Continuous
 62
     7
370
     0
100
AcDbLine
 10
89.7342921063
 20
161.2677535019
 30
0.0
 11
88.9643640086
 21
163.9650871954
 31
0.0
  0
LINE
  5
1DF
330
1F
100
AcDbEntity
  8
0
  6
Continuous
 62
     7
370
     0
100
AcDbLine
 10
88.9643640086
 20
163.9650871954
 30
0.0
 11
88.5716662571
 21
163.9650871954
 31
0.0
  0
LINE
  5
1E0
330
1F
100
AcDbEntity
  8
0
  6
Continuous
 62
     7
370
     0
100
AcDbLine
 10
88.5716662571
 20
163.9650871954
 30
0.0
 11
87.8143296406
 21
161.3039633236
 31
0.0
  0
SPLINE
  5
1E1
330
1F
100
AcDbEntity
  8
0
  6
Continuous
 62
     7
370
     0
100
AcDbSpline
210
0.0
220
0.0
230
1.0
 70
     8
 71
     3
 72
    12
 73
     8
 74
     0
 42
0.000000001
 43
0.00000001
 40
0.0
 40
0.0
 40
0.0
 40
0.0
 40
0.1861689799706787
 40
0.3732032500691241
 40
0.5597461157410268
 40
0.7796041414388102
 40
1.0
 40
1.0
 40
1.0
 40
1.0
 10
91.00168056936388
 20
162.6587768992996
 30
0.0
 10
91.04647127921622
 20
162.673374478424
 30
0.0
 10
91.13626088053664
 20
162.7026374843944
 30
0.0
 10
91.24456538572515
 20
162.7956661118112
 30
0.0
 10
91.33983046293278
 20
162.9116735044181
 30
0.0
 10
91.38929839256168
 20
163.065012064814
 30
0.0
 10
91.39382559026367
 20
163.1753948479024
 30
0.0
 10
91.39609195442324
 20
163.2306536635971
 30
0.0
  0
SPLINE
  5
1E2
330
1F
100
AcDbEntity
  8
0
  6
Continuous
 62
     7
370
     0
100
AcDbSpline
210
0.0
220
0.0
230
1.0
 70
     8
 71
     3
 72
    12
 73
     8
 74
     0
 42
0.000000001
 43
0.00000001
 40
0.0
 40
0.0
 40
0.0
 40
0.0
 40
0.1865625348346418
 40
0.3731867424805941
 40
0.5597569239316988
 40
0.7795319779052563
 40
1.0
 40
1.0
 40
1.0
 40
1.0
 10
91.39609195442324
 20
163.2306536635971
 30
0.0
 10
91.38911025433067
 20
163.3071169207704
 30
0.0
 10
91.37514454617379
 20
163.4600687119179
 30
0.0
 10
91.25587457789183
 20
163.6610394785405
 30
0.0
 10
91.08025728198162
 20
163.831802198012
 30
0.0
 10
90.83332187456328
 20
163.9221735504469
 30
0.0
 10
90.6540889913866
 20
163.9305524079915
 30
0.0
 10
90.56433148832444
 20
163.9347484311676
 30
0.0
  0
LINE
  5
1E3
330
1F
100
AcDbEntity
  8
0
  6
Continuous
 62
     7
370
     0
100
AcDbLine
 10
90.5643314883
 20
163.9347484312
 30
0.0
 11
89.7388742134
 21
163.9347484312
 31
0.0
  0
LINE
  5
1E4
330
1F
100
AcDbEntity
  8
0
  6
Continuous
 62
     7
370
     0
100
AcDbLine
 10
89.7388742134
 20
163.9347484312
 30
0.0
 11
89.7388742134
 21
161.2677535019
 31
0.0
  0
LINE
  5
1E5
330
1F
100
AcDbEntity
  8
0
  6
Continuous
 62
     7
370
     0
100
AcDbLine
 10
89.7388742134
 20
161.2677535019
 30
0.0
 11
90.5339927241
 21
161.2677535019
 31
0.0
  0
SPLINE
  5
1E6
330
1F
100
AcDbEntity
  8
0
  6
Continuous
 62
     7
370
     0
100
AcDbSpline
210
0.0
220
0.0
230
1.0
 70
     8
 71
     3
 72
    13
 73
     9
 74
     0
 42
0.000000001
 43
0.00000001
 40
0.0
 40
0.0
 40
0.0
 40
0.0
 40
0.1869840696551757
 40
0.3737247379607228
 40
0.5600385463646391
 40
0.7063987904227095
 40
0.8530989991906185
 40
1.0
 40
1.0
 40
1.0
 40
1.0
 10
90.53399272413378
 20
161.2677535018539
 30
0.0
 10
90.62246930627495
 20
161.2711137436988
 30
0.0
 10
90.79930729860949
 20
161.2778298532867
 30
0.0
 10
91.0547431358821
 20
161.3526105766042
 30
0.0
 10
91.27310032011857
 20
161.476822777345
 30
0.0
 10
91.40552760993167
 20
161.6673392146082
 30
0.0
 10
91.46330501412984
 20
161.8696662226103
 30
0.0
 10
91.46886593185536
 20
162.0083576721495
 30
0.0
 10
91.47164829225665
 20
162.0777508220291
 30
0.0
  0
SPLINE
  5
1E7
330
1F
100
AcDbEntity
  8
0
  6
Continuous
 62
     7
370
     0
100
AcDbSpline
210
0.0
220
0.0
230
1.0
 70
     8
 71
     3
 72
    11
 73
     7
 74
     0
 42
0.000000001
 43
0.00000001
 40
0.0
 40
0.0
 40
0.0
 40
0.0
 40
0.2799281186886585
 40
0.5591784055957116
 40
0.7799589378096036
 40
1.0
 40
1.0
 40
1.0
 40
1.0
 10
91.47164829225665
 20
162.0777508220291
 30
0.0
 10
91.46550249160744
 20
162.1541849715928
 30
0.0
 10
91.45322577205444
 20
162.3068681892928
 30
0.0
 10
91.32482612314217
 20
162.4821630679585
 30
0.0
 10
91.17450020105538
 20
162.6092169352498
 30
0.0
 10
91.05922265461457
 20
162.6422753962674
 30
0.0
 10
91.00168056936388
 20
162.6587768992996
 30
0.0
  0
SPLINE
  5
1E8
330
1F
100
AcDbEntity
  8
0
  6
Continuous
 62
     7
370
     0
100
AcDbSpline
210
0.0
220
0.0
230
1.0
 70
     8
 71
     3
 72
    11
 73
     7
 74
     0
 42
0.000000001
 43
0.00000001
 40
0.0
 40
0.0
 40
0.0
 40
0.0
 40
0.5010774874934018
 40
0.6263054597756502
 40
0.751361608240957
 40
1.0
 40
1.0
 40
1.0
 40
1.0
 10
92.51063175649767
 20
162.8247907361602
 30
0.0
 10
92.4033539591365
 20
162.8677461842385
 30
0.0
 10
92.2692655758485
 20
162.9214369453083
 30
0.0
 10
92.12610643981415
 20
163.02011432892
 30
0.0
 10
92.05723872168426
 20
163.1158409606606
 30
0.0
 10
92.04762607257692
 20
163.203000594971
 30
0.0
 10
92.04123027773026
 20
163.2609924277878
 30
0.0
  0
SPLINE
  5
1E9
330
1F
100
AcDbEntity
  8
0
  6
Continuous
 62
     7
370
     0
100
AcDbSpline
210
0.0
220
0.0
230
1.0
 70
     8
 71
     3
 72
    11
 73
     7
 74
     0
 42
0.000000001
 43
0.00000001
 40
0.0
 40
0.0
 40
0.0
 40
0.0
 40
0.280556992368479
 40
0.5589542714008358
 40
0.7792598156256713
 40
1.0
 40
1.0
 40
1.0
 40
1.0
 10
92.04123027773028
 20
163.2609924277877
 30
0.0
 10
92.04426179502448
 20
163.3099878161312
 30
0.0
 10
92.05030149314823
 20
163.4076014288319
 30
0.0
 10
92.13348490769677
 20
163.5233973619247
 30
0.0
 10
92.2477222601938
 20
163.5805695494008
 30
0.0
 10
92.32412579051896
 20
163.5858084914233
 30
0.0
 10
92.36236520261889
 20
163.5884305438613
 30
0.0
  0
SPLINE
  5
1EA
330
1F
100
AcDbEntity
  8
0
  6
Continuous
 62
     7
370
     0
100
AcDbSpline
210
0.0
220
0.0
230
1.0
 70
     8
 71
     3
 72
    12
 73
     8
 74
     0
 42
0.000000001
 43
0.00000001
 40
0.0
 40
0.0
 40
0.0
 40
0.0
 40
0.1867181063313918
 40
0.3729830885892361
 40
0.5596312671149876
 40
0.7795200893573678
 40
1.0
 40
1.0
 40
1.0
 40
1.0
 10
92.36236520261889
 20
163.5884305438613
 30
0.0
 10
92.40272774592862
 20
163.5856494217115
 30
0.0
 10
92.48335488146871
 20
163.580093926588
 30
0.0
 10
92.59366348576188
 20
163.5222362851708
 30
0.0
 10
92.67589353177398
 20
163.4217901703094
 30
0.0
 10
92.72344449252746
 20
163.29178454879
 30
0.0
 10
92.72124387069861
 20
163.1964952731889
 30
0.0
 10
92.72014208288317
 20
163.1487866839981
 30
0.0
  0
LINE
  5
1EB
330
1F
100
AcDbEntity
  8
0
  6
Continuous
 62
     7
370
     0
100
AcDbLine
 10
92.7201420829
 20
163.148786684
 30
0.0
 11
93.1792394087
 21
163.148786684
 31
0.0
  0
SPLINE
  5
1EC
330
1F
100
AcDbEntity
  8
0
  6
Continuous
 62
     7
370
     0
100
AcDbSpline
210
0.0
220
0.0
230
1.0
 70
     8
 71
     3
 72
    13
 73
     9
 74
     0
 42
0.000000001
 43
0.00000001
 40
0.0
 40
0.0
 40
0.0
 40
0.0
 40
0.186675099364943
 40
0.3733304877710766
 40
0.5596815648274415
 40
0.7062193550979317
 40
0.8530391838744927
 40
1.0
 40
1.0
 40
1.0
 40
1.0
 10
93.17923940868502
 20
163.1487866839981
 30
0.0
 10
93.17362633395078
 20
163.23038981036
 30
0.0
 10
93.1624007771649
 20
163.3935874466381
 30
0.0
 10
93.06369048945268
 20
163.6197624417188
 30
0.0
 10
92.92721473283048
 20
163.8059375102258
 30
0.0
 10
92.74185813372453
 20
163.9111602489658
 30
0.0
 10
92.55431850489201
 20
163.9578267457118
 30
0.0
 10
92.42637010448193
 20
163.9626662713023
 30
0.0
 10
92.36236520261889
 20
163.9650871953582
 30
0.0
  0
SPLINE
  5
1ED
330
1F
100
AcDbEntity
  8
0
  6
Continuous
 62
     7
370
     0
100
AcDbSpline
210
0.0
220
0.0
230
1.0
 70
     8
 71
     3
 72
    12
 73
     8
 74
     0
 42
0.000000001
 43
0.00000001
 40
0.0
 40
0.0
 40
0.0
 40
0.0
 40
0.1869479259245395
 40
0.3737905066935093
 40
0.5606739476858729
 40
0.7801294430370554
 40
1.0
 40
1.0
 40
1.0
 40
1.0
 10
92.36236520261889
 20
163.9650871953582
 30
0.0
 10
92.28706390241257
 20
163.9600125262062
 30
0.0
 10
92.13650373428227
 20
163.9498660474783
 30
0.0
 10
91.92712328029131
 20
163.855716582065
 30
0.0
 10
91.74175643523915
 20
163.7038065670911
 30
0.0
 10
91.60379994107544
 20
163.4824749319023
 30
0.0
 10
91.589742171896
 20
163.3047258902686
 30
0.0
 10
91.58270664663439
 20
163.2157674035644
 30
0.0
  0
SPLINE
  5
1EE
330
1F
100
AcDbEntity
  8
0
  6
Continuous
 62
     7
370
     0
100
AcDbSpline
210
0.0
220
0.0
230
1.0
 70
     8
 71
     3
 72
    12
 73
     8
 74
     0
 42
0.000000001
 43
0.00000001
 40
0.0
 40
0.0
 40
0.0
 40
0.0
 40
0.186354303477291
 40
0.372621284001872
 40
0.5592691146438716
 40
0.7795554621190678
 40
1.0
 40
1.0
 40
1.0
 40
1.0
 10
91.58270664663439
 20
163.2157674035644
 30
0.0
 10
91.58832517311322
 20
163.148773039671
 30
0.0
 10
91.59955959330999
 20
163.014815704482
 30
0.0
 10
91.7020705823491
 20
162.836180022529
 30
0.0
 10
91.8596168459853
 20
162.6921688050121
 30
0.0
 10
92.05374995696238
 20
162.5773238891654
 30
0.0
 10
92.19994582386148
 20
162.5186721772009
 30
0.0
 10
92.27306999416476
 20
162.4893357953643
 30
0.0
  0
SPLINE
  5
1EF
330
1F
100
AcDbEntity
  8
0
  6
Continuous
 62
     7
370
     0
100
AcDbSpline
210
0.0
220
0.0
230
1.0
 70
     8
 71
     3
 72
    11
 73
     7
 74
     0
 42
0.000000001
 43
0.00000001
 40
0.0
 40
0.0
 40
0.0
 40
0.0
 40
0.2808932809683878
 40
0.5615278551441568
 40
0.781563648825789
 40
1.0
 40
1.0
 40
1.0
 40
1.0
 10
92.27306999416476
 20
162.4893357953643
 30
0.0
 10
92.33776935861462
 20
162.4611253901852
 30
0.0
 10
92.46710849845968
 20
162.4047305620201
 30
0.0
 10
92.63115738937559
 20
162.298927275197
 30
0.0
 10
92.76524108036858
 20
162.1677654054951
 30
0.0
 10
92.7859585949867
 20
162.0572454406922
 30
0.0
 10
92.79627956600314
 20
162.0021870336151
 30
0.0
  0
SPLINE
  5
1F0
330
1F
100
AcDbEntity
  8
0
  6
Continuous
 62
     7
370
     0
100
AcDbSpline
210
0.0
220
0.0
230
1.0
 70
     8
 71
     3
 72
    11
 73
     7
 74
     0
 42
0.000000001
 43
0.00000001
 40
0.0
 40
0.0
 40
0.0
 40
0.0
 40
0.2799087118257096
 40
0.5590875927747291
 40
0.7790494677202646
 40
1.0
 40
1.0
 40
1.0
 40
1.0
 10
92.79627956600314
 20
162.0021870336151
 30
0.0
 10
92.78959238599397
 20
161.9394103854174
 30
0.0
 10
92.7762354620547
 20
161.8140207721598
 30
0.0
 10
92.66300599301113
 20
161.6675974572854
 30
0.0
 10
92.51013571848029
 20
161.605565819708
 30
0.0
 10
92.41169561860993
 20
161.6009379888971
 30
0.0
 10
92.36236520261889
 20
161.5986188850021
 30
0.0
  0
SPLINE
  5
1F1
330
1F
100
AcDbEntity
  8
0
  6
Continuous
 62
     7
370
     0
100
AcDbSpline
210
0.0
220
0.0
230
1.0
 70
     8
 71
     3
 72
    11
 73
     7
 74
     0
 42
0.000000001
 43
0.00000001
 40
0.0
 40
0.0
 40
0.0
 40
0.0
 40
0.2793438279690567
 40
0.5587623778944246
 40
0.7790422424589406
 40
1.0
 40
1.0
 40
1.0
 40
1.0
 10
92.36236520261889
 20
161.5986188850021
 30
0.0
 10
92.30204565908409
 20
161.6077361483873
 30
0.0
 10
92.18139043708027
 20
161.6259731139436
 30
0.0
 10
92.04595625079993
 20
161.7417937675931
 30
0.0
 10
91.98698273186882
 20
161.889461606317
 30
0.0
 10
91.98269827099148
 20
161.9847889154484
 30
0.0
 10
91.98055274934893
 20
162.0325257978057
 30
0.0
  0
LINE
  5
1F2
330
1F
100
AcDbEntity
  8
0
  6
Continuous
 62
     7
370
     0
100
AcDbLine
 10
91.9805527493
 20
162.0325257978
 30
0.0
 11
91.9805527493
 21
162.1601840458
 31
0.0
  0
LINE
  5
1F3
330
1F
100
AcDbEntity
  8
0
  6
Continuous
 62
     7
370
     0
100
AcDbLine
 10
91.9805527493
 20
162.1601840458
 30
0.0
 11
91.5220291183
 21
162.1601840458
 31
0.0
  0
LINE
  5
1F4
330
1F
100
AcDbEntity
  8
0
  6
Continuous
 62
     7
370
     0
100
AcDbLine
 10
91.5220291183
 20
162.1601840458
 30
0.0
 11
91.5220291183
 21
162.0170732936
 31
0.0
  0
SPLINE
  5
1F5
330
1F
100
AcDbEntity
  8
0
  6
Continuous
 62
     7
370
     0
100
AcDbSpline
210
0.0
220
0.0
230
1.0
 70
     8
 71
     3
 72
    12
 73
     8
 74
     0
 42
0.000000001
 43
0.00000001
 40
0.0
 40
0.0
 40
0.0
 40
0.0
 40
0.1868226147800104
 40
0.3734102572049899
 40
0.5600788445719951
 40
0.7797040725414417
 40
0.9999999999999999
 40
0.9999999999999999
 40
0.9999999999999999
 40
0.9999999999999999
 10
91.52202911825304
 20
162.0170732936477
 30
0.0
 10
91.52762342725599
 20
161.9365726742185
 30
0.0
 10
91.53880500913314
 20
161.7756726833816
 30
0.0
 10
91.64832199181228
 20
161.5554030250543
 30
0.0
 10
91.82673728809375
 20
161.3694995045313
 30
0.0
 10
92.07832462246559
 20
161.2535287767413
 30
0.0
 10
92.26758882578362
 20
161.2427915406509
 30
0.0
 10
92.36236520261889
 20
161.2374147376632
 30
0.0
  0
SPLINE
  5
1F6
330
1F
100
AcDbEntity
  8
0
  6
Continuous
 62
     7
370
     0
100
AcDbSpline
210
0.0
220
0.0
230
1.0
 70
     8
 71
     3
 72
    12
 73
     8
 74
     0
 42
0.000000001
 43
0.00000001
 40
0.0
 40
0.0
 40
0.0
 40
0.0
 40
0.1871792026801584
 40
0.3740256401480481
 40
0.5606741342450493
 40
0.780126549836188
 40
1.0
 40
1.0
 40
1.0
 40
1.0
 10
92.36236520261888
 20
161.2374147376632
 30
0.0
 10
92.44632846249769
 20
161.2411200339186
 30
0.0
 10
92.61410571325753
 20
161.2485240391927
 30
0.0
 10
92.85668585272985
 20
161.3289258296542
 30
0.0
 10
93.07286243425065
 20
161.4892824604488
 30
0.0
 10
93.23094021654987
 20
161.7346621887944
 30
0.0
 10
93.24684378977285
 20
161.933174512375
 30
0.0
 10
93.25480319709902
 20
162.0325257978057
 30
0.0
  0
SPLINE
  5
1F7
330
1F
100
AcDbEntity
  8
0
  6
Continuous
 62
     7
370
     0
100
AcDbSpline
210
0.0
220
0.0
230
1.0
 70
     8
 71
     3
 72
    12
 73
     8
 74
     0
 42
0.000000001
 43
0.00000001
 40
0.0
 40
0.0
 40
0.0
 40
0.0
 40
0.1861710655718904
 40
0.3725140307535284
 40
0.5592959313775703
 40
0.7795839777360584
 40
1.0
 40
1.0
 40
1.0
 40
1.0
 10
93.25480319709902
 20
162.0325257978057
 30
0.0
 10
93.24745544367964
 20
162.1045135547254
 30
0.0
 10
93.23275315234972
 20
162.2485555379019
 30
0.0
 10
93.11342877430202
 20
162.4348098584048
 30
0.0
 10
92.94688889609392
 20
162.5909962762825
 30
0.0
 10
92.74309985857398
 20
162.7224936853004
 30
0.0
 10
92.58813612381192
 20
162.7906851185112
 30
0.0
 10
92.51063175649766
 20
162.8247907361603
 30
0.0
  0
ARC
  5
1F8
330
1F
100
AcDbEntity
  8
0
  6
Continuous
 62
     7
370
     0
100
AcDbCircle
 10
122.9637908302
 20
173.9916172855
 30
0.0
 40
0.5
100
AcDbArc
 50
0.0
 51
90.0
  0
ARC
  5
1F9
330
1F
100
AcDbEntity
  8
0
  6
Continuous
 62
     7
370
     0
100
AcDbCircle
 10
70.5637908302
 20
173.9916172855
 30
0.0
 40
0.5
100
AcDbArc
 50
90.0
 51
180.0
  0
LINE
  5
1FA
330
1F
100
AcDbEntity
  8
0
  6
Continuous
 62
     7
370
     0
100
AcDbLine
 10
88.5659442112
 20
162.4332478246
 30
0.0
 11
88.9718071386
 21
162.4332478246
 31
0.0
  0
LINE
  5
1FB
330
1F
100
AcDbEntity
  8
0
  6
Continuous
 62
     7
370
     0
100
AcDbLine
 10
88.7678772971
 20
163.1733437976
 30
0.0
 11
88.5659442112
 21
162.4332478246
 31
0.0
  0
LINE
  5
1FC
330
1F
100
AcDbEntity
  8
0
  6
Continuous
 62
     7
370
     0
100
AcDbLine
 10
88.9718071386
 20
162.4332478246
 30
0.0
 11
88.7678772971
 21
163.1733437976
 31
0.0
  0
LINE
  5
1FD
330
1F
100
AcDbEntity
  8
0
  6
Continuous
 62
     7
370
     0
100
AcDbLine
 10
90.1973978445
 20
163.5735442838
 30
0.0
 11
90.1973978445
 21
162.8425380191
 31
0.0
  0
LINE
  5
1FE
330
1F
100
AcDbEntity
  8
0
  6
Continuous
 62
     7
370
     0
100
AcDbLine
 10
90.5792177484
 20
163.5735442838
 30
0.0
 11
90.1973978445
 21
163.5735442838
 31
0.0
  0
SPLINE
  5
1FF
330
1F
100
AcDbEntity
  8
0
  6
Continuous
 62
     7
370
     0
100
AcDbSpline
210
0.0
220
0.0
230
1.0
 70
     8
 71
     3
 72
    11
 73
     7
 74
     0
 42
0.000000001
 43
0.00000001
 40
0.0
 40
0.0
 40
0.0
 40
0.0
 40
0.2804316653942722
 40
0.5581346193190224
 40
0.7788642398100406
 40
1.0
 40
1.0
 40
1.0
 40
1.0
 10
90.93699462862139
 20
163.2306536635971
 30
0.0
 10
90.93388494711628
 20
163.2839520190549
 30
0.0
 10
90.92769584254198
 20
163.3900301158062
 30
0.0
 10
90.82891067799194
 20
163.5099406890317
 30
0.0
 10
90.70333010131543
 20
163.5654015484745
 30
0.0
 10
90.62061387549552
 20
163.5708283760246
 30
0.0
 10
90.57921774835711
 20
163.5735442838287
 30
0.0
  0
SPLINE
  5
200
330
1F
100
AcDbEntity
  8
0
  6
Continuous
 62
     7
370
     0
100
AcDbSpline
210
0.0
220
0.0
230
1.0
 70
     8
 71
     3
 72
    11
 73
     7
 74
     0
 42
0.000000001
 43
0.00000001
 40
0.0
 40
0.0
 40
0.0
 40
0.0
 40
0.2802439354998215
 40
0.5591374423542652
 40
0.7790509545920221
 40
1.0
 40
1.0
 40
1.0
 40
1.0
 10
90.56433148832446
 20
162.8425380191421
 30
0.0
 10
90.62143348662529
 20
162.8482320057649
 30
0.0
 10
90.7353623223245
 20
162.8595925410478
 30
0.0
 10
90.87363251340916
 20
162.9563046153365
 30
0.0
 10
90.93109658928344
 20
163.09606406176
 30
0.0
 10
90.93502553929827
 20
163.1857202657683
 30
0.0
 10
90.93699462862139
 20
163.2306536635971
 30
0.0
  0
LINE
  5
201
330
1F
100
AcDbEntity
  8
0
  6
Continuous
 62
     7
370
     0
100
AcDbLine
 10
90.1973978445
 20
162.8425380191
 30
0.0
 11
90.5643314883
 21
162.8425380191
 31
0.0
  0
LINE
  5
202
330
1F
100
AcDbEntity
  8
0
  6
Continuous
 62
     7
370
     0
100
AcDbLine
 10
90.1973978445
 20
162.4813189706
 30
0.0
 11
90.1973978445
 21
161.6289576492
 31
0.0
  0
LINE
  5
203
330
1F
100
AcDbEntity
  8
0
  6
Continuous
 62
     7
370
     0
100
AcDbLine
 10
90.51854022
 20
162.4813189706
 30
0.0
 11
90.1973978445
 21
162.4813189706
 31
0.0
  0
SPLINE
  5
204
330
1F
100
AcDbEntity
  8
0
  6
Continuous
 62
     7
370
     0
100
AcDbSpline
210
0.0
220
0.0
230
1.0
 70
     8
 71
     3
 72
    12
 73
     8
 74
     0
 42
0.000000001
 43
0.00000001
 40
0.0
 40
0.0
 40
0.0
 40
0.0
 40
0.1868924456868204
 40
0.3730002876788375
 40
0.5592280239885635
 40
0.7795626165502119
 40
1.0
 40
1.0
 40
1.0
 40
1.0
 10
90.99767215700273
 20
162.0777508220291
 30
0.0
 10
90.99531736308515
 20
162.1219951855799
 30
0.0
 10
90.99061766104286
 20
162.2102981679289
 30
0.0
 10
90.93200996001352
 20
162.3349846767105
 30
0.0
 10
90.81532470053352
 20
162.4184361043115
 30
0.0
 10
90.67512238060232
 20
162.471484403035
 30
0.0
 10
90.57074238754875
 20
162.478040271816
 30
0.0
 10
90.51854021997575
 20
162.4813189706421
 30
0.0
  0
SPLINE
  5
205
330
1F
100
AcDbEntity
  8
0
  6
Continuous
 62
     7
370
     0
100
AcDbSpline
210
0.0
220
0.0
230
1.0
 70
     8
 71
     3
 72
    12
 73
     8
 74
     0
 42
0.000000001
 43
0.00000001
 40
0.0
 40
0.0
 40
0.0
 40
0.0
 40
0.1874505334048296
 40
0.3746252170658759
 40
0.5609197397082757
 40
0.7794748298667231
 40
1.0
 40
1.0
 40
1.0
 40
1.0
 10
90.47331519575243
 20
161.6289576491928
 30
0.0
 10
90.52319298709482
 20
161.6305525538036
 30
0.0
 10
90.62287517027667
 20
161.6337400159846
 30
0.0
 10
90.7689438939856
 20
161.666396517351
 30
0.0
 10
90.91232712328528
 20
161.7439426281663
 30
0.0
 10
90.99054631341588
 20
161.9021760827818
 30
0.0
 10
90.99528978142354
 20
162.0190511093559
 30
0.0
 10
90.99767215700274
 20
162.0777508220291
 30
0.0
  0
LINE
  5
206
330
1F
100
AcDbEntity
  8
0
  6
Continuous
 62
     7
370
     0
100
AcDbLine
 10
90.1973978445
 20
161.6289576492
 30
0.0
 11
90.4733151958
 21
161.6289576492
 31
0.0
  0
SPLINE
  5
207
330
1F
100
AcDbEntity
  8
0
  6
Continuous
 62
     7
370
     0
100
AcDbSpline
210
0.0
220
0.0
230
1.0
 70
     8
 71
     3
 72
    12
 73
     8
 74
     0
 42
0.000000001
 43
0.00000001
 40
0.0
 40
0.0
 40
0.0
 40
0.0
 40
0.1865740405966279
 40
0.3728027273797102
 40
0.559019874704322
 40
0.7792805147600306
 40
1.0
 40
1.0
 40
1.0
 40
1.0
 10
81.85294874162798
 20
163.2697990140533
 30
0.0
 10
81.78724539585754
 20
163.2644564757413
 30
0.0
 10
81.65596032306355
 20
163.2537812883066
 30
0.0
 10
81.48357121746278
 20
163.1460275633689
 30
0.0
 10
81.36365417460837
 20
162.9714865129022
 30
0.0
 10
81.31254457022406
 20
162.7545401665681
 30
0.0
 10
81.30769254795656
 20
162.6005596329425
 30
0.0
 10
81.30526401252871
 20
162.5234892568206
 30
0.0
  0
SPLINE
  5
208
330
1F
100
AcDbEntity
  8
0
  6
Continuous
 62
     7
370
     0
100
AcDbSpline
210
0.0
220
0.0
230
1.0
 70
     8
 71
     3
 72
    12
 73
     8
 74
     0
 42
0.000000001
 43
0.00000001
 40
0.0
 40
0.0
 40
0.0
 40
0.0
 40
0.1874506788556654
 40
0.3747675195324311
 40
0.5613820665317223
 40
0.7803359329246036
 40
1.0
 40
1.0
 40
1.0
 40
1.0
 10
81.30526401252871
 20
162.5234892568206
 30
0.0
 10
81.30701794010352
 20
162.4577230962487
 30
0.0
 10
81.31052454296376
 20
162.3262377315804
 30
0.0
 10
81.34806519648147
 20
162.1314634168302
 30
0.0
 10
81.44180367935805
 20
161.9416480630452
 30
0.0
 10
81.62714361289429
 20
161.8013565646645
 30
0.0
 10
81.78264792928489
 20
161.7874216118726
 30
0.0
 10
81.86052598209504
 20
161.7804428538894
 30
0.0
  0
SPLINE
  5
209
330
1F
100
AcDbEntity
  8
0
  6
Continuous
 62
     7
370
     0
100
AcDbSpline
210
0.0
220
0.0
230
1.0
 70
     8
 71
     3
 72
    13
 73
     9
 74
     0
 42
0.000000001
 43
0.00000001
 40
0.0
 40
0.0
 40
0.0
 40
0.0
 40
0.1251693549433218
 40
0.2501741458743388
 40
0.3750918330488227
 40
0.49993350889559
 40
0.7495383589494078
 40
1.0
 40
1.0
 40
1.0
 40
1.0
 10
81.86052598209506
 20
161.7804428538894
 30
0.0
 10
81.90615390112701
 20
161.7827375986884
 30
0.0
 10
81.99734975075822
 20
161.7873240713146
 30
0.0
 10
82.12889520373277
 20
161.8309719385805
 30
0.0
 10
82.24192628339378
 20
161.9109664374918
 30
0.0
 10
82.35223651341536
 20
162.0591971006422
 30
0.0
 10
82.40513330752108
 20
162.2868578146363
 30
0.0
 10
82.41079272583663
 20
162.4683205283825
 30
0.0
 10
82.41362728328829
 20
162.5592073402023
 30
0.0
  0
SPLINE
  5
20A
330
1F
100
AcDbEntity
  8
0
  6
Continuous
 62
     7
370
     0
100
AcDbSpline
210
0.0
220
0.0
230
1.0
 70
     8
 71
     3
 72
    12
 73
     8
 74
     0
 42
0.000000001
 43
0.00000001
 40
0.0
 40
0.0
 40
0.0
 40
0.0
 40
0.1874140259536923
 40
0.3746168666508226
 40
0.5611280313350596
 40
0.7802185508255122
 40
1.0
 40
1.0
 40
1.0
 40
1.0
 10
82.41362728328829
 20
162.5592073402023
 30
0.0
 10
82.41180644211927
 20
162.6233452218534
 30
0.0
 10
82.40816681157433
 20
162.7515487121496
 30
0.0
 10
82.36566848168626
 20
162.9406683972322
 30
0.0
 10
82.26481463618167
 20
163.1208648876623
 30
0.0
 10
82.08036811543505
 20
163.2505942292645
 30
0.0
 10
81.92883472079686
 20
163.2633907038287
 30
0.0
 10
81.85294874162798
 20
163.2697990140533
 30
0.0
  0
LINE
  5
20B
330
1F
100
AcDbEntity
  8
0
  6
Continuous
 62
     7
370
     0
100
AcDbLine
 10
84.2355028555
 20
162.7848854265
 30
0.0
 11
84.5878184602
 21
162.7848854265
 31
0.0
  0
SPLINE
  5
20C
330
1F
100
AcDbEntity
  8
0
  6
Continuous
 62
     7
370
     0
100
AcDbSpline
210
0.0
220
0.0
230
1.0
 70
     8
 71
     3
 72
     9
 73
     5
 74
     0
 42
0.000000001
 43
0.00000001
 40
0.0
 40
0.0
 40
0.0
 40
0.0
 40
0.5598131118169611
 40
1.0
 40
1.0
 40
1.0
 40
1.0
 10
84.58781846017962
 20
162.7848854264831
 30
0.0
 10
84.62946249663834
 20
162.7892412703166
 30
0.0
 10
84.70385167327547
 20
162.7970221595841
 30
0.0
 10
84.7769783533767
 20
162.8126510108529
 30
0.0
 10
84.80916775913363
 20
162.8195306262588
 30
0.0
  0
SPLINE
  5
20D
330
1F
100
AcDbEntity
  8
0
  6
Continuous
 62
     7
370
     0
100
AcDbSpline
210
0.0
220
0.0
230
1.0
 70
     8
 71
     3
 72
    12
 73
     8
 74
     0
 42
0.000000001
 43
0.00000001
 40
0.0
 40
0.0
 40
0.0
 40
0.0
 40
0.248537101468735
 40
0.3738838645982758
 40
0.4988884141277233
 40
0.7491333811443502
 40
1.0
 40
1.0
 40
1.0
 40
1.0
 10
84.99750353546266
 20
163.0479058227157
 30
0.0
 10
84.99257101809506
 20
163.0934237960425
 30
0.0
 10
84.98515084362333
 20
163.1618982237057
 30
0.0
 10
84.92613834088812
 20
163.2324790633045
 30
0.0
 10
84.84908949291719
 20
163.2801538228445
 30
0.0
 10
84.73654256573711
 20
163.3009176785583
 30
0.0
 10
84.64717051110613
 20
163.3032578002886
 30
0.0
 10
84.60242904873019
 20
163.3044293126678
 30
0.0
  0
LINE
  5
20E
330
1F
100
AcDbEntity
  8
0
  6
Continuous
 62
     7
370
     0
100
AcDbLine
 10
84.6024290487
 20
163.3044293127
 30
0.0
 11
84.2355028555
 21
163.3044293127
 31
0.0
  0
LINE
  5
20F
330
1F
100
AcDbEntity
  8
0
  6
Continuous
 62
     7
370
     0
100
AcDbLine
 10
84.2355028555
 20
163.3044293127
 30
0.0
 11
84.2355028555
 21
162.7848854265
 31
0.0
  0
SPLINE
  5
210
330
1F
100
AcDbEntity
  8
0
  6
Continuous
 62
     7
370
     0
100
AcDbSpline
210
0.0
220
0.0
230
1.0
 70
     8
 71
     3
 72
    11
 73
     7
 74
     0
 42
0.000000001
 43
0.00000001
 40
0.0
 40
0.0
 40
0.0
 40
0.0
 40
0.2797191940267933
 40
0.5592882981145796
 40
0.779656723541546
 40
1.0
 40
1.0
 40
1.0
 40
1.0
 10
84.80916775913363
 20
162.8195306262588
 30
0.0
 10
84.83819250362191
 20
162.8281818481043
 30
0.0
 10
84.89622641868644
 20
162.845479649778
 30
0.0
 10
84.9559124667989
 20
162.9075679013865
 30
0.0
 10
84.99206964183355
 20
162.9769101373489
 30
0.0
 10
84.99569230649476
 20
163.0242414945726
 30
0.0
 10
84.99750353546267
 20
163.0479058227157
 30
0.0
  0
LINE
  5
211
330
1F
100
AcDbEntity
  8
0
  6
Continuous
 62
     7
370
     0
100
AcDbLine
 10
70.2637941405
 20
153.6916157207
 30
0.0
 11
70.2637941405
 21
152.6916136942
 31
0.0
  0
LINE
  5
212
330
1F
100
AcDbEntity
  8
0
  6
Continuous
 62
     7
370
     0
100
AcDbLine
 10
70.2637941405
 20
152.6916136942
 30
0.0
 11
70.063790755
 21
152.8916170797
 31
0.0
  0
LINE
  5
213
330
1F
100
AcDbEntity
  8
0
  6
Continuous
 62
     7
370
     0
100
AcDbLine
 10
70.063790755
 20
152.8916170797
 30
0.0
 11
70.063790755
 21
153.6916157207
 31
0.0
  0
LINE
  5
214
330
1F
100
AcDbEntity
  8
0
  6
Continuous
 62
     7
370
     0
100
AcDbLine
 10
123.2637897894
 20
152.6916136942
 30
0.0
 11
123.2637897894
 21
153.6916157207
 31
0.0
  0
LINE
  5
215
330
1F
100
AcDbEntity
  8
0
  6
Continuous
 62
     7
370
     0
100
AcDbLine
 10
123.4637931749
 20
153.6916157207
 30
0.0
 11
123.4637931749
 21
152.8916170797
 31
0.0
  0
LINE
  5
216
330
1F
100
AcDbEntity
  8
0
  6
Continuous
 62
     7
370
     0
100
AcDbLine
 10
123.2637897894
 20
152.6916136942
 30
0.0
 11
123.4637931749
 21
152.8916170797
 31
0.0
  0
LINE
  5
217
330
1F
100
AcDbEntity
  8
0
  6
Continuous
 62
     7
370
     0
100
AcDbLine
 10
70.2637941405
 20
152.6916136942
 30
0.0
 11
123.2637897894
 21
152.6916136942
 31
0.0
  0
LWPOLYLINE
  5
218
330
1F
100
AcDbEntity
  8
0
  6
Continuous
 62
     7
370
     0
100
AcDbPolyline
 90
       20
 70
   128
 43
0.0
 10
22.7897078559
 20
167.8903212747
 10
22.7899760768
 20
167.7766701183
 10
22.7907509372
 20
167.6753422222
 10
22.7919430301
 20
167.597304841
 10
22.7934331462
 20
167.5510218343
 10
22.7950573728
 20
167.5415148935
 10
22.7966219947
 20
167.5697972974
 10
22.7979929015
 20
167.6328143081
 10
22.7989912793
 20
167.7237411937
 10
22.79951282
 20
167.8327133855
 10
22.79951282
 20
167.9479291639
 10
22.7989912793
 20
168.0569013557
 10
22.7979929015
 20
168.1478133401
 10
22.7966219947
 20
168.210845252
 10
22.7950573728
 20
168.2391276559
 10
22.7934331462
 20
168.2296058139
 10
22.7919430301
 20
168.1833228073
 10
22.7907509372
 20
168.1052854261
 10
22.7899760768
 20
168.00395753
 10
22.7897078559
 20
167.8903212747
  0
LINE
  5
219
330
1F
100
AcDbEntity
  8
0
  6
Continuous
 62
     7
370
     0
100
AcDbLine
 10
75.2613828346
 20
174.9890109501
 30
0.0
 11
75.4794836804
 21
174.4916101894
 31
0.0
  0
LINE
  5
21A
330
1F
100
AcDbEntity
  8
0
  6
Continuous
 62
     7
370
     0
100
AcDbLine
 10
75.877314882
 20
174.4916101894
 30
0.0
 11
75.5942002699
 21
174.9890109501
 31
0.0
  0
LINE
  5
21B
330
1F
100
AcDbEntity
  8
0
  6
Continuous
 62
     7
370
     0
100
AcDbLine
 10
100.6705597803
 20
174.4916101894
 30
0.0
 11
100.8898378179
 21
174.9890109501
 31
0.0
  0
LINE
  5
21C
330
1F
100
AcDbEntity
  8
0
  6
Continuous
 62
     7
370
     0
100
AcDbLine
 10
117.6502690479
 20
174.4916101894
 30
0.0
 11
117.93338366
 21
174.9890109501
 31
0.0
  0
LINE
  5
21D
330
1F
100
AcDbEntity
  8
0
  6
Continuous
 62
     7
370
     0
100
AcDbLine
 10
118.2662010953
 20
174.9890109501
 30
0.0
 11
118.0481002495
 21
174.4916101894
 31
0.0
  0
LINE
  5
21E
330
1F
100
AcDbEntity
  8
0
  6
Continuous
 62
     7
370
     0
100
AcDbLine
 10
92.6377461121
 20
174.9890109501
 30
0.0
 11
100.8898378179
 21
174.9890109501
 31
0.0
  0
LINE
  5
21F
330
1F
100
AcDbEntity
  8
0
  6
Continuous
 62
     7
370
     0
100
AcDbLine
 10
70.0937867925
 20
174.9890109501
 30
0.0
 11
75.2613828346
 21
174.9890109501
 31
0.0
  0
LINE
  5
220
330
1F
100
AcDbEntity
  8
0
  6
Continuous
 62
     7
370
     0
100
AcDbLine
 10
101.2229458258
 20
174.9890109501
 30
0.0
 11
117.93338366
 21
174.9890109501
 31
0.0
  0
LINE
  5
221
330
1F
100
AcDbEntity
  8
0
  6
Continuous
 62
     7
370
     0
100
AcDbLine
 10
75.5942002699
 20
174.9890109501
 30
0.0
 11
92.3046381042
 21
174.9890109501
 31
0.0
  0
LINE
  5
222
330
1F
100
AcDbEntity
  8
0
  6
Continuous
 62
     7
370
     0
100
AcDbLine
 10
92.3046381042
 20
174.9890109501
 30
0.0
 11
92.5239161417
 21
174.4916101894
 31
0.0
  0
LINE
  5
223
330
1F
100
AcDbEntity
  8
0
  6
Continuous
 62
     7
370
     0
100
AcDbLine
 10
92.8570241496
 20
174.4916101894
 30
0.0
 11
92.6377461121
 21
174.9890109501
 31
0.0
  0
LINE
  5
224
330
1F
100
AcDbEntity
  8
0
  6
Continuous
 62
     7
370
     0
100
AcDbLine
 10
123.4337896869
 20
174.9890109501
 30
0.0
 11
123.4337896869
 21
174.16220512
 31
0.0
  0
LINE
  5
225
330
1F
100
AcDbEntity
  8
0
  6
Continuous
 62
     7
370
     0
100
AcDbLine
 10
101.2229458258
 20
174.9890109501
 30
0.0
 11
101.0036603376
 21
174.4916101894
 31
0.0
  0
LINE
  5
226
330
1F
100
AcDbEntity
  8
0
  6
Continuous
 62
     7
370
     0
100
AcDbLine
 10
70.0937867925
 20
174.16220512
 30
0.0
 11
70.0937867925
 21
174.9890109501
 31
0.0
  0
LINE
  5
227
330
1F
100
AcDbEntity
  8
0
  6
Continuous
 62
     7
370
     0
100
AcDbLine
 10
118.2662010953
 20
174.9890109501
 30
0.0
 11
123.4337896869
 21
174.9890109501
 31
0.0
  0
DIMENSION
  5
228
330
1F
100
AcDbEntity
  8
0
  6
Continuous
 62
     7
370
     0
100
AcDbDimension
  2
_D_4
 10
95.5507582724
 20
173.5456610959
 30
0.0
 11
133.4638939078
 21
189.8257725493
 31
0.0
 70
   163
  1
<>
 71
     1
 42
-1.0
  3
SLDDIMSTYLE4
100
AcDbDiametricDimension
 15
97.976823388
 25
175.5953401085
 35
0.0
 40
0.0
  0
DIMENSION
  5
239
330
1F
100
AcDbEntity
  8
0
  6
Continuous
 62
     7
370
     0
100
AcDbDimension
  2
_D_5
 10
123.4637908302
 20
142.6916172855
 30
0.0
 11
95.8710844407
 21
142.6916172855
 31
0.0
 70
   160
  1
<>
 71
     2
 42
-1.0
  3
SLDDIMSTYLE5
100
AcDbAlignedDimension
 13
70.0637908302
 23
153.6916172855
 33
0.0
 14
123.4637908302
 24
153.6916172855
 34
0.0
100
AcDbRotatedDimension
  0
DIMENSION
  5
24E
330
1F
100
AcDbEntity
  8
0
  6
Continuous
 62
     7
370
     0
100
AcDbDimension
  2
_D_6
 10
133.4638939078
 20
152.6916172855
 30
0.0
 11
133.4638939078
 21
163.8603049014
 31
0.0
 70
   160
  1
<>
 71
     2
 42
-1.0
  3
SLDDIMSTYLE5
100
AcDbAlignedDimension
 13
123.4337908302
 23
174.9890172855
 33
0.0
 14
123.2637908302
 24
152.6916172855
 34
0.0
 50
90.0
100
AcDbRotatedDimension
  0
SPLINE
  5
262
330
1F
100
AcDbEntity
  8
0
  6
Continuous
 62
     7
370
     0
100
AcDbSpline
210
0.0
220
0.0
230
1.0
 70
    24
 71
     3
 72
    12
 73
     8
 74
     0
 42
0.000000001
 43
0.00000001
 40
0.0
 40
0.0
 40
0.0
 40
0.0
 40
0.2246734522762937
 40
0.4507761731209572
 40
0.6761331502869252
 40
0.9011568907424728
 40
1.0
 40
1.0
 40
1.0
 40
1.0
 10
212.4011466032912
 20
70.42720035954835
 30
0.0
 10
212.4011466032912
 20
70.44432924012435
 30
0.0
 10
212.4011466032912
 20
70.47869596729072
 30
0.0
 10
212.4011466032912
 20
70.59722828726318
 30
0.0
 10
212.4011466032912
 20
70.78079241977632
 30
0.0
 10
212.4011466032912
 20
70.97379041375943
 30
0.0
 10
212.4011466032912
 20
71.13483526748955
 30
0.0
 10
212.4011466032912
 20
71.18398563310029
 30
0.0
  0
SPLINE
  5
263
330
1F
100
AcDbEntity
  8
0
  6
Continuous
 62
     7
370
     0
100
AcDbSpline
210
0.0
220
0.0
230
1.0
 70
    24
 71
     3
 72
    12
 73
     8
 74
     0
 42
0.000000001
 43
0.00000001
 40
0.0
 40
0.0
 40
0.0
 40
0.0
 40
0.1592646119695705
 40
0.3284983549764203
 40
0.5526480263485801
 40
0.7729772072455925
 40
1.0
 40
1.0
 40
1.0
 40
1.0
 10
211.701149655049
 20
71.18398563310029
 30
0.0
 10
211.701149655049
 20
71.11073914926517
 30
0.0
 10
211.7011496550489
 20
70.95966133511621
 30
0.0
 10
211.7011496550491
 20
70.76335033937649
 30
0.0
 10
211.701149655049
 20
70.59914123441145
 30
0.0
 10
211.701149655049
 20
70.47770217055297
 30
0.0
 10
211.7011496550491
 20
70.44420138441544
 30
0.0
 10
211.701149655049
 20
70.42720035954835
 30
0.0
  0
SPLINE
  5
264
330
1F
100
AcDbEntity
  8
0
  6
Continuous
 62
     7
370
     0
100
AcDbSpline
210
0.0
220
0.0
230
1.0
 70
    24
 71
     3
 72
    12
 73
     8
 74
     0
 42
0.000000001
 43
0.00000001
 40
0.0
 40
0.0
 40
0.0
 40
0.0
 40
0.2270225281473058
 40
0.447351452238976
 40
0.6715008623528096
 40
0.8407344081087591
 40
1.0
 40
1.0
 40
1.0
 40
1.0
 10
211.701149655049
 20
78.10028509541871
 30
0.0
 10
211.7011496550491
 20
78.08328403494781
 30
0.0
 10
211.7011496550491
 20
78.04978317865256
 30
0.0
 10
211.7011496550489
 20
77.92834463203376
 30
0.0
 10
211.7011496550491
 20
77.76413370416586
 30
0.0
 10
211.701149655049
 20
77.56782746594922
 30
0.0
 10
211.7011496550491
 20
77.41673754864455
 30
0.0
 10
211.701149655049
 20
77.34348492070558
 30
0.0
  0
SPLINE
  5
265
330
1F
100
AcDbEntity
  8
0
  6
Continuous
 62
     7
370
     0
100
AcDbSpline
210
0.0
220
0.0
230
1.0
 70
    24
 71
     3
 72
    12
 73
     8
 74
     0
 42
0.000000001
 43
0.00000001
 40
0.0
 40
0.0
 40
0.0
 40
0.0
 40
0.0988442663004723
 40
0.3238677178361504
 40
0.5492244056543885
 40
0.7753268361938225
 40
1.0
 40
1.0
 40
1.0
 40
1.0
 10
212.4011466032912
 20
77.34348492070558
 30
0.0
 10
212.4011466032912
 20
77.39264101652512
 30
0.0
 10
212.4011466032912
 20
77.55370319207317
 30
0.0
 10
212.4011466032912
 20
77.74669001092137
 30
0.0
 10
212.4011466032911
 20
77.9302579778327
 30
0.0
 10
212.4011466032913
 20
78.04878928636032
 30
0.0
 10
212.4011466032913
 20
78.08315614787932
 30
0.0
 10
212.4011466032912
 20
78.10028509541871
 30
0.0
  0
LINE
  5
266
330
1F
100
AcDbEntity
  8
0
  6
Continuous
 62
     7
370
     0
100
AcDbLine
 10
212.4011466033
 20
69.7637410586
 30
0.0
 11
212.4011466033
 21
70.4272003595
 31
0.0
  0
LINE
  5
267
330
1F
100
AcDbEntity
  8
0
  6
Continuous
 62
     7
370
     0
100
AcDbLine
 10
211.701149655
 20
70.4272003595
 30
0.0
 11
211.701149655
 21
69.7637410586
 31
0.0
  0
LINE
  5
268
330
1F
100
AcDbEntity
  8
0
  6
Continuous
 62
     7
370
     0
100
AcDbLine
 10
211.701149655
 20
78.7637443964
 30
0.0
 11
211.701149655
 21
78.100150985
 31
0.0
  0
LINE
  5
269
330
1F
100
AcDbEntity
  8
0
  6
Continuous
 62
     7
370
     0
100
AcDbLine
 10
212.4011466033
 20
78.100150985
 30
0.0
 11
212.4011466033
 21
78.7637443964
 31
0.0
  0
ARC
  5
26A
330
1F
100
AcDbEntity
  8
0
  6
Continuous
 62
     7
370
     0
100
AcDbCircle
 10
218.7313274567
 20
74.263742116
 30
0.0
 40
1.587999999999997
100
AcDbArc
 50
285.2807845462
 51
74.7192154538
  0
LINE
  5
26B
330
1F
100
AcDbEntity
  8
0
  6
Continuous
 62
     7
370
     0
100
AcDbLine
 10
197.0524439341
 20
78.7637443964
 30
0.0
 11
197.0524439341
 21
69.7637410586
 31
0.0
  0
ARC
  5
26C
330
1F
100
AcDbEntity
  8
0
  6
Continuous
 62
     7
370
     0
100
AcDbCircle
 10
197.85244414
 20
78.763742116
 30
0.0
 40
0.7999999999999972
100
AcDbArc
 50
90.0
 51
180.0
  0
LINE
  5
26D
330
1F
100
AcDbEntity
  8
0
  6
Continuous
 62
     7
370
     0
100
AcDbLine
 10
218.1524434812
 20
79.5637430374
 30
0.0
 11
197.8524425752
 21
79.5637430374
 31
0.0
  0
LINE
  5
26E
330
1F
100
AcDbEntity
  8
0
  6
Continuous
 62
     7
370
     0
100
AcDbLine
 10
218.1524434812
 20
79.5637430374
 30
0.0
 11
218.1524434812
 21
78.7637443964
 31
0.0
  0
LINE
  5
26F
330
1F
100
AcDbEntity
  8
0
  6
Continuous
 62
     7
370
     0
100
AcDbLine
 10
201.3524422175
 20
78.7637443964
 30
0.0
 11
201.3524422175
 21
69.7637410586
 31
0.0
  0
LINE
  5
270
330
1F
100
AcDbEntity
  8
0
  6
Continuous
 62
     7
370
     0
100
AcDbLine
 10
218.1524434812
 20
69.7637410586
 30
0.0
 11
218.1524434812
 21
68.9637424175
 31
0.0
  0
LINE
  5
271
330
1F
100
AcDbEntity
  8
0
  6
Continuous
 62
     7
370
     0
100
AcDbLine
 10
197.8524425752
 20
68.9637424175
 30
0.0
 11
218.1524434812
 21
68.9637424175
 31
0.0
  0
ARC
  5
272
330
1F
100
AcDbEntity
  8
0
  6
Continuous
 62
     7
370
     0
100
AcDbCircle
 10
197.85244414
 20
69.763742116
 30
0.0
 40
0.7999999999999972
100
AcDbArc
 50
180.0
 51
270.0
  0
LINE
  5
273
330
1F
100
AcDbEntity
  8
0
  6
Continuous
 62
     7
370
     0
100
AcDbLine
 10
218.1524434812
 20
78.7637443964
 30
0.0
 11
201.3524422175
 21
78.7637443964
 31
0.0
  0
LINE
  5
274
330
1F
100
AcDbEntity
  8
0
  6
Continuous
 62
     7
370
     0
100
AcDbLine
 10
201.3524422175
 20
69.7637410586
 30
0.0
 11
218.1524434812
 21
69.7637410586
 31
0.0
  0
LINE
  5
275
330
1F
100
AcDbEntity
  8
0
  6
Continuous
 62
     7
370
     0
100
AcDbLine
 10
218.1524434812
 20
79.763746423
 30
0.0
 11
218.4524485595
 21
79.763746423
 31
0.0
  0
LINE
  5
276
330
1F
100
AcDbEntity
  8
0
  6
Continuous
 62
     7
370
     0
100
AcDbLine
 10
218.4524485595
 20
79.763746423
 30
0.0
 11
218.6524370439
 21
79.5637430374
 31
0.0
  0
LINE
  5
277
330
1F
100
AcDbEntity
  8
0
  6
Continuous
 62
     7
370
     0
100
AcDbLine
 10
218.6524370439
 20
79.5637430374
 30
0.0
 11
218.1524434812
 21
79.5637430374
 31
0.0
  0
LINE
  5
278
330
1F
100
AcDbEntity
  8
0
  6
Continuous
 62
     7
370
     0
100
AcDbLine
 10
218.1524434812
 20
79.763746423
 30
0.0
 11
218.1524434812
 21
79.5637430374
 31
0.0
  0
LINE
  5
279
330
1F
100
AcDbEntity
  8
0
  6
Continuous
 62
     7
370
     0
100
AcDbLine
 10
218.6524370439
 20
68.9637424175
 30
0.0
 11
218.6524370439
 21
69.7637410586
 31
0.0
  0
LINE
  5
27A
330
1F
100
AcDbEntity
  8
0
  6
Continuous
 62
     7
370
     0
100
AcDbLine
 10
218.1524434812
 20
68.9637424175
 30
0.0
 11
218.6524370439
 21
68.9637424175
 31
0.0
  0
LINE
  5
27B
330
1F
100
AcDbEntity
  8
0
  6
Continuous
 62
     7
370
     0
100
AcDbLine
 10
218.6524370439
 20
69.7637410586
 30
0.0
 11
218.1524434812
 21
69.7637410586
 31
0.0
  0
LINE
  5
27C
330
1F
100
AcDbEntity
  8
0
  6
Continuous
 62
     7
370
     0
100
AcDbLine
 10
218.6524370439
 20
78.7637443964
 30
0.0
 11
218.6524370439
 21
79.5637430374
 31
0.0
  0
LINE
  5
27D
330
1F
100
AcDbEntity
  8
0
  6
Continuous
 62
     7
370
     0
100
AcDbLine
 10
218.1524434812
 20
78.7637443964
 30
0.0
 11
218.6524370439
 21
78.7637443964
 31
0.0
  0
LINE
  5
27E
330
1F
100
AcDbEntity
  8
0
  6
Continuous
 62
     7
370
     0
100
AcDbLine
 10
218.6524370439
 20
68.9637424175
 30
0.0
 11
218.4524485595
 21
68.763739032
 31
0.0
  0
LINE
  5
27F
330
1F
100
AcDbEntity
  8
0
  6
Continuous
 62
     7
370
     0
100
AcDbLine
 10
218.4524485595
 20
68.763739032
 30
0.0
 11
218.1524434812
 21
68.763739032
 31
0.0
  0
LINE
  5
280
330
1F
100
AcDbEntity
  8
0
  6
Continuous
 62
     7
370
     0
100
AcDbLine
 10
218.1524434812
 20
68.9637424175
 30
0.0
 11
218.1524434812
 21
68.763739032
 31
0.0
  0
LINE
  5
281
330
1F
100
AcDbEntity
  8
0
  6
Continuous
 62
     7
370
     0
100
AcDbLine
 10
197.8524425752
 20
79.763746423
 30
0.0
 11
218.1524434812
 21
79.763746423
 31
0.0
  0
LINE
  5
282
330
1F
100
AcDbEntity
  8
0
  6
Continuous
 62
     7
370
     0
100
AcDbLine
 10
197.8524425752
 20
79.763746423
 30
0.0
 11
197.8524425752
 21
79.5637430374
 31
0.0
  0
LINE
  5
283
330
1F
100
AcDbEntity
  8
0
  6
Continuous
 62
     7
370
     0
100
AcDbLine
 10
218.1524434812
 20
68.763739032
 30
0.0
 11
197.8524425752
 21
68.763739032
 31
0.0
  0
LINE
  5
284
330
1F
100
AcDbEntity
  8
0
  6
Continuous
 62
     7
370
     0
100
AcDbLine
 10
197.8524425752
 20
68.9637424175
 30
0.0
 11
197.8524425752
 21
68.763739032
 31
0.0
  0
ARC
  5
285
330
1F
100
AcDbEntity
  8
0
  6
Continuous
 62
     7
370
     0
100
AcDbCircle
 10
197.85244414
 20
78.763742116
 30
0.0
 40
1.0
100
AcDbArc
 50
90.0
 51
180.0
  0
LINE
  5
286
330
1F
100
AcDbEntity
  8
0
  6
Continuous
 62
     7
370
     0
100
AcDbLine
 10
196.8524405486
 20
78.7637443964
 30
0.0
 11
197.0524439341
 21
78.7637443964
 31
0.0
  0
LINE
  5
287
330
1F
100
AcDbEntity
  8
0
  6
Continuous
 62
     7
370
     0
100
AcDbLine
 10
196.8524405486
 20
69.7637410586
 30
0.0
 11
196.8524405486
 21
78.7637443964
 31
0.0
  0
LINE
  5
288
330
1F
100
AcDbEntity
  8
0
  6
Continuous
 62
     7
370
     0
100
AcDbLine
 10
197.0524439341
 20
69.7637410586
 30
0.0
 11
196.8524405486
 21
69.7637410586
 31
0.0
  0
ARC
  5
289
330
1F
100
AcDbEntity
  8
0
  6
Continuous
 62
     7
370
     0
100
AcDbCircle
 10
197.85244414
 20
69.763742116
 30
0.0
 40
1.0
100
AcDbArc
 50
180.0
 51
270.0
  0
LINE
  5
28A
330
1F
100
AcDbEntity
  8
0
  6
Continuous
 62
     7
370
     0
100
AcDbLine
 10
201.8524506814
 20
77.4637372915
 30
0.0
 11
201.8524506814
 21
77.3434849207
 31
0.0
  0
LINE
  5
28B
330
1F
100
AcDbEntity
  8
0
  6
Continuous
 62
     7
370
     0
100
AcDbLine
 10
201.8524506814
 20
71.1839856331
 30
0.0
 11
201.8524506814
 21
71.0637481634
 31
0.0
  0
LINE
  5
28C
330
1F
100
AcDbEntity
  8
0
  6
Continuous
 62
     7
370
     0
100
AcDbLine
 10
201.8524506814
 20
71.0637481634
 30
0.0
 11
202.3524442441
 21
71.0637481634
 31
0.0
  0
LINE
  5
28D
330
1F
100
AcDbEntity
  8
0
  6
Continuous
 62
     7
370
     0
100
AcDbLine
 10
202.3524442441
 20
71.0637481634
 30
0.0
 11
202.3524442441
 21
69.7637410586
 31
0.0
  0
LINE
  5
28E
330
1F
100
AcDbEntity
  8
0
  6
Continuous
 62
     7
370
     0
100
AcDbLine
 10
202.3524442441
 20
78.7637443964
 30
0.0
 11
202.3524442441
 21
77.4637372915
 31
0.0
  0
LINE
  5
28F
330
1F
100
AcDbEntity
  8
0
  6
Continuous
 62
     7
370
     0
100
AcDbLine
 10
202.3524442441
 20
77.4637372915
 30
0.0
 11
201.8524506814
 21
77.4637372915
 31
0.0
  0
CIRCLE
  5
290
330
1F
100
AcDbEntity
  8
0
  6
Continuous
 62
     7
370
     0
100
AcDbCircle
 10
210.50114414
 20
74.263742116
 30
0.0
 40
1.700000000000013
  0
ELLIPSE
  5
291
330
1F
100
AcDbEntity
  8
0
  6
Continuous
 62
     7
370
     0
100
AcDbEllipse
 10
212.05114414
 20
70.4272001217
 30
0.0
 11
0.3499999999999943
 21
0.0
 31
0.0
210
0.0
220
0.0
230
1.0
 40
0.9997148104
 41
3.141592653589793
 42
6.283185307179586
  0
ARC
  5
292
330
1F
100
AcDbEntity
  8
0
  6
Continuous
 62
     7
370
     0
100
AcDbCircle
 10
212.0511481292
 20
78.1002118207
 30
0.0
 40
0.3499984817913866
100
AcDbArc
 50
0.0119952837
 51
179.9880047163
  0
LINE
  5
293
330
1F
100
AcDbEntity
  8
0
  6
Continuous
 62
     7
370
     0
100
AcDbLine
 10
219.1498378045
 20
71.1839856331
 30
0.0
 11
219.1498378045
 21
77.3434849207
 31
0.0
  0
LINE
  5
294
330
1F
100
AcDbEntity
  8
0
  6
Continuous
 62
     7
370
     0
100
AcDbLine
 10
219.1498378045
 20
71.1839856331
 30
0.0
 11
201.8524506814
 21
71.1839856331
 31
0.0
  0
LINE
  5
295
330
1F
100
AcDbEntity
  8
0
  6
Continuous
 62
     7
370
     0
100
AcDbLine
 10
201.8524506814
 20
71.1839856331
 30
0.0
 11
201.8524506814
 21
77.3434849207
 31
0.0
  0
LINE
  5
296
330
1F
100
AcDbEntity
  8
0
  6
Continuous
 62
     7
370
     0
100
AcDbLine
 10
219.1498378045
 20
77.3434849207
 30
0.0
 11
201.8524506814
 21
77.3434849207
 31
0.0
  0
CIRCLE
  5
297
330
1F
100
AcDbEntity
  8
0
  6
Continuous
 62
     7
370
     0
100
AcDbCircle
 10
210.50114414
 20
74.263742116
 30
0.0
 40
1.727200000000025
  0
DIMENSION
  5
298
330
1F
100
AcDbEntity
  8
0
  6
Continuous
 62
     7
370
     0
100
AcDbDimension
  2
_D_7
 10
248.3193274567
 20
77.343492116
 30
0.0
 11
248.3193274567
 21
92.268550814
 31
0.0
 70
   160
  1
<>
 71
     2
 42
-1.0
  3
SLDDIMSTYLE1
100
AcDbAlignedDimension
 13
219.14984414
 23
71.183992116
 33
0.0
 14
219.14984414
 24
77.343492116
 34
0.0
 50
90.0
100
AcDbRotatedDimension
  0
DIMENSION
  5
2AD
330
1F
100
AcDbEntity
  8
0
  6
Continuous
 62
     7
370
     0
100
AcDbDimension
  2
_D_8
 10
227.6310623881
 20
78.763742116
 30
0.0
 11
227.6310623881
 21
92.268550814
 31
0.0
 70
   160
  1
<>
 71
     2
 42
-1.0
  3
SLDDIMSTYLE0
100
AcDbAlignedDimension
 13
218.15244414
 23
68.763742116
 33
0.0
 14
218.65244414
 24
78.763742116
 34
0.0
 50
90.0
100
AcDbRotatedDimension
  0
INSERT
  5
2C9
330
1F
100
AcDbEntity
  8
0
  6
Continuous
 62
     7
370
     0
100
AcDbBlockReference
  2
SW_CENTERMARKSYMBOL_3
 10
210.50114414
 20
74.263742116
 30
0.0
  0
LINE
  5
2CA
330
1F
100
AcDbEntity
  8
0
  6
Continuous
 62
     7
370
     0
100
AcDbLine
 10
208.9889985199
 20
169.9675637968
 30
0.0
 11
246.4656579228
 21
148.3327488335
 31
0.0
  0
LINE
  5
2CB
330
1F
100
AcDbEntity
  8
0
  6
Continuous
 62
     7
370
     0
100
AcDbLine
 10
261.6077529128
 20
164.9566685546
 30
0.0
 11
261.6077529128
 21
165.6099012041
 31
0.0
  0
LINE
  5
2CC
330
1F
100
AcDbEntity
  8
0
  6
Continuous
 62
     7
370
     0
100
AcDbLine
 10
261.6077529128
 20
156.9545685981
 30
0.0
 11
261.6077529128
 21
157.6078012477
 31
0.0
  0
LINE
  5
2CD
330
1F
100
AcDbEntity
  8
0
  6
Continuous
 62
     7
370
     0
100
AcDbLine
 10
225.5852156242
 20
176.5409689558
 30
0.0
 11
225.5852156242
 21
176.6430365573
 31
0.0
  0
LINE
  5
2CE
330
1F
100
AcDbEntity
  8
0
  6
Continuous
 62
     7
370
     0
100
AcDbLine
 10
226.5998799011
 20
176.8097840669
 30
0.0
 11
226.5998799011
 21
176.9118516684
 31
0.0
  0
LINE
  5
2CF
330
1F
100
AcDbEntity
  8
0
  6
Continuous
 62
     7
370
     0
100
AcDbLine
 10
220.2421085936
 20
177.2745979661
 30
0.0
 11
220.2421085936
 21
177.3766655675
 31
0.0
  0
LINE
  5
2D0
330
1F
100
AcDbEntity
  8
0
  6
Continuous
 62
     7
370
     0
100
AcDbLine
 10
223.2423324782
 20
177.7920733692
 30
0.0
 11
223.2423324782
 21
177.6900057677
 31
0.0
  0
LINE
  5
2D1
330
1F
100
AcDbEntity
  8
0
  6
Continuous
 62
     7
370
     0
100
AcDbLine
 10
224.6266858678
 20
177.8674673132
 30
0.0
 11
224.6266858678
 21
177.9695349147
 31
0.0
  0
LINE
  5
2D2
330
1F
100
AcDbEntity
  8
0
  6
Continuous
 62
     7
370
     0
100
AcDbLine
 10
217.7107713067
 20
178.7085946681
 30
0.0
 11
217.7107713067
 21
178.8106622696
 31
0.0
  0
LINE
  5
2D3
330
1F
100
AcDbEntity
  8
0
  6
Continuous
 62
     7
370
     0
100
AcDbLine
 10
255.0272040358
 20
156.5829399208
 30
0.0
 11
255.1798760624
 21
156.4948042358
 31
0.0
  0
LINE
  5
2D4
330
1F
100
AcDbEntity
  8
0
  6
Continuous
 62
     7
370
     0
100
AcDbLine
 10
256.8797379079
 20
159.4393703679
 30
0.0
 11
256.7270658812
 21
159.5275060529
 31
0.0
  0
LINE
  5
2D5
330
1F
100
AcDbEntity
  8
0
  6
Continuous
 62
     7
370
     0
100
AcDbLine
 10
185.7845490673
 20
203.1239124577
 30
0.0
 11
218.076238442
 21
183.9563523231
 31
0.0
  0
LINE
  5
2D6
330
1F
100
AcDbEntity
  8
0
  6
Continuous
 62
     7
370
     0
100
AcDbLine
 10
218.7714764336
 20
184.3577046727
 30
0.0
 11
186.141848593
 21
203.7258568479
 31
0.0
  0
LINE
  5
2D7
330
1F
100
AcDbEntity
  8
0
  6
Continuous
 62
     7
370
     0
100
AcDbLine
 10
185.791955376
 20
195.6320920129
 30
0.0
 11
212.4223625916
 21
180.692439269
 31
0.0
  0
LINE
  5
2D8
330
1F
100
AcDbEntity
  8
0
  6
Continuous
 62
     7
370
     0
100
AcDbLine
 10
213.1274822689
 20
181.0994961943
 30
0.0
 11
186.1344422844
 21
196.2425858438
 31
0.0
  0
LINE
  5
2D9
330
1F
100
AcDbEntity
  8
0
  6
Continuous
 62
     7
370
     0
100
AcDbLine
 10
227.0561792622
 20
165.0929770552
 30
0.0
 11
226.7899595746
 21
164.9392917008
 31
0.0
  0
LINE
  5
2DA
330
1F
100
AcDbEntity
  8
0
  6
Continuous
 62
     7
370
     0
100
AcDbLine
 10
228.5898132933
 20
161.8215157962
 30
0.0
 11
228.856032981
 21
161.9752011506
 31
0.0
  0
ARC
  5
2DB
330
1F
100
AcDbEntity
  8
0
  6
Continuous
 62
     7
370
     0
100
AcDbCircle
 10
247.7937266093
 20
156.0696000947
 30
0.0
 40
1.536804807571986
100
AcDbArc
 50
122.60547834
 51
177.3945215143
  0
LINE
  5
2DC
330
1F
100
AcDbEntity
  8
0
  6
Continuous
 62
     7
370
     0
100
AcDbLine
 10
246.9656172891
 20
157.3642058147
 30
0.0
 11
247.1070386454
 21
157.1192568412
 31
0.0
  0
ARC
  5
2DD
330
1F
100
AcDbEntity
  8
0
  6
Continuous
 62
     7
370
     0
100
AcDbCircle
 10
247.7695261015
 20
156.0835722651
 30
0.0
 40
1.229443846057839
100
AcDbArc
 50
122.60547834
 51
177.3945215143
  0
LINE
  5
2DE
330
1F
100
AcDbEntity
  8
0
  6
Continuous
 62
     7
370
     0
100
AcDbLine
 10
246.2585105079
 20
156.1394609469
 30
0.0
 11
246.5413532204
 21
156.1394609469
 31
0.0
  0
LINE
  5
2DF
330
1F
100
AcDbEntity
  8
0
  6
Continuous
 62
     7
370
     0
100
AcDbLine
 10
208.781851105
 20
177.7742759102
 30
0.0
 11
246.2585105079
 21
156.1394609469
 31
0.0
  0
ARC
  5
2E0
330
1F
100
AcDbEntity
  8
0
  6
Continuous
 62
     7
370
     0
100
AcDbCircle
 10
210.3170672064
 20
177.704415058
 30
0.0
 40
1.536804807572125
100
AcDbArc
 50
122.60547834
 51
177.3945215143
  0
LINE
  5
2E1
330
1F
100
AcDbEntity
  8
0
  6
Continuous
 62
     7
370
     0
100
AcDbLine
 10
209.4889578862
 20
178.999020778
 30
0.0
 11
246.9656172891
 21
157.3642058147
 31
0.0
  0
LINE
  5
2E2
330
1F
100
AcDbEntity
  8
0
  6
Continuous
 62
     7
370
     0
100
AcDbLine
 10
246.5413532204
 20
156.1394609469
 30
0.0
 11
246.5413532204
 21
148.79059364
 31
0.0
  0
LINE
  5
2E3
330
1F
100
AcDbEntity
  8
0
  6
Continuous
 62
     7
370
     0
100
AcDbLine
 10
261.4613063034
 20
165.4057991762
 30
0.0
 11
247.1070386454
 21
157.1192568412
 31
0.0
  0
LINE
  5
2E4
330
1F
100
AcDbEntity
  8
0
  6
Continuous
 62
     7
370
     0
100
AcDbLine
 10
261.4613063034
 20
165.4057991762
 30
0.0
 11
261.4613063034
 21
164.7525665267
 31
0.0
  0
LINE
  5
2E5
330
1F
100
AcDbEntity
  8
0
  6
Continuous
 62
     7
370
     0
100
AcDbLine
 10
261.4613063034
 20
164.7525665267
 30
0.0
 11
249.5819123795
 21
157.8947383874
 31
0.0
  0
LINE
  5
2E6
330
1F
100
AcDbEntity
  8
0
  6
Continuous
 62
     7
370
     0
100
AcDbLine
 10
249.5819123795
 20
157.8947383874
 30
0.0
 11
249.5819123795
 21
150.5458710804
 31
0.0
  0
LINE
  5
2E7
330
1F
100
AcDbEntity
  8
0
  6
Continuous
 62
     7
370
     0
100
AcDbLine
 10
249.5819123795
 20
150.5458710804
 30
0.0
 11
261.4613063034
 21
157.4036992197
 31
0.0
  0
LINE
  5
2E8
330
1F
100
AcDbEntity
  8
0
  6
Continuous
 62
     7
370
     0
100
AcDbLine
 10
261.4613063034
 20
157.4036992197
 30
0.0
 11
261.4613063034
 21
156.7504665702
 31
0.0
  0
LINE
  5
2E9
330
1F
100
AcDbEntity
  8
0
  6
Continuous
 62
     7
370
     0
100
AcDbLine
 10
247.1070386454
 20
148.4639242352
 30
0.0
 11
261.4613063034
 21
156.7504665702
 31
0.0
  0
ARC
  5
2EA
330
1F
100
AcDbEntity
  8
0
  6
Continuous
 62
     7
370
     0
100
AcDbCircle
 10
246.8862127143
 20
148.7346518825
 30
0.0
 40
0.3493673579427825
100
AcDbArc
 50
170.7859630095
 51
309.2032852357
  0
LINE
  5
2EB
330
1F
100
AcDbEntity
  8
0
  6
Continuous
 62
     7
370
     0
100
AcDbLine
 10
246.2585105079
 20
148.79059364
 30
0.0
 11
246.2585105079
 21
156.1394609469
 31
0.0
  0
LINE
  5
2EC
330
1F
100
AcDbEntity
  8
0
  6
Continuous
 62
     7
370
     0
100
AcDbLine
 10
246.5413532204
 20
148.79059364
 30
0.0
 11
246.2585105079
 21
148.79059364
 31
0.0
  0
LINE
  5
2ED
330
1F
100
AcDbEntity
  8
0
  6
Continuous
 62
     7
370
     0
100
AcDbLine
 10
246.9656172891
 20
157.3642058147
 30
0.0
 11
261.3198849472
 21
165.6507481497
 31
0.0
  0
LINE
  5
2EE
330
1F
100
AcDbEntity
  8
0
  6
Continuous
 62
     7
370
     0
100
AcDbLine
 10
261.3198849472
 20
165.6507481497
 30
0.0
 11
261.4613063034
 21
165.4057991762
 31
0.0
  0
LINE
  5
2EF
330
1F
100
AcDbEntity
  8
0
  6
Continuous
 62
     7
370
     0
100
AcDbLine
 10
246.2585105079
 20
148.79059364
 30
0.0
 11
208.781851105
 21
170.4254086033
 31
0.0
  0
LINE
  5
2F0
330
1F
100
AcDbEntity
  8
0
  6
Continuous
 62
     7
370
     0
100
AcDbLine
 10
208.781851105
 20
177.7742759102
 30
0.0
 11
208.781851105
 21
170.4254086033
 31
0.0
  0
LWPOLYLINE
  5
2F1
330
1F
100
AcDbEntity
  8
0
  6
Continuous
 62
     7
370
     0
100
AcDbPolyline
 90
       33
 70
   128
 43
0.0
 10
212.5118393758
 20
171.9465658618
 10
212.5284832775
 20
172.1320990741
 10
212.5777753668
 20
172.2912857091
 10
212.6578213763
 20
172.418008314
 10
212.7655451828
 20
172.5073970099
 10
212.8968070207
 20
172.5560166394
 10
213.0465625714
 20
172.5619987775
 10
213.2090568129
 20
172.5251135339
 10
213.3780451828
 20
172.4467783879
 10
213.5470335526
 20
172.3300037152
 10
213.7095277941
 20
172.1792771009
 10
213.8592833448
 20
172.0003908844
 10
213.9905451828
 20
171.8002195626
 10
214.0982689892
 20
171.5864556071
 10
214.1783149987
 20
171.3673138469
 10
214.227607088
 20
171.1512157769
 10
214.2442509897
 20
170.9464659248
 10
214.227607088
 20
170.7609327126
 10
214.1783149987
 20
170.6017460775
 10
214.0982689892
 20
170.4750234727
 10
213.9905451828
 20
170.3856347768
 10
213.8592833448
 20
170.3370151473
 10
213.7095277941
 20
170.3310330092
 10
213.5470335526
 20
170.3679182528
 10
213.3780451828
 20
170.4462533988
 10
213.2090568129
 20
170.5630280715
 10
213.0465625714
 20
170.7137546858
 10
212.8968070207
 20
170.8926409023
 10
212.7655451828
 20
171.0928122241
 10
212.6578213763
 20
171.3065761796
 10
212.5777753668
 20
171.5257179398
 10
212.5284832775
 20
171.7418160097
 10
212.5118393758
 20
171.9465658618
  0
LWPOLYLINE
  5
2F2
330
1F
100
AcDbEntity
  8
0
  6
Continuous
 62
     7
370
     0
100
AcDbPolyline
 90
       33
 70
   128
 43
0.0
 10
240.7961106233
 20
155.6184036254
 10
240.812754525
 20
155.8039368376
 10
240.8620466142
 20
155.9631234727
 10
240.9420926237
 20
156.0898460775
 10
241.0498164302
 20
156.1792347734
 10
241.1810782682
 20
156.2278544029
 10
241.3308338189
 20
156.233836541
 10
241.4933280604
 20
156.1969512975
 10
241.6623164302
 20
156.1186161514
 10
241.8313048
 20
156.0018414787
 10
241.9937990416
 20
155.8511148644
 10
242.1435545922
 20
155.6722286479
 10
242.2748164302
 20
155.4720573261
 10
242.3825402367
 20
155.2582933706
 10
242.4625862462
 20
155.0391516104
 10
242.5118783355
 20
154.8230535405
 10
242.5285222372
 20
154.6183036884
 10
242.5118783355
 20
154.4327704762
 10
242.4625862462
 20
154.2735838411
 10
242.3825402367
 20
154.1468612363
 10
242.2748164302
 20
154.0574725404
 10
242.1435545922
 20
154.0088529108
 10
241.9937990416
 20
154.0028707727
 10
241.8313048
 20
154.0397560163
 10
241.6623164302
 20
154.1180911623
 10
241.4933280604
 20
154.2348658351
 10
241.3308338189
 20
154.3855924493
 10
241.1810782682
 20
154.5644786658
 10
241.0498164302
 20
154.7646499877
 10
240.9420926237
 20
154.9784139431
 10
240.8620466142
 20
155.1975557033
 10
240.812754525
 20
155.4136537733
 10
240.7961106233
 20
155.6184036254
  0
LWPOLYLINE
  5
2F3
330
1F
100
AcDbEntity
  8
0
  6
Continuous
 62
     7
370
     0
100
AcDbPolyline
 90
       42
 70
   128
 43
0.0
 10
228.9343943689
 20
162.4660266633
 10
228.9178203852
 20
162.7248833613
 10
228.8684869144
 20
162.9968085919
 10
228.7875502913
 20
163.2754286582
 10
228.6769076015
 20
163.5542129419
 10
228.5391522161
 20
163.8266269757
 10
228.3775130045
 20
164.0862856056
 10
228.1957786528
 20
164.3271026533
 10
227.9982088602
 20
164.5434335714
 10
227.7894344952
 20
164.7302077465
 10
227.5743490519
 20
164.8830473501
 10
227.3579939509
 20
164.9983699517
 10
227.1454403723
 20
165.0734724871
 10
226.9416703919
 20
165.1065946165
 10
226.7514602052
 20
165.0969599853
 10
226.5792681779
 20
165.0447944211
 10
226.4291303452
 20
164.9513206405
 10
226.3045658105
 20
164.8187295897
 10
226.208494261
 20
164.6501290906
 10
226.1431675324
 20
164.4494709959
 10
226.1101168279
 20
164.2214585613
 10
226.1101168279
 20
163.9714362051
 10
226.1431675324
 20
163.7052642393
 10
226.208494261
 20
163.4291815092
 10
226.3045658105
 20
163.1496591601
 10
226.4291303452
 20
162.8732489589
 10
226.5792681779
 20
162.6064297263
 10
226.7514602052
 20
162.3554554792
 10
226.9416703919
 20
162.1262088411
 10
227.1454403723
 20
161.9240631589
 10
227.3579939509
 20
161.7537565561
 10
227.5743490519
 20
161.6192808751
 10
227.7894344952
 20
161.5237881119
 10
227.9982088602
 20
161.4695165359
 10
228.1957786528
 20
161.4577382269
 10
228.3775130045
 20
161.4887292584
 10
228.5391522161
 20
161.561763227
 10
228.6769076015
 20
161.6751282783
 10
228.7875502913
 20
161.8261672315
 10
228.8684869144
 20
162.0113398618
 10
228.9178203852
 20
162.2263058794
 10
228.9343943689
 20
162.4660266633
  0
SPLINE
  5
2F4
330
1F
100
AcDbEntity
  8
0
  6
Continuous
 62
     7
370
     0
100
AcDbSpline
210
0.0
220
0.0
230
1.0
 70
     8
 71
     3
 72
    11
 73
     7
 74
     0
 42
0.000000001
 43
0.00000001
 40
0.0
 40
0.0
 40
0.0
 40
0.0
 40
0.2799471824924136
 40
0.5602109593750929
 40
0.7801642232599095
 40
1.0
 40
1.0
 40
1.0
 40
1.0
 10
224.4143502521984
 20
174.8625530114731
 30
0.0
 10
224.4828556954318
 20
174.8474428387629
 30
0.0
 10
224.6199440552234
 20
174.8172054051337
 30
0.0
 10
224.8232815432053
 20
174.8020328644484
 30
0.0
 10
225.0135177388292
 20
174.8059213754801
 30
0.0
 10
225.1213710308978
 20
174.8299403018184
 30
0.0
 10
225.1752832707349
 20
174.8419465567276
 30
0.0
  0
LINE
  5
2F5
330
1F
100
AcDbEntity
  8
0
  6
Continuous
 62
     7
370
     0
100
AcDbLine
 10
224.1423861056
 20
174.7055514515
 30
0.0
 11
224.4143502522
 21
174.8625530115
 31
0.0
  0
SPLINE
  5
2F6
330
1F
100
AcDbEntity
  8
0
  6
Continuous
 62
     7
370
     0
100
AcDbSpline
210
0.0
220
0.0
230
1.0
 70
     8
 71
     3
 72
     9
 73
     5
 74
     0
 42
0.000000001
 43
0.00000001
 40
0.0
 40
0.0
 40
0.0
 40
0.0
 40
0.5597477606564002
 40
1.0
 40
1.0
 40
1.0
 40
1.0
 10
224.7140774054417
 20
174.6378445287719
 30
0.0
 10
224.6035448569067
 20
174.6403131108426
 30
0.0
 10
224.40607636073
 20
174.6447232795722
 30
0.0
 10
224.2229901985019
 20
174.6869576676005
 30
0.0
 10
224.1423861055882
 20
174.7055514515072
 30
0.0
  0
LINE
  5
2F7
330
1F
100
AcDbEntity
  8
0
  6
Continuous
 62
     7
370
     0
100
AcDbLine
 10
223.707243471
 20
174.0566116703
 30
0.0
 11
224.7140774054
 21
174.6378445288
 31
0.0
  0
LINE
  5
2F8
330
1F
100
AcDbEntity
  8
0
  6
Continuous
 62
     7
370
     0
100
AcDbLine
 10
223.9792076176
 20
173.8996101103
 30
0.0
 11
223.707243471
 21
174.0566116703
 31
0.0
  0
LINE
  5
2F9
330
1F
100
AcDbEntity
  8
0
  6
Continuous
 62
     7
370
     0
100
AcDbLine
 10
225.39342118
 20
174.7160182222
 30
0.0
 11
223.9792076176
 21
173.8996101103
 31
0.0
  0
LINE
  5
2FA
330
1F
100
AcDbEntity
  8
0
  6
Continuous
 62
     7
370
     0
100
AcDbLine
 10
225.1752832707
 20
174.8419465567
 30
0.0
 11
225.39342118
 21
174.7160182222
 31
0.0
  0
LINE
  5
2FB
330
1F
100
AcDbEntity
  8
0
  6
Continuous
 62
     7
370
     0
100
AcDbLine
 10
223.1647316577
 20
176.0026132974
 30
0.0
 11
223.4534102675
 21
175.8359626833
 31
0.0
  0
LINE
  5
2FC
330
1F
100
AcDbEntity
  8
0
  6
Continuous
 62
     7
370
     0
100
AcDbLine
 10
221.7400361439
 20
175.610927114
 30
0.0
 11
223.1647316577
 21
176.0026132974
 31
0.0
  0
LINE
  5
2FD
330
1F
100
AcDbEntity
  8
0
  6
Continuous
 62
     7
370
     0
100
AcDbLine
 10
222.4171135505
 20
176.434204044
 30
0.0
 11
221.7400361439
 21
175.610927114
 31
0.0
  0
LINE
  5
2FE
330
1F
100
AcDbEntity
  8
0
  6
Continuous
 62
     7
370
     0
100
AcDbLine
 10
222.1298514207
 20
176.6000369418
 30
0.0
 11
222.4171135505
 21
176.434204044
 31
0.0
  0
LINE
  5
2FF
330
1F
100
AcDbEntity
  8
0
  6
Continuous
 62
     7
370
     0
100
AcDbLine
 10
221.2386022486
 20
175.4817279136
 30
0.0
 11
222.1298514207
 21
176.6000369418
 31
0.0
  0
LINE
  5
300
330
1F
100
AcDbEntity
  8
0
  6
Continuous
 62
     7
370
     0
100
AcDbLine
 10
221.5182153868
 20
175.3203106847
 30
0.0
 11
221.2386022486
 21
175.4817279136
 31
0.0
  0
LINE
  5
301
330
1F
100
AcDbEntity
  8
0
  6
Continuous
 62
     7
370
     0
100
AcDbLine
 10
223.4534102675
 20
175.8359626833
 30
0.0
 11
221.5182153868
 21
175.3203106847
 31
0.0
  0
SPLINE
  5
302
330
1F
100
AcDbEntity
  8
0
  6
Continuous
 62
     7
370
     0
100
AcDbSpline
210
0.0
220
0.0
230
1.0
 70
     8
 71
     3
 72
     9
 73
     5
 74
     0
 42
0.000000001
 43
0.00000001
 40
0.0
 40
0.0
 40
0.0
 40
0.0
 40
0.5585193265375492
 40
1.0
 40
1.0
 40
1.0
 40
1.0
 10
220.4578385109919
 20
177.1210858688993
 30
0.0
 10
220.3758937493215
 20
177.0844369051997
 30
0.0
 10
220.229175886972
 20
177.0188188290504
 30
0.0
 10
220.046628030028
 20
177.0026311627477
 30
0.0
 10
219.9660366792051
 20
176.9954846209266
 30
0.0
  0
SPLINE
  5
303
330
1F
100
AcDbEntity
  8
0
  6
Continuous
 62
     7
370
     0
100
AcDbSpline
210
0.0
220
0.0
230
1.0
 70
     8
 71
     3
 72
    11
 73
     7
 74
     0
 42
0.000000001
 43
0.00000001
 40
0.0
 40
0.0
 40
0.0
 40
0.0
 40
0.2805720451626063
 40
0.5597203159884693
 40
0.7797519723102062
 40
1.0
 40
1.0
 40
1.0
 40
1.0
 10
220.4085450094189
 20
177.5937259817134
 30
0.0
 10
220.4658408515803
 20
177.5560668898121
 30
0.0
 10
220.5801417858051
 20
177.4809398086141
 30
0.0
 10
220.6323021585114
 20
177.3407114260162
 30
0.0
 10
220.5885984937309
 20
177.2118927482485
 30
0.0
 10
220.5014394497396
 20
177.1513647439912
 30
0.0
 10
220.4578385109919
 20
177.1210858688993
 30
0.0
  0
SPLINE
  5
304
330
1F
100
AcDbEntity
  8
0
  6
Continuous
 62
     7
370
     0
100
AcDbSpline
210
0.0
220
0.0
230
1.0
 70
     8
 71
     3
 72
    11
 73
     7
 74
     0
 42
0.000000001
 43
0.00000001
 40
0.0
 40
0.0
 40
0.0
 40
0.0
 40
0.2807518703124656
 40
0.5589701483430559
 40
0.7792745188477135
 40
1.0
 40
1.0
 40
1.0
 40
1.0
 10
219.5274944927962
 20
177.6097532242932
 30
0.0
 10
219.6021697648976
 20
177.6416505730471
 30
0.0
 10
219.7508464161967
 20
177.7051574189497
 30
0.0
 10
220.0175634049098
 20
177.7243154296513
 30
0.0
 10
220.2447718687957
 20
177.6765252733531
 30
0.0
 10
220.3539192233139
 20
177.6213433088132
 30
0.0
 10
220.4085450094189
 20
177.5937259817134
 30
0.0
  0
LINE
  5
305
330
1F
100
AcDbEntity
  8
0
  6
Continuous
 62
     7
370
     0
100
AcDbLine
 10
219.7728288167
 20
177.4373785949
 30
0.0
 11
219.5274944928
 21
177.6097532243
 31
0.0
  0
SPLINE
  5
306
330
1F
100
AcDbEntity
  8
0
  6
Continuous
 62
     7
370
     0
100
AcDbSpline
210
0.0
220
0.0
230
1.0
 70
     8
 71
     3
 72
    11
 73
     7
 74
     0
 42
0.000000001
 43
0.00000001
 40
0.0
 40
0.0
 40
0.0
 40
0.0
 40
0.1872361441692241
 40
0.3740838555424239
 40
0.5606964136908822
 40
1.0
 40
1.0
 40
1.0
 40
1.0
 10
220.1671768293023
 20
177.4609288289088
 30
0.0
 10
220.1460969340411
 20
177.4715868367486
 30
0.0
 10
220.1039808750467
 20
177.4928807417409
 30
0.0
 10
220.0210817298929
 20
177.5064417324455
 30
0.0
 10
219.8983427073945
 20
177.496743238794
 30
0.0
 10
219.8245915664239
 20
177.4618609624511
 30
0.0
 10
219.7728288167175
 20
177.437378594914
 30
0.0
  0
SPLINE
  5
307
330
1F
100
AcDbEntity
  8
0
  6
Continuous
 62
     7
370
     0
100
AcDbSpline
210
0.0
220
0.0
230
1.0
 70
     8
 71
     3
 72
    11
 73
     7
 74
     0
 42
0.000000001
 43
0.00000001
 40
0.0
 40
0.0
 40
0.0
 40
0.0
 40
0.2806195771643717
 40
0.559495513483768
 40
0.7793820380230129
 40
1.0
 40
1.0
 40
1.0
 40
1.0
 10
220.149329182181
 20
177.2569903442448
 30
0.0
 10
220.1745274073782
 20
177.2732043634377
 30
0.0
 10
220.2247672876033
 20
177.3055316553738
 30
0.0
 10
220.250473021874
 20
177.3667188264649
 30
0.0
 10
220.2258649618583
 20
177.4223512469484
 30
0.0
 10
220.186761183496
 20
177.448055408063
 30
0.0
 10
220.1671768293023
 20
177.4609288289088
 30
0.0
  0
SPLINE
  5
308
330
1F
100
AcDbEntity
  8
0
  6
Continuous
 62
     7
370
     0
100
AcDbSpline
210
0.0
220
0.0
230
1.0
 70
     8
 71
     3
 72
     9
 73
     5
 74
     0
 42
0.000000001
 43
0.00000001
 40
0.0
 40
0.0
 40
0.0
 40
0.0
 40
0.5600606606765884
 40
1.0
 40
1.0
 40
1.0
 40
1.0
 10
219.9320411608789
 20
177.1936990903835
 30
0.0
 10
219.9771892601766
 20
177.2004979757878
 30
0.0
 10
220.0578021338664
 20
177.2126375275926
 30
0.0
 10
220.1213652617115
 20
177.2434393922552
 30
0.0
 10
220.149329182181
 20
177.2569903442448
 30
0.0
  0
SPLINE
  5
309
330
1F
100
AcDbEntity
  8
0
  6
Continuous
 62
     7
370
     0
100
AcDbSpline
210
0.0
220
0.0
230
1.0
 70
     8
 71
     3
 72
     9
 73
     5
 74
     0
 42
0.000000001
 43
0.00000001
 40
0.0
 40
0.0
 40
0.0
 40
0.0
 40
0.5602366122649474
 40
0.9999999999999999
 40
0.9999999999999999
 40
0.9999999999999999
 40
0.9999999999999999
 10
219.4872664627767
 20
177.186830272135
 30
0.0
 10
219.5704700772274
 20
177.1854650165521
 30
0.0
 10
219.7189852092789
 20
177.183028089809
 30
0.0
 10
219.8669650463931
 20
177.1904397247106
 30
0.0
 10
219.9320411608789
 20
177.1936990903835
 30
0.0
  0
SPLINE
  5
30A
330
1F
100
AcDbEntity
  8
0
  6
Continuous
 62
     7
370
     0
100
AcDbSpline
210
0.0
220
0.0
230
1.0
 70
     8
 71
     3
 72
    10
 73
     6
 74
     0
 42
0.000000001
 43
0.00000001
 40
0.0
 40
0.0
 40
0.0
 40
0.0
 40
0.2795770624031166
 40
0.5593377342540129
 40
1.0
 40
1.0
 40
1.0
 40
1.0
 10
218.5036627992031
 20
177.0605748509958
 30
0.0
 10
218.5841097489083
 20
177.0917735638854
 30
0.0
 10
218.7450564810505
 20
177.1541914791081
 30
0.0
 10
219.0894301042441
 20
177.1901688284428
 30
0.0
 10
219.3362771377535
 20
177.1880973417546
 30
0.0
 10
219.4872664627767
 20
177.186830272135
 30
0.0
  0
LINE
  5
30B
330
1F
100
AcDbEntity
  8
0
  6
Continuous
 62
     7
370
     0
100
AcDbLine
 10
219.4283408977
 20
176.5267695471
 30
0.0
 11
218.5036627992
 21
177.060574851
 31
0.0
  0
LINE
  5
30C
330
1F
100
AcDbEntity
  8
0
  6
Continuous
 62
     7
370
     0
100
AcDbLine
 10
219.7003050443
 20
176.6837711071
 30
0.0
 11
219.4283408977
 21
176.5267695471
 31
0.0
  0
LINE
  5
30D
330
1F
100
AcDbEntity
  8
0
  6
Continuous
 62
     7
370
     0
100
AcDbLine
 10
219.1747909902
 20
176.9871439131
 30
0.0
 11
219.7003050443
 21
176.6837711071
 31
0.0
  0
SPLINE
  5
30E
330
1F
100
AcDbEntity
  8
0
  6
Continuous
 62
     7
370
     0
100
AcDbSpline
210
0.0
220
0.0
230
1.0
 70
     8
 71
     3
 72
    11
 73
     7
 74
     0
 42
0.000000001
 43
0.00000001
 40
0.0
 40
0.0
 40
0.0
 40
0.0
 40
0.2800132048533902
 40
0.5602374371752901
 40
0.7804025336054307
 40
0.9999999999999999
 40
0.9999999999999999
 40
0.9999999999999999
 40
0.9999999999999999
 10
219.9660366792051
 20
176.9954846209266
 30
0.0
 10
219.8920330980643
 20
176.9933794568169
 30
0.0
 10
219.7439701641687
 20
176.9891675420742
 30
0.0
 10
219.5381075868749
 20
176.9962943168077
 30
0.0
 10
219.3473528847892
 20
177.0036013138755
 30
0.0
 10
219.2322621033273
 20
176.9926249907103
 30
0.0
 10
219.1747909901611
 20
176.9871439130534
 30
0.0
  0
LINE
  5
30F
330
1F
100
AcDbEntity
  8
0
  6
Continuous
 62
     7
370
     0
100
AcDbLine
 10
216.8404320651
 20
178.6278102147
 30
0.0
 11
216.6543066023
 21
178.7352581573
 31
0.0
  0
SPLINE
  5
310
330
1F
100
AcDbEntity
  8
0
  6
Continuous
 62
     7
370
     0
100
AcDbSpline
210
0.0
220
0.0
230
1.0
 70
     8
 71
     3
 72
     9
 73
     5
 74
     0
 42
0.000000001
 43
0.00000001
 40
0.0
 40
0.0
 40
0.0
 40
0.0
 40
0.5598111354059622
 40
1.0
 40
1.0
 40
1.0
 40
1.0
 10
217.1571569774966
 20
178.4685190486483
 30
0.0
 10
217.0948770855543
 20
178.4961591574901
 30
0.0
 10
216.983625472281
 20
178.5455331464902
 30
0.0
 10
216.8841986465978
 20
178.6026625065552
 30
0.0
 10
216.8404320650901
 20
178.6278102146971
 30
0.0
  0
SPLINE
  5
311
330
1F
100
AcDbEntity
  8
0
  6
Continuous
 62
     7
370
     0
100
AcDbSpline
210
0.0
220
0.0
230
1.0
 70
     8
 71
     3
 72
    11
 73
     7
 74
     0
 42
0.000000001
 43
0.00000001
 40
0.0
 40
0.0
 40
0.0
 40
0.0
 40
0.2802850968755806
 40
0.5598733130822775
 40
0.7799180797311059
 40
1.0
 40
1.0
 40
1.0
 40
1.0
 10
217.901658828842
 20
178.5342634518841
 30
0.0
 10
217.8441039079743
 20
178.5048438510186
 30
0.0
 10
217.7291371666469
 20
178.4460777960632
 30
0.0
 10
217.5176947244665
 20
178.4125650262969
 30
0.0
 10
217.3189662343144
 20
178.4222730690104
 30
0.0
 10
217.211096431739
 20
178.453102854596
 30
0.0
 10
217.1571569774966
 20
178.4685190486483
 30
0.0
  0
SPLINE
  5
312
330
1F
100
AcDbEntity
  8
0
  6
Continuous
 62
     7
370
     0
100
AcDbSpline
210
0.0
220
0.0
230
1.0
 70
     8
 71
     3
 72
    11
 73
     7
 74
     0
 42
0.000000001
 43
0.00000001
 40
0.0
 40
0.0
 40
0.0
 40
0.0
 40
0.2791485284745724
 40
0.558917462002993
 40
0.779279987199586
 40
1.0
 40
1.0
 40
1.0
 40
1.0
 10
218.037074310175
 20
178.9378882956298
 30
0.0
 10
218.0647219011805
 20
178.8993883275112
 30
0.0
 10
218.1200785297098
 20
178.8223028254465
 30
0.0
 10
218.0959034038369
 20
178.7036490889687
 30
0.0
 10
218.0160212745656
 20
178.606587834208
 30
0.0
 10
217.9398002359031
 20
178.5583846018753
 30
0.0
 10
217.901658828842
 20
178.5342634518841
 30
0.0
  0
SPLINE
  5
313
330
1F
100
AcDbEntity
  8
0
  6
Continuous
 62
     7
370
     0
100
AcDbSpline
210
0.0
220
0.0
230
1.0
 70
     8
 71
     3
 72
     9
 73
     5
 74
     0
 42
0.000000001
 43
0.00000001
 40
0.0
 40
0.0
 40
0.0
 40
0.0
 40
0.5603451063412509
 40
1.0
 40
1.0
 40
1.0
 40
1.0
 10
217.7231823576291
 20
179.143952843085
 30
0.0
 10
217.7864990169372
 20
179.1078152991622
 30
0.0
 10
217.8994948450289
 20
179.0433237143976
 30
0.0
 10
217.9950590429156
 20
178.9700871219114
 30
0.0
 10
218.0370743101751
 20
178.9378882956298
 30
0.0
  0
LINE
  5
314
330
1F
100
AcDbEntity
  8
0
  6
Continuous
 62
     7
370
     0
100
AcDbLine
 10
217.2707586679
 20
179.4051314798
 30
0.0
 11
217.7231823576
 21
179.1439528431
 31
0.0
  0
LINE
  5
315
330
1F
100
AcDbEntity
  8
0
  6
Continuous
 62
     7
370
     0
100
AcDbLine
 10
215.8565451055
 20
178.588723368
 30
0.0
 11
217.2707586679
 21
179.4051314798
 31
0.0
  0
LINE
  5
316
330
1F
100
AcDbEntity
  8
0
  6
Continuous
 62
     7
370
     0
100
AcDbLine
 10
216.1285092521
 20
178.431721808
 30
0.0
 11
215.8565451055
 21
178.588723368
 31
0.0
  0
LINE
  5
317
330
1F
100
AcDbEntity
  8
0
  6
Continuous
 62
     7
370
     0
100
AcDbLine
 10
216.6543066023
 20
178.7352581573
 30
0.0
 11
216.1285092521
 21
178.431721808
 31
0.0
  0
SPLINE
  5
318
330
1F
100
AcDbEntity
  8
0
  6
Continuous
 62
     7
370
     0
100
AcDbSpline
210
0.0
220
0.0
230
1.0
 70
     8
 71
     3
 72
    13
 73
     9
 74
     0
 42
0.000000001
 43
0.00000001
 40
0.0
 40
0.0
 40
0.0
 40
0.0
 40
0.1869024607980115
 40
0.3734162044334526
 40
0.5596383556830415
 40
0.7062905957045365
 40
0.853078609679201
 40
1.0
 40
1.0
 40
1.0
 40
1.0
 10
224.8989086485937
 20
178.431744240224
 30
0.0
 10
224.9914366919323
 20
178.3731910180637
 30
0.0
 10
225.1763003400599
 20
178.256206351928
 30
0.0
 10
225.3565944523442
 20
178.0387640120989
 30
0.0
 10
225.3937882369936
 20
177.8149311376547
 30
0.0
 10
225.3061057053708
 20
177.6159037345667
 30
0.0
 10
225.1472577370115
 20
177.4515019607809
 30
0.0
 10
225.0013580731581
 20
177.359930423518
 30
0.0
 10
224.928375113991
 20
177.3141238631161
 30
0.0
  0
SPLINE
  5
319
330
1F
100
AcDbEntity
  8
0
  6
Continuous
 62
     7
370
     0
100
AcDbSpline
210
0.0
220
0.0
230
1.0
 70
     8
 71
     3
 72
    13
 73
     9
 74
     0
 42
0.000000001
 43
0.00000001
 40
0.0
 40
0.0
 40
0.0
 40
0.0
 40
0.1868623312436858
 40
0.3733269870469076
 40
0.5595660014170628
 40
0.7062341830061473
 40
0.8530571115958862
 40
1.0
 40
1.0
 40
1.0
 40
1.0
 10
222.9537392510059
 20
178.4363835025128
 30
0.0
 10
223.0559771354257
 20
178.4897043904608
 30
0.0
 10
223.2602353243206
 20
178.5962326902621
 30
0.0
 10
223.6440690958727
 20
178.6943672628479
 30
0.0
 10
224.0337239923863
 20
178.7078416481883
 30
0.0
 10
224.3769408393404
 20
178.6523995298377
 30
0.0
 10
224.6606076085991
 20
178.5587256711912
 30
0.0
 10
224.8194533469452
 20
178.474082905223
 30
0.0
 10
224.8989086485937
 20
178.431744240224
 30
0.0
  0
SPLINE
  5
31A
330
1F
100
AcDbEntity
  8
0
  6
Continuous
 62
     7
370
     0
100
AcDbSpline
210
0.0
220
0.0
230
1.0
 70
     8
 71
     3
 72
    13
 73
     9
 74
     0
 42
0.000000001
 43
0.00000001
 40
0.0
 40
0.0
 40
0.0
 40
0.0
 40
0.1869573371327968
 40
0.3733995429144031
 40
0.5595591170587075
 40
0.706260750736296
 40
0.8530582488030161
 40
1.0
 40
1.0
 40
1.0
 40
1.0
 10
222.9870325300911
 20
177.3015315797606
 30
0.0
 10
222.8924515003447
 20
177.3607519701267
 30
0.0
 10
222.7035500439093
 20
177.4790295784464
 30
0.0
 10
222.5104837231183
 20
177.6983560729639
 30
0.0
 10
222.4828065937292
 20
177.9268494627325
 30
0.0
 10
222.5684323845496
 20
178.1293904970979
 30
0.0
 10
222.7307296145435
 20
178.296790246046
 30
0.0
 10
222.8793783720905
 20
178.3898371854737
 30
0.0
 10
222.9537392510059
 20
178.4363835025128
 30
0.0
  0
SPLINE
  5
31B
330
1F
100
AcDbEntity
  8
0
  6
Continuous
 62
     7
370
     0
100
AcDbSpline
210
0.0
220
0.0
230
1.0
 70
     8
 71
     3
 72
    13
 73
     9
 74
     0
 42
0.000000001
 43
0.00000001
 40
0.0
 40
0.0
 40
0.0
 40
0.0
 40
0.1869572085988795
 40
0.3733824802159932
 40
0.5595792600912205
 40
0.7062446886611858
 40
0.8530310670954855
 40
1.0
 40
1.0
 40
1.0
 40
1.0
 10
224.928375113991
 20
177.3141238631161
 30
0.0
 10
224.8269841707712
 20
177.2601504652596
 30
0.0
 10
224.6244907652772
 20
177.1523572364862
 30
0.0
 10
224.245908061966
 20
177.0471988684398
 30
0.0
 10
223.855894360648
 20
177.0291463917116
 30
0.0
 10
223.5101704537082
 20
177.0806876514807
 30
0.0
 10
223.2252797265423
 20
177.1741229347584
 30
0.0
 10
223.0664811574069
 20
177.2590444399144
 30
0.0
 10
222.9870325300911
 20
177.3015315797606
 30
0.0
  0
LINE
  5
31C
330
1F
100
AcDbEntity
  8
0
  6
Continuous
 62
     7
370
     0
100
AcDbLine
 10
218.8476447001
 20
179.7194267178
 30
0.0
 11
220.2926495487
 21
180.5536102608
 31
0.0
  0
LINE
  5
31D
330
1F
100
AcDbEntity
  8
0
  6
Continuous
 62
     7
370
     0
100
AcDbLine
 10
219.4354432826
 20
179.380097819
 30
0.0
 11
218.8476447001
 21
179.7194267178
 31
0.0
  0
LINE
  5
31E
330
1F
100
AcDbEntity
  8
0
  6
Continuous
 62
     7
370
     0
100
AcDbLine
 10
220.8804481311
 20
180.2142813619
 30
0.0
 11
219.4354432826
 21
179.380097819
 31
0.0
  0
LINE
  5
31F
330
1F
100
AcDbEntity
  8
0
  6
Continuous
 62
     7
370
     0
100
AcDbLine
 10
221.4682467136
 20
179.8749524631
 30
0.0
 11
220.8804481311
 21
180.2142813619
 31
0.0
  0
LINE
  5
320
330
1F
100
AcDbEntity
  8
0
  6
Continuous
 62
     7
370
     0
100
AcDbLine
 10
221.9090956505
 20
180.1294491372
 30
0.0
 11
221.4682467136
 21
179.8749524631
 31
0.0
  0
LINE
  5
321
330
1F
100
AcDbEntity
  8
0
  6
Continuous
 62
     7
370
     0
100
AcDbLine
 10
220.1456999031
 20
181.1474358338
 30
0.0
 11
221.9090956505
 21
180.1294491372
 31
0.0
  0
LINE
  5
322
330
1F
100
AcDbEntity
  8
0
  6
Continuous
 62
     7
370
     0
100
AcDbLine
 10
219.7048509662
 20
180.8929391596
 30
0.0
 11
220.1456999031
 21
181.1474358338
 31
0.0
  0
LINE
  5
323
330
1F
100
AcDbEntity
  8
0
  6
Continuous
 62
     7
370
     0
100
AcDbLine
 10
220.2926495487
 20
180.5536102608
 30
0.0
 11
219.7048509662
 21
180.8929391596
 31
0.0
  0
LINE
  5
324
330
1F
100
AcDbEntity
  8
0
  6
Continuous
 62
     7
370
     0
100
AcDbLine
 10
261.3198849472
 20
165.8956705833
 30
0.0
 11
224.267489613
 21
187.285563113
 31
0.0
  0
ARC
  5
325
330
1F
100
AcDbEntity
  8
0
  6
Continuous
 62
     7
370
     0
100
AcDbCircle
 10
261.2734068392
 20
165.7732093665
 30
0.0
 40
0.1309845950503296
100
AcDbArc
 50
290.7834207995
 51
69.2165792005
  0
LINE
  5
326
330
1F
100
AcDbEntity
  8
0
  6
Continuous
 62
     7
370
     0
100
AcDbLine
 10
223.8432255443
 20
187.285563113
 30
0.0
 11
209.4889578862
 21
178.999020778
 31
0.0
  0
ARC
  5
327
330
1F
100
AcDbEntity
  8
0
  6
Continuous
 62
     7
370
     0
100
AcDbCircle
 10
224.0553575787
 20
186.8761497876
 30
0.0
 40
0.4611065723734258
100
AcDbArc
 50
62.6096722366
 51
117.3903277634
  0
LINE
  5
328
330
1F
100
AcDbEntity
  8
0
  6
Continuous
 62
     7
370
     0
100
AcDbLine
 10
221.433958463
 20
179.1029792182
 30
0.0
 11
220.6747186273
 21
178.6646793906
 31
0.0
  0
LINE
  5
329
330
1F
100
AcDbEntity
  8
0
  6
Continuous
 62
     7
370
     0
100
AcDbLine
 10
222.0707402606
 20
178.7353729112
 30
0.0
 11
221.433958463
 21
179.1029792182
 31
0.0
  0
LINE
  5
32A
330
1F
100
AcDbEntity
  8
0
  6
Continuous
 62
     7
370
     0
100
AcDbLine
 10
221.311500425
 20
178.2970730835
 30
0.0
 11
222.0707402606
 21
178.7353729112
 31
0.0
  0
LINE
  5
32B
330
1F
100
AcDbEntity
  8
0
  6
Continuous
 62
     7
370
     0
100
AcDbLine
 10
221.8992990074
 20
177.9577441847
 30
0.0
 11
221.311500425
 21
178.2970730835
 31
0.0
  0
LINE
  5
32C
330
1F
100
AcDbEntity
  8
0
  6
Continuous
 62
     7
370
     0
100
AcDbLine
 10
223.7851527929
 20
179.0464244018
 30
0.0
 11
221.8992990074
 21
177.9577441847
 31
0.0
  0
LINE
  5
32D
330
1F
100
AcDbEntity
  8
0
  6
Continuous
 62
     7
370
     0
100
AcDbLine
 10
223.1973542104
 20
179.3857533006
 30
0.0
 11
223.7851527929
 21
179.0464244018
 31
0.0
  0
LINE
  5
32E
330
1F
100
AcDbEntity
  8
0
  6
Continuous
 62
     7
370
     0
100
AcDbLine
 10
222.5360808051
 20
179.0040082894
 30
0.0
 11
223.1973542104
 21
179.3857533006
 31
0.0
  0
LINE
  5
32F
330
1F
100
AcDbEntity
  8
0
  6
Continuous
 62
     7
370
     0
100
AcDbLine
 10
221.8992990074
 20
179.3716145965
 30
0.0
 11
222.5360808051
 21
179.0040082894
 31
0.0
  0
LINE
  5
330
330
1F
100
AcDbEntity
  8
0
  6
Continuous
 62
     7
370
     0
100
AcDbLine
 10
222.5605724127
 20
179.7533596077
 30
0.0
 11
221.8992990074
 21
179.3716145965
 31
0.0
  0
LINE
  5
331
330
1F
100
AcDbEntity
  8
0
  6
Continuous
 62
     7
370
     0
100
AcDbLine
 10
221.9727738302
 20
180.0926885065
 30
0.0
 11
222.5605724127
 21
179.7533596077
 31
0.0
  0
LINE
  5
332
330
1F
100
AcDbEntity
  8
0
  6
Continuous
 62
     7
370
     0
100
AcDbLine
 10
220.0869200448
 20
179.0040082894
 30
0.0
 11
221.9727738302
 21
180.0926885065
 31
0.0
  0
LINE
  5
333
330
1F
100
AcDbEntity
  8
0
  6
Continuous
 62
     7
370
     0
100
AcDbLine
 10
220.6747186273
 20
178.6646793906
 30
0.0
 11
220.0869200448
 21
179.0040082894
 31
0.0
  0
LINE
  5
334
330
1F
100
AcDbEntity
  8
0
  6
Continuous
 62
     7
370
     0
100
AcDbLine
 10
225.4826508086
 20
176.7657188771
 30
0.0
 11
225.4309888238
 21
176.7955427061
 31
0.0
  0
SPLINE
  5
335
330
1F
100
AcDbEntity
  8
0
  6
Continuous
 62
     7
370
     0
100
AcDbSpline
210
0.0
220
0.0
230
1.0
 70
     8
 71
     3
 72
     9
 73
     5
 74
     0
 42
0.000000001
 43
0.00000001
 40
0.0
 40
0.0
 40
0.0
 40
0.0
 40
0.5595454497439447
 40
1.0
 40
1.0
 40
1.0
 40
1.0
 10
225.5825306458101
 20
176.6581321754734
 30
0.0
 10
225.5716217179069
 20
176.6806947620214
 30
0.0
 10
225.5521256646227
 20
176.7210178252476
 30
0.0
 10
225.5038944614543
 20
176.7520504266363
 30
0.0
 10
225.4826508085545
 20
176.7657188771242
 30
0.0
  0
SPLINE
  5
336
330
1F
100
AcDbEntity
  8
0
  6
Continuous
 62
     7
370
     0
100
AcDbSpline
210
0.0
220
0.0
230
1.0
 70
     8
 71
     3
 72
     9
 73
     5
 74
     0
 42
0.000000001
 43
0.00000001
 40
0.0
 40
0.0
 40
0.0
 40
0.0
 40
0.5606896493157659
 40
1.0
 40
1.0
 40
1.0
 40
1.0
 10
225.5438798275618
 20
176.5138732100155
 30
0.0
 10
225.557878280141
 20
176.540278609049
 30
0.0
 10
225.5828447702417
 20
176.5873731096623
 30
0.0
 10
225.582626523752
 20
176.636534894525
 30
0.0
 10
225.5825306458101
 20
176.6581321754734
 30
0.0
  0
LINE
  5
337
330
1F
100
AcDbEntity
  8
0
  6
Continuous
 62
     7
370
     0
100
AcDbLine
 10
225.2821257713
 20
176.0048798618
 30
0.0
 11
225.5438798276
 21
176.51387321
 31
0.0
  0
LINE
  5
338
330
1F
100
AcDbEntity
  8
0
  6
Continuous
 62
     7
370
     0
100
AcDbLine
 10
225.9453125834
 20
175.6220302643
 30
0.0
 11
225.2821257713
 21
176.0048798618
 31
0.0
  0
LINE
  5
339
330
1F
100
AcDbEntity
  8
0
  6
Continuous
 62
     7
370
     0
100
AcDbLine
 10
226.1917593849
 20
176.1005370318
 30
0.0
 11
225.9453125834
 21
175.6220302643
 31
0.0
  0
SPLINE
  5
33A
330
1F
100
AcDbEntity
  8
0
  6
Continuous
 62
     7
370
     0
100
AcDbSpline
210
0.0
220
0.0
230
1.0
 70
     8
 71
     3
 72
     9
 73
     5
 74
     0
 42
0.000000001
 43
0.00000001
 40
0.0
 40
0.0
 40
0.0
 40
0.0
 40
0.5597699036669475
 40
0.9999999999999999
 40
0.9999999999999999
 40
0.9999999999999999
 40
0.9999999999999999
 10
226.2380638305569
 20
176.3274190494543
 30
0.0
 10
226.2370180610734
 20
176.2845303343325
 30
0.0
 10
226.235149847944
 20
176.2079118615621
 30
0.0
 10
226.205022396003
 20
176.1333579204725
 30
0.0
 10
226.1917593849327
 20
176.1005370318047
 30
0.0
  0
SPLINE
  5
33B
330
1F
100
AcDbEntity
  8
0
  6
Continuous
 62
     7
370
     0
100
AcDbSpline
210
0.0
220
0.0
230
1.0
 70
     8
 71
     3
 72
     9
 73
     5
 74
     0
 42
0.000000001
 43
0.00000001
 40
0.0
 40
0.0
 40
0.0
 40
0.0
 40
0.5601696408921772
 40
1.0
 40
1.0
 40
1.0
 40
1.0
 10
226.1584661058475
 20
176.4551092210234
 30
0.0
 10
226.1777880658515
 20
176.4321668050481
 30
0.0
 10
226.212281116873
 20
176.3912106119583
 30
0.0
 10
226.2301878886818
 20
176.3469056963824
 30
0.0
 10
226.2380638305569
 20
176.3274190494543
 30
0.0
  0
SPLINE
  5
33C
330
1F
100
AcDbEntity
  8
0
  6
Continuous
 62
     7
370
     0
100
AcDbSpline
210
0.0
220
0.0
230
1.0
 70
     8
 71
     3
 72
     9
 73
     5
 74
     0
 42
0.000000001
 43
0.00000001
 40
0.0
 40
0.0
 40
0.0
 40
0.0
 40
0.5596449196502635
 40
1.0
 40
1.0
 40
1.0
 40
1.0
 10
226.4435637256001
 20
176.3771254311205
 30
0.0
 10
226.3877144129561
 20
176.3884973517696
 30
0.0
 10
226.287920220812
 20
176.4088172372004
 30
0.0
 10
226.1980436919403
 20
176.4409565231686
 30
0.0
 10
226.1584661058475
 20
176.4551092210234
 30
0.0
  0
SPLINE
  5
33D
330
1F
100
AcDbEntity
  8
0
  6
Continuous
 62
     7
370
     0
100
AcDbSpline
210
0.0
220
0.0
230
1.0
 70
     8
 71
     3
 72
    11
 73
     7
 74
     0
 42
0.000000001
 43
0.00000001
 40
0.0
 40
0.0
 40
0.0
 40
0.0
 40
0.2800228899473967
 40
0.5596118807903373
 40
0.7797875303814782
 40
0.9999999999999999
 40
0.9999999999999999
 40
0.9999999999999999
 40
0.9999999999999999
 10
227.1584125225102
 20
176.4920024020824
 30
0.0
 10
227.1037360839139
 20
176.4639900433004
 30
0.0
 10
226.9944679285728
 20
176.4080087312501
 30
0.0
 10
226.8001021652402
 20
176.36746654485
 30
0.0
 10
226.6122442579376
 20
176.3579008450684
 30
0.0
 10
226.4997937036395
 20
176.370716878595
 30
0.0
 10
226.4435637256001
 20
176.3771254311205
 30
0.0
  0
SPLINE
  5
33E
330
1F
100
AcDbEntity
  8
0
  6
Continuous
 62
     7
370
     0
100
AcDbSpline
210
0.0
220
0.0
230
1.0
 70
     8
 71
     3
 72
    12
 73
     8
 74
     0
 42
0.000000001
 43
0.00000001
 40
0.0
 40
0.0
 40
0.0
 40
0.0
 40
0.187585265866389
 40
0.374996329972257
 40
0.5612881976150956
 40
0.7803241467922688
 40
1.0
 40
1.0
 40
1.0
 40
1.0
 10
226.9483204510415
 20
177.220366581431
 30
0.0
 10
227.0116563761642
 20
177.1823846740854
 30
0.0
 10
227.1382694092652
 20
177.106456131435
 30
0.0
 10
227.3073224542498
 20
176.98114084324
 30
0.0
 10
227.4106034508368
 20
176.8213030352167
 30
0.0
 10
227.3665200169648
 20
176.6363151063572
 30
0.0
 10
227.227849109018
 20
176.5401533905934
 30
0.0
 10
227.1584125225102
 20
176.4920024020824
 30
0.0
  0
LINE
  5
33F
330
1F
100
AcDbEntity
  8
0
  6
Continuous
 62
     7
370
     0
100
AcDbLine
 10
225.969804191
 20
177.7852519944
 30
0.0
 11
226.948320451
 21
177.2203665814
 31
0.0
  0
LINE
  5
340
330
1F
100
AcDbEntity
  8
0
  6
Continuous
 62
     7
370
     0
100
AcDbLine
 10
224.0839504056
 20
176.6965717773
 30
0.0
 11
225.969804191
 21
177.7852519944
 31
0.0
  0
LINE
  5
341
330
1F
100
AcDbEntity
  8
0
  6
Continuous
 62
     7
370
     0
100
AcDbLine
 10
224.6717489881
 20
176.3572428785
 30
0.0
 11
224.0839504056
 21
176.6965717773
 31
0.0
  0
LINE
  5
342
330
1F
100
AcDbEntity
  8
0
  6
Continuous
 62
     7
370
     0
100
AcDbLine
 10
225.4309888238
 20
176.7955427061
 30
0.0
 11
224.6717489881
 21
176.3572428785
 31
0.0
  0
LINE
  5
343
330
1F
100
AcDbEntity
  8
0
  6
Continuous
 62
     7
370
     0
100
AcDbLine
 10
218.3175373364
 20
177.9265365802
 30
0.0
 11
217.8602976149
 21
177.9242469741
 31
0.0
  0
LINE
  5
344
330
1F
100
AcDbEntity
  8
0
  6
Continuous
 62
     7
370
     0
100
AcDbLine
 10
218.0597379891
 20
177.316847189
 30
0.0
 11
218.3175373364
 21
177.9265365802
 31
0.0
  0
LINE
  5
345
330
1F
100
AcDbEntity
  8
0
  6
Continuous
 62
     7
370
     0
100
AcDbLine
 10
218.4220735552
 20
177.107675319
 30
0.0
 11
218.0597379891
 21
177.316847189
 31
0.0
  0
LINE
  5
346
330
1F
100
AcDbEntity
  8
0
  6
Continuous
 62
     7
370
     0
100
AcDbLine
 10
218.7342657318
 20
177.9289897296
 30
0.0
 11
218.4220735552
 21
177.107675319
 31
0.0
  0
LINE
  5
347
330
1F
100
AcDbEntity
  8
0
  6
Continuous
 62
     7
370
     0
100
AcDbLine
 10
219.8181561745
 20
177.9345502015
 30
0.0
 11
218.7342657318
 21
177.9289897296
 31
0.0
  0
LINE
  5
348
330
1F
100
AcDbEntity
  8
0
  6
Continuous
 62
     7
370
     0
100
AcDbLine
 10
219.4444887689
 20
178.1502638031
 30
0.0
 11
219.8181561745
 21
177.9345502015
 31
0.0
  0
LINE
  5
349
330
1F
100
AcDbEntity
  8
0
  6
Continuous
 62
     7
370
     0
100
AcDbLine
 10
218.2149841894
 20
178.1290031752
 30
0.0
 11
219.4444887689
 21
178.1502638031
 31
0.0
  0
LINE
  5
34A
330
1F
100
AcDbEntity
  8
0
  6
Continuous
 62
     7
370
     0
100
AcDbLine
 10
218.8481507182
 20
178.494522432
 30
0.0
 11
218.2149841894
 21
178.1290031752
 31
0.0
  0
LINE
  5
34B
330
1F
100
AcDbEntity
  8
0
  6
Continuous
 62
     7
370
     0
100
AcDbLine
 10
218.5761865716
 20
178.651523992
 30
0.0
 11
218.8481507182
 21
178.494522432
 31
0.0
  0
LINE
  5
34C
330
1F
100
AcDbEntity
  8
0
  6
Continuous
 62
     7
370
     0
100
AcDbLine
 10
217.1619730093
 20
177.8351158802
 30
0.0
 11
218.5761865716
 21
178.651523992
 31
0.0
  0
LINE
  5
34D
330
1F
100
AcDbEntity
  8
0
  6
Continuous
 62
     7
370
     0
100
AcDbLine
 10
217.4339371559
 20
177.6781143202
 30
0.0
 11
217.1619730093
 21
177.8351158802
 31
0.0
  0
LINE
  5
34E
330
1F
100
AcDbEntity
  8
0
  6
Continuous
 62
     7
370
     0
100
AcDbLine
 10
217.8602976149
 20
177.9242469741
 30
0.0
 11
217.4339371559
 21
177.6781143202
 31
0.0
  0
LINE
  5
34F
330
1F
100
AcDbEntity
  8
0
  6
Continuous
 62
     7
370
     0
100
AcDbLine
 10
221.1326495498
 20
176.2336999685
 30
0.0
 11
220.5343284272
 21
176.5791034004
 31
0.0
  0
LINE
  5
350
330
1F
100
AcDbEntity
  8
0
  6
Continuous
 62
     7
370
     0
100
AcDbLine
 10
221.3683518102
 20
176.3697679871
 30
0.0
 11
221.1326495498
 21
176.2336999685
 31
0.0
  0
LINE
  5
351
330
1F
100
AcDbEntity
  8
0
  6
Continuous
 62
     7
370
     0
100
AcDbLine
 10
220.7700306876
 20
176.7151714191
 30
0.0
 11
221.3683518102
 21
176.3697679871
 31
0.0
  0
LINE
  5
352
330
1F
100
AcDbEntity
  8
0
  6
Continuous
 62
     7
370
     0
100
AcDbLine
 10
221.1145186067
 20
176.9140400617
 30
0.0
 11
220.7700306876
 21
176.7151714191
 31
0.0
  0
LINE
  5
353
330
1F
100
AcDbEntity
  8
0
  6
Continuous
 62
     7
370
     0
100
AcDbLine
 10
221.8034944447
 20
176.5163027764
 30
0.0
 11
221.1145186067
 21
176.9140400617
 31
0.0
  0
LINE
  5
354
330
1F
100
AcDbEntity
  8
0
  6
Continuous
 62
     7
370
     0
100
AcDbLine
 10
222.0391967051
 20
176.6523707951
 30
0.0
 11
221.8034944447
 21
176.5163027764
 31
0.0
  0
LINE
  5
355
330
1F
100
AcDbEntity
  8
0
  6
Continuous
 62
     7
370
     0
100
AcDbLine
 10
221.0782567204
 20
177.2071096403
 30
0.0
 11
222.0391967051
 21
176.6523707951
 31
0.0
  0
LINE
  5
356
330
1F
100
AcDbEntity
  8
0
  6
Continuous
 62
     7
370
     0
100
AcDbLine
 10
219.6640431581
 20
176.3907015285
 30
0.0
 11
221.0782567204
 21
177.2071096403
 31
0.0
  0
LINE
  5
357
330
1F
100
AcDbEntity
  8
0
  6
Continuous
 62
     7
370
     0
100
AcDbLine
 10
219.9360073047
 20
176.2336999685
 30
0.0
 11
219.6640431581
 21
176.3907015285
 31
0.0
  0
LINE
  5
358
330
1F
100
AcDbEntity
  8
0
  6
Continuous
 62
     7
370
     0
100
AcDbLine
 10
220.5343284272
 20
176.5791034004
 30
0.0
 11
219.9360073047
 21
176.2336999685
 31
0.0
  0
LINE
  5
359
330
1F
100
AcDbEntity
  8
0
  6
Continuous
 62
     7
370
     0
100
AcDbLine
 10
223.6347196986
 20
174.7892856168
 30
0.0
 11
223.036398576
 21
175.1346890487
 31
0.0
  0
LINE
  5
35A
330
1F
100
AcDbEntity
  8
0
  6
Continuous
 62
     7
370
     0
100
AcDbLine
 10
223.870421959
 20
174.9253536355
 30
0.0
 11
223.6347196986
 21
174.7892856168
 31
0.0
  0
LINE
  5
35B
330
1F
100
AcDbEntity
  8
0
  6
Continuous
 62
     7
370
     0
100
AcDbLine
 10
223.2721008364
 20
175.2707570674
 30
0.0
 11
223.870421959
 21
174.9253536355
 31
0.0
  0
LINE
  5
35C
330
1F
100
AcDbEntity
  8
0
  6
Continuous
 62
     7
370
     0
100
AcDbLine
 10
223.6165887555
 20
175.46962571
 30
0.0
 11
223.2721008364
 21
175.2707570674
 31
0.0
  0
LINE
  5
35D
330
1F
100
AcDbEntity
  8
0
  6
Continuous
 62
     7
370
     0
100
AcDbLine
 10
224.3055645936
 20
175.0718884248
 30
0.0
 11
223.6165887555
 21
175.46962571
 31
0.0
  0
LINE
  5
35E
330
1F
100
AcDbEntity
  8
0
  6
Continuous
 62
     7
370
     0
100
AcDbLine
 10
224.5412668539
 20
175.2079564434
 30
0.0
 11
224.3055645936
 21
175.0718884248
 31
0.0
  0
LINE
  5
35F
330
1F
100
AcDbEntity
  8
0
  6
Continuous
 62
     7
370
     0
100
AcDbLine
 10
223.5803268693
 20
175.7626952886
 30
0.0
 11
224.5412668539
 21
175.2079564434
 31
0.0
  0
LINE
  5
360
330
1F
100
AcDbEntity
  8
0
  6
Continuous
 62
     7
370
     0
100
AcDbLine
 10
222.1661133069
 20
174.9462871768
 30
0.0
 11
223.5803268693
 21
175.7626952886
 31
0.0
  0
LINE
  5
361
330
1F
100
AcDbEntity
  8
0
  6
Continuous
 62
     7
370
     0
100
AcDbLine
 10
222.4380774535
 20
174.7892856168
 30
0.0
 11
222.1661133069
 21
174.9462871768
 31
0.0
  0
LINE
  5
362
330
1F
100
AcDbEntity
  8
0
  6
Continuous
 62
     7
370
     0
100
AcDbLine
 10
223.036398576
 20
175.1346890487
 30
0.0
 11
222.4380774535
 21
174.7892856168
 31
0.0
  0
LINE
  5
363
330
1F
100
AcDbEntity
  8
0
  6
Continuous
 62
     7
370
     0
100
AcDbLine
 10
227.2818001117
 20
174.9422081123
 30
0.0
 11
227.5116126575
 21
175.0748760711
 31
0.0
  0
LINE
  5
364
330
1F
100
AcDbEntity
  8
0
  6
Continuous
 62
     7
370
     0
100
AcDbLine
 10
227.5116126575
 20
175.0748760711
 30
0.0
 11
226.6429622554
 21
175.5763372743
 31
0.0
  0
LINE
  5
365
330
1F
100
AcDbEntity
  8
0
  6
Continuous
 62
     7
370
     0
100
AcDbLine
 10
226.6429622554
 20
175.5763372743
 30
0.0
 11
228.2734020595
 21
176.5175701386
 31
0.0
  0
LINE
  5
366
330
1F
100
AcDbEntity
  8
0
  6
Continuous
 62
     7
370
     0
100
AcDbLine
 10
228.2734020595
 20
176.5175701386
 30
0.0
 11
227.9487712942
 21
176.7049754904
 31
0.0
  0
LINE
  5
367
330
1F
100
AcDbEntity
  8
0
  6
Continuous
 62
     7
370
     0
100
AcDbLine
 10
227.9487712942
 20
176.7049754904
 30
0.0
 11
226.0629175087
 21
175.6162952733
 31
0.0
  0
LINE
  5
368
330
1F
100
AcDbEntity
  8
0
  6
Continuous
 62
     7
370
     0
100
AcDbLine
 10
226.0629175087
 20
175.6162952733
 30
0.0
 11
227.248912699
 21
174.9316348234
 31
0.0
  0
LINE
  5
369
330
1F
100
AcDbEntity
  8
0
  6
Continuous
 62
     7
370
     0
100
AcDbLine
 10
227.248912699
 20
174.9316348234
 30
0.0
 11
227.5767816765
 21
174.7423600915
 31
0.0
  0
LINE
  5
36A
330
1F
100
AcDbEntity
  8
0
  6
Continuous
 62
     7
370
     0
100
AcDbLine
 10
227.5767816765
 20
174.7423600915
 30
0.0
 11
228.2952599914
 21
174.9837437928
 31
0.0
  0
LINE
  5
36B
330
1F
100
AcDbEntity
  8
0
  6
Continuous
 62
     7
370
     0
100
AcDbLine
 10
228.2952599914
 20
174.9837437928
 30
0.0
 11
228.7024651659
 21
174.7486692492
 31
0.0
  0
LINE
  5
36C
330
1F
100
AcDbEntity
  8
0
  6
Continuous
 62
     7
370
     0
100
AcDbLine
 10
228.7024651659
 20
174.7486692492
 30
0.0
 11
228.2843310255
 21
174.3339005466
 31
0.0
  0
LINE
  5
36D
330
1F
100
AcDbEntity
  8
0
  6
Continuous
 62
     7
370
     0
100
AcDbLine
 10
228.2843310255
 20
174.3339005466
 30
0.0
 11
228.613819109
 21
174.1436911247
 31
0.0
  0
LINE
  5
36E
330
1F
100
AcDbEntity
  8
0
  6
Continuous
 62
     7
370
     0
100
AcDbLine
 10
228.613819109
 20
174.1436911247
 30
0.0
 11
229.9767016365
 21
175.5590455087
 31
0.0
  0
LINE
  5
36F
330
1F
100
AcDbEntity
  8
0
  6
Continuous
 62
     7
370
     0
100
AcDbLine
 10
229.9767016365
 20
175.5590455087
 30
0.0
 11
229.6990249469
 21
175.7193448496
 31
0.0
  0
LINE
  5
370
330
1F
100
AcDbEntity
  8
0
  6
Continuous
 62
     7
370
     0
100
AcDbLine
 10
229.6990249469
 20
175.7193448496
 30
0.0
 11
227.2818001117
 21
174.9422081123
 31
0.0
  0
SPLINE
  5
371
330
1F
100
AcDbEntity
  8
0
  6
Continuous
 62
     7
370
     0
100
AcDbSpline
210
0.0
220
0.0
230
1.0
 70
     8
 71
     3
 72
    11
 73
     7
 74
     0
 42
0.000000001
 43
0.00000001
 40
0.0
 40
0.0
 40
0.0
 40
0.0
 40
0.2786856029940071
 40
0.5585093893307789
 40
0.7789953674249935
 40
1.0
 40
1.0
 40
1.0
 40
1.0
 10
230.4936012467097
 20
174.1941643865542
 30
0.0
 10
230.5583605149314
 20
174.1783045080523
 30
0.0
 10
230.6881435355088
 20
174.1465199775211
 30
0.0
 10
230.8909015724782
 20
174.1541102268679
 30
0.0
 10
231.0548180619238
 20
174.2015305975621
 30
0.0
 10
231.1361501746985
 20
174.2448951273821
 30
0.0
 10
231.1768640047686
 20
174.2666028641902
 30
0.0
  0
SPLINE
  5
372
330
1F
100
AcDbEntity
  8
0
  6
Continuous
 62
     7
370
     0
100
AcDbSpline
210
0.0
220
0.0
230
1.0
 70
     8
 71
     3
 72
    12
 73
     8
 74
     0
 42
0.000000001
 43
0.00000001
 40
0.0
 40
0.0
 40
0.0
 40
0.0
 40
0.1865623225422313
 40
0.373187668378209
 40
0.5597585113633146
 40
0.7795356426662853
 40
1.0
 40
1.0
 40
1.0
 40
1.0
 10
231.1768640047686
 20
174.2666028641902
 30
0.0
 10
231.2259974002893
 20
174.3006646899388
 30
0.0
 10
231.3242807892609
 20
174.3687998479846
 30
0.0
 10
231.3820461105638
 20
174.4995251088576
 30
0.0
 10
231.3786268344899
 20
174.6409208737019
 30
0.0
 10
231.2679059592112
 20
174.7786087758811
 30
0.0
 10
231.147097409166
 20
174.855193877989
 30
0.0
 10
231.086598841826
 20
174.8935462045038
 30
0.0
  0
LINE
  5
373
330
1F
100
AcDbEntity
  8
0
  6
Continuous
 62
     7
370
     0
100
AcDbLine
 10
231.0865988418
 20
174.8935462045
 30
0.0
 11
230.5029111066
 21
175.2305019618
 31
0.0
  0
LINE
  5
374
330
1F
100
AcDbEntity
  8
0
  6
Continuous
 62
     7
370
     0
100
AcDbLine
 10
230.5029111066
 20
175.2305019618
 30
0.0
 11
228.6170573211
 21
174.1418217446
 31
0.0
  0
LINE
  5
375
330
1F
100
AcDbEntity
  8
0
  6
Continuous
 62
     7
370
     0
100
AcDbLine
 10
228.6170573211
 20
174.1418217446
 30
0.0
 11
229.1792919011
 21
173.8172506303
 31
0.0
  0
SPLINE
  5
376
330
1F
100
AcDbEntity
  8
0
  6
Continuous
 62
     7
370
     0
100
AcDbSpline
210
0.0
220
0.0
230
1.0
 70
     8
 71
     3
 72
    13
 73
     9
 74
     0
 42
0.000000001
 43
0.00000001
 40
0.0
 40
0.0
 40
0.0
 40
0.0
 40
0.1869813960432714
 40
0.373724546527038
 40
0.5600363082885095
 40
0.7063922650493574
 40
0.8530951528835835
 40
1.0
 40
1.0
 40
1.0
 40
1.0
 10
229.1792919010832
 20
173.8172506303389
 30
0.0
 10
229.2442294364304
 20
173.7825060326875
 30
0.0
 10
229.3740217658479
 20
173.7130611078111
 30
0.0
 10
229.6075213971617
 20
173.6393172930572
 30
0.0
 10
229.8497535132755
 20
173.6008900341571
 30
0.0
 10
230.0781097437432
 20
173.6245967689578
 30
0.0
 10
230.2620322867652
 20
173.6836047768603
 30
0.0
 10
230.3640371092533
 20
173.7379502389991
 30
0.0
 10
230.4150746027147
 20
173.7651416609427
 30
0.0
  0
SPLINE
  5
377
330
1F
100
AcDbEntity
  8
0
  6
Continuous
 62
     7
370
     0
100
AcDbSpline
210
0.0
220
0.0
230
1.0
 70
     8
 71
     3
 72
    11
 73
     7
 74
     0
 42
0.000000001
 43
0.00000001
 40
0.0
 40
0.0
 40
0.0
 40
0.0
 40
0.279928309980416
 40
0.5591761656877858
 40
0.7799541342269265
 40
1.0
 40
1.0
 40
1.0
 40
1.0
 10
230.4150746027147
 20
173.7651416609428
 30
0.0
 10
230.4647755153194
 20
173.7988515699289
 30
0.0
 10
230.5640565267448
 20
173.866189445308
 30
0.0
 10
230.5972235012102
 20
173.9901584885655
 30
0.0
 10
230.5807587327835
 20
174.1033863555252
 30
0.0
 10
230.5226215580951
 20
174.163938563781
 30
0.0
 10
230.4936012467097
 20
174.1941643865542
 30
0.0
  0
SPLINE
  5
378
330
1F
100
AcDbEntity
  8
0
  6
Continuous
 62
     7
370
     0
100
AcDbSpline
210
0.0
220
0.0
230
1.0
 70
     8
 71
     3
 72
    11
 73
     7
 74
     0
 42
0.000000001
 43
0.00000001
 40
0.0
 40
0.0
 40
0.0
 40
0.0
 40
0.5010809129318927
 40
0.6263148260377832
 40
0.7513756289335145
 40
1.0
 40
1.0
 40
1.0
 40
1.0
 10
231.6779773308805
 20
173.6459686816061
 30
0.0
 10
231.6324922561078
 20
173.7072944789414
 30
0.0
 10
231.575639209108
 20
173.7839472811105
 30
0.0
 10
231.5441970351103
 20
173.88266798924
 30
0.0
 10
231.5631852981783
 20
173.9498553390794
 30
0.0
 10
231.6180182346042
 20
173.9893569436781
 30
0.0
 10
231.6545002929852
 20
174.015638590058
 30
0.0
  0
SPLINE
  5
379
330
1F
100
AcDbEntity
  8
0
  6
Continuous
 62
     7
370
     0
100
AcDbSpline
210
0.0
220
0.0
230
1.0
 70
     8
 71
     3
 72
    11
 73
     7
 74
     0
 42
0.000000001
 43
0.00000001
 40
0.0
 40
0.0
 40
0.0
 40
0.0
 40
0.2805514694372312
 40
0.5589620117629189
 40
0.7792543216260207
 40
1.0
 40
1.0
 40
1.0
 40
1.0
 10
231.6545002929851
 20
174.0156385900579
 30
0.0
 10
231.6912894880167
 20
174.0344001250556
 30
0.0
 10
231.7645871346383
 20
174.0717800231793
 30
0.0
 10
231.9052859187776
 20
174.0850994045892
 30
0.0
 10
232.026494690873
 20
174.0618032141112
 30
0.0
 10
232.0842198405994
 20
174.0327503515119
 30
0.0
 10
232.1131120849761
 20
174.0182089876515
 30
0.0
  0
SPLINE
  5
37A
330
1F
100
AcDbEntity
  8
0
  6
Continuous
 62
     7
370
     0
100
AcDbSpline
210
0.0
220
0.0
230
1.0
 70
     8
 71
     3
 72
    12
 73
     8
 74
     0
 42
0.000000001
 43
0.00000001
 40
0.0
 40
0.0
 40
0.0
 40
0.0
 40
0.1867170237301636
 40
0.3729820038852646
 40
0.5596412962309041
 40
0.7795263698665599
 40
1.0
 40
1.0
 40
1.0
 40
1.0
 10
232.1131120849761
 20
174.0182089876515
 30
0.0
 10
232.139686691542
 20
174.0005984217691
 30
0.0
 10
232.1927715673148
 20
173.9654199253409
 30
0.0
 10
232.229855748683
 20
173.8967729155061
 30
0.0
 10
232.2169762787856
 20
173.8222042252672
 30
0.0
 10
232.1586715295124
 20
173.7497265726215
 30
0.0
 10
232.0897405816455
 20
173.7117279086414
 30
0.0
 10
232.0552290432685
 20
173.6927031833067
 30
0.0
  0
LINE
  5
37B
330
1F
100
AcDbEntity
  8
0
  6
Continuous
 62
     7
370
     0
100
AcDbLine
 10
232.0552290433
 20
173.6927031833
 30
0.0
 11
232.3798598086
 21
173.5052978315
 31
0.0
  0
SPLINE
  5
37C
330
1F
100
AcDbEntity
  8
0
  6
Continuous
 62
     7
370
     0
100
AcDbSpline
210
0.0
220
0.0
230
1.0
 70
     8
 71
     3
 72
    12
 73
     8
 74
     0
 42
0.000000001
 43
0.00000001
 40
0.0
 40
0.0
 40
0.0
 40
0.0
 40
0.186931550698608
 40
0.3738403711573534
 40
0.5604416470942096
 40
0.7796108489997469
 40
1.0
 40
1.0
 40
1.0
 40
1.0
 10
232.3798598086496
 20
173.5052978314873
 30
0.0
 10
232.4335897508869
 20
173.5408990944138
 30
0.0
 10
232.5410431019835
 20
173.6120972912744
 30
0.0
 10
232.6312081744922
 20
173.7447410031029
 30
0.0
 10
232.6711069761691
 20
173.894681624645
 30
0.0
 10
232.5726014144551
 20
174.0488992082448
 30
0.0
 10
232.4439561734622
 20
174.1308675699875
 30
0.0
 10
232.3794550321342
 20
174.1719654982465
 30
0.0
  0
SPLINE
  5
37D
330
1F
100
AcDbEntity
  8
0
  6
Continuous
 62
     7
370
     0
100
AcDbSpline
210
0.0
220
0.0
230
1.0
 70
     8
 71
     3
 72
    11
 73
     7
 74
     0
 42
0.000000001
 43
0.00000001
 40
0.0
 40
0.0
 40
0.0
 40
0.0
 40
0.2798819004322178
 40
0.5596403787790389
 40
0.7796065064277031
 40
0.9999999999999999
 40
0.9999999999999999
 40
0.9999999999999999
 40
0.9999999999999999
 10
232.3794550321342
 20
174.1719654982465
 30
0.0
 10
232.2907855165381
 20
174.2130439017077
 30
0.0
 10
232.1134855867544
 20
174.2951825939101
 30
0.0
 10
231.7916129376886
 20
174.3230294638822
 30
0.0
 10
231.5021808219643
 20
174.2847514882112
 30
0.0
 10
231.3663022033368
 20
174.2178389029334
 30
0.0
 10
231.2982969593999
 20
174.1843501411971
 30
0.0
  0
SPLINE
  5
37E
330
1F
100
AcDbEntity
  8
0
  6
Continuous
 62
     7
370
     0
100
AcDbSpline
210
0.0
220
0.0
230
1.0
 70
     8
 71
     3
 72
    11
 73
     7
 74
     0
 42
0.000000001
 43
0.00000001
 40
0.0
 40
0.0
 40
0.0
 40
0.0
 40
0.2785658681718026
 40
0.5579653007147867
 40
0.7789007333673285
 40
1.0
 40
1.0
 40
1.0
 40
1.0
 10
231.2982969593999
 20
174.1843501411971
 30
0.0
 10
231.2366254178173
 20
174.1375784734868
 30
0.0
 10
231.1130977923027
 20
174.0438951812366
 30
0.0
 10
231.1162418186035
 20
173.8749184768704
 30
0.0
 10
231.1797943182908
 20
173.7317096647555
 30
0.0
 10
231.2417878063753
 20
173.6479206950899
 30
0.0
 10
231.2727960389273
 20
173.6060106826522
 30
0.0
  0
SPLINE
  5
37F
330
1F
100
AcDbEntity
  8
0
  6
Continuous
 62
     7
370
     0
100
AcDbSpline
210
0.0
220
0.0
230
1.0
 70
     8
 71
     3
 72
    11
 73
     7
 74
     0
 42
0.000000001
 43
0.00000001
 40
0.0
 40
0.0
 40
0.0
 40
0.0
 40
0.2808983687142686
 40
0.5615339703650378
 40
0.7815792298219252
 40
1.0
 40
1.0
 40
1.0
 40
1.0
 10
231.2727960389273
 20
173.6060106826521
 30
0.0
 10
231.2985934868303
 20
173.5680831604021
 30
0.0
 10
231.3501642503508
 20
173.4922635952953
 30
0.0
 10
231.3913661069728
 20
173.3821090926961
 30
0.0
 10
231.3934258478054
 20
173.2738354188896
 30
0.0
 10
231.3299281705578
 20
173.2202647844401
 30
0.0
 10
231.2982969593999
 20
173.1935787051443
 30
0.0
  0
SPLINE
  5
380
330
1F
100
AcDbEntity
  8
0
  6
Continuous
 62
     7
370
     0
100
AcDbSpline
210
0.0
220
0.0
230
1.0
 70
     8
 71
     3
 72
    11
 73
     7
 74
     0
 42
0.000000001
 43
0.00000001
 40
0.0
 40
0.0
 40
0.0
 40
0.0
 40
0.2799081200255515
 40
0.5590921822550334
 40
0.7790551543368806
 40
1.0
 40
1.0
 40
1.0
 40
1.0
 10
231.2982969593999
 20
173.1935787051443
 30
0.0
 10
231.2491789672302
 20
173.170682249534
 30
0.0
 10
231.1510700398161
 20
173.1249485661669
 30
0.0
 10
230.9674680507067
 20
173.1114024395917
 30
0.0
 10
230.8155029887644
 20
173.1484745244201
 30
0.0
 10
230.7426277040011
 20
173.1867719782079
 30
0.0
 10
230.7061089173145
 20
173.205963348095
 30
0.0
  0
SPLINE
  5
381
330
1F
100
AcDbEntity
  8
0
  6
Continuous
 62
     7
370
     0
100
AcDbSpline
210
0.0
220
0.0
230
1.0
 70
     8
 71
     3
 72
    11
 73
     7
 74
     0
 42
0.000000001
 43
0.00000001
 40
0.0
 40
0.0
 40
0.0
 40
0.0
 40
0.2793427197537539
 40
0.5587533701810722
 40
0.7790294428240158
 40
1.0
 40
1.0
 40
1.0
 40
1.0
 10
230.7061089173145
 20
173.205963348095
 30
0.0
 10
230.6699012954209
 20
173.2343075142048
 30
0.0
 10
230.59747724665
 20
173.2910027391702
 30
0.0
 10
230.5836114236602
 20
173.3935656041838
 30
0.0
 10
230.6463220474857
 20
173.477920251881
 30
0.0
 10
230.7107026261295
 20
173.5185831990988
 30
0.0
 10
230.7429435802193
 20
173.5389466727118
 30
0.0
  0
LINE
  5
382
330
1F
100
AcDbEntity
  8
0
  6
Continuous
 62
     7
370
     0
100
AcDbLine
 10
230.7429435802
 20
173.5389466727
 30
0.0
 11
230.8332087432
 21
173.5910556421
 31
0.0
  0
LINE
  5
383
330
1F
100
AcDbEntity
  8
0
  6
Continuous
 62
     7
370
     0
100
AcDbLine
 10
230.8332087432
 20
173.5910556421
 30
0.0
 11
230.5089827543
 21
173.7782273214
 31
0.0
  0
LINE
  5
384
330
1F
100
AcDbEntity
  8
0
  6
Continuous
 62
     7
370
     0
100
AcDbLine
 10
230.5089827543
 20
173.7782273214
 30
0.0
 11
230.4077886254
 21
173.7198091943
 31
0.0
  0
SPLINE
  5
385
330
1F
100
AcDbEntity
  8
0
  6
Continuous
 62
     7
370
     0
100
AcDbSpline
210
0.0
220
0.0
230
1.0
 70
     8
 71
     3
 72
    12
 73
     8
 74
     0
 42
0.000000001
 43
0.00000001
 40
0.0
 40
0.0
 40
0.0
 40
0.0
 40
0.1868203161342491
 40
0.3734128875087693
 40
0.5600809420418882
 40
0.7797036431039078
 40
0.9999999999999999
 40
0.9999999999999999
 40
0.9999999999999999
 40
0.9999999999999999
 10
230.4077886254368
 20
173.7198091942931
 30
0.0
 10
230.3548256931897
 20
173.6846638034475
 30
0.0
 10
230.24896439357
 20
173.6144158660185
 30
0.0
 10
230.1706290859713
 20
173.4797986059907
 30
0.0
 10
230.1653418832534
 20
173.3310788491989
 30
0.0
 10
230.2612446699465
 20
173.1810423482872
 30
0.0
 10
230.3874804116897
 20
173.0993997864818
 30
0.0
 10
230.4506949360732
 20
173.0585159952296
 30
0.0
  0
SPLINE
  5
386
330
1F
100
AcDbEntity
  8
0
  6
Continuous
 62
     7
370
     0
100
AcDbSpline
210
0.0
220
0.0
230
1.0
 70
     8
 71
     3
 72
    12
 73
     8
 74
     0
 42
0.000000001
 43
0.00000001
 40
0.0
 40
0.0
 40
0.0
 40
0.0
 40
0.1871787052167687
 40
0.3740252258526495
 40
0.5606670166878676
 40
0.7801258791375629
 40
1.0
 40
1.0
 40
1.0
 40
1.0
 10
230.4506949360733
 20
173.0585159952295
 30
0.0
 10
230.5126862430321
 20
173.0257543309573
 30
0.0
 10
230.6365588414634
 20
172.9602891442815
 30
0.0
 10
230.8649416872902
 20
172.8940914923686
 30
0.0
 10
231.1311901665383
 20
172.8712993431225
 30
0.0
 10
231.4164786726195
 20
172.9069419395907
 30
0.0
 10
231.5680958569739
 20
172.9814849396554
 30
0.0
 10
231.6439761035838
 20
173.018791668784
 30
0.0
  0
SPLINE
  5
387
330
1F
100
AcDbEntity
  8
0
  6
Continuous
 62
     7
370
     0
100
AcDbSpline
210
0.0
220
0.0
230
1.0
 70
     8
 71
     3
 72
    12
 73
     8
 74
     0
 42
0.000000001
 43
0.00000001
 40
0.0
 40
0.0
 40
0.0
 40
0.0
 40
0.1861599336048522
 40
0.3725088255059669
 40
0.559289159937615
 40
0.7795833160649213
 40
1.0
 40
1.0
 40
1.0
 40
1.0
 10
231.6439761035838
 20
173.018791668784
 30
0.0
 10
231.6896806080708
 20
173.0511745744531
 30
0.0
 10
231.7811360085809
 20
173.1159732554777
 30
0.0
 10
231.8284628920157
 20
173.2407101335215
 30
0.0
 10
231.8211367564069
 20
173.3724494750937
 30
0.0
 10
231.7700355508777
 20
173.5093175985568
 30
0.0
 10
231.7086690913114
 20
173.6004098786695
 30
0.0
 10
231.6779773308805
 20
173.6459686816062
 30
0.0
  0
LWPOLYLINE
  5
388
330
1F
100
AcDbEntity
  8
0
  6
Continuous
 62
     7
370
     0
100
AcDbPolyline
 90
       16
 70
   128
 43
0.0
 10
241.0789533357
 20
155.6184036254
 10
241.0958983934
 20
155.4287010106
 10
241.1459412344
 20
155.228304332
 10
241.2267419111
 20
155.0265839157
 10
241.3345222736
 20
154.8329719841
 10
241.4642426321
 20
154.6565216159
 10
241.6098374066
 20
154.5054834342
 10
241.7644987473
 20
154.3869198166
 10
241.920994862
 20
154.3063746661
 10
242.0720081661
 20
154.2676141843
 10
242.2104774454
 20
154.2724507682
 10
242.3299280303
 20
154.3206582647
 10
242.4247745442
 20
154.4099825448
 10
242.4905820696
 20
154.5362469044
 10
242.5242735197
 20
154.6935473623
 10
242.525367023
 20
154.7053961846
  0
LWPOLYLINE
  5
389
330
1F
100
AcDbEntity
  8
0
  6
Continuous
 62
     7
370
     0
100
AcDbPolyline
 90
        8
 70
   128
 43
0.0
 10
241.7362994592
 20
156.0722492482
 10
241.6098374066
 20
156.1183781153
 10
241.4642426321
 20
156.1354400821
 10
241.3345222736
 20
156.1087616518
 10
241.2267419111
 20
156.039590278
 10
241.1459412344
 20
155.9311603372
 10
241.0958983934
 20
155.788541893
 10
241.0789533357
 20
155.6184036254
  0
LINE
  5
38A
330
1F
100
AcDbEntity
  8
0
  6
Continuous
 62
     7
370
     0
100
AcDbLine
 10
247.1070386454
 20
148.4639242352
 30
0.0
 11
246.9656172891
 21
148.382256884
 31
0.0
  0
ARC
  5
38B
330
1F
100
AcDbEntity
  8
0
  6
Continuous
 62
     7
370
     0
100
AcDbCircle
 10
246.6895848754
 20
148.7206664431
 30
0.0
 40
0.4367091974285027
100
AcDbArc
 50
170.7859630095
 51
309.2032852357
  0
ARC
  5
38C
330
1F
100
AcDbEntity
  8
0
  6
Continuous
 62
     7
370
     0
100
AcDbCircle
 10
209.2575366609
 20
170.3648445747
 30
0.0
 40
0.479525546371446
100
AcDbArc
 50
172.744170435
 51
235.9436491716
  0
LINE
  5
38D
330
1F
100
AcDbEntity
  8
0
  6
Continuous
 62
     7
370
     0
100
AcDbLine
 10
261.4613063034
 20
156.7504665702
 30
0.0
 11
261.3198849472
 21
156.668799219
 31
0.0
  0
LINE
  5
38E
330
1F
100
AcDbEntity
  8
0
  6
Continuous
 62
     7
370
     0
100
AcDbLine
 10
261.3198849472
 20
156.668799219
 30
0.0
 11
246.9656172891
 21
148.382256884
 31
0.0
  0
LINE
  5
38F
330
1F
100
AcDbEntity
  8
0
  6
Continuous
 62
     7
370
     0
100
AcDbLine
 10
261.4613063034
 20
157.8119032756
 30
0.0
 11
260.7892148495
 21
158.1998934134
 31
0.0
  0
ARC
  5
390
330
1F
100
AcDbEntity
  8
0
  6
Continuous
 62
     7
370
     0
100
AcDbCircle
 10
261.38384279
 20
157.6078012477
 30
0.0
 40
0.2183076584171494
100
AcDbArc
 50
290.7834207995
 51
69.2165792005
  0
LINE
  5
391
330
1F
100
AcDbEntity
  8
0
  6
Continuous
 62
     7
370
     0
100
AcDbLine
 10
261.3198849472
 20
165.8956705833
 30
0.0
 11
261.4613063034
 21
165.8140032321
 31
0.0
  0
ARC
  5
392
330
1F
100
AcDbEntity
  8
0
  6
Continuous
 62
     7
370
     0
100
AcDbCircle
 10
261.38384279
 20
165.6099012041
 30
0.0
 40
0.2183076584171696
100
AcDbArc
 50
290.7834207995
 51
69.2165792005
  0
ARC
  5
393
330
1F
100
AcDbEntity
  8
0
  6
Continuous
 62
     7
370
     0
100
AcDbCircle
 10
261.3575243816
 20
164.9816217431
 30
0.0
 40
0.2514696392469105
100
AcDbArc
 50
294.3746582936
 51
354.3052007488
  0
ARC
  5
394
330
1F
100
AcDbEntity
  8
0
  6
Continuous
 62
     7
370
     0
100
AcDbCircle
 10
261.3575243816
 20
156.9795217866
 30
0.0
 40
0.251469639247032
100
AcDbArc
 50
294.3746582936
 51
354.3052007488
  0
SPLINE
  5
395
330
1F
100
AcDbEntity
  8
0
  6
Continuous
 62
     7
370
     0
100
AcDbSpline
210
0.0
220
0.0
230
1.0
 70
     8
 71
     3
 72
    11
 73
     7
 74
     0
 42
0.000000001
 43
0.00000001
 40
0.0
 40
0.0
 40
0.0
 40
0.0
 40
0.2804256065571077
 40
0.5581440721672343
 40
0.778855871858637
 40
1.0
 40
1.0
 40
1.0
 40
1.0
 10
230.8522332393875
 20
174.4540082160096
 30
0.0
 10
230.887722810635
 20
174.4770330389374
 30
0.0
 10
230.9583593479283
 20
174.5228604103663
 30
0.0
 10
230.9732977785893
 20
174.6121339580891
 30
0.0
 10
230.9237083457485
 20
174.6860346042653
 30
0.0
 10
230.8690599719147
 20
174.7220153773862
 30
0.0
 10
230.8417090499861
 20
174.7400233664173
 30
0.0
  0
LINE
  5
396
330
1F
100
AcDbEntity
  8
0
  6
Continuous
 62
     7
370
     0
100
AcDbLine
 10
230.84170905
 20
174.7400233664
 30
0.0
 11
230.5717231142
 21
174.8958829296
 31
0.0
  0
LINE
  5
397
330
1F
100
AcDbEntity
  8
0
  6
Continuous
 62
     7
370
     0
100
AcDbLine
 10
230.5717231142
 20
174.8958829296
 30
0.0
 11
230.054823504
 21
174.5974831362
 31
0.0
  0
LINE
  5
398
330
1F
100
AcDbEntity
  8
0
  6
Continuous
 62
     7
370
     0
100
AcDbLine
 10
230.054823504
 20
174.5974831362
 30
0.0
 11
230.3142852504
 21
174.4476990583
 31
0.0
  0
SPLINE
  5
399
330
1F
100
AcDbEntity
  8
0
  6
Continuous
 62
     7
370
     0
100
AcDbSpline
210
0.0
220
0.0
230
1.0
 70
     8
 71
     3
 72
    11
 73
     7
 74
     0
 42
0.000000001
 43
0.00000001
 40
0.0
 40
0.0
 40
0.0
 40
0.0
 40
0.2802422949783317
 40
0.5591336900081545
 40
0.7790654040455058
 40
1.0
 40
1.0
 40
1.0
 40
1.0
 10
230.3142852503707
 20
174.44769905828
 30
0.0
 10
230.3586887754602
 20
174.4267148021204
 30
0.0
 10
230.4472817797196
 20
174.3848474438065
 30
0.0
 10
230.6134395652916
 20
174.3678830627602
 30
0.0
 10
230.7528995814024
 20
174.4014743338483
 30
0.0
 10
230.8190718438765
 20
174.4364703856365
 30
0.0
 10
230.8522332393875
 20
174.4540082160096
 30
0.0
  0
SPLINE
  5
39A
330
1F
100
AcDbEntity
  8
0
  6
Continuous
 62
     7
370
     0
100
AcDbSpline
210
0.0
220
0.0
230
1.0
 70
     8
 71
     3
 72
    12
 73
     8
 74
     0
 42
0.000000001
 43
0.00000001
 40
0.0
 40
0.0
 40
0.0
 40
0.0
 40
0.1868870835274176
 40
0.3729957273126853
 40
0.559223165923802
 40
0.7795587779389638
 40
0.9999999999999999
 40
0.9999999999999999
 40
0.9999999999999999
 40
0.9999999999999999
 10
230.0799196479323
 20
173.9586224979833
 30
0.0
 10
230.1095393978987
 20
173.9776437500186
 30
0.0
 10
230.1686555228496
 20
174.0156070249726
 30
0.0
 10
230.2153857238335
 20
174.0904271321479
 30
0.0
 10
230.1918806978729
 20
174.1721243781927
 30
0.0
 10
230.1302487402327
 20
174.2510087711596
 30
0.0
 10
230.0610812028502
 20
174.2962963108211
 30
0.0
 10
230.0264891478945
 20
174.3189455060948
 30
0.0
  0
LINE
  5
39B
330
1F
100
AcDbEntity
  8
0
  6
Continuous
 62
     7
370
     0
100
AcDbLine
 10
230.0264891479
 20
174.3189455061
 30
0.0
 11
229.7994095227
 21
174.4500357834
 31
0.0
  0
LINE
  5
39C
330
1F
100
AcDbEntity
  8
0
  6
Continuous
 62
     7
370
     0
100
AcDbLine
 10
229.7994095227
 20
174.4500357834
 30
0.0
 11
229.1966972912
 21
174.1020974182
 31
0.0
  0
LINE
  5
39D
330
1F
100
AcDbEntity
  8
0
  6
Continuous
 62
     7
370
     0
100
AcDbLine
 10
229.1966972912
 20
174.1020974182
 30
0.0
 11
229.3917995717
 21
173.9894672691
 31
0.0
  0
SPLINE
  5
39E
330
1F
100
AcDbEntity
  8
0
  6
Continuous
 62
     7
370
     0
100
AcDbSpline
210
0.0
220
0.0
230
1.0
 70
     8
 71
     3
 72
    11
 73
     7
 74
     0
 42
0.000000001
 43
0.00000001
 40
0.0
 40
0.0
 40
0.0
 40
0.0
 40
0.2813809182232799
 40
0.5600504110809924
 40
0.7790306818451979
 40
1.0
 40
1.0
 40
1.0
 40
1.0
 10
229.3917995716881
 20
173.9894672691056
 30
0.0
 10
229.4464232558245
 20
173.9603504534233
 30
0.0
 10
229.5551442627376
 20
173.9023973957134
 30
0.0
 10
229.7588431403954
 20
173.8529141250347
 30
0.0
 10
229.950763896683
 20
173.8897441647516
 30
0.0
 10
230.036738165327
 20
173.93559395671
 30
0.0
 10
230.0799196479323
 20
173.9586224979832
 30
0.0
  0
LINE
  5
39F
330
1F
100
AcDbEntity
  8
0
  6
Continuous
 62
     7
370
     0
100
AcDbLine
 10
223.7779656425
 20
174.0157846297
 30
0.0
 11
224.7140774054
 21
174.5561904476
 31
0.0
  0
LINE
  5
3A0
330
1F
100
AcDbEntity
  8
0
  6
Continuous
 62
     7
370
     0
100
AcDbLine
 10
224.2476963341
 20
174.6846916712
 30
0.0
 11
224.4143502522
 21
174.7808989303
 31
0.0
  0
SPLINE
  5
3A1
330
1F
100
AcDbEntity
  8
0
  6
Continuous
 62
     7
370
     0
100
AcDbSpline
210
0.0
220
0.0
230
1.0
 70
     8
 71
     3
 72
    11
 73
     7
 74
     0
 42
0.000000001
 43
0.00000001
 40
0.0
 40
0.0
 40
0.0
 40
0.0
 40
0.2799471824924136
 40
0.5602109593750929
 40
0.7801642232599095
 40
1.0
 40
1.0
 40
1.0
 40
1.0
 10
224.4143502521984
 20
174.7808989302845
 30
0.0
 10
224.4828556954318
 20
174.7657887575744
 30
0.0
 10
224.6199440552234
 20
174.7355513239452
 30
0.0
 10
224.8232815432053
 20
174.7203787832599
 30
0.0
 10
225.0135177388292
 20
174.7242672942916
 30
0.0
 10
225.1213710308978
 20
174.7482862206298
 30
0.0
 10
225.1752832707349
 20
174.760292475539
 30
0.0
  0
LINE
  5
3A2
330
1F
100
AcDbEntity
  8
0
  6
Continuous
 62
     7
370
     0
100
AcDbLine
 10
225.1752832707
 20
174.7602924755
 30
0.0
 11
225.3226990085
 21
174.6751911816
 31
0.0
  0
LINE
  5
3A3
330
1F
100
AcDbEntity
  8
0
  6
Continuous
 62
     7
370
     0
100
AcDbLine
 10
224.7140774054
 20
174.5561904476
 30
0.0
 11
224.7140774054
 21
174.6378445288
 31
0.0
  0
LINE
  5
3A4
330
1F
100
AcDbEntity
  8
0
  6
Continuous
 62
     7
370
     0
100
AcDbLine
 10
228.6117952264
 20
175.0963739419
 30
0.0
 11
228.8987817759
 21
174.9307001334
 31
0.0
  0
LINE
  5
3A5
330
1F
100
AcDbEntity
  8
0
  6
Continuous
 62
     7
370
     0
100
AcDbLine
 10
228.8987817759
 20
174.9307001334
 30
0.0
 11
229.2779135165
 21
175.3160541635
 31
0.0
  0
LINE
  5
3A6
330
1F
100
AcDbEntity
  8
0
  6
Continuous
 62
     7
370
     0
100
AcDbLine
 10
229.2779135165
 20
175.3160541635
 30
0.0
 11
228.6117952264
 21
175.0963739419
 31
0.0
  0
LINE
  5
3A7
330
1F
100
AcDbEntity
  8
0
  6
Continuous
 62
     7
370
     0
100
AcDbLine
 10
222.2368354784
 20
174.9054601362
 30
0.0
 11
223.5803268693
 21
175.6810412074
 31
0.0
  0
LINE
  5
3A8
330
1F
100
AcDbEntity
  8
0
  6
Continuous
 62
     7
370
     0
100
AcDbLine
 10
223.5803268693
 20
175.6810412074
 30
0.0
 11
224.4705446824
 21
175.1671294028
 31
0.0
  0
LINE
  5
3A9
330
1F
100
AcDbEntity
  8
0
  6
Continuous
 62
     7
370
     0
100
AcDbLine
 10
223.2721008364
 20
175.1891029862
 30
0.0
 11
223.7996997875
 21
174.8845265949
 31
0.0
  0
LINE
  5
3AA
330
1F
100
AcDbEntity
  8
0
  6
Continuous
 62
     7
370
     0
100
AcDbLine
 10
225.1752832707
 20
174.7602924755
 30
0.0
 11
225.1752832707
 21
174.8419465567
 31
0.0
  0
LINE
  5
3AB
330
1F
100
AcDbEntity
  8
0
  6
Continuous
 62
     7
370
     0
100
AcDbLine
 10
224.4143502522
 20
174.7808989303
 30
0.0
 11
224.4143502522
 21
174.8625530115
 31
0.0
  0
LINE
  5
3AC
330
1F
100
AcDbEntity
  8
0
  6
Continuous
 62
     7
370
     0
100
AcDbLine
 10
223.2721008364
 20
175.1891029862
 30
0.0
 11
223.2721008364
 21
175.2707570674
 31
0.0
  0
LINE
  5
3AD
330
1F
100
AcDbEntity
  8
0
  6
Continuous
 62
     7
370
     0
100
AcDbLine
 10
223.5803268693
 20
175.6810412074
 30
0.0
 11
223.5803268693
 21
175.7626952886
 31
0.0
  0
LINE
  5
3AE
330
1F
100
AcDbEntity
  8
0
  6
Continuous
 62
     7
370
     0
100
AcDbLine
 10
221.2831719504
 20
175.4559983724
 30
0.0
 11
222.1298514207
 21
176.5183828606
 31
0.0
  0
LINE
  5
3AF
330
1F
100
AcDbEntity
  8
0
  6
Continuous
 62
     7
370
     0
100
AcDbLine
 10
222.1298514207
 20
176.5183828606
 30
0.0
 11
222.3715785317
 21
176.3788367697
 31
0.0
  0
LINE
  5
3B0
330
1F
100
AcDbEntity
  8
0
  6
Continuous
 62
     7
370
     0
100
AcDbLine
 10
221.7400361439
 20
175.5292730328
 30
0.0
 11
223.1647316577
 21
175.9209592162
 31
0.0
  0
LINE
  5
3B1
330
1F
100
AcDbEntity
  8
0
  6
Continuous
 62
     7
370
     0
100
AcDbLine
 10
223.1647316577
 20
175.9209592162
 30
0.0
 11
223.356634796
 21
175.8101758926
 31
0.0
  0
LINE
  5
3B2
330
1F
100
AcDbEntity
  8
0
  6
Continuous
 62
     7
370
     0
100
AcDbLine
 10
223.1647316577
 20
175.9209592162
 30
0.0
 11
223.1647316577
 21
176.0026132974
 31
0.0
  0
LINE
  5
3B3
330
1F
100
AcDbEntity
  8
0
  6
Continuous
 62
     7
370
     0
100
AcDbLine
 10
221.7400361439
 20
175.5292730328
 30
0.0
 11
221.7400361439
 21
175.610927114
 31
0.0
  0
LINE
  5
3B4
330
1F
100
AcDbEntity
  8
0
  6
Continuous
 62
     7
370
     0
100
AcDbLine
 10
222.1298514207
 20
176.5183828606
 30
0.0
 11
222.1298514207
 21
176.6000369418
 31
0.0
  0
LINE
  5
3B5
330
1F
100
AcDbEntity
  8
0
  6
Continuous
 62
     7
370
     0
100
AcDbLine
 10
224.1546725771
 20
176.6557447367
 30
0.0
 11
225.969804191
 21
177.7035979132
 31
0.0
  0
LINE
  5
3B6
330
1F
100
AcDbEntity
  8
0
  6
Continuous
 62
     7
370
     0
100
AcDbLine
 10
225.969804191
 20
177.7035979132
 30
0.0
 11
226.948320451
 21
177.1387125002
 31
0.0
  0
SPLINE
  5
3B7
330
1F
100
AcDbEntity
  8
0
  6
Continuous
 62
     7
370
     0
100
AcDbSpline
210
0.0
220
0.0
230
1.0
 70
     8
 71
     3
 72
    10
 73
     6
 74
     0
 42
0.000000001
 43
0.00000001
 40
0.0
 40
0.0
 40
0.0
 40
0.0
 40
0.3528224616548283
 40
0.7053172734076895
 40
1.0
 40
1.0
 40
1.0
 40
1.0
 10
226.9483204510415
 20
177.1387125002424
 30
0.0
 10
227.0110502737965
 20
177.100641700894
 30
0.0
 10
227.1364516650214
 20
177.0245354567877
 30
0.0
 10
227.3051687556184
 20
176.9070917691583
 30
0.0
 10
227.3496580269437
 20
176.8127952023918
 30
0.0
 10
227.3699155590759
 20
176.7698586544485
 30
0.0
  0
SPLINE
  5
3B8
330
1F
100
AcDbEntity
  8
0
  6
Continuous
 62
     7
370
     0
100
AcDbSpline
210
0.0
220
0.0
230
1.0
 70
     8
 71
     3
 72
     9
 73
     5
 74
     0
 42
0.000000001
 43
0.00000001
 40
0.0
 40
0.0
 40
0.0
 40
0.0
 40
0.5601696408921772
 40
1.0
 40
1.0
 40
1.0
 40
1.0
 10
226.1584661058475
 20
176.3734551398349
 30
0.0
 10
226.1777880658515
 20
176.3505127238595
 30
0.0
 10
226.212281116873
 20
176.3095565307698
 30
0.0
 10
226.2301878886818
 20
176.2652516151938
 30
0.0
 10
226.2380638305569
 20
176.2457649682658
 30
0.0
  0
LINE
  5
3B9
330
1F
100
AcDbEntity
  8
0
  6
Continuous
 62
     7
370
     0
100
AcDbLine
 10
225.3145045968
 20
175.9861879637
 30
0.0
 11
225.5438798276
 21
176.4322191288
 31
0.0
  0
SPLINE
  5
3BA
330
1F
100
AcDbEntity
  8
0
  6
Continuous
 62
     7
370
     0
100
AcDbSpline
210
0.0
220
0.0
230
1.0
 70
     8
 71
     3
 72
     9
 73
     5
 74
     0
 42
0.000000001
 43
0.00000001
 40
0.0
 40
0.0
 40
0.0
 40
0.0
 40
0.6770789174093557
 40
1.0
 40
1.0
 40
1.0
 40
1.0
 10
225.5438798275618
 20
176.4322191288269
 30
0.0
 10
225.5584261174863
 20
176.4585795587376
 30
0.0
 10
225.5799100088769
 20
176.4975121399077
 30
0.0
 10
225.5805383976608
 20
176.5381566409901
 30
0.0
 10
225.5807413176472
 20
176.5512816072811
 30
0.0
  0
LINE
  5
3BB
330
1F
100
AcDbEntity
  8
0
  6
Continuous
 62
     7
370
     0
100
AcDbLine
 10
225.7983629378
 20
176.9259691867
 30
0.0
 11
226.0474885089
 21
176.7821520558
 31
0.0
  0
SPLINE
  5
3BC
330
1F
100
AcDbEntity
  8
0
  6
Continuous
 62
     7
370
     0
100
AcDbSpline
210
0.0
220
0.0
230
1.0
 70
     8
 71
     3
 72
     9
 73
     5
 74
     0
 42
0.000000001
 43
0.00000001
 40
0.0
 40
0.0
 40
0.0
 40
0.0
 40
0.5598127168888174
 40
1.0
 40
1.0
 40
1.0
 40
1.0
 10
226.0474885088967
 20
176.7821520557569
 30
0.0
 10
226.0800149236893
 20
176.7669311430622
 30
0.0
 10
226.1381172386446
 20
176.7397418487938
 30
0.0
 10
226.2008726585489
 20
176.7162683427286
 30
0.0
 10
226.2284967963371
 20
176.7059356038688
 30
0.0
  0
SPLINE
  5
3BD
330
1F
100
AcDbEntity
  8
0
  6
Continuous
 62
     7
370
     0
100
AcDbSpline
210
0.0
220
0.0
230
1.0
 70
     8
 71
     3
 72
    11
 73
     7
 74
     0
 42
0.000000001
 43
0.00000001
 40
0.0
 40
0.0
 40
0.0
 40
0.0
 40
0.2797326981239541
 40
0.5592718802497987
 40
0.7796589455822136
 40
1.0
 40
1.0
 40
1.0
 40
1.0
 10
226.2284967963371
 20
176.7059356038688
 30
0.0
 10
226.255139950367
 20
176.6976191227674
 30
0.0
 10
226.3084078269864
 20
176.6809919138149
 30
0.0
 10
226.3945184370314
 20
176.6819666211406
 30
0.0
 10
226.4691148003259
 20
176.6955205886898
 30
0.0
 10
226.505147154211
 20
176.7133631374729
 30
0.0
 10
226.5231614503097
 20
176.7222834805057
 30
0.0
  0
SPLINE
  5
3BE
330
1F
100
AcDbEntity
  8
0
  6
Continuous
 62
     7
370
     0
100
AcDbSpline
210
0.0
220
0.0
230
1.0
 70
     8
 71
     3
 72
     9
 73
     5
 74
     0
 42
0.000000001
 43
0.00000001
 40
0.0
 40
0.0
 40
0.0
 40
0.0
 40
0.7041514704558385
 40
1.0
 40
1.0
 40
1.0
 40
1.0
 10
226.5231614503096
 20
176.7222834805057
 30
0.0
 10
226.5530303953952
 20
176.7428642872829
 30
0.0
 10
226.5954487476087
 20
176.7720920992533
 30
0.0
 10
226.5977798113615
 20
176.8091181856717
 30
0.0
 10
226.5984694531449
 20
176.8200722988935
 30
0.0
  0
LINE
  5
3BF
330
1F
100
AcDbEntity
  8
0
  6
Continuous
 62
     7
370
     0
100
AcDbLine
 10
219.7347653296
 20
176.3498744879
 30
0.0
 11
221.0782567204
 21
177.1254555591
 31
0.0
  0
LINE
  5
3C0
330
1F
100
AcDbEntity
  8
0
  6
Continuous
 62
     7
370
     0
100
AcDbLine
 10
221.0782567204
 20
177.1254555591
 30
0.0
 11
221.9684745336
 21
176.6115437545
 31
0.0
  0
LINE
  5
3C1
330
1F
100
AcDbEntity
  8
0
  6
Continuous
 62
     7
370
     0
100
AcDbLine
 10
220.7700306876
 20
176.6335173379
 30
0.0
 11
221.2976296386
 21
176.3289409466
 31
0.0
  0
LINE
  5
3C2
330
1F
100
AcDbEntity
  8
0
  6
Continuous
 62
     7
370
     0
100
AcDbLine
 10
225.5438798276
 20
176.4322191288
 30
0.0
 11
225.5438798276
 21
176.51387321
 31
0.0
  0
LINE
  5
3C3
330
1F
100
AcDbEntity
  8
0
  6
Continuous
 62
     7
370
     0
100
AcDbLine
 10
226.2380638306
 20
176.2457649683
 30
0.0
 11
226.2380638306
 21
176.3274190495
 31
0.0
  0
LINE
  5
3C4
330
1F
100
AcDbEntity
  8
0
  6
Continuous
 62
     7
370
     0
100
AcDbLine
 10
226.1584661058
 20
176.3734551398
 30
0.0
 11
226.1584661058
 21
176.455109221
 31
0.0
  0
LINE
  5
3C5
330
1F
100
AcDbEntity
  8
0
  6
Continuous
 62
     7
370
     0
100
AcDbLine
 10
220.7700306876
 20
176.6335173379
 30
0.0
 11
220.7700306876
 21
176.7151714191
 31
0.0
  0
LINE
  5
3C6
330
1F
100
AcDbEntity
  8
0
  6
Continuous
 62
     7
370
     0
100
AcDbLine
 10
221.0782567204
 20
177.1254555591
 30
0.0
 11
221.0782567204
 21
177.2071096403
 31
0.0
  0
LINE
  5
3C7
330
1F
100
AcDbEntity
  8
0
  6
Continuous
 62
     7
370
     0
100
AcDbLine
 10
226.948320451
 20
177.1387125002
 30
0.0
 11
226.948320451
 21
177.2203665814
 31
0.0
  0
SPLINE
  5
3C8
330
1F
100
AcDbEntity
  8
0
  6
Continuous
 62
     7
370
     0
100
AcDbSpline
210
0.0
220
0.0
230
1.0
 70
     8
 71
     3
 72
    10
 73
     6
 74
     0
 42
0.000000001
 43
0.00000001
 40
0.0
 40
0.0
 40
0.0
 40
0.0
 40
0.1989946292482671
 40
0.5100477467755601
 40
0.9999999999999999
 40
0.9999999999999999
 40
0.9999999999999999
 40
0.9999999999999999
 10
218.5933532069839
 20
177.0087976806921
 30
0.0
 10
218.6452081716235
 20
177.0282951185756
 30
0.0
 10
218.7781188334515
 20
177.0782694535511
 30
0.0
 10
219.0902115983316
 20
177.1074712290602
 30
0.0
 10
219.3365737352421
 20
177.1060472180617
 30
0.0
 10
219.4872664627767
 20
177.1051761909465
 30
0.0
  0
SPLINE
  5
3C9
330
1F
100
AcDbEntity
  8
0
  6
Continuous
 62
     7
370
     0
100
AcDbSpline
210
0.0
220
0.0
230
1.0
 70
     8
 71
     3
 72
     9
 73
     5
 74
     0
 42
0.000000001
 43
0.00000001
 40
0.0
 40
0.0
 40
0.0
 40
0.0
 40
0.5602366122649474
 40
0.9999999999999999
 40
0.9999999999999999
 40
0.9999999999999999
 40
0.9999999999999999
 10
219.4872664627767
 20
177.1051761909465
 30
0.0
 10
219.5704700772274
 20
177.1038109353636
 30
0.0
 10
219.7189852092789
 20
177.1013740086204
 30
0.0
 10
219.8669650463931
 20
177.108785643522
 30
0.0
 10
219.9320411608789
 20
177.112045009195
 30
0.0
  0
SPLINE
  5
3CA
330
1F
100
AcDbEntity
  8
0
  6
Continuous
 62
     7
370
     0
100
AcDbSpline
210
0.0
220
0.0
230
1.0
 70
     8
 71
     3
 72
     9
 73
     5
 74
     0
 42
0.000000001
 43
0.00000001
 40
0.0
 40
0.0
 40
0.0
 40
0.0
 40
0.5600606606765884
 40
1.0
 40
1.0
 40
1.0
 40
1.0
 10
219.9320411608789
 20
177.112045009195
 30
0.0
 10
219.9771892601766
 20
177.1188438945991
 30
0.0
 10
220.0578021338664
 20
177.130983446404
 30
0.0
 10
220.1213652617115
 20
177.1617853110666
 30
0.0
 10
220.149329182181
 20
177.1753362630562
 30
0.0
  0
SPLINE
  5
3CB
330
1F
100
AcDbEntity
  8
0
  6
Continuous
 62
     7
370
     0
100
AcDbSpline
210
0.0
220
0.0
230
1.0
 70
     8
 71
     3
 72
     9
 73
     5
 74
     0
 42
0.000000001
 43
0.00000001
 40
0.0
 40
0.0
 40
0.0
 40
0.0
 40
0.5199742164733258
 40
1.0
 40
1.0
 40
1.0
 40
1.0
 10
220.149329182181
 20
177.1753362630562
 30
0.0
 10
220.1755388980723
 20
177.191530532503
 30
0.0
 10
220.2259446971697
 20
177.2226749026152
 30
0.0
 10
220.2355524356864
 20
177.2648286650414
 30
0.0
 10
220.2401643978958
 20
177.2850635578786
 30
0.0
  0
SPLINE
  5
3CC
330
1F
100
AcDbEntity
  8
0
  6
Continuous
 62
     7
370
     0
100
AcDbSpline
210
0.0
220
0.0
230
1.0
 70
     8
 71
     3
 72
    11
 73
     7
 74
     0
 42
0.000000001
 43
0.00000001
 40
0.0
 40
0.0
 40
0.0
 40
0.0
 40
0.2075265432159757
 40
0.5140697116037541
 40
0.7568028642284265
 40
1.0
 40
1.0
 40
1.0
 40
1.0
 10
219.6047659608176
 20
177.5554614299414
 30
0.0
 10
219.6553053458037
 20
177.5763457658942
 30
0.0
 10
219.7804978472631
 20
177.6280789292472
 30
0.0
 10
220.0180347277274
 20
177.6421112479506
 30
0.0
 10
220.2446654315439
 20
177.5949954195191
 30
0.0
 10
220.3538837216527
 20
177.5397306630936
 30
0.0
 10
220.4085450094189
 20
177.5120719005248
 30
0.0
  0
SPLINE
  5
3CD
330
1F
100
AcDbEntity
  8
0
  6
Continuous
 62
     7
370
     0
100
AcDbSpline
210
0.0
220
0.0
230
1.0
 70
     8
 71
     3
 72
     9
 73
     5
 74
     0
 42
0.000000001
 43
0.00000001
 40
0.0
 40
0.0
 40
0.0
 40
0.0
 40
0.5123609358708682
 40
1.0
 40
1.0
 40
1.0
 40
1.0
 10
220.4085450094189
 20
177.5120719005247
 30
0.0
 10
220.4676934289037
 20
177.4744496637531
 30
0.0
 10
220.5831363039238
 20
177.4010204966606
 30
0.0
 10
220.6038396561194
 20
177.3027319162118
 30
0.0
 10
220.6139354194083
 20
177.2548025648271
 30
0.0
  0
LINE
  5
3CE
330
1F
100
AcDbEntity
  8
0
  6
Continuous
 62
     7
370
     0
100
AcDbLine
 10
219.1747909902
 20
176.9054898319
 30
0.0
 11
219.6295828728
 21
176.6429440665
 31
0.0
  0
LINE
  5
3CF
330
1F
100
AcDbEntity
  8
0
  6
Continuous
 62
     7
370
     0
100
AcDbLine
 10
219.1747909902
 20
176.9054898319
 30
0.0
 11
219.1747909902
 21
176.9871439131
 31
0.0
  0
SPLINE
  5
3D0
330
1F
100
AcDbEntity
  8
0
  6
Continuous
 62
     7
370
     0
100
AcDbSpline
210
0.0
220
0.0
230
1.0
 70
     8
 71
     3
 72
    12
 73
     8
 74
     0
 42
0.000000001
 43
0.00000001
 40
0.0
 40
0.0
 40
0.0
 40
0.0
 40
0.2485360011483781
 40
0.3738894783368396
 40
0.498887402541539
 40
0.749128626949937
 40
1.0
 40
1.0
 40
1.0
 40
1.0
 10
226.5231614503096
 20
176.8039375616942
 30
0.0
 10
226.5518607913471
 20
176.8245306814128
 30
0.0
 10
226.5950351467706
 20
176.8555103010789
 30
0.0
 10
226.6032177143177
 20
176.9084115169538
 30
0.0
 10
226.5824285695609
 20
176.9593207691502
 30
0.0
 10
226.5175447943101
 20
177.0137415685053
 30
0.0
 10
226.4560040738356
 20
177.051179452081
 30
0.0
 10
226.4251950198979
 20
177.0699219329213
 30
0.0
  0
SPLINE
  5
3D1
330
1F
100
AcDbEntity
  8
0
  6
Continuous
 62
     7
370
     0
100
AcDbSpline
210
0.0
220
0.0
230
1.0
 70
     8
 71
     3
 72
    11
 73
     7
 74
     0
 42
0.000000001
 43
0.00000001
 40
0.0
 40
0.0
 40
0.0
 40
0.0
 40
0.2797326981239541
 40
0.5592718802497987
 40
0.7796589455822136
 40
1.0
 40
1.0
 40
1.0
 40
1.0
 10
226.2284967963371
 20
176.7875896850573
 30
0.0
 10
226.255139950367
 20
176.779273203956
 30
0.0
 10
226.3084078269864
 20
176.7626459950035
 30
0.0
 10
226.3945184370314
 20
176.7636207023291
 30
0.0
 10
226.4691148003259
 20
176.7771746698783
 30
0.0
 10
226.505147154211
 20
176.7950172186615
 30
0.0
 10
226.5231614503097
 20
176.8039375616943
 30
0.0
  0
SPLINE
  5
3D2
330
1F
100
AcDbEntity
  8
0
  6
Continuous
 62
     7
370
     0
100
AcDbSpline
210
0.0
220
0.0
230
1.0
 70
     8
 71
     3
 72
     9
 73
     5
 74
     0
 42
0.000000001
 43
0.00000001
 40
0.0
 40
0.0
 40
0.0
 40
0.0
 40
0.5598127168888174
 40
1.0
 40
1.0
 40
1.0
 40
1.0
 10
226.0474885088967
 20
176.8638061369455
 30
0.0
 10
226.0800149236893
 20
176.8485852242508
 30
0.0
 10
226.1381172386446
 20
176.8213959299824
 30
0.0
 10
226.2008726585489
 20
176.7979224239172
 30
0.0
 10
226.2284967963371
 20
176.7875896850573
 30
0.0
  0
LINE
  5
3D3
330
1F
100
AcDbEntity
  8
0
  6
Continuous
 62
     7
370
     0
100
AcDbLine
 10
225.7983629378
 20
177.0076232679
 30
0.0
 11
226.0474885089
 21
176.8638061369
 31
0.0
  0
LINE
  5
3D4
330
1F
100
AcDbEntity
  8
0
  6
Continuous
 62
     7
370
     0
100
AcDbLine
 10
226.1657370519
 20
177.2197038297
 30
0.0
 11
225.7983629378
 21
177.0076232679
 31
0.0
  0
LINE
  5
3D5
330
1F
100
AcDbEntity
  8
0
  6
Continuous
 62
     7
370
     0
100
AcDbLine
 10
226.4251950199
 20
177.0699219329
 30
0.0
 11
226.1657370519
 21
177.2197038297
 31
0.0
  0
LINE
  5
3D6
330
1F
100
AcDbEntity
  8
0
  6
Continuous
 62
     7
370
     0
100
AcDbLine
 10
225.969804191
 20
177.7035979132
 30
0.0
 11
225.969804191
 21
177.7852519944
 31
0.0
  0
LINE
  5
3D7
330
1F
100
AcDbEntity
  8
0
  6
Continuous
 62
     7
370
     0
100
AcDbLine
 10
226.5231614503
 20
176.7222834805
 30
0.0
 11
226.5231614503
 21
176.8039375617
 31
0.0
  0
LINE
  5
3D8
330
1F
100
AcDbEntity
  8
0
  6
Continuous
 62
     7
370
     0
100
AcDbLine
 10
226.2284967963
 20
176.7059356039
 30
0.0
 11
226.2284967963
 21
176.7875896851
 31
0.0
  0
LINE
  5
3D9
330
1F
100
AcDbEntity
  8
0
  6
Continuous
 62
     7
370
     0
100
AcDbLine
 10
226.0474885089
 20
176.7821520558
 30
0.0
 11
226.0474885089
 21
176.8638061369
 31
0.0
  0
SPLINE
  5
3DA
330
1F
100
AcDbEntity
  8
0
  6
Continuous
 62
     7
370
     0
100
AcDbSpline
210
0.0
220
0.0
230
1.0
 70
     8
 71
     3
 72
    13
 73
     9
 74
     0
 42
0.000000001
 43
0.00000001
 40
0.0
 40
0.0
 40
0.0
 40
0.0
 40
0.1868623312436858
 40
0.3733269870469076
 40
0.5595660014170628
 40
0.7062341830061473
 40
0.8530571115958862
 40
1.0
 40
1.0
 40
1.0
 40
1.0
 10
222.9537392510059
 20
178.3547294213242
 30
0.0
 10
223.0559771354257
 20
178.4080503092722
 30
0.0
 10
223.2602353243206
 20
178.5145786090735
 30
0.0
 10
223.6440690958727
 20
178.6127131816593
 30
0.0
 10
224.0337239923863
 20
178.6261875669997
 30
0.0
 10
224.3769408393404
 20
178.5707454486491
 30
0.0
 10
224.6606076085991
 20
178.4770715900027
 30
0.0
 10
224.8194533469452
 20
178.3924288240345
 30
0.0
 10
224.8989086485937
 20
178.3500901590353
 30
0.0
  0
SPLINE
  5
3DB
330
1F
100
AcDbEntity
  8
0
  6
Continuous
 62
     7
370
     0
100
AcDbSpline
210
0.0
220
0.0
230
1.0
 70
     8
 71
     3
 72
    10
 73
     6
 74
     0
 42
0.000000001
 43
0.00000001
 40
0.0
 40
0.0
 40
0.0
 40
0.0
 40
0.364745310126401
 40
0.7287320279827603
 40
1.0
 40
1.0
 40
1.0
 40
1.0
 10
224.8989086485937
 20
178.3500901590353
 30
0.0
 10
224.9904465531463
 20
178.2915283607422
 30
0.0
 10
225.1733319829788
 20
178.174526560177
 30
0.0
 10
225.3519699300138
 20
177.9755482477106
 30
0.0
 10
225.3581457686494
 20
177.8367763953441
 30
0.0
 10
225.3607829899858
 20
177.7775177081361
 30
0.0
  0
SPLINE
  5
3DC
330
1F
100
AcDbEntity
  8
0
  6
Continuous
 62
     7
370
     0
100
AcDbSpline
210
0.0
220
0.0
230
1.0
 70
     8
 71
     3
 72
    11
 73
     7
 74
     0
 42
0.000000001
 43
0.00000001
 40
0.0
 40
0.0
 40
0.0
 40
0.0
 40
0.1114100387855114
 40
0.4073807445681674
 40
0.7035448568603448
 40
1.0
 40
1.0
 40
1.0
 40
1.0
 10
222.514557438028
 20
177.7896904346085
 30
0.0
 10
222.5096953535893
 20
177.8133897989421
 30
0.0
 10
222.4919167081422
 20
177.9000486386057
 30
0.0
 10
222.5735990151003
 20
178.0478945660907
 30
0.0
 10
222.7294361240637
 20
178.2150965712088
 30
0.0
 10
222.8789470674595
 20
178.3081699020821
 30
0.0
 10
222.9537392510059
 20
178.3547294213242
 30
0.0
  0
SPLINE
  5
3DD
330
1F
100
AcDbEntity
  8
0
  6
Continuous
 62
     7
370
     0
100
AcDbSpline
210
0.0
220
0.0
230
1.0
 70
     8
 71
     3
 72
     9
 73
     5
 74
     0
 42
0.000000001
 43
0.00000001
 40
0.0
 40
0.0
 40
0.0
 40
0.0
 40
0.4443552090789313
 40
0.9999999999999999
 40
0.9999999999999999
 40
0.9999999999999999
 40
0.9999999999999999
 10
223.2511597998057
 20
177.7009562648892
 30
0.0
 10
223.2542814950012
 20
177.6644567874061
 30
0.0
 10
223.2613067197126
 20
177.5823164709714
 30
0.0
 10
223.3560845762334
 20
177.52002947831
 30
0.0
 10
223.4087473985038
 20
177.4854200352954
 30
0.0
  0
SPLINE
  5
3DE
330
1F
100
AcDbEntity
  8
0
  6
Continuous
 62
     7
370
     0
100
AcDbSpline
210
0.0
220
0.0
230
1.0
 70
     8
 71
     3
 72
    12
 73
     8
 74
     0
 42
0.000000001
 43
0.00000001
 40
0.0
 40
0.0
 40
0.0
 40
0.0
 40
0.2489364512809165
 40
0.3740610104865805
 40
0.4991087764774166
 40
0.749122849780275
 40
1.0
 40
1.0
 40
1.0
 40
1.0
 10
223.4087473985039
 20
177.4854200352955
 30
0.0
 10
223.4801576252407
 20
177.4513373766009
 30
0.0
 10
223.5874612420265
 20
177.4001235279027
 30
0.0
 10
223.771072234357
 20
177.3831653704594
 30
0.0
 10
223.9533623530604
 20
177.3984107469912
 30
0.0
 10
224.1520025311118
 20
177.4698600599093
 30
0.0
 10
224.28427570258
 20
177.5416071641204
 30
0.0
 10
224.3505262471097
 20
177.5775425293167
 30
0.0
  0
SPLINE
  5
3DF
330
1F
100
AcDbEntity
  8
0
  6
Continuous
 62
     7
370
     0
100
AcDbSpline
210
0.0
220
0.0
230
1.0
 70
     8
 71
     3
 72
    11
 73
     7
 74
     0
 42
0.000000001
 43
0.00000001
 40
0.0
 40
0.0
 40
0.0
 40
0.0
 40
0.3194670326087172
 40
0.638580766479712
 40
0.9565112625288327
 40
1.0
 40
1.0
 40
1.0
 40
1.0
 10
224.3505262471097
 20
177.5775425293167
 30
0.0
 10
224.3950707112711
 20
177.604497599848
 30
0.0
 10
224.4841103778506
 20
177.6583779312856
 30
0.0
 10
224.5806189619967
 20
177.7524591882583
 30
0.0
 10
224.6377251882864
 20
177.8309854250864
 30
0.0
 10
224.6230709911799
 20
177.8721605034832
 30
0.0
 10
224.6213076856562
 20
177.8771150050943
 30
0.0
  0
LINE
  5
3E0
330
1F
100
AcDbEntity
  8
0
  6
Continuous
 62
     7
370
     0
100
AcDbLine
 10
219.4872664628
 20
177.1051761909
 30
0.0
 11
219.4872664628
 21
177.1868302721
 31
0.0
  0
LINE
  5
3E1
330
1F
100
AcDbEntity
  8
0
  6
Continuous
 62
     7
370
     0
100
AcDbLine
 10
225.7983629378
 20
176.9259691867
 30
0.0
 11
225.7983629378
 21
177.0076232679
 31
0.0
  0
LINE
  5
3E2
330
1F
100
AcDbEntity
  8
0
  6
Continuous
 62
     7
370
     0
100
AcDbLine
 10
219.9320411609
 20
177.1120450092
 30
0.0
 11
219.9320411609
 21
177.1936990904
 31
0.0
  0
LINE
  5
3E3
330
1F
100
AcDbEntity
  8
0
  6
Continuous
 62
     7
370
     0
100
AcDbLine
 10
220.4085450094
 20
177.5120719005
 30
0.0
 11
220.4085450094
 21
177.5937259817
 31
0.0
  0
LINE
  5
3E4
330
1F
100
AcDbEntity
  8
0
  6
Continuous
 62
     7
370
     0
100
AcDbLine
 10
217.2326951808
 20
177.7942888396
 30
0.0
 11
218.5761865716
 21
178.5698699108
 31
0.0
  0
LINE
  5
3E5
330
1F
100
AcDbEntity
  8
0
  6
Continuous
 62
     7
370
     0
100
AcDbLine
 10
218.5761865716
 20
178.5698699108
 30
0.0
 11
218.7774285467
 21
178.4536953914
 31
0.0
  0
LINE
  5
3E6
330
1F
100
AcDbEntity
  8
0
  6
Continuous
 62
     7
370
     0
100
AcDbLine
 10
218.2149841894
 20
178.047349094
 30
0.0
 11
219.4444887689
 21
178.0686097219
 31
0.0
  0
LINE
  5
3E7
330
1F
100
AcDbEntity
  8
0
  6
Continuous
 62
     7
370
     0
100
AcDbLine
 10
219.4444887689
 20
178.0686097219
 30
0.0
 11
219.6779577142
 21
177.9338309686
 31
0.0
  0
LINE
  5
3E8
330
1F
100
AcDbEntity
  8
0
  6
Continuous
 62
     7
370
     0
100
AcDbLine
 10
218.0874901133
 20
177.3008262287
 30
0.0
 11
218.3175373364
 21
177.844882499
 31
0.0
  0
LINE
  5
3E9
330
1F
100
AcDbEntity
  8
0
  6
Continuous
 62
     7
370
     0
100
AcDbLine
 10
220.1493291822
 20
177.1753362631
 30
0.0
 11
220.1493291822
 21
177.2569903442
 31
0.0
  0
LWPOLYLINE
  5
3EA
330
1F
100
AcDbEntity
  8
0
  6
Continuous
 62
     7
370
     0
100
AcDbPolyline
 90
       16
 70
   128
 43
0.0
 10
212.7946820883
 20
171.9465658618
 10
212.811627146
 20
171.756863247
 10
212.861669987
 20
171.5564665685
 10
212.9424706636
 20
171.3547461521
 10
213.0502510262
 20
171.1611342205
 10
213.1799713846
 20
170.9846838523
 10
213.3255661591
 20
170.8336456707
 10
213.4802274999
 20
170.7150820531
 10
213.6367236145
 20
170.6345369025
 10
213.7877369186
 20
170.5957764207
 10
213.9262061979
 20
170.6006130047
 10
214.0456567828
 20
170.6488205012
 10
214.1405032968
 20
170.7381447813
 10
214.2063108221
 20
170.8644091408
 10
214.2400022722
 20
171.0217095988
 10
214.241097539
 20
171.0335791588
  0
LWPOLYLINE
  5
3EB
330
1F
100
AcDbEntity
  8
0
  6
Continuous
 62
     7
370
     0
100
AcDbPolyline
 90
        8
 70
   128
 43
0.0
 10
213.4520472489
 20
172.4004025489
 10
213.3255661591
 20
172.4465403517
 10
213.1799713846
 20
172.4636023186
 10
213.0502510262
 20
172.4369238883
 10
212.9424706636
 20
172.3677525144
 10
212.861669987
 20
172.2593225736
 10
212.811627146
 20
172.1167041295
 10
212.7946820883
 20
171.9465658618
  0
LINE
  5
3EC
330
1F
100
AcDbEntity
  8
0
  6
Continuous
 62
     7
370
     0
100
AcDbLine
 10
222.953739251
 20
178.3547294213
 30
0.0
 11
222.953739251
 21
178.4363835025
 31
0.0
  0
LINE
  5
3ED
330
1F
100
AcDbEntity
  8
0
  6
Continuous
 62
     7
370
     0
100
AcDbLine
 10
224.8989086486
 20
178.350090159
 30
0.0
 11
224.8989086486
 21
178.4317442402
 31
0.0
  0
LINE
  5
3EE
330
1F
100
AcDbEntity
  8
0
  6
Continuous
 62
     7
370
     0
100
AcDbLine
 10
218.3175373364
 20
177.844882499
 30
0.0
 11
218.3175373364
 21
177.9265365802
 31
0.0
  0
SPLINE
  5
3EF
330
1F
100
AcDbEntity
  8
0
  6
Continuous
 62
     7
370
     0
100
AcDbSpline
210
0.0
220
0.0
230
1.0
 70
     8
 71
     3
 72
    12
 73
     8
 74
     0
 42
0.000000001
 43
0.00000001
 40
0.0
 40
0.0
 40
0.0
 40
0.0
 40
0.2489364512809165
 40
0.3740610104865805
 40
0.4991087764774166
 40
0.749122849780275
 40
1.0
 40
1.0
 40
1.0
 40
1.0
 10
223.4087473985039
 20
177.567074116484
 30
0.0
 10
223.4801576252407
 20
177.5329914577895
 30
0.0
 10
223.5874612420265
 20
177.4817776090914
 30
0.0
 10
223.771072234357
 20
177.4648194516479
 30
0.0
 10
223.9533623530604
 20
177.4800648281798
 30
0.0
 10
224.1520025311118
 20
177.551514141098
 30
0.0
 10
224.28427570258
 20
177.6232612453089
 30
0.0
 10
224.3505262471097
 20
177.6591966105054
 30
0.0
  0
SPLINE
  5
3F0
330
1F
100
AcDbEntity
  8
0
  6
Continuous
 62
     7
370
     0
100
AcDbSpline
210
0.0
220
0.0
230
1.0
 70
     8
 71
     3
 72
    12
 73
     8
 74
     0
 42
0.000000001
 43
0.00000001
 40
0.0
 40
0.0
 40
0.0
 40
0.0
 40
0.1874486281656718
 40
0.374766730771096
 40
0.561382860533582
 40
0.7803377222112641
 40
1.0
 40
1.0
 40
1.0
 40
1.0
 10
223.5415378334759
 20
178.0970546036716
 30
0.0
 10
223.4962744441389
 20
178.0694928131169
 30
0.0
 10
223.4057791835899
 20
178.0143884240292
 30
0.0
 10
223.2945958964704
 20
177.9195556836864
 30
0.0
 10
223.2266652942444
 20
177.8038055676086
 30
0.0
 10
223.2585089759635
 20
177.6708800060518
 30
0.0
 10
223.3586141067108
 20
177.6017132644699
 30
0.0
 10
223.4087473985038
 20
177.567074116484
 30
0.0
  0
SPLINE
  5
3F1
330
1F
100
AcDbEntity
  8
0
  6
Continuous
 62
     7
370
     0
100
AcDbSpline
210
0.0
220
0.0
230
1.0
 70
     8
 71
     3
 72
    12
 73
     8
 74
     0
 42
0.000000001
 43
0.00000001
 40
0.0
 40
0.0
 40
0.0
 40
0.0
 40
0.1865776882289729
 40
0.372805731933324
 40
0.559029316730067
 40
0.7792871014192957
 40
1.0
 40
1.0
 40
1.0
 40
1.0
 10
224.4565289862661
 20
178.1781312351005
 30
0.0
 10
224.4062927408671
 20
178.2027727634068
 30
0.0
 10
224.3059143922377
 20
178.2520096420681
 30
0.0
 10
224.1078169509816
 20
178.278391861624
 30
0.0
 10
223.8996050147036
 20
178.2560889735585
 30
0.0
 10
223.7100588081753
 20
178.1883974482611
 30
0.0
 10
223.5977501286238
 20
178.1275231607688
 30
0.0
 10
223.5415378334759
 20
178.0970546036716
 30
0.0
  0
SPLINE
  5
3F2
330
1F
100
AcDbEntity
  8
0
  6
Continuous
 62
     7
370
     0
100
AcDbSpline
210
0.0
220
0.0
230
1.0
 70
     8
 71
     3
 72
    12
 73
     8
 74
     0
 42
0.000000001
 43
0.00000001
 40
0.0
 40
0.0
 40
0.0
 40
0.0
 40
0.1874136991406031
 40
0.374620137385465
 40
0.5611324352198136
 40
0.7802198633462316
 40
1.0
 40
1.0
 40
1.0
 40
1.0
 10
224.3505262471097
 20
177.6591966105054
 30
0.0
 10
224.394592093271
 20
177.6861203702721
 30
0.0
 10
224.4826750531543
 20
177.7399381148073
 30
0.0
 10
224.5863439964259
 20
177.8344877961153
 30
0.0
 10
224.6424573630936
 20
177.9492126563838
 30
0.0
 10
224.6037446859075
 20
178.0774564286878
 30
0.0
 10
224.5056524957148
 20
178.1445376726195
 30
0.0
 10
224.4565289862661
 20
178.1781312351005
 30
0.0
  0
LINE
  5
3F3
330
1F
100
AcDbEntity
  8
0
  6
Continuous
 62
     7
370
     0
100
AcDbLine
 10
224.3505262471
 20
177.5775425293
 30
0.0
 11
224.3505262471
 21
177.6591966105
 31
0.0
  0
LINE
  5
3F4
330
1F
100
AcDbEntity
  8
0
  6
Continuous
 62
     7
370
     0
100
AcDbLine
 10
223.4087473985
 20
177.4854200353
 30
0.0
 11
223.4087473985
 21
177.5670741165
 31
0.0
  0
LINE
  5
3F5
330
1F
100
AcDbEntity
  8
0
  6
Continuous
 62
     7
370
     0
100
AcDbLine
 10
219.4444887689
 20
178.0686097219
 30
0.0
 11
219.4444887689
 21
178.1502638031
 31
0.0
  0
LINE
  5
3F6
330
1F
100
AcDbEntity
  8
0
  6
Continuous
 62
     7
370
     0
100
AcDbLine
 10
218.2149841894
 20
178.047349094
 30
0.0
 11
218.2149841894
 21
178.1290031752
 31
0.0
  0
LINE
  5
3F7
330
1F
100
AcDbEntity
  8
0
  6
Continuous
 62
     7
370
     0
100
AcDbLine
 10
218.5761865716
 20
178.5698699108
 30
0.0
 11
218.5761865716
 21
178.651523992
 31
0.0
  0
LINE
  5
3F8
330
1F
100
AcDbEntity
  8
0
  6
Continuous
 62
     7
370
     0
100
AcDbLine
 10
221.9727738302
 20
180.0110344253
 30
0.0
 11
222.4898502412
 21
179.7125325671
 31
0.0
  0
LINE
  5
3F9
330
1F
100
AcDbEntity
  8
0
  6
Continuous
 62
     7
370
     0
100
AcDbLine
 10
221.8992990074
 20
179.2899605153
 30
0.0
 11
222.5360808051
 21
178.9223542082
 31
0.0
  0
LINE
  5
3FA
330
1F
100
AcDbEntity
  8
0
  6
Continuous
 62
     7
370
     0
100
AcDbLine
 10
222.5360808051
 20
178.9223542082
 30
0.0
 11
223.1973542104
 21
179.3040992194
 31
0.0
  0
LINE
  5
3FB
330
1F
100
AcDbEntity
  8
0
  6
Continuous
 62
     7
370
     0
100
AcDbLine
 10
223.1973542104
 20
179.3040992194
 30
0.0
 11
223.7144306213
 21
179.0055973612
 31
0.0
  0
LINE
  5
3FC
330
1F
100
AcDbEntity
  8
0
  6
Continuous
 62
     7
370
     0
100
AcDbLine
 10
221.3822225965
 20
178.2562460429
 30
0.0
 11
222.0707402606
 21
178.65371883
 31
0.0
  0
LINE
  5
3FD
330
1F
100
AcDbEntity
  8
0
  6
Continuous
 62
     7
370
     0
100
AcDbLine
 10
220.1576422163
 20
178.9631812488
 30
0.0
 11
221.9727738302
 21
180.0110344253
 31
0.0
  0
LINE
  5
3FE
330
1F
100
AcDbEntity
  8
0
  6
Continuous
 62
     7
370
     0
100
AcDbLine
 10
215.9272672771
 20
178.5478963274
 30
0.0
 11
217.2707586679
 21
179.3234773986
 31
0.0
  0
LINE
  5
3FF
330
1F
100
AcDbEntity
  8
0
  6
Continuous
 62
     7
370
     0
100
AcDbLine
 10
217.2707586679
 20
179.3234773986
 30
0.0
 11
217.7231823576
 21
179.0622987619
 31
0.0
  0
SPLINE
  5
400
330
1F
100
AcDbEntity
  8
0
  6
Continuous
 62
     7
370
     0
100
AcDbSpline
210
0.0
220
0.0
230
1.0
 70
     8
 71
     3
 72
     9
 73
     5
 74
     0
 42
0.000000001
 43
0.00000001
 40
0.0
 40
0.0
 40
0.0
 40
0.0
 40
0.5603451063412509
 40
1.0
 40
1.0
 40
1.0
 40
1.0
 10
217.7231823576291
 20
179.0622987618964
 30
0.0
 10
217.7864990169372
 20
179.0261612179735
 30
0.0
 10
217.8994948450289
 20
178.961669633209
 30
0.0
 10
217.9950590429156
 20
178.8884330407227
 30
0.0
 10
218.0370743101751
 20
178.8562342144413
 30
0.0
  0
LINE
  5
401
330
1F
100
AcDbEntity
  8
0
  6
Continuous
 62
     7
370
     0
100
AcDbLine
 10
218.0370743102
 20
178.8562342144
 30
0.0
 11
218.0915085579
 21
178.7575446756
 31
0.0
  0
LINE
  5
402
330
1F
100
AcDbEntity
  8
0
  6
Continuous
 62
     7
370
     0
100
AcDbLine
 10
216.8900088626
 20
178.7896720947
 30
0.0
 11
217.0531873506
 21
178.6954711588
 31
0.0
  0
SPLINE
  5
403
330
1F
100
AcDbEntity
  8
0
  6
Continuous
 62
     7
370
     0
100
AcDbSpline
210
0.0
220
0.0
230
1.0
 70
     8
 71
     3
 72
    13
 73
     9
 74
     0
 42
0.000000001
 43
0.00000001
 40
0.0
 40
0.0
 40
0.0
 40
0.0
 40
0.2505185233578881
 40
0.5003185652568712
 40
0.6253135153119233
 40
0.750153759563339
 40
0.8750546493025008
 40
1.0
 40
1.0
 40
1.0
 40
1.0
 10
217.0531873506154
 20
178.6954711587678
 30
0.0
 10
217.0935029033573
 20
178.6729146908719
 30
0.0
 10
217.1740183847477
 20
178.6278664465197
 30
0.0
 10
217.2843623935007
 20
178.5745452839859
 30
0.0
 10
217.3945787003145
 20
178.556724674397
 30
0.0
 10
217.4800032620008
 20
178.5582274737148
 30
0.0
 10
217.5613177796934
 20
178.5750295239271
 30
0.0
 10
217.6040668857439
 20
178.5964470917249
 30
0.0
 10
217.625445242441
 20
178.607157781287
 30
0.0
  0
SPLINE
  5
404
330
1F
100
AcDbEntity
  8
0
  6
Continuous
 62
     7
370
     0
100
AcDbSpline
210
0.0
220
0.0
230
1.0
 70
     8
 71
     3
 72
     9
 73
     5
 74
     0
 42
0.000000001
 43
0.00000001
 40
0.0
 40
0.0
 40
0.0
 40
0.0
 40
0.5159416790230716
 40
1.0
 40
1.0
 40
1.0
 40
1.0
 10
217.625445242441
 20
178.6071577812869
 30
0.0
 10
217.6504410619218
 20
178.6237915169944
 30
0.0
 10
217.6988880482714
 20
178.6560310827899
 30
0.0
 10
217.7059881093415
 20
178.698429648923
 30
0.0
 10
217.7094249529819
 20
178.7189530276572
 30
0.0
  0
LINE
  5
405
330
1F
100
AcDbEntity
  8
0
  6
Continuous
 62
     7
370
     0
100
AcDbLine
 10
222.0707402606
 20
178.65371883
 30
0.0
 11
222.0707402606
 21
178.7353729112
 31
0.0
  0
LINE
  5
406
330
1F
100
AcDbEntity
  8
0
  6
Continuous
 62
     7
370
     0
100
AcDbLine
 10
218.0370743102
 20
178.8562342144
 30
0.0
 11
218.0370743102
 21
178.9378882956
 31
0.0
  0
SPLINE
  5
407
330
1F
100
AcDbEntity
  8
0
  6
Continuous
 62
     7
370
     0
100
AcDbSpline
210
0.0
220
0.0
230
1.0
 70
     8
 71
     3
 72
    11
 73
     7
 74
     0
 42
0.000000001
 43
0.00000001
 40
0.0
 40
0.0
 40
0.0
 40
0.0
 40
0.2798618622093538
 40
0.5590693323042143
 40
0.7794267111733805
 40
1.0
 40
1.0
 40
1.0
 40
1.0
 10
217.625445242441
 20
178.6888118624755
 30
0.0
 10
217.6497613881891
 20
178.7054510820914
 30
0.0
 10
217.6983368220132
 20
178.7386906143637
 30
0.0
 10
217.7161677651278
 20
178.7999854584458
 30
0.0
 10
217.7011614251811
 20
178.8554398397931
 30
0.0
 10
217.6708973568154
 20
178.8846698947864
 30
0.0
 10
217.6557579129486
 20
178.8992920788048
 30
0.0
  0
SPLINE
  5
408
330
1F
100
AcDbEntity
  8
0
  6
Continuous
 62
     7
370
     0
100
AcDbSpline
210
0.0
220
0.0
230
1.0
 70
     8
 71
     3
 72
    13
 73
     9
 74
     0
 42
0.000000001
 43
0.00000001
 40
0.0
 40
0.0
 40
0.0
 40
0.0
 40
0.2505185233578881
 40
0.5003185652568712
 40
0.6253135153119233
 40
0.750153759563339
 40
0.8750546493025008
 40
1.0
 40
1.0
 40
1.0
 40
1.0
 10
217.0531873506154
 20
178.7771252399564
 30
0.0
 10
217.0935029033573
 20
178.7545687720604
 30
0.0
 10
217.1740183847477
 20
178.7095205277083
 30
0.0
 10
217.2843623935007
 20
178.6561993651744
 30
0.0
 10
217.3945787003145
 20
178.6383787555857
 30
0.0
 10
217.4800032620008
 20
178.6398815549034
 30
0.0
 10
217.5613177796934
 20
178.6566836051156
 30
0.0
 10
217.6040668857439
 20
178.6781011729134
 30
0.0
 10
217.625445242441
 20
178.6888118624756
 30
0.0
  0
LINE
  5
409
330
1F
100
AcDbEntity
  8
0
  6
Continuous
 62
     7
370
     0
100
AcDbLine
 10
216.8900088626
 20
178.8713261759
 30
0.0
 11
217.0531873506
 21
178.77712524
 31
0.0
  0
LINE
  5
40A
330
1F
100
AcDbEntity
  8
0
  6
Continuous
 62
     7
370
     0
100
AcDbLine
 10
217.3070205541
 20
179.1120619012
 30
0.0
 11
216.8900088626
 21
178.8713261759
 31
0.0
  0
LINE
  5
40B
330
1F
100
AcDbEntity
  8
0
  6
Continuous
 62
     7
370
     0
100
AcDbLine
 10
217.450934915
 20
179.0289819091
 30
0.0
 11
217.3070205541
 21
179.1120619012
 31
0.0
  0
SPLINE
  5
40C
330
1F
100
AcDbEntity
  8
0
  6
Continuous
 62
     7
370
     0
100
AcDbSpline
210
0.0
220
0.0
230
1.0
 70
     8
 71
     3
 72
     9
 73
     5
 74
     0
 42
0.000000001
 43
0.00000001
 40
0.0
 40
0.0
 40
0.0
 40
0.0
 40
0.5598334042150849
 40
1.0
 40
1.0
 40
1.0
 40
1.0
 10
217.6557579129486
 20
178.8992920788048
 30
0.0
 10
217.6194126481367
 20
178.9244889908689
 30
0.0
 10
217.5544910758649
 20
178.9694968662016
 30
0.0
 10
217.4825853941645
 20
179.0108011451933
 30
0.0
 10
217.4509349150328
 20
179.0289819090683
 30
0.0
  0
LINE
  5
40D
330
1F
100
AcDbEntity
  8
0
  6
Continuous
 62
     7
370
     0
100
AcDbLine
 10
217.6254452424
 20
178.6071577813
 30
0.0
 11
217.6254452424
 21
178.6888118625
 31
0.0
  0
LINE
  5
40E
330
1F
100
AcDbEntity
  8
0
  6
Continuous
 62
     7
370
     0
100
AcDbLine
 10
217.0531873506
 20
178.6954711588
 30
0.0
 11
217.0531873506
 21
178.77712524
 31
0.0
  0
LINE
  5
40F
330
1F
100
AcDbEntity
  8
0
  6
Continuous
 62
     7
370
     0
100
AcDbLine
 10
217.2707586679
 20
179.3234773986
 30
0.0
 11
217.2707586679
 21
179.4051314798
 31
0.0
  0
LINE
  5
410
330
1F
100
AcDbEntity
  8
0
  6
Continuous
 62
     7
370
     0
100
AcDbLine
 10
208.781851105
 20
177.7742759102
 30
0.0
 11
208.781851105
 21
177.9375575326
 31
0.0
  0
ARC
  5
411
330
1F
100
AcDbEntity
  8
0
  6
Continuous
 62
     7
370
     0
100
AcDbCircle
 10
210.0100239861
 20
177.8816688508
 30
0.0
 40
1.229443846057707
100
AcDbArc
 50
122.60547834
 51
177.3945215143
  0
LINE
  5
412
330
1F
100
AcDbEntity
  8
0
  6
Continuous
 62
     7
370
     0
100
AcDbLine
 10
209.4889578862
 20
178.999020778
 30
0.0
 11
209.34753653
 21
178.9173534268
 31
0.0
  0
LINE
  5
413
330
1F
100
AcDbEntity
  8
0
  6
Continuous
 62
     7
370
     0
100
AcDbLine
 10
216.8900088626
 20
178.7896720947
 30
0.0
 11
216.8900088626
 21
178.8713261759
 31
0.0
  0
LINE
  5
414
330
1F
100
AcDbEntity
  8
0
  6
Continuous
 62
     7
370
     0
100
AcDbLine
 10
217.7231823576
 20
179.0622987619
 30
0.0
 11
217.7231823576
 21
179.1439528431
 31
0.0
  0
LINE
  5
415
330
1F
100
AcDbEntity
  8
0
  6
Continuous
 62
     7
370
     0
100
AcDbLine
 10
222.5360808051
 20
178.9223542082
 30
0.0
 11
222.5360808051
 21
179.0040082894
 31
0.0
  0
LINE
  5
416
330
1F
100
AcDbEntity
  8
0
  6
Continuous
 62
     7
370
     0
100
AcDbLine
 10
221.8992990074
 20
179.2899605153
 30
0.0
 11
221.8992990074
 21
179.3716145965
 31
0.0
  0
LINE
  5
417
330
1F
100
AcDbEntity
  8
0
  6
Continuous
 62
     7
370
     0
100
AcDbLine
 10
223.1973542104
 20
179.3040992194
 30
0.0
 11
223.1973542104
 21
179.3857533006
 31
0.0
  0
LINE
  5
418
330
1F
100
AcDbEntity
  8
0
  6
Continuous
 62
     7
370
     0
100
AcDbLine
 10
221.9727738302
 20
180.0110344253
 30
0.0
 11
221.9727738302
 21
180.0926885065
 31
0.0
  0
LINE
  5
419
330
1F
100
AcDbEntity
  8
0
  6
Continuous
 62
     7
370
     0
100
AcDbLine
 10
220.1456999031
 20
181.0657817526
 30
0.0
 11
221.8383734789
 21
180.0886220966
 31
0.0
  0
LINE
  5
41A
330
1F
100
AcDbEntity
  8
0
  6
Continuous
 62
     7
370
     0
100
AcDbLine
 10
218.9183668716
 20
179.6785996772
 30
0.0
 11
220.2926495487
 21
180.4719561796
 31
0.0
  0
LINE
  5
41B
330
1F
100
AcDbEntity
  8
0
  6
Continuous
 62
     7
370
     0
100
AcDbLine
 10
219.7755731377
 20
180.852112119
 30
0.0
 11
220.1456999031
 21
181.0657817526
 31
0.0
  0
LINE
  5
41C
330
1F
100
AcDbEntity
  8
0
  6
Continuous
 62
     7
370
     0
100
AcDbLine
 10
220.2926495487
 20
180.4719561796
 30
0.0
 11
220.2926495487
 21
180.5536102608
 31
0.0
  0
LINE
  5
41D
330
1F
100
AcDbEntity
  8
0
  6
Continuous
 62
     7
370
     0
100
AcDbLine
 10
220.1456999031
 20
181.0657817526
 30
0.0
 11
220.1456999031
 21
181.1474358338
 31
0.0
  0
LWPOLYLINE
  5
41E
330
1F
100
AcDbEntity
  8
0
  6
Continuous
 62
     7
370
     0
100
AcDbPolyline
 90
       38
 70
   128
 43
0.0
 10
255.8763775351
 20
159.2552803413
 10
256.0800756594
 20
159.3830119041
 10
256.2823276455
 20
159.470009894
 10
256.477315072
 20
159.5137715374
 10
256.6594285055
 20
159.5130378913
 10
256.8234288743
 20
159.4678300614
 10
256.9645981862
 20
159.3794485948
 10
257.0788752573
 20
159.2504360653
 10
257.1629725442
 20
159.0845039284
 10
257.2144707211
 20
158.8864257496
 10
257.2318882793
 20
158.6618998776
 10
257.2147241472
 20
158.4173855127
 10
257.1634721058
 20
158.1599168882
 10
257.0796065829
 20
157.8969009076
 10
256.9655402369
 20
157.6359040618
 10
256.824554549
 20
157.3844347548
 10
256.6607054207
 20
157.1497273007
 10
256.478706493
 20
156.9385338058
 10
256.2837935438
 20
156.7569299222
 10
256.0815738637
 20
156.6101400631
 10
255.8778649448
 20
156.5023871055
 10
255.6785271218
 20
156.4367709057
 10
255.4892949808
 20
156.4151791224
 10
255.3156123861
 20
156.4382329119
 10
255.1624758697
 20
156.5052690586
 10
255.0342908903
 20
156.6143590547
 10
254.9347450965
 20
156.7623645795
 10
254.8667022394
 20
156.9450277836
 10
254.8321197882
 20
157.1570937792
 10
254.831992617
 20
157.3924618137
 10
254.8663243843
 20
157.6443607772
 10
254.9341274277
 20
157.9055439953
 10
255.0334511771
 20
158.1684977023
 10
255.161438269
 20
158.4256571987
 10
255.3144067478
 20
158.6696244742
 10
255.487955989
 20
158.8933810343
 10
255.6770932967
 20
159.0904898102
 10
255.8763775351
 20
159.2552803413
  0
LWPOLYLINE
  5
41F
330
1F
100
AcDbEntity
  8
0
  6
Continuous
 62
     7
370
     0
100
AcDbPolyline
 90
       10
 70
   128
 43
0.0
 10
185.7845490673
 20
203.1239124577
 10
185.7401013862
 20
203.1705149898
 10
185.7164451352
 20
203.2564419326
 10
185.726114338
 20
203.3651179981
 10
185.7678031152
 20
203.4818658814
 10
185.8358811664
 20
203.5909181342
 10
185.9211541736
 20
203.6775466452
 10
186.0121055447
 20
203.7300517541
 10
186.0964517929
 20
203.741342355
 10
186.141848593
 20
203.7258568479
  0
LWPOLYLINE
  5
420
330
1F
100
AcDbEntity
  8
0
  6
Continuous
 62
     7
370
     0
100
AcDbPolyline
 90
        8
 70
   128
 43
0.0
 10
185.9597083695
 20
196.2251147878
 10
185.8705413214
 20
196.1540708159
 10
185.7938881833
 20
196.0537560016
 10
185.7401013862
 20
195.9377184166
 10
185.7164451352
 20
195.8216295795
 10
185.726114338
 20
195.7211679311
 10
185.7678031152
 20
195.6499013738
 10
185.791955376
 20
195.6320920129
  0
ARC
  5
421
330
1F
100
AcDbEntity
  8
0
  6
Continuous
 62
     7
370
     0
100
AcDbCircle
 10
186.0611161196
 20
196.0934236203
 30
0.0
 40
0.1662109965285149
100
AcDbArc
 50
63.8218825045
 51
127.5977873116
  0
LINE
  5
422
330
1F
100
AcDbEntity
  8
0
  6
Continuous
 62
     7
370
     0
100
AcDbLine
 10
261.1621429659
 20
164.579863208
 30
0.0
 11
262.1453614036
 21
164.0122632856
 31
0.0
  0
LINE
  5
423
330
1F
100
AcDbEntity
  8
0
  6
Continuous
 62
     7
370
     0
100
AcDbLine
 10
262.1453614036
 20
164.0122632856
 30
0.0
 11
249.9142525667
 21
156.9513944489
 31
0.0
  0
LINE
  5
424
330
1F
100
AcDbEntity
  8
0
  6
Continuous
 62
     7
370
     0
100
AcDbLine
 10
249.9142525667
 20
156.9513944489
 30
0.0
 11
249.5819123795
 21
157.1432503552
 31
0.0
  0
LINE
  5
425
330
1F
100
AcDbEntity
  8
0
  6
Continuous
 62
     7
370
     0
100
AcDbLine
 10
249.9142525667
 20
151.9219113181
 30
0.0
 11
249.9142525667
 21
156.9513944489
 31
0.0
  0
LINE
  5
426
330
1F
100
AcDbEntity
  8
0
  6
Continuous
 62
     7
370
     0
100
AcDbLine
 10
249.9142525667
 20
151.9219113181
 30
0.0
 11
249.5819123795
 21
152.1137672244
 31
0.0
  0
LINE
  5
427
330
1F
100
AcDbEntity
  8
0
  6
Continuous
 62
     7
370
     0
100
AcDbLine
 10
262.1453614036
 20
158.9827801548
 30
0.0
 11
262.1453614036
 21
164.0122632856
 31
0.0
  0
LINE
  5
428
330
1F
100
AcDbEntity
  8
0
  6
Continuous
 62
     7
370
     0
100
AcDbLine
 10
262.1453614036
 20
158.9827801548
 30
0.0
 11
249.9142525667
 21
151.9219113181
 31
0.0
  0
LWPOLYLINE
  5
429
330
1F
100
AcDbEntity
  8
0
  6
Continuous
 62
     7
370
     0
100
AcDbPolyline
 90
       39
 70
   128
 43
0.0
 10
256.0298069851
 20
156.5567580116
 10
256.2308287996
 20
156.6920404882
 10
256.4263672629
 20
156.8621029181
 10
256.6110885957
 20
157.0623064416
 10
256.7799540814
 20
157.2871900283
 10
256.9283575098
 20
157.5306194402
 10
257.0522508223
 20
157.7859545577
 10
257.1482545321
 20
158.0462305042
 10
257.2137499085
 20
158.3043476305
 10
257.2469504082
 20
158.5532651742
 10
257.2469504082
 20
158.7861933136
 10
257.2137499085
 20
158.9967783762
 10
257.1482545321
 20
159.1792761505
 10
257.0522508223
 20
159.328708573
 10
256.9283575098
 20
159.4409995167
 10
256.7799540814
 20
159.5130859774
 10
256.6110885957
 20
159.5430016243
 10
256.4263672629
 20
159.5299304366
 10
256.2308287996
 20
159.4742289622
 10
256.0298069851
 20
159.3774165922
 10
255.8287851707
 20
159.2421341155
 10
255.6332467073
 20
159.0720716856
 10
255.4485253745
 20
158.8718681622
 10
255.2796598888
 20
158.6469845755
 10
255.1312564604
 20
158.4035551635
 10
255.007363148
 20
158.1482200461
 10
254.9113594381
 20
157.8879440995
 10
254.8458640617
 20
157.6298269732
 10
254.812663562
 20
157.3809094296
 10
254.812663562
 20
157.1479812902
 10
254.8458640617
 20
156.9373962275
 10
254.9113594381
 20
156.7548984532
 10
255.007363148
 20
156.6054660307
 10
255.1312564604
 20
156.493175087
 10
255.2796598888
 20
156.4210886264
 10
255.4485253745
 20
156.3911729794
 10
255.6332467073
 20
156.4042441671
 10
255.8287851707
 20
156.4599456415
 10
256.0298069851
 20
156.5567580116
  0
LWPOLYLINE
  5
42A
330
1F
100
AcDbEntity
  8
0
  6
Continuous
 62
     7
370
     0
100
AcDbPolyline
 90
       20
 70
   128
 43
0.0
 10
227.689886434
 20
161.9106302871
 10
227.4857162059
 20
162.0475284313
 10
227.2868338795
 20
162.218947346
 10
227.0983904026
 20
162.4204473715
 10
226.9252663622
 20
162.6468097628
 10
226.7719455799
 20
162.8921718531
 10
226.6423989837
 20
163.150178893
 10
226.5399817622
 20
163.4141486358
 10
226.4673464676
 20
163.6772444037
 10
226.4263743161
 20
163.9326521545
 10
226.4181264646
 20
164.1737569617
 10
226.4428165284
 20
164.3943143374
 10
226.4998050477
 20
164.5886119615
 10
226.5876160497
 20
164.7516176274
 10
226.7039752757
 20
164.8791095742
 10
226.8458690829
 20
164.9677858273
 10
227.009622496
 20
165.0153497184
 10
227.1909943879
 20
165.0205693677
 10
227.3852873217
 20
164.983309589
 10
227.4005362748
 20
164.9787318708
  0
LWPOLYLINE
  5
42B
330
1F
100
AcDbEntity
  8
0
  6
Continuous
 62
     7
370
     0
100
AcDbPolyline
 90
       10
 70
   128
 43
0.0
 10
228.9293055739
 20
162.330538676
 10
228.9124264003
 20
162.2657298035
 10
228.8397911058
 20
162.0864969616
 10
228.7373738843
 20
161.9407756258
 10
228.607827288
 20
161.8323399022
 10
228.4545065058
 20
161.7639982191
 10
228.2813824654
 20
161.7375205901
 10
228.0929389884
 20
161.753592772
 10
227.894056662
 20
161.8117985036
 10
227.689886434
 20
161.9106302871
  0
INSERT
  5
432
330
1F
100
AcDbEntity
  8
0
  6
Continuous
 62
     7
370
     0
100
AcDbBlockReference
  2
SW_NOTE_3
 10
214.017581879
 20
142.6545428913
 30
0.0
  0
OLE2FRAME
  5
433
330
1F
100
AcDbEntity
  8
0
100
AcDbOle2Frame
 70
     2
  3
Paintbrush Picture
 10
229.0524259344
 20
33.6996298005
 30
0.0
 11
265.1686468101
 21
28.5554797105
 31
0.0
 71
     2
 72
     0
 73
     1
 90
     7296
310
8055E6312779ADA16C40BC4424788DD940400000000000000000235EFFC6B292
310
7040BC4424788DD940400000000000000000235EFFC6B29270406E0516EB338E
310
3C400000000000000000E6312779ADA16C406E0516EB338E3C40000000000000
310
00000000000001000000000100000100000001000000000001000000001C0000
310
D0CF11E0A1B11AE1000000000000000000000000000000003E000300FEFF0900
310
0600000000000000000000000100000001000000000000000010000002000000
310
01000000FEFFFFFF0000000000000000FFFFFFFFFFFFFFFFFFFFFFFFFFFFFFFF
310
FFFFFFFFFFFFFFFFFFFFFFFFFFFFFFFFFFFFFFFFFFFFFFFFFFFFFFFFFFFFFFFF
310
FFFFFFFFFFFFFFFFFFFFFFFFFFFFFFFFFFFFFFFFFFFFFFFFFFFFFFFFFFFFFFFF
310
FFFFFFFFFFFFFFFFFFFFFFFFFFFFFFFFFFFFFFFFFFFFFFFFFFFFFFFFFFFFFFFF
310
FFFFFFFFFFFFFFFFFFFFFFFFFFFFFFFFFFFFFFFFFFFFFFFFFFFFFFFFFFFFFFFF
310
FFFFFFFFFFFFFFFFFFFFFFFFFFFFFFFFFFFFFFFFFFFFFFFFFFFFFFFFFFFFFFFF
310
FFFFFFFFFFFFFFFFFFFFFFFFFFFFFFFFFFFFFFFFFFFFFFFFFFFFFFFFFFFFFFFF
310
FFFFFFFFFFFFFFFFFFFFFFFFFFFFFFFFFFFFFFFFFFFFFFFFFFFFFFFFFFFFFFFF
310
FFFFFFFFFFFFFFFFFFFFFFFFFFFFFFFFFFFFFFFFFFFFFFFFFFFFFFFFFFFFFFFF
310
FFFFFFFFFFFFFFFFFFFFFFFFFFFFFFFFFFFFFFFFFFFFFFFFFFFFFFFFFFFFFFFF
310
FFFFFFFFFFFFFFFFFFFFFFFFFFFFFFFFFFFFFFFFFFFFFFFFFFFFFFFFFFFFFFFF
310
FFFFFFFFFFFFFFFFFFFFFFFFFFFFFFFFFFFFFFFFFFFFFFFFFFFFFFFFFFFFFFFF
310
FFFFFFFFFFFFFFFFFFFFFFFFFFFFFFFFFFFFFFFFFFFFFFFFFFFFFFFFFFFFFFFF
310
FFFFFFFFFFFFFFFFFFFFFFFFFFFFFFFFFFFFFFFFFFFFFFFFFFFFFFFFFFFFFFFF
310
FDFFFFFFFEFFFFFFFEFFFFFFFEFFFFFF05000000060000000700000008000000
310
090000000A0000000B0000000C000000FEFFFFFFFFFFFFFFFFFFFFFFFFFFFFFF
310
FFFFFFFFFFFFFFFFFFFFFFFFFFFFFFFFFFFFFFFFFFFFFFFFFFFFFFFFFFFFFFFF
310
FFFFFFFFFFFFFFFFFFFFFFFFFFFFFFFFFFFFFFFFFFFFFFFFFFFFFFFFFFFFFFFF
310
FFFFFFFFFFFFFFFFFFFFFFFFFFFFFFFFFFFFFFFFFFFFFFFFFFFFFFFFFFFFFFFF
310
FFFFFFFFFFFFFFFFFFFFFFFFFFFFFFFFFFFFFFFFFFFFFFFFFFFFFFFFFFFFFFFF
310
FFFFFFFFFFFFFFFFFFFFFFFFFFFFFFFFFFFFFFFFFFFFFFFFFFFFFFFFFFFFFFFF
310
FFFFFFFFFFFFFFFFFFFFFFFFFFFFFFFFFFFFFFFFFFFFFFFFFFFFFFFFFFFFFFFF
310
FFFFFFFFFFFFFFFFFFFFFFFFFFFFFFFFFFFFFFFFFFFFFFFFFFFFFFFFFFFFFFFF
310
FFFFFFFFFFFFFFFFFFFFFFFFFFFFFFFFFFFFFFFFFFFFFFFFFFFFFFFFFFFFFFFF
310
FFFFFFFFFFFFFFFFFFFFFFFFFFFFFFFFFFFFFFFFFFFFFFFFFFFFFFFFFFFFFFFF
310
FFFFFFFFFFFFFFFFFFFFFFFFFFFFFFFFFFFFFFFFFFFFFFFFFFFFFFFFFFFFFFFF
310
FFFFFFFFFFFFFFFFFFFFFFFFFFFFFFFFFFFFFFFFFFFFFFFFFFFFFFFFFFFFFFFF
310
FFFFFFFFFFFFFFFFFFFFFFFFFFFFFFFFFFFFFFFFFFFFFFFFFFFFFFFFFFFFFFFF
310
FFFFFFFFFFFFFFFFFFFFFFFFFFFFFFFFFFFFFFFFFFFFFFFFFFFFFFFFFFFFFFFF
310
FFFFFFFFFFFFFFFFFFFFFFFFFFFFFFFFFFFFFFFFFFFFFFFFFFFFFFFFFFFFFFFF
310
52006F006F007400200045006E00740072007900000000000000000000000000
310
0000000000000000000000000000000000000000000000000000000000000000
310
16000500FFFFFFFFFFFFFFFF020000000A00030000000000C000000000000046
310
00000000000000000000000070F644339555D00103000000C000000000000000
310
01004F006C006500000000000000000000000000000000000000000000000000
310
0000000000000000000000000000000000000000000000000000000000000000
310
0A000200FFFFFFFFFFFFFFFFFFFFFFFF00000000000000000000000000000000
310
0000000000000000000000000000000000000000000000001400000000000000
310
010043006F006D0070004F0062006A0000000000000000000000000000000000
310
0000000000000000000000000000000000000000000000000000000000000000
310
120002010100000003000000FFFFFFFF00000000000000000000000000000000
310
0000000000000000000000000000000000000000010000004D00000000000000
310
01004F006C006500310030004E00610074006900760065000000000000000000
310
0000000000000000000000000000000000000000000000000000000000000000
310
1A000200FFFFFFFFFFFFFFFFFFFFFFFF00000000000000000000000000000000
310
000000000000000000000000000000000000000004000000E411000000000000
310
FEFFFFFF02000000FEFFFFFFFFFFFFFFFFFFFFFFFFFFFFFFFFFFFFFFFFFFFFFF
310
FFFFFFFFFFFFFFFFFFFFFFFFFFFFFFFFFFFFFFFFFFFFFFFFFFFFFFFFFFFFFFFF
310
FFFFFFFFFFFFFFFFFFFFFFFFFFFFFFFFFFFFFFFFFFFFFFFFFFFFFFFFFFFFFFFF
310
FFFFFFFFFFFFFFFFFFFFFFFFFFFFFFFFFFFFFFFFFFFFFFFFFFFFFFFFFFFFFFFF
310
FFFFFFFFFFFFFFFFFFFFFFFFFFFFFFFFFFFFFFFFFFFFFFFFFFFFFFFFFFFFFFFF
310
FFFFFFFFFFFFFFFFFFFFFFFFFFFFFFFFFFFFFFFFFFFFFFFFFFFFFFFFFFFFFFFF
310
FFFFFFFFFFFFFFFFFFFFFFFFFFFFFFFFFFFFFFFFFFFFFFFFFFFFFFFFFFFFFFFF
310
FFFFFFFFFFFFFFFFFFFFFFFFFFFFFFFFFFFFFFFFFFFFFFFFFFFFFFFFFFFFFFFF
310
FFFFFFFFFFFFFFFFFFFFFFFFFFFFFFFFFFFFFFFFFFFFFFFFFFFFFFFFFFFFFFFF
310
FFFFFFFFFFFFFFFFFFFFFFFFFFFFFFFFFFFFFFFFFFFFFFFFFFFFFFFFFFFFFFFF
310
FFFFFFFFFFFFFFFFFFFFFFFFFFFFFFFFFFFFFFFFFFFFFFFFFFFFFFFFFFFFFFFF
310
FFFFFFFFFFFFFFFFFFFFFFFFFFFFFFFFFFFFFFFFFFFFFFFFFFFFFFFFFFFFFFFF
310
FFFFFFFFFFFFFFFFFFFFFFFFFFFFFFFFFFFFFFFFFFFFFFFFFFFFFFFFFFFFFFFF
310
FFFFFFFFFFFFFFFFFFFFFFFFFFFFFFFFFFFFFFFFFFFFFFFFFFFFFFFFFFFFFFFF
310
FFFFFFFFFFFFFFFFFFFFFFFFFFFFFFFFFFFFFFFFFFFFFFFFFFFFFFFFFFFFFFFF
310
FFFFFFFFFFFFFFFFFFFFFFFFFFFFFFFFFFFFFFFFFFFFFFFFFFFFFFFFFFFFFFFF
310
0100000200000000000000000000000000000000000000000000000000000000
310
0000000000000000000000000000000000000000000000000000000000000000
310
0100FEFF030A0000FFFFFFFF0A00030000000000C00000000000004607000000
310
5042727573680007000000504272757368000700000050427275736800F439B2
310
7100000000000000000000000000000000000000000000000000000000000000
310
0000000000000000000000000000000000000000000000000000000000000000
310
0000000000000000000000000000000000000000000000000000000000000000
310
0000000000000000000000000000000000000000000000000000000000000000
310
0000000000000000000000000000000000000000000000000000000000000000
310
0000000000000000000000000000000000000000000000000000000000000000
310
0000000000000000000000000000000000000000000000000000000000000000
310
0000000000000000000000000000000000000000000000000000000000000000
310
0000000000000000000000000000000000000000000000000000000000000000
310
0000000000000000000000000000000000000000000000000000000000000000
310
0000000000000000000000000000000000000000000000000000000000000000
310
0000000000000000000000000000000000000000000000000000000000000000
310
E0110000424DDE11000000000000360400002800000096000000170000000100
310
08000000000000000000E7240000E72400000001000000010000000000FF0101
310
01FF020202FF030303FF040404FF050505FF060606FF070707FF080808FF0909
310
09FF0A0A0AFF0B0B0BFF0C0C0CFF0D0D0DFF0E0E0EFF0F0F0FFF101010FF1111
310
11FF121212FF131313FF141414FF151515FF161616FF171717FF181818FF1919
310
19FF1A1A1AFF1B1B1BFF1C1C1CFF1D1D1DFF1E1E1EFF1F1F1FFF202020FF2121
310
21FF222222FF232323FF242424FF252525FF262626FF272727FF282828FF2929
310
29FF2A2A2AFF2B2B2BFF2C2C2CFF2D2D2DFF2E2E2EFF2F2F2FFF303030FF3131
310
31FF323232FF333333FF343434FF353535FF363636FF373737FF383838FF3939
310
39FF3A3A3AFF3B3B3BFF3C3C3CFF3D3D3DFF3E3E3EFF3F3F3FFF404040FF4141
310
41FF424242FF434343FF444444FF454545FF464646FF474747FF484848FF4949
310
49FF4A4A4AFF4B4B4BFF4C4C4CFF4D4D4DFF4E4E4EFF4F4F4FFF505050FF5151
310
51FF525252FF535353FF545454FF555555FF565656FF575757FF585858FF5959
310
59FF5A5A5AFF5B5B5BFF5C5C5CFF5D5D5DFF5E5E5EFF5F5F5FFF606060FF6161
310
61FF626262FF636363FF646464FF656565FF666666FF676767FF686868FF6969
310
69FF6A6A6AFF6B6B6BFF6C6C6CFF6D6D6DFF6E6E6EFF6F6F6FFF707070FF7171
310
71FF727272FF737373FF747474FF757575FF767676FF777777FF787878FF7979
310
79FF7A7A7AFF7B7B7BFF7C7C7CFF7D7D7DFF7E7E7EFF7F7F7FFF808080FF8181
310
81FF828282FF838383FF848484FF858585FF868686FF878787FF888888FF8989
310
89FF8A8A8AFF8B8B8BFF8C8C8CFF8D8D8DFF8E8E8EFF8F8F8FFF909090FF9191
310
91FF929292FF939393FF949494FF959595FF969696FF979797FF989898FF9999
310
99FF9A9A9AFF9B9B9BFF9C9C9CFF9D9D9DFF9E9E9EFF9F9F9FFFA0A0A0FFA1A1
310
A1FFA2A2A2FFA3A3A3FFA4A4A4FFA5A5A5FFA6A6A6FFA7A7A7FFA8A8A8FFA9A9
310
A9FFAAAAAAFFABABABFFACACACFFADADADFFAEAEAEFFAFAFAFFFB0B0B0FFB1B1
310
B1FFB2B2B2FFB3B3B3FFB4B4B4FFB5B5B5FFB6B6B6FFB7B7B7FFB8B8B8FFB9B9
310
B9FFBABABAFFBBBBBBFFBCBCBCFFBDBDBDFFBEBEBEFFBFBFBFFFC0C0C0FFC1C1
310
C1FFC2C2C2FFC3C3C3FFC4C4C4FFC5C5C5FFC6C6C6FFC7C7C7FFC8C8C8FFC9C9
310
C9FFCACACAFFCBCBCBFFCCCCCCFFCDCDCDFFCECECEFFCFCFCFFFD0D0D0FFD1D1
310
D1FFD2D2D2FFD3D3D3FFD4D4D4FFD5D5D5FFD6D6D6FFD7D7D7FFD8D8D8FFD9D9
310
D9FFDADADAFFDBDBDBFFDCDCDCFFDDDDDDFFDEDEDEFFDFDFDFFFE0E0E0FFE1E1
310
E1FFE2E2E2FFE3E3E3FFE4E4E4FFE5E5E5FFE6E6E6FFE7E7E7FFE8E8E8FFE9E9
310
E9FFEAEAEAFFEBEBEBFFECECECFFEDEDEDFFEEEEEEFFEFEFEFFFF0F0F0FFF1F1
310
F1FFF2F2F2FFF3F3F3FFF4F4F4FFF5F5F5FFF6F6F6FFF7F7F7FFF8F8F8FFF9F9
310
F9FFFAFAFAFFFBFBFBFFFCFCFCFFFDFDFDFFFEFEFEFFFFFFFFFFFFFFFFFFFFFF
310
C94E4E4E4F4E4EFFFFFFFFFFC94E4E4E4E4E72FFFFFFFFFFFFFF734E4D4E4E4E
310
C9FFFFFFFFFFAA683516171616265B9BE9FFFFFFFFFF4E4E4E4D4E4EFFFFFFFF
310
FFFFFFFF4E4E4F4E4D4E4E4E4F4E4E4F4D4E4E4E4E4E4D4E4F4E4D4E4E4EAAFF
310
FFFFFFFFFFEA4E4F4F4E4E4E4E4E4D4D4F4F4E4E4E4E4E5B7FAAFFFFFFFFFFFF
310
C9744E1716171616164D8DEAFFFFFFFF0000FFFFFFFFFFFFBA161617161716FF
310
FFFFFFFFB917171616174FFFFFFFFFFFFFFF4E1716161616B9FFFFFFB9341717
310
1716171617171616268CFFFFFFFF161617161617FFFFFFFFFFFFFFB917161717
310
1617167F807F7F7F7F7F7F807F7F807F7F807F7F7F414EFFFFFFFFFFFF8C167F
310
7F807F7F7F7E7F7F807F807F7F807F4E3417258EFFFFEA4E162674AABAEAEBBA
310
AA74341680FFFFFF0000FFFFFFFFFFFFB9171717171617FFFFFFFFFFBB161616
310
16164EFFFFFFFFFFFFFF4E1717171717B9FFFF9C171617171716161616171616
310
171766FFFFFF161717161617FFFFFFFFFFFFFF8E16171717161616FFFFFFFFFF
310
FFFFFFFFFFFFFFFFFFFFFFFFFFAA16D9FFFFFFFFFF3467FFFFFFFFEAFFFFFFFF
310
FFFFFFFFFFFFFFFFFFCA671667EB26278DFFFFFFFFFFFFFFFFFFFF8C2541EAFF
310
0000FFFFFFFFFFFFB9171717171716FFFFFFFFFFBA16171617174EFFFFFFFFFF
310
FFFF4E1717161616BAFF9B1617161616171716171617161616161667FFFF1616
310
16161716FFFFFFFFFFFFFF7F16161617174017FFFFFFFFFFFFFFFFFFFFFFFFFF
310
FFFFFFFFFFFF344E7F7F7F7E7417DAFFFFFFFF80FFFFFFFFFFFFFFFFFFFFFFFF
310
FFFFFF9B163425CAFFFFFFFFFFFFFFFFFFFFFFFFCA2667FF0000FFFFFFFFFFFF
310
BA171717171617FFFFFFFFFFB916171716164EFFFFFFFFFFFFFF4F1716161717
310
B9C91716171616161716161617171616161617168DFF161716161717FFFFFFFF
310
FFFFFF7F17171716164F16FFFFFFFFFFFFFFFFFFFFFFFFFFFFFFFFFFFFFF9B16
310
17161617174EFFFFFFFFFF34FFFFFFFFD9BABABABABADAFFFFFFFFFF7F16AAFF
310
FFFFFFFFFFFFFFFFFFFFFFFFFF9C16BA0000FFFFFFFFFFFFB9161717161717FF
310
FFFFFFFFB917161716174DFFFFFFFFFFFFFF4E1616161616BA4E161617171716
310
419BEAEAAA4E16161617161726E9171717161616FFFFFFFFFFFFFF4F16161717
310
164E16FFFFFFFFFFBAB9B9B9B9B9BABABACAFFFFFFFFFFFFFFFFFFFFFFFFFFFF
310
FFFFBA16FFFFFFFF7F1617161617174DEAFFFFFFEA41FFFFFFFFFFAA4D16174E
310
9BFFFFFFFFFF34730000FFFFFFFFFFFFB9161617171617FFFFFFFFFFBA161616
310
16164EFFFFFFFFFFFFFF4F16161717169B1617161716175BFFFFFFFFFFFF7417
310
16171616168D171717161617FFFFFFFFFFFFEA2616171717167416FFFFFFFFFF
310
16171616171717171717EAFFFFFFFFFFFFFFFFFFFFFFFFFFFFFF6716FFFFFFFF
310
7F4EFFFFFFFFBA2573FFFFFFFFBAFFFFFFFFAA167FB9BB9B269BFFFFFFFF664F
310
0000FFFFFFFFFFFFB9171616161616FFFFFFFFFFBA16161717164EFFFFFFFFFF
310
FFFF4E16161616174E161617171626EAFFFFFFFFFFFFFF4E16161616164E1716
310
16161617FFFFFFFFFFFF671616161716347F16FFFFFFFFFF16B9FFFFFFFFFFFF
310
D9168DFFFFFFFFFFFFFFFFFFFFFFFFFFFFEA1716FFFFFFFF7F4EFFFFFFFFFF7F
310
4EFFFFFFFFFFFFFFFFFF5B66FFFFFFEA347FFFFFFFFF7F4D0000FFFFFFFFFFFF
310
B9171616171617FFFFFFFFFFBA17161716174EFFFFFFFFFFFFFF4D1716161617
310
17161716161673FFFFFFFFFFFFFFFF9B1617161717161616171616174F4E4E4E
310
4E341616171616167E7F16FFFFFFFFFF16BAFFFFFFFFFFFFFF5B41FFFFFFFF34
310
1616171616BAFFFFFF9B1716FFFFFFFF7F4EFFFFFFFFFF4E4EFFFFFFFF734E4E
310
4E4E267EDA9B67164EEAFFFFFFFF744D0000FFFFFFFFFFFFBA171717161617FF
310
FFFFFFFFBA1616171616347F7F7F7F80807F331616161717161717161716B9FF
310
FFFFFFFFFFFFFFE9161616161616171716161716171616161616171616171734
310
EA7F16FFFFFFFFFF16BAFFFFFFFFFFFFFFAA17C9FFFFFF7326BABA5B25FFFFFF
310
FF401716FFFFFFFF7F264F4E4E4E4217AAFFFFFFEA16677F73261616164173CA
310
FFFFFFFFFFFF417F0000FFFFFFFFFFFFBA171616171617FFFFFFFFFFBA161616
310
17171616161616161616161717161616161616161617EAFFFFFFFFFFFFFFFFFF
310
261717161716161617161616161617161617161616174EEAFF8016FFFFFFFFFF
310
17BAFFFFFFFFFFFFFFFF3467FFFFFFC916C9FF3467FFFFFFDA166716FFFFFFFF
310
9C4D4E4E4E4E67AAFFFFFFFF6834FF7F262567AAEAFFFFFFFFFFFFFFFF9B17D9
310
0000FFFFFFFFFFFFB9161616161616FFFFFFFFFFBA1617161717171616161616
310
1716171716161716161617171716FFFFFFFFFFFFFFFFFFFF4E17161716171616
310
1617171616161716171717161616169BFF7F17FFFFFFFFFF17B9FFFFFFFFFFFF
310
FFFF7326FFFFFFFF3473DA16AAFFFFFF7317AA16FFFFFFFFFFFFFFFFFFFFFFFF
310
FFFFEA6725BA4E167FEAFFFFFFFFFFFFFFFFFFFF9C167FFF0000FFFFFFFFFFFF
310
B9161717171716FFFFFFFFFFBA16161716171616171717161617161716161616
310
171617171617EAFFFFFFFFFFFFFFFFFF26161717161616161616161617171616
310
1616161616171616AA8016FFFFFFFFFF16BAFFFFFFFFFFFFFFFFDA179BFFFFFF
310
74348D26FFFFFFFF2566B917FFFFFFFFD8BAB9BAB9BADAFFFFEA41169B7425C9
310
FFFFFFFFFFFFFFFFFFFFAB4F1680FFFF0000FFFFFFFFFFFFBA161717171617FF
310
FFFFFFFFBA17161717161617171617161616161617171616171716171617BBFF
310
FFFFFFFFFFFFFFE9171616161617161617161716FFFFFFFFFFD9671616161617
310
348017FFFFFFFFFF16BAFFFFFFFFFFFFFFFFFF4E5AFFFFFFC916265AFFFFFFAA
310
16AABA16FFFFFFFF7F1617161616179BFFFFEB4127168DFFFFFFFFFFFFFFD99B
310
6734175AC9FFFFFF0000FFFFFFFFFFFFB9161617171617FFFFFFFFFFBB161616
310
1616347F807F7F7F7F8033171716171617171616161672FFFFFFFFFFFFFFFF9C
310
171617171617161716161617FFFFFFFFFFFFFF4117161616174E17FFFFFFFFFF
310
16BAFFFFFFFFFFFFFFFFFF9B16DAFFFFFF34169BFFFFFF5A26FFB917FFFFFFFF
310
7F4EFFFFFFEA5B26FFFFFFEA2616EAFFFFFFFFDA743416331617414E4E4E4ECA
310
0000FFFFFFFFFFFFBA161716161616FFFFFFFFFFBA17171616164EFFFFFFFFFF
310
FFFF4E16161717174E161717171626EBFFFFFFFFFFFFFF4E16161617165B1616
310
16171617FFFFFFFFFFFFFF6716161616161617FFFFFFFFFF16BAFFFFFFFFFFFF
310
FFFFFFEA268CFFFFFF7316EAFFFFEB1774FFB916FFFFFFFF7F4EFFFFFFFF7316
310
FFFFFFFF6826FFFFFFFFEB264D9CEABA257F807F7F6616BA0000FFFFFFFFFFFF
310
BA161716161616FFFFFFFFFFBA16171616164DFFFFFFFFFFFFFF4E1617161617
310
9B1617171717165BEBFFFFFFFFFF671616161617179B171616161616FFFFFFFF
310
FFFFFF3417161617171617FFFFFFFFFF17BAFFFFFFFFFFFFFFFFFFFF6734FFFF
310
FFEBCAFFFFFF8D17C9FFBA17FFFFFFFF7F357F808066174FFFFFFFFF7F16FFFF
310
FFFFD91673B99B415BFFFFFFFFBA16DA00009B7F7F7F807F671617161616167F
310
80807F7E6617161616164EFFFFFFFFFFFFFF4E1616161617B94E171716161616
310
349BC9D9AA4E16171616161634FF161617161717B9B9BAB9BA9B411716171716
310
163416FFFFFFFFFF16B9FFFFFFFFFFFFFFFFFFFFC917CAFFFFFFFFFFFFFF3342
310
FFFFBA17FFFFFFFF9B4E4E4F4E4E66EAFFFFFFFF5B16C9FFFFFFFFAA4E164E73
310
EAFFFFFFFF8D26FF00004E161716161616171617171616171717171617161616
310
17174EFFFFFFFFFFFFFF4E1717171616B9D92616171716171716171717171716
310
16171716AAFF161717171617161617171616161617161716166717FFFFFFFFFF
310
17B9FFFFFFFFFFFFFFFFFFFFFF3467FFFFFFFFFFFFCA168CFFFFBB17FFFFFFFF
310
FFFFFFFFFFFFFFFFFFFFFFEA26265BFFFFFFFFFFFFFFFFFFFFFFFFFFEA3467FF
310
00004D16161616161617161717161617161616171617171616164EFFFFFFFFFF
310
FFFF4D1617161616BAFF9B1616161616161716161616171717161766FFFF1616
310
16171617161617161716171616171717667F16FFFFFFFFFF17BAFFFFFFFFFFFF
310
FFFFFFFFFF8C26EAFFFFFFFFFF6617EAFFFFBA17FFFFFFFFFFFFFFFFFFFFFFFF
310
FFFFEA5A25BA269BFFFFFFFFFFFFFFFFFFFFFFFF6616DAFF00004E1616171616
310
1616161616161716161617171616171616174EFFFFFFFFFFFFFF4D1717171716
310
B9FFFF9C161616161616161716161717171667FFFFFF17161717171716161617
310
1716161616161641E97E16FFFFFFFFFF16B9FFFFFFFFFFFFFFFFFFFFFFEA169B
310
FFFFFFFFEA265BFFFFFFB916FFFFFFFFFFFFFFFFFFFFFFFFFF9B3416AAFF9B17
310
67EAFFFFFFFFFFFFFFFFEA5B169BFFFF00004D17161716161616161717171616
310
161717161716171716174EFFFFFFFFFFFFFF4D1616161616BAFFFFFFBB411616
310
161716161616171634ABFFFFFFFF161716161617171716171617171617267FFF
310
FF7F164E4E4E4E4F17BAFFFFFFFFFFFFFFFFFFFFFFFF66344D4E4E4F4117AAFF
310
FFFFBA174E4E4E4D4E4D4D4E4E4E4E4116174EBBFFFFFFCA342666ABEAFFFFEA
310
AA6725269CFFFFFF0000724F4E4D4D4D4E4D4D4E4E4E4D4E4E4E4E4E4E4E4E4D
310
4E4E74FFFFFFFFFFFFFF734E4E4E4D4ECAFFFFFFFFFFAA663416171717265B9B
310
FFFFFFFFFFFF7F8080807F80807F7F7F7F7F807FBAFFFFFFFF9B4E4E4F4D4D4E
310
4DC9FFFFFFFFFFFFFFFFFFFFFFFFBA4E4E4E4E4D4E4EFFFFFFFFC94E4E4E4F4E
310
4E4E4D4E4E5A807F9CD9FFFFFFFFFFFFFF9B5B2617171716174E8DEAFFFFFFFF
310
0000000000000000000000000000000000000000000000000000000000000000
  1
OLE
  0
ENDSEC
  0
SECTION
  2
OBJECTS
  0
DICTIONARY
  5
C
330
0
100
AcDbDictionary
281
     1
  3
ACAD_GROUP
350
D
  3
ACAD_LAYOUT
350
1A
  3
ACAD_MLINESTYLE
350
17
  3
ACAD_PLOTSETTINGS
350
19
  3
ACAD_PLOTSTYLENAME
350
E
  3
ACAD_SCALELIST
350
47
  0
DICTIONARY
  5
D
102
{ACAD_REACTORS
330
C
102
}
330
C
100
AcDbDictionary
281
     1
  0
DICTIONARY
  5
1A
102
{ACAD_REACTORS
330
C
102
}
330
C
100
AcDbDictionary
281
     1
  3
Layout1
350
1E
  3
Layout2
350
26
  3
Model
350
22
  0
DICTIONARY
  5
17
102
{ACAD_REACTORS
330
C
102
}
330
C
100
AcDbDictionary
281
     1
  3
Standard
350
18
  0
DICTIONARY
  5
19
102
{ACAD_REACTORS
330
C
102
}
330
C
100
AcDbDictionary
281
     1
  0
ACDBDICTIONARYWDFLT
  5
E
102
{ACAD_REACTORS
330
C
102
}
330
C
100
AcDbDictionary
281
     1
  3
Normal
350
F
100
AcDbDictionaryWithDefault
340
F
  0
DICTIONARY
  5
47
102
{ACAD_REACTORS
330
C
102
}
330
C
100
AcDbDictionary
281
     1
  3
A0
350
48
  3
A1
350
49
  3
A2
350
4A
  3
A3
350
4B
  3
A4
350
4C
  3
A5
350
4D
  3
A6
350
4E
  3
A7
350
4F
  3
A8
350
50
  3
A9
350
51
  3
B0
350
52
  3
B1
350
53
  3
B2
350
54
  3
B3
350
55
  3
B4
350
56
  3
B5
350
57
  3
B6
350
58
  3
B7
350
59
  3
B8
350
5A
  3
B9
350
5B
  3
C0
350
5C
  3
C1
350
5D
  3
C2
350
5E
  3
C3
350
5F
  3
C4
350
60
  3
C5
350
61
  3
C6
350
62
  3
C7
350
63
  3
C8
350
64
  3
C9
350
65
  3
D0
350
66
  3
D1
350
67
  3
D2
350
68
  0
LAYOUT
  5
1E
102
{ACAD_REACTORS
330
1A
102
}
330
1A
100
AcDbPlotSettings
  1

  2
none_device
  4

  6

 40
0.0
 41
0.0
 42
0.0
 43
0.0
 44
0.0
 45
0.0
 46
0.0
 47
0.0
 48
0.0
 49
0.0
140
0.0
141
0.0
142
1.0
143
1.0
 70
   688
 72
     1
 73
     0
 74
     5
  7

 75
    16
147
1.0
148
0.0
149
0.0
100
AcDbLayout
  1
Layout1
 70
     1
 71
     1
 10
0.0
 20
0.0
 11
420.0
 21
297.0
 12
0.0
 22
0.0
 32
0.0
 14
1.0000000000E+20
 24
1.0000000000E+20
 34
1.0000000000E+20
 15
-1.0000000000E+20
 25
-1.0000000000E+20
 35
-1.0000000000E+20
146
0.0
 13
0.0
 23
0.0
 33
0.0
 16
1.0
 26
0.0
 36
0.0
 17
0.0
 27
1.0
 37
0.0
 76
     0
330
1B
  0
LAYOUT
  5
26
102
{ACAD_REACTORS
330
1A
102
}
330
1A
100
AcDbPlotSettings
  1

  2
none_device
  4

  6

 40
0.0
 41
0.0
 42
0.0
 43
0.0
 44
0.0
 45
0.0
 46
0.0
 47
0.0
 48
0.0
 49
0.0
140
0.0
141
0.0
142
1.0
143
1.0
 70
   688
 72
     1
 73
     0
 74
     5
  7

 75
    16
147
1.0
148
0.0
149
0.0
100
AcDbLayout
  1
Layout2
 70
     1
 71
     2
 10
0.0
 20
0.0
 11
0.0
 21
0.0
 12
0.0
 22
0.0
 32
0.0
 14
0.0
 24
0.0
 34
0.0
 15
0.0
 25
0.0
 35
0.0
146
0.0
 13
0.0
 23
0.0
 33
0.0
 16
1.0
 26
0.0
 36
0.0
 17
0.0
 27
1.0
 37
0.0
 76
     0
330
23
  0
LAYOUT
  5
22
102
{ACAD_REACTORS
330
1A
102
}
330
1A
100
AcDbPlotSettings
  1

  2
none_device
  4
Letter_(8.50_x_11.00_Inches)
  6

 40
6.35
 41
6.35
 42
6.35000508
 43
6.35000508
 44
215.9
 45
279.4
 46
0.0
 47
0.0
 48
0.0
 49
0.0
140
0.0
141
0.0
142
1.0
143
1.0
 70
  1712
 72
     1
 73
     0
 74
     0
  7

 75
     0
147
1.0
148
0.0
149
0.0
100
AcDbLayout
  1
Model
 70
     1
 71
     0
 10
0.0
 20
0.0
 11
279.4
 21
215.9
 12
0.0
 22
0.0
 32
0.0
 14
0.0
 24
0.0
 34
0.0
 15
279.4
 25
215.9
 35
0.0
146
0.0
 13
0.0
 23
0.0
 33
0.0
 16
1.0
 26
0.0
 36
0.0
 17
0.0
 27
1.0
 37
0.0
 76
     0
330
1F
331
29
  0
MLINESTYLE
  5
18
102
{ACAD_REACTORS
330
17
102
}
330
17
100
AcDbMlineStyle
  2
Standard
 70
     0
  3

 62
   256
 51
90.0
 52
90.0
 71
     2
 49
0.5
 62
   256
  6
BYLAYER
 49
-0.5
 62
   256
  6
BYLAYER
  0
ACDBPLACEHOLDER
  5
F
102
{ACAD_REACTORS
330
E
102
}
330
E
  0
SCALE
  5
48
102
{ACAD_REACTORS
330
47
102
}
330
47
100
AcDbScale
 70
     0
300
1:1
140
1.0
141
1.0
290
     1
  0
SCALE
  5
49
102
{ACAD_REACTORS
330
47
102
}
330
47
100
AcDbScale
 70
     0
300
1:2
140
1.0
141
2.0
290
     0
  0
SCALE
  5
4A
102
{ACAD_REACTORS
330
47
102
}
330
47
100
AcDbScale
 70
     0
300
1:4
140
1.0
141
4.0
290
     0
  0
SCALE
  5
4B
102
{ACAD_REACTORS
330
47
102
}
330
47
100
AcDbScale
 70
     0
300
1:5
140
1.0
141
5.0
290
     0
  0
SCALE
  5
4C
102
{ACAD_REACTORS
330
47
102
}
330
47
100
AcDbScale
 70
     0
300
1:8
140
1.0
141
8.0
290
     0
  0
SCALE
  5
4D
102
{ACAD_REACTORS
330
47
102
}
330
47
100
AcDbScale
 70
     0
300
1:10
140
1.0
141
10.0
290
     0
  0
SCALE
  5
4E
102
{ACAD_REACTORS
330
47
102
}
330
47
100
AcDbScale
 70
     0
300
1:16
140
1.0
141
16.0
290
     0
  0
SCALE
  5
4F
102
{ACAD_REACTORS
330
47
102
}
330
47
100
AcDbScale
 70
     0
300
1:20
140
1.0
141
20.0
290
     0
  0
SCALE
  5
50
102
{ACAD_REACTORS
330
47
102
}
330
47
100
AcDbScale
 70
     0
300
1:30
140
1.0
141
30.0
290
     0
  0
SCALE
  5
51
102
{ACAD_REACTORS
330
47
102
}
330
47
100
AcDbScale
 70
     0
300
1:40
140
1.0
141
40.0
290
     0
  0
SCALE
  5
52
102
{ACAD_REACTORS
330
47
102
}
330
47
100
AcDbScale
 70
     0
300
1:50
140
1.0
141
50.0
290
     0
  0
SCALE
  5
53
102
{ACAD_REACTORS
330
47
102
}
330
47
100
AcDbScale
 70
     0
300
1:100
140
1.0
141
100.0
290
     0
  0
SCALE
  5
54
102
{ACAD_REACTORS
330
47
102
}
330
47
100
AcDbScale
 70
     0
300
2:1
140
2.0
141
1.0
290
     0
  0
SCALE
  5
55
102
{ACAD_REACTORS
330
47
102
}
330
47
100
AcDbScale
 70
     0
300
4:1
140
4.0
141
1.0
290
     0
  0
SCALE
  5
56
102
{ACAD_REACTORS
330
47
102
}
330
47
100
AcDbScale
 70
     0
300
8:1
140
8.0
141
1.0
290
     0
  0
SCALE
  5
57
102
{ACAD_REACTORS
330
47
102
}
330
47
100
AcDbScale
 70
     0
300
10:1
140
10.0
141
1.0
290
     0
  0
SCALE
  5
58
102
{ACAD_REACTORS
330
47
102
}
330
47
100
AcDbScale
 70
     0
300
100:1
140
100.0
141
1.0
290
     0
  0
SCALE
  5
59
102
{ACAD_REACTORS
330
47
102
}
330
47
100
AcDbScale
 70
     0
300
1/128" = 1'-0"
140
0.0078125
141
12.0
290
     0
  0
SCALE
  5
5A
102
{ACAD_REACTORS
330
47
102
}
330
47
100
AcDbScale
 70
     0
300
1/64" = 1'-0"
140
0.015625
141
12.0
290
     0
  0
SCALE
  5
5B
102
{ACAD_REACTORS
330
47
102
}
330
47
100
AcDbScale
 70
     0
300
1/32" = 1'-0"
140
0.03125
141
12.0
290
     0
  0
SCALE
  5
5C
102
{ACAD_REACTORS
330
47
102
}
330
47
100
AcDbScale
 70
     0
300
1/16" = 1'-0"
140
0.0625
141
12.0
290
     0
  0
SCALE
  5
5D
102
{ACAD_REACTORS
330
47
102
}
330
47
100
AcDbScale
 70
     0
300
3/32" = 1'-0"
140
0.09375
141
12.0
290
     0
  0
SCALE
  5
5E
102
{ACAD_REACTORS
330
47
102
}
330
47
100
AcDbScale
 70
     0
300
1/8" = 1'-0"
140
0.125
141
12.0
290
     0
  0
SCALE
  5
5F
102
{ACAD_REACTORS
330
47
102
}
330
47
100
AcDbScale
 70
     0
300
3/16" = 1'-0"
140
0.1875
141
12.0
290
     0
  0
SCALE
  5
60
102
{ACAD_REACTORS
330
47
102
}
330
47
100
AcDbScale
 70
     0
300
1/4" = 1'-0"
140
0.25
141
12.0
290
     0
  0
SCALE
  5
61
102
{ACAD_REACTORS
330
47
102
}
330
47
100
AcDbScale
 70
     0
300
3/8" = 1'-0"
140
0.375
141
12.0
290
     0
  0
SCALE
  5
62
102
{ACAD_REACTORS
330
47
102
}
330
47
100
AcDbScale
 70
     0
300
1/2" = 1'-0"
140
0.5
141
12.0
290
     0
  0
SCALE
  5
63
102
{ACAD_REACTORS
330
47
102
}
330
47
100
AcDbScale
 70
     0
300
3/4" = 1'-0"
140
0.75
141
12.0
290
     0
  0
SCALE
  5
64
102
{ACAD_REACTORS
330
47
102
}
330
47
100
AcDbScale
 70
     0
300
1" = 1'-0"
140
1.0
141
12.0
290
     0
  0
SCALE
  5
65
102
{ACAD_REACTORS
330
47
102
}
330
47
100
AcDbScale
 70
     0
300
1-1/2" = 1'-0"
140
1.5
141
12.0
290
     0
  0
SCALE
  5
66
102
{ACAD_REACTORS
330
47
102
}
330
47
100
AcDbScale
 70
     0
300
3" = 1'-0"
140
3.0
141
12.0
290
     0
  0
SCALE
  5
67
102
{ACAD_REACTORS
330
47
102
}
330
47
100
AcDbScale
 70
     0
300
6" = 1'-0"
140
6.0
141
12.0
290
     0
  0
SCALE
  5
68
102
{ACAD_REACTORS
330
47
102
}
330
47
100
AcDbScale
 70
     0
300
1'-0" = 1'-0"
140
12.0
141
12.0
290
     0
  0
ENDSEC
  0
EOF
