  0
SECTION
  2
HEADER
  9
$ACADVER
  1
AC1015
  9
$ACADMAINTVER
 70
     6
  9
$DWGCODEPAGE
  3
ANSI_1252
  9
$INSBASE
 10
0.0
 20
0.0
 30
0.0
  9
$EXTMIN
 10
0.0
 20
0.0
 30
0.0
  9
$EXTMAX
 10
11.0
 20
8.5
 30
0.0
  9
$LIMMIN
 10
0.0
 20
0.0
  9
$LIMMAX
 10
0.0
 20
0.0
  9
$ORTHOMODE
 70
     0
  9
$REGENMODE
 70
     1
  9
$FILLMODE
 70
     1
  9
$QTEXTMODE
 70
     0
  9
$MIRRTEXT
 70
     1
  9
$LTSCALE
 40
1.0
  9
$ATTMODE
 70
     1
  9
$TEXTSIZE
 40
0.1111111111
  9
$TRACEWID
 40
0.05
  9
$TEXTSTYLE
  7
Standard
  9
$CLAYER
  8
0
  9
$CELTYPE
  6
ByLayer
  9
$CECOLOR
 62
   256
  9
$CELTSCALE
 40
1.0
  9
$DISPSILH
 70
     0
  9
$DIMSCALE
 40
1.0
  9
$DIMASZ
 40
0.125
  9
$DIMEXO
 40
0.05
  9
$DIMDLI
 40
0.38
  9
$DIMRND
 40
0.0
  9
$DIMDLE
 40
0.0
  9
$DIMEXE
 40
0.07
  9
$DIMTP
 40
0.0
  9
$DIMTM
 40
0.0
  9
$DIMTXT
 40
0.1111111111
  9
$DIMCEN
 40
0.09
  9
$DIMTSZ
 40
0.0
  9
$DIMTOL
 70
     0
  9
$DIMLIM
 70
     0
  9
$DIMTIH
 70
     1
  9
$DIMTOH
 70
     1
  9
$DIMSE1
 70
     0
  9
$DIMSE2
 70
     0
  9
$DIMTAD
 70
     0
  9
$DIMZIN
 70
     0
  9
$DIMBLK
  1

  9
$DIMASO
 70
     1
  9
$DIMSHO
 70
     1
  9
$DIMPOST
  1

  9
$DIMAPOST
  1

  9
$DIMALT
 70
     0
  9
$DIMALTD
 70
     2
  9
$DIMALTF
 40
25.4
  9
$DIMLFAC
 40
1.0
  9
$DIMTOFL
 70
     0
  9
$DIMTVP
 40
0.0
  9
$DIMTIX
 70
     0
  9
$DIMSOXD
 70
     0
  9
$DIMSAH
 70
     0
  9
$DIMBLK1
  1

  9
$DIMBLK2
  1

  9
$DIMSTYLE
  2
Standard
  9
$DIMCLRD
 70
     0
  9
$DIMCLRE
 70
     0
  9
$DIMCLRT
 70
     0
  9
$DIMTFAC
 40
1.0
  9
$DIMGAP
 40
0.1
  9
$DIMJUST
 70
     0
  9
$DIMSD1
 70
     0
  9
$DIMSD2
 70
     0
  9
$DIMTOLJ
 70
     1
  9
$DIMTZIN
 70
     0
  9
$DIMALTZ
 70
     0
  9
$DIMALTTZ
 70
     0
  9
$DIMUPT
 70
     0
  9
$DIMDEC
 70
     4
  9
$DIMTDEC
 70
     4
  9
$DIMALTU
 70
     2
  9
$DIMALTTD
 70
     2
  9
$DIMTXSTY
  7
Standard
  9
$DIMAUNIT
 70
     0
  9
$DIMADEC
 70
     0
  9
$DIMALTRND
 40
0.0
  9
$DIMAZIN
 70
     0
  9
$DIMDSEP
 70
    46
  9
$DIMATFIT
 70
     3
  9
$DIMFRAC
 70
     0
  9
$DIMLDRBLK
  1

  9
$DIMLUNIT
 70
     2
  9
$DIMLWD
 70
    -2
  9
$DIMLWE
 70
    -2
  9
$DIMTMOVE
 70
     0
  9
$LUNITS
 70
     2
  9
$LUPREC
 70
     2
  9
$SKETCHINC
 40
0.1
  9
$FILLETRAD
 40
0.5
  9
$AUNITS
 70
     0
  9
$AUPREC
 70
     0
  9
$MENU
  1
.
  9
$ELEVATION
 40
0.0
  9
$PELEVATION
 40
0.0
  9
$THICKNESS
 40
0.0
  9
$LIMCHECK
 70
     0
  9
$CHAMFERA
 40
0.5
  9
$CHAMFERB
 40
0.5
  9
$CHAMFERC
 40
1.0
  9
$CHAMFERD
 40
0.0
  9
$SKPOLY
 70
     0
  9
$TDCREATE
 40
2453819.557751481
  9
$TDUCREATE
 40
2453819.766084815
  9
$TDUPDATE
 40
2453819.557751493
  9
$TDUUPDATE
 40
2453819.766084827
  9
$TDINDWG
 40
0.0000000116
  9
$TDUSRTIMER
 40
0.0000000116
  9
$USRTIMER
 70
     1
  9
$ANGBASE
 50
0.0
  9
$ANGDIR
 70
     0
  9
$PDMODE
 70
     0
  9
$PDSIZE
 40
-1.0
  9
$PLINEWID
 40
0.0
  9
$SPLFRAME
 70
     0
  9
$SPLINETYPE
 70
     6
  9
$SPLINESEGS
 70
     8
  9
$HANDSEED
  5
2EF
  9
$SURFTAB1
 70
     6
  9
$SURFTAB2
 70
     6
  9
$SURFTYPE
 70
     6
  9
$SURFU
 70
     6
  9
$SURFV
 70
     6
  9
$UCSBASE
  2

  9
$UCSNAME
  2

  9
$UCSORG
 10
0.0
 20
0.0
 30
0.0
  9
$UCSXDIR
 10
1.0
 20
0.0
 30
0.0
  9
$UCSYDIR
 10
0.0
 20
1.0
 30
0.0
  9
$UCSORTHOREF
  2

  9
$UCSORTHOVIEW
 70
     0
  9
$UCSORGTOP
 10
0.0
 20
0.0
 30
0.0
  9
$UCSORGBOTTOM
 10
0.0
 20
0.0
 30
0.0
  9
$UCSORGLEFT
 10
0.0
 20
0.0
 30
0.0
  9
$UCSORGRIGHT
 10
0.0
 20
0.0
 30
0.0
  9
$UCSORGFRONT
 10
0.0
 20
0.0
 30
0.0
  9
$UCSORGBACK
 10
0.0
 20
0.0
 30
0.0
  9
$PUCSBASE
  2

  9
$PUCSNAME
  2

  9
$PUCSORG
 10
0.0
 20
0.0
 30
0.0
  9
$PUCSXDIR
 10
1.0
 20
0.0
 30
0.0
  9
$PUCSYDIR
 10
0.0
 20
1.0
 30
0.0
  9
$PUCSORTHOREF
  2

  9
$PUCSORTHOVIEW
 70
     0
  9
$PUCSORGTOP
 10
0.0
 20
0.0
 30
0.0
  9
$PUCSORGBOTTOM
 10
0.0
 20
0.0
 30
0.0
  9
$PUCSORGLEFT
 10
0.0
 20
0.0
 30
0.0
  9
$PUCSORGRIGHT
 10
0.0
 20
0.0
 30
0.0
  9
$PUCSORGFRONT
 10
0.0
 20
0.0
 30
0.0
  9
$PUCSORGBACK
 10
0.0
 20
0.0
 30
0.0
  9
$USERI1
 70
     0
  9
$USERI2
 70
     0
  9
$USERI3
 70
     0
  9
$USERI4
 70
     0
  9
$USERI5
 70
     0
  9
$USERR1
 40
0.0
  9
$USERR2
 40
0.0
  9
$USERR3
 40
0.0
  9
$USERR4
 40
0.0
  9
$USERR5
 40
0.0
  9
$WORLDVIEW
 70
     1
  9
$SHADEDGE
 70
     3
  9
$SHADEDIF
 70
    70
  9
$TILEMODE
 70
     1
  9
$MAXACTVP
 70
    64
  9
$PINSBASE
 10
0.0
 20
0.0
 30
0.0
  9
$PLIMCHECK
 70
     0
  9
$PEXTMIN
 10
1.0000000000E+20
 20
1.0000000000E+20
 30
1.0000000000E+20
  9
$PEXTMAX
 10
-1.0000000000E+20
 20
-1.0000000000E+20
 30
-1.0000000000E+20
  9
$PLIMMIN
 10
0.0
 20
0.0
  9
$PLIMMAX
 10
12.0
 20
9.0
  9
$UNITMODE
 70
     0
  9
$VISRETAIN
 70
     1
  9
$PLINEGEN
 70
     0
  9
$PSLTSCALE
 70
     1
  9
$TREEDEPTH
 70
  3020
  9
$CMLSTYLE
  2
Standard
  9
$CMLJUST
 70
     0
  9
$CMLSCALE
 40
1.0
  9
$PROXYGRAPHICS
 70
     1
  9
$MEASUREMENT
 70
     0
  9
$CELWEIGHT
370
    -1
  9
$ENDCAPS
280
     0
  9
$JOINSTYLE
280
     0
  9
$LWDISPLAY
290
     1
  9
$INSUNITS
 70
     1
  9
$HYPERLINKBASE
  1

  9
$STYLESHEET
  1

  9
$XEDIT
290
     1
  9
$CEPSNTYPE
380
     0
  9
$PSTYLEMODE
290
     1
  9
$FINGERPRINTGUID
  2
{07840130-A80A-4669-AFF6-7B7AD6564385}
  9
$VERSIONGUID
  2
{FAEB1C32-E019-11D5-929B-00C0DF256EC4}
  9
$EXTNAMES
290
     1
  9
$PSVPSCALE
 40
0.0
  9
$OLESTARTUP
290
     0
  0
ENDSEC
  0
SECTION
  2
CLASSES
  0
CLASS
  1
ACDBDICTIONARYWDFLT
  2
AcDbDictionaryWithDefault
  3
ObjectDBX Classes
 90
        0
280
     0
281
     0
  0
CLASS
  1
ACDBPLACEHOLDER
  2
AcDbPlaceHolder
  3
ObjectDBX Classes
 90
        0
280
     0
281
     0
  0
CLASS
  1
LAYOUT
  2
AcDbLayout
  3
ObjectDBX Classes
 90
        0
280
     0
281
     0
  0
ENDSEC
  0
SECTION
  2
TABLES
  0
TABLE
  2
VPORT
  5
8
330
0
100
AcDbSymbolTable
 70
     1
  0
VPORT
  5
29
330
8
100
AcDbSymbolTableRecord
100
AcDbViewportTableRecord
  2
*Active
 70
     0
 10
0.0
 20
0.0
 11
1.0
 21
1.0
 12
5.5
 22
4.25
 13
0.0
 23
0.0
 14
0.5
 24
0.5
 15
0.5
 25
0.5
 16
0.0
 26
0.0
 36
1.0
 17
0.0
 27
0.0
 37
0.0
 40
8.5
 41
2.0890302065
 42
50.0
 43
0.0
 44
0.0
 50
0.0
 51
0.0
 71
     0
 72
  2000
 73
     1
 74
     3
 75
     0
 76
     0
 77
     0
 78
     0
281
     0
 65
     1
110
0.0
120
0.0
130
0.0
111
1.0
121
0.0
131
0.0
112
0.0
122
1.0
132
0.0
 79
     0
146
0.0
  0
ENDTAB
  0
TABLE
  2
LTYPE
  5
5
330
0
100
AcDbSymbolTable
 70
     6
  0
LTYPE
  5
14
330
5
100
AcDbSymbolTableRecord
100
AcDbLinetypeTableRecord
  2
ByBlock
 70
     0
  3

 72
    65
 73
     0
 40
0.0
  0
LTYPE
  5
15
330
5
100
AcDbSymbolTableRecord
100
AcDbLinetypeTableRecord
  2
ByLayer
 70
     0
  3

 72
    65
 73
     0
 40
0.0
  0
LTYPE
  5
16
330
5
100
AcDbSymbolTableRecord
100
AcDbLinetypeTableRecord
  2
Continuous
 70
     0
  3
Solid line
 72
    65
 73
     0
 40
0.0
  0
LTYPE
  5
2A
330
5
100
AcDbSymbolTableRecord
100
AcDbLinetypeTableRecord
  2
HIDDEN
 70
     0
  3
Hidden __ __ __ __ __ __ __ __ __ __ __ __ __ __
 72
    65
 73
     2
 40
0.075
 49
0.05
 74
     0
 49
-0.025
 74
     0
  0
LTYPE
  5
2B
330
5
100
AcDbSymbolTableRecord
100
AcDbLinetypeTableRecord
  2
PHANTOM
 70
     0
  3
Phantom ______  __  __  ______  __  __  ______
 72
    65
 73
     6
 40
0.5
 49
0.25
 74
     0
 49
-0.05
 74
     0
 49
0.05
 74
     0
 49
-0.05
 74
     0
 49
0.05
 74
     0
 49
-0.05
 74
     0
  0
LTYPE
  5
2C
330
5
100
AcDbSymbolTableRecord
100
AcDbLinetypeTableRecord
  2
CENTER
 70
     0
  3
Center ____ _ ____ _ ____ _ ____ _ ____ _ ____
 72
    65
 73
     4
 40
0.4
 49
0.25
 74
     0
 49
-0.05
 74
     0
 49
0.05
 74
     0
 49
-0.05
 74
     0
  0
LTYPE
  5
2D
330
5
100
AcDbSymbolTableRecord
100
AcDbLinetypeTableRecord
  2
CENTERX2
 70
     0
  3
Center (2x) ________  __  ________  __  _____
 72
    65
 73
     4
 40
0.8
 49
0.5
 74
     0
 49
-0.1
 74
     0
 49
0.1
 74
     0
 49
-0.1
 74
     0
  0
LTYPE
  5
2E
330
5
100
AcDbSymbolTableRecord
100
AcDbLinetypeTableRecord
  2
DOT2
 70
     0
  3
Dot (.5x) ........................................
 72
    65
 73
     2
 40
0.025
 49
0.0
 74
     0
 49
-0.025
 74
     0
  0
ENDTAB
  0
TABLE
  2
LAYER
  5
2
330
0
100
AcDbSymbolTable
 70
     3
  0
LAYER
  5
10
330
2
100
AcDbSymbolTableRecord
100
AcDbLayerTableRecord
  2
0
 70
     0
 62
     7
  6
Continuous
370
    -3
390
F
  0
LAYER
  5
2F
330
2
100
AcDbSymbolTableRecord
100
AcDbLayerTableRecord
  2
FORMAT
 70
     0
 62
     7
  6
Continuous
370
     0
390
F
  0
LAYER
  5
E0
330
2
100
AcDbSymbolTableRecord
100
AcDbLayerTableRecord
  2
Defpoints
 70
     0
 62
     7
  6
Continuous
290
     0
370
    -3
390
F
  0
ENDTAB
  0
TABLE
  2
STYLE
  5
3
330
0
100
AcDbSymbolTable
 70
    15
  0
STYLE
  5
11
330
3
100
AcDbSymbolTableRecord
100
AcDbTextStyleTableRecord
  2
Standard
 70
     0
 40
0.0
 41
1.0
 50
0.0
 71
     0
 42
0.2
  3
txt
  4

  0
STYLE
  5
4D
330
3
100
AcDbSymbolTableRecord
100
AcDbTextStyleTableRecord
  2
SLDTEXTSTYLE0
 70
     0
 40
0.0
 41
0.75
 50
0.0
 71
     0
 42
0.2
  3
TXT
  4

  0
STYLE
  5
55
330
3
100
AcDbSymbolTableRecord
100
AcDbTextStyleTableRecord
  2
SLDTEXTSTYLE1
 70
     0
 40
0.0
 41
0.6666666667
 50
0.0
 71
     0
 42
0.2
  3
TXT
  4

  0
STYLE
  5
57
330
3
100
AcDbSymbolTableRecord
100
AcDbTextStyleTableRecord
  2
SLDTEXTSTYLE2
 70
     0
 40
0.0
 41
0.7232142857
 50
0.0
 71
     0
 42
0.2
  3
TXT
  4

  0
STYLE
  5
62
330
3
100
AcDbSymbolTableRecord
100
AcDbTextStyleTableRecord
  2
SLDTEXTSTYLE3
 70
     0
 40
0.0
 41
0.65625
 50
0.0
 71
     0
 42
0.2
  3
TXT
  4

  0
STYLE
  5
68
330
3
100
AcDbSymbolTableRecord
100
AcDbTextStyleTableRecord
  2
SLDTEXTSTYLE4
 70
     0
 40
0.0
 41
0.7045454545
 50
0.0
 71
     0
 42
0.2
  3
TXT
  4

  0
STYLE
  5
6A
330
3
100
AcDbSymbolTableRecord
100
AcDbTextStyleTableRecord
  2
SLDTEXTSTYLE5
 70
     0
 40
0.0
 41
0.689516129
 50
0.0
 71
     0
 42
0.2
  3
TXT
  4

  0
STYLE
  5
6C
330
3
100
AcDbSymbolTableRecord
100
AcDbTextStyleTableRecord
  2
SLDTEXTSTYLE6
 70
     0
 40
0.0
 41
0.6931818182
 50
0.0
 71
     0
 42
0.2
  3
TXT
  4

  0
STYLE
  5
6E
330
3
100
AcDbSymbolTableRecord
100
AcDbTextStyleTableRecord
  2
SLDTEXTSTYLE7
 70
     0
 40
0.0
 41
0.6724137931
 50
0.0
 71
     0
 42
0.2
  3
TXT
  4

  0
STYLE
  5
70
330
3
100
AcDbSymbolTableRecord
100
AcDbTextStyleTableRecord
  2
SLDTEXTSTYLE8
 70
     0
 40
0.0
 41
0.705
 50
0.0
 71
     0
 42
0.2
  3
TXT
  4

  0
STYLE
  5
72
330
3
100
AcDbSymbolTableRecord
100
AcDbTextStyleTableRecord
  2
SLDTEXTSTYLE9
 70
     0
 40
0.0
 41
0.7112068966
 50
0.0
 71
     0
 42
0.2
  3
TXT
  4

  0
STYLE
  5
81
330
3
100
AcDbSymbolTableRecord
100
AcDbTextStyleTableRecord
  2
SLDTEXTSTYLE10
 70
     0
 40
0.0
 41
0.675
 50
0.0
 71
     0
 42
0.2
  3
TXT
  4

  0
STYLE
  5
85
330
3
100
AcDbSymbolTableRecord
100
AcDbTextStyleTableRecord
  2
SLDTEXTSTYLE11
 70
     0
 40
0.0
 41
0.71484375
 50
0.0
 71
     0
 42
0.2
  3
TXT
  4

  0
STYLE
  5
F6
330
3
100
AcDbSymbolTableRecord
100
AcDbTextStyleTableRecord
  2
SLDTEXTSTYLE12
 70
     0
 40
0.0
 41
0.6923076923
 50
0.0
 71
     0
 42
0.2
  3
TXT
  4

  0
STYLE
  5
1C8
330
3
100
AcDbSymbolTableRecord
100
AcDbTextStyleTableRecord
  2
SLDTEXTSTYLE13
 70
     0
 40
0.0
 41
0.7
 50
0.0
 71
     0
 42
0.2
  3
TXT
  4

  0
ENDTAB
  0
TABLE
  2
VIEW
  5
6
330
0
100
AcDbSymbolTable
 70
     0
  0
ENDTAB
  0
TABLE
  2
UCS
  5
7
330
0
100
AcDbSymbolTable
 70
     0
  0
ENDTAB
  0
TABLE
  2
APPID
  5
9
330
0
100
AcDbSymbolTable
 70
     1
  0
APPID
  5
12
330
9
100
AcDbSymbolTableRecord
100
AcDbRegAppTableRecord
  2
ACAD
 70
     0
  0
ENDTAB
  0
TABLE
  2
DIMSTYLE
  5
A
330
0
100
AcDbSymbolTable
 70
     8
100
AcDbDimStyleTable
  0
DIMSTYLE
105
27
330
A
100
AcDbSymbolTableRecord
100
AcDbDimStyleTableRecord
  2
Standard
 70
     0
340
11
  0
DIMSTYLE
105
EC
102
{ACAD_REACTORS
330
DF
102
}
330
A
100
AcDbSymbolTableRecord
100
AcDbDimStyleTableRecord
  2
SLDDIMSTYLE0
 70
     0
 41
0.125
 44
0.0
140
0.1111111111
147
0.0277777778
172
     1
173
     1
271
     2
272
     3
284
    12
340
4D
  0
DIMSTYLE
105
107
102
{ACAD_REACTORS
330
F9
330
143
102
}
330
A
100
AcDbSymbolTableRecord
100
AcDbDimStyleTableRecord
  2
SLDDIMSTYLE1
 70
     0
 41
0.125
 44
0.0
 78
    12
140
0.1111111111
147
0.0277777778
173
     1
271
     2
272
     3
284
    12
340
4D
  0
DIMSTYLE
105
121
102
{ACAD_REACTORS
330
112
330
12B
330
15B
330
176
102
}
330
A
100
AcDbSymbolTableRecord
100
AcDbDimStyleTableRecord
  2
SLDDIMSTYLE2
 70
     0
 41
0.125
 44
0.0
 78
     8
140
0.1111111111
147
0.0277777778
173
     1
271
     2
272
     3
284
    12
340
4D
  0
DIMSTYLE
105
19F
102
{ACAD_REACTORS
330
192
102
}
330
A
100
AcDbSymbolTableRecord
100
AcDbDimStyleTableRecord
  2
SLDDIMSTYLE3
 70
     0
 41
0.125
 44
0.0
140
0.1111111111
147
0.0277777778
173
     1
271
     2
272
     3
284
    12
340
4D
  0
DIMSTYLE
105
1AD
330
A
100
AcDbSymbolTableRecord
100
AcDbDimStyleTableRecord
  2
SLDDIMSTYLE4
 70
     0
 41
0.125
 44
0.0
140
0.125
147
0.03125
173
     1
271
     0
272
     0
340
11
  0
DIMSTYLE
105
1B5
330
A
100
AcDbSymbolTableRecord
100
AcDbDimStyleTableRecord
  2
SLDDIMSTYLE5
 70
     0
 41
0.0416666667
 44
0.0
140
0.125
147
0.03125
173
     1
271
     0
272
     0
340
11
341
1B6
343
1B6
344
1B6
  0
DIMSTYLE
105
1F3
102
{ACAD_REACTORS
330
1E7
102
}
330
A
100
AcDbSymbolTableRecord
100
AcDbDimStyleTableRecord
  2
SLDDIMSTYLE6
 70
     0
 41
0.125
 44
0.0
 78
     8
140
0.1111111111
147
0.0277777778
172
     1
173
     1
271
     2
272
     3
284
    12
340
4D
  0
ENDTAB
  0
TABLE
  2
BLOCK_RECORD
  5
1
330
0
100
AcDbSymbolTable
 70
    18
  0
BLOCK_RECORD
  5
1F
330
1
100
AcDbSymbolTableRecord
100
AcDbBlockTableRecord
  2
*Model_Space
340
22
  0
BLOCK_RECORD
  5
1B
330
1
100
AcDbSymbolTableRecord
100
AcDbBlockTableRecord
  2
*Paper_Space
340
1E
  0
BLOCK_RECORD
  5
23
330
1
100
AcDbSymbolTableRecord
100
AcDbBlockTableRecord
  2
*Paper_Space0
340
26
  0
BLOCK_RECORD
  5
65
330
1
100
AcDbSymbolTableRecord
100
AcDbBlockTableRecord
  2
SW_NOTE_0
340
0
102
{BLKREFS
331
74
102
}
  0
BLOCK_RECORD
  5
7E
330
1
100
AcDbSymbolTableRecord
100
AcDbBlockTableRecord
  2
SW_NOTE_1
340
0
102
{BLKREFS
331
84
102
}
  0
BLOCK_RECORD
  5
E1
330
1
100
AcDbSymbolTableRecord
100
AcDbBlockTableRecord
  2
*D3
340
0
  0
BLOCK_RECORD
  5
FA
330
1
100
AcDbSymbolTableRecord
100
AcDbBlockTableRecord
  2
*D4
340
0
  0
BLOCK_RECORD
  5
113
330
1
100
AcDbSymbolTableRecord
100
AcDbBlockTableRecord
  2
*D5
340
0
  0
BLOCK_RECORD
  5
12C
330
1
100
AcDbSymbolTableRecord
100
AcDbBlockTableRecord
  2
*D6
340
0
  0
BLOCK_RECORD
  5
144
330
1
100
AcDbSymbolTableRecord
100
AcDbBlockTableRecord
  2
*D7
340
0
  0
BLOCK_RECORD
  5
15C
330
1
100
AcDbSymbolTableRecord
100
AcDbBlockTableRecord
  2
*D8
340
0
  0
BLOCK_RECORD
  5
177
330
1
100
AcDbSymbolTableRecord
100
AcDbBlockTableRecord
  2
*D9
340
0
  0
BLOCK_RECORD
  5
193
330
1
100
AcDbSymbolTableRecord
100
AcDbBlockTableRecord
  2
*D10
340
0
  0
BLOCK_RECORD
  5
1AF
330
1
100
AcDbSymbolTableRecord
100
AcDbBlockTableRecord
  2
SW_NOTE_2
340
0
102
{BLKREFS
331
1B4
102
}
  0
BLOCK_RECORD
  5
1B6
330
1
100
AcDbSymbolTableRecord
100
AcDbBlockTableRecord
  2
_Dot
340
0
  0
BLOCK_RECORD
  5
1BC
330
1
100
AcDbSymbolTableRecord
100
AcDbBlockTableRecord
  2
SW_NOTE_3
340
0
102
{BLKREFS
331
1C1
102
}
  0
BLOCK_RECORD
  5
1C3
330
1
100
AcDbSymbolTableRecord
100
AcDbBlockTableRecord
  2
SW_NOTE_4
340
0
102
{BLKREFS
331
1CB
102
}
  0
BLOCK_RECORD
  5
1CD
330
1
100
AcDbSymbolTableRecord
100
AcDbBlockTableRecord
  2
SW_CENTERMARKSYMBOL_0
340
0
102
{BLKREFS
331
1D4
102
}
  0
BLOCK_RECORD
  5
1E8
330
1
100
AcDbSymbolTableRecord
100
AcDbBlockTableRecord
  2
*D16
340
0
  0
BLOCK_RECORD
  5
218
330
1
100
AcDbSymbolTableRecord
100
AcDbBlockTableRecord
  2
SW_CENTERMARKSYMBOL_1
340
0
102
{BLKREFS
331
21F
102
}
  0
ENDTAB
  0
ENDSEC
  0
SECTION
  2
BLOCKS
  0
BLOCK
  5
20
330
1F
100
AcDbEntity
  8
0
100
AcDbBlockBegin
  2
*Model_Space
 70
     0
 71
     0
 10
0.0
 20
0.0
 30
0.0
  3
*Model_Space
  1

  0
ENDBLK
  5
21
330
1F
100
AcDbEntity
  8
0
100
AcDbBlockEnd
  0
BLOCK
  5
1C
330
1B
100
AcDbEntity
 67
     1
  8
0
100
AcDbBlockBegin
  2
*Paper_Space
 70
     0
 71
     0
 10
0.0
 20
0.0
 30
0.0
  3
*Paper_Space
  1

  0
ENDBLK
  5
1D
330
1B
100
AcDbEntity
 67
     1
  8
0
100
AcDbBlockEnd
  0
BLOCK
  5
24
330
23
100
AcDbEntity
  8
0
100
AcDbBlockBegin
  2
*Paper_Space0
 70
     0
 71
     0
 10
0.0
 20
0.0
 30
0.0
  3
*Paper_Space0
  1

  0
ENDBLK
  5
25
330
23
100
AcDbEntity
  8
0
100
AcDbBlockEnd
  0
BLOCK
  5
66
330
65
100
AcDbEntity
  8
0
100
AcDbBlockBegin
  2
SW_NOTE_0
 70
     0
 71
     0
 10
0.0
 20
0.0
 30
0.0
  3
SW_NOTE_0
  1

  0
MTEXT
  5
69
330
65
100
AcDbEntity
  8
0
  6
Continuous
 62
     7
370
     0
100
AcDbMText
 10
0.0
 20
0.076640625
 30
0.0
 40
0.06
 41
0.0
 71
     1
 72
     1
  1
{THE INFORMATION CONTAINED IN THIS}
  7
SLDTEXTSTYLE4
 73
     1
 44
1.0
  0
MTEXT
  5
6B
330
65
100
AcDbEntity
  8
0
  6
Continuous
 62
     7
370
     0
100
AcDbMText
 10
0.0
 20
-0.0227294496
 30
0.0
 40
0.06
 41
0.0
 71
     1
 72
     1
  1
{DRAWING IS THE SOLE PROPERTY OF}
  7
SLDTEXTSTYLE5
 73
     1
 44
1.0
  0
MTEXT
  5
6D
330
65
100
AcDbEntity
  8
0
  6
Continuous
 62
     7
370
     0
100
AcDbMText
 10
0.0
 20
-0.1220995241
 30
0.0
 40
0.06
 41
0.0
 71
     1
 72
     1
  1
{THORLABS, INC.  ANY REPRODUCTION }
  7
SLDTEXTSTYLE6
 73
     1
 44
1.0
  0
MTEXT
  5
6F
330
65
100
AcDbEntity
  8
0
  6
Continuous
 62
     7
370
     0
100
AcDbMText
 10
0.0
 20
-0.2214695987
 30
0.0
 40
0.06
 41
0.0
 71
     1
 72
     1
  1
{IN PART OR AS A WHOLE WITHOUT}
  7
SLDTEXTSTYLE7
 73
     1
 44
1.0
  0
MTEXT
  5
71
330
65
100
AcDbEntity
  8
0
  6
Continuous
 62
     7
370
     0
100
AcDbMText
 10
0.0
 20
-0.3208396733
 30
0.0
 40
0.06
 41
0.0
 71
     1
 72
     1
  1
{THE WRITTEN PERMISSION OF}
  7
SLDTEXTSTYLE8
 73
     1
 44
1.0
  0
MTEXT
  5
73
330
65
100
AcDbEntity
  8
0
  6
Continuous
 62
     7
370
     0
100
AcDbMText
 10
0.0
 20
-0.4202097478
 30
0.0
 40
0.06
 41
0.0
 71
     1
 72
     1
  1
{THORLABS, INC. IS PROHIBITED.}
  7
SLDTEXTSTYLE9
 73
     1
 44
1.0
  0
ENDBLK
  5
67
330
65
100
AcDbEntity
  8
0
100
AcDbBlockEnd
  0
BLOCK
  5
7F
330
7E
100
AcDbEntity
  8
0
100
AcDbBlockBegin
  2
SW_NOTE_1
 70
     0
 71
     0
 10
0.0
 20
0.0
 30
0.0
  3
SW_NOTE_1
  1

  0
MTEXT
  5
82
330
7E
100
AcDbEntity
  8
0
  6
Continuous
 62
     7
370
     0
100
AcDbMText
 10
0.0
 20
0.1064453125
 30
0.0
 40
0.0833333333
 41
0.0
 71
     1
 72
     1
  1
{PO BOX 366}
  7
SLDTEXTSTYLE10
 73
     1
 44
1.0
  0
MTEXT
  5
83
330
7E
100
AcDbEntity
  8
0
  6
Continuous
 62
     7
370
     0
100
AcDbMText
 10
0.0
 20
-0.0046657973
 30
0.0
 40
0.0833333333
 41
0.0
 71
     1
 72
     1
  1
{NEWTON NJ}
  7
SLDTEXTSTYLE0
 73
     1
 44
1.0
  0
ENDBLK
  5
80
330
7E
100
AcDbEntity
  8
0
100
AcDbBlockEnd
  0
BLOCK
  5
EA
330
E1
100
AcDbEntity
  8
0
100
AcDbBlockBegin
  2
*D3
 70
     1
 71
     0
 10
0.0
 20
0.0
 30
0.0
  3
*D3
  1

  0
SOLID
  5
EE
330
E1
100
AcDbEntity
  8
0
  6
Continuous
 62
     7
370
     0
100
AcDbTrace
 10
5.4184779008
 20
5.8367037214
 30
0.0
 11
5.3109438157
 21
5.7699098554
 31
0.0
 12
5.3371526518
 22
5.7396923619
 32
0.0
 13
5.3371526518
 23
5.7396923619
 33
0.0
  0
LINE
  5
EF
330
E1
100
AcDbEntity
  8
0
  6
Continuous
 62
     7
370
     0
100
AcDbLine
 10
5.4184779008
 20
5.8367037214
 30
0.0
 11
4.545094234
 21
5.0791832669
 31
0.0
  0
LINE
  5
F0
330
E1
100
AcDbEntity
  8
0
  6
Continuous
 62
     7
370
     0
100
AcDbLine
 10
4.545094234
 20
5.0791832669
 30
0.0
 11
4.395094234
 21
5.0791832669
 31
0.0
  0
MTEXT
  5
F1
330
E1
100
AcDbEntity
  8
0
  6
Continuous
 62
     7
370
     0
100
AcDbMText
 10
3.1345590952
 20
5.119449843
 30
0.0
 40
0.0833333333
 41
0.0
 71
     1
 72
     1
  1
{%%c}
  7
SLDTEXTSTYLE0
 73
     1
 44
1.0
  0
MTEXT
  5
F2
330
E1
100
AcDbEntity
  8
0
  6
Continuous
 62
     7
370
     0
100
AcDbMText
 10
3.2602468099
 20
5.119449843
 30
0.0
 40
0.0833333333
 41
0.0
 71
     1
 72
     1
  1
{0.10}
  7
SLDTEXTSTYLE0
 73
     1
 44
1.0
  0
MTEXT
  5
F3
330
E1
100
AcDbEntity
  8
0
  6
Continuous
 62
     7
370
     0
100
AcDbMText
 10
3.4756055946
 20
5.119449843
 30
0.0
 40
0.0833333333
 41
0.0
 71
     1
 72
     1
  1
{" (}
  7
SLDTEXTSTYLE0
 73
     1
 44
1.0
  0
MTEXT
  5
F4
330
E1
100
AcDbEntity
  8
0
  6
Continuous
 62
     7
370
     0
100
AcDbMText
 10
3.5817784306
 20
5.119449843
 30
0.0
 40
0.0833333333
 41
0.0
 71
     1
 72
     1
  1
{%%c}
  7
SLDTEXTSTYLE0
 73
     1
 44
1.0
  0
MTEXT
  5
F5
330
E1
100
AcDbEntity
  8
0
  6
Continuous
 62
     7
370
     0
100
AcDbMText
 10
3.70756547
 20
5.119449843
 30
0.0
 40
0.0833333333
 41
0.0
 71
     1
 72
     1
  1
{2mm) HOLE}
  7
SLDTEXTSTYLE0
 73
     1
 44
1.0
  0
MTEXT
  5
F7
330
E1
100
AcDbEntity
  8
0
  6
Continuous
 62
     7
370
     0
100
AcDbMText
 10
3.4853878931
 20
4.9870923793
 30
0.0
 40
0.0833333333
 41
0.0
 71
     1
 72
     1
  1
{FOR LEVER ARM}
  7
SLDTEXTSTYLE12
 73
     1
 44
1.0
  0
MTEXT
  5
F8
330
E1
100
AcDbEntity
  8
0
  6
Continuous
 62
     7
370
     0
100
AcDbMText
 10
3.4693804955
 20
4.8547349157
 30
0.0
 40
0.0833333333
 41
0.0
 71
     1
 72
     1
  1
{WHEN LOCKING}
  7
SLDTEXTSTYLE0
 73
     1
 44
1.0
  0
ENDBLK
  5
EB
330
E1
100
AcDbEntity
  8
0
100
AcDbBlockEnd
  0
BLOCK
  5
105
330
FA
100
AcDbEntity
  8
0
100
AcDbBlockBegin
  2
*D4
 70
     1
 71
     0
 10
0.0
 20
0.0
 30
0.0
  3
*D4
  1

  0
SOLID
  5
108
330
FA
100
AcDbEntity
  8
0
  6
Continuous
 62
     7
370
     0
100
AcDbTrace
 10
3.8969421078
 20
7.7582237492
 30
0.0
 11
4.0219421078
 21
7.7382237492
 31
0.0
 12
4.0219421078
 22
7.7782237492
 32
0.0
 13
4.0219421078
 23
7.7782237492
 33
0.0
  0
SOLID
  5
109
330
FA
100
AcDbEntity
  8
0
  6
Continuous
 62
     7
370
     0
100
AcDbTrace
 10
7.9379421078
 20
7.7582237492
 30
0.0
 11
7.8129421078
 21
7.7782237492
 31
0.0
 12
7.8129421078
 22
7.7382237492
 32
0.0
 13
7.8129421078
 23
7.7382237492
 33
0.0
  0
LINE
  5
10A
330
FA
100
AcDbEntity
  8
0
  6
Continuous
 62
     7
370
     0
100
AcDbLine
 10
3.8969421078
 20
5.9181543248
 30
0.0
 11
3.8969421078
 21
7.8282237492
 31
0.0
  0
LINE
  5
10B
330
FA
100
AcDbEntity
  8
0
  6
Continuous
 62
     7
370
     0
100
AcDbLine
 10
7.9379421078
 20
6.2927320067
 30
0.0
 11
7.9379421078
 21
7.8282237492
 31
0.0
  0
LINE
  5
10C
330
FA
100
AcDbEntity
  8
0
  6
Continuous
 62
     7
370
     0
100
AcDbLine
 10
3.8969421078
 20
7.7582237492
 30
0.0
 11
5.6154175812
 21
7.7582237492
 31
0.0
  0
LINE
  5
10D
330
FA
100
AcDbEntity
  8
0
  6
Continuous
 62
     7
370
     0
100
AcDbLine
 10
7.9379421078
 20
7.7582237492
 30
0.0
 11
6.2624366037
 21
7.7582237492
 31
0.0
  0
MTEXT
  5
10E
330
FA
100
AcDbEntity
  8
0
  6
Continuous
 62
     7
370
     0
100
AcDbMText
 10
5.8140545693
 20
7.930847789
 30
0.0
 40
0.0833333333
 41
0.0
 71
     1
 72
     1
  1
{4.04}
  7
SLDTEXTSTYLE0
 73
     1
 44
1.0
  0
MTEXT
  5
10F
330
FA
100
AcDbEntity
  8
0
  6
Continuous
 62
     7
370
     0
100
AcDbMText
 10
6.029413354
 20
7.930847789
 30
0.0
 40
0.0833333333
 41
0.0
 71
     1
 72
     1
  1
{"}
  7
SLDTEXTSTYLE0
 73
     1
 44
1.0
  0
MTEXT
  5
110
330
FA
100
AcDbEntity
  8
0
  6
Continuous
 62
     7
370
     0
100
AcDbMText
 10
5.7170349194
 20
7.7984903253
 30
0.0
 40
0.0833333333
 41
0.0
 71
     1
 72
     1
  1
{(103mm)}
  7
SLDTEXTSTYLE0
 73
     1
 44
1.0
  0
MTEXT
  5
111
330
FA
100
AcDbEntity
  8
0
  6
Continuous
 62
     7
370
     0
100
AcDbMText
 10
5.6935425812
 20
7.6661328616
 30
0.0
 40
0.0833333333
 41
0.0
 71
     1
 72
     1
  1
{NOMINAL}
  7
SLDTEXTSTYLE0
 73
     1
 44
1.0
  0
ENDBLK
  5
106
330
FA
100
AcDbEntity
  8
0
100
AcDbBlockEnd
  0
BLOCK
  5
11F
330
113
100
AcDbEntity
  8
0
100
AcDbBlockBegin
  2
*D5
 70
     1
 71
     0
 10
0.0
 20
0.0
 30
0.0
  3
*D5
  1

  0
SOLID
  5
122
330
113
100
AcDbEntity
  8
0
  6
Continuous
 62
     7
370
     0
100
AcDbTrace
 10
5.5797388929
 20
5.0791832669
 30
0.0
 11
5.7047388929
 21
5.0591832669
 31
0.0
 12
5.7047388929
 22
5.0991832669
 32
0.0
 13
5.7047388929
 23
5.0991832669
 33
0.0
  0
SOLID
  5
123
330
113
100
AcDbEntity
  8
0
  6
Continuous
 62
     7
370
     0
100
AcDbTrace
 10
5.3297388929
 20
5.0791832669
 30
0.0
 11
5.2047388929
 21
5.0991832669
 31
0.0
 12
5.2047388929
 22
5.0591832669
 32
0.0
 13
5.2047388929
 23
5.0591832669
 33
0.0
  0
LINE
  5
124
330
113
100
AcDbEntity
  8
0
  6
Continuous
 62
     7
370
     0
100
AcDbLine
 10
5.5797388929
 20
5.4181543248
 30
0.0
 11
5.5797388929
 21
5.0091832669
 31
0.0
  0
LINE
  5
125
330
113
100
AcDbEntity
  8
0
  6
Continuous
 62
     7
370
     0
100
AcDbLine
 10
5.3297388929
 20
5.4181543248
 30
0.0
 11
5.3297388929
 21
5.0091832669
 31
0.0
  0
LINE
  5
126
330
113
100
AcDbEntity
  8
0
  6
Continuous
 62
     7
370
     0
100
AcDbLine
 10
5.5797388929
 20
5.0791832669
 30
0.0
 11
5.8665006696
 21
5.0791832669
 31
0.0
  0
LINE
  5
127
330
113
100
AcDbEntity
  8
0
  6
Continuous
 62
     7
370
     0
100
AcDbLine
 10
5.3297388929
 20
5.0791832669
 30
0.0
 11
5.0797388929
 21
5.0791832669
 31
0.0
  0
MTEXT
  5
128
330
113
100
AcDbEntity
  8
0
  6
Continuous
 62
     7
370
     0
100
AcDbMText
 10
5.9800613037
 20
5.1856285748
 30
0.0
 40
0.0833333333
 41
0.0
 71
     1
 72
     1
  1
{0.25}
  7
SLDTEXTSTYLE0
 73
     1
 44
1.0
  0
MTEXT
  5
129
330
113
100
AcDbEntity
  8
0
  6
Continuous
 62
     7
370
     0
100
AcDbMText
 10
6.1954200883
 20
5.1856285748
 30
0.0
 40
0.0833333333
 41
0.0
 71
     1
 72
     1
  1
{"}
  7
SLDTEXTSTYLE0
 73
     1
 44
1.0
  0
MTEXT
  5
12A
330
113
100
AcDbEntity
  8
0
  6
Continuous
 62
     7
370
     0
100
AcDbMText
 10
5.9446256696
 20
5.0532711112
 30
0.0
 40
0.0833333333
 41
0.0
 71
     1
 72
     1
  1
{(6mm)}
  7
SLDTEXTSTYLE0
 73
     1
 44
1.0
  0
ENDBLK
  5
120
330
113
100
AcDbEntity
  8
0
100
AcDbBlockEnd
  0
BLOCK
  5
136
330
12C
100
AcDbEntity
  8
0
100
AcDbBlockBegin
  2
*D6
 70
     1
 71
     0
 10
0.0
 20
0.0
 30
0.0
  3
*D6
  1

  0
SOLID
  5
139
330
12C
100
AcDbEntity
  8
0
  6
Continuous
 62
     7
370
     0
100
AcDbTrace
 10
5.5797388929
 20
4.6176352238
 30
0.0
 11
5.7047388929
 21
4.5976352238
 31
0.0
 12
5.7047388929
 22
4.6376352238
 32
0.0
 13
5.7047388929
 23
4.6376352238
 33
0.0
  0
SOLID
  5
13A
330
12C
100
AcDbEntity
  8
0
  6
Continuous
 62
     7
370
     0
100
AcDbTrace
 10
4.7697388929
 20
4.6176352238
 30
0.0
 11
4.6447388929
 21
4.6376352238
 31
0.0
 12
4.6447388929
 22
4.5976352238
 32
0.0
 13
4.6447388929
 23
4.5976352238
 33
0.0
  0
LINE
  5
13B
330
12C
100
AcDbEntity
  8
0
  6
Continuous
 62
     7
370
     0
100
AcDbLine
 10
5.5797388929
 20
5.4181543248
 30
0.0
 11
5.5797388929
 21
4.5476352238
 31
0.0
  0
LINE
  5
13C
330
12C
100
AcDbEntity
  8
0
  6
Continuous
 62
     7
370
     0
100
AcDbLine
 10
4.7697388929
 20
5.5849907556
 30
0.0
 11
4.7697388929
 21
5.3240265307
 31
0.0
  0
LINE
  5
13D
330
12C
100
AcDbEntity
  8
0
  6
Continuous
 62
     7
370
     0
100
AcDbLine
 10
4.7697388929
 20
5.2240265307
 30
0.0
 11
4.7697388929
 21
4.5476352238
 31
0.0
  0
LINE
  5
13E
330
12C
100
AcDbEntity
  8
0
  6
Continuous
 62
     7
370
     0
100
AcDbLine
 10
5.5797388929
 20
4.6176352238
 30
0.0
 11
5.8297388929
 21
4.6176352238
 31
0.0
  0
LINE
  5
13F
330
12C
100
AcDbEntity
  8
0
  6
Continuous
 62
     7
370
     0
100
AcDbLine
 10
4.7697388929
 20
4.6176352238
 30
0.0
 11
4.5197388929
 21
4.6176352238
 31
0.0
  0
MTEXT
  5
140
330
12C
100
AcDbEntity
  8
0
  6
Continuous
 62
     7
370
     0
100
AcDbMText
 10
5.0555884118
 20
4.7240805317
 30
0.0
 40
0.0833333333
 41
0.0
 71
     1
 72
     1
  1
{0.81}
  7
SLDTEXTSTYLE0
 73
     1
 44
1.0
  0
MTEXT
  5
141
330
12C
100
AcDbEntity
  8
0
  6
Continuous
 62
     7
370
     0
100
AcDbMText
 10
5.2709471965
 20
4.7240805317
 30
0.0
 40
0.0833333333
 41
0.0
 71
     1
 72
     1
  1
{"}
  7
SLDTEXTSTYLE0
 73
     1
 44
1.0
  0
MTEXT
  5
142
330
12C
100
AcDbEntity
  8
0
  6
Continuous
 62
     7
370
     0
100
AcDbMText
 10
4.9893237156
 20
4.591723068
 30
0.0
 40
0.0833333333
 41
0.0
 71
     1
 72
     1
  1
{(21mm)}
  7
SLDTEXTSTYLE0
 73
     1
 44
1.0
  0
ENDBLK
  5
137
330
12C
100
AcDbEntity
  8
0
100
AcDbBlockEnd
  0
BLOCK
  5
14F
330
144
100
AcDbEntity
  8
0
100
AcDbBlockBegin
  2
*D7
 70
     1
 71
     0
 10
0.0
 20
0.0
 30
0.0
  3
*D7
  1

  0
SOLID
  5
151
330
144
100
AcDbEntity
  8
0
  6
Continuous
 62
     7
370
     0
100
AcDbTrace
 10
6.7551795457
 20
7.2462198121
 30
0.0
 11
6.6301795457
 21
7.2662198121
 31
0.0
 12
6.6301795457
 22
7.2262198121
 32
0.0
 13
6.6301795457
 23
7.2262198121
 33
0.0
  0
SOLID
  5
152
330
144
100
AcDbEntity
  8
0
  6
Continuous
 62
     7
370
     0
100
AcDbTrace
 10
3.8969421078
 20
7.2462198121
 30
0.0
 11
4.0219421078
 21
7.2262198121
 31
0.0
 12
4.0219421078
 22
7.2662198121
 32
0.0
 13
4.0219421078
 23
7.2662198121
 33
0.0
  0
LINE
  5
153
330
144
100
AcDbEntity
  8
0
  6
Continuous
 62
     7
370
     0
100
AcDbLine
 10
6.7551795457
 20
6.0931543248
 30
0.0
 11
6.7551795457
 21
7.3162198121
 31
0.0
  0
LINE
  5
154
330
144
100
AcDbEntity
  8
0
  6
Continuous
 62
     7
370
     0
100
AcDbLine
 10
3.8969421078
 20
5.9181543248
 30
0.0
 11
3.8969421078
 21
7.3162198121
 31
0.0
  0
LINE
  5
155
330
144
100
AcDbEntity
  8
0
  6
Continuous
 62
     7
370
     0
100
AcDbLine
 10
6.7551795457
 20
7.2462198121
 30
0.0
 11
5.6294842489
 21
7.2462198121
 31
0.0
  0
LINE
  5
156
330
144
100
AcDbEntity
  8
0
  6
Continuous
 62
     7
370
     0
100
AcDbLine
 10
3.8969421078
 20
7.2462198121
 30
0.0
 11
4.9824652264
 21
7.2462198121
 31
0.0
  0
MTEXT
  5
157
330
144
100
AcDbEntity
  8
0
  6
Continuous
 62
     7
370
     0
100
AcDbMText
 10
5.1811022145
 20
7.4188438518
 30
0.0
 40
0.0833333333
 41
0.0
 71
     1
 72
     1
  1
{2.86}
  7
SLDTEXTSTYLE0
 73
     1
 44
1.0
  0
MTEXT
  5
158
330
144
100
AcDbEntity
  8
0
  6
Continuous
 62
     7
370
     0
100
AcDbMText
 10
5.3964609992
 20
7.4188438518
 30
0.0
 40
0.0833333333
 41
0.0
 71
     1
 72
     1
  1
{"}
  7
SLDTEXTSTYLE0
 73
     1
 44
1.0
  0
MTEXT
  5
159
330
144
100
AcDbEntity
  8
0
  6
Continuous
 62
     7
370
     0
100
AcDbMText
 10
5.1148375184
 20
7.2864863882
 30
0.0
 40
0.0833333333
 41
0.0
 71
     1
 72
     1
  1
{(73mm)}
  7
SLDTEXTSTYLE0
 73
     1
 44
1.0
  0
MTEXT
  5
15A
330
144
100
AcDbEntity
  8
0
  6
Continuous
 62
     7
370
     0
100
AcDbMText
 10
5.0605902264
 20
7.1541289245
 30
0.0
 40
0.0833333333
 41
0.0
 71
     1
 72
     1
  1
{NOMINAL}
  7
SLDTEXTSTYLE0
 73
     1
 44
1.0
  0
ENDBLK
  5
150
330
144
100
AcDbEntity
  8
0
100
AcDbBlockEnd
  0
BLOCK
  5
167
330
15C
100
AcDbEntity
  8
0
100
AcDbBlockBegin
  2
*D8
 70
     1
 71
     0
 10
0.0
 20
0.0
 30
0.0
  3
*D8
  1

  0
SOLID
  5
169
330
15C
100
AcDbEntity
  8
0
  6
Continuous
 62
     7
370
     0
100
AcDbTrace
 10
3.341660994
 20
6.0650047148
 30
0.0
 11
3.361660994
 21
6.1900047148
 31
0.0
 12
3.321660994
 22
6.1900047148
 32
0.0
 13
3.321660994
 23
6.1900047148
 33
0.0
  0
SOLID
  5
16A
330
15C
100
AcDbEntity
  8
0
  6
Continuous
 62
     7
370
     0
100
AcDbTrace
 10
3.341660994
 20
5.6713039348
 30
0.0
 11
3.321660994
 21
5.5463039348
 31
0.0
 12
3.361660994
 22
5.5463039348
 32
0.0
 13
3.361660994
 23
5.5463039348
 33
0.0
  0
LINE
  5
16B
330
15C
100
AcDbEntity
  8
0
  6
Continuous
 62
     7
370
     0
100
AcDbLine
 10
4.7927388929
 20
6.0650047148
 30
0.0
 11
3.9469421078
 21
6.0650047148
 31
0.0
  0
LINE
  5
16C
330
15C
100
AcDbEntity
  8
0
  6
Continuous
 62
     7
370
     0
100
AcDbLine
 10
3.8469421078
 20
6.0650047148
 30
0.0
 11
3.271660994
 21
6.0650047148
 31
0.0
  0
LINE
  5
16D
330
15C
100
AcDbEntity
  8
0
  6
Continuous
 62
     7
370
     0
100
AcDbLine
 10
4.7927388929
 20
5.6713039348
 30
0.0
 11
3.271660994
 21
5.6713039348
 31
0.0
  0
LINE
  5
16E
330
15C
100
AcDbEntity
  8
0
  6
Continuous
 62
     7
370
     0
100
AcDbLine
 10
3.341660994
 20
6.0650047148
 30
0.0
 11
3.341660994
 21
6.3150047148
 31
0.0
  0
LINE
  5
16F
330
15C
100
AcDbEntity
  8
0
  6
Continuous
 62
     7
370
     0
100
AcDbLine
 10
3.341660994
 20
5.6713039348
 30
0.0
 11
3.341660994
 21
5.4213039348
 31
0.0
  0
MTEXT
  5
170
330
15C
100
AcDbEntity
  8
0
  6
Continuous
 62
     7
370
     0
100
AcDbMText
 10
3.1539446135
 20
5.9809372349
 30
0.0
 40
0.0833333333
 41
0.0
 71
     1
 72
     1
  1
{%%c}
  7
SLDTEXTSTYLE0
 73
     1
 44
1.0
  0
MTEXT
  5
171
330
15C
100
AcDbEntity
  8
0
  6
Continuous
 62
     7
370
     0
100
AcDbMText
 10
3.2796323282
 20
5.9809372349
 30
0.0
 40
0.0833333333
 41
0.0
 71
     1
 72
     1
  1
{0.39}
  7
SLDTEXTSTYLE0
 73
     1
 44
1.0
  0
MTEXT
  5
172
330
15C
100
AcDbEntity
  8
0
  6
Continuous
 62
     7
370
     0
100
AcDbMText
 10
3.4949911128
 20
5.9809372349
 30
0.0
 40
0.0833333333
 41
0.0
 71
     1
 72
     1
  1
{"}
  7
SLDTEXTSTYLE0
 73
     1
 44
1.0
  0
MTEXT
  5
173
330
15C
100
AcDbEntity
  8
0
  6
Continuous
 62
     7
370
     0
100
AcDbMText
 10
3.087605809
 20
5.8485797712
 30
0.0
 40
0.0833333333
 41
0.0
 71
     1
 72
     1
  1
{(}
  7
SLDTEXTSTYLE0
 73
     1
 44
1.0
  0
MTEXT
  5
174
330
15C
100
AcDbEntity
  8
0
  6
Continuous
 62
     7
370
     0
100
AcDbMText
 10
3.1286551898
 20
5.8485797712
 30
0.0
 40
0.0833333333
 41
0.0
 71
     1
 72
     1
  1
{%%c}
  7
SLDTEXTSTYLE0
 73
     1
 44
1.0
  0
MTEXT
  5
175
330
15C
100
AcDbEntity
  8
0
  6
Continuous
 62
     7
370
     0
100
AcDbMText
 10
3.2544422384
 20
5.8485797712
 30
0.0
 40
0.0833333333
 41
0.0
 71
     1
 72
     1
  1
{10mm)}
  7
SLDTEXTSTYLE0
 73
     1
 44
1.0
  0
ENDBLK
  5
168
330
15C
100
AcDbEntity
  8
0
100
AcDbBlockEnd
  0
BLOCK
  5
181
330
177
100
AcDbEntity
  8
0
100
AcDbBlockBegin
  2
*D9
 70
     1
 71
     0
 10
0.0
 20
0.0
 30
0.0
  3
*D9
  1

  0
SOLID
  5
183
330
177
100
AcDbEntity
  8
0
  6
Continuous
 62
     7
370
     0
100
AcDbTrace
 10
2.7189378322
 20
6.101317894
 30
0.0
 11
2.7389378322
 21
6.226317894
 31
0.0
 12
2.6989378322
 22
6.226317894
 32
0.0
 13
2.6989378322
 23
6.226317894
 33
0.0
  0
SOLID
  5
184
330
177
100
AcDbEntity
  8
0
  6
Continuous
 62
     7
370
     0
100
AcDbTrace
 10
2.7189378322
 20
5.6349907556
 30
0.0
 11
2.6989378322
 21
5.5099907556
 31
0.0
 12
2.7389378322
 22
5.5099907556
 32
0.0
 13
2.7389378322
 23
5.5099907556
 33
0.0
  0
LINE
  5
185
330
177
100
AcDbEntity
  8
0
  6
Continuous
 62
     7
370
     0
100
AcDbLine
 10
4.7197388929
 20
6.101317894
 30
0.0
 11
3.9469421078
 21
6.101317894
 31
0.0
  0
LINE
  5
186
330
177
100
AcDbEntity
  8
0
  6
Continuous
 62
     7
370
     0
100
AcDbLine
 10
3.8469421078
 20
6.101317894
 30
0.0
 11
3.391660994
 21
6.101317894
 31
0.0
  0
LINE
  5
187
330
177
100
AcDbEntity
  8
0
  6
Continuous
 62
     7
370
     0
100
AcDbLine
 10
3.291660994
 20
6.101317894
 30
0.0
 11
2.6489378322
 21
6.101317894
 31
0.0
  0
LINE
  5
188
330
177
100
AcDbEntity
  8
0
  6
Continuous
 62
     7
370
     0
100
AcDbLine
 10
4.7197388929
 20
5.6349907556
 30
0.0
 11
3.391660994
 21
5.6349907556
 31
0.0
  0
LINE
  5
189
330
177
100
AcDbEntity
  8
0
  6
Continuous
 62
     7
370
     0
100
AcDbLine
 10
3.291660994
 20
5.6349907556
 30
0.0
 11
2.6489378322
 21
5.6349907556
 31
0.0
  0
LINE
  5
18A
330
177
100
AcDbEntity
  8
0
  6
Continuous
 62
     7
370
     0
100
AcDbLine
 10
2.7189378322
 20
6.101317894
 30
0.0
 11
2.7189378322
 21
6.351317894
 31
0.0
  0
LINE
  5
18B
330
177
100
AcDbEntity
  8
0
  6
Continuous
 62
     7
370
     0
100
AcDbLine
 10
2.7189378322
 20
5.6349907556
 30
0.0
 11
2.7189378322
 21
5.3849907556
 31
0.0
  0
MTEXT
  5
18C
330
177
100
AcDbEntity
  8
0
  6
Continuous
 62
     7
370
     0
100
AcDbMText
 10
2.5312214517
 20
5.9809372349
 30
0.0
 40
0.0833333333
 41
0.0
 71
     1
 72
     1
  1
{%%c}
  7
SLDTEXTSTYLE0
 73
     1
 44
1.0
  0
MTEXT
  5
18D
330
177
100
AcDbEntity
  8
0
  6
Continuous
 62
     7
370
     0
100
AcDbMText
 10
2.6569091664
 20
5.9809372349
 30
0.0
 40
0.0833333333
 41
0.0
 71
     1
 72
     1
  1
{0.47}
  7
SLDTEXTSTYLE0
 73
     1
 44
1.0
  0
MTEXT
  5
18E
330
177
100
AcDbEntity
  8
0
  6
Continuous
 62
     7
370
     0
100
AcDbMText
 10
2.8722679511
 20
5.9809372349
 30
0.0
 40
0.0833333333
 41
0.0
 71
     1
 72
     1
  1
{"}
  7
SLDTEXTSTYLE0
 73
     1
 44
1.0
  0
MTEXT
  5
18F
330
177
100
AcDbEntity
  8
0
  6
Continuous
 62
     7
370
     0
100
AcDbMText
 10
2.4648826472
 20
5.8485797712
 30
0.0
 40
0.0833333333
 41
0.0
 71
     1
 72
     1
  1
{(}
  7
SLDTEXTSTYLE0
 73
     1
 44
1.0
  0
MTEXT
  5
190
330
177
100
AcDbEntity
  8
0
  6
Continuous
 62
     7
370
     0
100
AcDbMText
 10
2.505932028
 20
5.8485797712
 30
0.0
 40
0.0833333333
 41
0.0
 71
     1
 72
     1
  1
{%%c}
  7
SLDTEXTSTYLE0
 73
     1
 44
1.0
  0
MTEXT
  5
191
330
177
100
AcDbEntity
  8
0
  6
Continuous
 62
     7
370
     0
100
AcDbMText
 10
2.6317190766
 20
5.8485797712
 30
0.0
 40
0.0833333333
 41
0.0
 71
     1
 72
     1
  1
{12mm)}
  7
SLDTEXTSTYLE0
 73
     1
 44
1.0
  0
ENDBLK
  5
182
330
177
100
AcDbEntity
  8
0
100
AcDbBlockEnd
  0
BLOCK
  5
19D
330
193
100
AcDbEntity
  8
0
100
AcDbBlockBegin
  2
*D10
 70
     1
 71
     0
 10
0.0
 20
0.0
 30
0.0
  3
*D10
  1

  0
SOLID
  5
1A0
330
193
100
AcDbEntity
  8
0
  6
Continuous
 62
     7
370
     0
100
AcDbTrace
 10
8.4651258395
 20
6.1181543248
 30
0.0
 11
8.4851258395
 21
6.2431543248
 31
0.0
 12
8.4451258395
 22
6.2431543248
 32
0.0
 13
8.4451258395
 23
6.2431543248
 33
0.0
  0
SOLID
  5
1A1
330
193
100
AcDbEntity
  8
0
  6
Continuous
 62
     7
370
     0
100
AcDbTrace
 10
8.4651258395
 20
5.6181543248
 30
0.0
 11
8.4451258395
 21
5.4931543248
 31
0.0
 12
8.4851258395
 22
5.4931543248
 32
0.0
 13
8.4851258395
 23
5.4931543248
 33
0.0
  0
LINE
  5
1A2
330
193
100
AcDbEntity
  8
0
  6
Continuous
 62
     7
370
     0
100
AcDbLine
 10
7.9529421078
 20
6.1181543248
 30
0.0
 11
8.5351258395
 21
6.1181543248
 31
0.0
  0
LINE
  5
1A3
330
193
100
AcDbEntity
  8
0
  6
Continuous
 62
     7
370
     0
100
AcDbLine
 10
7.9529421078
 20
5.6181543248
 30
0.0
 11
8.5351258395
 21
5.6181543248
 31
0.0
  0
LINE
  5
1A4
330
193
100
AcDbEntity
  8
0
  6
Continuous
 62
     7
370
     0
100
AcDbLine
 10
8.4651258395
 20
6.1181543248
 30
0.0
 11
8.4651258395
 21
6.3681543248
 31
0.0
  0
LINE
  5
1A5
330
193
100
AcDbEntity
  8
0
  6
Continuous
 62
     7
370
     0
100
AcDbLine
 10
8.4651258395
 20
5.6181543248
 30
0.0
 11
8.4651258395
 21
5.3681543248
 31
0.0
  0
MTEXT
  5
1A6
330
193
100
AcDbEntity
  8
0
  6
Continuous
 62
     7
370
     0
100
AcDbMText
 10
8.277409459
 20
5.9809372349
 30
0.0
 40
0.0833333333
 41
0.0
 71
     1
 72
     1
  1
{%%c}
  7
SLDTEXTSTYLE0
 73
     1
 44
1.0
  0
MTEXT
  5
1A7
330
193
100
AcDbEntity
  8
0
  6
Continuous
 62
     7
370
     0
100
AcDbMText
 10
8.4030971737
 20
5.9809372349
 30
0.0
 40
0.0833333333
 41
0.0
 71
     1
 72
     1
  1
{0.50}
  7
SLDTEXTSTYLE0
 73
     1
 44
1.0
  0
MTEXT
  5
1A8
330
193
100
AcDbEntity
  8
0
  6
Continuous
 62
     7
370
     0
100
AcDbMText
 10
8.6184559584
 20
5.9809372349
 30
0.0
 40
0.0833333333
 41
0.0
 71
     1
 72
     1
  1
{"}
  7
SLDTEXTSTYLE0
 73
     1
 44
1.0
  0
MTEXT
  5
1A9
330
193
100
AcDbEntity
  8
0
  6
Continuous
 62
     7
370
     0
100
AcDbMText
 10
8.2110706545
 20
5.8485797712
 30
0.0
 40
0.0833333333
 41
0.0
 71
     1
 72
     1
  1
{(}
  7
SLDTEXTSTYLE0
 73
     1
 44
1.0
  0
MTEXT
  5
1AA
330
193
100
AcDbEntity
  8
0
  6
Continuous
 62
     7
370
     0
100
AcDbMText
 10
8.2521200353
 20
5.8485797712
 30
0.0
 40
0.0833333333
 41
0.0
 71
     1
 72
     1
  1
{%%c}
  7
SLDTEXTSTYLE0
 73
     1
 44
1.0
  0
MTEXT
  5
1AB
330
193
100
AcDbEntity
  8
0
  6
Continuous
 62
     7
370
     0
100
AcDbMText
 10
8.3779070839
 20
5.8485797712
 30
0.0
 40
0.0833333333
 41
0.0
 71
     1
 72
     1
  1
{13mm)}
  7
SLDTEXTSTYLE0
 73
     1
 44
1.0
  0
ENDBLK
  5
19E
330
193
100
AcDbEntity
  8
0
100
AcDbBlockEnd
  0
BLOCK
  5
1B0
330
1AF
100
AcDbEntity
  8
0
100
AcDbBlockBegin
  2
SW_NOTE_2
 70
     0
 71
     0
 10
0.0
 20
0.0
 30
0.0
  3
SW_NOTE_2
  1

  0
MTEXT
  5
1B2
330
1AF
100
AcDbEntity
  8
0
  6
Continuous
 62
     7
370
     0
100
AcDbMText
 10
0.0197442444
 20
0.0385723963
 30
0.1958081107
 40
0.0833333333
 41
0.0
 71
     1
 72
     1
  1
{M10-0.5 EXTERNALLY}
  7
SLDTEXTSTYLE0
 73
     1
 44
1.0
  0
MTEXT
  5
1B3
330
1AF
100
AcDbEntity
  8
0
  6
Continuous
 62
     7
370
     0
100
AcDbMText
 10
0.0407320753
 20
-0.0725387134
 30
0.1958081107
 40
0.0833333333
 41
0.0
 71
     1
 72
     1
  1
{THREADED BUSHING}
  7
SLDTEXTSTYLE0
 73
     1
 44
1.0
  0
ENDBLK
  5
1B1
330
1AF
100
AcDbEntity
  8
0
100
AcDbBlockEnd
  0
BLOCK
  5
1B7
330
1B6
100
AcDbEntity
  8
0
100
AcDbBlockBegin
  2
_Dot
 70
     0
 71
     0
 10
0.0
 20
0.0
 30
0.0
  3
_Dot
  1

  0
LWPOLYLINE
  5
1B9
330
1B6
100
AcDbEntity
  8
0
  6
ByBlock
 62
     0
100
AcDbPolyline
 90
        2
 70
     1
 43
0.5
 10
-0.25
 20
0.0
 42
1.0
 10
0.25
 20
0.0
 42
1.0
  0
LINE
  5
1BA
330
1B6
100
AcDbEntity
  8
0
  6
ByBlock
 62
     0
370
    -2
100
AcDbLine
 10
-0.5
 20
0.0
 30
0.0
 11
-1.0
 21
0.0
 31
0.0
  0
ENDBLK
  5
1B8
330
1B6
100
AcDbEntity
  8
0
100
AcDbBlockEnd
  0
BLOCK
  5
1BD
330
1BC
100
AcDbEntity
  8
0
100
AcDbBlockBegin
  2
SW_NOTE_3
 70
     0
 71
     0
 10
0.0
 20
0.0
 30
0.0
  3
SW_NOTE_3
  1

  0
MTEXT
  5
1BF
330
1BC
100
AcDbEntity
  8
0
  6
Continuous
 62
     7
370
     0
100
AcDbMText
 10
0.0197392287
 20
0.0385310955
 30
0.2447240553
 40
0.0833333333
 41
0.0
 71
     1
 72
     1
  1
{COARSE ADJUSTMENT}
  7
SLDTEXTSTYLE0
 73
     1
 44
1.0
  0
MTEXT
  5
1C0
330
1BC
100
AcDbEntity
  8
0
  6
Continuous
 62
     7
370
     0
100
AcDbMText
 10
0.0197392287
 20
-0.0725800143
 30
0.2447240553
 40
0.0833333333
 41
0.0
 71
     1
 72
     1
  1
{SCREW KNOB}
  7
SLDTEXTSTYLE0
 73
     1
 44
1.0
  0
ENDBLK
  5
1BE
330
1BC
100
AcDbEntity
  8
0
100
AcDbBlockEnd
  0
BLOCK
  5
1C4
330
1C3
100
AcDbEntity
  8
0
100
AcDbBlockBegin
  2
SW_NOTE_4
 70
     0
 71
     0
 10
0.0
 20
0.0
 30
0.0
  3
SW_NOTE_4
  1

  0
MTEXT
  5
1C6
330
1C3
100
AcDbEntity
  8
0
  6
Continuous
 62
     7
370
     0
100
AcDbMText
 10
0.0197957447
 20
0.0386598281
 30
0.2499919126
 40
0.0833333333
 41
0.0
 71
     1
 72
     1
  1
{FINE ADJUSTMENT}
  7
SLDTEXTSTYLE0
 73
     1
 44
1.0
  0
MTEXT
  5
1C7
330
1C3
100
AcDbEntity
  8
0
  6
Continuous
 62
     7
370
     0
100
AcDbMText
 10
0.0197957447
 20
-0.0724512817
 30
0.2499919126
 40
0.0833333333
 41
0.0
 71
     1
 72
     1
  1
{SCREW KNOB}
  7
SLDTEXTSTYLE0
 73
     1
 44
1.0
  0
MTEXT
  5
1C9
330
1C3
100
AcDbEntity
  8
0
  6
Continuous
 62
     7
370
     0
100
AcDbMText
 10
0.0197957447
 20
-0.1835623914
 30
0.2499919126
 40
0.0833333333
 41
0.0
 71
     1
 72
     1
  1
{(100 TPI SCREW)}
  7
SLDTEXTSTYLE13
 73
     1
 44
1.0
  0
MTEXT
  5
1CA
330
1C3
100
AcDbEntity
  8
0
  6
Continuous
 62
     7
370
     0
100
AcDbMText
 10
0.0197957447
 20
-0.2946735012
 30
0.2499919126
 40
0.0833333333
 41
0.0
 71
     1
 72
     1
  1
{4mm TRAVEL}
  7
SLDTEXTSTYLE0
 73
     1
 44
1.0
  0
ENDBLK
  5
1C5
330
1C3
100
AcDbEntity
  8
0
100
AcDbBlockEnd
  0
BLOCK
  5
1CE
330
1CD
100
AcDbEntity
  8
0
100
AcDbBlockBegin
  2
SW_CENTERMARKSYMBOL_0
 70
     0
 71
     0
 10
0.0
 20
0.0
 30
0.0
  3
SW_CENTERMARKSYMBOL_0
  1

  0
LINE
  5
1D0
330
1CD
100
AcDbEntity
  8
0
  6
Continuous
 62
     7
370
     0
100
AcDbLine
 10
0.0
 20
0.0
 30
0.0
 11
0.0
 21
0.05
 31
0.0
  0
LINE
  5
1D1
330
1CD
100
AcDbEntity
  8
0
  6
Continuous
 62
     7
370
     0
100
AcDbLine
 10
0.0
 20
0.0
 30
0.0
 11
-0.05
 21
0.0
 31
0.0
  0
LINE
  5
1D2
330
1CD
100
AcDbEntity
  8
0
  6
Continuous
 62
     7
370
     0
100
AcDbLine
 10
0.0
 20
0.0
 30
0.0
 11
0.0
 21
-0.05
 31
0.0
  0
LINE
  5
1D3
330
1CD
100
AcDbEntity
  8
0
  6
Continuous
 62
     7
370
     0
100
AcDbLine
 10
0.0
 20
0.0
 30
0.0
 11
0.05
 21
0.0
 31
0.0
  0
ENDBLK
  5
1CF
330
1CD
100
AcDbEntity
  8
0
100
AcDbBlockEnd
  0
BLOCK
  5
1F1
330
1E8
100
AcDbEntity
  8
0
100
AcDbBlockBegin
  2
*D16
 70
     1
 71
     0
 10
0.0
 20
0.0
 30
0.0
  3
*D16
  1

  0
SOLID
  5
1F5
330
1E8
100
AcDbEntity
  8
0
  6
Continuous
 62
     7
370
     0
100
AcDbTrace
 10
1.325062042
 20
6.2385824541
 30
0.0
 11
1.2812157573
 21
6.3573364154
 31
0.0
 12
1.2463519333
 22
6.3377273924
 32
0.0
 13
1.2463519333
 23
6.3377273924
 33
0.0
  0
LINE
  5
1F6
330
1E8
100
AcDbEntity
  8
0
  6
Continuous
 62
     7
370
     0
100
AcDbLine
 10
1.325062042
 20
6.2385824541
 30
0.0
 11
1.1880682731
 21
6.4821502571
 31
0.0
  0
LINE
  5
1F7
330
1E8
100
AcDbEntity
  8
0
  6
Continuous
 62
     7
370
     0
100
AcDbLine
 10
1.1880682731
 20
6.4821502571
 30
0.0
 11
1.0380682731
 21
6.4821502571
 31
0.0
  0
MTEXT
  5
1F8
330
1E8
100
AcDbEntity
  8
0
  6
Continuous
 62
     7
370
     0
100
AcDbMText
 10
0.5181717078
 20
6.5224168332
 30
0.0
 40
0.0833333333
 41
0.0
 71
     1
 72
     1
  1
{%%c}
  7
SLDTEXTSTYLE0
 73
     1
 44
1.0
  0
MTEXT
  5
1F9
330
1E8
100
AcDbEntity
  8
0
  6
Continuous
 62
     7
370
     0
100
AcDbMText
 10
0.6438594224
 20
6.5224168332
 30
0.0
 40
0.0833333333
 41
0.0
 71
     1
 72
     1
  1
{0.85}
  7
SLDTEXTSTYLE0
 73
     1
 44
1.0
  0
MTEXT
  5
1FA
330
1E8
100
AcDbEntity
  8
0
  6
Continuous
 62
     7
370
     0
100
AcDbMText
 10
0.8592182071
 20
6.5224168332
 30
0.0
 40
0.0833333333
 41
0.0
 71
     1
 72
     1
  1
{"}
  7
SLDTEXTSTYLE0
 73
     1
 44
1.0
  0
MTEXT
  5
1FB
330
1E8
100
AcDbEntity
  8
0
  6
Continuous
 62
     7
370
     0
100
AcDbMText
 10
0.4518329033
 20
6.3900593696
 30
0.0
 40
0.0833333333
 41
0.0
 71
     1
 72
     1
  1
{(}
  7
SLDTEXTSTYLE0
 73
     1
 44
1.0
  0
MTEXT
  5
1FC
330
1E8
100
AcDbEntity
  8
0
  6
Continuous
 62
     7
370
     0
100
AcDbMText
 10
0.4928822841
 20
6.3900593696
 30
0.0
 40
0.0833333333
 41
0.0
 71
     1
 72
     1
  1
{%%c}
  7
SLDTEXTSTYLE0
 73
     1
 44
1.0
  0
MTEXT
  5
1FD
330
1E8
100
AcDbEntity
  8
0
  6
Continuous
 62
     7
370
     0
100
AcDbMText
 10
0.6186693326
 20
6.3900593696
 30
0.0
 40
0.0833333333
 41
0.0
 71
     1
 72
     1
  1
{22mm)}
  7
SLDTEXTSTYLE0
 73
     1
 44
1.0
  0
ENDBLK
  5
1F2
330
1E8
100
AcDbEntity
  8
0
100
AcDbBlockEnd
  0
BLOCK
  5
219
330
218
100
AcDbEntity
  8
0
100
AcDbBlockBegin
  2
SW_CENTERMARKSYMBOL_1
 70
     0
 71
     0
 10
0.0
 20
0.0
 30
0.0
  3
SW_CENTERMARKSYMBOL_1
  1

  0
LINE
  5
21B
330
218
100
AcDbEntity
  8
0
  6
Continuous
 62
     7
370
     0
100
AcDbLine
 10
0.0
 20
0.0
 30
0.0
 11
0.0
 21
0.05
 31
0.0
  0
LINE
  5
21C
330
218
100
AcDbEntity
  8
0
  6
Continuous
 62
     7
370
     0
100
AcDbLine
 10
0.0
 20
0.0
 30
0.0
 11
-0.05
 21
0.0
 31
0.0
  0
LINE
  5
21D
330
218
100
AcDbEntity
  8
0
  6
Continuous
 62
     7
370
     0
100
AcDbLine
 10
0.0
 20
0.0
 30
0.0
 11
0.0
 21
-0.05
 31
0.0
  0
LINE
  5
21E
330
218
100
AcDbEntity
  8
0
  6
Continuous
 62
     7
370
     0
100
AcDbLine
 10
0.0
 20
0.0
 30
0.0
 11
0.05
 21
0.0
 31
0.0
  0
ENDBLK
  5
21A
330
218
100
AcDbEntity
  8
0
100
AcDbBlockEnd
  0
ENDSEC
  0
SECTION
  2
ENTITIES
  0
LINE
  5
30
330
1F
100
AcDbEntity
  8
0
  6
Continuous
 62
     7
370
     0
100
AcDbLine
 10
0.329927
 20
8.1920731707
 30
0.0
 11
10.629927
 21
8.1920731707
 31
0.0
  0
LINE
  5
31
330
1F
100
AcDbEntity
  8
0
  6
Continuous
 62
     7
370
     0
100
AcDbLine
 10
0.329927
 20
8.1920731707
 30
0.0
 11
0.329927
 21
0.3920731707
 31
0.0
  0
LINE
  5
32
330
1F
100
AcDbEntity
  8
0
  6
Continuous
 62
     7
370
     0
100
AcDbLine
 10
10.629927
 20
0.3920731707
 30
0.0
 11
0.329927
 21
0.3920731707
 31
0.0
  0
LINE
  5
33
330
1F
100
AcDbEntity
  8
0
  6
Continuous
 62
     7
370
     0
100
AcDbLine
 10
10.629927
 20
0.3920731707
 30
0.0
 11
10.629927
 21
8.1920731707
 31
0.0
  0
LINE
  5
34
330
1F
100
AcDbEntity
  8
0
  6
Continuous
 62
     7
370
     0
100
AcDbLine
 10
6.3491817542
 20
1.6988536355
 30
0.0
 11
7.8832069922
 21
1.6988536355
 31
0.0
  0
LINE
  5
35
330
1F
100
AcDbEntity
  8
0
  6
Continuous
 62
     7
370
     0
100
AcDbLine
 10
7.8832069922
 20
1.2010186622
 30
0.0
 11
6.3491817542
 21
1.2010186622
 31
0.0
  0
LINE
  5
36
330
1F
100
AcDbEntity
  8
0
  6
Continuous
 62
     7
370
     0
100
AcDbLine
 10
6.3491817542
 20
0.3920731707
 30
0.0
 11
6.3491817542
 21
1.6988536355
 31
0.0
  0
LINE
  5
37
330
1F
100
AcDbEntity
  8
0
  6
Continuous
 62
     7
370
     0
100
AcDbLine
 10
7.8832069922
 20
1.270166923
 30
0.0
 11
10.629927
 21
1.270166923
 31
0.0
  0
LINE
  5
38
330
1F
100
AcDbEntity
  8
0
  6
Continuous
 62
     7
370
     0
100
AcDbLine
 10
7.8832069922
 20
1.9437769943
 30
0.0
 11
7.8832069922
 21
0.3920731707
 31
0.0
  0
LINE
  5
39
330
1F
100
AcDbEntity
  8
0
  6
Continuous
 62
     7
370
     0
100
AcDbLine
 10
7.8832069922
 20
1.323339557
 30
0.0
 11
6.3491817542
 21
1.323339557
 31
0.0
  0
LINE
  5
3A
330
1F
100
AcDbEntity
  8
0
  6
Continuous
 62
     7
370
     0
100
AcDbLine
 10
7.8832069922
 20
0.7890359178
 30
0.0
 11
10.629927
 21
0.7890359178
 31
0.0
  0
LINE
  5
3B
330
1F
100
AcDbEntity
  8
0
  6
Continuous
 62
     7
370
     0
100
AcDbLine
 10
7.8832069922
 20
1.4456604517
 30
0.0
 11
6.3491817542
 21
1.4456604517
 31
0.0
  0
LINE
  5
3C
330
1F
100
AcDbEntity
  8
0
  6
Continuous
 62
     7
370
     0
100
AcDbLine
 10
7.8832069922
 20
1.5679813464
 30
0.0
 11
6.3491817542
 21
1.5679813464
 31
0.0
  0
LINE
  5
3D
330
1F
100
AcDbEntity
  8
0
  6
Continuous
 62
     7
370
     0
100
AcDbLine
 10
6.9294188505
 20
1.6988536355
 30
0.0
 11
6.9294188505
 21
1.2010186622
 31
0.0
  0
LINE
  5
3E
330
1F
100
AcDbEntity
  8
0
  6
Continuous
 62
     7
370
     0
100
AcDbLine
 10
7.2989435727
 20
1.6988536355
 30
0.0
 11
7.2989435727
 21
1.2010186622
 31
0.0
  0
LINE
  5
3F
330
1F
100
AcDbEntity
  8
0
  6
Continuous
 62
     7
370
     0
100
AcDbLine
 10
8.9000563418
 20
0.7890359178
 30
0.0
 11
8.9000563418
 21
0.3920731707
 31
0.0
  0
LINE
  5
40
330
1F
100
AcDbEntity
  8
0
  6
Continuous
 62
     7
370
     0
100
AcDbLine
 10
9.3113942988
 20
0.96139916
 30
0.0
 11
9.3113942988
 21
0.7890359178
 31
0.0
  0
LINE
  5
41
330
1F
100
AcDbEntity
  8
0
  6
Continuous
 62
     7
370
     0
100
AcDbLine
 10
10.0324602448
 20
1.270166923
 30
0.0
 11
10.0324602448
 21
0.96139916
 31
0.0
  0
LINE
  5
42
330
1F
100
AcDbEntity
  8
0
  6
Continuous
 62
     7
370
     0
100
AcDbLine
 10
6.3491817542
 20
1.0381709011
 30
0.0
 11
7.8832069922
 21
1.0381709011
 31
0.0
  0
LINE
  5
43
330
1F
100
AcDbEntity
  8
0
  6
Continuous
 62
     7
370
     0
100
AcDbLine
 10
7.8832069922
 20
1.9437769943
 30
0.0
 11
10.629927
 21
1.9437769943
 31
0.0
  0
LINE
  5
44
330
1F
100
AcDbEntity
  8
0
  6
Continuous
 62
     7
370
     0
100
AcDbLine
 10
10.315241862
 20
1.2693980507
 30
0.0
 11
10.315241862
 21
0.96139916
 31
0.0
  0
LINE
  5
45
330
1F
100
AcDbEntity
  8
0
  6
Continuous
 62
     7
370
     0
100
AcDbLine
 10
7.8832069922
 20
0.96139916
 30
0.0
 11
10.629927
 21
0.96139916
 31
0.0
  0
LINE
  5
46
330
1F
100
AcDbEntity
  8
0
  6
Continuous
 62
     7
370
     0
100
AcDbLine
 10
10.629927
 20
1.9437769943
 30
0.0
 11
10.629927
 21
1.9698084888
 31
0.0
  0
LINE
  5
47
330
1F
100
AcDbEntity
  8
0
  6
Continuous
 62
     7
370
     0
100
AcDbLine
 10
7.8832069922
 20
1.6268095213
 30
0.0
 11
10.629927
 21
1.6268095213
 31
0.0
  0
LINE
  5
48
330
1F
100
AcDbEntity
  8
0
  6
Continuous
 62
     7
370
     0
100
AcDbLine
 10
6.692177
 20
0.3920731707
 30
0.0
 11
6.692177
 21
0.3072739649
 31
0.0
  0
LINE
  5
49
330
1F
100
AcDbEntity
  8
0
  6
Continuous
 62
     7
370
     0
100
AcDbLine
 10
2.754677
 20
0.3920731707
 30
0.0
 11
2.754677
 21
0.3072739649
 31
0.0
  0
LINE
  5
4A
330
1F
100
AcDbEntity
  8
0
  6
Continuous
 62
     7
370
     0
100
AcDbLine
 10
2.754677
 20
0.3920731707
 30
0.0
 11
2.7672319738
 21
0.3575
 31
0.0
  0
LINE
  5
4B
330
1F
100
AcDbEntity
  8
0
  6
Continuous
 62
     7
370
     0
100
AcDbLine
 10
2.7672319738
 20
0.3575
 30
0.0
 11
2.7414258825
 21
0.3575
 31
0.0
  0
LINE
  5
4C
330
1F
100
AcDbEntity
  8
0
  6
Continuous
 62
     7
370
     0
100
AcDbLine
 10
2.7414258825
 20
0.3575
 30
0.0
 11
2.754677
 21
0.3920731707
 31
0.0
  0
MTEXT
  5
4E
330
1F
100
AcDbEntity
  8
0
  6
Continuous
 62
     7
370
     0
100
AcDbMText
 10
1.7387909509
 20
0.3094873007
 30
0.0
 40
0.09375
 41
0.0
 71
     1
 72
     1
  1
{5}
  7
SLDTEXTSTYLE0
 73
     1
 44
1.0
  0
MTEXT
  5
4F
330
1F
100
AcDbEntity
  8
0
  6
Continuous
 62
     7
370
     0
100
AcDbMText
 10
3.723800327
 20
0.3126246278
 30
0.0
 40
0.09375
 41
0.0
 71
     1
 72
     1
  1
{4}
  7
SLDTEXTSTYLE0
 73
     1
 44
1.0
  0
MTEXT
  5
50
330
1F
100
AcDbEntity
  8
0
  6
Continuous
 62
     7
370
     0
100
AcDbMText
 10
5.6324457277
 20
0.3105200602
 30
0.0
 40
0.09375
 41
0.0
 71
     1
 72
     1
  1
{3}
  7
SLDTEXTSTYLE0
 73
     1
 44
1.0
  0
MTEXT
  5
51
330
1F
100
AcDbEntity
  8
0
  6
Continuous
 62
     7
370
     0
100
AcDbMText
 10
7.6059721724
 20
0.3113400111
 30
0.0
 40
0.09375
 41
0.0
 71
     1
 72
     1
  1
{2}
  7
SLDTEXTSTYLE0
 73
     1
 44
1.0
  0
MTEXT
  5
52
330
1F
100
AcDbEntity
  8
0
  6
Continuous
 62
     7
370
     0
100
AcDbMText
 10
9.6619921328
 20
0.300272888
 30
0.0
 40
0.09375
 41
0.0
 71
     1
 72
     1
  1
{1}
  7
SLDTEXTSTYLE0
 73
     1
 44
1.0
  0
MTEXT
  5
53
330
1F
100
AcDbEntity
  8
0
  6
Continuous
 62
     7
370
     0
100
AcDbMText
 10
9.4713724608
 20
0.6124297791
 30
0.0
 40
0.125
 41
0.0
 71
     1
 72
     1
  1
{FCA200}
  7
SLDTEXTSTYLE0
 73
     1
 44
1.0
  0
MTEXT
  5
54
330
1F
100
AcDbEntity
  8
0
  6
Continuous
 62
     7
370
     0
100
AcDbMText
 10
7.9301743649
 20
1.2499730493
 30
0.0
 40
0.0833333333
 41
0.0
 71
     1
 72
     1
  1
{MATERIAL:}
  7
SLDTEXTSTYLE0
 73
     1
 44
1.0
  0
MTEXT
  5
56
330
1F
100
AcDbEntity
  8
0
  6
Continuous
 62
     7
370
     0
100
AcDbMText
 10
8.9438302275
 20
0.7457341193
 30
0.0
 40
0.0833333333
 41
0.0
 71
     1
 72
     1
  1
{PART  NO.}
  7
SLDTEXTSTYLE1
 73
     1
 44
1.0
  0
MTEXT
  5
58
330
1F
100
AcDbEntity
  8
0
  6
Continuous
 62
     7
370
     0
100
AcDbMText
 10
6.3927073562
 20
1.1440291591
 30
0.0
 40
0.06
 41
0.0
 71
     1
 72
     1
  1
{PROPRIETARY AND CONFIDENTIAL}
  7
SLDTEXTSTYLE2
 73
     1
 44
1.0
  0
MTEXT
  5
59
330
1F
100
AcDbEntity
  8
0
  6
Continuous
 62
     7
370
     0
100
AcDbMText
 10
6.4985660702
 20
1.5406501707
 30
0.0
 40
0.065
 41
0.0
 71
     1
 72
     1
  1
{DRAWN}
  7
SLDTEXTSTYLE0
 73
     1
 44
1.0
  0
MTEXT
  5
5A
330
1F
100
AcDbEntity
  8
0
  6
Continuous
 62
     7
370
     0
100
AcDbMText
 10
6.4369653776
 20
1.4183941661
 30
0.0
 40
0.065
 41
0.0
 71
     1
 72
     1
  1
{ENG APPR.}
  7
SLDTEXTSTYLE0
 73
     1
 44
1.0
  0
MTEXT
  5
5B
330
1F
100
AcDbEntity
  8
0
  6
Continuous
 62
     7
370
     0
100
AcDbMText
 10
6.4273055419
 20
1.298296273
 30
0.0
 40
0.065
 41
0.0
 71
     1
 72
     1
  1
{MFG APPR.}
  7
SLDTEXTSTYLE0
 73
     1
 44
1.0
  0
MTEXT
  5
5C
330
1F
100
AcDbEntity
  8
0
  6
Continuous
 62
     7
370
     0
100
AcDbMText
 10
6.9752663896
 20
1.6608078346
 30
0.0
 40
0.065
 41
0.0
 71
     1
 72
     1
  1
{NAME}
  7
SLDTEXTSTYLE0
 73
     1
 44
1.0
  0
MTEXT
  5
5D
330
1F
100
AcDbEntity
  8
0
  6
Continuous
 62
     7
370
     0
100
AcDbMText
 10
7.9386050459
 20
1.5661804433
 30
0.0
 40
0.1
 41
0.0
 71
     1
 72
     1
  1
{TITLE:}
  7
SLDTEXTSTYLE0
 73
     1
 44
1.0
  0
MTEXT
  5
5E
330
1F
100
AcDbEntity
  8
0
  6
Continuous
 62
     7
370
     0
100
AcDbMText
 10
10.0657693915
 20
1.2262994671
 30
0.0
 40
0.0833333333
 41
0.0
 71
     1
 72
     1
  1
{SIZE}
  7
SLDTEXTSTYLE0
 73
     1
 44
1.0
  0
MTEXT
  5
5F
330
1F
100
AcDbEntity
  8
0
  6
Continuous
 62
     7
370
     0
100
AcDbMText
 10
10.1162261111
 20
1.1164461388
 30
0.0
 40
0.1041666667
 41
0.0
 71
     1
 72
     1
  1
{A}
  7
SLDTEXTSTYLE0
 73
     1
 44
1.0
  0
MTEXT
  5
60
330
1F
100
AcDbEntity
  8
0
  6
Continuous
 62
     7
370
     0
100
AcDbMText
 10
10.335100974
 20
1.2278993505
 30
0.0
 40
0.0833333333
 41
0.0
 71
     1
 72
     1
  1
{REV.}
  7
SLDTEXTSTYLE0
 73
     1
 44
1.0
  0
MTEXT
  5
61
330
1F
100
AcDbEntity
  8
0
  6
Continuous
 62
     7
370
     0
100
AcDbMText
 10
8.3227727705
 20
0.9309786574
 30
0.0
 40
0.0833333333
 41
0.0
 71
     1
 72
     1
  1
{SCALE: 1:1}
  7
SLDTEXTSTYLE0
 73
     1
 44
1.0
  0
MTEXT
  5
63
330
1F
100
AcDbEntity
  8
0
  6
Continuous
 62
     7
370
     0
100
AcDbMText
 10
9.6378279873
 20
0.926579063
 30
0.0
 40
0.0833333333
 41
0.0
 71
     1
 72
     1
  1
{SHEET 1 OF 1}
  7
SLDTEXTSTYLE3
 73
     1
 44
1.0
  0
MTEXT
  5
64
330
1F
100
AcDbEntity
  8
0
  6
Continuous
 62
     7
370
     0
100
AcDbMText
 10
7.9963320694
 20
0.6032387684
 30
0.0
 40
0.125
 41
0.0
 71
     1
 72
     1
  1
{13438-E01}
  7
SLDTEXTSTYLE0
 73
     1
 44
1.0
  0
INSERT
  5
74
330
1F
100
AcDbEntity
  8
0
  6
Continuous
 62
     7
370
     0
100
AcDbBlockReference
  2
SW_NOTE_0
 10
6.3891646717
 20
0.9312082413
 30
0.0
  0
MTEXT
  5
75
330
1F
100
AcDbEntity
  8
0
  6
Continuous
 62
     7
370
     0
100
AcDbMText
 10
7.9076399399
 20
0.7468305835
 30
0.0
 40
0.0833333333
 41
0.0
 71
     1
 72
     1
  1
{DWG.  NO.}
  7
SLDTEXTSTYLE1
 73
     1
 44
1.0
  0
MTEXT
  5
76
330
1F
100
AcDbEntity
  8
0
  6
Continuous
 62
     7
370
     0
100
AcDbMText
 10
7.0592138229
 20
1.5434434118
 30
0.0
 40
0.065
 41
0.0
 71
     1
 72
     1
  1
{BM}
  7
SLDTEXTSTYLE0
 73
     1
 44
1.0
  0
MTEXT
  5
77
330
1F
100
AcDbEntity
  8
0
  6
Continuous
 62
     7
370
     0
100
AcDbMText
 10
7.0628716471
 20
1.4267005168
 30
0.0
 40
0.065
 41
0.0
 71
     1
 72
     1
  1
{BM}
  7
SLDTEXTSTYLE0
 73
     1
 44
1.0
  0
MTEXT
  5
78
330
1F
100
AcDbEntity
  8
0
  6
Continuous
 62
     7
370
     0
100
AcDbMText
 10
7.0636219211
 20
1.3041261123
 30
0.0
 40
0.065
 41
0.0
 71
     1
 72
     1
  1
{BG}
  7
SLDTEXTSTYLE0
 73
     1
 44
1.0
  0
MTEXT
  5
79
330
1F
100
AcDbEntity
  8
0
  6
Continuous
 62
     7
370
     0
100
AcDbMText
 10
7.3775562039
 20
1.5451308061
 30
0.0
 40
0.065
 41
0.0
 71
     1
 72
     1
  1
{03/15/06}
  7
SLDTEXTSTYLE0
 73
     1
 44
1.0
  0
MTEXT
  5
7A
330
1F
100
AcDbEntity
  8
0
  6
Continuous
 62
     7
370
     0
100
AcDbMText
 10
7.4731545031
 20
1.6582684693
 30
0.0
 40
0.065
 41
0.0
 71
     1
 72
     1
  1
{DATE}
  7
SLDTEXTSTYLE0
 73
     1
 44
1.0
  0
MTEXT
  5
7B
330
1F
100
AcDbEntity
  8
0
  6
Continuous
 62
     7
370
     0
100
AcDbMText
 10
7.3821011998
 20
1.4184142209
 30
0.0
 40
0.065
 41
0.0
 71
     1
 72
     1
  1
{03/15/06}
  7
SLDTEXTSTYLE0
 73
     1
 44
1.0
  0
MTEXT
  5
7C
330
1F
100
AcDbEntity
  8
0
  6
Continuous
 62
     7
370
     0
100
AcDbMText
 10
7.3821011998
 20
1.2979456571
 30
0.0
 40
0.065
 41
0.0
 71
     1
 72
     1
  1
{03/15/06}
  7
SLDTEXTSTYLE0
 73
     1
 44
1.0
  0
MTEXT
  5
7D
330
1F
100
AcDbEntity
  8
0
  6
Continuous
 62
     7
370
     0
100
AcDbMText
 10
7.9182509893
 20
1.8945248266
 30
0.0
 40
0.1875
 41
0.0
 71
     1
 72
     1
  1
{THORLABS INC.}
  7
SLDTEXTSTYLE0
 73
     1
 44
1.0
  0
INSERT
  5
84
330
1F
100
AcDbEntity
  8
0
  6
Continuous
 62
     7
370
     0
100
AcDbBlockReference
  2
SW_NOTE_1
 10
9.7899715108
 20
1.8064732284
 30
0.0
  0
MTEXT
  5
86
330
1F
100
AcDbEntity
  8
0
  6
Continuous
 62
     7
370
     0
100
AcDbMText
 10
8.2269659578
 20
1.4350777096
 30
0.0
 40
0.09
 41
0.0
 71
     1
 72
     1
  1
{FINE/COURSE ADJUSTMENT SCREW SET}
  7
SLDTEXTSTYLE11
 73
     1
 44
1.0
  0
MTEXT
  5
87
330
1F
100
AcDbEntity
  8
0
  6
Continuous
 62
     7
370
     0
100
AcDbMText
 10
8.8816840347
 20
1.1536896882
 30
0.0
 40
0.09
 41
0.0
 71
     1
 72
     1
  1
{N/A}
  7
SLDTEXTSTYLE0
 73
     1
 44
1.0
  0
MTEXT
  5
88
330
1F
100
AcDbEntity
  8
0
  6
Continuous
 62
     7
370
     0
100
AcDbMText
 10
10.3944661762
 20
1.1259084282
 30
0.0
 40
0.1041666667
 41
0.0
 71
     1
 72
     1
  1
{A}
  7
SLDTEXTSTYLE0
 73
     1
 44
1.0
  0
LINE
  5
89
330
1F
100
AcDbEntity
  8
0
  6
Continuous
 62
     7
370
     0
100
AcDbLine
 10
5.3547388886
 20
6.2931543251
 30
0.0
 11
5.3297388907
 21
6.2681543273
 31
0.0
  0
LINE
  5
8A
330
1F
100
AcDbEntity
  8
0
  6
Continuous
 62
     7
370
     0
100
AcDbLine
 10
5.3297388907
 20
5.4681543223
 30
0.0
 11
5.3547388886
 21
5.4431543244
 31
0.0
  0
LINE
  5
8B
330
1F
100
AcDbEntity
  8
0
  6
Continuous
 62
     7
370
     0
100
AcDbLine
 10
5.5027388972
 20
5.4431543244
 30
0.0
 11
5.5547388898
 21
5.4431543244
 31
0.0
  0
LINE
  5
8C
330
1F
100
AcDbEntity
  8
0
  6
Continuous
 62
     7
370
     0
100
AcDbLine
 10
5.3547388886
 20
5.4431543244
 30
0.0
 11
5.4068838962
 21
5.4431543244
 31
0.0
  0
LINE
  5
8D
330
1F
100
AcDbEntity
  8
0
  6
Continuous
 62
     7
370
     0
100
AcDbLine
 10
5.4067388995
 20
6.2931543251
 30
0.0
 11
5.3547388886
 21
6.2931543251
 31
0.0
  0
LINE
  5
8E
330
1F
100
AcDbEntity
  8
0
  6
Continuous
 62
     7
370
     0
100
AcDbLine
 10
5.5547388898
 20
6.2931543251
 30
0.0
 11
5.5025938822
 21
6.2931543251
 31
0.0
  0
LINE
  5
8F
330
1F
100
AcDbEntity
  8
0
  6
Continuous
 62
     7
370
     0
100
AcDbLine
 10
5.5547388898
 20
5.4431543244
 30
0.0
 11
5.5797388877
 21
5.4681543223
 31
0.0
  0
LINE
  5
90
330
1F
100
AcDbEntity
  8
0
  6
Continuous
 62
     7
370
     0
100
AcDbLine
 10
5.5797388877
 20
6.2681543273
 30
0.0
 11
5.5547388898
 21
6.2931543251
 31
0.0
  0
LINE
  5
91
330
1F
100
AcDbEntity
  8
0
  6
Continuous
 62
     7
370
     0
100
AcDbLine
 10
3.9389420356
 20
5.930654324
 30
0.0
 11
3.9239421689
 21
5.9206543258
 31
0.0
  0
LINE
  5
92
330
1F
100
AcDbEntity
  8
0
  6
Continuous
 62
     7
370
     0
100
AcDbLine
 10
3.9239421689
 20
5.8156543237
 30
0.0
 11
3.9389420356
 21
5.8056543255
 31
0.0
  0
LINE
  5
93
330
1F
100
AcDbEntity
  8
0
  6
Continuous
 62
     7
370
     0
100
AcDbLine
 10
3.9771795739
 20
5.930654324
 30
0.0
 11
3.9389420356
 21
5.930654324
 31
0.0
  0
LINE
  5
94
330
1F
100
AcDbEntity
  8
0
  6
Continuous
 62
     7
370
     0
100
AcDbLine
 10
3.9389420356
 20
5.8056543255
 30
0.0
 11
3.9771795739
 21
5.8056543255
 31
0.0
  0
LINE
  5
95
330
1F
100
AcDbEntity
  8
0
  6
Continuous
 62
     7
370
     0
100
AcDbLine
 10
6.9151795605
 20
6.1181543217
 30
0.0
 11
6.8801795782
 21
6.0831543211
 31
0.0
  0
LINE
  5
96
330
1F
100
AcDbEntity
  8
0
  6
Continuous
 62
     7
370
     0
100
AcDbLine
 10
6.8801795782
 20
5.6531543285
 30
0.0
 11
6.9151795605
 21
5.6181543278
 31
0.0
  0
LINE
  5
97
330
1F
100
AcDbEntity
  8
0
  6
Continuous
 62
     7
370
     0
100
AcDbLine
 10
7.4701796158
 20
6.1181543217
 30
0.0
 11
6.9151795605
 21
6.1181543217
 31
0.0
  0
LINE
  5
98
330
1F
100
AcDbEntity
  8
0
  6
Continuous
 62
     7
370
     0
100
AcDbLine
 10
6.9151795605
 20
5.6181543278
 30
0.0
 11
7.4701796158
 21
5.6181543278
 31
0.0
  0
LINE
  5
99
330
1F
100
AcDbEntity
  8
0
  6
Continuous
 62
     7
370
     0
100
AcDbLine
 10
7.4701796158
 20
5.6181543278
 30
0.0
 11
7.5051795981
 21
5.6531543285
 31
0.0
  0
LINE
  5
9A
330
1F
100
AcDbEntity
  8
0
  6
Continuous
 62
     7
370
     0
100
AcDbLine
 10
7.5051795981
 20
6.0831543211
 30
0.0
 11
7.4701796158
 21
6.1181543217
 31
0.0
  0
LINE
  5
9B
330
1F
100
AcDbEntity
  8
0
  6
Continuous
 62
     7
370
     0
100
AcDbLine
 10
6.8801795782
 20
6.0631543338
 30
0.0
 11
6.7751794845
 21
6.0631543338
 31
0.0
  0
LINE
  5
9C
330
1F
100
AcDbEntity
  8
0
  6
Continuous
 62
     7
370
     0
100
AcDbLine
 10
6.7751794845
 20
5.6731543158
 30
0.0
 11
6.8801795782
 21
5.6731543158
 31
0.0
  0
LINE
  5
9D
330
1F
100
AcDbEntity
  8
0
  6
Continuous
 62
     7
370
     0
100
AcDbLine
 10
6.7751794845
 20
6.0631543338
 30
0.0
 11
6.7551795155
 21
6.0431543281
 31
0.0
  0
LINE
  5
9E
330
1F
100
AcDbEntity
  8
0
  6
Continuous
 62
     7
370
     0
100
AcDbLine
 10
6.7551795155
 20
5.6931543214
 30
0.0
 11
6.7751794845
 21
5.6731543158
 31
0.0
  0
LINE
  5
9F
330
1F
100
AcDbEntity
  8
0
  6
Continuous
 62
     7
370
     0
100
AcDbLine
 10
4.8327389104
 20
6.1026543275
 30
0.0
 11
4.8137389032
 21
6.1026543275
 31
0.0
  0
LINE
  5
A0
330
1F
100
AcDbEntity
  8
0
  6
Continuous
 62
     7
370
     0
100
AcDbLine
 10
4.8137389032
 20
5.6336543221
 30
0.0
 11
4.8327389104
 21
5.6336543221
 31
0.0
  0
LINE
  5
A1
330
1F
100
AcDbEntity
  8
0
  6
Continuous
 62
     7
370
     0
100
AcDbLine
 10
5.0397388916
 20
6.0650047141
 30
0.0
 11
4.8427388949
 21
6.0650047141
 31
0.0
  0
LINE
  5
A2
330
1F
100
AcDbEntity
  8
0
  6
Continuous
 62
     7
370
     0
100
AcDbLine
 10
4.8427388949
 20
5.6713039355
 30
0.0
 11
5.3297388907
 21
5.6713039355
 31
0.0
  0
LINE
  5
A3
330
1F
100
AcDbEntity
  8
0
  6
Continuous
 62
     7
370
     0
100
AcDbLine
 10
4.8427388949
 20
6.04516219
 30
0.0
 11
4.8327389104
 21
6.04516219
 31
0.0
  0
LINE
  5
A4
330
1F
100
AcDbEntity
  8
0
  6
Continuous
 62
     7
370
     0
100
AcDbLine
 10
4.8327389104
 20
5.6911464596
 30
0.0
 11
4.8427388949
 21
5.6911464596
 31
0.0
  0
LINE
  5
A5
330
1F
100
AcDbEntity
  8
0
  6
Continuous
 62
     7
370
     0
100
AcDbLine
 10
7.9029420432
 20
5.6181543278
 30
0.0
 11
7.9379421722
 21
5.6531543285
 31
0.0
  0
LINE
  5
A6
330
1F
100
AcDbEntity
  8
0
  6
Continuous
 62
     7
370
     0
100
AcDbLine
 10
7.9379421722
 20
6.0831543211
 30
0.0
 11
7.9029420432
 21
6.1181543217
 31
0.0
  0
LINE
  5
A7
330
1F
100
AcDbEntity
  8
0
  6
Continuous
 62
     7
370
     0
100
AcDbLine
 10
7.9029420432
 20
6.1181543217
 30
0.0
 11
7.5979421132
 21
6.1181543217
 31
0.0
  0
LINE
  5
A8
330
1F
100
AcDbEntity
  8
0
  6
Continuous
 62
     7
370
     0
100
AcDbLine
 10
7.5979421132
 20
5.6181543278
 30
0.0
 11
7.9029420432
 21
5.6181543278
 31
0.0
  0
LINE
  5
A9
330
1F
100
AcDbEntity
  8
0
  6
Continuous
 62
     7
370
     0
100
AcDbLine
 10
7.5979421132
 20
6.1181543217
 30
0.0
 11
7.5629421309
 21
6.0831543211
 31
0.0
  0
LINE
  5
AA
330
1F
100
AcDbEntity
  8
0
  6
Continuous
 62
     7
370
     0
100
AcDbLine
 10
7.5629421309
 20
5.6531543285
 30
0.0
 11
7.5979421132
 21
5.6181543278
 31
0.0
  0
LINE
  5
AB
330
1F
100
AcDbEntity
  8
0
  6
Continuous
 62
     7
370
     0
100
AcDbLine
 10
7.5629421309
 20
6.0481543204
 30
0.0
 11
7.5051795981
 21
6.0481543204
 31
0.0
  0
LINE
  5
AC
330
1F
100
AcDbEntity
  8
0
  6
Continuous
 62
     7
370
     0
100
AcDbLine
 10
7.5051795981
 20
5.6881543291
 30
0.0
 11
7.5629421309
 21
5.6881543291
 31
0.0
  0
ARC
  5
AD
330
1F
100
AcDbEntity
  8
0
  6
Continuous
 62
     7
370
     0
100
AcDbCircle
 10
3.9438171078
 20
5.8681543248
 30
0.0
 40
0.046875
100
AcDbArc
 50
180.0
 51
244.9126169237
  0
ARC
  5
AE
330
1F
100
AcDbEntity
  8
0
  6
Continuous
 62
     7
370
     0
100
AcDbCircle
 10
3.9438171078
 20
5.8681543248
 30
0.0
 40
0.046875
100
AcDbArc
 50
115.0873830763
 51
180.0
  0
LINE
  5
AF
330
1F
100
AcDbEntity
  8
0
  6
Continuous
 62
     7
370
     0
100
AcDbLine
 10
4.0171795118
 20
6.0244043298
 30
0.0
 11
3.9771795739
 21
6.0013103165
 31
0.0
  0
LINE
  5
B0
330
1F
100
AcDbEntity
  8
0
  6
Continuous
 62
     7
370
     0
100
AcDbLine
 10
3.9771795739
 20
5.734998333
 30
0.0
 11
4.0171795118
 21
5.7119043198
 31
0.0
  0
LINE
  5
B1
330
1F
100
AcDbEntity
  8
0
  6
Continuous
 62
     7
370
     0
100
AcDbLine
 10
6.7551795155
 20
6.0244043298
 30
0.0
 11
5.5797388877
 21
6.0244043298
 31
0.0
  0
LINE
  5
B2
330
1F
100
AcDbEntity
  8
0
  6
Continuous
 62
     7
370
     0
100
AcDbLine
 10
4.7697388982
 20
6.0244043298
 30
0.0
 11
4.0171795118
 21
6.0244043298
 31
0.0
  0
LINE
  5
B3
330
1F
100
AcDbEntity
  8
0
  6
Continuous
 62
     7
370
     0
100
AcDbLine
 10
4.0171795118
 20
5.7119043198
 30
0.0
 11
4.7697388982
 21
5.7119043198
 31
0.0
  0
LINE
  5
B4
330
1F
100
AcDbEntity
  8
0
  6
Continuous
 62
     7
370
     0
100
AcDbLine
 10
5.5797388877
 20
5.7119043198
 30
0.0
 11
6.7551795155
 21
5.7119043198
 31
0.0
  0
LINE
  5
B5
330
1F
100
AcDbEntity
  8
0
  6
Continuous
 62
     7
370
     0
100
AcDbLine
 10
5.3297388907
 20
5.4681543223
 30
0.0
 11
5.3297388907
 21
6.2681543273
 31
0.0
  0
LINE
  5
B6
330
1F
100
AcDbEntity
  8
0
  6
Continuous
 62
     7
370
     0
100
AcDbLine
 10
5.3547388886
 20
5.4431543244
 30
0.0
 11
5.3547388886
 21
6.2931543251
 31
0.0
  0
LINE
  5
B7
330
1F
100
AcDbEntity
  8
0
  6
Continuous
 62
     7
370
     0
100
AcDbLine
 10
5.5547388898
 20
5.4431543244
 30
0.0
 11
5.5547388898
 21
6.2931543251
 31
0.0
  0
ARC
  5
B8
330
1F
100
AcDbEntity
  8
0
  6
Continuous
 62
     7
370
     0
100
AcDbCircle
 10
5.4547412716
 20
6.7151376181
 30
0.0
 40
0.4247047531053492
100
AcDbArc
 50
263.5102609206
 51
276.4694052735
  0
CIRCLE
  5
B9
330
1F
100
AcDbEntity
  8
0
  6
Continuous
 62
     7
370
     0
100
AcDbCircle
 10
5.4547388875
 20
5.8681543247
 30
0.0
 40
0.0479999988710599
  0
ARC
  5
BA
330
1F
100
AcDbEntity
  8
0
  6
Continuous
 62
     7
370
     0
100
AcDbCircle
 10
5.4547365161
 20
5.0211709985
 30
0.0
 40
0.4247047868001415
100
AcDbArc
 50
83.510260215
 51
96.4694060245
  0
LINE
  5
BB
330
1F
100
AcDbEntity
  8
0
  6
Continuous
 62
     7
370
     0
100
AcDbLine
 10
5.5797388877
 20
5.4681543223
 30
0.0
 11
5.5797388877
 21
6.2681543273
 31
0.0
  0
LINE
  5
BC
330
1F
100
AcDbEntity
  8
0
  6
Continuous
 62
     7
370
     0
100
AcDbLine
 10
3.9239421689
 20
5.9206543258
 30
0.0
 11
3.9239421689
 21
5.8156543237
 31
0.0
  0
LINE
  5
BD
330
1F
100
AcDbEntity
  8
0
  6
Continuous
 62
     7
370
     0
100
AcDbLine
 10
3.9389420356
 20
5.930654324
 30
0.0
 11
3.9389420356
 21
5.8056543255
 31
0.0
  0
LINE
  5
BE
330
1F
100
AcDbEntity
  8
0
  6
Continuous
 62
     7
370
     0
100
AcDbLine
 10
6.8801795782
 20
5.9686848126
 30
0.0
 11
6.8801795782
 21
5.6531543285
 31
0.0
  0
LINE
  5
BF
330
1F
100
AcDbEntity
  8
0
  6
Continuous
 62
     7
370
     0
100
AcDbLine
 10
6.8801795782
 20
6.0831543211
 30
0.0
 11
6.8801795782
 21
5.9686848126
 31
0.0
  0
LINE
  5
C0
330
1F
100
AcDbEntity
  8
0
  6
Continuous
 62
     7
370
     0
100
AcDbLine
 10
6.9151795605
 20
5.9850502494
 30
0.0
 11
6.9151795605
 21
5.6181543278
 31
0.0
  0
LINE
  5
C1
330
1F
100
AcDbEntity
  8
0
  6
Continuous
 62
     7
370
     0
100
AcDbLine
 10
6.9151795605
 20
6.1181543217
 30
0.0
 11
6.9151795605
 21
5.9850502494
 31
0.0
  0
LINE
  5
C2
330
1F
100
AcDbEntity
  8
0
  6
Continuous
 62
     7
370
     0
100
AcDbLine
 10
7.4701796158
 20
5.9850502494
 30
0.0
 11
7.4701796158
 21
5.6181543278
 31
0.0
  0
LINE
  5
C3
330
1F
100
AcDbEntity
  8
0
  6
Continuous
 62
     7
370
     0
100
AcDbLine
 10
7.4701796158
 20
6.1181543217
 30
0.0
 11
7.4701796158
 21
5.9850502494
 31
0.0
  0
LINE
  5
C4
330
1F
100
AcDbEntity
  8
0
  6
Continuous
 62
     7
370
     0
100
AcDbLine
 10
7.5051795981
 20
5.9686848126
 30
0.0
 11
7.5051795981
 21
5.6531543285
 31
0.0
  0
LINE
  5
C5
330
1F
100
AcDbEntity
  8
0
  6
Continuous
 62
     7
370
     0
100
AcDbLine
 10
7.5051795981
 20
6.0831543211
 30
0.0
 11
7.5051795981
 21
5.9686848126
 31
0.0
  0
LINE
  5
C6
330
1F
100
AcDbEntity
  8
0
  6
Continuous
 62
     7
370
     0
100
AcDbLine
 10
6.7751794845
 20
5.9593331423
 30
0.0
 11
6.7751794845
 21
5.6731543158
 31
0.0
  0
LINE
  5
C7
330
1F
100
AcDbEntity
  8
0
  6
Continuous
 62
     7
370
     0
100
AcDbLine
 10
6.7751794845
 20
6.0631543338
 30
0.0
 11
6.7751794845
 21
5.9593331423
 31
0.0
  0
LINE
  5
C8
330
1F
100
AcDbEntity
  8
0
  6
Continuous
 62
     7
370
     0
100
AcDbLine
 10
6.7551795155
 20
5.949981472
 30
0.0
 11
6.7551795155
 21
5.6931543214
 31
0.0
  0
LINE
  5
C9
330
1F
100
AcDbEntity
  8
0
  6
Continuous
 62
     7
370
     0
100
AcDbLine
 10
6.7551795155
 20
6.0431543281
 30
0.0
 11
6.7551795155
 21
5.949981472
 31
0.0
  0
LINE
  5
CA
330
1F
100
AcDbEntity
  8
0
  6
Continuous
 62
     7
370
     0
100
AcDbLine
 10
4.8327389104
 20
6.1026543275
 30
0.0
 11
4.8327389104
 21
5.6336543221
 31
0.0
  0
LINE
  5
CB
330
1F
100
AcDbEntity
  8
0
  6
Continuous
 62
     7
370
     0
100
AcDbLine
 10
4.8137389032
 20
5.6336543221
 30
0.0
 11
4.8137389032
 21
5.6349907516
 31
0.0
  0
LINE
  5
CC
330
1F
100
AcDbEntity
  8
0
  6
Continuous
 62
     7
370
     0
100
AcDbLine
 10
4.8137389032
 20
5.6349907516
 30
0.0
 11
4.7697388982
 21
5.6349907516
 31
0.0
  0
LINE
  5
CD
330
1F
100
AcDbEntity
  8
0
  6
Continuous
 62
     7
370
     0
100
AcDbLine
 10
4.7697388982
 20
6.1013178979
 30
0.0
 11
4.7697388982
 21
5.6349907516
 31
0.0
  0
LINE
  5
CE
330
1F
100
AcDbEntity
  8
0
  6
Continuous
 62
     7
370
     0
100
AcDbLine
 10
4.8137389032
 20
6.1013178979
 30
0.0
 11
4.7697388982
 21
6.1013178979
 31
0.0
  0
LINE
  5
CF
330
1F
100
AcDbEntity
  8
0
  6
Continuous
 62
     7
370
     0
100
AcDbLine
 10
4.8137389032
 20
6.1013178979
 30
0.0
 11
4.8137389032
 21
6.1026543275
 31
0.0
  0
LINE
  5
D0
330
1F
100
AcDbEntity
  8
0
  6
Continuous
 62
     7
370
     0
100
AcDbLine
 10
5.0397388916
 20
6.0625084212
 30
0.0
 11
5.0397388916
 21
6.0650047141
 31
0.0
  0
LINE
  5
D1
330
1F
100
AcDbEntity
  8
0
  6
Continuous
 62
     7
370
     0
100
AcDbLine
 10
5.3297388907
 20
6.0625084212
 30
0.0
 11
5.0397388916
 21
6.0625084212
 31
0.0
  0
LINE
  5
D2
330
1F
100
AcDbEntity
  8
0
  6
Continuous
 62
     7
370
     0
100
AcDbLine
 10
5.0397388916
 20
5.798040571
 30
0.0
 11
5.3297388907
 21
5.798040571
 31
0.0
  0
LINE
  5
D3
330
1F
100
AcDbEntity
  8
0
  6
Continuous
 62
     7
370
     0
100
AcDbLine
 10
5.0397388916
 20
5.7439139867
 30
0.0
 11
5.0397388916
 21
5.798040571
 31
0.0
  0
LINE
  5
D4
330
1F
100
AcDbEntity
  8
0
  6
Continuous
 62
     7
370
     0
100
AcDbLine
 10
5.3297388907
 20
5.7439139867
 30
0.0
 11
5.0397388916
 21
5.7439139867
 31
0.0
  0
LINE
  5
D5
330
1F
100
AcDbEntity
  8
0
  6
Continuous
 62
     7
370
     0
100
AcDbLine
 10
4.8427388949
 20
6.0650047141
 30
0.0
 11
4.8427388949
 21
5.6713039355
 31
0.0
  0
LINE
  5
D6
330
1F
100
AcDbEntity
  8
0
  6
Continuous
 62
     7
370
     0
100
AcDbLine
 10
5.0397388916
 20
5.7645444775
 30
0.0
 11
5.3297388907
 21
5.7645444775
 31
0.0
  0
LINE
  5
D7
330
1F
100
AcDbEntity
  8
0
  6
Continuous
 62
     7
370
     0
100
AcDbLine
 10
7.9029420432
 20
6.1181543217
 30
0.0
 11
7.9029420432
 21
5.6181543278
 31
0.0
  0
LINE
  5
D8
330
1F
100
AcDbEntity
  8
0
  6
Continuous
 62
     7
370
     0
100
AcDbLine
 10
7.9379421722
 20
6.0831543211
 30
0.0
 11
7.9379421722
 21
5.6531543285
 31
0.0
  0
LINE
  5
D9
330
1F
100
AcDbEntity
  8
0
  6
Continuous
 62
     7
370
     0
100
AcDbLine
 10
7.5979421132
 20
6.1181543217
 30
0.0
 11
7.5979421132
 21
5.6181543278
 31
0.0
  0
LINE
  5
DA
330
1F
100
AcDbEntity
  8
0
  6
Continuous
 62
     7
370
     0
100
AcDbLine
 10
7.5629421309
 20
6.0831543211
 30
0.0
 11
7.5629421309
 21
5.6531543285
 31
0.0
  0
LINE
  5
DB
330
1F
100
AcDbEntity
  8
0
  6
Continuous
 62
     7
370
     0
100
AcDbLine
 10
3.9771795739
 20
5.9791419701
 30
0.0
 11
3.9771795739
 21
5.734998333
 31
0.0
  0
LINE
  5
DC
330
1F
100
AcDbEntity
  8
0
  6
Continuous
 62
     7
370
     0
100
AcDbLine
 10
3.9771795739
 20
6.0013103165
 30
0.0
 11
3.9771795739
 21
5.9791419701
 31
0.0
  0
LINE
  5
DD
330
1F
100
AcDbEntity
  8
0
  6
Continuous
 62
     7
370
     0
100
AcDbLine
 10
4.0171795118
 20
5.9983911978
 30
0.0
 11
4.0171795118
 21
5.7119043198
 31
0.0
  0
LINE
  5
DE
330
1F
100
AcDbEntity
  8
0
  6
Continuous
 62
     7
370
     0
100
AcDbLine
 10
4.0171795118
 20
6.0244043298
 30
0.0
 11
4.0171795118
 21
5.9983911978
 31
0.0
  0
DIMENSION
  5
DF
330
1F
100
AcDbEntity
  8
0
  6
Continuous
 62
     7
370
     0
100
AcDbDimension
  2
*D3
 10
5.4909998851
 20
5.8996049281
 30
0.0
 11
3.7335766646
 21
5.0791832669
 31
0.0
 70
   163
  1
<>" (%%c2mm) HOLE\PFOR LEVER ARM\PWHEN LOCKING
 71
     1
 42
0.096
  3
SLDDIMSTYLE0
100
AcDbDiametricDimension
 15
5.4184779008
 25
5.8367037214
 35
0.0
 40
0.0
1001
ACAD
1000
DSTYLE
1002
{
1070
   284
1070
    12
1070
    78
1070
    12
1070
    41
1040
0.125
1070
    44
1040
0.07
1070
    42
1040
0.05
1070
   147
1040
0.1
1070
   140
1040
0.1111111111
1002
}
  0
DIMENSION
  5
F9
330
1F
100
AcDbEntity
  8
0
  6
Continuous
 62
     7
370
     0
100
AcDbDimension
  2
*D4
 10
7.9379421078
 20
7.7582237492
 30
0.0
 11
5.9389270925
 21
7.7582237492
 31
0.0
 70
   160
  1
<>"\P(103mm)\PNOMINAL
 71
     1
 42
4.041
  3
SLDDIMSTYLE1
100
AcDbAlignedDimension
 13
3.8969421078
 23
5.8681543248
 33
0.0
 14
7.9379421078
 24
5.8681543248
 34
0.0
 50
0.0
100
AcDbRotatedDimension
1001
ACAD
1000
DSTYLE
1002
{
1070
   284
1070
    12
1070
    78
1070
    12
1070
    41
1040
0.125
1070
    44
1040
0.07
1070
    42
1040
0.05
1070
   147
1040
0.1
1070
   140
1040
0.1111111111
1002
}
  0
DIMENSION
  5
112
330
1F
100
AcDbEntity
  8
0
  6
Continuous
 62
     7
370
     0
100
AcDbDimension
  2
*D5
 10
5.3297388929
 20
5.0791832669
 30
0.0
 11
6.1049338268
 21
5.0791832669
 31
0.0
 70
   160
  1
<>"\P(6mm)
 71
     1
 42
0.25
  3
SLDDIMSTYLE2
100
AcDbAlignedDimension
 13
5.5797388929
 23
5.4681543248
 33
0.0
 14
5.3297388929
 24
5.4681543248
 34
0.0
100
AcDbRotatedDimension
1001
ACAD
1000
DSTYLE
1002
{
1070
   284
1070
    12
1070
    78
1070
    12
1070
    41
1040
0.125
1070
    44
1040
0.07
1070
    42
1040
0.05
1070
   147
1040
0.1
1070
   140
1040
0.1111111111
1002
}
  0
DIMENSION
  5
12B
330
1F
100
AcDbEntity
  8
0
  6
Continuous
 62
     7
370
     0
100
AcDbDimension
  2
*D6
 10
4.7697388929
 20
4.6176352238
 30
0.0
 11
5.1804609349
 21
4.6176352238
 31
0.0
 70
   160
  1
<>"\P(21mm)
 71
     1
 42
0.81
  3
SLDDIMSTYLE2
100
AcDbAlignedDimension
 13
5.5797388929
 23
5.4681543248
 33
0.0
 14
4.7697388929
 24
5.6349907556
 34
0.0
100
AcDbRotatedDimension
1001
ACAD
1000
DSTYLE
1002
{
1070
   284
1070
    12
1070
    78
1070
    12
1070
    41
1040
0.125
1070
    44
1040
0.07
1070
    42
1040
0.05
1070
   147
1040
0.1
1070
   140
1040
0.1111111111
1002
}
  0
DIMENSION
  5
143
330
1F
100
AcDbEntity
  8
0
  6
Continuous
 62
     7
370
     0
100
AcDbDimension
  2
*D7
 10
3.8969421078
 20
7.2462198121
 30
0.0
 11
5.3059747377
 21
7.2462198121
 31
0.0
 70
   160
  1
<>"\P(73mm)\PNOMINAL
 71
     1
 42
2.8582374379
  3
SLDDIMSTYLE1
100
AcDbAlignedDimension
 13
6.7551795457
 23
6.0431543248
 33
0.0
 14
3.8969421078
 24
5.8681543248
 34
0.0
100
AcDbRotatedDimension
1001
ACAD
1000
DSTYLE
1002
{
1070
   284
1070
    12
1070
    78
1070
    12
1070
    41
1040
0.125
1070
    44
1040
0.07
1070
    42
1040
0.05
1070
   147
1040
0.1
1070
   140
1040
0.1111111111
1002
}
  0
DIMENSION
  5
15B
330
1F
100
AcDbEntity
  8
0
  6
Continuous
 62
     7
370
     0
100
AcDbDimension
  2
*D8
 10
3.341660994
 20
5.6713039348
 30
0.0
 11
3.341660994
 21
5.874491927
 31
0.0
 70
   160
  1
%%c<>"\P(%%c10mm)
 71
     1
 42
0.39370078
  3
SLDDIMSTYLE2
100
AcDbAlignedDimension
 13
4.8427388929
 23
6.0650047148
 33
0.0
 14
4.8427388929
 24
5.6713039348
 34
0.0
 50
90.0
100
AcDbRotatedDimension
1001
ACAD
1000
DSTYLE
1002
{
1070
   284
1070
    12
1070
    78
1070
    12
1070
    41
1040
0.125
1070
    44
1040
0.07
1070
    42
1040
0.05
1070
   147
1040
0.1
1070
   140
1040
0.1111111111
1002
}
  0
DIMENSION
  5
176
330
1F
100
AcDbEntity
  8
0
  6
Continuous
 62
     7
370
     0
100
AcDbDimension
  2
*D9
 10
2.7189378322
 20
5.6349907556
 30
0.0
 11
2.7189378322
 21
5.874491927
 31
0.0
 70
   160
  1
%%c<>"\P(%%c12mm)
 71
     1
 42
0.4663271384
  3
SLDDIMSTYLE2
100
AcDbAlignedDimension
 13
4.7697388929
 23
6.101317894
 33
0.0
 14
4.7697388929
 24
5.6349907556
 34
0.0
 50
90.0
100
AcDbRotatedDimension
1001
ACAD
1000
DSTYLE
1002
{
1070
   284
1070
    12
1070
    78
1070
    12
1070
    41
1040
0.125
1070
    44
1040
0.07
1070
    42
1040
0.05
1070
   147
1040
0.1
1070
   140
1040
0.1111111111
1002
}
  0
DIMENSION
  5
192
330
1F
100
AcDbEntity
  8
0
  6
Continuous
 62
     7
370
     0
100
AcDbDimension
  2
*D10
 10
8.4651258395
 20
5.6181543248
 30
0.0
 11
8.4651258395
 21
5.874491927
 31
0.0
 70
   160
  1
%%c<>"\P(%%c13mm)
 71
     1
 42
0.5
  3
SLDDIMSTYLE3
100
AcDbAlignedDimension
 13
7.9029421078
 23
6.1181543248
 33
0.0
 14
7.9029421078
 24
5.6181543248
 34
0.0
 50
90.0
100
AcDbRotatedDimension
1001
ACAD
1000
DSTYLE
1002
{
1070
   284
1070
    12
1070
    78
1070
    12
1070
    41
1040
0.125
1070
    44
1040
0.07
1070
    42
1040
0.05
1070
   147
1040
0.1
1070
   140
1040
0.1111111111
1002
}
  0
MTEXT
  5
1AC
330
1F
100
AcDbEntity
  8
0
  6
Continuous
 62
     7
370
     0
100
AcDbMText
 10
4.9481829577
 20
6.8505762065
 30
0.0
 40
0.0833333333
 41
0.0
 71
     1
 72
     1
  1
{5/16-18 THREAD}
  7
SLDTEXTSTYLE0
 73
     1
 44
1.0
  0
LEADER
  5
1AE
330
1F
100
AcDbEntity
  8
0
  6
Continuous
 62
     7
370
     0
100
AcDbLeader
  3
SLDDIMSTYLE4
 76
     3
 10
4.4287278066
 20
6.0244043248
 30
0.0
 10
4.678356176
 20
6.8118876486
 30
0.0
 10
4.928356176
 20
6.8118876486
 30
0.0
  0
INSERT
  5
1B4
102
{ACAD_REACTORS
330
1BB
102
}
330
1F
100
AcDbEntity
  8
0
  6
Continuous
 62
     7
370
     0
100
AcDbBlockReference
  2
SW_NOTE_2
 10
5.4700880121
 20
6.568960568
 30
0.0
  0
LEADER
  5
1BB
330
1F
100
AcDbEntity
  8
0
  6
Continuous
 62
     7
370
     0
100
AcDbLeader
  3
SLDDIMSTYLE5
 73
     2
 76
     3
 10
4.9726932371
 20
5.8883844958
 30
0.0
 10
5.2200880121
 20
6.568960568
 30
0.0
 10
5.4700880121
 20
6.568960568
 30
0.0
340
1B4
  0
INSERT
  5
1C1
102
{ACAD_REACTORS
330
1C2
102
}
330
1F
100
AcDbEntity
  8
0
  6
Continuous
 62
     7
370
     0
100
AcDbBlockReference
  2
SW_NOTE_3
 10
7.7447688576
 20
5.1478593791
 30
0.0
  0
LEADER
  5
1C2
330
1F
100
AcDbEntity
  8
0
  6
Continuous
 62
     7
370
     0
100
AcDbLeader
  3
SLDDIMSTYLE5
 73
     2
 76
     3
 10
7.1808370875
 20
5.9192438225
 30
0.0
 10
7.4947688576
 20
5.1478593791
 30
0.0
 10
7.7447688576
 20
5.1478593791
 30
0.0
340
1C1
  0
INSERT
  5
1CB
102
{ACAD_REACTORS
330
1CC
102
}
330
1F
100
AcDbEntity
  8
0
  6
Continuous
 62
     7
370
     0
100
AcDbBlockReference
  2
SW_NOTE_4
 10
8.7115860306
 20
7.1056530383
 30
0.0
  0
LEADER
  5
1CC
330
1F
100
AcDbEntity
  8
0
  6
Continuous
 62
     7
370
     0
100
AcDbLeader
  3
SLDDIMSTYLE5
 73
     2
 76
     3
 10
7.7248193217
 20
5.8701652038
 30
0.0
 10
8.4615860306
 20
7.1056530383
 30
0.0
 10
8.7115860306
 20
7.1056530383
 30
0.0
340
1CB
  0
INSERT
  5
1D4
330
1F
100
AcDbEntity
  8
0
  6
Continuous
 62
     7
370
     0
100
AcDbBlockReference
  2
SW_CENTERMARKSYMBOL_0
 10
5.4547388929
 20
5.8681543248
 30
0.0
  0
CIRCLE
  5
1D5
330
1F
100
AcDbEntity
  8
0
  6
Continuous
 62
     7
370
     0
100
AcDbCircle
 10
1.5334079107
 20
5.8681543248
 30
0.0
 40
0.3999999999999986
  0
CIRCLE
  5
1D6
330
1F
100
AcDbEntity
  8
0
  6
Continuous
 62
     7
370
     0
100
AcDbCircle
 10
1.5334079107
 20
5.8681543248
 30
0.0
 40
0.4249999999999998
  0
CIRCLE
  5
1D7
330
1F
100
AcDbEntity
  8
0
  6
Continuous
 62
     7
370
     0
100
AcDbCircle
 10
1.5334079107
 20
5.8681543248
 30
0.0
 40
0.0470000000000002
  0
CIRCLE
  5
1D8
330
1F
100
AcDbEntity
  8
0
  6
Continuous
 62
     7
370
     0
100
AcDbCircle
 10
1.5334079107
 20
5.8681543248
 30
0.0
 40
0.0525000000000002
  0
CIRCLE
  5
1D9
330
1F
100
AcDbEntity
  8
0
  6
Continuous
 62
     7
370
     0
100
AcDbCircle
 10
1.5334079107
 20
5.8681543248
 30
0.0
 40
0.0625000000000002
  0
LINE
  5
1DA
330
1F
100
AcDbEntity
  8
0
  6
Continuous
 62
     7
370
     0
100
AcDbLine
 10
1.5084079105
 20
5.7139172965
 30
0.0
 11
1.5084079105
 21
5.6349907516
 31
0.0
  0
LINE
  5
1DB
330
1F
100
AcDbEntity
  8
0
  6
Continuous
 62
     7
370
     0
100
AcDbLine
 10
1.5084079105
 20
6.1013178979
 30
0.0
 11
1.5084079105
 21
6.022391353
 31
0.0
  0
ARC
  5
1DC
330
1F
100
AcDbEntity
  8
0
  6
Continuous
 62
     7
370
     0
100
AcDbCircle
 10
1.5334079107
 20
5.8681543248
 30
0.0
 40
0.2344999999999999
100
AcDbArc
 50
96.1199224279
 51
263.8800775721
  0
LINE
  5
1DD
330
1F
100
AcDbEntity
  8
0
  6
Continuous
 62
     7
370
     0
100
AcDbLine
 10
1.5584079109
 20
5.6349907516
 30
0.0
 11
1.5584079109
 21
5.7139172965
 31
0.0
  0
LINE
  5
1DE
330
1F
100
AcDbEntity
  8
0
  6
Continuous
 62
     7
370
     0
100
AcDbLine
 10
1.5584079109
 20
6.022391353
 30
0.0
 11
1.5584079109
 21
6.1013178979
 31
0.0
  0
ARC
  5
1DF
330
1F
100
AcDbEntity
  8
0
  6
Continuous
 62
     7
370
     0
100
AcDbCircle
 10
1.5334079107
 20
5.8681543248
 30
0.0
 40
0.2345
100
AcDbArc
 50
276.1199224279
 51
83.8800775721
  0
ARC
  5
1E0
330
1F
100
AcDbEntity
  8
0
  6
Continuous
 62
     7
370
     0
100
AcDbCircle
 10
1.5334079107
 20
5.8681543248
 30
0.0
 40
0.2344999999999991
100
AcDbArc
 50
263.8800775721
 51
276.1199224279
  0
ARC
  5
1E1
330
1F
100
AcDbEntity
  8
0
  6
Continuous
 62
     7
370
     0
100
AcDbCircle
 10
1.5334079107
 20
5.8681543248
 30
0.0
 40
0.2345
100
AcDbArc
 50
83.8800775721
 51
96.1199224279
  0
ARC
  5
1E2
330
1F
100
AcDbEntity
  8
0
  6
Continuous
 62
     7
370
     0
100
AcDbCircle
 10
1.5334079107
 20
5.8681543248
 30
0.0
 40
0.0468749999999998
100
AcDbArc
 50
34.3366471284
 51
214.3366471284
  0
ARC
  5
1E3
330
1F
100
AcDbEntity
  8
0
  6
Continuous
 62
     7
370
     0
100
AcDbCircle
 10
1.5334079107
 20
5.8681543248
 30
0.0
 40
0.0468749999999998
100
AcDbArc
 50
214.3366471284
 51
34.3366471284
  0
CIRCLE
  5
1E4
330
1F
100
AcDbEntity
  8
0
  6
Continuous
 62
     7
370
     0
100
AcDbCircle
 10
1.5334079107
 20
5.8681543248
 30
0.0
 40
0.1331559892324155
  0
CIRCLE
  5
1E5
330
1F
100
AcDbEntity
  8
0
  6
Continuous
 62
     7
370
     0
100
AcDbCircle
 10
1.5334079107
 20
5.8681543248
 30
0.0
 40
0.1562500000000003
  0
CIRCLE
  5
1E6
330
1F
100
AcDbEntity
  8
0
  6
Continuous
 62
     7
370
     0
100
AcDbCircle
 10
1.5334079107
 20
5.8681543248
 30
0.0
 40
0.0627500000000005
  0
DIMENSION
  5
1E7
330
1F
100
AcDbEntity
  8
0
  6
Continuous
 62
     7
370
     0
100
AcDbDimension
  2
*D16
 10
1.7417537794
 20
5.4977261954
 30
0.0
 11
0.7058880882
 21
6.4821502571
 31
0.0
 70
   163
  1
<>"\P(%%c22mm)
 71
     1
 42
0.85
  3
SLDDIMSTYLE6
100
AcDbDiametricDimension
 15
1.325062042
 25
6.2385824541
 35
0.0
 40
0.0
1001
ACAD
1000
DSTYLE
1002
{
1070
   284
1070
    12
1070
    78
1070
    12
1070
    41
1040
0.125
1070
    44
1040
0.07
1070
    42
1040
0.05
1070
   147
1040
0.1
1070
   140
1040
0.1111111111
1002
}
  0
CIRCLE
  5
1FE
330
1F
100
AcDbEntity
  8
0
  6
Continuous
 62
     7
370
     0
100
AcDbCircle
 10
9.4761155908
 20
5.8681543248
 30
0.0
 40
0.4249999999999998
  0
CIRCLE
  5
1FF
330
1F
100
AcDbEntity
  8
0
  6
Continuous
 62
     7
370
     0
100
AcDbCircle
 10
9.4761155908
 20
5.8681543248
 30
0.0
 40
0.3999999999999986
  0
LINE
  5
200
330
1F
100
AcDbEntity
  8
0
  6
Continuous
 62
     7
370
     0
100
AcDbLine
 10
9.4270530914
 20
5.8964805719
 30
0.0
 11
9.4761155908
 21
5.9248068191
 31
0.0
  0
LINE
  5
201
330
1F
100
AcDbEntity
  8
0
  6
Continuous
 62
     7
370
     0
100
AcDbLine
 10
9.4270530914
 20
5.8398280776
 30
0.0
 11
9.4270530914
 21
5.8964805719
 31
0.0
  0
LINE
  5
202
330
1F
100
AcDbEntity
  8
0
  6
Continuous
 62
     7
370
     0
100
AcDbLine
 10
9.4761155908
 20
5.8115018305
 30
0.0
 11
9.4270530914
 21
5.8398280776
 31
0.0
  0
LINE
  5
203
330
1F
100
AcDbEntity
  8
0
  6
Continuous
 62
     7
370
     0
100
AcDbLine
 10
9.5251780903
 20
5.8398280776
 30
0.0
 11
9.4761155908
 21
5.8115018305
 31
0.0
  0
LINE
  5
204
330
1F
100
AcDbEntity
  8
0
  6
Continuous
 62
     7
370
     0
100
AcDbLine
 10
9.5251780903
 20
5.8964805719
 30
0.0
 11
9.5251780903
 21
5.8398280776
 31
0.0
  0
LINE
  5
205
330
1F
100
AcDbEntity
  8
0
  6
Continuous
 62
     7
370
     0
100
AcDbLine
 10
9.4761155908
 20
5.9248068191
 30
0.0
 11
9.5251780903
 21
5.8964805719
 31
0.0
  0
LINE
  5
206
330
1F
100
AcDbEntity
  8
0
  6
Continuous
 62
     7
370
     0
100
AcDbLine
 10
9.5151780921
 20
5.8456015809
 30
0.0
 11
9.5151780921
 21
5.8907070686
 31
0.0
  0
LINE
  5
207
330
1F
100
AcDbEntity
  8
0
  6
Continuous
 62
     7
370
     0
100
AcDbLine
 10
9.5251780903
 20
5.8964805719
 30
0.0
 11
9.5151780921
 21
5.8907070686
 31
0.0
  0
LINE
  5
208
330
1F
100
AcDbEntity
  8
0
  6
Continuous
 62
     7
370
     0
100
AcDbLine
 10
9.5151780921
 20
5.8456015809
 30
0.0
 11
9.5251780903
 21
5.8398280776
 31
0.0
  0
LINE
  5
209
330
1F
100
AcDbEntity
  8
0
  6
Continuous
 62
     7
370
     0
100
AcDbLine
 10
9.4761155908
 20
5.8230488371
 30
0.0
 11
9.5151780921
 21
5.8456015809
 31
0.0
  0
LINE
  5
20A
330
1F
100
AcDbEntity
  8
0
  6
Continuous
 62
     7
370
     0
100
AcDbLine
 10
9.4761155908
 20
5.8230488371
 30
0.0
 11
9.4761155908
 21
5.8115018305
 31
0.0
  0
LINE
  5
20B
330
1F
100
AcDbEntity
  8
0
  6
Continuous
 62
     7
370
     0
100
AcDbLine
 10
9.5151780921
 20
5.8907070686
 30
0.0
 11
9.4761155908
 21
5.9132598125
 31
0.0
  0
LINE
  5
20C
330
1F
100
AcDbEntity
  8
0
  6
Continuous
 62
     7
370
     0
100
AcDbLine
 10
9.4761155908
 20
5.9248068191
 30
0.0
 11
9.4761155908
 21
5.9132598125
 31
0.0
  0
LINE
  5
20D
330
1F
100
AcDbEntity
  8
0
  6
Continuous
 62
     7
370
     0
100
AcDbLine
 10
9.4370530896
 20
5.8456015809
 30
0.0
 11
9.4761155908
 21
5.8230488371
 31
0.0
  0
LINE
  5
20E
330
1F
100
AcDbEntity
  8
0
  6
Continuous
 62
     7
370
     0
100
AcDbLine
 10
9.4370530896
 20
5.8456015809
 30
0.0
 11
9.4270530914
 21
5.8398280776
 31
0.0
  0
LINE
  5
20F
330
1F
100
AcDbEntity
  8
0
  6
Continuous
 62
     7
370
     0
100
AcDbLine
 10
9.4370530896
 20
5.8907070686
 30
0.0
 11
9.4370530896
 21
5.8456015809
 31
0.0
  0
LINE
  5
210
330
1F
100
AcDbEntity
  8
0
  6
Continuous
 62
     7
370
     0
100
AcDbLine
 10
9.4270530914
 20
5.8964805719
 30
0.0
 11
9.4370530896
 21
5.8907070686
 31
0.0
  0
LINE
  5
211
330
1F
100
AcDbEntity
  8
0
  6
Continuous
 62
     7
370
     0
100
AcDbLine
 10
9.4761155908
 20
5.9132598125
 30
0.0
 11
9.4370530896
 21
5.8907070686
 31
0.0
  0
CIRCLE
  5
212
330
1F
100
AcDbEntity
  8
0
  6
Continuous
 62
     7
370
     0
100
AcDbCircle
 10
9.4761155908
 20
5.8681543248
 30
0.0
 40
0.2499999999999997
  0
CIRCLE
  5
213
330
1F
100
AcDbEntity
  8
0
  6
Continuous
 62
     7
370
     0
100
AcDbCircle
 10
9.4761155908
 20
5.8681543248
 30
0.0
 40
0.215
  0
CIRCLE
  5
214
330
1F
100
AcDbEntity
  8
0
  6
Continuous
 62
     7
370
     0
100
AcDbCircle
 10
9.4761155908
 20
5.8681543248
 30
0.0
 40
0.1100000000000011
  0
CIRCLE
  5
215
330
1F
100
AcDbEntity
  8
0
  6
Continuous
 62
     7
370
     0
100
AcDbCircle
 10
9.4761155908
 20
5.8681543248
 30
0.0
 40
0.0749999999999997
  0
MTEXT
  5
216
330
1F
100
AcDbEntity
  8
0
  6
Continuous
 62
     7
370
     0
100
AcDbMText
 10
10.0983307075
 20
5.3600803069
 30
0.1501639775
 40
0.0833333333
 41
0.0
 71
     1
 72
     1
  1
{5/64" HEX}
  7
SLDTEXTSTYLE0
 73
     1
 44
1.0
  0
LEADER
  5
217
330
1F
100
AcDbEntity
  8
0
  6
Continuous
 62
     7
370
     0
100
AcDbLeader
  3
SLDDIMSTYLE4
 76
     3
 10
9.5079185564
 20
5.8298632804
 30
0.0
 10
9.8285881442
 20
5.32142107
 30
0.0
 10
10.0785881442
 20
5.32142107
 30
0.0
  0
INSERT
  5
21F
330
1F
100
AcDbEntity
  8
0
  6
Continuous
 62
     7
370
     0
100
AcDbBlockReference
  2
SW_CENTERMARKSYMBOL_1
 10
9.4761155908
 20
5.8681543248
 30
0.0
  0
LINE
  5
220
330
1F
100
AcDbEntity
  8
0
  6
Continuous
 62
     7
370
     0
100
AcDbLine
 10
3.7631499159
 20
1.1930144031
 30
0.0
 11
3.7878946309
 21
1.2073038672
 31
0.0
  0
LINE
  5
221
330
1F
100
AcDbEntity
  8
0
  6
Continuous
 62
     7
370
     0
100
AcDbLine
 10
3.9398978801
 20
1.4706097473
 30
0.0
 11
3.9398978801
 21
1.4991840312
 31
0.0
  0
LINE
  5
222
330
1F
100
AcDbEntity
  8
0
  6
Continuous
 62
     7
370
     0
100
AcDbLine
 10
3.8881110263
 20
1.6136452329
 30
0.0
 11
3.6724434581
 21
1.7381474699
 31
0.0
  0
LINE
  5
223
330
1F
100
AcDbEntity
  8
0
  6
Continuous
 62
     7
370
     0
100
AcDbLine
 10
3.4224637749
 20
1.3051230387
 30
0.0
 11
3.6381313432
 21
1.1806208017
 31
0.0
  0
LINE
  5
224
330
1F
100
AcDbEntity
  8
0
  6
Continuous
 62
     7
370
     0
100
AcDbLine
 10
3.5474248853
 20
1.7257538684
 30
0.0
 11
3.5226801703
 21
1.7114644044
 31
0.0
  0
LINE
  5
225
330
1F
100
AcDbEntity
  8
0
  6
Continuous
 62
     7
370
     0
100
AcDbLine
 10
3.3706769212
 20
1.4481585242
 30
0.0
 11
3.3706769212
 21
1.4195842403
 31
0.0
  0
LINE
  5
226
330
1F
100
AcDbEntity
  8
0
  6
Continuous
 62
     7
370
     0
100
AcDbLine
 10
3.5506924955
 20
1.7276059563
 30
0.0
 11
3.5414369816
 21
1.7329490507
 31
0.0
  0
LINE
  5
227
330
1F
100
AcDbEntity
  8
0
  6
Continuous
 62
     7
370
     0
100
AcDbLine
 10
3.3614516098
 20
1.4211714602
 30
0.0
 11
3.3707071236
 21
1.4158283658
 31
0.0
  0
LINE
  5
228
330
1F
100
AcDbEntity
  8
0
  6
Continuous
 62
     7
370
     0
100
AcDbLine
 10
2.1027396109
 20
2.0086774497
 30
0.0
 11
2.1204144073
 21
2.0188842097
 31
0.0
  0
LINE
  5
229
330
1F
100
AcDbEntity
  8
0
  6
Continuous
 62
     7
370
     0
100
AcDbLine
 10
2.4032111499
 20
2.5087556146
 30
0.0
 11
2.4032111499
 21
2.5291658174
 31
0.0
  0
LINE
  5
22A
330
1F
100
AcDbEntity
  8
0
  6
Continuous
 62
     7
370
     0
100
AcDbLine
 10
1.748786681
 20
2.0692491383
 30
0.0
 11
1.8902080372
 21
1.9876083272
 31
0.0
  0
LINE
  5
22B
330
1F
100
AcDbEntity
  8
0
  6
Continuous
 62
     7
370
     0
100
AcDbLine
 10
2.3151734986
 20
2.7237498602
 30
0.0
 11
2.1737521424
 21
2.8053906714
 31
0.0
  0
LINE
  5
22C
330
1F
100
AcDbEntity
  8
0
  6
Continuous
 62
     7
370
     0
100
AcDbLine
 10
1.9612205687
 20
2.7843215489
 30
0.0
 11
1.9435457723
 21
2.7741147888
 31
0.0
  0
LINE
  5
22D
330
1F
100
AcDbEntity
  8
0
  6
Continuous
 62
     7
370
     0
100
AcDbLine
 10
1.6607490297
 20
2.2842433839
 30
0.0
 11
1.6607490297
 21
2.2638331811
 31
0.0
  0
LINE
  5
22E
330
1F
100
AcDbEntity
  8
0
  6
Continuous
 62
     7
370
     0
100
AcDbLine
 10
2.985453579
 20
2.0264880422
 30
0.0
 11
2.1914160206
 21
2.4848761676
 31
0.0
  0
LINE
  5
22F
330
1F
100
AcDbEntity
  8
0
  6
Continuous
 62
     7
370
     0
100
AcDbLine
 10
1.5652896142
 20
2.8463312482
 30
0.0
 11
1.093590778
 21
3.1186371902
 31
0.0
  0
LINE
  5
230
330
1F
100
AcDbEntity
  8
0
  6
Continuous
 62
     7
370
     0
100
AcDbLine
 10
0.937353476
 20
2.8479969207
 30
0.0
 11
1.382055949
 21
2.5912756475
 31
0.0
  0
LINE
  5
231
330
1F
100
AcDbEntity
  8
0
  6
Continuous
 62
     7
370
     0
100
AcDbLine
 10
2.0351787186
 20
2.2142358981
 30
0.0
 11
2.8292162771
 21
1.7558477727
 31
0.0
  0
LINE
  5
232
330
1F
100
AcDbEntity
  8
0
  6
Continuous
 62
     7
370
     0
100
AcDbLine
 10
1.0548836321
 20
3.1252601012
 30
0.0
 11
1.0207742746
 21
3.1206088444
 31
0.0
  0
LINE
  5
233
330
1F
100
AcDbEntity
  8
0
  6
Continuous
 62
     7
370
     0
100
AcDbLine
 10
0.8992318968
 20
2.9100684583
 30
0.0
 11
0.9122614591
 21
2.8782044824
 31
0.0
  0
LINE
  5
234
330
1F
100
AcDbEntity
  8
0
  6
Continuous
 62
     7
370
     0
100
AcDbLine
 10
3.582101684
 20
1.7903006659
 30
0.0
 11
3.1896574205
 21
2.016853917
 31
0.0
  0
LINE
  5
235
330
1F
100
AcDbEntity
  8
0
  6
Continuous
 62
     7
370
     0
100
AcDbLine
 10
2.9396777373
 20
1.5838294858
 30
0.0
 11
3.3321220009
 21
1.3572762347
 31
0.0
  0
LINE
  5
236
330
1F
100
AcDbEntity
  8
0
  6
Continuous
 62
     7
370
     0
100
AcDbLine
 10
3.0646388477
 20
2.0044603155
 30
0.0
 11
3.0398941328
 21
1.9901708515
 31
0.0
  0
LINE
  5
237
330
1F
100
AcDbEntity
  8
0
  6
Continuous
 62
     7
370
     0
100
AcDbLine
 10
2.8878908836
 20
1.7268649713
 30
0.0
 11
2.8878908836
 21
1.6982906874
 31
0.0
  0
LINE
  5
238
330
1F
100
AcDbEntity
  8
0
  6
Continuous
 62
     7
370
     0
100
AcDbLine
 10
3.0839308597
 20
2.014381752
 30
0.0
 11
3.063164706
 21
2.0263697974
 31
0.0
  0
LINE
  5
239
330
1F
100
AcDbEntity
  8
0
  6
Continuous
 62
     7
370
     0
100
AcDbLine
 10
2.8681805531
 20
1.688610741
 30
0.0
 11
2.8889467068
 21
1.6766226957
 31
0.0
  0
LINE
  5
23A
330
1F
100
AcDbEntity
  8
0
  6
Continuous
 62
     7
370
     0
100
AcDbLine
 10
2.9656502192
 20
2.0167027882
 30
0.0
 11
2.9515103821
 21
2.0085373802
 31
0.0
  0
LINE
  5
23B
330
1F
100
AcDbEntity
  8
0
  6
Continuous
 62
     7
370
     0
100
AcDbLine
 10
2.8277868072
 20
1.7942186405
 30
0.0
 11
2.8277868072
 21
1.7778904783
 31
0.0
  0
LINE
  5
23C
330
1F
100
AcDbEntity
  8
0
  6
Continuous
 62
     7
370
     0
100
AcDbLine
 10
1.8678899916
 20
2.718523791
 30
0.0
 11
1.697647936
 21
2.8168024378
 31
0.0
  0
LINE
  5
23D
330
1F
100
AcDbEntity
  8
0
  6
Continuous
 62
     7
370
     0
100
AcDbLine
 10
1.5008135435
 20
2.4758383252
 30
0.0
 11
1.6710555991
 21
2.3775596783
 31
0.0
  0
LINE
  5
23E
330
1F
100
AcDbEntity
  8
0
  6
Continuous
 62
     7
370
     0
100
AcDbLine
 10
2.2223067589
 20
2.4759436721
 30
0.0
 11
2.1828519062
 21
2.5280489016
 31
0.0
  0
LINE
  5
23F
330
1F
100
AcDbEntity
  8
0
  6
Continuous
 62
     7
370
     0
100
AcDbLine
 10
1.9935093068
 20
2.2000623615
 30
0.0
 11
2.058361947
 21
2.1919521571
 31
0.0
  0
LINE
  5
240
330
1F
100
AcDbEntity
  8
0
  6
Continuous
 62
     7
370
     0
100
AcDbLine
 10
1.7094001433
 20
2.8534908803
 30
0.0
 11
1.6648524161
 21
2.8792077358
 31
0.0
  0
LINE
  5
241
330
1F
100
AcDbEntity
  8
0
  6
Continuous
 62
     7
370
     0
100
AcDbLine
 10
1.4303714733
 20
2.4730308193
 30
0.0
 11
1.4749192005
 21
2.4473139638
 31
0.0
  0
LWPOLYLINE
  5
242
330
1F
100
AcDbEntity
  8
0
  6
Continuous
 62
     7
370
     0
100
AcDbPolyline
 90
       42
 70
   128
 43
0.0
 10
3.7643795598
 20
1.6019894926
 10
3.7506772689
 20
1.5935781036
 10
3.7370498171
 20
1.5839852707
 10
3.7235791616
 20
1.5732686864
 10
3.7103463164
 20
1.5614928014
 10
3.6974308656
 20
1.5487284373
 10
3.684910484
 20
1.5350523606
 10
3.6728604708
 20
1.5205468207
 10
3.6613532961
 20
1.5052990557
 10
3.6504581656
 20
1.4894007673
 10
3.6402406036
 20
1.4729475699
 10
3.63076206
 20
1.4560384148
 10
3.6220795396
 20
1.4387749958
 10
3.6142452604
 20
1.4212611369
 10
3.6073063384
 20
1.4036021688
 10
3.6013045053
 20
1.3859042944
 10
3.5962758567
 20
1.3682739508
 10
3.5922506356
 20
1.3508171691
 10
3.5892530501
 20
1.3336389363
 10
3.5873011279
 20
1.3168425644
 10
3.5864066083
 20
1.3005290688
 10
3.586574871
 20
1.2847965606
 10
3.5878049039
 20
1.2697396571
 10
3.5900893096
 20
1.2554489123
 10
3.5934143493
 20
1.2420102724
 10
3.597760026
 20
1.2295045588
 10
3.603100204
 20
1.2180069826
 10
3.6094027671
 20
1.2075866914
 10
3.6166298109
 20
1.1983063542
 10
3.624737871
 20
1.1902217838
 10
3.6336781846
 20
1.183381602
 10
3.6433969837
 20
1.1778269463
 10
3.6538358182
 20
1.1735912232
 10
3.6649319077
 20
1.1706999067
 10
3.6766185191
 20
1.1691703856
 10
3.6888253678
 20
1.1690118585
 10
3.7014790402
 20
1.170225279
 10
3.7145034357
 20
1.1728033493
 10
3.7278202241
 20
1.1767305646
 10
3.7413493166
 20
1.1819833062
 10
3.7550093477
 20
1.1885299834
 10
3.7631499159
 20
1.1930144031
  0
LWPOLYLINE
  5
243
330
1F
100
AcDbEntity
  8
0
  6
Continuous
 62
     7
370
     0
100
AcDbPolyline
 90
       22
 70
   128
 43
0.0
 10
3.9398978801
 20
1.4991840312
 10
3.9398845643
 20
1.5016818455
 10
3.9391848904
 20
1.5170881376
 10
3.9374263485
 20
1.5317730055
 10
3.9346195149
 20
1.5456481326
 10
3.9307812702
 20
1.5586300724
 10
3.925934698
 20
1.5706407498
 10
3.9201089462
 20
1.5816079314
 10
3.9133390515
 20
1.5914656591
 10
3.9056657289
 20
1.6001546474
 10
3.8971351266
 20
1.6076226398
 10
3.8877985487
 20
1.6138247228
 10
3.8777121464
 20
1.6187235964
 10
3.8669365807
 20
1.6222897982
 10
3.8555366569
 20
1.6245018806
 10
3.8435809356
 20
1.6253465399
 10
3.8311413199
 20
1.6248186962
 10
3.8182926231
 20
1.6229215241
 10
3.8051121188
 20
1.6196664333
 10
3.791679076
 20
1.6150730004
 10
3.7780742828
 20
1.6091688507
 10
3.7643795598
 20
1.6019894926
  0
LWPOLYLINE
  5
244
330
1F
100
AcDbEntity
  8
0
  6
Continuous
 62
     7
370
     0
100
AcDbPolyline
 90
       76
 70
   128
 43
0.0
 10
3.7889521247
 20
1.5590224441
 10
3.7762272799
 20
1.5511654338
 10
3.7635840999
 20
1.5421277827
 10
3.7511112675
 20
1.5319728835
 10
3.7388962706
 20
1.5207719654
 10
3.7270247888
 20
1.508603595
 10
3.7155800918
 20
1.4955531245
 10
3.704642456
 20
1.4817120936
 10
3.6942886011
 20
1.4671775872
 10
3.684591152
 20
1.4520515545
 10
3.6756181292
 20
1.4364400936
 10
3.667432472
 20
1.4204527078
 10
3.6600915971
 20
1.4042015371
 10
3.6536469953
 20
1.3878005718
 10
3.6481438709
 20
1.3713648528
 10
3.6436208243
 20
1.355009665
 10
3.6401095816
 20
1.3388497282
 10
3.6376347714
 20
1.3229983927
 10
3.6362137529
 20
1.3075668444
 10
3.6358564935
 20
1.2926633243
 10
3.636565499
 20
1.2783923701
 10
3.6383357963
 20
1.2648540821
 10
3.6411549681
 20
1.2521434218
 10
3.6450032399
 20
1.2403495453
 10
3.6498536188
 20
1.2295551781
 10
3.6556720829
 20
1.2198360351
 10
3.6624178199
 20
1.211260289
 10
3.6700435132
 20
1.2038880924
 10
3.6784956742
 20
1.1977711562
 10
3.6877150169
 20
1.1929523861
 10
3.6976368743
 20
1.1894655824
 10
3.7081916517
 20
1.1873352025
 10
3.7193053149
 20
1.1865761895
 10
3.7308999095
 20
1.1871938674
 10
3.7428941079
 20
1.1891839035
 10
3.7552037793
 20
1.1925323391
 10
3.7677425802
 20
1.1972156875
 10
3.78042256
 20
1.2032010983
 10
3.7931547776
 20
1.2104465882
 10
3.8058499258
 20
1.2189013351
 10
3.8184189572
 20
1.2285060352
 10
3.830773709
 20
1.2391933184
 10
3.8428275217
 20
1.2508882211
 10
3.8544958462
 20
1.2635087119
 10
3.8656968377
 20
1.2769662672
 10
3.8763519294
 20
1.2911664918
 10
3.8863863833
 20
1.3060097815
 10
3.8957298151
 20
1.3213920211
 10
3.9043166872
 20
1.3372053154
 10
3.9120867689
 20
1.3533387454
 10
3.9189855587
 20
1.3696791467
 10
3.9249646665
 20
1.3861119031
 10
3.9299821532
 20
1.4025217508
 10
3.9340028246
 20
1.4187935862
 10
3.9369984788
 20
1.4348132744
 10
3.9389481033
 20
1.4504684485
 10
3.9398380229
 20
1.4656492989
 10
3.9396619954
 20
1.4802493428
 10
3.9384212556
 20
1.4941661713
 10
3.9361245064
 20
1.507302168
 10
3.9327878578
 20
1.5195651931
 10
3.928434714
 20
1.5308692305
 10
3.9230956092
 20
1.5411349904
 10
3.9168079934
 20
1.5502904659
 10
3.9096159696
 20
1.5582714379
 10
3.9015699848
 20
1.5650219256
 10
3.8927264757
 20
1.5704945793
 10
3.8831474732
 20
1.5746510121
 10
3.8729001672
 20
1.5774620696
 10
3.8620564351
 20
1.5789080344
 10
3.8506923379
 20
1.578978764
 10
3.8388875866
 20
1.5776737623
 10
3.8267249831
 20
1.575002183
 10
3.8142898392
 20
1.5709827653
 10
3.8016693786
 20
1.5656437024
 10
3.7889521247
 20
1.5590224441
  0
LWPOLYLINE
  5
245
330
1F
100
AcDbEntity
  8
0
  6
Continuous
 62
     7
370
     0
100
AcDbPolyline
 90
       32
 70
   128
 43
0.0
 10
3.5487119916
 20
1.7264917297
 10
3.5350097006
 20
1.7180803407
 10
3.5213822488
 20
1.7084875078
 10
3.5079115933
 20
1.6977709234
 10
3.4946787482
 20
1.6859950385
 10
3.4817632973
 20
1.6732306744
 10
3.4692429157
 20
1.6595545977
 10
3.4571929025
 20
1.6450490577
 10
3.4456857279
 20
1.6298012927
 10
3.4347905973
 20
1.6139030044
 10
3.4245730354
 20
1.5974498069
 10
3.4150944917
 20
1.5805406519
 10
3.4064119714
 20
1.5632772328
 10
3.3985776921
 20
1.545763374
 10
3.3916387702
 20
1.5281044058
 10
3.3856369371
 20
1.5104065314
 10
3.3806082885
 20
1.4927761879
 10
3.3765830674
 20
1.4753194061
 10
3.3735854818
 20
1.4581411734
 10
3.3716335597
 20
1.4413448015
 10
3.3707390401
 20
1.4250313058
 10
3.3709073027
 20
1.4092987977
 10
3.3721373356
 20
1.3942418942
 10
3.3744217413
 20
1.3799511494
 10
3.3777467811
 20
1.3665125094
 10
3.3820924577
 20
1.3540067959
 10
3.3874326358
 20
1.3425092197
 10
3.3937351989
 20
1.3320889285
 10
3.4009622426
 20
1.3228085912
 10
3.4090703027
 20
1.3147240209
 10
3.4180106163
 20
1.3078838391
 10
3.4224637749
 20
1.3051230387
  0
ARC
  5
246
330
1F
100
AcDbEntity
  8
0
  6
Continuous
 62
     7
370
     0
100
AcDbCircle
 10
3.6224577594
 20
1.6252444942
 30
0.0
 40
0.1252574986729589
100
AcDbArc
 50
66.4803521881
 51
126.0685896168
  0
LWPOLYLINE
  5
247
330
1F
100
AcDbEntity
  8
0
  6
Continuous
 62
     7
370
     0
100
AcDbPolyline
 90
       55
 70
   128
 43
0.0
 10
3.7884236071
 20
1.4729827245
 10
3.7793901826
 20
1.4672347545
 10
3.7704714319
 20
1.4603455697
 10
3.761787966
 20
1.4524083345
 10
3.7534572138
 20
1.4435303864
 10
3.7455918344
 20
1.4338317843
 10
3.7382981937
 20
1.4234436853
 10
3.7316749255
 20
1.4125065706
 10
3.7258115982
 20
1.4011683458
 10
3.7207875034
 20
1.3895823411
 10
3.7166705831
 20
1.3779052372
 10
3.7135165118
 20
1.366294947
 10
3.7113679428
 20
1.3549084797
 10
3.7102539319
 20
1.3438998177
 10
3.710189544
 20
1.3334178344
 10
3.71117565
 20
1.3236042805
 10
3.7131989145
 20
1.3145918675
 10
3.7162319763
 20
1.306502473
 10
3.7202338183
 20
1.2994454919
 10
3.7251503227
 20
1.293516358
 10
3.730915002
 20
1.2887952526
 10
3.737449899
 20
1.2853460205
 10
3.7446666402
 20
1.2832153066
 10
3.7524676317
 20
1.2824319253
 10
3.7607473785
 20
1.2830064705
 10
3.7693939111
 20
1.2849311722
 10
3.7782903001
 20
1.2881800024
 10
3.7873162371
 20
1.2927090261
 10
3.7963496616
 20
1.2984569961
 10
3.8052684123
 20
1.3053461809
 10
3.8139518782
 20
1.3132834161
 10
3.8222826304
 20
1.3221613642
 10
3.8301480098
 20
1.3318599663
 10
3.8374416505
 20
1.3422480653
 10
3.8440649187
 20
1.35318518
 10
3.849928246
 20
1.3645234048
 10
3.8549523408
 20
1.3761094095
 10
3.8590692611
 20
1.3877865134
 10
3.8622233324
 20
1.3993968036
 10
3.8643719014
 20
1.4107832709
 10
3.8654859123
 20
1.4217919329
 10
3.8655503002
 20
1.4322739162
 10
3.8645641942
 20
1.4420874701
 10
3.8625409297
 20
1.4510998831
 10
3.8595078679
 20
1.4591892776
 10
3.8555060259
 20
1.4662462587
 10
3.8505895215
 20
1.4721753926
 10
3.8448248422
 20
1.476896498
 10
3.8382899452
 20
1.4803457301
 10
3.831073204
 20
1.482476444
 10
3.8232722125
 20
1.4832598253
 10
3.8149924657
 20
1.4826852801
 10
3.8063459331
 20
1.4807605784
 10
3.7974495441
 20
1.4775117482
 10
3.7884236071
 20
1.4729827245
  0
LWPOLYLINE
  5
248
330
1F
100
AcDbEntity
  8
0
  6
Continuous
 62
     7
370
     0
100
AcDbPolyline
 90
       32
 70
   128
 43
0.0
 10
3.711280067
 20
1.3542952103
 10
3.7121313173
 20
1.3508624497
 10
3.7147250612
 20
1.3441514687
 10
3.7183040106
 20
1.3385190393
 10
3.7227953084
 20
1.3340798214
 10
3.7281075248
 20
1.3309241848
 10
3.7341325183
 20
1.3291163691
 10
3.7407476375
 20
1.3286931762
 10
3.7478182176
 20
1.329663221
 10
3.755200322
 20
1.3320067564
 10
3.7627436722
 20
1.3356760746
 10
3.7702947076
 20
1.340596479
 10
3.7776997107
 20
1.3466678042
 10
3.7848079371
 20
1.3537664557
 10
3.7914746837
 20
1.3617479253
 10
3.7975642348
 20
1.3704497333
 10
3.8029526248
 20
1.379694736
 10
3.8075301615
 20
1.3892947318
 10
3.8112036596
 20
1.3990542926
 10
3.8138983371
 20
1.4087747417
 10
3.8155593382
 20
1.4182581988
 10
3.8161528497
 20
1.4273116082
 10
3.8156667894
 20
1.4357506685
 10
3.8141110522
 20
1.4434035848
 10
3.8115173083
 20
1.4501145658
 10
3.8079383589
 20
1.4557469952
 10
3.8034470611
 20
1.4601862131
 10
3.7981348447
 20
1.4633418497
 10
3.7921098512
 20
1.4651496654
 10
3.785494732
 20
1.4655728584
 10
3.7784241519
 20
1.4646028135
 10
3.7742930321
 20
1.4634486944
  0
ARC
  5
249
330
1F
100
AcDbEntity
  8
0
  6
Continuous
 62
     7
370
     0
100
AcDbCircle
 10
3.7109572618
 20
1.4271865531
 30
0.0
 40
0.3409723741116928
100
AcDbArc
 50
123.5164905887
 51
176.3489727933
  0
LWPOLYLINE
  5
24A
330
1F
100
AcDbEntity
  8
0
  6
Continuous
 62
     7
370
     0
100
AcDbPolyline
 90
       81
 70
   128
 43
0.0
 10
2.1026907679
 20
2.0086492486
 10
2.0848877518
 20
1.9989812637
 10
2.0671472694
 20
1.9905661929
 10
2.0495316349
 20
1.9834335944
 10
2.0321027237
 20
1.9776085219
 10
2.0149217556
 20
1.973111436
 10
1.9980490794
 20
1.969958133
 10
1.9815439609
 20
1.9681596889
 10
1.9654643751
 20
1.9677224209
 10
1.9498668019
 20
1.9686478648
 10
1.9348060284
 20
1.97093277
 10
1.9203349563
 20
1.9745691108
 10
1.9065044156
 20
1.9795441142
 10
1.8933629866
 20
1.9858403055
 10
1.880956829
 20
1.993435569
 10
1.8693295201
 20
2.0023032261
 10
1.858521901
 20
2.0124121288
 10
1.8485719339
 20
2.0237267693
 10
1.8395145685
 20
2.0362074044
 10
1.8313816192
 20
2.0498101954
 10
1.8242016531
 20
2.0644873622
 10
1.8179998902
 20
2.0801873505
 10
1.8127981143
 20
2.0968550135
 10
1.808614597
 20
2.1144318057
 10
1.805464033
 20
2.1328559877
 10
1.8033574887
 20
2.152062844
 10
1.8023023635
 20
2.1719849098
 10
1.8023023635
 20
2.1925522081
 10
1.8033574887
 20
2.2136924956
 10
1.805464033
 20
2.2353315161
 10
1.808614597
 20
2.257393262
 10
1.8127981143
 20
2.2798002403
 10
1.8179998902
 20
2.302473746
 10
1.8242016531
 20
2.3253341373
 10
1.8313816192
 20
2.3483011164
 10
1.8395145685
 20
2.371294011
 10
1.8485719339
 20
2.3942320575
 10
1.858521901
 20
2.4170346854
 10
1.8693295201
 20
2.4396217995
 10
1.880956829
 20
2.4619140618
 10
1.8933629866
 20
2.4838331699
 10
1.9065044156
 20
2.5053021322
 10
1.9203349563
 20
2.526245538
 10
1.9348060284
 20
2.546589823
 10
1.9498668019
 20
2.5662635271
 10
1.9654643751
 20
2.5851975457
 10
1.9815439609
 20
2.6033253724
 10
1.9980490794
 20
2.6205833325
 10
2.0149217556
 20
2.6369108068
 10
2.0321027237
 20
2.6522504444
 10
2.0495316349
 20
2.6665483643
 10
2.0671472694
 20
2.6797543446
 10
2.0848877518
 20
2.6918219988
 10
2.1026907679
 20
2.7027089387
 10
2.120493784
 20
2.7123769237
 10
2.1382342664
 20
2.7207919945
 10
2.155849901
 20
2.7279245929
 10
2.1732788121
 20
2.7337496655
 10
2.1904597802
 20
2.7382467513
 10
2.2073324564
 20
2.7414000544
 10
2.2238375749
 20
2.7431984984
 10
2.2399171608
 20
2.7436357665
 10
2.255514734
 20
2.7427103226
 10
2.2705755074
 20
2.7404254173
 10
2.2850465795
 20
2.7367890766
 10
2.2988771203
 20
2.7318140732
 10
2.3120185493
 20
2.7255178819
 10
2.3244247068
 20
2.7179226184
 10
2.3360520158
 20
2.7090549613
 10
2.3468596349
 20
2.6989460585
 10
2.3568096019
 20
2.6876314181
 10
2.3658669673
 20
2.675150783
 10
2.3739999166
 20
2.6615479919
 10
2.3811798827
 20
2.6468708252
 10
2.3873816457
 20
2.6311708369
 10
2.3925834215
 20
2.6145031738
 10
2.3967669388
 20
2.5969263817
 10
2.3999175028
 20
2.5785021997
 10
2.4020240471
 20
2.5592953434
 10
2.4030791723
 20
2.5393732776
 10
2.4032111499
 20
2.5291658174
  0
LWPOLYLINE
  5
24B
330
1F
100
AcDbEntity
  8
0
  6
Continuous
 62
     7
370
     0
100
AcDbPolyline
 90
       85
 70
   128
 43
0.0
 10
2.1203684374
 20
2.0188576675
 10
2.1031252221
 20
2.0095108883
 10
2.0859461526
 20
2.0014139138
 10
2.0688951363
 20
1.9945968654
 10
2.052035604
 20
1.989085103
 10
2.0354302743
 20
1.9848991307
 10
2.0191409203
 20
1.9820545205
 10
2.0032281392
 20
1.9805618547
 10
1.9877511277
 20
1.980426686
 10
1.9727674613
 20
1.9816495172
 10
1.9583328803
 20
1.9842257993
 10
1.9445010822
 20
1.9881459485
 10
1.9313235221
 20
1.9933953815
 10
1.9188492216
 20
1.99995457
 10
1.9071245858
 20
2.0077991134
 10
1.8961932312
 20
2.0168998296
 10
1.886095823
 20
2.0272228633
 10
1.8768699243
 20
2.038729812
 10
1.8685498561
 20
2.0513778693
 10
1.8611665696
 20
2.0651199834
 10
1.854747531
 20
2.0799050329
 10
1.8493166197
 20
2.0956780163
 10
1.8448940389
 20
2.1123802572
 10
1.841496241
 20
2.1299496221
 10
1.8391358659
 20
2.1483207518
 10
1.8378216945
 20
2.1674253045
 10
1.8375586156
 20
2.18719221
 10
1.8383476077
 20
2.2075479342
 10
1.8401857359
 20
2.2284167523
 10
1.8430661621
 20
2.2497210311
 10
1.846978171
 20
2.2713815171
 10
1.8519072096
 20
2.2933176321
 10
1.8578349417
 20
2.3154477721
 10
1.8647393156
 20
2.3376896116
 10
1.8725946466
 20
2.3599604096
 10
1.8813717124
 20
2.3821773171
 10
1.8910378617
 20
2.4042576858
 10
1.9015571358
 20
2.4261193754
 10
1.9128904023
 20
2.4476810588
 10
1.9249955007
 20
2.4688625252
 10
1.9378273993
 20
2.4895849782
 10
1.9513383626
 20
2.5097713288
 10
1.9654781288
 20
2.5293464825
 10
1.9801940971
 20
2.5482376186
 10
1.9954315232
 20
2.5663744606
 10
2.0111337229
 20
2.5836895383
 10
2.0272422828
 20
2.6001184386
 10
2.0436972782
 20
2.6156000448
 10
2.0604374953
 20
2.6300767644
 10
2.0774006594
 20
2.6434947429
 10
2.0945236665
 20
2.6558040647
 10
2.1117428178
 20
2.6669589382
 10
2.128994057
 20
2.6769178666
 10
2.1462132084
 20
2.6856438021
 10
2.1633362155
 20
2.6931042835
 10
2.1802993796
 20
2.6992715574
 10
2.1970395967
 20
2.7041226811
 10
2.2134945921
 20
2.7076396081
 10
2.229603152
 20
2.7098092552
 10
2.2453053516
 20
2.7106235513
 10
2.2605427777
 20
2.710079467
 10
2.2752587461
 20
2.7081790264
 10
2.2893985123
 20
2.7049292992
 10
2.3029094756
 20
2.7003423747
 10
2.3157413742
 20
2.6944353165
 10
2.3278464726
 20
2.6872300992
 10
2.3391797391
 20
2.6787535268
 10
2.3496990132
 20
2.6690371326
 10
2.3593651625
 20
2.6581170623
 10
2.3681422283
 20
2.6460339393
 10
2.3759975593
 20
2.6328327134
 10
2.3829019332
 20
2.6185624943
 10
2.3888296652
 20
2.603276368
 10
2.3937587039
 20
2.5870312
 10
2.3976707128
 20
2.5698874232
 10
2.400551139
 20
2.5519088138
 10
2.4023892672
 20
2.5331622533
 10
2.4031782593
 20
2.5137174801
 10
2.4029151804
 20
2.4936468301
 10
2.401601009
 20
2.4730249674
 10
2.3992406339
 20
2.4519286066
 10
2.395842836
 20
2.4304362278
 10
2.3914202552
 20
2.4086277838
 10
2.3859893439
 20
2.3865844036
 10
2.3826120284
 20
2.3745010617
  0
ARC
  5
24C
330
1F
100
AcDbEntity
  8
0
  6
Continuous
 62
     7
370
     0
100
AcDbCircle
 10
1.8738546629
 20
2.4338844333
 30
0.0
 40
0.4828933617104935
100
AcDbArc
 50
300.6966867218
 51
316.8877671985
  0
LWPOLYLINE
  5
24D
330
1F
100
AcDbEntity
  8
0
  6
Continuous
 62
     7
370
     0
100
AcDbPolyline
 90
       55
 70
   128
 43
0.0
 10
1.748786681
 20
2.0692491383
 10
1.7395354728
 20
2.0750763802
 10
1.7279081638
 20
2.0839440373
 10
1.7171005447
 20
2.09405294
 10
1.7071505777
 20
2.1053675804
 10
1.6980932123
 20
2.1178482155
 10
1.6899602629
 20
2.1314510066
 10
1.6827802969
 20
2.1461281733
 10
1.6765785339
 20
2.1618281616
 10
1.6713767581
 20
2.1784958247
 10
1.6671932408
 20
2.1960726168
 10
1.6640426768
 20
2.2144967989
 10
1.6619361325
 20
2.2337036552
 10
1.6608810073
 20
2.253625721
 10
1.6608810073
 20
2.2741930193
 10
1.6619361325
 20
2.2953333068
 10
1.6640426768
 20
2.3169723273
 10
1.6671932408
 20
2.3390340731
 10
1.6713767581
 20
2.3614410515
 10
1.6765785339
 20
2.3841145572
 10
1.6827802969
 20
2.4069749485
 10
1.6899602629
 20
2.4299419276
 10
1.6980932123
 20
2.4529348222
 10
1.7071505777
 20
2.4758728687
 10
1.7171005447
 20
2.4986754966
 10
1.7279081638
 20
2.5212626107
 10
1.7395354728
 20
2.543554873
 10
1.7519416303
 20
2.5654739811
 10
1.7650830593
 20
2.5869429434
 10
1.7789136001
 20
2.6078863492
 10
1.7933846722
 20
2.6282306342
 10
1.8084454456
 20
2.6479043383
 10
1.8240430188
 20
2.6668383569
 10
1.8401226047
 20
2.6849661836
 10
1.8566277232
 20
2.7022241437
 10
1.8735003994
 20
2.7185516179
 10
1.8906813675
 20
2.7338912556
 10
1.9081102786
 20
2.7481891755
 10
1.9257259132
 20
2.7613951558
 10
1.9434663956
 20
2.77346281
 10
1.9612694117
 20
2.7843497499
 10
1.9790724278
 20
2.7940177349
 10
1.9968129102
 20
2.8024328057
 10
2.0144285447
 20
2.8095654041
 10
2.0318574559
 20
2.8153904767
 10
2.049038424
 20
2.8198875625
 10
2.0659111002
 20
2.8230408655
 10
2.0824162186
 20
2.8248393096
 10
2.0984958045
 20
2.8252765777
 10
2.1140933777
 20
2.8243511337
 10
2.1291541511
 20
2.8220662285
 10
2.1436252233
 20
2.8184298878
 10
2.157455764
 20
2.8134548843
 10
2.170597193
 20
2.8071586931
 10
2.1737521424
 20
2.8053906714
  0
LWPOLYLINE
  5
24E
330
1F
100
AcDbEntity
  8
0
  6
Continuous
 62
     7
370
     0
100
AcDbPolyline
 90
       20
 70
   128
 43
0.0
 10
1.9980389643
 20
2.763123139
 10
1.9887438136
 20
2.7553235919
 10
1.9842892191
 20
2.7458105702
 10
1.9851727034
 20
2.7358024136
 10
1.991349814
 20
2.7266647715
 10
2.0020819577
 20
2.7196593317
 10
2.0160980986
 20
2.7155778865
 10
2.0319042288
 20
2.7147076364
 10
2.0478050687
 20
2.7169507785
 10
2.0619343593
 20
2.7218498735
 10
2.0726312523
 20
2.7286846309
 10
2.0787638375
 20
2.7367063901
 10
2.0796864403
 20
2.7452374986
 10
2.0752301314
 20
2.7535706731
 10
2.0658958731
 20
2.7609173497
 10
2.0528174566
 20
2.7665141216
 10
2.0374324882
 20
2.7697007033
 10
2.0213595395
 20
2.7699227108
 10
2.0064338705
 20
2.7668793567
 10
1.9980389643
 20
2.763123139
  0
LWPOLYLINE
  5
24F
330
1F
100
AcDbEntity
  8
0
  6
Continuous
 62
     7
370
     0
100
AcDbPolyline
 90
       20
 70
   128
 43
0.0
 10
1.7333825345
 20
2.2633167587
 10
1.7219787392
 20
2.2674648808
 10
1.71151066
 20
2.2665640054
 10
1.7032842881
 20
2.2607936135
 10
1.6984604693
 20
2.2508751535
 10
1.697759282
 20
2.2380775037
 10
1.7012307889
 20
2.2238956265
 10
1.708379152
 20
2.2097706462
 10
1.7182732363
 20
2.1971231095
 10
1.7295830631
 20
2.1873379235
 10
1.7408505833
 20
2.1814926715
 10
1.75086206
 20
2.1801929565
 10
1.7587121632
 20
2.1836606401
 10
1.7637035538
 20
2.1916890496
 10
1.7654008253
 20
2.2034475906
 10
1.7637078473
 20
2.2175730665
 10
1.7587731057
 20
2.2324903922
 10
1.7509293544
 20
2.2465205505
 10
1.7408323732
 20
2.2579253036
 10
1.7333825345
 20
2.2633167587
  0
LWPOLYLINE
  5
250
330
1F
100
AcDbEntity
  8
0
  6
Continuous
 62
     7
370
     0
100
AcDbPolyline
 90
       53
 70
   128
 43
0.0
 10
2.104676685
 20
2.1741155761
 10
2.0958108766
 20
2.1704700698
 10
2.0837658971
 20
2.1666002238
 10
2.0719994849
 20
2.1640917152
 10
2.0606011897
 20
2.1629636353
 10
2.0496577593
 20
2.1632245694
 10
2.0392524799
 20
2.1648725317
 10
2.0294645419
 20
2.1678949801
 10
2.0203684374
 20
2.172268912
 10
2.0120333934
 20
2.1779610392
 10
2.0045228444
 20
2.1849280411
 10
1.9978939503
 20
2.1931168946
 10
1.992197161
 20
2.2024652777
 10
1.9874758326
 20
2.2129020434
 10
1.9837658971
 20
2.2243477616
 10
1.9810955894
 20
2.2367153237
 10
1.9794852322
 20
2.2499106048
 10
1.9789470812
 20
2.2638331811
 10
1.9794852322
 20
2.2783770932
 10
1.9810955894
 20
2.2934316533
 10
1.9837658971
 20
2.3088822869
 10
1.9874758326
 20
2.3246114056
 10
1.992197161
 20
2.3404993011
 10
1.9978939503
 20
2.356425057
 10
2.0045228444
 20
2.3722674687
 10
2.0120333934
 20
2.3879059659
 10
2.0203684374
 20
2.4032215301
 10
2.0294645419
 20
2.4180976007
 10
2.0392524799
 20
2.4324209618
 10
2.0496577593
 20
2.446082604
 10
2.0606011897
 20
2.4589785538
 10
2.0719994849
 20
2.4710106654
 10
2.0837658971
 20
2.4820873672
 10
2.0958108766
 20
2.4921243586
 10
2.1080427541
 20
2.5010452523
 10
2.1203684374
 20
2.5087821547
 10
2.1326941208
 20
2.5152761833
 10
2.1449259982
 20
2.5204779148
 10
2.1569709778
 20
2.5243477608
 10
2.16873739
 20
2.5268562693
 10
2.1801356852
 20
2.5279843492
 10
2.1910791156
 20
2.5277234151
 10
2.201484395
 20
2.5260754529
 10
2.211272333
 20
2.5230530045
 10
2.2203684374
 20
2.5186790725
 10
2.2287034815
 20
2.5129869454
 10
2.2362140305
 20
2.5060199435
 10
2.2428429246
 20
2.4978310899
 10
2.2485397139
 20
2.4884827069
 10
2.2532610423
 20
2.4780459412
 10
2.2569709778
 20
2.4666002229
 10
2.2596412855
 20
2.4542326609
 10
2.260913987
 20
2.4447558456
  0
ARC
  5
251
330
1F
100
AcDbEntity
  8
0
  6
Continuous
 62
     7
370
     0
100
AcDbCircle
 10
2.2942007956
 20
2.2451671343
 30
0.0
 40
0.6346558855512975
100
AcDbArc
 50
123.5395212558
 51
176.4700221807
  0
LWPOLYLINE
  5
252
330
1F
100
AcDbEntity
  8
0
  6
Continuous
 62
     7
370
     0
100
AcDbPolyline
 90
       20
 70
   128
 43
0.0
 10
0.9544294368
 20
3.0544215804
 10
0.9456968409
 20
3.0419590729
 10
0.9376362191
 20
3.0289318107
 10
0.9303251997
 20
3.0154652535
 10
0.9238341917
 20
3.0016890916
 10
0.9182257071
 20
2.9877359969
 10
0.9135537588
 20
2.9737403454
 10
0.90986334
 20
2.9598369229
 10
0.9071899916
 20
2.9461596268
 10
0.9055594593
 20
2.9328401772
 10
0.9049874461
 20
2.9200068474
 10
0.9054794608
 20
2.9077832296
 10
0.907030765
 20
2.8962870438
 10
0.9096264188
 20
2.8856290045
 10
0.9132414246
 20
2.8759117546
 10
0.917840968
 20
2.8672288765
 10
0.9233807527
 20
2.859663991
 10
0.9298074278
 20
2.8532899521
 10
0.9370591008
 20
2.8481681453
 10
0.937353476
 20
2.8479969207
  0
LWPOLYLINE
  5
253
330
1F
100
AcDbEntity
  8
0
  6
Continuous
 62
     7
370
     0
100
AcDbPolyline
 90
       15
 70
   128
 43
0.0
 10
1.093590778
 20
3.1186371902
 10
1.08587832
 20
3.1222862144
 10
1.0771934366
 20
3.1247681144
 10
1.0679141433
 20
3.1258877633
 10
1.0581298047
 20
3.1256343784
 10
1.0479346493
 20
3.1240103999
 10
1.0374268621
 20
3.1210314675
 10
1.0267076387
 20
3.1167262701
 10
1.0158802113
 20
3.111136269
 10
1.0050488538
 20
3.104315299
 10
0.9943178781
 20
3.0963290498
 10
0.9837906294
 20
3.0872544333
 10
0.9735684908
 20
3.077178843
 10
0.9637499072
 20
3.0661993124
 10
0.9544294368
 20
3.0544215804
  0
ARC
  5
254
330
1F
100
AcDbEntity
  8
0
  6
Continuous
 62
     7
370
     0
100
AcDbCircle
 10
1.0631843661
 20
2.9475637678
 30
0.0
 40
0.1705413947881138
100
AcDbArc
 50
138.6467606165
 51
195.9785841761
  0
ARC
  5
255
330
1F
100
AcDbEntity
  8
0
  6
Continuous
 62
     7
370
     0
100
AcDbCircle
 10
1.057768193
 20
2.9800841141
 30
0.0
 40
0.1464786204837855
100
AcDbArc
 50
104.6287597699
 51
146.8233907258
  0
LWPOLYLINE
  5
256
330
1F
100
AcDbEntity
  8
0
  6
Continuous
 62
     7
370
     0
100
AcDbPolyline
 90
       23
 70
   128
 43
0.0
 10
3.3008502932
 20
1.5790308686
 10
3.2949148202
 20
1.5613342431
 10
3.2899548192
 20
1.5437125187
 10
3.2860001202
 20
1.5262716744
 10
3.2830745072
 20
1.5091166017
 10
3.2811955753
 20
1.492350473
 10
3.2803746244
 20
1.476074122
 10
3.280616592
 20
1.4603854364
 10
3.2819200228
 20
1.4453787698
 10
3.2842770778
 20
1.4311443742
 10
3.2876735815
 20
1.4177678569
 10
3.2920891067
 20
1.4053296657
 10
3.2974970982
 20
1.3939046055
 10
3.3038650314
 20
1.383561388
 10
3.3111546091
 20
1.3743622183
 10
3.3193219907
 20
1.3663624215
 10
3.3283180566
 20
1.3596101092
 10
3.3380887036
 20
1.3541458907
 10
3.3485751697
 20
1.3500026284
 10
3.3597143882
 20
1.3472052403
 10
3.3714393664
 20
1.3457705503
 10
3.3836795889
 20
1.3457071868
 10
3.3857378257
 20
1.3458282831
  0
LWPOLYLINE
  5
257
330
1F
100
AcDbEntity
  8
0
  6
Continuous
 62
     7
370
     0
100
AcDbPolyline
 90
       30
 70
   128
 43
0.0
 10
3.6188276333
 20
1.7495954216
 10
3.6136603521
 20
1.7589831792
 10
3.6068264572
 20
1.7687617267
 10
3.599092161
 20
1.777367682
 10
3.5905039785
 20
1.7847492879
 10
3.58111356
 20
1.7908621505
 10
3.5709773806
 20
1.7956695062
 10
3.5601564004
 20
1.7991424433
 10
3.5487156981
 20
1.8012600748
 10
3.5367240795
 20
1.8020096653
 10
3.5242536635
 20
1.8013867065
 10
3.5113794487
 20
1.7993949451
 10
3.4981788621
 20
1.7960463596
 10
3.4847312936
 20
1.7913610889
 10
3.4711176185
 20
1.7853673108
 10
3.457419711
 20
1.7781010725
 10
3.443719952
 20
1.769606074
 10
3.4301007334
 20
1.7599334054
 10
3.4166439627
 20
1.749141239
 10
3.4034305707
 20
1.7372944804
 10
3.3905400241
 20
1.7244643772
 10
3.3780498483
 20
1.7107280913
 10
3.3660351606
 20
1.6961682343
 10
3.3545682188
 20
1.6808723709
 10
3.3437179864
 20
1.6649324921
 10
3.333549718
 20
1.6484444624
 10
3.3241245668
 20
1.6315074426
 10
3.3154992166
 20
1.6142232941
 10
3.3077255415
 20
1.5966959656
 10
3.3008502932
 20
1.5790308686
  0
LWPOLYLINE
  5
258
330
1F
100
AcDbEntity
  8
0
  6
Continuous
 62
     7
370
     0
100
AcDbPolyline
 90
       17
 70
   128
 43
0.0
 10
3.3474756474
 20
1.5640097881
 10
3.3419986485
 20
1.5475747337
 10
3.3375026805
 20
1.5312233356
 10
3.3340192794
 20
1.5150702872
 10
3.3315728788
 20
1.4992288905
 10
3.3301806385
 20
1.4838102615
 10
3.329852324
 20
1.4689225509
 10
3.3305902382
 20
1.4546701851
 10
3.3323892051
 20
1.4411531343
 10
3.3352366063
 20
1.4284662109
 10
3.3391124694
 20
1.4166984046
 10
3.3439896079
 20
1.4059322581
 10
3.3498338122
 20
1.3962432881
 10
3.3566040894
 20
1.3876994558
 10
3.3642529509
 20
1.3803606901
 10
3.3727267454
 20
1.3742784671
 10
3.3761603615
 20
1.3723007448
  0
LWPOLYLINE
  5
259
330
1F
100
AcDbEntity
  8
0
  6
Continuous
 62
     7
370
     0
100
AcDbPolyline
 90
       24
 70
   128
 43
0.0
 10
3.5911135407
 20
1.7446509174
 10
3.5864665264
 20
1.7472803728
 10
3.5768684731
 20
1.7514006275
 10
3.5666040077
 20
1.7541748464
 10
3.5557451281
 20
1.7555835702
 10
3.5443680014
 20
1.7556169179
 10
3.5325524301
 20
1.7542746555
 10
3.5203812918
 20
1.7515661981
 10
3.5079399584
 20
1.7475105434
 10
3.495315697
 20
1.742136139
 10
3.4825970575
 20
1.7354806825
 10
3.4698732522
 20
1.7275908571
 10
3.4572335294
 20
1.7185220044
 10
3.4447665477
 20
1.7083377357
 10
3.4325597539
 20
1.6971094864
 10
3.42069877
 20
1.6849160146
 10
3.4092667922
 20
1.6718428487
 10
3.3983440078
 20
1.6579816877
 10
3.388007032
 20
1.6434297575
 10
3.3783283715
 20
1.6282891296
 10
3.369375915
 20
1.6126660046
 10
3.3612124576
 20
1.5966699674
 10
3.3538952601
 20
1.5804132188
 10
3.3474756474
 20
1.5640097881
  0
LWPOLYLINE
  5
25A
330
1F
100
AcDbEntity
  8
0
  6
Continuous
 62
     7
370
     0
100
AcDbPolyline
 90
       18
 70
   128
 43
0.0
 10
2.9084060296
 20
1.8055841196
 10
2.9024705566
 20
1.7878874941
 10
2.8975105556
 20
1.7702657697
 10
2.8935558566
 20
1.7528249255
 10
2.8906302437
 20
1.7356698527
 10
2.8887513117
 20
1.7189037241
 10
2.8879303609
 20
1.702627373
 10
2.8881723285
 20
1.6869386874
 10
2.8894757593
 20
1.6719320209
 10
2.8918328143
 20
1.6576976253
 10
2.8952293179
 20
1.6443211079
 10
2.8996448432
 20
1.6318829168
 10
2.9050528346
 20
1.6204578566
 10
2.9114207679
 20
1.610114639
 10
2.9187103455
 20
1.6009154694
 10
2.9268777271
 20
1.5929156725
 10
2.9358737931
 20
1.5861633603
 10
2.9396777373
 20
1.5838294858
  0
LWPOLYLINE
  5
25B
330
1F
100
AcDbEntity
  8
0
  6
Continuous
 62
     7
370
     0
100
AcDbPolyline
 90
       26
 70
   128
 43
0.0
 10
3.1896574205
 20
2.016853917
 10
3.1886692964
 20
2.0174154015
 10
3.178533117
 20
2.0222227573
 10
3.1677121368
 20
2.0256956943
 10
3.1562714346
 20
2.0278133259
 10
3.1442798159
 20
2.0285629163
 10
3.1318093999
 20
2.0279399576
 10
3.1189351851
 20
2.0259481961
 10
3.1057345985
 20
2.0225996106
 10
3.0922870301
 20
2.0179143399
 10
3.078673355
 20
2.0119205618
 10
3.0649754475
 20
2.0046543235
 10
3.0512756884
 20
1.9961593251
 10
3.0376564698
 20
1.9864866564
 10
3.0241996992
 20
1.97569449
 10
3.0109863071
 20
1.9638477314
 10
2.9980957605
 20
1.9510176283
 10
2.9856055847
 20
1.9372813424
 10
2.973590897
 20
1.9227214853
 10
2.9621239552
 20
1.9074256219
 10
2.9512737228
 20
1.8914857432
 10
2.9411054544
 20
1.8749977134
 10
2.9316803032
 20
1.8580606937
 10
2.9230549531
 20
1.8407765451
 10
2.915281278
 20
1.8232492166
 10
2.9084060296
 20
1.8055841196
  0
ARC
  5
25C
330
1F
100
AcDbEntity
  8
0
  6
Continuous
 62
     7
370
     0
100
AcDbCircle
 10
3.4995794674
 20
1.4890675023
 30
0.0
 40
0.1554483783428944
100
AcDbArc
 50
151.3974093864
 51
214.1768755354
  0
LWPOLYLINE
  5
25D
330
1F
100
AcDbEntity
  8
0
  6
Continuous
 62
     7
370
     0
100
AcDbPolyline
 90
       21
 70
   128
 43
0.0
 10
3.5577015264
 20
1.7313431497
 10
3.5574068769
 20
1.7314050825
 10
3.5472924013
 20
1.7327742015
 10
3.5366658331
 20
1.7327872253
 10
3.5256103394
 20
1.7314440517
 10
3.5142124445
 20
1.7287551931
 10
3.5025613525
 20
1.7247416934
 10
3.4907482488
 20
1.7194349636
 10
3.478865587
 20
1.7128765361
 10
3.4670063652
 20
1.7051177395
 10
3.4552633977
 20
1.6962192969
 10
3.4437285892
 20
1.6862508506
 10
3.4324922153
 20
1.6752904174
 10
3.4216422157
 20
1.6634237773
 10
3.4112635065
 20
1.6507438031
 10
3.4014373151
 20
1.6373497326
 10
3.3922405448
 20
1.6233463926
 10
3.3837451727
 20
1.6088433783
 10
3.3760176868
 20
1.5939541954
 10
3.369118565
 20
1.5787953719
 10
3.3631018024
 20
1.5634855463
  0
ARC
  5
25E
330
1F
100
AcDbEntity
  8
0
  6
Continuous
 62
     7
370
     0
100
AcDbCircle
 10
3.1621073432
 20
1.7218214115
 30
0.0
 40
0.2744090262251659
100
AcDbArc
 50
159.2287304502
 51
177.8533838673
  0
ARC
  5
25F
330
1F
100
AcDbEntity
  8
0
  6
Continuous
 62
     7
370
     0
100
AcDbCircle
 10
3.2260730352
 20
1.70748945
 30
0.0
 40
0.3394268387122248
100
AcDbArc
 50
123.2648298919
 51
160.7961200069
  0
LWPOLYLINE
  5
260
330
1F
100
AcDbEntity
  8
0
  6
Continuous
 62
     7
370
     0
100
AcDbPolyline
 90
       16
 70
   128
 43
0.0
 10
2.8437886211
 20
1.8615793554
 10
2.8385674302
 20
1.845834637
 10
2.8343410098
 20
1.8301811397
 10
2.8311424374
 20
1.8147413733
 10
2.8289967462
 20
1.799636175
 10
2.8279207291
 20
1.7849837634
 10
2.8279228073
 20
1.7708988136
 10
2.8290029647
 20
1.7574915593
 10
2.8311527475
 20
1.7448669304
 10
2.8343553308
 20
1.7331237319
 10
2.83858565
 20
1.7223538702
 10
2.8438105971
 20
1.7126416341
 10
2.8499892799
 20
1.7040630349
 10
2.8570733417
 20
1.6966852118
 10
2.8650073402
 20
1.6905659063
 10
2.8681805531
 20
1.688610741
  0
LWPOLYLINE
  5
261
330
1F
100
AcDbEntity
  8
0
  6
Continuous
 62
     7
370
     0
100
AcDbPolyline
 90
       23
 70
   128
 43
0.0
 10
3.063164706
 20
2.0263697974
 10
3.062071351
 20
2.026986979
 10
3.0529808215
 20
2.0311318935
 10
3.043206987
 20
2.0339178268
 10
3.0328263411
 20
2.0353229753
 10
3.0219201263
 20
2.0353363418
 10
3.0105736986
 20
2.0339578216
 10
2.9988758591
 20
2.0311982035
 10
2.9869181594
 20
2.0270790854
 10
2.9747941845
 20
2.0216327048
 10
2.9625988212
 20
2.0149016871
 10
2.9504275145
 20
2.0069387116
 10
2.9383755216
 20
1.9978060995
 10
2.9265371655
 20
1.9875753257
 10
2.9150050975
 20
1.97632646
 10
2.9038695716
 20
1.9641475399
 10
2.8932177385
 20
1.9511338822
 10
2.8831329631
 20
1.9373873361
 10
2.8736941725
 20
1.9230154872
 10
2.8649752381
 20
1.9081308146
 10
2.8570443973
 20
1.8928498111
 10
2.8499637196
 20
1.8772920713
 10
2.8437886211
 20
1.8615793554
  0
ARC
  5
262
330
1F
100
AcDbEntity
  8
0
  6
Continuous
 62
     7
370
     0
100
AcDbCircle
 10
3.0474735388
 20
1.7908482912
 30
0.0
 40
0.2198118810017845
100
AcDbArc
 50
159.0831182117
 51
178.0664868332
  0
ARC
  5
263
330
1F
100
AcDbEntity
  8
0
  6
Continuous
 62
     7
370
     0
100
AcDbCircle
 10
3.1010972115
 20
1.7801236085
 30
0.0
 40
0.2738826710740077
100
AcDbArc
 50
123.1047362953
 51
160.9927076218
  0
LINE
  5
264
330
1F
100
AcDbEntity
  8
0
  6
Continuous
 62
     7
370
     0
100
AcDbLine
 10
2.0982713505
 20
2.4681255905
 30
0.0
 11
2.0837386202
 21
2.4822193072
 31
0.0
  0
ARC
  5
265
330
1F
100
AcDbEntity
  8
0
  6
Continuous
 62
     7
370
     0
100
AcDbCircle
 10
2.2495465554
 20
2.272074556
 30
0.0
 40
0.2476291495785642
100
AcDbArc
 50
127.6541857048
 51
192.4809663671
  0
LINE
  5
266
330
1F
100
AcDbEntity
  8
0
  6
Continuous
 62
     7
370
     0
100
AcDbLine
 10
1.9810507157
 20
2.2392296218
 30
0.0
 11
2.0077694139
 21
2.2348662561
 31
0.0
  0
LINE
  5
267
330
1F
100
AcDbEntity
  8
0
  6
Continuous
 62
     7
370
     0
100
AcDbLine
 10
2.0982713505
 20
2.4681255905
 30
0.0
 11
2.0982713505
 21
2.4660477541
 31
0.0
  0
ARC
  5
268
330
1F
100
AcDbEntity
  8
0
  6
Continuous
 62
     7
370
     0
100
AcDbCircle
 10
2.2477673825
 20
2.2730636538
 30
0.0
 40
0.2441145766863758
100
AcDbArc
 50
127.7633203788
 51
192.3784098402
  0
LINE
  5
269
330
1F
100
AcDbEntity
  8
0
  6
Continuous
 62
     7
370
     0
100
AcDbLine
 10
2.0077694139
 20
2.2348662561
 30
0.0
 11
2.0093277068
 21
2.2368047576
 31
0.0
  0
ARC
  5
26A
330
1F
100
AcDbEntity
  8
0
  6
Continuous
 62
     7
370
     0
100
AcDbCircle
 10
2.1089215949
 20
2.2825723403
 30
0.0
 40
0.1060577439467305
100
AcDbArc
 50
180.424229198
 51
198.7609287802
  0
LINE
  5
26B
330
1F
100
AcDbEntity
  8
0
  6
Continuous
 62
     7
370
     0
100
AcDbLine
 10
2.0093277068
 20
2.2368047576
 30
0.0
 11
2.0084988262
 21
2.2486520197
 31
0.0
  0
LINE
  5
26C
330
1F
100
AcDbEntity
  8
0
  6
Continuous
 62
     7
370
     0
100
AcDbLine
 10
1.9969549578
 20
2.2366323386
 30
0.0
 11
2.0305959131
 21
2.2172118285
 31
0.0
  0
ARC
  5
26D
330
1F
100
AcDbEntity
  8
0
  6
Continuous
 62
     7
370
     0
100
AcDbCircle
 10
1.8012443986
 20
2.5868619101
 30
0.0
 40
0.1236746352769546
100
AcDbArc
 50
109.172566698
 51
117.8371650029
  0
LINE
  5
26E
330
1F
100
AcDbEntity
  8
0
  6
Continuous
 62
     7
370
     0
100
AcDbLine
 10
2.1353944565
 20
2.487319181
 30
0.0
 11
2.1096953432
 21
2.5021549634
 31
0.0
  0
LINE
  5
26F
330
1F
100
AcDbEntity
  8
0
  6
Continuous
 62
     7
370
     0
100
AcDbLine
 10
1.819668391
 20
2.6695839591
 30
0.0
 11
1.7606278625
 21
2.7036673307
 31
0.0
  0
ARC
  5
270
330
1F
100
AcDbEntity
  8
0
  6
Continuous
 62
     7
370
     0
100
AcDbCircle
 10
2.1611927473
 20
2.4258277652
 30
0.0
 40
0.066683926294638
100
AcDbArc
 50
63.0487797709
 51
112.7601423488
  0
LINE
  5
271
330
1F
100
AcDbEntity
  8
0
  6
Continuous
 62
     7
370
     0
100
AcDbLine
 10
2.0305959131
 20
2.2172118285
 30
0.0
 11
2.0351787186
 21
2.2142358981
 31
0.0
  0
LINE
  5
272
330
1F
100
AcDbEntity
  8
0
  6
Continuous
 62
     7
370
     0
100
AcDbLine
 10
1.7606278625
 20
2.7373586083
 30
0.0
 11
1.8399339313
 21
2.6915761893
 31
0.0
  0
ARC
  5
273
330
1F
100
AcDbEntity
  8
0
  6
Continuous
 62
     7
370
     0
100
AcDbCircle
 10
1.8305224442
 20
2.5659301643
 30
0.0
 40
0.1852231973632801
100
AcDbArc
 50
112.1698349886
 51
128.0211884158
  0
LINE
  5
274
330
1F
100
AcDbEntity
  8
0
  6
Continuous
 62
     7
370
     0
100
AcDbLine
 10
1.6084651427
 20
2.4335681503
 30
0.0
 11
1.6750689662
 21
2.3951185814
 31
0.0
  0
ARC
  5
275
330
1F
100
AcDbEntity
  8
0
  6
Continuous
 62
     7
370
     0
100
AcDbCircle
 10
1.6829804007
 20
2.4621785689
 30
0.0
 40
0.0798190436811101
100
AcDbArc
 50
201.004483944
 51
228.9503642853
  0
LINE
  5
276
330
1F
100
AcDbEntity
  8
0
  6
Continuous
 62
     7
370
     0
100
AcDbLine
 10
1.6712808991
 20
2.3786215716
 30
0.0
 11
1.6305622296
 21
2.4021279591
 31
0.0
  0
LWPOLYLINE
  5
277
330
1F
100
AcDbEntity
  8
0
  6
Continuous
 62
     7
370
     0
100
AcDbPolyline
 90
       38
 70
   128
 43
0.0
 10
1.697647936
 20
2.8168024378
 10
1.6887030762
 20
2.8211028705
 10
1.6790692791
 20
2.8240777213
 10
1.6688278625
 20
2.8256997313
 10
1.6580567698
 20
2.8259565562
 10
1.6468379756
 20
2.8248462414
 10
1.6352568615
 20
2.8223772369
 10
1.6234015668
 20
2.8185683335
 10
1.6113623176
 20
2.8134485191
 10
1.5992307397
 20
2.8070567588
 10
1.5870991618
 20
2.7994416975
 10
1.5750599126
 20
2.7906612905
 10
1.563204618
 20
2.7807823621
 10
1.5516235039
 20
2.7698800968
 10
1.5404047096
 20
2.7580374675
 10
1.5296336169
 20
2.7453446037
 10
1.5193922003
 20
2.7318981058
 10
1.5097584033
 20
2.7178003097
 10
1.5008055447
 20
2.7031585082
 10
1.4926017613
 20
2.6880841342
 10
1.4852094888
 20
2.6726919129
 10
1.4786849869
 20
2.6570989883
 10
1.473077911
 20
2.641424032
 10
1.4684309342
 20
2.6257863398
 10
1.464779423
 20
2.6103049241
 10
1.4621511674
 20
2.5950976078
 10
1.4605661702
 20
2.5802801277
 10
1.4600364941
 20
2.5659652539
 10
1.4605661702
 20
2.5522619311
 10
1.4621511674
 20
2.5392744498
 10
1.464779423
 20
2.5271016528
 10
1.4684309342
 20
2.5158361822
 10
1.473077911
 20
2.5055637752
 10
1.4786849869
 20
2.496362611
 10
1.4852094888
 20
2.488302716
 10
1.4926017613
 20
2.4814454308
 10
1.5008055447
 20
2.4758429435
 10
1.5008135435
 20
2.4758383252
  0
LINE
  5
278
330
1F
100
AcDbEntity
  8
0
  6
Continuous
 62
     7
370
     0
100
AcDbLine
 10
1.8097397134
 20
2.6579814333
 30
0.0
 11
1.7164336887
 21
2.7118458548
 31
0.0
  0
LINE
  5
279
330
1F
100
AcDbEntity
  8
0
  6
Continuous
 62
     7
370
     0
100
AcDbLine
 10
2.1424655244
 20
2.4915605076
 30
0.0
 11
2.1353944565
 21
2.487319181
 31
0.0
  0
LINE
  5
27A
330
1F
100
AcDbEntity
  8
0
  6
Continuous
 62
     7
370
     0
100
AcDbLine
 10
1.7606278625
 20
2.7373586083
 30
0.0
 11
1.7606278625
 21
2.7036673307
 31
0.0
  0
LINE
  5
27B
330
1F
100
AcDbEntity
  8
0
  6
Continuous
 62
     7
370
     0
100
AcDbLine
 10
2.1248633747
 20
2.5107087571
 30
0.0
 11
2.1424655244
 21
2.493638344
 31
0.0
  0
LINE
  5
27C
330
1F
100
AcDbEntity
  8
0
  6
Continuous
 62
     7
370
     0
100
AcDbLine
 10
2.1424655244
 20
2.493638344
 30
0.0
 11
2.1424655244
 21
2.4915605076
 31
0.0
  0
ARC
  5
27D
330
1F
100
AcDbEntity
  8
0
  6
Continuous
 62
     7
370
     0
100
AcDbCircle
 10
2.1723348466
 20
2.4364039535
 30
0.0
 40
0.0645596768247069
100
AcDbArc
 50
26.004351807
 51
117.5590284534
  0
ARC
  5
27E
330
1F
100
AcDbEntity
  8
0
  6
Continuous
 62
     7
370
     0
100
AcDbCircle
 10
2.1716151858
 20
2.4352111061
 30
0.0
 40
0.0634425552118512
100
AcDbArc
 50
29.406031135
 51
117.3526186504
  0
LINE
  5
27F
330
1F
100
AcDbEntity
  8
0
  6
Continuous
 62
     7
370
     0
100
AcDbLine
 10
2.0305959131
 20
2.2172118285
 30
0.0
 11
2.0314247937
 21
2.2053645664
 31
0.0
  0
LINE
  5
280
330
1F
100
AcDbEntity
  8
0
  6
Continuous
 62
     7
370
     0
100
AcDbLine
 10
2.0298665008
 20
2.2034260649
 30
0.0
 11
2.0314247937
 21
2.2053645664
 31
0.0
  0
LINE
  5
281
330
1F
100
AcDbEntity
  8
0
  6
Continuous
 62
     7
370
     0
100
AcDbLine
 10
2.0298665008
 20
2.2034260649
 30
0.0
 11
1.9887075234
 21
2.2101476375
 31
0.0
  0
LINE
  5
282
330
1F
100
AcDbEntity
  8
0
  6
Continuous
 62
     7
370
     0
100
AcDbLine
 10
1.6305622296
 20
2.4021279591
 30
0.0
 11
1.640820857
 21
2.414889594
 31
0.0
  0
ARC
  5
283
330
1F
100
AcDbEntity
  8
0
  6
Continuous
 62
     7
370
     0
100
AcDbCircle
 10
2.0666528614
 20
2.2539841413
 30
0.0
 40
0.0626758402989788
100
AcDbArc
 50
234.0605135655
 51
276.843565126
  0
ARC
  5
284
330
1F
100
AcDbEntity
  8
0
  6
Continuous
 62
     7
370
     0
100
AcDbCircle
 10
2.0672380325
 20
2.2548243775
 30
0.0
 40
0.0611587328905051
100
AcDbArc
 50
234.1561314533
 51
273.1949618747
  0
LWPOLYLINE
  5
285
330
1F
100
AcDbEntity
  8
0
  6
Continuous
 62
     7
370
     0
100
AcDbPolyline
 90
       55
 70
   128
 43
0.0
 10
1.7543005165
 20
2.7840975992
 10
1.7531578848
 20
2.7891685931
 10
1.7494427029
 20
2.8018351971
 10
1.7447074803
 20
2.8135197014
 10
1.7389829266
 20
2.8241463276
 10
1.7323061677
 20
2.8336461579
 10
1.724720505
 20
2.8419575822
 10
1.7162751345
 20
2.8490266978
 10
1.7070248275
 20
2.8548076588
 10
1.6970295759
 20
2.8592629734
 10
1.6863542028
 20
2.8623637471
 10
1.675067942
 20
2.8640898703
 10
1.6632439892
 20
2.8644301485
 10
1.6509590274
 20
2.8633823746
 10
1.6382927292
 20
2.8609533441
 10
1.6253272404
 20
2.8571588101
 10
1.6121466472
 20
2.8520233815
 10
1.5988364308
 20
2.8455803636
 10
1.585482913
 20
2.8378715419
 10
1.5721726966
 20
2.828946911
 10
1.5589921034
 20
2.8188643506
 10
1.5460266146
 20
2.8076892499
 10
1.5333603164
 20
2.7954940838
 10
1.5210753546
 20
2.7823579426
 10
1.5092514018
 20
2.7683660192
 10
1.497965141
 20
2.7536090566
 10
1.4872897679
 20
2.7381827594
 10
1.4772945163
 20
2.722187173
 10
1.4680442093
 20
2.705726035
 10
1.4595988388
 20
2.6889061021
 10
1.4520131761
 20
2.6718364581
 10
1.4453364172
 20
2.6546278061
 10
1.4396118635
 20
2.6373917508
 10
1.4348766408
 20
2.6202400748
 10
1.431161459
 20
2.6032840132
 10
1.4284904124
 20
2.5866335325
 10
1.4268808237
 20
2.5703966175
 10
1.4263431317
 20
2.5546785709
 10
1.4268808237
 20
2.5395813302
 10
1.4284904124
 20
2.5252028068
 10
1.431161459
 20
2.511636251
 10
1.4348766408
 20
2.498969647
 10
1.4396118635
 20
2.4872851427
 10
1.4453364172
 20
2.4766585165
 10
1.4520131761
 20
2.4671586862
 10
1.4595988388
 20
2.4588472619
 10
1.4680442093
 20
2.4517781463
 10
1.4772945163
 20
2.4459971853
 10
1.4872897679
 20
2.4415418707
 10
1.497965141
 20
2.438441097
 10
1.5092514018
 20
2.4367149737
 10
1.5210753546
 20
2.4363746956
 10
1.5333603164
 20
2.4374224694
 10
1.5460266146
 20
2.4398515
 10
1.557466124
 20
2.4431334866
  0
ARC
  5
286
330
1F
100
AcDbEntity
  8
0
  6
Continuous
 62
     7
370
     0
100
AcDbCircle
 10
1.618632652
 20
2.7827050533
 30
0.0
 40
0.1080868915297349
100
AcDbArc
 50
64.6835927676
 51
119.5722017223
  0
LWPOLYLINE
  5
287
330
1F
100
AcDbEntity
  8
0
  6
Continuous
 62
     7
370
     0
100
AcDbPolyline
 90
       29
 70
   128
 43
0.0
 10
1.5299342752
 20
2.8563017463
 10
1.5165980892
 20
2.8463151226
 10
1.5034669457
 20
2.8352032804
 10
1.4906276588
 20
2.8230396834
 10
1.478165113
 20
2.8099047491
 10
1.4661617022
 20
2.7958853167
 10
1.4546967848
 20
2.7810740732
 10
1.4438461589
 20
2.7655689402
 10
1.4336815615
 20
2.7494724272
 10
1.4242701938
 20
2.7328909533
 10
1.4156742776
 20
2.7159341438
 10
1.407950643
 20
2.6987141057
 10
1.4011503536
 20
2.681344686
 10
1.395318368
 20
2.6639407195
 10
1.3904932436
 20
2.6466172693
 10
1.3867068806
 20
2.6294888662
 10
1.3839843119
 20
2.6126687515
 10
1.3823435373
 20
2.5962681284
 10
1.3817954045
 20
2.5803954265
 10
1.3823435373
 20
2.5651555852
 10
1.3839843119
 20
2.5506493601
 10
1.3867068806
 20
2.5369726563
 10
1.3904932436
 20
2.5242158948
 10
1.395318368
 20
2.5124634148
 10
1.4011503536
 20
2.5017929154
 10
1.407950643
 20
2.4922749428
 10
1.4156742776
 20
2.4839724234
 10
1.4242701938
 20
2.4769402476
 10
1.4303714733
 20
2.4730308193
  0
LINE
  5
288
330
1F
100
AcDbEntity
  8
0
  6
Continuous
 62
     7
370
     0
100
AcDbLine
 10
1.5610469735
 20
2.8383407678
 30
0.0
 11
1.5299342752
 21
2.8563017463
 31
0.0
  0
ARC
  5
289
330
1F
100
AcDbEntity
  8
0
  6
Continuous
 62
     7
370
     0
100
AcDbCircle
 10
1.6888251162
 20
2.6581893408
 30
0.0
 40
0.2208660009897225
100
AcDbArc
 50
114.7371752972
 51
125.3473871628
  0
LINE
  5
28A
330
1F
100
AcDbEntity
  8
0
  6
Continuous
 62
     7
370
     0
100
AcDbLine
 10
1.5964023126
 20
2.8587509706
 30
0.0
 11
1.5652896142
 21
2.8767119491
 31
0.0
  0
LINE
  5
28B
330
1F
100
AcDbEntity
  8
0
  6
Continuous
 62
     7
370
     0
100
AcDbLine
 10
1.5652896142
 20
2.8767119491
 30
0.0
 11
1.5652896142
 21
2.8412516974
 31
0.0
  0
ARC
  5
28C
330
1F
100
AcDbEntity
  8
0
  6
Continuous
 62
     7
370
     0
100
AcDbCircle
 10
4.4859641246
 20
1.6858099366
 30
0.0
 40
0.0468750000000004
100
AcDbArc
 50
132.415616468
 51
203.7955229675
  0
ARC
  5
28D
330
1F
100
AcDbEntity
  8
0
  6
Continuous
 62
     7
370
     0
100
AcDbCircle
 10
4.4859641246
 20
1.6858099366
 30
0.0
 40
0.0468750000000003
100
AcDbArc
 50
203.7955229675
 51
287.5790069993
  0
LINE
  5
28E
330
1F
100
AcDbEntity
  8
0
  6
Continuous
 62
     7
370
     0
100
AcDbLine
 10
7.1604984181
 20
3.5184530351
 30
0.0
 11
6.9448308498
 21
3.393950798
 31
0.0
  0
LINE
  5
28F
330
1F
100
AcDbEntity
  8
0
  6
Continuous
 62
     7
370
     0
100
AcDbLine
 10
7.194810533
 20
2.9609263668
 30
0.0
 11
7.4104781012
 21
3.0854286039
 31
0.0
  0
LINE
  5
290
330
1F
100
AcDbEntity
  8
0
  6
Continuous
 62
     7
370
     0
100
AcDbLine
 10
7.462264955
 20
3.1998898055
 30
0.0
 11
7.462264955
 21
3.2284640894
 31
0.0
  0
LINE
  5
291
330
1F
100
AcDbEntity
  8
0
  6
Continuous
 62
     7
370
     0
100
AcDbLine
 10
7.3102617058
 20
3.4917699696
 30
0.0
 11
7.2855169909
 21
3.5060594336
 31
0.0
  0
LINE
  5
292
330
1F
100
AcDbEntity
  8
0
  6
Continuous
 62
     7
370
     0
100
AcDbLine
 10
5.1831161046
 20
2.4352406556
 30
0.0
 11
5.1831161046
 21
2.4148304528
 31
0.0
  0
LINE
  5
293
330
1F
100
AcDbEntity
  8
0
  6
Continuous
 62
     7
370
     0
100
AcDbLine
 10
5.4659128472
 20
1.9249590479
 30
0.0
 11
5.4835876436
 21
1.9147522879
 31
0.0
  0
LINE
  5
294
330
1F
100
AcDbEntity
  8
0
  6
Continuous
 62
     7
370
     0
100
AcDbLine
 10
5.6961192173
 20
1.8936831653
 30
0.0
 11
5.8375405735
 21
1.9753239765
 31
0.0
  0
LINE
  5
295
330
1F
100
AcDbEntity
  8
0
  6
Continuous
 62
     7
370
     0
100
AcDbLine
 10
5.4125751121
 20
2.7114655096
 30
0.0
 11
5.2711537559
 21
2.6298246984
 31
0.0
  0
LINE
  5
296
330
1F
100
AcDbEntity
  8
0
  6
Continuous
 62
     7
370
     0
100
AcDbLine
 10
5.9255782248
 20
2.1699080193
 30
0.0
 11
5.9255782248
 21
2.1903182221
 31
0.0
  0
LINE
  5
297
330
1F
100
AcDbEntity
  8
0
  6
Continuous
 62
     7
370
     0
100
AcDbLine
 10
5.6427814822
 20
2.680189627
 30
0.0
 11
5.6251066858
 21
2.690396387
 31
0.0
  0
LINE
  5
298
330
1F
100
AcDbEntity
  8
0
  6
Continuous
 62
     7
370
     0
100
AcDbLine
 10
4.434628534
 20
1.8208693544
 30
0.0
 11
4.4215989718
 21
1.7890053784
 31
0.0
  0
LINE
  5
299
330
1F
100
AcDbEntity
  8
0
  6
Continuous
 62
     7
370
     0
100
AcDbLine
 10
4.5431413495
 20
1.5784649923
 30
0.0
 11
4.577250707
 21
1.5738137355
 31
0.0
  0
LINE
  5
29A
330
1F
100
AcDbEntity
  8
0
  6
Continuous
 62
     7
370
     0
100
AcDbLine
 10
6.3957789178
 20
2.9687396211
 30
0.0
 11
5.7487418013
 21
2.5952130445
 31
0.0
  0
LINE
  5
29B
330
1F
100
AcDbEntity
  8
0
  6
Continuous
 62
     7
370
     0
100
AcDbLine
 10
4.9918603686
 20
2.1582746939
 30
0.0
 11
4.459720551
 21
1.8510769161
 31
0.0
  0
LINE
  5
29C
330
1F
100
AcDbEntity
  8
0
  6
Continuous
 62
     7
370
     0
100
AcDbLine
 10
4.6159578529
 20
1.5804366466
 30
0.0
 11
5.1480976706
 21
1.8876344244
 31
0.0
  0
LINE
  5
29D
330
1F
100
AcDbEntity
  8
0
  6
Continuous
 62
     7
370
     0
100
AcDbLine
 10
5.9049791033
 20
2.324572775
 30
0.0
 11
6.5520162198
 21
2.6980993517
 31
0.0
  0
LINE
  5
29E
330
1F
100
AcDbEntity
  8
0
  6
Continuous
 62
     7
370
     0
100
AcDbLine
 10
4.4402261636
 20
1.7230496566
 30
0.0
 11
4.4363860923
 21
1.7106498414
 31
0.0
  0
LINE
  5
29F
330
1F
100
AcDbEntity
  8
0
  6
Continuous
 62
     7
370
     0
100
AcDbLine
 10
4.4826819026
 20
1.6304544565
 30
0.0
 11
4.4953402234
 21
1.6275789603
 31
0.0
  0
LINE
  5
2A0
330
1F
100
AcDbEntity
  8
0
  6
Continuous
 62
     7
370
     0
100
AcDbLine
 10
4.4811055763
 20
1.7551719852
 30
0.0
 11
4.4512695186
 21
1.7379479957
 31
0.0
  0
LINE
  5
2A1
330
1F
100
AcDbEntity
  8
0
  6
Continuous
 62
     7
370
     0
100
AcDbLine
 10
4.5137644394
 20
1.6296918879
 30
0.0
 11
4.5436004971
 21
1.6469158774
 31
0.0
  0
LINE
  5
2A2
330
1F
100
AcDbEntity
  8
0
  6
Continuous
 62
     7
370
     0
100
AcDbLine
 10
6.46479384
 20
3.0533245216
 30
0.0
 11
6.390547628
 21
3.0104630957
 31
0.0
  0
LINE
  5
2A3
330
1F
100
AcDbEntity
  8
0
  6
Continuous
 62
     7
370
     0
100
AcDbLine
 10
6.5855317809
 20
2.6727040394
 30
0.0
 11
6.6597779929
 21
2.7155654652
 31
0.0
  0
LINE
  5
2A4
330
1F
100
AcDbEntity
  8
0
  6
Continuous
 62
     7
370
     0
100
AcDbLine
 10
6.8544890758
 20
3.341797602
 30
0.0
 11
6.4620448122
 21
3.1152443509
 31
0.0
  0
LINE
  5
2A5
330
1F
100
AcDbEntity
  8
0
  6
Continuous
 62
     7
370
     0
100
AcDbLine
 10
6.7120244954
 20
2.6822199197
 30
0.0
 11
7.104468759
 21
2.9087731708
 31
0.0
  0
LINE
  5
2A6
330
1F
100
AcDbEntity
  8
0
  6
Continuous
 62
     7
370
     0
100
AcDbLine
 10
7.1562556127
 20
3.0232343724
 30
0.0
 11
7.1562556127
 21
3.0518086563
 31
0.0
  0
LINE
  5
2A7
330
1F
100
AcDbEntity
  8
0
  6
Continuous
 62
     7
370
     0
100
AcDbLine
 10
7.0042523635
 20
3.3151145365
 30
0.0
 11
6.9795076486
 21
3.3294040005
 31
0.0
  0
LINE
  5
2A8
330
1F
100
AcDbEntity
  8
0
  6
Continuous
 62
     7
370
     0
100
AcDbLine
 10
4.9972862754
 20
2.2517598729
 30
0.0
 11
4.9527385482
 21
2.2260430174
 31
0.0
  0
LINE
  5
2A9
330
1F
100
AcDbEntity
  8
0
  6
Continuous
 62
     7
370
     0
100
AcDbLine
 10
5.187219491
 20
1.8198661009
 30
0.0
 11
5.2317672182
 21
1.8455829564
 31
0.0
  0
LINE
  5
2AA
330
1F
100
AcDbEntity
  8
0
  6
Continuous
 62
     7
370
     0
100
AcDbLine
 10
5.3746126886
 20
2.4261129273
 30
0.0
 11
5.0798331989
 21
2.2559403502
 31
0.0
  0
LINE
  5
2AB
330
1F
100
AcDbEntity
  8
0
  6
Continuous
 62
     7
370
     0
100
AcDbLine
 10
5.2766675914
 20
1.9149762375
 30
0.0
 11
5.5714470811
 21
2.0851488147
 31
0.0
  0
LWPOLYLINE
  5
2AC
330
1F
100
AcDbEntity
  8
0
  6
Continuous
 62
     7
370
     0
100
AcDbPolyline
 90
       24
 70
   128
 43
0.0
 10
7.044165924
 20
3.3106481027
 10
7.055743503
 20
3.3034507144
 10
7.0672326541
 20
3.2950907621
 10
7.0785381748
 20
3.285637519
 10
7.0895663838
 20
3.2751693177
 10
7.1002258979
 20
3.263772901
 10
7.110428389
 20
3.2515427032
 10
7.1200893162
 20
3.2385800675
 10
7.1291286259
 20
3.2249924065
 10
7.1374714155
 20
3.2108923118
 10
7.1450485541
 20
3.1963966211
 10
7.1517972551
 20
3.1816254505
 10
7.1576615966
 20
3.1667011983
 10
7.1625929849
 20
3.1517475318
 10
7.166550557
 20
3.1368883616
 10
7.169501519
 20
3.1222468156
 10
7.1714214185
 20
3.1079442181
 10
7.1722943466
 20
3.0940990852
 10
7.1721130698
 20
3.0808261417
 10
7.1708790904
 20
3.0682353716
 10
7.1686026334
 20
3.056431106
 10
7.1653025622
 20
3.0455111587
 10
7.1610062224
 20
3.0355660158
 10
7.1562556127
 20
3.0274252578
  0
ARC
  5
2AD
330
1F
100
AcDbEntity
  8
0
  6
Continuous
 62
     7
370
     0
100
AcDbCircle
 10
6.9858202327
 20
3.2186759104
 30
0.0
 40
0.1089178767020059
100
AcDbArc
 50
57.6096100804
 51
91.4117167423
  0
LWPOLYLINE
  5
2AE
330
1F
100
AcDbEntity
  8
0
  6
Continuous
 62
     7
370
     0
100
AcDbPolyline
 90
       30
 70
   128
 43
0.0
 10
7.0439897515
 20
3.3393280093
 10
7.0567145963
 20
3.331470999
 10
7.0693577763
 20
3.3224333479
 10
7.0818306087
 20
3.3122784486
 10
7.0940456055
 20
3.3010775306
 10
7.1059170874
 20
3.2889091601
 10
7.1173617844
 20
3.2758586896
 10
7.1282994202
 20
3.2620176587
 10
7.138653275
 20
3.2474831523
 10
7.1483507242
 20
3.2323571196
 10
7.157323747
 20
3.2167456588
 10
7.1655094041
 20
3.200758273
 10
7.1728502791
 20
3.1845071023
 10
7.1792948809
 20
3.168106137
 10
7.1847980053
 20
3.151670418
 10
7.1893210518
 20
3.1353152302
 10
7.1928322946
 20
3.1191552933
 10
7.1953071047
 20
3.1033039579
 10
7.1967281233
 20
3.0878724095
 10
7.1970853827
 20
3.0729688895
 10
7.1963763772
 20
3.0586979352
 10
7.1946060798
 20
3.0451596472
 10
7.191786908
 20
3.0324489869
 10
7.1879386363
 20
3.0206551104
 10
7.1830882573
 20
3.0098607433
 10
7.1772697932
 20
3.0001416002
 10
7.1705240563
 20
2.9915658541
 10
7.1628983629
 20
2.9841936576
 10
7.154446202
 20
2.9780767213
 10
7.1507721724
 20
2.9759508768
  0
ARC
  5
2AF
330
1F
100
AcDbEntity
  8
0
  6
Continuous
 62
     7
370
     0
100
AcDbCircle
 10
6.9811188894
 20
3.255581863
 30
0.0
 40
0.1047194457527163
100
AcDbArc
 50
53.1032916736
 51
115.6316227172
  0
LWPOLYLINE
  5
2B0
330
1F
100
AcDbEntity
  8
0
  6
Continuous
 62
     7
370
     0
100
AcDbPolyline
 90
       37
 70
   128
 43
0.0
 10
7.0685623163
 20
3.3822950578
 10
7.0822646073
 20
3.3738836688
 10
7.0958920591
 20
3.3642908359
 10
7.1093627146
 20
3.3535742515
 10
7.1225955597
 20
3.3417983666
 10
7.1355110106
 20
3.3290340025
 10
7.1480313922
 20
3.3153579258
 10
7.1600814054
 20
3.3008523858
 10
7.17158858
 20
3.2856046208
 10
7.1824837106
 20
3.2697063325
 10
7.1927012725
 20
3.253253135
 10
7.2021798162
 20
3.23634398
 10
7.2108623365
 20
3.2190805609
 10
7.2186966158
 20
3.2015667021
 10
7.2256355377
 20
3.1839077339
 10
7.2316373708
 20
3.1662098595
 10
7.2366660194
 20
3.148579516
 10
7.2406912405
 20
3.1311227342
 10
7.2436888261
 20
3.1139445015
 10
7.2456407482
 20
3.0971481296
 10
7.2465352678
 20
3.0808346339
 10
7.2463670052
 20
3.0651021258
 10
7.2451369723
 20
3.0500452223
 10
7.2428525666
 20
3.0357544775
 10
7.2395275268
 20
3.0223158375
 10
7.2351818502
 20
3.009810124
 10
7.2298416721
 20
2.9983125478
 10
7.223539109
 20
2.9878922566
 10
7.2163120653
 20
2.9786119193
 10
7.2082040052
 20
2.970527349
 10
7.1992636916
 20
2.9636871671
 10
7.1895448925
 20
2.9581325115
 10
7.179106058
 20
2.9538967883
 10
7.1680099684
 20
2.9510054718
 10
7.156323357
 20
2.9494759507
 10
7.1441165084
 20
2.9493174237
 10
7.1411947082
 20
2.9494784151
  0
LWPOLYLINE
  5
2B1
330
1F
100
AcDbEntity
  8
0
  6
Continuous
 62
     7
370
     0
100
AcDbPolyline
 90
       16
 70
   128
 43
0.0
 10
6.9081049006
 20
3.3532455537
 10
6.91283293
 20
3.3619134965
 10
6.9196028247
 20
3.3717712242
 10
6.9272761473
 20
3.3804602126
 10
6.9358067496
 20
3.3879282049
 10
6.9451433275
 20
3.394130288
 10
6.9552297297
 20
3.3990291615
 10
6.9660052955
 20
3.4025953633
 10
6.9774052193
 20
3.4048074457
 10
6.9893609406
 20
3.405652105
 10
7.0018005563
 20
3.4051242614
 10
7.0146492531
 20
3.4032270892
 10
7.0278297574
 20
3.3999719984
 10
7.0412628001
 20
3.3953785655
 10
7.0548675934
 20
3.3894744159
 10
7.0685623163
 20
3.3822950578
  0
LWPOLYLINE
  5
2B2
330
1F
100
AcDbEntity
  8
0
  6
Continuous
 62
     7
370
     0
100
AcDbPolyline
 90
       32
 70
   128
 43
0.0
 10
7.2842298846
 20
3.5067972948
 10
7.2979321755
 20
3.4983859058
 10
7.3115596273
 20
3.4887930729
 10
7.3250302829
 20
3.4780764886
 10
7.338263128
 20
3.4663006036
 10
7.3511785789
 20
3.4535362396
 10
7.3636989604
 20
3.4398601628
 10
7.3757489736
 20
3.4253546229
 10
7.3872561483
 20
3.4101068579
 10
7.3981512789
 20
3.3942085695
 10
7.4083688408
 20
3.3777553721
 10
7.4178473845
 20
3.360846217
 10
7.4265299048
 20
3.343582798
 10
7.4343641841
 20
3.3260689391
 10
7.441303106
 20
3.308409971
 10
7.4473049391
 20
3.2907120966
 10
7.4523335877
 20
3.273081753
 10
7.4563588088
 20
3.2556249713
 10
7.4593563944
 20
3.2384467385
 10
7.4613083165
 20
3.2216503666
 10
7.4622028361
 20
3.205336871
 10
7.4620345735
 20
3.1896043628
 10
7.4608045405
 20
3.1745474593
 10
7.4585201348
 20
3.1602567145
 10
7.4551950951
 20
3.1468180746
 10
7.4508494185
 20
3.1343123611
 10
7.4455092404
 20
3.1228147848
 10
7.4392066773
 20
3.1123944936
 10
7.4319796336
 20
3.1031141564
 10
7.4238715735
 20
3.095029586
 10
7.4149312598
 20
3.0881894042
 10
7.4104781012
 20
3.0854286039
  0
ARC
  5
2B3
330
1F
100
AcDbEntity
  8
0
  6
Continuous
 62
     7
370
     0
100
AcDbCircle
 10
7.2104841168
 20
3.4055500593
 30
0.0
 40
0.1252574986727861
100
AcDbArc
 50
53.9314103832
 51
113.5196478119
  0
ARC
  5
2B4
330
1F
100
AcDbEntity
  8
0
  6
Continuous
 62
     7
370
     0
100
AcDbCircle
 10
7.1219846143
 20
3.2074921183
 30
0.0
 40
0.3409723741115842
100
AcDbArc
 50
3.6510272067
 51
56.4835094113
  0
LWPOLYLINE
  5
2B5
330
1F
100
AcDbEntity
  8
0
  6
Continuous
 62
     7
370
     0
100
AcDbPolyline
 90
       83
 70
   128
 43
0.0
 10
5.4659588171
 20
1.9249325057
 10
5.4832020324
 20
1.9155857264
 10
5.5003811019
 20
1.907488752
 10
5.5174321182
 20
1.9006717036
 10
5.5342916505
 20
1.8951599412
 10
5.5508969801
 20
1.8909739689
 10
5.5671863342
 20
1.8881293587
 10
5.5830991153
 20
1.8866366929
 10
5.5985761268
 20
1.8865015241
 10
5.6135597932
 20
1.8877243554
 10
5.6279943742
 20
1.8903006375
 10
5.6418261723
 20
1.8942207867
 10
5.6550037324
 20
1.8994702196
 10
5.6674780329
 20
1.9060294082
 10
5.6792026687
 20
1.9138739516
 10
5.6901340233
 20
1.9229746678
 10
5.7002314315
 20
1.9332977015
 10
5.7094573302
 20
1.9448046502
 10
5.7177773984
 20
1.9574527075
 10
5.7251606849
 20
1.9711948216
 10
5.7315797235
 20
1.9859798711
 10
5.7370106348
 20
2.0017528545
 10
5.7414332156
 20
2.0184550954
 10
5.7448310135
 20
2.0360244603
 10
5.7471913886
 20
2.05439559
 10
5.74850556
 20
2.0735001427
 10
5.7487686389
 20
2.0932670482
 10
5.7479796468
 20
2.1136227724
 10
5.7461415186
 20
2.1344915905
 10
5.7432610924
 20
2.1557958693
 10
5.7393490835
 20
2.1774563553
 10
5.7344200449
 20
2.1993924703
 10
5.7284923128
 20
2.2215226103
 10
5.7215879389
 20
2.2437644498
 10
5.7137326079
 20
2.2660352478
 10
5.7049555421
 20
2.2882521553
 10
5.6952893928
 20
2.310332524
 10
5.6847701187
 20
2.3321942135
 10
5.6734368522
 20
2.353755897
 10
5.6613317538
 20
2.3749373634
 10
5.6484998552
 20
2.3956598163
 10
5.6349888919
 20
2.415846167
 10
5.6208491257
 20
2.4354213207
 10
5.6061331574
 20
2.4543124567
 10
5.5908957313
 20
2.4724492987
 10
5.5751935316
 20
2.4897643765
 10
5.5590849717
 20
2.5061932768
 10
5.5426299763
 20
2.521674883
 10
5.5258897592
 20
2.5361516025
 10
5.5089265951
 20
2.5495695811
 10
5.491803588
 20
2.5618789029
 10
5.4745844367
 20
2.5730337764
 10
5.4573331974
 20
2.5829927048
 10
5.4401140461
 20
2.5917186403
 10
5.422991039
 20
2.5991791217
 10
5.4060278749
 20
2.6053463955
 10
5.3892876578
 20
2.6101975192
 10
5.3728326624
 20
2.6137144463
 10
5.3567241025
 20
2.6158840934
 10
5.3410219028
 20
2.6166983895
 10
5.3257844767
 20
2.6161543052
 10
5.3110685084
 20
2.6142538645
 10
5.2969287422
 20
2.6110041374
 10
5.2834177789
 20
2.6064172129
 10
5.2705858803
 20
2.6005101547
 10
5.2584807819
 20
2.5933049374
 10
5.2471475154
 20
2.584828365
 10
5.2366282413
 20
2.5751119708
 10
5.226962092
 20
2.5641919005
 10
5.2181850262
 20
2.5521087774
 10
5.2103296952
 20
2.5389075516
 10
5.2034253213
 20
2.5246373325
 10
5.1974975892
 20
2.5093512062
 10
5.1925685506
 20
2.4931060382
 10
5.1886565417
 20
2.4759622614
 10
5.1857761155
 20
2.457983652
 10
5.1839379873
 20
2.4392370915
 10
5.1831489952
 20
2.4197923183
 10
5.1834120741
 20
2.3997216682
 10
5.1847262455
 20
2.3790998055
 10
5.1870866206
 20
2.3580034448
 10
5.1904844185
 20
2.336511066
 10
5.1934226741
 20
2.3215141584
  0
ARC
  5
2B6
330
1F
100
AcDbEntity
  8
0
  6
Continuous
 62
     7
370
     0
100
AcDbCircle
 10
5.6955831184
 20
2.3163280031
 30
0.0
 40
0.4538400980827243
100
AcDbArc
 50
227.7194577626
 51
239.604992833
  0
LWPOLYLINE
  5
2B7
330
1F
100
AcDbEntity
  8
0
  6
Continuous
 62
     7
370
     0
100
AcDbPolyline
 90
       81
 70
   128
 43
0.0
 10
5.4836364866
 20
1.9147240868
 10
5.5014395027
 20
1.9050561019
 10
5.5191799851
 20
1.896641031
 10
5.5367956196
 20
1.8895084326
 10
5.5542245308
 20
1.8836833601
 10
5.5714054989
 20
1.8791862742
 10
5.5882781751
 20
1.8760329712
 10
5.6047832935
 20
1.8742345271
 10
5.6208628794
 20
1.8737972591
 10
5.6364604526
 20
1.874722703
 10
5.651521226
 20
1.8770076082
 10
5.6659922982
 20
1.8806439489
 10
5.6798228389
 20
1.8856189524
 10
5.6929642679
 20
1.8919151437
 10
5.7053704255
 20
1.8995104072
 10
5.7169977344
 20
1.9083780643
 10
5.7278053535
 20
1.918486967
 10
5.7377553206
 20
1.9298016074
 10
5.7468126859
 20
1.9422822425
 10
5.7549456353
 20
1.9558850336
 10
5.7621256014
 20
1.9705622003
 10
5.7683273643
 20
1.9862621886
 10
5.7735291402
 20
2.0029298517
 10
5.7777126575
 20
2.0205066438
 10
5.7808632215
 20
2.0389308259
 10
5.7829697658
 20
2.0581376822
 10
5.784024891
 20
2.078059748
 10
5.784024891
 20
2.0986270463
 10
5.7829697658
 20
2.1197673338
 10
5.7808632215
 20
2.1414063543
 10
5.7777126575
 20
2.1634681001
 10
5.7735291402
 20
2.1858750785
 10
5.7683273643
 20
2.2085485842
 10
5.7621256014
 20
2.2314089755
 10
5.7549456353
 20
2.2543759546
 10
5.7468126859
 20
2.2773688492
 10
5.7377553206
 20
2.3003068957
 10
5.7278053535
 20
2.3231095236
 10
5.7169977344
 20
2.3456966377
 10
5.7053704255
 20
2.3679889
 10
5.6929642679
 20
2.3899080081
 10
5.6798228389
 20
2.4113769704
 10
5.6659922982
 20
2.4323203762
 10
5.651521226
 20
2.4526646612
 10
5.6364604526
 20
2.4723383653
 10
5.6208628794
 20
2.4912723839
 10
5.6047832935
 20
2.5094002106
 10
5.5882781751
 20
2.5266581707
 10
5.5714054989
 20
2.542985645
 10
5.5542245308
 20
2.5583252826
 10
5.5367956196
 20
2.5726232025
 10
5.5191799851
 20
2.5858291828
 10
5.5014395027
 20
2.597896837
 10
5.4836364866
 20
2.6087837769
 10
5.4658334705
 20
2.6184517619
 10
5.4480929881
 20
2.6268668327
 10
5.4304773535
 20
2.6339994311
 10
5.4130484424
 20
2.6398245037
 10
5.3958674743
 20
2.6443215895
 10
5.3789947981
 20
2.6474748926
 10
5.3624896796
 20
2.6492733366
 10
5.3464100937
 20
2.6497106047
 10
5.3308125205
 20
2.6487851607
 10
5.3157517471
 20
2.6465002555
 10
5.301280675
 20
2.6428639148
 10
5.2874501342
 20
2.6378889113
 10
5.2743087052
 20
2.6315927201
 10
5.2619025477
 20
2.6239974566
 10
5.2502752387
 20
2.6151297995
 10
5.2394676196
 20
2.6050208967
 10
5.2295176526
 20
2.5937062563
 10
5.2204602872
 20
2.5812256212
 10
5.2123273378
 20
2.5676228301
 10
5.2051473718
 20
2.5529456634
 10
5.1989456088
 20
2.5372456751
 10
5.193743833
 20
2.520578012
 10
5.1895603157
 20
2.5030012199
 10
5.1864097517
 20
2.4845770379
 10
5.1843032074
 20
2.4653701816
 10
5.1832480822
 20
2.4454481157
 10
5.1831161046
 20
2.4352406556
  0
LWPOLYLINE
  5
2B8
330
1F
100
AcDbEntity
  8
0
  6
Continuous
 62
     7
370
     0
100
AcDbPolyline
 90
       55
 70
   128
 43
0.0
 10
5.8375405735
 20
1.9753239765
 10
5.8467917817
 20
1.9811512183
 10
5.8584190907
 20
1.9900188754
 10
5.8692267098
 20
2.0001277782
 10
5.8791766768
 20
2.0114424186
 10
5.8882340422
 20
2.0239230537
 10
5.8963669916
 20
2.0375258448
 10
5.9035469576
 20
2.0522030115
 10
5.9097487206
 20
2.0679029998
 10
5.9149504964
 20
2.0845706629
 10
5.9191340137
 20
2.102147455
 10
5.9222845777
 20
2.120571637
 10
5.924391122
 20
2.1397784933
 10
5.9254462472
 20
2.1597005592
 10
5.9254462472
 20
2.1802678575
 10
5.924391122
 20
2.2014081449
 10
5.9222845777
 20
2.2230471655
 10
5.9191340137
 20
2.2451089113
 10
5.9149504964
 20
2.2675158897
 10
5.9097487206
 20
2.2901893953
 10
5.9035469576
 20
2.3130497867
 10
5.8963669916
 20
2.3360167658
 10
5.8882340422
 20
2.3590096603
 10
5.8791766768
 20
2.3819477069
 10
5.8692267098
 20
2.4047503348
 10
5.8584190907
 20
2.4273374489
 10
5.8467917817
 20
2.4496297112
 10
5.8343856242
 20
2.4715488193
 10
5.8212441952
 20
2.4930177815
 10
5.8074136544
 20
2.5139611874
 10
5.7929425823
 20
2.5343054724
 10
5.7778818089
 20
2.5539791765
 10
5.7622842357
 20
2.5729131951
 10
5.7462046498
 20
2.5910410218
 10
5.7296995313
 20
2.6082989819
 10
5.7128268551
 20
2.6246264561
 10
5.695645887
 20
2.6399660938
 10
5.6782169759
 20
2.6542640137
 10
5.6606013413
 20
2.667469994
 10
5.6428608589
 20
2.6795376482
 10
5.6250578428
 20
2.6904245881
 10
5.6072548267
 20
2.700092573
 10
5.5895143443
 20
2.7085076439
 10
5.5718987098
 20
2.7156402423
 10
5.5544697986
 20
2.7214653148
 10
5.5372888305
 20
2.7259624007
 10
5.5204161543
 20
2.7291157037
 10
5.5039110359
 20
2.7309141478
 10
5.48783145
 20
2.7313514158
 10
5.4722338768
 20
2.7304259719
 10
5.4571731034
 20
2.7281410667
 10
5.4427020312
 20
2.724504726
 10
5.4288714905
 20
2.7195297225
 10
5.4157300615
 20
2.7132335312
 10
5.4125751121
 20
2.7114655096
  0
LWPOLYLINE
  5
2B9
330
1F
100
AcDbEntity
  8
0
  6
Continuous
 62
     7
370
     0
100
AcDbPolyline
 90
       20
 70
   128
 43
0.0
 10
5.5204060392
 20
2.6300103878
 10
5.5334995168
 20
2.6244035682
 10
5.5489083366
 20
2.6212142861
 10
5.5649805357
 20
2.6209944371
 10
5.5799045646
 20
2.6240382236
 10
5.5918984856
 20
2.6301522617
 10
5.5996435482
 20
2.6386332919
 10
5.6023471048
 20
2.6484484565
 10
5.5996634978
 20
2.6583217447
 10
5.5918537206
 20
2.6668690172
 10
5.5798713295
 20
2.6729616724
 10
5.5650840612
 20
2.6759871894
 10
5.549045833
 20
2.6757922331
 10
5.5335280893
 20
2.6725946324
 10
5.5203807159
 20
2.6669629393
 10
5.5111059327
 20
2.6596554837
 10
5.5066578436
 20
2.651392685
 10
5.5075368676
 20
2.6428434265
 10
5.5137098582
 20
2.6347472587
 10
5.5204060392
 20
2.6300103878
  0
LWPOLYLINE
  5
2BA
330
1F
100
AcDbEntity
  8
0
  6
Continuous
 62
     7
370
     0
100
AcDbPolyline
 90
       20
 70
   128
 43
0.0
 10
5.8529447199
 20
2.1693915969
 10
5.8419604277
 20
2.1606153512
 10
5.8325655896
 20
2.1482478576
 10
5.8256025307
 20
2.1337087939
 10
5.8216792631
 20
2.1187407484
 10
5.8211184067
 20
2.1052145364
 10
5.8239184072
 20
2.0946531232
 10
5.8298732513
 20
2.0880924635
 10
5.8385631422
 20
2.0861732274
 10
5.849192987
 20
2.0890535442
 10
5.860604339
 20
2.0963005265
 10
5.8715110978
 20
2.1070766517
 10
5.8806221912
 20
2.1203358257
 10
5.8866926666
 20
2.1347501145
 10
5.8888086621
 20
2.1487100077
 10
5.8866979855
 20
2.1606396806
 10
5.8806949712
 20
2.1692427741
 10
5.8715870391
 20
2.173486934
 10
5.8605851838
 20
2.1727115879
 10
5.8529447199
 20
2.1693915969
  0
LWPOLYLINE
  5
2BB
330
1F
100
AcDbEntity
  8
0
  6
Continuous
 62
     7
370
     0
100
AcDbPolyline
 90
       46
 70
   128
 43
0.0
 10
5.5326046993
 20
2.062725585
 10
5.5372916723
 20
2.0629156044
 10
5.5478637063
 20
2.0643293827
 10
5.5578456137
 20
2.0670920813
 10
5.5671654746
 20
2.0711837951
 10
5.5757561392
 20
2.0765750431
 10
5.5835557116
 20
2.0832269812
 10
5.5905079957
 20
2.0910916821
 10
5.5965629001
 20
2.1001124804
 10
5.6016767991
 20
2.1102243811
 10
5.6058128469
 20
2.1213545277
 10
5.6089412433
 20
2.1334227272
 10
5.6110394479
 20
2.146342028
 10
5.6120923433
 20
2.1600193463
 10
5.6120923433
 20
2.1743561365
 10
5.6110394479
 20
2.1892491019
 10
5.6089412433
 20
2.2045909383
 10
5.6058128469
 20
2.2202711074
 10
5.6016767991
 20
2.2361766331
 10
5.5965629001
 20
2.2521929159
 10
5.5905079957
 20
2.2682045581
 10
5.5835557116
 20
2.2840961953
 10
5.5757561392
 20
2.2997533281
 10
5.5671654746
 20
2.3150631463
 10
5.5578456137
 20
2.3299153424
 10
5.5478637063
 20
2.344202906
 10
5.5372916723
 20
2.3578228949
 10
5.5262056834
 20
2.3706771767
 10
5.5146856145
 20
2.3826731361
 10
5.5028144679
 20
2.3937243418
 10
5.4906777755
 20
2.4037511697
 10
5.4783629824
 20
2.4126813762
 10
5.4659588171
 20
2.4204506191
 10
5.4535546517
 20
2.4270029207
 10
5.4412398586
 20
2.4322910716
 10
5.4291031662
 20
2.4362769705
 10
5.4172320196
 20
2.4389318989
 10
5.4057119507
 20
2.440236728
 10
5.3946259618
 20
2.4401820565
 10
5.3840539278
 20
2.4387682782
 10
5.3740720204
 20
2.4360055796
 10
5.3647521595
 20
2.4319138658
 10
5.3561614949
 20
2.4265226179
 10
5.3483619225
 20
2.4198706797
 10
5.3414096384
 20
2.4120059789
 10
5.3357703068
 20
2.4036896976
  0
ARC
  5
2BC
330
1F
100
AcDbEntity
  8
0
  6
Continuous
 62
     7
370
     0
100
AcDbCircle
 10
5.2921264589
 20
2.1512419725
 30
0.0
 40
0.6346558855513141
100
AcDbArc
 50
3.5299778193
 51
56.4604787442
  0
ARC
  5
2BD
330
1F
100
AcDbEntity
  8
0
  6
Continuous
 62
     7
370
     0
100
AcDbCircle
 10
5.5123122261
 20
2.1642226092
 30
0.0
 40
0.1001164352433286
100
AcDbArc
 50
306.2039169236
 51
4.0362431283
  0
LWPOLYLINE
  5
2BE
330
1F
100
AcDbEntity
  8
0
  6
Continuous
 62
     7
370
     0
100
AcDbPolyline
 90
       11
 70
   128
 43
0.0
 10
5.4695613368
 20
2.4183196898
 10
5.4608983068
 20
2.4227590121
 10
5.4488590573
 20
2.4278788265
 10
5.4370037624
 20
2.43168773
 10
5.4254226481
 20
2.4341567345
 10
5.4142038535
 20
2.4352670494
 10
5.4034327606
 20
2.4350102245
 10
5.3931913439
 20
2.4333882144
 10
5.3835575466
 20
2.4304133636
 10
5.3746046879
 20
2.4261083125
 10
5.3746126866
 20
2.4261129308
  0
LWPOLYLINE
  5
2BF
330
1F
100
AcDbEntity
  8
0
  6
Continuous
 62
     7
370
     0
100
AcDbPolyline
 90
       60
 70
   128
 43
0.0
 10
4.5615754094
 20
1.7600237766
 10
4.5696226281
 20
1.7484796112
 10
4.5769892557
 20
1.7363796784
 10
4.5835918254
 20
1.7238610754
 10
4.5893555276
 20
1.7110656429
 10
4.5942150571
 20
1.6981383582
 10
4.5981153536
 20
1.6852256928
 10
4.601012225
 20
1.6724739521
 10
4.6028728488
 20
1.6600276186
 10
4.6036761433
 20
1.6480277142
 10
4.6034130068
 20
1.6366102026
 10
4.6020864209
 20
1.6259044487
 10
4.5997114161
 20
1.6160317531
 10
4.5963149024
 20
1.6071039773
 10
4.5919353635
 20
1.5992222765
 10
4.5866224214
 20
1.5924759537
 10
4.5804362739
 20
1.5869414473
 10
4.5734470123
 20
1.5826814655
 10
4.565733828
 20
1.5797442756
 10
4.5573841143
 20
1.5781631571
 10
4.5484924769
 20
1.5779560248
 10
4.5391596615
 20
1.5791252255
 10
4.5294914127
 20
1.5816575117
 10
4.5195972755
 20
1.5855241917
 10
4.5095893546
 20
1.5906814543
 10
4.4995810437
 20
1.5970708657
 10
4.4896857409
 20
1.6046200314
 10
4.4800155639
 20
1.6132434163
 10
4.4706800798
 20
1.6228433139
 10
4.4617850632
 20
1.6333109537
 10
4.4534312984
 20
1.644527733
 10
4.4457134367
 20
1.6563665613
 10
4.4387189247
 20
1.6686932999
 10
4.4325270129
 20
1.681368282
 10
4.4272078582
 20
1.6942478949
 10
4.4228217287
 20
1.7071862075
 10
4.4194183211
 20
1.7200366235
 10
4.4170361973
 20
1.7326535426
 10
4.4157023477
 20
1.74489401
 10
4.4154318853
 20
1.7566193364
 10
4.4162278747
 20
1.7676966691
 10
4.4180812969
 20
1.7780004975
 10
4.4209711519
 20
1.7874140751
 10
4.4248646966
 20
1.7958307424
 10
4.4297178154
 20
1.8031551351
 10
4.4354755207
 20
1.8093042649
 10
4.4420725753
 20
1.8142084597
 10
4.4494342319
 20
1.8178121531
 10
4.45747708
 20
1.8200745137
 10
4.4661099911
 20
1.8209699082
 10
4.4752351506
 20
1.8204881913
 10
4.484749167
 20
1.818634821
 10
4.4945442426
 20
1.8154307968
 10
4.5045093952
 20
1.8109124217
 10
4.5145317158
 20
1.8051308905
 10
4.5244976475
 20
1.7981517103
 10
4.5342942722
 20
1.790053958
 10
4.5438105903
 20
1.7809293845
 10
4.552938778
 20
1.7708813747
 10
4.5615754094
 20
1.7600237766
  0
LWPOLYLINE
  5
2C0
330
1F
100
AcDbEntity
  8
0
  6
Continuous
 62
     7
370
     0
100
AcDbPolyline
 90
       24
 70
   128
 43
0.0
 10
4.5988818922
 20
1.7868613063
 10
4.6076144881
 20
1.7743987988
 10
4.6156751099
 20
1.7613715366
 10
4.6229861293
 20
1.7479049794
 10
4.6294771373
 20
1.7341288175
 10
4.6350856218
 20
1.7201757228
 10
4.6397575702
 20
1.7061800713
 10
4.643447989
 20
1.6922766488
 10
4.6461213374
 20
1.6785993527
 10
4.6477518697
 20
1.6652799031
 10
4.6483238829
 20
1.6524465733
 10
4.6478318682
 20
1.6402229555
 10
4.646280564
 20
1.6287267697
 10
4.6436849102
 20
1.6180687304
 10
4.6400699044
 20
1.6083514806
 10
4.635470361
 20
1.5996686024
 10
4.6299305762
 20
1.5921037169
 10
4.6235039012
 20
1.585729678
 10
4.6162522282
 20
1.5806078712
 10
4.6082453949
 20
1.5767876223
 10
4.5995605115
 20
1.5743057223
 10
4.5902812182
 20
1.5731860734
 10
4.5804968796
 20
1.5734394583
 10
4.577250707
 20
1.5738137355
  0
LWPOLYLINE
  5
2C1
330
1F
100
AcDbEntity
  8
0
  6
Continuous
 62
     7
370
     0
100
AcDbPolyline
 90
       20
 70
   128
 43
0.0
 10
4.434628534
 20
1.8208693544
 10
4.4356084995
 20
1.8231620821
 10
4.4402080429
 20
1.8318449602
 10
4.4457478277
 20
1.8394098457
 10
4.4521745027
 20
1.8457838846
 10
4.4594261757
 20
1.8509056914
 10
4.4674330089
 20
1.8547259404
 10
4.4761178923
 20
1.8572078403
 10
4.4853971857
 20
1.8583274893
 10
4.4951815243
 20
1.8580741043
 10
4.5053766797
 20
1.8564501258
 10
4.5158844669
 20
1.8534711934
 10
4.5266036902
 20
1.849165996
 10
4.5374311177
 20
1.8435759949
 10
4.5482624752
 20
1.8367550249
 10
4.5589934509
 20
1.8287687757
 10
4.5695206996
 20
1.8196941592
 10
4.5797428381
 20
1.8096185689
 10
4.5895614218
 20
1.7986390383
 10
4.5988818922
 20
1.7868613063
  0
LWPOLYLINE
  5
2C2
330
1F
100
AcDbEntity
  8
0
  6
Continuous
 62
     7
370
     0
100
AcDbPolyline
 90
       13
 70
   128
 43
0.0
 10
4.5340696751
 20
1.7279841963
 10
4.5395534139
 20
1.7198642396
 10
4.5442984905
 20
1.7112410901
 10
4.5481880653
 20
1.7023270784
 10
4.5511263641
 20
1.693341697
 10
4.5530410363
 20
1.6845061958
 10
4.5538849362
 20
1.6760381342
 10
4.5536372843
 20
1.6681460239
 10
4.5523041785
 20
1.661024195
 10
4.5499184444
 20
1.6548480104
 10
4.5465388266
 20
1.6497695484
 10
4.5422485425
 20
1.6459138575
 10
4.5380042851
 20
1.643685253
  0
LWPOLYLINE
  5
2C3
330
1F
100
AcDbEntity
  8
0
  6
Continuous
 62
     7
370
     0
100
AcDbPolyline
 90
       11
 70
   128
 43
0.0
 10
4.4755093643
 20
1.7519413608
 10
4.4768613188
 20
1.7529433806
 10
4.4819566281
 20
1.7554813605
 10
4.4877314992
 20
1.7566391358
 10
4.4940437356
 20
1.7563881983
 10
4.5007379091
 20
1.754734727
 10
4.5076491869
 20
1.7517194357
 10
4.5146073905
 20
1.747416571
 10
4.5214411857
 20
1.7419320836
 10
4.5279823019
 20
1.7354010199
 10
4.5340696751
 20
1.7279841963
  0
LWPOLYLINE
  5
2C4
330
1F
100
AcDbEntity
  8
0
  6
Continuous
 62
     7
370
     0
100
AcDbPolyline
 90
       26
 70
   128
 43
0.0
 10
4.4608045901
 20
1.7250132487
 10
4.4669508469
 20
1.723044067
 10
4.4732397805
 20
1.7197703294
 10
4.4794904695
 20
1.7152862152
 10
4.4855230931
 20
1.7097207244
 10
4.4911641036
 20
1.7032339659
 10
4.4962512195
 20
1.6960125519
 10
4.5006380937
 20
1.6882642294
 10
4.5041985237
 20
1.6802119036
 10
4.5068300826
 20
1.6720872251
 10
4.5084570652
 20
1.6641239263
 10
4.509032666
 20
1.6565510966
 10
4.5085403263
 20
1.6495865926
 10
4.5069942095
 20
1.6434307705
 10
4.5044387948
 20
1.6382607219
 10
4.5009475968
 20
1.6342251799
 10
4.4966210508
 20
1.6314402395
 10
4.4915836237
 20
1.6299860185
 10
4.4859802332
 20
1.6299043522
 10
4.4799720785
 20
1.6311975899
 10
4.4737320034
 20
1.6338285275
 10
4.4674395233
 20
1.6377214778
 10
4.4612756617
 20
1.6427644477
 10
4.4554177414
 20
1.64881236
 10
4.4500342842
 20
1.6556912275
 10
4.4499735514
 20
1.6557775496
  0
LWPOLYLINE
  5
2C5
330
1F
100
AcDbEntity
  8
0
  6
Continuous
 62
     7
370
     0
100
AcDbPolyline
 90
       13
 70
   128
 43
0.0
 10
4.4419585124
 20
1.6696615088
 10
4.4412921434
 20
1.6711320456
 10
4.4381849552
 20
1.679249792
 10
4.4360479861
 20
1.687322864
 10
4.4349427126
 20
1.695119014
 10
4.4349009315
 20
1.7024139609
 10
4.4359238449
 20
1.7089978425
 10
4.4379820252
 20
1.7146812524
 10
4.4410162624
 20
1.7193006893
 10
4.4449392671
 20
1.7227232603
 10
4.4496381815
 20
1.7248505044
 10
4.4549778265
 20
1.7256212246
 10
4.4608045901
 20
1.7250132487
  0
LWPOLYLINE
  5
2C6
330
1F
100
AcDbEntity
  8
0
  6
Continuous
 62
     7
370
     0
100
AcDbPolyline
 90
       22
 70
   128
 43
0.0
 10
4.4692958037
 20
1.740148951
 10
4.4760554506
 20
1.73803549
 10
4.4829742017
 20
1.7345870623
 10
4.4898816944
 20
1.7298885796
 10
4.4966078435
 20
1.7240557341
 10
4.5029870287
 20
1.7172321499
 10
4.5088621733
 20
1.7095858463
 10
4.5140886118
 20
1.7013051005
 10
4.5185376519
 20
1.6925938121
 10
4.5220997436
 20
1.683666482
 10
4.5246871761
 20
1.6747429305
 10
4.5262362385
 20
1.6660428851
 10
4.5267087876
 20
1.6577805699
 10
4.5260931878
 20
1.6501594305
 10
4.524404597
 20
1.6433671245
 10
4.5216845941
 20
1.6375709012
 10
4.5180001545
 20
1.6329134827
 10
4.5134420014
 20
1.6295095502
 10
4.5081223715
 20
1.6274429198
 10
4.502172252
 20
1.6267644788
 10
4.4957381543
 20
1.6274909327
 10
4.4953402234
 20
1.6275789603
  0
ARC
  5
2C7
330
1F
100
AcDbEntity
  8
0
  6
Continuous
 62
     7
370
     0
100
AcDbCircle
 10
4.4627047133
 20
1.7181197039
 30
0.0
 40
0.0230128144746547
100
AcDbArc
 50
73.3568757746
 51
167.629853336
  0
LWPOLYLINE
  5
2C8
330
1F
100
AcDbEntity
  8
0
  6
Continuous
 62
     7
370
     0
100
AcDbPolyline
 90
       22
 70
   128
 43
0.0
 10
4.4619680535
 20
1.7200562959
 10
4.4677902249
 20
1.7181567489
 10
4.4737448213
 20
1.7149567885
 10
4.4796404573
 20
1.710559264
 10
4.4852876421
 20
1.7051055155
 10
4.4905048706
 20
1.6987708309
 10
4.4951244568
 20
1.6917588122
 10
4.4989979233
 20
1.6842948315
 10
4.5020007739
 20
1.6766187872
 10
4.5040364944
 20
1.6689773937
 10
4.505039655
 20
1.6616162518
 10
4.5049780134
 20
1.6547719545
 10
4.5038535507
 20
1.6486644832
 10
4.5017024082
 20
1.643490137
 10
4.4985937253
 20
1.6394152237
 10
4.4946274176
 20
1.6365707145
 10
4.4899309656
 20
1.635048034
 10
4.484655317
 20
1.6348961226
 10
4.4789700356
 20
1.6361198627
 10
4.4730578509
 20
1.6386799225
 10
4.4671087855
 20
1.6424940194
 10
4.4658238712
 20
1.6434822173
  0
LWPOLYLINE
  5
2C9
330
1F
100
AcDbEntity
  8
0
  6
Continuous
 62
     7
370
     0
100
AcDbPolyline
 90
       10
 70
   128
 43
0.0
 10
4.4392374672
 20
1.6895362099
 10
4.4391507996
 20
1.69014706
 10
4.4386781373
 20
1.6972784887
 10
4.4392735865
 20
1.7037805483
 10
4.440918009
 20
1.7094442575
 10
4.4435585518
 20
1.7140875799
 10
4.4471103456
 20
1.7175612752
 10
4.4514592328
 20
1.7197536961
 10
4.4564654366
 20
1.7205943764
 10
4.4619680535
 20
1.7200562959
  0
LWPOLYLINE
  5
2CA
330
1F
100
AcDbEntity
  8
0
  6
Continuous
 62
     7
370
     0
100
AcDbPolyline
 90
       20
 70
   128
 43
0.0
 10
6.5832806533
 20
2.8370891792
 10
6.5881527405
 20
2.8223370019
 10
6.5920500428
 20
2.8076793764
 10
6.5949393098
 20
2.7932413565
 10
6.5967958914
 20
2.7791461223
 10
6.5976039479
 20
2.7655139292
 10
6.5973565851
 20
2.7524610824
 10
6.5960559135
 20
2.7400989442
 10
6.59371303
 20
2.7285329839
 10
6.5903479233
 20
2.7178618783
 10
6.5859893032
 20
2.7081766695
 10
6.5806743559
 20
2.6995599882
 10
6.5744484267
 20
2.6920853489
 10
6.5673646331
 20
2.6858165227
 10
6.5594834114
 20
2.6808069929
 10
6.5508720015
 20
2.6770994991
 10
6.5416038729
 20
2.6747256724
 10
6.5317580979
 20
2.6737057653
 10
6.5214186773
 20
2.6740484793
 10
6.5126082671
 20
2.6753496248
  0
LWPOLYLINE
  5
2CB
330
1F
100
AcDbEntity
  8
0
  6
Continuous
 62
     7
370
     0
100
AcDbPolyline
 90
       27
 70
   128
 43
0.0
 10
6.3563709651
 20
2.9459898943
 10
6.3574472144
 20
2.9489770945
 10
6.3618058345
 20
2.9586623033
 10
6.3671207818
 20
2.9672789846
 10
6.3733467109
 20
2.9747536239
 10
6.3804305046
 20
2.9810224501
 10
6.3883117263
 20
2.9860319799
 10
6.3969231362
 20
2.9897394737
 10
6.4061912648
 20
2.9921133004
 10
6.4160370397
 20
2.9931332075
 10
6.4263764603
 20
2.9927904935
 10
6.4371213142
 20
2.9910880822
 10
6.4481799302
 20
2.9880404981
 10
6.45945796
 20
2.983673742
 10
6.4708591834
 20
2.9780250695
 10
6.4822863293
 20
2.9711426732
 10
6.4936419052
 20
2.9630852713
 10
6.5048290294
 20
2.9539216066
 10
6.5157522573
 20
2.9437298603
 10
6.5263183957
 20
2.9325969847
 10
6.5364372982
 20
2.9206179618
 10
6.5460226337
 20
2.9078949921
 10
6.5549926236
 20
2.8945366237
 10
6.563270739
 20
2.8806568255
 10
6.5707863541
 20
2.8663740149
 10
6.5774753483
 20
2.851810048
 10
6.5832806533
 20
2.8370891792
  0
LWPOLYLINE
  5
2CC
330
1F
100
AcDbEntity
  8
0
  6
Continuous
 62
     7
370
     0
100
AcDbPolyline
 90
       23
 70
   128
 43
0.0
 10
6.6099237129
 20
2.8456726538
 10
6.6151449038
 20
2.8299279353
 10
6.6193713242
 20
2.814274438
 10
6.6225698966
 20
2.7988346716
 10
6.6247155878
 20
2.7837294733
 10
6.6257916049
 20
2.7690770617
 10
6.6257895267
 20
2.7549921119
 10
6.6247093693
 20
2.7415848576
 10
6.6225595865
 20
2.7289602288
 10
6.6193570032
 20
2.7172170303
 10
6.615126684
 20
2.7064471685
 10
6.6099017369
 20
2.6967349324
 10
6.6037230541
 20
2.6881563332
 10
6.5966389923
 20
2.6807785101
 10
6.5887049938
 20
2.6746592046
 10
6.579983153
 20
2.6698463086
 10
6.57054173
 20
2.6663774895
 10
6.5604546168
 20
2.6642798955
 10
6.5498007587
 20
2.6635699431
 10
6.5386635366
 20
2.6642531888
 10
6.5271301144
 20
2.666324285
 10
6.5152907568
 20
2.6697670228
 10
6.507820654
 20
2.6725857945
  0
LWPOLYLINE
  5
2CD
330
1F
100
AcDbEntity
  8
0
  6
Continuous
 62
     7
370
     0
100
AcDbPolyline
 90
       30
 70
   128
 43
0.0
 10
6.351583352
 20
2.943226064
 10
6.3523120844
 20
2.9479987482
 10
6.3549908894
 20
2.9601945989
 10
6.3587109818
 20
2.9714621574
 10
6.3634432468
 20
2.9817132398
 10
6.3691506479
 20
2.9908676175
 10
6.3757885172
 20
2.9988536452
 10
6.3833049042
 20
3.0056088212
 10
6.391640983
 20
3.0110802773
 10
6.4007315125
 20
3.0152251918
 10
6.410505347
 20
3.0180111251
 10
6.4208859929
 20
3.0194162736
 10
6.4317922077
 20
3.0194296401
 10
6.4431386354
 20
3.0180511199
 10
6.4548364749
 20
3.0152915019
 10
6.4667941746
 20
3.0111723837
 10
6.4789181495
 20
3.0057260031
 10
6.4911135128
 20
2.9989949854
 10
6.5032848195
 20
2.99103201
 10
6.5153368124
 20
2.9818993978
 10
6.5271751685
 20
2.971668624
 10
6.5387072365
 20
2.9604197583
 10
6.5498427624
 20
2.9482408383
 10
6.5604945955
 20
2.9352271805
 10
6.5705793709
 20
2.9214806344
 10
6.5800181615
 20
2.9071087855
 10
6.5887370959
 20
2.892224113
 10
6.5966679367
 20
2.8769431094
 10
6.6037486144
 20
2.8613853696
 10
6.6099237129
 20
2.8456726538
  0
LWPOLYLINE
  5
2CE
330
1F
100
AcDbEntity
  8
0
  6
Continuous
 62
     7
370
     0
100
AcDbPolyline
 90
       16
 70
   128
 43
0.0
 10
6.6841699249
 20
2.8885340796
 10
6.6893911158
 20
2.8727893612
 10
6.6936175362
 20
2.8571358638
 10
6.6968161086
 20
2.8416960975
 10
6.6989617998
 20
2.8265908992
 10
6.700037817
 20
2.8119384876
 10
6.7000357387
 20
2.7978535377
 10
6.6989555813
 20
2.7844462834
 10
6.6968057985
 20
2.7718216546
 10
6.6936032152
 20
2.7600784561
 10
6.689372896
 20
2.7493085944
 10
6.6841479489
 20
2.7395963582
 10
6.6779692662
 20
2.731017759
 10
6.6708852043
 20
2.723639936
 10
6.6629512059
 20
2.7175206305
 10
6.6597779929
 20
2.7155654652
  0
LWPOLYLINE
  5
2CF
330
1F
100
AcDbEntity
  8
0
  6
Continuous
 62
     7
370
     0
100
AcDbPolyline
 90
       23
 70
   128
 43
0.0
 10
6.46479384
 20
3.0533245216
 10
6.465887195
 20
3.0539417032
 10
6.4749777245
 20
3.0580866177
 10
6.484751559
 20
3.060872551
 10
6.4951322049
 20
3.0622776995
 10
6.5060384197
 20
3.062291066
 10
6.5173848474
 20
3.0609125458
 10
6.5290826869
 20
3.0581529277
 10
6.5410403867
 20
3.0540338096
 10
6.5531643615
 20
3.048587429
 10
6.5653597248
 20
3.0418564113
 10
6.5775310315
 20
3.0338934358
 10
6.5895830244
 20
3.0247608237
 10
6.6014213805
 20
3.0145300499
 10
6.6129534485
 20
3.0032811842
 10
6.6240889744
 20
2.9911022641
 10
6.6347408075
 20
2.9780886063
 10
6.6448255829
 20
2.9643420603
 10
6.6542643735
 20
2.9499702114
 10
6.6629833079
 20
2.9350855388
 10
6.6709141488
 20
2.9198045353
 10
6.6779948264
 20
2.9042467954
 10
6.6841699249
 20
2.8885340796
  0
LWPOLYLINE
  5
2D0
330
1F
100
AcDbEntity
  8
0
  6
Continuous
 62
     7
370
     0
100
AcDbPolyline
 90
       22
 70
   128
 43
0.0
 10
6.6966708489
 20
2.8889534731
 10
6.7021478478
 20
2.8725184187
 10
6.7066438158
 20
2.8561670206
 10
6.7101272169
 20
2.8400139722
 10
6.7125736175
 20
2.8241725755
 10
6.7139658578
 20
2.8087539465
 10
6.7142941723
 20
2.7938662359
 10
6.7135562581
 20
2.7796138701
 10
6.7117572912
 20
2.7660968193
 10
6.70890989
 20
2.7534098959
 10
6.7050340269
 20
2.7416420896
 10
6.7001568884
 20
2.7308759431
 10
6.6943126841
 20
2.7211869731
 10
6.6875424069
 20
2.7126431408
 10
6.6798935454
 20
2.7053043751
 10
6.6714197509
 20
2.6992221521
 10
6.662180461
 20
2.6944391342
 10
6.6522404825
 20
2.690988871
 10
6.6416695375
 20
2.6888955634
 10
6.6305417734
 20
2.6881738946
 10
6.6189352435
 20
2.6888289265
 10
6.614497388
 20
2.6894255284
  0
LWPOLYLINE
  5
2D1
330
1F
100
AcDbEntity
  8
0
  6
Continuous
 62
     7
370
     0
100
AcDbPolyline
 90
       29
 70
   128
 43
0.0
 10
6.4195132351
 20
3.0271845847
 10
6.4218531919
 20
3.0327610688
 10
6.4272185697
 20
3.0429976063
 10
6.4335313478
 20
3.0521220111
 10
6.4407472467
 20
3.060070282
 10
6.4488156521
 20
3.0667866678
 10
6.4576799698
 20
3.0722240578
 10
6.4672780231
 20
3.0763443125
 10
6.4775424885
 20
3.0791185314
 10
6.4884013682
 20
3.0805272552
 10
6.4997784949
 20
3.0805606029
 10
6.5115940662
 20
3.0792183405
 10
6.5237652045
 20
3.0765098831
 10
6.5362065378
 20
3.0724542284
 10
6.5488307993
 20
3.067079824
 10
6.5615494388
 20
3.0604243675
 10
6.5742732441
 20
3.0525345421
 10
6.5869129669
 20
3.0434656894
 10
6.5993799486
 20
3.0332814207
 10
6.6115867424
 20
3.0220531714
 10
6.6234477263
 20
3.0098596996
 10
6.634879704
 20
2.9967865337
 10
6.6458024885
 20
2.9829253727
 10
6.6561394643
 20
2.9683734425
 10
6.6658181248
 20
2.9532328146
 10
6.6747705813
 20
2.9376096896
 10
6.6829340387
 20
2.9216136524
 10
6.6902512361
 20
2.9053569038
 10
6.6966708489
 20
2.8889534731
  0
LWPOLYLINE
  5
2D2
330
1F
100
AcDbEntity
  8
0
  6
Continuous
 62
     7
370
     0
100
AcDbPolyline
 90
       27
 70
   128
 43
0.0
 10
6.7432962031
 20
2.9039745536
 10
6.7492316761
 20
2.8862779281
 10
6.7541916771
 20
2.8686562037
 10
6.7581463761
 20
2.8512153594
 10
6.7610719891
 20
2.8340602867
 10
6.762950921
 20
2.817294158
 10
6.7637718719
 20
2.801017807
 10
6.7635299043
 20
2.7853291214
 10
6.7622264735
 20
2.7703224548
 10
6.7598694184
 20
2.7560880592
 10
6.7564729148
 20
2.7427115419
 10
6.7520573895
 20
2.7302733507
 10
6.7466493981
 20
2.7188482905
 10
6.7402814649
 20
2.708505073
 10
6.7329918872
 20
2.6993059033
 10
6.7248245056
 20
2.6913061065
 10
6.7158284397
 20
2.6845537942
 10
6.7060577927
 20
2.6790895757
 10
6.6955713266
 20
2.6749463134
 10
6.6844321081
 20
2.6721489253
 10
6.6727071299
 20
2.6707142353
 10
6.6604669074
 20
2.6706508718
 10
6.6477850546
 20
2.6719592159
 10
6.6347378418
 20
2.6746313989
 10
6.6214037364
 20
2.6786513502
 10
6.6078629313
 20
2.6839948932
 10
6.6062979346
 20
2.6846920847
  0
LWPOLYLINE
  5
2D3
330
1F
100
AcDbEntity
  8
0
  6
Continuous
 62
     7
370
     0
100
AcDbPolyline
 90
       34
 70
   128
 43
0.0
 10
6.4113137817
 20
3.022451141
 10
6.4128903969
 20
3.034361013
 10
6.4157693414
 20
3.0481768597
 10
6.4196782955
 20
3.0610939282
 10
6.4245937505
 20
3.0730345337
 10
6.4304861442
 20
3.0839268642
 10
6.4373200391
 20
3.0937054117
 10
6.4450543353
 20
3.102311367
 10
6.4536425178
 20
3.1096929729
 10
6.4630329363
 20
3.1158058355
 10
6.4731691157
 20
3.1206131912
 10
6.4839900959
 20
3.1240861283
 10
6.4954307982
 20
3.1262037598
 10
6.5074224168
 20
3.1269533503
 10
6.5198928328
 20
3.1263303915
 10
6.5327670476
 20
3.1243386301
 10
6.5459676342
 20
3.1209900446
 10
6.5594152027
 20
3.1163047739
 10
6.5730288778
 20
3.1103109958
 10
6.5867267852
 20
3.1030447575
 10
6.6004265443
 20
3.094549759
 10
6.6140457629
 20
3.0848770904
 10
6.6275025336
 20
3.074084924
 10
6.6407159256
 20
3.0622381654
 10
6.6536064722
 20
3.0494080622
 10
6.666096648
 20
3.0356717763
 10
6.6781113357
 20
3.0211119193
 10
6.6895782775
 20
3.0058160559
 10
6.7004285099
 20
2.9898761771
 10
6.7105967783
 20
2.9733881474
 10
6.7200219295
 20
2.9564511276
 10
6.7286472797
 20
2.9391669791
 10
6.7364209548
 20
2.9216396506
 10
6.7432962031
 20
2.9039745536
  0
LWPOLYLINE
  5
2D4
330
1F
100
AcDbEntity
  8
0
  6
Continuous
 62
     7
370
     0
100
AcDbPolyline
 90
       14
 70
   128
 43
0.0
 10
6.5715610371
 20
2.8366959978
 10
6.5761544426
 20
2.8227028257
 10
6.5797630585
 20
2.8088128608
 10
6.5823521319
 20
2.7951598713
 10
6.5838967285
 20
2.7818753427
 10
6.5843819731
 20
2.7690872124
 10
6.5838031925
 20
2.7569186371
 10
6.5821659606
 20
2.7454868068
 10
6.579486045
 20
2.7349018162
 10
6.5757892546
 20
2.7252656047
 10
6.5711111915
 20
2.7166709741
 10
6.5654969082
 20
2.7092006956
 10
6.5590004731
 20
2.7029267119
 10
6.5520162198
 20
2.6980993517
  0
LWPOLYLINE
  5
2D5
330
1F
100
AcDbEntity
  8
0
  6
Continuous
 62
     7
370
     0
100
AcDbPolyline
 90
       21
 70
   128
 43
0.0
 10
6.3957789178
 20
2.9687396211
 10
6.3961106871
 20
2.9689295278
 10
6.4041758399
 20
2.9726417589
 10
6.412912451
 20
2.9750132035
 10
6.4222363821
 20
2.9760210231
 10
6.4320578388
 20
2.975655512
 10
6.4422822348
 20
2.9739201903
 10
6.4528111039
 20
2.9708317699
 10
6.4635430471
 20
2.9664199941
 10
6.47437471
 20
2.9607273508
 10
6.4852017778
 20
2.9538086631
 10
6.4959199799
 20
2.9457305618
 10
6.5064260941
 20
2.9365708435
 10
6.5166189409
 20
2.9264177212
 10
6.5264003574
 20
2.9153689751
 10
6.5356761435
 20
2.9035310106
 10
6.544356968
 20
2.8910178338
 10
6.5523592301
 20
2.8779499534
 10
6.5596058634
 20
2.8644532203
 10
6.5660270791
 20
2.8506576154
 10
6.5715610371
 20
2.8366959978
  0
LWPOLYLINE
  5
2D6
330
1F
100
AcDbEntity
  8
0
  6
Continuous
 62
     7
370
     0
100
AcDbPolyline
 90
       18
 70
   128
 43
0.0
 10
7.1357404667
 20
3.1305278046
 10
7.1416759396
 20
3.1128311791
 10
7.1466359407
 20
3.0952094547
 10
7.1505906397
 20
3.0777686105
 10
7.1535162526
 20
3.0606135377
 10
7.1553951846
 20
3.0438474091
 10
7.1562161354
 20
3.027571058
 10
7.1559741678
 20
3.0118823724
 10
7.154670737
 20
2.9968757059
 10
7.152313682
 20
2.9826413103
 10
7.1489171784
 20
2.9692647929
 10
7.1445016531
 20
2.9568266018
 10
7.1390936617
 20
2.9454015416
 10
7.1327257284
 20
2.935058324
 10
7.1254361508
 20
2.9258591544
 10
7.1172687692
 20
2.9178593575
 10
7.1082727032
 20
2.9111070453
 10
7.104468759
 20
2.9087731708
  0
LWPOLYLINE
  5
2D7
330
1F
100
AcDbEntity
  8
0
  6
Continuous
 62
     7
370
     0
100
AcDbPolyline
 90
       26
 70
   128
 43
0.0
 10
6.8544890758
 20
3.341797602
 10
6.8554771998
 20
3.3423590865
 10
6.8656133793
 20
3.3471664423
 10
6.8764343594
 20
3.3506393793
 10
6.8878750617
 20
3.3527570109
 10
6.8998666804
 20
3.3535066013
 10
6.9123370964
 20
3.3528836426
 10
6.9252113112
 20
3.3508918811
 10
6.9384118978
 20
3.3475432956
 10
6.9518594662
 20
3.3428580249
 10
6.9654731413
 20
3.3368642468
 10
6.9791710488
 20
3.3295980085
 10
6.9928708078
 20
3.3211030101
 10
7.0064900265
 20
3.3114303414
 10
7.0199467971
 20
3.300638175
 10
7.0331601892
 20
3.2887914164
 10
7.0460507358
 20
3.2759613133
 10
7.0585409116
 20
3.2622250274
 10
7.0705555993
 20
3.2476651703
 10
7.0820225411
 20
3.2323693069
 10
7.0928727735
 20
3.2164294282
 10
7.1030410419
 20
3.1999413984
 10
7.1124661931
 20
3.1830043787
 10
7.1210915432
 20
3.1657202301
 10
7.1288652183
 20
3.1481929016
 10
7.1357404667
 20
3.1305278046
  0
ARC
  5
2D8
330
1F
100
AcDbEntity
  8
0
  6
Continuous
 62
     7
370
     0
100
AcDbCircle
 10
6.8820391531
 20
3.0467650965
 30
0.0
 40
0.274409026224591
100
AcDbArc
 50
2.1466161327
 51
20.7712695498
  0
ARC
  5
2D9
330
1F
100
AcDbEntity
  8
0
  6
Continuous
 62
     7
370
     0
100
AcDbCircle
 10
6.8180734611
 20
3.032433135
 30
0.0
 40
0.3394268387120785
100
AcDbArc
 50
19.2038799931
 51
56.7351701081
  0
LWPOLYLINE
  5
2DA
330
1F
100
AcDbEntity
  8
0
  6
Continuous
 62
     7
370
     0
100
AcDbPolyline
 90
       41
 70
   128
 43
0.0
 10
4.9972862754
 20
2.2517598729
 10
4.9996615912
 20
2.2530766514
 10
5.0096568428
 20
2.257531966
 10
5.0203322159
 20
2.2606327398
 10
5.0316184767
 20
2.262358863
 10
5.0434424295
 20
2.2626991411
 10
5.0557273913
 20
2.2616513673
 10
5.0683936895
 20
2.2592223367
 10
5.0813591783
 20
2.2554278027
 10
5.0945397715
 20
2.2502923741
 10
5.1078499879
 20
2.2438493562
 10
5.1212035057
 20
2.2361405345
 10
5.1345137221
 20
2.2272159036
 10
5.1476943153
 20
2.2171333432
 10
5.1606598041
 20
2.2059582426
 10
5.1733261023
 20
2.1937630765
 10
5.1856110641
 20
2.1806269353
 10
5.1974350169
 20
2.1666350119
 10
5.2087212777
 20
2.1518780493
 10
5.2193966508
 20
2.1364517521
 10
5.2293919024
 20
2.1204561657
 10
5.2386422094
 20
2.1039950276
 10
5.2470875799
 20
2.0871750947
 10
5.2546732426
 20
2.0701054507
 10
5.2613500015
 20
2.0528967987
 10
5.2670745552
 20
2.0356607435
 10
5.2718097778
 20
2.0185090674
 10
5.2755249597
 20
2.0015530058
 10
5.2781960063
 20
1.9849025251
 10
5.279805595
 20
1.9686656102
 10
5.280343287
 20
1.9529475636
 10
5.279805595
 20
1.9378503229
 10
5.2781960063
 20
1.9234717995
 10
5.2755249597
 20
1.9099052436
 10
5.2718097778
 20
1.8972386396
 10
5.2670745552
 20
1.8855541353
 10
5.2613500015
 20
1.8749275091
 10
5.2546732426
 20
1.8654276788
 10
5.2470875799
 20
1.8571162545
 10
5.2386422094
 20
1.8500471389
 10
5.2317672182
 20
1.8455829564
  0
LWPOLYLINE
  5
2DB
330
1F
100
AcDbEntity
  8
0
  6
Continuous
 62
     7
370
     0
100
AcDbPolyline
 90
       20
 70
   128
 43
0.0
 10
4.9044230239
 20
2.1077981892
 10
4.9041624794
 20
2.1186784103
 10
4.9047106122
 20
2.1339182515
 10
4.9063513868
 20
2.1484244767
 10
4.9090739555
 20
2.1621011805
 10
4.9128603185
 20
2.1748579419
 10
4.917685443
 20
2.186610422
 10
4.9235174285
 20
2.1972809213
 10
4.9303177179
 20
2.2067988939
 10
4.9380413525
 20
2.2151014134
 10
4.9466372687
 20
2.2221335891
 10
4.9560486364
 20
2.2278489293
 10
4.9662132338
 20
2.2322096479
 10
4.9770638597
 20
2.2351869149
 10
4.9885287772
 20
2.2367610465
 10
5.0005321879
 20
2.2369216358
 10
5.0129947337
 20
2.235667621
 10
5.0258340206
 20
2.2330072928
 10
5.0389651641
 20
2.2289582395
 10
5.0523013501
 20
2.2235472306
  0
LWPOLYLINE
  5
2DC
330
1F
100
AcDbEntity
  8
0
  6
Continuous
 62
     7
370
     0
100
AcDbPolyline
 90
       37
 70
   128
 43
0.0
 10
5.0876566891
 20
2.2031370278
 10
5.100992875
 20
2.1931504042
 10
5.1141240185
 20
2.182038562
 10
5.1269633055
 20
2.169874965
 10
5.1394258512
 20
2.1567400307
 10
5.151429262
 20
2.1427205983
 10
5.1628941795
 20
2.1279093547
 10
5.1737448054
 20
2.1124042218
 10
5.1839094028
 20
2.0963077088
 10
5.1933207704
 20
2.0797262348
 10
5.2019166867
 20
2.0627694254
 10
5.2096403212
 20
2.0455493873
 10
5.2164406107
 20
2.0281799676
 10
5.2222725962
 20
2.0107760011
 10
5.2270977207
 20
1.9934525509
 10
5.2308840837
 20
1.9763241478
 10
5.2336066524
 20
1.9595040331
 10
5.235247427
 20
1.94310341
 10
5.2357955598
 20
1.927230708
 10
5.235247427
 20
1.9119908668
 10
5.2336066524
 20
1.8974846416
 10
5.2308840837
 20
1.8838079379
 10
5.2270977207
 20
1.8710511764
 10
5.2222725962
 20
1.8592986964
 10
5.2164406107
 20
1.848628197
 10
5.2096403212
 20
1.8391102244
 10
5.2019166867
 20
1.8308077049
 10
5.1933207704
 20
1.8237755292
 10
5.1839094028
 20
1.818060189
 10
5.1737448054
 20
1.8136994704
 10
5.1628941795
 20
1.8107222034
 10
5.151429262
 20
1.8091480718
 10
5.1394258512
 20
1.8089874825
 10
5.1269633055
 20
1.8102414973
 10
5.1141240185
 20
1.8129018255
 10
5.100992875
 20
1.8169508788
 10
5.0876566891
 20
1.8223618877
  0
LINE
  5
2DD
330
1F
100
AcDbEntity
  8
0
  6
Continuous
 62
     7
370
     0
100
AcDbLine
 10
5.1187693875
 20
2.2210980063
 30
0.0
 11
5.0876566891
 21
2.2031370278
 31
0.0
  0
ARC
  5
2DE
330
1F
100
AcDbEntity
  8
0
  6
Continuous
 62
     7
370
     0
100
AcDbCircle
 10
4.9909912448
 20
2.0409465793
 30
0.0
 40
0.2208660009913236
100
AcDbArc
 50
54.6526128373
 51
65.2628247027
  0
LINE
  5
2DF
330
1F
100
AcDbEntity
  8
0
  6
Continuous
 62
     7
370
     0
100
AcDbLine
 10
5.0834140484
 20
2.2415082091
 30
0.0
 11
5.0523013501
 21
2.2235472306
 31
0.0
  0
LINE
  5
2E0
330
1F
100
AcDbEntity
  8
0
  6
Continuous
 62
     7
370
     0
100
AcDbLine
 10
5.0876566891
 20
1.8223618877
 30
0.0
 11
5.0876566891
 21
1.8527425885
 31
0.0
  0
LWPOLYLINE
  5
2E1
330
1F
100
AcDbEntity
  8
0
  6
Continuous
 62
     7
370
     0
100
AcDbPolyline
 90
       23
 70
   128
 43
0.0
 10
5.0876566891
 20
2.1386902903
 10
5.0985334618
 20
2.1297203627
 10
5.1091207976
 20
2.1196682233
 10
5.1193113801
 20
2.1086357639
 10
5.1290019143
 20
2.0967348129
 10
5.1380941739
 20
2.084086002
 10
5.1464959968
 20
2.0708175437
 10
5.1541222197
 20
2.057063931
 10
5.1608955406
 20
2.0429645751
 10
5.1667473032
 20
2.0286623914
 10
5.171618192
 20
2.0143023513
 10
5.1754588342
 20
2.0000300126
 10
5.1782302999
 20
1.9859900444
 10
5.1799044966
 20
1.9723247601
 10
5.1804644541
 20
1.9591726754
 10
5.1799044966
 20
1.9466671039
 10
5.1782302999
 20
1.934934806
 10
5.1754588342
 20
1.9240947039
 10
5.171618192
 20
1.9142566765
 10
5.1667473032
 20
1.9055204449
 10
5.1608955406
 20
1.8979745623
 10
5.1541222197
 20
1.8916955163
 10
5.1480976706
 20
1.8876344244
  0
LINE
  5
2E2
330
1F
100
AcDbEntity
  8
0
  6
Continuous
 62
     7
370
     0
100
AcDbLine
 10
5.0876566891
 20
2.1386902903
 30
0.0
 11
5.0876566891
 21
2.2031370278
 31
0.0
  0
LINE
  5
2E3
330
1F
100
AcDbEntity
  8
0
  6
Continuous
 62
     7
370
     0
100
AcDbLine
 10
5.2388007636
 20
2.30462408
 30
0.0
 11
5.4509328014
 21
2.4270852988
 31
0.0
  0
ARC
  5
2E4
330
1F
100
AcDbEntity
  8
0
  6
Continuous
 62
     7
370
     0
100
AcDbCircle
 10
5.1689061819
 20
2.1331956361
 30
0.0
 40
0.1852231973629731
100
AcDbArc
 50
51.9788115842
 51
67.8301650114
  0
LINE
  5
2E5
330
1F
100
AcDbEntity
  8
0
  6
Continuous
 62
     7
370
     0
100
AcDbLine
 10
5.4941505161
 20
2.4010088475
 30
0.0
 11
5.2829949374
 21
2.2791113266
 31
0.0
  0
LINE
  5
2E6
330
1F
100
AcDbEntity
  8
0
  6
Continuous
 62
     7
370
     0
100
AcDbLine
 10
5.3909634834
 20
2.000833622
 30
0.0
 11
5.6030955227
 21
2.1232948416
 31
0.0
  0
ARC
  5
2E7
330
1F
100
AcDbEntity
  8
0
  6
Continuous
 62
     7
370
     0
100
AcDbCircle
 10
5.3164482254
 20
2.0294440407
 30
0.0
 40
0.0798190436812872
100
AcDbArc
 50
311.0496357148
 51
338.995516056
  0
LINE
  5
2E8
330
1F
100
AcDbEntity
  8
0
  6
Continuous
 62
     7
370
     0
100
AcDbLine
 10
5.5809984504
 20
2.0918546589
 30
0.0
 11
5.3688663965
 21
1.9693934309
 31
0.0
  0
LINE
  5
2E9
330
1F
100
AcDbEntity
  8
0
  6
Continuous
 62
     7
370
     0
100
AcDbLine
 10
5.4810946686
 20
2.4108060965
 30
0.0
 11
5.2694818816
 21
2.2886446349
 31
0.0
  0
LINE
  5
2EA
330
1F
100
AcDbEntity
  8
0
  6
Continuous
 62
     7
370
     0
100
AcDbLine
 10
5.0834140484
 20
2.1770614716
 30
0.0
 11
5.0876566891
 21
2.1753091356
 31
0.0
  0
ARC
  5
2EB
330
1F
100
AcDbEntity
  8
0
  6
Continuous
 62
     7
370
     0
100
AcDbCircle
 10
5.0223809419
 20
2.0962527314
 30
0.0
 40
0.069606551208824
100
AcDbArc
 50
64.5419295982
 51
116.0064747381
  0
LINE
  5
2EC
330
1F
100
AcDbEntity
  8
0
  6
Continuous
 62
     7
370
     0
100
AcDbLine
 10
5.0834140484
 20
2.1770614716
 30
0.0
 11
5.0523013501
 21
2.1591004931
 31
0.0
  0
LINE
  5
2ED
330
1F
100
AcDbEntity
  8
0
  6
Continuous
 62
     7
370
     0
100
AcDbLine
 10
5.0834140484
 20
2.2415082091
 30
0.0
 11
5.0834140484
 21
2.1770614716
 31
0.0
  0
LINE
  5
2EE
330
1F
100
AcDbEntity
  8
0
  6
Continuous
 62
     7
370
     0
100
AcDbLine
 10
5.0523013501
 20
2.2235472306
 30
0.0
 11
5.0523013501
 21
2.1591004931
 31
0.0
  0
ENDSEC
  0
SECTION
  2
OBJECTS
  0
DICTIONARY
  5
C
330
0
100
AcDbDictionary
281
     1
  3
ACAD_GROUP
350
D
  3
ACAD_LAYOUT
350
1A
  3
ACAD_MLINESTYLE
350
17
  3
ACAD_PLOTSETTINGS
350
19
  3
ACAD_PLOTSTYLENAME
350
E
  0
DICTIONARY
  5
D
102
{ACAD_REACTORS
330
C
102
}
330
C
100
AcDbDictionary
281
     1
  0
DICTIONARY
  5
1A
102
{ACAD_REACTORS
330
C
102
}
330
C
100
AcDbDictionary
281
     1
  3
Layout1
350
1E
  3
Layout2
350
26
  3
Model
350
22
  0
DICTIONARY
  5
17
102
{ACAD_REACTORS
330
C
102
}
330
C
100
AcDbDictionary
281
     1
  3
Standard
350
18
  0
DICTIONARY
  5
19
102
{ACAD_REACTORS
330
C
102
}
330
C
100
AcDbDictionary
281
     1
  0
ACDBDICTIONARYWDFLT
  5
E
102
{ACAD_REACTORS
330
C
102
}
330
C
100
AcDbDictionary
281
     1
  3
Normal
350
F
100
AcDbDictionaryWithDefault
340
F
  0
LAYOUT
  5
1E
102
{ACAD_REACTORS
330
1A
102
}
330
1A
100
AcDbPlotSettings
  1

  2

  4

  6

 40
0.0
 41
0.0
 42
0.0
 43
0.0
 44
0.0
 45
0.0
 46
0.0
 47
0.0
 48
0.0
 49
0.0
140
0.0
141
0.0
142
1.0
143
1.0
 70
   688
 72
     0
 73
     0
 74
     5
  7

 75
    16
147
1.0
148
0.0
149
0.0
100
AcDbLayout
  1
Layout1
 70
     1
 71
     1
 10
0.0
 20
0.0
 11
0.0
 21
0.0
 12
0.0
 22
0.0
 32
0.0
 14
0.0
 24
0.0
 34
0.0
 15
0.0
 25
0.0
 35
0.0
146
0.0
 13
0.0
 23
0.0
 33
0.0
 16
1.0
 26
0.0
 36
0.0
 17
0.0
 27
1.0
 37
0.0
 76
     0
330
1B
  0
LAYOUT
  5
26
102
{ACAD_REACTORS
330
1A
102
}
330
1A
100
AcDbPlotSettings
  1

  2

  4

  6

 40
0.0
 41
0.0
 42
0.0
 43
0.0
 44
0.0
 45
0.0
 46
0.0
 47
0.0
 48
0.0
 49
0.0
140
0.0
141
0.0
142
1.0
143
1.0
 70
   688
 72
     0
 73
     0
 74
     5
  7

 75
    16
147
1.0
148
0.0
149
0.0
100
AcDbLayout
  1
Layout2
 70
     1
 71
     2
 10
0.0
 20
0.0
 11
0.0
 21
0.0
 12
0.0
 22
0.0
 32
0.0
 14
0.0
 24
0.0
 34
0.0
 15
0.0
 25
0.0
 35
0.0
146
0.0
 13
0.0
 23
0.0
 33
0.0
 16
1.0
 26
0.0
 36
0.0
 17
0.0
 27
1.0
 37
0.0
 76
     0
330
23
  0
LAYOUT
  5
22
102
{ACAD_REACTORS
330
1A
102
}
330
1A
100
AcDbPlotSettings
  1

  2

  4

  6

 40
0.0
 41
0.0
 42
0.0
 43
0.0
 44
0.0
 45
0.0
 46
0.0
 47
0.0
 48
0.0
 49
0.0
140
0.0
141
0.0
142
1.0
143
1.0
 70
  1712
 72
     0
 73
     0
 74
     0
  7

 75
     0
147
1.0
148
0.0
149
0.0
100
AcDbLayout
  1
Model
 70
     1
 71
     0
 10
0.0
 20
0.0
 11
0.0
 21
0.0
 12
0.0
 22
0.0
 32
0.0
 14
0.0
 24
0.0
 34
0.0
 15
11.0
 25
8.5
 35
0.0
146
0.0
 13
0.0
 23
0.0
 33
0.0
 16
1.0
 26
0.0
 36
0.0
 17
0.0
 27
1.0
 37
0.0
 76
     0
330
1F
  0
MLINESTYLE
  5
18
102
{ACAD_REACTORS
330
17
102
}
330
17
100
AcDbMlineStyle
  2
Standard
 70
     0
  3

 62
   256
 51
90.0
 52
90.0
 71
     2
 49
0.5
 62
   256
  6
BYLAYER
 49
-0.5
 62
   256
  6
BYLAYER
  0
ACDBPLACEHOLDER
  5
F
102
{ACAD_REACTORS
330
E
102
}
330
E
  0
ENDSEC
  0
EOF
