  0
SECTION
  2
HEADER
  9
$ACADVER
  1
AC1015
  9
$ACADMAINTVER
 70
     6
  9
$DWGCODEPAGE
  3
ANSI_1252
  9
$INSBASE
 10
0.0
 20
0.0
 30
0.0
  9
$EXTMIN
 10
0.0
 20
0.0
 30
0.0
  9
$EXTMAX
 10
11.0
 20
8.5
 30
0.0
  9
$LIMMIN
 10
0.0
 20
0.0
  9
$LIMMAX
 10
0.0
 20
0.0
  9
$ORTHOMODE
 70
     0
  9
$REGENMODE
 70
     1
  9
$FILLMODE
 70
     1
  9
$QTEXTMODE
 70
     0
  9
$MIRRTEXT
 70
     1
  9
$LTSCALE
 40
1.0
  9
$ATTMODE
 70
     1
  9
$TEXTSIZE
 40
0.1388888889
  9
$TRACEWID
 40
0.05
  9
$TEXTSTYLE
  7
Standard
  9
$CLAYER
  8
0
  9
$CELTYPE
  6
ByLayer
  9
$CECOLOR
 62
   256
  9
$CELTSCALE
 40
1.0
  9
$DISPSILH
 70
     0
  9
$DIMSCALE
 40
1.0
  9
$DIMASZ
 40
0.156
  9
$DIMEXO
 40
0.05
  9
$DIMDLI
 40
0.38
  9
$DIMRND
 40
0.0
  9
$DIMDLE
 40
0.0
  9
$DIMEXE
 40
0.125
  9
$DIMTP
 40
0.0
  9
$DIMTM
 40
0.0
  9
$DIMTXT
 40
0.1388888889
  9
$DIMCEN
 40
0.09
  9
$DIMTSZ
 40
0.0
  9
$DIMTOL
 70
     0
  9
$DIMLIM
 70
     0
  9
$DIMTIH
 70
     1
  9
$DIMTOH
 70
     1
  9
$DIMSE1
 70
     0
  9
$DIMSE2
 70
     0
  9
$DIMTAD
 70
     0
  9
$DIMZIN
 70
     0
  9
$DIMBLK
  1

  9
$DIMASO
 70
     1
  9
$DIMSHO
 70
     1
  9
$DIMPOST
  1

  9
$DIMAPOST
  1

  9
$DIMALT
 70
     0
  9
$DIMALTD
 70
     2
  9
$DIMALTF
 40
25.4
  9
$DIMLFAC
 40
0.5
  9
$DIMTOFL
 70
     0
  9
$DIMTVP
 40
0.0
  9
$DIMTIX
 70
     0
  9
$DIMSOXD
 70
     0
  9
$DIMSAH
 70
     0
  9
$DIMBLK1
  1

  9
$DIMBLK2
  1

  9
$DIMSTYLE
  2
Standard
  9
$DIMCLRD
 70
     0
  9
$DIMCLRE
 70
     0
  9
$DIMCLRT
 70
     0
  9
$DIMTFAC
 40
1.0
  9
$DIMGAP
 40
0.06
  9
$DIMJUST
 70
     0
  9
$DIMSD1
 70
     0
  9
$DIMSD2
 70
     0
  9
$DIMTOLJ
 70
     1
  9
$DIMTZIN
 70
     0
  9
$DIMALTZ
 70
     0
  9
$DIMALTTZ
 70
     0
  9
$DIMUPT
 70
     0
  9
$DIMDEC
 70
     4
  9
$DIMTDEC
 70
     4
  9
$DIMALTU
 70
     2
  9
$DIMALTTD
 70
     2
  9
$DIMTXSTY
  7
Standard
  9
$DIMAUNIT
 70
     0
  9
$DIMADEC
 70
     0
  9
$DIMALTRND
 40
0.0
  9
$DIMAZIN
 70
     0
  9
$DIMDSEP
 70
    46
  9
$DIMATFIT
 70
     3
  9
$DIMFRAC
 70
     0
  9
$DIMLDRBLK
  1

  9
$DIMLUNIT
 70
     2
  9
$DIMLWD
 70
    -2
  9
$DIMLWE
 70
    -2
  9
$DIMTMOVE
 70
     0
  9
$LUNITS
 70
     2
  9
$LUPREC
 70
     2
  9
$SKETCHINC
 40
0.1
  9
$FILLETRAD
 40
0.5
  9
$AUNITS
 70
     0
  9
$AUPREC
 70
     0
  9
$MENU
  1
.
  9
$ELEVATION
 40
0.0
  9
$PELEVATION
 40
0.0
  9
$THICKNESS
 40
0.0
  9
$LIMCHECK
 70
     0
  9
$CHAMFERA
 40
0.5
  9
$CHAMFERB
 40
0.5
  9
$CHAMFERC
 40
1.0
  9
$CHAMFERD
 40
0.0
  9
$SKPOLY
 70
     0
  9
$TDCREATE
 40
2454805.324758565
  9
$TDUCREATE
 40
2454805.533091898
  9
$TDUPDATE
 40
2454805.324758576
  9
$TDUUPDATE
 40
2454805.53309191
  9
$TDINDWG
 40
0.0000000116
  9
$TDUSRTIMER
 40
0.0000000116
  9
$USRTIMER
 70
     1
  9
$ANGBASE
 50
0.0
  9
$ANGDIR
 70
     0
  9
$PDMODE
 70
     0
  9
$PDSIZE
 40
-1.0
  9
$PLINEWID
 40
0.0
  9
$SPLFRAME
 70
     0
  9
$SPLINETYPE
 70
     6
  9
$SPLINESEGS
 70
     8
  9
$HANDSEED
  5
458
  9
$SURFTAB1
 70
     6
  9
$SURFTAB2
 70
     6
  9
$SURFTYPE
 70
     6
  9
$SURFU
 70
     6
  9
$SURFV
 70
     6
  9
$UCSBASE
  2

  9
$UCSNAME
  2

  9
$UCSORG
 10
0.0
 20
0.0
 30
0.0
  9
$UCSXDIR
 10
1.0
 20
0.0
 30
0.0
  9
$UCSYDIR
 10
0.0
 20
1.0
 30
0.0
  9
$UCSORTHOREF
  2

  9
$UCSORTHOVIEW
 70
     0
  9
$UCSORGTOP
 10
0.0
 20
0.0
 30
0.0
  9
$UCSORGBOTTOM
 10
0.0
 20
0.0
 30
0.0
  9
$UCSORGLEFT
 10
0.0
 20
0.0
 30
0.0
  9
$UCSORGRIGHT
 10
0.0
 20
0.0
 30
0.0
  9
$UCSORGFRONT
 10
0.0
 20
0.0
 30
0.0
  9
$UCSORGBACK
 10
0.0
 20
0.0
 30
0.0
  9
$PUCSBASE
  2

  9
$PUCSNAME
  2

  9
$PUCSORG
 10
0.0
 20
0.0
 30
0.0
  9
$PUCSXDIR
 10
1.0
 20
0.0
 30
0.0
  9
$PUCSYDIR
 10
0.0
 20
1.0
 30
0.0
  9
$PUCSORTHOREF
  2

  9
$PUCSORTHOVIEW
 70
     0
  9
$PUCSORGTOP
 10
0.0
 20
0.0
 30
0.0
  9
$PUCSORGBOTTOM
 10
0.0
 20
0.0
 30
0.0
  9
$PUCSORGLEFT
 10
0.0
 20
0.0
 30
0.0
  9
$PUCSORGRIGHT
 10
0.0
 20
0.0
 30
0.0
  9
$PUCSORGFRONT
 10
0.0
 20
0.0
 30
0.0
  9
$PUCSORGBACK
 10
0.0
 20
0.0
 30
0.0
  9
$USERI1
 70
     0
  9
$USERI2
 70
     0
  9
$USERI3
 70
     0
  9
$USERI4
 70
     0
  9
$USERI5
 70
     0
  9
$USERR1
 40
0.0
  9
$USERR2
 40
0.0
  9
$USERR3
 40
0.0
  9
$USERR4
 40
0.0
  9
$USERR5
 40
0.0
  9
$WORLDVIEW
 70
     1
  9
$SHADEDGE
 70
     3
  9
$SHADEDIF
 70
    70
  9
$TILEMODE
 70
     1
  9
$MAXACTVP
 70
    64
  9
$PINSBASE
 10
0.0
 20
0.0
 30
0.0
  9
$PLIMCHECK
 70
     0
  9
$PEXTMIN
 10
1.0000000000E+20
 20
1.0000000000E+20
 30
1.0000000000E+20
  9
$PEXTMAX
 10
-1.0000000000E+20
 20
-1.0000000000E+20
 30
-1.0000000000E+20
  9
$PLIMMIN
 10
0.0
 20
0.0
  9
$PLIMMAX
 10
12.0
 20
9.0
  9
$UNITMODE
 70
     0
  9
$VISRETAIN
 70
     1
  9
$PLINEGEN
 70
     0
  9
$PSLTSCALE
 70
     1
  9
$TREEDEPTH
 70
  3020
  9
$CMLSTYLE
  2
Standard
  9
$CMLJUST
 70
     0
  9
$CMLSCALE
 40
1.0
  9
$PROXYGRAPHICS
 70
     1
  9
$MEASUREMENT
 70
     0
  9
$CELWEIGHT
370
    -1
  9
$ENDCAPS
280
     0
  9
$JOINSTYLE
280
     0
  9
$LWDISPLAY
290
     1
  9
$INSUNITS
 70
     1
  9
$HYPERLINKBASE
  1

  9
$STYLESHEET
  1

  9
$XEDIT
290
     1
  9
$CEPSNTYPE
380
     0
  9
$PSTYLEMODE
290
     1
  9
$FINGERPRINTGUID
  2
{76F3FB4D-193C-4220-BA5F-2FACB5FC2779}
  9
$VERSIONGUID
  2
{FAEB1C32-E019-11D5-929B-00C0DF256EC4}
  9
$EXTNAMES
290
     1
  9
$PSVPSCALE
 40
0.0
  9
$OLESTARTUP
290
     0
  0
ENDSEC
  0
SECTION
  2
CLASSES
  0
CLASS
  1
ACDBDICTIONARYWDFLT
  2
AcDbDictionaryWithDefault
  3
ObjectDBX Classes
 90
        0
280
     0
281
     0
  0
CLASS
  1
ACDBPLACEHOLDER
  2
AcDbPlaceHolder
  3
ObjectDBX Classes
 90
        0
280
     0
281
     0
  0
CLASS
  1
LAYOUT
  2
AcDbLayout
  3
ObjectDBX Classes
 90
        0
280
     0
281
     0
  0
ENDSEC
  0
SECTION
  2
TABLES
  0
TABLE
  2
VPORT
  5
8
330
0
100
AcDbSymbolTable
 70
     1
  0
VPORT
  5
29
330
8
100
AcDbSymbolTableRecord
100
AcDbViewportTableRecord
  2
*Active
 70
     0
 10
0.0
 20
0.0
 11
1.0
 21
1.0
 12
5.5
 22
4.25
 13
0.0
 23
0.0
 14
0.5
 24
0.5
 15
0.5
 25
0.5
 16
0.0
 26
0.0
 36
1.0
 17
0.0
 27
0.0
 37
0.0
 40
8.5
 41
1.2941176471
 42
50.0
 43
0.0
 44
0.0
 50
0.0
 51
0.0
 71
     0
 72
  2000
 73
     1
 74
     3
 75
     0
 76
     0
 77
     0
 78
     0
281
     0
 65
     1
110
0.0
120
0.0
130
0.0
111
1.0
121
0.0
131
0.0
112
0.0
122
1.0
132
0.0
 79
     0
146
0.0
  0
ENDTAB
  0
TABLE
  2
LTYPE
  5
5
330
0
100
AcDbSymbolTable
 70
     6
  0
LTYPE
  5
14
330
5
100
AcDbSymbolTableRecord
100
AcDbLinetypeTableRecord
  2
ByBlock
 70
     0
  3

 72
    65
 73
     0
 40
0.0
  0
LTYPE
  5
15
330
5
100
AcDbSymbolTableRecord
100
AcDbLinetypeTableRecord
  2
ByLayer
 70
     0
  3

 72
    65
 73
     0
 40
0.0
  0
LTYPE
  5
16
330
5
100
AcDbSymbolTableRecord
100
AcDbLinetypeTableRecord
  2
Continuous
 70
     0
  3
Solid line
 72
    65
 73
     0
 40
0.0
  0
LTYPE
  5
2A
330
5
100
AcDbSymbolTableRecord
100
AcDbLinetypeTableRecord
  2
HIDDEN
 70
     0
  3
Hidden __ __ __ __ __ __ __ __ __ __ __ __ __ __
 72
    65
 73
     2
 40
0.075
 49
0.05
 74
     0
 49
-0.025
 74
     0
  0
LTYPE
  5
2B
330
5
100
AcDbSymbolTableRecord
100
AcDbLinetypeTableRecord
  2
PHANTOM
 70
     0
  3
Phantom ______  __  __  ______  __  __  ______
 72
    65
 73
     6
 40
0.5
 49
0.25
 74
     0
 49
-0.05
 74
     0
 49
0.05
 74
     0
 49
-0.05
 74
     0
 49
0.05
 74
     0
 49
-0.05
 74
     0
  0
LTYPE
  5
2C
330
5
100
AcDbSymbolTableRecord
100
AcDbLinetypeTableRecord
  2
CENTER
 70
     0
  3
Center ____ _ ____ _ ____ _ ____ _ ____ _ ____
 72
    65
 73
     4
 40
0.4
 49
0.25
 74
     0
 49
-0.05
 74
     0
 49
0.05
 74
     0
 49
-0.05
 74
     0
  0
LTYPE
  5
2D
330
5
100
AcDbSymbolTableRecord
100
AcDbLinetypeTableRecord
  2
CENTERX2
 70
     0
  3
Center (2x) ________  __  ________  __  _____
 72
    65
 73
     4
 40
0.8
 49
0.5
 74
     0
 49
-0.1
 74
     0
 49
0.1
 74
     0
 49
-0.1
 74
     0
  0
LTYPE
  5
2E
330
5
100
AcDbSymbolTableRecord
100
AcDbLinetypeTableRecord
  2
DOT2
 70
     0
  3
Dot (.5x) ........................................
 72
    65
 73
     2
 40
0.025
 49
0.0
 74
     0
 49
-0.025
 74
     0
  0
ENDTAB
  0
TABLE
  2
LAYER
  5
2
330
0
100
AcDbSymbolTable
 70
     2
  0
LAYER
  5
10
330
2
100
AcDbSymbolTableRecord
100
AcDbLayerTableRecord
  2
0
 70
     0
 62
     7
  6
Continuous
370
    -3
390
F
  0
LAYER
  5
2F
330
2
100
AcDbSymbolTableRecord
100
AcDbLayerTableRecord
  2
FORMAT
 70
     0
 62
     7
  6
Continuous
370
    -3
390
F
  0
ENDTAB
  0
TABLE
  2
STYLE
  5
3
330
0
100
AcDbSymbolTable
 70
    21
  0
STYLE
  5
11
330
3
100
AcDbSymbolTableRecord
100
AcDbTextStyleTableRecord
  2
Standard
 70
     0
 40
0.0
 41
1.0
 50
0.0
 71
     0
 42
0.2
  3
txt
  4

  0
STYLE
  5
4D
330
3
100
AcDbSymbolTableRecord
100
AcDbTextStyleTableRecord
  2
SLDTEXTSTYLE0
 70
     0
 40
0.0
 41
0.75
 50
0.0
 71
     0
 42
0.2
  3
TXT
  4

  0
STYLE
  5
56
330
3
100
AcDbSymbolTableRecord
100
AcDbTextStyleTableRecord
  2
SLDTEXTSTYLE1
 70
     0
 40
0.0
 41
0.6428571429
 50
0.0
 71
     0
 42
0.2
  3
TXT
  4

  0
STYLE
  5
58
330
3
100
AcDbSymbolTableRecord
100
AcDbTextStyleTableRecord
  2
SLDTEXTSTYLE2
 70
     0
 40
0.0
 41
0.7211538462
 50
0.0
 71
     0
 42
0.2
  3
TXT
  4

  0
STYLE
  5
63
330
3
100
AcDbSymbolTableRecord
100
AcDbTextStyleTableRecord
  2
SLDTEXTSTYLE3
 70
     0
 40
0.0
 41
0.6375
 50
0.0
 71
     0
 42
0.2
  3
TXT
  4

  0
STYLE
  5
69
330
3
100
AcDbSymbolTableRecord
100
AcDbTextStyleTableRecord
  2
SLDTEXTSTYLE4
 70
     0
 40
0.0
 41
0.7016129032
 50
0.0
 71
     0
 42
0.2
  3
TXT
  4

  0
STYLE
  5
6B
330
3
100
AcDbSymbolTableRecord
100
AcDbTextStyleTableRecord
  2
SLDTEXTSTYLE5
 70
     0
 40
0.0
 41
0.6853448276
 50
0.0
 71
     0
 42
0.2
  3
TXT
  4

  0
STYLE
  5
6D
330
3
100
AcDbSymbolTableRecord
100
AcDbTextStyleTableRecord
  2
SLDTEXTSTYLE6
 70
     0
 40
0.0
 41
0.689516129
 50
0.0
 71
     0
 42
0.2
  3
TXT
  4

  0
STYLE
  5
6F
330
3
100
AcDbSymbolTableRecord
100
AcDbTextStyleTableRecord
  2
SLDTEXTSTYLE7
 70
     0
 40
0.0
 41
0.6666666667
 50
0.0
 71
     0
 42
0.2
  3
TXT
  4

  0
STYLE
  5
71
330
3
100
AcDbSymbolTableRecord
100
AcDbTextStyleTableRecord
  2
SLDTEXTSTYLE8
 70
     0
 40
0.0
 41
0.7010869565
 50
0.0
 71
     0
 42
0.2
  3
TXT
  4

  0
STYLE
  5
73
330
3
100
AcDbSymbolTableRecord
100
AcDbTextStyleTableRecord
  2
SLDTEXTSTYLE9
 70
     0
 40
0.0
 41
0.7083333333
 50
0.0
 71
     0
 42
0.2
  3
TXT
  4

  0
STYLE
  5
82
330
3
100
AcDbSymbolTableRecord
100
AcDbTextStyleTableRecord
  2
SLDTEXTSTYLE10
 70
     0
 40
0.0
 41
0.65625
 50
0.0
 71
     0
 42
0.2
  3
TXT
  4

  0
STYLE
  5
89
330
3
100
AcDbSymbolTableRecord
100
AcDbTextStyleTableRecord
  2
SLDTEXTSTYLE11
 70
     0
 40
0.0
 41
0.7125
 50
0.0
 71
     0
 42
0.2
  3
TXT
  4

  0
STYLE
  5
92
330
3
100
AcDbSymbolTableRecord
100
AcDbTextStyleTableRecord
  2
SLDTEXTSTYLE12
 70
     0
 40
0.0
 41
0.69375
 50
0.0
 71
     0
 42
0.2
  3
TXT
  4

  0
STYLE
  5
94
330
3
100
AcDbSymbolTableRecord
100
AcDbTextStyleTableRecord
  2
SLDTEXTSTYLE13
 70
     0
 40
0.0
 41
0.6988636364
 50
0.0
 71
     0
 42
0.2
  3
TXT
  4

  0
STYLE
  5
96
330
3
100
AcDbSymbolTableRecord
100
AcDbTextStyleTableRecord
  2
SLDTEXTSTYLE14
 70
     0
 40
0.0
 41
0.7115384615
 50
0.0
 71
     0
 42
0.2
  3
TXT
  4

  0
STYLE
  5
99
330
3
100
AcDbSymbolTableRecord
100
AcDbTextStyleTableRecord
  2
SLDTEXTSTYLE15
 70
     0
 40
0.0
 41
0.6796875
 50
0.0
 71
     0
 42
0.2
  3
TXT
  4

  0
STYLE
  5
A3
330
3
100
AcDbSymbolTableRecord
100
AcDbTextStyleTableRecord
  2
SLDTEXTSTYLE16
 70
     0
 40
0.0
 41
0.6995192308
 50
0.0
 71
     0
 42
0.2
  3
TXT
  4

  0
STYLE
  5
41C
330
3
100
AcDbSymbolTableRecord
100
AcDbTextStyleTableRecord
  2
SLDTEXTSTYLE17
 70
     0
 40
0.0
 41
0.675
 50
0.0
 71
     0
 42
0.2
  3
TXT
  4

  0
STYLE
  5
41E
330
3
100
AcDbSymbolTableRecord
100
AcDbTextStyleTableRecord
  2
SLDTEXTSTYLE18
 70
     0
 40
0.0
 41
0.625
 50
0.0
 71
     0
 42
0.2
  3
TXT
  4

  0
STYLE
  5
424
330
3
100
AcDbSymbolTableRecord
100
AcDbTextStyleTableRecord
  2
SLDTEXTSTYLE19
 70
     0
 40
0.0
 41
0.6875
 50
0.0
 71
     0
 42
0.2
  3
TXT
  4

  0
ENDTAB
  0
TABLE
  2
VIEW
  5
6
330
0
100
AcDbSymbolTable
 70
     0
  0
ENDTAB
  0
TABLE
  2
UCS
  5
7
330
0
100
AcDbSymbolTable
 70
     0
  0
ENDTAB
  0
TABLE
  2
APPID
  5
9
330
0
100
AcDbSymbolTable
 70
     1
  0
APPID
  5
12
330
9
100
AcDbSymbolTableRecord
100
AcDbRegAppTableRecord
  2
ACAD
 70
     0
  0
ENDTAB
  0
TABLE
  2
DIMSTYLE
  5
A
330
0
100
AcDbSymbolTable
 70
     6
100
AcDbDimStyleTable
  0
DIMSTYLE
105
27
330
A
100
AcDbSymbolTableRecord
100
AcDbDimStyleTableRecord
  2
Standard
 70
     0
340
11
  0
DIMSTYLE
105
D2
102
{ACAD_REACTORS
330
D1
102
}
330
A
100
AcDbSymbolTableRecord
100
AcDbDimStyleTableRecord
  2
SLDDIMSTYLE0
 70
     0
 41
0.156
 44
0.0
 78
     4
140
0.1041666667
147
0.0260416667
170
     1
172
     1
173
     1
271
     2
272
     2
284
    12
340
4D
  0
DIMSTYLE
105
399
102
{ACAD_REACTORS
330
398
330
3AB
330
3D0
102
}
330
A
100
AcDbSymbolTableRecord
100
AcDbDimStyleTableRecord
  2
SLDDIMSTYLE1
 70
     0
 41
0.156
 44
0.0
 78
     4
140
0.1041666667
147
0.0260416667
170
     1
173
     1
271
     2
272
     2
284
    12
340
4D
  0
DIMSTYLE
105
3BE
102
{ACAD_REACTORS
330
3BD
330
3E2
330
407
102
}
330
A
100
AcDbSymbolTableRecord
100
AcDbDimStyleTableRecord
  2
SLDDIMSTYLE2
 70
     0
 41
0.156
 44
0.0
 78
    12
140
0.1041666667
147
0.0260416667
170
     1
173
     1
271
     2
272
     2
284
    12
340
4D
  0
DIMSTYLE
105
3F5
102
{ACAD_REACTORS
330
3F4
102
}
330
A
100
AcDbSymbolTableRecord
100
AcDbDimStyleTableRecord
  2
SLDDIMSTYLE3
 70
     0
 41
0.156
 44
0.0
 78
     8
140
0.1041666667
147
0.0260416667
170
     1
173
     1
271
     2
272
     2
284
    12
340
4D
  0
DIMSTYLE
105
428
330
A
100
AcDbSymbolTableRecord
100
AcDbDimStyleTableRecord
  2
SLDDIMSTYLE4
 70
     0
 41
0.156
 44
0.0
140
0.156
147
0.039
173
     1
271
     0
272
     0
340
11
  0
ENDTAB
  0
TABLE
  2
BLOCK_RECORD
  5
1
330
0
100
AcDbSymbolTable
 70
    22
  0
BLOCK_RECORD
  5
1F
330
1
100
AcDbSymbolTableRecord
100
AcDbBlockTableRecord
  2
*Model_Space
340
22
  0
BLOCK_RECORD
  5
1B
330
1
100
AcDbSymbolTableRecord
100
AcDbBlockTableRecord
  2
*Paper_Space
340
1E
  0
BLOCK_RECORD
  5
23
330
1
100
AcDbSymbolTableRecord
100
AcDbBlockTableRecord
  2
*Paper_Space0
340
26
  0
BLOCK_RECORD
  5
66
330
1
100
AcDbSymbolTableRecord
100
AcDbBlockTableRecord
  2
SW_NOTE_0
340
0
102
{BLKREFS
331
75
102
}
1001
ACAD
1000
DesignCenter Data
1002
{
1070
     1
1070
     0
1002
}
  0
BLOCK_RECORD
  5
7F
330
1
100
AcDbSymbolTableRecord
100
AcDbBlockTableRecord
  2
SW_NOTE_1
340
0
102
{BLKREFS
331
85
102
}
1001
ACAD
1000
DesignCenter Data
1002
{
1070
     1
1070
     0
1002
}
  0
BLOCK_RECORD
  5
86
330
1
100
AcDbSymbolTableRecord
100
AcDbBlockTableRecord
  2
SW_NOTE_2
340
0
102
{BLKREFS
331
8C
102
}
1001
ACAD
1000
DesignCenter Data
1002
{
1070
     1
1070
     0
1002
}
  0
BLOCK_RECORD
  5
8E
330
1
100
AcDbSymbolTableRecord
100
AcDbBlockTableRecord
  2
SW_NOTE_3
340
0
102
{BLKREFS
331
9D
102
}
1001
ACAD
1000
DesignCenter Data
1002
{
1070
     1
1070
     0
1002
}
  0
BLOCK_RECORD
  5
9F
330
1
100
AcDbSymbolTableRecord
100
AcDbBlockTableRecord
  2
SW_NOTE_4
340
0
102
{BLKREFS
331
A5
102
}
1001
ACAD
1000
DesignCenter Data
1002
{
1070
     1
1070
     0
1002
}
  0
BLOCK_RECORD
  5
A6
330
1
100
AcDbSymbolTableRecord
100
AcDbBlockTableRecord
  2
SW_TABLEANNOTATION_0
340
0
102
{BLKREFS
331
BE
102
}
1001
ACAD
1000
DesignCenter Data
1002
{
1070
     1
1070
     0
1002
}
  0
BLOCK_RECORD
  5
D3
330
1
100
AcDbSymbolTableRecord
100
AcDbBlockTableRecord
  2
*D7
340
0
  0
BLOCK_RECORD
  5
39A
330
1
100
AcDbSymbolTableRecord
100
AcDbBlockTableRecord
  2
*D8
340
0
  0
BLOCK_RECORD
  5
3AC
330
1
100
AcDbSymbolTableRecord
100
AcDbBlockTableRecord
  2
*D9
340
0
  0
BLOCK_RECORD
  5
3BF
330
1
100
AcDbSymbolTableRecord
100
AcDbBlockTableRecord
  2
*D10
340
0
  0
BLOCK_RECORD
  5
3D1
330
1
100
AcDbSymbolTableRecord
100
AcDbBlockTableRecord
  2
*D11
340
0
  0
BLOCK_RECORD
  5
3E3
330
1
100
AcDbSymbolTableRecord
100
AcDbBlockTableRecord
  2
*D12
340
0
  0
BLOCK_RECORD
  5
3F6
330
1
100
AcDbSymbolTableRecord
100
AcDbBlockTableRecord
  2
*D13
340
0
  0
BLOCK_RECORD
  5
408
330
1
100
AcDbSymbolTableRecord
100
AcDbBlockTableRecord
  2
*D14
340
0
  0
BLOCK_RECORD
  5
419
330
1
100
AcDbSymbolTableRecord
100
AcDbBlockTableRecord
  2
SW_NOTE_5
340
0
102
{BLKREFS
331
420
102
}
1001
ACAD
1000
DesignCenter Data
1002
{
1070
     1
1070
     0
1002
}
  0
BLOCK_RECORD
  5
421
330
1
100
AcDbSymbolTableRecord
100
AcDbBlockTableRecord
  2
SW_NOTE_6
340
0
102
{BLKREFS
331
427
102
}
1001
ACAD
1000
DesignCenter Data
1002
{
1070
     1
1070
     0
1002
}
  0
BLOCK_RECORD
  5
42B
330
1
100
AcDbSymbolTableRecord
100
AcDbBlockTableRecord
  2
SW_NOTE_7
340
0
102
{BLKREFS
331
430
102
}
1001
ACAD
1000
DesignCenter Data
1002
{
1070
     1
1070
     0
1002
}
  0
BLOCK_RECORD
  5
432
330
1
100
AcDbSymbolTableRecord
100
AcDbBlockTableRecord
  2
SW_NOTE_8
340
0
102
{BLKREFS
331
437
102
}
1001
ACAD
1000
DesignCenter Data
1002
{
1070
     1
1070
     0
1002
}
  0
BLOCK_RECORD
  5
439
330
1
100
AcDbSymbolTableRecord
100
AcDbBlockTableRecord
  2
SW_NOTE_9
340
0
102
{BLKREFS
331
43E
102
}
1001
ACAD
1000
DesignCenter Data
1002
{
1070
     1
1070
     0
1002
}
  0
BLOCK_RECORD
  5
440
330
1
100
AcDbSymbolTableRecord
100
AcDbBlockTableRecord
  2
SW_NOTE_10
340
0
102
{BLKREFS
331
445
102
}
1001
ACAD
1000
DesignCenter Data
1002
{
1070
     1
1070
     0
1002
}
  0
BLOCK_RECORD
  5
447
330
1
100
AcDbSymbolTableRecord
100
AcDbBlockTableRecord
  2
SW_NOTE_11
340
0
102
{BLKREFS
331
44C
102
}
1001
ACAD
1000
DesignCenter Data
1002
{
1070
     1
1070
     0
1002
}
  0
ENDTAB
  0
ENDSEC
  0
SECTION
  2
BLOCKS
  0
BLOCK
  5
20
330
1F
100
AcDbEntity
  8
0
100
AcDbBlockBegin
  2
*Model_Space
 70
     0
 71
     0
 10
0.0
 20
0.0
 30
0.0
  3
*Model_Space
  1

  0
ENDBLK
  5
21
330
1F
100
AcDbEntity
  8
0
100
AcDbBlockEnd
  0
BLOCK
  5
1C
330
1B
100
AcDbEntity
 67
     1
  8
0
100
AcDbBlockBegin
  2
*Paper_Space
 70
     0
 71
     0
 10
0.0
 20
0.0
 30
0.0
  3
*Paper_Space
  1

  0
ENDBLK
  5
1D
330
1B
100
AcDbEntity
 67
     1
  8
0
100
AcDbBlockEnd
  0
BLOCK
  5
24
330
23
100
AcDbEntity
  8
0
100
AcDbBlockBegin
  2
*Paper_Space0
 70
     0
 71
     0
 10
0.0
 20
0.0
 30
0.0
  3
*Paper_Space0
  1

  0
ENDBLK
  5
25
330
23
100
AcDbEntity
  8
0
100
AcDbBlockEnd
  0
BLOCK
  5
67
330
66
100
AcDbEntity
  8
0
100
AcDbBlockBegin
  2
SW_NOTE_0
 70
     0
 71
     0
 10
0.0
 20
0.0
 30
0.0
  3
SW_NOTE_0
  1

  0
MTEXT
  5
6A
330
66
100
AcDbEntity
  8
0
  6
Continuous
 62
     0
370
     0
100
AcDbMText
 10
0.0
 20
0.076640625
 30
0.0
 40
0.06
 41
0.0
 71
     1
 72
     1
  1
THE INFORMATION CONTAINED IN THIS
  7
SLDTEXTSTYLE4
 73
     1
 44
1.0
  0
MTEXT
  5
6C
330
66
100
AcDbEntity
  8
0
  6
Continuous
 62
     0
370
     0
100
AcDbMText
 10
0.0
 20
-0.0227294496
 30
0.0
 40
0.06
 41
0.0
 71
     1
 72
     1
  1
DRAWING IS THE SOLE PROPERTY OF
  7
SLDTEXTSTYLE5
 73
     1
 44
1.0
  0
MTEXT
  5
6E
330
66
100
AcDbEntity
  8
0
  6
Continuous
 62
     0
370
     0
100
AcDbMText
 10
0.0
 20
-0.1220995241
 30
0.0
 40
0.06
 41
0.0
 71
     1
 72
     1
  1
THORLABS, INC.  ANY REPRODUCTION 
  7
SLDTEXTSTYLE6
 73
     1
 44
1.0
  0
MTEXT
  5
70
330
66
100
AcDbEntity
  8
0
  6
Continuous
 62
     0
370
     0
100
AcDbMText
 10
0.0
 20
-0.2214695987
 30
0.0
 40
0.06
 41
0.0
 71
     1
 72
     1
  1
IN PART OR AS A WHOLE WITHOUT
  7
SLDTEXTSTYLE7
 73
     1
 44
1.0
  0
MTEXT
  5
72
330
66
100
AcDbEntity
  8
0
  6
Continuous
 62
     0
370
     0
100
AcDbMText
 10
0.0
 20
-0.3208396733
 30
0.0
 40
0.06
 41
0.0
 71
     1
 72
     1
  1
THE WRITTEN PERMISSION OF
  7
SLDTEXTSTYLE8
 73
     1
 44
1.0
  0
MTEXT
  5
74
330
66
100
AcDbEntity
  8
0
  6
Continuous
 62
     0
370
     0
100
AcDbMText
 10
0.0
 20
-0.4202097478
 30
0.0
 40
0.06
 41
0.0
 71
     1
 72
     1
  1
THORLABS, INC. IS PROHIBITED.
  7
SLDTEXTSTYLE9
 73
     1
 44
1.0
  0
ENDBLK
  5
68
330
66
100
AcDbEntity
  8
0
100
AcDbBlockEnd
  0
BLOCK
  5
80
330
7F
100
AcDbEntity
  8
0
100
AcDbBlockBegin
  2
SW_NOTE_1
 70
     0
 71
     0
 10
0.0
 20
0.0
 30
0.0
  3
SW_NOTE_1
  1

  0
MTEXT
  5
83
330
7F
100
AcDbEntity
  8
0
  6
Continuous
 62
     0
370
     0
100
AcDbMText
 10
0.0
 20
0.1330566406
 30
0.0
 40
0.1041666667
 41
0.0
 71
     1
 72
     1
  1
PO BOX 366
  7
SLDTEXTSTYLE10
 73
     1
 44
1.0
  0
MTEXT
  5
84
330
7F
100
AcDbEntity
  8
0
  6
Continuous
 62
     0
370
     0
100
AcDbMText
 10
0.0
 20
-0.0058322466
 30
0.0
 40
0.1041666667
 41
0.0
 71
     1
 72
     1
  1
NEWTON NJ
  7
SLDTEXTSTYLE0
 73
     1
 44
1.0
  0
ENDBLK
  5
81
330
7F
100
AcDbEntity
  8
0
100
AcDbBlockEnd
  0
BLOCK
  5
87
330
86
100
AcDbEntity
  8
0
100
AcDbBlockBegin
  2
SW_NOTE_2
 70
     0
 71
     0
 10
0.0
 20
0.0
 30
0.0
  3
SW_NOTE_2
  1

  0
MTEXT
  5
8A
330
86
100
AcDbEntity
  8
0
  6
Continuous
 62
     0
370
     0
100
AcDbMText
 10
0.0
 20
0.1330566406
 30
0.0
 40
0.1041666667
 41
0.0
 71
     1
 72
     1
  1
MATCHED ACHROMAT PAIRS
  7
SLDTEXTSTYLE11
 73
     1
 44
1.0
  0
MTEXT
  5
8B
330
86
100
AcDbEntity
  8
0
  6
Continuous
 62
     0
370
     0
100
AcDbMText
 10
0.0
 20
-0.0058322466
 30
0.0
 40
0.1041666667
 41
0.0
 71
     1
 72
     1
  1
F1=40mm, F2=40mm
  7
SLDTEXTSTYLE0
 73
     1
 44
1.0
  0
ENDBLK
  5
88
330
86
100
AcDbEntity
  8
0
100
AcDbBlockEnd
  0
BLOCK
  5
8F
330
8E
100
AcDbEntity
  8
0
100
AcDbBlockBegin
  2
SW_NOTE_3
 70
     0
 71
     0
 10
0.0
 20
0.0
 30
0.0
  3
SW_NOTE_3
  1

  0
LINE
  5
91
330
8E
100
AcDbEntity
  8
0
  6
Continuous
 62
     0
370
     0
100
AcDbLine
 10
1.0817708433
 20
-0.6526041506
 30
0.0
 11
1.4039930543
 21
-0.6526041506
 31
0.0
  0
MTEXT
  5
93
330
8E
100
AcDbEntity
  8
0
  6
Continuous
 62
     0
370
     0
100
AcDbMText
 10
0.0
 20
0.1197509766
 30
0.0
 40
0.09375
 41
0.0
 71
     1
 72
     1
  1
DESIGN WAVELENGTH:  486.1, 587.6 & 656.3nm
  7
SLDTEXTSTYLE12
 73
     1
 44
1.0
  0
MTEXT
  5
95
330
8E
100
AcDbEntity
  8
0
  6
Continuous
 62
     0
370
     0
100
AcDbMText
 10
0.0
 20
-0.0052490219
 30
0.0
 40
0.09375
 41
0.0
 71
     1
 72
     1
  1
COATING:  BBAR 400-700nm
  7
SLDTEXTSTYLE13
 73
     1
 44
1.0
  0
MTEXT
  5
97
330
8E
100
AcDbEntity
  8
0
  6
Continuous
 62
     0
370
     0
100
AcDbMText
 10
0.0
 20
-0.1302490204
 30
0.0
 40
0.09375
 41
0.0
 71
     1
 72
     1
  1
COATING RANGE: R(AVG)<0.5% FROM 400-700nm
  7
SLDTEXTSTYLE14
 73
     1
 44
1.0
  0
MTEXT
  5
98
330
8E
100
AcDbEntity
  8
0
  6
Continuous
 62
     0
370
     0
100
AcDbMText
 10
0.0
 20
-0.2552490189
 30
0.0
 40
0.09375
 41
0.0
 71
     1
 72
     1
  1
MAGNIFICATION: 1:1
  7
SLDTEXTSTYLE0
 73
     1
 44
1.0
  0
MTEXT
  5
9A
330
8E
100
AcDbEntity
  8
0
  6
Continuous
 62
     0
370
     0
100
AcDbMText
 10
0.0
 20
-0.6091552547
 30
0.0
 40
0.09375
 41
0.0
 71
     1
 72
     1
  1
Dimensions are in 
  7
SLDTEXTSTYLE15
 73
     1
 44
1.0
  0
MTEXT
  5
9B
330
8E
100
AcDbEntity
  8
0
  6
Continuous
 62
     0
370
     0
100
AcDbMText
 10
1.0817708433
 20
-0.5052490159
 30
0.0
 40
0.09375
 41
0.0
 71
     1
 72
     1
  1
[mm]
  7
SLDTEXTSTYLE0
 73
     1
 44
1.0
  0
MTEXT
  5
9C
330
8E
100
AcDbEntity
  8
0
  6
Continuous
 62
     0
370
     0
100
AcDbMText
 10
1.1922743109
 20
-0.6854573399
 30
0.0
 40
0.09375
 41
0.0
 71
     1
 72
     1
  1
in
  7
SLDTEXTSTYLE0
 73
     1
 44
1.0
  0
ENDBLK
  5
90
330
8E
100
AcDbEntity
  8
0
100
AcDbBlockEnd
  0
BLOCK
  5
A0
330
9F
100
AcDbEntity
  8
0
100
AcDbBlockBegin
  2
SW_NOTE_4
 70
     0
 71
     0
 10
0.0
 20
0.0
 30
0.0
  3
SW_NOTE_4
  1

  0
MTEXT
  5
A2
330
9F
100
AcDbEntity
  8
0
  6
Continuous
 62
     0
370
     0
100
AcDbMText
 10
0.0
 20
0.1149609375
 30
0.0
 40
0.09
 41
0.0
 71
     1
 72
     1
  1
NOTE:
  7
SLDTEXTSTYLE0
 73
     1
 44
1.0
  0
MTEXT
  5
A4
330
9F
100
AcDbEntity
  8
0
  6
Continuous
 62
     0
370
     0
100
AcDbMText
 10
0.0
 20
-0.0144091455
 30
0.0
 40
0.09
 41
0.0
 71
     1
 72
     1
  1
FOR INFORMATION ONLY.  NOT INTENDED FOR MANUFACTURING.
  7
SLDTEXTSTYLE16
 73
     1
 44
1.0
  0
ENDBLK
  5
A1
330
9F
100
AcDbEntity
  8
0
100
AcDbBlockEnd
  0
BLOCK
  5
A7
330
A6
100
AcDbEntity
  8
0
100
AcDbBlockBegin
  2
SW_TABLEANNOTATION_0
 70
     0
 71
     0
 10
0.0
 20
0.0
 30
0.0
  3
SW_TABLEANNOTATION_0
  1

  0
LINE
  5
A9
330
A6
100
AcDbEntity
  8
0
  6
Continuous
 62
     0
370
     0
100
AcDbLine
 10
0.0
 20
0.0
 30
0.0
 11
0.0
 21
-0.870188115
 31
0.0
  0
LINE
  5
AA
330
A6
100
AcDbEntity
  8
0
  6
Continuous
 62
     0
370
     0
100
AcDbLine
 10
0.0
 20
-0.870188115
 30
0.0
 11
5.3007222216
 21
-0.870188115
 31
0.0
  0
LINE
  5
AB
330
A6
100
AcDbEntity
  8
0
  6
Continuous
 62
     0
370
     0
100
AcDbLine
 10
5.3007222216
 20
-0.870188115
 30
0.0
 11
5.3007222216
 21
0.0
 31
0.0
  0
LINE
  5
AC
330
A6
100
AcDbEntity
  8
0
  6
Continuous
 62
     0
370
     0
100
AcDbLine
 10
5.3007222216
 20
0.0
 30
0.0
 11
0.0
 21
0.0
 31
0.0
  0
LINE
  5
AD
330
A6
100
AcDbEntity
  8
0
  6
Continuous
 62
     0
370
     0
100
AcDbLine
 10
1.7669074072
 20
0.0
 30
0.0
 11
1.7669074072
 21
-0.870188115
 31
0.0
  0
LINE
  5
AE
330
A6
100
AcDbEntity
  8
0
  6
Continuous
 62
     0
370
     0
100
AcDbLine
 10
3.5338148144
 20
0.0
 30
0.0
 11
3.5338148144
 21
-0.870188115
 31
0.0
  0
LINE
  5
AF
330
A6
100
AcDbEntity
  8
0
  6
Continuous
 62
     0
370
     0
100
AcDbLine
 10
0.0
 20
-0.2175470288
 30
0.0
 11
5.3007222216
 21
-0.2175470288
 31
0.0
  0
LINE
  5
B0
330
A6
100
AcDbEntity
  8
0
  6
Continuous
 62
     0
370
     0
100
AcDbLine
 10
0.0
 20
-0.4350940575
 30
0.0
 11
5.3007222216
 21
-0.4350940575
 31
0.0
  0
LINE
  5
B1
330
A6
100
AcDbEntity
  8
0
  6
Continuous
 62
     0
370
     0
100
AcDbLine
 10
0.0
 20
-0.6526410863
 30
0.0
 11
5.3007222216
 21
-0.6526410863
 31
0.0
  0
MTEXT
  5
B2
330
A6
100
AcDbEntity
  8
0
  6
Continuous
 62
     0
370
     0
100
AcDbMText
 10
0.6662347763
 20
-0.0391846857
 30
0.0
 40
0.1377952756
 41
0.0
 71
     1
 72
     1
  1
PART
  7
SLDTEXTSTYLE0
 73
     1
 44
1.0
  0
MTEXT
  5
B3
330
A6
100
AcDbEntity
  8
0
  6
Continuous
 62
     0
370
     0
100
AcDbMText
 10
2.2344873384
 20
-0.0391846857
 30
0.0
 40
0.1377952756
 41
0.0
 71
     1
 72
     1
  1
PART NO.
  7
SLDTEXTSTYLE0
 73
     1
 44
1.0
  0
MTEXT
  5
B4
330
A6
100
AcDbEntity
  8
0
  6
Continuous
 62
     0
370
     0
100
AcDbMText
 10
3.9896246982
 20
-0.0391846857
 30
0.0
 40
0.1377952756
 41
0.0
 71
     1
 72
     1
  1
MATERIAL
  7
SLDTEXTSTYLE0
 73
     1
 44
1.0
  0
MTEXT
  5
B5
330
A6
100
AcDbEntity
  8
0
  6
Continuous
 62
     0
370
     0
100
AcDbMText
 10
0.8155129793
 20
-0.2567317144
 30
0.0
 40
0.1377952756
 41
0.0
 71
     1
 72
     1
  1
A
  7
SLDTEXTSTYLE0
 73
     1
 44
1.0
  0
MTEXT
  5
B6
330
A6
100
AcDbEntity
  8
0
  6
Continuous
 62
     0
370
     0
100
AcDbMText
 10
2.0224357113
 20
-0.2567317144
 30
0.0
 40
0.1377952756
 41
0.0
 71
     1
 72
     1
  1
AC254-040-A1
  7
SLDTEXTSTYLE0
 73
     1
 44
1.0
  0
MTEXT
  5
B7
330
A6
100
AcDbEntity
  8
0
  6
Continuous
 62
     0
370
     0
100
AcDbMText
 10
4.0877081451
 20
-0.2567317144
 30
0.0
 40
0.1377952756
 41
0.0
 71
     1
 72
     1
  1
BK7-SF5
  7
SLDTEXTSTYLE0
 73
     1
 44
1.0
  0
MTEXT
  5
B8
330
A6
100
AcDbEntity
  8
0
  6
Continuous
 62
     0
370
     0
100
AcDbMText
 10
0.8307278706
 20
-0.4742787432
 30
0.0
 40
0.1377952756
 41
0.0
 71
     1
 72
     1
  1
B
  7
SLDTEXTSTYLE0
 73
     1
 44
1.0
  0
MTEXT
  5
B9
330
A6
100
AcDbEntity
  8
0
  6
Continuous
 62
     0
370
     0
100
AcDbMText
 10
2.088079873
 20
-0.4742787432
 30
0.0
 40
0.1377952756
 41
0.0
 71
     1
 72
     1
  1
LENS MOUNT
  7
SLDTEXTSTYLE0
 73
     1
 44
1.0
  0
MTEXT
  5
BA
330
A6
100
AcDbEntity
  8
0
  6
Continuous
 62
     0
370
     0
100
AcDbMText
 10
3.5937345782
 20
-0.4785063461
 30
0.0
 40
0.1354166667
 41
0.0
 71
     1
 72
     1
  1
6061-T6 ALUMINUM
  7
SLDTEXTSTYLE0
 73
     1
 44
1.0
  0
MTEXT
  5
BB
330
A6
100
AcDbEntity
  8
0
  6
Continuous
 62
     0
370
     0
100
AcDbMText
 10
0.8088145975
 20
-0.691825772
 30
0.0
 40
0.1377952756
 41
0.0
 71
     1
 72
     1
  1
C
  7
SLDTEXTSTYLE0
 73
     1
 44
1.0
  0
MTEXT
  5
BC
330
A6
100
AcDbEntity
  8
0
  6
Continuous
 62
     0
370
     0
100
AcDbMText
 10
2.3577375412
 20
-0.691825772
 30
0.0
 40
0.1377952756
 41
0.0
 71
     1
 72
     1
  1
SM1RR
  7
SLDTEXTSTYLE0
 73
     1
 44
1.0
  0
MTEXT
  5
BD
330
A6
100
AcDbEntity
  8
0
  6
Continuous
 62
     0
370
     0
100
AcDbMText
 10
3.5937345782
 20
-0.6960533749
 30
0.0
 40
0.1354166667
 41
0.0
 71
     1
 72
     1
  1
6061-T6 ALUMINUM
  7
SLDTEXTSTYLE0
 73
     1
 44
1.0
  0
ENDBLK
  5
A8
330
A6
100
AcDbEntity
  8
0
100
AcDbBlockEnd
  0
BLOCK
  5
D4
330
D3
100
AcDbEntity
  8
0
100
AcDbBlockBegin
  2
*D7
 70
     1
 71
     0
 10
0.0
 20
0.0
 30
0.0
  3
*D7
  1

  0
SOLID
  5
D6
330
D3
100
AcDbEntity
  8
0
  6
Continuous
 62
     7
370
     0
100
AcDbTrace
 10
2.8914387055
 20
5.0358382196
 30
0.0
 11
3.0173252895
 21
5.1315699698
 31
0.0
 12
2.979472474
 22
5.1672233619
 32
0.0
 13
2.979472474
 23
5.1672233619
 33
0.0
  0
LINE
  5
D7
330
D3
100
AcDbEntity
  8
0
  6
Continuous
 62
     7
370
     0
100
AcDbLine
 10
3.5336668302
 20
5.4853471371
 30
0.0
 11
3.5336668302
 21
5.3447042188
 31
0.0
  0
LINE
  5
D8
330
D3
100
AcDbEntity
  8
0
  6
Continuous
 62
     7
370
     0
100
AcDbLine
 10
3.5336668302
 20
5.3447042188
 30
0.0
 11
3.5547679976
 21
5.3447042188
 31
0.0
  0
LINE
  5
D9
330
D3
100
AcDbEntity
  8
0
  6
Continuous
 62
     7
370
     0
100
AcDbLine
 10
3.5336668302
 20
5.4853471371
 30
0.0
 11
3.5547679976
 21
5.4853471371
 31
0.0
  0
LINE
  5
DA
330
D3
100
AcDbEntity
  8
0
  6
Continuous
 62
     7
370
     0
100
AcDbLine
 10
3.9642761688
 20
5.4853471371
 30
0.0
 11
3.9642761688
 21
5.3447042188
 31
0.0
  0
LINE
  5
DB
330
D3
100
AcDbEntity
  8
0
  6
Continuous
 62
     7
370
     0
100
AcDbLine
 10
3.9642761688
 20
5.3447042188
 30
0.0
 11
3.9431750014
 21
5.3447042188
 31
0.0
  0
LINE
  5
DC
330
D3
100
AcDbEntity
  8
0
  6
Continuous
 62
     7
370
     0
100
AcDbLine
 10
3.9642761688
 20
5.4853471371
 30
0.0
 11
3.9431750014
 21
5.4853471371
 31
0.0
  0
LINE
  5
DD
330
D3
100
AcDbEntity
  8
0
  6
Continuous
 62
     7
370
     0
100
AcDbLine
 10
2.8914387055
 20
5.0358382196
 30
0.0
 11
3.170669554
 21
5.3322945495
 31
0.0
  0
LINE
  5
DE
330
D3
100
AcDbEntity
  8
0
  6
Continuous
 62
     7
370
     0
100
AcDbLine
 10
3.170669554
 20
5.3322945495
 30
0.0
 11
3.420669554
 21
5.3322945495
 31
0.0
  0
MTEXT
  5
DF
330
D3
100
AcDbEntity
  8
0
  6
Continuous
 62
     7
370
     0
100
AcDbMText
 10
3.539902589
 20
5.2998889311
 30
0.0
 40
0.1041666667
 41
0.0
 71
     1
 72
     1
  1
%%c
  7
SLDTEXTSTYLE0
 73
     1
 44
1.0
  0
MTEXT
  5
E0
330
D3
100
AcDbEntity
  8
0
  6
Continuous
 62
     7
370
     0
100
AcDbMText
 10
3.6888186201
 20
5.2998889311
 30
0.0
 40
0.1041666667
 41
0.0
 71
     1
 72
     1
  1
1.20
  7
SLDTEXTSTYLE0
 73
     1
 44
1.0
  0
MTEXT
  5
E1
330
D3
100
AcDbEntity
  8
0
  6
Continuous
 62
     7
370
     0
100
AcDbMText
 10
3.5758691649
 20
5.4653511879
 30
0.0
 40
0.1041666667
 41
0.0
 71
     1
 72
     1
  1
30.48
  7
SLDTEXTSTYLE0
 73
     1
 44
1.0
  0
ENDBLK
  5
D5
330
D3
100
AcDbEntity
  8
0
100
AcDbBlockEnd
  0
BLOCK
  5
39B
330
39A
100
AcDbEntity
  8
0
100
AcDbBlockBegin
  2
*D8
 70
     1
 71
     0
 10
0.0
 20
0.0
 30
0.0
  3
*D8
  1

  0
SOLID
  5
39D
330
39A
100
AcDbEntity
  8
0
  6
Continuous
 62
     7
370
     0
100
AcDbTrace
 10
5.7674108232
 20
3.7708023631
 30
0.0
 11
5.9234108232
 21
3.7448023631
 31
0.0
 12
5.9234108232
 22
3.7968023631
 32
0.0
 13
5.9234108232
 23
3.7968023631
 33
0.0
  0
SOLID
  5
39E
330
39A
100
AcDbEntity
  8
0
  6
Continuous
 62
     7
370
     0
100
AcDbTrace
 10
6.8705186579
 20
3.7708023631
 30
0.0
 11
6.7145186579
 21
3.7968023631
 31
0.0
 12
6.7145186579
 22
3.7448023631
 32
0.0
 13
6.7145186579
 23
3.7448023631
 33
0.0
  0
LINE
  5
39F
330
39A
100
AcDbEntity
  8
0
  6
Continuous
 62
     7
370
     0
100
AcDbLine
 10
6.0957490368
 20
3.9238549506
 30
0.0
 11
6.0957490368
 21
3.7832120324
 31
0.0
  0
LINE
  5
3A0
330
39A
100
AcDbEntity
  8
0
  6
Continuous
 62
     7
370
     0
100
AcDbLine
 10
6.0957490368
 20
3.7832120324
 30
0.0
 11
6.1168502041
 21
3.7832120324
 31
0.0
  0
LINE
  5
3A1
330
39A
100
AcDbEntity
  8
0
  6
Continuous
 62
     7
370
     0
100
AcDbLine
 10
6.0957490368
 20
3.9238549506
 30
0.0
 11
6.1168502041
 21
3.9238549506
 31
0.0
  0
LINE
  5
3A2
330
39A
100
AcDbEntity
  8
0
  6
Continuous
 62
     7
370
     0
100
AcDbLine
 10
6.5263583753
 20
3.9238549506
 30
0.0
 11
6.5263583753
 21
3.7832120324
 31
0.0
  0
LINE
  5
3A3
330
39A
100
AcDbEntity
  8
0
  6
Continuous
 62
     7
370
     0
100
AcDbLine
 10
6.5263583753
 20
3.7832120324
 30
0.0
 11
6.505257208
 21
3.7832120324
 31
0.0
  0
LINE
  5
3A4
330
39A
100
AcDbEntity
  8
0
  6
Continuous
 62
     7
370
     0
100
AcDbLine
 10
6.5263583753
 20
3.9238549506
 30
0.0
 11
6.505257208
 21
3.9238549506
 31
0.0
  0
LINE
  5
3A5
330
39A
100
AcDbEntity
  8
0
  6
Continuous
 62
     7
370
     0
100
AcDbLine
 10
5.7674108232
 20
4.549074965
 30
0.0
 11
5.7674108232
 21
3.6458023631
 31
0.0
  0
LINE
  5
3A6
330
39A
100
AcDbEntity
  8
0
  6
Continuous
 62
     7
370
     0
100
AcDbLine
 10
6.8705186579
 20
3.959074965
 30
0.0
 11
6.8705186579
 21
3.6458023631
 31
0.0
  0
LINE
  5
3A7
330
39A
100
AcDbEntity
  8
0
  6
Continuous
 62
     7
370
     0
100
AcDbLine
 10
5.7674108232
 20
3.7708023631
 30
0.0
 11
5.9699091535
 21
3.7708023631
 31
0.0
  0
LINE
  5
3A8
330
39A
100
AcDbEntity
  8
0
  6
Continuous
 62
     7
370
     0
100
AcDbLine
 10
6.8705186579
 20
3.7708023631
 30
0.0
 11
6.6521982586
 21
3.7708023631
 31
0.0
  0
MTEXT
  5
3A9
330
39A
100
AcDbEntity
  8
0
  6
Continuous
 62
     7
370
     0
100
AcDbMText
 10
6.1764428111
 20
3.7383967446
 30
0.0
 40
0.1041666667
 41
0.0
 71
     1
 72
     1
  1
1.10
  7
SLDTEXTSTYLE0
 73
     1
 44
1.0
  0
MTEXT
  5
3AA
330
39A
100
AcDbEntity
  8
0
  6
Continuous
 62
     7
370
     0
100
AcDbMText
 10
6.1379513714
 20
3.9038590014
 30
0.0
 40
0.1041666667
 41
0.0
 71
     1
 72
     1
  1
28.02
  7
SLDTEXTSTYLE0
 73
     1
 44
1.0
  0
ENDBLK
  5
39C
330
39A
100
AcDbEntity
  8
0
100
AcDbBlockEnd
  0
BLOCK
  5
3AD
330
3AC
100
AcDbEntity
  8
0
100
AcDbBlockBegin
  2
*D9
 70
     1
 71
     0
 10
0.0
 20
0.0
 30
0.0
  3
*D9
  1

  0
SOLID
  5
3AF
330
3AC
100
AcDbEntity
  8
0
  6
Continuous
 62
     7
370
     0
100
AcDbTrace
 10
9.4956922925
 20
3.4638997082
 30
0.0
 11
9.3396922925
 21
3.4898997082
 31
0.0
 12
9.3396922925
 22
3.4378997082
 32
0.0
 13
9.3396922925
 23
3.4378997082
 33
0.0
  0
SOLID
  5
3B0
330
3AC
100
AcDbEntity
  8
0
  6
Continuous
 62
     7
370
     0
100
AcDbTrace
 10
8.3925844579
 20
3.4638997082
 30
0.0
 11
8.5485844579
 21
3.4378997082
 31
0.0
 12
8.5485844579
 22
3.4898997082
 32
0.0
 13
8.5485844579
 23
3.4898997082
 33
0.0
  0
LINE
  5
3B1
330
3AC
100
AcDbEntity
  8
0
  6
Continuous
 62
     7
370
     0
100
AcDbLine
 10
8.7243235912
 20
3.6169522958
 30
0.0
 11
8.7243235912
 21
3.4763093775
 31
0.0
  0
LINE
  5
3B2
330
3AC
100
AcDbEntity
  8
0
  6
Continuous
 62
     7
370
     0
100
AcDbLine
 10
8.7243235912
 20
3.4763093775
 30
0.0
 11
8.7454247585
 21
3.4763093775
 31
0.0
  0
LINE
  5
3B3
330
3AC
100
AcDbEntity
  8
0
  6
Continuous
 62
     7
370
     0
100
AcDbLine
 10
8.7243235912
 20
3.6169522958
 30
0.0
 11
8.7454247585
 21
3.6169522958
 31
0.0
  0
LINE
  5
3B4
330
3AC
100
AcDbEntity
  8
0
  6
Continuous
 62
     7
370
     0
100
AcDbLine
 10
9.1549329297
 20
3.6169522958
 30
0.0
 11
9.1549329297
 21
3.4763093775
 31
0.0
  0
LINE
  5
3B5
330
3AC
100
AcDbEntity
  8
0
  6
Continuous
 62
     7
370
     0
100
AcDbLine
 10
9.1549329297
 20
3.4763093775
 30
0.0
 11
9.1338317624
 21
3.4763093775
 31
0.0
  0
LINE
  5
3B6
330
3AC
100
AcDbEntity
  8
0
  6
Continuous
 62
     7
370
     0
100
AcDbLine
 10
9.1549329297
 20
3.6169522958
 30
0.0
 11
9.1338317624
 21
3.6169522958
 31
0.0
  0
LINE
  5
3B7
330
3AC
100
AcDbEntity
  8
0
  6
Continuous
 62
     7
370
     0
100
AcDbLine
 10
9.4956922925
 20
4.549074965
 30
0.0
 11
9.4956922925
 21
3.3388997082
 31
0.0
  0
LINE
  5
3B8
330
3AC
100
AcDbEntity
  8
0
  6
Continuous
 62
     7
370
     0
100
AcDbLine
 10
8.3925844579
 20
3.959074965
 30
0.0
 11
8.3925844579
 21
3.3388997082
 31
0.0
  0
LINE
  5
3B9
330
3AC
100
AcDbEntity
  8
0
  6
Continuous
 62
     7
370
     0
100
AcDbLine
 10
9.4956922925
 20
3.4638997082
 30
0.0
 11
9.280772813
 21
3.4638997082
 31
0.0
  0
LINE
  5
3BA
330
3AC
100
AcDbEntity
  8
0
  6
Continuous
 62
     7
370
     0
100
AcDbLine
 10
8.3925844579
 20
3.4638997082
 30
0.0
 11
8.5984837079
 21
3.4638997082
 31
0.0
  0
MTEXT
  5
3BB
330
3AC
100
AcDbEntity
  8
0
  6
Continuous
 62
     7
370
     0
100
AcDbMText
 10
8.8050173655
 20
3.4314940898
 30
0.0
 40
0.1041666667
 41
0.0
 71
     1
 72
     1
  1
1.10
  7
SLDTEXTSTYLE0
 73
     1
 44
1.0
  0
MTEXT
  5
3BC
330
3AC
100
AcDbEntity
  8
0
  6
Continuous
 62
     7
370
     0
100
AcDbMText
 10
8.7665259258
 20
3.5969563466
 30
0.0
 40
0.1041666667
 41
0.0
 71
     1
 72
     1
  1
28.02
  7
SLDTEXTSTYLE0
 73
     1
 44
1.0
  0
ENDBLK
  5
3AE
330
3AC
100
AcDbEntity
  8
0
100
AcDbBlockEnd
  0
BLOCK
  5
3C0
330
3BF
100
AcDbEntity
  8
0
100
AcDbBlockBegin
  2
*D10
 70
     1
 71
     0
 10
0.0
 20
0.0
 30
0.0
  3
*D10
  1

  0
SOLID
  5
3C2
330
3BF
100
AcDbEntity
  8
0
  6
Continuous
 62
     7
370
     0
100
AcDbTrace
 10
5.7674108007
 20
5.4293631137
 30
0.0
 11
5.9234108014
 21
5.4033631179
 31
0.0
 12
5.9234108
 22
5.4553631179
 32
0.0
 13
5.9234108
 23
5.4553631179
 33
0.0
  0
SOLID
  5
3C3
330
3BF
100
AcDbEntity
  8
0
  6
Continuous
 62
     7
370
     0
100
AcDbTrace
 10
7.0587732389
 20
5.4293631486
 30
0.0
 11
6.9027732382
 21
5.4553631444
 31
0.0
 12
6.9027732396
 22
5.4033631444
 32
0.0
 13
6.9027732396
 23
5.4033631444
 33
0.0
  0
LINE
  5
3C4
330
3BF
100
AcDbEntity
  8
0
  6
Continuous
 62
     7
370
     0
100
AcDbLine
 10
6.1725519848
 20
5.582415718
 30
0.0
 11
6.1725519848
 21
5.4417727997
 31
0.0
  0
LINE
  5
3C5
330
3BF
100
AcDbEntity
  8
0
  6
Continuous
 62
     7
370
     0
100
AcDbLine
 10
6.1725519848
 20
5.4417727997
 30
0.0
 11
6.1936531522
 21
5.4417727997
 31
0.0
  0
LINE
  5
3C6
330
3BF
100
AcDbEntity
  8
0
  6
Continuous
 62
     7
370
     0
100
AcDbLine
 10
6.1725519848
 20
5.582415718
 30
0.0
 11
6.1936531522
 21
5.582415718
 31
0.0
  0
LINE
  5
3C7
330
3BF
100
AcDbEntity
  8
0
  6
Continuous
 62
     7
370
     0
100
AcDbLine
 10
6.6031613234
 20
5.582415718
 30
0.0
 11
6.6031613234
 21
5.4417727997
 31
0.0
  0
LINE
  5
3C8
330
3BF
100
AcDbEntity
  8
0
  6
Continuous
 62
     7
370
     0
100
AcDbLine
 10
6.6031613234
 20
5.4417727997
 30
0.0
 11
6.5820601561
 21
5.4417727997
 31
0.0
  0
LINE
  5
3C9
330
3BF
100
AcDbEntity
  8
0
  6
Continuous
 62
     7
370
     0
100
AcDbLine
 10
6.6031613234
 20
5.582415718
 30
0.0
 11
6.5820601561
 21
5.582415718
 31
0.0
  0
LINE
  5
3CA
330
3BF
100
AcDbEntity
  8
0
  6
Continuous
 62
     7
370
     0
100
AcDbLine
 10
5.7674108219
 20
4.649074965
 30
0.0
 11
5.7674107974
 21
5.5543631137
 31
0.0
  0
LINE
  5
3CB
330
3BF
100
AcDbEntity
  8
0
  6
Continuous
 62
     7
370
     0
100
AcDbLine
 10
7.05877326
 20
4.6490749999
 30
0.0
 11
7.0587732355
 21
5.5543631486
 31
0.0
  0
LINE
  5
3CC
330
3BF
100
AcDbEntity
  8
0
  6
Continuous
 62
     7
370
     0
100
AcDbLine
 10
5.7674108007
 20
5.4293631137
 30
0.0
 11
6.0467121016
 21
5.4293631212
 31
0.0
  0
LINE
  5
3CD
330
3BF
100
AcDbEntity
  8
0
  6
Continuous
 62
     7
370
     0
100
AcDbLine
 10
7.0587732389
 20
5.4293631486
 30
0.0
 11
6.7290012066
 21
5.4293631397
 31
0.0
  0
MTEXT
  5
3CE
330
3BF
100
AcDbEntity
  8
0
  6
Continuous
 62
     7
370
     0
100
AcDbMText
 10
6.2532457592
 20
5.396957512
 30
0.0
 40
0.1041666667
 41
0.0
 71
     1
 72
     1
  1
1.29
  7
SLDTEXTSTYLE0
 73
     1
 44
1.0
  0
MTEXT
  5
3CF
330
3BF
100
AcDbEntity
  8
0
  6
Continuous
 62
     7
370
     0
100
AcDbMText
 10
6.2147543195
 20
5.5624197688
 30
0.0
 40
0.1041666667
 41
0.0
 71
     1
 72
     1
  1
32.80
  7
SLDTEXTSTYLE0
 73
     1
 44
1.0
  0
ENDBLK
  5
3C1
330
3BF
100
AcDbEntity
  8
0
100
AcDbBlockEnd
  0
BLOCK
  5
3D2
330
3D1
100
AcDbEntity
  8
0
100
AcDbBlockBegin
  2
*D11
 70
     1
 71
     0
 10
0.0
 20
0.0
 30
0.0
  3
*D11
  1

  0
SOLID
  5
3D4
330
3D1
100
AcDbEntity
  8
0
  6
Continuous
 62
     7
370
     0
100
AcDbTrace
 10
9.495692315
 20
5.4293631136
 30
0.0
 11
9.3396923157
 21
5.4553631178
 31
0.0
 12
9.3396923143
 22
5.4033631178
 32
0.0
 13
9.3396923143
 23
5.4033631178
 33
0.0
  0
SOLID
  5
3D5
330
3D1
100
AcDbEntity
  8
0
  6
Continuous
 62
     7
370
     0
100
AcDbTrace
 10
8.2004878515
 20
5.4293631486
 30
0.0
 11
8.3564878508
 21
5.4033631444
 31
0.0
 12
8.3564878522
 22
5.4553631444
 32
0.0
 13
8.3564878522
 23
5.4553631444
 33
0.0
  0
LINE
  5
3D6
330
3D1
100
AcDbEntity
  8
0
  6
Continuous
 62
     7
370
     0
100
AcDbLine
 10
8.6563828669
 20
5.582415718
 30
0.0
 11
8.6563828669
 21
5.4417727997
 31
0.0
  0
LINE
  5
3D7
330
3D1
100
AcDbEntity
  8
0
  6
Continuous
 62
     7
370
     0
100
AcDbLine
 10
8.6563828669
 20
5.4417727997
 30
0.0
 11
8.6774840342
 21
5.4417727997
 31
0.0
  0
LINE
  5
3D8
330
3D1
100
AcDbEntity
  8
0
  6
Continuous
 62
     7
370
     0
100
AcDbLine
 10
8.6563828669
 20
5.582415718
 30
0.0
 11
8.6774840342
 21
5.582415718
 31
0.0
  0
LINE
  5
3D9
330
3D1
100
AcDbEntity
  8
0
  6
Continuous
 62
     7
370
     0
100
AcDbLine
 10
9.0869922054
 20
5.582415718
 30
0.0
 11
9.0869922054
 21
5.4417727997
 31
0.0
  0
LINE
  5
3DA
330
3D1
100
AcDbEntity
  8
0
  6
Continuous
 62
     7
370
     0
100
AcDbLine
 10
9.0869922054
 20
5.4417727997
 30
0.0
 11
9.0658910381
 21
5.4417727997
 31
0.0
  0
LINE
  5
3DB
330
3D1
100
AcDbEntity
  8
0
  6
Continuous
 62
     7
370
     0
100
AcDbLine
 10
9.0869922054
 20
5.582415718
 30
0.0
 11
9.0658910381
 21
5.582415718
 31
0.0
  0
LINE
  5
3DC
330
3D1
100
AcDbEntity
  8
0
  6
Continuous
 62
     7
370
     0
100
AcDbLine
 10
9.4956922939
 20
4.649074965
 30
0.0
 11
9.4956923183
 21
5.5543631136
 31
0.0
  0
LINE
  5
3DD
330
3D1
100
AcDbEntity
  8
0
  6
Continuous
 62
     7
370
     0
100
AcDbLine
 10
8.2004878304
 20
4.649075
 30
0.0
 11
8.2004878549
 21
5.5543631486
 31
0.0
  0
LINE
  5
3DE
330
3D1
100
AcDbEntity
  8
0
  6
Continuous
 62
     7
370
     0
100
AcDbLine
 10
9.495692315
 20
5.4293631136
 30
0.0
 11
9.2128320887
 21
5.4293631212
 31
0.0
  0
LINE
  5
3DF
330
3D1
100
AcDbEntity
  8
0
  6
Continuous
 62
     7
370
     0
100
AcDbLine
 10
8.2004878515
 20
5.4293631486
 30
0.0
 11
8.5305429836
 21
5.4293631397
 31
0.0
  0
MTEXT
  5
3E0
330
3D1
100
AcDbEntity
  8
0
  6
Continuous
 62
     7
370
     0
100
AcDbMText
 10
8.7370766412
 20
5.396957512
 30
0.0
 40
0.1041666667
 41
0.0
 71
     1
 72
     1
  1
1.30
  7
SLDTEXTSTYLE0
 73
     1
 44
1.0
  0
MTEXT
  5
3E1
330
3D1
100
AcDbEntity
  8
0
  6
Continuous
 62
     7
370
     0
100
AcDbMText
 10
8.6985852015
 20
5.5624197688
 30
0.0
 40
0.1041666667
 41
0.0
 71
     1
 72
     1
  1
32.90
  7
SLDTEXTSTYLE0
 73
     1
 44
1.0
  0
ENDBLK
  5
3D3
330
3D1
100
AcDbEntity
  8
0
100
AcDbBlockEnd
  0
BLOCK
  5
3E4
330
3E3
100
AcDbEntity
  8
0
100
AcDbBlockBegin
  2
*D12
 70
     1
 71
     0
 10
0.0
 20
0.0
 30
0.0
  3
*D12
  1

  0
SOLID
  5
3E6
330
3E3
100
AcDbEntity
  8
0
  6
Continuous
 62
     7
370
     0
100
AcDbTrace
 10
6.8705186579
 20
2.5319069112
 30
0.0
 11
7.0265186579
 21
2.5059069112
 31
0.0
 12
7.0265186579
 22
2.5579069112
 32
0.0
 13
7.0265186579
 23
2.5579069112
 33
0.0
  0
SOLID
  5
3E7
330
3E3
100
AcDbEntity
  8
0
  6
Continuous
 62
     7
370
     0
100
AcDbTrace
 10
8.3925844579
 20
2.5319069112
 30
0.0
 11
8.2365844579
 21
2.5579069112
 31
0.0
 12
8.2365844579
 22
2.5059069112
 32
0.0
 13
8.2365844579
 23
2.5059069112
 33
0.0
  0
LINE
  5
3E8
330
3E3
100
AcDbEntity
  8
0
  6
Continuous
 62
     7
370
     0
100
AcDbLine
 10
7.4163777068
 20
2.6849594988
 30
0.0
 11
7.4163777068
 21
2.5443165805
 31
0.0
  0
LINE
  5
3E9
330
3E3
100
AcDbEntity
  8
0
  6
Continuous
 62
     7
370
     0
100
AcDbLine
 10
7.4163777068
 20
2.5443165805
 30
0.0
 11
7.4374788741
 21
2.5443165805
 31
0.0
  0
LINE
  5
3EA
330
3E3
100
AcDbEntity
  8
0
  6
Continuous
 62
     7
370
     0
100
AcDbLine
 10
7.4163777068
 20
2.6849594988
 30
0.0
 11
7.4374788741
 21
2.6849594988
 31
0.0
  0
LINE
  5
3EB
330
3E3
100
AcDbEntity
  8
0
  6
Continuous
 62
     7
370
     0
100
AcDbLine
 10
7.8469870453
 20
2.6849594988
 30
0.0
 11
7.8469870453
 21
2.5443165805
 31
0.0
  0
LINE
  5
3EC
330
3E3
100
AcDbEntity
  8
0
  6
Continuous
 62
     7
370
     0
100
AcDbLine
 10
7.8469870453
 20
2.5443165805
 30
0.0
 11
7.825885878
 21
2.5443165805
 31
0.0
  0
LINE
  5
3ED
330
3E3
100
AcDbEntity
  8
0
  6
Continuous
 62
     7
370
     0
100
AcDbLine
 10
7.8469870453
 20
2.6849594988
 30
0.0
 11
7.825885878
 21
2.6849594988
 31
0.0
  0
LINE
  5
3EE
330
3E3
100
AcDbEntity
  8
0
  6
Continuous
 62
     7
370
     0
100
AcDbLine
 10
6.8705186579
 20
3.959074965
 30
0.0
 11
6.8705186579
 21
2.4069069112
 31
0.0
  0
LINE
  5
3EF
330
3E3
100
AcDbEntity
  8
0
  6
Continuous
 62
     7
370
     0
100
AcDbLine
 10
8.3925844579
 20
3.959074965
 30
0.0
 11
8.3925844579
 21
2.4069069112
 31
0.0
  0
LINE
  5
3F0
330
3E3
100
AcDbEntity
  8
0
  6
Continuous
 62
     7
370
     0
100
AcDbLine
 10
6.8705186579
 20
2.5319069112
 30
0.0
 11
7.2905378236
 21
2.5319069112
 31
0.0
  0
LINE
  5
3F1
330
3E3
100
AcDbEntity
  8
0
  6
Continuous
 62
     7
370
     0
100
AcDbLine
 10
8.3925844579
 20
2.5319069112
 30
0.0
 11
7.9728269286
 21
2.5319069112
 31
0.0
  0
MTEXT
  5
3F2
330
3E3
100
AcDbEntity
  8
0
  6
Continuous
 62
     7
370
     0
100
AcDbMText
 10
7.4970714811
 20
2.4995012927
 30
0.0
 40
0.1041666667
 41
0.0
 71
     1
 72
     1
  1
1.52
  7
SLDTEXTSTYLE0
 73
     1
 44
1.0
  0
MTEXT
  5
3F3
330
3E3
100
AcDbEntity
  8
0
  6
Continuous
 62
     7
370
     0
100
AcDbMText
 10
7.4585800415
 20
2.6649635496
 30
0.0
 40
0.1041666667
 41
0.0
 71
     1
 72
     1
  1
38.66
  7
SLDTEXTSTYLE0
 73
     1
 44
1.0
  0
ENDBLK
  5
3E5
330
3E3
100
AcDbEntity
  8
0
100
AcDbBlockEnd
  0
BLOCK
  5
3F7
330
3F6
100
AcDbEntity
  8
0
100
AcDbBlockBegin
  2
*D13
 70
     1
 71
     0
 10
0.0
 20
0.0
 30
0.0
  3
*D13
  1

  0
SOLID
  5
3F9
330
3F6
100
AcDbEntity
  8
0
  6
Continuous
 62
     7
370
     0
100
AcDbTrace
 10
7.5508992456
 20
3.4638997082
 30
0.0
 11
7.3948992456
 21
3.4898997082
 31
0.0
 12
7.3948992456
 22
3.4378997082
 32
0.0
 13
7.3948992456
 23
3.4378997082
 33
0.0
  0
SOLID
  5
3FA
330
3F6
100
AcDbEntity
  8
0
  6
Continuous
 62
     7
370
     0
100
AcDbTrace
 10
7.7083618448
 20
3.4638997082
 30
0.0
 11
7.8643618448
 21
3.4378997082
 31
0.0
 12
7.8643618448
 22
3.4898997082
 32
0.0
 13
7.8643618448
 23
3.4898997082
 33
0.0
  0
LINE
  5
3FB
330
3F6
100
AcDbEntity
  8
0
  6
Continuous
 62
     7
370
     0
100
AcDbLine
 10
8.1108691255
 20
3.6169522958
 30
0.0
 11
8.1108691255
 21
3.4763093775
 31
0.0
  0
LINE
  5
3FC
330
3F6
100
AcDbEntity
  8
0
  6
Continuous
 62
     7
370
     0
100
AcDbLine
 10
8.1108691255
 20
3.4763093775
 30
0.0
 11
8.1319702928
 21
3.4763093775
 31
0.0
  0
LINE
  5
3FD
330
3F6
100
AcDbEntity
  8
0
  6
Continuous
 62
     7
370
     0
100
AcDbLine
 10
8.1108691255
 20
3.6169522958
 30
0.0
 11
8.1319702928
 21
3.6169522958
 31
0.0
  0
LINE
  5
3FE
330
3F6
100
AcDbEntity
  8
0
  6
Continuous
 62
     7
370
     0
100
AcDbLine
 10
8.2721111488
 20
3.6169522958
 30
0.0
 11
8.2721111488
 21
3.4763093775
 31
0.0
  0
LINE
  5
3FF
330
3F6
100
AcDbEntity
  8
0
  6
Continuous
 62
     7
370
     0
100
AcDbLine
 10
8.2721111488
 20
3.4763093775
 30
0.0
 11
8.2510099815
 21
3.4763093775
 31
0.0
  0
LINE
  5
400
330
3F6
100
AcDbEntity
  8
0
  6
Continuous
 62
     7
370
     0
100
AcDbLine
 10
8.2721111488
 20
3.6169522958
 30
0.0
 11
8.2510099815
 21
3.6169522958
 31
0.0
  0
LINE
  5
401
330
3F6
100
AcDbEntity
  8
0
  6
Continuous
 62
     7
370
     0
100
AcDbLine
 10
7.5508992456
 20
4.5490750614
 30
0.0
 11
7.5508992456
 21
3.3388997082
 31
0.0
  0
LINE
  5
402
330
3F6
100
AcDbEntity
  8
0
  6
Continuous
 62
     7
370
     0
100
AcDbLine
 10
7.7083618448
 20
4.5490750614
 30
0.0
 11
7.7083618448
 21
3.3388997082
 31
0.0
  0
LINE
  5
403
330
3F6
100
AcDbEntity
  8
0
  6
Continuous
 62
     7
370
     0
100
AcDbLine
 10
7.5508992456
 20
3.4638997082
 30
0.0
 11
7.0508992456
 21
3.4638997082
 31
0.0
  0
LINE
  5
404
330
3F6
100
AcDbEntity
  8
0
  6
Continuous
 62
     7
370
     0
100
AcDbLine
 10
7.7083618448
 20
3.4638997082
 30
0.0
 11
7.9732416936
 21
3.4638997082
 31
0.0
  0
MTEXT
  5
405
330
3F6
100
AcDbEntity
  8
0
  6
Continuous
 62
     7
370
     0
100
AcDbMText
 10
8.0568792422
 20
3.4314940898
 30
0.0
 40
0.1041666667
 41
0.0
 71
     1
 72
     1
  1
0.16
  7
SLDTEXTSTYLE0
 73
     1
 44
1.0
  0
MTEXT
  5
406
330
3F6
100
AcDbEntity
  8
0
  6
Continuous
 62
     7
370
     0
100
AcDbMText
 10
8.1530714601
 20
3.5969563466
 30
0.0
 40
0.1041666667
 41
0.0
 71
     1
 72
     1
  1
4
  7
SLDTEXTSTYLE0
 73
     1
 44
1.0
  0
ENDBLK
  5
3F8
330
3F6
100
AcDbEntity
  8
0
100
AcDbBlockEnd
  0
BLOCK
  5
409
330
408
100
AcDbEntity
  8
0
100
AcDbBlockBegin
  2
*D14
 70
     1
 71
     0
 10
0.0
 20
0.0
 30
0.0
  3
*D14
  1

  0
SOLID
  5
40B
330
408
100
AcDbEntity
  8
0
  6
Continuous
 62
     7
370
     0
100
AcDbTrace
 10
7.0587732614
 20
5.7202856605
 30
0.0
 11
7.2147732614
 21
5.6942856605
 31
0.0
 12
7.2147732614
 22
5.7462856605
 32
0.0
 13
7.2147732614
 23
5.7462856605
 33
0.0
  0
SOLID
  5
40C
330
408
100
AcDbEntity
  8
0
  6
Continuous
 62
     7
370
     0
100
AcDbTrace
 10
8.200487829
 20
5.7202856605
 30
0.0
 11
8.044487829
 21
5.7462856605
 31
0.0
 12
8.044487829
 22
5.6942856605
 32
0.0
 13
8.044487829
 23
5.6942856605
 33
0.0
  0
LINE
  5
40D
330
408
100
AcDbEntity
  8
0
  6
Continuous
 62
     7
370
     0
100
AcDbLine
 10
7.5106678065
 20
5.873338248
 30
0.0
 11
7.5106678065
 21
5.7326953297
 31
0.0
  0
LINE
  5
40E
330
408
100
AcDbEntity
  8
0
  6
Continuous
 62
     7
370
     0
100
AcDbLine
 10
7.5106678065
 20
5.7326953297
 30
0.0
 11
7.5317689738
 21
5.7326953297
 31
0.0
  0
LINE
  5
40F
330
408
100
AcDbEntity
  8
0
  6
Continuous
 62
     7
370
     0
100
AcDbLine
 10
7.5106678065
 20
5.873338248
 30
0.0
 11
7.5317689738
 21
5.873338248
 31
0.0
  0
LINE
  5
410
330
408
100
AcDbEntity
  8
0
  6
Continuous
 62
     7
370
     0
100
AcDbLine
 10
7.7488927092
 20
5.873338248
 30
0.0
 11
7.7488927092
 21
5.7326953297
 31
0.0
  0
LINE
  5
411
330
408
100
AcDbEntity
  8
0
  6
Continuous
 62
     7
370
     0
100
AcDbLine
 10
7.7488927092
 20
5.7326953297
 30
0.0
 11
7.7277915419
 21
5.7326953297
 31
0.0
  0
LINE
  5
412
330
408
100
AcDbEntity
  8
0
  6
Continuous
 62
     7
370
     0
100
AcDbLine
 10
7.7488927092
 20
5.873338248
 30
0.0
 11
7.7277915419
 21
5.873338248
 31
0.0
  0
LINE
  5
413
330
408
100
AcDbEntity
  8
0
  6
Continuous
 62
     7
370
     0
100
AcDbLine
 10
7.0587732614
 20
4.6490750614
 30
0.0
 11
7.0587732614
 21
5.8452856605
 31
0.0
  0
LINE
  5
414
330
408
100
AcDbEntity
  8
0
  6
Continuous
 62
     7
370
     0
100
AcDbLine
 10
8.200487829
 20
4.6490750614
 30
0.0
 11
8.200487829
 21
5.8452856605
 31
0.0
  0
LINE
  5
415
330
408
100
AcDbEntity
  8
0
  6
Continuous
 62
     7
370
     0
100
AcDbLine
 10
7.0587732614
 20
5.7202856605
 30
0.0
 11
7.3848279232
 21
5.7202856605
 31
0.0
  0
LINE
  5
416
330
408
100
AcDbEntity
  8
0
  6
Continuous
 62
     7
370
     0
100
AcDbLine
 10
8.200487829
 20
5.7202856605
 30
0.0
 11
7.8747325925
 21
5.7202856605
 31
0.0
  0
MTEXT
  5
417
330
408
100
AcDbEntity
  8
0
  6
Continuous
 62
     7
370
     0
100
AcDbMText
 10
7.4951693629
 20
5.687880042
 30
0.0
 40
0.1041666667
 41
0.0
 71
     1
 72
     1
  1
1.14
  7
SLDTEXTSTYLE0
 73
     1
 44
1.0
  0
MTEXT
  5
418
330
408
100
AcDbEntity
  8
0
  6
Continuous
 62
     7
370
     0
100
AcDbMText
 10
7.5528701411
 20
5.8533422988
 30
0.0
 40
0.1041666667
 41
0.0
 71
     1
 72
     1
  1
29
  7
SLDTEXTSTYLE0
 73
     1
 44
1.0
  0
ENDBLK
  5
40A
330
408
100
AcDbEntity
  8
0
100
AcDbBlockEnd
  0
BLOCK
  5
41A
330
419
100
AcDbEntity
  8
0
100
AcDbBlockBegin
  2
SW_NOTE_5
 70
     0
 71
     0
 10
0.0
 20
0.0
 30
0.0
  3
SW_NOTE_5
  1

  0
MTEXT
  5
41D
330
419
100
AcDbEntity
  8
0
  6
Continuous
 62
     0
370
     0
100
AcDbMText
 10
0.0
 20
0.1330566406
 30
0.0
 40
0.1041666667
 41
0.0
 71
     1
 72
     1
  1
SECTION A-A 
  7
SLDTEXTSTYLE17
 73
     1
 44
1.0
  0
MTEXT
  5
41F
330
419
100
AcDbEntity
  8
0
  6
Continuous
 62
     0
370
     0
100
AcDbMText
 10
0.0841049551
 20
-0.0058322466
 30
0.0
 40
0.1041666667
 41
0.0
 71
     1
 72
     1
  1
SCALE 1 : 1
  7
SLDTEXTSTYLE18
 73
     1
 44
1.0
  0
ENDBLK
  5
41B
330
419
100
AcDbEntity
  8
0
100
AcDbBlockEnd
  0
BLOCK
  5
422
330
421
100
AcDbEntity
  8
0
100
AcDbBlockBegin
  2
SW_NOTE_6
 70
     0
 71
     0
 10
0.0
 20
0.0
 30
0.0
  3
SW_NOTE_6
  1

  0
MTEXT
  5
425
330
421
100
AcDbEntity
  8
0
  6
Continuous
 62
     0
370
     0
100
AcDbMText
 10
-1.3413341727
 20
0.1665008728
 30
0.0
 40
0.09
 41
0.0
 71
     1
 72
     1
  1
INTERNAL  SM1 THREAD
  7
SLDTEXTSTYLE19
 73
     1
 44
1.0
  0
MTEXT
  5
426
330
421
100
AcDbEntity
  8
0
  6
Continuous
 62
     0
370
     0
100
AcDbMText
 10
-0.9607716607
 20
0.0371307898
 30
0.0
 40
0.09
 41
0.0
 71
     1
 72
     1
  1
(1.035-40)
  7
SLDTEXTSTYLE0
 73
     1
 44
1.0
  0
ENDBLK
  5
423
330
421
100
AcDbEntity
  8
0
100
AcDbBlockEnd
  0
BLOCK
  5
42C
330
42B
100
AcDbEntity
  8
0
100
AcDbBlockBegin
  2
SW_NOTE_7
 70
     0
 71
     0
 10
0.0
 20
0.0
 30
0.0
  3
SW_NOTE_7
  1

  0
CIRCLE
  5
42E
330
42B
100
AcDbEntity
  8
0
  6
Continuous
 62
     0
370
     0
100
AcDbCircle
 10
0.1909518724
 20
0.0481738956
 30
0.0
 40
0.1969348668812028
  0
MTEXT
  5
42F
330
42B
100
AcDbEntity
  8
0
  6
Continuous
 62
     0
370
     0
100
AcDbMText
 10
0.1230111481
 20
0.1190338058
 30
0.0
 40
0.1377952756
 41
0.0
 71
     1
 72
     1
  1
A
  7
SLDTEXTSTYLE0
 73
     1
 44
1.0
  0
ENDBLK
  5
42D
330
42B
100
AcDbEntity
  8
0
100
AcDbBlockEnd
  0
BLOCK
  5
433
330
432
100
AcDbEntity
  8
0
100
AcDbBlockBegin
  2
SW_NOTE_8
 70
     0
 71
     0
 10
0.0
 20
0.0
 30
0.0
  3
SW_NOTE_8
  1

  0
CIRCLE
  5
435
330
432
100
AcDbEntity
  8
0
  6
Continuous
 62
     0
370
     0
100
AcDbCircle
 10
-0.1933869475
 20
0.0372133084
 30
0.0
 40
0.1969348668812028
  0
MTEXT
  5
436
330
432
100
AcDbEntity
  8
0
  6
Continuous
 62
     0
370
     0
100
AcDbMText
 10
-0.2613276718
 20
0.1080732186
 30
0.0
 40
0.1377952756
 41
0.0
 71
     1
 72
     1
  1
A
  7
SLDTEXTSTYLE0
 73
     1
 44
1.0
  0
ENDBLK
  5
434
330
432
100
AcDbEntity
  8
0
100
AcDbBlockEnd
  0
BLOCK
  5
43A
330
439
100
AcDbEntity
  8
0
100
AcDbBlockBegin
  2
SW_NOTE_9
 70
     0
 71
     0
 10
0.0
 20
0.0
 30
0.0
  3
SW_NOTE_9
  1

  0
CIRCLE
  5
43C
330
439
100
AcDbEntity
  8
0
  6
Continuous
 62
     0
370
     0
100
AcDbCircle
 10
0.1923763919
 20
-0.0421267805
 30
0.0
 40
0.1969348668812025
  0
MTEXT
  5
43D
330
439
100
AcDbEntity
  8
0
  6
Continuous
 62
     0
370
     0
100
AcDbMText
 10
0.1396505589
 20
0.0287331297
 30
0.0
 40
0.1377952756
 41
0.0
 71
     1
 72
     1
  1
B
  7
SLDTEXTSTYLE0
 73
     1
 44
1.0
  0
ENDBLK
  5
43B
330
439
100
AcDbEntity
  8
0
100
AcDbBlockEnd
  0
BLOCK
  5
441
330
440
100
AcDbEntity
  8
0
100
AcDbBlockBegin
  2
SW_NOTE_10
 70
     0
 71
     0
 10
0.0
 20
0.0
 30
0.0
  3
SW_NOTE_10
  1

  0
CIRCLE
  5
443
330
440
100
AcDbEntity
  8
0
  6
Continuous
 62
     0
370
     0
100
AcDbCircle
 10
-0.1968644745
 20
0.0052650234
 30
0.0
 40
0.1969348668812025
  0
MTEXT
  5
444
330
440
100
AcDbEntity
  8
0
  6
Continuous
 62
     0
370
     0
100
AcDbMText
 10
-0.2715035806
 20
0.0761249336
 30
0.0
 40
0.1377952756
 41
0.0
 71
     1
 72
     1
  1
C
  7
SLDTEXTSTYLE0
 73
     1
 44
1.0
  0
ENDBLK
  5
442
330
440
100
AcDbEntity
  8
0
100
AcDbBlockEnd
  0
BLOCK
  5
448
330
447
100
AcDbEntity
  8
0
100
AcDbBlockBegin
  2
SW_NOTE_11
 70
     0
 71
     0
 10
0.0
 20
0.0
 30
0.0
  3
SW_NOTE_11
  1

  0
CIRCLE
  5
44A
330
447
100
AcDbEntity
  8
0
  6
Continuous
 62
     0
370
     0
100
AcDbCircle
 10
0.1958526676
 20
0.0206173326
 30
0.0
 40
0.1969348668812025
  0
MTEXT
  5
44B
330
447
100
AcDbEntity
  8
0
  6
Continuous
 62
     0
370
     0
100
AcDbMText
 10
0.1212135615
 20
0.0914772428
 30
0.0
 40
0.1377952756
 41
0.0
 71
     1
 72
     1
  1
C
  7
SLDTEXTSTYLE0
 73
     1
 44
1.0
  0
ENDBLK
  5
449
330
447
100
AcDbEntity
  8
0
100
AcDbBlockEnd
  0
ENDSEC
  0
SECTION
  2
ENTITIES
  0
LINE
  5
30
330
1F
100
AcDbEntity
  8
0
  6
Continuous
 62
     7
370
     0
100
AcDbLine
 10
0.329927
 20
8.1920731707
 30
0.0
 11
10.629927
 21
8.1920731707
 31
0.0
  0
LINE
  5
31
330
1F
100
AcDbEntity
  8
0
  6
Continuous
 62
     7
370
     0
100
AcDbLine
 10
0.329927
 20
8.1920731707
 30
0.0
 11
0.329927
 21
0.3920731707
 31
0.0
  0
LINE
  5
32
330
1F
100
AcDbEntity
  8
0
  6
Continuous
 62
     7
370
     0
100
AcDbLine
 10
10.629927
 20
0.3920731707
 30
0.0
 11
0.329927
 21
0.3920731707
 31
0.0
  0
LINE
  5
33
330
1F
100
AcDbEntity
  8
0
  6
Continuous
 62
     7
370
     0
100
AcDbLine
 10
10.629927
 20
0.3920731707
 30
0.0
 11
10.629927
 21
8.1920731707
 31
0.0
  0
LINE
  5
34
330
1F
100
AcDbEntity
  8
0
  6
Continuous
 62
     7
370
     0
100
AcDbLine
 10
7.8832069922
 20
1.2010186622
 30
0.0
 11
6.3491817542
 21
1.2010186622
 31
0.0
  0
LINE
  5
35
330
1F
100
AcDbEntity
  8
0
  6
Continuous
 62
     7
370
     0
100
AcDbLine
 10
6.3491817542
 20
0.3920731707
 30
0.0
 11
6.3491817542
 21
1.6988536355
 31
0.0
  0
LINE
  5
36
330
1F
100
AcDbEntity
  8
0
  6
Continuous
 62
     7
370
     0
100
AcDbLine
 10
7.8832069922
 20
1.270166923
 30
0.0
 11
10.629927
 21
1.270166923
 31
0.0
  0
LINE
  5
37
330
1F
100
AcDbEntity
  8
0
  6
Continuous
 62
     7
370
     0
100
AcDbLine
 10
7.8832069922
 20
1.9437769943
 30
0.0
 11
7.8832069922
 21
0.3920731707
 31
0.0
  0
LINE
  5
38
330
1F
100
AcDbEntity
  8
0
  6
Continuous
 62
     7
370
     0
100
AcDbLine
 10
7.8832069922
 20
1.323339557
 30
0.0
 11
6.3491817542
 21
1.323339557
 31
0.0
  0
LINE
  5
39
330
1F
100
AcDbEntity
  8
0
  6
Continuous
 62
     7
370
     0
100
AcDbLine
 10
7.8832069922
 20
1.6988536355
 30
0.0
 11
6.3491817542
 21
1.6988536355
 31
0.0
  0
LINE
  5
3A
330
1F
100
AcDbEntity
  8
0
  6
Continuous
 62
     7
370
     0
100
AcDbLine
 10
7.8832069922
 20
0.7890359178
 30
0.0
 11
10.629927
 21
0.7890359178
 31
0.0
  0
LINE
  5
3B
330
1F
100
AcDbEntity
  8
0
  6
Continuous
 62
     7
370
     0
100
AcDbLine
 10
7.8832069922
 20
1.4456604517
 30
0.0
 11
6.3491817542
 21
1.4456604517
 31
0.0
  0
LINE
  5
3C
330
1F
100
AcDbEntity
  8
0
  6
Continuous
 62
     7
370
     0
100
AcDbLine
 10
7.8832069922
 20
1.5679813464
 30
0.0
 11
6.3491817542
 21
1.5679813464
 31
0.0
  0
LINE
  5
3D
330
1F
100
AcDbEntity
  8
0
  6
Continuous
 62
     7
370
     0
100
AcDbLine
 10
6.9294188505
 20
1.6988536355
 30
0.0
 11
6.9294188505
 21
1.2010186622
 31
0.0
  0
LINE
  5
3E
330
1F
100
AcDbEntity
  8
0
  6
Continuous
 62
     7
370
     0
100
AcDbLine
 10
7.2989435727
 20
1.6988536355
 30
0.0
 11
7.2989435727
 21
1.2010186622
 31
0.0
  0
LINE
  5
3F
330
1F
100
AcDbEntity
  8
0
  6
Continuous
 62
     7
370
     0
100
AcDbLine
 10
8.9000563418
 20
0.7890359178
 30
0.0
 11
8.9000563418
 21
0.3920731707
 31
0.0
  0
LINE
  5
40
330
1F
100
AcDbEntity
  8
0
  6
Continuous
 62
     7
370
     0
100
AcDbLine
 10
9.3113942988
 20
0.96139916
 30
0.0
 11
9.3113942988
 21
0.7890359178
 31
0.0
  0
LINE
  5
41
330
1F
100
AcDbEntity
  8
0
  6
Continuous
 62
     7
370
     0
100
AcDbLine
 10
10.0324602448
 20
1.270166923
 30
0.0
 11
10.0324602448
 21
0.96139916
 31
0.0
  0
LINE
  5
42
330
1F
100
AcDbEntity
  8
0
  6
Continuous
 62
     7
370
     0
100
AcDbLine
 10
6.3491817542
 20
1.0381709011
 30
0.0
 11
7.8832069922
 21
1.0381709011
 31
0.0
  0
LINE
  5
43
330
1F
100
AcDbEntity
  8
0
  6
Continuous
 62
     7
370
     0
100
AcDbLine
 10
7.8832069922
 20
1.9437769943
 30
0.0
 11
10.629927
 21
1.9437769943
 31
0.0
  0
LINE
  5
44
330
1F
100
AcDbEntity
  8
0
  6
Continuous
 62
     7
370
     0
100
AcDbLine
 10
10.315241862
 20
1.2693980507
 30
0.0
 11
10.315241862
 21
0.96139916
 31
0.0
  0
LINE
  5
45
330
1F
100
AcDbEntity
  8
0
  6
Continuous
 62
     7
370
     0
100
AcDbLine
 10
7.8832069922
 20
0.96139916
 30
0.0
 11
10.629927
 21
0.96139916
 31
0.0
  0
LINE
  5
46
330
1F
100
AcDbEntity
  8
0
  6
Continuous
 62
     7
370
     0
100
AcDbLine
 10
10.629927
 20
1.9437769943
 30
0.0
 11
10.629927
 21
1.9698084888
 31
0.0
  0
LINE
  5
47
330
1F
100
AcDbEntity
  8
0
  6
Continuous
 62
     7
370
     0
100
AcDbLine
 10
7.8832069922
 20
1.6268095213
 30
0.0
 11
10.629927
 21
1.6268095213
 31
0.0
  0
LINE
  5
48
330
1F
100
AcDbEntity
  8
0
  6
Continuous
 62
     7
370
     0
100
AcDbLine
 10
6.692177
 20
0.3920731707
 30
0.0
 11
6.692177
 21
0.3072739649
 31
0.0
  0
LINE
  5
49
330
1F
100
AcDbEntity
  8
0
  6
Continuous
 62
     7
370
     0
100
AcDbLine
 10
2.754677
 20
0.3920731707
 30
0.0
 11
2.754677
 21
0.3072739649
 31
0.0
  0
LINE
  5
4A
330
1F
100
AcDbEntity
  8
0
  6
Continuous
 62
     7
370
     0
100
AcDbLine
 10
2.754677
 20
0.3920731707
 30
0.0
 11
2.7672319738
 21
0.3575
 31
0.0
  0
LINE
  5
4B
330
1F
100
AcDbEntity
  8
0
  6
Continuous
 62
     7
370
     0
100
AcDbLine
 10
2.7672319738
 20
0.3575
 30
0.0
 11
2.7414258825
 21
0.3575
 31
0.0
  0
LINE
  5
4C
330
1F
100
AcDbEntity
  8
0
  6
Continuous
 62
     7
370
     0
100
AcDbLine
 10
2.7414258825
 20
0.3575
 30
0.0
 11
2.754677
 21
0.3920731707
 31
0.0
  0
MTEXT
  5
4E
330
1F
100
AcDbEntity
  8
0
  6
Continuous
 62
     7
370
     0
100
AcDbMText
 10
10.4043270877
 20
1.1203120088
 30
0.0
 40
0.1041666667
 41
0.0
 71
     1
 72
     1
  1
C
  7
SLDTEXTSTYLE0
 73
     1
 44
1.0
  0
MTEXT
  5
4F
330
1F
100
AcDbEntity
  8
0
  6
Continuous
 62
     7
370
     0
100
AcDbMText
 10
1.7387909509
 20
0.3094873007
 30
0.0
 40
0.09375
 41
0.0
 71
     1
 72
     1
  1
5
  7
SLDTEXTSTYLE0
 73
     1
 44
1.0
  0
MTEXT
  5
50
330
1F
100
AcDbEntity
  8
0
  6
Continuous
 62
     7
370
     0
100
AcDbMText
 10
3.723800327
 20
0.3126246278
 30
0.0
 40
0.09375
 41
0.0
 71
     1
 72
     1
  1
4
  7
SLDTEXTSTYLE0
 73
     1
 44
1.0
  0
MTEXT
  5
51
330
1F
100
AcDbEntity
  8
0
  6
Continuous
 62
     7
370
     0
100
AcDbMText
 10
5.6324457277
 20
0.3105200602
 30
0.0
 40
0.09375
 41
0.0
 71
     1
 72
     1
  1
3
  7
SLDTEXTSTYLE0
 73
     1
 44
1.0
  0
MTEXT
  5
52
330
1F
100
AcDbEntity
  8
0
  6
Continuous
 62
     7
370
     0
100
AcDbMText
 10
7.6059721724
 20
0.3113400111
 30
0.0
 40
0.09375
 41
0.0
 71
     1
 72
     1
  1
2
  7
SLDTEXTSTYLE0
 73
     1
 44
1.0
  0
MTEXT
  5
53
330
1F
100
AcDbEntity
  8
0
  6
Continuous
 62
     7
370
     0
100
AcDbMText
 10
9.6619921328
 20
0.300272888
 30
0.0
 40
0.09375
 41
0.0
 71
     1
 72
     1
  1
1
  7
SLDTEXTSTYLE0
 73
     1
 44
1.0
  0
MTEXT
  5
54
330
1F
100
AcDbEntity
  8
0
  6
Continuous
 62
     7
370
     0
100
AcDbMText
 10
9.3404207666
 20
0.5941666803
 30
0.0
 40
0.09375
 41
0.0
 71
     1
 72
     1
  1
MAP104040-A1
  7
SLDTEXTSTYLE0
 73
     1
 44
1.0
  0
MTEXT
  5
55
330
1F
100
AcDbEntity
  8
0
  6
Continuous
 62
     7
370
     0
100
AcDbMText
 10
7.9301743649
 20
1.2499730493
 30
0.0
 40
0.0833333333
 41
0.0
 71
     1
 72
     1
  1
MATERIAL:
  7
SLDTEXTSTYLE0
 73
     1
 44
1.0
  0
MTEXT
  5
57
330
1F
100
AcDbEntity
  8
0
  6
Continuous
 62
     7
370
     0
100
AcDbMText
 10
8.9438302275
 20
0.7457341193
 30
0.0
 40
0.0833333333
 41
0.0
 71
     1
 72
     1
  1
PART  NO.
  7
SLDTEXTSTYLE1
 73
     1
 44
1.0
  0
MTEXT
  5
59
330
1F
100
AcDbEntity
  8
0
  6
Continuous
 62
     7
370
     0
100
AcDbMText
 10
6.3927073562
 20
1.1440291591
 30
0.0
 40
0.06
 41
0.0
 71
     1
 72
     1
  1
PROPRIETARY AND CONFIDENTIAL
  7
SLDTEXTSTYLE2
 73
     1
 44
1.0
  0
MTEXT
  5
5A
330
1F
100
AcDbEntity
  8
0
  6
Continuous
 62
     7
370
     0
100
AcDbMText
 10
6.4985660702
 20
1.5406501707
 30
0.0
 40
0.065
 41
0.0
 71
     1
 72
     1
  1
DRAWN
  7
SLDTEXTSTYLE0
 73
     1
 44
1.0
  0
MTEXT
  5
5B
330
1F
100
AcDbEntity
  8
0
  6
Continuous
 62
     7
370
     0
100
AcDbMText
 10
6.4369653776
 20
1.4183941661
 30
0.0
 40
0.065
 41
0.0
 71
     1
 72
     1
  1
ENG APPR.
  7
SLDTEXTSTYLE0
 73
     1
 44
1.0
  0
MTEXT
  5
5C
330
1F
100
AcDbEntity
  8
0
  6
Continuous
 62
     7
370
     0
100
AcDbMText
 10
6.4273055419
 20
1.298296273
 30
0.0
 40
0.065
 41
0.0
 71
     1
 72
     1
  1
MFG APPR.
  7
SLDTEXTSTYLE0
 73
     1
 44
1.0
  0
MTEXT
  5
5D
330
1F
100
AcDbEntity
  8
0
  6
Continuous
 62
     7
370
     0
100
AcDbMText
 10
6.9752663896
 20
1.6608078346
 30
0.0
 40
0.065
 41
0.0
 71
     1
 72
     1
  1
NAME
  7
SLDTEXTSTYLE0
 73
     1
 44
1.0
  0
MTEXT
  5
5E
330
1F
100
AcDbEntity
  8
0
  6
Continuous
 62
     7
370
     0
100
AcDbMText
 10
7.9386050459
 20
1.5661804433
 30
0.0
 40
0.1
 41
0.0
 71
     1
 72
     1
  1
TITLE:
  7
SLDTEXTSTYLE0
 73
     1
 44
1.0
  0
MTEXT
  5
5F
330
1F
100
AcDbEntity
  8
0
  6
Continuous
 62
     7
370
     0
100
AcDbMText
 10
10.0657693915
 20
1.2262994671
 30
0.0
 40
0.0833333333
 41
0.0
 71
     1
 72
     1
  1
SIZE
  7
SLDTEXTSTYLE0
 73
     1
 44
1.0
  0
MTEXT
  5
60
330
1F
100
AcDbEntity
  8
0
  6
Continuous
 62
     7
370
     0
100
AcDbMText
 10
10.1162261111
 20
1.1164461388
 30
0.0
 40
0.1041666667
 41
0.0
 71
     1
 72
     1
  1
A
  7
SLDTEXTSTYLE0
 73
     1
 44
1.0
  0
MTEXT
  5
61
330
1F
100
AcDbEntity
  8
0
  6
Continuous
 62
     7
370
     0
100
AcDbMText
 10
10.335100974
 20
1.2278993505
 30
0.0
 40
0.0833333333
 41
0.0
 71
     1
 72
     1
  1
REV.
  7
SLDTEXTSTYLE0
 73
     1
 44
1.0
  0
MTEXT
  5
62
330
1F
100
AcDbEntity
  8
0
  6
Continuous
 62
     7
370
     0
100
AcDbMText
 10
8.3227727705
 20
0.9309786574
 30
0.0
 40
0.0833333333
 41
0.0
 71
     1
 72
     1
  1
SCALE: 2:1
  7
SLDTEXTSTYLE0
 73
     1
 44
1.0
  0
MTEXT
  5
64
330
1F
100
AcDbEntity
  8
0
  6
Continuous
 62
     7
370
     0
100
AcDbMText
 10
9.6378279873
 20
0.926579063
 30
0.0
 40
0.0833333333
 41
0.0
 71
     1
 72
     1
  1
SHEET 1 OF 1
  7
SLDTEXTSTYLE3
 73
     1
 44
1.0
  0
MTEXT
  5
65
330
1F
100
AcDbEntity
  8
0
  6
Continuous
 62
     7
370
     0
100
AcDbMText
 10
8.0602064982
 20
0.6044052155
 30
0.0
 40
0.1041666667
 41
0.0
 71
     1
 72
     1
  1
13322-E01
  7
SLDTEXTSTYLE0
 73
     1
 44
1.0
  0
INSERT
  5
75
330
1F
100
AcDbEntity
  8
0
  6
Continuous
 62
     7
370
     0
100
AcDbBlockReference
  2
SW_NOTE_0
 10
6.3891646717
 20
0.9312082413
 30
0.0
  0
MTEXT
  5
76
330
1F
100
AcDbEntity
  8
0
  6
Continuous
 62
     7
370
     0
100
AcDbMText
 10
7.9076399399
 20
0.7468305835
 30
0.0
 40
0.0833333333
 41
0.0
 71
     1
 72
     1
  1
DWG.  NO.
  7
SLDTEXTSTYLE1
 73
     1
 44
1.0
  0
MTEXT
  5
77
330
1F
100
AcDbEntity
  8
0
  6
Continuous
 62
     7
370
     0
100
AcDbMText
 10
7.0592138229
 20
1.5434434118
 30
0.0
 40
0.065
 41
0.0
 71
     1
 72
     1
  1
AP
  7
SLDTEXTSTYLE0
 73
     1
 44
1.0
  0
MTEXT
  5
78
330
1F
100
AcDbEntity
  8
0
  6
Continuous
 62
     7
370
     0
100
AcDbMText
 10
7.0628716471
 20
1.4267005168
 30
0.0
 40
0.065
 41
0.0
 71
     1
 72
     1
  1
TO
  7
SLDTEXTSTYLE0
 73
     1
 44
1.0
  0
MTEXT
  5
79
330
1F
100
AcDbEntity
  8
0
  6
Continuous
 62
     7
370
     0
100
AcDbMText
 10
7.0636219211
 20
1.3041261123
 30
0.0
 40
0.065
 41
0.0
 71
     1
 72
     1
  1
TO
  7
SLDTEXTSTYLE0
 73
     1
 44
1.0
  0
MTEXT
  5
7A
330
1F
100
AcDbEntity
  8
0
  6
Continuous
 62
     7
370
     0
100
AcDbMText
 10
7.3775562039
 20
1.5451308061
 30
0.0
 40
0.065
 41
0.0
 71
     1
 72
     1
  1
04/14/06
  7
SLDTEXTSTYLE0
 73
     1
 44
1.0
  0
MTEXT
  5
7B
330
1F
100
AcDbEntity
  8
0
  6
Continuous
 62
     7
370
     0
100
AcDbMText
 10
7.4731545031
 20
1.6582684693
 30
0.0
 40
0.065
 41
0.0
 71
     1
 72
     1
  1
DATE
  7
SLDTEXTSTYLE0
 73
     1
 44
1.0
  0
MTEXT
  5
7C
330
1F
100
AcDbEntity
  8
0
  6
Continuous
 62
     7
370
     0
100
AcDbMText
 10
7.3821011998
 20
1.4184142209
 30
0.0
 40
0.065
 41
0.0
 71
     1
 72
     1
  1
04/14/06
  7
SLDTEXTSTYLE0
 73
     1
 44
1.0
  0
MTEXT
  5
7D
330
1F
100
AcDbEntity
  8
0
  6
Continuous
 62
     7
370
     0
100
AcDbMText
 10
7.3821011998
 20
1.2979456571
 30
0.0
 40
0.065
 41
0.0
 71
     1
 72
     1
  1
04/14/06
  7
SLDTEXTSTYLE0
 73
     1
 44
1.0
  0
MTEXT
  5
7E
330
1F
100
AcDbEntity
  8
0
  6
Continuous
 62
     7
370
     0
100
AcDbMText
 10
7.9182509893
 20
1.8945248266
 30
0.0
 40
0.1875
 41
0.0
 71
     1
 72
     1
  1
THORLABS INC.
  7
SLDTEXTSTYLE0
 73
     1
 44
1.0
  0
INSERT
  5
85
330
1F
100
AcDbEntity
  8
0
  6
Continuous
 62
     7
370
     0
100
AcDbBlockReference
  2
SW_NOTE_1
 10
9.7899715108
 20
1.7786954532
 30
0.0
  0
INSERT
  5
8C
330
1F
100
AcDbEntity
  8
0
  6
Continuous
 62
     7
370
     0
100
AcDbBlockReference
  2
SW_NOTE_2
 10
8.3708172647
 20
1.4180392994
 30
0.0
  0
MTEXT
  5
8D
330
1F
100
AcDbEntity
  8
0
  6
Continuous
 62
     7
370
     0
100
AcDbMText
 10
8.3691642187
 20
1.131481397
 30
0.0
 40
0.1041666667
 41
0.0
 71
     1
 72
     1
  1
SEE TABLE
  7
SLDTEXTSTYLE0
 73
     1
 44
1.0
  0
INSERT
  5
9D
330
1F
100
AcDbEntity
  8
0
  6
Continuous
 62
     7
370
     0
100
AcDbBlockReference
  2
SW_NOTE_3
 10
0.8365088909
 20
1.9273752886
 30
0.0
  0
MTEXT
  5
9E
330
1F
100
AcDbEntity
  8
0
  6
Continuous
 62
     7
370
     0
100
AcDbMText
 10
0.8555169462
 20
2.2336939847
 30
0.0
 40
0.09
 41
0.0
 71
     1
 72
     1
  1
SPECIFICATIONS:
  7
SLDTEXTSTYLE0
 73
     1
 44
1.0
  0
INSERT
  5
A5
330
1F
100
AcDbEntity
  8
0
  6
Continuous
 62
     7
370
     0
100
AcDbBlockReference
  2
SW_NOTE_4
 10
0.5299230893
 20
0.6673857603
 30
0.0
  0
INSERT
  5
BE
330
1F
100
AcDbEntity
  8
0
  6
Continuous
 62
     7
370
     0
100
AcDbBlockReference
  2
SW_TABLEANNOTATION_0
 10
0.3237793427
 20
8.2050938967
 30
0.0
  0
CIRCLE
  5
BF
330
1F
100
AcDbEntity
  8
0
  6
Continuous
 62
     7
370
     0
100
AcDbCircle
 10
2.4800534125
 20
4.599074965
 30
0.0
 40
0.590000000000002
  0
CIRCLE
  5
C0
330
1F
100
AcDbEntity
  8
0
  6
Continuous
 62
     7
370
     0
100
AcDbCircle
 10
2.4800534125
 20
4.599074965
 30
0.0
 40
0.6000000000000011
  0
CIRCLE
  5
C1
330
1F
100
AcDbEntity
  8
0
  6
Continuous
 62
     7
370
     0
100
AcDbCircle
 10
2.4800534125
 20
4.599074965
 30
0.0
 40
0.5060000000000007
  0
CIRCLE
  5
C2
330
1F
100
AcDbEntity
  8
0
  6
Continuous
 62
     7
370
     0
100
AcDbCircle
 10
2.4800534125
 20
4.599074965
 30
0.0
 40
0.5160000000000011
  0
ARC
  5
C3
330
1F
100
AcDbEntity
  8
0
  6
Continuous
 62
     7
370
     0
100
AcDbCircle
 10
2.4800532122
 20
4.599075102
 30
0.0
 40
0.500179491924315
100
AcDbArc
 50
93.1127676827
 51
271.3944467288
  0
SPLINE
  5
C4
330
1F
100
AcDbEntity
  8
0
  6
Continuous
 62
     7
370
     0
100
AcDbSpline
210
0.0
220
0.0
230
1.0
 70
    24
 71
     1
 72
     4
 73
     2
 74
     0
 42
0.00000001
 43
0.00000001
 40
0.0
 40
0.0
 40
1.0
 40
1.0
 10
2.492225228578012
 20
4.099043741615514
 30
0.0
 10
2.49243560114777
 20
4.093697675040398
 30
0.0
  0
SPLINE
  5
C5
330
1F
100
AcDbEntity
  8
0
  6
Continuous
 62
     7
370
     0
100
AcDbSpline
210
0.0
220
0.0
230
1.0
 70
    24
 71
     1
 72
     4
 73
     2
 74
     0
 42
0.00000001
 43
0.00000001
 40
0.0
 40
0.0
 40
1.0
 40
1.0
 10
2.452678467092242
 20
5.103962964369566
 30
0.0
 10
2.452892799616254
 20
5.098516633952706
 30
0.0
  0
ARC
  5
C6
330
1F
100
AcDbEntity
  8
0
  6
Continuous
 62
     7
370
     0
100
AcDbCircle
 10
2.4800532122
 20
4.599075102
 30
0.0
 40
0.4500000000000033
100
AcDbArc
 50
93.2085810795
 51
271.298633332
  0
LINE
  5
C7
330
1F
100
AcDbEntity
  8
0
  6
Continuous
 62
     7
370
     0
100
AcDbLine
 10
2.4922252286
 20
4.0990437416
 30
0.0
 11
2.490251778
 21
4.1491906773
 31
0.0
  0
LINE
  5
C8
330
1F
100
AcDbEntity
  8
0
  6
Continuous
 62
     7
370
     0
100
AcDbLine
 10
2.4528927996
 20
5.098516634
 30
0.0
 11
2.4548662502
 21
5.0483696799
 31
0.0
  0
ARC
  5
C9
330
1F
100
AcDbEntity
  8
0
  6
Continuous
 62
     7
370
     0
100
AcDbCircle
 10
2.4800532122
 20
4.599075102
 30
0.0
 40
0.5001794919243159
100
AcDbArc
 50
273.1127676827
 51
91.3944467288
  0
SPLINE
  5
CA
330
1F
100
AcDbEntity
  8
0
  6
Continuous
 62
     7
370
     0
100
AcDbSpline
210
0.0
220
0.0
230
1.0
 70
    24
 71
     1
 72
     4
 73
     2
 74
     0
 42
0.00000001
 43
0.00000001
 40
0.0
 40
0.0
 40
1.0
 40
1.0
 10
2.467881208135547
 20
5.099106447139134
 30
0.0
 10
2.467673108872861
 20
5.104394379385822
 30
0.0
  0
SPLINE
  5
CB
330
1F
100
AcDbEntity
  8
0
  6
Continuous
 62
     7
370
     0
100
AcDbSpline
210
0.0
220
0.0
230
1.0
 70
    24
 71
     1
 72
     4
 73
     2
 74
     0
 42
0.00000001
 43
0.00000001
 40
0.0
 40
0.0
 40
1.0
 40
1.0
 10
2.50740206492057
 20
4.094844980119965
 30
0.0
 10
2.507213618764183
 20
4.099633573135064
 30
0.0
  0
ARC
  5
CC
330
1F
100
AcDbEntity
  8
0
  6
Continuous
 62
     7
370
     0
100
AcDbCircle
 10
2.4800532122
 20
4.599075102
 30
0.0
 40
0.4500000000000042
100
AcDbArc
 50
273.2085810796
 51
91.298633332
  0
LINE
  5
CD
330
1F
100
AcDbEntity
  8
0
  6
Continuous
 62
     7
370
     0
100
AcDbLine
 10
2.4678812081
 20
5.0991064471
 30
0.0
 11
2.4698546403
 21
5.0489594931
 31
0.0
  0
LINE
  5
CE
330
1F
100
AcDbEntity
  8
0
  6
Continuous
 62
     7
370
     0
100
AcDbLine
 10
2.5072136188
 20
4.0996335731
 30
0.0
 11
2.5052401866
 21
4.1497805272
 31
0.0
  0
ARC
  5
CF
330
1F
100
AcDbEntity
  8
0
  6
Continuous
 62
     7
370
     0
100
AcDbCircle
 10
2.4800532122
 20
4.599075102
 30
0.0
 40
0.4500000000000042
100
AcDbArc
 50
271.298633332
 51
273.2085810796
  0
ARC
  5
D0
330
1F
100
AcDbEntity
  8
0
  6
Continuous
 62
     7
370
     0
100
AcDbCircle
 10
2.4800532122
 20
4.599075102
 30
0.0
 40
0.4500000000000023
100
AcDbArc
 50
91.298633332
 51
93.2085810795
  0
DIMENSION
  5
D1
330
1F
100
AcDbEntity
  8
0
  6
Continuous
 62
     7
370
     0
100
AcDbDimension
  2
*D7
 10
2.0686681194
 20
4.1623117103
 30
0.0
 11
3.7406765579
 21
5.3322945495
 31
0.0
 70
   163
  1
<>
 71
     1
 42
-1.0
  3
SLDDIMSTYLE0
100
AcDbDiametricDimension
 15
2.8914387055
 25
5.0358382196
 35
0.0
 40
0.0
  0
LINE
  5
E2
330
1F
100
AcDbEntity
  8
0
  6
PHANTOM
 62
     7
370
    30
100
AcDbLine
 10
2.4800534125
 20
5.4609295644
 30
0.0
 11
2.4800534125
 21
3.827264876
 31
0.0
  0
LINE
  5
E3
330
1F
100
AcDbEntity
  8
0
  6
Continuous
 62
     7
370
    30
100
AcDbLine
 10
2.4800534125
 20
5.4609295644
 30
0.0
 11
2.0100534125
 21
5.4609295644
 31
0.0
  0
SOLID
  5
E4
330
1F
100
AcDbEntity
  8
0
  6
Continuous
 62
     7
370
    30
100
AcDbTrace
 10
2.0100534125
 20
5.4609295644
 30
0.0
 11
2.2500534125
 21
5.4009295644
 31
0.0
 12
2.2500534125
 22
5.5209295644
 32
0.0
 13
2.2500534125
 23
5.5209295644
 33
0.0
  0
LINE
  5
E5
330
1F
100
AcDbEntity
  8
0
  6
Continuous
 62
     7
370
    30
100
AcDbLine
 10
2.4800534125
 20
3.827264876
 30
0.0
 11
2.0100534125
 21
3.827264876
 31
0.0
  0
SOLID
  5
E6
330
1F
100
AcDbEntity
  8
0
  6
Continuous
 62
     7
370
    30
100
AcDbTrace
 10
2.0100534125
 20
3.827264876
 30
0.0
 11
2.2500534125
 21
3.767264876
 31
0.0
 12
2.2500534125
 22
3.887264876
 32
0.0
 13
2.2500534125
 23
3.887264876
 33
0.0
  0
MTEXT
  5
E7
330
1F
100
AcDbEntity
  8
0
  6
Continuous
 62
     7
100
AcDbMText
 10
1.822325786
 20
5.5767676967
 30
0.0
 40
0.1458333333
 41
0.0
 71
     1
 72
     1
  1
A
  7
SLDTEXTSTYLE0
 73
     1
 44
1.0
  0
MTEXT
  5
E8
330
1F
100
AcDbEntity
  8
0
  6
Continuous
 62
     7
100
AcDbMText
 10
1.822325786
 20
3.9431030082
 30
0.0
 40
0.1458333333
 41
0.0
 71
     1
 72
     1
  1
A
  7
SLDTEXTSTYLE0
 73
     1
 44
1.0
  0
LINE
  5
E9
330
1F
100
AcDbEntity
  8
0
  6
Continuous
 62
     7
370
     0
100
AcDbLine
 10
6.7038413753
 20
6.8452747996
 30
0.0
 11
6.7038413753
 21
6.8371107185
 31
0.0
  0
LINE
  5
EA
330
1F
100
AcDbEntity
  8
0
  6
Continuous
 62
     7
370
     0
100
AcDbLine
 10
7.1209665706
 20
6.1145503962
 30
0.0
 11
7.1280364891
 21
6.1104676922
 31
0.0
  0
LINE
  5
EB
330
1F
100
AcDbEntity
  8
0
  6
Continuous
 62
     7
370
     0
100
AcDbLine
 10
7.0082583893
 20
7.2239676907
 30
0.0
 11
6.8281298242
 21
7.1199816835
 31
0.0
  0
LINE
  5
EC
330
1F
100
AcDbEntity
  8
0
  6
Continuous
 62
     7
370
     0
100
AcDbLine
 10
7.1278040244
 20
7.2929799169
 30
0.0
 11
7.0493991475
 21
7.2477177449
 31
0.0
  0
LINE
  5
ED
330
1F
100
AcDbEntity
  8
0
  6
Continuous
 62
     7
370
     0
100
AcDbLine
 10
7.8902507371
 20
7.7331310353
 30
0.0
 11
7.1681379875
 21
7.3162642182
 31
0.0
  0
LINE
  5
EE
330
1F
100
AcDbEntity
  8
0
  6
Continuous
 62
     7
370
     0
100
AcDbLine
 10
7.4280810638
 20
6.0807230486
 30
0.0
 11
8.4902019767
 21
6.6938724004
 31
0.0
  0
LINE
  5
EF
330
1F
100
AcDbEntity
  8
0
  6
Continuous
 62
     7
370
     0
100
AcDbLine
 10
7.0493991475
 20
7.2477177449
 30
0.0
 11
7.0082583893
 21
7.2239676907
 31
0.0
  0
LINE
  5
F0
330
1F
100
AcDbEntity
  8
0
  6
Continuous
 62
     7
370
     0
100
AcDbLine
 10
8.6144904256
 20
6.9685792843
 30
0.0
 11
8.6144904256
 21
6.9767433654
 31
0.0
  0
LINE
  5
F1
330
1F
100
AcDbEntity
  8
0
  6
Continuous
 62
     7
370
     0
100
AcDbLine
 10
8.1973652303
 20
7.6993036877
 30
0.0
 11
8.1902953118
 21
7.7033863918
 31
0.0
  0
LINE
  5
F2
330
1F
100
AcDbEntity
  8
0
  6
Continuous
 62
     7
370
     0
100
AcDbLine
 10
7.1681379875
 20
7.3162642182
 30
0.0
 11
7.1278040244
 21
7.2929799169
 31
0.0
  0
LWPOLYLINE
  5
F3
330
1F
100
AcDbEntity
  8
0
  6
Continuous
 62
     7
370
     0
100
AcDbPolyline
 90
       80
 70
   128
 43
0.0
 10
7.5382119966
 20
6.3513020818
 10
7.5371778468
 20
6.3901865887
 10
7.533512704
 20
6.4303740235
 10
7.5272397404
 20
6.4716103081
 10
7.5183986158
 20
6.5136347334
 10
7.5070452264
 20
6.5561816075
 10
7.4932513522
 20
6.5989819355
 10
7.4771042024
 20
6.6417651197
 10
7.4587058645
 20
6.6842606713
 10
7.4381726588
 20
6.7261999195
 10
7.4156344027
 20
6.767317711
 10
7.3912335904
 20
6.8073540859
 10
7.3651244917
 20
6.8460559212
 10
7.3374721767
 20
6.8831785317
 10
7.3084514722
 20
6.918487216
 10
7.2782458565
 20
6.9517587414
 10
7.2470462992
 20
6.9827827546
 10
7.2150500539
 20
7.0113631118
 10
7.1824594113
 20
7.0373191188
 10
7.1494804198
 20
7.0604866732
 10
7.1163215833
 20
7.0807193025
 10
7.0831925425
 20
7.0978890893
 10
7.05030275
 20
7.1118874808
 10
7.0178601457
 20
7.1226259747
 10
6.986069842
 20
7.1300366786
 10
6.9551328276
 20
7.1340727398
 10
6.9252446961
 20
7.134708641
 10
6.8965944101
 20
7.1319403618
 10
6.8693631058
 20
7.1257854042
 10
6.8437229483
 20
7.1162826817
 10
6.819836043
 20
7.1034922737
 10
6.7978534104
 20
7.0874950452
 10
6.777914032
 20
7.0683921359
 10
6.7601439709
 20
7.0463043205
 10
6.7446555751
 20
7.0213712453
 10
6.7315467673
 20
6.9937505452
 10
6.7209004256
 20
6.9636168472
 10
6.7127838595
 20
6.9311606662
 10
6.7072483846
 20
6.8965872006
 10
6.704328998
 20
6.8601150351
 10
6.704044157
 20
6.8219747583
 10
6.7063956624
 20
6.7824075055
 10
6.7113686472
 20
6.7416634335
 10
6.7189316707
 20
6.7000001394
 10
6.7290369169
 20
6.657681032
 10
6.7416204973
 20
6.6149736664
 10
6.7566028544
 20
6.5721480523
 10
6.7738892649
 20
6.5294749469
 10
6.7933704386
 20
6.4872241434
 10
6.8149232092
 20
6.445662765
 10
6.8384113131
 20
6.4050535761
 10
6.8636862511
 20
6.365653321
 10
6.8905882267
 20
6.3277111009
 10
6.9189471571
 20
6.2914667987
 10
6.948583748
 20
6.2571495625
 10
6.9793106273
 20
6.2249763569
 10
7.0109335297
 20
6.1951505914
 10
7.0432525251
 20
6.167860834
 10
7.0760632825
 20
6.1432796193
 10
7.1091583616
 20
6.1215623577
 10
7.1423285246
 20
6.1028463528
 10
7.1753640592
 20
6.087249933
 10
7.2080561041
 20
6.0748717041
 10
7.2401979695
 20
6.0657899251
 10
7.2715864444
 20
6.060062014
 10
7.3020230806
 20
6.0577241845
 10
7.331315448
 20
6.0587912171
 10
7.3592783507
 20
6.0632563657
 10
7.3857349983
 20
6.0710914002
 10
7.4105181233
 20
6.0822467849
 10
7.4334710389
 20
6.0966519919
 10
7.4544486293
 20
6.1142159469
 10
7.4733182675
 20
6.1348276049
 10
7.4899606534
 20
6.1583566523
 10
7.5042705687
 20
6.184654331
 10
7.5161575413
 20
6.2135543785
 10
7.5255464181
 20
6.2448740795
 10
7.5323778395
 20
6.2784154206
 10
7.5366086151
 20
6.3139663429
 10
7.5382119966
 20
6.3513020818
  0
LWPOLYLINE
  5
F4
330
1F
100
AcDbEntity
  8
0
  6
Continuous
 62
     7
370
     0
100
AcDbPolyline
 90
       21
 70
   128
 43
0.0
 10
7.5523538715
 20
6.3512321182
 10
7.5507602259
 20
6.3137274634
 10
7.546560773
 20
6.2779899465
 10
7.5397814038
 20
6.244239901
 10
7.5304639154
 20
6.2126854074
 10
7.5186657533
 20
6.1835210094
 10
7.504459657
 20
6.1569265154
 10
7.4879332118
 20
6.1330658892
 10
7.4691883087
 20
6.1120862395
 10
7.4483405164
 20
6.0941169129
 10
7.4255183684
 20
6.0792686961
 10
7.4008625708
 20
6.0676331335
 10
7.3745251348
 20
6.0592819621
 10
7.3466684394
 20
6.0542666696
 10
7.3174642305
 20
6.0526181771
 10
7.2870925618
 20
6.054346648
 10
7.2557406846
 20
6.0594414257
 10
7.2236018936
 20
6.0678710992
 10
7.1908743354
 20
6.0795836968
 10
7.157759786
 20
6.0945070064
 10
7.1280364891
 20
6.1104676922
  0
LWPOLYLINE
  5
F5
330
1F
100
AcDbEntity
  8
0
  6
Continuous
 62
     7
370
     0
100
AcDbPolyline
 90
       42
 70
   128
 43
0.0
 10
6.7038413753
 20
6.8452747996
 10
6.7038570164
 20
6.849472614
 10
6.705450662
 20
6.8869772687
 10
6.709650115
 20
6.9227147857
 10
6.7164294841
 20
6.9564648311
 10
6.7257469725
 20
6.9880193248
 10
6.7375451347
 20
7.0171837227
 10
6.751751231
 20
7.0437782167
 10
6.7682776762
 20
7.0676388429
 10
6.7870225792
 20
7.0886184926
 10
6.8078703715
 20
7.1065878193
 10
6.8306925196
 20
7.121436036
 10
6.8553483172
 20
7.1330715986
 10
6.8816857532
 20
7.14142277
 10
6.9095424485
 20
7.1464380625
 10
6.9387466574
 20
7.148086555
 10
6.9691183262
 20
7.1463580842
 10
7.0004702034
 20
7.1412633065
 10
7.0326089943
 20
7.132833633
 10
7.0653365526
 20
7.1211210354
 10
7.098451102
 20
7.1061977258
 10
7.1317484802
 20
7.0881557113
 10
7.1650233979
 20
7.067106227
 10
7.1980707042
 20
7.04317905
 10
7.2306866514
 20
7.0165216991
 10
7.2626701513
 20
6.987298526
 10
7.293824015
 20
6.9556897011
 10
7.3239561687
 20
6.9218901034
 10
7.3528808375
 20
6.8861081186
 10
7.3804196912
 20
6.8485643545
 10
7.4064029437
 20
6.809490281
 10
7.4306703996
 20
6.7691268028
 10
7.453072442
 20
6.727722774
 10
7.4734709547
 20
6.6855334642
 10
7.4917401742
 20
6.6428189847
 10
7.5077674646
 20
6.5998426844
 10
7.5214540125
 20
6.5568695264
 10
7.5327154356
 20
6.5141644546
 10
7.5414823036
 20
6.4719907599
 10
7.5477005658
 20
6.4306084572
 10
7.5513318845
 20
6.3902726821
 10
7.5523538715
 20
6.3512321182
  0
SPLINE
  5
F6
330
1F
100
AcDbEntity
  8
0
  6
Continuous
 62
     7
370
     0
100
AcDbSpline
210
0.0
220
0.0
230
1.0
 70
    24
 71
     1
 72
     4
 73
     2
 74
     0
 42
0.00000001
 43
0.00000001
 40
0.0
 40
0.0
 40
1.0
 40
1.0
 10
8.244933057388232
 20
7.568742038752368
 30
0.0
 10
8.26265066151337
 20
7.564228173490371
 30
0.0
  0
ARC
  5
F7
330
1F
100
AcDbEntity
  8
0
  6
Continuous
 62
     7
370
     0
100
AcDbCircle
 10
8.2272842793
 20
7.5311433453
 30
0.0
 40
0.0415348180913763
100
AcDbArc
 50
64.8547002063
 51
112.946055952
  0
SPLINE
  5
F8
330
1F
100
AcDbEntity
  8
0
  6
Continuous
 62
     7
370
     0
100
AcDbSpline
210
0.0
220
0.0
230
1.0
 70
     8
 71
     3
 72
    13
 73
     9
 74
     0
 42
0.00000001
 43
0.00000001
 40
0.0
 40
0.0
 40
0.0
 40
0.0
 40
0.2505394783771753
 40
0.4996876272645414
 40
0.6251017812126014
 40
0.7498743002530961
 40
0.874919241530596
 40
1.0
 40
1.0
 40
1.0
 40
1.0
 10
8.21647123801915
 20
7.539547591017453
 30
0.0
 10
8.213999573494347
 20
7.541997852353333
 30
0.0
 10
8.209069970424235
 20
7.546884767904661
 30
0.0
 10
8.204806190973635
 20
7.553823597797458
 30
0.0
 10
8.204112657223847
 20
7.559430334900288
 30
0.0
 10
8.205092598595181
 20
7.563359000196053
 30
0.0
 10
8.20733689727541
 20
7.566858492892799
 30
0.0
 10
8.20983973736113
 20
7.568547156755534
 30
0.0
 10
8.211091336603296
 20
7.569391609592507
 30
0.0
  0
ARC
  5
F9
330
1F
100
AcDbEntity
  8
0
  6
Continuous
 62
     7
370
     0
100
AcDbCircle
 10
8.2436986356
 20
7.5608787469
 30
0.0
 40
0.0345882839577318
100
AcDbArc
 50
218.076730234
 51
291.0429586303
  0
SPLINE
  5
FA
330
1F
100
AcDbEntity
  8
0
  6
Continuous
 62
     7
370
     0
100
AcDbSpline
210
0.0
220
0.0
230
1.0
 70
    24
 71
     1
 72
     4
 73
     2
 74
     0
 42
0.00000001
 43
0.00000001
 40
0.0
 40
0.0
 40
1.0
 40
1.0
 10
8.242586076037078
 20
7.544244991873059
 30
0.0
 10
8.256118175249492
 20
7.528597104694708
 30
0.0
  0
ARC
  5
FB
330
1F
100
AcDbEntity
  8
0
  6
Continuous
 62
     7
370
     0
100
AcDbCircle
 10
8.2360865466
 20
7.5562987586
 30
0.0
 40
0.013694421279547
100
AcDbArc
 50
227.6985237488
 51
298.3340559535
  0
SPLINE
  5
FC
330
1F
100
AcDbEntity
  8
0
  6
Continuous
 62
     7
370
     0
100
AcDbSpline
210
0.0
220
0.0
230
1.0
 70
     8
 71
     3
 72
    12
 73
     8
 74
     0
 42
0.00000001
 43
0.00000001
 40
0.0
 40
0.0
 40
0.0
 40
0.0
 40
0.2494023648056401
 40
0.4991486310883397
 40
0.7488658669771254
 40
0.8743546734024692
 40
0.9999999999999999
 40
0.9999999999999999
 40
0.9999999999999999
 40
0.9999999999999999
 10
8.226723316215429
 20
7.555890586343889
 30
0.0
 10
8.225959216657564
 20
7.555306004688322
 30
0.0
 10
8.224429963923251
 20
7.554136035296243
 30
0.0
 10
8.223895021721043
 20
7.551451735609766
 30
0.0
 10
8.224529940414593
 20
7.549124725107648
 30
0.0
 10
8.225704723614726
 20
7.547371479778765
 30
0.0
 10
8.226481259047889
 20
7.546570777091704
 30
0.0
 10
8.226869768753597
 20
7.546170176227885
 30
0.0
  0
ARC
  5
FD
330
1F
100
AcDbEntity
  8
0
  6
Continuous
 62
     7
370
     0
100
AcDbCircle
 10
8.2356855722
 20
7.5289471107
 30
0.0
 40
0.0283949451515016
100
AcDbArc
 50
59.9524663408
 51
108.3987641875
  0
ARC
  5
FE
330
1F
100
AcDbEntity
  8
0
  6
Continuous
 62
     7
370
     0
100
AcDbCircle
 10
8.2774976158
 20
7.6129715646
 30
0.0
 40
0.0655378181252197
100
AcDbArc
 50
245.0996082443
 51
287.1696279785
  0
ARC
  5
FF
330
1F
100
AcDbEntity
  8
0
  6
Continuous
 62
     7
370
     0
100
AcDbCircle
 10
7.6945106622
 20
6.9686963577
 30
0.0
 40
0.8373363486842913
100
AcDbArc
 50
43.9995604745
 51
48.2629977898
  0
LINE
  5
100
330
1F
100
AcDbEntity
  8
0
  6
Continuous
 62
     7
370
     0
100
AcDbLine
 10
8.2390678887
 20
7.5860952678
 30
0.0
 11
8.2519358547
 21
7.5935237864
 31
0.0
  0
ARC
  5
101
330
1F
100
AcDbEntity
  8
0
  6
Continuous
 62
     7
370
     0
100
AcDbCircle
 10
7.6957068578
 20
6.976452393
 30
0.0
 40
0.8166429114146699
100
AcDbArc
 50
46.0335451992
 51
48.2900971293
  0
LINE
  5
102
330
1F
100
AcDbEntity
  8
0
  6
Continuous
 62
     7
370
     0
100
AcDbLine
 10
8.1581801885
 20
7.6085375512
 30
0.0
 11
8.1707726583
 21
7.6158070293
 31
0.0
  0
ARC
  5
103
330
1F
100
AcDbEntity
  8
0
  6
Continuous
 62
     7
370
     0
100
AcDbCircle
 10
7.7181444618
 20
7.0202797779
 30
0.0
 40
0.7346282383755819
100
AcDbArc
 50
49.0451512274
 51
53.2023302407
  0
LINE
  5
104
330
1F
100
AcDbEntity
  8
0
  6
Continuous
 62
     7
370
     0
100
AcDbLine
 10
8.2122593583
 20
7.5823598554
 30
0.0
 11
8.1996668885
 21
7.5750903773
 31
0.0
  0
ARC
  5
105
330
1F
100
AcDbEntity
  8
0
  6
Continuous
 62
     7
370
     0
100
AcDbCircle
 10
7.7307369316
 20
7.027549256
 30
0.0
 40
0.7346282383754656
100
AcDbArc
 50
49.0451512274
 51
53.2023302407
  0
ARC
  5
106
330
1F
100
AcDbEntity
  8
0
  6
Continuous
 62
     7
370
     0
100
AcDbCircle
 10
8.0978227346
 20
7.6402437862
 30
0.0
 40
0.0520477139306346
100
AcDbArc
 50
65.6418110576
 51
127.2287501216
  0
SPLINE
  5
107
330
1F
100
AcDbEntity
  8
0
  6
Continuous
 62
     7
370
     0
100
AcDbSpline
210
0.0
220
0.0
230
1.0
 70
    24
 71
     1
 72
     4
 73
     2
 74
     0
 42
0.00000001
 43
0.00000001
 40
0.0
 40
0.0
 40
1.0
 40
1.0
 10
8.054673830116233
 20
7.673316852139822
 30
0.0
 10
8.066333933994155
 20
7.681685552139328
 30
0.0
  0
SPLINE
  5
108
330
1F
100
AcDbEntity
  8
0
  6
Continuous
 62
     7
370
     0
100
AcDbSpline
210
0.0
220
0.0
230
1.0
 70
     8
 71
     3
 72
    12
 73
     8
 74
     0
 42
0.00000001
 43
0.00000001
 40
0.0
 40
0.0
 40
0.0
 40
0.0
 40
0.2503262674180369
 40
0.4997345046006511
 40
0.624900036359949
 40
0.7501600021982611
 40
1.0
 40
1.0
 40
1.0
 40
1.0
 10
8.060138566040806
 20
7.65397501906009
 30
0.0
 10
8.05781887091476
 20
7.655256250303625
 30
0.0
 10
8.053187987761364
 20
7.657814014086751
 30
0.0
 10
8.049993435542397
 20
7.662000033810987
 30
0.0
 10
8.049729514109277
 20
7.665558996902156
 30
0.0
 10
8.050615101816863
 20
7.669157419546186
 30
0.0
 10
8.05305122197472
 20
7.671653984193831
 30
0.0
 10
8.054673830116233
 20
7.673316852139822
 30
0.0
  0
ARC
  5
109
330
1F
100
AcDbEntity
  8
0
  6
Continuous
 62
     7
370
     0
100
AcDbCircle
 10
8.083254543
 20
7.6995463353
 30
0.0
 40
0.0510988577179999
100
AcDbArc
 50
243.1036711133
 51
305.3937587395
  0
SPLINE
  5
10A
330
1F
100
AcDbEntity
  8
0
  6
Continuous
 62
     7
370
     0
100
AcDbSpline
210
0.0
220
0.0
230
1.0
 70
     8
 71
     3
 72
     9
 73
     5
 74
     0
 42
0.00000001
 43
0.00000001
 40
0.0
 40
0.0
 40
0.0
 40
0.0
 40
0.4987092906772052
 40
1.0
 40
1.0
 40
1.0
 40
1.0
 10
8.12911640683102
 20
7.672274022373697
 30
0.0
 10
8.127201641433267
 20
7.66959073048394
 30
0.0
 10
8.123362199430582
 20
7.664210257451016
 30
0.0
 10
8.116360499168211
 20
7.660001049009071
 30
0.0
 10
8.112850611877219
 20
7.657891011923521
 30
0.0
  0
SPLINE
  5
10B
330
1F
100
AcDbEntity
  8
0
  6
Continuous
 62
     7
370
     0
100
AcDbSpline
210
0.0
220
0.0
230
1.0
 70
     8
 71
     3
 72
    11
 73
     7
 74
     0
 42
0.00000001
 43
0.00000001
 40
0.0
 40
0.0
 40
0.0
 40
0.0
 40
0.2504031889031627
 40
0.5003824607867542
 40
0.7500984159891401
 40
0.9999999999999999
 40
0.9999999999999999
 40
0.9999999999999999
 40
0.9999999999999999
 10
8.119289281044978
 20
7.687658466489221
 30
0.0
 10
8.121051493060952
 20
7.686673673546354
 30
0.0
 10
8.124572933777594
 20
7.684705754853801
 30
0.0
 10
8.128489346811255
 20
7.681006319617528
 30
0.0
 10
8.13022828104314
 20
7.676674236046222
 30
0.0
 10
8.129487123358752
 20
7.673741123522524
 30
0.0
 10
8.12911640683102
 20
7.672274022373697
 30
0.0
  0
LINE
  5
10C
330
1F
100
AcDbEntity
  8
0
  6
Continuous
 62
     7
370
     0
100
AcDbLine
 10
7.9738596383
 20
7.7170735389
 30
0.0
 11
7.9948547406
 21
7.7291937535
 31
0.0
  0
ARC
  5
10D
330
1F
100
AcDbEntity
  8
0
  6
Continuous
 62
     7
370
     0
100
AcDbCircle
 10
7.9601238109
 20
7.7371434986
 30
0.0
 40
0.0243202845228971
100
AcDbArc
 50
267.9686587614
 51
304.3876354282
  0
SPLINE
  5
10E
330
1F
100
AcDbEntity
  8
0
  6
Continuous
 62
     7
370
     0
100
AcDbSpline
210
0.0
220
0.0
230
1.0
 70
     8
 71
     3
 72
    11
 73
     7
 74
     0
 42
0.00000001
 43
0.00000001
 40
0.0
 40
0.0
 40
0.0
 40
0.0
 40
0.2494767938178435
 40
0.5035301869138966
 40
0.7522417857764243
 40
0.9999999999999999
 40
0.9999999999999999
 40
0.9999999999999999
 40
0.9999999999999999
 10
7.958372904878415
 20
7.715380904456538
 30
0.0
 10
7.958077898301974
 20
7.715082184750824
 30
0.0
 10
7.957482473315536
 20
7.714479265389264
 30
0.0
 10
7.957387099337024
 20
7.713698866408668
 30
0.0
 10
7.957944800882289
 20
7.713102363534837
 30
0.0
 10
7.95882332933853
 20
7.712926340026048
 30
0.0
 10
7.95926175003547
 20
7.712838497283047
 30
0.0
  0
SPLINE
  5
10F
330
1F
100
AcDbEntity
  8
0
  6
Continuous
 62
     7
370
     0
100
AcDbSpline
210
0.0
220
0.0
230
1.0
 70
    24
 71
     1
 72
     4
 73
     2
 74
     0
 42
0.00000001
 43
0.00000001
 40
0.0
 40
0.0
 40
1.0
 40
1.0
 10
7.961769489704618
 20
7.717542702860795
 30
0.0
 10
7.958372904878415
 20
7.715380904456538
 30
0.0
  0
LINE
  5
110
330
1F
100
AcDbEntity
  8
0
  6
Continuous
 62
     7
370
     0
100
AcDbLine
 10
7.9844290479
 20
7.7306237874
 30
0.0
 11
7.9617694897
 21
7.7175427029
 31
0.0
  0
ARC
  5
111
330
1F
100
AcDbEntity
  8
0
  6
Continuous
 62
     7
370
     0
100
AcDbCircle
 10
7.9495994398
 20
7.4402390882
 30
0.0
 40
0.2924660238953257
100
AcDbArc
 50
83.1604468585
 51
86.0303970434
  0
LINE
  5
112
330
1F
100
AcDbEntity
  8
0
  6
Continuous
 62
     7
370
     0
100
AcDbLine
 10
7.9486098904
 20
7.7197440869
 30
0.0
 11
7.9698460519
 21
7.732003462
 31
0.0
  0
ARC
  5
113
330
1F
100
AcDbEntity
  8
0
  6
Continuous
 62
     7
370
     0
100
AcDbCircle
 10
7.9335114266
 20
7.7423395374
 30
0.0
 40
0.0271756874561132
100
AcDbArc
 50
272.0250398831
 51
303.7511683952
  0
SPLINE
  5
114
330
1F
100
AcDbEntity
  8
0
  6
Continuous
 62
     7
370
     0
100
AcDbSpline
210
0.0
220
0.0
230
1.0
 70
     8
 71
     3
 72
    10
 73
     6
 74
     0
 42
0.00000001
 43
0.00000001
 40
0.0
 40
0.0
 40
0.0
 40
0.0
 40
0.4988594542991823
 40
0.7491987595266364
 40
1.0
 40
1.0
 40
1.0
 40
1.0
 10
7.933013422985431
 20
7.716565512638724
 30
0.0
 10
7.932909519698573
 20
7.71621172426844
 30
0.0
 10
7.932753475319837
 20
7.715680396645265
 30
0.0
 10
7.933491789171235
 20
7.715278575051884
 30
0.0
 10
7.93414487150179
 20
7.715213426159524
 30
0.0
 10
7.934471713662217
 20
7.715180821687267
 30
0.0
  0
SPLINE
  5
115
330
1F
100
AcDbEntity
  8
0
  6
Continuous
 62
     7
370
     0
100
AcDbSpline
210
0.0
220
0.0
230
1.0
 70
     8
 71
     3
 72
     9
 73
     5
 74
     0
 42
0.00000001
 43
0.00000001
 40
0.0
 40
0.0
 40
0.0
 40
0.0
 40
0.5015784057013009
 40
1.0
 40
1.0
 40
1.0
 40
1.0
 10
7.93618098437211
 20
7.718990926494294
 30
0.0
 10
7.935458505689446
 20
7.718565724268102
 30
0.0
 10
7.934018095427656
 20
7.717717995934189
 30
0.0
 10
7.933347608265667
 20
7.716948864402817
 30
0.0
 10
7.933013422985431
 20
7.716565512638724
 30
0.0
  0
LINE
  5
116
330
1F
100
AcDbEntity
  8
0
  6
Continuous
 62
     7
370
     0
100
AcDbLine
 10
7.959621115
 20
7.7325226259
 30
0.0
 11
7.9361809844
 21
7.7189909265
 31
0.0
  0
ARC
  5
117
330
1F
100
AcDbEntity
  8
0
  6
Continuous
 62
     7
370
     0
100
AcDbCircle
 10
7.9510455472
 20
7.4681644537
 30
0.0
 40
0.2644972278832035
100
AcDbArc
 50
88.1420222482
 51
91.2108991951
  0
LINE
  5
118
330
1F
100
AcDbEntity
  8
0
  6
Continuous
 62
     7
370
     0
100
AcDbLine
 10
7.919616789
 20
7.7176859371
 30
0.0
 11
7.9454560319
 21
7.7326026145
 31
0.0
  0
SPLINE
  5
119
330
1F
100
AcDbEntity
  8
0
  6
Continuous
 62
     7
370
     0
100
AcDbSpline
210
0.0
220
0.0
230
1.0
 70
     8
 71
     3
 72
    13
 73
     9
 74
     0
 42
0.00000001
 43
0.00000001
 40
0.0
 40
0.0
 40
0.0
 40
0.0
 40
0.2493026324881987
 40
0.3767800005129022
 40
0.4994269650587345
 40
0.6183515801797623
 40
0.7497380290331309
 40
1.0
 40
1.0
 40
1.0
 40
1.0
 10
7.915974244114228
 20
7.708281966506561
 30
0.0
 10
7.914280255147585
 20
7.708412012993954
 30
0.0
 10
7.911720068929933
 20
7.708608556909666
 30
0.0
 10
7.910459998289073
 20
7.709756936002958
 30
0.0
 10
7.910584853087865
 20
7.71095150662704
 30
0.0
 10
7.911838738289353
 20
7.712459208178821
 30
0.0
 10
7.914642518796599
 20
7.714701854070274
 30
0.0
 10
7.917646777584945
 20
7.716504119979211
 30
0.0
 10
7.919616788953053
 20
7.717685937052603
 30
0.0
  0
ARC
  5
11A
330
1F
100
AcDbEntity
  8
0
  6
Continuous
 62
     7
370
     0
100
AcDbCircle
 10
7.9165552359
 20
7.7660675694
 30
0.0
 40
0.0577885234991279
100
AcDbArc
 50
269.4239523987
 51
289.6094611847
  0
SPLINE
  5
11B
330
1F
100
AcDbEntity
  8
0
  6
Continuous
 62
     7
370
     0
100
AcDbSpline
210
0.0
220
0.0
230
1.0
 70
     8
 71
     3
 72
    12
 73
     8
 74
     0
 42
0.00000001
 43
0.00000001
 40
0.0
 40
0.0
 40
0.0
 40
0.0
 40
0.2503253654036844
 40
0.499997877742097
 40
0.7494826629082488
 40
0.8746982187917873
 40
1.0
 40
1.0
 40
1.0
 40
1.0
 10
7.940524665977971
 20
7.706550747398506
 30
0.0
 10
7.939400330322878
 20
7.706706588285119
 30
0.0
 10
7.937154591300346
 20
7.707017863622505
 30
0.0
 10
7.934883993579847
 20
7.707992419319242
 30
0.0
 10
7.934610913626172
 20
7.709355870539143
 30
0.0
 10
7.935161852903008
 20
7.710614896517299
 30
0.0
 10
7.935686874884055
 20
7.711291995765243
 30
0.0
 10
7.935949476227988
 20
7.711630661914289
 30
0.0
  0
ARC
  5
11C
330
1F
100
AcDbEntity
  8
0
  6
Continuous
 62
     7
370
     0
100
AcDbCircle
 10
7.9453035567
 20
7.756544641
 30
0.0
 40
0.0502217801091689
100
AcDbArc
 50
264.5397162707
 51
287.8900029379
  0
LINE
  5
11D
330
1F
100
AcDbEntity
  8
0
  6
Continuous
 62
     7
370
     0
100
AcDbLine
 10
7.9547276941
 20
7.7052854251
 30
0.0
 11
7.9607312143
 21
7.7087511836
 31
0.0
  0
ARC
  5
11E
330
1F
100
AcDbEntity
  8
0
  6
Continuous
 62
     7
370
     0
100
AcDbCircle
 10
7.9038416426
 20
7.3832566139
 30
0.0
 40
0.3260244553551653
100
AcDbArc
 50
78.533317068
 51
81.0205344325
  0
LINE
  5
11F
330
1F
100
AcDbEntity
  8
0
  6
Continuous
 62
     7
370
     0
100
AcDbLine
 10
8.0097954371
 20
7.7265238285
 30
0.0
 11
7.9686546789
 21
7.7027737743
 31
0.0
  0
ARC
  5
120
330
1F
100
AcDbEntity
  8
0
  6
Continuous
 62
     7
370
     0
100
AcDbCircle
 10
7.9451122608
 20
7.4077001734
 30
0.0
 40
0.3253189762952593
100
AcDbArc
 50
78.5314502866
 51
81.2047612625
  0
SPLINE
  5
121
330
1F
100
AcDbEntity
  8
0
  6
Continuous
 62
     7
370
     0
100
AcDbSpline
210
0.0
220
0.0
230
1.0
 70
    24
 71
     1
 72
     4
 73
     2
 74
     0
 42
0.00000001
 43
0.00000001
 40
0.0
 40
0.0
 40
1.0
 40
1.0
 10
7.721556790336407
 20
7.041653189940146
 30
0.0
 10
7.728588484453546
 20
7.032987197563623
 30
0.0
  0
SPLINE
  5
122
330
1F
100
AcDbEntity
  8
0
  6
Continuous
 62
     7
370
     0
100
AcDbSpline
210
0.0
220
0.0
230
1.0
 70
    24
 71
     1
 72
     4
 73
     2
 74
     0
 42
0.00000001
 43
0.00000001
 40
0.0
 40
0.0
 40
1.0
 40
1.0
 10
7.714326617511929
 20
7.048246185143468
 30
0.0
 10
7.721556790336407
 20
7.041653189940146
 30
0.0
  0
ARC
  5
123
330
1F
100
AcDbEntity
  8
0
  6
Continuous
 62
     7
370
     0
100
AcDbCircle
 10
7.7036307459
 20
7.0315325428
 30
0.0
 40
0.0198430721265667
100
AcDbArc
 50
57.3828472759
 51
117.1849902858
  0
ARC
  5
124
330
1F
100
AcDbEntity
  8
0
  6
Continuous
 62
     7
370
     0
100
AcDbCircle
 10
7.702652666
 20
7.0362357365
 30
0.0
 40
0.0152662063812816
100
AcDbArc
 50
121.9896742776
 51
215.027074048
  0
ARC
  5
125
330
1F
100
AcDbEntity
  8
0
  6
Continuous
 62
     7
370
     0
100
AcDbCircle
 10
7.6745149902
 20
7.0095008456
 30
0.0
 40
0.0238225782904542
100
AcDbArc
 50
48.9762442985
 51
73.1559156746
  0
SPLINE
  5
126
330
1F
100
AcDbEntity
  8
0
  6
Continuous
 62
     7
370
     0
100
AcDbSpline
210
0.0
220
0.0
230
1.0
 70
     8
 71
     3
 72
     9
 73
     5
 74
     0
 42
0.00000001
 43
0.00000001
 40
0.0
 40
0.0
 40
0.0
 40
0.0
 40
0.5001654445837111
 40
1.0
 40
1.0
 40
1.0
 40
1.0
 10
7.670221348132697
 20
7.030883875287006
 30
0.0
 10
7.671905360223851
 20
7.031668065206709
 30
0.0
 10
7.675272270332075
 20
7.03323592625788
 30
0.0
 10
7.679369887394191
 20
7.032612813176155
 30
0.0
 10
7.681418017996701
 20
7.032301359725977
 30
0.0
  0
SPLINE
  5
127
330
1F
100
AcDbEntity
  8
0
  6
Continuous
 62
     7
370
     0
100
AcDbSpline
210
0.0
220
0.0
230
1.0
 70
     8
 71
     3
 72
    14
 73
    10
 74
     0
 42
0.00000001
 43
0.00000001
 40
0.0
 40
0.0
 40
0.0
 40
0.0
 40
0.2499004290088663
 40
0.3800976031620585
 40
0.4999571058497145
 40
0.6257216768231001
 40
0.7499966555365654
 40
0.8749516763669573
 40
1.0
 40
1.0
 40
1.0
 40
1.0
 10
7.669765043745278
 20
7.003175292492564
 30
0.0
 10
7.668215755350502
 20
7.005647505571956
 30
0.0
 10
7.665859293587721
 20
7.009407732273887
 30
0.0
 10
7.664087173877441
 20
7.01474251988592
 30
0.0
 10
7.663539616927549
 20
7.018752944473927
 30
0.0
 10
7.663899598697835
 20
7.022531634099928
 30
0.0
 10
7.665150538184179
 20
7.025979850218433
 30
0.0
 10
7.66724695816706
 20
7.028892148452161
 30
0.0
 10
7.669229638161317
 20
7.030219801179306
 30
0.0
 10
7.670221348132697
 20
7.030883875287006
 30
0.0
  0
ARC
  5
128
330
1F
100
AcDbEntity
  8
0
  6
Continuous
 62
     7
370
     0
100
AcDbCircle
 10
6.8190147049
 20
6.422259992
 30
0.0
 40
1.030164416669482
100
AcDbArc
 50
31.7499085534
 51
34.3263163663
  0
LINE
  5
129
330
1F
100
AcDbEntity
  8
0
  6
Continuous
 62
     7
370
     0
100
AcDbLine
 10
7.7518162966
 20
6.9971343118
 30
0.0
 11
7.695018174
 21
6.9643454535
 31
0.0
  0
ARC
  5
12A
330
1F
100
AcDbEntity
  8
0
  6
Continuous
 62
     7
370
     0
100
AcDbCircle
 10
6.8753021916
 20
6.4547226149
 30
0.0
 40
1.030770306647577
100
AcDbArc
 50
31.7503928222
 51
34.125146532
  0
ARC
  5
12B
330
1F
100
AcDbEntity
  8
0
  6
Continuous
 62
     7
370
     0
100
AcDbCircle
 10
6.9582495607
 20
6.5272628336
 30
0.0
 40
0.8942106341646712
100
AcDbArc
 50
43.1997135675
 51
43.3332766083
  0
ARC
  5
12C
330
1F
100
AcDbEntity
  8
0
  6
Continuous
 62
     7
370
     0
100
AcDbCircle
 10
7.6156830056
 20
7.1478606948
 30
0.0
 40
0.0098723633582357
100
AcDbArc
 50
191.6918634908
 51
224.7798012485
  0
SPLINE
  5
12D
330
1F
100
AcDbEntity
  8
0
  6
Continuous
 62
     7
370
     0
100
AcDbSpline
210
0.0
220
0.0
230
1.0
 70
    24
 71
     1
 72
     4
 73
     2
 74
     0
 42
0.00000001
 43
0.00000001
 40
0.0
 40
0.0
 40
1.0
 40
1.0
 10
7.607438494988163
 20
7.151456891576237
 30
0.0
 10
7.606015477967784
 20
7.145860077809994
 30
0.0
  0
SPLINE
  5
12E
330
1F
100
AcDbEntity
  8
0
  6
Continuous
 62
     7
370
     0
100
AcDbSpline
210
0.0
220
0.0
230
1.0
 70
    24
 71
     1
 72
     4
 73
     2
 74
     0
 42
0.00000001
 43
0.00000001
 40
0.0
 40
0.0
 40
1.0
 40
1.0
 10
7.616052551594755
 20
7.170406477970055
 30
0.0
 10
7.607438494988163
 20
7.151456891576237
 30
0.0
  0
ARC
  5
12F
330
1F
100
AcDbEntity
  8
0
  6
Continuous
 62
     7
370
     0
100
AcDbCircle
 10
7.0151595129
 20
6.5737669022
 30
0.0
 40
0.8467887737229756
100
AcDbArc
 50
44.7964945205
 51
46.56931614
  0
SPLINE
  5
130
330
1F
100
AcDbEntity
  8
0
  6
Continuous
 62
     7
370
     0
100
AcDbSpline
210
0.0
220
0.0
230
1.0
 70
    24
 71
     1
 72
     4
 73
     2
 74
     0
 42
0.00000001
 43
0.00000001
 40
0.0
 40
0.0
 40
1.0
 40
1.0
 10
7.588899770585266
 20
7.171482474034898
 30
0.0
 10
7.597306910532965
 20
7.188710505106742
 30
0.0
  0
SPLINE
  5
131
330
1F
100
AcDbEntity
  8
0
  6
Continuous
 62
     7
370
     0
100
AcDbSpline
210
0.0
220
0.0
230
1.0
 70
    24
 71
     1
 72
     4
 73
     2
 74
     0
 42
0.00000001
 43
0.00000001
 40
0.0
 40
0.0
 40
1.0
 40
1.0
 10
7.587366019880312
 20
7.162849292795468
 30
0.0
 10
7.588899770585266
 20
7.171482474034898
 30
0.0
  0
SPLINE
  5
132
330
1F
100
AcDbEntity
  8
0
  6
Continuous
 62
     7
370
     0
100
AcDbSpline
210
0.0
220
0.0
230
1.0
 70
    24
 71
     1
 72
     4
 73
     2
 74
     0
 42
0.00000001
 43
0.00000001
 40
0.0
 40
0.0
 40
1.0
 40
1.0
 10
7.589561334476279
 20
7.157361346848735
 30
0.0
 10
7.587366019880312
 20
7.162849292795468
 30
0.0
  0
SPLINE
  5
133
330
1F
100
AcDbEntity
  8
0
  6
Continuous
 62
     7
370
     0
100
AcDbSpline
210
0.0
220
0.0
230
1.0
 70
    24
 71
     1
 72
     4
 73
     2
 74
     0
 42
0.00000001
 43
0.00000001
 40
0.0
 40
0.0
 40
1.0
 40
1.0
 10
7.581522692144982
 20
7.161827181046533
 30
0.0
 10
7.589561334476279
 20
7.157361346848735
 30
0.0
  0
ARC
  5
134
330
1F
100
AcDbEntity
  8
0
  6
Continuous
 62
     7
370
     0
100
AcDbCircle
 10
7.5721325077
 20
7.1389938037
 30
0.0
 40
0.0246888372752531
100
AcDbArc
 50
67.6451748133
 51
117.6957290505
  0
SPLINE
  5
135
330
1F
100
AcDbEntity
  8
0
  6
Continuous
 62
     7
370
     0
100
AcDbSpline
210
0.0
220
0.0
230
1.0
 70
     8
 71
     3
 72
    14
 73
    10
 74
     0
 42
0.00000001
 43
0.00000001
 40
0.0
 40
0.0
 40
0.0
 40
0.0
 40
0.2503817225611146
 40
0.3755492991302983
 40
0.500418223781013
 40
0.6251583274733815
 40
0.749916726445924
 40
0.8736417211007795
 40
1.0
 40
1.0
 40
1.0
 40
1.0
 10
7.565582848563063
 20
7.131178848741069
 30
0.0
 10
7.563212299171653
 20
7.133681107824992
 30
0.0
 10
7.559656695538162
 20
7.137434263748667
 30
0.0
 10
7.555732116446038
 20
7.142740316591687
 30
0.0
 10
7.553708181569822
 20
7.146962362148591
 30
0.0
 10
7.553323224353725
 20
7.151211982041333
 30
0.0
 10
7.554455617894916
 20
7.155091991655389
 30
0.0
 10
7.556931948194196
 20
7.158426759622428
 30
0.0
 10
7.559407113552649
 20
7.160039259037035
 30
0.0
 10
7.560657727519112
 20
7.160853998255137
 30
0.0
  0
ARC
  5
136
330
1F
100
AcDbEntity
  8
0
  6
Continuous
 62
     7
370
     0
100
AcDbCircle
 10
6.9202514394
 20
6.5036850348
 30
0.0
 40
0.9001117231279987
100
AcDbArc
 50
41.6873606872
 51
44.197099486
  0
LINE
  5
137
330
1F
100
AcDbEntity
  8
0
  6
Continuous
 62
     7
370
     0
100
AcDbLine
 10
7.6492394163
 20
7.135107265
 30
0.0
 11
7.5924412937
 21
7.1023184067
 31
0.0
  0
ARC
  5
138
330
1F
100
AcDbEntity
  8
0
  6
Continuous
 62
     7
370
     0
100
AcDbCircle
 10
6.9701506803
 20
6.5301830204
 30
0.0
 40
0.9094475537212965
100
AcDbArc
 50
41.6942730991
 51
43.1958999265
  0
LINE
  5
139
330
1F
100
AcDbEntity
  8
0
  6
Continuous
 62
     7
370
     0
100
AcDbLine
 10
7.6101041194
 20
7.1393888766
 30
0.0
 11
7.6331539638
 21
7.1526952685
 31
0.0
  0
ARC
  5
13A
330
1F
100
AcDbEntity
  8
0
  6
Continuous
 62
     7
370
     0
100
AcDbCircle
 10
7.4703730835
 20
7.2312335329
 30
0.0
 40
0.0469826221347098
100
AcDbArc
 50
58.7194137596
 51
127.5327840689
  0
SPLINE
  5
13B
330
1F
100
AcDbEntity
  8
0
  6
Continuous
 62
     7
370
     0
100
AcDbSpline
210
0.0
220
0.0
230
1.0
 70
    24
 71
     1
 72
     4
 73
     2
 74
     0
 42
0.00000001
 43
0.00000001
 40
0.0
 40
0.0
 40
1.0
 40
1.0
 10
7.430099313012587
 20
7.259908549058627
 30
0.0
 10
7.441750552294561
 20
7.26849098171646
 30
0.0
  0
SPLINE
  5
13C
330
1F
100
AcDbEntity
  8
0
  6
Continuous
 62
     7
370
     0
100
AcDbSpline
210
0.0
220
0.0
230
1.0
 70
     8
 71
     3
 72
    12
 73
     8
 74
     0
 42
0.00000001
 43
0.00000001
 40
0.0
 40
0.0
 40
0.0
 40
0.0
 40
0.2503262674180361
 40
0.4997345046006492
 40
0.6249000363599438
 40
0.7501600021982617
 40
1.0
 40
1.0
 40
1.0
 40
1.0
 10
7.435617297491475
 20
7.237758573230076
 30
0.0
 10
7.433297042705202
 20
7.239356333505616
 30
0.0
 10
7.42866504228381
 20
7.242545994534811
 30
0.0
 10
7.425454804396047
 20
7.247487379058883
 30
0.0
 10
7.425177596139909
 20
7.251518034439636
 30
0.0
 10
7.426049975235076
 20
7.255512859172957
 30
0.0
 10
7.428480459036441
 20
7.258151229605348
 30
0.0
 10
7.430099313012587
 20
7.259908549058627
 30
0.0
  0
ARC
  5
13D
330
1F
100
AcDbEntity
  8
0
  6
Continuous
 62
     7
370
     0
100
AcDbCircle
 10
7.4612991496
 20
7.2761825503
 30
0.0
 40
0.0462164423400074
100
AcDbArc
 50
236.2419891667
 51
305.6679211862
  0
SPLINE
  5
13E
330
1F
100
AcDbEntity
  8
0
  6
Continuous
 62
     7
370
     0
100
AcDbSpline
210
0.0
220
0.0
230
1.0
 70
     8
 71
     3
 72
     9
 73
     5
 74
     0
 42
0.00000001
 43
0.00000001
 40
0.0
 40
0.0
 40
0.0
 40
0.0
 40
0.4987092906772041
 40
1.0
 40
1.0
 40
1.0
 40
1.0
 10
7.504539362078916
 20
7.253570894968268
 30
0.0
 10
7.502616495350818
 20
7.250712787075357
 30
0.0
 10
7.498760808753349
 20
7.244981777153665
 30
0.0
 10
7.491757849398109
 20
7.240754793008969
 30
0.0
 10
7.488247330935562
 20
7.238635845128778
 30
0.0
  0
SPLINE
  5
13F
330
1F
100
AcDbEntity
  8
0
  6
Continuous
 62
     7
370
     0
100
AcDbSpline
210
0.0
220
0.0
230
1.0
 70
     8
 71
     3
 72
    11
 73
     7
 74
     0
 42
0.00000001
 43
0.00000001
 40
0.0
 40
0.0
 40
0.0
 40
0.0
 40
0.2504031889031607
 40
0.5003824607867561
 40
0.7500984159891416
 40
1.0
 40
1.0
 40
1.0
 40
1.0
 10
7.494767849834274
 20
7.271386517362308
 30
0.0
 10
7.496528485997515
 20
7.270163628444713
 30
0.0
 10
7.500046777676511
 20
7.267719920884376
 30
0.0
 10
7.503948605663149
 20
7.263330176712297
 30
0.0
 10
7.505668601106141
 20
7.258391104622492
 30
0.0
 10
7.504915868311894
 20
7.255178029450272
 30
0.0
 10
7.504539362078916
 20
7.253570894968268
 30
0.0
  0
LINE
  5
140
330
1F
100
AcDbEntity
  8
0
  6
Continuous
 62
     7
370
     0
100
AcDbLine
 10
7.3634030801
 20
7.3077192407
 30
0.0
 11
7.3756167427
 21
7.314770038
 31
0.0
  0
ARC
  5
141
330
1F
100
AcDbEntity
  8
0
  6
Continuous
 62
     7
370
     0
100
AcDbCircle
 10
7.2138374432
 20
6.8946535149
 30
0.0
 40
0.4393098833142848
100
AcDbArc
 50
66.9204092144
 51
70.0953482837
  0
LINE
  5
142
330
1F
100
AcDbEntity
  8
0
  6
Continuous
 62
     7
370
     0
100
AcDbLine
 10
7.3982647289
 20
7.3058523564
 30
0.0
 11
7.3860510663
 21
7.298801559
 31
0.0
  0
ARC
  5
143
330
1F
100
AcDbEntity
  8
0
  6
Continuous
 62
     7
370
     0
100
AcDbCircle
 10
7.2260511058
 20
6.9017043122
 30
0.0
 40
0.4393098833136028
100
AcDbArc
 50
66.9204092144
 51
70.0953482837
  0
ARC
  5
144
330
1F
100
AcDbEntity
  8
0
  6
Continuous
 62
     7
370
     0
100
AcDbCircle
 10
7.3107128098
 20
7.2588942903
 30
0.0
 40
0.0839636941487271
100
AcDbArc
 50
88.1825032796
 51
125.2870845309
  0
SPLINE
  5
145
330
1F
100
AcDbEntity
  8
0
  6
Continuous
 62
     7
370
     0
100
AcDbSpline
210
0.0
220
0.0
230
1.0
 70
    24
 71
     1
 72
     4
 73
     2
 74
     0
 42
0.00000001
 43
0.00000001
 40
0.0
 40
0.0
 40
1.0
 40
1.0
 10
7.25041362706117
 20
7.319712077449958
 30
0.0
 10
7.262209197180206
 20
7.327431152571024
 30
0.0
  0
SPLINE
  5
146
330
1F
100
AcDbEntity
  8
0
  6
Continuous
 62
     7
370
     0
100
AcDbSpline
210
0.0
220
0.0
230
1.0
 70
     8
 71
     3
 72
    12
 73
     8
 74
     0
 42
0.00000001
 43
0.00000001
 40
0.0
 40
0.0
 40
0.0
 40
0.0
 40
0.2503262674180413
 40
0.4997345046006521
 40
0.6249000363599487
 40
0.750160002198262
 40
1.0
 40
1.0
 40
1.0
 40
1.0
 10
7.254254195731979
 20
7.308961414292838
 30
0.0
 10
7.252104173017441
 20
7.309269440618113
 30
0.0
 10
7.247812012441519
 20
7.309884363632999
 30
0.0
 10
7.245057700794468
 20
7.311760644208314
 30
0.0
 10
7.245077288261984
 20
7.313880370575691
 30
0.0
 10
7.246206161474718
 20
7.316271093538565
 30
0.0
 10
7.24873155637002
 20
7.318336432642615
 30
0.0
 10
7.25041362706117
 20
7.319712077449958
 30
0.0
  0
ARC
  5
147
330
1F
100
AcDbEntity
  8
0
  6
Continuous
 62
     7
370
     0
100
AcDbCircle
 10
7.2607824277
 20
7.3891784724
 30
0.0
 40
0.0804822603461808
100
AcDbArc
 50
265.3474029895
 51
303.7984381519
  0
SPLINE
  5
148
330
1F
100
AcDbEntity
  8
0
  6
Continuous
 62
     7
370
     0
100
AcDbSpline
210
0.0
220
0.0
230
1.0
 70
     8
 71
     3
 72
     9
 73
     5
 74
     0
 42
0.00000001
 43
0.00000001
 40
0.0
 40
0.0
 40
0.0
 40
0.0
 40
0.4987092906772063
 40
0.9999999999999999
 40
0.9999999999999999
 40
0.9999999999999999
 40
0.9999999999999999
 10
7.322047238643081
 20
7.334959330406059
 30
0.0
 10
7.320059473838542
 20
7.332820983605241
 30
0.0
 10
7.31607365516282
 20
7.328533221494542
 30
0.0
 10
7.309065604067274
 20
7.3243798101348
 30
0.0
 10
7.305552533162618
 20
7.322297743608163
 30
0.0
  0
SPLINE
  5
149
330
1F
100
AcDbEntity
  8
0
  6
Continuous
 62
     7
370
     0
100
AcDbSpline
210
0.0
220
0.0
230
1.0
 70
     8
 71
     3
 72
    11
 73
     7
 74
     0
 42
0.00000001
 43
0.00000001
 40
0.0
 40
0.0
 40
0.0
 40
0.0
 40
0.2504031889031621
 40
0.5003824607867529
 40
0.7500984159891424
 40
0.9999999999999999
 40
0.9999999999999999
 40
0.9999999999999999
 40
0.9999999999999999
 10
7.31337580088022
 20
7.342815744107211
 30
0.0
 10
7.315015300610781
 20
7.342564774187227
 30
0.0
 10
7.318291524500864
 20
7.342063259223718
 30
0.0
 10
7.321876822179035
 20
7.340500264868153
 30
0.0
 10
7.323339661692543
 20
7.338052171631157
 30
0.0
 10
7.322478153021734
 20
7.335990532809435
 30
0.0
 10
7.322047238643081
 20
7.334959330406059
 30
0.0
  0
LINE
  5
14A
330
1F
100
AcDbEntity
  8
0
  6
Continuous
 62
     7
370
     0
100
AcDbLine
 10
7.2048782531
 20
7.3270041515
 30
0.0
 11
7.2246336227
 21
7.3384086837
 31
0.0
  0
ARC
  5
14B
330
1F
100
AcDbEntity
  8
0
  6
Continuous
 62
     7
370
     0
100
AcDbCircle
 10
7.1700000201
 20
7.3824235241
 30
0.0
 40
0.065481279742959
100
AcDbArc
 50
287.4887128609
 51
302.1842969259
  0
SPLINE
  5
14C
330
1F
100
AcDbEntity
  8
0
  6
Continuous
 62
     7
370
     0
100
AcDbSpline
210
0.0
220
0.0
230
1.0
 70
     8
 71
     3
 72
    13
 73
     9
 74
     0
 42
0.00000001
 43
0.00000001
 40
0.0
 40
0.0
 40
0.0
 40
0.0
 40
0.2556326815340902
 40
0.3827690308548596
 40
0.5009930149487913
 40
0.6250249963003048
 40
0.750966345218289
 40
1.0
 40
1.0
 40
1.0
 40
1.0
 10
7.192366454161596
 20
7.322876092149244
 30
0.0
 10
7.19151928198007
 20
7.322379258659192
 30
0.0
 10
7.190250777213998
 20
7.321635330017745
 30
0.0
 10
7.188891625450744
 20
7.320757852907136
 30
0.0
 10
7.188161556151684
 20
7.320208871566123
 30
0.0
 10
7.18787945086662
 20
7.319842595444226
 30
0.0
 10
7.188113608463214
 20
7.319618548460352
 30
0.0
 10
7.18905386276849
 20
7.319829163360662
 30
0.0
 10
7.189678317635499
 20
7.319969039880053
 30
0.0
  0
LINE
  5
14D
330
1F
100
AcDbEntity
  8
0
  6
Continuous
 62
     7
370
     0
100
AcDbLine
 10
7.2149915754
 20
7.3359372966
 30
0.0
 11
7.1923664542
 21
7.3228760921
 31
0.0
  0
ARC
  5
14E
330
1F
100
AcDbEntity
  8
0
  6
Continuous
 62
     7
370
     0
100
AcDbCircle
 10
7.2717572001
 20
7.1339437533
 30
0.0
 40
0.2098183206457627
100
AcDbArc
 50
105.6967928935
 51
109.2858661204
  0
LINE
  5
14F
330
1F
100
AcDbEntity
  8
0
  6
Continuous
 62
     7
370
     0
100
AcDbLine
 10
7.176308901
 20
7.3168919869
 30
0.0
 11
7.2024580771
 21
7.3319875849
 31
0.0
  0
SPLINE
  5
150
330
1F
100
AcDbEntity
  8
0
  6
Continuous
 62
     7
370
     0
100
AcDbSpline
210
0.0
220
0.0
230
1.0
 70
     8
 71
     3
 72
    13
 73
     9
 74
     0
 42
0.00000001
 43
0.00000001
 40
0.0
 40
0.0
 40
0.0
 40
0.0
 40
0.2493827994174863
 40
0.374436129778008
 40
0.4994378368474295
 40
0.6245077693644107
 40
0.7497582852968223
 40
1.0
 40
1.0
 40
1.0
 40
1.0
 10
7.171403527977167
 20
7.311217702353422
 30
0.0
 10
7.16993826761258
 20
7.310825621004208
 30
0.0
 10
7.167738250525136
 20
7.310236929950531
 30
0.0
 10
7.166874532296768
 20
7.310457084124246
 30
0.0
 10
7.167186468415085
 20
7.31106803356542
 30
0.0
 10
7.168570057802347
 20
7.312157286228484
 30
0.0
 10
7.171430127064265
 20
7.314036722986675
 30
0.0
 10
7.174357795826833
 20
7.315750117981332
 30
0.0
 10
7.176308901046741
 20
7.316891986884187
 30
0.0
  0
ARC
  5
151
330
1F
100
AcDbEntity
  8
0
  6
Continuous
 62
     7
370
     0
100
AcDbCircle
 10
7.1301447649
 20
7.4488251459
 30
0.0
 40
0.1436596465237665
100
AcDbArc
 50
286.6902784683
 51
295.1023586667
  0
LINE
  5
152
330
1F
100
AcDbEntity
  8
0
  6
Continuous
 62
     7
370
     0
100
AcDbLine
 10
7.1843867199
 20
7.3148639746
 30
0.0
 11
7.1910904595
 21
7.3187339611
 31
0.0
  0
ARC
  5
153
330
1F
100
AcDbEntity
  8
0
  6
Continuous
 62
     7
370
     0
100
AcDbCircle
 10
7.2337670643
 20
7.0976607009
 30
0.0
 40
0.2227457755545236
100
AcDbArc
 50
99.6118865246
 51
102.8082703113
  0
LINE
  5
154
330
1F
100
AcDbEntity
  8
0
  6
Continuous
 62
     7
370
     0
100
AcDbLine
 10
7.237715226
 20
7.3410294958
 30
0.0
 11
7.1965744678
 21
7.3172794417
 31
0.0
  0
ARC
  5
155
330
1F
100
AcDbEntity
  8
0
  6
Continuous
 62
     7
370
     0
100
AcDbCircle
 10
7.2748526395
 20
7.121702288
 30
0.0
 40
0.2224491213361164
100
AcDbArc
 50
99.6104106387
 51
103.0472829164
  0
LINE
  5
156
330
1F
100
AcDbEntity
  8
0
  6
Continuous
 62
     7
370
     0
100
AcDbLine
 10
7.6053239084
 20
6.9383096848
 30
0.0
 11
7.6211304999
 21
6.9474346358
 31
0.0
  0
ARC
  5
157
330
1F
100
AcDbEntity
  8
0
  6
Continuous
 62
     7
370
     0
100
AcDbCircle
 10
6.7380677518
 20
6.3753466469
 30
0.0
 40
1.0339538786579
100
AcDbArc
 50
31.6705129072
 51
32.9888603189
  0
LINE
  5
158
330
1F
100
AcDbEntity
  8
0
  6
Continuous
 62
     7
370
     0
100
AcDbLine
 10
7.6338532879
 20
6.9273322432
 30
0.0
 11
7.6180466964
 21
6.9182072922
 31
0.0
  0
ARC
  5
159
330
1F
100
AcDbEntity
  8
0
  6
Continuous
 62
     7
370
     0
100
AcDbCircle
 10
6.7538743433
 20
6.384471598
 30
0.0
 40
1.033953878663935
100
AcDbArc
 50
31.6705129072
 51
32.9888603189
  0
LINE
  5
15A
330
1F
100
AcDbEntity
  8
0
  6
Continuous
 62
     7
370
     0
100
AcDbLine
 10
7.4905155073
 20
7.0378054521
 30
0.0
 11
7.5338257977
 21
7.0628079505
 31
0.0
  0
SPLINE
  5
15B
330
1F
100
AcDbEntity
  8
0
  6
Continuous
 62
     7
370
     0
100
AcDbSpline
210
0.0
220
0.0
230
1.0
 70
    24
 71
     1
 72
     4
 73
     2
 74
     0
 42
0.00000001
 43
0.00000001
 40
0.0
 40
0.0
 40
1.0
 40
1.0
 10
7.5237884704028
 20
7.074012580967744
 30
0.0
 10
7.49051550731666
 20
7.037805452082637
 30
0.0
  0
ARC
  5
15C
330
1F
100
AcDbEntity
  8
0
  6
Continuous
 62
     7
370
     0
100
AcDbCircle
 10
6.857270627
 20
6.4670544049
 30
0.0
 40
0.901467838034569
100
AcDbArc
 50
42.3222639254
 51
43.4342183592
  0
SPLINE
  5
15D
330
1F
100
AcDbEntity
  8
0
  6
Continuous
 62
     7
370
     0
100
AcDbSpline
210
0.0
220
0.0
230
1.0
 70
    24
 71
     1
 72
     4
 73
     2
 74
     0
 42
0.00000001
 43
0.00000001
 40
0.0
 40
0.0
 40
1.0
 40
1.0
 10
7.458244514727639
 20
7.072557240569678
 30
0.0
 10
7.511884295691988
 20
7.086832758693806
 30
0.0
  0
LINE
  5
15E
330
1F
100
AcDbEntity
  8
0
  6
Continuous
 62
     7
370
     0
100
AcDbLine
 10
7.5015548051
 20
7.097559739
 30
0.0
 11
7.4582445147
 21
7.0725572406
 31
0.0
  0
ARC
  5
15F
330
1F
100
AcDbEntity
  8
0
  6
Continuous
 62
     7
370
     0
100
AcDbCircle
 10
6.8872698853
 20
6.495985333
 30
0.0
 40
0.8597893512874082
100
AcDbArc
 50
44.4010554877
 51
45.6695132363
  0
LINE
  5
160
330
1F
100
AcDbEntity
  8
0
  6
Continuous
 62
     7
370
     0
100
AcDbLine
 10
7.4312891245
 20
7.0782218615
 30
0.0
 11
7.4880872471
 21
7.1110107198
 31
0.0
  0
ARC
  5
161
330
1F
100
AcDbEntity
  8
0
  6
Continuous
 62
     7
370
     0
100
AcDbCircle
 10
6.8251760977
 20
6.457878749
 30
0.0
 40
0.8672938247972299
100
AcDbArc
 50
43.6403099957
 51
45.6647504503
  0
SPLINE
  5
162
330
1F
100
AcDbEntity
  8
0
  6
Continuous
 62
     7
370
     0
100
AcDbSpline
210
0.0
220
0.0
230
1.0
 70
    24
 71
     1
 72
     4
 73
     2
 74
     0
 42
0.00000001
 43
0.00000001
 40
0.0
 40
0.0
 40
1.0
 40
1.0
 10
7.495568556618364
 20
7.067684670072736
 30
0.0
 10
7.452824935257222
 20
7.056423246249082
 30
0.0
  0
SPLINE
  5
163
330
1F
100
AcDbEntity
  8
0
  6
Continuous
 62
     7
370
     0
100
AcDbSpline
210
0.0
220
0.0
230
1.0
 70
    24
 71
     1
 72
     4
 73
     2
 74
     0
 42
0.00000001
 43
0.00000001
 40
0.0
 40
0.0
 40
1.0
 40
1.0
 10
7.469143245643347
 20
7.038851392176728
 30
0.0
 10
7.495568556618364
 20
7.067684670072736
 30
0.0
  0
ARC
  5
164
330
1F
100
AcDbEntity
  8
0
  6
Continuous
 62
     7
370
     0
100
AcDbCircle
 10
6.7774724589
 20
6.4134936705
 30
0.0
 40
0.9324595204491699
100
AcDbArc
 50
40.1818484225
 51
42.1175621179
  0
LINE
  5
165
330
1F
100
AcDbEntity
  8
0
  6
Continuous
 62
     7
370
     0
100
AcDbLine
 10
7.5466700975
 20
7.0479200333
 30
0.0
 11
7.4898719749
 21
7.0151311751
 31
0.0
  0
ARC
  5
166
330
1F
100
AcDbEntity
  8
0
  6
Continuous
 62
     7
370
     0
100
AcDbCircle
 10
6.8294972284
 20
6.4421757773
 30
0.0
 40
0.9387561067239307
100
AcDbArc
 50
40.1853711553
 51
41.3854876092
  0
ARC
  5
167
330
1F
100
AcDbEntity
  8
0
  6
Continuous
 62
     7
370
     0
100
AcDbCircle
 10
6.9359309853
 20
6.5732220842
 30
0.0
 40
0.7245773452456913
100
AcDbArc
 50
51.341028901
 51
51.9170071135
  0
LINE
  5
168
330
1F
100
AcDbEntity
  8
0
  6
Continuous
 62
     7
370
     0
100
AcDbLine
 10
7.4000645616
 20
7.1456684892
 30
0.0
 11
7.3885625974
 21
7.1390285466
 31
0.0
  0
ARC
  5
169
330
1F
100
AcDbEntity
  8
0
  6
Continuous
 62
     7
370
     0
100
AcDbCircle
 10
6.9474329495
 20
6.5798620267
 30
0.0
 40
0.7245773452946904
100
AcDbArc
 50
51.3410289011
 51
51.9170071134
  0
LINE
  5
16A
330
1F
100
AcDbEntity
  8
0
  6
Continuous
 62
     7
370
     0
100
AcDbLine
 10
7.4088404008
 20
7.1585528824
 30
0.0
 11
7.394353895
 21
7.1501900006
 31
0.0
  0
SPLINE
  5
16B
330
1F
100
AcDbEntity
  8
0
  6
Continuous
 62
     7
370
     0
100
AcDbSpline
210
0.0
220
0.0
230
1.0
 70
     8
 71
     3
 72
    13
 73
     9
 74
     0
 42
0.00000001
 43
0.00000001
 40
0.0
 40
0.0
 40
0.0
 40
0.0
 40
0.2500979381482675
 40
0.3777541129305177
 40
0.4995112558107434
 40
0.6243482411511451
 40
0.7495213959044954
 40
1.0
 40
1.0
 40
1.0
 40
1.0
 10
7.410961923514285
 20
7.178499892630281
 30
0.0
 10
7.413005939974315
 20
7.176899873962395
 30
0.0
 10
7.416093273002292
 20
7.174483166183695
 30
0.0
 10
7.418515368364575
 20
7.170573139764413
 30
0.0
 10
7.418667896642179
 20
7.167505366955107
 30
0.0
 10
7.41730884977645
 20
7.164743978831464
 30
0.0
 10
7.414014800317061
 20
7.161678900973089
 30
0.0
 10
7.410910379263342
 20
7.159803421906169
 30
0.0
 10
7.408840400795935
 20
7.158552882363557
 30
0.0
  0
SPLINE
  5
16C
330
1F
100
AcDbEntity
  8
0
  6
Continuous
 62
     7
370
     0
100
AcDbSpline
210
0.0
220
0.0
230
1.0
 70
    24
 71
     1
 72
     4
 73
     2
 74
     0
 42
0.00000001
 43
0.00000001
 40
0.0
 40
0.0
 40
1.0
 40
1.0
 10
7.398853079763622
 20
7.185662198675701
 30
0.0
 10
7.410961923514285
 20
7.178499892630281
 30
0.0
  0
SPLINE
  5
16D
330
1F
100
AcDbEntity
  8
0
  6
Continuous
 62
     7
370
     0
100
AcDbSpline
210
0.0
220
0.0
230
1.0
 70
    24
 71
     1
 72
     4
 73
     2
 74
     0
 42
0.00000001
 43
0.00000001
 40
0.0
 40
0.0
 40
1.0
 40
1.0
 10
7.389110673059689
 20
7.17854987720983
 30
0.0
 10
7.398853079763622
 20
7.185662198675701
 30
0.0
  0
SPLINE
  5
16E
330
1F
100
AcDbEntity
  8
0
  6
Continuous
 62
     7
370
     0
100
AcDbSpline
210
0.0
220
0.0
230
1.0
 70
    24
 71
     1
 72
     4
 73
     2
 74
     0
 42
0.00000001
 43
0.00000001
 40
0.0
 40
0.0
 40
1.0
 40
1.0
 10
7.394971966161893
 20
7.175621780151687
 30
0.0
 10
7.389110673059689
 20
7.17854987720983
 30
0.0
  0
ARC
  5
16F
330
1F
100
AcDbEntity
  8
0
  6
Continuous
 62
     7
370
     0
100
AcDbCircle
 10
7.3939474561
 20
7.1734033255
 30
0.0
 40
0.0024435960653348
100
AcDbArc
 50
347.8388900953
 51
65.2119172337
  0
SPLINE
  5
170
330
1F
100
AcDbEntity
  8
0
  6
Continuous
 62
     7
370
     0
100
AcDbSpline
210
0.0
220
0.0
230
1.0
 70
     8
 71
     3
 72
     9
 73
     5
 74
     0
 42
0.00000001
 43
0.00000001
 40
0.0
 40
0.0
 40
0.0
 40
0.0
 40
0.501442810529594
 40
1.0
 40
1.0
 40
1.0
 40
1.0
 10
7.393346806542369
 20
7.170504498840431
 30
0.0
 10
7.393946569362699
 20
7.17084589246414
 30
0.0
 10
7.39514264358639
 20
7.171526715115376
 30
0.0
 10
7.395939124441944
 20
7.172435482071584
 30
0.0
 10
7.396336215698756
 20
7.172888554371154
 30
0.0
  0
LINE
  5
171
330
1F
100
AcDbEntity
  8
0
  6
Continuous
 62
     7
370
     0
100
AcDbLine
 10
7.3787455107
 20
7.1620753502
 30
0.0
 11
7.3933468065
 21
7.1705044988
 31
0.0
  0
ARC
  5
172
330
1F
100
AcDbEntity
  8
0
  6
Continuous
 62
     7
370
     0
100
AcDbCircle
 10
6.9759116684
 20
6.6173589072
 30
0.0
 40
0.6774888247670366
100
AcDbArc
 50
53.5159842905
 51
54.4159627736
  0
LINE
  5
173
330
1F
100
AcDbEntity
  8
0
  6
Continuous
 62
     7
370
     0
100
AcDbLine
 10
7.3586380228
 20
7.1616954982
 30
0.0
 11
7.370139987
 21
7.1683354408
 31
0.0
  0
ARC
  5
174
330
1F
100
AcDbEntity
  8
0
  6
Continuous
 62
     7
370
     0
100
AcDbCircle
 10
6.9644097042
 20
6.6107189646
 30
0.0
 40
0.6774888247993648
100
AcDbArc
 50
53.5159842906
 51
54.4159627736
  0
LINE
  5
175
330
1F
100
AcDbEntity
  8
0
  6
Continuous
 62
     7
370
     0
100
AcDbLine
 10
7.351586182
 20
7.1463966035
 30
0.0
 11
7.3672435465
 21
7.1554354076
 31
0.0
  0
SPLINE
  5
176
330
1F
100
AcDbEntity
  8
0
  6
Continuous
 62
     7
370
     0
100
AcDbSpline
210
0.0
220
0.0
230
1.0
 70
    24
 71
     1
 72
     4
 73
     2
 74
     0
 42
0.00000001
 43
0.00000001
 40
0.0
 40
0.0
 40
1.0
 40
1.0
 10
7.375298744714327
 20
7.139189696464645
 30
0.0
 10
7.351586182030085
 20
7.146396603460472
 30
0.0
  0
LINE
  5
177
330
1F
100
AcDbEntity
  8
0
  6
Continuous
 62
     7
370
     0
100
AcDbLine
 10
7.3828519308
 20
7.143550058
 30
0.0
 11
7.3752987447
 21
7.1391896965
 31
0.0
  0
LINE
  5
178
330
1F
100
AcDbEntity
  8
0
  6
Continuous
 62
     7
370
     0
100
AcDbLine
 10
7.3039263901
 20
7.2205414421
 30
0.0
 11
7.3236817598
 21
7.2319459742
 31
0.0
  0
ARC
  5
179
330
1F
100
AcDbEntity
  8
0
  6
Continuous
 62
     7
370
     0
100
AcDbCircle
 10
7.2934109042
 20
7.2341772973
 30
0.0
 40
0.0172195235993574
100
AcDbArc
 50
250.0986965408
 51
307.6381298712
  0
SPLINE
  5
17A
330
1F
100
AcDbEntity
  8
0
  6
Continuous
 62
     7
370
     0
100
AcDbSpline
210
0.0
220
0.0
230
1.0
 70
     8
 71
     3
 72
    13
 73
     9
 74
     0
 42
0.00000001
 43
0.00000001
 40
0.0
 40
0.0
 40
0.0
 40
0.0
 40
0.2556326815351053
 40
0.3827690308509725
 40
0.5009930149481007
 40
0.6250249963056888
 40
0.750966345218543
 40
1.0
 40
1.0
 40
1.0
 40
1.0
 10
7.289197862172188
 20
7.224707063598237
 30
0.0
 10
7.288357043227536
 20
7.224187325340163
 30
0.0
 10
7.287098051416969
 20
7.223409100474136
 30
0.0
 10
7.285814092359725
 20
7.222259845869838
 30
0.0
 10
7.285186450451454
 20
7.221339835473341
 30
0.0
 10
7.285065133192113
 20
7.220388574754446
 30
0.0
 10
7.285578111263935
 20
7.219145013579057
 30
0.0
 10
7.286762661845462
 20
7.218448617449349
 30
0.0
 10
7.287549362179309
 20
7.217986117091595
 30
0.0
  0
LINE
  5
17B
330
1F
100
AcDbEntity
  8
0
  6
Continuous
 62
     7
370
     0
100
AcDbLine
 10
7.3118229834
 20
7.237768268
 30
0.0
 11
7.2891978622
 21
7.2247070636
 31
0.0
  0
ARC
  5
17C
330
1F
100
AcDbEntity
  8
0
  6
Continuous
 62
     7
370
     0
100
AcDbCircle
 10
7.1068921362
 20
6.8062448371
 30
0.0
 40
0.477712385839028
100
AcDbArc
 50
64.5969168239
 51
66.6706349752
  0
LINE
  5
17D
330
1F
100
AcDbEntity
  8
0
  6
Continuous
 62
     7
370
     0
100
AcDbLine
 10
7.2699247892
 20
7.22980555
 30
0.0
 11
7.2960739653
 21
7.244901148
 31
0.0
  0
SPLINE
  5
17E
330
1F
100
AcDbEntity
  8
0
  6
Continuous
 62
     7
370
     0
100
AcDbSpline
210
0.0
220
0.0
230
1.0
 70
     8
 71
     3
 72
    13
 73
     9
 74
     0
 42
0.00000001
 43
0.00000001
 40
0.0
 40
0.0
 40
0.0
 40
0.0
 40
0.2492945499288873
 40
0.3757665645118396
 40
0.4994575090411152
 40
0.624175538106761
 40
0.7497536491743462
 40
1.0
 40
1.0
 40
1.0
 40
1.0
 10
7.267751912150383
 20
7.214425535323643
 30
0.0
 10
7.265906487234878
 20
7.215451183214093
 30
0.0
 10
7.263124842065494
 20
7.216997162395359
 30
0.0
 10
7.261560688094006
 20
7.219714453994397
 30
0.0
 10
7.261480966686354
 20
7.221883915997592
 30
0.0
 10
7.262535996685009
 20
7.224052710052395
 30
0.0
 10
7.265113955748229
 20
7.226807173760514
 30
0.0
 10
7.268001854131255
 20
7.228607071012916
 30
0.0
 10
7.269924789185208
 20
7.229805549996976
 30
0.0
  0
ARC
  5
17F
330
1F
100
AcDbEntity
  8
0
  6
Continuous
 62
     7
370
     0
100
AcDbCircle
 10
7.283546959
 20
7.2491103607
 30
0.0
 40
0.038111948474802
100
AcDbArc
 50
245.5160585741
 51
276.4220996314
  0
LINE
  5
180
330
1F
100
AcDbEntity
  8
0
  6
Continuous
 62
     7
370
     0
100
AcDbLine
 10
7.2668836372
 20
7.199157116
 30
0.0
 11
7.2878098655
 21
7.2112375704
 31
0.0
  0
ARC
  5
181
330
1F
100
AcDbEntity
  8
0
  6
Continuous
 62
     7
370
     0
100
AcDbCircle
 10
7.0268879571
 20
6.726197646
 30
0.0
 40
0.530366464507867
100
AcDbArc
 50
61.1695431091
 51
63.0952170218
  0
LINE
  5
182
330
1F
100
AcDbEntity
  8
0
  6
Continuous
 62
     7
370
     0
100
AcDbLine
 10
7.3394390923
 20
7.2236142942
 30
0.0
 11
7.2826409697
 21
7.190825436
 31
0.0
  0
ARC
  5
183
330
1F
100
AcDbEntity
  8
0
  6
Continuous
 62
     7
370
     0
100
AcDbCircle
 10
7.0836860797
 20
6.7589865043
 30
0.0
 40
0.5303664645149841
100
AcDbArc
 50
61.1695431091
 51
63.0952170218
  0
LINE
  5
184
330
1F
100
AcDbEntity
  8
0
  6
Continuous
 62
     7
370
     0
100
AcDbLine
 10
7.1235514462
 20
7.2632174009
 30
0.0
 11
7.1446269015
 21
7.2753840023
 31
0.0
  0
ARC
  5
185
330
1F
100
AcDbEntity
  8
0
  6
Continuous
 62
     7
370
     0
100
AcDbCircle
 10
7.1379188325
 20
7.0193141341
 30
0.0
 40
0.2443260636089295
100
AcDbArc
 50
93.3711743605
 51
95.3378399999
  0
ARC
  5
186
330
1F
100
AcDbEntity
  8
0
  6
Continuous
 62
     7
370
     0
100
AcDbCircle
 10
7.127575886
 20
7.1709019595
 30
0.0
 40
0.0925116522092698
100
AcDbArc
 50
97.6943616638
 51
121.6397192178
  0
SPLINE
  5
187
330
1F
100
AcDbEntity
  8
0
  6
Continuous
 62
     7
370
     0
100
AcDbSpline
210
0.0
220
0.0
230
1.0
 70
     8
 71
     3
 72
    13
 73
     9
 74
     0
 42
0.00000001
 43
0.00000001
 40
0.0
 40
0.0
 40
0.0
 40
0.0
 40
0.2501206955154952
 40
0.3808254451797328
 40
0.5003377339304069
 40
0.6236969560608617
 40
0.7504281227974541
 40
1.0
 40
1.0
 40
1.0
 40
1.0
 10
7.077791731936694
 20
7.241795822649988
 30
0.0
 10
7.075794792677299
 20
7.24163734465087
 30
0.0
 10
7.072754319433418
 20
7.241396051324698
 30
0.0
 10
7.070477231225206
 20
7.241830209066865
 30
0.0
 10
7.069889672005185
 20
7.242617166637647
 30
0.0
 10
7.070617993266255
 20
7.243888824343647
 30
0.0
 10
7.073196504105884
 20
7.246145105155577
 30
0.0
 10
7.076713758034808
 20
7.248260216876307
 30
0.0
 10
7.07904647279696
 20
7.249663002240759
 30
0.0
  0
ARC
  5
188
330
1F
100
AcDbEntity
  8
0
  6
Continuous
 62
     7
370
     0
100
AcDbCircle
 10
7.1026833615
 20
6.9923129342
 30
0.0
 40
0.2507215684073244
100
AcDbArc
 50
89.8285755514
 51
95.6977094182
  0
LINE
  5
189
330
1F
100
AcDbEntity
  8
0
  6
Continuous
 62
     7
370
     0
100
AcDbLine
 10
7.1602316221
 20
7.2758222387
 30
0.0
 11
7.1034334995
 21
7.2430333804
 31
0.0
  0
ARC
  5
18A
330
1F
100
AcDbEntity
  8
0
  6
Continuous
 62
     7
370
     0
100
AcDbCircle
 10
7.1596008214
 20
7.0202382177
 30
0.0
 40
0.2555847994059099
100
AcDbArc
 50
89.8585899601
 51
93.3587051219
  0
LINE
  5
18B
330
1F
100
AcDbEntity
  8
0
  6
Continuous
 62
     7
370
     0
100
AcDbLine
 10
7.0165487584
 20
7.2284961441
 30
0.0
 11
7.0576895165
 21
7.2522461983
 31
0.0
  0
ARC
  5
18C
330
1F
100
AcDbEntity
  8
0
  6
Continuous
 62
     7
370
     0
100
AcDbCircle
 10
7.108854926
 20
7.0495817528
 30
0.0
 40
0.2013225969220232
100
AcDbArc
 50
113.6196383631
 51
117.2902797081
  0
LINE
  5
18D
330
1F
100
AcDbEntity
  8
0
  6
Continuous
 62
     7
370
     0
100
AcDbLine
 10
7.0693331492
 20
7.2577886948
 30
0.0
 11
7.028192391
 21
7.2340386406
 31
0.0
  0
ARC
  5
18E
330
1F
100
AcDbEntity
  8
0
  6
Continuous
 62
     7
370
     0
100
AcDbCircle
 10
7.1499956842
 20
7.0733318069
 30
0.0
 40
0.2013225969231766
100
AcDbArc
 50
113.6196383631
 51
117.2902797081
  0
LINE
  5
18F
330
1F
100
AcDbEntity
  8
0
  6
Continuous
 62
     7
370
     0
100
AcDbLine
 10
7.0503233804
 20
7.2482480161
 30
0.0
 11
7.0091826222
 21
7.2244979619
 31
0.0
  0
LINE
  5
190
330
1F
100
AcDbEntity
  8
0
  6
Continuous
 62
     7
370
     0
100
AcDbLine
 10
7.2671538627
 20
7.0941590022
 30
0.0
 11
7.2797004165
 21
7.1014019736
 31
0.0
  0
ARC
  5
191
330
1F
100
AcDbEntity
  8
0
  6
Continuous
 62
     7
370
     0
100
AcDbCircle
 10
6.8271181361
 20
6.5059012289
 30
0.0
 40
0.7346282383758614
100
AcDbArc
 50
49.0451512274
 51
53.2023302407
  0
LINE
  5
192
330
1F
100
AcDbEntity
  8
0
  6
Continuous
 62
     7
370
     0
100
AcDbLine
 10
7.3211871166
 20
7.0679547996
 30
0.0
 11
7.3086405628
 21
7.0607118283
 31
0.0
  0
ARC
  5
193
330
1F
100
AcDbEntity
  8
0
  6
Continuous
 62
     7
370
     0
100
AcDbCircle
 10
6.8396646899
 20
6.5131442002
 30
0.0
 40
0.7346282383747467
100
AcDbArc
 50
49.0451512274
 51
53.2023302407
  0
LINE
  5
194
330
1F
100
AcDbEntity
  8
0
  6
Continuous
 62
     7
370
     0
100
AcDbLine
 10
7.2327962836
 20
7.1357376491
 30
0.0
 11
7.2434143644
 21
7.1418673367
 31
0.0
  0
ARC
  5
195
330
1F
100
AcDbEntity
  8
0
  6
Continuous
 62
     7
370
     0
100
AcDbCircle
 10
6.9278359052
 20
6.6375372571
 30
0.0
 40
0.5841270949267701
100
AcDbArc
 50
58.5282024814
 51
59.3442818751
  0
LINE
  5
196
330
1F
100
AcDbEntity
  8
0
  6
Continuous
 62
     7
370
     0
100
AcDbLine
 10
7.2134329658
 20
7.132966551
 30
0.0
 11
7.2256695864
 21
7.1400306017
 31
0.0
  0
ARC
  5
197
330
1F
100
AcDbEntity
  8
0
  6
Continuous
 62
     7
370
     0
100
AcDbCircle
 10
6.9155992847
 20
6.6304732064
 30
0.0
 40
0.5841270949213372
100
AcDbArc
 50
58.5282024814
 51
59.3442818751
  0
LINE
  5
198
330
1F
100
AcDbEntity
  8
0
  6
Continuous
 62
     7
370
     0
100
AcDbLine
 10
7.1856520052
 20
7.1085218365
 30
0.0
 11
7.2205596631
 21
7.1286735984
 31
0.0
  0
ARC
  5
199
330
1F
100
AcDbEntity
  8
0
  6
Continuous
 62
     7
370
     0
100
AcDbCircle
 10
6.869604826
 20
6.5922966176
 30
0.0
 40
0.6052886056215582
100
AcDbArc
 50
56.9864696903
 51
58.5238934539
  0
SPLINE
  5
19A
330
1F
100
AcDbEntity
  8
0
  6
Continuous
 62
     7
370
     0
100
AcDbSpline
210
0.0
220
0.0
230
1.0
 70
    24
 71
     1
 72
     4
 73
     2
 74
     0
 42
0.00000001
 43
0.00000001
 40
0.0
 40
0.0
 40
1.0
 40
1.0
 10
7.262165974246868
 20
7.099876623668755
 30
0.0
 10
7.199388496768832
 20
7.099856492535523
 30
0.0
  0
LINE
  5
19B
330
1F
100
AcDbEntity
  8
0
  6
Continuous
 62
     7
370
     0
100
AcDbLine
 10
7.2751372512
 20
7.1073647825
 30
0.0
 11
7.2621659742
 21
7.0998766237
 31
0.0
  0
ARC
  5
19C
330
1F
100
AcDbEntity
  8
0
  6
Continuous
 62
     7
370
     0
100
AcDbCircle
 10
6.8929247686
 20
6.5832153635
 30
0.0
 40
0.6487056307534904
100
AcDbArc
 50
53.9002745866
 51
56.9686533898
  0
LINE
  5
19D
330
1F
100
AcDbEntity
  8
0
  6
Continuous
 62
     7
370
     0
100
AcDbLine
 10
7.2571508559
 20
7.1332019927
 30
0.0
 11
7.2465327752
 21
7.1270723052
 31
0.0
  0
ARC
  5
19E
330
1F
100
AcDbEntity
  8
0
  6
Continuous
 62
     7
370
     0
100
AcDbCircle
 10
6.9273671852
 20
6.6256421178
 30
0.0
 40
0.6052886056215002
100
AcDbArc
 50
56.9864696903
 51
58.5238934539
  0
LINE
  5
19F
330
1F
100
AcDbEntity
  8
0
  6
Continuous
 62
     7
370
     0
100
AcDbLine
 10
7.1403821615
 20
7.1707564021
 30
0.0
 11
7.1613772639
 21
7.1828766167
 31
0.0
  0
ARC
  5
1A0
330
1F
100
AcDbEntity
  8
0
  6
Continuous
 62
     7
370
     0
100
AcDbCircle
 10
7.129964972
 20
7.1853303073
 30
0.0
 40
0.0179141438206465
100
AcDbArc
 50
255.5056529677
 51
305.5565656331
  0
SPLINE
  5
1A1
330
1F
100
AcDbEntity
  8
0
  6
Continuous
 62
     7
370
     0
100
AcDbSpline
210
0.0
220
0.0
230
1.0
 70
     8
 71
     3
 72
    11
 73
     7
 74
     0
 42
0.00000001
 43
0.00000001
 40
0.0
 40
0.0
 40
0.0
 40
0.0
 40
0.2494767938084115
 40
0.5035301868964251
 40
0.7522417857855974
 40
1.0
 40
1.0
 40
1.0
 40
1.0
 10
7.124354600794841
 20
7.1716302061746
 30
0.0
 10
7.12406990247313
 20
7.171284583014769
 30
0.0
 10
7.123495283098914
 20
7.170586996310977
 30
0.0
 10
7.123457368753132
 20
7.169543177808046
 30
0.0
 10
7.124086660787314
 20
7.16861542313068
 30
0.0
 10
7.125017042337873
 20
7.168195758237525
 30
0.0
 10
7.125481339794477
 20
7.167986328737982
 30
0.0
  0
SPLINE
  5
1A2
330
1F
100
AcDbEntity
  8
0
  6
Continuous
 62
     7
370
     0
100
AcDbSpline
210
0.0
220
0.0
230
1.0
 70
    24
 71
     1
 72
     4
 73
     2
 74
     0
 42
0.00000001
 43
0.00000001
 40
0.0
 40
0.0
 40
1.0
 40
1.0
 10
7.127735000929338
 20
7.173865515799544
 30
0.0
 10
7.124354600794841
 20
7.1716302061746
 30
0.0
  0
LINE
  5
1A3
330
1F
100
AcDbEntity
  8
0
  6
Continuous
 62
     7
370
     0
100
AcDbLine
 10
7.1503945591
 20
7.1869466003
 30
0.0
 11
7.1277350009
 21
7.1738655158
 31
0.0
  0
ARC
  5
1A4
330
1F
100
AcDbEntity
  8
0
  6
Continuous
 62
     7
370
     0
100
AcDbCircle
 10
7.0156897063
 20
6.8076180974
 30
0.0
 40
0.402536346788854
100
AcDbArc
 50
70.4493384134
 51
72.7687705611
  0
LINE
  5
1A5
330
1F
100
AcDbEntity
  8
0
  6
Continuous
 62
     7
370
     0
100
AcDbLine
 10
7.1136963582
 20
7.1798280475
 30
0.0
 11
7.1349325197
 21
7.1920874225
 31
0.0
  0
ARC
  5
1A6
330
1F
100
AcDbEntity
  8
0
  6
Continuous
 62
     7
370
     0
100
AcDbCircle
 10
7.1028144123
 20
7.1953578468
 30
0.0
 40
0.0189628957027225
100
AcDbArc
 50
258.965471978
 51
305.0194622555
  0
SPLINE
  5
1A7
330
1F
100
AcDbEntity
  8
0
  6
Continuous
 62
     7
370
     0
100
AcDbSpline
210
0.0
220
0.0
230
1.0
 70
     8
 71
     3
 72
    10
 73
     6
 74
     0
 42
0.00000001
 43
0.00000001
 40
0.0
 40
0.0
 40
0.0
 40
0.0
 40
0.498859454299164
 40
0.7491987595266334
 40
1.0
 40
1.0
 40
1.0
 40
1.0
 10
7.09747976590122
 20
7.179077743596895
 30
0.0
 10
7.097409136952761
 20
7.178597542257661
 30
0.0
 10
7.097303064751231
 20
7.177876364690357
 30
0.0
 10
7.098132983361992
 20
7.177122554237567
 30
0.0
 10
7.098834048544676
 20
7.17687128643956
 30
0.0
 10
7.099184904245693
 20
7.176745536735267
 30
0.0
  0
SPLINE
  5
1A8
330
1F
100
AcDbEntity
  8
0
  6
Continuous
 62
     7
370
     0
100
AcDbSpline
210
0.0
220
0.0
230
1.0
 70
     8
 71
     3
 72
     9
 73
     5
 74
     0
 42
0.00000001
 43
0.00000001
 40
0.0
 40
0.0
 40
0.0
 40
0.0
 40
0.5015784057013029
 40
1.0
 40
1.0
 40
1.0
 40
1.0
 10
7.100578943172238
 20
7.181761507475015
 30
0.0
 10
7.099857433411278
 20
7.18133271347536
 30
0.0
 10
7.098418954894742
 20
7.18047782420026
 30
0.0
 10
7.097792169351143
 20
7.1795434539211
 30
0.0
 10
7.09747976590122
 20
7.179077743596895
 30
0.0
  0
LINE
  5
1A9
330
1F
100
AcDbEntity
  8
0
  6
Continuous
 62
     7
370
     0
100
AcDbLine
 10
7.1240190738
 20
7.1952932069
 30
0.0
 11
7.1005789432
 21
7.1817615075
 31
0.0
  0
ARC
  5
1AA
330
1F
100
AcDbEntity
  8
0
  6
Continuous
 62
     7
370
     0
100
AcDbCircle
 10
7.0275368649
 20
6.8478941357
 30
0.0
 40
0.3605480984627386
100
AcDbArc
 50
74.4785735956
 51
76.97476721
  0
LINE
  5
1AB
330
1F
100
AcDbEntity
  8
0
  6
Continuous
 62
     7
370
     0
100
AcDbLine
 10
7.0829580031
 20
7.1842489797
 30
0.0
 11
7.108797246
 21
7.1991656571
 31
0.0
  0
SPLINE
  5
1AC
330
1F
100
AcDbEntity
  8
0
  6
Continuous
 62
     7
370
     0
100
AcDbSpline
210
0.0
220
0.0
230
1.0
 70
     8
 71
     3
 72
    13
 73
     9
 74
     0
 42
0.00000001
 43
0.00000001
 40
0.0
 40
0.0
 40
0.0
 40
0.0
 40
0.2493026324882043
 40
0.3767800005159365
 40
0.4994269650589457
 40
0.6183515801816833
 40
0.7497380290331189
 40
0.9999999999999999
 40
0.9999999999999999
 40
0.9999999999999999
 40
0.9999999999999999
 10
7.080260605036634
 20
7.171470466342267
 30
0.0
 10
7.078432703652801
 20
7.172093848236783
 30
0.0
 10
7.075670130801204
 20
7.173035987628547
 30
0.0
 10
7.074164564681265
 20
7.175056611184838
 30
0.0
 10
7.07413824572002
 20
7.17678155158229
 30
0.0
 10
7.07528377137234
 20
7.178665122357658
 30
0.0
 10
7.077999843025837
 20
7.181209851286028
 30
0.0
 10
7.080994371958726
 20
7.183045362393455
 30
0.0
 10
7.082958003075605
 20
7.184248979659039
 30
0.0
  0
ARC
  5
1AD
330
1F
100
AcDbEntity
  8
0
  6
Continuous
 62
     7
370
     0
100
AcDbCircle
 10
7.0908443549
 20
7.2127010319
 30
0.0
 40
0.0425673031444255
100
AcDbArc
 50
255.6032072345
 51
283.9626324341
  0
SPLINE
  5
1AE
330
1F
100
AcDbEntity
  8
0
  6
Continuous
 62
     7
370
     0
100
AcDbSpline
210
0.0
220
0.0
230
1.0
 70
     8
 71
     3
 72
    12
 73
     8
 74
     0
 42
0.00000001
 43
0.00000001
 40
0.0
 40
0.0
 40
0.0
 40
0.0
 40
0.2503253654036838
 40
0.4999978777421007
 40
0.7494826629082569
 40
0.8746982187917987
 40
1.0
 40
1.0
 40
1.0
 40
1.0
 10
7.106386122213804
 20
7.163342081551907
 30
0.0
 10
7.105194098007822
 20
7.163797976590457
 30
0.0
 10
7.102813158416474
 20
7.164708577685081
 30
0.0
 10
7.100337400998787
 20
7.166560642452808
 30
0.0
 10
7.099921826617899
 20
7.168519867601964
 30
0.0
 10
7.100382470962196
 20
7.170151678574396
 30
0.0
 10
7.100871019732471
 20
7.170978099481849
 30
0.0
 10
7.101115378194179
 20
7.171391452158089
 30
0.0
  0
ARC
  5
1AF
330
1F
100
AcDbEntity
  8
0
  6
Continuous
 62
     7
370
     0
100
AcDbCircle
 10
7.1189702774
 20
7.2009926249
 30
0.0
 40
0.039697913972492
100
AcDbArc
 50
251.5185328581
 51
282.119343154
  0
LINE
  5
1B0
330
1F
100
AcDbEntity
  8
0
  6
Continuous
 62
     7
370
     0
100
AcDbLine
 10
7.1213012807
 20
7.1587137231
 30
0.0
 11
7.1273048009
 21
7.1621794816
 31
0.0
  0
ARC
  5
1B1
330
1F
100
AcDbEntity
  8
0
  6
Continuous
 62
     7
370
     0
100
AcDbCircle
 10
6.9582068687
 20
6.7399101964
 30
0.0
 40
0.4494398527904215
100
AcDbArc
 50
66.7146101477
 51
68.7225980157
  0
LINE
  5
1B2
330
1F
100
AcDbEntity
  8
0
  6
Continuous
 62
     7
370
     0
100
AcDbLine
 10
7.177016275
 20
7.176491975
 30
0.0
 11
7.1358755168
 21
7.1527419208
 31
0.0
  0
ARC
  5
1B3
330
1F
100
AcDbEntity
  8
0
  6
Continuous
 62
     7
370
     0
100
AcDbCircle
 10
6.9997158284
 20
6.7645452088
 30
0.0
 40
0.4484814226833796
100
AcDbArc
 50
66.7131251909
 51
68.8713016034
  0
LWPOLYLINE
  5
1B4
330
1F
100
AcDbEntity
  8
0
  6
Continuous
 62
     7
370
     0
100
AcDbPolyline
 90
       42
 70
   128
 43
0.0
 10
8.4902019767
 20
6.6938724004
 10
8.5104614294
 20
6.7072662647
 10
8.5313092217
 20
6.7252355913
 10
8.5500541247
 20
6.746215241
 10
8.5665805699
 20
6.7700758672
 10
8.5807866662
 20
6.7966703612
 10
8.5925848284
 20
6.8258347592
 10
8.6019023167
 20
6.8573892528
 10
8.6086816859
 20
6.8911392983
 10
8.6128811388
 20
6.9268768152
 10
8.6144747845
 20
6.96438147
 10
8.6134527975
 20
7.0034220339
 10
8.6098214788
 20
7.043757809
 10
8.6036032166
 20
7.0851401117
 10
8.5948363486
 20
7.1273138064
 10
8.5835749255
 20
7.1700188782
 10
8.5698883776
 20
7.2129920362
 10
8.5538610871
 20
7.2559683365
 10
8.5355918676
 20
7.298682816
 10
8.5151933549
 20
7.3408721258
 10
8.4927913126
 20
7.3822761546
 10
8.4685238567
 20
7.4226396329
 10
8.4425406042
 20
7.4617137063
 10
8.4150017504
 20
7.4992574704
 10
8.3860770816
 20
7.5350394552
 10
8.355944928
 20
7.5688390529
 10
8.3247910642
 20
7.6004478778
 10
8.2928075643
 20
7.629671051
 10
8.2601916172
 20
7.6563284018
 10
8.2271443109
 20
7.6802555788
 10
8.1938693932
 20
7.7013050631
 10
8.1605720149
 20
7.7193470776
 10
8.1274574655
 20
7.7342703872
 10
8.0947299073
 20
7.7459829848
 10
8.0625911163
 20
7.7544126583
 10
8.0312392391
 20
7.759507436
 10
8.0008675704
 20
7.7612359069
 10
7.9716633615
 20
7.7595874143
 10
7.9438066661
 20
7.7545721219
 10
7.9174692301
 20
7.7462209504
 10
7.8928134325
 20
7.7345853878
 10
7.8902507371
 20
7.7331310353
  0
LINE
  5
1B5
330
1F
100
AcDbEntity
  8
0
  6
Continuous
 62
     7
370
     0
100
AcDbLine
 10
7.0637666833
 20
7.1916880591
 30
0.0
 11
7.0847617856
 21
7.2038082737
 31
0.0
  0
ARC
  5
1B6
330
1F
100
AcDbEntity
  8
0
  6
Continuous
 62
     7
370
     0
100
AcDbCircle
 10
7.0500308559
 20
7.2117580188
 30
0.0
 40
0.0243202845227205
100
AcDbArc
 50
267.9686587612
 51
304.3876354283
  0
SPLINE
  5
1B7
330
1F
100
AcDbEntity
  8
0
  6
Continuous
 62
     7
370
     0
100
AcDbSpline
210
0.0
220
0.0
230
1.0
 70
     8
 71
     3
 72
    11
 73
     7
 74
     0
 42
0.00000001
 43
0.00000001
 40
0.0
 40
0.0
 40
0.0
 40
0.0
 40
0.2494767938082115
 40
0.50353018692854
 40
0.7522417858498252
 40
0.9999999999999999
 40
0.9999999999999999
 40
0.9999999999999999
 40
0.9999999999999999
 10
7.048279949865125
 20
7.189995424671748
 30
0.0
 10
7.047984943288689
 20
7.189696704966044
 30
0.0
 10
7.047389518302218
 20
7.189093785604466
 30
0.0
 10
7.0472941443237
 20
7.188313386623788
 30
0.0
 10
7.047851845869114
 20
7.187716883749989
 30
0.0
 10
7.048730374325356
 20
7.187540860241223
 30
0.0
 10
7.04916879502218
 20
7.187453017498257
 30
0.0
  0
SPLINE
  5
1B8
330
1F
100
AcDbEntity
  8
0
  6
Continuous
 62
     7
370
     0
100
AcDbSpline
210
0.0
220
0.0
230
1.0
 70
    24
 71
     1
 72
     4
 73
     2
 74
     0
 42
0.00000001
 43
0.00000001
 40
0.0
 40
0.0
 40
1.0
 40
1.0
 10
7.051676534691327
 20
7.192157223076005
 30
0.0
 10
7.048279949865124
 20
7.189995424671748
 30
0.0
  0
LINE
  5
1B9
330
1F
100
AcDbEntity
  8
0
  6
Continuous
 62
     7
370
     0
100
AcDbLine
 10
7.0743360929
 20
7.2052383076
 30
0.0
 11
7.0516765347
 21
7.1921572231
 31
0.0
  0
ARC
  5
1BA
330
1F
100
AcDbEntity
  8
0
  6
Continuous
 62
     7
370
     0
100
AcDbCircle
 10
7.0395064848
 20
6.9148536084
 30
0.0
 40
0.2924660238957587
100
AcDbArc
 50
83.1604468585
 51
86.0303970434
  0
LINE
  5
1BB
330
1F
100
AcDbEntity
  8
0
  6
Continuous
 62
     7
370
     0
100
AcDbLine
 10
7.0385169354
 20
7.1943586072
 30
0.0
 11
7.0597530969
 21
7.2066179822
 31
0.0
  0
ARC
  5
1BC
330
1F
100
AcDbEntity
  8
0
  6
Continuous
 62
     7
370
     0
100
AcDbCircle
 10
7.0234184716
 20
7.2169540576
 30
0.0
 40
0.027175687456109
100
AcDbArc
 50
272.0250398831
 51
303.7511683952
  0
SPLINE
  5
1BD
330
1F
100
AcDbEntity
  8
0
  6
Continuous
 62
     7
370
     0
100
AcDbSpline
210
0.0
220
0.0
230
1.0
 70
     8
 71
     3
 72
    10
 73
     6
 74
     0
 42
0.00000001
 43
0.00000001
 40
0.0
 40
0.0
 40
0.0
 40
0.0
 40
0.4988594542991632
 40
0.7491987595266325
 40
1.0
 40
1.0
 40
1.0
 40
1.0
 10
7.02292046797214
 20
7.191180032853934
 30
0.0
 10
7.022816564685285
 20
7.190826244483651
 30
0.0
 10
7.022660520306548
 20
7.190294916860474
 30
0.0
 10
7.023398834157945
 20
7.189893095267093
 30
0.0
 10
7.024051916488499
 20
7.189827946374733
 30
0.0
 10
7.024378758648926
 20
7.189795341902476
 30
0.0
  0
SPLINE
  5
1BE
330
1F
100
AcDbEntity
  8
0
  6
Continuous
 62
     7
370
     0
100
AcDbSpline
210
0.0
220
0.0
230
1.0
 70
     8
 71
     3
 72
     9
 73
     5
 74
     0
 42
0.00000001
 43
0.00000001
 40
0.0
 40
0.0
 40
0.0
 40
0.0
 40
0.5015784057013009
 40
1.0
 40
1.0
 40
1.0
 40
1.0
 10
7.026088029358821
 20
7.193605446709504
 30
0.0
 10
7.025365550676156
 20
7.193180244483313
 30
0.0
 10
7.023925140414366
 20
7.192332516149398
 30
0.0
 10
7.023254653252376
 20
7.191563384618026
 30
0.0
 10
7.02292046797214
 20
7.191180032853934
 30
0.0
  0
LINE
  5
1BF
330
1F
100
AcDbEntity
  8
0
  6
Continuous
 62
     7
370
     0
100
AcDbLine
 10
7.04952816
 20
7.2071371461
 30
0.0
 11
7.0260880294
 21
7.1936054467
 31
0.0
  0
ARC
  5
1C0
330
1F
100
AcDbEntity
  8
0
  6
Continuous
 62
     7
370
     0
100
AcDbCircle
 10
7.0409525922
 20
6.9427789739
 30
0.0
 40
0.2644972278831467
100
AcDbArc
 50
88.1420222482
 51
91.2108991951
  0
LINE
  5
1C1
330
1F
100
AcDbEntity
  8
0
  6
Continuous
 62
     7
370
     0
100
AcDbLine
 10
7.0095238339
 20
7.1923004573
 30
0.0
 11
7.0353630769
 21
7.2072171347
 31
0.0
  0
SPLINE
  5
1C2
330
1F
100
AcDbEntity
  8
0
  6
Continuous
 62
     7
370
     0
100
AcDbSpline
210
0.0
220
0.0
230
1.0
 70
     8
 71
     3
 72
    13
 73
     9
 74
     0
 42
0.00000001
 43
0.00000001
 40
0.0
 40
0.0
 40
0.0
 40
0.0
 40
0.2493026324882841
 40
0.376780000516049
 40
0.4994269650591094
 40
0.6183515801758773
 40
0.7497380290330383
 40
1.0
 40
1.0
 40
1.0
 40
1.0
 10
7.005881289100938
 20
7.182896486721772
 30
0.0
 10
7.004187300134302
 20
7.183026533209167
 30
0.0
 10
7.00162711391664
 20
7.183223077124884
 30
0.0
 10
7.000367043275747
 20
7.184371456218164
 30
0.0
 10
7.000491898074559
 20
7.185566026842242
 30
0.0
 10
7.001745783276164
 20
7.187073728394037
 30
0.0
 10
7.004549563783216
 20
7.189316374285453
 30
0.0
 10
7.00755382257163
 20
7.191118640194415
 30
0.0
 10
7.009523833939763
 20
7.192300457267812
 30
0.0
  0
ARC
  5
1C3
330
1F
100
AcDbEntity
  8
0
  6
Continuous
 62
     7
370
     0
100
AcDbCircle
 10
7.0064622809
 20
7.2406820896
 30
0.0
 40
0.0577885234990437
100
AcDbArc
 50
269.4239523987
 51
289.6094611848
  0
SPLINE
  5
1C4
330
1F
100
AcDbEntity
  8
0
  6
Continuous
 62
     7
370
     0
100
AcDbSpline
210
0.0
220
0.0
230
1.0
 70
     8
 71
     3
 72
    12
 73
     8
 74
     0
 42
0.00000001
 43
0.00000001
 40
0.0
 40
0.0
 40
0.0
 40
0.0
 40
0.250325365403686
 40
0.4999978777421026
 40
0.7494826629082584
 40
0.8746982187917971
 40
1.0
 40
1.0
 40
1.0
 40
1.0
 10
7.03043171096468
 20
7.181165267613714
 30
0.0
 10
7.029307375309588
 20
7.181321108500328
 30
0.0
 10
7.027061636287057
 20
7.181632383837714
 30
0.0
 10
7.024791038566558
 20
7.182606939534451
 30
0.0
 10
7.024517958612883
 20
7.183970390754353
 30
0.0
 10
7.025068897889716
 20
7.185229416732509
 30
0.0
 10
7.025593919870765
 20
7.185906515980452
 30
0.0
 10
7.025856521214698
 20
7.186245182129498
 30
0.0
  0
ARC
  5
1C5
330
1F
100
AcDbEntity
  8
0
  6
Continuous
 62
     7
370
     0
100
AcDbCircle
 10
7.0352106017
 20
7.2311591613
 30
0.0
 40
0.0502217801092422
100
AcDbArc
 50
264.5397162707
 51
287.8900029379
  0
LINE
  5
1C6
330
1F
100
AcDbEntity
  8
0
  6
Continuous
 62
     7
370
     0
100
AcDbLine
 10
7.0446347391
 20
7.1798999453
 30
0.0
 11
7.0506382593
 21
7.1833657038
 31
0.0
  0
ARC
  5
1C7
330
1F
100
AcDbEntity
  8
0
  6
Continuous
 62
     7
370
     0
100
AcDbCircle
 10
6.9937486875
 20
6.8578711341
 30
0.0
 40
0.3260244553598238
100
AcDbArc
 50
78.533317068
 51
81.0205344324
  0
LINE
  5
1C8
330
1F
100
AcDbEntity
  8
0
  6
Continuous
 62
     7
370
     0
100
AcDbLine
 10
7.0997024821
 20
7.2011383487
 30
0.0
 11
7.0585617239
 21
7.1773882945
 31
0.0
  0
ARC
  5
1C9
330
1F
100
AcDbEntity
  8
0
  6
Continuous
 62
     7
370
     0
100
AcDbCircle
 10
7.0350193058
 20
6.8823146936
 30
0.0
 40
0.3253189762997258
100
AcDbArc
 50
78.5314502866
 51
81.2047612624
  0
ARC
  5
1CA
330
1F
100
AcDbEntity
  8
0
  6
Continuous
 62
     7
370
     0
100
AcDbCircle
 10
7.1877297795
 20
7.1148583064
 30
0.0
 40
0.0520477139306312
100
AcDbArc
 50
65.6418110576
 51
127.2287501216
  0
SPLINE
  5
1CB
330
1F
100
AcDbEntity
  8
0
  6
Continuous
 62
     7
370
     0
100
AcDbSpline
210
0.0
220
0.0
230
1.0
 70
    24
 71
     1
 72
     4
 73
     2
 74
     0
 42
0.00000001
 43
0.00000001
 40
0.0
 40
0.0
 40
1.0
 40
1.0
 10
7.144580875102943
 20
7.147931372355031
 30
0.0
 10
7.156240978980867
 20
7.156300072354536
 30
0.0
  0
SPLINE
  5
1CC
330
1F
100
AcDbEntity
  8
0
  6
Continuous
 62
     7
370
     0
100
AcDbSpline
210
0.0
220
0.0
230
1.0
 70
     8
 71
     3
 72
    12
 73
     8
 74
     0
 42
0.00000001
 43
0.00000001
 40
0.0
 40
0.0
 40
0.0
 40
0.0
 40
0.2503262674180365
 40
0.4997345046006503
 40
0.624900036359948
 40
0.7501600021982615
 40
1.0
 40
1.0
 40
1.0
 40
1.0
 10
7.150045611027515
 20
7.128589539275299
 30
0.0
 10
7.14772591590147
 20
7.129870770518834
 30
0.0
 10
7.143095032748073
 20
7.13242853430196
 30
0.0
 10
7.139900480529108
 20
7.136614554026195
 30
0.0
 10
7.139636559095988
 20
7.140173517117365
 30
0.0
 10
7.140522146803574
 20
7.143771939761395
 30
0.0
 10
7.142958266961431
 20
7.14626850440904
 30
0.0
 10
7.144580875102943
 20
7.147931372355031
 30
0.0
  0
ARC
  5
1CD
330
1F
100
AcDbEntity
  8
0
  6
Continuous
 62
     7
370
     0
100
AcDbCircle
 10
7.173161588
 20
7.1741608556
 30
0.0
 40
0.0510988577179994
100
AcDbArc
 50
243.1036711133
 51
305.3937587395
  0
SPLINE
  5
1CE
330
1F
100
AcDbEntity
  8
0
  6
Continuous
 62
     7
370
     0
100
AcDbSpline
210
0.0
220
0.0
230
1.0
 70
     8
 71
     3
 72
     9
 73
     5
 74
     0
 42
0.00000001
 43
0.00000001
 40
0.0
 40
0.0
 40
0.0
 40
0.0
 40
0.498709290677203
 40
1.0
 40
1.0
 40
1.0
 40
1.0
 10
7.219023451817731
 20
7.146888542588907
 30
0.0
 10
7.217108686419976
 20
7.144205250699149
 30
0.0
 10
7.213269244417293
 20
7.138824777666224
 30
0.0
 10
7.20626754415492
 20
7.13461556922428
 30
0.0
 10
7.202757656863929
 20
7.13250553213873
 30
0.0
  0
SPLINE
  5
1CF
330
1F
100
AcDbEntity
  8
0
  6
Continuous
 62
     7
370
     0
100
AcDbSpline
210
0.0
220
0.0
230
1.0
 70
     8
 71
     3
 72
    11
 73
     7
 74
     0
 42
0.00000001
 43
0.00000001
 40
0.0
 40
0.0
 40
0.0
 40
0.0
 40
0.2504031889031617
 40
0.5003824607867525
 40
0.7500984159891414
 40
1.0
 40
1.0
 40
1.0
 40
1.0
 10
7.209196326031688
 20
7.16227298670443
 30
0.0
 10
7.210958538047662
 20
7.161288193761563
 30
0.0
 10
7.214479978764305
 20
7.15932027506901
 30
0.0
 10
7.218396391797967
 20
7.155620839832737
 30
0.0
 10
7.220135326029848
 20
7.151288756261431
 30
0.0
 10
7.219394168345461
 20
7.148355643737734
 30
0.0
 10
7.219023451817732
 20
7.146888542588907
 30
0.0
  0
LINE
  5
1D0
330
1F
100
AcDbEntity
  8
0
  6
Continuous
 62
     7
370
     0
100
AcDbLine
 10
7.2480872335
 20
7.0831520715
 30
0.0
 11
7.2606797032
 21
7.0904215495
 31
0.0
  0
ARC
  5
1D1
330
1F
100
AcDbEntity
  8
0
  6
Continuous
 62
     7
370
     0
100
AcDbCircle
 10
6.8080515068
 20
6.4948942981
 30
0.0
 40
0.734628238376063
100
AcDbArc
 50
49.0451512274
 51
53.2023302407
  0
LINE
  5
1D2
330
1F
100
AcDbEntity
  8
0
  6
Continuous
 62
     7
370
     0
100
AcDbLine
 10
7.3021664033
 20
7.0569743756
 30
0.0
 11
7.2895739335
 21
7.0497048975
 31
0.0
  0
ARC
  5
1D3
330
1F
100
AcDbEntity
  8
0
  6
Continuous
 62
     7
370
     0
100
AcDbCircle
 10
6.8206439766
 20
6.5021637762
 30
0.0
 40
0.7346282383753411
100
AcDbArc
 50
49.0451512274
 51
53.2023302407
  0
ARC
  5
1D4
330
1F
100
AcDbEntity
  8
0
  6
Continuous
 62
     7
370
     0
100
AcDbCircle
 10
7.3106150911
 20
6.9637343228
 30
0.0
 40
0.0504129796721952
100
AcDbArc
 50
54.1716965319
 51
94.6097210195
  0
LINE
  5
1D5
330
1F
100
AcDbEntity
  8
0
  6
Continuous
 62
     7
370
     0
100
AcDbLine
 10
7.3530615851
 20
7.0120761729
 30
0.0
 11
7.3401247451
 21
7.0046078942
 31
0.0
  0
SPLINE
  5
1D6
330
1F
100
AcDbEntity
  8
0
  6
Continuous
 62
     7
370
     0
100
AcDbSpline
210
0.0
220
0.0
230
1.0
 70
    24
 71
     1
 72
     4
 73
     2
 74
     0
 42
0.00000001
 43
0.00000001
 40
0.0
 40
0.0
 40
1.0
 40
1.0
 10
7.329232655697655
 20
7.022824560860772
 30
0.0
 10
7.353061585123642
 20
7.012076172937443
 30
0.0
  0
LINE
  5
1D7
330
1F
100
AcDbEntity
  8
0
  6
Continuous
 62
     7
370
     0
100
AcDbLine
 10
7.3670789391
 20
7.0446727552
 30
0.0
 11
7.3292326557
 21
7.0228245609
 31
0.0
  0
ARC
  5
1D8
330
1F
100
AcDbEntity
  8
0
  6
Continuous
 62
     7
370
     0
100
AcDbCircle
 10
6.790640798
 20
6.4501851307
 30
0.0
 40
0.8280679116062534
100
AcDbArc
 50
45.8831279934
 51
47.3316469073
  0
LINE
  5
1D9
330
1F
100
AcDbEntity
  8
0
  6
Continuous
 62
     7
370
     0
100
AcDbLine
 10
7.2941044815
 20
7.0257089066
 30
0.0
 11
7.3518668406
 21
7.0590544067
 31
0.0
  0
ARC
  5
1DA
330
1F
100
AcDbEntity
  8
0
  6
Continuous
 62
     7
370
     0
100
AcDbCircle
 10
6.7347075695
 20
6.4187938276
 30
0.0
 40
0.8253913121758217
100
AcDbArc
 50
46.1454461073
 51
47.3330682495
  0
LINE
  5
1DB
330
1F
100
AcDbEntity
  8
0
  6
Continuous
 62
     7
370
     0
100
AcDbLine
 10
7.3923414535
 20
6.9803341881
 30
0.0
 11
7.415552004
 21
6.9937333537
 31
0.0
  0
ARC
  5
1DC
330
1F
100
AcDbEntity
  8
0
  6
Continuous
 62
     7
370
     0
100
AcDbCircle
 10
6.7071953884
 20
6.3776013095
 30
0.0
 40
0.912530576667086
100
AcDbArc
 50
41.3385547221
 51
43.2096327127
  0
LINE
  5
1DD
330
1F
100
AcDbEntity
  8
0
  6
Continuous
 62
     7
370
     0
100
AcDbLine
 10
7.3608289927
 20
6.9957632396
 30
0.0
 11
7.3722965198
 21
7.0023833022
 31
0.0
  0
ARC
  5
1DE
330
1F
100
AcDbEntity
  8
0
  6
Continuous
 62
     7
370
     0
100
AcDbCircle
 10
6.6957278612
 20
6.370981247
 30
0.0
 40
0.9125305766714573
100
AcDbArc
 50
41.3385547221
 51
43.2096327127
  0
LINE
  5
1DF
330
1F
100
AcDbEntity
  8
0
  6
Continuous
 62
     7
370
     0
100
AcDbLine
 10
7.3709560649
 20
6.9679886661
 30
0.0
 11
7.3808739263
 21
6.9737141256
 31
0.0
  0
ARC
  5
1E0
330
1F
100
AcDbEntity
  8
0
  6
Continuous
 62
     7
370
     0
100
AcDbCircle
 10
6.688009744
 20
6.3672375378
 30
0.0
 40
0.9095700057609677
100
AcDbArc
 50
41.3363505639
 51
43.5313250656
  0
LINE
  5
1E1
330
1F
100
AcDbEntity
  8
0
  6
Continuous
 62
     7
370
     0
100
AcDbLine
 10
7.3352439241
 20
6.9866606669
 30
0.0
 11
7.3474461077
 21
6.9937048375
 31
0.0
  0
ARC
  5
1E2
330
1F
100
AcDbEntity
  8
0
  6
Continuous
 62
     7
370
     0
100
AcDbCircle
 10
6.6660959625
 20
6.3512783541
 30
0.0
 40
0.9227511463139247
100
AcDbArc
 50
39.8554441426
 51
43.5173227886
  0
LINE
  5
1E3
330
1F
100
AcDbEntity
  8
0
  6
Continuous
 62
     7
370
     0
100
AcDbLine
 10
7.4312566819
 20
6.9754149184
 30
0.0
 11
7.3744585593
 21
6.9426260601
 31
0.0
  0
ARC
  5
1E4
330
1F
100
AcDbEntity
  8
0
  6
Continuous
 62
     7
370
     0
100
AcDbCircle
 10
6.7085107493
 20
6.3716848004
 30
0.0
 40
0.9417280597115156
100
AcDbArc
 50
39.8729619294
 51
41.3410288103
  0
LINE
  5
1E5
330
1F
100
AcDbEntity
  8
0
  6
Continuous
 62
     7
370
     0
100
AcDbLine
 10
7.0008913939
 20
7.21945734
 30
0.0
 11
7.0116242647
 21
7.2256532945
 31
0.0
  0
ARC
  5
1E6
330
1F
100
AcDbEntity
  8
0
  6
Continuous
 62
     7
370
     0
100
AcDbCircle
 10
7.0931975616
 20
7.0405429487
 30
0.0
 40
0.2013225969218408
100
AcDbArc
 50
113.6196383631
 51
117.2902797081
  0
LINE
  5
1E7
330
1F
100
AcDbEntity
  8
0
  6
Continuous
 62
     7
370
     0
100
AcDbLine
 10
7.0232678974
 20
7.231195791
 30
0.0
 11
7.0125350266
 21
7.2249998365
 31
0.0
  0
ARC
  5
1E8
330
1F
100
AcDbEntity
  8
0
  6
Continuous
 62
     7
370
     0
100
AcDbCircle
 10
7.1039304324
 20
7.0467389031
 30
0.0
 40
0.2013225969236099
100
AcDbArc
 50
113.6196383631
 51
117.2902797081
  0
SPLINE
  5
1E9
330
1F
100
AcDbEntity
  8
0
  6
Continuous
 62
     7
370
     0
100
AcDbSpline
210
0.0
220
0.0
230
1.0
 70
     8
 71
     3
 72
    13
 73
     9
 74
     0
 42
0.00000001
 43
0.00000001
 40
0.0
 40
0.0
 40
0.0
 40
0.0
 40
0.2501705057675923
 40
0.3840880187032062
 40
0.4999102936426256
 40
0.6140227116101705
 40
0.7498213084065534
 40
1.0
 40
1.0
 40
1.0
 40
1.0
 10
7.061455438271032
 20
7.24932890794869
 30
0.0
 10
7.060739531338058
 20
7.248909678883598
 30
0.0
 10
7.059640395871954
 20
7.248266034419995
 30
0.0
 10
7.05861377852955
 20
7.247575358954381
 30
0.0
 10
7.058242293552292
 20
7.247228220908446
 30
0.0
 10
7.058406122802366
 20
7.24712839117869
 30
0.0
 10
7.059091670533561
 20
7.247223527390503
 30
0.0
 10
7.059963317859267
 20
7.2474748865967
 30
0.0
 10
7.06052829303795
 20
7.247637809958302
 30
0.0
  0
SPLINE
  5
1EA
330
1F
100
AcDbEntity
  8
0
  6
Continuous
 62
     7
370
     0
100
AcDbSpline
210
0.0
220
0.0
230
1.0
 70
    24
 71
     1
 72
     4
 73
     2
 74
     0
 42
0.00000001
 43
0.00000001
 40
0.0
 40
0.0
 40
1.0
 40
1.0
 10
7.079529134614694
 20
7.25574422142095
 30
0.0
 10
7.061455438271032
 20
7.24932890794869
 30
0.0
  0
ARC
  5
1EB
330
1F
100
AcDbEntity
  8
0
  6
Continuous
 62
     7
370
     0
100
AcDbCircle
 10
7.0371421831
 20
7.3972937715
 30
0.0
 40
0.1477596995014087
100
AcDbArc
 50
286.6703063695
 51
291.9412430719
  0
SPLINE
  5
1EC
330
1F
100
AcDbEntity
  8
0
  6
Continuous
 62
     7
370
     0
100
AcDbSpline
210
0.0
220
0.0
230
1.0
 70
     8
 71
     3
 72
     9
 73
     5
 74
     0
 42
0.00000001
 43
0.00000001
 40
0.0
 40
0.0
 40
0.0
 40
0.0
 40
0.5006506955429177
 40
1.0
 40
1.0
 40
1.0
 40
1.0
 10
7.10235110032051
 20
7.265150670643727
 30
0.0
 10
7.100856940194661
 20
7.264317155081122
 30
0.0
 10
7.097872503861804
 20
7.262652290595714
 30
0.0
 10
7.094191516194285
 20
7.261041179659657
 30
0.0
 10
7.092353417562793
 20
7.260236672534333
 30
0.0
  0
SPLINE
  5
1ED
330
1F
100
AcDbEntity
  8
0
  6
Continuous
 62
     7
370
     0
100
AcDbSpline
210
0.0
220
0.0
230
1.0
 70
     8
 71
     3
 72
    14
 73
    10
 74
     0
 42
0.00000001
 43
0.00000001
 40
0.0
 40
0.0
 40
0.0
 40
0.0
 40
0.2500047170986382
 40
0.3799563988614781
 40
0.5001514804936117
 40
0.6248780927843604
 40
0.7508658106765946
 40
0.8742378331964121
 40
1.0
 40
1.0
 40
1.0
 40
1.0
 10
7.101848885954062
 20
7.269182933478458
 30
0.0
 10
7.103223402591501
 20
7.26950032128788
 30
0.0
 10
7.105312388742635
 20
7.269982686302869
 30
0.0
 10
7.107061985248468
 20
7.270008949866625
 30
0.0
 10
7.107698804361997
 20
7.269680969840966
 30
0.0
 10
7.107537172791761
 20
7.268987657337446
 30
0.0
 10
7.106644007491461
 20
7.267986207587644
 30
0.0
 10
7.104897281792241
 20
7.266673887379661
 30
0.0
 10
7.103205238520914
 20
7.26566164663507
 30
0.0
 10
7.10235110032051
 20
7.265150670643727
 30
0.0
  0
SPLINE
  5
1EE
330
1F
100
AcDbEntity
  8
0
  6
Continuous
 62
     7
370
     0
100
AcDbSpline
210
0.0
220
0.0
230
1.0
 70
    24
 71
     1
 72
     4
 73
     2
 74
     0
 42
0.00000001
 43
0.00000001
 40
0.0
 40
0.0
 40
1.0
 40
1.0
 10
7.092323315050609
 20
7.266028512383854
 30
0.0
 10
7.101848885954062
 20
7.269182933478458
 30
0.0
  0
SPLINE
  5
1EF
330
1F
100
AcDbEntity
  8
0
  6
Continuous
 62
     7
370
     0
100
AcDbSpline
210
0.0
220
0.0
230
1.0
 70
    24
 71
     1
 72
     4
 73
     2
 74
     0
 42
0.00000001
 43
0.00000001
 40
0.0
 40
0.0
 40
1.0
 40
1.0
 10
7.083188249633718
 20
7.262052506209567
 30
0.0
 10
7.092323315050609
 20
7.266028512383854
 30
0.0
  0
SPLINE
  5
1F0
330
1F
100
AcDbEntity
  8
0
  6
Continuous
 62
     7
370
     0
100
AcDbSpline
210
0.0
220
0.0
230
1.0
 70
     8
 71
     3
 72
     9
 73
     5
 74
     0
 42
0.00000001
 43
0.00000001
 40
0.0
 40
0.0
 40
0.0
 40
0.0
 40
0.4998463205888289
 40
1.0
 40
1.0
 40
1.0
 40
1.0
 10
7.086881691874616
 20
7.264519708835025
 30
0.0
 10
7.086436422743645
 20
7.264177826351139
 30
0.0
 10
7.08554561068276
 20
7.263493851157554
 30
0.0
 10
7.083974197645952
 20
7.262533052962163
 30
0.0
 10
7.083188249633718
 20
7.262052506209567
 30
0.0
  0
ARC
  5
1F1
330
1F
100
AcDbEntity
  8
0
  6
Continuous
 62
     7
370
     0
100
AcDbCircle
 10
7.1518412701
 20
7.0688609308
 30
0.0
 40
0.2061603847461541
100
AcDbArc
 50
108.366394275
 51
111.7583188277
  0
SPLINE
  5
1F2
330
1F
100
AcDbEntity
  8
0
  6
Continuous
 62
     7
370
     0
100
AcDbSpline
210
0.0
220
0.0
230
1.0
 70
     8
 71
     3
 72
     9
 73
     5
 74
     0
 42
0.00000001
 43
0.00000001
 40
0.0
 40
0.0
 40
0.0
 40
0.0
 40
0.5000572978128607
 40
1.0
 40
1.0
 40
1.0
 40
1.0
 10
7.068171278268497
 20
7.255873536223934
 30
0.0
 10
7.069689028040443
 20
7.256752550331464
 30
0.0
 10
7.072724179769226
 20
7.258510377107266
 30
0.0
 10
7.074520932104083
 20
7.259725886647278
 30
0.0
 10
7.075419205321532
 20
7.260333571771246
 30
0.0
  0
LINE
  5
1F3
330
1F
100
AcDbEntity
  8
0
  6
Continuous
 62
     7
370
     0
100
AcDbLine
 10
7.0500000115
 20
7.2453834872
 30
0.0
 11
7.0681712783
 21
7.2558735362
 31
0.0
  0
ARC
  5
1F4
330
1F
100
AcDbEntity
  8
0
  6
Continuous
 62
     7
370
     0
100
AcDbCircle
 10
7.0643545531
 20
7.2153638805
 30
0.0
 40
0.0332750605421966
100
AcDbArc
 50
115.5558307941
 51
131.5189244662
  0
ARC
  5
1F5
330
1F
100
AcDbEntity
  8
0
  6
Continuous
 62
     7
370
     0
100
AcDbCircle
 10
7.0432217789
 20
7.2601833514
 30
0.0
 40
0.0199266506884192
100
AcDbArc
 50
267.3417250526
 51
298.7374010737
  0
SPLINE
  5
1F6
330
1F
100
AcDbEntity
  8
0
  6
Continuous
 62
     7
370
     0
100
AcDbSpline
210
0.0
220
0.0
230
1.0
 70
     8
 71
     3
 72
     9
 73
     5
 74
     0
 42
0.00000001
 43
0.00000001
 40
0.0
 40
0.0
 40
0.0
 40
0.0
 40
0.4989850375674144
 40
1.0
 40
1.0
 40
1.0
 40
1.0
 10
7.066798968056698
 20
7.247133001227231
 30
0.0
 10
7.064128360314306
 20
7.246229973470302
 30
0.0
 10
7.058776280509643
 20
7.24442024434229
 30
0.0
 10
7.054796407999363
 20
7.243281529590336
 30
0.0
 10
7.05280243232314
 20
7.242711016461664
 30
0.0
  0
ARC
  5
1F7
330
1F
100
AcDbEntity
  8
0
  6
Continuous
 62
     7
370
     0
100
AcDbCircle
 10
7.0228297556
 20
7.367482222
 30
0.0
 40
0.1281297255977534
100
AcDbArc
 50
290.0696184825
 51
297.9048405041
  0
SPLINE
  5
1F8
330
1F
100
AcDbEntity
  8
0
  6
Continuous
 62
     7
370
     0
100
AcDbSpline
210
0.0
220
0.0
230
1.0
 70
    24
 71
     1
 72
     4
 73
     2
 74
     0
 42
0.00000001
 43
0.00000001
 40
0.0
 40
0.0
 40
1.0
 40
1.0
 10
7.072045895975811
 20
7.252314544301969
 30
0.0
 10
7.082795040612184
 20
7.254250639933299
 30
0.0
  0
SPLINE
  5
1F9
330
1F
100
AcDbEntity
  8
0
  6
Continuous
 62
     7
370
     0
100
AcDbSpline
210
0.0
220
0.0
230
1.0
 70
     8
 71
     3
 72
     9
 73
     5
 74
     0
 42
0.00000001
 43
0.00000001
 40
0.0
 40
0.0
 40
0.0
 40
0.0
 40
0.4984185104768178
 40
0.9999999999999999
 40
0.9999999999999999
 40
0.9999999999999999
 40
0.9999999999999999
 10
7.066422239503596
 20
7.249679371826306
 30
0.0
 10
7.067375836006291
 20
7.250093441249054
 30
0.0
 10
7.069289080564126
 20
7.250924207791718
 30
0.0
 10
7.071125021824004
 20
7.251850122582191
 30
0.0
 10
7.072045895975811
 20
7.252314544301969
 30
0.0
  0
SPLINE
  5
1FA
330
1F
100
AcDbEntity
  8
0
  6
Continuous
 62
     7
370
     0
100
AcDbSpline
210
0.0
220
0.0
230
1.0
 70
     8
 71
     3
 72
     9
 73
     5
 74
     0
 42
0.00000001
 43
0.00000001
 40
0.0
 40
0.0
 40
0.0
 40
0.0
 40
0.5011984280361902
 40
1.0
 40
1.0
 40
1.0
 40
1.0
 10
7.06052829303795
 20
7.247637809958302
 30
0.0
 10
7.061349346647654
 20
7.247882753670907
 30
0.0
 10
7.062987527383613
 20
7.248371469714098
 30
0.0
 10
7.065279166373211
 20
7.249244101646619
 30
0.0
 10
7.066422239503596
 20
7.249679371826305
 30
0.0
  0
LINE
  5
1FB
330
1F
100
AcDbEntity
  8
0
  6
Continuous
 62
     7
370
     0
100
AcDbLine
 10
7.1718459208
 20
7.2500390362
 30
0.0
 11
7.1521594252
 21
7.2386742642
 31
0.0
  0
SPLINE
  5
1FC
330
1F
100
AcDbEntity
  8
0
  6
Continuous
 62
     7
370
     0
100
AcDbSpline
210
0.0
220
0.0
230
1.0
 70
     8
 71
     3
 72
    11
 73
     7
 74
     0
 42
0.00000001
 43
0.00000001
 40
0.0
 40
0.0
 40
0.0
 40
0.0
 40
0.4988199337615891
 40
0.7491888849042879
 40
0.874569610245081
 40
1.0
 40
1.0
 40
1.0
 40
1.0
 10
7.178272060241377
 20
7.245007049061083
 30
0.0
 10
7.176331770853336
 20
7.245551530016127
 30
0.0
 10
7.173417606553495
 20
7.246369298216538
 30
0.0
 10
7.172070770412591
 20
7.248074421341575
 30
0.0
 10
7.171775943922738
 20
7.249161135885199
 30
0.0
 10
7.171822592090661
 20
7.249746364110296
 30
0.0
 10
7.171845920793145
 20
7.250039036164886
 30
0.0
  0
ARC
  5
1FD
330
1F
100
AcDbEntity
  8
0
  6
Continuous
 62
     7
370
     0
100
AcDbCircle
 10
7.1860566174
 20
7.2996582103
 30
0.0
 40
0.0552027966278023
100
AcDbArc
 50
261.89327447
 51
302.8302894549
  0
SPLINE
  5
1FE
330
1F
100
AcDbEntity
  8
0
  6
Continuous
 62
     7
370
     0
100
AcDbSpline
210
0.0
220
0.0
230
1.0
 70
     8
 71
     3
 72
    13
 73
     9
 74
     0
 42
0.00000001
 43
0.00000001
 40
0.0
 40
0.0
 40
0.0
 40
0.0
 40
0.1251722017704562
 40
0.2501710903368899
 40
0.375163004324203
 40
0.5002554073255661
 40
0.7499099807477145
 40
0.9999999999999999
 40
0.9999999999999999
 40
0.9999999999999999
 40
0.9999999999999999
 10
7.221348966455227
 20
7.269814647682804
 30
0.0
 10
7.222527595833734
 20
7.269510159881667
 30
0.0
 10
7.224883222662643
 20
7.268901605872653
 30
0.0
 10
7.227163268325104
 20
7.267329609479201
 30
0.0
 10
7.227945495413659
 20
7.265261514996242
 30
0.0
 10
7.226927835391582
 20
7.262112857048622
 30
0.0
 10
7.223378342824851
 20
7.257922285612076
 30
0.0
 10
7.218450846565465
 20
7.254823260760289
 30
0.0
 10
7.21598495168148
 20
7.253272398187271
 30
0.0
  0
ARC
  5
1FF
330
1F
100
AcDbEntity
  8
0
  6
Continuous
 62
     7
370
     0
100
AcDbCircle
 10
7.2155143618
 20
7.2398213636
 30
0.0
 40
0.0305555183423223
100
AcDbArc
 50
78.9917154682
 51
95.9419652618
  0
SPLINE
  5
200
330
1F
100
AcDbEntity
  8
0
  6
Continuous
 62
     7
370
     0
100
AcDbSpline
210
0.0
220
0.0
230
1.0
 70
    24
 71
     1
 72
     4
 73
     2
 74
     0
 42
0.00000001
 43
0.00000001
 40
0.0
 40
0.0
 40
1.0
 40
1.0
 10
7.201769338695992
 20
7.268139248585443
 30
0.0
 10
7.21235122214871
 20
7.270212715140251
 30
0.0
  0
LINE
  5
201
330
1F
100
AcDbEntity
  8
0
  6
Continuous
 62
     7
370
     0
100
AcDbLine
 10
7.207853212
 20
7.2716513939
 30
0.0
 11
7.2017693387
 21
7.2681392486
 31
0.0
  0
ARC
  5
202
330
1F
100
AcDbEntity
  8
0
  6
Continuous
 62
     7
370
     0
100
AcDbCircle
 10
7.1559285015
 20
6.9642516049
 30
0.0
 40
0.3117543998313307
100
AcDbArc
 50
80.4123354318
 51
82.978883638
  0
LINE
  5
203
330
1F
100
AcDbEntity
  8
0
  6
Continuous
 62
     7
370
     0
100
AcDbLine
 10
7.137237721
 20
7.240879353
 30
0.0
 11
7.1940358436
 21
7.2736682113
 31
0.0
  0
ARC
  5
204
330
1F
100
AcDbEntity
  8
0
  6
Continuous
 62
     7
370
     0
100
AcDbCircle
 10
7.0990302338
 20
6.9307418922
 30
0.0
 40
0.3124820901302326
100
AcDbArc
 50
80.2108345625
 51
82.9768152994
  0
ARC
  5
205
330
1F
100
AcDbEntity
  8
0
  6
Continuous
 62
     7
370
     0
100
AcDbCircle
 10
7.2417196066
 20
7.2843121111
 30
0.0
 40
0.0549663106365942
100
AcDbArc
 50
250.9196898574
 51
298.8427609642
  0
SPLINE
  5
206
330
1F
100
AcDbEntity
  8
0
  6
Continuous
 62
     7
370
     0
100
AcDbSpline
210
0.0
220
0.0
230
1.0
 70
     8
 71
     3
 72
    13
 73
     9
 74
     0
 42
0.00000001
 43
0.00000001
 40
0.0
 40
0.0
 40
0.0
 40
0.0
 40
0.2502092620005176
 40
0.3753081960891662
 40
0.5003750810855451
 40
0.6255355602287018
 40
0.7507183164374148
 40
1.0
 40
1.0
 40
1.0
 40
1.0
 10
7.266290482615138
 20
7.25734817387775
 30
0.0
 10
7.269159338276419
 20
7.256234588492291
 30
0.0
 10
7.273462556448547
 20
7.254564235768868
 30
0.0
 10
7.277111411780927
 20
7.251248964520725
 30
0.0
 10
7.278124240491503
 20
7.24827931602037
 30
0.0
 10
7.277561184044877
 20
7.245117558603756
 30
0.0
 10
7.275210585872063
 20
7.240837324994768
 30
0.0
 10
7.271023272149639
 20
7.238032031294144
 30
0.0
 10
7.268235769509955
 20
7.2361645419886
 30
0.0
  0
ARC
  5
207
330
1F
100
AcDbEntity
  8
0
  6
Continuous
 62
     7
370
     0
100
AcDbCircle
 10
7.2488228163
 20
7.2070466263
 30
0.0
 40
0.0532481460200071
100
AcDbArc
 50
70.8499808289
 51
108.1339998085
  0
SPLINE
  5
208
330
1F
100
AcDbEntity
  8
0
  6
Continuous
 62
     7
370
     0
100
AcDbSpline
210
0.0
220
0.0
230
1.0
 70
    24
 71
     1
 72
     4
 73
     2
 74
     0
 42
0.00000001
 43
0.00000001
 40
0.0
 40
0.0
 40
1.0
 40
1.0
 10
7.245928219675811
 20
7.252281952472561
 30
0.0
 10
7.232249841003092
 20
7.257650001146952
 30
0.0
  0
SPLINE
  5
209
330
1F
100
AcDbEntity
  8
0
  6
Continuous
 62
     7
370
     0
100
AcDbSpline
210
0.0
220
0.0
230
1.0
 70
    24
 71
     1
 72
     4
 73
     2
 74
     0
 42
0.00000001
 43
0.00000001
 40
0.0
 40
0.0
 40
1.0
 40
1.0
 10
7.251203487164192
 20
7.252904060114973
 30
0.0
 10
7.245928219675811
 20
7.252281952472561
 30
0.0
  0
SPLINE
  5
20A
330
1F
100
AcDbEntity
  8
0
  6
Continuous
 62
     7
370
     0
100
AcDbSpline
210
0.0
220
0.0
230
1.0
 70
     8
 71
     3
 72
     9
 73
     5
 74
     0
 42
0.00000001
 43
0.00000001
 40
0.0
 40
0.0
 40
0.0
 40
0.0
 40
0.4998133900792385
 40
1.0
 40
1.0
 40
1.0
 40
1.0
 10
7.256689401589316
 20
7.252116378342641
 30
0.0
 10
7.255881250060622
 20
7.252346230609597
 30
0.0
 10
7.254264343541641
 20
7.252806106778421
 30
0.0
 10
7.252224026452282
 20
7.252871400879771
 30
0.0
 10
7.251203487164192
 20
7.252904060114973
 30
0.0
  0
SPLINE
  5
20B
330
1F
100
AcDbEntity
  8
0
  6
Continuous
 62
     7
370
     0
100
AcDbSpline
210
0.0
220
0.0
230
1.0
 70
     8
 71
     3
 72
    10
 73
     6
 74
     0
 42
0.00000001
 43
0.00000001
 40
0.0
 40
0.0
 40
0.0
 40
0.0
 40
0.2506462839715375
 40
0.5011586610055281
 40
1.0
 40
1.0
 40
1.0
 40
1.0
 10
7.259872866696718
 20
7.24851343307498
 30
0.0
 10
7.25989661891502
 20
7.248886018298555
 30
0.0
 10
7.25994411066208
 20
7.249630989693298
 30
0.0
 10
7.259196594922966
 20
7.250997194172542
 30
0.0
 10
7.257691401777222
 20
7.251669096222954
 30
0.0
 10
7.256689401589316
 20
7.252116378342641
 30
0.0
  0
SPLINE
  5
20C
330
1F
100
AcDbEntity
  8
0
  6
Continuous
 62
     7
370
     0
100
AcDbSpline
210
0.0
220
0.0
230
1.0
 70
     8
 71
     3
 72
     9
 73
     5
 74
     0
 42
0.00000001
 43
0.00000001
 40
0.0
 40
0.0
 40
0.0
 40
0.0
 40
0.5011623542816153
 40
1.0
 40
1.0
 40
1.0
 40
1.0
 10
7.256245378255218
 20
7.244520210336369
 30
0.0
 10
7.257133405168364
 20
7.245157279685108
 30
0.0
 10
7.258905339763131
 20
7.246428463251263
 30
0.0
 10
7.259550857932727
 20
7.247819521068415
 30
0.0
 10
7.259872866696718
 20
7.24851343307498
 30
0.0
  0
ARC
  5
20D
330
1F
100
AcDbEntity
  8
0
  6
Continuous
 62
     7
370
     0
100
AcDbCircle
 10
7.1199445105
 20
6.8727793688
 30
0.0
 40
0.395940879247611
100
AcDbArc
 50
69.8642546218
 51
74.55467746
  0
LINE
  5
20E
330
1F
100
AcDbEntity
  8
0
  6
Continuous
 62
     7
370
     0
100
AcDbLine
 10
7.22360023
 20
7.2533870956
 30
0.0
 11
7.225390955
 21
7.2544208592
 31
0.0
  0
SPLINE
  5
20F
330
1F
100
AcDbEntity
  8
0
  6
Continuous
 62
     7
370
     0
100
AcDbSpline
210
0.0
220
0.0
230
1.0
 70
     8
 71
     3
 72
    13
 73
     9
 74
     0
 42
0.00000001
 43
0.00000001
 40
0.0
 40
0.0
 40
0.0
 40
0.0
 40
0.2500649107442988
 40
0.3783596976323363
 40
0.500102515705141
 40
0.6229520872477893
 40
0.7501470080802288
 40
0.9999999999999999
 40
0.9999999999999999
 40
0.9999999999999999
 40
0.9999999999999999
 10
7.223751496383622
 20
7.232365577754273
 30
0.0
 10
7.220674427049599
 20
7.233521122118217
 30
0.0
 10
7.216018679790417
 20
7.235269513825158
 30
0.0
 10
7.212351517146503
 20
7.238468241010736
 30
0.0
 10
7.211365971854138
 20
7.241278988029553
 30
0.0
 10
7.212240913066006
 20
7.244335998160986
 30
0.0
 10
7.215776317432102
 20
7.248534859966258
 30
0.0
 10
7.220481989244558
 20
7.251453224445169
 30
0.0
 10
7.223600230034574
 20
7.253387095637414
 30
0.0
  0
ARC
  5
210
330
1F
100
AcDbEntity
  8
0
  6
Continuous
 62
     7
370
     0
100
AcDbCircle
 10
7.3478112706
 20
7.2041772502
 30
0.0
 40
0.0189946453526735
100
AcDbArc
 50
240.6874191979
 51
304.471657479
  0
SPLINE
  5
211
330
1F
100
AcDbEntity
  8
0
  6
Continuous
 62
     7
370
     0
100
AcDbSpline
210
0.0
220
0.0
230
1.0
 70
     8
 71
     3
 72
    12
 73
     8
 74
     0
 42
0.00000001
 43
0.00000001
 40
0.0
 40
0.0
 40
0.0
 40
0.0
 40
0.2499205863331108
 40
0.3770821376026038
 40
0.5003335730960247
 40
0.7497132612424487
 40
1.0
 40
1.0
 40
1.0
 40
1.0
 10
7.336348329977467
 20
7.19533953774503
 30
0.0
 10
7.335821261684691
 20
7.194714827241635
 30
0.0
 10
7.335026016917469
 20
7.193772259142467
 30
0.0
 10
7.334744615432186
 20
7.192366554909299
 30
0.0
 10
7.334932495563215
 20
7.190952290926311
 30
0.0
 10
7.336128752132047
 20
7.189259932577098
 30
0.0
 10
7.337716614864195
 20
7.188163737607414
 30
0.0
 10
7.338511987463644
 20
7.187614645154467
 30
0.0
  0
SPLINE
  5
212
330
1F
100
AcDbEntity
  8
0
  6
Continuous
 62
     7
370
     0
100
AcDbSpline
210
0.0
220
0.0
230
1.0
 70
    24
 71
     1
 72
     4
 73
     2
 74
     0
 42
0.00000001
 43
0.00000001
 40
0.0
 40
0.0
 40
1.0
 40
1.0
 10
7.319545072576549
 20
7.202982841579335
 30
0.0
 10
7.336348329977467
 20
7.19533953774503
 30
0.0
  0
SPLINE
  5
213
330
1F
100
AcDbEntity
  8
0
  6
Continuous
 62
     7
370
     0
100
AcDbSpline
210
0.0
220
0.0
230
1.0
 70
     8
 71
     3
 72
    12
 73
     8
 74
     0
 42
0.00000001
 43
0.00000001
 40
0.0
 40
0.0
 40
0.0
 40
0.0
 40
0.2504931653223363
 40
0.5001218721704489
 40
0.6252456824059359
 40
0.7504040889272295
 40
1.0
 40
1.0
 40
1.0
 40
1.0
 10
7.328168859437425
 20
7.181088387869185
 30
0.0
 10
7.325829419301751
 20
7.182660756575005
 30
0.0
 10
7.321158612499587
 20
7.185800067701059
 30
0.0
 10
7.316990784452216
 20
7.190411808691312
 30
0.0
 10
7.315847463783265
 20
7.19439073551481
 30
0.0
 10
7.316089691780181
 20
7.198409494866501
 30
0.0
 10
7.318163718204637
 20
7.201154559011266
 30
0.0
 10
7.319545072576549
 20
7.202982841579335
 30
0.0
  0
SPLINE
  5
214
330
1F
100
AcDbEntity
  8
0
  6
Continuous
 62
     7
370
     0
100
AcDbSpline
210
0.0
220
0.0
230
1.0
 70
    24
 71
     1
 72
     4
 73
     2
 74
     0
 42
0.00000001
 43
0.00000001
 40
0.0
 40
0.0
 40
1.0
 40
1.0
 10
7.341850890755012
 20
7.174516389917871
 30
0.0
 10
7.328168859437425
 20
7.181088387869185
 30
0.0
  0
SPLINE
  5
215
330
1F
100
AcDbEntity
  8
0
  6
Continuous
 62
     7
370
     0
100
AcDbSpline
210
0.0
220
0.0
230
1.0
 70
     8
 71
     3
 72
     9
 73
     5
 74
     0
 42
0.00000001
 43
0.00000001
 40
0.0
 40
0.0
 40
0.0
 40
0.0
 40
0.4972076014201789
 40
1.0
 40
1.0
 40
1.0
 40
1.0
 10
7.361027102708167
 20
7.173064529882825
 30
0.0
 10
7.357816657615618
 20
7.172816353161113
 30
0.0
 10
7.351359706669212
 20
7.172317212116197
 30
0.0
 10
7.345032275200178
 20
7.173780606397238
 30
0.0
 10
7.341850890755012
 20
7.174516389917871
 30
0.0
  0
SPLINE
  5
216
330
1F
100
AcDbEntity
  8
0
  6
Continuous
 62
     7
370
     0
100
AcDbSpline
210
0.0
220
0.0
230
1.0
 70
     8
 71
     3
 72
     9
 73
     5
 74
     0
 42
0.00000001
 43
0.00000001
 40
0.0
 40
0.0
 40
0.0
 40
0.0
 40
0.5005315226334712
 40
1.0
 40
1.0
 40
1.0
 40
1.0
 10
7.373768741944917
 20
7.177670560087204
 30
0.0
 10
7.371888725783961
 20
7.176649936825322
 30
0.0
 10
7.368132686302043
 20
7.174610857934721
 30
0.0
 10
7.363393951409559
 20
7.1735796071447
 30
0.0
 10
7.361027102708167
 20
7.173064529882825
 30
0.0
  0
SPLINE
  5
217
330
1F
100
AcDbEntity
  8
0
  6
Continuous
 62
     7
370
     0
100
AcDbSpline
210
0.0
220
0.0
230
1.0
 70
     8
 71
     3
 72
    14
 73
    10
 74
     0
 42
0.00000001
 43
0.00000001
 40
0.0
 40
0.0
 40
0.0
 40
0.0
 40
0.2500796953166571
 40
0.3795939076695676
 40
0.5000103126991291
 40
0.6249779831586076
 40
0.7499325412132982
 40
0.8625387534423492
 40
1.0
 40
1.0
 40
1.0
 40
1.0
 10
7.370080000173602
 20
7.206642681767992
 30
0.0
 10
7.373130807140284
 20
7.204579060368527
 30
0.0
 10
7.377761601881783
 20
7.20144670646038
 30
0.0
 10
7.381910839253991
 20
7.196357003446345
 30
0.0
 10
7.383470307949918
 20
7.192199076676387
 30
0.0
 10
7.38333937382254
 20
7.188035052343962
 30
0.0
 10
7.381836706776493
 20
7.184107565117822
 30
0.0
 10
7.378463003516095
 20
7.180598954486493
 30
0.0
 10
7.375433854847119
 20
7.178709297963876
 30
0.0
 10
7.373768741944917
 20
7.177670560087204
 30
0.0
  0
ARC
  5
218
330
1F
100
AcDbEntity
  8
0
  6
Continuous
 62
     7
370
     0
100
AcDbCircle
 10
7.3465000164
 20
7.170743194
 30
0.0
 40
0.0429510052966457
100
AcDbArc
 50
56.7017527112
 51
109.3244670295
  0
SPLINE
  5
219
330
1F
100
AcDbEntity
  8
0
  6
Continuous
 62
     7
370
     0
100
AcDbSpline
210
0.0
220
0.0
230
1.0
 70
    24
 71
     1
 72
     4
 73
     2
 74
     0
 42
0.00000001
 43
0.00000001
 40
0.0
 40
0.0
 40
1.0
 40
1.0
 10
7.345566260649883
 20
7.201438485292988
 30
0.0
 10
7.332286781638376
 20
7.211274327906028
 30
0.0
  0
ARC
  5
21A
330
1F
100
AcDbEntity
  8
0
  6
Continuous
 62
     7
370
     0
100
AcDbCircle
 10
7.3514098169
 20
7.1847567146
 30
0.0
 40
0.017675650589174
100
AcDbArc
 50
59.419850314
 51
109.305149574
  0
SPLINE
  5
21B
330
1F
100
AcDbEntity
  8
0
  6
Continuous
 62
     7
370
     0
100
AcDbSpline
210
0.0
220
0.0
230
1.0
 70
     8
 71
     3
 72
    14
 73
    10
 74
     0
 42
0.00000001
 43
0.00000001
 40
0.0
 40
0.0
 40
0.0
 40
0.0
 40
0.2499126333276223
 40
0.3788826256955477
 40
0.5000564188320503
 40
0.6248407341136442
 40
0.7500055571874905
 40
0.8749218735121519
 40
1.0
 40
1.0
 40
1.0
 40
1.0
 10
7.358562211276557
 20
7.188517945437691
 30
0.0
 10
7.35977135351953
 20
7.189284674187361
 30
0.0
 10
7.361604486089731
 20
7.190447081217384
 30
0.0
 10
7.363200886217291
 20
7.192366534138412
 30
0.0
 10
7.363881340666897
 20
7.193939678123001
 30
0.0
 10
7.363947863989725
 20
7.195572872054881
 30
0.0
 10
7.363382510913334
 20
7.197199139713888
 30
0.0
 10
7.362201956661368
 20
7.198720380505131
 30
0.0
 10
7.361002366740765
 20
7.199555950723701
 30
0.0
 10
7.360402183560152
 20
7.199974006246503
 30
0.0
  0
SPLINE
  5
21C
330
1F
100
AcDbEntity
  8
0
  6
Continuous
 62
     7
370
     0
100
AcDbSpline
210
0.0
220
0.0
230
1.0
 70
     8
 71
     3
 72
    13
 73
     9
 74
     0
 42
0.00000001
 43
0.00000001
 40
0.0
 40
0.0
 40
0.0
 40
0.0
 40
0.2501705057671301
 40
0.3840880187004955
 40
0.4999102936419232
 40
0.6140227116298607
 40
0.74982130840701
 40
0.9999999999999999
 40
0.9999999999999999
 40
0.9999999999999999
 40
0.9999999999999999
 10
7.423957610911574
 20
7.128857365923605
 30
0.0
 10
7.423247065265578
 20
7.12840594273504
 30
0.0
 10
7.422156161009978
 20
7.127712870473946
 30
0.0
 10
7.421216545675422
 20
7.126496827093216
 30
0.0
 10
7.420961048357499
 20
7.125445503858819
 30
0.0
 10
7.421290726845215
 20
7.124329929951056
 30
0.0
 10
7.422225813602637
 20
7.122881444845589
 30
0.0
 10
7.42329307308471
 20
7.121892234836184
 30
0.0
 10
7.423984838089699
 20
7.121251059115953
 30
0.0
  0
SPLINE
  5
21D
330
1F
100
AcDbEntity
  8
0
  6
Continuous
 62
     7
370
     0
100
AcDbSpline
210
0.0
220
0.0
230
1.0
 70
    24
 71
     1
 72
     4
 73
     2
 74
     0
 42
0.00000001
 43
0.00000001
 40
0.0
 40
0.0
 40
1.0
 40
1.0
 10
7.444834222003131
 20
7.116722883473622
 30
0.0
 10
7.423957610911574
 20
7.128857365923605
 30
0.0
  0
ARC
  5
21E
330
1F
100
AcDbEntity
  8
0
  6
Continuous
 62
     7
370
     0
100
AcDbCircle
 10
7.4663872911
 20
7.1455146833
 30
0.0
 40
0.0359652961604723
100
AcDbArc
 50
233.1820761407
 51
258.216001098
  0
SPLINE
  5
21F
330
1F
100
AcDbEntity
  8
0
  6
Continuous
 62
     7
370
     0
100
AcDbSpline
210
0.0
220
0.0
230
1.0
 70
     8
 71
     3
 72
     9
 73
     5
 74
     0
 42
0.00000001
 43
0.00000001
 40
0.0
 40
0.0
 40
0.0
 40
0.0
 40
0.5006506955429246
 40
1.0
 40
1.0
 40
1.0
 40
1.0
 10
7.469379578772421
 20
7.112274478953544
 30
0.0
 10
7.46787511411937
 20
7.111536097670689
 30
0.0
 10
7.464870095517691
 20
7.1100612544528
 30
0.0
 10
7.460983253865284
 20
7.110225406150061
 30
0.0
 10
7.45904236218962
 20
7.110307375185915
 30
0.0
  0
SPLINE
  5
220
330
1F
100
AcDbEntity
  8
0
  6
Continuous
 62
     7
370
     0
100
AcDbSpline
210
0.0
220
0.0
230
1.0
 70
     8
 71
     3
 72
    14
 73
    10
 74
     0
 42
0.00000001
 43
0.00000001
 40
0.0
 40
0.0
 40
0.0
 40
0.0
 40
0.2500047170986364
 40
0.3799563988559124
 40
0.5001514804936464
 40
0.6248780927813876
 40
0.750865810673771
 40
0.8742378331960942
 40
1.0
 40
1.0
 40
1.0
 40
1.0
 10
7.466841360807529
 20
7.132429833440209
 30
0.0
 10
7.468481182653076
 20
7.130810691091629
 30
0.0
 10
7.470973378842134
 20
7.128349923538354
 30
0.0
 10
7.473193538859348
 20
7.124678474213825
 30
0.0
 10
7.474142797238253
 20
7.121815251265914
 30
0.0
 10
7.474233959017644
 20
7.119000483481505
 30
0.0
 10
7.47353523117525
 20
7.116321362021088
 30
0.0
 10
7.471905546981549
 20
7.113977446287116
 30
0.0
 10
7.4702269362622
 20
7.112845753809552
 30
0.0
 10
7.469379578772421
 20
7.112274478953542
 30
0.0
  0
SPLINE
  5
221
330
1F
100
AcDbEntity
  8
0
  6
Continuous
 62
     7
370
     0
100
AcDbSpline
210
0.0
220
0.0
230
1.0
 70
    24
 71
     1
 72
     4
 73
     2
 74
     0
 42
0.00000001
 43
0.00000001
 40
0.0
 40
0.0
 40
1.0
 40
1.0
 10
7.455752466403204
 20
7.139816549220592
 30
0.0
 10
7.466841360807529
 20
7.132429833440209
 30
0.0
  0
SPLINE
  5
222
330
1F
100
AcDbEntity
  8
0
  6
Continuous
 62
     7
370
     0
100
AcDbSpline
210
0.0
220
0.0
230
1.0
 70
    24
 71
     1
 72
     4
 73
     2
 74
     0
 42
0.00000001
 43
0.00000001
 40
0.0
 40
0.0
 40
1.0
 40
1.0
 10
7.445529435989565
 20
7.142545798192653
 30
0.0
 10
7.455752466403204
 20
7.139816549220592
 30
0.0
  0
SPLINE
  5
223
330
1F
100
AcDbEntity
  8
0
  6
Continuous
 62
     7
370
     0
100
AcDbSpline
210
0.0
220
0.0
230
1.0
 70
     8
 71
     3
 72
     9
 73
     5
 74
     0
 42
0.00000001
 43
0.00000001
 40
0.0
 40
0.0
 40
0.0
 40
0.0
 40
0.4998463205888254
 40
1.0
 40
1.0
 40
1.0
 40
1.0
 10
7.448906893944303
 20
7.146881486533583
 30
0.0
 10
7.448542536091338
 20
7.146062955426922
 30
0.0
 10
7.447813596339344
 20
7.144425389893388
 30
0.0
 10
7.446290978769472
 20
7.143172457126211
 30
0.0
 10
7.445529435989565
 20
7.142545798192653
 30
0.0
  0
ARC
  5
224
330
1F
100
AcDbEntity
  8
0
  6
Continuous
 62
     7
370
     0
100
AcDbCircle
 10
6.9578794379
 20
6.5733257708
 30
0.0
 40
0.7550325302524195
100
AcDbArc
 50
49.4327985993
 51
50.8603280154
  0
SPLINE
  5
225
330
1F
100
AcDbEntity
  8
0
  6
Continuous
 62
     7
370
     0
100
AcDbSpline
210
0.0
220
0.0
230
1.0
 70
     8
 71
     3
 72
     9
 73
     5
 74
     0
 42
0.00000001
 43
0.00000001
 40
0.0
 40
0.0
 40
0.0
 40
0.0
 40
0.5000572978128757
 40
0.9999999999999999
 40
0.9999999999999999
 40
0.9999999999999999
 40
0.9999999999999999
 10
7.427640644939338
 20
7.152301476627759
 30
0.0
 10
7.429155197233504
 20
7.153198351810113
 30
0.0
 10
7.432183954739473
 20
7.15499189664243
 30
0.0
 10
7.433705231916468
 20
7.157621533910847
 30
0.0
 10
7.43446578333911
 20
7.158936201872591
 30
0.0
  0
LINE
  5
226
330
1F
100
AcDbEntity
  8
0
  6
Continuous
 62
     7
370
     0
100
AcDbLine
 10
7.4094693781
 20
7.1418114276
 30
0.0
 11
7.4276406449
 21
7.1523014766
 31
0.0
  0
ARC
  5
227
330
1F
100
AcDbEntity
  8
0
  6
Continuous
 62
     7
370
     0
100
AcDbCircle
 10
7.414145509
 20
7.13131202
 30
0.0
 40
0.0114936399481769
100
AcDbArc
 50
114.0068011714
 51
176.8940644852
  0
ARC
  5
228
330
1F
100
AcDbEntity
  8
0
  6
Continuous
 62
     7
370
     0
100
AcDbCircle
 10
7.4329694369
 20
7.1412357497
 30
0.0
 40
0.0316960513613367
100
AcDbArc
 50
197.0641848796
 51
238.9153215251
  0
SPLINE
  5
229
330
1F
100
AcDbEntity
  8
0
  6
Continuous
 62
     7
370
     0
100
AcDbSpline
210
0.0
220
0.0
230
1.0
 70
     8
 71
     3
 72
     9
 73
     5
 74
     0
 42
0.00000001
 43
0.00000001
 40
0.0
 40
0.0
 40
0.0
 40
0.0
 40
0.4989850375674087
 40
1.0
 40
1.0
 40
1.0
 40
1.0
 10
7.43275301632897
 20
7.103190397222173
 30
0.0
 10
7.429760153567472
 20
7.10475355836578
 30
0.0
 10
7.423762252756482
 20
7.107886239760852
 30
0.0
 10
7.418993729601299
 20
7.112020007590838
 30
0.0
 10
7.416604628151847
 20
7.114091087124883
 30
0.0
  0
ARC
  5
22A
330
1F
100
AcDbEntity
  8
0
  6
Continuous
 62
     7
370
     0
100
AcDbCircle
 10
7.4418622472
 20
7.1253402624
 30
0.0
 40
0.0239498353346046
100
AcDbArc
 50
247.6448660442
 51
289.0331289391
  0
SPLINE
  5
22B
330
1F
100
AcDbEntity
  8
0
  6
Continuous
 62
     7
370
     0
100
AcDbSpline
210
0.0
220
0.0
230
1.0
 70
    24
 71
     1
 72
     4
 73
     2
 74
     0
 42
0.00000001
 43
0.00000001
 40
0.0
 40
0.0
 40
1.0
 40
1.0
 10
7.43683910485029
 20
7.116976143207051
 30
0.0
 10
7.449672643148121
 20
7.102699760418206
 30
0.0
  0
SPLINE
  5
22C
330
1F
100
AcDbEntity
  8
0
  6
Continuous
 62
     7
370
     0
100
AcDbSpline
210
0.0
220
0.0
230
1.0
 70
     8
 71
     3
 72
     9
 73
     5
 74
     0
 42
0.00000001
 43
0.00000001
 40
0.0
 40
0.0
 40
0.0
 40
0.0
 40
0.4984185104767927
 40
1.0
 40
1.0
 40
1.0
 40
1.0
 10
7.430833837189824
 20
7.116987663849258
 30
0.0
 10
7.43187415294009
 20
7.116804973546095
 30
0.0
 10
7.433961386316057
 20
7.116438433581541
 30
0.0
 10
7.435877844766238
 20
7.116796529115657
 30
0.0
 10
7.43683910485029
 20
7.116976143207051
 30
0.0
  0
SPLINE
  5
22D
330
1F
100
AcDbEntity
  8
0
  6
Continuous
 62
     7
370
     0
100
AcDbSpline
210
0.0
220
0.0
230
1.0
 70
     8
 71
     3
 72
     9
 73
     5
 74
     0
 42
0.00000001
 43
0.00000001
 40
0.0
 40
0.0
 40
0.0
 40
0.0
 40
0.5011984280361881
 40
1.0
 40
1.0
 40
1.0
 40
1.0
 10
7.423984838089699
 20
7.121251059115953
 30
0.0
 10
7.424976528929284
 20
7.120396154331654
 30
0.0
 10
7.426955168095154
 20
7.118690433131273
 30
0.0
 10
7.42954301505717
 20
7.117554345930761
 30
0.0
 10
7.430833837189824
 20
7.116987663849257
 30
0.0
  0
ARC
  5
22E
330
1F
100
AcDbEntity
  8
0
  6
Continuous
 62
     7
370
     0
100
AcDbCircle
 10
7.5387614575
 20
6.9077937918
 30
0.0
 40
0.0420549072883333
100
AcDbArc
 50
42.3395730583
 51
89.5810019653
  0
LINE
  5
22F
330
1F
100
AcDbEntity
  8
0
  6
Continuous
 62
     7
370
     0
100
AcDbLine
 10
7.5827838586
 20
6.9435870263
 30
0.0
 11
7.5698470186
 21
6.9361187476
 31
0.0
  0
SPLINE
  5
230
330
1F
100
AcDbEntity
  8
0
  6
Continuous
 62
     7
370
     0
100
AcDbSpline
210
0.0
220
0.0
230
1.0
 70
    24
 71
     1
 72
     4
 73
     2
 74
     0
 42
0.00000001
 43
0.00000001
 40
0.0
 40
0.0
 40
1.0
 40
1.0
 10
7.56133828639889
 20
6.95802103890017
 30
0.0
 10
7.582783858562372
 20
6.943587026342811
 30
0.0
  0
LINE
  5
231
330
1F
100
AcDbEntity
  8
0
  6
Continuous
 62
     7
370
     0
100
AcDbLine
 10
7.5991845698
 20
6.9798692333
 30
0.0
 11
7.5613382864
 21
6.9580210389
 31
0.0
  0
ARC
  5
232
330
1F
100
AcDbEntity
  8
0
  6
Continuous
 62
     7
370
     0
100
AcDbCircle
 10
6.7754218815
 20
6.3991722365
 30
0.0
 40
1.007866046963939
100
AcDbArc
 50
35.1812487125
 51
36.4519132124
  0
LINE
  5
233
330
1F
100
AcDbEntity
  8
0
  6
Continuous
 62
     7
370
     0
100
AcDbLine
 10
7.5283424189
 20
6.964648254
 30
0.0
 11
7.586104778
 21
6.9979937542
 31
0.0
  0
ARC
  5
234
330
1F
100
AcDbEntity
  8
0
  6
Continuous
 62
     7
370
     0
100
AcDbCircle
 10
6.7186242691
 20
6.3665293906
 30
0.0
 40
1.006672566810013
100
AcDbArc
 50
35.4119911318
 51
36.4523695824
  0
LINE
  5
235
330
1F
100
AcDbEntity
  8
0
  6
Continuous
 62
     7
370
     0
100
AcDbLine
 10
7.5799897417
 20
6.9236845816
 30
0.0
 11
7.5957963333
 21
6.9328095327
 31
0.0
  0
ARC
  5
236
330
1F
100
AcDbEntity
  8
0
  6
Continuous
 62
     7
370
     0
100
AcDbCircle
 10
6.7127335851
 20
6.3607215438
 30
0.0
 40
1.033953878651481
100
AcDbArc
 50
31.6705129072
 51
32.9888603189
  0
LINE
  5
237
330
1F
100
AcDbEntity
  8
0
  6
Continuous
 62
     7
370
     0
100
AcDbLine
 10
7.6085191213
 20
6.9127071401
 30
0.0
 11
7.5927125298
 21
6.9035821891
 31
0.0
  0
ARC
  5
238
330
1F
100
AcDbEntity
  8
0
  6
Continuous
 62
     7
370
     0
100
AcDbCircle
 10
6.7285401766
 20
6.3698464948
 30
0.0
 40
1.033953878670867
100
AcDbArc
 50
31.6705129072
 51
32.9888603189
  0
ARC
  5
239
330
1F
100
AcDbEntity
  8
0
  6
Continuous
 62
     7
370
     0
100
AcDbCircle
 10
7.59714494
 20
6.8184569562
 30
0.0
 40
0.0368632151366528
100
AcDbArc
 50
35.4998846046
 51
87.3825808851
  0
LINE
  5
23A
330
1F
100
AcDbEntity
  8
0
  6
Continuous
 62
     7
370
     0
100
AcDbLine
 10
7.6400927385
 20
6.8473317525
 30
0.0
 11
7.6271558986
 21
6.8398634737
 31
0.0
  0
SPLINE
  5
23B
330
1F
100
AcDbEntity
  8
0
  6
Continuous
 62
     7
370
     0
100
AcDbSpline
210
0.0
220
0.0
230
1.0
 70
    24
 71
     1
 72
     4
 73
     2
 74
     0
 42
0.00000001
 43
0.00000001
 40
0.0
 40
0.0
 40
1.0
 40
1.0
 10
7.62074018234757
 20
6.863190574340264
 30
0.0
 10
7.640092738544864
 20
6.847331752491991
 30
0.0
  0
LINE
  5
23C
330
1F
100
AcDbEntity
  8
0
  6
Continuous
 62
     7
370
     0
100
AcDbLine
 10
7.6585864657
 20
6.8850387687
 30
0.0
 11
7.6207401823
 21
6.8631905743
 31
0.0
  0
ARC
  5
23D
330
1F
100
AcDbEntity
  8
0
  6
Continuous
 62
     7
370
     0
100
AcDbCircle
 10
6.7496217672
 20
6.3818579502
 30
0.0
 40
1.038945503541094
100
AcDbArc
 50
28.9678503481
 51
30.2130451625
  0
LINE
  5
23E
330
1F
100
AcDbEntity
  8
0
  6
Continuous
 62
     7
370
     0
100
AcDbLine
 10
7.5896748156
 20
6.8713271909
 30
0.0
 11
7.6474371748
 21
6.9046726911
 31
0.0
  0
ARC
  5
23F
330
1F
100
AcDbEntity
  8
0
  6
Continuous
 62
     7
370
     0
100
AcDbCircle
 10
6.691773575
 20
6.3484632192
 30
0.0
 40
1.039044450785777
100
AcDbArc
 50
29.1943541388
 51
30.2130093604
  0
LINE
  5
240
330
1F
100
AcDbEntity
  8
0
  6
Continuous
 62
     7
370
     0
100
AcDbLine
 10
7.162212209
 20
7.3120102893
 30
0.0
 11
7.1832073113
 21
7.3241305039
 31
0.0
  0
ARC
  5
241
330
1F
100
AcDbEntity
  8
0
  6
Continuous
 62
     7
370
     0
100
AcDbCircle
 10
7.0311212764
 20
7.5363703251
 30
0.0
 40
0.2598504536287083
100
AcDbArc
 50
296.9420783011
 51
300.2972421012
  0
SPLINE
  5
242
330
1F
100
AcDbEntity
  8
0
  6
Continuous
 62
     7
370
     0
100
AcDbSpline
210
0.0
220
0.0
230
1.0
 70
     8
 71
     3
 72
    11
 73
     7
 74
     0
 42
0.00000001
 43
0.00000001
 40
0.0
 40
0.0
 40
0.0
 40
0.0
 40
0.2494767938097391
 40
0.503530186904657
 40
0.7522417858110803
 40
0.9999999999999999
 40
0.9999999999999999
 40
0.9999999999999999
 40
0.9999999999999999
 10
7.148919123467554
 20
7.304978499817762
 30
0.0
 10
7.1485833146465
 20
7.304777002489448
 30
0.0
 10
7.147905536662236
 20
7.304370311406736
 30
0.0
 10
7.147581736395733
 20
7.304136295716118
 30
0.0
 10
7.147853306704804
 20
7.304227429297731
 30
0.0
 10
7.148522727856013
 20
7.304557844937738
 30
0.0
 10
7.148856795677638
 20
7.304722735504595
 30
0.0
  0
SPLINE
  5
243
330
1F
100
AcDbEntity
  8
0
  6
Continuous
 62
     7
370
     0
100
AcDbSpline
210
0.0
220
0.0
230
1.0
 70
    24
 71
     1
 72
     4
 73
     2
 74
     0
 42
0.00000001
 43
0.00000001
 40
0.0
 40
0.0
 40
1.0
 40
1.0
 10
7.152379705292853
 20
7.306987946721343
 30
0.0
 10
7.148919123467554
 20
7.304978499817762
 30
0.0
  0
LINE
  5
244
330
1F
100
AcDbEntity
  8
0
  6
Continuous
 62
     7
370
     0
100
AcDbLine
 10
7.1750392635
 20
7.3200690312
 30
0.0
 11
7.1523797053
 21
7.3069879467
 31
0.0
  0
SPLINE
  5
245
330
1F
100
AcDbEntity
  8
0
  6
Continuous
 62
     7
370
     0
100
AcDbSpline
210
0.0
220
0.0
230
1.0
 70
     8
 71
     3
 72
    11
 73
     7
 74
     0
 42
0.00000001
 43
0.00000001
 40
0.0
 40
0.0
 40
0.0
 40
0.0
 40
0.4988183325239027
 40
0.7490569579726283
 40
0.8745026418118518
 40
0.9999999999999999
 40
0.9999999999999999
 40
0.9999999999999999
 40
0.9999999999999999
 10
7.14887052765152
 20
7.304219681387293
 30
0.0
 10
7.145433866689707
 20
7.302388560024895
 30
0.0
 10
7.140273160601351
 20
7.299638833104363
 30
0.0
 10
7.135414952209268
 20
7.297081639873173
 30
0.0
 10
7.133078133158236
 20
7.295845759026635
 30
0.0
 10
7.132055633402983
 20
7.295299115926825
 30
0.0
 10
7.131544278248461
 20
7.295025738094374
 30
0.0
  0
LINE
  5
246
330
1F
100
AcDbEntity
  8
0
  6
Continuous
 62
     7
370
     0
100
AcDbLine
 10
7.1428670074
 20
7.3007539229
 30
0.0
 11
7.1488705277
 21
7.3042196814
 31
0.0
  0
ARC
  5
247
330
1F
100
AcDbEntity
  8
0
  6
Continuous
 62
     7
370
     0
100
AcDbCircle
 10
7.2282457482
 20
7.1166805797
 30
0.0
 40
0.202910140380082
100
AcDbArc
 50
111.471190384
 51
114.8832853879
  0
LINE
  5
248
330
1F
100
AcDbEntity
  8
0
  6
Continuous
 62
     7
370
     0
100
AcDbLine
 10
7.1951146289
 20
7.3292591627
 30
0.0
 11
7.1539738708
 21
7.3055091085
 31
0.0
  0
ARC
  5
249
330
1F
100
AcDbEntity
  8
0
  6
Continuous
 62
     7
370
     0
100
AcDbCircle
 10
7.2693483175
 20
7.1405221396
 30
0.0
 40
0.2028110066098444
100
AcDbArc
 50
111.4706127976
 51
115.1339138171
  0
ARC
  5
24A
330
1F
100
AcDbEntity
  8
0
  6
Continuous
 62
     7
370
     0
100
AcDbCircle
 10
7.2818806587
 20
7.2272782995
 30
0.0
 40
0.1184129336467592
100
AcDbArc
 50
97.9479485129
 51
124.0142544518
  0
SPLINE
  5
24B
330
1F
100
AcDbEntity
  8
0
  6
Continuous
 62
     7
370
     0
100
AcDbSpline
210
0.0
220
0.0
230
1.0
 70
    24
 71
     1
 72
     4
 73
     2
 74
     0
 42
0.00000001
 43
0.00000001
 40
0.0
 40
0.0
 40
1.0
 40
1.0
 10
7.203751255561564
 20
7.317968078473718
 30
0.0
 10
7.215640565480984
 20
7.32543059396945
 30
0.0
  0
SPLINE
  5
24C
330
1F
100
AcDbEntity
  8
0
  6
Continuous
 62
     7
370
     0
100
AcDbSpline
210
0.0
220
0.0
230
1.0
 70
     8
 71
     3
 72
    12
 73
     8
 74
     0
 42
0.00000001
 43
0.00000001
 40
0.0
 40
0.0
 40
0.0
 40
0.0
 40
0.2503262674180358
 40
0.4997345046006523
 40
0.6249000363599437
 40
0.7501600021982632
 40
1.0
 40
1.0
 40
1.0
 40
1.0
 10
7.20640816639022
 20
7.310631142636915
 30
0.0
 10
7.204387435686725
 20
7.310550686385392
 30
0.0
 10
7.200353384975797
 20
7.310390068942356
 30
0.0
 10
7.197918499744615
 20
7.311349012406081
 30
0.0
 10
7.198140203444337
 20
7.312898271309634
 30
0.0
 10
7.199440480892583
 20
7.314810969277985
 30
0.0
 10
7.202027883717431
 20
7.316705921781574
 30
0.0
 10
7.203751255561564
 20
7.317968078473718
 30
0.0
  0
ARC
  5
24D
330
1F
100
AcDbEntity
  8
0
  6
Continuous
 62
     7
370
     0
100
AcDbCircle
 10
7.196838208
 20
7.4205569039
 30
0.0
 40
0.1103415474332484
100
AcDbArc
 50
274.9755327547
 51
302.7508601918
  0
SPLINE
  5
24E
330
1F
100
AcDbEntity
  8
0
  6
Continuous
 62
     7
370
     0
100
AcDbSpline
210
0.0
220
0.0
230
1.0
 70
     8
 71
     3
 72
     9
 73
     5
 74
     0
 42
0.00000001
 43
0.00000001
 40
0.0
 40
0.0
 40
0.0
 40
0.0
 40
0.4987092906772087
 40
1.0
 40
1.0
 40
1.0
 40
1.0
 10
7.273231118071602
 20
7.339721845905162
 30
0.0
 10
7.271178325490445
 20
7.337803761472705
 30
0.0
 10
7.267062114664755
 20
7.333957664220629
 30
0.0
 10
7.260047781573211
 20
7.329826945061229
 30
0.0
 10
7.256531561562324
 20
7.327756253923801
 30
0.0
  0
SPLINE
  5
24F
330
1F
100
AcDbEntity
  8
0
  6
Continuous
 62
     7
370
     0
100
AcDbSpline
210
0.0
220
0.0
230
1.0
 70
     8
 71
     3
 72
    11
 73
     7
 74
     0
 42
0.00000001
 43
0.00000001
 40
0.0
 40
0.0
 40
0.0
 40
0.0
 40
0.2504031889031689
 40
0.5003824607867532
 40
0.7500984159891474
 40
0.9999999999999999
 40
0.9999999999999999
 40
0.9999999999999999
 40
0.9999999999999999
 10
7.265507298017428
 20
7.344553769757263
 30
0.0
 10
7.267051057660234
 20
7.344596374914001
 30
0.0
 10
7.270135963456818
 20
7.344681513099598
 30
0.0
 10
7.273451279891606
 20
7.343976474340124
 30
0.0
 10
7.274681362302563
 20
7.342286930211571
 30
0.0
 10
7.273714652539623
 20
7.340577085766869
 30
0.0
 10
7.273231118071602
 20
7.339721845905162
 30
0.0
  0
SPLINE
  5
250
330
1F
100
AcDbEntity
  8
0
  6
Continuous
 62
     7
370
     0
100
AcDbSpline
210
0.0
220
0.0
230
1.0
 70
     8
 71
     3
 72
     9
 73
     5
 74
     0
 42
0.00000001
 43
0.00000001
 40
0.0
 40
0.0
 40
0.0
 40
0.0
 40
0.5000883479088503
 40
0.9999999999999999
 40
0.9999999999999999
 40
0.9999999999999999
 40
0.9999999999999999
 10
7.375656224065563
 20
7.328158912187056
 30
0.0
 10
7.366347263395088
 20
7.323994902432324
 30
0.0
 10
7.347732631181798
 20
7.315668354189113
 30
0.0
 10
7.325403975409989
 20
7.31076872816613
 30
0.0
 10
7.314241620214128
 20
7.308319348026352
 30
0.0
  0
ARC
  5
251
330
1F
100
AcDbEntity
  8
0
  6
Continuous
 62
     7
370
     0
100
AcDbCircle
 10
7.2591269468
 20
6.9636442228
 30
0.0
 40
0.3826879031391342
100
AcDbArc
 50
72.271787315
 51
74.6585507769
  0
SPLINE
  5
252
330
1F
100
AcDbEntity
  8
0
  6
Continuous
 62
     7
370
     0
100
AcDbSpline
210
0.0
220
0.0
230
1.0
 70
    24
 71
     1
 72
     4
 73
     2
 74
     0
 42
0.00000001
 43
0.00000001
 40
0.0
 40
0.0
 40
1.0
 40
1.0
 10
7.340135895954105
 20
7.323482670887179
 30
0.0
 10
7.360374978546771
 20
7.332695529947019
 30
0.0
  0
SPLINE
  5
253
330
1F
100
AcDbEntity
  8
0
  6
Continuous
 62
     7
370
     0
100
AcDbSpline
210
0.0
220
0.0
230
1.0
 70
    24
 71
     1
 72
     4
 73
     2
 74
     0
 42
0.00000001
 43
0.00000001
 40
0.0
 40
0.0
 40
1.0
 40
1.0
 10
7.315626936827655
 20
7.315509021411402
 30
0.0
 10
7.340135895954105
 20
7.323482670887179
 30
0.0
  0
SPLINE
  5
254
330
1F
100
AcDbEntity
  8
0
  6
Continuous
 62
     7
370
     0
100
AcDbSpline
210
0.0
220
0.0
230
1.0
 70
    24
 71
     1
 72
     4
 73
     2
 74
     0
 42
0.00000001
 43
0.00000001
 40
0.0
 40
0.0
 40
1.0
 40
1.0
 10
7.294281600304918
 20
7.310917444542314
 30
0.0
 10
7.315626936827655
 20
7.315509021411402
 30
0.0
  0
LINE
  5
255
330
1F
100
AcDbEntity
  8
0
  6
Continuous
 62
     7
370
     0
100
AcDbLine
 10
7.2836290826
 20
7.3047678769
 30
0.0
 11
7.2942816003
 21
7.3109174445
 31
0.0
  0
ARC
  5
256
330
1F
100
AcDbEntity
  8
0
  6
Continuous
 62
     7
370
     0
100
AcDbCircle
 10
7.2050283679
 20
6.9390473429
 30
0.0
 40
0.3740716260254932
100
AcDbArc
 50
70.7714203724
 51
77.870492441
  0
LINE
  5
257
330
1F
100
AcDbEntity
  8
0
  6
Continuous
 62
     7
370
     0
100
AcDbLine
 10
7.3415513714
 20
7.2999439262
 30
0.0
 11
7.3282242452
 21
7.29225034
 31
0.0
  0
ARC
  5
258
330
1F
100
AcDbEntity
  8
0
  6
Continuous
 62
     7
370
     0
100
AcDbCircle
 10
7.2141988954
 20
6.9333976909
 30
0.0
 40
0.3880396832054943
100
AcDbArc
 50
70.8407765784
 51
75.0595067579
  0
ARC
  5
259
330
1F
100
AcDbEntity
  8
0
  6
Continuous
 62
     7
370
     0
100
AcDbCircle
 10
7.4207946482
 20
7.2535719916
 30
0.0
 40
0.0526427386033587
100
AcDbArc
 50
66.3562793895
 51
127.1902838437
  0
SPLINE
  5
25A
330
1F
100
AcDbEntity
  8
0
  6
Continuous
 62
     7
370
     0
100
AcDbSpline
210
0.0
220
0.0
230
1.0
 70
    24
 71
     1
 72
     4
 73
     2
 74
     0
 42
0.00000001
 43
0.00000001
 40
0.0
 40
0.0
 40
1.0
 40
1.0
 10
7.377311906425433
 20
7.287161966499401
 30
0.0
 10
7.388974006195313
 20
7.295508904578521
 30
0.0
  0
SPLINE
  5
25B
330
1F
100
AcDbEntity
  8
0
  6
Continuous
 62
     7
370
     0
100
AcDbSpline
210
0.0
220
0.0
230
1.0
 70
     8
 71
     3
 72
    12
 73
     8
 74
     0
 42
0.00000001
 43
0.00000001
 40
0.0
 40
0.0
 40
0.0
 40
0.0
 40
0.2503262674180355
 40
0.4997345046006502
 40
0.6249000363599412
 40
0.7501600021982561
 40
1.0
 40
1.0
 40
1.0
 40
1.0
 10
7.382756488523341
 20
7.268106618476525
 30
0.0
 10
7.3804385426061
 20
7.269355509026937
 30
0.0
 10
7.375811151455378
 20
7.271848710027968
 30
0.0
 10
7.372622151217983
 20
7.2759576800459
 30
0.0
 10
7.372362031983061
 20
7.279468560138754
 30
0.0
 10
7.373251011090407
 20
7.28302659289376
 30
0.0
 10
7.375688431941204
 20
7.285508716913379
 30
0.0
 10
7.377311906425433
 20
7.287161966499401
 30
0.0
  0
ARC
  5
25C
330
1F
100
AcDbEntity
  8
0
  6
Continuous
 62
     7
370
     0
100
AcDbCircle
 10
7.4055591568
 20
7.3144696665
 30
0.0
 40
0.0516671452916838
100
AcDbArc
 50
243.8107257279
 51
305.3607874148
  0
SPLINE
  5
25D
330
1F
100
AcDbEntity
  8
0
  6
Continuous
 62
     7
370
     0
100
AcDbSpline
210
0.0
220
0.0
230
1.0
 70
     8
 71
     3
 72
     9
 73
     5
 74
     0
 42
0.00000001
 43
0.00000001
 40
0.0
 40
0.0
 40
0.0
 40
0.0
 40
0.4987092906772032
 40
0.9999999999999999
 40
0.9999999999999999
 40
0.9999999999999999
 40
0.9999999999999999
 10
7.451726364224482
 20
7.286660230503898
 30
0.0
 10
7.449811440191736
 20
7.283994875161292
 30
0.0
 10
7.445971680097941
 20
7.278650368065814
 30
0.0
 10
7.438970005498767
 20
7.274442987340771
 30
0.0
 10
7.4354601310725
 20
7.272333866472724
 30
0.0
  0
SPLINE
  5
25E
330
1F
100
AcDbEntity
  8
0
  6
Continuous
 62
     7
370
     0
100
AcDbSpline
210
0.0
220
0.0
230
1.0
 70
     8
 71
     3
 72
    11
 73
     7
 74
     0
 42
0.00000001
 43
0.00000001
 40
0.0
 40
0.0
 40
0.0
 40
0.0
 40
0.2504031889031626
 40
0.5003824607867547
 40
0.7500984159891462
 40
0.9999999999999999
 40
0.9999999999999999
 40
0.9999999999999999
 40
0.9999999999999999
 10
7.441906921841815
 20
7.301795739167519
 30
0.0
 10
7.443668009791809
 20
7.300835291011286
 30
0.0
 10
7.447187204279468
 20
7.298916020677794
 30
0.0
 10
7.451101319918769
 20
7.295287257425914
 30
0.0
 10
7.45283882103752
 20
7.291017370303551
 30
0.0
 10
7.452097275000616
 20
7.288112970139154
 30
0.0
 10
7.451726364224482
 20
7.286660230503898
 30
0.0
  0
LINE
  5
25F
330
1F
100
AcDbEntity
  8
0
  6
Continuous
 62
     7
370
     0
100
AcDbLine
 10
7.5181869663
 20
7.2403545538
 30
0.0
 11
7.5288050471
 21
7.2464842413
 31
0.0
  0
ARC
  5
260
330
1F
100
AcDbEntity
  8
0
  6
Continuous
 62
     7
370
     0
100
AcDbCircle
 10
7.1106700005
 20
6.692785886
 30
0.0
 40
0.6825697937506227
100
AcDbArc
 50
53.3422751557
 51
54.077870308
  0
LINE
  5
261
330
1F
100
AcDbEntity
  8
0
  6
Continuous
 62
     7
370
     0
100
AcDbLine
 10
7.4988869624
 20
7.2384771624
 30
0.0
 11
7.511123583
 21
7.2455412131
 31
0.0
  0
ARC
  5
262
330
1F
100
AcDbEntity
  8
0
  6
Continuous
 62
     7
370
     0
100
AcDbCircle
 10
7.0984333799
 20
6.6857218354
 30
0.0
 40
0.6825697937137004
100
AcDbArc
 50
53.3422751556
 51
54.0778703081
  0
LINE
  5
263
330
1F
100
AcDbEntity
  8
0
  6
Continuous
 62
     7
370
     0
100
AcDbLine
 10
7.4710426879
 20
7.2131387412
 30
0.0
 11
7.5059503457
 21
7.2332905031
 31
0.0
  0
ARC
  5
264
330
1F
100
AcDbEntity
  8
0
  6
Continuous
 62
     7
370
     0
100
AcDbCircle
 10
7.0507433517
 20
6.6484638296
 30
0.0
 40
0.7039242059774244
100
AcDbArc
 50
51.948700463
 51
53.3389194175
  0
SPLINE
  5
265
330
1F
100
AcDbEntity
  8
0
  6
Continuous
 62
     7
370
     0
100
AcDbSpline
210
0.0
220
0.0
230
1.0
 70
    24
 71
     1
 72
     4
 73
     2
 74
     0
 42
0.00000001
 43
0.00000001
 40
0.0
 40
0.0
 40
1.0
 40
1.0
 10
7.546899440875223
 20
7.199364534542818
 30
0.0
 10
7.484618841306471
 20
7.202775427254386
 30
0.0
  0
LINE
  5
266
330
1F
100
AcDbEntity
  8
0
  6
Continuous
 62
     7
370
     0
100
AcDbLine
 10
7.5598707179
 20
7.2068526934
 30
0.0
 11
7.5468994409
 21
7.1993645345
 31
0.0
  0
ARC
  5
267
330
1F
100
AcDbEntity
  8
0
  6
Continuous
 62
     7
370
     0
100
AcDbCircle
 10
7.0712960701
 20
6.6419967656
 30
0.0
 40
0.7468382726877051
100
AcDbArc
 50
49.1416874751
 51
51.934986167
  0
LINE
  5
268
330
1F
100
AcDbEntity
  8
0
  6
Continuous
 62
     7
370
     0
100
AcDbLine
 10
7.5423812004
 20
7.2361209274
 30
0.0
 11
7.5317631197
 21
7.2299912399
 31
0.0
  0
ARC
  5
269
330
1F
100
AcDbEntity
  8
0
  6
Continuous
 62
     7
370
     0
100
AcDbCircle
 10
7.1085057109
 20
6.6818093298
 30
0.0
 40
0.7039242059612709
100
AcDbArc
 50
51.948700463
 51
53.3389194176
  0
SPLINE
  5
26A
330
1F
100
AcDbEntity
  8
0
  6
Continuous
 62
     7
370
     0
100
AcDbSpline
210
0.0
220
0.0
230
1.0
 70
    24
 71
     1
 72
     4
 73
     2
 74
     0
 42
0.00000001
 43
0.00000001
 40
0.0
 40
0.0
 40
1.0
 40
1.0
 10
7.616643587807771
 20
7.074039922359676
 30
0.0
 10
7.654515986804163
 20
7.129132979693682
 30
0.0
  0
ARC
  5
26B
330
1F
100
AcDbEntity
  8
0
  6
Continuous
 62
     7
370
     0
100
AcDbCircle
 10
6.8656509915
 20
6.4564761498
 30
0.0
 40
0.9723039097449729
100
AcDbArc
 50
37.8708653309
 51
39.4314877865
  0
SPLINE
  5
26C
330
1F
100
AcDbEntity
  8
0
  6
Continuous
 62
     7
370
     0
100
AcDbSpline
210
0.0
220
0.0
230
1.0
 70
    24
 71
     1
 72
     4
 73
     2
 74
     0
 42
0.00000001
 43
0.00000001
 40
0.0
 40
0.0
 40
1.0
 40
1.0
 10
7.707883001378853
 20
7.0624036055533
 30
0.0
 10
7.633184143366663
 20
7.053357841318131
 30
0.0
  0
ARC
  5
26D
330
1F
100
AcDbEntity
  8
0
  6
Continuous
 62
     7
370
     0
100
AcDbCircle
 10
6.9037876326
 20
6.4748002707
 30
0.0
 40
0.9959151777589688
100
AcDbArc
 50
36.1579615845
 51
37.5962196012
  0
SPLINE
  5
26E
330
1F
100
AcDbEntity
  8
0
  6
Continuous
 62
     7
370
     0
100
AcDbSpline
210
0.0
220
0.0
230
1.0
 70
    24
 71
     1
 72
     4
 73
     2
 74
     0
 42
0.00000001
 43
0.00000001
 40
0.0
 40
0.0
 40
1.0
 40
1.0
 10
7.681161358289402
 20
7.080015272080855
 30
0.0
 10
7.692881005016288
 20
7.082401036690698
 30
0.0
  0
ARC
  5
26F
330
1F
100
AcDbEntity
  8
0
  6
Continuous
 62
     7
370
     0
100
AcDbCircle
 10
6.9128673814
 20
6.4836854509
 30
0.0
 40
0.972566136869365
100
AcDbArc
 50
37.8176853425
 51
39.4472478828
  0
SPLINE
  5
270
330
1F
100
AcDbEntity
  8
0
  6
Continuous
 62
     7
370
     0
100
AcDbSpline
210
0.0
220
0.0
230
1.0
 70
    24
 71
     1
 72
     4
 73
     2
 74
     0
 42
0.00000001
 43
0.00000001
 40
0.0
 40
0.0
 40
1.0
 40
1.0
 10
7.670824913594182
 20
7.109996752195462
 30
0.0
 10
7.663892573175459
 20
7.10162238285452
 30
0.0
  0
ARC
  5
271
330
1F
100
AcDbEntity
  8
0
  6
Continuous
 62
     7
370
     0
100
AcDbCircle
 10
6.943876948
 20
6.506970215
 30
0.0
 40
0.9445074638857144
100
AcDbArc
 50
39.6767897179
 51
41.2020682794
  0
SPLINE
  5
272
330
1F
100
AcDbEntity
  8
0
  6
Continuous
 62
     7
370
     0
100
AcDbSpline
210
0.0
220
0.0
230
1.0
 70
    24
 71
     1
 72
     4
 73
     2
 74
     0
 42
0.00000001
 43
0.00000001
 40
0.0
 40
0.0
 40
1.0
 40
1.0
 10
7.768103575211557
 20
6.968089993002326
 30
0.0
 10
7.774377922733926
 20
6.958873095799884
 30
0.0
  0
SPLINE
  5
273
330
1F
100
AcDbEntity
  8
0
  6
Continuous
 62
     7
370
     0
100
AcDbSpline
210
0.0
220
0.0
230
1.0
 70
    24
 71
     1
 72
     4
 73
     2
 74
     0
 42
0.00000001
 43
0.00000001
 40
0.0
 40
0.0
 40
1.0
 40
1.0
 10
7.761503243922551
 20
6.975170064267387
 30
0.0
 10
7.768103575211557
 20
6.968089993002326
 30
0.0
  0
ARC
  5
274
330
1F
100
AcDbEntity
  8
0
  6
Continuous
 62
     7
370
     0
100
AcDbCircle
 10
7.750774024
 20
6.9608451863
 30
0.0
 40
0.0178974380610641
100
AcDbArc
 50
53.1670804641
 51
117.7109717514
  0
ARC
  5
275
330
1F
100
AcDbEntity
  8
0
  6
Continuous
 62
     7
370
     0
100
AcDbCircle
 10
7.7516920924
 20
6.9624569401
 30
0.0
 40
0.0169695228840042
100
AcDbArc
 50
122.99323623
 51
209.5542852294
  0
ARC
  5
276
330
1F
100
AcDbEntity
  8
0
  6
Continuous
 62
     7
370
     0
100
AcDbCircle
 10
7.7212624045
 20
6.9388195808
 30
0.0
 40
0.0218763743238589
100
AcDbArc
 50
44.2575013969
 51
69.9251995783
  0
SPLINE
  5
277
330
1F
100
AcDbEntity
  8
0
  6
Continuous
 62
     7
370
     0
100
AcDbSpline
210
0.0
220
0.0
230
1.0
 70
     8
 71
     3
 72
     9
 73
     5
 74
     0
 42
0.00000001
 43
0.00000001
 40
0.0
 40
0.0
 40
0.0
 40
0.0
 40
0.5001654445837019
 40
1.0
 40
1.0
 40
1.0
 40
1.0
 10
7.717865096406015
 20
6.958186892126182
 30
0.0
 10
7.719538394455131
 20
6.958962039304718
 30
0.0
 10
7.722883883567258
 20
6.960511820855862
 30
0.0
 10
7.7268093250434
 20
6.95974843123028
 30
0.0
 10
7.72877139633844
 20
6.959366862716169
 30
0.0
  0
SPLINE
  5
278
330
1F
100
AcDbEntity
  8
0
  6
Continuous
 62
     7
370
     0
100
AcDbSpline
210
0.0
220
0.0
230
1.0
 70
     8
 71
     3
 72
    14
 73
    10
 74
     0
 42
0.00000001
 43
0.00000001
 40
0.0
 40
0.0
 40
0.0
 40
0.0
 40
0.2499004290087189
 40
0.380097603159582
 40
0.4999571058493307
 40
0.6257216768315134
 40
0.7499966555367129
 40
0.8749516763670246
 40
1.0
 40
1.0
 40
1.0
 40
1.0
 10
7.715802773659773
 20
6.929237750649921
 30
0.0
 10
7.714453664330987
 20
6.931856063045989
 30
0.0
 10
7.712401674167125
 20
6.935838506253536
 30
0.0
 10
7.711001991628503
 20
6.941459919749395
 30
0.0
 10
7.710706349304904
 20
6.945668324226521
 30
0.0
 10
7.71127295403418
 20
6.949612891492002
 30
0.0
 10
7.712680880454164
 20
6.953189181018568
 30
0.0
 10
7.714874970840003
 20
6.956182107657034
 30
0.0
 10
7.716868139929645
 20
6.957518464390919
 30
0.0
 10
7.717865096406015
 20
6.958186892126182
 30
0.0
  0
ARC
  5
279
330
1F
100
AcDbEntity
  8
0
  6
Continuous
 62
     7
370
     0
100
AcDbCircle
 10
6.8142450295
 20
6.4191009088
 30
0.0
 40
1.035879318970164
100
AcDbArc
 50
26.9359672113
 51
29.5028890151
  0
LINE
  5
27A
330
1F
100
AcDbEntity
  8
0
  6
Continuous
 62
     7
370
     0
100
AcDbLine
 10
7.7945433833
 20
6.9211373419
 30
0.0
 11
7.7377452607
 21
6.8883484836
 31
0.0
  0
ARC
  5
27B
330
1F
100
AcDbEntity
  8
0
  6
Continuous
 62
     7
370
     0
100
AcDbCircle
 10
6.8713084991
 20
6.4520294443
 30
0.0
 40
1.03557948561473
100
AcDbArc
 50
26.9357280119
 51
29.3031229913
  0
LINE
  5
27C
330
1F
100
AcDbEntity
  8
0
  6
Continuous
 62
     7
370
     0
100
AcDbLine
 10
8.0504751165
 20
7.6961418819
 30
0.0
 11
8.0714702189
 21
7.7082620965
 31
0.0
  0
ARC
  5
27D
330
1F
100
AcDbEntity
  8
0
  6
Continuous
 62
     7
370
     0
100
AcDbCircle
 10
8.040057927
 20
7.710715787
 30
0.0
 40
0.0179141438207021
100
AcDbArc
 50
255.5056529678
 51
305.5565656331
  0
SPLINE
  5
27E
330
1F
100
AcDbEntity
  8
0
  6
Continuous
 62
     7
370
     0
100
AcDbSpline
210
0.0
220
0.0
230
1.0
 70
     8
 71
     3
 72
    11
 73
     7
 74
     0
 42
0.00000001
 43
0.00000001
 40
0.0
 40
0.0
 40
0.0
 40
0.0
 40
0.2494767937790628
 40
0.503530186886556
 40
0.7522417858221602
 40
1.0
 40
1.0
 40
1.0
 40
1.0
 10
8.03444755580813
 20
7.697015685959391
 30
0.0
 10
8.03416285748645
 20
7.696670062799602
 30
0.0
 10
8.03358823811224
 20
7.695972476095826
 30
0.0
 10
8.033550323766299
 20
7.69492865759282
 30
0.0
 10
8.034179615800655
 20
7.694000902915443
 30
0.0
 10
8.035109997351231
 20
7.693581238022283
 30
0.0
 10
8.035574294807766
 20
7.693371808522772
 30
0.0
  0
SPLINE
  5
27F
330
1F
100
AcDbEntity
  8
0
  6
Continuous
 62
     7
370
     0
100
AcDbSpline
210
0.0
220
0.0
230
1.0
 70
    24
 71
     1
 72
     4
 73
     2
 74
     0
 42
0.00000001
 43
0.00000001
 40
0.0
 40
0.0
 40
1.0
 40
1.0
 10
8.037827955942628
 20
7.699250995584334
 30
0.0
 10
8.03444755580813
 20
7.697015685959391
 30
0.0
  0
LINE
  5
280
330
1F
100
AcDbEntity
  8
0
  6
Continuous
 62
     7
370
     0
100
AcDbLine
 10
8.0604875142
 20
7.7123320801
 30
0.0
 11
8.0378279559
 21
7.6992509956
 31
0.0
  0
ARC
  5
281
330
1F
100
AcDbEntity
  8
0
  6
Continuous
 62
     7
370
     0
100
AcDbCircle
 10
7.9257826613
 20
7.3330035772
 30
0.0
 40
0.4025363467923798
100
AcDbArc
 50
70.4493384134
 51
72.7687705611
  0
LINE
  5
282
330
1F
100
AcDbEntity
  8
0
  6
Continuous
 62
     7
370
     0
100
AcDbLine
 10
8.0237893132
 20
7.7052135273
 30
0.0
 11
8.0450254747
 21
7.7174729023
 31
0.0
  0
ARC
  5
283
330
1F
100
AcDbEntity
  8
0
  6
Continuous
 62
     7
370
     0
100
AcDbCircle
 10
8.0129073673
 20
7.7207433266
 30
0.0
 40
0.0189628957027452
100
AcDbArc
 50
258.965471978
 51
305.0194622554
  0
SPLINE
  5
284
330
1F
100
AcDbEntity
  8
0
  6
Continuous
 62
     7
370
     0
100
AcDbSpline
210
0.0
220
0.0
230
1.0
 70
     8
 71
     3
 72
    10
 73
     6
 74
     0
 42
0.00000001
 43
0.00000001
 40
0.0
 40
0.0
 40
0.0
 40
0.0
 40
0.4988594542991649
 40
0.7491987595266392
 40
0.9999999999999999
 40
0.9999999999999999
 40
0.9999999999999999
 40
0.9999999999999999
 10
8.00757272091451
 20
7.704463223381686
 30
0.0
 10
8.007502091966051
 20
7.703983022042452
 30
0.0
 10
8.00739601976452
 20
7.703261844475149
 30
0.0
 10
8.008225938375283
 20
7.702508034022357
 30
0.0
 10
8.008927003557966
 20
7.702256766224351
 30
0.0
 10
8.009277859258983
 20
7.702131016520059
 30
0.0
  0
SPLINE
  5
285
330
1F
100
AcDbEntity
  8
0
  6
Continuous
 62
     7
370
     0
100
AcDbSpline
210
0.0
220
0.0
230
1.0
 70
     8
 71
     3
 72
     9
 73
     5
 74
     0
 42
0.00000001
 43
0.00000001
 40
0.0
 40
0.0
 40
0.0
 40
0.0
 40
0.5015784057012704
 40
1.0
 40
1.0
 40
1.0
 40
1.0
 10
8.010671898185528
 20
7.707146987259805
 30
0.0
 10
8.009950388424569
 20
7.70671819326015
 30
0.0
 10
8.00851190990803
 20
7.705863303985051
 30
0.0
 10
8.007885124364433
 20
7.70492893370589
 30
0.0
 10
8.00757272091451
 20
7.704463223381686
 30
0.0
  0
LINE
  5
286
330
1F
100
AcDbEntity
  8
0
  6
Continuous
 62
     7
370
     0
100
AcDbLine
 10
8.0341120288
 20
7.7206786866
 30
0.0
 11
8.0106718982
 21
7.7071469873
 31
0.0
  0
ARC
  5
287
330
1F
100
AcDbEntity
  8
0
  6
Continuous
 62
     7
370
     0
100
AcDbCircle
 10
7.9376298199
 20
7.3732796154
 30
0.0
 40
0.3605480984596024
100
AcDbArc
 50
74.4785735956
 51
76.97476721
  0
LINE
  5
288
330
1F
100
AcDbEntity
  8
0
  6
Continuous
 62
     7
370
     0
100
AcDbLine
 10
7.9930509581
 20
7.7096344594
 30
0.0
 11
8.018890201
 21
7.7245511369
 31
0.0
  0
SPLINE
  5
289
330
1F
100
AcDbEntity
  8
0
  6
Continuous
 62
     7
370
     0
100
AcDbSpline
210
0.0
220
0.0
230
1.0
 70
     8
 71
     3
 72
    13
 73
     9
 74
     0
 42
0.00000001
 43
0.00000001
 40
0.0
 40
0.0
 40
0.0
 40
0.0
 40
0.2493026324882003
 40
0.3767800005178857
 40
0.4994269650593143
 40
0.6183515801826558
 40
0.7497380290331306
 40
1.0
 40
1.0
 40
1.0
 40
1.0
 10
7.990353560049924
 20
7.696855946127058
 30
0.0
 10
7.988525658666108
 20
7.697479328021579
 30
0.0
 10
7.985763085814519
 20
7.698421467413357
 30
0.0
 10
7.984257519694477
 20
7.700442090969619
 30
0.0
 10
7.984231200733312
 20
7.702167031367095
 30
0.0
 10
7.985376726385713
 20
7.704050602142455
 30
0.0
 10
7.988092798039093
 20
7.706595331070824
 30
0.0
 10
7.991087326972
 20
7.708430842178246
 30
0.0
 10
7.993050958088895
 20
7.70963445944383
 30
0.0
  0
ARC
  5
28A
330
1F
100
AcDbEntity
  8
0
  6
Continuous
 62
     7
370
     0
100
AcDbCircle
 10
8.0009373099
 20
7.7380865117
 30
0.0
 40
0.0425673031444217
100
AcDbArc
 50
255.6032072345
 51
283.9626324341
  0
SPLINE
  5
28B
330
1F
100
AcDbEntity
  8
0
  6
Continuous
 62
     7
370
     0
100
AcDbSpline
210
0.0
220
0.0
230
1.0
 70
     8
 71
     3
 72
    12
 73
     8
 74
     0
 42
0.00000001
 43
0.00000001
 40
0.0
 40
0.0
 40
0.0
 40
0.0
 40
0.2503253654036878
 40
0.4999978777421017
 40
0.7494826629082567
 40
0.8746982187917999
 40
1.0
 40
1.0
 40
1.0
 40
1.0
 10
8.016479077227094
 20
7.688727561336697
 30
0.0
 10
8.015287053021112
 20
7.689183456375249
 30
0.0
 10
8.012906113429764
 20
7.690094057469873
 30
0.0
 10
8.010430356012078
 20
7.691946122237599
 30
0.0
 10
8.01001478163119
 20
7.693905347386756
 30
0.0
 10
8.010475425975486
 20
7.695537158359188
 30
0.0
 10
8.010963974745762
 20
7.69636357926664
 30
0.0
 10
8.011208333207469
 20
7.696776931942881
 30
0.0
  0
ARC
  5
28C
330
1F
100
AcDbEntity
  8
0
  6
Continuous
 62
     7
370
     0
100
AcDbCircle
 10
8.0290632324
 20
7.7263781047
 30
0.0
 40
0.0396979139725044
100
AcDbArc
 50
251.5185328581
 51
282.119343154
  0
LINE
  5
28D
330
1F
100
AcDbEntity
  8
0
  6
Continuous
 62
     7
370
     0
100
AcDbLine
 10
8.0313942357
 20
7.6840992029
 30
0.0
 11
8.037397756
 21
7.6875649614
 31
0.0
  0
ARC
  5
28E
330
1F
100
AcDbEntity
  8
0
  6
Continuous
 62
     7
370
     0
100
AcDbCircle
 10
7.8682998237
 20
7.2652956761
 30
0.0
 40
0.4494398527846074
100
AcDbArc
 50
66.7146101477
 51
68.7225980157
  0
LINE
  5
28F
330
1F
100
AcDbEntity
  8
0
  6
Continuous
 62
     7
370
     0
100
AcDbLine
 10
8.08710923
 20
7.7018774548
 30
0.0
 11
8.0459684718
 21
7.6781274006
 31
0.0
  0
ARC
  5
290
330
1F
100
AcDbEntity
  8
0
  6
Continuous
 62
     7
370
     0
100
AcDbCircle
 10
7.9098087835
 20
7.2899306886
 30
0.0
 40
0.44848142268053
100
AcDbArc
 50
66.7131251909
 51
68.8713016034
  0
LINE
  5
291
330
1F
100
AcDbEntity
  8
0
  6
Continuous
 62
     7
370
     0
100
AcDbLine
 10
8.1428892387
 20
7.6611231289
 30
0.0
 11
8.1535073194
 21
7.6672528165
 31
0.0
  0
ARC
  5
292
330
1F
100
AcDbEntity
  8
0
  6
Continuous
 62
     7
370
     0
100
AcDbCircle
 10
7.8379288603
 20
7.1629227369
 30
0.0
 40
0.5841270949145303
100
AcDbArc
 50
58.5282024814
 51
59.3442818751
  0
LINE
  5
293
330
1F
100
AcDbEntity
  8
0
  6
Continuous
 62
     7
370
     0
100
AcDbLine
 10
8.1235259209
 20
7.6583520308
 30
0.0
 11
8.1357625415
 21
7.6654160815
 31
0.0
  0
ARC
  5
294
330
1F
100
AcDbEntity
  8
0
  6
Continuous
 62
     7
370
     0
100
AcDbCircle
 10
7.8256922397
 20
7.1558586862
 30
0.0
 40
0.5841270949347519
100
AcDbArc
 50
58.5282024814
 51
59.3442818751
  0
LINE
  5
295
330
1F
100
AcDbEntity
  8
0
  6
Continuous
 62
     7
370
     0
100
AcDbLine
 10
8.0957449602
 20
7.6339073163
 30
0.0
 11
8.1306526181
 21
7.6540590782
 31
0.0
  0
ARC
  5
296
330
1F
100
AcDbEntity
  8
0
  6
Continuous
 62
     7
370
     0
100
AcDbCircle
 10
7.779697781
 20
7.1176820974
 30
0.0
 40
0.6052886056215573
100
AcDbArc
 50
56.9864696903
 51
58.5238934539
  0
SPLINE
  5
297
330
1F
100
AcDbEntity
  8
0
  6
Continuous
 62
     7
370
     0
100
AcDbSpline
210
0.0
220
0.0
230
1.0
 70
    24
 71
     1
 72
     4
 73
     2
 74
     0
 42
0.00000001
 43
0.00000001
 40
0.0
 40
0.0
 40
1.0
 40
1.0
 10
8.172258929260158
 20
7.625262103453545
 30
0.0
 10
8.109481451782122
 20
7.625241972320312
 30
0.0
  0
LINE
  5
298
330
1F
100
AcDbEntity
  8
0
  6
Continuous
 62
     7
370
     0
100
AcDbLine
 10
8.1852302063
 20
7.6327502623
 30
0.0
 11
8.1722589293
 21
7.6252621035
 31
0.0
  0
ARC
  5
299
330
1F
100
AcDbEntity
  8
0
  6
Continuous
 62
     7
370
     0
100
AcDbCircle
 10
7.8030177236
 20
7.1086008433
 30
0.0
 40
0.6487056307512294
100
AcDbArc
 50
53.9002745866
 51
56.9686533898
  0
LINE
  5
29A
330
1F
100
AcDbEntity
  8
0
  6
Continuous
 62
     7
370
     0
100
AcDbLine
 10
8.1672438109
 20
7.6585874725
 30
0.0
 11
8.1566257302
 21
7.6524577849
 31
0.0
  0
ARC
  5
29B
330
1F
100
AcDbEntity
  8
0
  6
Continuous
 62
     7
370
     0
100
AcDbCircle
 10
7.8374601402
 20
7.1510275976
 30
0.0
 40
0.605288605608278
100
AcDbArc
 50
56.9864696902
 51
58.5238934539
  0
LINE
  5
29C
330
1F
100
AcDbEntity
  8
0
  6
Continuous
 62
     7
370
     0
100
AcDbLine
 10
8.1772468177
 20
7.619544482
 30
0.0
 11
8.1897933715
 21
7.6267874533
 31
0.0
  0
ARC
  5
29D
330
1F
100
AcDbEntity
  8
0
  6
Continuous
 62
     7
370
     0
100
AcDbCircle
 10
7.7372110911
 20
7.0312867087
 30
0.0
 40
0.7346282383751274
100
AcDbArc
 50
49.0451512274
 51
53.2023302407
  0
LINE
  5
29E
330
1F
100
AcDbEntity
  8
0
  6
Continuous
 62
     7
370
     0
100
AcDbLine
 10
8.2312800716
 20
7.5933402794
 30
0.0
 11
8.2187335178
 21
7.5860973081
 31
0.0
  0
ARC
  5
29F
330
1F
100
AcDbEntity
  8
0
  6
Continuous
 62
     7
370
     0
100
AcDbCircle
 10
7.7497576449
 20
7.03852968
 30
0.0
 40
0.734628238375036
100
AcDbArc
 50
49.0451512274
 51
53.2023302407
  0
LINE
  5
2A0
330
1F
100
AcDbEntity
  8
0
  6
Continuous
 62
     7
370
     0
100
AcDbLine
 10
8.3024344085
 20
7.5057196679
 30
0.0
 11
8.325644959
 21
7.5191188335
 31
0.0
  0
ARC
  5
2A1
330
1F
100
AcDbEntity
  8
0
  6
Continuous
 62
     7
370
     0
100
AcDbCircle
 10
7.6172883434
 20
6.9029867893
 30
0.0
 40
0.912530576677468
100
AcDbArc
 50
41.3385547221
 51
43.2096327127
  0
LINE
  5
2A2
330
1F
100
AcDbEntity
  8
0
  6
Continuous
 62
     7
370
     0
100
AcDbLine
 10
8.2709219477
 20
7.5211487194
 30
0.0
 11
8.2823894749
 21
7.527768782
 31
0.0
  0
ARC
  5
2A3
330
1F
100
AcDbEntity
  8
0
  6
Continuous
 62
     7
370
     0
100
AcDbCircle
 10
7.6058208163
 20
6.8963667268
 30
0.0
 40
0.9125305766695609
100
AcDbArc
 50
41.3385547221
 51
43.2096327127
  0
LINE
  5
2A4
330
1F
100
AcDbEntity
  8
0
  6
Continuous
 62
     7
370
     0
100
AcDbLine
 10
8.28104902
 20
7.4933741458
 30
0.0
 11
8.2909668813
 21
7.4990996053
 31
0.0
  0
ARC
  5
2A5
330
1F
100
AcDbEntity
  8
0
  6
Continuous
 62
     7
370
     0
100
AcDbCircle
 10
7.598102699
 20
6.8926230176
 30
0.0
 40
0.9095700057530464
100
AcDbArc
 50
41.3363505639
 51
43.5313250656
  0
LINE
  5
2A6
330
1F
100
AcDbEntity
  8
0
  6
Continuous
 62
     7
370
     0
100
AcDbLine
 10
8.2453368792
 20
7.5120461467
 30
0.0
 11
8.2575390627
 21
7.5190903173
 31
0.0
  0
ARC
  5
2A7
330
1F
100
AcDbEntity
  8
0
  6
Continuous
 62
     7
370
     0
100
AcDbCircle
 10
7.5761889175
 20
6.8766638338
 30
0.0
 40
0.9227511463150492
100
AcDbArc
 50
39.8554441426
 51
43.5173227886
  0
LINE
  5
2A8
330
1F
100
AcDbEntity
  8
0
  6
Continuous
 62
     7
370
     0
100
AcDbLine
 10
8.3413496369
 20
7.5008003982
 30
0.0
 11
8.2845515143
 21
7.4680115399
 31
0.0
  0
ARC
  5
2A9
330
1F
100
AcDbEntity
  8
0
  6
Continuous
 62
     7
370
     0
100
AcDbCircle
 10
7.6186037043
 20
6.8970702802
 30
0.0
 40
0.9417280597248524
100
AcDbArc
 50
39.8729619294
 51
41.3410288103
  0
LWPOLYLINE
  5
2AA
330
1F
100
AcDbEntity
  8
0
  6
Continuous
 62
     7
370
     0
100
AcDbPolyline
 90
       75
 70
   128
 43
0.0
 10
7.4858880239
 20
6.3820269123
 10
7.4843079365
 20
6.3472217189
 10
7.4801104548
 20
6.3142109265
 10
7.4733258218
 20
6.2832323784
 10
7.4640029208
 20
6.254509276
 10
7.4522089235
 20
6.2282485697
 10
7.4380288061
 20
6.2046394686
 10
7.4215647366
 20
6.1838520768
 10
7.4029353389
 20
6.166036168
 10
7.3822748383
 20
6.1513201061
 10
7.3597320942
 20
6.1398099207
 10
7.3354695276
 20
6.131588543
 10
7.3096619508
 20
6.1267152082
 10
7.282495308
 20
6.1252250288
 10
7.2541653355
 20
6.1271287416
 10
7.2248761513
 20
6.1324126302
 10
7.1948387848
 20
6.1410386241
 10
7.1642696559
 20
6.1529445729
 10
7.1333890157
 20
6.1680446938
 10
7.1024193601
 20
6.1862301903
 10
7.0715838262
 20
6.2073700353
 10
7.0411045845
 20
6.2313119159
 10
7.0112012389
 20
6.2578833301
 10
6.9820892435
 20
6.2868928304
 10
6.953978351
 20
6.3181314027
 10
6.9270711009
 20
6.3513739722
 10
6.9015613607
 20
6.3863810256
 10
6.8776329287
 20
6.4229003362
 10
6.8554582096
 20
6.4606687816
 10
6.8351969729
 20
6.4994142391
 10
6.8169952012
 20
6.538857547
 10
6.8009840388
 20
6.5787145153
 10
6.7872788463
 20
6.6186979736
 10
6.7759783701
 20
6.6585198402
 10
6.7671640304
 20
6.6978931976
 10
6.7608993346
 20
6.7365343599
 10
6.75722942
 20
6.7741649166
 10
6.7561807284
 20
6.8105137387
 10
6.7577608158
 20
6.8453189321
 10
6.7619582975
 20
6.8783297246
 10
6.7687429305
 20
6.9093082726
 10
6.7780658315
 20
6.9380313751
 10
6.7898598288
 20
6.9642920813
 10
6.8040399462
 20
6.9879011824
 10
6.8205040157
 20
7.0086885742
 10
6.8391334134
 20
7.0265044831
 10
6.859793914
 20
7.0412205449
 10
6.8823366581
 20
7.0527307303
 10
6.9065992247
 20
7.060952108
 10
6.9324068015
 20
7.0658254428
 10
6.9595734443
 20
7.0673156222
 10
6.9879034169
 20
7.0654119095
 10
7.017192601
 20
7.0601280209
 10
7.0472299675
 20
7.0515020269
 10
7.0777990964
 20
7.0395960782
 10
7.1086797366
 20
7.0244959572
 10
7.1396493922
 20
7.0063104607
 10
7.1704849262
 20
6.9851706157
 10
7.2009641678
 20
6.9612287351
 10
7.2308675134
 20
6.9346573209
 10
7.2599795088
 20
6.9056478206
 10
7.2880904013
 20
6.8744092484
 10
7.3149976514
 20
6.8411666788
 10
7.3405073916
 20
6.8061596254
 10
7.3644358236
 20
6.7696403148
 10
7.3866105427
 20
6.7318718695
 10
7.4068717794
 20
6.6931264119
 10
7.4250735511
 20
6.653683104
 10
7.4410847135
 20
6.6138261357
 10
7.454789906
 20
6.5738426774
 10
7.4660903822
 20
6.5340208108
 10
7.4749047219
 20
6.4946474534
 10
7.4811694177
 20
6.4560062911
 10
7.4848393323
 20
6.4183757344
 10
7.4858880239
 20
6.3820269123
  0
LWPOLYLINE
  5
2AB
330
1F
100
AcDbEntity
  8
0
  6
Continuous
 62
     7
370
     0
100
AcDbPolyline
 90
       48
 70
   128
 43
0.0
 10
6.9983336981
 20
7.0638999816
 10
6.9938669141
 20
7.0643372627
 10
6.9660561373
 20
7.0651439102
 10
6.939483441
 20
7.0625315278
 10
6.9143455601
 20
7.0565194565
 10
6.8908286067
 20
7.0471522078
 10
6.8691066921
 20
7.0344991334
 10
6.8493406378
 20
7.0186539123
 10
6.8316767847
 20
6.9997338569
 10
6.8162459097
 20
6.9778790447
 10
6.8031622578
 20
6.9532512812
 10
6.7925226956
 20
6.9260329015
 10
6.7844059949
 20
6.8964254212
 10
6.7788722487
 20
6.8646480436
 10
6.775962427
 20
6.8309360373
 10
6.7756980731
 20
6.7955389942
 10
6.7780811442
 20
6.7587189817
 10
6.7830939968
 20
6.7207486021
 10
6.7906995177
 20
6.681908975
 10
6.800841398
 20
6.6424876554
 10
6.813444551
 20
6.6027765048
 10
6.8284156673
 20
6.5630695309
 10
6.8456439059
 20
6.52366071
 10
6.865001715
 20
6.4848418113
 10
6.8863457762
 20
6.4469002364
 10
6.9095180656
 20
6.4101168915
 10
6.9343470235
 20
6.3747641075
 10
6.960648825
 20
6.341103624
 10
6.9882287409
 20
6.3093846516
 10
7.0168825791
 20
6.2798420264
 10
7.0463981966
 20
6.2526944716
 10
7.0765570701
 20
6.2281429783
 10
7.1071359138
 20
6.2063693171
 10
7.1379083327
 20
6.1875346926
 10
7.1686464985
 20
6.1717785498
 10
7.1991228367
 20
6.1592175416
 10
7.229111711
 20
6.1499446653
 10
7.2583910944
 20
6.1440285741
 10
7.2867442125
 20
6.1415130687
 10
7.3139611489
 20
6.1424167729
 10
7.3398403987
 20
6.1467329961
 10
7.3641903611
 20
6.1544297824
 10
7.3868307575
 20
6.1654501475
 10
7.4075939663
 20
6.1797125006
 10
7.4263262639
 20
6.1971112481
 10
7.4428889631
 20
6.2175175758
 10
7.4571594394
 20
6.2407804023
 10
7.4646312851
 20
6.2561613492
  0
SPLINE
  5
2AC
330
1F
100
AcDbEntity
  8
0
  6
Continuous
 62
     7
370
     0
100
AcDbSpline
210
0.0
220
0.0
230
1.0
 70
    24
 71
     1
 72
     4
 73
     2
 74
     0
 42
0.00000001
 43
0.00000001
 40
0.0
 40
0.0
 40
1.0
 40
1.0
 10
7.216434820958151
 20
7.109697126026242
 30
0.0
 10
7.249432970926395
 20
7.109860962007216
 30
0.0
  0
ARC
  5
2AD
330
1F
100
AcDbEntity
  8
0
  6
Continuous
 62
     7
370
     0
100
AcDbCircle
 10
6.8883867111
 20
6.5876482064
 30
0.0
 40
0.634870509547524
100
AcDbArc
 50
55.3408821166
 51
56.9855597268
  0
LINE
  5
2AE
330
1F
100
AcDbEntity
  8
0
  6
Continuous
 62
     7
370
     0
100
AcDbLine
 10
7.2342961546
 20
7.1200082545
 30
0.0
 11
7.216434821
 21
7.109697126
 31
0.0
  0
SPLINE
  5
2AF
330
1F
100
AcDbEntity
  8
0
  6
Continuous
 62
     7
370
     0
100
AcDbSpline
210
0.0
220
0.0
230
1.0
 70
     8
 71
     3
 72
    14
 73
    10
 74
     0
 42
0.00000001
 43
0.00000001
 40
0.0
 40
0.0
 40
0.0
 40
0.0
 40
0.5001598129721907
 40
0.6334839770286457
 40
0.7547008492856588
 40
0.8160823888814048
 40
0.8744466572088005
 40
0.9383930382644334
 40
1.0
 40
1.0
 40
1.0
 40
1.0
 10
7.1871492688008
 20
7.141254668382062
 30
0.0
 10
7.190835837979867
 20
7.143430039859553
 30
0.0
 10
7.195505110569497
 20
7.146185285161823
 30
0.0
 10
7.19964007257403
 20
7.150050005984076
 30
0.0
 10
7.200685285631681
 20
7.151842404083516
 30
0.0
 10
7.200877878314968
 20
7.153250050319076
 30
0.0
 10
7.20055618855864
 20
7.154296809234078
 30
0.0
 10
7.19978422772791
 20
7.155266495955455
 30
0.0
 10
7.1989058673303
 20
7.155781013905616
 30
0.0
 10
7.198474870319767
 20
7.156033479407236
 30
0.0
  0
ARC
  5
2B0
330
1F
100
AcDbEntity
  8
0
  6
Continuous
 62
     7
370
     0
100
AcDbCircle
 10
7.1914725846
 20
7.1297377842
 30
0.0
 40
0.0272120486801468
100
AcDbArc
 50
75.0887230832
 51
134.1336166463
  0
SPLINE
  5
2B1
330
1F
100
AcDbEntity
  8
0
  6
Continuous
 62
     7
370
     0
100
AcDbSpline
210
0.0
220
0.0
230
1.0
 70
     8
 71
     3
 72
    14
 73
    10
 74
     0
 42
0.00000001
 43
0.00000001
 40
0.0
 40
0.0
 40
0.0
 40
0.0
 40
0.5003034315362006
 40
0.6254176539425956
 40
0.7501401738688528
 40
0.8143424488290184
 40
0.875038356694728
 40
0.9374874297319813
 40
0.9999999999999999
 40
0.9999999999999999
 40
0.9999999999999999
 40
0.9999999999999999
 10
7.172523909438923
 20
7.149268357716026
 30
0.0
 10
7.168753973603763
 20
7.147047081365418
 30
0.0
 10
7.164041264721673
 20
7.144270315594116
 30
0.0
 10
7.159735356694862
 20
7.140428490727219
 30
0.0
 10
7.158631476441446
 20
7.138639291263804
 30
0.0
 10
7.158500445599444
 20
7.137177694149597
 30
0.0
 10
7.158881113207704
 20
7.1361137250007
 30
0.0
 10
7.159718742455548
 20
7.135142038201202
 30
0.0
 10
7.160623542732949
 20
7.134626397107518
 30
0.0
 10
7.161076172751437
 20
7.134368445553351
 30
0.0
  0
ARC
  5
2B2
330
1F
100
AcDbEntity
  8
0
  6
Continuous
 62
     7
370
     0
100
AcDbCircle
 10
7.1680868985
 20
7.1606269444
 30
0.0
 40
0.0271782824760916
100
AcDbArc
 50
255.0513512669
 51
314.5380233817
  0
SPLINE
  5
2B3
330
1F
100
AcDbEntity
  8
0
  6
Continuous
 62
     7
370
     0
100
AcDbSpline
210
0.0
220
0.0
230
1.0
 70
     8
 71
     3
 72
     9
 73
     5
 74
     0
 42
0.00000001
 43
0.00000001
 40
0.0
 40
0.0
 40
0.0
 40
0.0
 40
0.4999994477952489
 40
1.0
 40
1.0
 40
1.0
 40
1.0
 10
7.431901083193734
 20
7.133443034863388
 30
0.0
 10
7.433367106619621
 20
7.132722280141646
 30
0.0
 10
7.436299156709576
 20
7.131280769106142
 30
0.0
 10
7.439117988618698
 20
7.129687202094305
 30
0.0
 10
7.440527406129832
 20
7.128890417708412
 30
0.0
  0
ARC
  5
2B4
330
1F
100
AcDbEntity
  8
0
  6
Continuous
 62
     7
370
     0
100
AcDbCircle
 10
7.4605362356
 20
7.1620357381
 30
0.0
 40
0.0387164761187087
100
AcDbArc
 50
238.8818871371
 51
252.5264783864
  0
ARC
  5
2B5
330
1F
100
AcDbEntity
  8
0
  6
Continuous
 62
     7
370
     0
100
AcDbCircle
 10
7.4502872456
 20
7.1309783504
 30
0.0
 40
0.0060316487175929
100
AcDbArc
 50
256.8109146924
 51
297.6438327838
  0
SPLINE
  5
2B6
330
1F
100
AcDbEntity
  8
0
  6
Continuous
 62
     7
370
     0
100
AcDbSpline
210
0.0
220
0.0
230
1.0
 70
     8
 71
     3
 72
    13
 73
     9
 74
     0
 42
0.00000001
 43
0.00000001
 40
0.0
 40
0.0
 40
0.0
 40
0.0
 40
0.2485845284523865
 40
0.3735388535746512
 40
0.4967972082220704
 40
0.6212572301445515
 40
0.7502093099199774
 40
1.0
 40
1.0
 40
1.0
 40
1.0
 10
7.453085773033471
 20
7.125635221132934
 30
0.0
 10
7.453654177663792
 20
7.126053571332442
 30
0.0
 10
7.454508298454412
 20
7.12668221083342
 30
0.0
 10
7.454884573739736
 20
7.127896094695394
 30
0.0
 10
7.454883032501092
 20
7.12885436685443
 30
0.0
 10
7.454572061051914
 20
7.129837452425483
 30
0.0
 10
7.453828645426377
 20
7.131107151759409
 30
0.0
 10
7.452953530939357
 20
7.131946919334606
 30
0.0
 10
7.452376370214428
 20
7.132500767853471
 30
0.0
  0
ARC
  5
2B7
330
1F
100
AcDbEntity
  8
0
  6
Continuous
 62
     7
370
     0
100
AcDbCircle
 10
7.4418046189
 20
7.1217579042
 30
0.0
 40
0.0150721944422971
100
AcDbArc
 50
45.4599569378
 51
119.3591519853
  0
LINE
  5
2B8
330
1F
100
AcDbEntity
  8
0
  6
Continuous
 62
     7
370
     0
100
AcDbLine
 10
7.4344149855
 20
7.1348942798
 30
0.0
 11
7.4319010832
 21
7.1334430349
 31
0.0
  0
ARC
  5
2B9
330
1F
100
AcDbEntity
  8
0
  6
Continuous
 62
     7
370
     0
100
AcDbCircle
 10
6.8352374173
 20
6.4312500973
 30
0.0
 40
1.037351787940329
100
AcDbArc
 50
28.3190387153
 51
28.9149502406
  0
SPLINE
  5
2BA
330
1F
100
AcDbEntity
  8
0
  6
Continuous
 62
     7
370
     0
100
AcDbSpline
210
0.0
220
0.0
230
1.0
 70
     8
 71
     3
 72
    12
 73
     8
 74
     0
 42
0.00000001
 43
0.00000001
 40
0.0
 40
0.0
 40
0.0
 40
0.0
 40
0.2508758277600679
 40
0.5006089009254009
 40
0.6255741322386225
 40
0.750685252371354
 40
1.0
 40
1.0
 40
1.0
 40
1.0
 10
7.743271265205733
 20
6.932820892877483
 30
0.0
 10
7.742647748181946
 20
6.933888391318065
 30
0.0
 10
7.74140355429219
 20
6.936018525679155
 30
0.0
 10
7.73931614379045
 20
6.938379894134544
 30
0.0
 10
7.737238728253187
 20
6.939411614544198
 30
0.0
 10
7.735065748515453
 20
6.939741734642812
 30
0.0
 10
7.73365818122647
 20
6.939107853687624
 30
0.0
 10
7.732720940203244
 20
6.938685778494705
 30
0.0
  0
SPLINE
  5
2BB
330
1F
100
AcDbEntity
  8
0
  6
Continuous
 62
     7
370
     0
100
AcDbSpline
210
0.0
220
0.0
230
1.0
 70
     8
 71
     3
 72
    13
 73
     9
 74
     0
 42
0.00000001
 43
0.00000001
 40
0.0
 40
0.0
 40
0.0
 40
0.0
 40
0.1252642249999859
 40
0.2502628772393944
 40
0.3767307195563485
 40
0.5001238771618367
 40
0.7494666677387665
 40
1.0
 40
1.0
 40
1.0
 40
1.0
 10
7.732720940203244
 20
6.938685778494705
 30
0.0
 10
7.732309020694613
 20
6.938413796174742
 30
0.0
 10
7.731486054988157
 20
6.937870408164701
 30
0.0
 10
7.730545481395954
 20
6.936649965109598
 30
0.0
 10
7.729973835433724
 20
6.935144529645878
 30
0.0
 10
7.729857100264691
 20
6.932857214978504
 30
0.0
 10
7.730762426630779
 20
6.929938640129539
 30
0.0
 10
7.731870250866488
 20
6.927812636181988
 30
0.0
 10
7.732425482222122
 20
6.926747102484647
 30
0.0
  0
ARC
  5
2BC
330
1F
100
AcDbEntity
  8
0
  6
Continuous
 62
     7
370
     0
100
AcDbCircle
 10
6.8244602752
 20
6.425028919
 30
0.0
 40
1.037362980221319
100
AcDbArc
 50
28.3190408778
 51
28.9239090594
  0
LINE
  5
2BD
330
1F
100
AcDbEntity
  8
0
  6
Continuous
 62
     7
370
     0
100
AcDbLine
 10
7.7376713978
 20
6.9171339874
 30
0.0
 11
7.7484387056
 21
6.9233498219
 31
0.0
  0
ARC
  5
2BE
330
1F
100
AcDbEntity
  8
0
  6
Continuous
 62
     7
370
     0
100
AcDbCircle
 10
6.8574419282
 20
6.4440722007
 30
0.0
 40
1.037477767654678
100
AcDbArc
 50
28.3190649497
 51
29.0179712776
  0
SPLINE
  5
2BF
330
1F
100
AcDbEntity
  8
0
  6
Continuous
 62
     7
370
     0
100
AcDbSpline
210
0.0
220
0.0
230
1.0
 70
     8
 71
     3
 72
    13
 73
     9
 74
     0
 42
0.00000001
 43
0.00000001
 40
0.0
 40
0.0
 40
0.0
 40
0.0
 40
0.2576868080814902
 40
0.4999433752796649
 40
0.6237499127087888
 40
0.748828737890791
 40
0.8752064661227736
 40
1.0
 40
1.0
 40
1.0
 40
1.0
 10
7.764682621448896
 20
6.947335991225137
 30
0.0
 10
7.763966268738129
 20
6.948539557768521
 30
0.0
 10
7.762576458391305
 20
6.950874621501711
 30
0.0
 10
7.760287239569108
 20
6.953445930916468
 30
0.0
 10
7.758056080066189
 20
6.954646453774885
 30
0.0
 10
7.756272217671639
 20
6.955000879772253
 30
0.0
 10
7.754532925239698
 20
6.954833737055778
 30
0.0
 10
7.753528624563812
 20
6.954332448152955
 30
0.0
 10
7.753029641402416
 20
6.954083384573184
 30
0.0
  0
SPLINE
  5
2C0
330
1F
100
AcDbEntity
  8
0
  6
Continuous
 62
     7
370
     0
100
AcDbSpline
210
0.0
220
0.0
230
1.0
 70
     8
 71
     3
 72
    13
 73
     9
 74
     0
 42
0.00000001
 43
0.00000001
 40
0.0
 40
0.0
 40
0.0
 40
0.0
 40
0.1296897594728218
 40
0.2496082834017037
 40
0.3753937891361859
 40
0.4998958881043095
 40
0.7495309619035267
 40
1.0
 40
1.0
 40
1.0
 40
1.0
 10
7.753029641402416
 20
6.954083384573184
 30
0.0
 10
7.752558378049429
 20
6.953762673227485
 30
0.0
 10
7.751651357810917
 20
6.953145413940454
 30
0.0
 10
7.750713218346575
 20
6.951689669565527
 30
0.0
 10
7.750214252475128
 20
6.949966607496396
 30
0.0
 10
7.750260918985348
 20
6.947390805906843
 30
0.0
 10
7.751339629362116
 20
6.944179712984099
 30
0.0
 10
7.752579631252519
 20
6.941816320667252
 30
0.0
 10
7.753200666099744
 20
6.940632653934335
 30
0.0
  0
ARC
  5
2C1
330
1F
100
AcDbEntity
  8
0
  6
Continuous
 62
     7
370
     0
100
AcDbCircle
 10
6.8459322458
 20
6.4374276777
 30
0.0
 40
1.03747348615402
100
AcDbArc
 50
28.3190639889
 51
29.0143881314
  0
LINE
  5
2C2
330
1F
100
AcDbEntity
  8
0
  6
Continuous
 62
     7
370
     0
100
AcDbLine
 10
7.7592404504
 20
6.9295855364
 30
0.0
 11
7.7707538936
 21
6.9362321057
 31
0.0
  0
ARC
  5
2C3
330
1F
100
AcDbEntity
  8
0
  6
Continuous
 62
     7
370
     0
100
AcDbCircle
 10
6.8430627718
 20
6.4363128677
 30
0.0
 40
1.028033800089588
100
AcDbArc
 50
33.1378589936
 51
33.7373659802
  0
SPLINE
  5
2C4
330
1F
100
AcDbEntity
  8
0
  6
Continuous
 62
     7
370
     0
100
AcDbSpline
210
0.0
220
0.0
230
1.0
 70
     8
 71
     3
 72
    12
 73
     8
 74
     0
 42
0.00000001
 43
0.00000001
 40
0.0
 40
0.0
 40
0.0
 40
0.0
 40
0.2508758277601236
 40
0.5006089009255029
 40
0.6255741322428234
 40
0.7506852523713298
 40
0.9999999999999999
 40
0.9999999999999999
 40
0.9999999999999999
 40
0.9999999999999999
 10
7.697967556657874
 20
7.007269348453417
 30
0.0
 10
7.697257988631689
 20
7.008278509543168
 30
0.0
 10
7.695842084704667
 20
7.010292234932769
 30
0.0
 10
7.693541639904963
 20
7.01250476302346
 30
0.0
 10
7.691331500698042
 20
7.013442522711665
 30
0.0
 10
7.689064497867983
 20
7.013705523502127
 30
0.0
 10
7.687646359393145
 20
7.013064023391637
 30
0.0
 10
7.686702079453101
 20
7.012636874917339
 30
0.0
  0
SPLINE
  5
2C5
330
1F
100
AcDbEntity
  8
0
  6
Continuous
 62
     7
370
     0
100
AcDbSpline
210
0.0
220
0.0
230
1.0
 70
     8
 71
     3
 72
    13
 73
     9
 74
     0
 42
0.00000001
 43
0.00000001
 40
0.0
 40
0.0
 40
0.0
 40
0.0
 40
0.1252642249998681
 40
0.2502628772391458
 40
0.3767307195291328
 40
0.5001238771623264
 40
0.749466667738998
 40
0.9999999999999999
 40
0.9999999999999999
 40
0.9999999999999999
 40
0.9999999999999999
 10
7.686702079453101
 20
7.012636874917339
 30
0.0
 10
7.686292184594657
 20
7.012366346767201
 30
0.0
 10
7.68547326389611
 20
7.011825864013822
 30
0.0
 10
7.684572838803777
 20
7.010634196262879
 30
0.0
 10
7.684070956473803
 20
7.009178523822006
 30
0.0
 10
7.68408630258421
 20
7.006984679256276
 30
0.0
 10
7.685197197172545
 20
7.004209700373996
 30
0.0
 10
7.686471693710829
 20
7.002196786964101
 30
0.0
 10
7.687110459697248
 20
7.001187933207953
 30
0.0
  0
ARC
  5
2C6
330
1F
100
AcDbEntity
  8
0
  6
Continuous
 62
     7
370
     0
100
AcDbCircle
 10
6.8323199942
 20
6.4301131705
 30
0.0
 40
1.028004437915715
100
AcDbArc
 50
33.1378532457
 51
33.7463868941
  0
LINE
  5
2C7
330
1F
100
AcDbEntity
  8
0
  6
Continuous
 62
     7
370
     0
100
AcDbLine
 10
7.6931274712
 20
6.9920772369
 30
0.0
 11
7.703894779
 21
6.9982930714
 31
0.0
  0
ARC
  5
2C8
330
1F
100
AcDbEntity
  8
0
  6
Continuous
 62
     7
370
     0
100
AcDbCircle
 10
6.8656622301
 20
6.4493822724
 30
0.0
 40
1.027693473522149
100
AcDbArc
 50
33.1377871186
 51
33.8411225045
  0
SPLINE
  5
2C9
330
1F
100
AcDbEntity
  8
0
  6
Continuous
 62
     7
370
     0
100
AcDbSpline
210
0.0
220
0.0
230
1.0
 70
     8
 71
     3
 72
    13
 73
     9
 74
     0
 42
0.00000001
 43
0.00000001
 40
0.0
 40
0.0
 40
0.0
 40
0.0
 40
0.2576868080739932
 40
0.4999433752794856
 40
0.6237499127125448
 40
0.7488287379032262
 40
0.8752064661196091
 40
1.0
 40
1.0
 40
1.0
 40
1.0
 10
7.719249002602572
 20
7.021696432096322
 30
0.0
 10
7.718435530785773
 20
7.022833334744763
 30
0.0
 10
7.716857297701882
 20
7.02503906251047
 30
0.0
 10
7.714336631910725
 20
7.027446195501422
 30
0.0
 10
7.711958179268421
 20
7.028540724283995
 30
0.0
 10
7.710092618380623
 20
7.028835826866473
 30
0.0
 10
7.708304020822941
 20
7.028632672336649
 30
0.0
 10
7.70729510060981
 20
7.028128000250984
 30
0.0
 10
7.706793822247992
 20
7.027877255749023
 30
0.0
  0
SPLINE
  5
2CA
330
1F
100
AcDbEntity
  8
0
  6
Continuous
 62
     7
370
     0
100
AcDbSpline
210
0.0
220
0.0
230
1.0
 70
     8
 71
     3
 72
    13
 73
     9
 74
     0
 42
0.00000001
 43
0.00000001
 40
0.0
 40
0.0
 40
0.0
 40
0.0
 40
0.1296897594731607
 40
0.2496082834027901
 40
0.3753937891474426
 40
0.4998958881045773
 40
0.7495309619036562
 40
1.0
 40
1.0
 40
1.0
 40
1.0
 10
7.706793822247992
 20
7.027877255749023
 30
0.0
 10
7.706325422742163
 20
7.027558642157998
 30
0.0
 10
7.70542391442669
 20
7.02694542032886
 30
0.0
 10
7.704539637161292
 20
7.025529000512098
 30
0.0
 10
7.704125383132554
 20
7.023867413499005
 30
0.0
 10
7.704326153193564
 20
7.021402389300979
 30
0.0
 10
7.705632914202308
 20
7.018352805107777
 30
0.0
 10
7.70705788498
 20
7.016116290410044
 30
0.0
 10
7.707771558496202
 20
7.014996168276062
 30
0.0
  0
ARC
  5
2CB
330
1F
100
AcDbEntity
  8
0
  6
Continuous
 62
     7
370
     0
100
AcDbCircle
 10
6.8541388195
 20
6.4427291379
 30
0.0
 40
1.02770540875125
100
AcDbArc
 50
33.1377898329
 51
33.8375129894
  0
LINE
  5
2CC
330
1F
100
AcDbEntity
  8
0
  6
Continuous
 62
     7
370
     0
100
AcDbLine
 10
7.7146965239
 20
7.004528786
 30
0.0
 11
7.7262099671
 21
7.0111753553
 31
0.0
  0
SPLINE
  5
2CD
330
1F
100
AcDbEntity
  8
0
  6
Continuous
 62
     7
370
     0
100
AcDbSpline
210
0.0
220
0.0
230
1.0
 70
    24
 71
     1
 72
     4
 73
     2
 74
     0
 42
0.00000001
 43
0.00000001
 40
0.0
 40
0.0
 40
1.0
 40
1.0
 10
7.639864392186404
 20
7.072066441081312
 30
0.0
 10
7.665634414108411
 20
7.077081158313539
 30
0.0
  0
ARC
  5
2CE
330
1F
100
AcDbEntity
  8
0
  6
Continuous
 62
     7
370
     0
100
AcDbCircle
 10
6.9005779044
 20
6.4766111026
 30
0.0
 40
0.9725614381096584
100
AcDbArc
 50
38.1273119219
 51
39.1469756251
  0
SPLINE
  5
2CF
330
1F
100
AcDbEntity
  8
0
  6
Continuous
 62
     7
370
     0
100
AcDbSpline
210
0.0
220
0.0
230
1.0
 70
    24
 71
     1
 72
     4
 73
     2
 74
     0
 42
0.00000001
 43
0.00000001
 40
0.0
 40
0.0
 40
1.0
 40
1.0
 10
7.654827570265852
 20
7.090600672868216
 30
0.0
 10
7.639864392186404
 20
7.072066441081312
 30
0.0
  0
ARC
  5
2D0
330
1F
100
AcDbEntity
  8
0
  6
Continuous
 62
     7
370
     0
100
AcDbCircle
 10
6.9510193375
 20
6.5243709073
 30
0.0
 40
0.8893955511820874
100
AcDbArc
 50
43.1990159119
 51
43.839449872
  0
SPLINE
  5
2D1
330
1F
100
AcDbEntity
  8
0
  6
Continuous
 62
     7
370
     0
100
AcDbSpline
210
0.0
220
0.0
230
1.0
 70
    24
 71
     1
 72
     4
 73
     2
 74
     0
 42
0.00000001
 43
0.00000001
 40
0.0
 40
0.0
 40
1.0
 40
1.0
 10
7.592525669607217
 20
7.140401809363562
 30
0.0
 10
7.587421955127428
 20
7.144421301248133
 30
0.0
  0
ARC
  5
2D2
330
1F
100
AcDbEntity
  8
0
  6
Continuous
 62
     7
370
     0
100
AcDbCircle
 10
7.5823868193
 20
7.1379509347
 30
0.0
 40
0.0081986728349852
100
AcDbArc
 50
52.1105164701
 51
117.0235251862
  0
SPLINE
  5
2D3
330
1F
100
AcDbEntity
  8
0
  6
Continuous
 62
     7
370
     0
100
AcDbSpline
210
0.0
220
0.0
230
1.0
 70
     8
 71
     3
 72
    13
 73
     9
 74
     0
 42
0.00000001
 43
0.00000001
 40
0.0
 40
0.0
 40
0.0
 40
0.0
 40
0.12523237960243
 40
0.2501692759914398
 40
0.3766784429378952
 40
0.4998070571087095
 40
0.7494738685102172
 40
1.0
 40
1.0
 40
1.0
 40
1.0
 10
7.578661700609057
 20
7.145254476801642
 30
0.0
 10
7.578202410482253
 20
7.144953270369815
 30
0.0
 10
7.577284913914212
 20
7.144351568196512
 30
0.0
 10
7.576344816823791
 20
7.143097750534082
 30
0.0
 10
7.575938071750076
 20
7.14160380895734
 30
0.0
 10
7.57636418940758
 20
7.139431180826388
 30
0.0
 10
7.578097748440251
 20
7.136851790325935
 30
0.0
 10
7.579825037085675
 20
7.134974825043232
 30
0.0
 10
7.580690165129672
 20
7.134034730110068
 30
0.0
  0
ARC
  5
2D4
330
1F
100
AcDbEntity
  8
0
  6
Continuous
 62
     7
370
     0
100
AcDbCircle
 10
6.9396581083
 20
6.5178810701
 30
0.0
 40
0.8891385890904717
100
AcDbArc
 50
43.1989529107
 51
43.866324128
  0
LINE
  5
2D5
330
1F
100
AcDbEntity
  8
0
  6
Continuous
 62
     7
370
     0
100
AcDbLine
 10
7.5878233684
 20
7.1265264728
 30
0.0
 11
7.5993712486
 21
7.1331929222
 31
0.0
  0
SPLINE
  5
2D6
330
1F
100
AcDbEntity
  8
0
  6
Continuous
 62
     7
370
     0
100
AcDbSpline
210
0.0
220
0.0
230
1.0
 70
    24
 71
     1
 72
     4
 73
     2
 74
     0
 42
0.00000001
 43
0.00000001
 40
0.0
 40
0.0
 40
1.0
 40
1.0
 10
7.50166516549579
 20
7.212616060745107
 30
0.0
 10
7.53442796541873
 20
7.210946546006828
 30
0.0
  0
ARC
  5
2D7
330
1F
100
AcDbEntity
  8
0
  6
Continuous
 62
     7
370
     0
100
AcDbCircle
 10
7.0675317106
 20
6.6454807394
 30
0.0
 40
0.7333100921403432
100
AcDbArc
 50
50.4540464724
 51
51.9480242432
  0
LINE
  5
2D8
330
1F
100
AcDbEntity
  8
0
  6
Continuous
 62
     7
370
     0
100
AcDbLine
 10
7.5195264991
 20
7.2229271892
 30
0.0
 11
7.5016651655
 21
7.2126160607
 31
0.0
  0
SPLINE
  5
2D9
330
1F
100
AcDbEntity
  8
0
  6
Continuous
 62
     7
370
     0
100
AcDbSpline
210
0.0
220
0.0
230
1.0
 70
     8
 71
     3
 72
    14
 73
    10
 74
     0
 42
0.00000001
 43
0.00000001
 40
0.0
 40
0.0
 40
0.0
 40
0.0
 40
0.5001598129719906
 40
0.6334839770250885
 40
0.7547008492915407
 40
0.8160823888863423
 40
0.8744466572150967
 40
0.9383930382640479
 40
0.9999999999999999
 40
0.9999999999999999
 40
0.9999999999999999
 40
0.9999999999999999
 10
7.472709934528752
 20
7.249390333674965
 30
0.0
 10
7.476396643362823
 20
7.251571121753122
 30
0.0
 10
7.481066092834308
 20
7.254333227522057
 30
0.0
 10
7.485203997546274
 20
7.258370346191289
 30
0.0
 10
7.486251301614484
 20
7.260301983688321
 30
0.0
 10
7.486445779428455
 20
7.261862191801738
 30
0.0
 10
7.486125578360057
 20
7.263054549280842
 30
0.0
 10
7.485354950668876
 20
7.264192141744696
 30
0.0
 10
7.484477113782559
 20
7.264828674987109
 30
0.0
 10
7.484046373650385
 20
7.265141011387233
 30
0.0
  0
SPLINE
  5
2DA
330
1F
100
AcDbEntity
  8
0
  6
Continuous
 62
     7
370
     0
100
AcDbSpline
210
0.0
220
0.0
230
1.0
 70
     8
 71
     3
 72
    14
 73
    10
 74
     0
 42
0.00000001
 43
0.00000001
 40
0.0
 40
0.0
 40
0.0
 40
0.0
 40
0.0625270621852508
 40
0.1249759676499836
 40
0.187478417854278
 40
0.249933795640815
 40
0.3634906992450971
 40
0.4998436771422844
 40
0.9999999999999999
 40
0.9999999999999999
 40
0.9999999999999999
 40
0.9999999999999999
 10
7.484046373650385
 20
7.265141011387233
 30
0.0
 10
7.483562498531445
 20
7.265423646282014
 30
0.0
 10
7.482595353121154
 20
7.265988562787482
 30
0.0
 10
7.480798144351493
 20
7.266536177467752
 30
0.0
 10
7.478888123568544
 20
7.266843674710452
 30
0.0
 10
7.476396197410389
 20
7.26688459662862
 30
0.0
 10
7.47325478899348
 20
7.266394008728238
 30
0.0
 10
7.466465092101078
 20
7.26423565371365
 30
0.0
 10
7.461775847725908
 20
7.261512712524019
 30
0.0
 10
7.458091132952871
 20
7.259373079605619
 30
0.0
  0
SPLINE
  5
2DB
330
1F
100
AcDbEntity
  8
0
  6
Continuous
 62
     7
370
     0
100
AcDbSpline
210
0.0
220
0.0
230
1.0
 70
     8
 71
     3
 72
    14
 73
    10
 74
     0
 42
0.00000001
 43
0.00000001
 40
0.0
 40
0.0
 40
0.0
 40
0.0
 40
0.5003034315361201
 40
0.6254176539425013
 40
0.7501401738687395
 40
0.8143424488261507
 40
0.8750383566947476
 40
0.9374874297319961
 40
1.0
 40
1.0
 40
1.0
 40
1.0
 10
7.458091132952871
 20
7.259373079605619
 30
0.0
 10
7.454321298682769
 20
7.257146202748059
 30
0.0
 10
7.44960871676479
 20
7.254362435913605
 30
0.0
 10
7.445304513305106
 20
7.250354154797147
 30
0.0
 10
7.444201825230954
 20
7.248424034874231
 30
0.0
 10
7.444071743039933
 20
7.246793798888324
 30
0.0
 10
7.444452927800594
 20
7.245574306511214
 30
0.0
 10
7.44529072578816
 20
7.244427098580596
 30
0.0
 10
7.44619518494591
 20
7.243787128011183
 30
0.0
 10
7.446647644317904
 20
7.243466980131147
 30
0.0
  0
SPLINE
  5
2DC
330
1F
100
AcDbEntity
  8
0
  6
Continuous
 62
     7
370
     0
100
AcDbSpline
210
0.0
220
0.0
230
1.0
 70
     8
 71
     3
 72
    14
 73
    10
 74
     0
 42
0.00000001
 43
0.00000001
 40
0.0
 40
0.0
 40
0.0
 40
0.0
 40
0.0625005409549553
 40
0.1249727346346765
 40
0.1854844482438799
 40
0.2498740647269505
 40
0.3606505595037356
 40
0.4996888686475637
 40
0.9999999999999999
 40
0.9999999999999999
 40
0.9999999999999999
 40
0.9999999999999999
 10
7.446647644317904
 20
7.243466980131147
 30
0.0
 10
7.447133667499739
 20
7.243179252234038
 30
0.0
 10
7.44810549342639
 20
7.242603926939516
 30
0.0
 10
7.449885732312537
 20
7.242018530412722
 30
0.0
 10
7.451825813784716
 20
7.241705074658609
 30
0.0
 10
7.454312352120731
 20
7.241694837942942
 30
0.0
 10
7.457457502198122
 20
7.242246432185772
 30
0.0
 10
7.464155761211548
 20
7.244541253433721
 30
0.0
 10
7.468954651389341
 20
7.247261586852058
 30
0.0
 10
7.472709934528752
 20
7.249390333674965
 30
0.0
  0
ARC
  5
2DD
330
1F
100
AcDbEntity
  8
0
  6
Continuous
 62
     7
370
     0
100
AcDbCircle
 10
7.2375592235
 20
7.2549514319
 30
0.0
 40
0.0177317384601873
100
AcDbArc
 50
253.2281851877
 51
282.2431543401
  0
ARC
  5
2DE
330
1F
100
AcDbEntity
  8
0
  6
Continuous
 62
     7
370
     0
100
AcDbCircle
 10
7.2355074327
 20
7.2660929125
 30
0.0
 40
0.0290571267457256
100
AcDbArc
 50
281.5381144016
 51
296.8848403153
  0
ARC
  5
2DF
330
1F
100
AcDbEntity
  8
0
  6
Continuous
 62
     7
370
     0
100
AcDbCircle
 10
7.1081528992
 20
6.8560806347
 30
0.0
 40
0.4089842631166599
100
AcDbArc
 50
69.9085443476
 51
72.1635315392
  0
SPLINE
  5
2E0
330
1F
100
AcDbEntity
  8
0
  6
Continuous
 62
     7
370
     0
100
AcDbSpline
210
0.0
220
0.0
230
1.0
 70
     8
 71
     3
 72
    13
 73
     9
 74
     0
 42
0.00000001
 43
0.00000001
 40
0.0
 40
0.0
 40
0.0
 40
0.0
 40
0.2503831206489729
 40
0.4995031561263995
 40
0.623233893950948
 40
0.7495671229800199
 40
0.8746833959388052
 40
1.0
 40
1.0
 40
1.0
 40
1.0
 10
7.233425297712675
 20
7.245406916444942
 30
0.0
 10
7.232504717015159
 20
7.244746724593297
 30
0.0
 10
7.230668199590633
 20
7.243429671300365
 30
0.0
 10
7.229247485688631
 20
7.241621842126388
 30
0.0
 10
7.229257891135712
 20
7.240252238171375
 30
0.0
 10
7.229849291824475
 20
7.239333280971045
 30
0.0
 10
7.230934071847967
 20
7.238556599923853
 30
0.0
 10
7.231939448055579
 20
7.238168286076823
 30
0.0
 10
7.232442538279359
 20
7.237973973839552
 30
0.0
  0
SPLINE
  5
2E1
330
1F
100
AcDbEntity
  8
0
  6
Continuous
 62
     7
370
     0
100
AcDbSpline
210
0.0
220
0.0
230
1.0
 70
     8
 71
     3
 72
    14
 73
    10
 74
     0
 42
0.00000001
 43
0.00000001
 40
0.0
 40
0.0
 40
0.0
 40
0.0
 40
0.5001598129720124
 40
0.6334839770259627
 40
0.7547008492913921
 40
0.8160823888862179
 40
0.8744466572152133
 40
0.9383930382650563
 40
1.0
 40
1.0
 40
1.0
 40
1.0
 10
7.419855669123295
 20
7.280877444572844
 30
0.0
 10
7.423542253908735
 20
7.283052261288153
 30
0.0
 10
7.428211546264806
 20
7.285806803949088
 30
0.0
 10
7.432347149201397
 20
7.289653881387794
 30
0.0
 10
7.433392907345092
 20
7.291432032126306
 30
0.0
 10
7.43358613624139
 20
7.29282407143211
 30
0.0
 10
7.43326508345924
 20
7.293855938528584
 30
0.0
 10
7.432493894023972
 20
7.294808455278649
 30
0.0
 10
7.43161613693866
 20
7.295310499971098
 30
0.0
 10
7.431185435963536
 20
7.295556845050177
 30
0.0
  0
ARC
  5
2E2
330
1F
100
AcDbEntity
  8
0
  6
Continuous
 62
     7
370
     0
100
AcDbCircle
 10
7.4243709684
 20
7.2688563523
 30
0.0
 40
0.0275563655110052
100
AcDbArc
 50
75.6826781726
 51
133.966714329
  0
SPLINE
  5
2E3
330
1F
100
AcDbEntity
  8
0
  6
Continuous
 62
     7
370
     0
100
AcDbSpline
210
0.0
220
0.0
230
1.0
 70
     8
 71
     3
 72
    14
 73
    10
 74
     0
 42
0.00000001
 43
0.00000001
 40
0.0
 40
0.0
 40
0.0
 40
0.0
 40
0.5003034315361334
 40
0.6254176539425137
 40
0.7501401738687583
 40
0.8143424488217811
 40
0.8750383566947445
 40
0.9374874297319901
 40
0.9999999999999999
 40
0.9999999999999999
 40
0.9999999999999999
 40
0.9999999999999999
 10
7.405240227383565
 20
7.288689860029906
 30
0.0
 10
7.401470251798768
 20
7.286469155081055
 30
0.0
 10
7.396757493226588
 20
7.283693103605765
 30
0.0
 10
7.392450529935763
 20
7.279868273468191
 30
0.0
 10
7.391345780391566
 20
7.278093463839519
 30
0.0
 10
7.391213755165482
 20
7.276649091242649
 30
0.0
 10
7.391593540069038
 20
7.275601010192905
 30
0.0
 10
7.39243021294307
 20
7.274647258162759
 30
0.0
 10
7.393334380001994
 20
7.274144325181792
 30
0.0
 10
7.393786693250363
 20
7.273892730912694
 30
0.0
  0
ARC
  5
2E4
330
1F
100
AcDbEntity
  8
0
  6
Continuous
 62
     7
370
     0
100
AcDbCircle
 10
7.4006140759
 20
7.3005518036
 30
0.0
 40
0.0275194351941803
100
AcDbArc
 50
255.6352981894
 51
314.3628670164
  0
SPLINE
  5
2E5
330
1F
100
AcDbEntity
  8
0
  6
Continuous
 62
     7
370
     0
100
AcDbSpline
210
0.0
220
0.0
230
1.0
 70
     8
 71
     3
 72
    13
 73
     9
 74
     0
 42
0.00000001
 43
0.00000001
 40
0.0
 40
0.0
 40
0.0
 40
0.0
 40
0.2502837930806136
 40
0.4996335298262104
 40
0.6262055894949922
 40
0.7498197801868028
 40
0.8748231480904378
 40
1.0
 40
1.0
 40
1.0
 40
1.0
 10
7.188164063010159
 20
7.259540469423092
 30
0.0
 10
7.187076298660654
 20
7.25888036107551
 30
0.0
 10
7.18490482948611
 20
7.257562607897365
 30
0.0
 10
7.183064474480877
 20
7.255820124673455
 30
0.0
 10
7.182685845402315
 20
7.254562259566665
 30
0.0
 10
7.183019696477081
 20
7.253753238763007
 30
0.0
 10
7.183895322635192
 20
7.253106967678557
 30
0.0
 10
7.184905323528404
 20
7.252862250311017
 30
0.0
 10
7.185410674160572
 20
7.252739806779313
 30
0.0
  0
ARC
  5
2E6
330
1F
100
AcDbEntity
  8
0
  6
Continuous
 62
     7
370
     0
100
AcDbCircle
 10
7.1870948667
 20
7.2778009338
 30
0.0
 40
0.0251176550085375
100
AcDbArc
 50
266.1553106281
 51
305.0278990948
  0
SPLINE
  5
2E7
330
1F
100
AcDbEntity
  8
0
  6
Continuous
 62
     7
370
     0
100
AcDbSpline
210
0.0
220
0.0
230
1.0
 70
     8
 71
     3
 72
    13
 73
     9
 74
     0
 42
0.00000001
 43
0.00000001
 40
0.0
 40
0.0
 40
0.0
 40
0.0
 40
0.2503895108601112
 40
0.4999174635816845
 40
0.6260458464152372
 40
0.7500378636044771
 40
0.8749142295200567
 40
1.0
 40
1.0
 40
1.0
 40
1.0
 10
7.201511778766332
 20
7.25723277297488
 30
0.0
 10
7.202582889761434
 20
7.257876524823932
 30
0.0
 10
7.204721426196317
 20
7.259161813454629
 30
0.0
 10
7.206655622607804
 20
7.260886797805654
 30
0.0
 10
7.207242752204158
 20
7.262189634176695
 30
0.0
 10
7.207084271941311
 20
7.2630532473176
 30
0.0
 10
7.206359219305491
 20
7.263759210927494
 30
0.0
 10
7.205387011565238
 20
7.26400887582707
 30
0.0
 10
7.204900500463958
 20
7.264133812854635
 30
0.0
  0
ARC
  5
2E8
330
1F
100
AcDbEntity
  8
0
  6
Continuous
 62
     7
370
     0
100
AcDbCircle
 10
7.2030207295
 20
7.2381956473
 30
0.0
 40
0.0260061910249217
100
AcDbArc
 50
85.8549505573
 51
124.8391289118
  0
ARC
  5
2E9
330
1F
100
AcDbEntity
  8
0
  6
Continuous
 62
     7
370
     0
100
AcDbCircle
 10
7.1265563647
 20
7.0105994343
 30
0.0
 40
0.2464054340785538
100
AcDbArc
 50
93.3751856034
 51
94.2513347298
  0
ARC
  5
2EA
330
1F
100
AcDbEntity
  8
0
  6
Continuous
 62
     7
370
     0
100
AcDbCircle
 10
7.1107128347
 20
7.2229450979
 30
0.0
 40
0.033469591145937
100
AcDbArc
 50
94.1513846182
 51
119.832822533
  0
SPLINE
  5
2EB
330
1F
100
AcDbEntity
  8
0
  6
Continuous
 62
     7
370
     0
100
AcDbSpline
210
0.0
220
0.0
230
1.0
 70
     8
 71
     3
 72
    13
 73
     9
 74
     0
 42
0.00000001
 43
0.00000001
 40
0.0
 40
0.0
 40
0.0
 40
0.0
 40
0.1297148784725325
 40
0.2501166036269359
 40
0.3795473458376665
 40
0.5003189319524105
 40
0.7495371040292224
 40
0.9999999999999999
 40
0.9999999999999999
 40
0.9999999999999999
 40
0.9999999999999999
 10
7.094062684101721
 20
7.25197931938909
 30
0.0
 10
7.093564727168648
 20
7.251679414553921
 30
0.0
 10
7.092604565170893
 20
7.251101137183836
 30
0.0
 10
7.091602175567198
 20
7.250309287556791
 30
0.0
 10
7.091018626692723
 20
7.249644717931884
 30
0.0
 10
7.091019283370361
 20
7.249007626609452
 30
0.0
 10
7.09248536673143
 20
7.248812441956927
 30
0.0
 10
7.094165423668091
 20
7.248914010226091
 30
0.0
 10
7.095007544678191
 20
7.248964920865817
 30
0.0
  0
ARC
  5
2EC
330
1F
100
AcDbEntity
  8
0
  6
Continuous
 62
     7
370
     0
100
AcDbCircle
 10
7.1138656626
 20
7.0035607206
 30
0.0
 40
0.2461277109557233
100
AcDbArc
 50
93.3748291383
 51
94.3942656246
  0
LINE
  5
2ED
330
1F
100
AcDbEntity
  8
0
  6
Continuous
 62
     7
370
     0
100
AcDbLine
 10
7.0993766591
 20
7.2492615934
 30
0.0
 11
7.112049482
 21
7.2565774583
 31
0.0
  0
SPLINE
  5
2EE
330
1F
100
AcDbEntity
  8
0
  6
Continuous
 62
     7
370
     0
100
AcDbSpline
210
0.0
220
0.0
230
1.0
 70
     8
 71
     3
 72
    14
 73
    10
 74
     0
 42
0.00000001
 43
0.00000001
 40
0.0
 40
0.0
 40
0.0
 40
0.0
 40
0.5001598129721029
 40
0.6334839770283902
 40
0.7547008492890254
 40
0.8160823888842329
 40
0.8744466572138482
 40
0.9383930382646619
 40
1.0
 40
1.0
 40
1.0
 40
1.0
 10
7.290835561335174
 20
7.32481513976811
 30
0.0
 10
7.29452466657626
 20
7.326973725036727
 30
0.0
 10
7.299197151248534
 20
7.329707709545784
 30
0.0
 10
7.303416529082852
 20
7.33303949545306
 30
0.0
 10
7.304530625196143
 20
7.334401714818964
 30
0.0
 10
7.304799691264128
 20
7.335338382395796
 30
0.0
 10
7.304551748753492
 20
7.335935934392152
 30
0.0
 10
7.303865778612861
 20
7.336387931101115
 30
0.0
 10
7.303051003107078
 20
7.33652664389041
 30
0.0
 10
7.302651206157879
 20
7.336594707976261
 30
0.0
  0
ARC
  5
2EF
330
1F
100
AcDbEntity
  8
0
  6
Continuous
 62
     7
370
     0
100
AcDbCircle
 10
7.3054872995
 20
7.2915021248
 30
0.0
 40
0.0451816830609041
100
AcDbArc
 50
93.598871718
 51
128.6948129195
  0
SPLINE
  5
2F0
330
1F
100
AcDbEntity
  8
0
  6
Continuous
 62
     7
370
     0
100
AcDbSpline
210
0.0
220
0.0
230
1.0
 70
     8
 71
     3
 72
    14
 73
    10
 74
     0
 42
0.00000001
 43
0.00000001
 40
0.0
 40
0.0
 40
0.0
 40
0.0
 40
0.500303431536152
 40
0.6254176539425397
 40
0.750140173868785
 40
0.8143424488249315
 40
0.875038356694735
 40
0.9374874297319892
 40
1.0
 40
1.0
 40
1.0
 40
1.0
 10
7.277240976368653
 20
7.326765841434089
 30
0.0
 10
7.273467812732473
 20
7.324561703256355
 30
0.0
 10
7.268751068851592
 20
7.321806361515343
 30
0.0
 10
7.264352461038098
 20
7.318475075791913
 30
0.0
 10
7.263170719701785
 20
7.317118316806413
 30
0.0
 10
7.262947689900502
 20
7.316174642858622
 30
0.0
 10
7.263244394449186
 20
7.315588633157954
 30
0.0
 10
7.263988285913171
 20
7.315156731751095
 30
0.0
 10
7.264827821773149
 20
7.315023853035124
 30
0.0
 10
7.265247803001398
 20
7.314957379917058
 30
0.0
  0
ARC
  5
2F1
330
1F
100
AcDbEntity
  8
0
  6
Continuous
 62
     7
370
     0
100
AcDbCircle
 10
7.2627122832
 20
7.3596767358
 30
0.0
 40
0.0447911783232466
100
AcDbArc
 50
273.2451096202
 51
308.8935453736
  0
SPLINE
  5
2F2
330
1F
100
AcDbEntity
  8
0
  6
Continuous
 62
     7
370
     0
100
AcDbSpline
210
0.0
220
0.0
230
1.0
 70
     8
 71
     3
 72
     9
 73
     5
 74
     0
 42
0.00000001
 43
0.00000001
 40
0.0
 40
0.0
 40
0.0
 40
0.0
 40
0.4999994477952424
 40
1.0
 40
1.0
 40
1.0
 40
1.0
 10
7.069398910553192
 20
7.253914576888474
 30
0.0
 10
7.07066392376603
 20
7.254414661365547
 30
0.0
 10
7.073193952985894
 20
7.25541483142429
 30
0.0
 10
7.075626012653956
 20
7.256304714129096
 30
0.0
 10
7.076842043830982
 20
7.256749655972897
 30
0.0
  0
ARC
  5
2F3
330
1F
100
AcDbEntity
  8
0
  6
Continuous
 62
     7
370
     0
100
AcDbCircle
 10
7.0131934189
 20
7.4353795237
 30
0.0
 40
0.1896306333642833
100
AcDbArc
 50
289.6117811917
 51
292.0043592539
  0
ARC
  5
2F4
330
1F
100
AcDbEntity
  8
0
  6
Continuous
 62
     7
370
     0
100
AcDbCircle
 10
7.0692353774
 20
7.295023299
 30
0.0
 40
0.0385061003960722
100
AcDbArc
 50
292.9398354406
 51
299.5317262006
  0
SPLINE
  5
2F5
330
1F
100
AcDbEntity
  8
0
  6
Continuous
 62
     7
370
     0
100
AcDbSpline
210
0.0
220
0.0
230
1.0
 70
     8
 71
     3
 72
    13
 73
     9
 74
     0
 42
0.00000001
 43
0.00000001
 40
0.0
 40
0.0
 40
0.0
 40
0.0
 40
0.2485845284762808
 40
0.3735388535886039
 40
0.496797208247434
 40
0.6212572301659584
 40
0.7502093099568748
 40
1.0
 40
1.0
 40
1.0
 40
1.0
 10
7.088215243130951
 20
7.261519799691425
 30
0.0
 10
7.08879325840645
 20
7.261869782772506
 30
0.0
 10
7.089661820761037
 20
7.262395689512092
 30
0.0
 10
7.090145533594021
 20
7.262853058582573
 30
0.0
 10
7.090248351604035
 20
7.263082339774781
 30
0.0
 10
7.090065280303518
 20
7.263180437345385
 30
0.0
 10
7.08951085316613
 20
7.263154896583324
 30
0.0
 10
7.088789361958151
 20
7.262965331738394
 30
0.0
 10
7.088313519774339
 20
7.262840308801471
 30
0.0
  0
ARC
  5
2F6
330
1F
100
AcDbEntity
  8
0
  6
Continuous
 62
     7
370
     0
100
AcDbCircle
 10
7.1138516943
 20
7.1850731408
 30
0.0
 40
0.0818531049046871
100
AcDbArc
 50
108.1798054432
 51
120.8216654706
  0
LINE
  5
2F7
330
1F
100
AcDbEntity
  8
0
  6
Continuous
 62
     7
370
     0
100
AcDbLine
 10
7.0719128129
 20
7.2553658218
 30
0.0
 11
7.0693989106
 21
7.2539145769
 31
0.0
  0
SPLINE
  5
2F8
330
1F
100
AcDbEntity
  8
0
  6
Continuous
 62
     7
370
     0
100
AcDbSpline
210
0.0
220
0.0
230
1.0
 70
     8
 71
     3
 72
    14
 73
    10
 74
     0
 42
0.00000001
 43
0.00000001
 40
0.0
 40
0.0
 40
0.0
 40
0.0
 40
0.500159812972095
 40
0.6334839770288548
 40
0.7547008492898373
 40
0.8160823888849222
 40
0.8744466572148062
 40
0.9383930382651368
 40
1.0
 40
1.0
 40
1.0
 40
1.0
 10
7.242577178464082
 20
7.327761860902497
 30
0.0
 10
7.24626838302685
 20
7.329913697000798
 30
0.0
 10
7.250943526622561
 20
7.332639133259591
 30
0.0
 10
7.255230860353374
 20
7.335757128062495
 30
0.0
 10
7.256400058640606
 20
7.336946870092598
 30
0.0
 10
7.256729806976629
 20
7.337694833100835
 30
0.0
 10
7.256540012467063
 20
7.338112504116679
 30
0.0
 10
7.255921390160782
 20
7.338357320574524
 30
0.0
 10
7.255155893317643
 20
7.338345779856429
 30
0.0
 10
7.25478027659827
 20
7.338340117015741
 30
0.0
  0
ARC
  5
2F9
330
1F
100
AcDbEntity
  8
0
  6
Continuous
 62
     7
370
     0
100
AcDbCircle
 10
7.2674757459
 20
7.2758131791
 30
0.0
 40
0.0638027656397659
100
AcDbArc
 50
101.4773139953
 51
126.215798367
  0
SPLINE
  5
2FA
330
1F
100
AcDbEntity
  8
0
  6
Continuous
 62
     7
370
     0
100
AcDbSpline
210
0.0
220
0.0
230
1.0
 70
     8
 71
     3
 72
    14
 73
    10
 74
     0
 42
0.00000001
 43
0.00000001
 40
0.0
 40
0.0
 40
0.0
 40
0.0
 40
0.5003034315361504
 40
0.6254176539425337
 40
0.7501401738687852
 40
0.8143424488249237
 40
0.8750383566947395
 40
0.9374874297319937
 40
1.0
 40
1.0
 40
1.0
 40
1.0
 10
7.229779275868936
 20
7.327289086580299
 30
0.0
 10
7.226003755081715
 20
7.325091759819708
 30
0.0
 10
7.221284064581282
 20
7.322344932872439
 30
0.0
 10
7.216816395077878
 20
7.319216985358353
 30
0.0
 10
7.215576376988936
 20
7.318032541038583
 30
0.0
 10
7.215283970226435
 20
7.317295399641158
 30
0.0
 10
7.215516964822226
 20
7.316900102460313
 30
0.0
 10
7.216189268903705
 20
7.316683717827285
 30
0.0
 10
7.216978445597378
 20
7.31670381187382
 30
0.0
 10
7.217373234447877
 20
7.316713864002319
 30
0.0
  0
ARC
  5
2FB
330
1F
100
AcDbEntity
  8
0
  6
Continuous
 62
     7
370
     0
100
AcDbCircle
 10
7.2054250128
 20
7.3782445497
 30
0.0
 40
0.0626800230118782
100
AcDbArc
 50
280.9891138666
 51
306.350791036
  0
ARC
  5
2FC
330
1F
100
AcDbEntity
  8
0
  6
Continuous
 62
     7
370
     0
100
AcDbCircle
 10
7.7123138527
 20
6.9376087017
 30
0.0
 40
0.9030249668295265
100
AcDbArc
 50
2.4838222759
 51
57.5108011914
  0
SPLINE
  5
2FD
330
1F
100
AcDbEntity
  8
0
  6
Continuous
 62
     7
370
     0
100
AcDbSpline
210
0.0
220
0.0
230
1.0
 70
    24
 71
     1
 72
     4
 73
     2
 74
     0
 42
0.00000001
 43
0.00000001
 40
0.0
 40
0.0
 40
1.0
 40
1.0
 10
8.126527775971441
 20
7.635082605811033
 30
0.0
 10
8.159525925939684
 20
7.635246441792007
 30
0.0
  0
ARC
  5
2FE
330
1F
100
AcDbEntity
  8
0
  6
Continuous
 62
     7
370
     0
100
AcDbCircle
 10
7.7984796661
 20
7.1130336862
 30
0.0
 40
0.6348705095315573
100
AcDbArc
 50
55.3408821165
 51
56.9855597268
  0
LINE
  5
2FF
330
1F
100
AcDbEntity
  8
0
  6
Continuous
 62
     7
370
     0
100
AcDbLine
 10
8.1443891096
 20
7.6453937342
 30
0.0
 11
8.126527776
 21
7.6350826058
 31
0.0
  0
SPLINE
  5
300
330
1F
100
AcDbEntity
  8
0
  6
Continuous
 62
     7
370
     0
100
AcDbSpline
210
0.0
220
0.0
230
1.0
 70
     8
 71
     3
 72
    14
 73
    10
 74
     0
 42
0.00000001
 43
0.00000001
 40
0.0
 40
0.0
 40
0.0
 40
0.0
 40
0.50015981297196
 40
0.6334839770220871
 40
0.754700849287647
 40
0.8160823888830442
 40
0.8744466572147797
 40
0.9383930382673956
 40
0.9999999999999999
 40
0.9999999999999999
 40
0.9999999999999999
 40
0.9999999999999999
 10
8.09724222381409
 20
7.666640148166853
 30
0.0
 10
8.100928792993159
 20
7.668815519644344
 30
0.0
 10
8.105598065582747
 20
7.671570764946587
 30
0.0
 10
8.109733027587296
 20
7.675435485768845
 30
0.0
 10
8.110778240645004
 20
7.677227883868289
 30
0.0
 10
8.110970833328317
 20
7.678635530103926
 30
0.0
 10
8.110649143571873
 20
7.679682289018923
 30
0.0
 10
8.109877182741142
 20
7.680651975740284
 30
0.0
 10
8.108998822343572
 20
7.681166493690419
 30
0.0
 10
8.108567825333056
 20
7.681418959192027
 30
0.0
  0
ARC
  5
301
330
1F
100
AcDbEntity
  8
0
  6
Continuous
 62
     7
370
     0
100
AcDbCircle
 10
8.1015655396
 20
7.655123264
 30
0.0
 40
0.0272120486801398
100
AcDbArc
 50
75.0887230832
 51
134.1336166463
  0
SPLINE
  5
302
330
1F
100
AcDbEntity
  8
0
  6
Continuous
 62
     7
370
     0
100
AcDbSpline
210
0.0
220
0.0
230
1.0
 70
     8
 71
     3
 72
    14
 73
    10
 74
     0
 42
0.00000001
 43
0.00000001
 40
0.0
 40
0.0
 40
0.0
 40
0.0
 40
0.5003034315361375
 40
0.625417653942526
 40
0.7501401738687675
 40
0.8143424488221614
 40
0.8750383566947413
 40
0.9374874297319892
 40
0.9999999999999999
 40
0.9999999999999999
 40
0.9999999999999999
 40
0.9999999999999999
 10
8.082616864452213
 20
7.674653837500817
 30
0.0
 10
8.078846928617056
 20
7.67243256115021
 30
0.0
 10
8.074134219734969
 20
7.669655795378906
 30
0.0
 10
8.069828311708147
 20
7.66581397051201
 30
0.0
 10
8.068724431454775
 20
7.664024771048633
 30
0.0
 10
8.068593400612702
 20
7.662563173934427
 30
0.0
 10
8.06897406822097
 20
7.661499204785526
 30
0.0
 10
8.069811697468836
 20
7.660527517985994
 30
0.0
 10
8.070716497746238
 20
7.66001187689231
 30
0.0
 10
8.071169127764728
 20
7.659753925338141
 30
0.0
  0
ARC
  5
303
330
1F
100
AcDbEntity
  8
0
  6
Continuous
 62
     7
370
     0
100
AcDbCircle
 10
8.0781798536
 20
7.6860124242
 30
0.0
 40
0.0271782824760934
100
AcDbArc
 50
255.0513512669
 51
314.5380233817
  0
ARC
  5
304
330
1F
100
AcDbEntity
  8
0
  6
Continuous
 62
     7
370
     0
100
AcDbCircle
 10
7.3846981627
 20
6.4663880852
 30
0.0
 40
0.2629605998293759
100
AcDbArc
 50
239.1467243292
 51
281.2813700907
  0
SPLINE
  5
305
330
1F
100
AcDbEntity
  8
0
  6
Continuous
 62
     7
370
     0
100
AcDbSpline
210
0.0
220
0.0
230
1.0
 70
    24
 71
     1
 72
     4
 73
     2
 74
     0
 42
0.00000001
 43
0.00000001
 40
0.0
 40
0.0
 40
1.0
 40
1.0
 10
7.252379238079891
 20
6.237169474763796
 30
0.0
 10
7.249841097562636
 20
6.240640772773843
 30
0.0
  0
ARC
  5
306
330
1F
100
AcDbEntity
  8
0
  6
Continuous
 62
     7
370
     0
100
AcDbCircle
 10
7.361391646
 20
6.4535760136
 30
0.0
 40
0.205086061726995
100
AcDbArc
 50
236.5832479622
 51
302.9126764333
  0
LINE
  5
307
330
1F
100
AcDbEntity
  8
0
  6
Continuous
 62
     7
370
     0
100
AcDbLine
 10
7.2498410976
 20
6.2406407728
 30
0.0
 11
7.2484456641
 21
6.2823933688
 31
0.0
  0
LINE
  5
308
330
1F
100
AcDbEntity
  8
0
  6
Continuous
 62
     7
370
     0
100
AcDbLine
 10
7.2484456641
 20
6.2823933688
 30
0.0
 11
7.2661233336
 21
6.2925984702
 31
0.0
  0
ARC
  5
309
330
1F
100
AcDbEntity
  8
0
  6
Continuous
 62
     7
370
     0
100
AcDbCircle
 10
7.4483655402
 20
6.6480415703
 30
0.0
 40
0.3994396316036965
100
AcDbArc
 50
241.1330148035
 51
242.8549522874
  0
LINE
  5
30A
330
1F
100
AcDbEntity
  8
0
  6
Continuous
 62
     7
370
     0
100
AcDbLine
 10
7.2378472659
 20
6.2880300647
 30
0.0
 11
7.2555249354
 21
6.2982351661
 31
0.0
  0
LWPOLYLINE
  5
30B
330
1F
100
AcDbEntity
  8
0
  6
Continuous
 62
     7
370
     0
100
AcDbPolyline
 90
       28
 70
   128
 43
0.0
 10
7.0242931929
 20
7.0583731658
 10
7.0051959145
 20
7.0489985687
 10
6.9856368372
 20
7.0354409057
 10
6.9681239123
 20
7.0187438574
 10
6.952803402
 20
6.9990468722
 10
6.9398032583
 20
6.9765144528
 10
6.9292320542
 20
6.9513347829
 10
6.921178077
 20
6.9237181549
 10
6.9157085909
 20
6.8938952141
 10
6.9128692753
 20
6.8621150319
 10
6.9126838433
 20
6.8286430262
 10
6.9151538435
 20
6.7937587446
 10
6.9202586473
 20
6.7577535291
 10
6.927955621
 20
6.7209280839
 10
6.9381804819
 20
6.683589963
 10
6.9508478353
 20
6.6460510027
 10
6.9658518876
 20
6.608624716
 10
6.9830673298
 20
6.5716236753
 10
7.002350384
 20
6.5353569014
 10
7.0235400043
 20
6.5001272827
 10
7.0464592219
 20
6.4662290456
 10
7.0709166228
 20
6.4339452972
 10
7.0967079468
 20
6.4035456611
 10
7.123617793
 20
6.3752840253
 10
7.151421419
 20
6.3493964217
 10
7.1798866179
 20
6.3260990553
 10
7.2087756575
 20
6.3055864982
 10
7.2378472659
 20
6.2880300647
  0
LWPOLYLINE
  5
30C
330
1F
100
AcDbEntity
  8
0
  6
Continuous
 62
     7
370
     0
100
AcDbPolyline
 90
       27
 70
   128
 43
0.0
 10
6.9428187208
 20
7.0630577882
 10
6.9320542327
 20
7.0508242397
 10
6.9168036022
 20
7.0290466626
 10
6.9038960686
 20
7.0045103344
 10
6.8934280007
 20
6.9773984453
 10
6.8854775539
 20
6.947913415
 10
6.8801040868
 20
6.9162753811
 10
6.8773477183
 20
6.8827205557
 10
6.8772290276
 20
6.847499462
 10
6.8797489009
 20
6.8108750635
 10
6.8848885245
 20
6.773120801
 10
6.8926095257
 20
6.734518551
 10
6.9028542588
 20
6.6953565209
 10
6.9155462357
 20
6.6559270979
 10
6.9305906972
 20
6.6165246651
 10
6.94787532
 20
6.5774434044
 10
6.9672710558
 20
6.5389750996
 10
6.9886330943
 20
6.5014069584
 10
7.0118019449
 20
6.4650194676
 10
7.036604627
 20
6.4300842991
 10
7.0628559616
 20
6.3968622818
 10
7.0903599543
 20
6.365601454
 10
7.1189112579
 20
6.3365352116
 10
7.1482967061
 20
6.3098805656
 10
7.1782969046
 20
6.2858365218
 10
7.2086878695
 20
6.264582595
 10
7.2392426994
 20
6.2462774687
  0
SPLINE
  5
30D
330
1F
100
AcDbEntity
  8
0
  6
Continuous
 62
     7
370
     0
100
AcDbSpline
210
0.0
220
0.0
230
1.0
 70
    24
 71
     1
 72
     4
 73
     2
 74
     0
 42
0.00000001
 43
0.00000001
 40
0.0
 40
0.0
 40
1.0
 40
1.0
 10
7.239242699387761
 20
6.246277468663964
 30
0.0
 10
7.241780833085292
 20
6.242806168565433
 30
0.0
  0
LINE
  5
30E
330
1F
100
AcDbEntity
  8
0
  6
Continuous
 62
     7
370
     0
100
AcDbLine
 10
7.2392426994
 20
6.2462774687
 30
0.0
 11
7.2378472659
 21
6.2880300647
 31
0.0
  0
LINE
  5
30F
330
1F
100
AcDbEntity
  8
0
  6
Continuous
 62
     7
370
     0
100
AcDbLine
 10
7.2559103691
 20
6.2867026513
 30
0.0
 11
7.2555249354
 21
6.2982351661
 31
0.0
  0
LINE
  5
310
330
1F
100
AcDbEntity
  8
0
  6
Continuous
 62
     7
370
     0
100
AcDbLine
 10
7.0082583893
 20
7.2239676907
 30
0.0
 11
7.0091826222
 21
7.2244979619
 31
0.0
  0
LINE
  5
311
330
1F
100
AcDbEntity
  8
0
  6
Continuous
 62
     7
370
     0
100
AcDbLine
 10
7.0493991475
 20
7.2477177449
 30
0.0
 11
7.0503233804
 21
7.2482480161
 31
0.0
  0
ARC
  5
312
330
1F
100
AcDbEntity
  8
0
  6
Continuous
 62
     7
370
     0
100
AcDbCircle
 10
7.2681880459
 20
7.142951902
 30
0.0
 40
0.2001178980364395
100
AcDbArc
 50
117.7406129385
 51
119.99706078
  0
SPLINE
  5
313
330
1F
100
AcDbEntity
  8
0
  6
Continuous
 62
     7
370
     0
100
AcDbSpline
210
0.0
220
0.0
230
1.0
 70
     8
 71
     3
 72
    10
 73
     6
 74
     0
 42
0.00000001
 43
0.00000001
 40
0.0
 40
0.0
 40
0.0
 40
0.0
 40
0.4754631204570389
 40
0.9496862245253521
 40
1.0
 40
1.0
 40
1.0
 40
1.0
 10
7.131544278248461
 20
7.295025738094374
 30
0.0
 10
7.130716384128509
 20
7.294579188583506
 30
0.0
 10
7.129062755051392
 20
7.293687254170944
 30
0.0
 10
7.127677311020341
 20
7.292911180403099
 30
0.0
 10
7.127793570256992
 20
7.292972802266358
 30
0.0
 10
7.127804721886855
 20
7.292978713058742
 30
0.0
  0
LINE
  5
314
330
1F
100
AcDbEntity
  8
0
  6
Continuous
 62
     7
370
     0
100
AcDbLine
 10
7.0587732614
 20
4.599074965
 30
0.0
 11
5.7674108232
 21
4.599074965
 31
0.0
  0
LINE
  5
315
330
1F
100
AcDbEntity
  8
0
  6
Continuous
 62
     7
370
     0
100
AcDbLine
 10
5.7674108232
 20
4.599074965
 30
0.0
 11
7.0874098899
 21
4.9585744964
 31
0.0
  0
LINE
  5
316
330
1F
100
AcDbEntity
  8
0
  6
Continuous
 62
     7
370
     0
100
AcDbLine
 10
5.7674108232
 20
4.599074965
 30
0.0
 11
7.0886005053
 21
4.2322267382
 31
0.0
  0
LINE
  5
317
330
1F
100
AcDbEntity
  8
0
  6
Continuous
 62
     7
370
     0
100
AcDbLine
 10
8.200487829
 20
4.599074965
 30
0.0
 11
9.4956922925
 21
4.599074965
 31
0.0
  0
LINE
  5
318
330
1F
100
AcDbEntity
  8
0
  6
Continuous
 62
     7
370
     0
100
AcDbLine
 10
9.4956922925
 20
4.599074965
 30
0.0
 11
8.1706605851
 21
4.2322267382
 31
0.0
  0
LINE
  5
319
330
1F
100
AcDbEntity
  8
0
  6
Continuous
 62
     7
370
     0
100
AcDbLine
 10
9.4956922925
 20
4.599074965
 30
0.0
 11
8.1718512005
 21
4.9585744964
 31
0.0
  0
LINE
  5
31A
330
1F
100
AcDbEntity
  8
0
  6
Continuous
 62
     7
370
     0
100
AcDbLine
 10
8.3925844579
 20
4.009074965
 30
0.0
 11
8.3825844579
 21
3.999074965
 31
0.0
  0
LINE
  5
31B
330
1F
100
AcDbEntity
  8
0
  6
Continuous
 62
     7
370
     0
100
AcDbLine
 10
8.3825844579
 20
5.199074965
 30
0.0
 11
8.3925844579
 21
5.189074965
 31
0.0
  0
LINE
  5
31C
330
1F
100
AcDbEntity
  8
0
  6
Continuous
 62
     7
370
     0
100
AcDbLine
 10
7.0122556709
 20
3.999074965
 30
0.0
 11
7.112227809
 21
3.999074965
 31
0.0
  0
LINE
  5
31D
330
1F
100
AcDbEntity
  8
0
  6
Continuous
 62
     7
370
     0
100
AcDbLine
 10
7.178424502
 20
3.999074965
 30
0.0
 11
8.3825844579
 21
3.999074965
 31
0.0
  0
LINE
  5
31E
330
1F
100
AcDbEntity
  8
0
  6
Continuous
 62
     7
370
     0
100
AcDbLine
 10
8.3825844579
 20
5.199074965
 30
0.0
 11
8.2861198872
 21
5.199074965
 31
0.0
  0
LINE
  5
31F
330
1F
100
AcDbEntity
  8
0
  6
Continuous
 62
     7
370
     0
100
AcDbLine
 10
8.2574041384
 20
5.199074965
 30
0.0
 11
7.1819762212
 21
5.199074965
 31
0.0
  0
LINE
  5
320
330
1F
100
AcDbEntity
  8
0
  6
Continuous
 62
     7
370
     0
100
AcDbLine
 10
7.1726777983
 20
5.199074965
 30
0.0
 11
7.1543019362
 21
5.199074965
 31
0.0
  0
LINE
  5
321
330
1F
100
AcDbEntity
  8
0
  6
Continuous
 62
     7
370
     0
100
AcDbLine
 10
7.1475937349
 20
5.199074965
 30
0.0
 11
6.9990540872
 21
5.199074965
 31
0.0
  0
LINE
  5
322
330
1F
100
AcDbEntity
  8
0
  6
Continuous
 62
     7
370
     0
100
AcDbLine
 10
6.9703383384
 20
5.199074965
 30
0.0
 11
6.8805186579
 21
5.199074965
 31
0.0
  0
LINE
  5
323
330
1F
100
AcDbEntity
  8
0
  6
Continuous
 62
     7
370
     0
100
AcDbLine
 10
6.8805186579
 20
3.999074965
 30
0.0
 11
6.9451939825
 21
3.999074965
 31
0.0
  0
LINE
  5
324
330
1F
100
AcDbEntity
  8
0
  6
Continuous
 62
     7
370
     0
100
AcDbLine
 10
6.8705186579
 20
5.189074965
 30
0.0
 11
6.8805186579
 21
5.199074965
 31
0.0
  0
LINE
  5
325
330
1F
100
AcDbEntity
  8
0
  6
Continuous
 62
     7
370
     0
100
AcDbLine
 10
6.8805186579
 20
3.999074965
 30
0.0
 11
6.8705186579
 21
4.009074965
 31
0.0
  0
LINE
  5
326
330
1F
100
AcDbEntity
  8
0
  6
Continuous
 62
     7
370
     0
100
AcDbLine
 10
7.8274980379
 20
4.074074965
 30
0.0
 11
7.8474980379
 21
4.074074965
 31
0.0
  0
LINE
  5
327
330
1F
100
AcDbEntity
  8
0
  6
Continuous
 62
     7
370
     0
100
AcDbLine
 10
7.8474980379
 20
5.124074965
 30
0.0
 11
7.8274980379
 21
5.124074965
 31
0.0
  0
LINE
  5
328
330
1F
100
AcDbEntity
  8
0
  6
Continuous
 62
     7
370
     0
100
AcDbLine
 10
7.4156050779
 20
5.124074965
 30
0.0
 11
7.4356050779
 21
5.124074965
 31
0.0
  0
LINE
  5
329
330
1F
100
AcDbEntity
  8
0
  6
Continuous
 62
     7
370
     0
100
AcDbLine
 10
7.4356050779
 20
4.074074965
 30
0.0
 11
7.4156050779
 21
4.074074965
 31
0.0
  0
LINE
  5
32A
330
1F
100
AcDbEntity
  8
0
  6
Continuous
 62
     7
370
     0
100
AcDbLine
 10
8.3925844579
 20
5.115074965
 30
0.0
 11
8.3752639498
 21
5.105074965
 31
0.0
  0
LINE
  5
32B
330
1F
100
AcDbEntity
  8
0
  6
Continuous
 62
     7
370
     0
100
AcDbLine
 10
8.3752639498
 20
4.093074965
 30
0.0
 11
8.3925844579
 21
4.083074965
 31
0.0
  0
LINE
  5
32C
330
1F
100
AcDbEntity
  8
0
  6
Continuous
 62
     7
370
     0
100
AcDbLine
 10
8.3752639498
 20
4.093074965
 30
0.0
 11
8.3752639498
 21
5.105074965
 31
0.0
  0
LINE
  5
32D
330
1F
100
AcDbEntity
  8
0
  6
Continuous
 62
     7
370
     0
100
AcDbLine
 10
8.3925844579
 20
5.115074965
 30
0.0
 11
8.3925844579
 21
4.083074965
 31
0.0
  0
LINE
  5
32E
330
1F
100
AcDbEntity
  8
0
  6
Continuous
 62
     7
370
     0
100
AcDbLine
 10
6.8705186579
 20
4.083074965
 30
0.0
 11
6.8878391659
 21
4.093074965
 31
0.0
  0
LINE
  5
32F
330
1F
100
AcDbEntity
  8
0
  6
Continuous
 62
     7
370
     0
100
AcDbLine
 10
6.8878391659
 20
5.105074965
 30
0.0
 11
6.8705186579
 21
5.115074965
 31
0.0
  0
LINE
  5
330
330
1F
100
AcDbEntity
  8
0
  6
Continuous
 62
     7
370
     0
100
AcDbLine
 10
6.8878391659
 20
5.105074965
 30
0.0
 11
6.8878391659
 21
4.093074965
 31
0.0
  0
LINE
  5
331
330
1F
100
AcDbEntity
  8
0
  6
Continuous
 62
     7
370
     0
100
AcDbLine
 10
6.8705186579
 20
4.083074965
 30
0.0
 11
6.8705186579
 21
5.115074965
 31
0.0
  0
LINE
  5
332
330
1F
100
AcDbEntity
  8
0
  6
Continuous
 62
     7
370
     0
100
AcDbLine
 10
8.0925844579
 20
4.093074965
 30
0.0
 11
8.0925844579
 21
4.0990750614
 31
0.0
  0
LINE
  5
333
330
1F
100
AcDbEntity
  8
0
  6
Continuous
 62
     7
370
     0
100
AcDbLine
 10
8.0925844579
 20
5.0990750614
 30
0.0
 11
8.0925844579
 21
5.105074965
 31
0.0
  0
LINE
  5
334
330
1F
100
AcDbEntity
  8
0
  6
Continuous
 62
     7
370
     0
100
AcDbLine
 10
8.0925844579
 20
5.105074965
 30
0.0
 11
8.3752639498
 21
5.105074965
 31
0.0
  0
LINE
  5
335
330
1F
100
AcDbEntity
  8
0
  6
Continuous
 62
     7
370
     0
100
AcDbLine
 10
8.3752639498
 20
4.093074965
 30
0.0
 11
8.0925844579
 21
4.093074965
 31
0.0
  0
LINE
  5
336
330
1F
100
AcDbEntity
  8
0
  6
Continuous
 62
     7
370
     0
100
AcDbLine
 10
8.0914297573
 20
5.103074965
 30
0.0
 11
8.0914297573
 21
5.0990750614
 31
0.0
  0
LINE
  5
337
330
1F
100
AcDbEntity
  8
0
  6
Continuous
 62
     7
370
     0
100
AcDbLine
 10
8.0914297573
 20
4.0990750614
 30
0.0
 11
8.0914297573
 21
4.095074965
 31
0.0
  0
LINE
  5
338
330
1F
100
AcDbEntity
  8
0
  6
Continuous
 62
     7
370
     0
100
AcDbLine
 10
8.0914297573
 20
5.103074965
 30
0.0
 11
8.0925844579
 21
5.105074965
 31
0.0
  0
LINE
  5
339
330
1F
100
AcDbEntity
  8
0
  6
Continuous
 62
     7
370
     0
100
AcDbLine
 10
8.0925844579
 20
4.093074965
 30
0.0
 11
8.0914297573
 21
4.095074965
 31
0.0
  0
LINE
  5
33A
330
1F
100
AcDbEntity
  8
0
  6
Continuous
 62
     7
370
     0
100
AcDbLine
 10
7.1716733584
 20
4.095074965
 30
0.0
 11
7.1716733584
 21
4.0990750614
 31
0.0
  0
LINE
  5
33B
330
1F
100
AcDbEntity
  8
0
  6
Continuous
 62
     7
370
     0
100
AcDbLine
 10
7.1716733584
 20
5.0990750614
 30
0.0
 11
7.1716733584
 21
5.103074965
 31
0.0
  0
LINE
  5
33C
330
1F
100
AcDbEntity
  8
0
  6
Continuous
 62
     7
370
     0
100
AcDbLine
 10
7.1716733584
 20
4.095074965
 30
0.0
 11
7.1705186579
 21
4.093074965
 31
0.0
  0
LINE
  5
33D
330
1F
100
AcDbEntity
  8
0
  6
Continuous
 62
     7
370
     0
100
AcDbLine
 10
7.1705186579
 20
5.105074965
 30
0.0
 11
7.1705186579
 21
5.0990750614
 31
0.0
  0
LINE
  5
33E
330
1F
100
AcDbEntity
  8
0
  6
Continuous
 62
     7
370
     0
100
AcDbLine
 10
7.1705186579
 20
4.0990750614
 30
0.0
 11
7.1705186579
 21
4.093074965
 31
0.0
  0
LINE
  5
33F
330
1F
100
AcDbEntity
  8
0
  6
Continuous
 62
     7
370
     0
100
AcDbLine
 10
7.1705186579
 20
5.105074965
 30
0.0
 11
7.1716733584
 21
5.103074965
 31
0.0
  0
LINE
  5
340
330
1F
100
AcDbEntity
  8
0
  6
Continuous
 62
     7
370
     0
100
AcDbLine
 10
7.1705186579
 20
4.093074965
 30
0.0
 11
6.8878391659
 21
4.093074965
 31
0.0
  0
LINE
  5
341
330
1F
100
AcDbEntity
  8
0
  6
Continuous
 62
     7
370
     0
100
AcDbLine
 10
6.8878391659
 20
5.105074965
 30
0.0
 11
7.1705186579
 21
5.105074965
 31
0.0
  0
LINE
  5
342
330
1F
100
AcDbEntity
  8
0
  6
Continuous
 62
     7
370
     0
100
AcDbLine
 10
7.8474980379
 20
4.095074965
 30
0.0
 11
8.0914297573
 21
4.095074965
 31
0.0
  0
LINE
  5
343
330
1F
100
AcDbEntity
  8
0
  6
Continuous
 62
     7
370
     0
100
AcDbLine
 10
8.0914297573
 20
5.103074965
 30
0.0
 11
7.8474980379
 21
5.103074965
 31
0.0
  0
LINE
  5
344
330
1F
100
AcDbEntity
  8
0
  6
Continuous
 62
     7
370
     0
100
AcDbLine
 10
7.8474980379
 20
4.095074965
 30
0.0
 11
7.8474980379
 21
4.1093294622
 31
0.0
  0
LINE
  5
345
330
1F
100
AcDbEntity
  8
0
  6
Continuous
 62
     7
370
     0
100
AcDbLine
 10
7.8474980379
 20
5.0888206606
 30
0.0
 11
7.8474980379
 21
5.103074965
 31
0.0
  0
LINE
  5
346
330
1F
100
AcDbEntity
  8
0
  6
Continuous
 62
     7
370
     0
100
AcDbLine
 10
7.4156050779
 20
5.103074965
 30
0.0
 11
7.1716733584
 21
5.103074965
 31
0.0
  0
LINE
  5
347
330
1F
100
AcDbEntity
  8
0
  6
Continuous
 62
     7
370
     0
100
AcDbLine
 10
7.1716733584
 20
4.095074965
 30
0.0
 11
7.4156050779
 21
4.095074965
 31
0.0
  0
LINE
  5
348
330
1F
100
AcDbEntity
  8
0
  6
Continuous
 62
     7
370
     0
100
AcDbLine
 10
7.4156050779
 20
5.103074965
 30
0.0
 11
7.4156050779
 21
5.082549422
 31
0.0
  0
LINE
  5
349
330
1F
100
AcDbEntity
  8
0
  6
Continuous
 62
     7
370
     0
100
AcDbLine
 10
7.4156050779
 20
4.1156007008
 30
0.0
 11
7.4156050779
 21
4.095074965
 31
0.0
  0
LINE
  5
34A
330
1F
100
AcDbEntity
  8
0
  6
Continuous
 62
     7
370
     0
100
AcDbLine
 10
7.8274980379
 20
5.050074965
 30
0.0
 11
7.4356050779
 21
5.050074965
 31
0.0
  0
LINE
  5
34B
330
1F
100
AcDbEntity
  8
0
  6
Continuous
 62
     7
370
     0
100
AcDbLine
 10
7.4356050779
 20
4.148074965
 30
0.0
 11
7.8274980379
 21
4.148074965
 31
0.0
  0
LINE
  5
34C
330
1F
100
AcDbEntity
  8
0
  6
Continuous
 62
     7
370
     0
100
AcDbLine
 10
7.4356050779
 20
5.050074965
 30
0.0
 11
7.4356050779
 21
5.0479618863
 31
0.0
  0
LINE
  5
34D
330
1F
100
AcDbEntity
  8
0
  6
Continuous
 62
     7
370
     0
100
AcDbLine
 10
7.4356050779
 20
4.1501882365
 30
0.0
 11
7.4356050779
 21
4.148074965
 31
0.0
  0
LINE
  5
34E
330
1F
100
AcDbEntity
  8
0
  6
Continuous
 62
     7
370
     0
100
AcDbLine
 10
6.9990540872
 20
5.199074965
 30
0.0
 11
6.9703383384
 21
5.199074965
 31
0.0
  0
LINE
  5
34F
330
1F
100
AcDbEntity
  8
0
  6
Continuous
 62
     7
370
     0
100
AcDbLine
 10
7.1543019362
 20
5.199074965
 30
0.0
 11
7.1475937349
 21
5.199074965
 31
0.0
  0
LINE
  5
350
330
1F
100
AcDbEntity
  8
0
  6
Continuous
 62
     7
370
     0
100
AcDbLine
 10
7.1819762212
 20
5.199074965
 30
0.0
 11
7.1726777983
 21
5.199074965
 31
0.0
  0
LINE
  5
351
330
1F
100
AcDbEntity
  8
0
  6
Continuous
 62
     7
370
     0
100
AcDbLine
 10
8.2861198872
 20
5.199074965
 30
0.0
 11
8.2574041384
 21
5.199074965
 31
0.0
  0
LINE
  5
352
330
1F
100
AcDbEntity
  8
0
  6
Continuous
 62
     7
370
     0
100
AcDbLine
 10
7.4156050779
 20
5.103074965
 30
0.0
 11
7.4156050779
 21
5.124074965
 31
0.0
  0
LINE
  5
353
330
1F
100
AcDbEntity
  8
0
  6
Continuous
 62
     7
370
     0
100
AcDbLine
 10
7.4356050779
 20
5.050074965
 30
0.0
 11
7.4356050779
 21
5.124074965
 31
0.0
  0
LINE
  5
354
330
1F
100
AcDbEntity
  8
0
  6
Continuous
 62
     7
370
     0
100
AcDbLine
 10
7.8274980379
 20
5.050074965
 30
0.0
 11
7.8274980379
 21
5.124074965
 31
0.0
  0
LINE
  5
355
330
1F
100
AcDbEntity
  8
0
  6
Continuous
 62
     7
370
     0
100
AcDbLine
 10
7.8474980379
 20
5.124074965
 30
0.0
 11
7.8474980379
 21
5.103074965
 31
0.0
  0
LINE
  5
356
330
1F
100
AcDbEntity
  8
0
  6
Continuous
 62
     7
370
     0
100
AcDbLine
 10
6.8705186579
 20
5.115074965
 30
0.0
 11
6.8705186579
 21
5.189074965
 31
0.0
  0
LINE
  5
357
330
1F
100
AcDbEntity
  8
0
  6
Continuous
 62
     7
370
     0
100
AcDbLine
 10
8.3925844579
 20
5.189074965
 30
0.0
 11
8.3925844579
 21
5.115074965
 31
0.0
  0
LINE
  5
358
330
1F
100
AcDbEntity
  8
0
  6
Continuous
 62
     7
370
     0
100
AcDbLine
 10
7.1611193072
 20
3.999074965
 30
0.0
 11
7.178424502
 21
3.999074965
 31
0.0
  0
LINE
  5
359
330
1F
100
AcDbEntity
  8
0
  6
Continuous
 62
     7
370
     0
100
AcDbLine
 10
7.1363298406
 20
3.999074965
 30
0.0
 11
7.1611193072
 21
3.999074965
 31
0.0
  0
LINE
  5
35A
330
1F
100
AcDbEntity
  8
0
  6
Continuous
 62
     7
370
     0
100
AcDbLine
 10
7.112227809
 20
3.999074965
 30
0.0
 11
7.1363298406
 21
3.999074965
 31
0.0
  0
LINE
  5
35B
330
1F
100
AcDbEntity
  8
0
  6
Continuous
 62
     7
370
     0
100
AcDbLine
 10
6.994885541
 20
3.999074965
 30
0.0
 11
7.0122556709
 21
3.999074965
 31
0.0
  0
LINE
  5
35C
330
1F
100
AcDbEntity
  8
0
  6
Continuous
 62
     7
370
     0
100
AcDbLine
 10
6.9830324025
 20
3.999074965
 30
0.0
 11
6.994885541
 21
3.999074965
 31
0.0
  0
LINE
  5
35D
330
1F
100
AcDbEntity
  8
0
  6
Continuous
 62
     7
370
     0
100
AcDbLine
 10
6.9451939825
 20
3.999074965
 30
0.0
 11
6.9830324025
 21
3.999074965
 31
0.0
  0
LINE
  5
35E
330
1F
100
AcDbEntity
  8
0
  6
Continuous
 62
     7
370
     0
100
AcDbLine
 10
7.4156050779
 20
4.074074965
 30
0.0
 11
7.4156050779
 21
4.095074965
 31
0.0
  0
LINE
  5
35F
330
1F
100
AcDbEntity
  8
0
  6
Continuous
 62
     7
370
     0
100
AcDbLine
 10
7.4356050779
 20
4.074074965
 30
0.0
 11
7.4356050779
 21
4.148074965
 31
0.0
  0
LINE
  5
360
330
1F
100
AcDbEntity
  8
0
  6
Continuous
 62
     7
370
     0
100
AcDbLine
 10
7.8274980379
 20
4.074074965
 30
0.0
 11
7.8274980379
 21
4.148074965
 31
0.0
  0
LINE
  5
361
330
1F
100
AcDbEntity
  8
0
  6
Continuous
 62
     7
370
     0
100
AcDbLine
 10
7.8474980379
 20
4.095074965
 30
0.0
 11
7.8474980379
 21
4.074074965
 31
0.0
  0
LINE
  5
362
330
1F
100
AcDbEntity
  8
0
  6
Continuous
 62
     7
370
     0
100
AcDbLine
 10
6.8705186579
 20
4.009074965
 30
0.0
 11
6.8705186579
 21
4.083074965
 31
0.0
  0
LINE
  5
363
330
1F
100
AcDbEntity
  8
0
  6
Continuous
 62
     7
370
     0
100
AcDbLine
 10
8.3925844579
 20
4.083074965
 30
0.0
 11
8.3925844579
 21
4.009074965
 31
0.0
  0
LINE
  5
364
330
1F
100
AcDbEntity
  8
0
  6
Continuous
 62
     7
370
     0
100
AcDbLine
 10
8.1710054867
 20
4.0815750614
 30
0.0
 11
8.2236849786
 21
4.0815750614
 31
0.0
  0
LINE
  5
365
330
1F
100
AcDbEntity
  8
0
  6
Continuous
 62
     7
370
     0
100
AcDbLine
 10
8.2236849786
 20
5.1165750614
 30
0.0
 11
8.1710054867
 21
5.1165750614
 31
0.0
  0
LINE
  5
366
330
1F
100
AcDbEntity
  8
0
  6
Continuous
 62
     7
370
     0
100
AcDbLine
 10
8.1536849786
 20
5.1065750614
 30
0.0
 11
8.1710054867
 21
5.1165750614
 31
0.0
  0
LINE
  5
367
330
1F
100
AcDbEntity
  8
0
  6
Continuous
 62
     7
370
     0
100
AcDbLine
 10
8.1710054867
 20
4.0815750614
 30
0.0
 11
8.1536849786
 21
4.0915750614
 31
0.0
  0
LINE
  5
368
330
1F
100
AcDbEntity
  8
0
  6
Continuous
 62
     7
370
     0
100
AcDbLine
 10
8.2336849786
 20
4.1605987002
 30
0.0
 11
8.2086849786
 21
4.1605987002
 31
0.0
  0
LINE
  5
369
330
1F
100
AcDbEntity
  8
0
  6
Continuous
 62
     7
370
     0
100
AcDbLine
 10
8.2086849786
 20
4.1574699208
 30
0.0
 11
8.2086849786
 21
4.1605987002
 31
0.0
  0
LINE
  5
36A
330
1F
100
AcDbEntity
  8
0
  6
Continuous
 62
     7
370
     0
100
AcDbLine
 10
8.2336849786
 20
4.1574699208
 30
0.0
 11
8.2086849786
 21
4.1574699208
 31
0.0
  0
LINE
  5
36B
330
1F
100
AcDbEntity
  8
0
  6
Continuous
 62
     7
370
     0
100
AcDbLine
 10
8.2336849786
 20
4.1490750614
 30
0.0
 11
8.2336849786
 21
4.1574699208
 31
0.0
  0
LINE
  5
36C
330
1F
100
AcDbEntity
  8
0
  6
Continuous
 62
     7
370
     0
100
AcDbLine
 10
8.1536849786
 20
4.1490750614
 30
0.0
 11
8.2336849786
 21
4.1490750614
 31
0.0
  0
LINE
  5
36D
330
1F
100
AcDbEntity
  8
0
  6
Continuous
 62
     7
370
     0
100
AcDbLine
 10
8.2336849786
 20
5.0490750614
 30
0.0
 11
8.1536849786
 21
5.0490750614
 31
0.0
  0
LINE
  5
36E
330
1F
100
AcDbEntity
  8
0
  6
Continuous
 62
     7
370
     0
100
AcDbLine
 10
8.2336849786
 20
4.1605987002
 30
0.0
 11
8.2336849786
 21
5.0490750614
 31
0.0
  0
LINE
  5
36F
330
1F
100
AcDbEntity
  8
0
  6
Continuous
 62
     7
370
     0
100
AcDbLine
 10
8.2236849786
 20
5.1165750614
 30
0.0
 11
8.2336849786
 21
5.0992545533
 31
0.0
  0
LINE
  5
370
330
1F
100
AcDbEntity
  8
0
  6
Continuous
 62
     7
370
     0
100
AcDbLine
 10
8.2336849786
 20
4.1490750614
 30
0.0
 11
8.2336849786
 21
4.0988955695
 31
0.0
  0
LINE
  5
371
330
1F
100
AcDbEntity
  8
0
  6
Continuous
 62
     7
370
     0
100
AcDbLine
 10
8.2336849786
 20
4.0988955695
 30
0.0
 11
8.2236849786
 21
4.0815750614
 31
0.0
  0
LINE
  5
372
330
1F
100
AcDbEntity
  8
0
  6
Continuous
 62
     7
370
     0
100
AcDbLine
 10
8.1536849786
 20
4.1490750614
 30
0.0
 11
8.1536849786
 21
4.0915750614
 31
0.0
  0
LINE
  5
373
330
1F
100
AcDbEntity
  8
0
  6
Continuous
 62
     7
370
     0
100
AcDbLine
 10
8.2336849786
 20
5.0992545533
 30
0.0
 11
8.2336849786
 21
5.0490750614
 31
0.0
  0
LINE
  5
374
330
1F
100
AcDbEntity
  8
0
  6
Continuous
 62
     7
370
     0
100
AcDbLine
 10
8.1536849786
 20
5.1065750614
 30
0.0
 11
8.1536849786
 21
5.0490750614
 31
0.0
  0
LINE
  5
375
330
1F
100
AcDbEntity
  8
0
  6
Continuous
 62
     7
370
     0
100
AcDbLine
 10
8.2336849786
 20
4.1574699208
 30
0.0
 11
8.2336849786
 21
4.1605987002
 31
0.0
  0
LINE
  5
376
330
1F
100
AcDbEntity
  8
0
  6
Continuous
 62
     7
370
     0
100
AcDbLine
 10
7.0881981539
 20
5.116575102
 30
0.0
 11
7.035518662
 21
5.116575102
 31
0.0
  0
LINE
  5
377
330
1F
100
AcDbEntity
  8
0
  6
Continuous
 62
     7
370
     0
100
AcDbLine
 10
7.035518662
 20
4.081575102
 30
0.0
 11
7.0881981539
 21
4.081575102
 31
0.0
  0
LINE
  5
378
330
1F
100
AcDbEntity
  8
0
  6
Continuous
 62
     7
370
     0
100
AcDbLine
 10
7.105518662
 20
4.091575102
 30
0.0
 11
7.0881981539
 21
4.081575102
 31
0.0
  0
LINE
  5
379
330
1F
100
AcDbEntity
  8
0
  6
Continuous
 62
     7
370
     0
100
AcDbLine
 10
7.0881981539
 20
5.116575102
 30
0.0
 11
7.105518662
 21
5.106575102
 31
0.0
  0
LINE
  5
37A
330
1F
100
AcDbEntity
  8
0
  6
Continuous
 62
     7
370
     0
100
AcDbLine
 10
7.025518662
 20
5.0483696787
 30
0.0
 11
7.050518662
 21
5.0483696787
 31
0.0
  0
LINE
  5
37B
330
1F
100
AcDbEntity
  8
0
  6
Continuous
 62
     7
370
     0
100
AcDbLine
 10
7.050518662
 20
5.0489595196
 30
0.0
 11
7.050518662
 21
5.0483696787
 31
0.0
  0
LINE
  5
37C
330
1F
100
AcDbEntity
  8
0
  6
Continuous
 62
     7
370
     0
100
AcDbLine
 10
7.025518662
 20
5.0489595196
 30
0.0
 11
7.050518662
 21
5.0489595196
 31
0.0
  0
LINE
  5
37D
330
1F
100
AcDbEntity
  8
0
  6
Continuous
 62
     7
370
     0
100
AcDbLine
 10
7.025518662
 20
5.049075102
 30
0.0
 11
7.025518662
 21
5.0489595196
 31
0.0
  0
LINE
  5
37E
330
1F
100
AcDbEntity
  8
0
  6
Continuous
 62
     7
370
     0
100
AcDbLine
 10
7.105518662
 20
5.049075102
 30
0.0
 11
7.025518662
 21
5.049075102
 31
0.0
  0
LINE
  5
37F
330
1F
100
AcDbEntity
  8
0
  6
Continuous
 62
     7
370
     0
100
AcDbLine
 10
7.025518662
 20
4.149075102
 30
0.0
 11
7.105518662
 21
4.149075102
 31
0.0
  0
LINE
  5
380
330
1F
100
AcDbEntity
  8
0
  6
Continuous
 62
     7
370
     0
100
AcDbLine
 10
7.025518662
 20
5.0483696787
 30
0.0
 11
7.025518662
 21
4.149075102
 31
0.0
  0
LINE
  5
381
330
1F
100
AcDbEntity
  8
0
  6
Continuous
 62
     7
370
     0
100
AcDbLine
 10
7.035518662
 20
4.081575102
 30
0.0
 11
7.025518662
 21
4.0988956101
 31
0.0
  0
LINE
  5
382
330
1F
100
AcDbEntity
  8
0
  6
Continuous
 62
     7
370
     0
100
AcDbLine
 10
7.025518662
 20
5.0992545939
 30
0.0
 11
7.035518662
 21
5.116575102
 31
0.0
  0
LINE
  5
383
330
1F
100
AcDbEntity
  8
0
  6
Continuous
 62
     7
370
     0
100
AcDbLine
 10
7.025518662
 20
5.049075102
 30
0.0
 11
7.025518662
 21
5.0992545939
 31
0.0
  0
LINE
  5
384
330
1F
100
AcDbEntity
  8
0
  6
Continuous
 62
     7
370
     0
100
AcDbLine
 10
7.105518662
 20
5.049075102
 30
0.0
 11
7.105518662
 21
5.106575102
 31
0.0
  0
LINE
  5
385
330
1F
100
AcDbEntity
  8
0
  6
Continuous
 62
     7
370
     0
100
AcDbLine
 10
7.025518662
 20
4.0988956101
 30
0.0
 11
7.025518662
 21
4.149075102
 31
0.0
  0
LINE
  5
386
330
1F
100
AcDbEntity
  8
0
  6
Continuous
 62
     7
370
     0
100
AcDbLine
 10
7.105518662
 20
4.091575102
 30
0.0
 11
7.105518662
 21
4.149075102
 31
0.0
  0
LINE
  5
387
330
1F
100
AcDbEntity
  8
0
  6
Continuous
 62
     7
370
     0
100
AcDbLine
 10
7.025518662
 20
5.0489595196
 30
0.0
 11
7.025518662
 21
5.0483696787
 31
0.0
  0
ARC
  5
388
330
1F
100
AcDbEntity
  8
0
  6
Continuous
 62
     7
370
     0
100
AcDbCircle
 10
7.3111177503
 20
4.5990750614
 30
0.0
 40
0.7909448818897521
100
AcDbArc
 50
320.7906836425
 51
39.2093163575
  0
LINE
  5
389
330
1F
100
AcDbEntity
  8
0
  6
Continuous
 62
     7
370
     0
100
AcDbLine
 10
7.8539285755
 20
4.0990750614
 30
0.0
 11
7.9239748349
 21
4.0990750614
 31
0.0
  0
ARC
  5
38A
330
1F
100
AcDbEntity
  8
0
  6
Continuous
 62
     7
370
     0
100
AcDbCircle
 10
8.6398579078
 20
4.5990750614
 30
0.0
 40
0.9314960629921152
100
AcDbArc
 50
147.5359091707
 51
212.4640908293
  0
LINE
  5
38B
330
1F
100
AcDbEntity
  8
0
  6
Continuous
 62
     7
370
     0
100
AcDbLine
 10
7.9239748349
 20
5.0990750614
 30
0.0
 11
7.8539285755
 21
5.0990750614
 31
0.0
  0
ARC
  5
38C
330
1F
100
AcDbEntity
  8
0
  6
Continuous
 62
     7
370
     0
100
AcDbCircle
 10
5.9296216873
 20
4.5990750614
 30
0.0
 40
2.270866141732281
100
AcDbArc
 50
347.2803766009
 51
12.7196233991
  0
LINE
  5
38D
330
1F
100
AcDbEntity
  8
0
  6
Continuous
 62
     7
370
     0
100
AcDbLine
 10
7.9239748349
 20
4.0990750614
 30
0.0
 11
8.1447589367
 21
4.0990750614
 31
0.0
  0
ARC
  5
38E
330
1F
100
AcDbEntity
  8
0
  6
Continuous
 62
     7
370
     0
100
AcDbCircle
 10
7.3111177503
 20
4.5990750614
 30
0.0
 40
0.7909448818897521
100
AcDbArc
 50
320.7906836425
 51
39.2093163575
  0
LINE
  5
38F
330
1F
100
AcDbEntity
  8
0
  6
Continuous
 62
     7
370
     0
100
AcDbLine
 10
8.1447589367
 20
5.0990750614
 30
0.0
 11
7.9239748349
 21
5.0990750614
 31
0.0
  0
ARC
  5
390
330
1F
100
AcDbEntity
  8
0
  6
Continuous
 62
     7
370
     0
100
AcDbCircle
 10
7.9481433401
 20
4.5990750614
 30
0.0
 40
0.7909448818897508
100
AcDbArc
 50
140.7906836425
 51
219.2093163575
  0
LINE
  5
391
330
1F
100
AcDbEntity
  8
0
  6
Continuous
 62
     7
370
     0
100
AcDbLine
 10
7.1145021537
 20
4.0990750614
 30
0.0
 11
7.3352862555
 21
4.0990750614
 31
0.0
  0
ARC
  5
392
330
1F
100
AcDbEntity
  8
0
  6
Continuous
 62
     7
370
     0
100
AcDbCircle
 10
9.3296394031
 20
4.5990750614
 30
0.0
 40
2.270866141732279
100
AcDbArc
 50
167.2803766009
 51
192.7196233991
  0
LINE
  5
393
330
1F
100
AcDbEntity
  8
0
  6
Continuous
 62
     7
370
     0
100
AcDbLine
 10
7.3352862555
 20
5.0990750614
 30
0.0
 11
7.1145021537
 21
5.0990750614
 31
0.0
  0
ARC
  5
394
330
1F
100
AcDbEntity
  8
0
  6
Continuous
 62
     7
370
     0
100
AcDbCircle
 10
6.6194031826
 20
4.5990750614
 30
0.0
 40
0.9314960629921158
100
AcDbArc
 50
327.5359091707
 51
32.4640908293
  0
LINE
  5
395
330
1F
100
AcDbEntity
  8
0
  6
Continuous
 62
     7
370
     0
100
AcDbLine
 10
7.3352862555
 20
4.0990750614
 30
0.0
 11
7.4053325149
 21
4.0990750614
 31
0.0
  0
ARC
  5
396
330
1F
100
AcDbEntity
  8
0
  6
Continuous
 62
     7
370
     0
100
AcDbCircle
 10
7.9481433401
 20
4.5990750614
 30
0.0
 40
0.7909448818897508
100
AcDbArc
 50
140.7906836425
 51
219.2093163575
  0
LINE
  5
397
330
1F
100
AcDbEntity
  8
0
  6
Continuous
 62
     7
370
     0
100
AcDbLine
 10
7.4053325149
 20
5.0990750614
 30
0.0
 11
7.3352862555
 21
5.0990750614
 31
0.0
  0
DIMENSION
  5
398
330
1F
100
AcDbEntity
  8
0
  6
Continuous
 62
     7
370
     0
100
AcDbDimension
  2
*D8
 10
6.8705186579
 20
3.7708023631
 30
0.0
 11
6.3110537061
 21
3.7708023631
 31
0.0
 70
   160
 71
     1
 42
-1.0
  3
SLDDIMSTYLE1
100
AcDbAlignedDimension
 13
5.7674108232
 23
4.599074965
 33
0.0
 14
6.8705186579
 24
4.009074965
 34
0.0
100
AcDbRotatedDimension
  0
DIMENSION
  5
3AB
330
1F
100
AcDbEntity
  8
0
  6
Continuous
 62
     7
370
     0
100
AcDbDimension
  2
*D9
 10
8.3925844579
 20
3.4638997082
 30
0.0
 11
8.9396282604
 21
3.4638997082
 31
0.0
 70
   160
 71
     1
 42
-1.0
  3
SLDDIMSTYLE1
100
AcDbAlignedDimension
 13
9.4956922925
 23
4.599074965
 33
0.0
 14
8.3925844579
 24
4.009074965
 34
0.0
100
AcDbRotatedDimension
  0
DIMENSION
  5
3BD
330
1F
100
AcDbEntity
  8
0
  6
Continuous
 62
     7
370
     0
100
AcDbDimension
  2
*D10
 10
7.0587732389
 20
5.4293631486
 30
0.0
 11
6.3878566541
 21
5.4293631305
 31
0.0
 70
   160
 71
     1
 42
-1.0
  3
SLDDIMSTYLE2
100
AcDbAlignedDimension
 13
5.7674108232
 23
4.599074965
 33
0.0
 14
7.0587732614
 24
4.5990749999
 34
0.0
 50
0.0000015509
100
AcDbRotatedDimension
  0
DIMENSION
  5
3D0
330
1F
100
AcDbEntity
  8
0
  6
Continuous
 62
     7
370
     0
100
AcDbDimension
  2
*D11
 10
8.2004878515
 20
5.4293631486
 30
0.0
 11
8.8716875361
 21
5.4293631305
 31
0.0
 70
   160
 71
     1
 42
-1.0
  3
SLDDIMSTYLE1
100
AcDbAlignedDimension
 13
9.4956922925
 23
4.599074965
 33
0.0
 14
8.200487829
 24
4.599075
 34
0.0
 50
-0.0000015493
100
AcDbRotatedDimension
  0
DIMENSION
  5
3E2
330
1F
100
AcDbEntity
  8
0
  6
Continuous
 62
     7
370
     0
100
AcDbDimension
  2
*D12
 10
8.3925844579
 20
2.5319069112
 30
0.0
 11
7.6316823761
 21
2.5319069112
 31
0.0
 70
   160
 71
     1
 42
-1.0
  3
SLDDIMSTYLE2
100
AcDbAlignedDimension
 13
6.8705186579
 23
4.009074965
 33
0.0
 14
8.3925844579
 24
4.009074965
 34
0.0
100
AcDbRotatedDimension
  0
DIMENSION
  5
3F4
330
1F
100
AcDbEntity
  8
0
  6
Continuous
 62
     7
370
     0
100
AcDbDimension
  2
*D13
 10
7.7083618448
 20
3.4638997082
 30
0.0
 11
8.1914901372
 21
3.4638997082
 31
0.0
 70
   160
 71
     1
 42
-1.0
  3
SLDDIMSTYLE3
100
AcDbAlignedDimension
 13
7.5508992456
 23
4.5990750614
 33
0.0
 14
7.7083618448
 24
4.5990750614
 34
0.0
100
AcDbRotatedDimension
  0
DIMENSION
  5
407
330
1F
100
AcDbEntity
  8
0
  6
Continuous
 62
     7
370
     0
100
AcDbDimension
  2
*D14
 10
8.200487829
 20
5.7202856605
 30
0.0
 11
7.6297802579
 21
5.7202856605
 31
0.0
 70
   160
 71
     1
 42
-1.0
  3
SLDDIMSTYLE2
100
AcDbAlignedDimension
 13
7.0587732614
 23
4.5990750614
 33
0.0
 14
8.200487829
 24
4.5990750614
 34
0.0
100
AcDbRotatedDimension
  0
INSERT
  5
420
330
1F
100
AcDbEntity
  8
0
  6
Continuous
 62
     7
370
     0
100
AcDbBlockReference
  2
SW_NOTE_5
 10
7.1820295705
 20
3.0088677368
 30
0.0
  0
INSERT
  5
427
102
{ACAD_REACTORS
330
429
330
42A
102
}
330
1F
100
AcDbEntity
  8
0
  6
Continuous
 62
     7
370
     0
100
AcDbBlockReference
  2
SW_NOTE_6
 10
6.5262834829
 20
3.3795768482
 30
0.0
  0
LEADER
  5
429
330
1F
100
AcDbEntity
  8
0
  6
Continuous
 62
     7
370
     0
100
AcDbLeader
  3
SLDDIMSTYLE4
 73
     2
 76
     3
 10
6.9715063889
 20
4.093074965
 30
0.0
 10
6.7762834829
 20
3.3795768482
 30
0.0
 10
6.5262834829
 20
3.3795768482
 30
0.0
340
427
  0
LEADER
  5
42A
330
1F
100
AcDbEntity
  8
0
  6
Continuous
 62
     7
370
     0
100
AcDbLeader
  3
SLDDIMSTYLE4
 73
     2
 76
     3
 10
8.281625
 20
4.093074965
 30
0.0
 10
6.7762834829
 20
3.3795768482
 30
0.0
 10
6.5262834829
 20
3.3795768482
 30
0.0
340
427
  0
INSERT
  5
430
330
1F
100
AcDbEntity
  8
0
  6
Continuous
 62
     7
370
     0
100
AcDbBlockReference
  2
SW_NOTE_7
 10
8.7485384
 20
4.9495274428
 30
0.0
  0
LEADER
  5
431
330
1F
100
AcDbEntity
  8
0
  6
Continuous
 62
     7
370
     0
100
AcDbLeader
  3
SLDDIMSTYLE4
 76
     2
 10
8.0808376691
 20
4.7810779538
 30
0.0
 10
8.7485384
 20
4.9495274428
 30
0.0
  0
INSERT
  5
437
102
{ACAD_REACTORS
330
438
102
}
330
1F
100
AcDbEntity
  8
0
  6
Continuous
 62
     7
370
     0
100
AcDbBlockReference
  2
SW_NOTE_8
 10
6.649051539
 20
4.96048803
 30
0.0
  0
LEADER
  5
438
330
1F
100
AcDbEntity
  8
0
  6
Continuous
 62
     7
370
     0
100
AcDbLeader
  3
SLDDIMSTYLE4
 73
     2
 76
     2
 10
7.1995930597
 20
4.8545477291
 30
0.0
 10
6.649051539
 20
4.96048803
 30
0.0
340
437
  0
INSERT
  5
43E
330
1F
100
AcDbEntity
  8
0
  6
Continuous
 62
     7
370
     0
100
AcDbBlockReference
  2
SW_NOTE_9
 10
8.9370243863
 20
3.8776631384
 30
0.0
  0
LEADER
  5
43F
330
1F
100
AcDbEntity
  8
0
  6
Continuous
 62
     7
370
     0
100
AcDbLeader
  3
SLDDIMSTYLE4
 76
     2
 10
8.3825844579
 20
3.999074965
 30
0.0
 10
8.9370243863
 20
3.8776631384
 30
0.0
  0
INSERT
  5
445
102
{ACAD_REACTORS
330
446
102
}
330
1F
100
AcDbEntity
  8
0
  6
Continuous
 62
     7
370
     0
100
AcDbBlockReference
  2
SW_NOTE_10
 10
6.4362784823
 20
4.1648339804
 30
0.0
  0
LEADER
  5
446
330
1F
100
AcDbEntity
  8
0
  6
Continuous
 62
     7
370
     0
100
AcDbLeader
  3
SLDDIMSTYLE4
 73
     2
 76
     2
 10
7.025518662
 20
4.149075102
 30
0.0
 10
6.4362784823
 20
4.1648339804
 30
0.0
340
445
  0
INSERT
  5
44C
330
1F
100
AcDbEntity
  8
0
  6
Continuous
 62
     7
370
     0
100
AcDbBlockReference
  2
SW_NOTE_11
 10
9.0034002507
 20
4.2301026828
 30
0.0
  0
LEADER
  5
44D
330
1F
100
AcDbEntity
  8
0
  6
Continuous
 62
     7
370
     0
100
AcDbLeader
  3
SLDDIMSTYLE4
 76
     2
 10
8.2336849786
 20
4.1490750614
 30
0.0
 10
9.0034002507
 20
4.2301026828
 30
0.0
  0
HATCH
  5
44E
330
1F
100
AcDbEntity
  8
0
  6
Continuous
 62
     7
370
     0
100
AcDbHatch
 10
0.0
 20
0.0
 30
0.0
210
0.0
220
0.0
230
1.0
  2
ANSI31
 70
     0
 71
     0
 91
        1
 92
        0
 93
        6
 72
     1
 10
7.088198153947023
 20
4.081575102022837
 11
7.105518662022712
 21
4.091575102022798
 72
     1
 10
7.105518662022712
 20
4.091575102022798
 11
7.105518662022712
 21
4.149075102022843
 72
     1
 10
7.105518662022712
 20
4.149075102022843
 11
7.025518662022712
 21
4.149075102022843
 72
     1
 10
7.025518662022712
 20
4.149075102022843
 11
7.025518662022712
 21
4.098895610098527
 72
     1
 10
7.025518662022712
 20
4.098895610098527
 11
7.035518662022712
 21
4.081575102022798
 72
     1
 10
7.035518662022712
 20
4.081575102022798
 11
7.088198153947023
 21
4.081575102022837
 97
        0
 75
     0
 76
     1
 52
0.0
 41
1.0
 77
     0
 78
     1
 53
45.0
 43
0.0
 44
0.0
 45
-0.0883883476483184
 46
0.0883883476483184
 79
     0
 98
        1
 10
0.0
 20
0.0
  0
HATCH
  5
44F
330
1F
100
AcDbEntity
  8
0
  6
Continuous
 62
     7
370
     0
100
AcDbHatch
 10
0.0
 20
0.0
 30
0.0
210
0.0
220
0.0
230
1.0
  2
ANSI31
 70
     0
 71
     0
 91
        1
 92
        0
 93
        6
 72
     1
 10
7.025518662022711
 20
5.099254593947109
 11
7.025518662022711
 21
5.049075102022754
 72
     1
 10
7.025518662022711
 20
5.049075102022754
 11
7.105518662022712
 21
5.049075102022754
 72
     1
 10
7.105518662022712
 20
5.049075102022754
 11
7.105518662022712
 21
5.10657510202276
 72
     1
 10
7.105518662022712
 20
5.10657510202276
 11
7.088198153947023
 21
5.116575102022799
 72
     1
 10
7.088198153947023
 20
5.116575102022799
 11
7.035518662022711
 21
5.116575102022761
 72
     1
 10
7.035518662022711
 20
5.116575102022761
 11
7.025518662022711
 21
5.099254593947109
 97
        0
 75
     0
 76
     1
 52
0.0
 41
1.0
 77
     0
 78
     1
 53
45.0
 43
0.0
 44
0.0
 45
-0.0883883476483184
 46
0.0883883476483184
 79
     0
 98
        1
 10
0.0
 20
0.0
  0
HATCH
  5
450
330
1F
100
AcDbEntity
  8
0
  6
Continuous
 62
     7
370
     0
100
AcDbHatch
 10
0.0
 20
0.0
 30
0.0
210
0.0
220
0.0
230
1.0
  2
ANSI31
 70
     0
 71
     0
 91
        1
 92
        0
 93
        4
 72
     1
 10
7.405332514923281
 20
5.099075061396932
 11
7.335286255468155
 21
5.099075061396932
 72
     2
 10
7.9481433401034
 20
4.599075061396952
 40
0.7909448818897512
 50
140.7906836425319
 51
219.2093163574689
 73
     1
 72
     1
 10
7.335286255468155
 20
4.099075061396972
 11
7.405332514923281
 21
4.099075061396971
 72
     2
 10
6.619403182623086
 20
4.599075061396952
 40
0.9314960629921155
 50
327.5359091707243
 51
392.4640908292773
 73
     1
 97
        0
 75
     0
 76
     1
 52
0.0
 41
1.0
 77
     0
 78
     1
 53
45.0
 43
0.0
 44
0.0
 45
-0.0883883476483184
 46
0.0883883476483184
 79
     0
 98
        1
 10
0.0
 20
0.0
  0
HATCH
  5
451
330
1F
100
AcDbEntity
  8
0
  6
Continuous
 62
     7
370
     0
100
AcDbHatch
 10
0.0
 20
0.0
 30
0.0
210
0.0
220
0.0
230
1.0
  2
ANSI31
 70
     0
 71
     0
 91
        1
 92
        0
 93
        4
 72
     1
 10
7.335286255468155
 20
5.099075061396932
 11
7.114502153698535
 21
5.099075061396932
 72
     2
 10
9.329639403095525
 20
4.599075061396952
 40
2.27086614173228
 50
167.2803766008734
 51
192.7196233991274
 73
     1
 72
     1
 10
7.114502153698535
 20
4.099075061396972
 11
7.335286255468155
 21
4.099075061396971
 72
     2
 10
7.9481433401034
 20
4.599075061396952
 40
0.7909448818897512
 50
140.7906836425319
 51
219.2093163574689
 73
     0
 97
        0
 75
     0
 76
     1
 52
0.0
 41
1.0
 77
     0
 78
     1
 53
45.0
 43
0.0
 44
0.0
 45
-0.0883883476483184
 46
0.0883883476483184
 79
     0
 98
        1
 10
0.0
 20
0.0
  0
HATCH
  5
452
330
1F
100
AcDbEntity
  8
0
  6
Continuous
 62
     7
370
     0
100
AcDbHatch
 10
0.0
 20
0.0
 30
0.0
210
0.0
220
0.0
230
1.0
  2
ANSI31
 70
     0
 71
     0
 91
        1
 92
        0
 93
        4
 72
     1
 10
8.144758936709664
 20
5.099075061396931
 11
7.923974834940045
 21
5.099075061396932
 72
     2
 10
7.311117750304799
 20
4.599075061396952
 40
0.7909448818897512
 50
320.7906836425328
 51
399.2093163574688
 73
     0
 72
     1
 10
7.923974834940045
 20
4.099075061396972
 11
8.144758936709664
 21
4.099075061396972
 72
     2
 10
5.929621687312673
 20
4.599075061396952
 40
2.27086614173228
 50
347.2803766008743
 51
372.7196233991274
 73
     1
 97
        0
 75
     0
 76
     1
 52
0.0
 41
1.0
 77
     0
 78
     1
 53
45.0
 43
0.0
 44
0.0
 45
-0.0883883476483184
 46
0.0883883476483184
 79
     0
 98
        1
 10
0.0
 20
0.0
  0
HATCH
  5
453
330
1F
100
AcDbEntity
  8
0
  6
Continuous
 62
     7
370
     0
100
AcDbHatch
 10
0.0
 20
0.0
 30
0.0
210
0.0
220
0.0
230
1.0
  2
ANSI31
 70
     0
 71
     0
 91
        1
 92
        0
 93
        4
 72
     1
 10
7.923974834940044
 20
5.099075061396932
 11
7.853928575484918
 21
5.099075061396932
 72
     2
 10
8.639857907785114
 20
4.599075061396952
 40
0.9314960629921155
 50
147.5359091707235
 51
212.4640908292772
 73
     1
 72
     1
 10
7.853928575484918
 20
4.099075061396972
 11
7.923974834940044
 21
4.099075061396971
 72
     2
 10
7.311117750304799
 20
4.599075061396952
 40
0.7909448818897512
 50
320.7906836425327
 51
399.2093163574689
 73
     1
 97
        0
 75
     0
 76
     1
 52
0.0
 41
1.0
 77
     0
 78
     1
 53
45.0
 43
0.0
 44
0.0
 45
-0.0883883476483184
 46
0.0883883476483184
 79
     0
 98
        1
 10
0.0
 20
0.0
  0
HATCH
  5
454
330
1F
100
AcDbEntity
  8
0
  6
Continuous
 62
     7
370
     0
100
AcDbHatch
 10
0.0
 20
0.0
 30
0.0
210
0.0
220
0.0
230
1.0
  2
ANSI31
 70
     0
 71
     0
 91
        1
 92
        0
 93
       28
 72
     1
 10
8.375263949787813
 20
5.105074964971283
 11
8.392584457863503
 21
5.115074964971282
 72
     1
 10
8.392584457863503
 20
5.115074964971282
 11
8.392584457863503
 21
5.189074964971284
 72
     1
 10
8.392584457863503
 20
5.189074964971284
 11
8.382584457863503
 21
5.199074964971283
 72
     1
 10
8.382584457863503
 20
5.199074964971283
 11
8.286119887232323
 21
5.199074964971283
 72
     1
 10
8.286119887232323
 20
5.199074964971283
 11
8.257404138375941
 21
5.199074964971283
 72
     1
 10
8.257404138375941
 20
5.199074964971283
 11
7.181976221205931
 21
5.199074964971283
 72
     1
 10
7.181976221205931
 20
5.199074964971283
 11
7.172677798305021
 21
5.199074964971283
 72
     1
 10
7.172677798305021
 20
5.199074964971283
 11
7.154301936173827
 21
5.199074964971283
 72
     1
 10
7.154301936173827
 20
5.199074964971283
 11
7.147593734947339
 21
5.199074964971283
 72
     1
 10
7.147593734947339
 20
5.199074964971283
 11
6.99905408723234
 21
5.199074964971283
 72
     1
 10
6.99905408723234
 20
5.199074964971283
 11
6.970338338375926
 21
5.199074964971283
 72
     1
 10
6.970338338375926
 20
5.199074964971283
 11
6.8805186578635
 21
5.199074964971283
 72
     1
 10
6.8805186578635
 20
5.199074964971283
 11
6.870518657863501
 21
5.189074964971284
 72
     1
 10
6.870518657863501
 20
5.189074964971284
 11
6.870518657863502
 21
5.115074964971282
 72
     1
 10
6.870518657863502
 20
5.115074964971282
 11
6.887839165939191
 21
5.105074964971283
 72
     1
 10
6.887839165939191
 20
5.105074964971283
 11
7.170518657863502
 21
5.105074964971283
 72
     1
 10
7.170518657863502
 20
5.105074964971283
 11
7.171673358401881
 21
5.103074964971283
 72
     1
 10
7.171673358401881
 20
5.103074964971283
 11
7.415605077863502
 21
5.103074964971283
 72
     1
 10
7.415605077863502
 20
5.103074964971283
 11
7.415605077863502
 21
5.124074964971284
 72
     1
 10
7.415605077863502
 20
5.124074964971284
 11
7.435605077863501
 21
5.124074964971284
 72
     1
 10
7.435605077863501
 20
5.124074964971284
 11
7.435605077863501
 21
5.050074964971282
 72
     1
 10
7.435605077863501
 20
5.050074964971282
 11
7.827498037863502
 21
5.050074964971282
 72
     1
 10
7.827498037863502
 20
5.050074964971282
 11
7.827498037863502
 21
5.124074964971284
 72
     1
 10
7.827498037863502
 20
5.124074964971284
 11
7.847498037863502
 21
5.124074964971284
 72
     1
 10
7.847498037863502
 20
5.124074964971284
 11
7.847498037863502
 21
5.103074964971283
 72
     1
 10
7.847498037863502
 20
5.103074964971283
 11
8.091429757325121
 21
5.103074964971283
 72
     1
 10
8.091429757325121
 20
5.103074964971283
 11
8.092584457863502
 21
5.105074964971283
 72
     1
 10
8.092584457863502
 20
5.105074964971283
 11
8.375263949787813
 21
5.105074964971283
 97
        0
 75
     0
 76
     1
 52
0.0
 41
1.0
 77
     0
 78
     1
 53
45.0
 43
0.0
 44
0.0
 45
-0.0883883476483184
 46
0.0883883476483184
 79
     0
 98
        1
 10
0.0
 20
0.0
  0
HATCH
  5
455
330
1F
100
AcDbEntity
  8
0
  6
Continuous
 62
     7
370
     0
100
AcDbHatch
 10
0.0
 20
0.0
 30
0.0
210
0.0
220
0.0
230
1.0
  2
ANSI31
 70
     0
 71
     0
 91
        1
 92
        0
 93
       28
 72
     1
 10
8.392584457863503
 20
4.083074964971282
 11
8.375263949787813
 21
4.093074964971282
 72
     1
 10
8.375263949787813
 20
4.093074964971282
 11
8.092584457863502
 21
4.093074964971281
 72
     1
 10
8.092584457863502
 20
4.093074964971281
 11
8.091429757325121
 21
4.095074964971282
 72
     1
 10
8.091429757325121
 20
4.095074964971282
 11
7.847498037863502
 21
4.095074964971282
 72
     1
 10
7.847498037863502
 20
4.095074964971282
 11
7.847498037863502
 21
4.074074964971283
 72
     1
 10
7.847498037863502
 20
4.074074964971283
 11
7.827498037863502
 21
4.074074964971281
 72
     1
 10
7.827498037863502
 20
4.074074964971281
 11
7.827498037863502
 21
4.148074964971283
 72
     1
 10
7.827498037863502
 20
4.148074964971283
 11
7.435605077863501
 21
4.148074964971283
 72
     1
 10
7.435605077863501
 20
4.148074964971283
 11
7.435605077863501
 21
4.074074964971283
 72
     1
 10
7.435605077863501
 20
4.074074964971283
 11
7.415605077863502
 21
4.074074964971281
 72
     1
 10
7.415605077863502
 20
4.074074964971281
 11
7.415605077863502
 21
4.095074964971282
 72
     1
 10
7.415605077863502
 20
4.095074964971282
 11
7.171673358401881
 21
4.095074964971283
 72
     1
 10
7.171673358401881
 20
4.095074964971283
 11
7.170518657863502
 21
4.093074964971282
 72
     1
 10
7.170518657863502
 20
4.093074964971282
 11
6.887839165939191
 21
4.093074964971282
 72
     1
 10
6.887839165939191
 20
4.093074964971282
 11
6.870518657863502
 21
4.083074964971282
 72
     1
 10
6.870518657863502
 20
4.083074964971282
 11
6.870518657863502
 21
4.009074964971281
 72
     1
 10
6.870518657863502
 20
4.009074964971281
 11
6.8805186578635
 21
3.999074964971282
 72
     1
 10
6.8805186578635
 20
3.999074964971282
 11
6.945193982538826
 21
3.999074964971282
 72
     1
 10
6.945193982538826
 20
3.999074964971282
 11
6.983032402495094
 21
3.999074964971282
 72
     1
 10
6.983032402495094
 20
3.999074964971282
 11
6.994885540980386
 21
3.999074964971282
 72
     1
 10
6.994885540980386
 20
3.999074964971282
 11
7.012255670850515
 21
3.999074964971282
 72
     1
 10
7.012255670850515
 20
3.999074964971282
 11
7.112227808999573
 21
3.999074964971282
 72
     1
 10
7.112227808999573
 20
3.999074964971282
 11
7.136329840580454
 21
3.999074964971282
 72
     1
 10
7.136329840580454
 20
3.999074964971282
 11
7.161119307214151
 21
3.999074964971282
 72
     1
 10
7.161119307214151
 20
3.999074964971282
 11
7.178424502019346
 21
3.999074964971282
 72
     1
 10
7.178424502019346
 20
3.999074964971282
 11
8.382584457863503
 21
3.999074964971282
 72
     1
 10
8.382584457863503
 20
3.999074964971282
 11
8.392584457863503
 21
4.009074964971282
 72
     1
 10
8.392584457863503
 20
4.009074964971282
 11
8.392584457863503
 21
4.083074964971282
 97
        0
 75
     0
 76
     1
 52
0.0
 41
1.0
 77
     0
 78
     1
 53
45.0
 43
0.0
 44
0.0
 45
-0.0883883476483184
 46
0.0883883476483184
 79
     0
 98
        1
 10
0.0
 20
0.0
  0
HATCH
  5
456
330
1F
100
AcDbEntity
  8
0
  6
Continuous
 62
     7
370
     0
100
AcDbHatch
 10
0.0
 20
0.0
 30
0.0
210
0.0
220
0.0
230
1.0
  2
ANSI31
 70
     0
 71
     0
 91
        1
 92
        0
 93
        6
 72
     1
 10
8.23368497862116
 20
4.149075061396974
 11
8.15368497862116
 21
4.149075061396974
 72
     1
 10
8.15368497862116
 20
4.149075061396974
 11
8.15368497862116
 21
4.091575061396952
 72
     1
 10
8.15368497862116
 20
4.091575061396952
 11
8.17100548669685
 21
4.081575061396971
 72
     1
 10
8.17100548669685
 20
4.081575061396971
 11
8.22368497862116
 21
4.081575061396951
 72
     1
 10
8.22368497862116
 20
4.081575061396951
 11
8.233684978621161
 21
4.098895569472642
 72
     1
 10
8.233684978621161
 20
4.098895569472642
 11
8.23368497862116
 21
4.149075061396974
 97
        0
 75
     0
 76
     1
 52
0.0
 41
1.0
 77
     0
 78
     1
 53
45.0
 43
0.0
 44
0.0
 45
-0.0883883476483184
 46
0.0883883476483184
 79
     0
 98
        1
 10
0.0
 20
0.0
  0
HATCH
  5
457
330
1F
100
AcDbEntity
  8
0
  6
Continuous
 62
     7
370
     0
100
AcDbHatch
 10
0.0
 20
0.0
 30
0.0
210
0.0
220
0.0
230
1.0
  2
ANSI31
 70
     0
 71
     0
 91
        1
 92
        0
 93
        6
 72
     1
 10
8.233684978621161
 20
5.04907506139693
 11
8.233684978621161
 21
5.099254553321261
 72
     1
 10
8.233684978621161
 20
5.099254553321261
 11
8.223684978621161
 21
5.116575061396933
 72
     1
 10
8.223684978621161
 20
5.116575061396933
 11
8.17100548669685
 21
5.116575061396952
 72
     1
 10
8.17100548669685
 20
5.116575061396952
 11
8.15368497862116
 21
5.106575061396951
 72
     1
 10
8.15368497862116
 20
5.106575061396951
 11
8.15368497862116
 21
5.04907506139693
 72
     1
 10
8.15368497862116
 20
5.04907506139693
 11
8.233684978621161
 21
5.04907506139693
 97
        0
 75
     0
 76
     1
 52
0.0
 41
1.0
 77
     0
 78
     1
 53
45.0
 43
0.0
 44
0.0
 45
-0.0883883476483184
 46
0.0883883476483184
 79
     0
 98
        1
 10
0.0
 20
0.0
  0
ENDSEC
  0
SECTION
  2
OBJECTS
  0
DICTIONARY
  5
C
330
0
100
AcDbDictionary
281
     1
  3
ACAD_GROUP
350
D
  3
ACAD_LAYOUT
350
1A
  3
ACAD_MLINESTYLE
350
17
  3
ACAD_PLOTSETTINGS
350
19
  3
ACAD_PLOTSTYLENAME
350
E
  0
DICTIONARY
  5
D
102
{ACAD_REACTORS
330
C
102
}
330
C
100
AcDbDictionary
281
     1
  0
DICTIONARY
  5
1A
102
{ACAD_REACTORS
330
C
102
}
330
C
100
AcDbDictionary
281
     1
  3
Layout1
350
1E
  3
Layout2
350
26
  3
Model
350
22
  0
DICTIONARY
  5
17
102
{ACAD_REACTORS
330
C
102
}
330
C
100
AcDbDictionary
281
     1
  3
Standard
350
18
  0
DICTIONARY
  5
19
102
{ACAD_REACTORS
330
C
102
}
330
C
100
AcDbDictionary
281
     1
  0
ACDBDICTIONARYWDFLT
  5
E
102
{ACAD_REACTORS
330
C
102
}
330
C
100
AcDbDictionary
281
     1
  3
Normal
350
F
100
AcDbDictionaryWithDefault
340
F
  0
LAYOUT
  5
1E
102
{ACAD_REACTORS
330
1A
102
}
330
1A
100
AcDbPlotSettings
  1

  2
none_device
  4

  6

 40
0.0
 41
0.0
 42
0.0
 43
0.0
 44
0.0
 45
0.0
 46
0.0
 47
0.0
 48
0.0
 49
0.0
140
0.0
141
0.0
142
1.0
143
1.0
 70
   688
 72
     0
 73
     0
 74
     5
  7

 75
    16
147
1.0
148
0.0
149
0.0
100
AcDbLayout
  1
Layout1
 70
     1
 71
     1
 10
0.0
 20
0.0
 11
12.0
 21
9.0
 12
0.0
 22
0.0
 32
0.0
 14
1.0000000000E+20
 24
1.0000000000E+20
 34
1.0000000000E+20
 15
-1.0000000000E+20
 25
-1.0000000000E+20
 35
-1.0000000000E+20
146
0.0
 13
0.0
 23
0.0
 33
0.0
 16
1.0
 26
0.0
 36
0.0
 17
0.0
 27
1.0
 37
0.0
 76
     0
330
1B
  0
LAYOUT
  5
26
102
{ACAD_REACTORS
330
1A
102
}
330
1A
100
AcDbPlotSettings
  1

  2
none_device
  4

  6

 40
0.0
 41
0.0
 42
0.0
 43
0.0
 44
0.0
 45
0.0
 46
0.0
 47
0.0
 48
0.0
 49
0.0
140
0.0
141
0.0
142
1.0
143
1.0
 70
   688
 72
     0
 73
     0
 74
     5
  7

 75
    16
147
1.0
148
0.0
149
0.0
100
AcDbLayout
  1
Layout2
 70
     1
 71
     2
 10
0.0
 20
0.0
 11
0.0
 21
0.0
 12
0.0
 22
0.0
 32
0.0
 14
0.0
 24
0.0
 34
0.0
 15
0.0
 25
0.0
 35
0.0
146
0.0
 13
0.0
 23
0.0
 33
0.0
 16
1.0
 26
0.0
 36
0.0
 17
0.0
 27
1.0
 37
0.0
 76
     0
330
23
  0
LAYOUT
  5
22
102
{ACAD_REACTORS
330
1A
102
}
330
1A
100
AcDbPlotSettings
  1

  2
none_device
  4

  6

 40
0.0
 41
0.0
 42
0.0
 43
0.0
 44
0.0
 45
0.0
 46
0.0
 47
0.0
 48
0.0
 49
0.0
140
0.0
141
0.0
142
1.0
143
1.0
 70
  1712
 72
     0
 73
     0
 74
     0
  7

 75
     0
147
1.0
148
0.0
149
0.0
100
AcDbLayout
  1
Model
 70
     1
 71
     0
 10
0.0
 20
0.0
 11
0.0
 21
0.0
 12
0.0
 22
0.0
 32
0.0
 14
0.0
 24
0.0
 34
0.0
 15
11.0
 25
8.5
 35
0.0
146
0.0
 13
0.0
 23
0.0
 33
0.0
 16
1.0
 26
0.0
 36
0.0
 17
0.0
 27
1.0
 37
0.0
 76
     0
330
1F
  0
MLINESTYLE
  5
18
102
{ACAD_REACTORS
330
17
102
}
330
17
100
AcDbMlineStyle
  2
Standard
 70
     0
  3

 62
   256
 51
90.0
 52
90.0
 71
     2
 49
0.5
 62
   256
  6
BYLAYER
 49
-0.5
 62
   256
  6
BYLAYER
  0
ACDBPLACEHOLDER
  5
F
102
{ACAD_REACTORS
330
E
102
}
330
E
  0
ENDSEC
  0
EOF
