  0
SECTION
  2
HEADER
  9
$ACADVER
  1
AC1015
  9
$ACADMAINTVER
 70
     6
  9
$DWGCODEPAGE
  3
ANSI_1252
  9
$INSBASE
 10
0.0
 20
0.0
 30
0.0
  9
$EXTMIN
 10
0.0
 20
0.0
 30
0.0
  9
$EXTMAX
 10
279.4
 20
215.9
 30
0.0
  9
$LIMMIN
 10
0.0
 20
0.0
  9
$LIMMAX
 10
279.4
 20
215.9
  9
$ORTHOMODE
 70
     0
  9
$REGENMODE
 70
     1
  9
$FILLMODE
 70
     1
  9
$QTEXTMODE
 70
     0
  9
$MIRRTEXT
 70
     1
  9
$LTSCALE
 40
1.0
  9
$ATTMODE
 70
     1
  9
$TEXTSIZE
 40
2.286
  9
$TRACEWID
 40
1.0
  9
$TEXTSTYLE
  7
Standard
  9
$CLAYER
  8
0
  9
$CELTYPE
  6
ByLayer
  9
$CECOLOR
 62
   256
  9
$CELTSCALE
 40
1.0
  9
$DISPSILH
 70
     0
  9
$DIMSCALE
 40
1.0
  9
$DIMASZ
 40
4.064
  9
$DIMEXO
 40
1.27
  9
$DIMDLI
 40
3.75
  9
$DIMRND
 40
0.0
  9
$DIMDLE
 40
0.0
  9
$DIMEXE
 40
3.175
  9
$DIMTP
 40
0.0
  9
$DIMTM
 40
0.0
  9
$DIMTXT
 40
2.286
  9
$DIMCEN
 40
2.5
  9
$DIMTSZ
 40
0.0
  9
$DIMTOL
 70
     0
  9
$DIMLIM
 70
     0
  9
$DIMTIH
 70
     1
  9
$DIMTOH
 70
     1
  9
$DIMSE1
 70
     0
  9
$DIMSE2
 70
     0
  9
$DIMTAD
 70
     0
  9
$DIMZIN
 70
     1
  9
$DIMBLK
  1

  9
$DIMASO
 70
     1
  9
$DIMSHO
 70
     1
  9
$DIMPOST
  1

  9
$DIMAPOST
  1

  9
$DIMALT
 70
     0
  9
$DIMALTD
 70
     3
  9
$DIMALTF
 40
0.0393700787
  9
$DIMLFAC
 40
1.0
  9
$DIMTOFL
 70
     1
  9
$DIMTVP
 40
0.0
  9
$DIMTIX
 70
     0
  9
$DIMSOXD
 70
     0
  9
$DIMSAH
 70
     0
  9
$DIMBLK1
  1

  9
$DIMBLK2
  1

  9
$DIMSTYLE
  2
ISO-25
  9
$DIMCLRD
 70
     0
  9
$DIMCLRE
 70
     0
  9
$DIMCLRT
 70
     0
  9
$DIMTFAC
 40
1.0
  9
$DIMGAP
 40
2.54
  9
$DIMJUST
 70
     0
  9
$DIMSD1
 70
     0
  9
$DIMSD2
 70
     0
  9
$DIMTOLJ
 70
     0
  9
$DIMTZIN
 70
     1
  9
$DIMALTZ
 70
     0
  9
$DIMALTTZ
 70
     0
  9
$DIMUPT
 70
     0
  9
$DIMDEC
 70
     1
  9
$DIMTDEC
 70
     1
  9
$DIMALTU
 70
     2
  9
$DIMALTTD
 70
     3
  9
$DIMTXSTY
  7
Standard
  9
$DIMAUNIT
 70
     0
  9
$DIMADEC
 70
     2
  9
$DIMALTRND
 40
0.0
  9
$DIMAZIN
 70
     0
  9
$DIMDSEP
 70
    44
  9
$DIMATFIT
 70
     3
  9
$DIMFRAC
 70
     0
  9
$DIMLDRBLK
  1

  9
$DIMLUNIT
 70
     2
  9
$DIMLWD
 70
    -2
  9
$DIMLWE
 70
    -2
  9
$DIMTMOVE
 70
     0
  9
$LUNITS
 70
     2
  9
$LUPREC
 70
     1
  9
$SKETCHINC
 40
1.0
  9
$FILLETRAD
 40
10.0
  9
$AUNITS
 70
     0
  9
$AUPREC
 70
     2
  9
$MENU
  1
.
  9
$ELEVATION
 40
0.0
  9
$PELEVATION
 40
0.0
  9
$THICKNESS
 40
0.0
  9
$LIMCHECK
 70
     0
  9
$CHAMFERA
 40
10.0
  9
$CHAMFERB
 40
10.0
  9
$CHAMFERC
 40
20.0
  9
$CHAMFERD
 40
0.0
  9
$SKPOLY
 70
     0
  9
$TDCREATE
 40
2455448.445822986
  9
$TDUCREATE
 40
2455448.612489653
  9
$TDUPDATE
 40
2455448.445822997
  9
$TDUUPDATE
 40
2455448.612489664
  9
$TDINDWG
 40
0.0000000116
  9
$TDUSRTIMER
 40
0.0000000116
  9
$USRTIMER
 70
     1
  9
$ANGBASE
 50
0.0
  9
$ANGDIR
 70
     0
  9
$PDMODE
 70
     0
  9
$PDSIZE
 40
-1.0
  9
$PLINEWID
 40
0.0
  9
$SPLFRAME
 70
     0
  9
$SPLINETYPE
 70
     6
  9
$SPLINESEGS
 70
     8
  9
$HANDSEED
  5
1BF
  9
$SURFTAB1
 70
     6
  9
$SURFTAB2
 70
     6
  9
$SURFTYPE
 70
     6
  9
$SURFU
 70
     6
  9
$SURFV
 70
     6
  9
$UCSBASE
  2

  9
$UCSNAME
  2

  9
$UCSORG
 10
0.0
 20
0.0
 30
0.0
  9
$UCSXDIR
 10
1.0
 20
0.0
 30
0.0
  9
$UCSYDIR
 10
0.0
 20
1.0
 30
0.0
  9
$UCSORTHOREF
  2

  9
$UCSORTHOVIEW
 70
     0
  9
$UCSORGTOP
 10
0.0
 20
0.0
 30
0.0
  9
$UCSORGBOTTOM
 10
0.0
 20
0.0
 30
0.0
  9
$UCSORGLEFT
 10
0.0
 20
0.0
 30
0.0
  9
$UCSORGRIGHT
 10
0.0
 20
0.0
 30
0.0
  9
$UCSORGFRONT
 10
0.0
 20
0.0
 30
0.0
  9
$UCSORGBACK
 10
0.0
 20
0.0
 30
0.0
  9
$PUCSBASE
  2

  9
$PUCSNAME
  2

  9
$PUCSORG
 10
0.0
 20
0.0
 30
0.0
  9
$PUCSXDIR
 10
1.0
 20
0.0
 30
0.0
  9
$PUCSYDIR
 10
0.0
 20
1.0
 30
0.0
  9
$PUCSORTHOREF
  2

  9
$PUCSORTHOVIEW
 70
     0
  9
$PUCSORGTOP
 10
0.0
 20
0.0
 30
0.0
  9
$PUCSORGBOTTOM
 10
0.0
 20
0.0
 30
0.0
  9
$PUCSORGLEFT
 10
0.0
 20
0.0
 30
0.0
  9
$PUCSORGRIGHT
 10
0.0
 20
0.0
 30
0.0
  9
$PUCSORGFRONT
 10
0.0
 20
0.0
 30
0.0
  9
$PUCSORGBACK
 10
0.0
 20
0.0
 30
0.0
  9
$USERI1
 70
     0
  9
$USERI2
 70
     0
  9
$USERI3
 70
     0
  9
$USERI4
 70
     0
  9
$USERI5
 70
     0
  9
$USERR1
 40
0.0
  9
$USERR2
 40
0.0
  9
$USERR3
 40
0.0
  9
$USERR4
 40
0.0
  9
$USERR5
 40
0.0
  9
$WORLDVIEW
 70
     1
  9
$SHADEDGE
 70
     3
  9
$SHADEDIF
 70
    70
  9
$TILEMODE
 70
     1
  9
$MAXACTVP
 70
    64
  9
$PINSBASE
 10
0.0
 20
0.0
 30
0.0
  9
$PLIMCHECK
 70
     0
  9
$PEXTMIN
 10
1.0000000000E+20
 20
1.0000000000E+20
 30
1.0000000000E+20
  9
$PEXTMAX
 10
-1.0000000000E+20
 20
-1.0000000000E+20
 30
-1.0000000000E+20
  9
$PLIMMIN
 10
0.0
 20
0.0
  9
$PLIMMAX
 10
420.0
 20
297.0
  9
$UNITMODE
 70
     0
  9
$VISRETAIN
 70
     1
  9
$PLINEGEN
 70
     0
  9
$PSLTSCALE
 70
     1
  9
$TREEDEPTH
 70
  3020
  9
$CMLSTYLE
  2
Standard
  9
$CMLJUST
 70
     0
  9
$CMLSCALE
 40
20.0
  9
$PROXYGRAPHICS
 70
     1
  9
$MEASUREMENT
 70
     1
  9
$CELWEIGHT
370
    -1
  9
$ENDCAPS
280
     0
  9
$JOINSTYLE
280
     0
  9
$LWDISPLAY
290
     1
  9
$INSUNITS
 70
     4
  9
$HYPERLINKBASE
  1

  9
$STYLESHEET
  1

  9
$XEDIT
290
     1
  9
$CEPSNTYPE
380
     0
  9
$PSTYLEMODE
290
     1
  9
$FINGERPRINTGUID
  2
{2B9BC940-A95A-4C58-961C-C7EA1F5A27F0}
  9
$VERSIONGUID
  2
{FAEB1C32-E019-11D5-929B-00C0DF256EC4}
  9
$EXTNAMES
290
     1
  9
$PSVPSCALE
 40
0.0
  9
$OLESTARTUP
290
     0
  0
ENDSEC
  0
SECTION
  2
CLASSES
  0
CLASS
  1
ACDBDICTIONARYWDFLT
  2
AcDbDictionaryWithDefault
  3
ObjectDBX Classes
 90
        0
280
     0
281
     0
  0
CLASS
  1
VISUALSTYLE
  2
AcDbVisualStyle
  3
ObjectDBX Classes
 90
     4095
280
     0
281
     0
  0
CLASS
  1
DICTIONARYVAR
  2
AcDbDictionaryVar
  3
ObjectDBX Classes
 90
        0
280
     0
281
     0
  0
CLASS
  1
ACDBPLACEHOLDER
  2
AcDbPlaceHolder
  3
ObjectDBX Classes
 90
        0
280
     0
281
     0
  0
CLASS
  1
LAYOUT
  2
AcDbLayout
  3
ObjectDBX Classes
 90
        0
280
     0
281
     0
  0
ENDSEC
  0
SECTION
  2
TABLES
  0
TABLE
  2
VPORT
  5
8
330
0
100
AcDbSymbolTable
 70
     1
  0
VPORT
  5
29
330
8
100
AcDbSymbolTableRecord
100
AcDbViewportTableRecord
  2
*Active
 70
     0
 10
0.0
 20
0.0
 11
1.0
 21
1.0
 12
139.7
 22
107.95
 13
0.0
 23
0.0
 14
10.0
 24
10.0
 15
10.0
 25
10.0
 16
0.0
 26
0.0
 36
1.0
 17
0.0
 27
0.0
 37
0.0
 40
215.9
 41
1.2941176471
 42
50.0
 43
0.0
 44
0.0
 50
0.0
 51
0.0
 71
     0
 72
  2000
 73
     1
 74
     3
 75
     0
 76
     0
 77
     0
 78
     0
281
     0
 65
     1
110
0.0
120
0.0
130
0.0
111
1.0
121
0.0
131
0.0
112
0.0
122
1.0
132
0.0
 79
     0
146
0.0
  0
ENDTAB
  0
TABLE
  2
LTYPE
  5
5
330
0
100
AcDbSymbolTable
 70
     6
  0
LTYPE
  5
14
330
5
100
AcDbSymbolTableRecord
100
AcDbLinetypeTableRecord
  2
ByBlock
 70
     0
  3

 72
    65
 73
     0
 40
0.0
  0
LTYPE
  5
15
330
5
100
AcDbSymbolTableRecord
100
AcDbLinetypeTableRecord
  2
ByLayer
 70
     0
  3

 72
    65
 73
     0
 40
0.0
  0
LTYPE
  5
16
330
5
100
AcDbSymbolTableRecord
100
AcDbLinetypeTableRecord
  2
Continuous
 70
     0
  3
Solid line
 72
    65
 73
     0
 40
0.0
  0
LTYPE
  5
3B
330
5
100
AcDbSymbolTableRecord
100
AcDbLinetypeTableRecord
  2
HIDDEN
 70
     0
  3
Hidden __ __ __ __ __ __ __ __ __ __ __ __ __ __
 72
    65
 73
     2
 40
1.905
 49
1.27
 74
     0
 49
-0.635
 74
     0
  0
LTYPE
  5
3C
330
5
100
AcDbSymbolTableRecord
100
AcDbLinetypeTableRecord
  2
PHANTOM
 70
     0
  3
Phantom ______  __  __  ______  __  __  ______
 72
    65
 73
     6
 40
12.7
 49
6.35
 74
     0
 49
-1.27
 74
     0
 49
1.27
 74
     0
 49
-1.27
 74
     0
 49
1.27
 74
     0
 49
-1.27
 74
     0
  0
LTYPE
  5
3D
330
5
100
AcDbSymbolTableRecord
100
AcDbLinetypeTableRecord
  2
CENTER
 70
     0
  3
Center ____ _ ____ _ ____ _ ____ _ ____ _ ____
 72
    65
 73
     4
 40
10.16
 49
6.35
 74
     0
 49
-1.27
 74
     0
 49
1.27
 74
     0
 49
-1.27
 74
     0
  0
LTYPE
  5
3E
330
5
100
AcDbSymbolTableRecord
100
AcDbLinetypeTableRecord
  2
CENTERX2
 70
     0
  3
Center (2x) ________  __  ________  __  _____
 72
    65
 73
     4
 40
20.32
 49
12.7
 74
     0
 49
-2.54
 74
     0
 49
2.54
 74
     0
 49
-2.54
 74
     0
  0
LTYPE
  5
3F
330
5
100
AcDbSymbolTableRecord
100
AcDbLinetypeTableRecord
  2
DOT2
 70
     0
  3
Dot (.5x) ........................................
 72
    65
 73
     2
 40
0.635
 49
0.0
 74
     0
 49
-0.635
 74
     0
  0
ENDTAB
  0
TABLE
  2
LAYER
  5
2
330
0
100
AcDbSymbolTable
 70
     2
  0
LAYER
  5
10
330
2
100
AcDbSymbolTableRecord
100
AcDbLayerTableRecord
  2
0
 70
     0
 62
     7
  6
Continuous
370
    -3
390
F
  0
LAYER
  5
40
330
2
100
AcDbSymbolTableRecord
100
AcDbLayerTableRecord
  2
FORMAT
 70
     0
 62
     7
  6
Continuous
370
    -3
390
F
  0
ENDTAB
  0
TABLE
  2
STYLE
  5
3
330
0
100
AcDbSymbolTable
 70
     7
  0
STYLE
  5
11
330
3
100
AcDbSymbolTableRecord
100
AcDbTextStyleTableRecord
  2
Standard
 70
     0
 40
0.0
 41
1.0
 50
0.0
 71
     0
 42
2.5
  3
txt
  4

  0
STYLE
  5
61
330
3
100
AcDbSymbolTableRecord
100
AcDbTextStyleTableRecord
  2
SLDTEXTSTYLE0
 70
     0
 40
0.0
 41
0.75
 50
0.0
 71
     0
 42
0.2
  3
TXT
  4

  0
STYLE
  5
85
330
3
100
AcDbSymbolTableRecord
100
AcDbTextStyleTableRecord
  2
SLDTEXTSTYLE1
 70
     0
 40
0.0
 41
0.75
 50
0.0
 71
     0
 42
0.2
  3
TXT
  4
bigfont
  0
STYLE
  5
95
330
3
100
AcDbSymbolTableRecord
100
AcDbTextStyleTableRecord
  2
SLDTEXTSTYLE2
 70
     0
 40
0.0
 41
0.6944444444
 50
0.0
 71
     0
 42
0.2
  3
TXT
  4

  0
STYLE
  5
A1
330
3
100
AcDbSymbolTableRecord
100
AcDbTextStyleTableRecord
  2
SLDTEXTSTYLE3
 70
     0
 40
0.0
 41
0.6875
 50
0.0
 71
     0
 42
0.2
  3
TXT
  4

  0
STYLE
  5
AA
330
3
100
AcDbSymbolTableRecord
100
AcDbTextStyleTableRecord
  2
SLDTEXTSTYLE4
 70
     0
 40
0.0
 41
0.6982758621
 50
0.0
 71
     0
 42
0.2
  3
TXT
  4

  0
STYLE
  5
B7
330
3
100
AcDbSymbolTableRecord
100
AcDbTextStyleTableRecord
  2
SLDTEXTSTYLE5
 70
     0
 40
0.0
 41
0.7
 50
0.0
 71
     0
 42
0.2
  3
TXT
  4

  0
ENDTAB
  0
TABLE
  2
VIEW
  5
6
330
0
100
AcDbSymbolTable
 70
     0
  0
ENDTAB
  0
TABLE
  2
UCS
  5
7
330
0
100
AcDbSymbolTable
 70
     0
  0
ENDTAB
  0
TABLE
  2
APPID
  5
9
330
0
100
AcDbSymbolTable
 70
     1
  0
APPID
  5
12
330
9
100
AcDbSymbolTableRecord
100
AcDbRegAppTableRecord
  2
ACAD
 70
     0
  0
ENDTAB
  0
TABLE
  2
DIMSTYLE
  5
A
330
0
100
AcDbSymbolTable
 70
     8
100
AcDbDimStyleTable
  0
DIMSTYLE
105
27
330
A
100
AcDbSymbolTableRecord
100
AcDbDimStyleTableRecord
  2
ISO-25
 70
     0
 41
2.5
 42
0.625
 43
3.75
 44
1.25
 73
     0
 74
     0
 77
     1
 78
     8
140
2.5
141
2.5
143
0.0393700787
147
0.625
171
     3
172
     1
271
     2
272
     2
274
     3
278
    44
283
     0
284
     8
340
11
  0
DIMSTYLE
105
E0
102
{ACAD_REACTORS
330
DF
102
}
330
A
100
AcDbSymbolTableRecord
100
AcDbDimStyleTableRecord
  2
SLDDIMSTYLE0
 70
     0
 41
4.064
 44
0.0
 45
0.000000001
 78
     4
140
2.286
143
0.0393700787
147
0.5715
148
0.000000001
170
     1
173
     1
271
     1
272
     1
284
    12
340
61
  0
DIMSTYLE
105
F8
330
A
100
AcDbSymbolTableRecord
100
AcDbDimStyleTableRecord
  2
SLDDIMSTYLE1
 70
     0
 41
4.064
 44
0.0
 45
0.000000001
140
0.0
146
4.064
147
0.0
173
     1
271
     0
272
     0
340
11
  0
DIMSTYLE
105
129
102
{ACAD_REACTORS
330
128
102
}
330
A
100
AcDbSymbolTableRecord
100
AcDbDimStyleTableRecord
  2
SLDDIMSTYLE2
 70
     0
 41
4.064
 44
0.0
 78
     4
140
2.286
147
0.5715
173
     1
179
     1
272
     1
284
    12
340
61
  0
DIMSTYLE
105
135
102
{ACAD_REACTORS
330
134
330
15C
102
}
330
A
100
AcDbSymbolTableRecord
100
AcDbDimStyleTableRecord
  2
SLDDIMSTYLE3
 70
     0
 41
4.064
 44
0.0
 45
0.000000001
 78
     4
140
2.286
143
0.0393700787
147
0.5715
148
0.000000001
170
     1
173
     1
271
     1
272
     1
284
    12
340
61
  0
DIMSTYLE
105
148
102
{ACAD_REACTORS
330
147
102
}
330
A
100
AcDbSymbolTableRecord
100
AcDbDimStyleTableRecord
  2
SLDDIMSTYLE4
 70
     0
 41
4.064
 44
0.0
 45
0.000000001
 78
     4
140
2.286
143
0.0393700787
147
0.5715
148
0.000000001
170
     1
173
     1
271
     1
272
     1
284
    12
340
61
  0
DIMSTYLE
105
16F
102
{ACAD_REACTORS
330
16E
102
}
330
A
100
AcDbSymbolTableRecord
100
AcDbDimStyleTableRecord
  2
SLDDIMSTYLE5
 70
     0
 41
4.064
 44
0.0
 45
0.000000001
 78
     4
140
2.286
143
0.0393700787
147
0.5715
148
0.000000001
170
     1
173
     1
271
     1
272
     1
284
    12
340
61
  0
DIMSTYLE
105
183
102
{ACAD_REACTORS
330
182
102
}
330
A
100
AcDbSymbolTableRecord
100
AcDbDimStyleTableRecord
  2
SLDDIMSTYLE6
 70
     0
 41
4.064
 44
0.0
 45
0.000000001
 78
    12
140
2.286
143
0.0393700787
147
0.5715
148
0.000000001
170
     1
173
     1
271
     1
272
     1
284
    12
340
61
  0
ENDTAB
  0
TABLE
  2
BLOCK_RECORD
  5
1
330
0
100
AcDbSymbolTable
 70
    17
  0
BLOCK_RECORD
  5
1F
330
1
100
AcDbSymbolTableRecord
100
AcDbBlockTableRecord
  2
*Model_Space
340
22
  0
BLOCK_RECORD
  5
1B
330
1
100
AcDbSymbolTableRecord
100
AcDbBlockTableRecord
  2
*Paper_Space
340
1E
  0
BLOCK_RECORD
  5
23
330
1
100
AcDbSymbolTableRecord
100
AcDbBlockTableRecord
  2
*Paper_Space0
340
26
  0
BLOCK_RECORD
  5
5E
330
1
100
AcDbSymbolTableRecord
100
AcDbBlockTableRecord
  2
SW_NOTE_0
340
0
102
{BLKREFS
331
64
102
}
  0
BLOCK_RECORD
  5
65
330
1
100
AcDbSymbolTableRecord
100
AcDbBlockTableRecord
  2
SW_NOTE_1
340
0
102
{BLKREFS
331
8C
102
}
  0
BLOCK_RECORD
  5
A4
330
1
100
AcDbSymbolTableRecord
100
AcDbBlockTableRecord
  2
SW_NOTE_2
340
0
102
{BLKREFS
331
AE
102
}
  0
BLOCK_RECORD
  5
B4
330
1
100
AcDbSymbolTableRecord
100
AcDbBlockTableRecord
  2
SW_NOTE_3
340
0
102
{BLKREFS
331
BA
102
}
  0
BLOCK_RECORD
  5
BB
330
1
100
AcDbSymbolTableRecord
100
AcDbBlockTableRecord
  2
SW_NOTE_4
340
0
102
{BLKREFS
331
C0
102
}
  0
BLOCK_RECORD
  5
C3
330
1
100
AcDbSymbolTableRecord
100
AcDbBlockTableRecord
  2
SW_NOTE_5
340
0
102
{BLKREFS
331
C8
102
}
  0
BLOCK_RECORD
  5
C9
330
1
100
AcDbSymbolTableRecord
100
AcDbBlockTableRecord
  2
SW_NOTE_6
340
0
102
{BLKREFS
331
CE
102
}
  0
BLOCK_RECORD
  5
E1
330
1
100
AcDbSymbolTableRecord
100
AcDbBlockTableRecord
  2
*D8
340
0
  0
BLOCK_RECORD
  5
F2
330
1
100
AcDbSymbolTableRecord
100
AcDbBlockTableRecord
  2
SW_NOTE_7
340
0
102
{BLKREFS
331
F7
102
}
  0
BLOCK_RECORD
  5
12A
330
1
100
AcDbSymbolTableRecord
100
AcDbBlockTableRecord
  2
*D10
340
0
  0
BLOCK_RECORD
  5
136
330
1
100
AcDbSymbolTableRecord
100
AcDbBlockTableRecord
  2
*D11
340
0
  0
BLOCK_RECORD
  5
149
330
1
100
AcDbSymbolTableRecord
100
AcDbBlockTableRecord
  2
*D12
340
0
  0
BLOCK_RECORD
  5
15D
330
1
100
AcDbSymbolTableRecord
100
AcDbBlockTableRecord
  2
*D13
340
0
  0
BLOCK_RECORD
  5
170
330
1
100
AcDbSymbolTableRecord
100
AcDbBlockTableRecord
  2
*D14
340
0
  0
BLOCK_RECORD
  5
184
330
1
100
AcDbSymbolTableRecord
100
AcDbBlockTableRecord
  2
*D15
340
0
  0
BLOCK_RECORD
  5
196
330
1
100
AcDbSymbolTableRecord
100
AcDbBlockTableRecord
  2
SW_NOTE_8
340
0
102
{BLKREFS
331
19E
102
}
  0
ENDTAB
  0
ENDSEC
  0
SECTION
  2
BLOCKS
  0
BLOCK
  5
20
330
1F
100
AcDbEntity
  8
0
100
AcDbBlockBegin
  2
*Model_Space
 70
     0
 10
0.0
 20
0.0
 30
0.0
  3
*Model_Space
  1

  0
ENDBLK
  5
21
330
1F
100
AcDbEntity
  8
0
100
AcDbBlockEnd
  0
BLOCK
  5
1C
330
1B
100
AcDbEntity
 67
     1
  8
0
100
AcDbBlockBegin
  2
*Paper_Space
 70
     0
 10
0.0
 20
0.0
 30
0.0
  3
*Paper_Space
  1

  0
ENDBLK
  5
1D
330
1B
100
AcDbEntity
 67
     1
  8
0
100
AcDbBlockEnd
  0
BLOCK
  5
24
330
23
100
AcDbEntity
  8
0
100
AcDbBlockBegin
  2
*Paper_Space0
 70
     0
 10
0.0
 20
0.0
 30
0.0
  3
*Paper_Space0
  1

  0
ENDBLK
  5
25
330
23
100
AcDbEntity
  8
0
100
AcDbBlockEnd
  0
BLOCK
  5
5F
330
5E
100
AcDbEntity
  8
0
100
AcDbBlockBegin
  2
SW_NOTE_0
 70
     0
 10
0.0
 20
0.0
 30
0.0
  3
SW_NOTE_0
  1

  0
MTEXT
  5
62
330
5E
100
AcDbEntity
  8
0
  6
Continuous
 62
     0
370
     0
100
AcDbMText
 10
0.0
 20
2.9468088531
 30
0.0
 40
2.286
 41
0.0
 71
     1
 72
     1
  1
ISOMETRIC VIEW
  7
SLDTEXTSTYLE0
 73
     1
 44
1.0
  0
MTEXT
  5
63
330
5E
100
AcDbEntity
  8
0
  6
Continuous
 62
     0
370
     0
100
AcDbMText
 10
4.7418628819
 20
-0.3391912552
 30
0.0
 40
2.286
 41
0.0
 71
     1
 72
     1
  1
SCALE 1:1
  7
SLDTEXTSTYLE0
 73
     1
 44
1.0
  0
ENDBLK
  5
60
330
5E
100
AcDbEntity
  8
0
100
AcDbBlockEnd
  0
BLOCK
  5
66
330
65
100
AcDbEntity
  8
0
100
AcDbBlockBegin
  2
SW_NOTE_1
 70
     0
 10
0.0
 20
0.0
 30
0.0
  3
SW_NOTE_1
  1

  0
MTEXT
  5
68
330
65
100
AcDbEntity
  8
0
  6
Continuous
 62
     0
370
     0
100
AcDbMText
 10
0.0
 20
3.0695925553
 30
0.0
 40
2.38125
 41
0.0
 71
     1
 72
     1
  1
NOTES/SPECIFICATIONS:
  7
SLDTEXTSTYLE0
 73
     1
 44
1.0
  0
MTEXT
  5
69
330
65
100
AcDbEntity
  8
0
  6
Continuous
 62
     0
370
     0
100
AcDbMText
 10
9.9999997765
 20
-0.1054074063
 30
0.0
 40
2.38125
 41
0.0
 71
     1
 72
     1
  1
BODY THICKNESS: 1.5mm
  7
SLDTEXTSTYLE0
 73
     1
 44
1.0
  0
MTEXT
  5
6A
330
65
100
AcDbEntity
  8
0
  6
Continuous
 62
     0
370
     0
100
AcDbMText
 10
0.0
 20
-0.1054074063
 30
0.0
 40
2.38125
 41
0.0
 71
     1
 72
     1
  1
1.
  7
SLDTEXTSTYLE0
 73
     1
 44
1.0
  0
MTEXT
  5
6B
330
65
100
AcDbEntity
  8
0
  6
Continuous
 62
     0
370
     0
100
AcDbMText
 10
9.9999997765
 20
-3.2804073679
 30
0.0
 40
2.38125
 41
0.0
 71
     1
 72
     1
  1
DIAMETER TOLERANCE: 
  7
SLDTEXTSTYLE0
 73
     1
 44
1.0
  0
MTEXT
  5
6C
330
65
100
AcDbEntity
  8
0
  6
Continuous
 62
     0
370
     0
100
AcDbMText
 10
45.864271
 20
-3.2804073679
 30
0.0
 40
2.38125
 41
0.0
 71
     1
 72
     1
  1
%%p
  7
SLDTEXTSTYLE0
 73
     1
 44
1.0
  0
MTEXT
  5
6D
330
65
100
AcDbEntity
  8
0
  6
Continuous
 62
     0
370
     0
100
AcDbMText
 10
48.1343958527
 20
-3.2804073679
 30
0.0
 40
2.38125
 41
0.0
 71
     1
 72
     1
  1
1.6mm
  7
SLDTEXTSTYLE0
 73
     1
 44
1.0
  0
MTEXT
  5
6E
330
65
100
AcDbEntity
  8
0
  6
Continuous
 62
     0
370
     0
100
AcDbMText
 10
0.0
 20
-3.2804073679
 30
0.0
 40
2.38125
 41
0.0
 71
     1
 72
     1
  1
2.
  7
SLDTEXTSTYLE0
 73
     1
 44
1.0
  0
MTEXT
  5
6F
330
65
100
AcDbEntity
  8
0
  6
Continuous
 62
     0
370
     0
100
AcDbMText
 10
9.9999997765
 20
-6.4554073296
 30
0.0
 40
2.38125
 41
0.0
 71
     1
 72
     1
  1
DIMENSIONAL TOLERANCE: 
  7
SLDTEXTSTYLE0
 73
     1
 44
1.0
  0
MTEXT
  5
70
330
65
100
AcDbEntity
  8
0
  6
Continuous
 62
     0
370
     0
100
AcDbMText
 10
52.1128494292
 20
-6.4554073296
 30
0.0
 40
2.38125
 41
0.0
 71
     1
 72
     1
  1
%%p
  7
SLDTEXTSTYLE0
 73
     1
 44
1.0
  0
MTEXT
  5
71
330
65
100
AcDbEntity
  8
0
  6
Continuous
 62
     0
370
     0
100
AcDbMText
 10
54.3829742819
 20
-6.4554073296
 30
0.0
 40
2.38125
 41
0.0
 71
     1
 72
     1
  1
0.8mm
  7
SLDTEXTSTYLE0
 73
     1
 44
1.0
  0
MTEXT
  5
72
330
65
100
AcDbEntity
  8
0
  6
Continuous
 62
     0
370
     0
100
AcDbMText
 10
0.0
 20
-6.4554073296
 30
0.0
 40
2.38125
 41
0.0
 71
     1
 72
     1
  1
3.
  7
SLDTEXTSTYLE0
 73
     1
 44
1.0
  0
MTEXT
  5
73
330
65
100
AcDbEntity
  8
0
  6
Continuous
 62
     0
370
     0
100
AcDbMText
 10
9.9999997765
 20
-9.6304072912
 30
0.0
 40
2.38125
 41
0.0
 71
     1
 72
     1
  1
PRESSURE @ 25
  7
SLDTEXTSTYLE0
 73
     1
 44
1.0
  0
MTEXT
  5
74
330
65
100
AcDbEntity
  8
0
  6
Continuous
 62
     0
370
     0
100
AcDbMText
 10
32.4057992548
 20
-9.6304072912
 30
0.0
 40
2.38125
 41
0.0
 71
     1
 72
     1
  1
%%d
  7
SLDTEXTSTYLE0
 73
     1
 44
1.0
  0
MTEXT
  5
75
330
65
100
AcDbEntity
  8
0
  6
Continuous
 62
     0
370
     0
100
AcDbMText
 10
33.9192152023
 20
-9.6304072912
 30
0.0
 40
2.38125
 41
0.0
 71
     1
 72
     1
  1
C: > 0.1-0.2 TORR
  7
SLDTEXTSTYLE0
 73
     1
 44
1.0
  0
MTEXT
  5
76
330
65
100
AcDbEntity
  8
0
  6
Continuous
 62
     0
370
     0
100
AcDbMText
 10
0.0
 20
-9.6304072912
 30
0.0
 40
2.38125
 41
0.0
 71
     1
 72
     1
  1
4.
  7
SLDTEXTSTYLE0
 73
     1
 44
1.0
  0
MTEXT
  5
77
330
65
100
AcDbEntity
  8
0
  6
Continuous
 62
     0
370
     0
100
AcDbMText
 10
9.9999997765
 20
-12.8054072528
 30
0.0
 40
2.38125
 41
0.0
 71
     1
 72
     1
  1
STEM HEIGHT: <10mm
  7
SLDTEXTSTYLE0
 73
     1
 44
1.0
  0
MTEXT
  5
78
330
65
100
AcDbEntity
  8
0
  6
Continuous
 62
     0
370
     0
100
AcDbMText
 10
0.0
 20
-12.8054072528
 30
0.0
 40
2.38125
 41
0.0
 71
     1
 72
     1
  1
5.
  7
SLDTEXTSTYLE0
 73
     1
 44
1.0
  0
MTEXT
  5
79
330
65
100
AcDbEntity
  8
0
  6
Continuous
 62
     0
370
     0
100
AcDbMText
 10
9.9999997765
 20
-15.9804072144
 30
0.0
 40
2.38125
 41
0.0
 71
     1
 72
     1
  1
WINDOW ANGLE: 11
  7
SLDTEXTSTYLE0
 73
     1
 44
1.0
  0
MTEXT
  5
7A
330
65
100
AcDbEntity
  8
0
  6
Continuous
 62
     0
370
     0
100
AcDbMText
 10
41.0797223449
 20
-15.9804072144
 30
0.0
 40
2.38125
 41
0.0
 71
     1
 72
     1
  1
%%p
  7
SLDTEXTSTYLE0
 73
     1
 44
1.0
  0
MTEXT
  5
7B
330
65
100
AcDbEntity
  8
0
  6
Continuous
 62
     0
370
     0
100
AcDbMText
 10
43.3498490602
 20
-15.9804072144
 30
0.0
 40
2.38125
 41
0.0
 71
     1
 72
     1
  1
1
  7
SLDTEXTSTYLE0
 73
     1
 44
1.0
  0
MTEXT
  5
7C
330
65
100
AcDbEntity
  8
0
  6
Continuous
 62
     0
370
     0
100
AcDbMText
 10
45.1093260199
 20
-15.9804072144
 30
0.0
 40
2.38125
 41
0.0
 71
     1
 72
     1
  1
%%d
  7
SLDTEXTSTYLE0
 73
     1
 44
1.0
  0
MTEXT
  5
7D
330
65
100
AcDbEntity
  8
0
  6
Continuous
 62
     0
370
     0
100
AcDbMText
 10
0.0
 20
-15.9804072144
 30
0.0
 40
2.38125
 41
0.0
 71
     1
 72
     1
  1
6.
  7
SLDTEXTSTYLE0
 73
     1
 44
1.0
  0
MTEXT
  5
7E
330
65
100
AcDbEntity
  8
0
  6
Continuous
 62
     0
370
     0
100
AcDbMText
 10
9.9999997765
 20
-19.1554071761
 30
0.0
 40
2.38125
 41
0.0
 71
     1
 72
     1
  1
WINDOW TYPE: WEDGED 2
  7
SLDTEXTSTYLE0
 73
     1
 44
1.0
  0
MTEXT
  5
7F
330
65
100
AcDbEntity
  8
0
  6
Continuous
 62
     0
370
     0
100
AcDbMText
 10
50.3180902451
 20
-19.1554071761
 30
0.0
 40
2.38125
 41
0.0
 71
     1
 72
     1
  1
%%d
  7
SLDTEXTSTYLE0
 73
     1
 44
1.0
  0
MTEXT
  5
80
330
65
100
AcDbEntity
  8
0
  6
Continuous
 62
     0
370
     0
100
AcDbMText
 10
0.0
 20
-19.1554071761
 30
0.0
 40
2.38125
 41
0.0
 71
     1
 72
     1
  1
7.
  7
SLDTEXTSTYLE0
 73
     1
 44
1.0
  0
MTEXT
  5
81
330
65
100
AcDbEntity
  8
0
  6
Continuous
 62
     0
370
     0
100
AcDbMText
 10
9.9999997765
 20
-22.3304071377
 30
0.0
 40
2.38125
 41
0.0
 71
     1
 72
     1
  1
WINDOW THICKNESS: 3.0mm
  7
SLDTEXTSTYLE0
 73
     1
 44
1.0
  0
MTEXT
  5
82
330
65
100
AcDbEntity
  8
0
  6
Continuous
 62
     0
370
     0
100
AcDbMText
 10
0.0
 20
-22.3304071377
 30
0.0
 40
2.38125
 41
0.0
 71
     1
 72
     1
  1
8.
  7
SLDTEXTSTYLE0
 73
     1
 44
1.0
  0
MTEXT
  5
83
330
65
100
AcDbEntity
  8
0
  6
Continuous
 62
     0
370
     0
100
AcDbMText
 10
9.9999997765
 20
-25.5054070993
 30
0.0
 40
2.38125
 41
0.0
 71
     1
 72
     1
  1
WINDOW SURFACE QUALITY: 60-40 SCRATCH-DIG
  7
SLDTEXTSTYLE0
 73
     1
 44
1.0
  0
MTEXT
  5
84
330
65
100
AcDbEntity
  8
0
  6
Continuous
 62
     0
370
     0
100
AcDbMText
 10
0.0
 20
-25.5054070993
 30
0.0
 40
2.38125
 41
0.0
 71
     1
 72
     1
  1
9.
  7
SLDTEXTSTYLE0
 73
     1
 44
1.0
  0
MTEXT
  5
86
330
65
100
AcDbEntity
  8
0
  6
Continuous
 62
     0
370
     0
100
AcDbMText
 10
9.9999997765
 20
-28.680407061
 30
0.0
 40
2.38125
 41
0.0
 71
     1
 72
     1
  1
WINDOW FLATNESS: \M+183C9/4
  7
SLDTEXTSTYLE1
 73
     1
 44
1.0
  0
MTEXT
  5
87
330
65
100
AcDbEntity
  8
0
  6
Continuous
 62
     0
370
     0
100
AcDbMText
 10
0.0
 20
-28.680407061
 30
0.0
 40
2.38125
 41
0.0
 71
     1
 72
     1
  1
10.
  7
SLDTEXTSTYLE0
 73
     1
 44
1.0
  0
MTEXT
  5
88
330
65
100
AcDbEntity
  8
0
  6
Continuous
 62
     0
370
     0
100
AcDbMText
 10
9.9999997765
 20
-34.7370784376
 30
0.0
 40
2.286
 41
0.0
 71
     1
 72
     1
  1
ALL DIMENSIONS ARE IN 
  7
SLDTEXTSTYLE0
 73
     1
 44
1.0
  0
MTEXT
  5
89
330
65
100
AcDbEntity
  8
0
  6
Continuous
 62
     0
370
     0
100
AcDbMText
 10
45.9552884568
 20
-32.0891912208
 30
0.0
 40
2.286
 41
0.0
 71
     1
 72
     1
  1
[in]
  7
SLDTEXTSTYLE0
 73
     1
 44
1.0
  0
MTEXT
  5
8A
330
65
100
AcDbEntity
  8
0
  6
Continuous
 62
     0
370
     0
100
AcDbMText
 10
45.4012509435
 20
-36.7150413451
 30
0.0
 40
2.286
 41
0.0
 71
     1
 72
     1
  1
mm
  7
SLDTEXTSTYLE0
 73
     1
 44
1.0
  0
MTEXT
  5
8B
330
65
100
AcDbEntity
  8
0
  6
Continuous
 62
     0
370
     0
100
AcDbMText
 10
0.0
 20
-34.7370784376
 30
0.0
 40
2.286
 41
0.0
 71
     1
 72
     1
  1
11.
  7
SLDTEXTSTYLE0
 73
     1
 44
1.0
  0
ENDBLK
  5
67
330
65
100
AcDbEntity
  8
0
100
AcDbBlockEnd
  0
BLOCK
  5
A5
330
A4
100
AcDbEntity
  8
0
100
AcDbBlockBegin
  2
SW_NOTE_2
 70
     0
 10
0.0
 20
0.0
 30
0.0
  3
SW_NOTE_2
  1

  0
MTEXT
  5
A7
330
A4
100
AcDbEntity
  8
0
  6
Continuous
 62
     0
370
     0
100
AcDbMText
 10
0.0
 20
1.9645392354
 30
0.0
 40
1.524
 41
0.0
 71
     1
 72
     1
  1
THE INFORMATION CONTAINED IN THIS
  7
SLDTEXTSTYLE0
 73
     1
 44
1.0
  0
MTEXT
  5
A8
330
A4
100
AcDbEntity
  8
0
  6
Continuous
 62
     0
370
     0
100
AcDbMText
 10
0.0
 20
-0.5594606586
 30
0.0
 40
1.524
 41
0.0
 71
     1
 72
     1
  1
DRAWING IS THE SOLE PROPERTY OF
  7
SLDTEXTSTYLE0
 73
     1
 44
1.0
  0
MTEXT
  5
A9
330
A4
100
AcDbEntity
  8
0
  6
Continuous
 62
     0
370
     0
100
AcDbMText
 10
0.0
 20
-3.0834605527
 30
0.0
 40
1.524
 41
0.0
 71
     1
 72
     1
  1
THORLABS, INC.  ANY REPRODUCTION 
  7
SLDTEXTSTYLE0
 73
     1
 44
1.0
  0
MTEXT
  5
AB
330
A4
100
AcDbEntity
  8
0
  6
Continuous
 62
     0
370
     0
100
AcDbMText
 10
0.0
 20
-5.6074604467
 30
0.0
 40
1.524
 41
0.0
 71
     1
 72
     1
  1
IN PART OR AS A WHOLE WITHOUT
  7
SLDTEXTSTYLE4
 73
     1
 44
1.0
  0
MTEXT
  5
AC
330
A4
100
AcDbEntity
  8
0
  6
Continuous
 62
     0
370
     0
100
AcDbMText
 10
0.0
 20
-8.1314603407
 30
0.0
 40
1.524
 41
0.0
 71
     1
 72
     1
  1
THE WRITTEN PERMISSION OF
  7
SLDTEXTSTYLE0
 73
     1
 44
1.0
  0
MTEXT
  5
AD
330
A4
100
AcDbEntity
  8
0
  6
Continuous
 62
     0
370
     0
100
AcDbMText
 10
0.0
 20
-10.6554602348
 30
0.0
 40
1.524
 41
0.0
 71
     1
 72
     1
  1
THORLABS, INC. IS PROHIBITED.
  7
SLDTEXTSTYLE0
 73
     1
 44
1.0
  0
ENDBLK
  5
A6
330
A4
100
AcDbEntity
  8
0
100
AcDbBlockEnd
  0
BLOCK
  5
B5
330
B4
100
AcDbEntity
  8
0
100
AcDbBlockBegin
  2
SW_NOTE_3
 70
     0
 10
0.0
 20
0.0
 30
0.0
  3
SW_NOTE_3
  1

  0
MTEXT
  5
B8
330
B4
100
AcDbEntity
  8
0
  6
Continuous
 62
     0
370
     0
100
AcDbMText
 10
0.0
 20
2.9468088531
 30
0.0
 40
2.286
 41
0.0
 71
     1
 72
     1
  1
PO BOX 366
  7
SLDTEXTSTYLE5
 73
     1
 44
1.0
  0
MTEXT
  5
B9
330
B4
100
AcDbEntity
  8
0
  6
Continuous
 62
     0
370
     0
100
AcDbMText
 10
0.0
 20
-0.3391912552
 30
0.0
 40
2.286
 41
0.0
 71
     1
 72
     1
  1
NEWTON NJ
  7
SLDTEXTSTYLE0
 73
     1
 44
1.0
  0
ENDBLK
  5
B6
330
B4
100
AcDbEntity
  8
0
100
AcDbBlockEnd
  0
BLOCK
  5
BC
330
BB
100
AcDbEntity
  8
0
100
AcDbBlockBegin
  2
SW_NOTE_4
 70
     0
 10
0.0
 20
0.0
 30
0.0
  3
SW_NOTE_4
  1

  0
MTEXT
  5
BE
330
BB
100
AcDbEntity
  8
0
  6
Continuous
 62
     0
370
     0
100
AcDbMText
 10
0.0
 20
3.4106583948
 30
0.0
 40
2.6458333333
 41
0.0
 71
     1
 72
     1
  1
Ref. Cell, QUARTZ 
  7
SLDTEXTSTYLE0
 73
     1
 44
1.0
  0
MTEXT
  5
BF
330
BB
100
AcDbEntity
  8
0
  6
Continuous
 62
     0
370
     0
100
AcDbMText
 10
0.0
 20
-0.1171193403
 30
0.0
 40
2.6458333333
 41
0.0
 71
     1
 72
     1
  1
Ø19 mm x 75 mm, CESIUM [Cs]
  7
SLDTEXTSTYLE2
 73
     1
 44
1.0
  0
ENDBLK
  5
BD
330
BB
100
AcDbEntity
  8
0
100
AcDbBlockEnd
  0
BLOCK
  5
C4
330
C3
100
AcDbEntity
  8
0
100
AcDbBlockBegin
  2
SW_NOTE_5
 70
     0
 10
0.0
 20
0.0
 30
0.0
  3
SW_NOTE_5
  1

  0
MTEXT
  5
C6
330
C3
100
AcDbEntity
  8
0
  6
Continuous
 62
     0
370
     0
100
AcDbMText
 10
0.0
 20
2.1282508384
 30
0.0
 40
1.651
 41
0.0
 71
     1
 72
     1
  1
09
  7
SLDTEXTSTYLE0
 73
     1
 44
1.0
  0
MTEXT
  5
C7
330
C3
100
AcDbEntity
  8
0
  6
Continuous
 62
     0
370
     0
100
AcDbMText
 10
2.3916568607
 20
2.1282508384
 30
0.0
 40
1.651
 41
0.0
 71
     1
 72
     1
  1
/08/2010
  7
SLDTEXTSTYLE0
 73
     1
 44
1.0
  0
ENDBLK
  5
C5
330
C3
100
AcDbEntity
  8
0
100
AcDbBlockEnd
  0
BLOCK
  5
CA
330
C9
100
AcDbEntity
  8
0
100
AcDbBlockBegin
  2
SW_NOTE_6
 70
     0
 10
0.0
 20
0.0
 30
0.0
  3
SW_NOTE_6
  1

  0
MTEXT
  5
CC
330
C9
100
AcDbEntity
  8
0
  6
Continuous
 62
     0
370
     0
100
AcDbMText
 10
0.0
 20
2.1282508384
 30
0.0
 40
1.651
 41
0.0
 71
     1
 72
     1
  1
09
  7
SLDTEXTSTYLE0
 73
     1
 44
1.0
  0
MTEXT
  5
CD
330
C9
100
AcDbEntity
  8
0
  6
Continuous
 62
     0
370
     0
100
AcDbMText
 10
2.3916568607
 20
2.1282508384
 30
0.0
 40
1.651
 41
0.0
 71
     1
 72
     1
  1
/08/2010
  7
SLDTEXTSTYLE0
 73
     1
 44
1.0
  0
ENDBLK
  5
CB
330
C9
100
AcDbEntity
  8
0
100
AcDbBlockEnd
  0
BLOCK
  5
E2
330
E1
100
AcDbEntity
  8
0
100
AcDbBlockBegin
  2
*D8
 70
     1
 10
0.0
 20
0.0
 30
0.0
  3
*D8
  1

  0
ARC
  5
E4
330
E1
100
AcDbEntity
  8
0
  6
Continuous
 62
     7
370
     0
100
AcDbCircle
 10
64.9861648461
 20
127.6568764896
 30
0.0
 40
10.50000000000001
100
AcDbArc
 50
287.6798227879
 51
62.2662061412
  0
SOLID
  5
E5
330
E1
100
AcDbEntity
  8
0
  6
Continuous
 62
     7
370
     0
100
AcDbTrace
 10
72.4055467659
 20
135.08673328
 30
0.0
 11
75.7445034847
 21
137.4957978683
 31
0.0
 12
74.809898261
 22
138.429085453
 32
0.0
 13
74.809898261
 23
138.429085453
 33
0.0
  0
LINE
  5
E6
330
E1
100
AcDbEntity
  8
0
  6
Continuous
 62
     7
370
     0
100
AcDbLine
 10
91.733176475
 20
150.549268777
 30
0.0
 11
91.733176475
 21
147.4653420282
 31
0.0
  0
LINE
  5
E7
330
E1
100
AcDbEntity
  8
0
  6
Continuous
 62
     7
370
     0
100
AcDbLine
 10
91.733176475
 20
147.4653420282
 30
0.0
 11
92.1973078752
 21
147.4653420282
 31
0.0
  0
LINE
  5
E8
330
E1
100
AcDbEntity
  8
0
  6
Continuous
 62
     7
370
     0
100
AcDbLine
 10
91.733176475
 20
150.549268777
 30
0.0
 11
92.1973078752
 21
150.549268777
 31
0.0
  0
LINE
  5
E9
330
E1
100
AcDbEntity
  8
0
  6
Continuous
 62
     7
370
     0
100
AcDbLine
 10
99.4988872198
 20
150.549268777
 30
0.0
 11
99.4988872198
 21
147.4653420282
 31
0.0
  0
LINE
  5
EA
330
E1
100
AcDbEntity
  8
0
  6
Continuous
 62
     7
370
     0
100
AcDbLine
 10
99.4988872198
 20
147.4653420282
 30
0.0
 11
99.0347558196
 21
147.4653420282
 31
0.0
  0
LINE
  5
EB
330
E1
100
AcDbEntity
  8
0
  6
Continuous
 62
     7
370
     0
100
AcDbLine
 10
99.4988872198
 20
150.549268777
 30
0.0
 11
99.0347558196
 21
150.549268777
 31
0.0
  0
LINE
  5
EC
330
E1
100
AcDbEntity
  8
0
  6
Continuous
 62
     7
370
     0
100
AcDbLine
 10
72.4055467659
 20
135.08673328
 30
0.0
 11
82.6834591562
 21
145.3791562864
 31
0.0
  0
LINE
  5
ED
330
E1
100
AcDbEntity
  8
0
  6
Continuous
 62
     7
370
     0
100
AcDbLine
 10
82.6834591562
 20
145.3791562864
 30
0.0
 11
89.0334591562
 21
145.3791562864
 31
0.0
  0
MTEXT
  5
EE
330
E1
100
AcDbEntity
  8
0
  6
Continuous
 62
     7
370
     0
100
AcDbMText
 10
91.0287721731
 20
146.5118905815
 30
0.0
 40
2.286
 41
0.0
 71
     1
 72
     1
  1
%%c
  7
SLDTEXTSTYLE0
 73
     1
 44
1.0
  0
MTEXT
  5
EF
330
E1
100
AcDbEntity
  8
0
  6
Continuous
 62
     7
370
     0
100
AcDbMText
 10
94.2941063777
 20
146.5118907561
 30
0.0
 40
2.286
 41
0.0
 71
     1
 72
     1
  1
21.0
  7
SLDTEXTSTYLE0
 73
     1
 44
1.0
  0
MTEXT
  5
F0
330
E1
100
AcDbEntity
  8
0
  6
Continuous
 62
     7
370
     0
100
AcDbMText
 10
93.4403736597
 20
142.8837416399
 30
0.0
 40
2.286
 41
0.0
 71
     1
 72
     1
  1
REF
  7
SLDTEXTSTYLE0
 73
     1
 44
1.0
  0
MTEXT
  5
F1
330
E1
100
AcDbEntity
  8
0
  6
Continuous
 62
     7
370
     0
100
AcDbMText
 10
92.6614392754
 20
150.1400398723
 30
0.0
 40
2.286
 41
0.0
 71
     1
 72
     1
  1
0.83
  7
SLDTEXTSTYLE0
 73
     1
 44
1.0
  0
ENDBLK
  5
E3
330
E1
100
AcDbEntity
  8
0
100
AcDbBlockEnd
  0
BLOCK
  5
F3
330
F2
100
AcDbEntity
  8
0
100
AcDbBlockBegin
  2
SW_NOTE_7
 70
     0
 10
0.0
 20
0.0
 30
0.0
  3
SW_NOTE_7
  1

  0
MTEXT
  5
F5
330
F2
100
AcDbEntity
  8
0
  6
Continuous
 62
     0
370
     0
100
AcDbMText
 10
-32.9438570826
 20
4.2594290222
 30
0.0
 40
2.286
 41
0.0
 71
     1
 72
     1
  1
SMALL FLAT GROUND
  7
SLDTEXTSTYLE0
 73
     1
 44
1.0
  0
MTEXT
  5
F6
330
F2
100
AcDbEntity
  8
0
  6
Continuous
 62
     0
370
     0
100
AcDbMText
 10
-32.9438570826
 20
0.9734289138
 30
0.0
 40
2.286
 41
0.0
 71
     1
 72
     1
  1
ONTO WINDOW EDGE
  7
SLDTEXTSTYLE0
 73
     1
 44
1.0
  0
ENDBLK
  5
F4
330
F2
100
AcDbEntity
  8
0
100
AcDbBlockEnd
  0
BLOCK
  5
12B
330
12A
100
AcDbEntity
  8
0
100
AcDbBlockBegin
  2
*D10
 70
     1
 10
0.0
 20
0.0
 30
0.0
  3
*D10
  1

  0
ARC
  5
12D
330
12A
100
AcDbEntity
  8
0
  6
Continuous
 62
     7
370
     0
100
AcDbCircle
 10
208.9771199037
 20
118.1568764896
 30
0.0
 40
25.45220616833299
100
AcDbArc
 50
250.2986045047
 51
270.0
  0
ARC
  5
12E
330
12A
100
AcDbEntity
  8
0
  6
Continuous
 62
     7
370
     0
100
AcDbCircle
 10
208.9771199037
 20
118.1568764896
 30
0.0
 40
25.45220616833299
100
AcDbArc
 50
281.0
 51
300.0746493592
  0
SOLID
  5
12F
330
12A
100
AcDbEntity
  8
0
  6
Continuous
 62
     7
370
     0
100
AcDbTrace
 10
208.9771199037
 20
92.7046703212
 30
0.0
 11
204.9780765449
 21
93.6844031292
 31
0.0
 12
204.8736211354
 22
92.3677400335
 32
0.0
 13
204.8736211354
 23
92.3677400335
 33
0.0
  0
SOLID
  5
130
330
12A
100
AcDbEntity
  8
0
  6
Continuous
 62
     7
370
     0
100
AcDbTrace
 10
213.8336297928
 20
93.172299036
 30
0.0
 11
217.9260250607
 21
93.6245435842
 31
0.0
 12
217.5722576287
 22
94.8970848386
 32
0.0
 13
217.5722576287
 23
94.8970848386
 33
0.0
  0
LINE
  5
131
330
12A
100
AcDbEntity
  8
0
  6
Continuous
 62
     7
370
     0
100
AcDbLine
 10
208.9771199037
 20
108.1255219459
 30
0.0
 11
208.9771199037
 21
89.5296703212
 31
0.0
  0
LINE
  5
132
330
12A
100
AcDbEntity
  8
0
  6
Continuous
 62
     7
370
     0
100
AcDbLine
 10
211.2192234337
 20
106.6222537698
 30
0.0
 11
214.4394483531
 21
90.0556327286
 31
0.0
  0
MTEXT
  5
133
330
12A
100
AcDbEntity
  8
0
  6
Continuous
 62
     7
370
     0
100
AcDbMText
 10
220.8821883522
 20
99.078027645
 30
0.0
 40
2.286
 41
0.0
 71
     1
 72
     1
  1
11.0°
  7
SLDTEXTSTYLE0
 73
     1
 44
1.0
  0
ENDBLK
  5
12C
330
12A
100
AcDbEntity
  8
0
100
AcDbBlockEnd
  0
BLOCK
  5
137
330
136
100
AcDbEntity
  8
0
100
AcDbBlockBegin
  2
*D11
 70
     1
 10
0.0
 20
0.0
 30
0.0
  3
*D11
  1

  0
SOLID
  5
139
330
136
100
AcDbEntity
  8
0
  6
Continuous
 62
     7
370
     0
100
AcDbTrace
 10
133.9771199037
 20
100.0638968545
 30
0.0
 11
138.0411199037
 21
99.4034968545
 31
0.0
 12
138.0411199037
 22
100.7242968545
 32
0.0
 13
138.0411199037
 23
100.7242968545
 33
0.0
  0
SOLID
  5
13A
330
136
100
AcDbEntity
  8
0
  6
Continuous
 62
     7
370
     0
100
AcDbTrace
 10
208.9771199037
 20
100.0638968545
 30
0.0
 11
204.9131199037
 21
100.7242968545
 31
0.0
 12
204.9131199037
 22
99.4034968545
 32
0.0
 13
204.9131199037
 23
99.4034968545
 33
0.0
  0
LINE
  5
13B
330
136
100
AcDbEntity
  8
0
  6
Continuous
 62
     7
370
     0
100
AcDbLine
 10
167.5942645313
 20
103.4199347869
 30
0.0
 11
167.5942645313
 21
100.3360080382
 31
0.0
  0
LINE
  5
13C
330
136
100
AcDbEntity
  8
0
  6
Continuous
 62
     7
370
     0
100
AcDbLine
 10
167.5942645313
 20
100.3360080382
 30
0.0
 11
168.0583959315
 21
100.3360080382
 31
0.0
  0
LINE
  5
13D
330
136
100
AcDbEntity
  8
0
  6
Continuous
 62
     7
370
     0
100
AcDbLine
 10
167.5942645313
 20
103.4199347869
 30
0.0
 11
168.0583959315
 21
103.4199347869
 31
0.0
  0
LINE
  5
13E
330
136
100
AcDbEntity
  8
0
  6
Continuous
 62
     7
370
     0
100
AcDbLine
 10
175.3599752761
 20
103.4199347869
 30
0.0
 11
175.3599752761
 21
100.3360080382
 31
0.0
  0
LINE
  5
13F
330
136
100
AcDbEntity
  8
0
  6
Continuous
 62
     7
370
     0
100
AcDbLine
 10
175.3599752761
 20
100.3360080382
 30
0.0
 11
174.8958438759
 21
100.3360080382
 31
0.0
  0
LINE
  5
140
330
136
100
AcDbEntity
  8
0
  6
Continuous
 62
     7
370
     0
100
AcDbLine
 10
175.3599752761
 20
103.4199347869
 30
0.0
 11
174.8958438759
 21
103.4199347869
 31
0.0
  0
LINE
  5
141
330
136
100
AcDbEntity
  8
0
  6
Continuous
 62
     7
370
     0
100
AcDbLine
 10
133.9771199037
 20
116.8868764896
 30
0.0
 11
133.9771199037
 21
96.8888968545
 31
0.0
  0
LINE
  5
142
330
136
100
AcDbEntity
  8
0
  6
Continuous
 62
     7
370
     0
100
AcDbLine
 10
208.9771199037
 20
116.8868764896
 30
0.0
 11
208.9771199037
 21
96.8888968545
 31
0.0
  0
LINE
  5
143
330
136
100
AcDbEntity
  8
0
  6
Continuous
 62
     7
370
     0
100
AcDbLine
 10
133.9771199037
 20
100.0638968545
 30
0.0
 11
164.6150778481
 21
100.0638968545
 31
0.0
  0
LINE
  5
144
330
136
100
AcDbEntity
  8
0
  6
Continuous
 62
     7
370
     0
100
AcDbLine
 10
208.9771199037
 20
100.0638968545
 30
0.0
 11
178.3391619593
 21
100.0638968545
 31
0.0
  0
MTEXT
  5
145
330
136
100
AcDbEntity
  8
0
  6
Continuous
 62
     7
370
     0
100
AcDbMText
 10
168.5225273317
 20
99.382556766
 30
0.0
 40
2.286
 41
0.0
 71
     1
 72
     1
  1
75.0
  7
SLDTEXTSTYLE0
 73
     1
 44
1.0
  0
MTEXT
  5
146
330
136
100
AcDbEntity
  8
0
  6
Continuous
 62
     7
370
     0
100
AcDbMText
 10
168.5225273317
 20
103.0107058822
 30
0.0
 40
2.286
 41
0.0
 71
     1
 72
     1
  1
2.95
  7
SLDTEXTSTYLE0
 73
     1
 44
1.0
  0
ENDBLK
  5
138
330
136
100
AcDbEntity
  8
0
100
AcDbBlockEnd
  0
BLOCK
  5
14A
330
149
100
AcDbEntity
  8
0
100
AcDbBlockBegin
  2
*D12
 70
     1
 10
0.0
 20
0.0
 30
0.0
  3
*D12
  1

  0
SOLID
  5
14C
330
149
100
AcDbEntity
  8
0
  6
Continuous
 62
     7
370
     0
100
AcDbTrace
 10
152.7990346057
 20
137.1568764896
 30
0.0
 11
152.1386346057
 21
133.0928764896
 31
0.0
 12
153.4594346057
 22
133.0928764896
 32
0.0
 13
153.4594346057
 23
133.0928764896
 33
0.0
  0
SOLID
  5
14D
330
149
100
AcDbEntity
  8
0
  6
Continuous
 62
     7
370
     0
100
AcDbTrace
 10
152.7990346057
 20
147.1568764896
 30
0.0
 11
153.4594346057
 21
151.2208764896
 31
0.0
 12
152.1386346057
 22
151.2208764896
 32
0.0
 13
152.1386346057
 23
151.2208764896
 33
0.0
  0
LINE
  5
14E
330
149
100
AcDbEntity
  8
0
  6
Continuous
 62
     7
370
     0
100
AcDbLine
 10
144.6173036424
 20
145.512914422
 30
0.0
 11
144.6173036424
 21
142.4289876733
 31
0.0
  0
LINE
  5
14F
330
149
100
AcDbEntity
  8
0
  6
Continuous
 62
     7
370
     0
100
AcDbLine
 10
144.6173036424
 20
142.4289876733
 30
0.0
 11
145.0814350426
 21
142.4289876733
 31
0.0
  0
LINE
  5
150
330
149
100
AcDbEntity
  8
0
  6
Continuous
 62
     7
370
     0
100
AcDbLine
 10
144.6173036424
 20
145.512914422
 30
0.0
 11
145.0814350426
 21
145.512914422
 31
0.0
  0
LINE
  5
151
330
149
100
AcDbEntity
  8
0
  6
Continuous
 62
     7
370
     0
100
AcDbLine
 10
160.1374048539
 20
145.512914422
 30
0.0
 11
160.1374048539
 21
142.4289876733
 31
0.0
  0
LINE
  5
152
330
149
100
AcDbEntity
  8
0
  6
Continuous
 62
     7
370
     0
100
AcDbLine
 10
160.1374048539
 20
142.4289876733
 30
0.0
 11
159.6732734538
 21
142.4289876733
 31
0.0
  0
LINE
  5
153
330
149
100
AcDbEntity
  8
0
  6
Continuous
 62
     7
370
     0
100
AcDbLine
 10
160.1374048539
 20
145.512914422
 30
0.0
 11
159.6732734538
 21
145.512914422
 31
0.0
  0
LINE
  5
154
330
149
100
AcDbEntity
  8
0
  6
Continuous
 62
     7
370
     0
100
AcDbLine
 10
170.2071199037
 20
147.1568764896
 30
0.0
 11
149.6240346057
 21
147.1568764896
 31
0.0
  0
LINE
  5
155
330
149
100
AcDbEntity
  8
0
  6
Continuous
 62
     7
370
     0
100
AcDbLine
 10
152.7990346057
 20
137.1568764896
 30
0.0
 11
152.7990346057
 21
128.2668764896
 31
0.0
  0
LINE
  5
156
330
149
100
AcDbEntity
  8
0
  6
Continuous
 62
     7
370
     0
100
AcDbLine
 10
152.7990346057
 20
147.1568764896
 30
0.0
 11
152.7990346057
 21
156.0468764896
 31
0.0
  0
MTEXT
  5
157
330
149
100
AcDbEntity
  8
0
  6
Continuous
 62
     7
370
     0
100
AcDbMText
 10
145.5455664428
 20
141.4755364011
 30
0.0
 40
2.286
 41
0.0
 71
     1
 72
     1
  1
10.0
  7
SLDTEXTSTYLE0
 73
     1
 44
1.0
  0
MTEXT
  5
158
330
149
100
AcDbEntity
  8
0
  6
Continuous
 62
     7
370
     0
100
AcDbMText
 10
152.2981123018
 20
141.4755364011
 30
0.0
 40
2.286
 41
0.0
 71
     1
 72
     1
  1
MAX
  7
SLDTEXTSTYLE0
 73
     1
 44
1.0
  0
MTEXT
  5
159
330
149
100
AcDbEntity
  8
0
  6
Continuous
 62
     7
370
     0
100
AcDbMText
 10
161.0656676543
 20
141.4755364011
 30
0.0
 40
2.286
 41
0.0
 71
     1
 72
     1
  1
 
  7
SLDTEXTSTYLE0
 73
     1
 44
1.0
  0
MTEXT
  5
15A
330
149
100
AcDbEntity
  8
0
  6
Continuous
 62
     7
370
     0
100
AcDbMText
 10
145.5455664428
 20
145.1036855173
 30
0.0
 40
2.286
 41
0.0
 71
     1
 72
     1
  1
0.39
  7
SLDTEXTSTYLE0
 73
     1
 44
1.0
  0
MTEXT
  5
15B
330
149
100
AcDbEntity
  8
0
  6
Continuous
 62
     7
370
     0
100
AcDbMText
 10
152.2981123018
 20
145.1036855173
 30
0.0
 40
2.286
 41
0.0
 71
     1
 72
     1
  1
MAX
  7
SLDTEXTSTYLE0
 73
     1
 44
1.0
  0
ENDBLK
  5
14B
330
149
100
AcDbEntity
  8
0
100
AcDbBlockEnd
  0
BLOCK
  5
15E
330
15D
100
AcDbEntity
  8
0
100
AcDbBlockBegin
  2
*D13
 70
     1
 10
0.0
 20
0.0
 30
0.0
  3
*D13
  1

  0
SOLID
  5
160
330
15D
100
AcDbEntity
  8
0
  6
Continuous
 62
     7
370
     0
100
AcDbTrace
 10
234.8498834591
 20
137.1568764896
 30
0.0
 11
234.1894834591
 21
133.0928764896
 31
0.0
 12
235.5102834591
 22
133.0928764896
 32
0.0
 13
235.5102834591
 23
133.0928764896
 33
0.0
  0
SOLID
  5
161
330
15D
100
AcDbEntity
  8
0
  6
Continuous
 62
     7
370
     0
100
AcDbTrace
 10
234.8498834591
 20
118.1568764896
 30
0.0
 11
235.5102834591
 21
122.2208764896
 31
0.0
 12
234.1894834591
 22
122.2208764896
 32
0.0
 13
234.1894834591
 23
122.2208764896
 33
0.0
  0
LINE
  5
162
330
15D
100
AcDbEntity
  8
0
  6
Continuous
 62
     7
370
     0
100
AcDbLine
 10
230.9670280867
 20
131.012914422
 30
0.0
 11
230.9670280867
 21
127.9289876733
 31
0.0
  0
LINE
  5
163
330
15D
100
AcDbEntity
  8
0
  6
Continuous
 62
     7
370
     0
100
AcDbLine
 10
230.9670280867
 20
127.9289876733
 30
0.0
 11
231.4311594869
 21
127.9289876733
 31
0.0
  0
LINE
  5
164
330
15D
100
AcDbEntity
  8
0
  6
Continuous
 62
     7
370
     0
100
AcDbLine
 10
230.9670280867
 20
131.012914422
 30
0.0
 11
231.4311594869
 21
131.012914422
 31
0.0
  0
LINE
  5
165
330
15D
100
AcDbEntity
  8
0
  6
Continuous
 62
     7
370
     0
100
AcDbLine
 10
238.7327388315
 20
131.012914422
 30
0.0
 11
238.7327388315
 21
127.9289876733
 31
0.0
  0
LINE
  5
166
330
15D
100
AcDbEntity
  8
0
  6
Continuous
 62
     7
370
     0
100
AcDbLine
 10
238.7327388315
 20
127.9289876733
 30
0.0
 11
238.2686074313
 21
127.9289876733
 31
0.0
  0
LINE
  5
167
330
15D
100
AcDbEntity
  8
0
  6
Continuous
 62
     7
370
     0
100
AcDbLine
 10
238.7327388315
 20
131.012914422
 30
0.0
 11
238.2686074313
 21
131.012914422
 31
0.0
  0
LINE
  5
168
330
15D
100
AcDbEntity
  8
0
  6
Continuous
 62
     7
370
     0
100
AcDbLine
 10
206.5538940301
 20
137.1568764896
 30
0.0
 11
238.0248834591
 21
137.1568764896
 31
0.0
  0
LINE
  5
169
330
15D
100
AcDbEntity
  8
0
  6
Continuous
 62
     7
370
     0
100
AcDbLine
 10
210.2471199037
 20
118.1568764896
 30
0.0
 11
238.0248834591
 21
118.1568764896
 31
0.0
  0
LINE
  5
16A
330
15D
100
AcDbEntity
  8
0
  6
Continuous
 62
     7
370
     0
100
AcDbLine
 10
234.8498834591
 20
137.1568764896
 30
0.0
 11
234.8498834591
 21
131.2850256057
 31
0.0
  0
LINE
  5
16B
330
15D
100
AcDbEntity
  8
0
  6
Continuous
 62
     7
370
     0
100
AcDbLine
 10
234.8498834591
 20
118.1568764896
 30
0.0
 11
234.8498834591
 21
124.0287273734
 31
0.0
  0
MTEXT
  5
16C
330
15D
100
AcDbEntity
  8
0
  6
Continuous
 62
     7
370
     0
100
AcDbMText
 10
231.8952908871
 20
126.9755364011
 30
0.0
 40
2.286
 41
0.0
 71
     1
 72
     1
  1
19.0
  7
SLDTEXTSTYLE0
 73
     1
 44
1.0
  0
MTEXT
  5
16D
330
15D
100
AcDbEntity
  8
0
  6
Continuous
 62
     7
370
     0
100
AcDbMText
 10
231.8952908871
 20
130.6036855173
 30
0.0
 40
2.286
 41
0.0
 71
     1
 72
     1
  1
0.75
  7
SLDTEXTSTYLE0
 73
     1
 44
1.0
  0
ENDBLK
  5
15F
330
15D
100
AcDbEntity
  8
0
100
AcDbBlockEnd
  0
BLOCK
  5
171
330
170
100
AcDbEntity
  8
0
100
AcDbBlockBegin
  2
*D14
 70
     1
 10
0.0
 20
0.0
 30
0.0
  3
*D14
  1

  0
SOLID
  5
173
330
170
100
AcDbEntity
  8
0
  6
Continuous
 62
     7
370
     0
100
AcDbTrace
 10
168.4771199037
 20
155.439338965
 30
0.0
 11
164.4131199037
 21
156.099738965
 31
0.0
 12
164.4131199037
 22
154.778938965
 32
0.0
 13
164.4131199037
 23
154.778938965
 33
0.0
  0
SOLID
  5
174
330
170
100
AcDbEntity
  8
0
  6
Continuous
 62
     7
370
     0
100
AcDbTrace
 10
174.4771199037
 20
155.439338965
 30
0.0
 11
178.5411199037
 21
154.778938965
 31
0.0
 12
178.5411199037
 22
156.099738965
 32
0.0
 13
178.5411199037
 23
156.099738965
 33
0.0
  0
LINE
  5
175
330
170
100
AcDbEntity
  8
0
  6
Continuous
 62
     7
370
     0
100
AcDbLine
 10
187.5096125337
 20
158.7953768975
 30
0.0
 11
187.5096125337
 21
155.7114501487
 31
0.0
  0
LINE
  5
176
330
170
100
AcDbEntity
  8
0
  6
Continuous
 62
     7
370
     0
100
AcDbLine
 10
187.5096125337
 20
155.7114501487
 30
0.0
 11
187.9737439339
 21
155.7114501487
 31
0.0
  0
LINE
  5
177
330
170
100
AcDbEntity
  8
0
  6
Continuous
 62
     7
370
     0
100
AcDbLine
 10
187.5096125337
 20
158.7953768975
 30
0.0
 11
187.9737439339
 21
158.7953768975
 31
0.0
  0
LINE
  5
178
330
170
100
AcDbEntity
  8
0
  6
Continuous
 62
     7
370
     0
100
AcDbLine
 10
195.2753232785
 20
158.7953768975
 30
0.0
 11
195.2753232785
 21
155.7114501487
 31
0.0
  0
LINE
  5
179
330
170
100
AcDbEntity
  8
0
  6
Continuous
 62
     7
370
     0
100
AcDbLine
 10
195.2753232785
 20
155.7114501487
 30
0.0
 11
194.8111918783
 21
155.7114501487
 31
0.0
  0
LINE
  5
17A
330
170
100
AcDbEntity
  8
0
  6
Continuous
 62
     7
370
     0
100
AcDbLine
 10
195.2753232785
 20
158.7953768975
 30
0.0
 11
194.8111918783
 21
158.7953768975
 31
0.0
  0
LINE
  5
17B
330
170
100
AcDbEntity
  8
0
  6
Continuous
 62
     7
370
     0
100
AcDbLine
 10
168.4771199037
 20
144.8311831936
 30
0.0
 11
168.4771199037
 21
158.614338965
 31
0.0
  0
LINE
  5
17C
330
170
100
AcDbEntity
  8
0
  6
Continuous
 62
     7
370
     0
100
AcDbLine
 10
174.4771199037
 20
144.8311831936
 30
0.0
 11
174.4771199037
 21
158.614338965
 31
0.0
  0
LINE
  5
17D
330
170
100
AcDbEntity
  8
0
  6
Continuous
 62
     7
370
     0
100
AcDbLine
 10
168.4771199037
 20
155.439338965
 30
0.0
 11
159.5871199037
 21
155.439338965
 31
0.0
  0
LINE
  5
17E
330
170
100
AcDbEntity
  8
0
  6
Continuous
 62
     7
370
     0
100
AcDbLine
 10
174.4771199037
 20
155.439338965
 30
0.0
 11
184.5304258505
 21
155.439338965
 31
0.0
  0
MTEXT
  5
17F
330
170
100
AcDbEntity
  8
0
  6
Continuous
 62
     7
370
     0
100
AcDbMText
 10
189.2812360491
 20
154.7579988766
 30
0.0
 40
2.286
 41
0.0
 71
     1
 72
     1
  1
6.0
  7
SLDTEXTSTYLE0
 73
     1
 44
1.0
  0
MTEXT
  5
180
330
170
100
AcDbEntity
  8
0
  6
Continuous
 62
     7
370
     0
100
AcDbMText
 10
196.2035860789
 20
154.7579988766
 30
0.0
 40
2.286
 41
0.0
 71
     1
 72
     1
  1
 TYP
  7
SLDTEXTSTYLE0
 73
     1
 44
1.0
  0
MTEXT
  5
181
330
170
100
AcDbEntity
  8
0
  6
Continuous
 62
     7
370
     0
100
AcDbMText
 10
188.4378753341
 20
158.3861479928
 30
0.0
 40
2.286
 41
0.0
 71
     1
 72
     1
  1
0.24
  7
SLDTEXTSTYLE0
 73
     1
 44
1.0
  0
ENDBLK
  5
172
330
170
100
AcDbEntity
  8
0
100
AcDbBlockEnd
  0
BLOCK
  5
185
330
184
100
AcDbEntity
  8
0
100
AcDbBlockBegin
  2
*D15
 70
     1
 10
0.0
 20
0.0
 30
0.0
  3
*D15
  1

  0
SOLID
  5
187
330
184
100
AcDbEntity
  8
0
  6
Continuous
 62
     7
370
     0
100
AcDbTrace
 10
218.9684164162
 20
118.9068764896
 30
0.0
 11
219.6288164162
 21
122.9708764896
 31
0.0
 12
218.3080164162
 22
122.9708764896
 32
0.0
 13
218.3080164162
 23
122.9708764896
 33
0.0
  0
SOLID
  5
188
330
184
100
AcDbEntity
  8
0
  6
Continuous
 62
     7
370
     0
100
AcDbTrace
 10
218.9684164162
 20
136.4068764896
 30
0.0
 11
218.3080164162
 21
132.3428764896
 31
0.0
 12
219.6288164162
 22
132.3428764896
 32
0.0
 13
219.6288164162
 23
132.3428764896
 33
0.0
  0
LINE
  5
189
330
184
100
AcDbEntity
  8
0
  6
Continuous
 62
     7
370
     0
100
AcDbLine
 10
215.0855610438
 20
131.012914422
 30
0.0
 11
215.0855610438
 21
127.9289876733
 31
0.0
  0
LINE
  5
18A
330
184
100
AcDbEntity
  8
0
  6
Continuous
 62
     7
370
     0
100
AcDbLine
 10
215.0855610438
 20
127.9289876733
 30
0.0
 11
215.549692444
 21
127.9289876733
 31
0.0
  0
LINE
  5
18B
330
184
100
AcDbEntity
  8
0
  6
Continuous
 62
     7
370
     0
100
AcDbLine
 10
215.0855610438
 20
131.012914422
 30
0.0
 11
215.549692444
 21
131.012914422
 31
0.0
  0
LINE
  5
18C
330
184
100
AcDbEntity
  8
0
  6
Continuous
 62
     7
370
     0
100
AcDbLine
 10
222.8512717886
 20
131.012914422
 30
0.0
 11
222.8512717886
 21
127.9289876733
 31
0.0
  0
LINE
  5
18D
330
184
100
AcDbEntity
  8
0
  6
Continuous
 62
     7
370
     0
100
AcDbLine
 10
222.8512717886
 20
127.9289876733
 30
0.0
 11
222.3871403884
 21
127.9289876733
 31
0.0
  0
LINE
  5
18E
330
184
100
AcDbEntity
  8
0
  6
Continuous
 62
     7
370
     0
100
AcDbLine
 10
222.8512717886
 20
131.012914422
 30
0.0
 11
222.3871403884
 21
131.012914422
 31
0.0
  0
LINE
  5
18F
330
184
100
AcDbEntity
  8
0
  6
Continuous
 62
     7
370
     0
100
AcDbLine
 10
210.1013346718
 20
118.9068764896
 30
0.0
 11
222.1434164162
 21
118.9068764896
 31
0.0
  0
LINE
  5
190
330
184
100
AcDbEntity
  8
0
  6
Continuous
 62
     7
370
     0
100
AcDbLine
 10
206.6996792619
 20
136.4068764896
 30
0.0
 11
222.1434164162
 21
136.4068764896
 31
0.0
  0
LINE
  5
191
330
184
100
AcDbEntity
  8
0
  6
Continuous
 62
     7
370
     0
100
AcDbLine
 10
218.9684164162
 20
118.9068764896
 30
0.0
 11
218.9684164162
 21
124.0287273734
 31
0.0
  0
LINE
  5
192
330
184
100
AcDbEntity
  8
0
  6
Continuous
 62
     7
370
     0
100
AcDbLine
 10
218.9684164162
 20
136.4068764896
 30
0.0
 11
218.9684164162
 21
131.2850256057
 31
0.0
  0
MTEXT
  5
193
330
184
100
AcDbEntity
  8
0
  6
Continuous
 62
     7
370
     0
100
AcDbMText
 10
216.0138238442
 20
126.9755364011
 30
0.0
 40
2.286
 41
0.0
 71
     1
 72
     1
  1
17.5
  7
SLDTEXTSTYLE0
 73
     1
 44
1.0
  0
MTEXT
  5
194
330
184
100
AcDbEntity
  8
0
  6
Continuous
 62
     7
370
     0
100
AcDbMText
 10
216.0138238442
 20
130.6036855173
 30
0.0
 40
2.286
 41
0.0
 71
     1
 72
     1
  1
0.69
  7
SLDTEXTSTYLE0
 73
     1
 44
1.0
  0
ENDBLK
  5
186
330
184
100
AcDbEntity
  8
0
100
AcDbBlockEnd
  0
BLOCK
  5
197
330
196
100
AcDbEntity
  8
0
100
AcDbBlockBegin
  2
SW_NOTE_8
 70
     0
 10
0.0
 20
0.0
 30
0.0
  3
SW_NOTE_8
  1

  0
MTEXT
  5
199
330
196
100
AcDbEntity
  8
0
  6
Continuous
 62
     0
370
     0
100
AcDbMText
 10
-16.7949365877
 20
7.5441396076
 30
0.0
 40
2.286
 41
0.0
 71
     1
 72
     1
  1
2
  7
SLDTEXTSTYLE0
 73
     1
 44
1.0
  0
MTEXT
  5
19A
330
196
100
AcDbEntity
  8
0
  6
Continuous
 62
     0
370
     0
100
AcDbMText
 10
-15.1058365317
 20
7.5441396076
 30
0.0
 40
2.286
 41
0.0
 71
     1
 72
     1
  1
%%d
  7
SLDTEXTSTYLE0
 73
     1
 44
1.0
  0
MTEXT
  5
19B
330
196
100
AcDbEntity
  8
0
  6
Continuous
 62
     0
370
     0
100
AcDbMText
 10
-13.6542265262
 20
7.5441396076
 30
0.0
 40
2.286
 41
0.0
 71
     1
 72
     1
  1
 WEDGE
  7
SLDTEXTSTYLE0
 73
     1
 44
1.0
  0
MTEXT
  5
19C
330
196
100
AcDbEntity
  8
0
  6
Continuous
 62
     0
370
     0
100
AcDbMText
 10
-16.7949365877
 20
4.2581394992
 30
0.0
 40
2.286
 41
0.0
 71
     1
 72
     1
  1
WINDOW
  7
SLDTEXTSTYLE0
 73
     1
 44
1.0
  0
MTEXT
  5
19D
330
196
100
AcDbEntity
  8
0
  6
Continuous
 62
     0
370
     0
100
AcDbMText
 10
-16.7949365877
 20
0.9721393909
 30
0.0
 40
2.286
 41
0.0
 71
     1
 72
     1
  1
BOTH ENDS
  7
SLDTEXTSTYLE0
 73
     1
 44
1.0
  0
ENDBLK
  5
198
330
196
100
AcDbEntity
  8
0
100
AcDbBlockEnd
  0
ENDSEC
  0
SECTION
  2
ENTITIES
  0
LINE
  5
41
330
1F
100
AcDbEntity
  8
0
  6
Continuous
 62
     7
370
     0
100
AcDbLine
 10
8.3801458
 20
208.0786585366
 30
0.0
 11
270.0001458
 21
208.0786585366
 31
0.0
  0
LINE
  5
42
330
1F
100
AcDbEntity
  8
0
  6
Continuous
 62
     7
370
     0
100
AcDbLine
 10
8.3801458
 20
208.0786585366
 30
0.0
 11
8.3801458
 21
9.9586585366
 31
0.0
  0
LINE
  5
43
330
1F
100
AcDbEntity
  8
0
  6
Continuous
 62
     7
370
     0
100
AcDbLine
 10
270.0001458
 20
9.9586585366
 30
0.0
 11
8.3801458
 21
9.9586585366
 31
0.0
  0
LINE
  5
44
330
1F
100
AcDbEntity
  8
0
  6
Continuous
 62
     7
370
     0
100
AcDbLine
 10
270.0001458
 20
9.9586585366
 30
0.0
 11
270.0001458
 21
208.0786585366
 31
0.0
  0
LINE
  5
45
330
1F
100
AcDbEntity
  8
0
  6
Continuous
 62
     7
370
     0
100
AcDbLine
 10
200.2334576007
 20
30.5058740206
 30
0.0
 11
161.2692165563
 21
30.5058740206
 31
0.0
  0
LINE
  5
46
330
1F
100
AcDbEntity
  8
0
  6
Continuous
 62
     7
370
     0
100
AcDbLine
 10
161.2692165563
 20
9.9586585366
 30
0.0
 11
161.2692165563
 21
43.1508823427
 31
0.0
  0
LINE
  5
47
330
1F
100
AcDbEntity
  8
0
  6
Continuous
 62
     7
370
     0
100
AcDbLine
 10
200.2334576007
 20
32.2622398452
 30
0.0
 11
270.0001458
 21
32.2622398452
 31
0.0
  0
LINE
  5
48
330
1F
100
AcDbEntity
  8
0
  6
Continuous
 62
     7
370
     0
100
AcDbLine
 10
200.2334576007
 20
49.3719356552
 30
0.0
 11
200.2334576007
 21
9.9586585366
 31
0.0
  0
LINE
  5
49
330
1F
100
AcDbEntity
  8
0
  6
Continuous
 62
     7
370
     0
100
AcDbLine
 10
200.2334576007
 20
33.6128247466
 30
0.0
 11
161.2692165563
 21
33.6128247466
 31
0.0
  0
LINE
  5
4A
330
1F
100
AcDbEntity
  8
0
  6
Continuous
 62
     7
370
     0
100
AcDbLine
 10
200.2334576007
 20
43.1508823427
 30
0.0
 11
161.2692165563
 21
43.1508823427
 31
0.0
  0
LINE
  5
4B
330
1F
100
AcDbEntity
  8
0
  6
Continuous
 62
     7
370
     0
100
AcDbLine
 10
200.2334576007
 20
20.0415123109
 30
0.0
 11
270.0001458
 21
20.0415123109
 31
0.0
  0
LINE
  5
4C
330
1F
100
AcDbEntity
  8
0
  6
Continuous
 62
     7
370
     0
100
AcDbLine
 10
200.2334576007
 20
36.7197754725
 30
0.0
 11
161.2692165563
 21
36.7197754725
 31
0.0
  0
LINE
  5
4D
330
1F
100
AcDbEntity
  8
0
  6
Continuous
 62
     7
370
     0
100
AcDbLine
 10
200.2334576007
 20
39.8267261984
 30
0.0
 11
161.2692165563
 21
39.8267261984
 31
0.0
  0
LINE
  5
4E
330
1F
100
AcDbEntity
  8
0
  6
Continuous
 62
     7
370
     0
100
AcDbLine
 10
176.0072388015
 20
43.1508823427
 30
0.0
 11
176.0072388015
 21
30.5058740206
 31
0.0
  0
LINE
  5
4F
330
1F
100
AcDbEntity
  8
0
  6
Continuous
 62
     7
370
     0
100
AcDbLine
 10
185.3931667464
 20
43.1508823427
 30
0.0
 11
185.3931667464
 21
30.5058740206
 31
0.0
  0
LINE
  5
50
330
1F
100
AcDbEntity
  8
0
  6
Continuous
 62
     7
370
     0
100
AcDbLine
 10
226.0614310815
 20
20.0415123109
 30
0.0
 11
226.0614310815
 21
9.9586585366
 31
0.0
  0
LINE
  5
51
330
1F
100
AcDbEntity
  8
0
  6
Continuous
 62
     7
370
     0
100
AcDbLine
 10
236.509415189
 20
24.4195386643
 30
0.0
 11
236.509415189
 21
20.0415123109
 31
0.0
  0
LINE
  5
52
330
1F
100
AcDbEntity
  8
0
  6
Continuous
 62
     7
370
     0
100
AcDbLine
 10
254.824490219
 20
32.2622398452
 30
0.0
 11
254.824490219
 21
24.4195386643
 31
0.0
  0
LINE
  5
53
330
1F
100
AcDbEntity
  8
0
  6
Continuous
 62
     7
370
     0
100
AcDbLine
 10
161.2692165563
 20
26.369540887
 30
0.0
 11
200.2334576007
 21
26.369540887
 31
0.0
  0
LINE
  5
54
330
1F
100
AcDbEntity
  8
0
  6
Continuous
 62
     7
370
     0
100
AcDbLine
 10
200.2334576007
 20
49.3719356552
 30
0.0
 11
270.0001458
 21
49.3719356552
 31
0.0
  0
LINE
  5
55
330
1F
100
AcDbEntity
  8
0
  6
Continuous
 62
     7
370
     0
100
AcDbLine
 10
262.007143296
 20
32.2427104882
 30
0.0
 11
262.007143296
 21
24.4195386643
 31
0.0
  0
LINE
  5
56
330
1F
100
AcDbEntity
  8
0
  6
Continuous
 62
     7
370
     0
100
AcDbLine
 10
200.2334576007
 20
24.4195386643
 30
0.0
 11
270.0001458
 21
24.4195386643
 31
0.0
  0
LINE
  5
57
330
1F
100
AcDbEntity
  8
0
  6
Continuous
 62
     7
370
     0
100
AcDbLine
 10
270.0001458
 20
49.3719356552
 30
0.0
 11
270.0001458
 21
50.0331356147
 31
0.0
  0
LINE
  5
58
330
1F
100
AcDbEntity
  8
0
  6
Continuous
 62
     7
370
     0
100
AcDbLine
 10
200.2334576007
 20
41.3209618421
 30
0.0
 11
270.0001458
 21
41.3209618421
 31
0.0
  0
LINE
  5
59
330
1F
100
AcDbEntity
  8
0
  6
Continuous
 62
     7
370
     0
100
AcDbLine
 10
169.9812958
 20
9.9586585366
 30
0.0
 11
169.9812958
 21
7.8047587093
 31
0.0
  0
LINE
  5
5A
330
1F
100
AcDbEntity
  8
0
  6
Continuous
 62
     7
370
     0
100
AcDbLine
 10
69.9687958
 20
9.9586585366
 30
0.0
 11
69.9687958
 21
7.8047587093
 31
0.0
  0
LINE
  5
5B
330
1F
100
AcDbEntity
  8
0
  6
Continuous
 62
     7
370
     0
100
AcDbLine
 10
69.9687958
 20
9.9586585366
 30
0.0
 11
70.2876921355
 21
9.0805
 31
0.0
  0
LINE
  5
5C
330
1F
100
AcDbEntity
  8
0
  6
Continuous
 62
     7
370
     0
100
AcDbLine
 10
70.2876921355
 20
9.0805
 30
0.0
 11
69.6322174163
 21
9.0805
 31
0.0
  0
LINE
  5
5D
330
1F
100
AcDbEntity
  8
0
  6
Continuous
 62
     7
370
     0
100
AcDbLine
 10
69.6322174163
 20
9.0805
 30
0.0
 11
69.9687958
 21
9.9586585366
 31
0.0
  0
INSERT
  5
64
330
1F
100
AcDbEntity
  8
0
  6
Continuous
 62
     7
370
     0
100
AcDbBlockReference
  2
SW_NOTE_0
 10
224.0018256562
 20
151.5016503385
 30
0.0
  0
INSERT
  5
8C
330
1F
100
AcDbEntity
  8
0
  6
Continuous
 62
     7
370
     0
100
AcDbBlockReference
  2
SW_NOTE_1
 10
11.2250121393
 20
55.6021837909
 30
0.0
  0
MTEXT
  5
8D
330
1F
100
AcDbEntity
  8
0
  6
Continuous
 62
     7
370
     0
100
AcDbMText
 10
264.1874366144
 20
28.4869447464
 30
0.0
 40
2.6458333333
 41
0.0
 71
     1
 72
     1
  1
B
  7
SLDTEXTSTYLE0
 73
     1
 44
1.0
  0
MTEXT
  5
8E
330
1F
100
AcDbEntity
  8
0
  6
Continuous
 62
     7
370
     0
100
AcDbMText
 10
44.1652901531
 20
7.8888951884
 30
0.0
 40
2.38125
 41
0.0
 71
     1
 72
     1
  1
5
  7
SLDTEXTSTYLE0
 73
     1
 44
1.0
  0
MTEXT
  5
8F
330
1F
100
AcDbEntity
  8
0
  6
Continuous
 62
     7
370
     0
100
AcDbMText
 10
94.5845283056
 20
7.9685832965
 30
0.0
 40
2.38125
 41
0.0
 71
     1
 72
     1
  1
4
  7
SLDTEXTSTYLE0
 73
     1
 44
1.0
  0
MTEXT
  5
90
330
1F
100
AcDbEntity
  8
0
  6
Continuous
 62
     7
370
     0
100
AcDbMText
 10
143.0641214846
 20
7.9151272789
 30
0.0
 40
2.38125
 41
0.0
 71
     1
 72
     1
  1
3
  7
SLDTEXTSTYLE0
 73
     1
 44
1.0
  0
MTEXT
  5
91
330
1F
100
AcDbEntity
  8
0
  6
Continuous
 62
     7
370
     0
100
AcDbMText
 10
193.1916931782
 20
7.9359540314
 30
0.0
 40
2.38125
 41
0.0
 71
     1
 72
     1
  1
2
  7
SLDTEXTSTYLE0
 73
     1
 44
1.0
  0
MTEXT
  5
92
330
1F
100
AcDbEntity
  8
0
  6
Continuous
 62
     7
370
     0
100
AcDbMText
 10
245.4146001727
 20
7.6548491053
 30
0.0
 40
2.38125
 41
0.0
 71
     1
 72
     1
  1
1
  7
SLDTEXTSTYLE0
 73
     1
 44
1.0
  0
MTEXT
  5
93
330
1F
100
AcDbEntity
  8
0
  6
Continuous
 62
     7
370
     0
100
AcDbMText
 10
228.9289066441
 20
15.148604045
 30
0.0
 40
3.175
 41
0.0
 71
     1
 72
     1
  1
CQ19075-CS
  7
SLDTEXTSTYLE0
 73
     1
 44
1.0
  0
MTEXT
  5
94
330
1F
100
AcDbEntity
  8
0
  6
Continuous
 62
     7
370
     0
100
AcDbMText
 10
201.4264288672
 20
31.7741312306
 30
0.0
 40
2.1166666667
 41
0.0
 71
     1
 72
     1
  1
MATERIAL:
  7
SLDTEXTSTYLE0
 73
     1
 44
1.0
  0
MTEXT
  5
96
330
1F
100
AcDbEntity
  8
0
  6
Continuous
 62
     7
370
     0
100
AcDbMText
 10
227.1732877783
 20
18.9664624076
 30
0.0
 40
2.1166666667
 41
0.0
 71
     1
 72
     1
  1
PART  NO.
  7
SLDTEXTSTYLE2
 73
     1
 44
1.0
  0
MTEXT
  5
97
330
1F
100
AcDbEntity
  8
0
  6
Continuous
 62
     7
370
     0
100
AcDbMText
 10
162.3747668481
 20
29.0762080022
 30
0.0
 40
1.524
 41
0.0
 71
     1
 72
     1
  1
PROPRIETARY AND CONFIDENTIAL
  7
SLDTEXTSTYLE0
 73
     1
 44
1.0
  0
MTEXT
  5
98
330
1F
100
AcDbEntity
  8
0
  6
Continuous
 62
     7
370
     0
100
AcDbMText
 10
165.0635781822
 20
39.1518706438
 30
0.0
 40
1.651
 41
0.0
 71
     1
 72
     1
  1
DRAWN
  7
SLDTEXTSTYLE0
 73
     1
 44
1.0
  0
MTEXT
  5
99
330
1F
100
AcDbEntity
  8
0
  6
Continuous
 62
     7
370
     0
100
AcDbMText
 10
163.4989205914
 20
36.0465681261
 30
0.0
 40
1.651
 41
0.0
 71
     1
 72
     1
  1
ENG APPR.
  7
SLDTEXTSTYLE0
 73
     1
 44
1.0
  0
MTEXT
  5
9A
330
1F
100
AcDbEntity
  8
0
  6
Continuous
 62
     7
370
     0
100
AcDbMText
 10
163.2535607636
 20
32.9960816401
 30
0.0
 40
1.651
 41
0.0
 71
     1
 72
     1
  1
MFG APPR.
  7
SLDTEXTSTYLE0
 73
     1
 44
1.0
  0
MTEXT
  5
9B
330
1F
100
AcDbEntity
  8
0
  6
Continuous
 62
     7
370
     0
100
AcDbMText
 10
177.1717662961
 20
42.2038753057
 30
0.0
 40
1.651
 41
0.0
 71
     1
 72
     1
  1
NAME
  7
SLDTEXTSTYLE0
 73
     1
 44
1.0
  0
MTEXT
  5
9C
330
1F
100
AcDbEntity
  8
0
  6
Continuous
 62
     7
370
     0
100
AcDbMText
 10
201.1923155306
 20
40.3486653545
 30
0.0
 40
2.54
 41
0.0
 71
     1
 72
     1
  1
TITLE:
  7
SLDTEXTSTYLE0
 73
     1
 44
1.0
  0
MTEXT
  5
9D
330
1F
100
AcDbEntity
  8
0
  6
Continuous
 62
     7
370
     0
100
AcDbMText
 10
255.6705425448
 20
31.1728222435
 30
0.0
 40
2.1166666667
 41
0.0
 71
     1
 72
     1
  1
SIZE
  7
SLDTEXTSTYLE0
 73
     1
 44
1.0
  0
MTEXT
  5
9E
330
1F
100
AcDbEntity
  8
0
  6
Continuous
 62
     7
370
     0
100
AcDbMText
 10
256.9521432223
 20
28.3887516483
 30
0.0
 40
2.6458333333
 41
0.0
 71
     1
 72
     1
  1
A
  7
SLDTEXTSTYLE0
 73
     1
 44
1.0
  0
MTEXT
  5
9F
330
1F
100
AcDbEntity
  8
0
  6
Continuous
 62
     7
370
     0
100
AcDbMText
 10
262.5115647388
 20
31.2134592803
 30
0.0
 40
2.1166666667
 41
0.0
 71
     1
 72
     1
  1
REV.
  7
SLDTEXTSTYLE0
 73
     1
 44
1.0
  0
MTEXT
  5
A0
330
1F
100
AcDbEntity
  8
0
  6
Continuous
 62
     7
370
     0
100
AcDbMText
 10
211.3984283698
 20
23.6716736759
 30
0.0
 40
2.1166666667
 41
0.0
 71
     1
 72
     1
  1
SCALE: 1:1
  7
SLDTEXTSTYLE0
 73
     1
 44
1.0
  0
MTEXT
  5
A2
330
1F
100
AcDbEntity
  8
0
  6
Continuous
 62
     7
370
     0
100
AcDbMText
 10
244.8008308774
 20
23.5599239782
 30
0.0
 40
2.1166666667
 41
0.0
 71
     1
 72
     1
  1
SHEET 1 OF 1
  7
SLDTEXTSTYLE3
 73
     1
 44
1.0
  0
MTEXT
  5
A3
330
1F
100
AcDbEntity
  8
0
  6
Continuous
 62
     7
370
     0
100
AcDbMText
 10
203.1167568746
 20
15.3594883858
 30
0.0
 40
3.175
 41
0.0
 71
     1
 72
     1
  1
12090-E01
  7
SLDTEXTSTYLE0
 73
     1
 44
1.0
  0
INSERT
  5
AE
330
1F
100
AcDbEntity
  8
0
  6
Continuous
 62
     7
370
     0
100
AcDbBlockReference
  2
SW_NOTE_2
 10
162.2847826607
 20
23.6526893282
 30
0.0
  0
MTEXT
  5
AF
330
1F
100
AcDbEntity
  8
0
  6
Continuous
 62
     7
370
     0
100
AcDbMText
 10
200.8540544727
 20
18.9943125981
 30
0.0
 40
2.1166666667
 41
0.0
 71
     1
 72
     1
  1
DWG.  NO.
  7
SLDTEXTSTYLE2
 73
     1
 44
1.0
  0
MTEXT
  5
B0
330
1F
100
AcDbEntity
  8
0
  6
Continuous
 62
     7
370
     0
100
AcDbMText
 10
179.3040311021
 20
39.2228189664
 30
0.0
 40
1.651
 41
0.0
 71
     1
 72
     1
  1
GG
  7
SLDTEXTSTYLE0
 73
     1
 44
1.0
  0
MTEXT
  5
B1
330
1F
100
AcDbEntity
  8
0
  6
Continuous
 62
     7
370
     0
100
AcDbMText
 10
187.3899275783
 20
39.2656787828
 30
0.0
 40
1.651
 41
0.0
 71
     1
 72
     1
  1
08/29/2010
  7
SLDTEXTSTYLE0
 73
     1
 44
1.0
  0
MTEXT
  5
B2
330
1F
100
AcDbEntity
  8
0
  6
Continuous
 62
     7
370
     0
100
AcDbMText
 10
189.8181243794
 20
42.1393754267
 30
0.0
 40
1.651
 41
0.0
 71
     1
 72
     1
  1
DATE
  7
SLDTEXTSTYLE0
 73
     1
 44
1.0
  0
MTEXT
  5
B3
330
1F
100
AcDbEntity
  8
0
  6
Continuous
 62
     7
370
     0
100
AcDbMText
 10
201.1235751288
 20
48.1767660979
 30
0.0
 40
4.7625
 41
0.0
 71
     1
 72
     1
  1
THORLABS INC.
  7
SLDTEXTSTYLE0
 73
     1
 44
1.0
  0
INSERT
  5
BA
330
1F
100
AcDbEntity
  8
0
  6
Continuous
 62
     7
370
     0
100
AcDbBlockReference
  2
SW_NOTE_3
 10
248.665276374
 20
45.4206421968
 30
0.0
  0
INSERT
  5
C0
330
1F
100
AcDbEntity
  8
0
  6
Continuous
 62
     7
370
     0
100
AcDbBlockReference
  2
SW_NOTE_4
 10
209.5176903343
 20
37.1628074861
 30
0.0
  0
MTEXT
  5
C1
330
1F
100
AcDbEntity
  8
0
  6
Continuous
 62
     7
370
     0
100
AcDbMText
 10
215.9179498245
 20
31.5426570948
 30
0.0
 40
2.38125
 41
0.0
 71
     1
 72
     1
  1
QUARTZ
  7
SLDTEXTSTYLE0
 73
     1
 44
1.0
  0
MTEXT
  5
C2
330
1F
100
AcDbEntity
  8
0
  6
Continuous
 62
     7
370
     0
100
AcDbMText
 10
179.6260377272
 20
32.9559096481
 30
0.0
 40
1.651
 41
0.0
 71
     1
 72
     1
  1
DD
  7
SLDTEXTSTYLE0
 73
     1
 44
1.0
  0
INSERT
  5
C8
330
1F
100
AcDbEntity
  8
0
  6
Continuous
 62
     7
370
     0
100
AcDbBlockReference
  2
SW_NOTE_5
 10
187.7119342034
 20
30.870518626
 30
0.0
  0
INSERT
  5
CE
330
1F
100
AcDbEntity
  8
0
  6
Continuous
 62
     7
370
     0
100
AcDbBlockReference
  2
SW_NOTE_6
 10
187.467860996
 20
34.0486853533
 30
0.0
  0
MTEXT
  5
CF
330
1F
100
AcDbEntity
  8
0
  6
Continuous
 62
     7
370
     0
100
AcDbMText
 10
179.3819645198
 20
36.1340763753
 30
0.0
 40
1.651
 41
0.0
 71
     1
 72
     1
  1
BW
  7
SLDTEXTSTYLE0
 73
     1
 44
1.0
  0
LINE
  5
D0
330
1F
100
AcDbEntity
  8
0
  6
Continuous
 62
     7
370
     0
100
AcDbLine
 10
54.4861649876
 20
127.6568764896
 30
0.0
 11
54.4861649876
 21
127.064505681
 31
0.0
  0
LINE
  5
D1
330
1F
100
AcDbEntity
  8
0
  6
Continuous
 62
     7
370
     0
100
AcDbLine
 10
75.4861647045
 20
127.064505681
 30
0.0
 11
75.4861647045
 21
127.6568764896
 31
0.0
  0
LINE
  5
D2
330
1F
100
AcDbEntity
  8
0
  6
Continuous
 62
     7
370
     0
100
AcDbLine
 10
67.9861648722
 20
137.4612864182
 30
0.0
 11
67.9861648722
 21
143.561183855
 31
0.0
  0
LINE
  5
D3
330
1F
100
AcDbEntity
  8
0
  6
Continuous
 62
     7
370
     0
100
AcDbLine
 10
61.98616482
 20
143.561183855
 30
0.0
 11
61.98616482
 21
137.4612864182
 31
0.0
  0
SPLINE
  5
D4
330
1F
100
AcDbEntity
  8
0
  6
Continuous
 62
     7
370
     0
100
AcDbSpline
210
0.0
220
0.0
230
1.0
 70
     8
 71
     3
 72
    30
 73
    26
 74
     0
 42
0.00000001
 43
0.00000001
 40
0.0
 40
0.0
 40
0.0
 40
0.0
 40
0.0755746760122061
 40
0.1375254266050944
 40
0.1891921870043883
 40
0.2339834252357807
 40
0.2758153650679195
 40
0.3194426193721044
 40
0.3565355918145644
 40
0.3998026605902133
 40
0.4508844457975921
 40
0.5074084528257587
 40
0.5371334325101955
 40
0.5469447785985547
 40
0.5557942813119404
 40
0.5632048056050046
 40
0.5741716574663
 40
0.5893457266206495
 40
0.6383223048919114
 40
0.6922003716645143
 40
0.750470000232378
 40
0.8189428510440252
 40
0.887085537606522
 40
0.9495927359859223
 40
1.0
 40
1.0
 40
1.0
 40
1.0
 10
67.9861648721545
 20
143.5611838549696
 30
0.0
 10
67.8850079421919
 20
143.635843319549
 30
0.0
 10
67.70092974720342
 20
143.771703309405
 30
0.0
 10
67.4398021765022
 20
143.947416726374
 30
0.0
 10
67.22162949416213
 20
144.0951423761736
 30
0.0
 10
67.03859066037354
 20
144.2349760966501
 30
0.0
 10
66.88500365567802
 20
144.3892234294825
 30
0.0
 10
66.77011013886745
 20
144.5590141483068
 30
0.0
 10
66.68045110506002
 20
144.7452854968221
 30
0.0
 10
66.60710501656168
 20
144.9512081659767
 30
0.0
 10
66.532205323754
 20
145.1920228805514
 30
0.0
 10
66.51896880284131
 20
145.4217346347421
 30
0.0
 10
66.52957027782841
 20
145.5822562263201
 30
0.0
 10
66.51465022822427
 20
145.6615698547348
 30
0.0
 10
66.49613170232595
 20
145.7021537904212
 30
0.0
 10
66.45997028486798
 20
145.7311000191898
 30
0.0
 10
66.40849498959052
 20
145.7531552655297
 30
0.0
 10
66.29039496762644
 20
145.79383979557
 30
0.0
 10
66.10255712268031
 20
145.8512677768926
 30
0.0
 10
65.85359067598685
 20
145.9517590264081
 30
0.0
 10
65.59338492587743
 20
146.1065117005007
 30
0.0
 10
65.36476502811355
 20
146.3415463839204
 30
0.0
 10
65.18351239753879
 20
146.6196515990971
 30
0.0
 10
65.05182854551126
 20
146.8927085742408
 30
0.0
 10
65.00643114809561
 20
147.0753445543037
 30
0.0
 10
64.98616484607747
 20
147.1568768918835
 30
0.0
  0
SPLINE
  5
D5
330
1F
100
AcDbEntity
  8
0
  6
Continuous
 62
     7
370
     0
100
AcDbSpline
210
0.0
220
0.0
230
1.0
 70
     8
 71
     3
 72
    30
 73
    26
 74
     0
 42
0.00000001
 43
0.00000001
 40
0.0
 40
0.0
 40
0.0
 40
0.0
 40
0.0504119320780806
 40
0.1129249190597464
 40
0.1810739161099957
 40
0.2495531079849062
 40
0.3230660758461339
 40
0.3874658632591302
 40
0.410088642439184
 40
0.4276867954503565
 40
0.4374018203236139
 40
0.4441743033506957
 40
0.4555513958424194
 40
0.4686590998490225
 40
0.4925445576147065
 40
0.5490737991599148
 40
0.6001603148966606
 40
0.6434313905044637
 40
0.6805277980147221
 40
0.7241590925067517
 40
0.7659949062681013
 40
0.8107902924803636
 40
0.8624618375818047
 40
0.924418325246015
 40
1.0
 40
1.0
 40
1.0
 40
1.0
 10
64.98616484607747
 20
147.1568768918835
 30
0.0
 10
64.96589867105587
 20
147.0753443562905
 30
0.0
 10
64.92050155811802
 20
146.8927079326694
 30
0.0
 10
64.78881509681224
 20
146.619655025916
 30
0.0
 10
64.60757368970312
 20
146.3415323110962
 30
0.0
 10
64.36103596892492
 20
146.0881904751038
 30
0.0
 10
64.05726184746737
 20
145.9197760774297
 30
0.0
 10
63.80510128992364
 20
145.831519324015
 30
0.0
 10
63.63915700086617
 20
145.7791608357315
 30
0.0
 10
63.56057760005054
 20
145.7522598738894
 30
0.0
 10
63.50876660307352
 20
145.7286787490147
 30
0.0
 10
63.47247498850562
 20
145.6983305748884
 30
0.0
 10
63.45308463366705
 20
145.647853451869
 30
0.0
 10
63.44415261480901
 20
145.5679234529838
 30
0.0
 10
63.45248944619486
 20
145.4122299306188
 30
0.0
 10
63.44022299609486
 20
145.1919375855454
 30
0.0
 10
63.36520355931377
 20
144.9512264277155
 30
0.0
 10
63.29188298528491
 20
144.7452816931882
 30
0.0
 10
63.20221823163109
 20
144.559015291299
 30
0.0
 10
63.08732639636672
 20
144.3892231182433
 30
0.0
 10
62.93373893007592
 20
144.2349761846068
 30
0.0
 10
62.75070023063866
 20
144.0951423479409
 30
0.0
 10
62.53252750443558
 20
143.9474167360748
 30
0.0
 10
62.27139994874251
 20
143.7717033061265
 30
0.0
 10
62.08732175130748
 20
143.6358433183863
 30
0.0
 10
61.98616482000044
 20
143.5611838549696
 30
0.0
  0
LINE
  5
D6
330
1F
100
AcDbEntity
  8
0
  6
Continuous
 62
     7
370
     0
100
AcDbLine
 10
63.0192651195
 20
117.6070956588
 30
0.0
 11
66.9530645726
 21
117.6070956588
 31
0.0
  0
LWPOLYLINE
  5
D7
330
1F
100
AcDbEntity
  8
0
  6
Continuous
 62
     7
370
     0
100
AcDbPolyline
 90
      108
 70
   128
 43
0.0
 10
63.0192651195
 20
117.6070956588
 10
62.4532184346
 20
117.7281368599
 10
61.8948875243
 20
117.8794236929
 10
61.3459732165
 20
118.0604932905
 10
60.8081474682
 20
118.2707961724
 10
60.2830487085
 20
118.509689726
 10
59.7722769497
 20
118.7764475197
 10
59.2773870347
 20
119.0702565089
 10
58.7998872405
 20
119.390222624
 10
58.3412318272
 20
119.7353698388
 10
57.9028182445
 20
120.1046471559
 10
57.4859815432
 20
120.4969300032
 10
57.0919915816
 20
120.9110234939
 10
56.7220497658
 20
121.3456661515
 10
56.377280668
 20
121.7995336354
 10
56.0587357512
 20
122.2712433972
 10
55.7673863849
 20
122.7593593374
 10
55.5041182568
 20
123.2623932027
 10
55.2697341671
 20
123.7788141314
 10
55.0649475088
 20
124.3070479557
 10
54.8903831994
 20
124.8454860486
 10
54.7465720927
 20
125.3924881183
 10
54.6339528417
 20
125.9463877958
 10
54.5528691044
 20
126.5054979902
 10
54.5035658186
 20
127.0681154873
 10
54.48619479
 20
127.6325264842
 10
54.5008081725
 20
128.1970116268
 10
54.547362194
 20
128.7598514771
 10
54.6257143622
 20
129.3193314066
 10
54.7356262585
 20
129.8737471532
 10
54.8767635381
 20
130.4214099963
 10
55.0486949986
 20
130.9606515877
 10
55.250898168
 20
131.4898293075
 10
55.4827574423
 20
132.0073310361
 10
55.743565016
 20
132.5115807429
 10
56.0325264713
 20
133.0010424443
 10
56.3487635707
 20
133.4742241614
 10
56.6913105329
 20
133.9296856039
 10
57.0591261392
 20
134.3660391011
 10
57.4510881459
 20
134.78195519
 10
57.8660035288
 20
135.1761668064
 10
58.3026084831
 20
135.5474734754
 10
58.7595721489
 20
135.8947441057
 10
59.2355035959
 20
136.2169211805
 10
59.7289522892
 20
136.5130221546
 10
60.2384155398
 20
136.782146439
 10
60.7623412987
 20
137.0234726072
 10
61.299133279
 20
137.2362677083
 10
61.8471567767
 20
137.4198807478
 10
62.4047423961
 20
137.5737547949
 10
62.9701911719
 20
137.697420463
 10
63.5417810889
 20
137.7905014977
 10
64.1177709229
 20
137.8527129144
 10
64.696405975
 20
137.8838656545
 10
65.2759237172
 20
137.8838656545
 10
65.8545587692
 20
137.8527129144
 10
66.4305486033
 20
137.7905014977
 10
67.0021385202
 20
137.697420463
 10
67.5675872961
 20
137.5737547949
 10
68.1251729155
 20
137.4198807478
 10
68.6731964132
 20
137.2362677083
 10
69.2099883934
 20
137.0234726072
 10
69.7339141523
 20
136.782146439
 10
70.243377403
 20
136.5130221546
 10
70.7368260963
 20
136.2169211805
 10
71.2127575433
 20
135.8947441057
 10
71.6697212091
 20
135.5474734754
 10
72.1063261634
 20
135.1761668064
 10
72.5212415462
 20
134.78195519
 10
72.9132035529
 20
134.3660391011
 10
73.2810191592
 20
133.9296856039
 10
73.6235661214
 20
133.4742241614
 10
73.9398032209
 20
133.0010424443
 10
74.2287646761
 20
132.5115807429
 10
74.4895722499
 20
132.0073310361
 10
74.7214315241
 20
131.4898293075
 10
74.9236346936
 20
130.9606515877
 10
75.0955661541
 20
130.4214099963
 10
75.2367034336
 20
129.8737471532
 10
75.3466153299
 20
129.3193314066
 10
75.4249674981
 20
128.7598514771
 10
75.4715215197
 20
128.1970116268
 10
75.4861349022
 20
127.6325264842
 10
75.4687638735
 20
127.0681154873
 10
75.4194605878
 20
126.5054979902
 10
75.3383768504
 20
125.9463877958
 10
75.2257575994
 20
125.3924881183
 10
75.0819464927
 20
124.8454860486
 10
74.9073821833
 20
124.3070479557
 10
74.702595525
 20
123.7788141314
 10
74.4682114353
 20
123.2623932027
 10
74.2049433073
 20
122.7593593374
 10
73.913593941
 20
122.2712433972
 10
73.5950490242
 20
121.7995336354
 10
73.2502799263
 20
121.3456661515
 10
72.8803381106
 20
120.9110234939
 10
72.486348149
 20
120.4969300032
 10
72.0695114477
 20
120.1046471559
 10
71.6310978649
 20
119.7353698388
 10
71.1724424517
 20
119.390222624
 10
70.6949426575
 20
119.0702565089
 10
70.2000527425
 20
118.7764475197
 10
69.6892809836
 20
118.509689726
 10
69.1641822239
 20
118.2707961724
 10
68.6263564756
 20
118.0604932905
 10
68.0774421679
 20
117.8794236929
 10
67.5191112576
 20
117.7281368599
 10
66.9530645726
 20
117.6070956588
  0
ELLIPSE
  5
D8
330
1F
100
AcDbEntity
  8
0
  6
Continuous
 62
     7
370
     0
100
AcDbEllipse
 10
64.9861648461
 20
61.215765586
 30
0.0
 11
0.0
 21
57.40754568847603
 31
0.0
210
0.0
220
0.0
230
1.0
 40
0.1829027852
 41
6.047500120935613
 42
6.094748309922431
  0
LINE
  5
D9
330
1F
100
AcDbEntity
  8
0
  6
Continuous
 62
     7
370
     0
100
AcDbLine
 10
67.4380123863
 20
117.0362554565
 30
0.0
 11
62.5343173059
 21
117.0362554565
 31
0.0
  0
ELLIPSE
  5
DA
330
1F
100
AcDbEntity
  8
0
  6
Continuous
 62
     7
370
     0
100
AcDbEllipse
 10
64.9861648461
 20
61.215765586
 30
0.0
 11
0.0
 21
57.40754568847603
 31
0.0
210
0.0
220
0.0
230
1.0
 40
0.1829027852
 41
0.1884369972572314
 42
0.2356851862440449
  0
ELLIPSE
  5
DB
330
1F
100
AcDbEntity
  8
0
  6
Continuous
 62
     7
370
     0
100
AcDbEllipse
 10
64.9861648461
 20
127.0645056976
 30
0.0
 11
10.5
 21
0.0
 31
0.0
210
0.0
220
0.0
230
1.0
 40
0.9822255287
 41
4.948074166628749
 42
6.283185307179586
  0
ELLIPSE
  5
DC
330
1F
100
AcDbEntity
  8
0
  6
Continuous
 62
     7
370
     0
100
AcDbEllipse
 10
64.9861648461
 20
127.0645056976
 30
0.0
 11
10.5
 21
0.0
 31
0.0
210
0.0
220
0.0
230
1.0
 40
0.9822255287
 41
3.141592653589793
 42
4.476703794140651
  0
LINE
  5
DD
330
1F
100
AcDbEntity
  8
0
  6
Continuous
 62
     7
370
     0
100
AcDbLine
 10
64.9861648461
 20
143.561183855
 30
0.0
 11
61.98616482
 21
143.561183855
 31
0.0
  0
LINE
  5
DE
330
1F
100
AcDbEntity
  8
0
  6
Continuous
 62
     7
370
     0
100
AcDbLine
 10
67.9861648722
 20
143.561183855
 30
0.0
 11
64.9861648461
 21
143.561183855
 31
0.0
  0
DIMENSION
  5
DF
330
1F
100
AcDbEntity
  8
0
  6
Continuous
 62
     7
370
     0
100
AcDbDimension
  2
*D8
 10
57.5667829262
 20
120.2270196991
 30
0.0
 11
95.432077329
 21
145.3791562864
 31
0.0
 70
   163
  1
<>\PREF
 71
     1
 42
-1.0
  3
SLDDIMSTYLE0
100
AcDbDiametricDimension
 15
72.4055467659
 25
135.08673328
 35
0.0
 40
0.0
  0
INSERT
  5
F7
102
{ACAD_REACTORS
330
F9
102
}
330
1F
100
AcDbEntity
  8
0
  6
Continuous
 62
     7
370
     0
100
AcDbBlockReference
  2
SW_NOTE_7
 10
44.3172448858
 20
110.26400602
 30
0.0
  0
LEADER
  5
F9
330
1F
100
AcDbEntity
  8
0
  6
Continuous
 62
     7
370
     0
100
AcDbLeader
  3
SLDDIMSTYLE1
 73
     2
 76
     3
 10
64.00238696
 20
117.6070956716
 30
0.0
 10
50.6672448858
 20
110.26400602
 30
0.0
 10
44.3172448858
 20
110.26400602
 30
0.0
340
F7
  0
LINE
  5
FA
330
1F
100
AcDbEntity
  8
0
  6
PHANTOM
 62
     7
370
    30
100
AcDbLine
 10
64.9861648461
 20
110.5916579178
 30
0.0
 11
64.9861648461
 21
153.3496606906
 31
0.0
  0
LINE
  5
FB
330
1F
100
AcDbEntity
  8
0
  6
Continuous
 62
     7
370
    30
100
AcDbLine
 10
64.9861648461
 20
110.5916579178
 30
0.0
 11
75.1461648461
 21
110.5916579178
 31
0.0
  0
SOLID
  5
FC
330
1F
100
AcDbEntity
  8
0
  6
Continuous
 62
     7
370
    30
100
AcDbTrace
 10
75.1461648461
 20
110.5916579178
 30
0.0
 11
70.7011648461
 21
111.5441579178
 31
0.0
 12
70.7011648461
 22
109.6391579178
 32
0.0
 13
70.7011648461
 23
109.6391579178
 33
0.0
  0
LINE
  5
FD
330
1F
100
AcDbEntity
  8
0
  6
Continuous
 62
     7
370
    30
100
AcDbLine
 10
64.9861648461
 20
153.3496606906
 30
0.0
 11
75.1461648461
 21
153.3496606906
 31
0.0
  0
SOLID
  5
FE
330
1F
100
AcDbEntity
  8
0
  6
Continuous
 62
     7
370
    30
100
AcDbTrace
 10
75.1461648461
 20
153.3496606906
 30
0.0
 11
70.7011648461
 21
154.3021606906
 31
0.0
 12
70.7011648461
 22
152.3971606906
 32
0.0
 13
70.7011648461
 23
152.3971606906
 33
0.0
  0
MTEXT
  5
FF
330
1F
100
AcDbEntity
  8
0
  6
Continuous
 62
     7
100
AcDbMText
 10
76.1013133069
 20
113.1118348195
 30
0.0
 40
3.175
 41
0.0
 71
     1
 72
     1
  1
A
  7
SLDTEXTSTYLE0
 73
     1
 44
1.0
  0
MTEXT
  5
100
330
1F
100
AcDbEntity
  8
0
  6
Continuous
 62
     7
100
AcDbMText
 10
76.1013133069
 20
155.8698375923
 30
0.0
 40
3.175
 41
0.0
 71
     1
 72
     1
  1
A
  7
SLDTEXTSTYLE0
 73
     1
 44
1.0
  0
LINE
  5
101
330
1F
100
AcDbEntity
  8
0
  6
Continuous
 62
     7
370
     0
100
AcDbLine
 10
209.1949465681
 20
117.0362554565
 30
0.0
 11
212.1316674162
 21
117.6070956588
 31
0.0
  0
LINE
  5
102
330
1F
100
AcDbEntity
  8
0
  6
Continuous
 62
     7
370
     0
100
AcDbLine
 10
205.2409383465
 20
137.3778734431
 30
0.0
 11
209.1949465681
 21
117.0362554565
 31
0.0
  0
LINE
  5
103
330
1F
100
AcDbEntity
  8
0
  6
Continuous
 62
     7
370
     0
100
AcDbLine
 10
207.4495065023
 20
137.8877623082
 30
0.0
 11
205.2409383465
 21
137.3778734431
 31
0.0
  0
LINE
  5
104
330
1F
100
AcDbEntity
  8
0
  6
Continuous
 62
     7
370
     0
100
AcDbLine
 10
212.1316674162
 20
117.6070956588
 30
0.0
 11
207.4495065023
 21
137.8877623082
 31
0.0
  0
LINE
  5
105
330
1F
100
AcDbEntity
  8
0
  6
Continuous
 62
     7
370
     0
100
AcDbLine
 10
130.8225723911
 20
117.6070956588
 30
0.0
 11
133.7592932392
 21
117.0362554565
 31
0.0
  0
LINE
  5
106
330
1F
100
AcDbEntity
  8
0
  6
Continuous
 62
     7
370
     0
100
AcDbLine
 10
135.5047333051
 20
137.8877623082
 30
0.0
 11
130.8225723911
 21
117.6070956588
 31
0.0
  0
LINE
  5
107
330
1F
100
AcDbEntity
  8
0
  6
Continuous
 62
     7
370
     0
100
AcDbLine
 10
137.7133014609
 20
137.3778734431
 30
0.0
 11
135.5047333051
 21
137.8877623082
 31
0.0
  0
LINE
  5
108
330
1F
100
AcDbEntity
  8
0
  6
Continuous
 62
     7
370
     0
100
AcDbLine
 10
133.7592932392
 20
117.0362554565
 30
0.0
 11
137.7133014609
 21
137.3778734431
 31
0.0
  0
LINE
  5
109
330
1F
100
AcDbEntity
  8
0
  6
Continuous
 62
     7
370
     0
100
AcDbLine
 10
205.2838946689
 20
137.1568761841
 30
0.0
 11
174.9771200117
 21
137.1568761841
 31
0.0
  0
LINE
  5
10A
330
1F
100
AcDbEntity
  8
0
  6
Continuous
 62
     7
370
     0
100
AcDbLine
 10
167.9771197956
 20
137.1568761841
 30
0.0
 11
137.6703451384
 21
137.1568761841
 31
0.0
  0
LINE
  5
10B
330
1F
100
AcDbEntity
  8
0
  6
Continuous
 62
     7
370
     0
100
AcDbLine
 10
133.9771184136
 20
118.156876795
 30
0.0
 11
208.9771213938
 21
118.156876795
 31
0.0
  0
ARC
  5
10C
330
1F
100
AcDbEntity
  8
0
  6
Continuous
 62
     7
370
     0
100
AcDbCircle
 10
167.9771199037
 20
137.6568764896
 30
0.0
 40
0.5
100
AcDbArc
 50
270.0
 51
0.0
  0
ARC
  5
10D
330
1F
100
AcDbEntity
  8
0
  6
Continuous
 62
     7
370
     0
100
AcDbCircle
 10
174.9771199037
 20
137.6568764896
 30
0.0
 40
0.5
100
AcDbArc
 50
180.0
 51
270.0
  0
LINE
  5
10E
330
1F
100
AcDbEntity
  8
0
  6
Continuous
 62
     7
370
     0
100
AcDbLine
 10
174.4771199298
 20
137.656876266
 30
0.0
 11
174.4771199298
 21
143.561183855
 31
0.0
  0
LINE
  5
10F
330
1F
100
AcDbEntity
  8
0
  6
Continuous
 62
     7
370
     0
100
AcDbLine
 10
168.4771198776
 20
143.561183855
 30
0.0
 11
168.4771198776
 21
137.656876266
 31
0.0
  0
LINE
  5
110
330
1F
100
AcDbEntity
  8
0
  6
Continuous
 62
     7
370
     0
100
AcDbLine
 10
173.4312663317
 20
136.4068765268
 30
0.0
 11
205.4296801795
 21
136.4068765268
 31
0.0
  0
LINE
  5
111
330
1F
100
AcDbEntity
  8
0
  6
Continuous
 62
     7
370
     0
100
AcDbLine
 10
208.8313358833
 20
118.9068764523
 30
0.0
 11
134.1229039241
 21
118.9068764523
 31
0.0
  0
LINE
  5
112
330
1F
100
AcDbEntity
  8
0
  6
Continuous
 62
     7
370
     0
100
AcDbLine
 10
137.5245596279
 20
136.4068765268
 30
0.0
 11
169.5229734756
 21
136.4068765268
 31
0.0
  0
ARC
  5
113
330
1F
100
AcDbEntity
  8
0
  6
Continuous
 62
     7
370
     0
100
AcDbCircle
 10
173.4312662696
 20
136.9068764896
 30
0.0
 40
0.5
100
AcDbArc
 50
180.0
 51
270.0
  0
ARC
  5
114
330
1F
100
AcDbEntity
  8
0
  6
Continuous
 62
     7
370
     0
100
AcDbCircle
 10
169.5229735378
 20
136.9068764896
 30
0.0
 40
0.5
100
AcDbArc
 50
270.0
 51
0.0
  0
LINE
  5
115
330
1F
100
AcDbEntity
  8
0
  6
Continuous
 62
     7
370
     0
100
AcDbLine
 10
169.9771198906
 20
143.8152728677
 30
0.0
 11
172.9771199167
 21
143.8152728677
 31
0.0
  0
LINE
  5
116
330
1F
100
AcDbEntity
  8
0
  6
Continuous
 62
     7
370
     0
100
AcDbLine
 10
172.9771199167
 20
143.8152728677
 30
0.0
 11
172.9771199167
 21
137.1568761841
 31
0.0
  0
LINE
  5
117
330
1F
100
AcDbEntity
  8
0
  6
Continuous
 62
     7
370
     0
100
AcDbLine
 10
169.9771198906
 20
137.1568761841
 30
0.0
 11
169.9771198906
 21
143.8152728677
 31
0.0
  0
LINE
  5
118
330
1F
100
AcDbEntity
  8
0
  6
Continuous
 62
     7
370
     0
100
AcDbLine
 10
170.0229735576
 20
137.1568761841
 30
0.0
 11
169.9771198906
 21
137.1568761841
 31
0.0
  0
LINE
  5
119
330
1F
100
AcDbEntity
  8
0
  6
Continuous
 62
     7
370
     0
100
AcDbLine
 10
172.9771199167
 20
137.1568761841
 30
0.0
 11
172.9312662498
 21
137.1568761841
 31
0.0
  0
LINE
  5
11A
330
1F
100
AcDbEntity
  8
0
  6
Continuous
 62
     7
370
     0
100
AcDbLine
 10
172.9312662498
 20
136.9068766088
 30
0.0
 11
172.9312662498
 21
137.1568761841
 31
0.0
  0
LINE
  5
11B
330
1F
100
AcDbEntity
  8
0
  6
Continuous
 62
     7
370
     0
100
AcDbLine
 10
170.0229735576
 20
137.1568761841
 30
0.0
 11
170.0229735576
 21
136.9068766088
 31
0.0
  0
SPLINE
  5
11C
330
1F
100
AcDbEntity
  8
0
  6
Continuous
 62
     7
370
     0
100
AcDbSpline
210
0.0
220
0.0
230
1.0
 70
     8
 71
     3
 72
    13
 73
     9
 74
     0
 42
0.00000001
 43
0.00000001
 40
0.0
 40
0.0
 40
0.0
 40
0.0
 40
0.0941147156657206
 40
0.1747650103641377
 40
0.19457445851783
 40
0.2723997490489506
 40
0.3539151193288066
 40
1.0
 40
1.0
 40
1.0
 40
1.0
 10
171.4771199036804
 20
147.1568764895518
 30
0.0
 10
171.4298007042208
 20
146.8787531444821
 30
0.0
 10
171.007290923978
 20
145.9505979529551
 30
0.0
 10
170.0344870221566
 20
145.7803699216728
 30
0.0
 10
169.9173035852534
 20
145.6409191672493
 30
0.0
 10
169.9660313029581
 20
145.3501075828643
 30
0.0
 10
169.6639613348065
 20
144.1930178268375
 30
0.0
 10
169.336233435555
 20
144.2112708131546
 30
0.0
 10
168.4771199036804
 20
143.5611831936135
 30
0.0
  0
SPLINE
  5
11D
330
1F
100
AcDbEntity
  8
0
  6
Continuous
 62
     7
370
     0
100
AcDbSpline
210
0.0
220
0.0
230
1.0
 70
     8
 71
     3
 72
    13
 73
     9
 74
     0
 42
0.00000001
 43
0.00000001
 40
0.0
 40
0.0
 40
0.0
 40
0.0
 40
0.0941147156657206
 40
0.1747650103641377
 40
0.19457445851783
 40
0.2723997490489506
 40
0.3539151193288066
 40
1.0
 40
1.0
 40
1.0
 40
1.0
 10
171.4771199036804
 20
147.1568764895518
 30
0.0
 10
171.52443910314
 20
146.8787531444821
 30
0.0
 10
171.9469488833828
 20
145.9505979529551
 30
0.0
 10
172.9197527852043
 20
145.7803699216728
 30
0.0
 10
173.0369362221074
 20
145.6409191672493
 30
0.0
 10
172.9882085044027
 20
145.3501075828643
 30
0.0
 10
173.2902784725543
 20
144.1930178268375
 30
0.0
 10
173.6180063718059
 20
144.2112708131546
 30
0.0
 10
174.4771199036804
 20
143.5611831936135
 30
0.0
  0
LINE
  5
11E
330
1F
100
AcDbEntity
  8
0
  6
Continuous
 62
     7
370
     0
100
AcDbLine
 10
205.4296801795
 20
136.4068765268
 30
0.0
 11
205.2838946689
 21
137.1568761841
 31
0.0
  0
LINE
  5
11F
330
1F
100
AcDbEntity
  8
0
  6
Continuous
 62
     7
370
     0
100
AcDbLine
 10
171.4771199037
 20
145.6568757147
 30
0.0
 11
172.9771199167
 21
143.8152728677
 31
0.0
  0
LINE
  5
120
330
1F
100
AcDbEntity
  8
0
  6
Continuous
 62
     7
370
     0
100
AcDbLine
 10
169.9771198906
 20
143.8152728677
 30
0.0
 11
171.4771199037
 21
145.6568757147
 31
0.0
  0
LINE
  5
121
330
1F
100
AcDbEntity
  8
0
  6
Continuous
 62
     7
370
     0
100
AcDbLine
 10
137.6703451384
 20
137.1568761841
 30
0.0
 11
137.5245596279
 21
136.4068765268
 31
0.0
  0
LINE
  5
122
330
1F
100
AcDbEntity
  8
0
  6
Continuous
 62
     7
370
     0
100
AcDbLine
 10
208.9771213938
 20
118.156876795
 30
0.0
 11
208.8313358833
 21
118.9068764523
 31
0.0
  0
LINE
  5
123
330
1F
100
AcDbEntity
  8
0
  6
Continuous
 62
     7
370
     0
100
AcDbLine
 10
134.1229039241
 20
118.9068764523
 30
0.0
 11
133.9771184136
 21
118.156876795
 31
0.0
  0
LINE
  5
124
330
1F
100
AcDbEntity
  8
0
  6
Continuous
 62
     7
370
     0
100
AcDbLine
 10
208.9771199037
 20
118.1568764896
 30
0.0
 11
208.9771199037
 21
109.3955219459
 31
0.0
  0
LINE
  5
125
330
1F
100
AcDbEntity
  8
0
  6
Continuous
 62
     7
370
     0
100
AcDbLine
 10
208.9771199037
 20
118.1568764896
 30
0.0
 11
210.9768960096
 21
107.8689202928
 31
0.0
  0
HATCH
  5
126
330
1F
100
AcDbEntity
  8
0
  6
Continuous
 62
     7
370
     0
100
AcDbHatch
 10
0.0
 20
0.0
 30
0.0
210
0.0
220
0.0
230
1.0
  2
ANSI31
 70
     0
 71
     0
 91
        1
 92
        0
 93
       22
 72
     1
 10
167.9771199036804
 20
137.1568764895518
 11
137.6703457772969
 21
137.1568764895519
 72
     1
 10
137.6703457772969
 20
137.1568764895519
 11
137.5245605454436
 21
136.4068764895519
 72
     1
 10
137.5245605454436
 20
136.4068764895519
 11
169.5229735377672
 21
136.4068764895518
 72
     2
 10
169.5229735377672
 20
136.9068764895518
 40
0.5
 50
270.0000000000008
 51
360.0000000000008
 73
     1
 72
     1
 10
170.0229735377672
 20
136.9068764895518
 11
170.0229735377672
 21
137.1568764895518
 72
     1
 10
170.0229735377672
 20
137.1568764895518
 11
169.9771199036804
 21
137.1568764895518
 72
     1
 10
169.9771199036804
 20
137.1568764895518
 11
169.9771199036804
 21
143.8152731176512
 72
     1
 10
169.9771199036804
 20
143.8152731176512
 11
171.4771199036804
 21
145.6568764895518
 72
     1
 10
171.4771199036804
 20
145.6568764895518
 11
172.9771199036804
 21
143.8152731176511
 72
     1
 10
172.9771199036804
 20
143.8152731176511
 11
172.9771199036804
 21
137.1568764895518
 72
     1
 10
172.9771199036804
 20
137.1568764895518
 11
172.9312662695936
 21
137.1568764895518
 72
     1
 10
172.9312662695936
 20
137.1568764895518
 11
172.9312662695936
 21
136.9068764895518
 72
     2
 10
173.4312662695936
 20
136.9068764895518
 40
0.5
 50
180.0
 51
270.0000000000008
 73
     1
 72
     1
 10
173.4312662695936
 20
136.4068764895518
 11
205.4296792619172
 21
136.4068764895517
 72
     1
 10
205.4296792619172
 20
136.4068764895517
 11
205.2838940300639
 21
137.1568764895517
 72
     1
 10
205.2838940300639
 20
137.1568764895517
 11
174.9771199036804
 21
137.1568764895518
 72
     2
 10
174.9771199036804
 20
137.6568764895518
 40
0.5
 50
90.0
 51
180.0
 73
     0
 72
     1
 10
174.4771199036804
 20
137.6568764895518
 11
174.4771199036804
 21
143.5611831936135
 72
     4
 94
        3
 73
     1
 74
     0
 95
       13
 96
        9
 40
0.0
 40
0.0
 40
0.0
 40
0.0
 40
0.6460848806711934
 40
0.7276002509510494
 40
0.80542554148217
 40
0.8252349896358623
 40
0.9058852843342794
 40
1.0
 40
1.0
 40
1.0
 40
1.0
 10
174.4771199036804
 20
143.5611831936135
 42
1.0
 10
173.6180063718059
 20
144.2112708131546
 42
1.0
 10
173.2902784725543
 20
144.1930178268375
 42
1.0
 10
172.9882085044027
 20
145.3501075828643
 42
1.0
 10
173.0369362221074
 20
145.6409191672493
 42
1.0
 10
172.9197527852043
 20
145.7803699216728
 42
1.0
 10
171.9469488833828
 20
145.9505979529551
 42
1.0
 10
171.52443910314
 20
146.8787531444821
 42
1.0
 10
171.4771199036804
 20
147.1568764895518
 42
1.0
 72
     4
 94
        3
 73
     1
 74
     0
 95
       13
 96
        9
 40
0.0
 40
0.0
 40
0.0
 40
0.0
 40
0.0941147156657206
 40
0.1747650103641377
 40
0.19457445851783
 40
0.2723997490489506
 40
0.3539151193288066
 40
1.0
 40
1.0
 40
1.0
 40
1.0
 10
171.4771199036804
 20
147.1568764895518
 42
1.0
 10
171.4298007042208
 20
146.8787531444821
 42
1.0
 10
171.007290923978
 20
145.9505979529551
 42
1.0
 10
170.0344870221566
 20
145.7803699216728
 42
1.0
 10
169.9173035852534
 20
145.6409191672493
 42
1.0
 10
169.9660313029581
 20
145.3501075828643
 42
1.0
 10
169.6639613348065
 20
144.1930178268375
 42
1.0
 10
169.336233435555
 20
144.2112708131546
 42
1.0
 10
168.4771199036804
 20
143.5611831936135
 42
1.0
 72
     1
 10
168.4771199036804
 20
143.5611831936135
 11
168.4771199036804
 21
137.6568764895518
 72
     2
 10
167.9771199036804
 20
137.6568764895518
 40
0.5
 50
0.0
 51
90.0
 73
     0
 97
        0
 75
     0
 76
     1
 52
0.0
 41
1.0
 77
     0
 78
     1
 53
45.0
 43
0.0
 44
0.0
 45
-2.245064030267288
 46
2.245064030267288
 79
     0
 98
        1
 10
0.0
 20
0.0
  0
HATCH
  5
127
330
1F
100
AcDbEntity
  8
0
  6
Continuous
 62
     7
370
     0
100
AcDbHatch
 10
0.0
 20
0.0
 30
0.0
210
0.0
220
0.0
230
1.0
  2
ANSI31
 70
     0
 71
     0
 91
        1
 92
        0
 93
        4
 72
     1
 10
208.8313346718271
 20
118.9068764895517
 11
134.1229051355336
 21
118.9068764895519
 72
     1
 10
134.1229051355336
 20
118.9068764895519
 11
133.9771199036803
 21
118.1568764895519
 72
     1
 10
133.9771199036803
 20
118.1568764895519
 11
208.9771199036803
 21
118.1568764895517
 72
     1
 10
208.9771199036803
 20
118.1568764895517
 11
208.8313346718271
 21
118.9068764895517
 97
        0
 75
     0
 76
     1
 52
0.0
 41
1.0
 77
     0
 78
     1
 53
45.0
 43
0.0
 44
0.0
 45
-2.245064030267288
 46
2.245064030267288
 79
     0
 98
        1
 10
0.0
 20
0.0
  0
DIMENSION
  5
128
330
1F
100
AcDbEntity
  8
0
  6
Continuous
 62
     7
370
     0
100
AcDbDimension
  2
*D10
 10
208.9771199037
 20
118.1568764896
 30
0.0
 11
224.4466609043
 21
97.9452931754
 31
0.0
 70
   162
 71
     1
 42
-1.0
  3
SLDDIMSTYLE2
100
AcDb2LineAngularDimension
 13
208.9771199037
 23
109.3955219459
 33
0.0
 14
208.9771199037
 24
118.1568764896
 34
0.0
 15
210.9768960096
 25
107.8689202928
 35
0.0
 16
211.4166057572
 26
92.8218472295
 36
0.0
  0
DIMENSION
  5
134
330
1F
100
AcDbEntity
  8
0
  6
Continuous
 62
     7
370
     0
100
AcDbDimension
  2
*D11
 10
208.9771199037
 20
100.0638968545
 30
0.0
 11
171.4771199037
 21
100.0638968545
 31
0.0
 70
   160
 71
     2
 42
-1.0
  3
SLDDIMSTYLE3
100
AcDbAlignedDimension
 13
133.9771199037
 23
118.1568764896
 33
0.0
 14
208.9771199037
 24
118.1568764896
 34
0.0
 50
0.0
100
AcDbRotatedDimension
  0
DIMENSION
  5
147
330
1F
100
AcDbEntity
  8
0
  6
Continuous
 62
     7
370
     0
100
AcDbDimension
  2
*D12
 10
152.7990346057
 20
147.1568764896
 30
0.0
 11
152.7990346057
 21
142.1568764896
 31
0.0
 70
   160
  1
<> MAX  
 71
     2
 42
-1.0
  3
SLDDIMSTYLE4
100
AcDbAlignedDimension
 13
137.6703457773
 23
137.1568764896
 33
0.0
 14
171.4771199037
 24
147.1568764896
 34
0.0
 50
90.0
100
AcDbRotatedDimension
  0
DIMENSION
  5
15C
330
1F
100
AcDbEntity
  8
0
  6
Continuous
 62
     7
370
     0
100
AcDbDimension
  2
*D13
 10
234.8498834591
 20
118.1568764896
 30
0.0
 11
234.8498834591
 21
127.6568764896
 31
0.0
 70
   160
 71
     2
 42
-1.0
  3
SLDDIMSTYLE3
100
AcDbAlignedDimension
 13
205.2838940301
 23
137.1568764896
 33
0.0
 14
208.9771199037
 24
118.1568764896
 34
0.0
 50
90.0
100
AcDbRotatedDimension
  0
DIMENSION
  5
16E
330
1F
100
AcDbEntity
  8
0
  6
Continuous
 62
     7
370
     0
100
AcDbDimension
  2
*D14
 10
174.4771199037
 20
155.439338965
 30
0.0
 11
194.2664034969
 21
155.439338965
 31
0.0
 70
   160
  1
<> TYP
 71
     2
 42
-1.0
  3
SLDDIMSTYLE5
100
AcDbAlignedDimension
 13
168.4771199037
 23
143.5611831936
 33
0.0
 14
174.4771199037
 24
143.5611831936
 34
0.0
 50
0.0
100
AcDbRotatedDimension
  0
DIMENSION
  5
182
330
1F
100
AcDbEntity
  8
0
  6
Continuous
 62
     7
370
     0
100
AcDbDimension
  2
*D15
 10
218.9684164162
 20
136.4068764896
 30
0.0
 11
218.9684164162
 21
127.6568764896
 31
0.0
 70
   160
 71
     2
 42
-1.0
  3
SLDDIMSTYLE6
100
AcDbAlignedDimension
 13
208.8313346718
 23
118.9068764896
 33
0.0
 14
205.4296792619
 24
136.4068764896
 34
0.0
 50
90.0
100
AcDbRotatedDimension
  0
MTEXT
  5
195
330
1F
100
AcDbEntity
  8
0
  6
Continuous
 62
     7
370
     0
100
AcDbMText
 10
174.6508112469
 20
108.6156255741
 30
0.0
 40
2.286
 41
0.0
 71
     1
 72
     1
  1
SECTION A-A
  7
SLDTEXTSTYLE0
 73
     1
 44
1.0
  0
INSERT
  5
19E
102
{ACAD_REACTORS
330
19F
102
}
330
1F
100
AcDbEntity
  8
0
  6
Continuous
 62
     7
370
     0
100
AcDbBlockReference
  2
SW_NOTE_8
 10
117.4151103476
 20
127.0378280259
 30
0.0
  0
LEADER
  5
19F
330
1F
100
AcDbEntity
  8
0
  6
Continuous
 62
     7
370
     0
100
AcDbLeader
  3
SLDDIMSTYLE1
 73
     2
 76
     3
 10
131.1791559732
 20
119.1516257391
 30
0.0
 10
123.7651103476
 20
127.0378280259
 30
0.0
 10
117.4151103476
 20
127.0378280259
 30
0.0
340
19E
  0
LINE
  5
1A0
330
1F
100
AcDbEntity
  8
0
  6
Continuous
 62
     7
370
     0
100
AcDbLine
 10
199.8299077063
 20
186.3023674815
 30
0.0
 11
201.8060257454
 21
184.6347495728
 31
0.0
  0
LINE
  5
1A1
330
1F
100
AcDbEntity
  8
0
  6
Continuous
 62
     7
370
     0
100
AcDbLine
 10
215.02599769
 20
200.9568702024
 30
0.0
 11
213.3734702937
 21
202.3514145697
 31
0.0
  0
LINE
  5
1A2
330
1F
100
AcDbEntity
  8
0
  6
Continuous
 62
     7
370
     0
100
AcDbLine
 10
263.9300233032
 20
173.0575928748
 30
0.0
 11
262.3178749695
 21
173.5584706703
 31
0.0
  0
LINE
  5
1A3
330
1F
100
AcDbEntity
  8
0
  6
Continuous
 62
     7
370
     0
100
AcDbLine
 10
255.6828353814
 20
153.6297093007
 30
0.0
 11
257.6993324829
 21
153.0032045296
 31
0.0
  0
LINE
  5
1A4
330
1F
100
AcDbEntity
  8
0
  6
Continuous
 62
     7
370
     0
100
AcDbLine
 10
261.2205486993
 20
173.7654524535
 30
0.0
 11
236.7081834466
 21
187.9161397081
 31
0.0
  0
LINE
  5
1A5
330
1F
100
AcDbEntity
  8
0
  6
Continuous
 62
     7
370
     0
100
AcDbLine
 10
230.7081834466
 20
191.3798659806
 30
0.0
 11
214.1704271589
 21
200.9269094709
 31
0.0
  0
LINE
  5
1A6
330
1F
100
AcDbEntity
  8
0
  6
Continuous
 62
     7
370
     0
100
AcDbLine
 10
202.8244362049
 20
185.5380946692
 30
0.0
 11
252.2101302635
 21
157.0283403364
 31
0.0
  0
SPLINE
  5
1A7
330
1F
100
AcDbEntity
  8
0
  6
Continuous
 62
     7
370
     0
100
AcDbSpline
210
0.0
220
0.0
230
1.0
 70
     8
 71
     3
 72
    34
 73
    30
 74
     0
 42
0.00000001
 43
0.00000001
 40
0.0
 40
0.0
 40
0.0
 40
0.0
 40
0.030357488274699
 40
0.0598887099300252
 40
0.1087342396802402
 40
0.159313226082455
 40
0.2132326267839529
 40
0.2688706685656813
 40
0.3252280191846836
 40
0.3811024687924547
 40
0.4348021928244987
 40
0.4831557512417879
 40
0.5301576737577909
 40
0.5782612702503505
 40
0.6181008959201904
 40
0.6463891636197158
 40
0.6592849190111499
 40
0.6685884297557481
 40
0.6780293607584253
 40
0.6885269091536332
 40
0.7038053715268106
 40
0.7284729595482204
 40
0.7749094214604197
 40
0.8186030931679784
 40
0.8581304392638897
 40
0.8941344496418822
 40
0.9425553302616596
 40
0.9904240123806551
 40
1.0
 40
1.0
 40
1.0
 40
1.0
 10
233.5645601903098
 20
194.2793424454712
 30
0.0
 10
233.5295187734564
 20
194.2782052031426
 30
0.0
 10
233.4603896929975
 20
194.275961671816
 30
0.0
 10
233.3374428266103
 20
194.2600068311743
 30
0.0
 10
233.1941594570854
 20
194.2355859309723
 30
0.0
 10
233.0305664442988
 20
194.1944151410001
 30
0.0
 10
232.869234508799
 20
194.1398078576431
 30
0.0
 10
232.7150340228439
 20
194.0710222538223
 30
0.0
 10
232.5748996375208
 20
193.989834946675
 30
0.0
 10
232.4543198436138
 20
193.8990733096436
 30
0.0
 10
232.3579444885143
 20
193.8038104437925
 30
0.0
 10
232.2837783605902
 20
193.7059406293573
 30
0.0
 10
232.2273614520439
 20
193.6023361122032
 30
0.0
 10
232.1903842703113
 20
193.4958410494432
 30
0.0
 10
232.1721147074976
 20
193.3926987220993
 30
0.0
 10
232.1678898580697
 20
193.3080975651116
 30
0.0
 10
232.168826066591
 20
193.2489269962566
 30
0.0
 10
232.1701809446602
 20
193.2130357391243
 30
0.0
 10
232.1713117381776
 20
193.1862465493004
 30
0.0
 10
232.1719421193094
 20
193.1654380516878
 30
0.0
 10
232.1718443692767
 20
193.1528169252693
 30
0.0
 10
232.1716491557243
 20
193.1509845345968
 30
0.0
 10
232.1690512794897
 20
193.1314896268873
 30
0.0
 10
232.1610578225294
 20
193.1006044849135
 30
0.0
 10
232.1351322176161
 20
193.0296450316709
 30
0.0
 10
232.1065940963854
 20
192.9620417882327
 30
0.0
 10
232.0839856300207
 20
192.9162510708178
 30
0.0
 10
232.0702149090325
 20
192.896158287915
 30
0.0
 10
232.0738902663201
 20
192.9008301555939
 30
0.0
 10
232.0745029458958
 20
192.9016089527784
 30
0.0
  0
SPLINE
  5
1A8
330
1F
100
AcDbEntity
  8
0
  6
Continuous
 62
     7
370
     0
100
AcDbSpline
210
0.0
220
0.0
230
1.0
 70
     8
 71
     3
 72
    32
 73
    28
 74
     0
 42
0.00000001
 43
0.00000001
 40
0.0
 40
0.0
 40
0.0
 40
0.0
 40
0.0293319772363247
 40
0.0773076684129765
 40
0.1274591287134769
 40
0.1678381452723677
 40
0.2083359709782728
 40
0.2594886596878866
 40
0.295376812537628
 40
0.3128273433194979
 40
0.3238359059583151
 40
0.3327369178204858
 40
0.3425815425085019
 40
0.3547675859762774
 40
0.3749569592250733
 40
0.4184398746841282
 40
0.47344787887114
 40
0.5245329385351623
 40
0.5814488748092458
 40
0.6402929012439588
 40
0.7025313021546019
 40
0.7651420007276454
 40
0.8265443240030577
 40
0.883486187355288
 40
0.9293674136229311
 40
0.9708458520294898
 40
1.0
 40
1.0
 40
1.0
 40
1.0
 10
235.3412482120065
 20
192.9028330048115
 30
0.0
 10
235.3416048258259
 20
192.9022737608161
 30
0.0
 10
235.3425447209678
 20
192.9007998114464
 30
0.0
 10
235.3230709522189
 20
192.9339077011324
 30
0.0
 10
235.295566692772
 20
192.993671066827
 30
0.0
 10
235.2621907846813
 20
193.0803440539698
 30
0.0
 10
235.2489243955074
 20
193.1233040403878
 30
0.0
 10
235.2449176823866
 20
193.148627260944
 30
0.0
 10
235.2445435083877
 20
193.1505270642794
 30
0.0
 10
235.2444043264838
 20
193.1659164833095
 30
0.0
 10
235.2452096671484
 20
193.1901653735836
 30
0.0
 10
235.2464351675068
 20
193.2189807220274
 30
0.0
 10
235.2476992029784
 20
193.2547707524148
 30
0.0
 10
235.2482374169553
 20
193.3038072486054
 30
0.0
 10
235.2450251850951
 20
193.384275304665
 30
0.0
 10
235.2279553982393
 20
193.4915301123185
 30
0.0
 10
235.186707486078
 20
193.6093117758486
 30
0.0
 10
235.1201937743014
 20
193.725907590277
 30
0.0
 10
235.0326456822121
 20
193.8330134277351
 30
0.0
 10
234.9163611850637
 20
193.9371510538836
 30
0.0
 10
234.7734935106943
 20
194.0326851652749
 30
0.0
 10
234.6074980210809
 20
194.1158219577515
 30
0.0
 10
234.4290280106108
 20
194.181890035936
 30
0.0
 10
234.2552655548504
 20
194.228498073303
 30
0.0
 10
234.0957647669658
 20
194.2576972689591
 30
0.0
 10
233.9640596130396
 20
194.2758764902727
 30
0.0
 10
233.882470880816
 20
194.2785724717976
 30
0.0
 10
233.8487944986533
 20
194.2796852590866
 30
0.0
  0
SPLINE
  5
1A9
330
1F
100
AcDbEntity
  8
0
  6
Continuous
 62
     7
370
     0
100
AcDbSpline
210
0.0
220
0.0
230
1.0
 70
     8
 71
     3
 72
    14
 73
    10
 74
     0
 42
0.00000001
 43
0.00000001
 40
0.0
 40
0.0
 40
0.0
 40
0.0
 40
0.0946323918628904
 40
0.3090207571451167
 40
0.517837066261253
 40
0.6843217402872868
 40
0.8172678828871998
 40
0.9269009183270482
 40
1.0
 40
1.0
 40
1.0
 40
1.0
 10
233.7081834465541
 20
194.6011906956704
 30
0.0
 10
233.7011512381367
 20
194.5738811330257
 30
0.0
 10
233.6781876595272
 20
194.4847021367048
 30
0.0
 10
233.6140342636464
 20
194.349840476285
 30
0.0
 10
233.5285278694394
 20
194.216003403451
 30
0.0
 10
233.4490369752106
 20
194.1222951445656
 30
0.0
 10
233.3916658916781
 20
194.0682540265417
 30
0.0
 10
233.3562006130841
 20
194.0426052042385
 30
0.0
 10
233.3546941235547
 20
194.0418396888819
 30
0.0
 10
233.3540914763414
 20
194.0415334566199
 30
0.0
  0
SPLINE
  5
1AA
330
1F
100
AcDbEntity
  8
0
  6
Continuous
 62
     7
370
     0
100
AcDbSpline
210
0.0
220
0.0
230
1.0
 70
     8
 71
     3
 72
    15
 73
    11
 74
     0
 42
0.00000001
 43
0.00000001
 40
0.0
 40
0.0
 40
0.0
 40
0.0
 40
0.0561618349299361
 40
0.1529041959789313
 40
0.2676104439993962
 40
0.4072495609394777
 40
0.5767560136858528
 40
0.7725916727813562
 40
0.9602543804862443
 40
1.0
 40
1.0
 40
1.0
 40
1.0
 10
234.0622012493049
 20
194.0415235056019
 30
0.0
 10
234.0622677092501
 20
194.0414637258291
 30
0.0
 10
234.0624486507115
 20
194.0413009715652
 30
0.0
 10
234.0359080649268
 20
194.0595362224156
 30
0.0
 10
233.9900674440435
 20
194.0998744480877
 30
0.0
 10
233.9248957987411
 20
194.170120267779
 30
0.0
 10
233.8478750724003
 20
194.2744819419906
 30
0.0
 10
233.7725688313273
 20
194.4084618893956
 30
0.0
 10
233.7262040499419
 20
194.5233594404062
 30
0.0
 10
233.7108644477312
 20
194.5896114115316
 30
0.0
 10
233.7081834465541
 20
194.6011906956704
 30
0.0
  0
LINE
  5
1AB
330
1F
100
AcDbEntity
  8
0
  6
Continuous
 62
     7
370
     0
100
AcDbLine
 10
236.7081834466
 20
186.5898052458
 30
0.0
 11
236.7081834466
 21
191.6651603725
 31
0.0
  0
LINE
  5
1AC
330
1F
100
AcDbEntity
  8
0
  6
Continuous
 62
     7
370
     0
100
AcDbLine
 10
230.7081834466
 20
191.6651603725
 30
0.0
 11
230.7081834466
 21
186.5897897283
 31
0.0
  0
ELLIPSE
  5
1AD
330
1F
100
AcDbEntity
  8
0
  6
Continuous
 62
     7
370
     0
100
AcDbEllipse
 10
208.4160117177
 20
192.7958098876
 30
0.0
 11
6.566881854542771
 21
8.196505362319954
 31
0.0
210
0.0
220
0.0
230
1.0
 40
0.4566654654
 41
6.045475063754878
 42
10.00489546666734
  0
LWPOLYLINE
  5
1AE
330
1F
100
AcDbEntity
  8
0
  6
Continuous
 62
     7
370
     0
100
AcDbPolyline
 90
       50
 70
   128
 43
0.0
 10
213.3734702937
 20
202.3514145697
 10
213.1359331847
 20
202.5233807126
 10
212.8691573095
 20
202.6622855792
 10
212.5759883851
 20
202.7660891152
 10
212.2576609805
 20
202.8343541914
 10
211.9155156101
 20
202.8667933357
 10
211.5509930883
 20
202.8632699429
 10
211.1656284626
 20
202.8237988505
 10
210.7610445489
 20
202.7485462759
 10
210.3389450978
 20
202.6378291167
 10
209.90110762
 20
202.4921136157
 10
209.4493759007
 20
202.3120133982
 10
208.9856522357
 20
202.0982868875
 10
208.51188942
 20
201.8518341112
 10
208.0300825247
 20
201.573692911
 10
207.5422604957
 20
201.2650345723
 10
207.050477609
 20
200.9271588919
 10
206.5568048205
 20
200.5614887041
 10
206.0633210446
 20
200.1695638892
 10
205.5721043997
 20
199.7530348891
 10
205.0852234571
 20
199.3136557564
 10
204.60472853
 20
198.8532767685
 10
204.1326430393
 20
198.3738366358
 10
203.6709549926
 20
197.8773543373
 10
203.2216086129
 20
197.3659206185
 10
202.7864961509
 20
196.8416891873
 10
202.3674499164
 20
196.306867644
 10
201.9662345627
 20
195.7637081854
 10
201.5845396551
 20
195.21449812
 10
201.2239725557
 20
194.6615502364
 10
200.8860516553
 20
194.1071930633
 10
200.5721999787
 20
193.5537610643
 10
200.2837391924
 20
193.0035848069
 10
200.0218840387
 20
192.4589811482
 10
199.7877372206
 20
191.9222434785
 10
199.5822847582
 20
191.3956320636
 10
199.4063918358
 20
190.8813645264
 10
199.2607991595
 20
190.3816065081
 10
199.1461198371
 20
189.8984625487
 10
199.0628367968
 20
189.4339672246
 10
199.0113007534
 20
188.9900765804
 10
198.9917287311
 20
188.568659892
 10
199.0042031502
 20
188.1714917949
 10
199.0486714793
 20
187.8002448107
 10
199.1249464571
 20
187.4564823045
 10
199.2327068805
 20
187.1416519007
 10
199.3714989579
 20
186.8570793872
 10
199.5407382193
 20
186.6039631327
 10
199.7397119781
 20
186.3833690394
 10
199.8299077063
 20
186.3023674815
  0
ELLIPSE
  5
1AF
330
1F
100
AcDbEntity
  8
0
  6
Continuous
 62
     7
370
     0
100
AcDbEllipse
 10
259.0003551754
 20
163.5940899855
 30
0.0
 11
3.487558399777924
 21
9.908062257305886
 31
0.0
210
0.0
220
0.0
230
1.0
 40
0.676829649
 41
0.0251935523592733
 42
3.1667862059491
  0
LWPOLYLINE
  5
1B0
330
1F
100
AcDbEntity
  8
0
  6
Continuous
 62
     7
370
     0
100
AcDbPolyline
 90
       92
 70
   128
 43
0.0
 10
261.0644809902
 20
153.0743413111
 10
260.570634134
 20
152.935442157
 10
260.077814975
 20
152.8390540569
 10
259.5880988326
 20
152.7855829125
 10
259.1035479596
 20
152.7752538972
 10
258.6262028567
 20
152.8081105076
 10
258.1580736807
 20
152.8840143806
 10
257.7011317787
 20
153.0026458762
 10
257.257301387
 20
153.163505423
 10
256.8284515279
 20
153.3659156225
 10
256.4163881387
 20
153.6090241014
 10
256.022846467
 20
153.8918071013
 10
255.6494837633
 20
154.2130737896
 10
255.297872302
 20
154.5714712742
 10
254.9694927604
 20
154.9654903011
 10
254.6657279837
 20
155.3934716096
 10
254.3878571611
 20
155.8536129198
 10
254.1370504395
 20
156.3439765225
 10
253.9143639957
 20
156.8624974384
 10
253.7207355885
 20
157.406992115
 10
253.5569806099
 20
157.9751676207
 10
253.4237886517
 20
158.5646313014
 10
253.3217206008
 20
159.172900856
 10
253.2512062778
 20
159.7974147895
 10
253.2125426269
 20
160.4355432
 10
253.2058924654
 20
161.0845988535
 10
253.2312837977
 20
161.7418484998
 10
253.288609698
 20
162.4045243833
 10
253.3776287602
 20
163.0698358974
 10
253.4979661144
 20
163.7349813368
 10
253.649115006
 20
164.3971596955
 10
253.830438929
 20
165.0535824623
 10
254.0411743069
 20
165.7014853634
 10
254.2804337084
 20
166.3381400032
 10
254.5472095836
 20
166.9608653537
 10
254.840378508
 20
167.5670390451
 10
255.1587059126
 20
168.1541084083
 10
255.500851283
 20
168.7196012248
 10
255.8653738048
 20
169.2611361378
 10
256.2507384305
 20
169.7764326797
 10
256.6553223442
 20
170.2633208759
 10
257.0774217953
 20
170.7197503827
 10
257.5152592731
 20
171.1437991217
 10
257.9669909924
 20
171.5336813734
 10
258.4307146574
 20
171.8877552977
 10
258.9044774731
 20
172.2045298475
 10
259.3862843684
 20
172.4826710477
 10
259.8741063974
 20
172.721007613
 10
260.3658892841
 20
172.9185358798
 10
260.8595620726
 20
173.0744240333
 10
261.3530458485
 20
173.1880156102
 10
261.8442624934
 20
173.2588322628
 10
262.331143436
 20
173.2865757738
 10
262.8116383631
 20
173.2711293122
 10
263.2837238538
 20
173.2125579247
 10
263.7454119005
 20
173.1111082624
 10
264.1947582802
 20
172.9672075417
 10
264.6298707422
 20
172.7814617457
 10
265.0489169767
 20
172.5546530718
 10
265.4501323304
 20
172.2877366381
 10
265.8318272381
 20
171.9818364612
 10
266.1923943374
 20
171.6382407228
 10
266.5303152378
 20
171.2583963453
 10
266.8441669144
 20
170.8439028982
 10
267.1326277008
 20
170.3965058622
 10
267.3944828544
 20
169.9180892791
 10
267.6286296725
 20
169.4106678178
 10
267.8340821349
 20
168.8763782898
 10
268.0099750573
 20
168.3174706514
 10
268.1555677336
 20
167.7362985287
 10
268.270247056
 20
167.1353093062
 10
268.3535300963
 20
166.5170338204
 10
268.4050661397
 20
165.8840757024
 10
268.424638162
 20
165.2391004136
 10
268.4121637429
 20
164.5848240211
 10
268.3676954138
 20
163.92400176
 10
268.291420436
 20
163.259416431
 10
268.1836600126
 20
162.5938666812
 10
268.0448679352
 20
161.9301552193
 10
267.8756286739
 20
161.2710770126
 10
267.676654915
 20
160.6194075173
 10
267.4487845606
 20
159.9778909906
 10
267.1929771996
 20
159.3492289343
 10
266.9103100671
 20
158.7360687186
 10
266.6019735077
 20
158.1409924336
 10
266.2692659632
 20
157.5665060157
 10
265.9135885041
 20
157.015028695
 10
265.5364389304
 20
156.4888828078
 10
265.1394054634
 20
155.9902840165
 10
264.7241600579
 20
155.5213319794
 10
264.2924513614
 20
155.084001509
 10
263.8460973502
 20
154.6801342555
  0
LINE
  5
1B1
330
1F
100
AcDbEntity
  8
0
  6
Continuous
 62
     7
370
     0
100
AcDbLine
 10
261.0644809902
 20
153.0743413111
 30
0.0
 11
263.8460973502
 21
154.6801342555
 31
0.0
  0
ELLIPSE
  5
1B2
330
1F
100
AcDbEntity
  8
0
  6
Continuous
 62
     7
370
     0
100
AcDbEllipse
 10
208.4974316819
 20
193.2325020701
 30
0.0
 11
5.910283152942071
 21
7.534119348077638
 31
0.0
210
0.0
220
0.0
230
1.0
 40
0.4578406944
 41
0.850513347930215
 42
3.206789102184694
  0
ELLIPSE
  5
1B3
330
1F
100
AcDbEntity
  8
0
  6
Continuous
 62
     7
370
     0
100
AcDbEllipse
 10
208.4974316819
 20
193.2325020701
 30
0.0
 11
5.910283152942071
 21
7.534119348077638
 31
0.0
210
0.0
220
0.0
230
1.0
 40
0.4578406944
 41
0.0651964485948669
 42
0.8505133479302456
  0
LWPOLYLINE
  5
1B4
330
1F
100
AcDbEntity
  8
0
  6
Continuous
 62
     7
370
     0
100
AcDbPolyline
 90
       29
 70
   128
 43
0.0
 10
235.8295037901
 20
190.4405482048
 10
235.5527398321
 20
190.2993396448
 10
235.2480142795
 20
190.1788355349
 10
234.9199464612
 20
190.0808625944
 10
234.5735095507
 20
190.0069059933
 10
234.2139551785
 20
189.9580868382
 10
233.8467338225
 20
189.9351451779
 10
233.477412184
 20
189.9384287844
 10
233.1115888026
 20
189.9678878816
 10
232.7548091878
 20
190.0230758997
 10
232.412481755
 20
190.1031562446
 10
232.0897958391
 20
190.2069149798
 10
231.7916430296
 20
190.3327792287
 10
231.5225430192
 20
190.4788410176
 10
231.2865750898
 20
190.6428861987
 10
231.0873162746
 20
190.8224280141
 10
230.9277871342
 20
191.0147447931
 10
230.8104059677
 20
191.2169212093
 10
230.7369521539
 20
191.4258924743
 10
230.7085391779
 20
191.6384907968
 10
230.7255977512
 20
191.8514934028
 10
230.7878692835
 20
192.06167139
 10
230.8944098016
 20
192.2658386744
 10
231.04360426
 20
192.460900288
 10
231.2331910228
 20
192.6438992956
 10
231.4602961478
 20
192.8120616188
 10
231.7214769529
 20
192.9628380882
 10
232.0127742033
 20
193.0939430863
 10
232.1714201558
 20
193.1525428728
  0
LWPOLYLINE
  5
1B5
330
1F
100
AcDbEntity
  8
0
  6
Continuous
 62
     7
370
     0
100
AcDbPolyline
 90
       16
 70
   128
 43
0.0
 10
235.2585671716
 20
193.1478247461
 10
235.4790061273
 20
193.0631251204
 10
235.7631715055
 20
192.9269037343
 10
236.0161853595
 20
192.7715556049
 10
236.2342122572
 20
192.5994356517
 10
236.4139471329
 20
192.4131530376
 10
236.5526653893
 20
192.2155316171
 10
236.648264199
 20
192.0095671296
 10
236.6992943814
 20
191.7983817867
 10
236.704982371
 20
191.585176943
 10
236.6652419436
 20
191.3731845665
 10
236.5806755237
 20
191.1656182456
 10
236.452565052
 20
190.9656244742
 10
236.2828525526
 20
190.7762349539
 10
236.0741106941
 20
190.6003206369
 10
235.8295037901
 20
190.4405482048
  0
SPLINE
  5
1B6
330
1F
100
AcDbEntity
  8
0
  6
Continuous
 62
     7
370
     0
100
AcDbSpline
210
0.0
220
0.0
230
1.0
 70
     8
 71
     3
 72
    26
 73
    22
 74
     0
 42
0.00000001
 43
0.00000001
 40
0.0
 40
0.0
 40
0.0
 40
0.0
 40
0.0038936303995646
 40
0.0579989725135457
 40
0.1121177051459427
 40
0.1667194061006077
 40
0.221342880308592
 40
0.2794890549756109
 40
0.3376463789847541
 40
0.3985466275505731
 40
0.4594393260083737
 40
0.5185412859000522
 40
0.5776399821185845
 40
0.6335705807491039
 40
0.6895077509181554
 40
0.7457944326687452
 40
0.8020813046849786
 40
0.8607151122081228
 40
0.9193281383059864
 40
0.9777837850432411
 40
1.0
 40
1.0
 40
1.0
 40
1.0
 10
236.1830571807071
 20
185.0070683811232
 30
0.0
 10
236.1739403969565
 20
185.0018329823952
 30
0.0
 10
236.0381380644544
 20
184.9238472169884
 30
0.0
 10
235.750080426856
 20
184.7777459774926
 30
0.0
 10
235.2838935031797
 20
184.5859173549176
 30
0.0
 10
234.7797245667954
 20
184.4220933308333
 30
0.0
 10
234.2422753858226
 20
184.2903423935511
 30
0.0
 10
233.6846705569453
 20
184.202350010636
 30
0.0
 10
233.111873890974
 20
184.1666048434934
 30
0.0
 10
232.5496607778684
 20
184.1972432840489
 30
0.0
 10
232.0183165396319
 20
184.2992822534814
 30
0.0
 10
231.5413761598766
 20
184.4756908552126
 30
0.0
 10
231.1356916073929
 20
184.7134632604851
 30
0.0
 10
230.8064895936343
 20
185.0068985208836
 30
0.0
 10
230.5542014295358
 20
185.3404981226682
 30
0.0
 10
230.3817556052139
 20
185.7101430059265
 30
0.0
 10
230.2907097296178
 20
186.1062908198111
 30
0.0
 10
230.2900217940581
 20
186.5158405167132
 30
0.0
 10
230.3907322450934
 20
186.9174758775688
 30
0.0
 10
230.5325237766919
 20
187.2231827760757
 30
0.0
 10
230.6702539496491
 20
187.37115228473
 30
0.0
 10
230.7081834465541
 20
187.4119015911458
 30
0.0
  0
SPLINE
  5
1B7
330
1F
100
AcDbEntity
  8
0
  6
Continuous
 62
     7
370
     0
100
AcDbSpline
210
0.0
220
0.0
230
1.0
 70
     8
 71
     3
 72
    15
 73
    11
 74
     0
 42
0.00000001
 43
0.00000001
 40
0.0
 40
0.0
 40
0.0
 40
0.0
 40
0.0778469902742509
 40
0.206484658751809
 40
0.3395613277763835
 40
0.472615827196239
 40
0.6091701521000553
 40
0.7456564164947409
 40
0.8728439863527785
 40
1.0
 40
1.0
 40
1.0
 40
1.0
 10
236.7081834465541
 20
186.835170885623
 30
0.0
 10
236.7601522145834
 20
186.7881496738652
 30
0.0
 10
236.8979963790715
 20
186.6634286174737
 30
0.0
 10
237.0384563610731
 20
186.4575071389983
 30
0.0
 10
237.1274029522446
 20
186.2179867950834
 30
0.0
 10
237.1239167860132
 20
185.9722850229217
 30
0.0
 10
237.0230545655132
 20
185.7221560528597
 30
0.0
 10
236.8266326479417
 20
185.4746249905225
 30
0.0
 10
236.5485296244441
 20
185.2331514296335
 30
0.0
 10
236.3048712517844
 20
185.0824231637137
 30
0.0
 10
236.1830571807071
 20
185.0070683811232
 30
0.0
  0
SPLINE
  5
1B8
330
1F
100
AcDbEntity
  8
0
  6
Continuous
 62
     7
370
     0
100
AcDbSpline
210
0.0
220
0.0
230
1.0
 70
     8
 71
     3
 72
    12
 73
     8
 74
     0
 42
0.00000001
 43
0.00000001
 40
0.0
 40
0.0
 40
0.0
 40
0.0
 40
0.2030543553118503
 40
0.4124607201578177
 40
0.628870760685951
 40
0.8520440301307254
 40
1.0
 40
1.0
 40
1.0
 40
1.0
 10
235.8295037901138
 20
185.6194408150217
 30
0.0
 10
235.9381137975257
 20
185.6857916260857
 30
0.0
 10
236.1587313844014
 20
185.8205688549339
 30
0.0
 10
236.4129946393422
 20
186.0282213586754
 30
0.0
 10
236.5979960797391
 20
186.2390959668994
 30
0.0
 10
236.6978364580876
 20
186.4266229498685
 30
0.0
 10
236.6994424677502
 20
186.5434065601393
 30
0.0
 10
236.7000827264312
 20
186.5899640136949
 30
0.0
  0
SPLINE
  5
1B9
330
1F
100
AcDbEntity
  8
0
  6
Continuous
 62
     7
370
     0
100
AcDbSpline
210
0.0
220
0.0
230
1.0
 70
     8
 71
     3
 72
    22
 73
    18
 74
     0
 42
0.00000001
 43
0.00000001
 40
0.0
 40
0.0
 40
0.0
 40
0.0
 40
0.0248830799362721
 40
0.0922614512464433
 40
0.1613544034891583
 40
0.227224067762235
 40
0.2949614714946601
 40
0.3640890787207632
 40
0.4355548065193885
 40
0.5076375625671836
 40
0.5820539114606473
 40
0.6522884601372985
 40
0.7244175996266796
 40
0.7913058740920652
 40
0.859938360777284
 40
0.928866593151064
 40
1.0
 40
1.0
 40
1.0
 40
1.0
 10
230.717991369211
 20
186.5896348513074
 30
0.0
 10
230.7152747069505
 20
186.5462704767239
 30
0.0
 10
230.7052018701737
 20
186.3854841053539
 30
0.0
 10
230.7692369773438
 20
186.1055729042952
 30
0.0
 10
230.9036291627056
 20
185.7728450549741
 30
0.0
 10
231.1155701612727
 20
185.471157150776
 30
0.0
 10
231.3934158602985
 20
185.2134938332869
 30
0.0
 10
231.7426394181037
 20
185.0064970897442
 30
0.0
 10
232.1537947041349
 20
184.8629911537728
 30
0.0
 10
232.6176187070971
 20
184.7879285812584
 30
0.0
 10
233.1070873110005
 20
184.7815533469838
 30
0.0
 10
233.6107840676493
 20
184.8342771935337
 30
0.0
 10
234.0995244736459
 20
184.9328337229243
 30
0.0
 10
234.5760653418188
 20
185.068117782324
 30
0.0
 10
235.0253834343104
 20
185.2298512355835
 30
0.0
 10
235.4562174173194
 20
185.4158105262044
 30
0.0
 10
235.7037757869193
 20
185.5508553228398
 30
0.0
 10
235.8295037901138
 20
185.6194408150217
 30
0.0
  0
ENDSEC
  0
SECTION
  2
OBJECTS
  0
DICTIONARY
  5
C
330
0
100
AcDbDictionary
281
     1
  3
ACAD_GROUP
350
D
  3
ACAD_LAYOUT
350
1A
  3
ACAD_MLEADERSTYLE
350
1BB
  3
ACAD_MLINESTYLE
350
17
  3
ACAD_PLOTSETTINGS
350
19
  3
ACAD_PLOTSTYLENAME
350
E
  3
ACAD_TABLESTYLE
350
1BA
  3
ACAD_VISUALSTYLE
350
2A
  3
AcDbVariableDictionary
350
1BC
  0
DICTIONARY
  5
D
102
{ACAD_REACTORS
330
C
102
}
330
C
100
AcDbDictionary
281
     1
  0
DICTIONARY
  5
1A
102
{ACAD_REACTORS
330
C
102
}
330
C
100
AcDbDictionary
281
     1
  3
Layout1
350
1E
  3
Layout2
350
26
  3
Model
350
22
  0
DICTIONARY
  5
1BB
102
{ACAD_REACTORS
330
C
102
}
330
C
100
AcDbDictionary
281
     1
  0
DICTIONARY
  5
17
102
{ACAD_REACTORS
330
C
102
}
330
C
100
AcDbDictionary
281
     1
  3
Standard
350
18
  0
DICTIONARY
  5
19
102
{ACAD_REACTORS
330
C
102
}
330
C
100
AcDbDictionary
281
     1
  0
ACDBDICTIONARYWDFLT
  5
E
102
{ACAD_REACTORS
330
C
102
}
330
C
100
AcDbDictionary
281
     1
  3
Normal
350
F
100
AcDbDictionaryWithDefault
340
F
  0
DICTIONARY
  5
1BA
102
{ACAD_REACTORS
330
C
102
}
330
C
100
AcDbDictionary
281
     1
  0
DICTIONARY
  5
2A
102
{ACAD_REACTORS
330
C
102
}
330
C
100
AcDbDictionary
281
     1
  3
2dWireframe
350
2F
  3
3D Hidden
350
31
  3
3dWireframe
350
30
  3
Basic
350
32
  3
Brighten
350
36
  3
ColorChange
350
3A
  3
Conceptual
350
34
  3
Dim
350
35
  3
Facepattern
350
39
  3
Flat
350
2B
  3
FlatWithEdges
350
2C
  3
Gouraud
350
2D
  3
GouraudWithEdges
350
2E
  3
Linepattern
350
38
  3
Realistic
350
33
  3
Thicken
350
37
  0
DICTIONARY
  5
1BC
102
{ACAD_REACTORS
330
C
102
}
330
C
100
AcDbDictionary
281
     1
  3
PSOLHEIGHT
350
1BE
  3
PSOLWIDTH
350
1BD
  0
LAYOUT
  5
1E
102
{ACAD_REACTORS
330
1A
102
}
330
1A
100
AcDbPlotSettings
  1

  2
none_device
  4

  6

 40
0.0
 41
0.0
 42
0.0
 43
0.0
 44
0.0
 45
0.0
 46
0.0
 47
0.0
 48
0.0
 49
0.0
140
0.0
141
0.0
142
1.0
143
1.0
 70
   688
 72
     0
 73
     0
 74
     5
  7

 75
    16
147
1.0
148
0.0
149
0.0
100
AcDbLayout
  1
Layout1
 70
     1
 71
     1
 10
0.0
 20
0.0
 11
420.0
 21
297.0
 12
0.0
 22
0.0
 32
0.0
 14
1.0000000000E+20
 24
1.0000000000E+20
 34
1.0000000000E+20
 15
-1.0000000000E+20
 25
-1.0000000000E+20
 35
-1.0000000000E+20
146
0.0
 13
0.0
 23
0.0
 33
0.0
 16
1.0
 26
0.0
 36
0.0
 17
0.0
 27
1.0
 37
0.0
 76
     0
330
1B
  0
LAYOUT
  5
26
102
{ACAD_REACTORS
330
1A
102
}
330
1A
100
AcDbPlotSettings
  1

  2
none_device
  4

  6

 40
0.0
 41
0.0
 42
0.0
 43
0.0
 44
0.0
 45
0.0
 46
0.0
 47
0.0
 48
0.0
 49
0.0
140
0.0
141
0.0
142
1.0
143
1.0
 70
   688
 72
     0
 73
     0
 74
     5
  7

 75
    16
147
1.0
148
0.0
149
0.0
100
AcDbLayout
  1
Layout2
 70
     1
 71
     2
 10
0.0
 20
0.0
 11
0.0
 21
0.0
 12
0.0
 22
0.0
 32
0.0
 14
0.0
 24
0.0
 34
0.0
 15
0.0
 25
0.0
 35
0.0
146
0.0
 13
0.0
 23
0.0
 33
0.0
 16
1.0
 26
0.0
 36
0.0
 17
0.0
 27
1.0
 37
0.0
 76
     0
330
23
  0
LAYOUT
  5
22
102
{ACAD_REACTORS
330
1A
102
}
330
1A
100
AcDbPlotSettings
  1

  2
none_device
  4

  6

 40
0.0
 41
0.0
 42
0.0
 43
0.0
 44
0.0
 45
0.0
 46
0.0
 47
0.0
 48
0.0
 49
0.0
140
0.0
141
0.0
142
1.0
143
1.0
 70
  1712
 72
     0
 73
     0
 74
     0
  7

 75
     0
147
1.0
148
0.0
149
0.0
100
AcDbLayout
  1
Model
 70
     1
 71
     0
 10
0.0
 20
0.0
 11
279.4
 21
215.9
 12
0.0
 22
0.0
 32
0.0
 14
0.0
 24
0.0
 34
0.0
 15
279.4
 25
215.9
 35
0.0
146
0.0
 13
0.0
 23
0.0
 33
0.0
 16
1.0
 26
0.0
 36
0.0
 17
0.0
 27
1.0
 37
0.0
 76
     0
330
1F
331
29
  0
MLINESTYLE
  5
18
102
{ACAD_REACTORS
330
17
102
}
330
17
100
AcDbMlineStyle
  2
Standard
 70
     0
  3

 62
   256
 51
90.0
 52
90.0
 71
     2
 49
0.5
 62
   256
  6
BYLAYER
 49
-0.5
 62
   256
  6
BYLAYER
  0
ACDBPLACEHOLDER
  5
F
102
{ACAD_REACTORS
330
E
102
}
330
E
  0
VISUALSTYLE
  5
2F
102
{ACAD_REACTORS
330
2A
102
}
330
2A
100
AcDbVisualStyle
  2
2dWireframe
 70
     4
 71
     0
 72
     2
 73
     0
 90
        0
 40
-0.6
 41
-30.0
 62
     5
 63
     7
 74
     1
 91
        4
 64
     7
 65
   257
 75
     1
175
     1
 42
1.0
 92
        0
 66
   257
 43
1.0
 76
     1
 77
     6
 78
     2
 67
     7
 79
     5
170
     0
171
     0
290
     0
174
     0
 93
        1
 44
0.0
173
     0
291
     0
 45
0.0
1001
ACAD
1000
AcDbSavedByObjectVersion
1070
     0
  0
VISUALSTYLE
  5
31
102
{ACAD_REACTORS
330
2A
102
}
330
2A
100
AcDbVisualStyle
  2
3D Hidden
 70
     6
 71
     1
 72
     2
 73
     2
 90
        0
 40
-0.6
 41
-30.0
 62
     5
 63
     7
 74
     2
 91
        2
 64
     7
 65
   257
 75
     2
175
     1
 42
40.0
 92
        0
 66
   257
 43
1.0
 76
     1
 77
     6
 78
     2
 67
     7
 79
     3
170
     0
171
     0
290
     0
174
     0
 93
        1
 44
0.0
173
     0
291
     0
 45
0.0
1001
ACAD
1000
AcDbSavedByObjectVersion
1070
     0
  0
VISUALSTYLE
  5
30
102
{ACAD_REACTORS
330
2A
102
}
330
2A
100
AcDbVisualStyle
  2
3dWireframe
 70
     5
 71
     0
 72
     2
 73
     0
 90
        0
 40
-0.6
 41
-30.0
 62
     5
 63
     7
 74
     1
 91
        4
 64
     7
 65
   257
 75
     1
175
     1
 42
1.0
 92
        0
 66
   257
 43
1.0
 76
     1
 77
     6
 78
     2
 67
     7
 79
     5
170
     0
171
     0
290
     0
174
     0
 93
        1
 44
0.0
173
     0
291
     0
 45
0.0
1001
ACAD
1000
AcDbSavedByObjectVersion
1070
     0
  0
VISUALSTYLE
  5
32
102
{ACAD_REACTORS
330
2A
102
}
330
2A
100
AcDbVisualStyle
  2
Basic
 70
     7
 71
     1
 72
     0
 73
     1
 90
        0
 40
-0.6
 41
-30.0
 62
     5
 63
     7
 74
     0
 91
        4
 64
     7
 65
   257
 75
     1
175
     1
 42
1.0
 92
        8
 66
     7
 43
1.0
 76
     1
 77
     6
 78
     2
 67
     7
 79
     5
170
     0
171
     0
290
     0
174
     0
 93
        1
 44
0.0
173
     0
291
     1
 45
0.0
1001
ACAD
1000
AcDbSavedByObjectVersion
1070
     0
  0
VISUALSTYLE
  5
36
102
{ACAD_REACTORS
330
2A
102
}
330
2A
100
AcDbVisualStyle
  2
Brighten
 70
    12
 71
     2
 72
     2
 73
     0
 90
        0
 40
-0.6
 41
-30.0
 62
     5
 63
     7
 74
     1
 91
        4
 64
     7
 65
   257
 75
     1
175
     1
 42
1.0
 92
        8
 66
     7
 43
1.0
 76
     1
 77
     6
 78
     2
 67
     7
 79
     5
170
     0
171
     0
290
     0
174
     0
 93
        1
 44
50.0
173
     0
291
     1
 45
0.0
1001
ACAD
1000
AcDbSavedByObjectVersion
1070
     0
  0
VISUALSTYLE
  5
3A
102
{ACAD_REACTORS
330
2A
102
}
330
2A
100
AcDbVisualStyle
  2
ColorChange
 70
    16
 71
     2
 72
     2
 73
     3
 90
        0
 40
-0.6
 41
-30.0
 62
     5
 63
     8
 74
     1
 91
        4
 64
     7
 65
   257
 75
     1
175
     1
 42
1.0
 92
        8
 66
     8
 43
1.0
 76
     1
 77
     6
 78
     2
 67
     7
 79
     5
170
     0
171
     0
290
     0
174
     0
 93
        1
 44
0.0
173
     0
291
     1
 45
0.0
1001
ACAD
1000
AcDbSavedByObjectVersion
1070
     0
  0
VISUALSTYLE
  5
34
102
{ACAD_REACTORS
330
2A
102
}
330
2A
100
AcDbVisualStyle
  2
Conceptual
 70
     9
 71
     3
 72
     2
 73
     0
 90
        0
 40
-0.6
 41
-30.0
 62
     5
 63
     7
 74
     2
 91
        2
 64
     7
 65
   257
 75
     1
175
     1
 42
40.0
 92
        8
 66
     7
 43
1.0
 76
     1
 77
     6
 78
     2
 67
     7
 79
     3
170
     0
171
     0
290
     0
174
     0
 93
        1
 44
0.0
173
     0
291
     0
 45
0.0
1001
ACAD
1000
AcDbSavedByObjectVersion
1070
     0
  0
VISUALSTYLE
  5
35
102
{ACAD_REACTORS
330
2A
102
}
330
2A
100
AcDbVisualStyle
  2
Dim
 70
    11
 71
     2
 72
     2
 73
     0
 90
        0
 40
-0.6
 41
-30.0
 62
     5
 63
     7
 74
     1
 91
        4
 64
     7
 65
   257
 75
     1
175
     1
 42
1.0
 92
        8
 66
     7
 43
1.0
 76
     1
 77
     6
 78
     2
 67
     7
 79
     5
170
     0
171
     0
290
     0
174
     0
 93
        1
 44
-50.0
173
     0
291
     1
 45
0.0
1001
ACAD
1000
AcDbSavedByObjectVersion
1070
     0
  0
VISUALSTYLE
  5
39
102
{ACAD_REACTORS
330
2A
102
}
330
2A
100
AcDbVisualStyle
  2
Facepattern
 70
    15
 71
     2
 72
     2
 73
     0
 90
        0
 40
-0.6
 41
-30.0
 62
     5
 63
     7
 74
     1
 91
        4
 64
     7
 65
   257
 75
     1
175
     1
 42
1.0
 92
        8
 66
     7
 43
1.0
 76
     1
 77
     6
 78
     2
 67
     7
 79
     5
170
     0
171
     0
290
     0
174
     0
 93
        1
 44
0.0
173
     0
291
     1
 45
0.0
1001
ACAD
1000
AcDbSavedByObjectVersion
1070
     0
  0
VISUALSTYLE
  5
2B
102
{ACAD_REACTORS
330
2A
102
}
330
2A
100
AcDbVisualStyle
  2
Flat
 70
     0
 71
     2
 72
     1
 73
     1
 90
        2
 40
-0.6
 41
30.0
 62
     5
 63
     7
 74
     0
 91
        4
 64
     7
 65
   257
 75
     1
175
     1
 42
1.0
 92
        8
 66
     7
 43
1.0
 76
     1
 77
     6
 78
     2
 67
     7
 79
     5
170
     0
171
     0
290
     0
174
     0
 93
       13
 44
0.0
173
     0
291
     1
 45
0.0
1001
ACAD
1000
AcDbSavedByObjectVersion
1070
     0
  0
VISUALSTYLE
  5
2C
102
{ACAD_REACTORS
330
2A
102
}
330
2A
100
AcDbVisualStyle
  2
FlatWithEdges
 70
     1
 71
     2
 72
     1
 73
     1
 90
        2
 40
-0.6
 41
30.0
 62
     5
 63
     7
 74
     1
 91
        4
 64
     7
 65
   257
 75
     1
175
     1
 42
1.0
 92
        0
 66
   257
 43
1.0
 76
     1
 77
     6
 78
     2
 67
     7
 79
     5
170
     0
171
     0
290
     0
174
     0
 93
       13
 44
0.0
173
     0
291
     1
 45
0.0
1001
ACAD
1000
AcDbSavedByObjectVersion
1070
     0
  0
VISUALSTYLE
  5
2D
102
{ACAD_REACTORS
330
2A
102
}
330
2A
100
AcDbVisualStyle
  2
Gouraud
 70
     2
 71
     2
 72
     2
 73
     1
 90
        2
 40
-0.6
 41
30.0
 62
     5
 63
     7
 74
     0
 91
        4
 64
     7
 65
   257
 75
     1
175
     1
 42
1.0
 92
        0
 66
     7
 43
1.0
 76
     1
 77
     6
 78
     2
 67
     7
 79
     5
170
     0
171
     0
290
     0
174
     0
 93
       13
 44
0.0
173
     0
291
     1
 45
0.0
1001
ACAD
1000
AcDbSavedByObjectVersion
1070
     0
  0
VISUALSTYLE
  5
2E
102
{ACAD_REACTORS
330
2A
102
}
330
2A
100
AcDbVisualStyle
  2
GouraudWithEdges
 70
     3
 71
     2
 72
     2
 73
     1
 90
        2
 40
-0.6
 41
30.0
 62
     5
 63
     7
 74
     1
 91
        4
 64
     7
 65
   257
 75
     1
175
     1
 42
1.0
 92
        0
 66
   257
 43
1.0
 76
     1
 77
     6
 78
     2
 67
     7
 79
     5
170
     0
171
     0
290
     0
174
     0
 93
       13
 44
0.0
173
     0
291
     1
 45
0.0
1001
ACAD
1000
AcDbSavedByObjectVersion
1070
     0
  0
VISUALSTYLE
  5
38
102
{ACAD_REACTORS
330
2A
102
}
330
2A
100
AcDbVisualStyle
  2
Linepattern
 70
    14
 71
     2
 72
     2
 73
     0
 90
        0
 40
-0.6
 41
-30.0
 62
     5
 63
     7
 74
     1
 91
        4
 64
     7
 65
   257
 75
     7
175
     7
 42
1.0
 92
        8
 66
     7
 43
1.0
 76
     1
 77
     6
 78
     2
 67
     7
 79
     5
170
     0
171
     0
290
     0
174
     0
 93
        1
 44
0.0
173
     0
291
     1
 45
0.0
1001
ACAD
1000
AcDbSavedByObjectVersion
1070
     0
  0
VISUALSTYLE
  5
33
102
{ACAD_REACTORS
330
2A
102
}
330
2A
100
AcDbVisualStyle
  2
Realistic
 70
     8
 71
     2
 72
     2
 73
     0
 90
        0
 40
-0.6
 41
-30.0
 62
     5
 63
     7
 74
     1
 91
        0
 64
     7
 65
   257
 75
     1
175
     1
 42
1.0
 92
        8
 66
     8
 43
1.0
 76
     1
 77
     6
 78
     2
 67
     7
 79
     5
170
     0
171
     0
290
     0
174
     0
 93
       13
 44
0.0
173
     0
291
     0
 45
0.0
1001
ACAD
1000
AcDbSavedByObjectVersion
1070
     0
  0
VISUALSTYLE
  5
37
102
{ACAD_REACTORS
330
2A
102
}
330
2A
100
AcDbVisualStyle
  2
Thicken
 70
    13
 71
     2
 72
     2
 73
     0
 90
        0
 40
-0.6
 41
-30.0
 62
     5
 63
     7
 74
     1
 91
        4
 64
     7
 65
   257
 75
     1
175
     1
 42
1.0
 92
       12
 66
     7
 43
1.0
 76
     1
 77
     6
 78
     2
 67
     7
 79
     5
170
     0
171
     0
290
     0
174
     0
 93
        1
 44
0.0
173
     0
291
     1
 45
0.0
1001
ACAD
1000
AcDbSavedByObjectVersion
1070
     0
  0
DICTIONARYVAR
  5
1BE
102
{ACAD_REACTORS
330
1BC
102
}
330
1BC
100
DictionaryVariables
280
     0
  1
80.000000
  0
DICTIONARYVAR
  5
1BD
102
{ACAD_REACTORS
330
1BC
102
}
330
1BC
100
DictionaryVariables
280
     0
  1
5.000000
  0
ENDSEC
  0
EOF
