  0
SECTION
  2
HEADER
  9
$ACADVER
  1
AC1015
  9
$ACADMAINTVER
 70
     6
  9
$DWGCODEPAGE
  3
ANSI_1252
  9
$INSBASE
 10
0.0
 20
0.0
 30
0.0
  9
$EXTMIN
 10
0.0
 20
0.0
 30
0.0
  9
$EXTMAX
 10
279.4
 20
215.9
 30
0.0
  9
$LIMMIN
 10
0.0
 20
0.0
  9
$LIMMAX
 10
279.4
 20
215.9
  9
$ORTHOMODE
 70
     0
  9
$REGENMODE
 70
     1
  9
$FILLMODE
 70
     1
  9
$QTEXTMODE
 70
     0
  9
$MIRRTEXT
 70
     1
  9
$LTSCALE
 40
1.0
  9
$ATTMODE
 70
     1
  9
$TEXTSIZE
 40
2.8222222222
  9
$TRACEWID
 40
1.0
  9
$TEXTSTYLE
  7
Standard
  9
$CLAYER
  8
0
  9
$CELTYPE
  6
ByLayer
  9
$CECOLOR
 62
   256
  9
$CELTSCALE
 40
1.0
  9
$DISPSILH
 70
     0
  9
$DIMSCALE
 40
1.0
  9
$DIMASZ
 40
3.175
  9
$DIMEXO
 40
1.27
  9
$DIMDLI
 40
3.75
  9
$DIMRND
 40
0.0
  9
$DIMDLE
 40
0.0
  9
$DIMEXE
 40
1.778
  9
$DIMTP
 40
0.0
  9
$DIMTM
 40
0.0
  9
$DIMTXT
 40
2.8222222222
  9
$DIMCEN
 40
2.5
  9
$DIMTSZ
 40
0.0
  9
$DIMTOL
 70
     0
  9
$DIMLIM
 70
     0
  9
$DIMTIH
 70
     1
  9
$DIMTOH
 70
     1
  9
$DIMSE1
 70
     0
  9
$DIMSE2
 70
     0
  9
$DIMTAD
 70
     0
  9
$DIMZIN
 70
     1
  9
$DIMBLK
  1

  9
$DIMASO
 70
     1
  9
$DIMSHO
 70
     1
  9
$DIMPOST
  1

  9
$DIMAPOST
  1

  9
$DIMALT
 70
     0
  9
$DIMALTD
 70
     3
  9
$DIMALTF
 40
0.0393700787
  9
$DIMLFAC
 40
1.0
  9
$DIMTOFL
 70
     1
  9
$DIMTVP
 40
0.0
  9
$DIMTIX
 70
     0
  9
$DIMSOXD
 70
     0
  9
$DIMSAH
 70
     0
  9
$DIMBLK1
  1

  9
$DIMBLK2
  1

  9
$DIMSTYLE
  2
ISO-25
  9
$DIMCLRD
 70
     0
  9
$DIMCLRE
 70
     0
  9
$DIMCLRT
 70
     0
  9
$DIMTFAC
 40
1.0
  9
$DIMGAP
 40
2.54
  9
$DIMJUST
 70
     0
  9
$DIMSD1
 70
     0
  9
$DIMSD2
 70
     0
  9
$DIMTOLJ
 70
     0
  9
$DIMTZIN
 70
     1
  9
$DIMALTZ
 70
     0
  9
$DIMALTTZ
 70
     0
  9
$DIMUPT
 70
     0
  9
$DIMDEC
 70
     1
  9
$DIMTDEC
 70
     1
  9
$DIMALTU
 70
     2
  9
$DIMALTTD
 70
     3
  9
$DIMTXSTY
  7
Standard
  9
$DIMAUNIT
 70
     0
  9
$DIMADEC
 70
     0
  9
$DIMALTRND
 40
0.0
  9
$DIMAZIN
 70
     0
  9
$DIMDSEP
 70
    44
  9
$DIMATFIT
 70
     3
  9
$DIMFRAC
 70
     0
  9
$DIMLDRBLK
  1

  9
$DIMLUNIT
 70
     2
  9
$DIMLWD
 70
    -2
  9
$DIMLWE
 70
    -2
  9
$DIMTMOVE
 70
     0
  9
$LUNITS
 70
     2
  9
$LUPREC
 70
     1
  9
$SKETCHINC
 40
1.0
  9
$FILLETRAD
 40
10.0
  9
$AUNITS
 70
     0
  9
$AUPREC
 70
     0
  9
$MENU
  1
.
  9
$ELEVATION
 40
0.0
  9
$PELEVATION
 40
0.0
  9
$THICKNESS
 40
0.0
  9
$LIMCHECK
 70
     0
  9
$CHAMFERA
 40
0.0
  9
$CHAMFERB
 40
0.0
  9
$CHAMFERC
 40
0.0
  9
$CHAMFERD
 40
0.0
  9
$SKPOLY
 70
     0
  9
$TDCREATE
 40
2459643.62064059
  9
$TDUCREATE
 40
2459643.287307257
  9
$TDUPDATE
 40
2459643.620656806
  9
$TDUUPDATE
 40
2459643.287323472
  9
$TDINDWG
 40
0.0000000116
  9
$TDUSRTIMER
 40
0.0000000116
  9
$USRTIMER
 70
     1
  9
$ANGBASE
 50
0.0
  9
$ANGDIR
 70
     0
  9
$PDMODE
 70
     0
  9
$PDSIZE
 40
-1.0
  9
$PLINEWID
 40
0.0
  9
$SPLFRAME
 70
     0
  9
$SPLINETYPE
 70
     6
  9
$SPLINESEGS
 70
     8
  9
$HANDSEED
  5
243
  9
$SURFTAB1
 70
     6
  9
$SURFTAB2
 70
     6
  9
$SURFTYPE
 70
     6
  9
$SURFU
 70
     6
  9
$SURFV
 70
     6
  9
$UCSBASE
  2

  9
$UCSNAME
  2

  9
$UCSORG
 10
0.0
 20
0.0
 30
0.0
  9
$UCSXDIR
 10
1.0
 20
0.0
 30
0.0
  9
$UCSYDIR
 10
0.0
 20
1.0
 30
0.0
  9
$UCSORTHOREF
  2

  9
$UCSORTHOVIEW
 70
     0
  9
$UCSORGTOP
 10
0.0
 20
0.0
 30
0.0
  9
$UCSORGBOTTOM
 10
0.0
 20
0.0
 30
0.0
  9
$UCSORGLEFT
 10
0.0
 20
0.0
 30
0.0
  9
$UCSORGRIGHT
 10
0.0
 20
0.0
 30
0.0
  9
$UCSORGFRONT
 10
0.0
 20
0.0
 30
0.0
  9
$UCSORGBACK
 10
0.0
 20
0.0
 30
0.0
  9
$PUCSBASE
  2

  9
$PUCSNAME
  2

  9
$PUCSORG
 10
0.0
 20
0.0
 30
0.0
  9
$PUCSXDIR
 10
1.0
 20
0.0
 30
0.0
  9
$PUCSYDIR
 10
0.0
 20
1.0
 30
0.0
  9
$PUCSORTHOREF
  2

  9
$PUCSORTHOVIEW
 70
     0
  9
$PUCSORGTOP
 10
0.0
 20
0.0
 30
0.0
  9
$PUCSORGBOTTOM
 10
0.0
 20
0.0
 30
0.0
  9
$PUCSORGLEFT
 10
0.0
 20
0.0
 30
0.0
  9
$PUCSORGRIGHT
 10
0.0
 20
0.0
 30
0.0
  9
$PUCSORGFRONT
 10
0.0
 20
0.0
 30
0.0
  9
$PUCSORGBACK
 10
0.0
 20
0.0
 30
0.0
  9
$USERI1
 70
     0
  9
$USERI2
 70
     0
  9
$USERI3
 70
     0
  9
$USERI4
 70
     0
  9
$USERI5
 70
     0
  9
$USERR1
 40
0.0
  9
$USERR2
 40
0.0
  9
$USERR3
 40
0.0
  9
$USERR4
 40
0.0
  9
$USERR5
 40
0.0
  9
$WORLDVIEW
 70
     1
  9
$SHADEDGE
 70
     3
  9
$SHADEDIF
 70
    70
  9
$TILEMODE
 70
     1
  9
$MAXACTVP
 70
    64
  9
$PINSBASE
 10
0.0
 20
0.0
 30
0.0
  9
$PLIMCHECK
 70
     0
  9
$PEXTMIN
 10
1.0000000000E+20
 20
1.0000000000E+20
 30
1.0000000000E+20
  9
$PEXTMAX
 10
-1.0000000000E+20
 20
-1.0000000000E+20
 30
-1.0000000000E+20
  9
$PLIMMIN
 10
0.0
 20
0.0
  9
$PLIMMAX
 10
420.0
 20
297.0
  9
$UNITMODE
 70
     0
  9
$VISRETAIN
 70
     1
  9
$PLINEGEN
 70
     0
  9
$PSLTSCALE
 70
     1
  9
$TREEDEPTH
 70
  3020
  9
$CMLSTYLE
  2
Standard
  9
$CMLJUST
 70
     0
  9
$CMLSCALE
 40
20.0
  9
$PROXYGRAPHICS
 70
     1
  9
$MEASUREMENT
 70
     1
  9
$CELWEIGHT
370
    -1
  9
$ENDCAPS
280
     0
  9
$JOINSTYLE
280
     0
  9
$LWDISPLAY
290
     1
  9
$INSUNITS
 70
     4
  9
$HYPERLINKBASE
  1

  9
$STYLESHEET
  1

  9
$XEDIT
290
     1
  9
$CEPSNTYPE
380
     0
  9
$PSTYLEMODE
290
     1
  9
$FINGERPRINTGUID
  2
{90791E1D-337E-40BB-8BCF-81D56D0AB60D}
  9
$VERSIONGUID
  2
{FAEB1C32-E019-11D5-929B-00C0DF256EC4}
  9
$EXTNAMES
290
     1
  9
$PSVPSCALE
 40
0.0
  9
$OLESTARTUP
290
     0
  0
ENDSEC
  0
SECTION
  2
CLASSES
  0
CLASS
  1
ACDBDICTIONARYWDFLT
  2
AcDbDictionaryWithDefault
  3
ObjectDBX Classes
 90
        0
280
     0
281
     0
  0
CLASS
  1
VISUALSTYLE
  2
AcDbVisualStyle
  3
ObjectDBX Classes
 90
     4095
280
     0
281
     0
  0
CLASS
  1
MATERIAL
  2
AcDbMaterial
  3
ObjectDBX Classes
 90
     1153
280
     0
281
     0
  0
CLASS
  1
SCALE
  2
AcDbScale
  3
ObjectDBX Classes
 90
     1153
280
     0
281
     0
  0
CLASS
  1
TABLESTYLE
  2
AcDbTableStyle
  3
ObjectDBX Classes
 90
     4095
280
     0
281
     0
  0
CLASS
  1
MLEADERSTYLE
  2
AcDbMLeaderStyle
  3
ACDB_MLEADERSTYLE_CLASS
 90
     4095
280
     0
281
     0
  0
CLASS
  1
SUN
  2
AcDbSun
  3
SCENEOE
 90
     1153
280
     0
281
     0
  0
CLASS
  1
ACDBPLACEHOLDER
  2
AcDbPlaceHolder
  3
ObjectDBX Classes
 90
        0
280
     0
281
     0
  0
CLASS
  1
LAYOUT
  2
AcDbLayout
  3
ObjectDBX Classes
 90
        0
280
     0
281
     0
  0
ENDSEC
  0
SECTION
  2
TABLES
  0
TABLE
  2
VPORT
  5
8
330
0
100
AcDbSymbolTable
 70
     1
  0
VPORT
  5
29
330
8
100
AcDbSymbolTableRecord
100
AcDbViewportTableRecord
  2
*Active
 70
     0
 10
0.0
 20
0.0
 11
1.0
 21
1.0
 12
139.7
 22
107.95
 13
0.0
 23
0.0
 14
10.0
 24
10.0
 15
10.0
 25
10.0
 16
0.0
 26
0.0
 36
1.0
 17
0.0
 27
0.0
 37
0.0
 40
215.9
 41
1.2941176471
 42
50.0
 43
0.0
 44
0.0
 50
0.0
 51
0.0
 71
     0
 72
  2000
 73
     1
 74
     3
 75
     0
 76
     0
 77
     0
 78
     0
281
     0
 65
     1
110
0.0
120
0.0
130
0.0
111
1.0
121
0.0
131
0.0
112
0.0
122
1.0
132
0.0
 79
     0
146
0.0
  0
ENDTAB
  0
TABLE
  2
LTYPE
  5
5
330
0
100
AcDbSymbolTable
 70
     6
  0
LTYPE
  5
14
330
5
100
AcDbSymbolTableRecord
100
AcDbLinetypeTableRecord
  2
ByBlock
 70
     0
  3

 72
    65
 73
     0
 40
0.0
  0
LTYPE
  5
15
330
5
100
AcDbSymbolTableRecord
100
AcDbLinetypeTableRecord
  2
ByLayer
 70
     0
  3

 72
    65
 73
     0
 40
0.0
  0
LTYPE
  5
16
330
5
100
AcDbSymbolTableRecord
100
AcDbLinetypeTableRecord
  2
Continuous
 70
     0
  3
Solid line
 72
    65
 73
     0
 40
0.0
  0
LTYPE
  5
6E
330
5
100
AcDbSymbolTableRecord
100
AcDbLinetypeTableRecord
  2
HIDDEN
 70
     0
  3
Hidden __ __ __ __ __ __ __ __ __ __ __ __ __ __
 72
    65
 73
     2
 40
1.905
 49
1.27
 74
     0
 49
-0.635
 74
     0
  0
LTYPE
  5
6F
330
5
100
AcDbSymbolTableRecord
100
AcDbLinetypeTableRecord
  2
PHANTOM
 70
     0
  3
Phantom ______  __  __  ______  __  __  ______
 72
    65
 73
     6
 40
12.7
 49
6.35
 74
     0
 49
-1.27
 74
     0
 49
1.27
 74
     0
 49
-1.27
 74
     0
 49
1.27
 74
     0
 49
-1.27
 74
     0
  0
LTYPE
  5
70
330
5
100
AcDbSymbolTableRecord
100
AcDbLinetypeTableRecord
  2
CENTER
 70
     0
  3
Center ____ _ ____ _ ____ _ ____ _ ____ _ ____
 72
    65
 73
     4
 40
10.16
 49
6.35
 74
     0
 49
-1.27
 74
     0
 49
1.27
 74
     0
 49
-1.27
 74
     0
  0
LTYPE
  5
71
330
5
100
AcDbSymbolTableRecord
100
AcDbLinetypeTableRecord
  2
CENTERX2
 70
     0
  3
Center (2x) ________  __  ________  __  _____
 72
    65
 73
     4
 40
20.32
 49
12.7
 74
     0
 49
-2.54
 74
     0
 49
2.54
 74
     0
 49
-2.54
 74
     0
  0
LTYPE
  5
72
330
5
100
AcDbSymbolTableRecord
100
AcDbLinetypeTableRecord
  2
DOT2
 70
     0
  3
Dot (.5x) ........................................
 72
    65
 73
     2
 40
0.635
 49
0.0
 74
     0
 49
-0.635
 74
     0
  0
ENDTAB
  0
TABLE
  2
LAYER
  5
2
330
0
100
AcDbSymbolTable
 70
     2
  0
LAYER
  5
10
330
2
100
AcDbSymbolTableRecord
100
AcDbLayerTableRecord
  2
0
 70
     0
 62
     7
  6
Continuous
370
    -3
390
F
  0
LAYER
  5
73
330
2
100
AcDbSymbolTableRecord
100
AcDbLayerTableRecord
  2
FORMAT
 70
     0
 62
     7
  6
Continuous
370
    -3
390
F
  0
ENDTAB
  0
TABLE
  2
STYLE
  5
3
330
0
100
AcDbSymbolTable
 70
     3
  0
STYLE
  5
11
330
3
100
AcDbSymbolTableRecord
100
AcDbTextStyleTableRecord
  2
Standard
 70
     0
 40
0.0
 41
1.0
 50
0.0
 71
     0
 42
2.8222222222
  3
txt
  4

  0
STYLE
  5
132
330
3
100
AcDbSymbolTableRecord
100
AcDbTextStyleTableRecord
  2
SLDTEXTSTYLE0
 70
     0
 40
0.0
 41
0.75
 50
0.0
 71
     0
 42
2.8222222222
  3
TXT
  4

  0
STYLE
  5
14C
330
3
100
AcDbSymbolTableRecord
100
AcDbTextStyleTableRecord
  2
SLDTEXTSTYLE1
 70
     0
 40
0.0
 41
0.6
 50
0.0
 71
     0
 42
2.8222222222
  3
TXT
  4

  0
ENDTAB
  0
TABLE
  2
VIEW
  5
6
330
0
100
AcDbSymbolTable
 70
     0
  0
ENDTAB
  0
TABLE
  2
UCS
  5
7
330
0
100
AcDbSymbolTable
 70
     0
  0
ENDTAB
  0
TABLE
  2
APPID
  5
9
330
0
100
AcDbSymbolTable
 70
     1
  0
APPID
  5
12
330
9
100
AcDbSymbolTableRecord
100
AcDbRegAppTableRecord
  2
ACAD
 70
     0
  0
ENDTAB
  0
TABLE
  2
DIMSTYLE
  5
A
330
0
100
AcDbSymbolTable
 70
     5
100
AcDbDimStyleTable
  0
DIMSTYLE
105
27
330
A
100
AcDbSymbolTableRecord
100
AcDbDimStyleTableRecord
  2
ISO-25
 70
     0
 41
2.5
 42
0.625
 43
3.75
 44
1.25
 73
     0
 74
     0
 77
     1
 78
     8
140
2.5
141
2.5
143
0.0393700787
147
0.625
171
     3
172
     1
178
     0
271
     2
272
     2
274
     3
278
    44
283
     0
284
     8
340
11
  0
DIMSTYLE
105
170
102
{ACAD_REACTORS
330
16F
102
}
330
A
100
AcDbSymbolTableRecord
100
AcDbDimStyleTableRecord
  2
SLDDIMSTYLE0
 70
     0
 41
3.175
 44
0.0
 45
0.000000001
 78
    12
 79
     3
140
2.1166666667
141
0.0
143
0.0393700787
147
0.5291666667
148
0.000000001
170
     1
173
     1
178
     0
271
     1
272
     1
276
     2
284
    12
340
132
  0
DIMSTYLE
105
20A
102
{ACAD_REACTORS
330
209
102
}
330
A
100
AcDbSymbolTableRecord
100
AcDbDimStyleTableRecord
  2
SLDDIMSTYLE1
 70
     0
 41
3.175
 44
0.0
 45
0.000000001
 78
    12
 79
     3
140
2.1166666667
141
0.0
143
0.0393700787
147
0.5291666667
148
0.000000001
170
     1
173
     1
178
     0
271
     1
272
     1
276
     2
284
    12
340
132
  0
DIMSTYLE
105
21A
102
{ACAD_REACTORS
330
219
102
}
330
A
100
AcDbSymbolTableRecord
100
AcDbDimStyleTableRecord
  2
SLDDIMSTYLE2
 70
     0
 41
3.175
 44
0.0
 45
0.000000001
 78
     4
 79
     1
140
2.1166666667
143
0.0393700787
147
0.5291666667
148
0.000000001
170
     1
172
     1
173
     1
178
     0
271
     1
272
     1
276
     2
284
    12
289
     0
340
132
  0
DIMSTYLE
105
22E
102
{ACAD_REACTORS
330
22D
102
}
330
A
100
AcDbSymbolTableRecord
100
AcDbDimStyleTableRecord
  2
SLDDIMSTYLE3
 70
     0
 41
3.175
 44
0.0
 45
0.000000001
 78
    12
 79
     3
140
2.1166666667
143
0.0393700787
147
0.5291666667
148
0.000000001
170
     1
173
     1
178
     0
271
     1
272
     1
276
     2
284
    12
340
132
  0
ENDTAB
  0
TABLE
  2
BLOCK_RECORD
  5
1
330
0
100
AcDbSymbolTable
 70
    13
  0
BLOCK_RECORD
  5
1F
330
1
100
AcDbSymbolTableRecord
100
AcDbBlockTableRecord
  2
*Model_Space
340
22
  0
BLOCK_RECORD
  5
1B
330
1
100
AcDbSymbolTableRecord
100
AcDbBlockTableRecord
  2
*Paper_Space
340
1E
  0
BLOCK_RECORD
  5
23
330
1
100
AcDbSymbolTableRecord
100
AcDbBlockTableRecord
  2
*Paper_Space0
340
26
  0
BLOCK_RECORD
  5
74
330
1
100
AcDbSymbolTableRecord
100
AcDbBlockTableRecord
  2
Third Angle Projection Block
340
0
102
{BLKREFS
331
12D
102
}
  0
BLOCK_RECORD
  5
81
330
1
100
AcDbSymbolTableRecord
100
AcDbBlockTableRecord
  2
THORLABS LOGO1
340
0
102
{BLKREFS
331
12E
102
}
  0
BLOCK_RECORD
  5
12F
330
1
100
AcDbSymbolTableRecord
100
AcDbBlockTableRecord
  2
SW_NOTE_0
340
0
102
{BLKREFS
331
140
102
}
  0
BLOCK_RECORD
  5
152
330
1
100
AcDbSymbolTableRecord
100
AcDbBlockTableRecord
  2
SW_NOTE_1
340
0
102
{BLKREFS
331
157
102
}
  0
BLOCK_RECORD
  5
158
330
1
100
AcDbSymbolTableRecord
100
AcDbBlockTableRecord
  2
SW_NOTE_2
340
0
102
{BLKREFS
331
15D
102
}
  0
BLOCK_RECORD
  5
15F
330
1
100
AcDbSymbolTableRecord
100
AcDbBlockTableRecord
  2
SW_NOTE_3
340
0
102
{BLKREFS
331
164
102
}
  0
BLOCK_RECORD
  5
165
330
1
100
AcDbSymbolTableRecord
100
AcDbBlockTableRecord
  2
SW_NOTE_4
340
0
102
{BLKREFS
331
16B
102
}
  0
BLOCK_RECORD
  5
171
330
1
100
AcDbSymbolTableRecord
100
AcDbBlockTableRecord
  2
_D
340
0
  0
BLOCK_RECORD
  5
1F6
330
1
100
AcDbSymbolTableRecord
100
AcDbBlockTableRecord
  2
SW_NOTE_5
340
0
102
{BLKREFS
331
1FB
102
}
  0
BLOCK_RECORD
  5
20B
330
1
100
AcDbSymbolTableRecord
100
AcDbBlockTableRecord
  2
_D_1
340
0
  0
BLOCK_RECORD
  5
21B
330
1
100
AcDbSymbolTableRecord
100
AcDbBlockTableRecord
  2
_D_2
340
0
  0
BLOCK_RECORD
  5
22F
330
1
100
AcDbSymbolTableRecord
100
AcDbBlockTableRecord
  2
_D_3
340
0
  0
ENDTAB
  0
ENDSEC
  0
SECTION
  2
BLOCKS
  0
BLOCK
  5
20
330
1F
100
AcDbEntity
  8
0
100
AcDbBlockBegin
  2
*Model_Space
 70
     0
 10
0.0
 20
0.0
 30
0.0
  3
*Model_Space
  1

  0
ENDBLK
  5
21
330
1F
100
AcDbEntity
  8
0
100
AcDbBlockEnd
  0
BLOCK
  5
1C
330
1B
100
AcDbEntity
 67
     1
  8
0
100
AcDbBlockBegin
  2
*Paper_Space
 70
     0
 10
0.0
 20
0.0
 30
0.0
  3
*Paper_Space
  1

  0
ENDBLK
  5
1D
330
1B
100
AcDbEntity
 67
     1
  8
0
100
AcDbBlockEnd
  0
BLOCK
  5
24
330
23
100
AcDbEntity
  8
0
100
AcDbBlockBegin
  2
*Paper_Space0
 70
     0
 10
0.0
 20
0.0
 30
0.0
  3
*Paper_Space0
  1

  0
ENDBLK
  5
25
330
23
100
AcDbEntity
  8
0
100
AcDbBlockEnd
  0
BLOCK
  5
75
330
74
100
AcDbEntity
  8
0
100
AcDbBlockBegin
  2
Third Angle Projection Block
 70
     0
 10
0.0
 20
0.0
 30
0.0
  3
Third Angle Projection Block
  1

  0
CIRCLE
  5
77
330
74
100
AcDbEntity
  8
0
  6
Continuous
 62
     7
370
    35
100
AcDbCircle
 10
101.4766388944
 20
18.9404083667
 30
0.0
 40
1.768227153674871
  0
CIRCLE
  5
78
330
74
100
AcDbEntity
  8
0
  6
Continuous
 62
     7
370
    35
100
AcDbCircle
 10
101.4766388944
 20
18.9404083667
 30
0.0
 40
3.901228248531818
  0
LINE
  5
79
330
74
100
AcDbEntity
  8
0
  6
CENTERX2
 62
     7
370
    18
100
AcDbLine
 10
110.1367822585
 20
18.9404083667
 30
0.0
 11
119.4527334874
 21
18.9404083667
 31
0.0
  0
LINE
  5
7A
330
74
100
AcDbEntity
  8
0
  6
Continuous
 62
     7
370
    35
100
AcDbLine
 10
111.0016388944
 20
20.7086355204
 30
0.0
 11
111.0016388944
 21
17.172181213
 31
0.0
  0
LINE
  5
7B
330
74
100
AcDbEntity
  8
0
  6
Continuous
 62
     7
370
    35
100
AcDbLine
 10
111.0016388944
 20
17.172181213
 30
0.0
 11
118.6216388944
 21
15.1304083667
 31
0.0
  0
LINE
  5
7C
330
74
100
AcDbEntity
  8
0
  6
Continuous
 62
     7
370
    35
100
AcDbLine
 10
118.6216388944
 20
15.1304083667
 30
0.0
 11
118.6216388944
 21
22.7504083667
 31
0.0
  0
LINE
  5
7D
330
74
100
AcDbEntity
  8
0
  6
Continuous
 62
     7
370
    35
100
AcDbLine
 10
118.6216388944
 20
22.7504083667
 30
0.0
 11
111.0016388944
 21
20.7086355204
 31
0.0
  0
LINE
  5
7E
330
74
100
AcDbEntity
  8
0
  6
CENTERX2
 62
     7
370
    18
100
AcDbLine
 10
96.6025854619
 20
18.9404083667
 30
0.0
 11
106.3506923269
 21
18.9404083667
 31
0.0
  0
LINE
  5
7F
330
74
100
AcDbEntity
  8
0
  6
CENTERX2
 62
     7
370
    18
100
AcDbLine
 10
101.4766388944
 20
23.8144617992
 30
0.0
 11
101.4766388944
 21
14.0663549342
 31
0.0
  0
POINT
  5
80
330
74
100
AcDbEntity
  8
0
  6
Continuous
 62
     7
370
     0
100
AcDbPoint
 10
101.4766388944
 20
18.9404083667
 30
0.0
  0
ENDBLK
  5
76
330
74
100
AcDbEntity
  8
0
100
AcDbBlockEnd
  0
BLOCK
  5
82
330
81
100
AcDbEntity
  8
0
100
AcDbBlockBegin
  2
THORLABS LOGO1
 70
     0
 10
0.0
 20
0.0
 30
0.0
  3
THORLABS LOGO1
  1

  0
LINE
  5
84
330
81
100
AcDbEntity
  8
0
  6
Continuous
 62
     7
370
    18
100
AcDbLine
 10
127.070019234
 20
36.20212077
 30
0.0
 11
129.5897637342
 21
43.9131108267
 31
0.0
  0
LINE
  5
85
330
81
100
AcDbEntity
  8
0
  6
Continuous
 62
     7
370
    18
100
AcDbLine
 10
129.5897637342
 20
43.9131108267
 30
0.0
 11
130.3745570034
 21
43.9131108267
 31
0.0
  0
LINE
  5
86
330
81
100
AcDbEntity
  8
0
  6
Continuous
 62
     7
370
    18
100
AcDbLine
 10
130.3745570034
 20
43.9131108267
 30
0.0
 11
132.8105856281
 21
36.20212077
 31
0.0
  0
LINE
  5
87
330
81
100
AcDbEntity
  8
0
  6
Continuous
 62
     7
370
    18
100
AcDbLine
 10
132.8105856281
 20
36.20212077
 30
0.0
 11
127.070019234
 21
36.20212077
 31
0.0
  0
LINE
  5
88
330
81
100
AcDbEntity
  8
0
  6
Continuous
 62
     7
370
    18
100
AcDbLine
 10
128.4229091235
 20
37.230137941
 30
0.0
 11
131.3867267247
 21
37.230137941
 31
0.0
  0
LINE
  5
89
330
81
100
AcDbEntity
  8
0
  6
Continuous
 62
     7
370
    18
100
AcDbLine
 10
131.3867267247
 20
37.230137941
 30
0.0
 11
129.9297948829
 21
41.8820534435
 31
0.0
  0
LINE
  5
8A
330
81
100
AcDbEntity
  8
0
  6
Continuous
 62
     7
370
    18
100
AcDbLine
 10
129.9297948829
 20
41.8820534435
 30
0.0
 11
128.4229091235
 21
37.230137941
 31
0.0
  0
LINE
  5
8B
330
81
100
AcDbEntity
  8
0
  6
Continuous
 62
     7
370
    18
100
AcDbLine
 10
148.5694963023
 20
29.6960536541
 30
0.0
 11
134.4690556888
 21
29.6960536541
 31
0.0
  0
LINE
  5
8C
330
81
100
AcDbEntity
  8
0
  6
Continuous
 62
     7
370
    18
100
AcDbLine
 10
134.4690556888
 20
29.6960536541
 30
0.0
 11
133.0327944335
 21
32.9713080926
 31
0.0
  0
LINE
  5
8D
330
81
100
AcDbEntity
  8
0
  6
Continuous
 62
     7
370
    18
100
AcDbLine
 10
133.0327944335
 20
32.9713080926
 30
0.0
 11
126.8013016089
 21
32.9713080926
 31
0.0
  0
LINE
  5
8E
330
81
100
AcDbEntity
  8
0
  6
Continuous
 62
     7
370
    18
100
AcDbLine
 10
126.8013016089
 20
32.9713080926
 30
0.0
 11
125.336790552
 21
29.7225809068
 31
0.0
  0
LINE
  5
8F
330
81
100
AcDbEntity
  8
0
  6
Continuous
 62
     7
370
    18
100
AcDbLine
 10
125.336790552
 20
29.7225809068
 30
0.0
 11
107.5084096545
 21
29.7225809068
 31
0.0
  0
LINE
  5
90
330
81
100
AcDbEntity
  8
0
  6
Continuous
 62
     7
370
    18
100
AcDbLine
 10
107.5084096545
 20
29.7225809068
 30
0.0
 11
107.5084096545
 21
48.9892901182
 31
0.0
  0
LINE
  5
91
330
81
100
AcDbEntity
  8
0
  6
Continuous
 62
     7
370
    18
100
AcDbLine
 10
107.5084096545
 20
48.9892901182
 30
0.0
 11
112.5348072834
 21
48.9892901182
 31
0.0
  0
LINE
  5
92
330
81
100
AcDbEntity
  8
0
  6
Continuous
 62
     7
370
    18
100
AcDbLine
 10
112.5348072834
 20
48.9892901182
 30
0.0
 11
112.5348072834
 21
34.0806295706
 31
0.0
  0
LINE
  5
93
330
81
100
AcDbEntity
  8
0
  6
Continuous
 62
     7
370
    18
100
AcDbLine
 10
112.5348072834
 20
34.0806295706
 30
0.0
 11
121.7804161364
 21
34.0806295706
 31
0.0
  0
LINE
  5
94
330
81
100
AcDbEntity
  8
0
  6
Continuous
 62
     7
370
    18
100
AcDbLine
 10
121.7804161364
 20
34.0806295706
 30
0.0
 11
127.3904133255
 21
48.9892901182
 31
0.0
  0
LINE
  5
95
330
81
100
AcDbEntity
  8
0
  6
Continuous
 62
     7
370
    18
100
AcDbLine
 10
127.3904133255
 20
48.9892901182
 30
0.0
 11
132.4970817321
 21
48.9892901182
 31
0.0
  0
LINE
  5
96
330
81
100
AcDbEntity
  8
0
  6
Continuous
 62
     7
370
    18
100
AcDbLine
 10
132.4970817321
 20
48.9892901182
 30
0.0
 11
139.3018388236
 21
31.0275839375
 31
0.0
  0
LINE
  5
97
330
81
100
AcDbEntity
  8
0
  6
Continuous
 62
     7
370
    18
100
AcDbLine
 10
139.3018388236
 20
31.0275839375
 30
0.0
 11
139.3018388236
 21
48.9892901182
 31
0.0
  0
LINE
  5
98
330
81
100
AcDbEntity
  8
0
  6
Continuous
 62
     7
370
    18
100
AcDbLine
 10
139.3018388236
 20
48.9892901182
 30
0.0
 11
148.3259278908
 21
48.9892901182
 31
0.0
  0
LINE
  5
99
330
81
100
AcDbEntity
  8
0
  6
Continuous
 62
     7
370
    18
100
AcDbLine
 10
156.0567272597
 20
36.2334711596
 30
0.0
 11
160.8609160832
 21
36.2334711596
 31
0.0
  0
LINE
  5
9A
330
81
100
AcDbEntity
  8
0
  6
Continuous
 62
     7
370
    18
100
AcDbLine
 10
171.9930604685
 20
43.2037651984
 30
0.0
 11
166.9673518592
 21
43.2037651984
 31
0.0
  0
LINE
  5
9B
330
81
100
AcDbEntity
  8
0
  6
Continuous
 62
     7
370
    18
100
AcDbLine
 10
161.57267328
 20
37.1278185376
 30
0.0
 11
156.7116403435
 21
37.1278185376
 31
0.0
  0
LINE
  5
9C
330
81
100
AcDbEntity
  8
0
  6
Continuous
 62
     7
370
    18
100
AcDbLine
 10
167.1893381071
 20
42.2088209659
 30
0.0
 11
173.0691700759
 21
42.1674797928
 31
0.0
  0
LINE
  5
9D
330
81
100
AcDbEntity
  8
0
  6
Continuous
 62
     7
370
    18
100
AcDbLine
 10
147.7273754781
 20
50.0471073848
 30
0.0
 11
138.3041010399
 21
50.0471073848
 31
0.0
  0
LINE
  5
9E
330
81
100
AcDbEntity
  8
0
  6
Continuous
 62
     7
370
    18
100
AcDbLine
 10
138.3041010399
 20
50.0471073848
 30
0.0
 11
138.3041010399
 21
36.7502358233
 31
0.0
  0
LINE
  5
9F
330
81
100
AcDbEntity
  8
0
  6
Continuous
 62
     7
370
    18
100
AcDbLine
 10
138.3041010399
 20
36.7502358233
 30
0.0
 11
133.3762332069
 21
50.0471073848
 31
0.0
  0
LINE
  5
A0
330
81
100
AcDbEntity
  8
0
  6
Continuous
 62
     7
370
    18
100
AcDbLine
 10
133.3762332069
 20
50.0471073848
 30
0.0
 11
126.7834772196
 21
50.0471073848
 31
0.0
  0
LINE
  5
A1
330
81
100
AcDbEntity
  8
0
  6
Continuous
 62
     7
370
    18
100
AcDbLine
 10
126.7834772196
 20
50.0471073848
 30
0.0
 11
121.0416582836
 21
34.8362965993
 31
0.0
  0
LINE
  5
A2
330
81
100
AcDbEntity
  8
0
  6
Continuous
 62
     7
370
    18
100
AcDbLine
 10
121.0416582836
 20
34.8362965993
 30
0.0
 11
113.7338781066
 21
34.7908312116
 31
0.0
  0
LINE
  5
A3
330
81
100
AcDbEntity
  8
0
  6
Continuous
 62
     7
370
    18
100
AcDbLine
 10
113.7338781066
 20
34.7908312116
 30
0.0
 11
113.6389611148
 21
50.0471073848
 31
0.0
  0
LINE
  5
A4
330
81
100
AcDbEntity
  8
0
  6
Continuous
 62
     7
370
    18
100
AcDbLine
 10
113.6389611148
 20
50.0471073848
 30
0.0
 11
106.3849632756
 21
50.0471073848
 31
0.0
  0
LINE
  5
A5
330
81
100
AcDbEntity
  8
0
  6
Continuous
 62
     7
370
    18
100
AcDbLine
 10
106.3849632756
 20
50.0471073848
 30
0.0
 11
106.3718719042
 21
28.6983533434
 31
0.0
  0
LINE
  5
A6
330
81
100
AcDbEntity
  8
0
  6
Continuous
 62
     7
370
    18
100
AcDbLine
 10
106.3718719042
 20
28.6983533434
 30
0.0
 11
126.0705963744
 21
28.7607096128
 31
0.0
  0
LINE
  5
A7
330
81
100
AcDbEntity
  8
0
  6
Continuous
 62
     7
370
    18
100
AcDbLine
 10
126.0705963744
 20
28.7607096128
 30
0.0
 11
127.3401148982
 21
31.9074619049
 31
0.0
  0
LINE
  5
A8
330
81
100
AcDbEntity
  8
0
  6
Continuous
 62
     7
370
    18
100
AcDbLine
 10
127.3401148982
 20
31.9074619049
 30
0.0
 11
132.5163742795
 21
31.9074619049
 31
0.0
  0
LINE
  5
A9
330
81
100
AcDbEntity
  8
0
  6
Continuous
 62
     7
370
    18
100
AcDbLine
 10
132.5163742795
 20
31.9074619049
 30
0.0
 11
133.7345608468
 21
28.7607096128
 31
0.0
  0
LINE
  5
AA
330
81
100
AcDbEntity
  8
0
  6
Continuous
 62
     7
370
    18
100
AcDbLine
 10
133.7345608468
 20
28.7607096128
 30
0.0
 11
149.6765281643
 21
28.7607096128
 31
0.0
  0
LINE
  5
AB
330
81
100
AcDbEntity
  8
0
  6
Continuous
 62
     7
370
    18
100
AcDbLine
 10
47.9736752992
 20
45.2630723832
 30
0.0
 11
42.1812601838
 21
45.2630723832
 31
0.0
  0
LINE
  5
AC
330
81
100
AcDbEntity
  8
0
  6
Continuous
 62
     7
370
    18
100
AcDbLine
 10
42.1812601838
 20
45.2630723832
 30
0.0
 11
42.1812601838
 21
28.6983533434
 31
0.0
  0
LINE
  5
AD
330
81
100
AcDbEntity
  8
0
  6
Continuous
 62
     7
370
    18
100
AcDbLine
 10
42.1812601838
 20
28.6983533434
 30
0.0
 11
36.5974457377
 21
28.6983533434
 31
0.0
  0
LINE
  5
AE
330
81
100
AcDbEntity
  8
0
  6
Continuous
 62
     7
370
    18
100
AcDbLine
 10
36.5974457377
 20
28.6983533434
 30
0.0
 11
36.5974457377
 21
45.2630723832
 31
0.0
  0
LINE
  5
AF
330
81
100
AcDbEntity
  8
0
  6
Continuous
 62
     7
370
    18
100
AcDbLine
 10
36.5974457377
 20
45.2630723832
 30
0.0
 11
30.2029997892
 21
45.2630723832
 31
0.0
  0
LINE
  5
B0
330
81
100
AcDbEntity
  8
0
  6
Continuous
 62
     7
370
    18
100
AcDbLine
 10
30.2029997892
 20
45.2630723832
 30
0.0
 11
30.2029997892
 21
50.0471073848
 31
0.0
  0
LINE
  5
B1
330
81
100
AcDbEntity
  8
0
  6
Continuous
 62
     7
370
    18
100
AcDbLine
 10
30.2029997892
 20
50.0471073848
 30
0.0
 11
53.5569729806
 21
50.0471073848
 31
0.0
  0
LINE
  5
B2
330
81
100
AcDbEntity
  8
0
  6
Continuous
 62
     7
370
    18
100
AcDbLine
 10
53.5569729806
 20
50.0471073848
 30
0.0
 11
53.5569729806
 21
42.2728997842
 31
0.0
  0
LINE
  5
B3
330
81
100
AcDbEntity
  8
0
  6
Continuous
 62
     7
370
    18
100
AcDbLine
 10
53.5569729806
 20
42.2728997842
 30
0.0
 11
60.9124289487
 21
42.2728997842
 31
0.0
  0
LINE
  5
B4
330
81
100
AcDbEntity
  8
0
  6
Continuous
 62
     7
370
    18
100
AcDbLine
 10
60.9124289487
 20
42.2728997842
 30
0.0
 11
60.9124289487
 21
50.0471073848
 31
0.0
  0
LINE
  5
B5
330
81
100
AcDbEntity
  8
0
  6
Continuous
 62
     7
370
    18
100
AcDbLine
 10
60.9124289487
 20
50.0471073848
 30
0.0
 11
66.4964156497
 21
50.0471073848
 31
0.0
  0
LINE
  5
B6
330
81
100
AcDbEntity
  8
0
  6
Continuous
 62
     7
370
    18
100
AcDbLine
 10
66.4964156497
 20
50.0471073848
 30
0.0
 11
66.4964156497
 21
28.6983533434
 31
0.0
  0
LINE
  5
B7
330
81
100
AcDbEntity
  8
0
  6
Continuous
 62
     7
370
    18
100
AcDbLine
 10
66.4964156497
 20
28.6983533434
 30
0.0
 11
60.9124289487
 21
28.6983533434
 31
0.0
  0
LINE
  5
B8
330
81
100
AcDbEntity
  8
0
  6
Continuous
 62
     7
370
    18
100
AcDbLine
 10
60.9124289487
 20
28.6983533434
 30
0.0
 11
60.9124289487
 21
37.4895538021
 31
0.0
  0
LINE
  5
B9
330
81
100
AcDbEntity
  8
0
  6
Continuous
 62
     7
370
    18
100
AcDbLine
 10
60.9124289487
 20
37.4895538021
 30
0.0
 11
53.5569729806
 21
37.4895538021
 31
0.0
  0
LINE
  5
BA
330
81
100
AcDbEntity
  8
0
  6
Continuous
 62
     7
370
    18
100
AcDbLine
 10
53.5569729806
 20
37.4895538021
 30
0.0
 11
53.5569729806
 21
28.6983533434
 31
0.0
  0
LINE
  5
BB
330
81
100
AcDbEntity
  8
0
  6
Continuous
 62
     7
370
    18
100
AcDbLine
 10
53.5569729806
 20
28.6983533434
 30
0.0
 11
47.9736752992
 21
28.6983533434
 31
0.0
  0
LINE
  5
BC
330
81
100
AcDbEntity
  8
0
  6
Continuous
 62
     7
370
    18
100
AcDbLine
 10
47.9736752992
 20
28.6983533434
 30
0.0
 11
47.9736752992
 21
45.2630723832
 31
0.0
  0
LINE
  5
BD
330
81
100
AcDbEntity
  8
0
  6
Continuous
 62
     7
370
    18
100
AcDbLine
 10
93.2083256259
 20
40.8002927475
 30
0.0
 11
97.891591518
 21
40.8002927475
 31
0.0
  0
LINE
  5
BE
330
81
100
AcDbEntity
  8
0
  6
Continuous
 62
     7
370
    18
100
AcDbLine
 10
97.6514682043
 20
45.613783335
 30
0.0
 11
93.2083256259
 21
45.613783335
 31
0.0
  0
LINE
  5
BF
330
81
100
AcDbEntity
  8
0
  6
Continuous
 62
     7
370
    18
100
AcDbLine
 10
93.2083256259
 20
45.613783335
 30
0.0
 11
93.2083256259
 21
40.8002927475
 31
0.0
  0
LINE
  5
C0
330
81
100
AcDbEntity
  8
0
  6
Continuous
 62
     7
370
    18
100
AcDbLine
 10
87.6243389163
 20
50.0471073848
 30
0.0
 11
98.5521890046
 21
50.0471073848
 31
0.0
  0
LINE
  5
C1
330
81
100
AcDbEntity
  8
0
  6
Continuous
 62
     7
370
    18
100
AcDbLine
 10
102.6945745488
 20
38.6856917437
 30
0.0
 11
102.6945745488
 21
38.6257470427
 31
0.0
  0
LINE
  5
C2
330
81
100
AcDbEntity
  8
0
  6
Continuous
 62
     7
370
    18
100
AcDbLine
 10
106.3668527513
 20
28.6983533434
 30
0.0
 11
101.1935454556
 21
28.6983533434
 31
0.0
  0
LINE
  5
C3
330
81
100
AcDbEntity
  8
0
  6
Continuous
 62
     7
370
    18
100
AcDbLine
 10
97.4420062521
 20
36.4729054538
 30
0.0
 11
93.2083256173
 21
36.4729054538
 31
0.0
  0
LINE
  5
C4
330
81
100
AcDbEntity
  8
0
  6
Continuous
 62
     7
370
    18
100
AcDbLine
 10
93.2083256173
 20
36.4729054538
 30
0.0
 11
93.2083256173
 21
28.6983533434
 31
0.0
  0
LINE
  5
C5
330
81
100
AcDbEntity
  8
0
  6
Continuous
 62
     7
370
    18
100
AcDbLine
 10
93.2083256173
 20
28.6983533434
 30
0.0
 11
87.6243389163
 21
28.6983533434
 31
0.0
  0
LINE
  5
C6
330
81
100
AcDbEntity
  8
0
  6
Continuous
 62
     7
370
    18
100
AcDbLine
 10
87.6243389163
 20
28.6983533434
 30
0.0
 11
87.6243389163
 21
50.0471073848
 31
0.0
  0
LINE
  5
C7
330
81
100
AcDbEntity
  8
0
  6
Continuous
 62
     7
370
    18
100
AcDbLine
 10
143.8820962928
 20
45.355573258
 30
0.0
 11
148.3552112218
 21
45.355573258
 31
0.0
  0
LINE
  5
C8
330
81
100
AcDbEntity
  8
0
  6
Continuous
 62
     7
370
    18
100
AcDbLine
 10
148.3552112218
 20
40.6891883448
 30
0.0
 11
143.8820962928
 21
40.6891883448
 31
0.0
  0
LINE
  5
C9
330
81
100
AcDbEntity
  8
0
  6
Continuous
 62
     7
370
    18
100
AcDbLine
 10
143.8820962928
 20
40.6891883448
 30
0.0
 11
143.8820962928
 21
45.355573258
 31
0.0
  0
LINE
  5
CA
330
81
100
AcDbEntity
  8
0
  6
Continuous
 62
     7
370
    18
100
AcDbLine
 10
144.8611930757
 20
44.3318624592
 30
0.0
 11
144.8611930757
 21
41.6384850321
 31
0.0
  0
LINE
  5
CB
330
81
100
AcDbEntity
  8
0
  6
Continuous
 62
     7
370
    18
100
AcDbLine
 10
144.8611930757
 20
41.6384850321
 30
0.0
 11
147.9838296835
 21
41.6384850321
 31
0.0
  0
LINE
  5
CC
330
81
100
AcDbEntity
  8
0
  6
Continuous
 62
     7
370
    18
100
AcDbLine
 10
147.9838296835
 20
44.3318624592
 30
0.0
 11
144.8611930757
 21
44.3318624592
 31
0.0
  0
LINE
  5
CD
330
81
100
AcDbEntity
  8
0
  6
Continuous
 62
     7
370
    18
100
AcDbLine
 10
143.8820962928
 20
38.4576262721
 30
0.0
 11
148.8506162794
 21
38.4576262721
 31
0.0
  0
LINE
  5
CE
330
81
100
AcDbEntity
  8
0
  6
Continuous
 62
     7
370
    18
100
AcDbLine
 10
148.8506162794
 20
33.0798286719
 30
0.0
 11
143.8820962928
 21
33.0798286719
 31
0.0
  0
LINE
  5
CF
330
81
100
AcDbEntity
  8
0
  6
Continuous
 62
     7
370
    18
100
AcDbLine
 10
143.8820962928
 20
33.0798286719
 30
0.0
 11
143.8820962928
 21
38.4576262721
 31
0.0
  0
LINE
  5
D0
330
81
100
AcDbEntity
  8
0
  6
Continuous
 62
     7
370
    18
100
AcDbLine
 10
144.8353548425
 20
37.4561363539
 30
0.0
 11
144.8353548425
 21
33.9958801658
 31
0.0
  0
LINE
  5
D1
330
81
100
AcDbEntity
  8
0
  6
Continuous
 62
     7
370
    18
100
AcDbLine
 10
144.8353548425
 20
33.9958801658
 30
0.0
 11
148.5660512046
 21
33.9958801658
 31
0.0
  0
LINE
  5
D2
330
81
100
AcDbEntity
  8
0
  6
Continuous
 62
     7
370
    18
100
AcDbLine
 10
148.5660512046
 20
37.4561363539
 30
0.0
 11
144.8353548425
 21
37.4561363539
 31
0.0
  0
LINE
  5
D3
330
81
100
AcDbEntity
  8
0
  6
Continuous
 62
     7
370
    18
100
AcDbLine
 10
106.3668527513
 20
29.7153023919
 30
0.0
 11
106.3668527513
 21
28.6983533434
 31
0.0
  0
SPLINE
  5
D4
330
81
100
AcDbEntity
  8
0
  6
Continuous
 62
     8
370
     0
100
AcDbSpline
210
0.0
220
0.0
230
1.0
 70
     8
 71
     3
 72
     8
 73
     4
 74
     0
 42
0.000000001
 43
0.00000001
 40
0.0
 40
0.0
 40
0.0
 40
0.0
 40
1.0
 40
1.0
 40
1.0
 40
1.0
 10
165.9145299843317
 20
42.47392123835806
 30
0.0
 10
163.2373445166196
 20
43.14743785003957
 30
0.0
 10
162.5142184972235
 20
43.26439891892237
 30
0.0
 10
162.5142184972235
 20
43.83439034297712
 30
0.0
  0
SPLINE
  5
D5
330
81
100
AcDbEntity
  8
0
  6
Continuous
 62
     8
370
     0
100
AcDbSpline
210
0.0
220
0.0
230
1.0
 70
     8
 71
     3
 72
     8
 73
     4
 74
     0
 42
0.000000001
 43
0.00000001
 40
1.0
 40
1.0
 40
1.0
 40
1.0
 40
2.0
 40
2.0
 40
2.0
 40
2.0
 10
162.5142184972235
 20
43.83439034297712
 30
0.0
 10
162.5142184972235
 20
44.08794953796311
 30
0.0
 10
163.6817621273968
 20
44.25641481832745
 30
0.0
 10
164.2398679641865
 20
44.24039511375292
 30
0.0
  0
SPLINE
  5
D6
330
81
100
AcDbEntity
  8
0
  6
Continuous
 62
     8
370
     0
100
AcDbSpline
210
0.0
220
0.0
230
1.0
 70
     8
 71
     3
 72
     8
 73
     4
 74
     0
 42
0.000000001
 43
0.00000001
 40
2.0
 40
2.0
 40
2.0
 40
2.0
 40
3.0
 40
3.0
 40
3.0
 40
3.0
 10
164.2398679641865
 20
44.24039511375292
 30
0.0
 10
165.3912196348973
 20
44.2062886459491
 30
0.0
 10
165.7515768603801
 20
43.97150523374403
 30
0.0
 10
165.8638870472897
 20
43.27628450618734
 30
0.0
  0
SPLINE
  5
D7
330
81
100
AcDbEntity
  8
0
  6
Continuous
 62
     8
370
     0
100
AcDbSpline
210
0.0
220
0.0
230
1.0
 70
     8
 71
     3
 72
     8
 73
     4
 74
     0
 42
0.000000001
 43
0.00000001
 40
3.0
 40
3.0
 40
3.0
 40
3.0
 40
4.0
 40
4.0
 40
4.0
 40
4.0
 10
165.8638870472897
 20
43.27628450618734
 30
0.0
 10
165.9090178279189
 20
43.00205472465359
 30
0.0
 10
165.9138409647801
 20
42.83186689541027
 30
0.0
 10
165.9145299843317
 20
42.47392123835806
 30
0.0
  0
SPLINE
  5
D8
330
81
100
AcDbEntity
  8
0
  6
Continuous
 62
     8
370
     0
100
AcDbSpline
210
0.0
220
0.0
230
1.0
 70
     8
 71
     3
 72
     8
 73
     4
 74
     0
 42
0.000000001
 43
0.00000001
 40
0.0
 40
0.0
 40
0.0
 40
0.0
 40
1.0
 40
1.0
 40
1.0
 40
1.0
 10
164.2102401234681
 20
29.12313389692912
 30
0.0
 10
160.290752404235
 20
29.12313389692912
 30
0.0
 10
156.7767526911141
 20
30.89219159564247
 30
0.0
 10
155.9991941271422
 20
34.65217128868185
 30
0.0
  0
SPLINE
  5
D9
330
81
100
AcDbEntity
  8
0
  6
Continuous
 62
     8
370
     0
100
AcDbSpline
210
0.0
220
0.0
230
1.0
 70
     8
 71
     3
 72
     8
 73
     4
 74
     0
 42
0.000000001
 43
0.00000001
 40
1.0
 40
1.0
 40
1.0
 40
1.0
 40
2.0
 40
2.0
 40
2.0
 40
2.0
 10
155.9991941271422
 20
34.65217128868185
 30
0.0
 10
155.4869080905333
 20
30.98107511779787
 30
0.0
 10
152.3484240330302
 20
29.69605365407815
 30
0.0
 10
148.569496302322
 20
29.69605365407815
 30
0.0
  0
SPLINE
  5
DA
330
81
100
AcDbEntity
  8
0
  6
Continuous
 62
     8
370
     0
100
AcDbSpline
210
0.0
220
0.0
230
1.0
 70
     8
 71
     3
 72
     8
 73
     4
 74
     0
 42
0.000000001
 43
0.00000001
 40
16.0
 40
16.0
 40
16.0
 40
16.0
 40
17.0
 40
17.0
 40
17.0
 40
17.0
 10
148.3259278908342
 20
48.98929011821522
 30
0.0
 10
151.6487246783881
 20
49.0430336432394
 30
0.0
 10
155.2970832040696
 20
48.18227596841268
 30
0.0
 10
155.2970832040696
 20
44.17218217814528
 30
0.0
  0
SPLINE
  5
DB
330
81
100
AcDbEntity
  8
0
  6
Continuous
 62
     8
370
     0
100
AcDbSpline
210
0.0
220
0.0
230
1.0
 70
     8
 71
     3
 72
     8
 73
     4
 74
     0
 42
0.000000001
 43
0.00000001
 40
17.0
 40
17.0
 40
17.0
 40
17.0
 40
18.0
 40
18.0
 40
18.0
 40
18.0
 10
155.2970832040696
 20
44.17218217814528
 30
0.0
 10
155.2970832040696
 20
42.44963329916444
 30
0.0
 10
154.270444072197
 20
41.05092360943199
 30
0.0
 10
152.7570126271244
 20
40.29730847487787
 30
0.0
  0
SPLINE
  5
DC
330
81
100
AcDbEntity
  8
0
  6
Continuous
 62
     8
370
     0
100
AcDbSpline
210
0.0
220
0.0
230
1.0
 70
     8
 71
     3
 72
     8
 73
     4
 74
     0
 42
0.000000001
 43
0.00000001
 40
18.0
 40
18.0
 40
18.0
 40
18.0
 40
19.0
 40
19.0
 40
19.0
 40
19.0
 10
152.7570126271244
 20
40.29730847487787
 30
0.0
 10
154.6566395308645
 20
39.74936567647406
 30
0.0
 10
155.8830943326989
 20
38.18925315678111
 30
0.0
 10
156.0567272597002
 20
36.23347115958625
 30
0.0
  0
SPLINE
  5
DD
330
81
100
AcDbEntity
  8
0
  6
Continuous
 62
     8
370
     0
100
AcDbSpline
210
0.0
220
0.0
230
1.0
 70
     8
 71
     3
 72
     8
 73
     4
 74
     0
 42
0.000000001
 43
0.00000001
 40
20.0
 40
20.0
 40
20.0
 40
20.0
 40
21.0
 40
21.0
 40
21.0
 40
21.0
 10
160.8609160831777
 20
36.23347115958625
 30
0.0
 10
160.9684031332261
 20
33.9727980108118
 30
0.0
 10
162.3736585086987
 20
33.24622689365768
 30
0.0
 10
164.507896569756
 20
33.24622689365768
 30
0.0
  0
SPLINE
  5
DE
330
81
100
AcDbEntity
  8
0
  6
Continuous
 62
     8
370
     0
100
AcDbSpline
210
0.0
220
0.0
230
1.0
 70
     8
 71
     3
 72
     8
 73
     4
 74
     0
 42
0.000000001
 43
0.00000001
 40
21.0
 40
21.0
 40
21.0
 40
21.0
 40
22.0
 40
22.0
 40
22.0
 40
22.0
 10
164.507896569756
 20
33.24622689365768
 30
0.0
 10
166.0209835050527
 20
33.24622689365768
 30
0.0
 10
167.5885029849253
 20
33.78504018300288
 30
0.0
 10
167.5885029849253
 20
35.21131065479903
 30
0.0
  0
SPLINE
  5
DF
330
81
100
AcDbEntity
  8
0
  6
Continuous
 62
     8
370
     0
100
AcDbSpline
210
0.0
220
0.0
230
1.0
 70
     8
 71
     3
 72
     8
 73
     4
 74
     0
 42
0.000000001
 43
0.00000001
 40
22.0
 40
22.0
 40
22.0
 40
22.0
 40
23.0
 40
23.0
 40
23.0
 40
23.0
 10
167.5885029849253
 20
35.21131065479903
 30
0.0
 10
167.5885029849253
 20
36.90629875171619
 30
0.0
 10
164.8331137981075
 20
37.22910441163718
 30
0.0
 10
162.0491302998987
 20
38.00941905381552
 30
0.0
  0
SPLINE
  5
E0
330
81
100
AcDbEntity
  8
0
  6
Continuous
 62
     8
370
     0
100
AcDbSpline
210
0.0
220
0.0
230
1.0
 70
     8
 71
     3
 72
     8
 73
     4
 74
     0
 42
0.000000001
 43
0.00000001
 40
23.0
 40
23.0
 40
23.0
 40
23.0
 40
24.0
 40
24.0
 40
24.0
 40
24.0
 10
162.0491302998987
 20
38.00941905381552
 30
0.0
 10
159.2930520935294
 20
38.78956144110593
 30
0.0
 10
156.4022705648237
 20
40.02772957531736
 30
0.0
 10
156.4022705648237
 20
43.55344262081537
 30
0.0
  0
SPLINE
  5
E1
330
81
100
AcDbEntity
  8
0
  6
Continuous
 62
     8
370
     0
100
AcDbSpline
210
0.0
220
0.0
230
1.0
 70
     8
 71
     3
 72
     8
 73
     4
 74
     0
 42
0.000000001
 43
0.00000001
 40
24.0
 40
24.0
 40
24.0
 40
24.0
 40
25.0
 40
25.0
 40
25.0
 40
25.0
 10
156.4022705648237
 20
43.55344262081537
 30
0.0
 10
156.4022705648237
 20
47.75129423889168
 30
0.0
 10
160.6449084537535
 20
49.39253881078461
 30
0.0
 10
164.2646726680438
 20
49.39253881078461
 30
0.0
  0
SPLINE
  5
E2
330
81
100
AcDbEntity
  8
0
  6
Continuous
 62
     8
370
     0
100
AcDbSpline
210
0.0
220
0.0
230
1.0
 70
     8
 71
     3
 72
     8
 73
     4
 74
     0
 42
0.000000001
 43
0.00000001
 40
25.0
 40
25.0
 40
25.0
 40
25.0
 40
26.0
 40
26.0
 40
26.0
 40
26.0
 10
164.2646726680438
 20
49.39253881078461
 30
0.0
 10
168.1018225508616
 20
49.39253881078461
 30
0.0
 10
171.9654996864157
 20
47.53614788390696
 30
0.0
 10
171.9930604684793
 20
43.20376519838225
 30
0.0
  0
SPLINE
  5
E3
330
81
100
AcDbEntity
  8
0
  6
Continuous
 62
     8
370
     0
100
AcDbSpline
210
0.0
220
0.0
230
1.0
 70
     8
 71
     3
 72
     8
 73
     4
 74
     0
 42
0.000000001
 43
0.00000001
 40
27.0
 40
27.0
 40
27.0
 40
27.0
 40
28.0
 40
28.0
 40
28.0
 40
28.0
 10
166.9673518591648
 20
43.20376519838225
 30
0.0
 10
167.0486561662527
 20
44.9523245654357
 30
0.0
 10
165.3998323792922
 20
45.51766510751722
 30
0.0
 10
163.8591846619318
 20
45.51766510751722
 30
0.0
  0
SPLINE
  5
E4
330
81
100
AcDbEntity
  8
0
  6
Continuous
 62
     8
370
     0
100
AcDbSpline
210
0.0
220
0.0
230
1.0
 70
     8
 71
     3
 72
     8
 73
     4
 74
     0
 42
0.000000001
 43
0.00000001
 40
28.0
 40
28.0
 40
28.0
 40
28.0
 40
29.0
 40
29.0
 40
29.0
 40
29.0
 10
163.8591846619318
 20
45.51766510751722
 30
0.0
 10
162.7794910245866
 20
45.51766510751722
 30
0.0
 10
161.4286681936898
 20
45.14094366768412
 30
0.0
 10
161.4286681936898
 20
43.87642053562427
 30
0.0
  0
SPLINE
  5
E5
330
81
100
AcDbEntity
  8
0
  6
Continuous
 62
     8
370
     0
100
AcDbSpline
210
0.0
220
0.0
230
1.0
 70
     8
 71
     3
 72
     8
 73
     4
 74
     0
 42
0.000000001
 43
0.00000001
 40
29.0
 40
29.0
 40
29.0
 40
29.0
 40
30.0
 40
30.0
 40
30.0
 40
30.0
 10
161.4286681936898
 20
43.87642053562427
 30
0.0
 10
161.4286681936898
 20
42.39606202902813
 30
0.0
 10
164.2102401234681
 20
42.12665538435552
 30
0.0
 10
167.021095384189
 20
41.34634074217721
 30
0.0
  0
SPLINE
  5
E6
330
81
100
AcDbEntity
  8
0
  6
Continuous
 62
     8
370
     0
100
AcDbSpline
210
0.0
220
0.0
230
1.0
 70
     8
 71
     3
 72
     8
 73
     4
 74
     0
 42
0.000000001
 43
0.00000001
 40
30.0
 40
30.0
 40
30.0
 40
30.0
 40
31.0
 40
31.0
 40
31.0
 40
31.0
 10
167.021095384189
 20
41.34634074217721
 30
0.0
 10
169.8047343726221
 20
40.56619835488677
 30
0.0
 10
172.6142115942398
 20
39.27428669565115
 30
0.0
 10
172.6142115942398
 20
35.80317844961686
 30
0.0
  0
SPLINE
  5
E7
330
81
100
AcDbEntity
  8
0
  6
Continuous
 62
     8
370
     0
100
AcDbSpline
210
0.0
220
0.0
230
1.0
 70
     8
 71
     3
 72
     8
 73
     4
 74
     0
 42
0.000000001
 43
0.00000001
 40
31.0
 40
31.0
 40
31.0
 40
31.0
 40
32.0
 40
32.0
 40
32.0
 40
32.0
 10
172.6142115942398
 20
35.80317844961686
 30
0.0
 10
172.6142115942398
 20
30.93249923941061
 30
0.0
 10
168.4532225221737
 20
29.12313389692912
 30
0.0
 10
164.2102401234681
 20
29.12313389692912
 30
0.0
  0
SPLINE
  5
E8
330
81
100
AcDbEntity
  8
0
  6
Continuous
 62
     8
370
     0
100
AcDbSpline
210
0.0
220
0.0
230
1.0
 70
     8
 71
     3
 72
     8
 73
     4
 74
     0
 42
0.000000001
 43
0.00000001
 40
0.0
 40
0.0
 40
0.0
 40
0.0
 40
1.0
 40
1.0
 40
1.0
 40
1.0
 10
160.6276829649637
 20
37.39343557469195
 30
0.0
 10
160.938086272956
 20
37.30765264051871
 30
0.0
 10
161.2550352666885
 20
37.2187691183633
 30
0.0
 10
161.5726732799726
 20
37.12781853755313
 30
0.0
  0
SPLINE
  5
E9
330
81
100
AcDbEntity
  8
0
  6
Continuous
 62
     8
370
     0
100
AcDbSpline
210
0.0
220
0.0
230
1.0
 70
     8
 71
     3
 72
     8
 73
     4
 74
     0
 42
0.000000001
 43
0.00000001
 40
3.00211844657731
 40
3.00211844657731
 40
3.00211844657731
 40
3.00211844657731
 40
4.0
 40
4.0
 40
4.0
 40
4.0
 10
66.52024188954972
 20
39.12608937915723
 30
0.0
 10
66.52360869616864
 20
45.27412322811475
 30
0.0
 10
70.30988649618203
 20
50.17609584429974
 30
0.0
 10
77.02507716926495
 20
50.1899542846939
 30
0.0
  0
SPLINE
  5
EA
330
81
100
AcDbEntity
  8
0
  6
Continuous
 62
     8
370
     0
100
AcDbSpline
210
0.0
220
0.0
230
1.0
 70
     8
 71
     3
 72
     8
 73
     4
 74
     0
 42
0.000000001
 43
0.00000001
 40
3.0
 40
3.0
 40
3.0
 40
3.0
 40
4.0
 40
4.0
 40
4.0
 40
4.0
 10
161.7042760143268
 20
37.08957795243973
 30
0.0
 10
164.0696801349432
 20
36.40710408658753
 30
0.0
 10
166.4492091563673
 20
35.59543905481176
 30
0.0
 10
166.3251856370807
 20
35.10003399721688
 30
0.0
  0
SPLINE
  5
EB
330
81
100
AcDbEntity
  8
0
  6
Continuous
 62
     8
370
     0
100
AcDbSpline
210
0.0
220
0.0
230
1.0
 70
     8
 71
     3
 72
     8
 73
     4
 74
     0
 42
0.000000001
 43
0.00000001
 40
4.0
 40
4.0
 40
4.0
 40
4.0
 40
5.0
 40
5.0
 40
5.0
 40
5.0
 10
166.3251856370807
 20
35.10003399721688
 30
0.0
 10
166.0898854602119
 20
34.15642172131117
 30
0.0
 10
165.4012104183954
 20
33.89493880148186
 30
0.0
 10
163.6080370353763
 20
34.38448719288822
 30
0.0
  0
SPLINE
  5
EC
330
81
100
AcDbEntity
  8
0
  6
Continuous
 62
     8
370
     0
100
AcDbSpline
210
0.0
220
0.0
230
1.0
 70
     8
 71
     3
 72
     8
 73
     4
 74
     0
 42
0.000000001
 43
0.00000001
 40
5.0
 40
5.0
 40
5.0
 40
5.0
 40
6.0
 40
6.0
 40
6.0
 40
6.0
 10
163.6080370353763
 20
34.38448719288822
 30
0.0
 10
161.7283916986325
 20
34.89884028815191
 30
0.0
 10
161.7046205241026
 20
35.93478118397098
 30
0.0
 10
161.7042760143268
 20
37.08957795243973
 30
0.0
  0
SPLINE
  5
ED
330
81
100
AcDbEntity
  8
0
  6
Continuous
 62
     8
370
     0
100
AcDbSpline
210
0.0
220
0.0
230
1.0
 70
     8
 71
     3
 72
     8
 73
     4
 74
     0
 42
0.000000001
 43
0.00000001
 40
8.0
 40
8.0
 40
8.0
 40
8.0
 40
9.0
 40
9.0
 40
9.0
 40
9.0
 10
156.7116403434886
 20
37.12781853755313
 30
0.0
 10
156.7116403434886
 20
38.5878509673773
 30
0.0
 10
155.4507345640747
 20
39.84892900167915
 30
0.0
 10
154.6542279624339
 20
40.37981856618105
 30
0.0
  0
SPLINE
  5
EE
330
81
100
AcDbEntity
  8
0
  6
Continuous
 62
     8
370
     0
100
AcDbSpline
210
0.0
220
0.0
230
1.0
 70
     8
 71
     3
 72
     8
 73
     4
 74
     0
 42
0.000000001
 43
0.00000001
 40
9.0
 40
9.0
 40
9.0
 40
9.0
 40
10.0
 40
10.0
 40
10.0
 40
10.0
 10
154.6542279624339
 20
40.37981856618105
 30
0.0
 10
155.0517922437027
 20
40.8442177439543
 30
0.0
 10
155.649516704709
 20
41.30913368639121
 30
0.0
 10
155.8493323746708
 20
42.10546803314405
 30
0.0
  0
SPLINE
  5
EF
330
81
100
AcDbEntity
  8
0
  6
Continuous
 62
     8
370
     0
100
AcDbSpline
210
0.0
220
0.0
230
1.0
 70
     8
 71
     3
 72
     8
 73
     4
 74
     0
 42
0.000000001
 43
0.00000001
 40
10.0
 40
10.0
 40
10.0
 40
10.0
 40
11.0
 40
11.0
 40
11.0
 40
11.0
 10
155.8493323746708
 20
42.10546803314405
 30
0.0
 10
155.8493323746708
 20
39.84892900167915
 30
0.0
 10
157.9732351424542
 20
38.12293502494035
 30
0.0
 10
160.6276829649637
 20
37.39343557469195
 30
0.0
  0
SPLINE
  5
F0
330
81
100
AcDbEntity
  8
0
  6
Continuous
 62
     8
370
     0
100
AcDbSpline
210
0.0
220
0.0
230
1.0
 70
     8
 71
     3
 72
     8
 73
     4
 74
     0
 42
0.000000001
 43
0.00000001
 40
0.0
 40
0.0
 40
0.0
 40
0.0
 40
1.0
 40
1.0
 40
1.0
 40
1.0
 10
167.3357547617924
 20
42.17058038076954
 30
0.0
 10
167.2847673149745
 20
42.18401626202559
 30
0.0
 10
167.2406700636727
 20
42.19590184929056
 30
0.0
 10
167.189338107079
 20
42.2088209658829
 30
0.0
  0
SPLINE
  5
F1
330
81
100
AcDbEntity
  8
0
  6
Continuous
 62
     8
370
     0
100
AcDbSpline
210
0.0
220
0.0
230
1.0
 70
     8
 71
     3
 72
     8
 73
     4
 74
     0
 42
0.000000001
 43
0.00000001
 40
2.0
 40
2.0
 40
2.0
 40
2.0
 40
3.0
 40
3.0
 40
3.0
 40
3.0
 10
173.0691700759391
 20
42.16747979278733
 30
0.0
 10
173.0691700759391
 20
45.27185738248661
 30
0.0
 10
172.4597322825556
 20
50.25002364274127
 30
0.0
 10
164.1870190363622
 20
50.25002364274127
 30
0.0
  0
SPLINE
  5
F2
330
81
100
AcDbEntity
  8
0
  6
Continuous
 62
     8
370
     0
100
AcDbSpline
210
0.0
220
0.0
230
1.0
 70
     8
 71
     3
 72
     8
 73
     4
 74
     0
 42
0.000000001
 43
0.00000001
 40
3.0
 40
3.0
 40
3.0
 40
3.0
 40
4.0
 40
4.0
 40
4.0
 40
4.0
 10
164.1870190363622
 20
50.25002364274127
 30
0.0
 10
159.3649157045433
 20
50.25002364274127
 30
0.0
 10
156.9760849191726
 20
47.90081148158718
 30
0.0
 10
156.0162806838046
 20
46.1898036800955
 30
0.0
  0
SPLINE
  5
F3
330
81
100
AcDbEntity
  8
0
  6
Continuous
 62
     8
370
     0
100
AcDbSpline
210
0.0
220
0.0
230
1.0
 70
     8
 71
     3
 72
     8
 73
     4
 74
     0
 42
0.000000001
 43
0.00000001
 40
4.0
 40
4.0
 40
4.0
 40
4.0
 40
5.0
 40
5.0
 40
5.0
 40
5.0
 10
156.0162806838046
 20
46.1898036800955
 30
0.0
 10
155.1174546787523
 20
47.90081148158718
 30
0.0
 10
154.5865651142504
 20
50.04710738479733
 30
0.0
 10
147.7273754781487
 20
50.04710738479733
 30
0.0
  0
SPLINE
  5
F4
330
81
100
AcDbEntity
  8
0
  6
Continuous
 62
     8
370
     0
100
AcDbSpline
210
0.0
220
0.0
230
1.0
 70
     8
 71
     3
 72
     8
 73
     4
 74
     0
 42
0.000000001
 43
0.00000001
 40
19.0
 40
19.0
 40
19.0
 40
19.0
 40
20.0
 40
20.0
 40
20.0
 40
20.0
 10
149.6765281642566
 20
28.76070961279156
 30
0.0
 10
152.520456363454
 20
28.8110080400578
 30
0.0
 10
155.173870656636
 20
30.15769675364504
 30
0.0
 10
155.9810570613264
 20
32.14345110133414
 30
0.0
  0
SPLINE
  5
F5
330
81
100
AcDbEntity
  8
0
  6
Continuous
 62
     8
370
     0
100
AcDbSpline
210
0.0
220
0.0
230
1.0
 70
     8
 71
     3
 72
     8
 73
     4
 74
     0
 42
0.000000001
 43
0.00000001
 40
20.0
 40
20.0
 40
20.0
 40
20.0
 40
21.0
 40
21.0
 40
21.0
 40
21.0
 10
155.9810570613264
 20
32.14345110133414
 30
0.0
 10
156.7465577831456
 20
30.15769675364504
 30
0.0
 10
159.417886584669
 20
28.16367417133681
 30
0.0
 10
164.5948349855581
 20
28.16367417133681
 30
0.0
  0
SPLINE
  5
F6
330
81
100
AcDbEntity
  8
0
  6
Continuous
 62
     8
370
     0
100
AcDbSpline
210
0.0
220
0.0
230
1.0
 70
     8
 71
     3
 72
     8
 73
     4
 74
     0
 42
0.000000001
 43
0.00000001
 40
21.0
 40
21.0
 40
21.0
 40
21.0
 40
22.0
 40
22.0
 40
22.0
 40
22.0
 10
164.5948349855581
 20
28.16367417133681
 30
0.0
 10
169.7717833864471
 20
28.16367417133681
 30
0.0
 10
173.6165124843323
 20
31.30629234614945
 30
0.0
 10
173.6165124843323
 20
35.44798887077101
 30
0.0
  0
SPLINE
  5
F7
330
81
100
AcDbEntity
  8
0
  6
Continuous
 62
     8
370
     0
100
AcDbSpline
210
0.0
220
0.0
230
1.0
 70
     8
 71
     3
 72
     8
 73
     4
 74
     0
 42
0.000000001
 43
0.00000001
 40
22.0
 40
22.0
 40
22.0
 40
22.0
 40
23.0
 40
23.0
 40
23.0
 40
23.0
 10
173.6165124843323
 20
35.44798887077101
 30
0.0
 10
173.6165124843323
 20
39.66030989943075
 30
0.0
 10
171.193575231158
 20
41.15548232638614
 30
0.0
 10
167.3357547617924
 20
42.17058038076954
 30
0.0
  0
SPLINE
  5
F8
330
81
100
AcDbEntity
  8
0
  6
Continuous
 62
     8
370
     0
100
AcDbSpline
210
0.0
220
0.0
230
1.0
 70
     8
 71
     3
 72
     8
 73
     4
 74
     0
 42
0.000000001
 43
0.00000001
 40
0.0
 40
0.0
 40
0.0
 40
0.0
 40
1.0
 40
1.0
 40
1.0
 40
1.0
 10
77.03221361313545
 20
33.05571298764242
 30
0.0
 10
80.63526910329966
 20
33.05571298764242
 30
0.0
 10
82.01537526513914
 20
36.22554743474296
 30
0.0
 10
82.01537526513914
 20
39.394520607404
 30
0.0
  0
SPLINE
  5
F9
330
81
100
AcDbEntity
  8
0
  6
Continuous
 62
     8
370
     0
100
AcDbSpline
210
0.0
220
0.0
230
1.0
 70
     8
 71
     3
 72
     8
 73
     4
 74
     0
 42
0.000000001
 43
0.00000001
 40
1.0
 40
1.0
 40
1.0
 40
1.0
 40
2.0
 40
2.0
 40
2.0
 40
2.0
 10
82.01537526513914
 20
39.394520607404
 30
0.0
 10
82.01537526513914
 20
42.56383828984087
 30
0.0
 10
80.63526910329966
 20
45.73315597227772
 30
0.0
 10
77.03221361313545
 20
45.73315597227772
 30
0.0
  0
SPLINE
  5
FA
330
81
100
AcDbEntity
  8
0
  6
Continuous
 62
     8
370
     0
100
AcDbSpline
210
0.0
220
0.0
230
1.0
 70
     8
 71
     3
 72
     8
 73
     4
 74
     0
 42
0.000000001
 43
0.00000001
 40
2.0
 40
2.0
 40
2.0
 40
2.0
 40
3.0
 40
3.0
 40
3.0
 40
3.0
 10
77.03221361313545
 20
45.73315597227772
 30
0.0
 10
73.42950263274702
 20
45.73315597227772
 30
0.0
 10
72.04887970624388
 20
42.56383828984087
 30
0.0
 10
72.04887970624385
 20
39.394520607404
 30
0.0
  0
SPLINE
  5
FB
330
81
100
AcDbEntity
  8
0
  6
Continuous
 62
     8
370
     0
100
AcDbSpline
210
0.0
220
0.0
230
1.0
 70
     8
 71
     3
 72
     8
 73
     4
 74
     0
 42
0.000000001
 43
0.00000001
 40
3.0
 40
3.0
 40
3.0
 40
3.0
 40
4.0
 40
4.0
 40
4.0
 40
4.0
 10
72.04887970624385
 20
39.394520607404
 30
0.0
 10
72.04887970624388
 20
36.22554743474296
 30
0.0
 10
73.42950263274702
 20
33.05571298764242
 30
0.0
 10
77.03221361313545
 20
33.05571298764242
 30
0.0
  0
SPLINE
  5
FC
330
81
100
AcDbEntity
  8
0
  6
Continuous
 62
     8
370
     0
100
AcDbSpline
210
0.0
220
0.0
230
1.0
 70
     8
 71
     3
 72
    11
 73
     7
 74
     0
 42
0.000000001
 43
0.00000001
 40
2.0
 40
2.0
 40
2.0
 40
2.0
 40
3.0
 40
3.0
 40
3.0
 40
3.00211844657731
 40
3.00211844657731
 40
3.00211844657731
 40
3.00211844657731
 10
77.06659554923958
 20
27.94516906200683
 30
0.0
 10
70.31214814569965
 20
27.95750275571358
 30
0.0
 10
66.50881771248031
 20
32.89783589216447
 30
0.0
 10
66.52011877545024
 20
39.08677144153199
 30
0.0
 10
66.52014271748132
 20
39.09988310068809
 30
0.0
 10
66.5201837582936
 20
39.11298909154457
 30
0.0
 10
66.52024188954972
 20
39.12608937915723
 30
0.0
  0
SPLINE
  5
FD
330
81
100
AcDbEntity
  8
0
  6
Continuous
 62
     8
370
     0
100
AcDbSpline
210
0.0
220
0.0
230
1.0
 70
     8
 71
     3
 72
    11
 73
     7
 74
     0
 42
0.000000001
 43
0.00000001
 40
0.0
 40
0.0
 40
0.0
 40
0.0
 40
1.0
 40
1.0
 40
1.0
 40
2.0
 40
2.0
 40
2.0
 40
2.0
 10
77.02507716926495
 20
50.1899542846939
 30
0.0
 10
83.78004083250916
 20
50.2025619653381
 30
0.0
 10
87.60141459757921
 20
45.2764779726998
 30
0.0
 10
87.61296646735416
 20
39.08719837601426
 30
0.0
 10
87.6245176941261
 20
32.89826328850453
 30
0.0
 10
83.82155921248359
 20
27.95777674265099
 30
0.0
 10
77.06659554923958
 20
27.94516906200683
 30
0.0
  0
SPLINE
  5
FE
330
81
100
AcDbEntity
  8
0
  6
Continuous
 62
     8
370
     0
100
AcDbSpline
210
0.0
220
0.0
230
1.0
 70
     8
 71
     3
 72
     8
 73
     4
 74
     0
 42
0.000000001
 43
0.00000001
 40
1.0
 40
1.0
 40
1.0
 40
1.0
 40
2.0
 40
2.0
 40
2.0
 40
2.0
 10
97.89159151804188
 20
40.80029274754029
 30
0.0
 10
99.57279922392719
 20
40.80029274754029
 30
0.0
 10
100.4730032680826
 20
41.69670718416189
 30
0.0
 10
100.4730032680826
 20
43.31125224843066
 30
0.0
  0
SPLINE
  5
FF
330
81
100
AcDbEntity
  8
0
  6
Continuous
 62
     8
370
     0
100
AcDbSpline
210
0.0
220
0.0
230
1.0
 70
     8
 71
     3
 72
     8
 73
     4
 74
     0
 42
0.000000001
 43
0.00000001
 40
2.0
 40
2.0
 40
2.0
 40
2.0
 40
3.0
 40
3.0
 40
3.0
 40
3.0
 10
100.4730032680826
 20
43.31125224843066
 30
0.0
 10
100.4730032680826
 20
44.89565270731723
 30
0.0
 10
99.21295876310808
 20
45.61378333496433
 30
0.0
 10
97.65146820431197
 20
45.61378333496433
 30
0.0
  0
SPLINE
  5
100
330
81
100
AcDbEntity
  8
0
  6
Continuous
 62
     8
370
     0
100
AcDbSpline
210
0.0
220
0.0
230
1.0
 70
     8
 71
     3
 72
     8
 73
     4
 74
     0
 42
0.000000001
 43
0.00000001
 40
1.0
 40
1.0
 40
1.0
 40
1.0
 40
2.0
 40
2.0
 40
2.0
 40
2.0
 10
98.55218900458812
 20
50.04710738479733
 30
0.0
 10
102.3342173232785
 20
50.04710738479733
 30
0.0
 10
106.0573344703076
 20
48.34264526904578
 30
0.0
 10
106.0573344703077
 20
44.03765111069685
 30
0.0
  0
SPLINE
  5
101
330
81
100
AcDbEntity
  8
0
  6
Continuous
 62
     8
370
     0
100
AcDbSpline
210
0.0
220
0.0
230
1.0
 70
     8
 71
     3
 72
     8
 73
     4
 74
     0
 42
0.000000001
 43
0.00000001
 40
2.0
 40
2.0
 40
2.0
 40
2.0
 40
3.0
 40
3.0
 40
3.0
 40
3.0
 10
106.0573344703077
 20
44.03765111069685
 30
0.0
 10
106.0573344703076
 20
41.73494776927527
 30
0.0
 10
104.9459459335892
 20
39.55265059449444
 30
0.0
 10
102.6945745487612
 20
38.68569174370337
 30
0.0
  0
SPLINE
  5
102
330
81
100
AcDbEntity
  8
0
  6
Continuous
 62
     8
370
     0
100
AcDbSpline
210
0.0
220
0.0
230
1.0
 70
     8
 71
     3
 72
     8
 73
     4
 74
     0
 42
0.000000001
 43
0.00000001
 40
4.0
 40
4.0
 40
4.0
 40
4.0
 40
5.0
 40
5.0
 40
5.0
 40
5.0
 10
102.6945745487612
 20
38.62574704271483
 30
0.0
 10
104.9766073036351
 20
38.08727826314542
 30
0.0
 10
105.6373770536121
 20
35.54548513732129
 30
0.0
 10
105.8175556663535
 20
33.5125329503481
 30
0.0
  0
SPLINE
  5
103
330
81
100
AcDbEntity
  8
0
  6
Continuous
 62
     8
370
     0
100
AcDbSpline
210
0.0
220
0.0
230
1.0
 70
     8
 71
     3
 72
     8
 73
     4
 74
     0
 42
0.000000001
 43
0.00000001
 40
5.0
 40
5.0
 40
5.0
 40
5.0
 40
5.74044267676188
 40
5.74044267676188
 40
5.74044267676188
 40
5.74044267676188
 10
105.8175556663535
 20
33.5125329503481
 30
0.0
 10
105.8808091746534
 20
32.85009942065996
 30
0.0
 10
105.9969739034398
 20
30.95908278298207
 30
0.0
 10
106.3668527512702
 20
29.71530239194635
 30
0.0
  0
SPLINE
  5
104
330
81
100
AcDbEntity
  8
0
  6
Continuous
 62
     8
370
     0
100
AcDbSpline
210
0.0
220
0.0
230
1.0
 70
     8
 71
     3
 72
     8
 73
     4
 74
     0
 42
0.000000001
 43
0.00000001
 40
7.0
 40
7.0
 40
7.0
 40
7.0
 40
8.0
 40
8.0
 40
8.0
 40
8.0
 10
101.1935454556174
 20
28.69835334337245
 30
0.0
 10
100.7139878477091
 20
29.41665622590745
 30
0.0
 10
100.6237262864505
 20
31.50920860409338
 30
0.0
 10
100.5634370756861
 20
32.10693306509975
 30
0.0
  0
SPLINE
  5
105
330
81
100
AcDbEntity
  8
0
  6
Continuous
 62
     8
370
     0
100
AcDbSpline
210
0.0
220
0.0
230
1.0
 70
     8
 71
     3
 72
     8
 73
     4
 74
     0
 42
0.000000001
 43
0.00000001
 40
8.0
 40
8.0
 40
8.0
 40
8.0
 40
9.0
 40
9.0
 40
9.0
 40
9.0
 10
100.5634370756861
 20
32.10693306509975
 30
0.0
 10
100.4134030683269
 20
34.26046367360161
 30
0.0
 10
100.0533903526199
 20
36.4729054537646
 30
0.0
 10
97.44200625208497
 20
36.4729054537646
 30
0.0
  0
SPLINE
  5
106
330
81
100
AcDbEntity
  8
0
  6
Continuous
 62
     8
370
     0
100
AcDbSpline
210
0.0
220
0.0
230
1.0
 70
     8
 71
     3
 72
     8
 73
     4
 74
     0
 42
0.000000001
 43
0.00000001
 40
1.0
 40
1.0
 40
1.0
 40
1.0
 40
2.0
 40
2.0
 40
2.0
 40
2.0
 10
148.3552112217768
 20
45.35557325800512
 30
0.0
 10
149.5682301423551
 20
45.35557325800512
 30
0.0
 10
150.7168257348595
 20
44.77576330534016
 30
0.0
 10
150.7168257348595
 20
43.00515531263576
 30
0.0
  0
SPLINE
  5
107
330
81
100
AcDbEntity
  8
0
  6
Continuous
 62
     8
370
     0
100
AcDbSpline
210
0.0
220
0.0
230
1.0
 70
     8
 71
     3
 72
     8
 73
     4
 74
     0
 42
0.000000001
 43
0.00000001
 40
2.0
 40
2.0
 40
2.0
 40
2.0
 40
3.0
 40
3.0
 40
3.0
 40
3.0
 10
150.7168257348595
 20
43.00515531263576
 30
0.0
 10
150.7168257348595
 20
41.26865378773517
 30
0.0
 10
149.3504999640519
 20
40.68918834484602
 30
0.0
 10
148.3552112217768
 20
40.68918834484602
 30
0.0
  0
SPLINE
  5
108
330
81
100
AcDbEntity
  8
0
  6
Continuous
 62
     8
370
     0
100
AcDbSpline
210
0.0
220
0.0
230
1.0
 70
     8
 71
     3
 72
     8
 73
     4
 74
     0
 42
0.000000001
 43
0.00000001
 40
2.0
 40
2.0
 40
2.0
 40
2.0
 40
3.0
 40
3.0
 40
3.0
 40
3.0
 10
147.9838296834685
 20
41.63848503205236
 30
0.0
 10
148.6783613914736
 20
41.63848503205236
 30
0.0
 10
149.6316199411016
 20
41.97300402435042
 30
0.0
 10
149.6316199411016
 20
42.9753552170294
 30
0.0
  0
SPLINE
  5
109
330
81
100
AcDbEntity
  8
0
  6
Continuous
 62
     8
370
     0
100
AcDbSpline
210
0.0
220
0.0
230
1.0
 70
     8
 71
     3
 72
     8
 73
     4
 74
     0
 42
0.000000001
 43
0.00000001
 40
3.0
 40
3.0
 40
3.0
 40
3.0
 40
4.0
 40
4.0
 40
4.0
 40
4.0
 10
149.6316199411016
 20
42.9753552170294
 30
0.0
 10
149.6316199411016
 20
43.99734346692872
 30
0.0
 10
148.8296011830481
 20
44.33186245922681
 30
0.0
 10
147.9838296834685
 20
44.33186245922681
 30
0.0
  0
SPLINE
  5
10A
330
81
100
AcDbEntity
  8
0
  6
Continuous
 62
     8
370
     0
100
AcDbSpline
210
0.0
220
0.0
230
1.0
 70
     8
 71
     3
 72
     8
 73
     4
 74
     0
 42
0.000000001
 43
0.00000001
 40
1.0
 40
1.0
 40
1.0
 40
1.0
 40
2.0
 40
2.0
 40
2.0
 40
2.0
 10
148.8506162793717
 20
38.45762627212632
 30
0.0
 10
150.1973049929589
 20
38.45762627212632
 30
0.0
 10
151.4726801829563
 20
37.78979407174546
 30
0.0
 10
151.4726801829563
 20
35.74943492459264
 30
0.0
  0
SPLINE
  5
10B
330
81
100
AcDbEntity
  8
0
  6
Continuous
 62
     8
370
     0
100
AcDbSpline
210
0.0
220
0.0
230
1.0
 70
     8
 71
     3
 72
     8
 73
     4
 74
     0
 42
0.000000001
 43
0.00000001
 40
2.0
 40
2.0
 40
2.0
 40
2.0
 40
3.0
 40
3.0
 40
3.0
 40
3.0
 10
151.4726801829563
 20
35.74943492459264
 30
0.0
 10
151.4726801829563
 20
33.74748861744111
 30
0.0
 10
149.9558036401258
 20
33.07982867194814
 30
0.0
 10
148.8506162793717
 20
33.07982867194814
 30
0.0
  0
SPLINE
  5
10C
330
81
100
AcDbEntity
  8
0
  6
Continuous
 62
     8
370
     0
100
AcDbSpline
210
0.0
220
0.0
230
1.0
 70
     8
 71
     3
 72
     8
 73
     4
 74
     0
 42
0.000000001
 43
0.00000001
 40
2.0
 40
2.0
 40
2.0
 40
2.0
 40
3.0
 40
3.0
 40
3.0
 40
3.0
 10
148.5660512045641
 20
33.99588016579015
 30
0.0
 10
149.395975254457
 20
33.99588016579015
 30
0.0
 10
150.5349245732392
 20
34.42513934643217
 30
0.0
 10
150.5349245732392
 20
35.71326139813404
 30
0.0
  0
SPLINE
  5
10D
330
81
100
AcDbEntity
  8
0
  6
Continuous
 62
     8
370
     0
100
AcDbSpline
210
0.0
220
0.0
230
1.0
 70
     8
 71
     3
 72
     8
 73
     4
 74
     0
 42
0.000000001
 43
0.00000001
 40
3.0
 40
3.0
 40
3.0
 40
3.0
 40
4.0
 40
4.0
 40
4.0
 40
4.0
 10
150.5349245732392
 20
35.71326139813404
 30
0.0
 10
150.5349245732392
 20
37.02618815369325
 30
0.0
 10
149.5771873965258
 20
37.45613635388687
 30
0.0
 10
148.5660512045641
 20
37.45613635388687
 30
0.0
  0
HATCH
  5
10E
330
81
100
AcDbEntity
  8
0
  6
Continuous
 62
     7
100
AcDbHatch
 10
0.0
 20
0.0
 30
0.0
210
0.0
220
0.0
230
1.0
  2
SOLID
 70
     1
 71
     0
 91
        1
 92
        0
 93
       18
 72
     1
 10
53.55697298060871
 20
28.69835334337245
 11
47.97367529916809
 21
28.69835334337245
 72
     1
 10
47.97367529916809
 20
28.69835334337245
 11
47.97367529916809
 21
45.26307238320382
 72
     1
 10
47.97367529916809
 20
45.26307238320382
 11
42.18126018381921
 21
45.26307238320382
 72
     1
 10
42.18126018381921
 20
45.26307238320382
 11
42.18126018381921
 21
28.69835334337245
 72
     1
 10
42.18126018381921
 20
28.69835334337245
 11
36.59744573771491
 21
28.69835334337245
 72
     1
 10
36.59744573771491
 20
28.69835334337245
 11
36.59744573771491
 21
45.26307238320382
 72
     1
 10
36.59744573771491
 20
45.26307238320382
 11
30.20299978916224
 21
45.26307238320382
 72
     1
 10
30.20299978916224
 20
45.26307238320382
 11
30.20299978916224
 21
50.04710738479733
 72
     1
 10
30.20299978916224
 20
50.04710738479733
 11
53.55697298060871
 21
50.04710738479733
 72
     1
 10
53.55697298060871
 20
50.04710738479733
 11
53.55697298060871
 21
42.272899784181
 72
     1
 10
53.55697298060871
 20
42.272899784181
 11
60.91242894874484
 21
42.272899784181
 72
     1
 10
60.91242894874484
 20
42.272899784181
 11
60.91242894874484
 21
50.04710738479733
 72
     1
 10
60.91242894874484
 20
50.04710738479733
 11
66.496415649737
 21
50.04710738479733
 72
     1
 10
66.496415649737
 20
50.04710738479733
 11
66.496415649737
 21
28.69835334337245
 72
     1
 10
66.496415649737
 20
28.69835334337245
 11
60.91242894874484
 21
28.69835334337245
 72
     1
 10
60.91242894874484
 20
28.69835334337245
 11
60.91242894874484
 21
37.48955380213908
 72
     1
 10
60.91242894874484
 20
37.48955380213908
 11
53.55697298060871
 21
37.48955380213908
 72
     1
 10
53.55697298060871
 20
37.48955380213908
 11
53.55697298060871
 21
28.69835334337245
 97
        0
 75
     0
 76
     1
 98
        1
 10
0.0
 20
0.0
  0
HATCH
  5
10F
330
81
100
AcDbEntity
  8
0
  6
Continuous
 62
     7
100
AcDbHatch
 10
0.0
 20
0.0
 30
0.0
210
0.0
220
0.0
230
1.0
  2
SOLID
 70
     1
 71
     0
 91
        2
 92
        0
 93
        3
 72
     4
 94
        3
 73
     1
 74
     0
 95
       11
 96
        7
 40
0.0
 40
0.0
 40
0.0
 40
0.0
 40
1.0
 40
1.0
 40
1.0
 40
2.0
 40
2.0
 40
2.0
 40
2.0
 10
77.02507716926495
 20
50.1899542846939
 42
1.0
 10
83.78004083250916
 20
50.2025619653381
 42
1.0
 10
87.60141459757921
 20
45.2764779726998
 42
1.0
 10
87.61296646735416
 20
39.08719837601426
 42
1.0
 10
87.6245176941261
 20
32.89826328850453
 42
1.0
 10
83.82155921248359
 20
27.95777674265099
 42
1.0
 10
77.06659554923958
 20
27.94516906200683
 42
1.0
 72
     4
 94
        3
 73
     1
 74
     0
 95
       11
 96
        7
 40
2.0
 40
2.0
 40
2.0
 40
2.0
 40
3.0
 40
3.0
 40
3.0
 40
3.00211844657731
 40
3.00211844657731
 40
3.00211844657731
 40
3.00211844657731
 10
77.06659554923958
 20
27.94516906200683
 42
1.0
 10
70.31214814569965
 20
27.95750275571358
 42
1.0
 10
66.50881771248031
 20
32.89783589216447
 42
1.0
 10
66.52011877545024
 20
39.08677144153199
 42
1.0
 10
66.52014271748132
 20
39.09988310068809
 42
1.0
 10
66.5201837582936
 20
39.11298909154457
 42
1.0
 10
66.52024188954972
 20
39.12608937915723
 42
1.0
 72
     4
 94
        3
 73
     1
 74
     0
 95
        8
 96
        4
 40
3.00211844657731
 40
3.00211844657731
 40
3.00211844657731
 40
3.00211844657731
 40
4.0
 40
4.0
 40
4.0
 40
4.0
 10
66.52024188954972
 20
39.12608937915723
 42
1.0
 10
66.52360869616864
 20
45.27412322811475
 42
1.0
 10
70.30988649618203
 20
50.17609584429974
 42
1.0
 10
77.02507716926495
 20
50.1899542846939
 42
1.0
 97
        0
 92
        0
 93
        4
 72
     4
 94
        3
 73
     1
 74
     0
 95
        8
 96
        4
 40
2.0
 40
2.0
 40
2.0
 40
2.0
 40
3.0
 40
3.0
 40
3.0
 40
3.0
 10
77.03221361313545
 20
45.73315597227772
 42
1.0
 10
73.42950263274702
 20
45.73315597227772
 42
1.0
 10
72.04887970624388
 20
42.56383828984087
 42
1.0
 10
72.04887970624385
 20
39.394520607404
 42
1.0
 72
     4
 94
        3
 73
     1
 74
     0
 95
        8
 96
        4
 40
3.0
 40
3.0
 40
3.0
 40
3.0
 40
4.0
 40
4.0
 40
4.0
 40
4.0
 10
72.04887970624385
 20
39.394520607404
 42
1.0
 10
72.04887970624388
 20
36.22554743474296
 42
1.0
 10
73.42950263274702
 20
33.05571298764242
 42
1.0
 10
77.03221361313545
 20
33.05571298764242
 42
1.0
 72
     4
 94
        3
 73
     1
 74
     0
 95
        8
 96
        4
 40
0.0
 40
0.0
 40
0.0
 40
0.0
 40
1.0
 40
1.0
 40
1.0
 40
1.0
 10
77.03221361313545
 20
33.05571298764242
 42
1.0
 10
80.63526910329966
 20
33.05571298764242
 42
1.0
 10
82.01537526513914
 20
36.22554743474296
 42
1.0
 10
82.01537526513914
 20
39.394520607404
 42
1.0
 72
     4
 94
        3
 73
     1
 74
     0
 95
        8
 96
        4
 40
1.0
 40
1.0
 40
1.0
 40
1.0
 40
2.0
 40
2.0
 40
2.0
 40
2.0
 10
82.01537526513914
 20
39.394520607404
 42
1.0
 10
82.01537526513914
 20
42.56383828984087
 42
1.0
 10
80.63526910329966
 20
45.73315597227772
 42
1.0
 10
77.03221361313545
 20
45.73315597227772
 42
1.0
 97
        0
 75
     0
 76
     1
 98
        1
 10
0.0
 20
0.0
  0
HATCH
  5
110
330
81
100
AcDbEntity
  8
0
  6
Continuous
 62
     7
100
AcDbHatch
 10
0.0
 20
0.0
 30
0.0
210
0.0
220
0.0
230
1.0
  2
SOLID
 70
     1
 71
     0
 91
        2
 92
        0
 93
       14
 72
     1
 10
106.3668527512702
 20
29.71530239194635
 11
106.3668527512702
 21
28.69835334337245
 72
     1
 10
106.3668527512702
 20
28.69835334337245
 11
101.1935454556174
 21
28.69835334337245
 72
     4
 94
        3
 73
     1
 74
     0
 95
        8
 96
        4
 40
7.0
 40
7.0
 40
7.0
 40
7.0
 40
8.0
 40
8.0
 40
8.0
 40
8.0
 10
101.1935454556174
 20
28.69835334337245
 42
1.0
 10
100.7139878477091
 20
29.41665622590745
 42
1.0
 10
100.6237262864505
 20
31.50920860409338
 42
1.0
 10
100.5634370756861
 20
32.10693306509975
 42
1.0
 72
     4
 94
        3
 73
     1
 74
     0
 95
        8
 96
        4
 40
8.0
 40
8.0
 40
8.0
 40
8.0
 40
9.0
 40
9.0
 40
9.0
 40
9.0
 10
100.5634370756861
 20
32.10693306509975
 42
1.0
 10
100.4134030683269
 20
34.26046367360161
 42
1.0
 10
100.0533903526199
 20
36.4729054537646
 42
1.0
 10
97.44200625208497
 20
36.4729054537646
 42
1.0
 72
     1
 10
97.44200625208497
 20
36.4729054537646
 11
93.20832561732585
 21
36.4729054537646
 72
     1
 10
93.20832561732585
 20
36.4729054537646
 11
93.20832561732585
 21
28.69835334337245
 72
     1
 10
93.20832561732585
 20
28.69835334337245
 11
87.62433891633366
 21
28.69835334337245
 72
     1
 10
87.62433891633366
 20
28.69835334337245
 11
87.62433891633366
 21
50.04710738479733
 72
     1
 10
87.62433891633366
 20
50.04710738479733
 11
98.55218900458812
 21
50.04710738479733
 72
     4
 94
        3
 73
     1
 74
     0
 95
        8
 96
        4
 40
1.0
 40
1.0
 40
1.0
 40
1.0
 40
2.0
 40
2.0
 40
2.0
 40
2.0
 10
98.55218900458812
 20
50.04710738479733
 42
1.0
 10
102.3342173232785
 20
50.04710738479733
 42
1.0
 10
106.0573344703076
 20
48.34264526904578
 42
1.0
 10
106.0573344703077
 20
44.03765111069685
 42
1.0
 72
     4
 94
        3
 73
     1
 74
     0
 95
        8
 96
        4
 40
2.0
 40
2.0
 40
2.0
 40
2.0
 40
3.0
 40
3.0
 40
3.0
 40
3.0
 10
106.0573344703077
 20
44.03765111069685
 42
1.0
 10
106.0573344703076
 20
41.73494776927527
 42
1.0
 10
104.9459459335892
 20
39.55265059449444
 42
1.0
 10
102.6945745487612
 20
38.68569174370337
 42
1.0
 72
     1
 10
102.6945745487612
 20
38.68569174370337
 11
102.6945745487612
 21
38.62574704271483
 72
     4
 94
        3
 73
     1
 74
     0
 95
        8
 96
        4
 40
4.0
 40
4.0
 40
4.0
 40
4.0
 40
5.0
 40
5.0
 40
5.0
 40
5.0
 10
102.6945745487612
 20
38.62574704271483
 42
1.0
 10
104.9766073036351
 20
38.08727826314542
 42
1.0
 10
105.6373770536121
 20
35.54548513732129
 42
1.0
 10
105.8175556663535
 20
33.5125329503481
 42
1.0
 72
     4
 94
        3
 73
     1
 74
     0
 95
        8
 96
        4
 40
5.0
 40
5.0
 40
5.0
 40
5.0
 40
5.74044267676188
 40
5.74044267676188
 40
5.74044267676188
 40
5.74044267676188
 10
105.8175556663535
 20
33.5125329503481
 42
1.0
 10
105.8808091746534
 20
32.85009942065996
 42
1.0
 10
105.9969739034398
 20
30.95908278298207
 42
1.0
 10
106.3668527512702
 20
29.71530239194635
 42
1.0
 97
        0
 92
        0
 93
        5
 72
     1
 10
97.65146820431197
 20
45.61378333496433
 11
93.20832562586878
 21
45.61378333496433
 72
     1
 10
93.20832562586878
 20
45.61378333496433
 11
93.20832562586878
 21
40.80029274754029
 72
     1
 10
93.20832562586878
 20
40.80029274754029
 11
97.89159151804188
 21
40.80029274754029
 72
     4
 94
        3
 73
     1
 74
     0
 95
        8
 96
        4
 40
1.0
 40
1.0
 40
1.0
 40
1.0
 40
2.0
 40
2.0
 40
2.0
 40
2.0
 10
97.89159151804188
 20
40.80029274754029
 42
1.0
 10
99.57279922392719
 20
40.80029274754029
 42
1.0
 10
100.4730032680826
 20
41.69670718416189
 42
1.0
 10
100.4730032680826
 20
43.31125224843066
 42
1.0
 72
     4
 94
        3
 73
     1
 74
     0
 95
        8
 96
        4
 40
2.0
 40
2.0
 40
2.0
 40
2.0
 40
3.0
 40
3.0
 40
3.0
 40
3.0
 10
100.4730032680826
 20
43.31125224843066
 42
1.0
 10
100.4730032680826
 20
44.89565270731723
 42
1.0
 10
99.21295876310808
 20
45.61378333496433
 42
1.0
 10
97.65146820431197
 20
45.61378333496433
 42
1.0
 97
        0
 75
     0
 76
     1
 98
        1
 10
0.0
 20
0.0
  0
HATCH
  5
111
330
81
100
AcDbEntity
  8
0
  6
Continuous
 62
     7
100
AcDbHatch
 10
0.0
 20
0.0
 30
0.0
210
0.0
220
0.0
230
1.0
  2
SOLID
 70
     1
 71
     0
 91
        5
 92
        0
 93
       23
 72
     4
 94
        3
 73
     1
 74
     0
 95
        8
 96
        4
 40
19.0
 40
19.0
 40
19.0
 40
19.0
 40
20.0
 40
20.0
 40
20.0
 40
20.0
 10
149.6765281642566
 20
28.76070961279156
 42
1.0
 10
152.520456363454
 20
28.8110080400578
 42
1.0
 10
155.173870656636
 20
30.15769675364504
 42
1.0
 10
155.9810570613264
 20
32.14345110133414
 42
1.0
 72
     4
 94
        3
 73
     1
 74
     0
 95
        8
 96
        4
 40
20.0
 40
20.0
 40
20.0
 40
20.0
 40
21.0
 40
21.0
 40
21.0
 40
21.0
 10
155.9810570613264
 20
32.14345110133414
 42
1.0
 10
156.7465577831456
 20
30.15769675364504
 42
1.0
 10
159.417886584669
 20
28.16367417133681
 42
1.0
 10
164.5948349855581
 20
28.16367417133681
 42
1.0
 72
     4
 94
        3
 73
     1
 74
     0
 95
        8
 96
        4
 40
21.0
 40
21.0
 40
21.0
 40
21.0
 40
22.0
 40
22.0
 40
22.0
 40
22.0
 10
164.5948349855581
 20
28.16367417133681
 42
1.0
 10
169.7717833864471
 20
28.16367417133681
 42
1.0
 10
173.6165124843323
 20
31.30629234614945
 42
1.0
 10
173.6165124843323
 20
35.44798887077101
 42
1.0
 72
     4
 94
        3
 73
     1
 74
     0
 95
        8
 96
        4
 40
22.0
 40
22.0
 40
22.0
 40
22.0
 40
23.0
 40
23.0
 40
23.0
 40
23.0
 10
173.6165124843323
 20
35.44798887077101
 42
1.0
 10
173.6165124843323
 20
39.66030989943075
 42
1.0
 10
171.193575231158
 20
41.15548232638614
 42
1.0
 10
167.3357547617924
 20
42.17058038076954
 42
1.0
 72
     4
 94
        3
 73
     1
 74
     0
 95
        8
 96
        4
 40
0.0
 40
0.0
 40
0.0
 40
0.0
 40
1.0
 40
1.0
 40
1.0
 40
1.0
 10
167.3357547617924
 20
42.17058038076954
 42
1.0
 10
167.2847673149745
 20
42.18401626202559
 42
1.0
 10
167.2406700636727
 20
42.19590184929056
 42
1.0
 10
167.189338107079
 20
42.2088209658829
 42
1.0
 72
     1
 10
167.189338107079
 20
42.2088209658829
 11
173.0691700759391
 21
42.16747979278733
 72
     4
 94
        3
 73
     1
 74
     0
 95
        8
 96
        4
 40
2.0
 40
2.0
 40
2.0
 40
2.0
 40
3.0
 40
3.0
 40
3.0
 40
3.0
 10
173.0691700759391
 20
42.16747979278733
 42
1.0
 10
173.0691700759391
 20
45.27185738248661
 42
1.0
 10
172.4597322825556
 20
50.25002364274127
 42
1.0
 10
164.1870190363622
 20
50.25002364274127
 42
1.0
 72
     4
 94
        3
 73
     1
 74
     0
 95
        8
 96
        4
 40
3.0
 40
3.0
 40
3.0
 40
3.0
 40
4.0
 40
4.0
 40
4.0
 40
4.0
 10
164.1870190363622
 20
50.25002364274127
 42
1.0
 10
159.3649157045433
 20
50.25002364274127
 42
1.0
 10
156.9760849191726
 20
47.90081148158718
 42
1.0
 10
156.0162806838046
 20
46.1898036800955
 42
1.0
 72
     4
 94
        3
 73
     1
 74
     0
 95
        8
 96
        4
 40
4.0
 40
4.0
 40
4.0
 40
4.0
 40
5.0
 40
5.0
 40
5.0
 40
5.0
 10
156.0162806838046
 20
46.1898036800955
 42
1.0
 10
155.1174546787523
 20
47.90081148158718
 42
1.0
 10
154.5865651142504
 20
50.04710738479733
 42
1.0
 10
147.7273754781487
 20
50.04710738479733
 42
1.0
 72
     1
 10
147.7273754781487
 20
50.04710738479733
 11
138.3041010399261
 21
50.04710738479733
 72
     1
 10
138.3041010399261
 20
50.04710738479733
 11
138.3041010399261
 21
36.75023582328049
 72
     1
 10
138.3041010399261
 20
36.75023582328049
 11
133.3762332069377
 21
50.04710738479733
 72
     1
 10
133.3762332069377
 20
50.04710738479733
 11
126.7834772195869
 21
50.04710738479733
 72
     1
 10
126.7834772195869
 20
50.04710738479733
 11
121.0416582836138
 21
34.83629659928359
 72
     1
 10
121.0416582836138
 20
34.83629659928359
 11
113.7338781065659
 21
34.79083121159394
 72
     1
 10
113.7338781065659
 20
34.79083121159394
 11
113.6389611147968
 21
50.04710738479733
 72
     1
 10
113.6389611147968
 20
50.04710738479733
 11
106.3849632756327
 21
50.04710738479733
 72
     1
 10
106.3849632756327
 20
50.04710738479733
 11
106.3718719041525
 21
28.69835334337245
 72
     1
 10
106.3718719041525
 20
28.69835334337245
 11
126.0705963744016
 21
28.76070961279156
 72
     1
 10
126.0705963744016
 20
28.76070961279156
 11
127.3401148982105
 21
31.90746190491377
 72
     1
 10
127.3401148982105
 20
31.90746190491377
 11
132.5163742795479
 21
31.90746190491377
 72
     1
 10
132.5163742795479
 20
31.90746190491377
 11
133.7345608467632
 21
28.76070961279156
 72
     1
 10
133.7345608467632
 20
28.76070961279156
 11
149.6765281642566
 21
28.76070961279156
 97
        0
 92
        0
 93
        4
 72
     4
 94
        3
 73
     1
 74
     0
 95
        8
 96
        4
 40
2.0
 40
2.0
 40
2.0
 40
2.0
 40
3.0
 40
3.0
 40
3.0
 40
3.0
 10
164.2398679641865
 20
44.24039511375292
 42
1.0
 10
165.3912196348973
 20
44.2062886459491
 42
1.0
 10
165.7515768603801
 20
43.97150523374403
 42
1.0
 10
165.8638870472897
 20
43.27628450618734
 42
1.0
 72
     4
 94
        3
 73
     1
 74
     0
 95
        8
 96
        4
 40
3.0
 40
3.0
 40
3.0
 40
3.0
 40
4.0
 40
4.0
 40
4.0
 40
4.0
 10
165.8638870472897
 20
43.27628450618734
 42
1.0
 10
165.9090178279189
 20
43.00205472465359
 42
1.0
 10
165.9138409647801
 20
42.83186689541027
 42
1.0
 10
165.9145299843317
 20
42.47392123835806
 42
1.0
 72
     4
 94
        3
 73
     1
 74
     0
 95
        8
 96
        4
 40
0.0
 40
0.0
 40
0.0
 40
0.0
 40
1.0
 40
1.0
 40
1.0
 40
1.0
 10
165.9145299843317
 20
42.47392123835806
 42
1.0
 10
163.2373445166196
 20
43.14743785003957
 42
1.0
 10
162.5142184972235
 20
43.26439891892237
 42
1.0
 10
162.5142184972235
 20
43.83439034297712
 42
1.0
 72
     4
 94
        3
 73
     1
 74
     0
 95
        8
 96
        4
 40
1.0
 40
1.0
 40
1.0
 40
1.0
 40
2.0
 40
2.0
 40
2.0
 40
2.0
 10
162.5142184972235
 20
43.83439034297712
 42
1.0
 10
162.5142184972235
 20
44.08794953796311
 42
1.0
 10
163.6817621273968
 20
44.25641481832745
 42
1.0
 10
164.2398679641865
 20
44.24039511375292
 42
1.0
 97
        0
 92
        0
 93
        3
 72
     4
 94
        3
 73
     1
 74
     0
 95
        8
 96
        4
 40
4.0
 40
4.0
 40
4.0
 40
4.0
 40
5.0
 40
5.0
 40
5.0
 40
5.0
 10
166.3251856370807
 20
35.10003399721688
 42
1.0
 10
166.0898854602119
 20
34.15642172131117
 42
1.0
 10
165.4012104183954
 20
33.89493880148186
 42
1.0
 10
163.6080370353763
 20
34.38448719288822
 42
1.0
 72
     4
 94
        3
 73
     1
 74
     0
 95
        8
 96
        4
 40
5.0
 40
5.0
 40
5.0
 40
5.0
 40
6.0
 40
6.0
 40
6.0
 40
6.0
 10
163.6080370353763
 20
34.38448719288822
 42
1.0
 10
161.7283916986325
 20
34.89884028815191
 42
1.0
 10
161.7046205241026
 20
35.93478118397098
 42
1.0
 10
161.7042760143268
 20
37.08957795243973
 42
1.0
 72
     4
 94
        3
 73
     1
 74
     0
 95
        8
 96
        4
 40
3.0
 40
3.0
 40
3.0
 40
3.0
 40
4.0
 40
4.0
 40
4.0
 40
4.0
 10
161.7042760143268
 20
37.08957795243973
 42
1.0
 10
164.0696801349432
 20
36.40710408658753
 42
1.0
 10
166.4492091563673
 20
35.59543905481176
 42
1.0
 10
166.3251856370807
 20
35.10003399721688
 42
1.0
 97
        0
 92
        0
 93
       32
 72
     4
 94
        3
 73
     1
 74
     0
 95
        8
 96
        4
 40
16.0
 40
16.0
 40
16.0
 40
16.0
 40
17.0
 40
17.0
 40
17.0
 40
17.0
 10
148.3259278908342
 20
48.98929011821522
 42
1.0
 10
151.6487246783881
 20
49.0430336432394
 42
1.0
 10
155.2970832040696
 20
48.18227596841268
 42
1.0
 10
155.2970832040696
 20
44.17218217814528
 42
1.0
 72
     4
 94
        3
 73
     1
 74
     0
 95
        8
 96
        4
 40
17.0
 40
17.0
 40
17.0
 40
17.0
 40
18.0
 40
18.0
 40
18.0
 40
18.0
 10
155.2970832040696
 20
44.17218217814528
 42
1.0
 10
155.2970832040696
 20
42.44963329916444
 42
1.0
 10
154.270444072197
 20
41.05092360943199
 42
1.0
 10
152.7570126271244
 20
40.29730847487787
 42
1.0
 72
     4
 94
        3
 73
     1
 74
     0
 95
        8
 96
        4
 40
18.0
 40
18.0
 40
18.0
 40
18.0
 40
19.0
 40
19.0
 40
19.0
 40
19.0
 10
152.7570126271244
 20
40.29730847487787
 42
1.0
 10
154.6566395308645
 20
39.74936567647406
 42
1.0
 10
155.8830943326989
 20
38.18925315678111
 42
1.0
 10
156.0567272597002
 20
36.23347115958625
 42
1.0
 72
     1
 10
156.0567272597002
 20
36.23347115958625
 11
160.8609160831777
 21
36.23347115958625
 72
     4
 94
        3
 73
     1
 74
     0
 95
        8
 96
        4
 40
20.0
 40
20.0
 40
20.0
 40
20.0
 40
21.0
 40
21.0
 40
21.0
 40
21.0
 10
160.8609160831777
 20
36.23347115958625
 42
1.0
 10
160.9684031332261
 20
33.9727980108118
 42
1.0
 10
162.3736585086987
 20
33.24622689365768
 42
1.0
 10
164.507896569756
 20
33.24622689365768
 42
1.0
 72
     4
 94
        3
 73
     1
 74
     0
 95
        8
 96
        4
 40
21.0
 40
21.0
 40
21.0
 40
21.0
 40
22.0
 40
22.0
 40
22.0
 40
22.0
 10
164.507896569756
 20
33.24622689365768
 42
1.0
 10
166.0209835050527
 20
33.24622689365768
 42
1.0
 10
167.5885029849253
 20
33.78504018300288
 42
1.0
 10
167.5885029849253
 20
35.21131065479903
 42
1.0
 72
     4
 94
        3
 73
     1
 74
     0
 95
        8
 96
        4
 40
22.0
 40
22.0
 40
22.0
 40
22.0
 40
23.0
 40
23.0
 40
23.0
 40
23.0
 10
167.5885029849253
 20
35.21131065479903
 42
1.0
 10
167.5885029849253
 20
36.90629875171619
 42
1.0
 10
164.8331137981075
 20
37.22910441163718
 42
1.0
 10
162.0491302998987
 20
38.00941905381552
 42
1.0
 72
     4
 94
        3
 73
     1
 74
     0
 95
        8
 96
        4
 40
23.0
 40
23.0
 40
23.0
 40
23.0
 40
24.0
 40
24.0
 40
24.0
 40
24.0
 10
162.0491302998987
 20
38.00941905381552
 42
1.0
 10
159.2930520935294
 20
38.78956144110593
 42
1.0
 10
156.4022705648237
 20
40.02772957531736
 42
1.0
 10
156.4022705648237
 20
43.55344262081537
 42
1.0
 72
     4
 94
        3
 73
     1
 74
     0
 95
        8
 96
        4
 40
24.0
 40
24.0
 40
24.0
 40
24.0
 40
25.0
 40
25.0
 40
25.0
 40
25.0
 10
156.4022705648237
 20
43.55344262081537
 42
1.0
 10
156.4022705648237
 20
47.75129423889168
 42
1.0
 10
160.6449084537535
 20
49.39253881078461
 42
1.0
 10
164.2646726680438
 20
49.39253881078461
 42
1.0
 72
     4
 94
        3
 73
     1
 74
     0
 95
        8
 96
        4
 40
25.0
 40
25.0
 40
25.0
 40
25.0
 40
26.0
 40
26.0
 40
26.0
 40
26.0
 10
164.2646726680438
 20
49.39253881078461
 42
1.0
 10
168.1018225508616
 20
49.39253881078461
 42
1.0
 10
171.9654996864157
 20
47.53614788390696
 42
1.0
 10
171.9930604684793
 20
43.20376519838225
 42
1.0
 72
     1
 10
171.9930604684793
 20
43.20376519838225
 11
166.9673518591648
 21
43.20376519838225
 72
     4
 94
        3
 73
     1
 74
     0
 95
        8
 96
        4
 40
27.0
 40
27.0
 40
27.0
 40
27.0
 40
28.0
 40
28.0
 40
28.0
 40
28.0
 10
166.9673518591648
 20
43.20376519838225
 42
1.0
 10
167.0486561662527
 20
44.9523245654357
 42
1.0
 10
165.3998323792922
 20
45.51766510751722
 42
1.0
 10
163.8591846619318
 20
45.51766510751722
 42
1.0
 72
     4
 94
        3
 73
     1
 74
     0
 95
        8
 96
        4
 40
28.0
 40
28.0
 40
28.0
 40
28.0
 40
29.0
 40
29.0
 40
29.0
 40
29.0
 10
163.8591846619318
 20
45.51766510751722
 42
1.0
 10
162.7794910245866
 20
45.51766510751722
 42
1.0
 10
161.4286681936898
 20
45.14094366768412
 42
1.0
 10
161.4286681936898
 20
43.87642053562427
 42
1.0
 72
     4
 94
        3
 73
     1
 74
     0
 95
        8
 96
        4
 40
29.0
 40
29.0
 40
29.0
 40
29.0
 40
30.0
 40
30.0
 40
30.0
 40
30.0
 10
161.4286681936898
 20
43.87642053562427
 42
1.0
 10
161.4286681936898
 20
42.39606202902813
 42
1.0
 10
164.2102401234681
 20
42.12665538435552
 42
1.0
 10
167.021095384189
 20
41.34634074217721
 42
1.0
 72
     4
 94
        3
 73
     1
 74
     0
 95
        8
 96
        4
 40
30.0
 40
30.0
 40
30.0
 40
30.0
 40
31.0
 40
31.0
 40
31.0
 40
31.0
 10
167.021095384189
 20
41.34634074217721
 42
1.0
 10
169.8047343726221
 20
40.56619835488677
 42
1.0
 10
172.6142115942398
 20
39.27428669565115
 42
1.0
 10
172.6142115942398
 20
35.80317844961686
 42
1.0
 72
     4
 94
        3
 73
     1
 74
     0
 95
        8
 96
        4
 40
31.0
 40
31.0
 40
31.0
 40
31.0
 40
32.0
 40
32.0
 40
32.0
 40
32.0
 10
172.6142115942398
 20
35.80317844961686
 42
1.0
 10
172.6142115942398
 20
30.93249923941061
 42
1.0
 10
168.4532225221737
 20
29.12313389692912
 42
1.0
 10
164.2102401234681
 20
29.12313389692912
 42
1.0
 72
     4
 94
        3
 73
     1
 74
     0
 95
        8
 96
        4
 40
0.0
 40
0.0
 40
0.0
 40
0.0
 40
1.0
 40
1.0
 40
1.0
 40
1.0
 10
164.2102401234681
 20
29.12313389692912
 42
1.0
 10
160.290752404235
 20
29.12313389692912
 42
1.0
 10
156.7767526911141
 20
30.89219159564247
 42
1.0
 10
155.9991941271422
 20
34.65217128868185
 42
1.0
 72
     4
 94
        3
 73
     1
 74
     0
 95
        8
 96
        4
 40
1.0
 40
1.0
 40
1.0
 40
1.0
 40
2.0
 40
2.0
 40
2.0
 40
2.0
 10
155.9991941271422
 20
34.65217128868185
 42
1.0
 10
155.4869080905333
 20
30.98107511779787
 42
1.0
 10
152.3484240330302
 20
29.69605365407815
 42
1.0
 10
148.569496302322
 20
29.69605365407815
 42
1.0
 72
     1
 10
148.569496302322
 20
29.69605365407815
 11
134.4690556887606
 21
29.69605365407815
 72
     1
 10
134.4690556887606
 20
29.69605365407815
 11
133.0327944334664
 21
32.97130809257236
 72
     1
 10
133.0327944334664
 20
32.97130809257236
 11
126.8013016088652
 21
32.97130809257236
 72
     1
 10
126.8013016088652
 20
32.97130809257236
 11
125.3367905519557
 21
29.72258090681447
 72
     1
 10
125.3367905519557
 20
29.72258090681447
 11
107.508409654504
 21
29.72258090681447
 72
     1
 10
107.508409654504
 20
29.72258090681447
 11
107.508409654504
 21
48.98929011821522
 72
     1
 10
107.508409654504
 20
48.98929011821522
 11
112.5348072833701
 21
48.98929011821522
 72
     1
 10
112.5348072833701
 20
48.98929011821522
 11
112.5348072833701
 21
34.08062957063601
 72
     1
 10
112.5348072833701
 20
34.08062957063601
 11
121.7804161364119
 21
34.08062957063601
 72
     1
 10
121.7804161364119
 20
34.08062957063601
 11
127.3904133254767
 21
48.98929011821522
 72
     1
 10
127.3904133254767
 20
48.98929011821522
 11
132.4970817321033
 21
48.98929011821522
 72
     1
 10
132.4970817321033
 20
48.98929011821522
 11
139.3018388236293
 21
31.02758393753034
 72
     1
 10
139.3018388236293
 20
31.02758393753034
 11
139.3018388236293
 21
48.98929011821522
 72
     1
 10
139.3018388236293
 20
48.98929011821522
 11
148.3259278908342
 21
48.98929011821522
 97
        0
 92
        0
 93
        5
 72
     4
 94
        3
 73
     1
 74
     0
 95
        8
 96
        4
 40
8.0
 40
8.0
 40
8.0
 40
8.0
 40
9.0
 40
9.0
 40
9.0
 40
9.0
 10
156.7116403434886
 20
37.12781853755313
 42
1.0
 10
156.7116403434886
 20
38.5878509673773
 42
1.0
 10
155.4507345640747
 20
39.84892900167915
 42
1.0
 10
154.6542279624339
 20
40.37981856618105
 42
1.0
 72
     4
 94
        3
 73
     1
 74
     0
 95
        8
 96
        4
 40
9.0
 40
9.0
 40
9.0
 40
9.0
 40
10.0
 40
10.0
 40
10.0
 40
10.0
 10
154.6542279624339
 20
40.37981856618105
 42
1.0
 10
155.0517922437027
 20
40.8442177439543
 42
1.0
 10
155.649516704709
 20
41.30913368639121
 42
1.0
 10
155.8493323746708
 20
42.10546803314405
 42
1.0
 72
     4
 94
        3
 73
     1
 74
     0
 95
        8
 96
        4
 40
10.0
 40
10.0
 40
10.0
 40
10.0
 40
11.0
 40
11.0
 40
11.0
 40
11.0
 10
155.8493323746708
 20
42.10546803314405
 42
1.0
 10
155.8493323746708
 20
39.84892900167915
 42
1.0
 10
157.9732351424542
 20
38.12293502494035
 42
1.0
 10
160.6276829649637
 20
37.39343557469195
 42
1.0
 72
     4
 94
        3
 73
     1
 74
     0
 95
        8
 96
        4
 40
0.0
 40
0.0
 40
0.0
 40
0.0
 40
1.0
 40
1.0
 40
1.0
 40
1.0
 10
160.6276829649637
 20
37.39343557469195
 42
1.0
 10
160.938086272956
 20
37.30765264051871
 42
1.0
 10
161.2550352666885
 20
37.2187691183633
 42
1.0
 10
161.5726732799726
 20
37.12781853755313
 42
1.0
 72
     1
 10
161.5726732799726
 20
37.12781853755313
 11
156.7116403434886
 21
37.12781853755313
 97
        0
 75
     0
 76
     1
 98
        1
 10
0.0
 20
0.0
  0
HATCH
  5
112
330
81
100
AcDbEntity
  8
0
  6
Continuous
 62
     7
100
AcDbHatch
 10
0.0
 20
0.0
 30
0.0
210
0.0
220
0.0
230
1.0
  2
SOLID
 70
     1
 71
     0
 91
        2
 92
        0
 93
        4
 72
     1
 10
130.3745570034231
 20
43.91311082674656
 11
132.8105856280779
 21
36.20212076998882
 72
     1
 10
132.8105856280779
 20
36.20212076998882
 11
127.0700192339863
 21
36.20212076998882
 72
     1
 10
127.0700192339863
 20
36.20212076998882
 11
129.5897637341595
 21
43.91311082674656
 72
     1
 10
129.5897637341595
 20
43.91311082674656
 11
130.3745570034231
 21
43.91311082674656
 97
        0
 92
        0
 93
        3
 72
     1
 10
128.4229091235378
 20
37.23013794096457
 11
131.3867267247123
 21
37.23013794096457
 72
     1
 10
131.3867267247123
 20
37.23013794096457
 11
129.9297948828703
 21
41.88205344354024
 72
     1
 10
129.9297948828703
 20
41.88205344354024
 11
128.4229091235378
 21
37.23013794096457
 97
        0
 75
     0
 76
     1
 98
        1
 10
0.0
 20
0.0
  0
HATCH
  5
113
330
81
100
AcDbEntity
  8
0
  6
Continuous
 62
     7
100
AcDbHatch
 10
0.0
 20
0.0
 30
0.0
210
0.0
220
0.0
230
1.0
  2
SOLID
 70
     1
 71
     0
 91
        2
 92
        0
 93
        5
 72
     4
 94
        3
 73
     1
 74
     0
 95
        8
 96
        4
 40
2.0
 40
2.0
 40
2.0
 40
2.0
 40
3.0
 40
3.0
 40
3.0
 40
3.0
 10
150.7168257348595
 20
43.00515531263576
 42
1.0
 10
150.7168257348595
 20
41.26865378773517
 42
1.0
 10
149.3504999640519
 20
40.68918834484602
 42
1.0
 10
148.3552112217768
 20
40.68918834484602
 42
1.0
 72
     1
 10
148.3552112217768
 20
40.68918834484602
 11
143.8820962928393
 21
40.68918834484602
 72
     1
 10
143.8820962928393
 20
40.68918834484602
 11
143.8820962928393
 21
45.35557325800512
 72
     1
 10
143.8820962928393
 20
45.35557325800512
 11
148.3552112217768
 21
45.35557325800512
 72
     4
 94
        3
 73
     1
 74
     0
 95
        8
 96
        4
 40
1.0
 40
1.0
 40
1.0
 40
1.0
 40
2.0
 40
2.0
 40
2.0
 40
2.0
 10
148.3552112217768
 20
45.35557325800512
 42
1.0
 10
149.5682301423551
 20
45.35557325800512
 42
1.0
 10
150.7168257348595
 20
44.77576330534016
 42
1.0
 10
150.7168257348595
 20
43.00515531263576
 42
1.0
 97
        0
 92
        0
 93
        5
 72
     1
 10
144.861193075652
 20
44.33186245922681
 11
144.861193075652
 21
41.63848503205236
 72
     1
 10
144.861193075652
 20
41.63848503205236
 11
147.9838296834685
 21
41.63848503205236
 72
     4
 94
        3
 73
     1
 74
     0
 95
        8
 96
        4
 40
2.0
 40
2.0
 40
2.0
 40
2.0
 40
3.0
 40
3.0
 40
3.0
 40
3.0
 10
147.9838296834685
 20
41.63848503205236
 42
1.0
 10
148.6783613914736
 20
41.63848503205236
 42
1.0
 10
149.6316199411016
 20
41.97300402435042
 42
1.0
 10
149.6316199411016
 20
42.9753552170294
 42
1.0
 72
     4
 94
        3
 73
     1
 74
     0
 95
        8
 96
        4
 40
3.0
 40
3.0
 40
3.0
 40
3.0
 40
4.0
 40
4.0
 40
4.0
 40
4.0
 10
149.6316199411016
 20
42.9753552170294
 42
1.0
 10
149.6316199411016
 20
43.99734346692872
 42
1.0
 10
148.8296011830481
 20
44.33186245922681
 42
1.0
 10
147.9838296834685
 20
44.33186245922681
 42
1.0
 72
     1
 10
147.9838296834685
 20
44.33186245922681
 11
144.861193075652
 21
44.33186245922681
 97
        0
 75
     0
 76
     1
 98
        1
 10
0.0
 20
0.0
  0
HATCH
  5
114
330
81
100
AcDbEntity
  8
0
  6
Continuous
 62
     7
100
AcDbHatch
 10
0.0
 20
0.0
 30
0.0
210
0.0
220
0.0
230
1.0
  2
SOLID
 70
     1
 71
     0
 91
        2
 92
        0
 93
        5
 72
     4
 94
        3
 73
     1
 74
     0
 95
        8
 96
        4
 40
2.0
 40
2.0
 40
2.0
 40
2.0
 40
3.0
 40
3.0
 40
3.0
 40
3.0
 10
151.4726801829563
 20
35.74943492459264
 42
1.0
 10
151.4726801829563
 20
33.74748861744111
 42
1.0
 10
149.9558036401258
 20
33.07982867194814
 42
1.0
 10
148.8506162793717
 20
33.07982867194814
 42
1.0
 72
     1
 10
148.8506162793717
 20
33.07982867194814
 11
143.8820962928393
 21
33.07982867194814
 72
     1
 10
143.8820962928393
 20
33.07982867194814
 11
143.8820962928393
 21
38.45762627212632
 72
     1
 10
143.8820962928393
 20
38.45762627212632
 11
148.8506162793717
 21
38.45762627212632
 72
     4
 94
        3
 73
     1
 74
     0
 95
        8
 96
        4
 40
1.0
 40
1.0
 40
1.0
 40
1.0
 40
2.0
 40
2.0
 40
2.0
 40
2.0
 10
148.8506162793717
 20
38.45762627212632
 42
1.0
 10
150.1973049929589
 20
38.45762627212632
 42
1.0
 10
151.4726801829563
 20
37.78979407174546
 42
1.0
 10
151.4726801829563
 20
35.74943492459264
 42
1.0
 97
        0
 92
        0
 93
        5
 72
     1
 10
144.8353548424673
 20
33.99588016579015
 11
148.5660512045641
 21
33.99588016579015
 72
     4
 94
        3
 73
     1
 74
     0
 95
        8
 96
        4
 40
2.0
 40
2.0
 40
2.0
 40
2.0
 40
3.0
 40
3.0
 40
3.0
 40
3.0
 10
148.5660512045641
 20
33.99588016579015
 42
1.0
 10
149.395975254457
 20
33.99588016579015
 42
1.0
 10
150.5349245732392
 20
34.42513934643217
 42
1.0
 10
150.5349245732392
 20
35.71326139813404
 42
1.0
 72
     4
 94
        3
 73
     1
 74
     0
 95
        8
 96
        4
 40
3.0
 40
3.0
 40
3.0
 40
3.0
 40
4.0
 40
4.0
 40
4.0
 40
4.0
 10
150.5349245732392
 20
35.71326139813404
 42
1.0
 10
150.5349245732392
 20
37.02618815369325
 42
1.0
 10
149.5771873965258
 20
37.45613635388687
 42
1.0
 10
148.5660512045641
 20
37.45613635388687
 42
1.0
 72
     1
 10
148.5660512045641
 20
37.45613635388687
 11
144.8353548424673
 21
37.45613635388687
 72
     1
 10
144.8353548424673
 20
37.45613635388687
 11
144.8353548424673
 21
33.99588016579015
 97
        0
 75
     0
 76
     1
 98
        1
 10
0.0
 20
0.0
  0
ENDBLK
  5
83
330
81
100
AcDbEntity
  8
0
100
AcDbBlockEnd
  0
BLOCK
  5
130
330
12F
100
AcDbEntity
  8
0
100
AcDbBlockBegin
  2
SW_NOTE_0
 70
     0
 10
0.0
 20
0.0
 30
0.0
  3
SW_NOTE_0
  1

  0
MTEXT
  5
133
330
12F
100
AcDbEntity
  8
0
  6
Continuous
 62
     0
370
     0
100
AcDbMText
 10
0.0
 20
3.4106583948
 30
0.0
 40
2.6458333333
 41
0.0
 71
     1
 72
     1
  1
NOTES/SPECIFICATIONS:
  7
SLDTEXTSTYLE0
 73
     1
 44
1.0
  0
MTEXT
  5
134
330
12F
100
AcDbEntity
  8
0
  6
Continuous
 62
     0
370
     0
100
AcDbMText
 10
0.0
 20
-1.1171195042
 30
0.0
 40
2.6458333333
 41
0.0
 71
     1
 72
     1
  1
1. DESIGN WAVELENGTH: 587.6 nm
  7
SLDTEXTSTYLE0
 73
     1
 44
1.0
  0
MTEXT
  5
135
330
12F
100
AcDbEntity
  8
0
  6
Continuous
 62
     0
370
     0
100
AcDbMText
 10
0.0
 20
-5.6448974033
 30
0.0
 40
2.6458333333
 41
0.0
 71
     1
 72
     1
  1
2. FOCAL LENGTH: f=60.2 mm ± 1%
  7
SLDTEXTSTYLE0
 73
     1
 44
1.0
  0
MTEXT
  5
136
330
12F
100
AcDbEntity
  8
0
  6
Continuous
 62
     0
370
     0
100
AcDbMText
 10
0.0
 20
-10.1726753024
 30
0.0
 40
2.6458333333
 41
0.0
 71
     1
 72
     1
  1
3. BACK FOCAL LENGTH(REF): bf=46.6 mm
  7
SLDTEXTSTYLE0
 73
     1
 44
1.0
  0
MTEXT
  5
137
330
12F
100
AcDbEntity
  8
0
  6
Continuous
 62
     0
370
     0
100
AcDbMText
 10
0.0
 20
-14.7004532014
 30
0.0
 40
2.6458333333
 41
0.0
 71
     1
 72
     1
  1
4. CLEAR APERTURE: >
  7
SLDTEXTSTYLE0
 73
     1
 44
1.0
  0
MTEXT
  5
138
330
12F
100
AcDbEntity
  8
0
  6
Continuous
 62
     0
370
     0
100
AcDbMText
 10
36.6839878261
 20
-14.7004532014
 30
0.0
 40
2.6458333333
 41
0.0
 71
     1
 72
     1
  1
%%c
  7
SLDTEXTSTYLE0
 73
     1
 44
1.0
  0
MTEXT
  5
139
330
12F
100
AcDbEntity
  8
0
  6
Continuous
 62
     0
370
     0
100
AcDbMText
 10
40.6777262688
 20
-14.7004532014
 30
0.0
 40
2.6458333333
 41
0.0
 71
     1
 72
     1
  1
45.72 mm
  7
SLDTEXTSTYLE0
 73
     1
 44
1.0
  0
MTEXT
  5
13A
330
12F
100
AcDbEntity
  8
0
  6
Continuous
 62
     0
370
     0
100
AcDbMText
 10
0.0
 20
-19.2282311005
 30
0.0
 40
2.6458333333
 41
0.0
 71
     1
 72
     1
  1
5. SURFACE QUALITY: 40-20 SCRATCH-DIG
  7
SLDTEXTSTYLE0
 73
     1
 44
1.0
  0
MTEXT
  5
13B
330
12F
100
AcDbEntity
  8
0
  6
Continuous
 62
     0
370
     0
100
AcDbMText
 10
0.0
 20
-23.7560089995
 30
0.0
 40
2.6458333333
 41
0.0
 71
     1
 72
     1
  1
6. CENTRATION: <3 arcmin
  7
SLDTEXTSTYLE0
 73
     1
 44
1.0
  0
MTEXT
  5
13C
330
12F
100
AcDbEntity
  8
0
  6
Continuous
 62
     0
370
     0
100
AcDbMText
 10
0.0
 20
-28.2837868986
 30
0.0
 40
2.6458333333
 41
0.0
 71
     1
 72
     1
  1
7. DIAMETER TOLERANCE: +0.0/-0.1 mm
  7
SLDTEXTSTYLE0
 73
     1
 44
1.0
  0
MTEXT
  5
13D
330
12F
100
AcDbEntity
  8
0
  6
Continuous
 62
     0
370
     0
100
AcDbMText
 10
0.0
 20
-32.8115647976
 30
0.0
 40
2.6458333333
 41
0.0
 71
     1
 72
     1
  1
8. THICKNESS TOLERANCE: ±0.1 mm
  7
SLDTEXTSTYLE0
 73
     1
 44
1.0
  0
MTEXT
  5
13E
330
12F
100
AcDbEntity
  8
0
  6
Continuous
 62
     0
370
     0
100
AcDbMText
 10
0.0
 20
-37.3393426967
 30
0.0
 40
2.6458333333
 41
0.0
 71
     1
 72
     1
  1
9. COATING: BBAR Ravg <0.5% FROM 650-1050 nm, AOI: 0
  7
SLDTEXTSTYLE0
 73
     1
 44
1.0
  0
MTEXT
  5
13F
330
12F
100
AcDbEntity
  8
0
  6
Continuous
 62
     0
370
     0
100
AcDbMText
 10
97.5087583065
 20
-37.3393426967
 30
0.0
 40
2.6458333333
 41
0.0
 71
     1
 72
     1
  1
%%d
  7
SLDTEXTSTYLE0
 73
     1
 44
1.0
  0
ENDBLK
  5
131
330
12F
100
AcDbEntity
  8
0
100
AcDbBlockEnd
  0
BLOCK
  5
153
330
152
100
AcDbEntity
  8
0
100
AcDbBlockBegin
  2
SW_NOTE_1
 70
     0
 10
0.0
 20
0.0
 30
0.0
  3
SW_NOTE_1
  1

  0
MTEXT
  5
155
330
152
100
AcDbEntity
  8
0
  6
Continuous
 62
     0
370
     0
100
AcDbMText
 10
19.90725
 20
1.9645392354
 30
0.0
 40
1.524
 41
0.0
 71
     2
 72
     1
  1
VALUES IN PARENTHESIS ARE CALCULATED
  7
SLDTEXTSTYLE0
 73
     1
 44
1.0
  0
MTEXT
  5
156
330
152
100
AcDbEntity
  8
0
  6
Continuous
 62
     0
370
     0
100
AcDbMText
 10
19.8778795174
 20
-0.5594606586
 30
0.0
 40
1.524
 41
0.0
 71
     2
 72
     1
  1
AND MAY CONTAIN ROUNDOFF ERRORS
  7
SLDTEXTSTYLE0
 73
     1
 44
1.0
  0
ENDBLK
  5
154
330
152
100
AcDbEntity
  8
0
100
AcDbBlockEnd
  0
BLOCK
  5
159
330
158
100
AcDbEntity
  8
0
100
AcDbBlockBegin
  2
SW_NOTE_2
 70
     0
 10
0.0
 20
0.0
 30
0.0
  3
SW_NOTE_2
  1

  0
MTEXT
  5
15B
330
158
100
AcDbEntity
  8
0
  6
Continuous
 62
     0
370
     0
100
AcDbMText
 10
0.0
 20
2.7285267159
 30
0.0
 40
2.1166666667
 41
0.0
 71
     1
 72
     1
  1
DRAWING
  7
SLDTEXTSTYLE0
 73
     1
 44
1.0
  0
MTEXT
  5
15C
330
158
100
AcDbEntity
  8
0
  6
Continuous
 62
     0
370
     0
100
AcDbMText
 10
0.0
 20
-0.0936954723
 30
0.0
 40
2.1166666667
 41
0.0
 71
     1
 72
     1
  1
PROJECTION
  7
SLDTEXTSTYLE0
 73
     1
 44
1.0
  0
ENDBLK
  5
15A
330
158
100
AcDbEntity
  8
0
100
AcDbBlockEnd
  0
BLOCK
  5
160
330
15F
100
AcDbEntity
  8
0
100
AcDbBlockBegin
  2
SW_NOTE_3
 70
     0
 10
0.0
 20
0.0
 30
0.0
  3
SW_NOTE_3
  1

  0
MTEXT
  5
162
330
15F
100
AcDbEntity
  8
0
  6
Continuous
 62
     0
370
     0
100
AcDbMText
 10
25.052734375
 20
4.0927900738
 30
0.0
 40
3.175
 41
0.0
 71
     2
 72
     1
  1
FOR INFORMATION ONLY
  7
SLDTEXTSTYLE0
 73
     1
 44
1.0
  0
MTEXT
  5
163
330
15F
100
AcDbEntity
  8
0
  6
Continuous
 62
     0
370
     0
100
AcDbMText
 10
25.3768468589
 20
-0.1405432084
 30
0.0
 40
3.175
 41
0.0
 71
     2
 72
     1
  1
NOT FOR MANUFACTURING PURPOSES
  7
SLDTEXTSTYLE0
 73
     1
 44
1.0
  0
ENDBLK
  5
161
330
15F
100
AcDbEntity
  8
0
100
AcDbBlockEnd
  0
BLOCK
  5
166
330
165
100
AcDbEntity
  8
0
100
AcDbBlockBegin
  2
SW_NOTE_4
 70
     0
 10
0.0
 20
0.0
 30
0.0
  3
SW_NOTE_4
  1

  0
MTEXT
  5
168
330
165
100
AcDbEntity
  8
0
  6
Continuous
 62
     0
370
     0
100
AcDbMText
 10
1.7115234375
 20
3.0695925553
 30
0.0
 40
2.38125
 41
0.0
 71
     2
 72
     1
  1
%%c
  7
SLDTEXTSTYLE0
 73
     1
 44
1.0
  0
MTEXT
  5
169
330
165
100
AcDbEntity
  8
0
  6
Continuous
 62
     0
370
     0
100
AcDbMText
 10
28.2254191928
 20
3.0695925553
 30
0.0
 40
2.38125
 41
0.0
 71
     2
 72
     1
  1
50.8 mm f=60.2 mm FUSED SILICA
  7
SLDTEXTSTYLE0
 73
     1
 44
1.0
  0
MTEXT
  5
16A
330
165
100
AcDbEntity
  8
0
  6
Continuous
 62
     0
370
     0
100
AcDbMText
 10
26.8934627324
 20
-0.1054074063
 30
0.0
 40
2.38125
 41
0.0
 71
     2
 72
     1
  1
PLANO CONVEX LENS, -B COAT
  7
SLDTEXTSTYLE0
 73
     1
 44
1.0
  0
ENDBLK
  5
167
330
165
100
AcDbEntity
  8
0
100
AcDbBlockEnd
  0
BLOCK
  5
172
330
171
100
AcDbEntity
  8
0
100
AcDbBlockBegin
  2
_D
 70
     0
 10
0.0
 20
0.0
 30
0.0
  3
_D
  1

  0
SOLID
  5
174
330
171
100
AcDbEntity
  8
0
  6
Continuous
 62
     7
370
    18
100
AcDbTrace
 10
83.546101757
 20
156.7805826552
 30
0.0
 11
86.1000997469
 21
158.7339856519
 31
0.0
 12
85.3631129528
 22
159.4333471216
 32
0.0
 13
85.3631129528
 23
159.4333471216
 33
0.0
  0
LINE
  5
175
330
171
100
AcDbEntity
  8
0
  6
Continuous
 62
     7
370
    18
100
AcDbLine
 10
104.0688150967
 20
171.4648256017
 30
0.0
 11
103.4249956426
 21
171.4648256017
 31
0.0
  0
LINE
  5
176
330
171
100
AcDbEntity
  8
0
  6
Continuous
 62
     7
370
    18
100
AcDbLine
 10
103.4249956426
 20
171.4648256017
 30
0.0
 11
103.4249956426
 21
168.1016775252
 31
0.0
  0
LINE
  5
177
330
171
100
AcDbEntity
  8
0
  6
Continuous
 62
     7
370
    18
100
AcDbLine
 10
103.4249956426
 20
168.1016775252
 30
0.0
 11
104.0688150967
 21
168.1016775252
 31
0.0
  0
LINE
  5
178
330
171
100
AcDbEntity
  8
0
  6
Continuous
 62
     7
370
    18
100
AcDbLine
 10
111.826006643
 20
171.4648256017
 30
0.0
 11
112.4698260971
 21
171.4648256017
 31
0.0
  0
LINE
  5
179
330
171
100
AcDbEntity
  8
0
  6
Continuous
 62
     7
370
    18
100
AcDbLine
 10
112.4698260971
 20
171.4648256017
 30
0.0
 11
112.4698260971
 21
168.1016775252
 31
0.0
  0
LINE
  5
17A
330
171
100
AcDbEntity
  8
0
  6
Continuous
 62
     7
370
    18
100
AcDbLine
 10
112.4698260971
 20
168.1016775252
 30
0.0
 11
111.826006643
 21
168.1016775252
 31
0.0
  0
LINE
  5
17B
330
171
100
AcDbEntity
  8
0
  6
Continuous
 62
     7
370
    18
100
AcDbLine
 10
83.546101757
 20
156.7805826552
 30
0.0
 11
98.9711761885
 21
173.0355189741
 31
0.0
  0
LINE
  5
17C
330
171
100
AcDbEntity
  8
0
  6
Continuous
 62
     7
370
    18
100
AcDbLine
 10
98.9711761885
 20
173.0355189741
 30
0.0
 11
102.7811761885
 21
173.0355189741
 31
0.0
  0
MTEXT
  5
17D
330
171
100
AcDbEntity
  8
0
  6
Continuous
 62
     7
370
    18
100
AcDbMText
 10
102.7811761885
 20
174.6225652481
 30
0.0
 40
2.1166666667
 41
0.0
 71
     1
 72
     1
  1
%%c
  7
SLDTEXTSTYLE0
 73
     1
 44
1.0
  0
MTEXT
  5
17E
330
171
100
AcDbEntity
  8
0
  6
Continuous
 62
     7
370
    18
100
AcDbMText
 10
105.9761669892
 20
174.6225652481
 30
0.0
 40
2.1166666667
 41
0.0
 71
     1
 72
     1
  1
50.8mm
  7
SLDTEXTSTYLE0
 73
     1
 44
1.0
  0
MTEXT
  5
17F
330
171
100
AcDbEntity
  8
0
  6
Continuous
 62
     7
370
    18
100
AcDbMText
 10
104.0688150967
 20
170.8302041247
 30
0.0
 40
2.1166666667
 41
0.0
 71
     1
 72
     1
  1
2.00in
  7
SLDTEXTSTYLE0
 73
     1
 44
1.0
  0
ENDBLK
  5
173
330
171
100
AcDbEntity
  8
0
100
AcDbBlockEnd
  0
BLOCK
  5
1F7
330
1F6
100
AcDbEntity
  8
0
100
AcDbBlockBegin
  2
SW_NOTE_5
 70
     0
 10
0.0
 20
0.0
 30
0.0
  3
SW_NOTE_5
  1

  0
MTEXT
  5
1F9
330
1F6
100
AcDbEntity
  8
0
  6
Continuous
 62
     0
370
     0
100
AcDbMText
 10
11.01328125
 20
2.7285267159
 30
0.0
 40
2.1166666667
 41
0.0
 71
     2
 72
     1
  1
ISOMETRIC VIEW
  7
SLDTEXTSTYLE0
 73
     1
 44
1.0
  0
MTEXT
  5
1FA
330
1F6
100
AcDbEntity
  8
0
  6
Continuous
 62
     0
370
     0
100
AcDbMText
 10
10.8150885594
 20
-1.0936954033
 30
0.0
 40
2.1166666667
 41
0.0
 71
     2
 72
     1
  1
SCALE: 1:1
  7
SLDTEXTSTYLE0
 73
     1
 44
1.0
  0
ENDBLK
  5
1F8
330
1F6
100
AcDbEntity
  8
0
100
AcDbBlockEnd
  0
BLOCK
  5
20C
330
20B
100
AcDbEntity
  8
0
100
AcDbBlockBegin
  2
_D_1
 70
     0
 10
0.0
 20
0.0
 30
0.0
  3
_D_1
  1

  0
SOLID
  5
20E
330
20B
100
AcDbEntity
  8
0
  6
Continuous
 62
     7
370
    18
100
AcDbTrace
 10
172.5798588862
 20
154.0704019654
 30
0.0
 11
170.2584840207
 21
156.2952407761
 31
0.0
 12
169.6801942134
 22
155.45987445
 32
0.0
 13
169.6801942134
 23
155.45987445
 33
0.0
  0
LINE
  5
20F
330
20B
100
AcDbEntity
  8
0
  6
Continuous
 62
     7
370
    18
100
AcDbLine
 10
142.6902068247
 20
162.8079400992
 30
0.0
 11
142.0463873706
 21
162.8079400992
 31
0.0
  0
LINE
  5
210
330
20B
100
AcDbEntity
  8
0
  6
Continuous
 62
     7
370
    18
100
AcDbLine
 10
142.0463873706
 20
162.8079400992
 30
0.0
 11
142.0463873706
 21
159.4447920227
 31
0.0
  0
LINE
  5
211
330
20B
100
AcDbEntity
  8
0
  6
Continuous
 62
     7
370
    18
100
AcDbLine
 10
142.0463873706
 20
159.4447920227
 30
0.0
 11
142.6902068247
 21
159.4447920227
 31
0.0
  0
LINE
  5
212
330
20B
100
AcDbEntity
  8
0
  6
Continuous
 62
     7
370
    18
100
AcDbLine
 10
150.447398371
 20
162.8079400992
 30
0.0
 11
151.0912178251
 21
162.8079400992
 31
0.0
  0
LINE
  5
213
330
20B
100
AcDbEntity
  8
0
  6
Continuous
 62
     7
370
    18
100
AcDbLine
 10
151.0912178251
 20
162.8079400992
 30
0.0
 11
151.0912178251
 21
159.4447920227
 31
0.0
  0
LINE
  5
214
330
20B
100
AcDbEntity
  8
0
  6
Continuous
 62
     7
370
    18
100
AcDbLine
 10
151.0912178251
 20
159.4447920227
 30
0.0
 11
150.447398371
 21
159.4447920227
 31
0.0
  0
LINE
  5
215
330
20B
100
AcDbEntity
  8
0
  6
Continuous
 62
     7
370
    18
100
AcDbLine
 10
172.5798588862
 20
154.0704019654
 30
0.0
 11
157.689142546
 21
164.3786334716
 31
0.0
  0
LINE
  5
216
330
20B
100
AcDbEntity
  8
0
  6
Continuous
 62
     7
370
    18
100
AcDbLine
 10
157.689142546
 20
164.3786334716
 30
0.0
 11
153.879142546
 21
164.3786334716
 31
0.0
  0
MTEXT
  5
217
330
20B
100
AcDbEntity
  8
0
  6
Continuous
 62
     7
370
    18
100
AcDbMText
 10
141.4025679165
 20
165.9656797456
 30
0.0
 40
2.1166666667
 41
0.0
 71
     1
 72
     1
  1
R27.6mm
  7
SLDTEXTSTYLE0
 73
     1
 44
1.0
  0
MTEXT
  5
218
330
20B
100
AcDbEntity
  8
0
  6
Continuous
 62
     7
370
    18
100
AcDbMText
 10
142.6902068247
 20
162.1733186221
 30
0.0
 40
2.1166666667
 41
0.0
 71
     1
 72
     1
  1
1.09in
  7
SLDTEXTSTYLE0
 73
     1
 44
1.0
  0
ENDBLK
  5
20D
330
20B
100
AcDbEntity
  8
0
100
AcDbBlockEnd
  0
BLOCK
  5
21C
330
21B
100
AcDbEntity
  8
0
100
AcDbBlockBegin
  2
_D_2
 70
     0
 10
0.0
 20
0.0
 30
0.0
  3
_D_2
  1

  0
SOLID
  5
21E
330
21B
100
AcDbEntity
  8
0
  6
Continuous
 62
     7
370
    18
100
AcDbTrace
 10
184.2381720212
 20
169.4786331081
 30
0.0
 11
181.0631720212
 21
169.9866331081
 31
0.0
 12
181.0631720212
 22
168.9706331081
 32
0.0
 13
181.0631720212
 23
168.9706331081
 33
0.0
  0
SOLID
  5
21F
330
21B
100
AcDbEntity
  8
0
  6
Continuous
 62
     7
370
    18
100
AcDbTrace
 10
187.2128815918
 20
169.4786331081
 30
0.0
 11
190.3878815918
 21
168.9706331081
 31
0.0
 12
190.3878815918
 22
169.9866331081
 32
0.0
 13
190.3878815918
 23
169.9866331081
 33
0.0
  0
LINE
  5
220
330
21B
100
AcDbEntity
  8
0
  6
Continuous
 62
     7
370
    18
100
AcDbLine
 10
204.3510780069
 20
171.4306698576
 30
0.0
 11
203.7072585528
 21
171.4306698576
 31
0.0
  0
LINE
  5
221
330
21B
100
AcDbEntity
  8
0
  6
Continuous
 62
     7
370
    18
100
AcDbLine
 10
203.7072585528
 20
171.4306698576
 30
0.0
 11
203.7072585528
 21
168.0675217812
 31
0.0
  0
LINE
  5
222
330
21B
100
AcDbEntity
  8
0
  6
Continuous
 62
     7
370
    18
100
AcDbLine
 10
203.7072585528
 20
168.0675217812
 30
0.0
 11
204.3510780069
 21
168.0675217812
 31
0.0
  0
LINE
  5
223
330
21B
100
AcDbEntity
  8
0
  6
Continuous
 62
     7
370
    18
100
AcDbLine
 10
212.1082695532
 20
171.4306698576
 30
0.0
 11
212.7520890073
 21
171.4306698576
 31
0.0
  0
LINE
  5
224
330
21B
100
AcDbEntity
  8
0
  6
Continuous
 62
     7
370
    18
100
AcDbLine
 10
212.7520890073
 20
171.4306698576
 30
0.0
 11
212.7520890073
 21
168.0675217812
 31
0.0
  0
LINE
  5
225
330
21B
100
AcDbEntity
  8
0
  6
Continuous
 62
     7
370
    18
100
AcDbLine
 10
212.7520890073
 20
168.0675217812
 30
0.0
 11
212.1082695532
 21
168.0675217812
 31
0.0
  0
LINE
  5
226
330
21B
100
AcDbEntity
  8
0
  6
Continuous
 62
     7
370
    18
100
AcDbLine
 10
184.2381720212
 20
164.9290807567
 30
0.0
 11
184.2381720212
 21
171.2566331081
 31
0.0
  0
LINE
  5
227
330
21B
100
AcDbEntity
  8
0
  6
Continuous
 62
     7
370
    18
100
AcDbLine
 10
187.2128815918
 20
165.0259128026
 30
0.0
 11
187.2128815918
 21
171.2566331081
 31
0.0
  0
LINE
  5
228
330
21B
100
AcDbEntity
  8
0
  6
Continuous
 62
     7
370
    18
100
AcDbLine
 10
184.2381720212
 20
169.4786331081
 30
0.0
 11
177.8881720212
 21
169.4786331081
 31
0.0
  0
LINE
  5
229
330
21B
100
AcDbEntity
  8
0
  6
Continuous
 62
     7
370
    18
100
AcDbLine
 10
187.2128815918
 20
169.4786331081
 30
0.0
 11
202.6336603575
 21
169.4786331081
 31
0.0
  0
MTEXT
  5
22A
330
21B
100
AcDbEntity
  8
0
  6
Continuous
 62
     7
370
    18
100
AcDbMText
 10
203.6298434115
 20
174.5884095041
 30
0.0
 40
2.1166666667
 41
0.0
 71
     1
 72
     1
  1
3.0mm
  7
SLDTEXTSTYLE0
 73
     1
 44
1.0
  0
MTEXT
  5
22B
330
21B
100
AcDbEntity
  8
0
  6
Continuous
 62
     7
370
    18
100
AcDbMText
 10
204.3510780069
 20
170.7960483806
 30
0.0
 40
2.1166666667
 41
0.0
 71
     1
 72
     1
  1
0.12in
  7
SLDTEXTSTYLE0
 73
     1
 44
1.0
  0
MTEXT
  5
22C
330
21B
100
AcDbEntity
  8
0
  6
Continuous
 62
     7
370
    18
100
AcDbMText
 10
205.9326981991
 20
167.00368749
 30
0.0
 40
2.1166666667
 41
0.0
 71
     1
 72
     1
  1
REF
  7
SLDTEXTSTYLE0
 73
     1
 44
1.0
  0
ENDBLK
  5
21D
330
21B
100
AcDbEntity
  8
0
100
AcDbBlockEnd
  0
BLOCK
  5
230
330
22F
100
AcDbEntity
  8
0
100
AcDbBlockBegin
  2
_D_3
 70
     0
 10
0.0
 20
0.0
 30
0.0
  3
_D_3
  1

  0
SOLID
  5
232
330
22F
100
AcDbEntity
  8
0
  6
Continuous
 62
     7
370
    18
100
AcDbTrace
 10
167.6728815918
 20
98.7116296479
 30
0.0
 11
170.8478815918
 21
98.2036296479
 31
0.0
 12
170.8478815918
 22
99.2196296479
 32
0.0
 13
170.8478815918
 23
99.2196296479
 33
0.0
  0
SOLID
  5
233
330
22F
100
AcDbEntity
  8
0
  6
Continuous
 62
     7
370
    18
100
AcDbTrace
 10
187.4628815918
 20
98.7116296479
 30
0.0
 11
184.2878815918
 21
99.2196296479
 31
0.0
 12
184.2878815918
 22
98.2036296479
 32
0.0
 13
184.2878815918
 23
98.2036296479
 33
0.0
  0
LINE
  5
234
330
22F
100
AcDbEntity
  8
0
  6
Continuous
 62
     7
370
    18
100
AcDbLine
 10
204.3510780069
 20
98.711629415
 30
0.0
 11
203.7072585528
 21
98.711629415
 31
0.0
  0
LINE
  5
235
330
22F
100
AcDbEntity
  8
0
  6
Continuous
 62
     7
370
    18
100
AcDbLine
 10
203.7072585528
 20
98.711629415
 30
0.0
 11
203.7072585528
 21
95.3484813386
 31
0.0
  0
LINE
  5
236
330
22F
100
AcDbEntity
  8
0
  6
Continuous
 62
     7
370
    18
100
AcDbLine
 10
203.7072585528
 20
95.3484813386
 30
0.0
 11
204.3510780069
 21
95.3484813386
 31
0.0
  0
LINE
  5
237
330
22F
100
AcDbEntity
  8
0
  6
Continuous
 62
     7
370
    18
100
AcDbLine
 10
212.1082695532
 20
98.711629415
 30
0.0
 11
212.7520890073
 21
98.711629415
 31
0.0
  0
LINE
  5
238
330
22F
100
AcDbEntity
  8
0
  6
Continuous
 62
     7
370
    18
100
AcDbLine
 10
212.7520890073
 20
98.711629415
 30
0.0
 11
212.7520890073
 21
95.3484813386
 31
0.0
  0
LINE
  5
239
330
22F
100
AcDbEntity
  8
0
  6
Continuous
 62
     7
370
    18
100
AcDbLine
 10
212.7520890073
 20
95.3484813386
 30
0.0
 11
212.1082695532
 21
95.3484813386
 31
0.0
  0
LINE
  5
23A
330
22F
100
AcDbEntity
  8
0
  6
Continuous
 62
     7
370
    18
100
AcDbLine
 10
167.6728815918
 20
137.0859128026
 30
0.0
 11
167.6728815918
 21
96.9336296479
 31
0.0
  0
LINE
  5
23B
330
22F
100
AcDbEntity
  8
0
  6
Continuous
 62
     7
370
    18
100
AcDbLine
 10
187.4628815918
 20
111.9359128026
 30
0.0
 11
187.4628815918
 21
96.9336296479
 31
0.0
  0
LINE
  5
23C
330
22F
100
AcDbEntity
  8
0
  6
Continuous
 62
     7
370
    18
100
AcDbLine
 10
167.6728815918
 20
98.7116296479
 30
0.0
 11
187.4628815918
 21
98.7116296479
 31
0.0
  0
LINE
  5
23D
330
22F
100
AcDbEntity
  8
0
  6
Continuous
 62
     7
370
    18
100
AcDbLine
 10
187.4628815918
 20
98.7116296479
 30
0.0
 11
200.8580119126
 21
98.7116296479
 31
0.0
  0
MTEXT
  5
23E
330
22F
100
AcDbEntity
  8
0
  6
Continuous
 62
     7
370
    18
100
AcDbMText
 10
202.8752906538
 20
101.8693690615
 30
0.0
 40
2.1166666667
 41
0.0
 71
     1
 72
     1
  1

  7
SLDTEXTSTYLE0
 73
     1
 44
1.0
  0
MTEXT
  5
23F
330
22F
100
AcDbEntity
  8
0
  6
Continuous
 62
     7
370
    18
100
AcDbMText
 10
202.8478523582
 20
101.8693690615
 30
0.0
 40
2.1166666667
 41
0.0
 71
     1
 72
     1
  1
19.8mm
  7
SLDTEXTSTYLE0
 73
     1
 44
1.0
  0
MTEXT
  5
240
330
22F
100
AcDbEntity
  8
0
  6
Continuous
 62
     7
370
    18
100
AcDbMText
 10
204.3510780069
 20
98.077007938
 30
0.0
 40
2.1166666667
 41
0.0
 71
     1
 72
     1
  1
0.78in
  7
SLDTEXTSTYLE0
 73
     1
 44
1.0
  0
MTEXT
  5
241
330
22F
100
AcDbEntity
  8
0
  6
Continuous
 62
     7
370
    18
100
AcDbMText
 10
215.1989942706
 20
101.8693690615
 30
0.0
 40
2.1166666667
 41
0.0
 71
     1
 72
     1
  1

  7
SLDTEXTSTYLE0
 73
     1
 44
1.0
  0
ENDBLK
  5
231
330
22F
100
AcDbEntity
  8
0
100
AcDbBlockEnd
  0
ENDSEC
  0
SECTION
  2
ENTITIES
  0
LINE
  5
115
330
1F
100
AcDbEntity
  8
0
  6
Continuous
 62
     7
370
    18
100
AcDbLine
 10
1.5793501011
 20
214.6453799966
 30
0.0
 11
277.9892068491
 21
214.6453799966
 31
0.0
  0
LINE
  5
116
330
1F
100
AcDbEntity
  8
0
  6
Continuous
 62
     7
370
    18
100
AcDbLine
 10
1.5793501011
 20
214.6453799966
 30
0.0
 11
1.5793501011
 21
0.9031642596
 31
0.0
  0
LINE
  5
117
330
1F
100
AcDbEntity
  8
0
  6
Continuous
 62
     7
370
    18
100
AcDbLine
 10
277.9892068491
 20
0.9031642596
 30
0.0
 11
1.5793501011
 21
0.9031642596
 31
0.0
  0
LINE
  5
118
330
1F
100
AcDbEntity
  8
0
  6
Continuous
 62
     7
370
    18
100
AcDbLine
 10
277.9892068491
 20
0.9031642596
 30
0.0
 11
277.9892068491
 21
214.6453799966
 31
0.0
  0
LINE
  5
119
330
1F
100
AcDbEntity
  8
0
  6
Continuous
 62
     7
370
    18
100
AcDbLine
 10
215.7427640041
 20
12.2958890132
 30
0.0
 11
171.6327596684
 21
12.2958890132
 31
0.0
  0
LINE
  5
11A
330
1F
100
AcDbEntity
  8
0
  6
Continuous
 62
     7
370
    18
100
AcDbLine
 10
171.6327596684
 20
12.2958890132
 30
0.0
 11
171.6327596684
 21
26.1661402506
 31
0.0
  0
LINE
  5
11B
330
1F
100
AcDbEntity
  8
0
  6
Continuous
 62
     7
370
    18
100
AcDbLine
 10
171.6327596684
 20
0.9031642596
 30
0.0
 11
171.6327596684
 21
26.1661402506
 31
0.0
  0
LINE
  5
11C
330
1F
100
AcDbEntity
  8
0
  6
Continuous
 62
     7
370
    18
100
AcDbLine
 10
215.7427640041
 20
17.1604579552
 30
0.0
 11
277.9892068491
 21
17.1604579552
 31
0.0
  0
LINE
  5
11D
330
1F
100
AcDbEntity
  8
0
  6
Continuous
 62
     7
370
    18
100
AcDbLine
 10
215.7427640041
 20
35.2394508358
 30
0.0
 11
215.7427640041
 21
0.9031642596
 31
0.0
  0
LINE
  5
11E
330
1F
100
AcDbEntity
  8
0
  6
Continuous
 62
     7
370
    18
100
AcDbLine
 10
215.7427640041
 20
26.1661402506
 30
0.0
 11
171.6327596684
 21
26.1661402506
 31
0.0
  0
LINE
  5
11F
330
1F
100
AcDbEntity
  8
0
  6
Continuous
 62
     7
370
    18
100
AcDbLine
 10
215.7427640041
 20
9.1409200612
 30
0.0
 11
277.9892068491
 21
9.1409200612
 31
0.0
  0
LINE
  5
120
330
1F
100
AcDbEntity
  8
0
  6
Continuous
 62
     7
370
    18
100
AcDbLine
 10
215.7427640041
 20
16.9216824031
 30
0.0
 11
171.6327596684
 21
16.9216824031
 31
0.0
  0
LINE
  5
121
330
1F
100
AcDbEntity
  8
0
  6
Continuous
 62
     7
370
    18
100
AcDbLine
 10
215.7427640041
 20
21.4874005542
 30
0.0
 11
171.6327596684
 21
21.4874005542
 31
0.0
  0
LINE
  5
122
330
1F
100
AcDbEntity
  8
0
  6
Continuous
 62
     7
370
    18
100
AcDbLine
 10
186.1338100705
 20
26.1661402506
 30
0.0
 11
186.1338100705
 21
12.2958890132
 31
0.0
  0
LINE
  5
123
330
1F
100
AcDbEntity
  8
0
  6
Continuous
 62
     7
370
    18
100
AcDbLine
 10
198.2145906188
 20
26.1661402506
 30
0.0
 11
198.2145906188
 21
12.2958890132
 31
0.0
  0
LINE
  5
124
330
1F
100
AcDbEntity
  8
0
  6
Continuous
 62
     7
370
    18
100
AcDbLine
 10
253.7490408369
 20
9.1409200612
 30
0.0
 11
253.7490408369
 21
0.9031642596
 31
0.0
  0
LINE
  5
125
330
1F
100
AcDbEntity
  8
0
  6
Continuous
 62
     7
370
    18
100
AcDbLine
 10
171.6327596684
 20
12.2958890132
 30
0.0
 11
171.6327596684
 21
7.5627342528
 31
0.0
  0
LINE
  5
126
330
1F
100
AcDbEntity
  8
0
  6
Continuous
 62
     7
370
    18
100
AcDbLine
 10
171.6327596684
 20
7.5627342528
 30
0.0
 11
215.7427640041
 21
7.5627342528
 31
0.0
  0
LINE
  5
127
330
1F
100
AcDbEntity
  8
0
  6
Continuous
 62
     7
370
    18
100
AcDbLine
 10
171.6327596684
 20
7.5627342528
 30
0.0
 11
171.6327596684
 21
35.2394508358
 31
0.0
  0
LINE
  5
128
330
1F
100
AcDbEntity
  8
0
  6
Continuous
 62
     7
370
    18
100
AcDbLine
 10
171.6327596684
 20
35.2394508358
 30
0.0
 11
215.7427640041
 21
35.2394508358
 31
0.0
  0
LINE
  5
129
330
1F
100
AcDbEntity
  8
0
  6
Continuous
 62
     7
370
    18
100
AcDbLine
 10
270.1683598194
 20
17.1604579552
 30
0.0
 11
270.1683598194
 21
9.1409200612
 31
0.0
  0
LINE
  5
12A
330
1F
100
AcDbEntity
  8
0
  6
Continuous
 62
     7
370
    18
100
AcDbLine
 10
215.7427640041
 20
35.2394508358
 30
0.0
 11
277.9892068491
 21
35.2394508358
 31
0.0
  0
LINE
  5
12B
330
1F
100
AcDbEntity
  8
0
  6
Continuous
 62
     7
370
    18
100
AcDbLine
 10
277.9892068491
 20
35.2394508358
 30
0.0
 11
277.9892068491
 21
50.0331356147
 31
0.0
  0
LINE
  5
12C
330
1F
100
AcDbEntity
  8
0
  6
Continuous
 62
     7
370
    18
100
AcDbLine
 10
215.7427640041
 20
24.8927335446
 30
0.0
 11
277.9892068491
 21
24.8927335446
 31
0.0
  0
INSERT
  5
12D
330
1F
100
AcDbEntity
  8
0
  6
Continuous
 62
     7
100
AcDbBlockReference
  2
Third Angle Projection Block
 10
117.7262204235
 20
15.5162339489
 30
0.0
 41
0.8
 42
0.8
 43
0.8
  0
INSERT
  5
12E
330
1F
100
AcDbEntity
  8
0
  6
Continuous
 62
     7
100
AcDbBlockReference
  2
THORLABS LOGO1
 10
221.4689095479
 20
21.3590046332
 30
0.0
 41
0.25
 42
0.25
 43
0.25
  0
INSERT
  5
140
330
1F
100
AcDbEntity
  8
0
  6
Continuous
 62
     7
370
     0
100
AcDbBlockReference
  2
SW_NOTE_0
 10
15.3672660057
 20
64.9510241138
 30
0.0
  0
MTEXT
  5
141
330
1F
100
AcDbEntity
  8
0
  6
Continuous
 62
     7
370
     0
100
AcDbMText
 10
274.1458225539
 20
13.2559386876
 30
0.0
 40
3.175
 41
0.0
 71
     2
 72
     1
  1
A
  7
SLDTEXTSTYLE0
 73
     1
 44
1.0
  0
MTEXT
  5
142
330
1F
100
AcDbEntity
  8
0
  6
Continuous
 62
     7
370
     0
100
AcDbMText
 10
234.4980829871
 20
5.1306563898
 30
0.0
 40
3.175
 41
0.0
 71
     2
 72
     1
  1
LA4464-B
  7
SLDTEXTSTYLE0
 73
     1
 44
1.0
  0
MTEXT
  5
143
330
1F
100
AcDbEntity
  8
0
  6
Continuous
 62
     7
370
     0
100
AcDbMText
 10
216.4199766059
 20
16.8243178599
 30
0.0
 40
2.1166666667
 41
0.0
 71
     1
 72
     1
  1
MATERIAL
  7
SLDTEXTSTYLE0
 73
     1
 44
1.0
  0
MTEXT
  5
144
330
1F
100
AcDbEntity
  8
0
  6
Continuous
 62
     7
370
     0
100
AcDbMText
 10
174.230946566
 20
20.054553926
 30
0.0
 40
1.8520833333
 41
0.0
 71
     1
 72
     1
  1
DRAWN
  7
SLDTEXTSTYLE0
 73
     1
 44
1.0
  0
MTEXT
  5
145
330
1F
100
AcDbEntity
  8
0
  6
Continuous
 62
     7
370
     0
100
AcDbMText
 10
172.3960124543
 20
15.5787169747
 30
0.0
 40
1.8520833333
 41
0.0
 71
     1
 72
     1
  1
APPROVAL
  7
SLDTEXTSTYLE0
 73
     1
 44
1.0
  0
MTEXT
  5
146
330
1F
100
AcDbEntity
  8
0
  6
Continuous
 62
     7
370
     0
100
AcDbMText
 10
271.7160653675
 20
16.1671746307
 30
0.0
 40
2.1166666667
 41
0.0
 71
     1
 72
     1
  1
REV
  7
SLDTEXTSTYLE0
 73
     1
 44
1.0
  0
MTEXT
  5
147
330
1F
100
AcDbEntity
  8
0
  6
Continuous
 62
     7
370
     0
100
AcDbMText
 10
190.2958696448
 20
20.3177146903
 30
0.0
 40
2.1166666667
 41
0.0
 71
     1
 72
     1
  1
YB
  7
SLDTEXTSTYLE0
 73
     1
 44
1.0
  0
MTEXT
  5
148
330
1F
100
AcDbEntity
  8
0
  6
Continuous
 62
     7
370
     0
100
AcDbMText
 10
190.2958696448
 20
15.841877739
 30
0.0
 40
2.1166666667
 41
0.0
 71
     1
 72
     1
  1
DS
  7
SLDTEXTSTYLE0
 73
     1
 44
1.0
  0
MTEXT
  5
149
330
1F
100
AcDbEntity
  8
0
  6
Continuous
 62
     7
370
     0
100
AcDbMText
 10
199.8662436873
 20
20.3177146903
 30
0.0
 40
2.1166666667
 41
0.0
 71
     1
 72
     1
  1
25/JUN/21
  7
SLDTEXTSTYLE0
 73
     1
 44
1.0
  0
MTEXT
  5
14A
330
1F
100
AcDbEntity
  8
0
  6
Continuous
 62
     7
370
     0
100
AcDbMText
 10
203.6145073853
 20
24.8221395769
 30
0.0
 40
2.1166666667
 41
0.0
 71
     1
 72
     1
  1
DATE
  7
SLDTEXTSTYLE0
 73
     1
 44
1.0
  0
MTEXT
  5
14B
330
1F
100
AcDbEntity
  8
0
  6
Continuous
 62
     7
370
     0
100
AcDbMText
 10
199.8662436873
 20
15.841877739
 30
0.0
 40
2.1166666667
 41
0.0
 71
     1
 72
     1
  1
27/AUG/21
  7
SLDTEXTSTYLE0
 73
     1
 44
1.0
  0
MTEXT
  5
14D
330
1F
100
AcDbEntity
  8
0
  6
Continuous
 62
     7
370
     0
100
AcDbMText
 10
229.402906477
 20
27.7957480569
 30
0.0
 40
2.1166666667
 41
0.0
 71
     1
 72
     1
  1
w w w . t h o r  l a b s . c o m
  7
SLDTEXTSTYLE1
 73
     1
 44
1.0
  0
MTEXT
  5
14E
330
1F
100
AcDbEntity
  8
0
  6
Continuous
 62
     7
370
     0
100
AcDbMText
 10
216.7004035316
 20
8.3494791871
 30
0.0
 40
2.1166666667
 41
0.0
 71
     1
 72
     1
  1
ITEM #
  7
SLDTEXTSTYLE0
 73
     1
 44
1.0
  0
MTEXT
  5
14F
330
1F
100
AcDbEntity
  8
0
  6
Continuous
 62
     7
370
     0
100
AcDbMText
 10
254.5318000914
 20
8.3494791871
 30
0.0
 40
2.1166666667
 41
0.0
 71
     1
 72
     1
  1
APPROX WEIGHT
  7
SLDTEXTSTYLE0
 73
     1
 44
1.0
  0
MTEXT
  5
150
330
1F
100
AcDbEntity
  8
0
  6
Continuous
 62
     7
370
     0
100
AcDbMText
 10
243.4409424799
 20
13.8247651814
 30
0.0
 40
3.175
 41
0.0
 71
     2
 72
     1
  1
UV FUSED SILICA
  7
SLDTEXTSTYLE0
 73
     1
 44
1.0
  0
MTEXT
  5
151
330
1F
100
AcDbEntity
  8
0
  6
Continuous
 62
     7
370
     0
100
AcDbMText
 10
266.1553537756
 20
5.1306563898
 30
0.0
 40
3.175
 41
0.0
 71
     2
 72
     1
  1
56.33 g
  7
SLDTEXTSTYLE0
 73
     1
 44
1.0
  0
INSERT
  5
157
330
1F
100
AcDbEntity
  8
0
  6
Continuous
 62
     7
370
     0
100
AcDbBlockReference
  2
SW_NOTE_1
 10
174.8430140051
 20
4.4558554801
 30
0.0
  0
INSERT
  5
15D
330
1F
100
AcDbEntity
  8
0
  6
Continuous
 62
     7
370
     0
100
AcDbBlockReference
  2
SW_NOTE_2
 10
174.5483650337
 20
30.4835322715
 30
0.0
  0
MTEXT
  5
15E
330
1F
100
AcDbEntity
  8
0
  6
Continuous
 62
     7
370
     0
100
AcDbMText
 10
187.9273588276
 20
24.8221395769
 30
0.0
 40
2.1166666667
 41
0.0
 71
     1
 72
     1
  1
NAME
  7
SLDTEXTSTYLE0
 73
     1
 44
1.0
  0
INSERT
  5
164
330
1F
100
AcDbEntity
  8
0
  6
Continuous
 62
     7
370
     0
100
AcDbBlockReference
  2
SW_NOTE_3
 10
58.6204667508
 20
8.1776609732
 30
0.0
  0
INSERT
  5
16B
330
1F
100
AcDbEntity
  8
0
  6
Continuous
 62
     7
370
     0
100
AcDbBlockReference
  2
SW_NOTE_4
 10
219.8580850209
 20
20.6862828027
 30
0.0
  0
MTEXT
  5
16C
330
1F
100
AcDbEntity
  8
0
  6
Continuous
 62
     7
370
     0
100
AcDbMText
 10
177.6925831922
 20
10.7142101515
 30
0.0
 40
1.5875
 41
0.0
 71
     1
 72
     1
  1
COPYRIGHT © 2021 BY THORLABS
  7
SLDTEXTSTYLE0
 73
     1
 44
1.0
  0
CIRCLE
  5
16D
330
1F
100
AcDbEntity
  8
0
  6
Continuous
 62
     7
370
    18
100
AcDbCircle
 10
66.0620650143
 20
138.3559128026
 30
0.0
 40
25.30316795410296
  0
CIRCLE
  5
16E
330
1F
100
AcDbEntity
  8
0
  6
Continuous
 62
     7
370
    18
100
AcDbCircle
 10
66.0620650143
 20
138.3559128026
 30
0.0
 40
25.40000000000001
  0
DIMENSION
  5
16F
330
1F
100
AcDbEntity
  8
0
  6
Continuous
 62
     7
370
    18
100
AcDbDimension
  2
_D
 10
48.5780282715
 20
119.9312429499
 30
0.0
 11
109.7604926615
 21
173.0355189741
 31
0.0
 70
   163
  1
<>
 71
     1
 42
-1.0
  3
SLDDIMSTYLE0
100
AcDbDiametricDimension
 15
83.546101757
 25
156.7805826552
 35
0.0
 40
0.0
  0
LINE
  5
180
330
1F
100
AcDbEntity
  8
0
  6
PHANTOM
 62
     7
370
    35
100
AcDbLine
 10
66.0620650143
 20
169.8519128026
 30
0.0
 11
66.0620650143
 21
106.8599128026
 31
0.0
  0
LINE
  5
181
330
1F
100
AcDbEntity
  8
0
  6
Continuous
 62
     7
370
    35
100
AcDbLine
 10
66.0620650143
 20
169.8519128026
 30
0.0
 11
57.1720650143
 21
169.8519128026
 31
0.0
  0
SOLID
  5
182
330
1F
100
AcDbEntity
  8
0
  6
Continuous
 62
     7
370
    35
100
AcDbTrace
 10
57.1720650143
 20
169.8519128026
 30
0.0
 11
60.9820650143
 21
169.2169128026
 31
0.0
 12
60.9820650143
 22
170.4869128026
 32
0.0
 13
60.9820650143
 23
170.4869128026
 33
0.0
  0
LINE
  5
183
330
1F
100
AcDbEntity
  8
0
  6
Continuous
 62
     7
370
    35
100
AcDbLine
 10
66.0620650143
 20
106.8599128026
 30
0.0
 11
57.1720650143
 21
106.8599128026
 31
0.0
  0
SOLID
  5
184
330
1F
100
AcDbEntity
  8
0
  6
Continuous
 62
     7
370
    35
100
AcDbTrace
 10
57.1720650143
 20
106.8599128026
 30
0.0
 11
60.9820650143
 21
106.2249128026
 31
0.0
 12
60.9820650143
 22
107.4949128026
 32
0.0
 13
60.9820650143
 23
107.4949128026
 33
0.0
  0
MTEXT
  5
185
330
1F
100
AcDbEntity
  8
0
  6
Continuous
 62
     7
100
AcDbMText
 10
53.76581267
 20
171.9534796826
 30
0.0
 40
2.6458333333
 41
0.0
 71
     1
 72
     1
  1
A
  7
SLDTEXTSTYLE0
 73
     1
 44
1.0
  0
MTEXT
  5
186
330
1F
100
AcDbEntity
  8
0
  6
Continuous
 62
     7
100
AcDbMText
 10
53.76581267
 20
108.9614796826
 30
0.0
 40
2.6458333333
 41
0.0
 71
     1
 72
     1
  1
A
  7
SLDTEXTSTYLE0
 73
     1
 44
1.0
  0
SPLINE
  5
187
330
1F
100
AcDbEntity
  8
0
  6
Continuous
 62
     7
370
    18
100
AcDbSpline
210
0.0
220
0.0
230
1.0
 70
     8
 71
     3
 72
    80
 73
    76
 74
     0
 42
0.000000001
 43
0.00000001
 40
0.0
 40
0.0
 40
0.0
 40
0.0
 40
0.0075916479166873
 40
0.0211501337638266
 40
0.0346947252622161
 40
0.0482256541234734
 40
0.0617431835198539
 40
0.0752476126844344
 40
0.088739282024429
 40
0.1022185787894107
 40
0.1156859433348957
 40
0.1291418760182084
 40
0.1425869447576263
 40
0.1560217932759808
 40
0.1694471500353724
 40
0.1828638378496748
 40
0.1962727841336794
 40
0.2096750317108887
 40
0.2230717500549027
 40
0.2364642467784519
 40
0.249853979110251
 40
0.2632425650084786
 40
0.2766317934532234
 40
0.29002363333708
 40
0.3034202402368282
 40
0.3168239602048021
 40
0.3302373295754242
 40
0.3436630696540073
 40
0.3571040750606521
 40
0.3705633944670392
 40
0.3840442025182788
 40
0.3975497619093372
 40
0.4110833749180604
 40
0.4246483242114119
 40
0.4382478034467176
 40
0.4518848390735131
 40
0.4655622057524486
 40
0.4792823388590708
 40
0.493047248502226
 40
0.5068584402042349
 40
0.5207168477007854
 40
0.5346227793409873
 40
0.5485758974620992
 40
0.5625752113654874
 40
0.5766190996794633
 40
0.5907053575090184
 40
0.6048312653036477
 40
0.6189936746940894
 40
0.6331891054231724
 40
0.6474138470620601
 40
0.6616640594574724
 40
0.6759358666853322
 40
0.6902254405047982
 40
0.7045290706979762
 40
0.7188432210481812
 40
0.7331645709022856
 40
0.747490043191513
 40
0.7618168204190893
 40
0.7761423504775914
 40
0.7904643442793141
 40
0.8047807671263183
 40
0.8190898255737624
 40
0.8333899513004781
 40
0.8476797832368905
 40
0.861958148939866
 40
0.8762240459656977
 40
0.8904766237856501
 40
0.904715166616753
 40
0.9189390774030773
 40
0.9331478630764987
 40
0.9473411211466043
 40
0.961518527612528
 40
0.9756798261500765
 40
0.9898248185024491
 40
1.0
 40
1.0
 40
1.0
 40
1.0
 10
232.2705722702574
 20
198.7901638386253
 30
0.0
 10
232.1947493749315
 20
198.6631289790095
 30
0.0
 10
231.9835087594414
 20
198.3092131621765
 30
0.0
 10
231.6587425007526
 20
197.7160383570817
 30
0.0
 10
231.2949669431596
 20
197.0126613093448
 30
0.0
 10
230.9527907759921
 20
196.2993363318504
 30
0.0
 10
230.6312520524356
 20
195.5773603822281
 30
0.0
 10
230.330860695147
 20
194.8471501052436
 30
0.0
 10
230.0517107016229
 20
194.1093588221809
 30
0.0
 10
229.7939855099304
 20
193.3645766183068
 30
0.0
 10
229.5578231465076
 20
192.613409501274
 30
0.0
 10
229.3433527534737
 20
191.8564571142499
 30
0.0
 10
229.1506853500303
 20
191.0943175752629
 30
0.0
 10
228.9799169377285
 20
190.3275850456652
 30
0.0
 10
228.8311284082203
 20
189.5568492388264
 30
0.0
 10
228.7043864200807
 20
188.7826944136312
 30
0.0
 10
228.5997441369835
 20
188.0056985223326
 30
0.0
 10
228.5172421300252
 20
187.2264323496803
 30
0.0
 10
228.4569093678555
 20
186.4454587074875
 30
0.0
 10
228.4187643172039
 20
185.6633316931376
 30
0.0
 10
228.4028161462441
 20
184.880596041416
 30
0.0
 10
228.4090660262236
 20
184.0977866001618
 30
0.0
 10
228.4375085192044
 20
183.3154279672468
 30
0.0
 10
228.4881330330265
 20
182.5340343321131
 30
0.0
 10
228.5609253154213
 20
181.7541095710099
 30
0.0
 10
228.6558689483184
 20
180.9761476500436
 30
0.0
 10
228.7729467906503
 20
180.2006333935035
 30
0.0
 10
228.9121423037381
 20
179.4280436755188
 30
0.0
 10
229.0734406782659
 20
178.658849089606
 30
0.0
 10
229.25682966702
 20
177.8935161415563
 30
0.0
 10
229.4623000145812
 20
177.1325099947845
 30
0.0
 10
229.6898453661861
 20
176.3762977722999
 30
0.0
 10
229.9394615356726
 20
175.6253523849262
 30
0.0
 10
230.2111450197776
 20
174.8801568113002
 30
0.0
 10
230.5048906659692
 20
174.1412087029208
 30
0.0
 10
230.820688435769
 20
173.4090251303913
 30
0.0
 10
231.158519256084
 20
172.6841472303688
 30
0.0
 10
231.518350016262
 20
171.9671444640448
 30
0.0
 10
231.9001278444365
 20
171.2586181659869
 30
0.0
 10
232.3037738762729
 20
170.5592040558438
 30
0.0
 10
232.7291767644744
 20
169.8695734741526
 30
0.0
 10
233.1761863790323
 20
169.1904329129243
 30
0.0
 10
233.6446079733967
 20
168.5225218947458
 30
0.0
 10
234.1341972559268
 20
167.8666090646915
 30
0.0
 10
234.644656554186
 20
167.2234867920361
 30
0.0
 10
235.175632430129
 20
166.5939643559434
 30
0.0
 10
235.7267148379165
 20
165.9788601371873
 30
0.0
 10
236.2974378323612
 20
165.3789932491475
 30
0.0
 10
236.8872817197305
 20
164.7951750650211
 30
0.0
 10
237.4956764449234
 20
164.2282010747039
 30
0.0
 10
238.1220059408531
 20
163.6788434407499
 30
0.0
 10
238.7656131322057
 20
163.1478445307441
 30
0.0
 10
239.4258052857126
 20
162.6359115983801
 30
0.0
 10
240.1018594269614
 20
162.1437126820314
 30
0.0
 10
240.7930275909683
 20
161.6718736991578
 30
0.0
 10
241.4985417308847
 20
161.2209766446953
 30
0.0
 10
242.2176181678581
 20
160.7915587544376
 30
0.0
 10
242.9494615187957
 20
160.3841124693925
 30
0.0
 10
243.6932680836192
 20
159.999086030853
 30
0.0
 10
244.4482287077612
 20
159.6368845436009
 30
0.0
 10
245.2135311592179
 20
159.2978713622621
 30
0.0
 10
245.9883620735941
 20
158.9823696760234
 30
0.0
 10
246.7719085269919
 20
158.69066419764
 30
0.0
 10
247.5633592976048
 20
158.4230028592418
 30
0.0
 10
248.3619058728613
 20
158.1795985360119
 30
0.0
 10
249.1667432568794
 20
157.9606304709927
 30
0.0
 10
249.9770706137336
 20
157.766246450278
 30
0.0
 10
250.7920918221026
 20
157.5965617137639
 30
0.0
 10
251.6110158348546
 20
157.4516695087107
 30
0.0
 10
252.4330573841615
 20
157.3316077188985
 30
0.0
 10
253.2574361333871
 20
157.236488630653
 30
0.0
 10
254.0833814412628
 20
157.1660203559596
 30
0.0
 10
254.9101161104922
 20
157.1212943616151
 30
0.0
 10
255.6598909997765
 20
157.1002878258931
 30
0.0
 10
256.1338119750844
 20
157.1052147753938
 30
0.0
 10
256.3320931209764
 20
157.1072761342356
 30
0.0
  0
LINE
  5
188
330
1F
100
AcDbEntity
  8
0
  6
Continuous
 62
     7
370
    18
100
AcDbLine
 10
234.1442428115
 20
201.1068140902
 30
0.0
 11
233.8634627329
 21
200.8340835696
 31
0.0
  0
LINE
  5
189
330
1F
100
AcDbEntity
  8
0
  6
Continuous
 62
     7
370
    18
100
AcDbLine
 10
258.8999624315
 20
157.4648949061
 30
0.0
 11
259.2765540501
 21
157.5716569885
 31
0.0
  0
LINE
  5
18A
330
1F
100
AcDbEntity
  8
0
  6
Continuous
 62
     7
370
    18
100
AcDbLine
 10
261.2414715999
 20
158.3992462914
 30
0.0
 11
263.0092385529
 21
159.4197564312
 31
0.0
  0
LINE
  5
18B
330
1F
100
AcDbEntity
  8
0
  6
Continuous
 62
     7
370
    18
100
AcDbLine
 10
237.6113027439
 20
203.4150386401
 30
0.0
 11
235.843535791
 21
202.3945285004
 31
0.0
  0
LINE
  5
18C
330
1F
100
AcDbEntity
  8
0
  6
Continuous
 62
     7
370
    18
100
AcDbLine
 10
268.2707828905
 20
171.0490145155
 30
0.0
 11
268.2707828905
 21
171.2531165435
 31
0.0
  0
LINE
  5
18D
330
1F
100
AcDbEntity
  8
0
  6
Continuous
 62
     7
370
    18
100
AcDbLine
 10
250.4899377009
 20
202.0537811297
 30
0.0
 11
250.3131897368
 21
202.1558487298
 31
0.0
  0
LWPOLYLINE
  5
18E
330
1F
100
AcDbEntity
  8
0
  6
Continuous
 62
     7
370
    18
100
AcDbPolyline
 90
      119
 70
   128
 43
0.0
 10
256.3355199288
 20
157.1048257636
 10
256.649026605
 20
157.1130040162
 10
257.1528541619
 20
157.1456702436
 10
257.6473945605
 20
157.2022731559
 10
258.1321344023
 20
157.2827539917
 10
258.6065704629
 20
157.3870292014
 10
259.0702102146
 20
157.5149905333
 10
259.5225723378
 20
157.6665051466
 10
259.9631872205
 20
157.841415749
 10
260.3915974458
 20
158.0395407601
 10
260.8073582672
 20
158.2606744997
 10
261.2100380695
 20
158.5045874018
 10
261.5992188176
 20
158.7710262521
 10
261.9744964903
 20
159.059714452
 10
262.3354814994
 20
159.3703523045
 10
262.6817990945
 20
159.7026173265
 10
263.013089752
 20
160.0561645825
 10
263.3290095482
 20
160.4306270437
 10
263.6292305162
 20
160.8256159682
 10
263.913440987
 20
161.240721305
 10
264.1813459121
 20
161.6755121197
 10
264.4326671708
 20
162.1295370416
 10
264.6671438582
 20
162.6023247325
 10
264.8845325563
 20
163.093384376
 10
265.0846075868
 20
163.602206187
 10
265.2671612451
 20
164.1282619407
 10
265.4320040165
 20
164.6710055214
 10
265.578964772
 20
165.2298734892
 10
265.7078909471
 20
165.8042856649
 10
265.8186486991
 20
166.3936457323
 10
265.9111230468
 20
166.9973418574
 10
265.9852179895
 20
167.6147473233
 10
266.0408566069
 20
168.2452211812
 10
266.0779811387
 20
168.8881089154
 10
266.0965530446
 20
169.5427431231
 10
266.0965530446
 20
170.208444207
 10
266.0779811387
 20
170.8845210809
 10
266.0408566069
 20
171.5702718871
 10
265.9852179895
 20
172.2649847253
 10
265.9111230468
 20
172.9679383912
 10
265.8186486991
 20
173.6784031254
 10
265.7078909471
 20
174.3956413713
 10
265.578964772
 20
175.1189085402
 10
265.4320040165
 20
175.8474537847
 10
265.2671612451
 20
176.5805207781
 10
265.0846075868
 20
177.3173484994
 10
264.8845325563
 20
178.0571720235
 10
264.6671438582
 20
178.7992233153
 10
264.4326671708
 20
179.542732027
 10
264.1813459121
 20
180.2869262978
 10
263.913440987
 20
181.0310335551
 10
263.6292305162
 20
181.7742813167
 10
263.3290095482
 20
182.5158979927
 10
263.013089752
 20
183.2551136866
 10
262.6817990945
 20
183.991160994
 10
262.3354814994
 20
184.7232758003
 10
261.9744964903
 20
185.4506980728
 10
261.5992188176
 20
186.1726726508
 10
261.2100380695
 20
186.8884500285
 10
260.8073582672
 20
187.5972871341
 10
260.3915974458
 20
188.2984481003
 10
259.9631872205
 20
188.9912050291
 10
259.5225723378
 20
189.6748387465
 10
259.0702102146
 20
190.3486395501
 10
258.6065704629
 20
191.011907945
 10
258.1321344023
 20
191.6639553706
 10
257.6473945605
 20
192.3041049149
 10
257.1528541619
 20
192.9316920177
 10
256.649026605
 20
193.5460651602
 10
256.1364349299
 20
194.1465865415
 10
255.6156112748
 20
194.7326327405
 10
255.0870963238
 20
195.3035953635
 10
254.5514387457
 20
195.8588816754
 10
254.0091946243
 20
196.3979152152
 10
253.4609268809
 20
196.9201363945
 10
252.9072046904
 20
197.4250030783
 10
252.3486028898
 20
197.9119911479
 10
251.7857013822
 20
198.380595045
 10
251.2190845341
 20
198.8303282965
 10
250.649340569
 20
199.2607240196
 10
250.0770609569
 20
199.6713354062
 10
249.5028398001
 20
200.0617361873
 10
248.9272732163
 20
200.4315210748
 10
248.3509587202
 20
200.7803061831
 10
247.7744946029
 20
201.1077294268
 10
247.1984793106
 20
201.413450897
 10
246.6235108237
 20
201.6971532144
 10
246.050186036
 20
201.9585418581
 10
245.4791001347
 20
202.197345472
 10
244.9108459829
 20
202.4133161463
 10
244.3460135039
 20
202.6062296746
 10
243.7851890688
 20
202.7758857872
 10
243.228954888
 20
202.9221083585
 10
242.6778884063
 20
203.0447455899
 10
242.1325617041
 20
203.1436701677
 10
241.5935409029
 20
203.2187793952
 10
241.0613855779
 20
203.2699952989
 10
240.5366481771
 20
203.2972647099
 10
240.0198734475
 20
203.3005593189
 10
239.51159787
 20
203.2798757057
 10
239.0123491022
 20
203.2352353427
 10
238.5226454307
 20
203.1666845724
 10
238.0429952329
 20
203.0742945598
 10
237.5738964494
 20
202.9581612178
 10
237.1158360672
 20
202.8184051083
 10
236.6692896137
 20
202.6551713168
 10
236.2347206635
 20
202.4686293015
 10
235.8125803569
 20
202.258972718
 10
235.4033069316
 20
202.0264192175
 10
235.0073252678
 20
201.7712102216
 10
234.6250464472
 20
201.493610671
 10
234.2568673259
 20
201.193908751
 10
233.9031701227
 20
200.8724155919
 10
233.5643220223
 20
200.5294649465
 10
233.2406747942
 20
200.165412843
 10
232.932564427
 20
199.7806372159
 10
232.6403107804
 20
199.3755375134
 10
232.3642172524
 20
198.9505342829
 10
232.2694808763
 20
198.7938336059
  0
LWPOLYLINE
  5
18F
330
1F
100
AcDbEntity
  8
0
  6
Continuous
 62
     7
370
    18
100
AcDbPolyline
 90
      109
 70
   128
 43
0.0
 10
234.1442428115
 20
201.1068140902
 10
234.1841021564
 20
201.1452928044
 10
234.5391529144
 20
201.4680162774
 10
234.908741011
 20
201.768865119
 10
235.2924827647
 20
202.0475270082
 10
235.6899798005
 20
202.3037126569
 10
236.1008194638
 20
202.5371561104
 10
236.5245752483
 20
202.7476150234
 10
236.9608072393
 20
202.9348709115
 10
237.40906257
 20
203.0987293782
 10
237.8688758919
 20
203.2390203168
 10
238.3397698574
 20
203.3555980865
 10
238.8212556163
 20
203.4483416642
 10
239.3128333223
 20
203.5171547696
 10
239.8139926524
 20
203.5619659657
 10
240.3242133367
 20
203.5827287324
 10
240.8429656982
 20
203.5794215153
 10
241.3697112032
 20
203.5520477477
 10
241.9039030198
 20
203.5006358472
 10
242.4449865859
 20
203.4252391862
 10
242.9924001849
 20
203.3259360364
 10
243.5455755288
 20
203.2028294877
 10
244.103938348
 20
203.0560473411
 10
244.6669089877
 20
202.8857419758
 10
245.2339030097
 20
202.6920901916
 10
245.8043317988
 20
202.4752930247
 10
246.3776031741
 20
202.2355755393
 10
246.9531220038
 20
201.9731865941
 10
247.5302908228
 20
201.6883985837
 10
248.1085104533
 20
201.3815071557
 10
248.6871806265
 20
201.0528309044
 10
249.2657006057
 20
200.7027110394
 10
249.8434698105
 20
200.3315110314
 10
250.4198884396
 20
199.9396162356
 10
250.9943580939
 20
199.5274334908
 10
251.5662823976
 20
199.0953906974
 10
252.1350676172
 20
198.6439363732
 10
252.7001232782
 20
198.1735391878
 10
253.2608627777
 20
197.684687476
 10
253.8167039935
 20
197.1778887308
 10
254.3670698887
 20
196.6536690767
 10
254.9113891103
 20
196.1125727232
 10
255.4490965826
 20
195.5551614004
 10
255.979634094
 20
194.9820137751
 10
256.5024508758
 20
194.3937248509
 10
257.0170041749
 20
193.7909053497
 10
257.5227598165
 20
193.1741810783
 10
258.0191927592
 20
192.5441922785
 10
258.5057876394
 20
191.9015929623
 10
258.9820393073
 20
191.2470502331
 10
259.4474533501
 20
190.5812435933
 10
259.9015466063
 20
189.9048642387
 10
260.3438476668
 20
189.2186143409
 10
260.7738973643
 20
188.5232063184
 10
261.19124925
 20
187.8193620972
 10
261.5954700574
 20
187.107812361
 10
261.9861401513
 20
186.3892957932
 10
262.3628539645
 20
185.6645583092
 10
262.7252204179
 20
184.9343522829
 10
263.072863327
 20
184.1994357653
 10
263.4054217923
 20
183.4605716972
 10
263.7225505738
 20
182.7185271178
 10
264.0239204498
 20
181.9740723678
 10
264.3092185583
 20
181.2279802904
 10
264.578148722
 20
180.481025428
 10
264.8304317556
 20
179.7339832193
 10
265.0658057558
 20
178.9876291931
 10
265.2840263731
 20
178.2427381642
 10
265.4848670656
 20
177.5000834284
 10
265.6681193339
 20
176.76043596
 10
265.8335929378
 20
176.0245636113
 10
265.9811160937
 20
175.2932303156
 10
266.110535653
 20
174.5671952941
 10
266.221717261
 20
173.8472122675
 10
266.3145454965
 20
173.1340286739
 10
266.3889239912
 20
172.4283848927
 10
266.4447755306
 20
171.7310134757
 10
266.4820421333
 20
171.0426383873
 10
266.5006851116
 20
170.3639742521
 10
266.5006851116
 20
169.6957256138
 10
266.4820421333
 20
169.0385862032
 10
266.4447755306
 20
168.3932382183
 10
266.3889239912
 20
167.7603516162
 10
266.3145454965
 20
167.1405834171
 10
266.221717261
 20
166.5345770228
 10
266.110535653
 20
165.9429615484
 10
265.9811160937
 20
165.3663511695
 10
265.8335929378
 20
164.8053444841
 10
265.6681193339
 20
164.2605238919
 10
265.4848670656
 20
163.7324549888
 10
265.2840263731
 20
163.2216859807
 10
265.0658057558
 20
162.7287471137
 10
264.8304317556
 20
162.2541501236
 10
264.578148722
 20
161.7983877054
 10
264.3092185583
 20
161.3619330008
 10
264.0239204498
 20
160.945239108
 10
263.7225505738
 20
160.5487386105
 10
263.4054217923
 20
160.1728431285
 10
263.072863327
 20
159.8179428915
 10
262.7252204179
 20
159.4844063331
 10
262.3628539645
 20
159.1725797085
 10
261.9861401513
 20
158.8827867352
 10
261.5954700574
 20
158.6153282568
 10
261.19124925
 20
158.3704819307
 10
260.7738973643
 20
158.14850194
 10
260.3438476668
 20
157.9496187294
 10
259.9015466063
 20
157.7740387661
 10
259.4474533501
 20
157.6219443254
 10
259.2765540501
 20
157.5716569885
  0
SPLINE
  5
190
330
1F
100
AcDbEntity
  8
0
  6
Continuous
 62
     7
370
    18
100
AcDbSpline
210
0.0
220
0.0
230
1.0
 70
     8
 71
     3
 72
    15
 73
    11
 74
     0
 42
0.000000001
 43
0.00000001
 40
0.0
 40
0.0
 40
0.0
 40
0.0
 40
0.0626805548888109
 40
0.1253328067637152
 40
0.2501277182056875
 40
0.4984019436325556
 40
0.613365068498313
 40
0.7491281819440938
 40
0.874553956148074
 40
1.0
 40
1.0
 40
1.0
 40
1.0
 10
249.5028152529892
 20
202.2644748870303
 30
0.0
 10
249.5164520014589
 20
202.2563170803667
 30
0.0
 10
249.5437193408094
 20
202.2400051506462
 30
0.0
 10
249.5848436882992
 20
202.2012482248637
 30
0.0
 10
249.6220628774562
 20
202.1237426140721
 30
0.0
 10
249.5897523526689
 20
202.0311874960909
 30
0.0
 10
249.5125386544058
 20
201.9503713620075
 30
0.0
 10
249.4420816770647
 20
201.8935266794743
 30
0.0
 10
249.3618771455022
 20
201.83864306071
 30
0.0
 10
249.3054392195423
 20
201.8053089358812
 30
0.0
 10
249.2772179765596
 20
201.788640526821
 30
0.0
  0
SPLINE
  5
191
330
1F
100
AcDbEntity
  8
0
  6
Continuous
 62
     7
370
    18
100
AcDbSpline
210
0.0
220
0.0
230
1.0
 70
     8
 71
     3
 72
    15
 73
    11
 74
     0
 42
0.000000001
 43
0.00000001
 40
0.0
 40
0.0
 40
0.0
 40
0.0
 40
0.1252272616050037
 40
0.2503958195951446
 40
0.5000116805913073
 40
0.625027410409169
 40
0.749923702362452
 40
0.8748078318065725
 40
0.9373807123402749
 40
0.9999999999999999
 40
0.9999999999999999
 40
0.9999999999999999
 40
0.9999999999999999
 10
248.8584482229183
 20
202.1982895265971
 30
0.0
 10
248.8804518776701
 20
202.2103169340257
 30
0.0
 10
248.9244488723744
 20
202.2343661107152
 30
0.0
 10
249.0244186245234
 20
202.2745378650929
 30
0.0
 10
249.1370452533272
 20
202.3039453772838
 30
0.0
 10
249.2570239866956
 20
202.3169385387255
 30
0.0
 10
249.3480465621235
 20
202.3133272343779
 30
0.0
 10
249.418943379153
 20
202.2989581169273
 30
0.0
 10
249.4694920503025
 20
202.281191595179
 30
0.0
 10
249.4917047741033
 20
202.2700484999472
 30
0.0
 10
249.5028152529892
 20
202.2644748870303
 30
0.0
  0
SPLINE
  5
192
330
1F
100
AcDbEntity
  8
0
  6
Continuous
 62
     7
370
    18
100
AcDbSpline
210
0.0
220
0.0
230
1.0
 70
     8
 71
     3
 72
    15
 73
    11
 74
     0
 42
0.000000001
 43
0.00000001
 40
0.0
 40
0.0
 40
0.0
 40
0.0
 40
0.0715583197357466
 40
0.1430811196244009
 40
0.2857060576976926
 40
0.3929697048334135
 40
0.5002459223356921
 40
0.7495284860267026
 40
0.8747290841491545
 40
0.9999999999999999
 40
0.9999999999999999
 40
0.9999999999999999
 40
0.9999999999999999
 10
248.7715980523401
 20
201.8530146919904
 30
0.0
 10
248.760415165189
 20
201.8596498812465
 30
0.0
 10
248.7380549418058
 20
201.8729169662087
 30
0.0
 10
248.7040628753536
 20
201.9040821805019
 30
0.0
 10
248.6817311404068
 20
201.9437615051928
 30
0.0
 10
248.6778059785549
 20
201.9895970378022
 30
0.0
 10
248.6882215874189
 20
202.0490885456457
 30
0.0
 10
248.7320415705701
 20
202.1083174838298
 30
0.0
 10
248.7987486803361
 20
202.1620317755518
 30
0.0
 10
248.8385446512651
 20
202.186201347782
 30
0.0
 10
248.8584482229183
 20
202.1982895265971
 30
0.0
  0
SPLINE
  5
193
330
1F
100
AcDbEntity
  8
0
  6
Continuous
 62
     7
370
    18
100
AcDbSpline
210
0.0
220
0.0
230
1.0
 70
     8
 71
     3
 72
    13
 73
     9
 74
     0
 42
0.000000001
 43
0.00000001
 40
0.0
 40
0.0
 40
0.0
 40
0.0
 40
0.1252140823673838
 40
0.2503636862648528
 40
0.5000735979452698
 40
0.7497129277831495
 40
0.8748209607075347
 40
0.9999999999999999
 40
0.9999999999999999
 40
0.9999999999999999
 40
0.9999999999999999
 10
249.1284182543687
 20
201.8142675670028
 30
0.0
 10
249.1129537202585
 20
201.8117777553186
 30
0.0
 10
249.0820326154354
 20
201.8067994140683
 30
0.0
 10
249.0184952109853
 20
201.8017936231997
 30
0.0
 10
248.9379229736952
 20
201.8031962170048
 30
0.0
 10
248.8617036444343
 20
201.817380842215
 30
0.0
 10
248.8069364975007
 20
201.8353381404916
 30
0.0
 10
248.78337976174
 20
201.8471213938556
 30
0.0
 10
248.7715980523401
 20
201.8530146919904
 30
0.0
  0
SPLINE
  5
194
330
1F
100
AcDbEntity
  8
0
  6
Continuous
 62
     7
370
    18
100
AcDbSpline
210
0.0
220
0.0
230
1.0
 70
     8
 71
     3
 72
    11
 73
     7
 74
     0
 42
0.000000001
 43
0.00000001
 40
0.0
 40
0.0
 40
0.0
 40
0.0
 40
0.1250328697250662
 40
0.2500698249543099
 40
0.5000702867721261
 40
0.9999999999999999
 40
0.9999999999999999
 40
0.9999999999999999
 40
0.9999999999999999
 10
248.7742031572864
 20
201.6669394202857
 30
0.0
 10
248.7912792626688
 20
201.6708550444164
 30
0.0
 10
248.825432031403
 20
201.6786864206226
 30
0.0
 10
248.8895974646154
 20
201.6993981867989
 30
0.0
 10
248.9956413549452
 20
201.7413880644301
 30
0.0
 10
249.0753090075844
 20
201.7851165964315
 30
0.0
 10
249.1284182543687
 20
201.8142675670028
 30
0.0
  0
SPLINE
  5
195
330
1F
100
AcDbEntity
  8
0
  6
Continuous
 62
     7
370
    18
100
AcDbSpline
210
0.0
220
0.0
230
1.0
 70
     8
 71
     3
 72
    12
 73
     8
 74
     0
 42
0.000000001
 43
0.00000001
 40
0.0
 40
0.0
 40
0.0
 40
0.0
 40
0.1251944789046222
 40
0.2503122144837788
 40
0.4995773443231576
 40
0.7495881669652718
 40
1.0
 40
1.0
 40
1.0
 40
1.0
 10
248.5018348035076
 20
201.6824041150615
 30
0.0
 10
248.5107761835549
 20
201.6779351503971
 30
0.0
 10
248.5286534626471
 20
201.6689999605119
 30
0.0
 10
248.5716300280143
 20
201.6567142310564
 30
0.0
 10
248.6316084015442
 20
201.6499763218466
 30
0.0
 10
248.7047560877072
 20
201.6539480743599
 30
0.0
 10
248.7510417705178
 20
201.6626066588106
 30
0.0
 10
248.7742031572864
 20
201.6669394202857
 30
0.0
  0
SPLINE
  5
196
330
1F
100
AcDbEntity
  8
0
  6
Continuous
 62
     7
370
    18
100
AcDbSpline
210
0.0
220
0.0
230
1.0
 70
     8
 71
     3
 72
    11
 73
     7
 74
     0
 42
0.000000001
 43
0.00000001
 40
0.0
 40
0.0
 40
0.0
 40
0.0
 40
0.2687220392270354
 40
0.5000085022089845
 40
0.7001334399337537
 40
1.0
 40
1.0
 40
1.0
 40
1.0
 10
248.4481542379016
 20
201.769139134054
 30
0.0
 10
248.4477667512103
 20
201.7605643855039
 30
0.0
 10
248.4470457584674
 20
201.7446094337193
 30
0.0
 10
248.4550978211772
 20
201.7227191930759
 30
0.0
 10
248.4719383904315
 20
201.7014293588733
 30
0.0
 10
248.490626646686
 20
201.6895366735951
 30
0.0
 10
248.5018348035076
 20
201.6824041150615
 30
0.0
  0
SPLINE
  5
197
330
1F
100
AcDbEntity
  8
0
  6
Continuous
 62
     7
370
    18
100
AcDbSpline
210
0.0
220
0.0
230
1.0
 70
     8
 71
     3
 72
    10
 73
     6
 74
     0
 42
0.000000001
 43
0.00000001
 40
0.0
 40
0.0
 40
0.0
 40
0.0
 40
0.5000343605886516
 40
0.7500804754392404
 40
1.0
 40
1.0
 40
1.0
 40
1.0
 10
248.520486340829
 20
201.8621072787983
 30
0.0
 10
248.504216294558
 20
201.8476031020041
 30
0.0
 10
248.4798102836832
 20
201.8258459975266
 30
0.0
 10
248.4551413684086
 20
201.7943342793951
 30
0.0
 10
248.4504828882314
 20
201.7775360980791
 30
0.0
 10
248.4481542379016
 20
201.769139134054
 30
0.0
  0
SPLINE
  5
198
330
1F
100
AcDbEntity
  8
0
  6
Continuous
 62
     7
370
    18
100
AcDbSpline
210
0.0
220
0.0
230
1.0
 70
     8
 71
     3
 72
     8
 73
     4
 74
     0
 42
0.000000001
 43
0.00000001
 40
0.0
 40
0.0
 40
0.0
 40
0.0
 40
1.0
 40
1.0
 40
1.0
 40
1.0
 10
248.3932132245168
 20
201.914092966231
 30
0.0
 10
248.4356327876165
 20
201.8969044057967
 30
0.0
 10
248.4780574094132
 20
201.8795757105396
 30
0.0
 10
248.520486340829
 20
201.8621072787983
 30
0.0
  0
SPLINE
  5
199
330
1F
100
AcDbEntity
  8
0
  6
Continuous
 62
     7
370
    18
100
AcDbSpline
210
0.0
220
0.0
230
1.0
 70
     8
 71
     3
 72
    13
 73
     9
 74
     0
 42
0.000000001
 43
0.00000001
 40
0.0
 40
0.0
 40
0.0
 40
0.0
 40
0.1253229202403136
 40
0.2505891888549949
 40
0.4995627768149436
 40
0.7491942232596278
 40
0.8647861753911349
 40
1.0
 40
1.0
 40
1.0
 40
1.0
 10
248.3747003166772
 20
201.624634179301
 30
0.0
 10
248.35851820406
 20
201.6343305696269
 30
0.0
 10
248.326161293872
 20
201.6537189670719
 30
0.0
 10
248.2824405248476
 20
201.7009218797108
 30
0.0
 10
248.2656696406038
 20
201.7686153246338
 30
0.0
 10
248.301464816083
 20
201.8330955399389
 30
0.0
 10
248.34893604208
 20
201.8802899726899
 30
0.0
 10
248.3777039416741
 20
201.902252551848
 30
0.0
 10
248.3932132245168
 20
201.914092966231
 30
0.0
  0
SPLINE
  5
19A
330
1F
100
AcDbEntity
  8
0
  6
Continuous
 62
     7
370
    18
100
AcDbSpline
210
0.0
220
0.0
230
1.0
 70
     8
 71
     3
 72
    16
 73
    12
 74
     0
 42
0.000000001
 43
0.00000001
 40
0.0
 40
0.0
 40
0.0
 40
0.0
 40
0.1252053902459953
 40
0.2504013244527447
 40
0.3830720166300519
 40
0.5006896354623331
 40
0.6297165776961056
 40
0.7504654487169926
 40
0.8749429572946059
 40
0.9374442156278905
 40
1.0
 40
1.0
 40
1.0
 40
1.0
 10
249.2772179765596
 20
201.788640526821
 30
0.0
 10
249.2459396814717
 20
201.7709610646118
 30
0.0
 10
249.1833854535647
 20
201.735603475421
 30
0.0
 10
249.0817242651521
 20
201.6851214455245
 30
0.0
 10
248.9760830170105
 20
201.6398070885051
 30
0.0
 10
248.8612270390539
 20
201.6008443097344
 30
0.0
 10
248.7395668217421
 20
201.5744985872271
 30
0.0
 10
248.6078352366169
 20
201.566084138575
 30
0.0
 10
248.5003115242864
 20
201.5777119297901
 30
0.0
 10
248.4233409992031
 20
201.6006088288207
 30
0.0
 10
248.390918589677
 20
201.6166234016398
 30
0.0
 10
248.3747003166772
 20
201.624634179301
 30
0.0
  0
SPLINE
  5
19B
330
1F
100
AcDbEntity
  8
0
  6
Continuous
 62
     7
370
    18
100
AcDbSpline
210
0.0
220
0.0
230
1.0
 70
     8
 71
     3
 72
    14
 73
    10
 74
     0
 42
0.000000001
 43
0.00000001
 40
0.0
 40
0.0
 40
0.0
 40
0.0
 40
0.1253233732873885
 40
0.2505851611272602
 40
0.4994209737316589
 40
0.6224847172187011
 40
0.7493850559436716
 40
0.8662476114087676
 40
1.0
 40
1.0
 40
1.0
 40
1.0
 10
246.9794261418544
 20
203.1091868686782
 30
0.0
 10
247.0021320239099
 20
203.1215358987243
 30
0.0
 10
247.0475326300712
 20
203.1462278903512
 30
0.0
 10
247.153034873555
 20
203.1871810032008
 30
0.0
 10
247.2753231065643
 20
203.2148859890238
 30
0.0
 10
247.398611285482
 20
203.2182399604851
 30
0.0
 10
247.4816632350764
 20
203.2067287575333
 30
0.0
 10
247.5572109314855
 20
203.1860668049741
 30
0.0
 10
247.6019098905356
 20
203.1684764629844
 30
0.0
 10
247.6257655810373
 20
203.1590885541104
 30
0.0
  0
SPLINE
  5
19C
330
1F
100
AcDbEntity
  8
0
  6
Continuous
 62
     7
370
    18
100
AcDbSpline
210
0.0
220
0.0
230
1.0
 70
     8
 71
     3
 72
    13
 73
     9
 74
     0
 42
0.000000001
 43
0.00000001
 40
0.0
 40
0.0
 40
0.0
 40
0.0
 40
0.1252052877721165
 40
0.2503107204223263
 40
0.4996753708246888
 40
0.7494960997303762
 40
0.8747169914880086
 40
1.0
 40
1.0
 40
1.0
 40
1.0
 10
246.8604127808648
 20
202.8944835553534
 30
0.0
 10
246.8540112358004
 20
202.902849792529
 30
0.0
 10
246.8412132511033
 20
202.9195755945452
 30
0.0
 10
246.8333109053784
 20
202.9565461752001
 30
0.0
 10
246.8490304336959
 20
203.005054795157
 30
0.0
 10
246.893067393202
 20
203.0512190575003
 30
0.0
 10
246.9396279469307
 20
203.0852526690969
 30
0.0
 10
246.9661578840283
 20
203.1012074833942
 30
0.0
 10
246.9794261418544
 20
203.1091868686782
 30
0.0
  0
SPLINE
  5
19D
330
1F
100
AcDbEntity
  8
0
  6
Continuous
 62
     7
370
    18
100
AcDbSpline
210
0.0
220
0.0
230
1.0
 70
     8
 71
     3
 72
    13
 73
     9
 74
     0
 42
0.000000001
 43
0.00000001
 40
0.0
 40
0.0
 40
0.0
 40
0.0
 40
0.1252007697639835
 40
0.250338263006681
 40
0.5000947961030495
 40
0.7496980833309268
 40
0.8748201749496997
 40
1.0
 40
1.0
 40
1.0
 40
1.0
 10
246.5116765052483
 20
202.8117233147018
 30
0.0
 10
246.5232952546767
 20
202.8181035687626
 30
0.0
 10
246.5465268814127
 20
202.8308608523012
 30
0.0
 10
246.5983756854551
 20
202.8536474390535
 30
0.0
 10
246.6710870748699
 20
202.8767824883957
 30
0.0
 10
246.7501098143964
 20
202.8903112262336
 30
0.0
 10
246.8137022398918
 20
202.8951012007204
 30
0.0
 10
246.8448402064962
 20
202.8946894687985
 30
0.0
 10
246.8604127808648
 20
202.8944835553534
 30
0.0
  0
SPLINE
  5
19E
330
1F
100
AcDbEntity
  8
0
  6
Continuous
 62
     7
370
    18
100
AcDbSpline
210
0.0
220
0.0
230
1.0
 70
     8
 71
     3
 72
    14
 73
    10
 74
     0
 42
0.000000001
 43
0.00000001
 40
0.0
 40
0.0
 40
0.0
 40
0.0
 40
0.1361856719550828
 40
0.2505464033409124
 40
0.3771373985519817
 40
0.5005703119953078
 40
0.7496032493243784
 40
0.8747633086575227
 40
1.0
 40
1.0
 40
1.0
 40
1.0
 10
246.5337092257909
 20
202.5310713123335
 30
0.0
 10
246.5137149785918
 20
202.5401408336425
 30
0.0
 10
246.4769307365248
 20
202.5568264064446
 30
0.0
 10
246.43012912702
 20
202.5859793127311
 30
0.0
 10
246.3983478664428
 20
202.6191703771112
 30
0.0
 10
246.3828529872634
 20
202.6707666829667
 30
0.0
 10
246.4058754308496
 20
202.7259878452936
 30
0.0
 10
246.4569640523556
 20
202.777407559162
 30
0.0
 10
246.4934353003686
 20
202.8002823959656
 30
0.0
 10
246.5116765052483
 20
202.8117233147018
 30
0.0
  0
ARC
  5
19F
330
1F
100
AcDbEntity
  8
0
  6
Continuous
 62
     7
370
    18
100
AcDbCircle
 10
238.8437449718
 20
184.3818246312
 30
0.0
 40
19.71118224051698
100
AcDbArc
 50
65.9745009465
 51
67.0372828081
  0
LINE
  5
1A0
330
1F
100
AcDbEntity
  8
0
  6
Continuous
 62
     7
370
    18
100
AcDbLine
 10
247.9586635145
 20
203.0143546901
 30
0.0
 11
246.8690181795
 21
202.3853158277
 31
0.0
  0
ARC
  5
1A1
330
1F
100
AcDbEntity
  8
0
  6
Continuous
 62
     7
370
    18
100
AcDbCircle
 10
239.9325019799
 20
185.0088371567
 30
0.0
 40
19.71339470068635
100
AcDbArc
 50
65.9745405992
 51
67.0295925702
  0
LINE
  5
1A2
330
1F
100
AcDbEntity
  8
0
  6
Continuous
 62
     7
370
    18
100
AcDbLine
 10
247.6324162272
 20
202.6959883329
 30
0.0
 11
247.7597773702
 21
202.7695123557
 31
0.0
  0
ARC
  5
1A3
330
1F
100
AcDbEntity
  8
0
  6
Continuous
 62
     7
370
    18
100
AcDbCircle
 10
239.1283197396
 20
183.9665323581
 30
0.0
 40
20.56969076530216
100
AcDbArc
 50
64.5412001781
 51
65.5796091647
  0
LINE
  5
1A4
330
1F
100
AcDbEntity
  8
0
  6
Continuous
 62
     7
370
    18
100
AcDbLine
 10
248.0978083822
 20
202.6123195565
 30
0.0
 11
247.9704472392
 21
202.5387955336
 31
0.0
  0
ARC
  5
1A5
330
1F
100
AcDbEntity
  8
0
  6
Continuous
 62
     7
370
    18
100
AcDbCircle
 10
239.2556808824
 20
184.0400563805
 30
0.0
 40
20.56969076581307
100
AcDbArc
 50
64.5412001781
 51
65.5796091647
  0
LINE
  5
1A6
330
1F
100
AcDbEntity
  8
0
  6
Continuous
 62
     7
370
    18
100
AcDbLine
 10
248.3800864517
 20
202.5359139313
 30
0.0
 11
248.6489599759
 21
202.6911313129
 31
0.0
  0
ARC
  5
1A7
330
1F
100
AcDbEntity
  8
0
  6
Continuous
 62
     7
370
    18
100
AcDbCircle
 10
239.0430780167
 20
183.5079094873
 30
0.0
 40
21.19539288698797
100
AcDbArc
 50
63.8628940767
 51
64.244595157
  0
LINE
  5
1A8
330
1F
100
AcDbEntity
  8
0
  6
Continuous
 62
     7
370
    18
100
AcDbLine
 10
248.1257556166
 20
202.5241698003
 30
0.0
 11
248.2531167596
 21
202.5976938231
 31
0.0
  0
ARC
  5
1A9
330
1F
100
AcDbEntity
  8
0
  6
Continuous
 62
     7
370
    18
100
AcDbCircle
 10
238.9157168763
 20
183.43438547
 30
0.0
 40
21.19539288076905
100
AcDbArc
 50
63.8628940766
 51
64.244595157
  0
LINE
  5
1AA
330
1F
100
AcDbEntity
  8
0
  6
Continuous
 62
     7
370
    18
100
AcDbLine
 10
247.5451634028
 20
202.0539231146
 30
0.0
 11
248.2527253087
 21
202.4623899084
 31
0.0
  0
ARC
  5
1AB
330
1F
100
AcDbEntity
  8
0
  6
Continuous
 62
     7
370
    18
100
AcDbCircle
 10
238.1101073355
 20
182.8260131276
 30
0.0
 40
21.41804859136358
100
AcDbArc
 50
63.5451536192
 51
63.86300375
  0
SPLINE
  5
1AC
330
1F
100
AcDbEntity
  8
0
  6
Continuous
 62
     7
370
    18
100
AcDbSpline
210
0.0
220
0.0
230
1.0
 70
     8
 71
     3
 72
     8
 73
     4
 74
     0
 42
0.000000001
 43
0.00000001
 40
0.0
 40
0.0
 40
0.0
 40
0.0
 40
1.0
 40
1.0
 40
1.0
 40
1.0
 10
248.7470798702402
 20
202.211906998095
 30
0.0
 10
248.3818720118261
 20
202.1433590070664
 30
0.0
 10
248.0167303426992
 20
202.0731572318923
 30
0.0
 10
247.6516851063388
 20
202.0012862443994
 30
0.0
  0
LINE
  5
1AD
330
1F
100
AcDbEntity
  8
0
  6
Continuous
 62
     7
370
    18
100
AcDbLine
 10
248.8744410133
 20
202.285431021
 30
0.0
 11
248.7470798702
 21
202.2119069981
 31
0.0
  0
ARC
  5
1AE
330
1F
100
AcDbEntity
  8
0
  6
Continuous
 62
     7
370
    18
100
AcDbCircle
 10
238.7297362268
 20
182.878107543
 30
0.0
 40
21.89884106028991
100
AcDbArc
 50
62.4027794571
 51
63.5232279373
  0
LINE
  5
1AF
330
1F
100
AcDbEntity
  8
0
  6
Continuous
 62
     7
370
    18
100
AcDbLine
 10
248.7618788215
 20
202.6353099476
 30
0.0
 11
248.4930052973
 21
202.480092566
 31
0.0
  0
ARC
  5
1B0
330
1F
100
AcDbEntity
  8
0
  6
Continuous
 62
     7
370
    18
100
AcDbCircle
 10
239.2112010905
 20
183.4577396126
 30
0.0
 40
21.42416040540498
100
AcDbArc
 50
63.5261024035
 51
63.8629726247
  0
LINE
  5
1B1
330
1F
100
AcDbEntity
  8
0
  6
Continuous
 62
     7
370
    18
100
AcDbLine
 10
249.7656527475
 20
201.7940590264
 30
0.0
 11
250.0345262717
 21
201.949276408
 31
0.0
  0
ARC
  5
1B2
330
1F
100
AcDbEntity
  8
0
  6
Continuous
 62
     7
370
    18
100
AcDbCircle
 10
237.7733910253
 20
181.1186204836
 30
0.0
 40
23.90163383854074
100
AcDbArc
 50
59.8852147677
 51
60.2375309414
  0
LINE
  5
1B3
330
1F
100
AcDbEntity
  8
0
  6
Continuous
 62
     7
370
    18
100
AcDbLine
 10
249.5109308172
 20
201.7938850026
 30
0.0
 11
249.6382919602
 21
201.8674090254
 31
0.0
  0
ARC
  5
1B4
330
1F
100
AcDbEntity
  8
0
  6
Continuous
 62
     7
370
    18
100
AcDbCircle
 10
237.6460298803
 20
181.0450964573
 30
0.0
 40
23.90163384247085
100
AcDbArc
 50
59.8852147677
 51
60.2375309413
  0
LINE
  5
1B5
330
1F
100
AcDbEntity
  8
0
  6
Continuous
 62
     7
370
    18
100
AcDbLine
 10
248.9307296986
 20
201.3120682097
 30
0.0
 11
249.6382916044
 21
201.7205350035
 31
0.0
  0
ARC
  5
1B6
330
1F
100
AcDbEntity
  8
0
  6
Continuous
 62
     7
370
    18
100
AcDbCircle
 10
236.8209076732
 20
180.4338684805
 30
0.0
 40
24.13601071886404
100
AcDbArc
 50
59.5917934368
 51
59.8853095561
  0
SPLINE
  5
1B7
330
1F
100
AcDbEntity
  8
0
  6
Continuous
 62
     7
370
    18
100
AcDbSpline
210
0.0
220
0.0
230
1.0
 70
     8
 71
     3
 72
     8
 73
     4
 74
     0
 42
0.000000001
 43
0.00000001
 40
0.0
 40
0.0
 40
0.0
 40
0.0
 40
1.0
 40
1.0
 40
1.0
 40
1.0
 10
250.1335046391287
 20
201.4254171491924
 30
0.0
 10
249.7682101400369
 20
201.3684626202239
 30
0.0
 10
249.4028737124811
 20
201.3099156400127
 30
0.0
 10
249.0375256454993
 20
201.2497580540505
 30
0.0
  0
LINE
  5
1B8
330
1F
100
AcDbEntity
  8
0
  6
Continuous
 62
     7
370
    18
100
AcDbLine
 10
250.2608657822
 20
201.4989411721
 30
0.0
 11
250.1335046391
 21
201.4254171492
 31
0.0
  0
ARC
  5
1B9
330
1F
100
AcDbEntity
  8
0
  6
Continuous
 62
     7
370
    18
100
AcDbCircle
 10
237.3995912629
 20
180.4816119767
 30
0.0
 40
24.64022136202264
100
AcDbArc
 50
58.5360074692
 51
59.5717274669
  0
LINE
  5
1BA
330
1F
100
AcDbEntity
  8
0
  6
Continuous
 62
     7
370
    18
100
AcDbLine
 10
250.1477342673
 20
201.8832018018
 30
0.0
 11
249.8788607431
 21
201.7279844202
 31
0.0
  0
ARC
  5
1BB
330
1F
100
AcDbEntity
  8
0
  6
Continuous
 62
     7
370
    18
100
AcDbCircle
 10
237.9214708117
 20
181.0655245251
 30
0.0
 40
24.1424357778229
100
AcDbArc
 50
59.5741987071
 51
59.8852827421
  0
LINE
  5
1BC
330
1F
100
AcDbEntity
  8
0
  6
Continuous
 62
     7
370
    18
100
AcDbLine
 10
250.4588575965
 20
201.3765331257
 30
0.0
 11
250.7277311207
 21
201.5317505074
 31
0.0
  0
ARC
  5
1BD
330
1F
100
AcDbEntity
  8
0
  6
Continuous
 62
     7
370
    18
100
AcDbCircle
 10
237.0558199389
 20
179.919082472
 30
0.0
 40
25.29947839403923
100
AcDbArc
 50
58.0097289209
 51
58.348945107
  0
LINE
  5
1BE
330
1F
100
AcDbEntity
  8
0
  6
Continuous
 62
     7
370
    18
100
AcDbLine
 10
250.2042247627
 20
201.3819844526
 30
0.0
 11
250.3315859058
 21
201.4555084754
 31
0.0
  0
ARC
  5
1BF
330
1F
100
AcDbEntity
  8
0
  6
Continuous
 62
     7
370
    18
100
AcDbCircle
 10
236.9284587968
 20
179.8455584507
 30
0.0
 40
25.29947839213663
100
AcDbArc
 50
58.0097289209
 51
58.348945107
  0
LINE
  5
1C0
330
1F
100
AcDbEntity
  8
0
  6
Continuous
 62
     7
370
    18
100
AcDbLine
 10
249.6239345476
 20
200.8945423091
 30
0.0
 11
250.3314964535
 21
201.3030091028
 31
0.0
  0
ARC
  5
1C1
330
1F
100
AcDbEntity
  8
0
  6
Continuous
 62
     7
370
    18
100
AcDbCircle
 10
236.0948115326
 20
179.2351628553
 30
0.0
 40
25.53753879840176
100
AcDbArc
 50
57.7271402121
 51
58.0098166246
  0
SPLINE
  5
1C2
330
1F
100
AcDbEntity
  8
0
  6
Continuous
 62
     7
370
    18
100
AcDbSpline
210
0.0
220
0.0
230
1.0
 70
     8
 71
     3
 72
     8
 73
     4
 74
     0
 42
0.000000001
 43
0.00000001
 40
0.0
 40
0.0
 40
0.0
 40
0.0
 40
1.0
 40
1.0
 40
1.0
 40
1.0
 10
250.8260317049955
 20
200.9862170430744
 30
0.0
 10
250.4609832936532
 20
200.9348864674044
 30
0.0
 10
250.0958389484137
 20
200.8819976906727
 30
0.0
 10
249.7306289133821
 20
200.8275312347823
 30
0.0
  0
LINE
  5
1C3
330
1F
100
AcDbEntity
  8
0
  6
Continuous
 62
     7
370
    18
100
AcDbLine
 10
250.953392848
 20
201.059741066
 30
0.0
 11
250.826031705
 21
200.9862170431
 31
0.0
  0
ARC
  5
1C4
330
1F
100
AcDbEntity
  8
0
  6
Continuous
 62
     7
370
    18
100
AcDbCircle
 10
236.6558102203
 20
179.2855756658
 30
0.0
 40
26.04870722072403
100
AcDbArc
 50
56.7098734821
 51
57.7079130018
  0
LINE
  5
1C5
330
1F
100
AcDbEntity
  8
0
  6
Continuous
 62
     7
370
    18
100
AcDbLine
 10
250.8408306562
 20
201.4606932062
 30
0.0
 11
250.571957132
 21
201.3054758246
 31
0.0
  0
ARC
  5
1C6
330
1F
100
AcDbEntity
  8
0
  6
Continuous
 62
     7
370
    18
100
AcDbCircle
 10
237.1951437174
 20
179.8668456075
 30
0.0
 40
25.54406048670603
100
AcDbArc
 50
57.7101941548
 51
58.0097918506
  0
SPLINE
  5
1C7
330
1F
100
AcDbEntity
  8
0
  6
Continuous
 62
     7
370
    18
100
AcDbSpline
210
0.0
220
0.0
230
1.0
 70
     8
 71
     3
 72
     8
 73
     4
 74
     0
 42
0.000000001
 43
0.00000001
 40
0.0
 40
0.0
 40
0.0
 40
0.0
 40
1.0
 40
1.0
 40
1.0
 40
1.0
 10
251.5305320479125
 20
200.5979286448448
 30
0.0
 10
251.6705466185031
 20
200.6385649960285
 30
0.0
 10
251.8105524832747
 20
200.6791100259369
 30
0.0
 10
251.9505492006703
 20
200.7195640440442
 30
0.0
  0
ARC
  5
1C8
330
1F
100
AcDbEntity
  8
0
  6
Continuous
 62
     7
370
    18
100
AcDbCircle
 10
235.8766897949
 20
178.1660330237
 30
0.0
 40
27.35384284593866
100
AcDbArc
 50
55.0911783698
 51
56.0538588426
  0
SPLINE
  5
1C9
330
1F
100
AcDbEntity
  8
0
  6
Continuous
 62
     7
370
    18
100
AcDbSpline
210
0.0
220
0.0
230
1.0
 70
     8
 71
     3
 72
     8
 73
     4
 74
     0
 42
0.000000001
 43
0.00000001
 40
0.0
 40
0.0
 40
0.0
 40
0.0
 40
1.0
 40
1.0
 40
1.0
 40
1.0
 10
251.381925311388
 20
201.1093056038538
 30
0.0
 10
251.3051038112455
 20
201.0255519014434
 30
0.0
 10
251.228275789346
 20
200.9417049346018
 30
0.0
 10
251.15144079994
 20
200.8577650019812
 30
0.0
  0
ARC
  5
1CA
330
1F
100
AcDbEntity
  8
0
  6
Continuous
 62
     7
370
    18
100
AcDbCircle
 10
236.5967445875
 20
178.9400312296
 30
0.0
 40
26.64729433389656
100
AcDbArc
 50
56.2997985251
 51
56.6024466569
  0
SPLINE
  5
1CB
330
1F
100
AcDbEntity
  8
0
  6
Continuous
 62
     7
370
    18
100
AcDbSpline
210
0.0
220
0.0
230
1.0
 70
     8
 71
     3
 72
     8
 73
     4
 74
     0
 42
0.000000001
 43
0.00000001
 40
0.0
 40
0.0
 40
0.0
 40
0.0
 40
1.0
 40
1.0
 40
1.0
 40
1.0
 10
250.5220884958361
 20
200.3252887587254
 30
0.0
 10
250.7696922096971
 20
200.6137979109678
 30
0.0
 10
251.0171944301152
 20
200.9010712989354
 30
0.0
 10
251.2646169081219
 20
201.1870943370062
 30
0.0
  0
ARC
  5
1CC
330
1F
100
AcDbEntity
  8
0
  6
Continuous
 62
     7
370
    18
100
AcDbCircle
 10
235.1117411549
 20
177.7246354799
 30
0.0
 40
27.35449385018052
100
AcDbArc
 50
55.4327586802
 51
55.7117194914
  0
SPLINE
  5
1CD
330
1F
100
AcDbEntity
  8
0
  6
Continuous
 62
     7
370
    18
100
AcDbSpline
210
0.0
220
0.0
230
1.0
 70
     8
 71
     3
 72
     8
 73
     4
 74
     0
 42
0.000000001
 43
0.00000001
 40
0.0
 40
0.0
 40
0.0
 40
0.0
 40
1.0
 40
1.0
 40
1.0
 40
1.0
 10
252.0676567155541
 20
200.636675567608
 30
0.0
 10
251.5892081969741
 20
200.5090002557873
 30
0.0
 10
251.1106297803176
 20
200.3801106283947
 30
0.0
 10
250.6319431233768
 20
200.2499915182774
 30
0.0
  0
ARC
  5
1CE
330
1F
100
AcDbEntity
  8
0
  6
Continuous
 62
     7
370
    18
100
AcDbCircle
 10
235.7970111046
 20
177.7731531607
 30
0.0
 40
28.06197721912034
100
AcDbArc
 50
54.5627431564
 51
54.8556818818
  0
LINE
  5
1CF
330
1F
100
AcDbEntity
  8
0
  6
Continuous
 62
     7
370
    18
100
AcDbLine
 10
251.9684058353
 20
200.5431213285
 30
0.0
 11
252.0957669784
 21
200.6166453513
 31
0.0
  0
ARC
  5
1D0
330
1F
100
AcDbEntity
  8
0
  6
Continuous
 62
     7
370
    18
100
AcDbCircle
 10
235.2947977688
 20
177.1763492921
 30
0.0
 40
28.70566566647259
100
AcDbArc
 50
53.3811460546
 51
54.4898415131
  0
LINE
  5
1D1
330
1F
100
AcDbEntity
  8
0
  6
Continuous
 62
     7
370
    18
100
AcDbLine
 10
251.4551279744
 20
199.660611308
 30
0.0
 11
252.4174121663
 21
200.2161261476
 31
0.0
  0
ARC
  5
1D2
330
1F
100
AcDbEntity
  8
0
  6
Continuous
 62
     7
370
    18
100
AcDbCircle
 10
233.9870096486
 20
176.1535408106
 30
0.0
 40
29.28681480140444
100
AcDbArc
 50
53.1104417164
 51
53.3839372767
  0
LINE
  5
1D3
330
1F
100
AcDbEntity
  8
0
  6
Continuous
 62
     7
370
    18
100
AcDbLine
 10
252.6567824789
 20
200.2060003981
 30
0.0
 11
251.5671371439
 21
199.5769615356
 31
0.0
  0
ARC
  5
1D4
330
1F
100
AcDbEntity
  8
0
  6
Continuous
 62
     7
370
    18
100
AcDbCircle
 10
235.3542254235
 20
177.156115585
 30
0.0
 40
28.82144462989062
100
AcDbArc
 50
53.106018744
 51
54.4881720498
  0
LWPOLYLINE
  5
1D5
330
1F
100
AcDbEntity
  8
0
  6
Continuous
 62
     7
370
    18
100
AcDbPolyline
 90
       75
 70
   128
 43
0.0
 10
268.2707828905
 20
171.0490145155
 10
268.2614601915
 20
171.7225583114
 10
268.2335017728
 20
172.4061666385
 10
268.1869366587
 20
173.0991298205
 10
268.1218131903
 20
173.8007284696
 10
268.0381989741
 20
174.5102342332
 10
267.936180813
 20
175.22691055
 10
267.8158646153
 20
175.9500134147
 10
267.6773752852
 20
176.6787921506
 10
267.5208565931
 20
177.4124901884
 10
267.3464710261
 20
178.1503458522
 10
267.1543996197
 20
178.8915931497
 10
266.9448417694
 20
179.6354625678
 10
266.7180150241
 20
180.381181871
 10
266.4741548603
 20
181.1279769039
 10
266.213514437
 20
181.8750723938
 10
265.9363643338
 20
182.6216927563
 10
265.6429922691
 20
183.3670629005
 10
265.3337028023
 20
184.1104090329
 10
265.0088170169
 20
184.8509594616
 10
264.6686721874
 20
185.5879453969
 10
264.3136214294
 20
186.3206017493
 10
263.9440333328
 20
187.0481679243
 10
263.5602915792
 20
187.7698886116
 10
263.1627945433
 20
188.4850145691
 10
262.75195488
 20
189.1928034011
 10
262.3281990955
 20
189.8925203287
 10
261.8919671045
 20
190.5834389529
 10
261.4437117738
 20
191.2648420082
 10
260.983898452
 20
191.9360221078
 10
260.5130044864
 20
192.5962824776
 10
260.0315187275
 20
193.2449376795
 10
259.5399410215
 20
193.8813143234
 10
259.0387816914
 20
194.5047517656
 10
258.5285610072
 20
195.1146027953
 10
258.0098086456
 20
195.7102343061
 10
257.4830631406
 20
196.2910279533
 10
256.948871324
 20
196.8563807961
 10
256.4077877579
 20
197.4057059229
 10
255.8603741589
 20
197.9384330614
 10
255.3071988151
 20
198.4540091699
 10
254.7488359959
 20
198.9518990121
 10
254.1858653561
 20
199.431585712
 10
253.6188713341
 20
199.8925712912
 10
253.0484425451
 20
200.3343771854
 10
252.4751711698
 20
200.7565447414
 10
251.8996523401
 20
201.1586356931
 10
251.322483521
 20
201.5402326167
 10
250.7442638905
 20
201.9009393639
 10
250.1655937174
 20
202.2403814732
 10
249.5870737381
 20
202.5582065586
 10
249.0093045333
 20
202.8540846754
 10
248.4328859042
 20
203.1277086627
 10
247.8584162499
 20
203.3787944627
 10
247.2864919462
 20
203.6070814148
 10
246.7177067266
 20
203.8123325268
 10
246.1526510656
 20
203.9943347209
 10
245.5919115662
 20
204.1528990545
 10
245.0360703503
 20
204.2878609169
 10
244.4857044552
 20
204.3990801996
 10
243.9413852336
 20
204.4864414423
 10
243.4036777612
 20
204.5498539525
 10
242.8731402499
 20
204.5892518994
 10
242.3503234681
 20
204.6045943828
 10
241.835770169
 20
204.5958654752
 10
241.3300145273
 20
204.5630742383
 10
240.8335815847
 20
204.5062547138
 10
240.3469867044
 20
204.4254658878
 10
239.8707350366
 20
204.32079163
 10
239.4053209938
 20
204.1923406062
 10
238.9512277375
 20
204.0402461655
 10
238.5089266771
 20
203.8646662022
 10
238.0788769796
 20
203.6657829915
 10
237.6615250938
 20
203.4438030009
 10
237.6113027439
 20
203.4150386401
  0
LWPOLYLINE
  5
1D6
330
1F
100
AcDbEntity
  8
0
  6
Continuous
 62
     7
370
    18
100
AcDbPolyline
 90
       26
 70
   128
 43
0.0
 10
263.0092385529
 20
159.4197564312
 10
263.1627945433
 20
159.5105722746
 10
263.5602915792
 20
159.7667579234
 10
263.9440333328
 20
160.0454198126
 10
264.3136214294
 20
160.3462686542
 10
264.6686721874
 20
160.6689921272
 10
265.0088170169
 20
161.0132552017
 10
265.3337028023
 20
161.3787004868
 10
265.6429922691
 20
161.7649486019
 10
265.9363643338
 20
162.1715985701
 10
266.213514437
 20
162.5982282347
 10
266.4741548603
 20
163.0443946973
 10
266.7180150241
 20
163.509634778
 10
266.9448417694
 20
163.9934654957
 10
267.1543996197
 20
164.4953845699
 10
267.3464710261
 20
165.0148709418
 10
267.5208565931
 20
165.5513853156
 10
267.6773752852
 20
166.1043707181
 10
267.8158646153
 20
166.6732530769
 10
267.936180813
 20
167.2574418167
 10
268.0381989741
 20
167.8563304718
 10
268.1218131903
 20
168.4692973163
 10
268.1869366587
 20
169.0957060092
 10
268.2335017728
 20
169.7349062549
 10
268.2614601915
 20
170.3862344788
 10
268.2707828905
 20
171.0490145155
  0
ARC
  5
1D7
330
1F
100
AcDbEntity
  8
0
  6
Continuous
 62
     7
370
    18
100
AcDbCircle
 10
229.6992163203
 20
169.5188891389
 30
0.0
 40
38.6105334380824
100
AcDbArc
 50
2.5743584101
 51
57.4202650572
  0
ARC
  5
1D8
330
1F
100
AcDbEntity
  8
0
  6
Continuous
 62
     7
370
    18
100
AcDbCircle
 10
235.7489483947
 20
178.0922962064
 30
0.0
 40
27.35423334561519
100
AcDbArc
 50
55.1851019229
 51
55.9593762487
  0
SPLINE
  5
1D9
330
1F
100
AcDbEntity
  8
0
  6
Continuous
 62
     7
370
    18
100
AcDbSpline
210
0.0
220
0.0
230
1.0
 70
     8
 71
     3
 72
     8
 73
     4
 74
     0
 42
0.000000001
 43
0.00000001
 40
0.0
 40
0.0
 40
0.0
 40
0.0
 40
1.0
 40
1.0
 40
1.0
 40
1.0
 10
251.0613166086554
 20
200.7591323686925
 30
0.0
 10
250.9917778565924
 20
200.6810828736659
 30
0.0
 10
250.9222325781226
 20
200.6029485363918
 30
0.0
 10
250.8526803841238
 20
200.5247296208715
 30
0.0
  0
SPLINE
  5
1DA
330
1F
100
AcDbEntity
  8
0
  6
Continuous
 62
     7
370
    18
100
AcDbSpline
210
0.0
220
0.0
230
1.0
 70
     8
 71
     3
 72
     9
 73
     5
 74
     0
 42
0.000000001
 43
0.00000001
 40
0.0
 40
0.0
 40
0.0
 40
0.0
 40
0.5000173867754979
 40
1.0
 40
1.0
 40
1.0
 40
1.0
 10
250.8526803841238
 20
200.5247296208715
 30
0.0
 10
250.8268909472933
 20
200.4956515240758
 30
0.0
 10
250.7753138671506
 20
200.4374973527114
 30
0.0
 10
250.7186670673725
 20
200.3813589815689
 30
0.0
 10
250.6903446523885
 20
200.3532907720629
 30
0.0
  0
SPLINE
  5
1DB
330
1F
100
AcDbEntity
  8
0
  6
Continuous
 62
     7
370
    18
100
AcDbSpline
210
0.0
220
0.0
230
1.0
 70
     8
 71
     3
 72
     9
 73
     5
 74
     0
 42
0.000000001
 43
0.00000001
 40
0.0
 40
0.0
 40
0.0
 40
0.0
 40
0.5000058492839412
 40
1.0
 40
1.0
 40
1.0
 40
1.0
 10
250.6903446523886
 20
200.3532907720629
 30
0.0
 10
250.7318108069209
 20
200.3688297971917
 30
0.0
 10
250.8147421458075
 20
200.3999074838849
 30
0.0
 10
250.9029482629296
 20
200.4251367506384
 30
0.0
 10
250.9470508055481
 20
200.4377512364421
 30
0.0
  0
SPLINE
  5
1DC
330
1F
100
AcDbEntity
  8
0
  6
Continuous
 62
     7
370
    18
100
AcDbSpline
210
0.0
220
0.0
230
1.0
 70
     8
 71
     3
 72
     8
 73
     4
 74
     0
 42
0.000000001
 43
0.00000001
 40
0.0
 40
0.0
 40
0.0
 40
0.0
 40
1.0
 40
1.0
 40
1.0
 40
1.0
 10
250.9470508055481
 20
200.4377512364421
 30
0.0
 10
251.0867836119396
 20
200.4753219652014
 30
0.0
 10
251.2265070375322
 20
200.5127858359784
 30
0.0
 10
251.3662205270937
 20
200.5501432330124
 30
0.0
  0
LINE
  5
1DD
330
1F
100
AcDbEntity
  8
0
  6
Continuous
 62
     7
370
    18
100
AcDbLine
 10
250.444595989
 20
201.2319518017
 30
0.0
 11
249.9521771251
 21
200.9476844424
 31
0.0
  0
SPLINE
  5
1DE
330
1F
100
AcDbEntity
  8
0
  6
Continuous
 62
     7
370
    18
100
AcDbSpline
210
0.0
220
0.0
230
1.0
 70
     8
 71
     3
 72
     8
 73
     4
 74
     0
 42
0.000000001
 43
0.00000001
 40
0.0
 40
0.0
 40
0.0
 40
0.0
 40
1.0
 40
1.0
 40
1.0
 40
1.0
 10
249.952177125108
 20
200.9476844423927
 30
0.0
 10
250.2063564773098
 20
200.9855423880227
 30
0.0
 10
250.4605037604453
 20
201.0226360887725
 30
0.0
 10
250.7146087726601
 20
201.0589720803102
 30
0.0
  0
ARC
  5
1DF
330
1F
100
AcDbEntity
  8
0
  6
Continuous
 62
     7
370
    18
100
AcDbCircle
 10
236.5897246045
 20
179.3079551404
 30
0.0
 40
25.93490101553309
100
AcDbArc
 50
57.0007251733
 51
57.7091575033
  0
LINE
  5
1E0
330
1F
100
AcDbEntity
  8
0
  6
Continuous
 62
     7
370
    18
100
AcDbLine
 10
249.7514996001
 20
201.6544603973
 30
0.0
 11
249.2590807362
 21
201.370193038
 31
0.0
  0
SPLINE
  5
1E1
330
1F
100
AcDbEntity
  8
0
  6
Continuous
 62
     7
370
    18
100
AcDbSpline
210
0.0
220
0.0
230
1.0
 70
     8
 71
     3
 72
     8
 73
     4
 74
     0
 42
0.000000001
 43
0.00000001
 40
0.0
 40
0.0
 40
0.0
 40
0.0
 40
1.0
 40
1.0
 40
1.0
 40
1.0
 10
249.2590807362184
 20
201.370193037999
 30
0.0
 10
249.5133574106244
 20
201.4120116679586
 30
0.0
 10
249.7676282035217
 20
201.4530500892115
 30
0.0
 10
250.0218828990567
 20
201.4933143903141
 30
0.0
  0
ARC
  5
1E2
330
1F
100
AcDbEntity
  8
0
  6
Continuous
 62
     7
370
    18
100
AcDbCircle
 10
237.3296427929
 20
180.504695232
 30
0.0
 40
24.5278432212534
100
AcDbArc
 50
58.8378027638
 51
59.5730758183
  0
SPLINE
  5
1E3
330
1F
100
AcDbEntity
  8
0
  6
Continuous
 62
     7
370
    18
100
AcDbSpline
210
0.0
220
0.0
230
1.0
 70
     8
 71
     3
 72
    14
 73
    10
 74
     0
 42
0.000000001
 43
0.00000001
 40
0.0
 40
0.0
 40
0.0
 40
0.0
 40
0.1252821764537735
 40
0.2505432127895046
 40
0.5000113169240665
 40
0.6429951364461398
 40
0.7857748317443859
 40
0.8928649379282302
 40
1.0
 40
1.0
 40
1.0
 40
1.0
 10
249.321009942157
 20
201.9427631006428
 30
0.0
 10
249.3354326958633
 20
201.9515225125067
 30
0.0
 10
249.3642757695801
 20
201.9690398581709
 30
0.0
 10
249.4131310550521
 20
202.0080255046669
 30
0.0
 10
249.449276309836
 20
202.0541203998278
 30
0.0
 10
249.4591584223709
 20
202.1048390196667
 30
0.0
 10
249.4528719115965
 20
202.141945747728
 30
0.0
 10
249.4308798717876
 20
202.1734926722155
 30
0.0
 10
249.4073436595308
 20
202.1884079697168
 30
0.0
 10
249.3955730838248
 20
202.1958671834807
 30
0.0
  0
SPLINE
  5
1E4
330
1F
100
AcDbEntity
  8
0
  6
Continuous
 62
     7
370
    18
100
AcDbSpline
210
0.0
220
0.0
230
1.0
 70
     8
 71
     3
 72
    13
 73
     9
 74
     0
 42
0.000000001
 43
0.00000001
 40
0.0
 40
0.0
 40
0.0
 40
0.0
 40
0.0677457598807267
 40
0.1252098681032808
 40
0.250189400859164
 40
0.4995793781938786
 40
0.7494545775161796
 40
1.0
 40
1.0
 40
1.0
 40
1.0
 10
249.3955730838248
 20
202.1958671834807
 30
0.0
 10
249.3875164579277
 20
202.1996705097766
 30
0.0
 10
249.3726259456991
 20
202.2066999384038
 30
0.0
 10
249.3384165537542
 20
202.217309833692
 30
0.0
 10
249.2716172763758
 20
202.2259022968007
 30
0.0
 10
249.1710337825925
 20
202.2184688325763
 30
0.0
 10
249.062715764197
 20
202.1871604397088
 30
0.0
 10
249.0046289127542
 20
202.156092082993
 30
0.0
 10
248.9755465886027
 20
202.1405370994052
 30
0.0
  0
SPLINE
  5
1E5
330
1F
100
AcDbEntity
  8
0
  6
Continuous
 62
     7
370
    18
100
AcDbSpline
210
0.0
220
0.0
230
1.0
 70
     8
 71
     3
 72
    13
 73
     9
 74
     0
 42
0.000000001
 43
0.00000001
 40
0.0
 40
0.0
 40
0.0
 40
0.0
 40
0.2504124207258254
 40
0.5000538551601379
 40
0.6997892240441664
 40
0.8496390931182497
 40
0.9247815686094591
 40
1.0
 40
1.0
 40
1.0
 40
1.0
 10
248.9755465886027
 20
202.1405370994052
 30
0.0
 10
248.948813313844
 20
202.1238061589662
 30
0.0
 10
248.8954290724977
 20
202.0903957904123
 30
0.0
 10
248.8483936169602
 20
202.0325119818026
 30
0.0
 10
248.8413231994348
 20
201.9789118823542
 30
0.0
 10
248.8596741522547
 20
201.9426651680083
 30
0.0
 10
248.8838380238033
 20
201.9201742886627
 30
0.0
 10
248.8998064886464
 20
201.9106201936987
 30
0.0
 10
248.9077947543608
 20
201.9058407330566
 30
0.0
  0
SPLINE
  5
1E6
330
1F
100
AcDbEntity
  8
0
  6
Continuous
 62
     7
370
    18
100
AcDbSpline
210
0.0
220
0.0
230
1.0
 70
     8
 71
     3
 72
    14
 73
    10
 74
     0
 42
0.000000001
 43
0.00000001
 40
0.0
 40
0.0
 40
0.0
 40
0.0
 40
0.1144362676679601
 40
0.2003720363151719
 40
0.4984100700301257
 40
0.6237105017656078
 40
0.7490627837132285
 40
0.8745106959027962
 40
1.0
 40
1.0
 40
1.0
 40
1.0
 10
248.9077947543608
 20
201.9058407330566
 30
0.0
 10
248.9211621856973
 20
201.8994926940284
 30
0.0
 10
248.9445678724764
 20
201.888377603222
 30
0.0
 10
249.0150398295789
 20
201.8712803211062
 30
0.0
 10
249.0979725548294
 20
201.8701851172722
 30
0.0
 10
249.1791647744716
 20
201.8848601864575
 30
0.0
 10
249.231393432224
 20
201.9000532356145
 30
0.0
 10
249.2788228293481
 20
201.919703693382
 30
0.0
 10
249.3069460249206
 20
201.9350757863508
 30
0.0
 10
249.321009942157
 20
201.9427631006428
 30
0.0
  0
LINE
  5
1E7
330
1F
100
AcDbEntity
  8
0
  6
Continuous
 62
     7
370
    18
100
AcDbLine
 10
248.3656441542
 20
202.4065685431
 30
0.0
 11
247.8732252904
 21
202.1223011838
 31
0.0
  0
SPLINE
  5
1E8
330
1F
100
AcDbEntity
  8
0
  6
Continuous
 62
     7
370
    18
100
AcDbSpline
210
0.0
220
0.0
230
1.0
 70
     8
 71
     3
 72
     8
 73
     4
 74
     0
 42
0.000000001
 43
0.00000001
 40
0.0
 40
0.0
 40
0.0
 40
0.0
 40
1.0
 40
1.0
 40
1.0
 40
1.0
 10
247.8732252903527
 20
202.1223011838161
 30
0.0
 10
248.1272936557765
 20
202.1722718474556
 30
0.0
 10
248.3814085020615
 20
202.2214338851572
 30
0.0
 10
248.6355596310296
 20
202.2697924647121
 30
0.0
  0
ARC
  5
1E9
330
1F
100
AcDbEntity
  8
0
  6
Continuous
 62
     7
370
    18
100
AcDbCircle
 10
238.6507863496
 20
182.9004419024
 30
0.0
 40
21.79145334040732
100
AcDbArc
 50
62.7291913032
 51
63.52479667
  0
ARC
  5
1EA
330
1F
100
AcDbEntity
  8
0
  6
Continuous
 62
     7
370
    18
100
AcDbCircle
 10
239.3281848573
 20
184.7169581691
 30
0.0
 40
19.63098105176618
100
AcDbArc
 50
66.3299495446
 51
66.9604264479
  0
SPLINE
  5
1EB
330
1F
100
AcDbEntity
  8
0
  6
Continuous
 62
     7
370
    18
100
AcDbSpline
210
0.0
220
0.0
230
1.0
 70
     8
 71
     3
 72
    10
 73
     6
 74
     0
 42
0.000000001
 43
0.00000001
 40
0.0
 40
0.0
 40
0.0
 40
0.0
 40
0.5000536445255745
 40
0.7500961316391135
 40
1.0
 40
1.0
 40
1.0
 40
1.0
 10
247.0110994381338
 20
202.7820693117729
 30
0.0
 10
246.9921884236995
 20
202.7897126447145
 30
0.0
 10
246.9638213096351
 20
202.8011778835644
 30
0.0
 10
246.9240143337484
 20
202.8151967440935
 30
0.0
 10
246.9015128492521
 20
202.8201559825659
 30
0.0
 10
246.8902652264663
 20
202.8226349142849
 30
0.0
  0
SPLINE
  5
1EC
330
1F
100
AcDbEntity
  8
0
  6
Continuous
 62
     7
370
    18
100
AcDbSpline
210
0.0
220
0.0
230
1.0
 70
     8
 71
     3
 72
    12
 73
     8
 74
     0
 42
0.000000001
 43
0.00000001
 40
0.0
 40
0.0
 40
0.0
 40
0.0
 40
0.1253830850359106
 40
0.250670605796373
 40
0.5000157950863847
 40
0.7495636610509587
 40
0.9999999999999999
 40
0.9999999999999999
 40
0.9999999999999999
 40
0.9999999999999999
 10
246.8902652264663
 20
202.8226349142849
 30
0.0
 10
246.8799191774663
 20
202.8242235344108
 30
0.0
 10
246.859234965001
 20
202.8273995638507
 30
0.0
 10
246.8146829347116
 20
202.828968559298
 30
0.0
 10
246.7562518831359
 20
202.8236956367672
 30
0.0
 10
246.6924222795415
 20
202.8036622372484
 30
0.0
 10
246.6585580424734
 20
202.7854910880484
 30
0.0
 10
246.6415958355292
 20
202.7763893683632
 30
0.0
  0
SPLINE
  5
1ED
330
1F
100
AcDbEntity
  8
0
  6
Continuous
 62
     7
370
    18
100
AcDbSpline
210
0.0
220
0.0
230
1.0
 70
     8
 71
     3
 72
    13
 73
     9
 74
     0
 42
0.000000001
 43
0.00000001
 40
0.0
 40
0.0
 40
0.0
 40
0.0
 40
0.1255173544708268
 40
0.250888902502109
 40
0.4982297896868266
 40
0.623281101387096
 40
0.7488330144831604
 40
1.0
 40
1.0
 40
1.0
 40
1.0
 10
246.6415958355292
 20
202.7763893683632
 30
0.0
 10
246.6286218078105
 20
202.7683230520299
 30
0.0
 10
246.6026888235702
 20
202.7521997895487
 30
0.0
 10
246.5652375592439
 20
202.7162354918655
 30
0.0
 10
246.5551990002
 20
202.6752765411677
 30
0.0
 10
246.5874538507431
 20
202.6433416894818
 30
0.0
 10
246.634227128647
 20
202.6172267287833
 30
0.0
 10
246.6737437453527
 20
202.5996998446805
 30
0.0
 10
246.700090364894
 20
202.5880142757808
 30
0.0
  0
ARC
  5
1EE
330
1F
100
AcDbEntity
  8
0
  6
Continuous
 62
     7
370
    18
100
AcDbCircle
 10
238.9974345401
 20
184.5169201717
 30
0.0
 40
19.64421922279236
100
AcDbArc
 50
66.3300860866
 51
66.9142699449
  0
LINE
  5
1EF
330
1F
100
AcDbEntity
  8
0
  6
Continuous
 62
     7
370
    18
100
AcDbLine
 10
246.8839384458
 20
202.5085405829
 30
0.0
 11
247.2094169225
 21
202.696435308
 31
0.0
  0
ARC
  5
1F0
330
1F
100
AcDbEntity
  8
0
  6
Continuous
 62
     7
370
    18
100
AcDbCircle
 10
239.8465633194
 20
185.0316530971
 30
0.0
 40
19.60852846196467
100
AcDbArc
 50
66.3296938964
 51
67.0388239058
  0
SPLINE
  5
1F1
330
1F
100
AcDbEntity
  8
0
  6
Continuous
 62
     7
370
    18
100
AcDbSpline
210
0.0
220
0.0
230
1.0
 70
     8
 71
     3
 72
    10
 73
     6
 74
     0
 42
0.000000001
 43
0.00000001
 40
0.0
 40
0.0
 40
0.0
 40
0.0
 40
0.5000531111181516
 40
0.7500396633881821
 40
1.0
 40
1.0
 40
1.0
 40
1.0
 10
247.4959934177414
 20
203.0865861518807
 30
0.0
 10
247.4773083962191
 20
203.0941389307805
 30
0.0
 10
247.4492823587014
 20
203.1054674949225
 30
0.0
 10
247.408177293123
 20
203.1181282720474
 30
0.0
 10
247.3851354460479
 20
203.1222560152669
 30
0.0
 10
247.3736151266317
 20
203.1243197786537
 30
0.0
  0
SPLINE
  5
1F2
330
1F
100
AcDbEntity
  8
0
  6
Continuous
 62
     7
370
    18
100
AcDbSpline
210
0.0
220
0.0
230
1.0
 70
     8
 71
     3
 72
    12
 73
     8
 74
     0
 42
0.000000001
 43
0.00000001
 40
0.0
 40
0.0
 40
0.0
 40
0.0
 40
0.125299732004254
 40
0.2505032490590054
 40
0.4996764479660246
 40
0.7495729687650869
 40
1.0
 40
1.0
 40
1.0
 40
1.0
 10
247.3736151266317
 20
203.1243197786537
 30
0.0
 10
247.3615587623742
 20
203.1256754040784
 30
0.0
 10
247.33745529168
 20
203.1283856139725
 30
0.0
 10
247.2861198965644
 20
203.12803341679
 30
0.0
 10
247.2206254068535
 20
203.1186128661555
 30
0.0
 10
247.1499499754069
 20
203.0951114472469
 30
0.0
 10
247.1115260478094
 20
203.0745397719262
 30
0.0
 10
247.0922937128983
 20
203.0642430278349
 30
0.0
  0
SPLINE
  5
1F3
330
1F
100
AcDbEntity
  8
0
  6
Continuous
 62
     7
370
    18
100
AcDbSpline
210
0.0
220
0.0
230
1.0
 70
     8
 71
     3
 72
    14
 73
    10
 74
     0
 42
0.000000001
 43
0.00000001
 40
0.0
 40
0.0
 40
0.0
 40
0.0
 40
0.1253821129444188
 40
0.2506631766959806
 40
0.4987886708363576
 40
0.6237903358566331
 40
0.7490670647727341
 40
0.8643951698904908
 40
1.0
 40
1.0
 40
1.0
 40
1.0
 10
247.0922937128983
 20
203.0642430278349
 30
0.0
 10
247.0784770272088
 20
203.0557310269106
 30
0.0
 10
247.0508547911099
 20
203.038713885138
 30
0.0
 10
247.010315008702
 20
203.0006307728089
 30
0.0
 10
246.9960370582391
 20
202.9582418664523
 30
0.0
 10
247.0174167932105
 20
202.9211321665491
 30
0.0
 10
247.048974858953
 20
202.8988343863393
 30
0.0
 10
247.0865020859644
 20
202.8782549868929
 30
0.0
 10
247.1145401522595
 20
202.8659626347693
 30
0.0
 10
247.1296919983616
 20
202.8593198147668
 30
0.0
  0
ARC
  5
1F4
330
1F
100
AcDbEntity
  8
0
  6
Continuous
 62
     7
370
    18
100
AcDbCircle
 10
239.4587384468
 20
184.7978400652
 30
0.0
 40
19.6229605088462
100
AcDbArc
 50
66.329861703
 51
66.9884152387
  0
LINE
  5
1F5
330
1F
100
AcDbEntity
  8
0
  6
Continuous
 62
     7
370
    18
100
AcDbLine
 10
247.3367780655
 20
202.7699593309
 30
0.0
 11
247.7188614947
 21
202.9905313995
 31
0.0
  0
INSERT
  5
1FB
330
1F
100
AcDbEntity
  8
0
  6
Continuous
 62
     7
370
     0
100
AcDbBlockReference
  2
SW_NOTE_5
 10
236.4989219898
 20
144.106883813
 30
0.0
  0
LINE
  5
1FC
330
1F
100
AcDbEntity
  8
0
  6
Continuous
 62
     7
370
    18
100
AcDbLine
 10
167.6728811314
 20
138.3609544455
 30
0.0
 11
167.6728811314
 21
138.3508711596
 31
0.0
  0
LINE
  5
1FD
330
1F
100
AcDbEntity
  8
0
  6
Continuous
 62
     7
370
    18
100
AcDbLine
 10
184.7128815918
 20
112.9559128026
 30
0.0
 11
187.2128815918
 21
112.9559128026
 31
0.0
  0
LINE
  5
1FE
330
1F
100
AcDbEntity
  8
0
  6
Continuous
 62
     7
370
    18
100
AcDbLine
 10
184.7128815918
 20
112.9559128026
 30
0.0
 11
184.2381720212
 21
113.0527448485
 31
0.0
  0
ARC
  5
1FF
330
1F
100
AcDbEntity
  8
0
  6
Continuous
 62
     7
370
    18
100
AcDbCircle
 10
195.2728811314
 20
138.3508711596
 30
0.0
 40
27.60000000000001
100
AcDbArc
 50
179.9895338817
 51
246.4338049978
  0
ARC
  5
200
330
1F
100
AcDbEntity
  8
0
  6
Continuous
 62
     7
370
    18
100
AcDbCircle
 10
195.2728811314
 20
138.3609544455
 30
0.0
 40
27.59999999999999
100
AcDbArc
 50
113.5661950022
 51
180.0104661183
  0
LINE
  5
201
330
1F
100
AcDbEntity
  8
0
  6
Continuous
 62
     7
370
    18
100
AcDbLine
 10
184.2381720212
 20
163.6590807567
 30
0.0
 11
184.7128815918
 21
163.7559128026
 31
0.0
  0
LINE
  5
202
330
1F
100
AcDbEntity
  8
0
  6
Continuous
 62
     7
370
    18
100
AcDbLine
 10
186.2025211515
 20
163.7559128026
 30
0.0
 11
184.7128815918
 21
163.7559128026
 31
0.0
  0
LINE
  5
203
330
1F
100
AcDbEntity
  8
0
  6
Continuous
 62
     7
370
    18
100
AcDbLine
 10
186.3826370073
 20
163.7559128026
 30
0.0
 11
186.2025211515
 21
163.7559128026
 31
0.0
  0
LINE
  5
204
330
1F
100
AcDbEntity
  8
0
  6
Continuous
 62
     7
370
    18
100
AcDbLine
 10
187.2128815918
 20
163.7559128026
 30
0.0
 11
186.3826370073
 21
163.7559128026
 31
0.0
  0
LINE
  5
205
330
1F
100
AcDbEntity
  8
0
  6
Continuous
 62
     7
370
    18
100
AcDbLine
 10
187.2128815918
 20
163.7559128026
 30
0.0
 11
187.4628815918
 21
163.5059128026
 31
0.0
  0
LINE
  5
206
330
1F
100
AcDbEntity
  8
0
  6
Continuous
 62
     7
370
    18
100
AcDbLine
 10
187.4628815918
 20
113.2059128026
 30
0.0
 11
187.4628815918
 21
163.5059128026
 31
0.0
  0
LINE
  5
207
330
1F
100
AcDbEntity
  8
0
  6
Continuous
 62
     7
370
    18
100
AcDbLine
 10
187.4628815918
 20
113.2059128026
 30
0.0
 11
187.2128815918
 21
112.9559128026
 31
0.0
  0
HATCH
  5
208
330
1F
100
AcDbEntity
  8
0
  6
Continuous
 62
     7
370
    18
100
AcDbHatch
 10
0.0
 20
0.0
 30
0.0
210
0.0
220
0.0
230
1.0
  2
ANSI31
 70
     0
 71
     0
 91
        1
 92
        0
 93
       11
 72
     1
 10
187.2128815918281
 20
112.9559128025694
 11
187.4628815918282
 21
113.2059128025694
 72
     1
 10
187.4628815918282
 20
113.2059128025694
 11
187.4628815918282
 21
163.5059128025694
 72
     1
 10
187.4628815918282
 20
163.5059128025694
 11
187.2128815918281
 21
163.7559128025694
 72
     1
 10
187.2128815918281
 20
163.7559128025694
 11
186.3826370073111
 21
163.7559128025694
 72
     1
 10
186.3826370073111
 20
163.7559128025694
 11
186.2025211514872
 21
163.7559128025694
 72
     1
 10
186.2025211514872
 20
163.7559128025694
 11
184.7128815918281
 21
163.7559128025694
 72
     1
 10
184.7128815918281
 20
163.7559128025694
 11
184.2381720211962
 21
163.6590807566724
 72
     2
 10
195.2728811313542
 20
138.3609544455363
 40
27.6
 50
113.5661950022416
 51
180.0104661183131
 73
     1
 72
     2
 10
195.2728811313542
 20
138.3508711596025
 40
27.6
 50
179.9895338816877
 51
246.4338049977593
 73
     1
 72
     1
 10
184.2381720211962
 20
113.0527448484664
 11
184.7128815918281
 21
112.9559128025694
 72
     1
 10
184.7128815918281
 20
112.9559128025694
 11
187.2128815918281
 21
112.9559128025694
 97
        0
 75
     0
 76
     1
 52
0.0
 41
1.0
 77
     0
 78
     1
 53
45.0
 43
0.0
 44
0.0
 45
-2.245064030267288
 46
2.245064030267288
 79
     0
 98
        1
 10
0.0
 20
0.0
  0
DIMENSION
  5
209
330
1F
100
AcDbEntity
  8
0
  6
Continuous
 62
     7
370
    18
100
AcDbDimension
  2
_D_1
 10
195.2728811314
 20
138.3609544455
 30
0.0
 11
147.6408552313
 21
164.3786334716
 31
0.0
 70
   164
  1
<>
 71
     1
 42
-1.0
  3
SLDDIMSTYLE1
100
AcDbRadialDimension
 15
172.5798588862
 25
154.0704019654
 35
0.0
 40
0.0
  0
DIMENSION
  5
219
330
1F
100
AcDbEntity
  8
0
  6
Continuous
 62
     7
370
    18
100
AcDbDimension
  2
_D_2
 10
187.2128815918
 20
169.4786331081
 30
0.0
 11
208.2296735472
 21
169.4786331081
 31
0.0
 70
   160
  1
<>\PREF
 71
     2
 42
-1.0
  3
SLDDIMSTYLE2
100
AcDbAlignedDimension
 13
184.2381720212
 23
163.6590807567
 33
0.0
 14
187.2128815918
 24
163.7559128026
 34
0.0
100
AcDbRotatedDimension
  0
DIMENSION
  5
22D
330
1F
100
AcDbEntity
  8
0
  6
Continuous
 62
     7
370
    18
100
AcDbDimension
  2
_D_3
 10
187.4628815918
 20
98.7116296479
 30
0.0
 11
208.2296735472
 21
98.7116296479
 31
0.0
 70
   160
  1
<>
 71
     2
 42
-1.0
  3
SLDDIMSTYLE3
100
AcDbAlignedDimension
 13
167.6728815918
 23
138.3559128026
 33
0.0
 14
187.4628815918
 24
113.2059128026
 34
0.0
100
AcDbRotatedDimension
  0
MTEXT
  5
242
330
1F
100
AcDbEntity
  8
0
  6
Continuous
 62
     7
370
     0
100
AcDbMText
 10
177.6426579908
 20
89.7427620676
 30
0.0
 40
2.1166666667
 41
0.0
 71
     2
 72
     1
  1
SECTION A-A
  7
SLDTEXTSTYLE0
 73
     1
 44
1.0
  0
ENDSEC
  0
SECTION
  2
OBJECTS
  0
DICTIONARY
  5
C
330
0
100
AcDbDictionary
281
     1
  3
ACAD_GROUP
350
D
  3
ACAD_LAYOUT
350
1A
  3
ACAD_MLINESTYLE
350
17
  3
ACAD_PLOTSETTINGS
350
19
  3
ACAD_PLOTSTYLENAME
350
E
  3
ACAD_SCALELIST
350
47
  0
DICTIONARY
  5
D
102
{ACAD_REACTORS
330
C
102
}
330
C
100
AcDbDictionary
281
     1
  0
DICTIONARY
  5
1A
102
{ACAD_REACTORS
330
C
102
}
330
C
100
AcDbDictionary
281
     1
  3
Layout1
350
1E
  3
Layout2
350
26
  3
Model
350
22
  0
DICTIONARY
  5
17
102
{ACAD_REACTORS
330
C
102
}
330
C
100
AcDbDictionary
281
     1
  3
Standard
350
18
  0
DICTIONARY
  5
19
102
{ACAD_REACTORS
330
C
102
}
330
C
100
AcDbDictionary
281
     1
  0
ACDBDICTIONARYWDFLT
  5
E
102
{ACAD_REACTORS
330
C
102
}
330
C
100
AcDbDictionary
281
     1
  3
Normal
350
F
100
AcDbDictionaryWithDefault
340
F
  0
DICTIONARY
  5
47
102
{ACAD_REACTORS
330
C
102
}
330
C
100
AcDbDictionary
281
     1
  3
A0
350
48
  3
A1
350
49
  3
A2
350
4A
  3
A3
350
4B
  3
A4
350
4C
  3
A5
350
4D
  3
A6
350
4E
  3
A7
350
4F
  3
A8
350
50
  3
A9
350
51
  3
B0
350
52
  3
B1
350
53
  3
B2
350
54
  3
B3
350
55
  3
B4
350
56
  3
B5
350
57
  3
B6
350
58
  3
B7
350
59
  3
B8
350
5A
  3
B9
350
5B
  3
C0
350
5C
  3
C1
350
5D
  3
C2
350
5E
  3
C3
350
5F
  3
C4
350
60
  3
C5
350
61
  3
C6
350
62
  3
C7
350
63
  3
C8
350
64
  3
C9
350
65
  3
D0
350
66
  3
D1
350
67
  3
D2
350
68
  0
LAYOUT
  5
1E
102
{ACAD_REACTORS
330
1A
102
}
330
1A
100
AcDbPlotSettings
  1

  2
none_device
  4

  6

 40
0.0
 41
0.0
 42
0.0
 43
0.0
 44
0.0
 45
0.0
 46
0.0
 47
0.0
 48
0.0
 49
0.0
140
0.0
141
0.0
142
1.0
143
1.0
 70
   688
 72
     1
 73
     0
 74
     5
  7

 75
    16
147
1.0
148
0.0
149
0.0
100
AcDbLayout
  1
Layout1
 70
     1
 71
     1
 10
0.0
 20
0.0
 11
420.0
 21
297.0
 12
0.0
 22
0.0
 32
0.0
 14
1.0000000000E+20
 24
1.0000000000E+20
 34
1.0000000000E+20
 15
-1.0000000000E+20
 25
-1.0000000000E+20
 35
-1.0000000000E+20
146
0.0
 13
0.0
 23
0.0
 33
0.0
 16
1.0
 26
0.0
 36
0.0
 17
0.0
 27
1.0
 37
0.0
 76
     0
330
1B
  0
LAYOUT
  5
26
102
{ACAD_REACTORS
330
1A
102
}
330
1A
100
AcDbPlotSettings
  1

  2
none_device
  4

  6

 40
0.0
 41
0.0
 42
0.0
 43
0.0
 44
0.0
 45
0.0
 46
0.0
 47
0.0
 48
0.0
 49
0.0
140
0.0
141
0.0
142
1.0
143
1.0
 70
   688
 72
     1
 73
     0
 74
     5
  7

 75
    16
147
1.0
148
0.0
149
0.0
100
AcDbLayout
  1
Layout2
 70
     1
 71
     2
 10
0.0
 20
0.0
 11
0.0
 21
0.0
 12
0.0
 22
0.0
 32
0.0
 14
0.0
 24
0.0
 34
0.0
 15
0.0
 25
0.0
 35
0.0
146
0.0
 13
0.0
 23
0.0
 33
0.0
 16
1.0
 26
0.0
 36
0.0
 17
0.0
 27
1.0
 37
0.0
 76
     0
330
23
  0
LAYOUT
  5
22
102
{ACAD_REACTORS
330
1A
102
}
330
1A
100
AcDbPlotSettings
  1

  2
none_device
  4
Letter_(8.50_x_11.00_Inches)
  6

 40
6.35
 41
6.35
 42
6.35000508
 43
6.35000508
 44
215.9
 45
279.4
 46
0.0
 47
0.0
 48
0.0
 49
0.0
140
0.0
141
0.0
142
1.0
143
1.0
 70
  1712
 72
     1
 73
     0
 74
     0
  7

 75
     0
147
1.0
148
0.0
149
0.0
100
AcDbLayout
  1
Model
 70
     1
 71
     0
 10
0.0
 20
0.0
 11
279.4
 21
215.9
 12
0.0
 22
0.0
 32
0.0
 14
0.0
 24
0.0
 34
0.0
 15
279.4
 25
215.9
 35
0.0
146
0.0
 13
0.0
 23
0.0
 33
0.0
 16
1.0
 26
0.0
 36
0.0
 17
0.0
 27
1.0
 37
0.0
 76
     0
330
1F
331
29
  0
MLINESTYLE
  5
18
102
{ACAD_REACTORS
330
17
102
}
330
17
100
AcDbMlineStyle
  2
Standard
 70
     0
  3

 62
   256
 51
90.0
 52
90.0
 71
     2
 49
0.5
 62
   256
  6
BYLAYER
 49
-0.5
 62
   256
  6
BYLAYER
  0
ACDBPLACEHOLDER
  5
F
102
{ACAD_REACTORS
330
E
102
}
330
E
  0
SCALE
  5
48
102
{ACAD_REACTORS
330
47
102
}
330
47
100
AcDbScale
 70
     0
300
1:1
140
1.0
141
1.0
290
     1
  0
SCALE
  5
49
102
{ACAD_REACTORS
330
47
102
}
330
47
100
AcDbScale
 70
     0
300
1:2
140
1.0
141
2.0
290
     0
  0
SCALE
  5
4A
102
{ACAD_REACTORS
330
47
102
}
330
47
100
AcDbScale
 70
     0
300
1:4
140
1.0
141
4.0
290
     0
  0
SCALE
  5
4B
102
{ACAD_REACTORS
330
47
102
}
330
47
100
AcDbScale
 70
     0
300
1:5
140
1.0
141
5.0
290
     0
  0
SCALE
  5
4C
102
{ACAD_REACTORS
330
47
102
}
330
47
100
AcDbScale
 70
     0
300
1:8
140
1.0
141
8.0
290
     0
  0
SCALE
  5
4D
102
{ACAD_REACTORS
330
47
102
}
330
47
100
AcDbScale
 70
     0
300
1:10
140
1.0
141
10.0
290
     0
  0
SCALE
  5
4E
102
{ACAD_REACTORS
330
47
102
}
330
47
100
AcDbScale
 70
     0
300
1:16
140
1.0
141
16.0
290
     0
  0
SCALE
  5
4F
102
{ACAD_REACTORS
330
47
102
}
330
47
100
AcDbScale
 70
     0
300
1:20
140
1.0
141
20.0
290
     0
  0
SCALE
  5
50
102
{ACAD_REACTORS
330
47
102
}
330
47
100
AcDbScale
 70
     0
300
1:30
140
1.0
141
30.0
290
     0
  0
SCALE
  5
51
102
{ACAD_REACTORS
330
47
102
}
330
47
100
AcDbScale
 70
     0
300
1:40
140
1.0
141
40.0
290
     0
  0
SCALE
  5
52
102
{ACAD_REACTORS
330
47
102
}
330
47
100
AcDbScale
 70
     0
300
1:50
140
1.0
141
50.0
290
     0
  0
SCALE
  5
53
102
{ACAD_REACTORS
330
47
102
}
330
47
100
AcDbScale
 70
     0
300
1:100
140
1.0
141
100.0
290
     0
  0
SCALE
  5
54
102
{ACAD_REACTORS
330
47
102
}
330
47
100
AcDbScale
 70
     0
300
2:1
140
2.0
141
1.0
290
     0
  0
SCALE
  5
55
102
{ACAD_REACTORS
330
47
102
}
330
47
100
AcDbScale
 70
     0
300
4:1
140
4.0
141
1.0
290
     0
  0
SCALE
  5
56
102
{ACAD_REACTORS
330
47
102
}
330
47
100
AcDbScale
 70
     0
300
8:1
140
8.0
141
1.0
290
     0
  0
SCALE
  5
57
102
{ACAD_REACTORS
330
47
102
}
330
47
100
AcDbScale
 70
     0
300
10:1
140
10.0
141
1.0
290
     0
  0
SCALE
  5
58
102
{ACAD_REACTORS
330
47
102
}
330
47
100
AcDbScale
 70
     0
300
100:1
140
100.0
141
1.0
290
     0
  0
SCALE
  5
59
102
{ACAD_REACTORS
330
47
102
}
330
47
100
AcDbScale
 70
     0
300
1/128" = 1'-0"
140
0.0078125
141
12.0
290
     0
  0
SCALE
  5
5A
102
{ACAD_REACTORS
330
47
102
}
330
47
100
AcDbScale
 70
     0
300
1/64" = 1'-0"
140
0.015625
141
12.0
290
     0
  0
SCALE
  5
5B
102
{ACAD_REACTORS
330
47
102
}
330
47
100
AcDbScale
 70
     0
300
1/32" = 1'-0"
140
0.03125
141
12.0
290
     0
  0
SCALE
  5
5C
102
{ACAD_REACTORS
330
47
102
}
330
47
100
AcDbScale
 70
     0
300
1/16" = 1'-0"
140
0.0625
141
12.0
290
     0
  0
SCALE
  5
5D
102
{ACAD_REACTORS
330
47
102
}
330
47
100
AcDbScale
 70
     0
300
3/32" = 1'-0"
140
0.09375
141
12.0
290
     0
  0
SCALE
  5
5E
102
{ACAD_REACTORS
330
47
102
}
330
47
100
AcDbScale
 70
     0
300
1/8" = 1'-0"
140
0.125
141
12.0
290
     0
  0
SCALE
  5
5F
102
{ACAD_REACTORS
330
47
102
}
330
47
100
AcDbScale
 70
     0
300
3/16" = 1'-0"
140
0.1875
141
12.0
290
     0
  0
SCALE
  5
60
102
{ACAD_REACTORS
330
47
102
}
330
47
100
AcDbScale
 70
     0
300
1/4" = 1'-0"
140
0.25
141
12.0
290
     0
  0
SCALE
  5
61
102
{ACAD_REACTORS
330
47
102
}
330
47
100
AcDbScale
 70
     0
300
3/8" = 1'-0"
140
0.375
141
12.0
290
     0
  0
SCALE
  5
62
102
{ACAD_REACTORS
330
47
102
}
330
47
100
AcDbScale
 70
     0
300
1/2" = 1'-0"
140
0.5
141
12.0
290
     0
  0
SCALE
  5
63
102
{ACAD_REACTORS
330
47
102
}
330
47
100
AcDbScale
 70
     0
300
3/4" = 1'-0"
140
0.75
141
12.0
290
     0
  0
SCALE
  5
64
102
{ACAD_REACTORS
330
47
102
}
330
47
100
AcDbScale
 70
     0
300
1" = 1'-0"
140
1.0
141
12.0
290
     0
  0
SCALE
  5
65
102
{ACAD_REACTORS
330
47
102
}
330
47
100
AcDbScale
 70
     0
300
1-1/2" = 1'-0"
140
1.5
141
12.0
290
     0
  0
SCALE
  5
66
102
{ACAD_REACTORS
330
47
102
}
330
47
100
AcDbScale
 70
     0
300
3" = 1'-0"
140
3.0
141
12.0
290
     0
  0
SCALE
  5
67
102
{ACAD_REACTORS
330
47
102
}
330
47
100
AcDbScale
 70
     0
300
6" = 1'-0"
140
6.0
141
12.0
290
     0
  0
SCALE
  5
68
102
{ACAD_REACTORS
330
47
102
}
330
47
100
AcDbScale
 70
     0
300
1'-0" = 1'-0"
140
12.0
141
12.0
290
     0
  0
ENDSEC
  0
EOF
