  0
SECTION
  2
HEADER
  9
$ACADVER
  1
AC1015
  9
$ACADMAINTVER
 70
     6
  9
$DWGCODEPAGE
  3
ANSI_1252
  9
$INSBASE
 10
0.0
 20
0.0
 30
0.0
  9
$EXTMIN
 10
0.0
 20
0.0
 30
0.0
  9
$EXTMAX
 10
279.4
 20
215.9
 30
0.0
  9
$LIMMIN
 10
0.0
 20
0.0
  9
$LIMMAX
 10
279.4
 20
215.9
  9
$ORTHOMODE
 70
     0
  9
$REGENMODE
 70
     1
  9
$FILLMODE
 70
     1
  9
$QTEXTMODE
 70
     0
  9
$MIRRTEXT
 70
     1
  9
$LTSCALE
 40
1.0
  9
$ATTMODE
 70
     1
  9
$TEXTSIZE
 40
2.8222222222
  9
$TRACEWID
 40
1.0
  9
$TEXTSTYLE
  7
Standard
  9
$CLAYER
  8
0
  9
$CELTYPE
  6
ByLayer
  9
$CECOLOR
 62
   256
  9
$CELTSCALE
 40
1.0
  9
$DISPSILH
 70
     0
  9
$DIMSCALE
 40
1.0
  9
$DIMASZ
 40
3.175
  9
$DIMEXO
 40
1.27
  9
$DIMDLI
 40
3.75
  9
$DIMRND
 40
0.0
  9
$DIMDLE
 40
0.0
  9
$DIMEXE
 40
1.778
  9
$DIMTP
 40
0.0
  9
$DIMTM
 40
0.0
  9
$DIMTXT
 40
2.8222222222
  9
$DIMCEN
 40
2.5
  9
$DIMTSZ
 40
0.0
  9
$DIMTOL
 70
     0
  9
$DIMLIM
 70
     0
  9
$DIMTIH
 70
     1
  9
$DIMTOH
 70
     1
  9
$DIMSE1
 70
     0
  9
$DIMSE2
 70
     0
  9
$DIMTAD
 70
     0
  9
$DIMZIN
 70
     1
  9
$DIMBLK
  1

  9
$DIMASO
 70
     1
  9
$DIMSHO
 70
     1
  9
$DIMPOST
  1

  9
$DIMAPOST
  1

  9
$DIMALT
 70
     0
  9
$DIMALTD
 70
     3
  9
$DIMALTF
 40
0.0393700787
  9
$DIMLFAC
 40
1.0
  9
$DIMTOFL
 70
     1
  9
$DIMTVP
 40
0.0
  9
$DIMTIX
 70
     0
  9
$DIMSOXD
 70
     0
  9
$DIMSAH
 70
     0
  9
$DIMBLK1
  1

  9
$DIMBLK2
  1

  9
$DIMSTYLE
  2
ISO-25
  9
$DIMCLRD
 70
     0
  9
$DIMCLRE
 70
     0
  9
$DIMCLRT
 70
     0
  9
$DIMTFAC
 40
1.0
  9
$DIMGAP
 40
2.54
  9
$DIMJUST
 70
     0
  9
$DIMSD1
 70
     0
  9
$DIMSD2
 70
     0
  9
$DIMTOLJ
 70
     0
  9
$DIMTZIN
 70
     1
  9
$DIMALTZ
 70
     0
  9
$DIMALTTZ
 70
     0
  9
$DIMUPT
 70
     0
  9
$DIMDEC
 70
     1
  9
$DIMTDEC
 70
     1
  9
$DIMALTU
 70
     2
  9
$DIMALTTD
 70
     3
  9
$DIMTXSTY
  7
Standard
  9
$DIMAUNIT
 70
     0
  9
$DIMADEC
 70
     0
  9
$DIMALTRND
 40
0.0
  9
$DIMAZIN
 70
     0
  9
$DIMDSEP
 70
    44
  9
$DIMATFIT
 70
     3
  9
$DIMFRAC
 70
     0
  9
$DIMLDRBLK
  1

  9
$DIMLUNIT
 70
     2
  9
$DIMLWD
 70
    -2
  9
$DIMLWE
 70
    -2
  9
$DIMTMOVE
 70
     0
  9
$LUNITS
 70
     2
  9
$LUPREC
 70
     1
  9
$SKETCHINC
 40
1.0
  9
$FILLETRAD
 40
10.0
  9
$AUNITS
 70
     0
  9
$AUPREC
 70
     0
  9
$MENU
  1
.
  9
$ELEVATION
 40
0.0
  9
$PELEVATION
 40
0.0
  9
$THICKNESS
 40
0.0
  9
$LIMCHECK
 70
     0
  9
$CHAMFERA
 40
0.0
  9
$CHAMFERB
 40
0.0
  9
$CHAMFERC
 40
0.0
  9
$CHAMFERD
 40
0.0
  9
$SKPOLY
 70
     0
  9
$TDCREATE
 40
2458470.648377488
  9
$TDUCREATE
 40
2458470.856710822
  9
$TDUPDATE
 40
2458470.648384479
  9
$TDUUPDATE
 40
2458470.856717812
  9
$TDINDWG
 40
0.0000000116
  9
$TDUSRTIMER
 40
0.0000000116
  9
$USRTIMER
 70
     1
  9
$ANGBASE
 50
0.0
  9
$ANGDIR
 70
     0
  9
$PDMODE
 70
     0
  9
$PDSIZE
 40
-1.0
  9
$PLINEWID
 40
0.0
  9
$SPLFRAME
 70
     0
  9
$SPLINETYPE
 70
     6
  9
$SPLINESEGS
 70
     8
  9
$HANDSEED
  5
271
  9
$SURFTAB1
 70
     6
  9
$SURFTAB2
 70
     6
  9
$SURFTYPE
 70
     6
  9
$SURFU
 70
     6
  9
$SURFV
 70
     6
  9
$UCSBASE
  2

  9
$UCSNAME
  2

  9
$UCSORG
 10
0.0
 20
0.0
 30
0.0
  9
$UCSXDIR
 10
1.0
 20
0.0
 30
0.0
  9
$UCSYDIR
 10
0.0
 20
1.0
 30
0.0
  9
$UCSORTHOREF
  2

  9
$UCSORTHOVIEW
 70
     0
  9
$UCSORGTOP
 10
0.0
 20
0.0
 30
0.0
  9
$UCSORGBOTTOM
 10
0.0
 20
0.0
 30
0.0
  9
$UCSORGLEFT
 10
0.0
 20
0.0
 30
0.0
  9
$UCSORGRIGHT
 10
0.0
 20
0.0
 30
0.0
  9
$UCSORGFRONT
 10
0.0
 20
0.0
 30
0.0
  9
$UCSORGBACK
 10
0.0
 20
0.0
 30
0.0
  9
$PUCSBASE
  2

  9
$PUCSNAME
  2

  9
$PUCSORG
 10
0.0
 20
0.0
 30
0.0
  9
$PUCSXDIR
 10
1.0
 20
0.0
 30
0.0
  9
$PUCSYDIR
 10
0.0
 20
1.0
 30
0.0
  9
$PUCSORTHOREF
  2

  9
$PUCSORTHOVIEW
 70
     0
  9
$PUCSORGTOP
 10
0.0
 20
0.0
 30
0.0
  9
$PUCSORGBOTTOM
 10
0.0
 20
0.0
 30
0.0
  9
$PUCSORGLEFT
 10
0.0
 20
0.0
 30
0.0
  9
$PUCSORGRIGHT
 10
0.0
 20
0.0
 30
0.0
  9
$PUCSORGFRONT
 10
0.0
 20
0.0
 30
0.0
  9
$PUCSORGBACK
 10
0.0
 20
0.0
 30
0.0
  9
$USERI1
 70
     0
  9
$USERI2
 70
     0
  9
$USERI3
 70
     0
  9
$USERI4
 70
     0
  9
$USERI5
 70
     0
  9
$USERR1
 40
0.0
  9
$USERR2
 40
0.0
  9
$USERR3
 40
0.0
  9
$USERR4
 40
0.0
  9
$USERR5
 40
0.0
  9
$WORLDVIEW
 70
     1
  9
$SHADEDGE
 70
     3
  9
$SHADEDIF
 70
    70
  9
$TILEMODE
 70
     1
  9
$MAXACTVP
 70
    64
  9
$PINSBASE
 10
0.0
 20
0.0
 30
0.0
  9
$PLIMCHECK
 70
     0
  9
$PEXTMIN
 10
1.0000000000E+20
 20
1.0000000000E+20
 30
1.0000000000E+20
  9
$PEXTMAX
 10
-1.0000000000E+20
 20
-1.0000000000E+20
 30
-1.0000000000E+20
  9
$PLIMMIN
 10
0.0
 20
0.0
  9
$PLIMMAX
 10
420.0
 20
297.0
  9
$UNITMODE
 70
     0
  9
$VISRETAIN
 70
     1
  9
$PLINEGEN
 70
     0
  9
$PSLTSCALE
 70
     1
  9
$TREEDEPTH
 70
  3020
  9
$CMLSTYLE
  2
Standard
  9
$CMLJUST
 70
     0
  9
$CMLSCALE
 40
20.0
  9
$PROXYGRAPHICS
 70
     1
  9
$MEASUREMENT
 70
     1
  9
$CELWEIGHT
370
    -1
  9
$ENDCAPS
280
     0
  9
$JOINSTYLE
280
     0
  9
$LWDISPLAY
290
     1
  9
$INSUNITS
 70
     4
  9
$HYPERLINKBASE
  1

  9
$STYLESHEET
  1

  9
$XEDIT
290
     1
  9
$CEPSNTYPE
380
     0
  9
$PSTYLEMODE
290
     1
  9
$FINGERPRINTGUID
  2
{9EFB86B5-F442-4962-B0A9-1E6054C89A03}
  9
$VERSIONGUID
  2
{FAEB1C32-E019-11D5-929B-00C0DF256EC4}
  9
$EXTNAMES
290
     1
  9
$PSVPSCALE
 40
0.0
  9
$OLESTARTUP
290
     0
  0
ENDSEC
  0
SECTION
  2
CLASSES
  0
CLASS
  1
ACDBDICTIONARYWDFLT
  2
AcDbDictionaryWithDefault
  3
ObjectDBX Classes
 90
        0
280
     0
281
     0
  0
CLASS
  1
VISUALSTYLE
  2
AcDbVisualStyle
  3
ObjectDBX Classes
 90
     4095
280
     0
281
     0
  0
CLASS
  1
MATERIAL
  2
AcDbMaterial
  3
ObjectDBX Classes
 90
     1153
280
     0
281
     0
  0
CLASS
  1
SCALE
  2
AcDbScale
  3
ObjectDBX Classes
 90
     1153
280
     0
281
     0
  0
CLASS
  1
TABLESTYLE
  2
AcDbTableStyle
  3
ObjectDBX Classes
 90
     4095
280
     0
281
     0
  0
CLASS
  1
MLEADERSTYLE
  2
AcDbMLeaderStyle
  3
ACDB_MLEADERSTYLE_CLASS
 90
     4095
280
     0
281
     0
  0
CLASS
  1
SUN
  2
AcDbSun
  3
SCENEOE
 90
     1153
280
     0
281
     0
  0
CLASS
  1
ACDBPLACEHOLDER
  2
AcDbPlaceHolder
  3
ObjectDBX Classes
 90
        0
280
     0
281
     0
  0
CLASS
  1
LAYOUT
  2
AcDbLayout
  3
ObjectDBX Classes
 90
        0
280
     0
281
     0
  0
ENDSEC
  0
SECTION
  2
TABLES
  0
TABLE
  2
VPORT
  5
8
330
0
100
AcDbSymbolTable
 70
     1
  0
VPORT
  5
29
330
8
100
AcDbSymbolTableRecord
100
AcDbViewportTableRecord
  2
*Active
 70
     0
 10
0.0
 20
0.0
 11
1.0
 21
1.0
 12
139.7
 22
107.95
 13
0.0
 23
0.0
 14
10.0
 24
10.0
 15
10.0
 25
10.0
 16
0.0
 26
0.0
 36
1.0
 17
0.0
 27
0.0
 37
0.0
 40
215.9
 41
1.2941176471
 42
50.0
 43
0.0
 44
0.0
 50
0.0
 51
0.0
 71
     0
 72
  2000
 73
     1
 74
     3
 75
     0
 76
     0
 77
     0
 78
     0
281
     0
 65
     1
110
0.0
120
0.0
130
0.0
111
1.0
121
0.0
131
0.0
112
0.0
122
1.0
132
0.0
 79
     0
146
0.0
  0
ENDTAB
  0
TABLE
  2
LTYPE
  5
5
330
0
100
AcDbSymbolTable
 70
     6
  0
LTYPE
  5
14
330
5
100
AcDbSymbolTableRecord
100
AcDbLinetypeTableRecord
  2
ByBlock
 70
     0
  3

 72
    65
 73
     0
 40
0.0
  0
LTYPE
  5
15
330
5
100
AcDbSymbolTableRecord
100
AcDbLinetypeTableRecord
  2
ByLayer
 70
     0
  3

 72
    65
 73
     0
 40
0.0
  0
LTYPE
  5
16
330
5
100
AcDbSymbolTableRecord
100
AcDbLinetypeTableRecord
  2
Continuous
 70
     0
  3
Solid line
 72
    65
 73
     0
 40
0.0
  0
LTYPE
  5
6E
330
5
100
AcDbSymbolTableRecord
100
AcDbLinetypeTableRecord
  2
HIDDEN
 70
     0
  3
Hidden __ __ __ __ __ __ __ __ __ __ __ __ __ __
 72
    65
 73
     2
 40
1.905
 49
1.27
 74
     0
 49
-0.635
 74
     0
  0
LTYPE
  5
6F
330
5
100
AcDbSymbolTableRecord
100
AcDbLinetypeTableRecord
  2
PHANTOM
 70
     0
  3
Phantom ______  __  __  ______  __  __  ______
 72
    65
 73
     6
 40
12.7
 49
6.35
 74
     0
 49
-1.27
 74
     0
 49
1.27
 74
     0
 49
-1.27
 74
     0
 49
1.27
 74
     0
 49
-1.27
 74
     0
  0
LTYPE
  5
70
330
5
100
AcDbSymbolTableRecord
100
AcDbLinetypeTableRecord
  2
CENTER
 70
     0
  3
Center ____ _ ____ _ ____ _ ____ _ ____ _ ____
 72
    65
 73
     4
 40
10.16
 49
6.35
 74
     0
 49
-1.27
 74
     0
 49
1.27
 74
     0
 49
-1.27
 74
     0
  0
LTYPE
  5
71
330
5
100
AcDbSymbolTableRecord
100
AcDbLinetypeTableRecord
  2
CENTERX2
 70
     0
  3
Center (2x) ________  __  ________  __  _____
 72
    65
 73
     4
 40
20.32
 49
12.7
 74
     0
 49
-2.54
 74
     0
 49
2.54
 74
     0
 49
-2.54
 74
     0
  0
LTYPE
  5
72
330
5
100
AcDbSymbolTableRecord
100
AcDbLinetypeTableRecord
  2
DOT2
 70
     0
  3
Dot (.5x) ........................................
 72
    65
 73
     2
 40
0.635
 49
0.0
 74
     0
 49
-0.635
 74
     0
  0
ENDTAB
  0
TABLE
  2
LAYER
  5
2
330
0
100
AcDbSymbolTable
 70
     2
  0
LAYER
  5
10
330
2
100
AcDbSymbolTableRecord
100
AcDbLayerTableRecord
  2
0
 70
     0
 62
     7
  6
Continuous
370
    -3
390
F
  0
LAYER
  5
73
330
2
100
AcDbSymbolTableRecord
100
AcDbLayerTableRecord
  2
FORMAT
 70
     0
 62
     7
  6
Continuous
370
    -3
390
F
  0
ENDTAB
  0
TABLE
  2
STYLE
  5
3
330
0
100
AcDbSymbolTable
 70
     5
  0
STYLE
  5
11
330
3
100
AcDbSymbolTableRecord
100
AcDbTextStyleTableRecord
  2
Standard
 70
     0
 40
0.0
 41
1.0
 50
0.0
 71
     0
 42
2.8222222222
  3
txt
  4

  0
STYLE
  5
9D
330
3
100
AcDbSymbolTableRecord
100
AcDbTextStyleTableRecord
  2
SLDTEXTSTYLE0
 70
     0
 40
0.0
 41
0.75
 50
0.0
 71
     0
 42
2.8222222222
  3
TXT
  4

  0
STYLE
  5
A3
330
3
100
AcDbSymbolTableRecord
100
AcDbTextStyleTableRecord
  2
SLDTEXTSTYLE1
 70
     0
 40
0.0
 41
0.75
 50
0.0
 71
     0
 42
2.8222222222
  3
TXT
  4
bigfont
  0
STYLE
  5
B7
330
3
100
AcDbSymbolTableRecord
100
AcDbTextStyleTableRecord
  2
SLDTEXTSTYLE2
 70
     0
 40
0.0
 41
0.7
 50
0.0
 71
     0
 42
2.8222222222
  3
TXT
  4

  0
STYLE
  5
C6
330
3
100
AcDbSymbolTableRecord
100
AcDbTextStyleTableRecord
  2
SLDTEXTSTYLE3
 70
     0
 40
0.0
 41
0.6
 50
0.0
 71
     0
 42
2.8222222222
  3
TXT
  4

  0
ENDTAB
  0
TABLE
  2
VIEW
  5
6
330
0
100
AcDbSymbolTable
 70
     0
  0
ENDTAB
  0
TABLE
  2
UCS
  5
7
330
0
100
AcDbSymbolTable
 70
     0
  0
ENDTAB
  0
TABLE
  2
APPID
  5
9
330
0
100
AcDbSymbolTable
 70
     1
  0
APPID
  5
12
330
9
100
AcDbSymbolTableRecord
100
AcDbRegAppTableRecord
  2
ACAD
 70
     0
  0
ENDTAB
  0
TABLE
  2
DIMSTYLE
  5
A
330
0
100
AcDbSymbolTable
 70
     6
100
AcDbDimStyleTable
  0
DIMSTYLE
105
27
330
A
100
AcDbSymbolTableRecord
100
AcDbDimStyleTableRecord
  2
ISO-25
 70
     0
 41
2.5
 42
0.625
 43
3.75
 44
1.25
 73
     0
 74
     0
 77
     1
 78
     8
140
2.5
141
2.5
143
0.0393700787
147
0.625
171
     3
172
     1
178
     0
271
     2
272
     2
274
     3
278
    44
283
     0
284
     8
340
11
  0
DIMSTYLE
105
F5
102
{ACAD_REACTORS
330
F4
102
}
330
A
100
AcDbSymbolTableRecord
100
AcDbDimStyleTableRecord
  2
SLDDIMSTYLE0
 70
     0
 41
3.175
 44
0.0
 45
0.000000001
 78
    12
 79
     3
140
2.1166666667
141
0.0
143
0.0393700787
147
0.5291666667
148
0.000000001
170
     1
173
     1
178
     0
271
     1
272
     1
276
     2
284
    12
340
9D
  0
DIMSTYLE
105
11C
102
{ACAD_REACTORS
330
11B
102
}
330
A
100
AcDbSymbolTableRecord
100
AcDbDimStyleTableRecord
  2
SLDDIMSTYLE1
 70
     0
 41
3.175
 44
0.0
 45
0.000000001
 78
    12
 79
     3
140
2.1166666667
143
0.0393700787
147
0.5291666667
148
0.000000001
170
     1
172
     1
173
     1
178
     0
271
     1
272
     1
276
     2
284
    12
289
     0
340
9D
  0
DIMSTYLE
105
130
102
{ACAD_REACTORS
330
12F
102
}
330
A
100
AcDbSymbolTableRecord
100
AcDbDimStyleTableRecord
  2
SLDDIMSTYLE2
 70
     0
 41
3.175
 44
0.0
 45
0.000000001
 78
     4
 79
     1
140
2.1166666667
141
0.0
143
0.0393700787
147
0.5291666667
148
0.000000001
170
     1
173
     1
178
     0
271
     1
272
     1
276
     2
284
    12
340
9D
  0
DIMSTYLE
105
141
102
{ACAD_REACTORS
330
140
102
}
330
A
100
AcDbSymbolTableRecord
100
AcDbDimStyleTableRecord
  2
SLDDIMSTYLE3
 70
     0
 41
3.175
 44
0.0
 45
0.000000001
 78
     4
 79
     1
140
2.1166666667
143
0.0393700787
147
0.5291666667
148
0.000000001
170
     1
172
     1
173
     1
178
     0
271
     1
272
     1
276
     2
284
    12
289
     0
340
9D
  0
DIMSTYLE
105
157
330
A
100
AcDbSymbolTableRecord
100
AcDbDimStyleTableRecord
  2
SLDDIMSTYLE4
 70
     0
 41
3.175
 44
0.0
 45
0.000000001
146
3.175
147
0.0
173
     1
178
     0
271
     0
272
     0
276
     2
340
11
  0
ENDTAB
  0
TABLE
  2
BLOCK_RECORD
  5
1
330
0
100
AcDbSymbolTable
 70
    11
  0
BLOCK_RECORD
  5
1F
330
1
100
AcDbSymbolTableRecord
100
AcDbBlockTableRecord
  2
*Model_Space
340
22
  0
BLOCK_RECORD
  5
1B
330
1
100
AcDbSymbolTableRecord
100
AcDbBlockTableRecord
  2
*Paper_Space
340
1E
  0
BLOCK_RECORD
  5
23
330
1
100
AcDbSymbolTableRecord
100
AcDbBlockTableRecord
  2
*Paper_Space0
340
26
  0
BLOCK_RECORD
  5
74
330
1
100
AcDbSymbolTableRecord
100
AcDbBlockTableRecord
  2
Third Angle Projection Block
340
0
102
{BLKREFS
331
99
102
}
  0
BLOCK_RECORD
  5
9A
330
1
100
AcDbSymbolTableRecord
100
AcDbBlockTableRecord
  2
SW_NOTE_0
340
0
102
{BLKREFS
331
BA
102
}
  0
BLOCK_RECORD
  5
CC
330
1
100
AcDbSymbolTableRecord
100
AcDbBlockTableRecord
  2
SW_NOTE_1
340
0
102
{BLKREFS
331
D1
102
}
  0
BLOCK_RECORD
  5
D2
330
1
100
AcDbSymbolTableRecord
100
AcDbBlockTableRecord
  2
SW_NOTE_2
340
0
102
{BLKREFS
331
D7
102
}
  0
BLOCK_RECORD
  5
D9
330
1
100
AcDbSymbolTableRecord
100
AcDbBlockTableRecord
  2
SW_NOTE_3
340
0
102
{BLKREFS
331
DE
102
}
  0
BLOCK_RECORD
  5
DF
330
1
100
AcDbSymbolTableRecord
100
AcDbBlockTableRecord
  2
SW_NOTE_4
340
0
102
{BLKREFS
331
E5
102
}
  0
BLOCK_RECORD
  5
F6
330
1
100
AcDbSymbolTableRecord
100
AcDbBlockTableRecord
  2
_D
340
0
  0
BLOCK_RECORD
  5
11D
330
1
100
AcDbSymbolTableRecord
100
AcDbBlockTableRecord
  2
_D_1
340
0
  0
BLOCK_RECORD
  5
131
330
1
100
AcDbSymbolTableRecord
100
AcDbBlockTableRecord
  2
_D_2
340
0
  0
BLOCK_RECORD
  5
142
330
1
100
AcDbSymbolTableRecord
100
AcDbBlockTableRecord
  2
_D_3
340
0
  0
ENDTAB
  0
ENDSEC
  0
SECTION
  2
BLOCKS
  0
BLOCK
  5
20
330
1F
100
AcDbEntity
  8
0
100
AcDbBlockBegin
  2
*Model_Space
 70
     0
 10
0.0
 20
0.0
 30
0.0
  3
*Model_Space
  1

  0
ENDBLK
  5
21
330
1F
100
AcDbEntity
  8
0
100
AcDbBlockEnd
  0
BLOCK
  5
1C
330
1B
100
AcDbEntity
 67
     1
  8
0
100
AcDbBlockBegin
  2
*Paper_Space
 70
     0
 10
0.0
 20
0.0
 30
0.0
  3
*Paper_Space
  1

  0
ENDBLK
  5
1D
330
1B
100
AcDbEntity
 67
     1
  8
0
100
AcDbBlockEnd
  0
BLOCK
  5
24
330
23
100
AcDbEntity
  8
0
100
AcDbBlockBegin
  2
*Paper_Space0
 70
     0
 10
0.0
 20
0.0
 30
0.0
  3
*Paper_Space0
  1

  0
ENDBLK
  5
25
330
23
100
AcDbEntity
  8
0
100
AcDbBlockEnd
  0
BLOCK
  5
75
330
74
100
AcDbEntity
  8
0
100
AcDbBlockBegin
  2
Third Angle Projection Block
 70
     0
 10
0.0
 20
0.0
 30
0.0
  3
Third Angle Projection Block
  1

  0
CIRCLE
  5
77
330
74
100
AcDbEntity
  8
0
  6
Continuous
 62
     7
370
    35
100
AcDbCircle
 10
101.4766388944
 20
18.9404083667
 30
0.0
 40
1.768227153674871
  0
CIRCLE
  5
78
330
74
100
AcDbEntity
  8
0
  6
Continuous
 62
     7
370
    35
100
AcDbCircle
 10
101.4766388944
 20
18.9404083667
 30
0.0
 40
3.901228248531818
  0
LINE
  5
79
330
74
100
AcDbEntity
  8
0
  6
CENTERX2
 62
     7
370
    18
100
AcDbLine
 10
110.1367822585
 20
18.9404083667
 30
0.0
 11
119.4527334874
 21
18.9404083667
 31
0.0
  0
LINE
  5
7A
330
74
100
AcDbEntity
  8
0
  6
Continuous
 62
     7
370
    35
100
AcDbLine
 10
111.0016388944
 20
20.7086355204
 30
0.0
 11
111.0016388944
 21
17.172181213
 31
0.0
  0
LINE
  5
7B
330
74
100
AcDbEntity
  8
0
  6
Continuous
 62
     7
370
    35
100
AcDbLine
 10
111.0016388944
 20
17.172181213
 30
0.0
 11
118.6216388944
 21
15.1304083667
 31
0.0
  0
LINE
  5
7C
330
74
100
AcDbEntity
  8
0
  6
Continuous
 62
     7
370
    35
100
AcDbLine
 10
118.6216388944
 20
15.1304083667
 30
0.0
 11
118.6216388944
 21
22.7504083667
 31
0.0
  0
LINE
  5
7D
330
74
100
AcDbEntity
  8
0
  6
Continuous
 62
     7
370
    35
100
AcDbLine
 10
118.6216388944
 20
22.7504083667
 30
0.0
 11
111.0016388944
 21
20.7086355204
 31
0.0
  0
LINE
  5
7E
330
74
100
AcDbEntity
  8
0
  6
CENTERX2
 62
     7
370
    18
100
AcDbLine
 10
96.6025854619
 20
18.9404083667
 30
0.0
 11
106.3506923269
 21
18.9404083667
 31
0.0
  0
LINE
  5
7F
330
74
100
AcDbEntity
  8
0
  6
CENTERX2
 62
     7
370
    18
100
AcDbLine
 10
101.4766388944
 20
23.8144617992
 30
0.0
 11
101.4766388944
 21
14.0663549342
 31
0.0
  0
POINT
  5
80
330
74
100
AcDbEntity
  8
0
  6
Continuous
 62
     7
370
     0
100
AcDbPoint
 10
101.4766388944
 20
18.9404083667
 30
0.0
  0
ENDBLK
  5
76
330
74
100
AcDbEntity
  8
0
100
AcDbBlockEnd
  0
BLOCK
  5
9B
330
9A
100
AcDbEntity
  8
0
100
AcDbBlockBegin
  2
SW_NOTE_0
 70
     0
 10
0.0
 20
0.0
 30
0.0
  3
SW_NOTE_0
  1

  0
MTEXT
  5
9E
330
9A
100
AcDbEntity
  8
0
  6
Continuous
 62
     0
370
     0
100
AcDbMText
 10
0.0
 20
3.4106583948
 30
0.0
 40
2.6458333333
 41
0.0
 71
     1
 72
     1
  1
NOTES/SPECIFICATIONS:
  7
SLDTEXTSTYLE0
 73
     1
 44
1.0
  0
MTEXT
  5
9F
330
9A
100
AcDbEntity
  8
0
  6
Continuous
 62
     0
370
     0
100
AcDbMText
 10
9.9999997765
 20
-5.6448974033
 30
0.0
 40
2.6458333333
 41
0.0
 71
     1
 72
     1
  1
CLEAR APERTURE: >
  7
SLDTEXTSTYLE0
 73
     1
 44
1.0
  0
MTEXT
  5
A0
330
9A
100
AcDbEntity
  8
0
  6
Continuous
 62
     0
370
     0
100
AcDbMText
 10
42.7789334208
 20
-5.6448974033
 30
0.0
 40
2.6458333333
 41
0.0
 71
     1
 72
     1
  1
%%c
  7
SLDTEXTSTYLE0
 73
     1
 44
1.0
  0
MTEXT
  5
A1
330
9A
100
AcDbEntity
  8
0
  6
Continuous
 62
     0
370
     0
100
AcDbMText
 10
46.7726718634
 20
-5.6448974033
 30
0.0
 40
2.6458333333
 41
0.0
 71
     1
 72
     1
  1
45.72mm
  7
SLDTEXTSTYLE0
 73
     1
 44
1.0
  0
MTEXT
  5
A2
330
9A
100
AcDbEntity
  8
0
  6
Continuous
 62
     0
370
     0
100
AcDbMText
 10
0.0
 20
-5.6448974033
 30
0.0
 40
2.6458333333
 41
0.0
 71
     1
 72
     1
  1
1.
  7
SLDTEXTSTYLE0
 73
     1
 44
1.0
  0
MTEXT
  5
A4
330
9A
100
AcDbEntity
  8
0
  6
Continuous
 62
     0
370
     0
100
AcDbMText
 10
9.9999997765
 20
-10.1726753024
 30
0.0
 40
2.6458333333
 41
0.0
 71
     1
 72
     1
  1
SURFACE IRREGULARITY (S1): \U+2264\M+183C9/4 AT 633nm OVER CLEAR APERTURE
  7
SLDTEXTSTYLE1
 73
     1
 44
1.0
  0
MTEXT
  5
A5
330
9A
100
AcDbEntity
  8
0
  6
Continuous
 62
     0
370
     0
100
AcDbMText
 10
0.0
 20
-10.1726753024
 30
0.0
 40
2.6458333333
 41
0.0
 71
     1
 72
     1
  1
2.
  7
SLDTEXTSTYLE0
 73
     1
 44
1.0
  0
MTEXT
  5
A6
330
9A
100
AcDbEntity
  8
0
  6
Continuous
 62
     0
370
     0
100
AcDbMText
 10
9.9999997765
 20
-14.7004532014
 30
0.0
 40
2.6458333333
 41
0.0
 71
     1
 72
     1
  1
BACK SURFACE (S2): UNIFORM FINE GRIND #12-#20 GRIT
  7
SLDTEXTSTYLE0
 73
     1
 44
1.0
  0
MTEXT
  5
A7
330
9A
100
AcDbEntity
  8
0
  6
Continuous
 62
     0
370
     0
100
AcDbMText
 10
0.0
 20
-14.7004532014
 30
0.0
 40
2.6458333333
 41
0.0
 71
     1
 72
     1
  1
3.
  7
SLDTEXTSTYLE0
 73
     1
 44
1.0
  0
MTEXT
  5
A8
330
9A
100
AcDbEntity
  8
0
  6
Continuous
 62
     0
370
     0
100
AcDbMText
 10
9.9999997765
 20
-19.2282311005
 30
0.0
 40
2.6458333333
 41
0.0
 71
     1
 72
     1
  1
SURFACE QUALITY(S1): 20-10 SCRATCH-DIG
  7
SLDTEXTSTYLE0
 73
     1
 44
1.0
  0
MTEXT
  5
A9
330
9A
100
AcDbEntity
  8
0
  6
Continuous
 62
     0
370
     0
100
AcDbMText
 10
0.0
 20
-19.2282311005
 30
0.0
 40
2.6458333333
 41
0.0
 71
     1
 72
     1
  1
4.
  7
SLDTEXTSTYLE0
 73
     1
 44
1.0
  0
MTEXT
  5
AA
330
9A
100
AcDbEntity
  8
0
  6
Continuous
 62
     0
370
     0
100
AcDbMText
 10
9.9999997765
 20
-23.7560089995
 30
0.0
 40
2.6458333333
 41
0.0
 71
     1
 72
     1
  1
THICKNESS TOLERANCE:
  7
SLDTEXTSTYLE0
 73
     1
 44
1.0
  0
MTEXT
  5
AB
330
9A
100
AcDbEntity
  8
0
  6
Continuous
 62
     0
370
     0
100
AcDbMText
 10
50.8242268115
 20
-23.7560089995
 30
0.0
 40
2.6458333333
 41
0.0
 71
     1
 72
     1
  1
%%p
  7
SLDTEXTSTYLE0
 73
     1
 44
1.0
  0
MTEXT
  5
AC
330
9A
100
AcDbEntity
  8
0
  6
Continuous
 62
     0
370
     0
100
AcDbMText
 10
53.3465910703
 20
-23.7560089995
 30
0.0
 40
2.6458333333
 41
0.0
 71
     1
 72
     1
  1
0.1 mm
  7
SLDTEXTSTYLE0
 73
     1
 44
1.0
  0
MTEXT
  5
AD
330
9A
100
AcDbEntity
  8
0
  6
Continuous
 62
     0
370
     0
100
AcDbMText
 10
0.0
 20
-23.7560089995
 30
0.0
 40
2.6458333333
 41
0.0
 71
     1
 72
     1
  1
5.
  7
SLDTEXTSTYLE0
 73
     1
 44
1.0
  0
MTEXT
  5
AE
330
9A
100
AcDbEntity
  8
0
  6
Continuous
 62
     0
370
     0
100
AcDbMText
 10
9.9999997765
 20
-28.2837868986
 30
0.0
 40
2.6458333333
 41
0.0
 71
     1
 72
     1
  1
DIAMETER TOLERANCE: +0.0/-0.2 mm
  7
SLDTEXTSTYLE0
 73
     1
 44
1.0
  0
MTEXT
  5
AF
330
9A
100
AcDbEntity
  8
0
  6
Continuous
 62
     0
370
     0
100
AcDbMText
 10
0.0
 20
-28.2837868986
 30
0.0
 40
2.6458333333
 41
0.0
 71
     1
 72
     1
  1
6.
  7
SLDTEXTSTYLE0
 73
     1
 44
1.0
  0
MTEXT
  5
B0
330
9A
100
AcDbEntity
  8
0
  6
Continuous
 62
     0
370
     0
100
AcDbMText
 10
9.9999997765
 20
-32.8115647976
 30
0.0
 40
2.6458333333
 41
0.0
 71
     1
 72
     1
  1
DESIGN WAVELENGTH RANGE: 400-750nm
  7
SLDTEXTSTYLE0
 73
     1
 44
1.0
  0
MTEXT
  5
B1
330
9A
100
AcDbEntity
  8
0
  6
Continuous
 62
     0
370
     0
100
AcDbMText
 10
0.0
 20
-32.8115647976
 30
0.0
 40
2.6458333333
 41
0.0
 71
     1
 72
     1
  1
7.
  7
SLDTEXTSTYLE0
 73
     1
 44
1.0
  0
MTEXT
  5
B2
330
9A
100
AcDbEntity
  8
0
  6
Continuous
 62
     0
370
     0
100
AcDbMText
 10
9.9999997765
 20
-37.3393426967
 30
0.0
 40
2.6458333333
 41
0.0
 71
     1
 72
     1
  1
COATING(S1): BROADBAND HR, DIELECTRIC
  7
SLDTEXTSTYLE0
 73
     1
 44
1.0
  0
MTEXT
  5
B3
330
9A
100
AcDbEntity
  8
0
  6
Continuous
 62
     0
370
     0
100
AcDbMText
 10
0.0
 20
-37.3393426967
 30
0.0
 40
2.6458333333
 41
0.0
 71
     1
 72
     1
  1
8.
  7
SLDTEXTSTYLE0
 73
     1
 44
1.0
  0
MTEXT
  5
B4
330
9A
100
AcDbEntity
  8
0
  6
Continuous
 62
     0
370
     0
100
AcDbMText
 10
34.8828125
 20
-41.8671205958
 30
0.0
 40
2.6458333333
 41
0.0
 71
     1
 72
     1
  1
Rs and Rp >99% AVERAGE OVER WAVELENGTH RANGE
  7
SLDTEXTSTYLE0
 73
     1
 44
1.0
  0
MTEXT
  5
B5
330
9A
100
AcDbEntity
  8
0
  6
Continuous
 62
     0
370
     0
100
AcDbMText
 10
34.7265625
 20
-46.3948984948
 30
0.0
 40
2.6458333333
 41
0.0
 71
     1
 72
     1
  1
AOI: 0
  7
SLDTEXTSTYLE0
 73
     1
 44
1.0
  0
MTEXT
  5
B6
330
9A
100
AcDbEntity
  8
0
  6
Continuous
 62
     0
370
     0
100
AcDbMText
 10
44.5087961853
 20
-46.3948984948
 30
0.0
 40
2.6458333333
 41
0.0
 71
     1
 72
     1
  1
%%d
  7
SLDTEXTSTYLE0
 73
     1
 44
1.0
  0
MTEXT
  5
B8
330
9A
100
AcDbEntity
  8
0
  6
Continuous
 62
     0
370
     0
100
AcDbMText
 10
47.1825573742
 20
-46.3948984948
 30
0.0
 40
2.6458333333
 41
0.0
 71
     1
 72
     1
  1
TO 45
  7
SLDTEXTSTYLE2
 73
     1
 44
1.0
  0
MTEXT
  5
B9
330
9A
100
AcDbEntity
  8
0
  6
Continuous
 62
     0
370
     0
100
AcDbMText
 10
56.621812284
 20
-46.3948984948
 30
0.0
 40
2.6458333333
 41
0.0
 71
     1
 72
     1
  1
%%d
  7
SLDTEXTSTYLE0
 73
     1
 44
1.0
  0
ENDBLK
  5
9C
330
9A
100
AcDbEntity
  8
0
100
AcDbBlockEnd
  0
BLOCK
  5
CD
330
CC
100
AcDbEntity
  8
0
100
AcDbBlockBegin
  2
SW_NOTE_1
 70
     0
 10
0.0
 20
0.0
 30
0.0
  3
SW_NOTE_1
  1

  0
MTEXT
  5
CF
330
CC
100
AcDbEntity
  8
0
  6
Continuous
 62
     0
370
     0
100
AcDbMText
 10
19.90725
 20
1.9645392354
 30
0.0
 40
1.524
 41
0.0
 71
     2
 72
     1
  1
VALUES IN PARENTHESIS ARE CALCULATED
  7
SLDTEXTSTYLE0
 73
     1
 44
1.0
  0
MTEXT
  5
D0
330
CC
100
AcDbEntity
  8
0
  6
Continuous
 62
     0
370
     0
100
AcDbMText
 10
19.8778795174
 20
-0.5594606586
 30
0.0
 40
1.524
 41
0.0
 71
     2
 72
     1
  1
AND MAY CONTAIN ROUNDOFF ERRORS
  7
SLDTEXTSTYLE0
 73
     1
 44
1.0
  0
ENDBLK
  5
CE
330
CC
100
AcDbEntity
  8
0
100
AcDbBlockEnd
  0
BLOCK
  5
D3
330
D2
100
AcDbEntity
  8
0
100
AcDbBlockBegin
  2
SW_NOTE_2
 70
     0
 10
0.0
 20
0.0
 30
0.0
  3
SW_NOTE_2
  1

  0
MTEXT
  5
D5
330
D2
100
AcDbEntity
  8
0
  6
Continuous
 62
     0
370
     0
100
AcDbMText
 10
0.0
 20
2.7285267159
 30
0.0
 40
2.1166666667
 41
0.0
 71
     1
 72
     1
  1
DRAWING
  7
SLDTEXTSTYLE0
 73
     1
 44
1.0
  0
MTEXT
  5
D6
330
D2
100
AcDbEntity
  8
0
  6
Continuous
 62
     0
370
     0
100
AcDbMText
 10
0.0
 20
-0.0936954723
 30
0.0
 40
2.1166666667
 41
0.0
 71
     1
 72
     1
  1
PROJECTION
  7
SLDTEXTSTYLE0
 73
     1
 44
1.0
  0
ENDBLK
  5
D4
330
D2
100
AcDbEntity
  8
0
100
AcDbBlockEnd
  0
BLOCK
  5
DA
330
D9
100
AcDbEntity
  8
0
100
AcDbBlockBegin
  2
SW_NOTE_3
 70
     0
 10
0.0
 20
0.0
 30
0.0
  3
SW_NOTE_3
  1

  0
MTEXT
  5
DC
330
D9
100
AcDbEntity
  8
0
  6
Continuous
 62
     0
370
     0
100
AcDbMText
 10
25.052734375
 20
4.0927900738
 30
0.0
 40
3.175
 41
0.0
 71
     2
 72
     1
  1
FOR INFORMATION ONLY
  7
SLDTEXTSTYLE0
 73
     1
 44
1.0
  0
MTEXT
  5
DD
330
D9
100
AcDbEntity
  8
0
  6
Continuous
 62
     0
370
     0
100
AcDbMText
 10
25.3768468589
 20
-0.1405432084
 30
0.0
 40
3.175
 41
0.0
 71
     2
 72
     1
  1
NOT FOR MANUFACTURING PURPOSES
  7
SLDTEXTSTYLE0
 73
     1
 44
1.0
  0
ENDBLK
  5
DB
330
D9
100
AcDbEntity
  8
0
100
AcDbBlockEnd
  0
BLOCK
  5
E0
330
DF
100
AcDbEntity
  8
0
100
AcDbBlockBegin
  2
SW_NOTE_4
 70
     0
 10
0.0
 20
0.0
 30
0.0
  3
SW_NOTE_4
  1

  0
MTEXT
  5
E2
330
DF
100
AcDbEntity
  8
0
  6
Continuous
 62
     0
370
     0
100
AcDbMText
 10
1.9016927083
 20
3.4106583948
 30
0.0
 40
2.6458333333
 41
0.0
 71
     2
 72
     1
  1
%%c
  7
SLDTEXTSTYLE0
 73
     1
 44
1.0
  0
MTEXT
  5
E3
330
DF
100
AcDbEntity
  8
0
  6
Continuous
 62
     0
370
     0
100
AcDbMText
 10
30.4107306302
 20
3.4106583948
 30
0.0
 40
2.6458333333
 41
0.0
 71
     2
 72
     1
  1
50.8mm, f=500mm BROADBAND
  7
SLDTEXTSTYLE0
 73
     1
 44
1.0
  0
MTEXT
  5
E4
330
DF
100
AcDbEntity
  8
0
  6
Continuous
 62
     0
370
     0
100
AcDbMText
 10
28.8677029709
 20
-0.1171193403
 30
0.0
 40
2.6458333333
 41
0.0
 71
     2
 72
     1
  1
MIRROR 400-750nm
  7
SLDTEXTSTYLE0
 73
     1
 44
1.0
  0
ENDBLK
  5
E1
330
DF
100
AcDbEntity
  8
0
100
AcDbBlockEnd
  0
BLOCK
  5
F7
330
F6
100
AcDbEntity
  8
0
100
AcDbBlockBegin
  2
_D
 70
     0
 10
0.0
 20
0.0
 30
0.0
  3
_D
  1

  0
SOLID
  5
F9
330
F6
100
AcDbEntity
  8
0
  6
Continuous
 62
     7
370
    18
100
AcDbTrace
 10
71.7215110997
 20
140.1851229428
 30
0.0
 11
74.3257853748
 21
142.0709767282
 31
0.0
 12
73.6073648852
 22
142.7893972179
 32
0.0
 13
73.6073648852
 23
142.7893972179
 33
0.0
  0
LINE
  5
FA
330
F6
100
AcDbEntity
  8
0
  6
Continuous
 62
     7
370
    18
100
AcDbLine
 10
89.7906179012
 20
151.5854819959
 30
0.0
 11
89.146798447
 21
151.5854819959
 31
0.0
  0
LINE
  5
FB
330
F6
100
AcDbEntity
  8
0
  6
Continuous
 62
     7
370
    18
100
AcDbLine
 10
89.146798447
 20
151.5854819959
 30
0.0
 11
89.146798447
 21
148.2223339195
 31
0.0
  0
LINE
  5
FC
330
F6
100
AcDbEntity
  8
0
  6
Continuous
 62
     7
370
    18
100
AcDbLine
 10
89.146798447
 20
148.2223339195
 30
0.0
 11
89.7906179012
 21
148.2223339195
 31
0.0
  0
LINE
  5
FD
330
F6
100
AcDbEntity
  8
0
  6
Continuous
 62
     7
370
    18
100
AcDbLine
 10
97.5478094474
 20
151.5854819959
 30
0.0
 11
98.1916289015
 21
151.5854819959
 31
0.0
  0
LINE
  5
FE
330
F6
100
AcDbEntity
  8
0
  6
Continuous
 62
     7
370
    18
100
AcDbLine
 10
98.1916289015
 20
151.5854819959
 30
0.0
 11
98.1916289015
 21
148.2223339195
 31
0.0
  0
LINE
  5
FF
330
F6
100
AcDbEntity
  8
0
  6
Continuous
 62
     7
370
    18
100
AcDbLine
 10
98.1916289015
 20
148.2223339195
 30
0.0
 11
97.5478094474
 21
148.2223339195
 31
0.0
  0
LINE
  5
100
330
F6
100
AcDbEntity
  8
0
  6
Continuous
 62
     7
370
    18
100
AcDbLine
 10
71.7215110997
 20
140.1851229428
 30
0.0
 11
84.6929789929
 21
153.156590836
 31
0.0
  0
LINE
  5
101
330
F6
100
AcDbEntity
  8
0
  6
Continuous
 62
     7
370
    18
100
AcDbLine
 10
84.6929789929
 20
153.156590836
 30
0.0
 11
88.5029789929
 21
153.156590836
 31
0.0
  0
MTEXT
  5
102
330
F6
100
AcDbEntity
  8
0
  6
Continuous
 62
     7
370
    18
100
AcDbMText
 10
88.5029789929
 20
154.7432216424
 30
0.0
 40
2.1166666667
 41
0.0
 71
     1
 72
     1
  1
%%c
  7
SLDTEXTSTYLE0
 73
     1
 44
1.0
  0
MTEXT
  5
103
330
F6
100
AcDbEntity
  8
0
  6
Continuous
 62
     7
370
    18
100
AcDbMText
 10
91.6979697936
 20
154.7432216424
 30
0.0
 40
2.1166666667
 41
0.0
 71
     1
 72
     1
  1
50.8mm
  7
SLDTEXTSTYLE0
 73
     1
 44
1.0
  0
MTEXT
  5
104
330
F6
100
AcDbEntity
  8
0
  6
Continuous
 62
     7
370
    18
100
AcDbMText
 10
89.7906179012
 20
150.9508605189
 30
0.0
 40
2.1166666667
 41
0.0
 71
     1
 72
     1
  1
2.00in
  7
SLDTEXTSTYLE0
 73
     1
 44
1.0
  0
ENDBLK
  5
F8
330
F6
100
AcDbEntity
  8
0
100
AcDbBlockEnd
  0
BLOCK
  5
11E
330
11D
100
AcDbEntity
  8
0
100
AcDbBlockBegin
  2
_D_1
 70
     0
 10
0.0
 20
0.0
 30
0.0
  3
_D_1
  1

  0
SOLID
  5
120
330
11D
100
AcDbEntity
  8
0
  6
Continuous
 62
     7
370
    18
100
AcDbTrace
 10
135.0157482421
 20
160.6703948718
 30
0.0
 11
131.8410178609
 21
161.1800771324
 31
0.0
 12
131.8404795147
 22
160.1640772751
 32
0.0
 13
131.8404795147
 23
160.1640772751
 33
0.0
  0
SOLID
  5
121
330
11D
100
AcDbEntity
  8
0
  6
Continuous
 62
     7
370
    18
100
AcDbTrace
 10
144.3334431254
 20
160.6654577197
 30
0.0
 11
147.5081735065
 21
160.1557754591
 31
0.0
 12
147.5087118528
 22
161.1717753164
 32
0.0
 13
147.5087118528
 23
161.1717753164
 33
0.0
  0
LINE
  5
122
330
11D
100
AcDbEntity
  8
0
  6
Continuous
 62
     7
370
    18
100
AcDbLine
 10
156.5061822681
 20
160.65552864
 30
0.0
 11
155.862362814
 21
160.65552864
 31
0.0
  0
LINE
  5
123
330
11D
100
AcDbEntity
  8
0
  6
Continuous
 62
     7
370
    18
100
AcDbLine
 10
155.862362814
 20
160.65552864
 30
0.0
 11
155.862362814
 21
157.2923805635
 31
0.0
  0
LINE
  5
124
330
11D
100
AcDbEntity
  8
0
  6
Continuous
 62
     7
370
    18
100
AcDbLine
 10
155.862362814
 20
157.2923805635
 30
0.0
 11
156.5061822681
 21
157.2923805635
 31
0.0
  0
LINE
  5
125
330
11D
100
AcDbEntity
  8
0
  6
Continuous
 62
     7
370
    18
100
AcDbLine
 10
164.2633738144
 20
160.65552864
 30
0.0
 11
164.9071932685
 21
160.65552864
 31
0.0
  0
LINE
  5
126
330
11D
100
AcDbEntity
  8
0
  6
Continuous
 62
     7
370
    18
100
AcDbLine
 10
164.9071932685
 20
160.65552864
 30
0.0
 11
164.9071932685
 21
157.2923805635
 31
0.0
  0
LINE
  5
127
330
11D
100
AcDbEntity
  8
0
  6
Continuous
 62
     7
370
    18
100
AcDbLine
 10
164.9071932685
 20
157.2923805635
 30
0.0
 11
164.2633738144
 21
157.2923805635
 31
0.0
  0
LINE
  5
128
330
11D
100
AcDbEntity
  8
0
  6
Continuous
 62
     7
370
    18
100
AcDbLine
 10
135.0094052684
 20
148.6995476745
 30
0.0
 11
135.016690348
 21
162.4483946222
 31
0.0
  0
LINE
  5
129
330
11D
100
AcDbEntity
  8
0
  6
Continuous
 62
     7
370
    18
100
AcDbLine
 10
144.3271001517
 20
148.6946105224
 30
0.0
 11
144.3343852312
 21
162.4434574701
 31
0.0
  0
LINE
  5
12A
330
11D
100
AcDbEntity
  8
0
  6
Continuous
 62
     7
370
    18
100
AcDbLine
 10
135.0157482421
 20
160.6703948718
 30
0.0
 11
128.6657491335
 21
160.6737595357
 31
0.0
  0
LINE
  5
12B
330
11D
100
AcDbEntity
  8
0
  6
Continuous
 62
     7
370
    18
100
AcDbLine
 10
144.3334431254
 20
160.6654577197
 30
0.0
 11
154.7890298772
 21
160.6599176346
 31
0.0
  0
MTEXT
  5
12C
330
11D
100
AcDbEntity
  8
0
  6
Continuous
 62
     7
370
    18
100
AcDbMText
 10
155.7849476727
 20
163.8132682864
 30
0.0
 40
2.1166666667
 41
0.0
 71
     1
 72
     1
  1
9.3mm
  7
SLDTEXTSTYLE0
 73
     1
 44
1.0
  0
MTEXT
  5
12D
330
11D
100
AcDbEntity
  8
0
  6
Continuous
 62
     7
370
    18
100
AcDbMText
 10
156.5061822681
 20
160.0209071629
 30
0.0
 40
2.1166666667
 41
0.0
 71
     1
 72
     1
  1
0.37in
  7
SLDTEXTSTYLE0
 73
     1
 44
1.0
  0
MTEXT
  5
12E
330
11D
100
AcDbEntity
  8
0
  6
Continuous
 62
     7
370
    18
100
AcDbMText
 10
166.344762257
 20
163.8132682864
 30
0.0
 40
2.1166666667
 41
0.0
 71
     1
 72
     1
  1
REF
  7
SLDTEXTSTYLE0
 73
     1
 44
1.0
  0
ENDBLK
  5
11F
330
11D
100
AcDbEntity
  8
0
100
AcDbBlockEnd
  0
BLOCK
  5
132
330
131
100
AcDbEntity
  8
0
100
AcDbBlockBegin
  2
_D_2
 70
     0
 10
0.0
 20
0.0
 30
0.0
  3
_D_2
  1

  0
ARC
  5
134
330
131
100
AcDbEntity
  8
0
  6
Continuous
 62
     7
370
    18
100
AcDbCircle
 10
-864.6736048164
 20
122.2246107007
 30
0.0
 40
1000.000032035271
100
AcDbArc
 50
357.9517262878
 51
358.482944975
  0
SOLID
  5
135
330
131
100
AcDbEntity
  8
0
  6
Continuous
 62
     7
370
    18
100
AcDbTrace
 10
134.7494641186
 20
88.2600210353
 30
0.0
 11
137.9053782498
 21
87.6444765638
 31
0.0
 12
137.9398862718
 22
88.6598903693
 32
0.0
 13
137.9398862718
 23
88.6598903693
 33
0.0
  0
LINE
  5
136
330
131
100
AcDbEntity
  8
0
  6
Continuous
 62
     7
370
    18
100
AcDbLine
 10
153.4393992504
 20
86.2269889335
 30
0.0
 11
152.7955797963
 21
86.2269889335
 31
0.0
  0
LINE
  5
137
330
131
100
AcDbEntity
  8
0
  6
Continuous
 62
     7
370
    18
100
AcDbLine
 10
152.7955797963
 20
86.2269889335
 30
0.0
 11
152.7955797963
 21
82.8638408571
 31
0.0
  0
LINE
  5
138
330
131
100
AcDbEntity
  8
0
  6
Continuous
 62
     7
370
    18
100
AcDbLine
 10
152.7955797963
 20
82.8638408571
 30
0.0
 11
153.4393992504
 21
82.8638408571
 31
0.0
  0
LINE
  5
139
330
131
100
AcDbEntity
  8
0
  6
Continuous
 62
     7
370
    18
100
AcDbLine
 10
162.7605729034
 20
86.2269889335
 30
0.0
 11
163.4043923576
 21
86.2269889335
 31
0.0
  0
LINE
  5
13A
330
131
100
AcDbEntity
  8
0
  6
Continuous
 62
     7
370
    18
100
AcDbLine
 10
163.4043923576
 20
86.2269889335
 30
0.0
 11
163.4043923576
 21
82.8638408571
 31
0.0
  0
LINE
  5
13B
330
131
100
AcDbEntity
  8
0
  6
Continuous
 62
     7
370
    18
100
AcDbLine
 10
163.4043923576
 20
82.8638408571
 30
0.0
 11
162.7605729034
 21
82.8638408571
 31
0.0
  0
LINE
  5
13C
330
131
100
AcDbEntity
  8
0
  6
Continuous
 62
     7
370
    18
100
AcDbLine
 10
134.7494641186
 20
88.2600210353
 30
0.0
 11
148.3417603422
 21
87.7980977736
 31
0.0
  0
LINE
  5
13D
330
131
100
AcDbEntity
  8
0
  6
Continuous
 62
     7
370
    18
100
AcDbLine
 10
148.3417603422
 20
87.7980977736
 30
0.0
 11
152.1517603422
 21
87.7980977736
 31
0.0
  0
MTEXT
  5
13E
330
131
100
AcDbEntity
  8
0
  6
Continuous
 62
     7
370
    18
100
AcDbMText
 10
152.1517603422
 20
89.38472858
 30
0.0
 40
2.1166666667
 41
0.0
 71
     1
 72
     1
  1
R1000.0mm
  7
SLDTEXTSTYLE0
 73
     1
 44
1.0
  0
MTEXT
  5
13F
330
131
100
AcDbEntity
  8
0
  6
Continuous
 62
     7
370
    18
100
AcDbMText
 10
153.4393992504
 20
85.5923674565
 30
0.0
 40
2.1166666667
 41
0.0
 71
     1
 72
     1
  1
39.37in
  7
SLDTEXTSTYLE0
 73
     1
 44
1.0
  0
ENDBLK
  5
133
330
131
100
AcDbEntity
  8
0
100
AcDbBlockEnd
  0
BLOCK
  5
143
330
142
100
AcDbEntity
  8
0
100
AcDbBlockBegin
  2
_D_3
 70
     0
 10
0.0
 20
0.0
 30
0.0
  3
_D_3
  1

  0
SOLID
  5
145
330
142
100
AcDbEntity
  8
0
  6
Continuous
 62
     7
370
    18
100
AcDbTrace
 10
144.3264272189
 20
152.3543360475
 30
0.0
 11
147.5014272189
 21
151.8463360475
 31
0.0
 12
147.5014272189
 22
152.8623360475
 32
0.0
 13
147.5014272189
 23
152.8623360475
 33
0.0
  0
SOLID
  5
146
330
142
100
AcDbEntity
  8
0
  6
Continuous
 62
     7
370
    18
100
AcDbTrace
 10
135.3264272189
 20
152.3543360475
 30
0.0
 11
132.1514272189
 21
152.8623360475
 31
0.0
 12
132.1514272189
 22
151.8463360475
 32
0.0
 13
132.1514272189
 23
151.8463360475
 33
0.0
  0
LINE
  5
147
330
142
100
AcDbEntity
  8
0
  6
Continuous
 62
     7
370
    18
100
AcDbLine
 10
156.4478312129
 20
152.3543358147
 30
0.0
 11
155.8040117588
 21
152.3543358147
 31
0.0
  0
LINE
  5
148
330
142
100
AcDbEntity
  8
0
  6
Continuous
 62
     7
370
    18
100
AcDbLine
 10
155.8040117588
 20
152.3543358147
 30
0.0
 11
155.8040117588
 21
148.9911877383
 31
0.0
  0
LINE
  5
149
330
142
100
AcDbEntity
  8
0
  6
Continuous
 62
     7
370
    18
100
AcDbLine
 10
155.8040117588
 20
148.9911877383
 30
0.0
 11
156.4478312129
 21
148.9911877383
 31
0.0
  0
LINE
  5
14A
330
142
100
AcDbEntity
  8
0
  6
Continuous
 62
     7
370
    18
100
AcDbLine
 10
164.2050227592
 20
152.3543358147
 30
0.0
 11
164.8488422133
 21
152.3543358147
 31
0.0
  0
LINE
  5
14B
330
142
100
AcDbEntity
  8
0
  6
Continuous
 62
     7
370
    18
100
AcDbLine
 10
164.8488422133
 20
152.3543358147
 30
0.0
 11
164.8488422133
 21
148.9911877383
 31
0.0
  0
LINE
  5
14C
330
142
100
AcDbEntity
  8
0
  6
Continuous
 62
     7
370
    18
100
AcDbLine
 10
164.8488422133
 20
148.9911877383
 30
0.0
 11
164.2050227592
 21
148.9911877383
 31
0.0
  0
LINE
  5
14D
330
142
100
AcDbEntity
  8
0
  6
Continuous
 62
     7
370
    18
100
AcDbLine
 10
144.3264272189
 20
148.6946107007
 30
0.0
 11
144.3264272189
 21
154.1323360475
 31
0.0
  0
LINE
  5
14E
330
142
100
AcDbEntity
  8
0
  6
Continuous
 62
     7
370
    18
100
AcDbLine
 10
135.3264272189
 20
123.4946107007
 30
0.0
 11
135.3264272189
 21
154.1323360475
 31
0.0
  0
LINE
  5
14F
330
142
100
AcDbEntity
  8
0
  6
Continuous
 62
     7
370
    18
100
AcDbLine
 10
144.3264272189
 20
152.3543360475
 30
0.0
 11
153.1706171176
 21
152.3543360475
 31
0.0
  0
LINE
  5
150
330
142
100
AcDbEntity
  8
0
  6
Continuous
 62
     7
370
    18
100
AcDbLine
 10
135.3264272189
 20
152.3543360475
 30
0.0
 11
128.9764272189
 21
152.3543360475
 31
0.0
  0
MTEXT
  5
151
330
142
100
AcDbEntity
  8
0
  6
Continuous
 62
     7
370
    18
100
AcDbMText
 10
155.1876306003
 20
155.5120754612
 30
0.0
 40
2.1166666667
 41
0.0
 71
     1
 72
     1
  1

  7
SLDTEXTSTYLE0
 73
     1
 44
1.0
  0
MTEXT
  5
152
330
142
100
AcDbEntity
  8
0
  6
Continuous
 62
     7
370
    18
100
AcDbMText
 10
155.7265966175
 20
155.5120754612
 30
0.0
 40
2.1166666667
 41
0.0
 71
     1
 72
     1
  1
9.0mm
  7
SLDTEXTSTYLE0
 73
     1
 44
1.0
  0
MTEXT
  5
153
330
142
100
AcDbEntity
  8
0
  6
Continuous
 62
     7
370
    18
100
AcDbMText
 10
156.4478312129
 20
151.7197143377
 30
0.0
 40
2.1166666667
 41
0.0
 71
     1
 72
     1
  1
0.35in
  7
SLDTEXTSTYLE0
 73
     1
 44
1.0
  0
MTEXT
  5
154
330
142
100
AcDbEntity
  8
0
  6
Continuous
 62
     7
370
    18
100
AcDbMText
 10
167.0801616674
 20
155.5120754612
 30
0.0
 40
2.1166666667
 41
0.0
 71
     1
 72
     1
  1

  7
SLDTEXTSTYLE0
 73
     1
 44
1.0
  0
ENDBLK
  5
144
330
142
100
AcDbEntity
  8
0
100
AcDbBlockEnd
  0
ENDSEC
  0
SECTION
  2
ENTITIES
  0
LINE
  5
81
330
1F
100
AcDbEntity
  8
0
  6
Continuous
 62
     7
370
    18
100
AcDbLine
 10
1.5793501011
 20
214.6453799966
 30
0.0
 11
277.9892068491
 21
214.6453799966
 31
0.0
  0
LINE
  5
82
330
1F
100
AcDbEntity
  8
0
  6
Continuous
 62
     7
370
    18
100
AcDbLine
 10
1.5793501011
 20
214.6453799966
 30
0.0
 11
1.5793501011
 21
0.9031642596
 31
0.0
  0
LINE
  5
83
330
1F
100
AcDbEntity
  8
0
  6
Continuous
 62
     7
370
    18
100
AcDbLine
 10
277.9892068491
 20
0.9031642596
 30
0.0
 11
1.5793501011
 21
0.9031642596
 31
0.0
  0
LINE
  5
84
330
1F
100
AcDbEntity
  8
0
  6
Continuous
 62
     7
370
    18
100
AcDbLine
 10
277.9892068491
 20
0.9031642596
 30
0.0
 11
277.9892068491
 21
214.6453799966
 31
0.0
  0
LINE
  5
85
330
1F
100
AcDbEntity
  8
0
  6
Continuous
 62
     7
370
    18
100
AcDbLine
 10
215.7427640041
 20
12.2958890132
 30
0.0
 11
171.6327596684
 21
12.2958890132
 31
0.0
  0
LINE
  5
86
330
1F
100
AcDbEntity
  8
0
  6
Continuous
 62
     7
370
    18
100
AcDbLine
 10
171.6327596684
 20
12.2958890132
 30
0.0
 11
171.6327596684
 21
26.1661402506
 31
0.0
  0
LINE
  5
87
330
1F
100
AcDbEntity
  8
0
  6
Continuous
 62
     7
370
    18
100
AcDbLine
 10
171.6327596684
 20
0.9031642596
 30
0.0
 11
171.6327596684
 21
26.1661402506
 31
0.0
  0
LINE
  5
88
330
1F
100
AcDbEntity
  8
0
  6
Continuous
 62
     7
370
    18
100
AcDbLine
 10
215.7427640041
 20
17.1604579552
 30
0.0
 11
277.9892068491
 21
17.1604579552
 31
0.0
  0
LINE
  5
89
330
1F
100
AcDbEntity
  8
0
  6
Continuous
 62
     7
370
    18
100
AcDbLine
 10
215.7427640041
 20
35.2394508358
 30
0.0
 11
215.7427640041
 21
0.9031642596
 31
0.0
  0
LINE
  5
8A
330
1F
100
AcDbEntity
  8
0
  6
Continuous
 62
     7
370
    18
100
AcDbLine
 10
215.7427640041
 20
26.1661402506
 30
0.0
 11
171.6327596684
 21
26.1661402506
 31
0.0
  0
LINE
  5
8B
330
1F
100
AcDbEntity
  8
0
  6
Continuous
 62
     7
370
    18
100
AcDbLine
 10
215.7427640041
 20
9.1409200612
 30
0.0
 11
277.9892068491
 21
9.1409200612
 31
0.0
  0
LINE
  5
8C
330
1F
100
AcDbEntity
  8
0
  6
Continuous
 62
     7
370
    18
100
AcDbLine
 10
215.7427640041
 20
16.9216824031
 30
0.0
 11
171.6327596684
 21
16.9216824031
 31
0.0
  0
LINE
  5
8D
330
1F
100
AcDbEntity
  8
0
  6
Continuous
 62
     7
370
    18
100
AcDbLine
 10
215.7427640041
 20
21.4874005542
 30
0.0
 11
171.6327596684
 21
21.4874005542
 31
0.0
  0
LINE
  5
8E
330
1F
100
AcDbEntity
  8
0
  6
Continuous
 62
     7
370
    18
100
AcDbLine
 10
186.1338100705
 20
26.1661402506
 30
0.0
 11
186.1338100705
 21
12.2958890132
 31
0.0
  0
LINE
  5
8F
330
1F
100
AcDbEntity
  8
0
  6
Continuous
 62
     7
370
    18
100
AcDbLine
 10
198.2145906188
 20
26.1661402506
 30
0.0
 11
198.2145906188
 21
12.2958890132
 31
0.0
  0
LINE
  5
90
330
1F
100
AcDbEntity
  8
0
  6
Continuous
 62
     7
370
    18
100
AcDbLine
 10
253.7490408369
 20
9.1409200612
 30
0.0
 11
253.7490408369
 21
0.9031642596
 31
0.0
  0
LINE
  5
91
330
1F
100
AcDbEntity
  8
0
  6
Continuous
 62
     7
370
    18
100
AcDbLine
 10
171.6327596684
 20
12.2958890132
 30
0.0
 11
171.6327596684
 21
7.5627342528
 31
0.0
  0
LINE
  5
92
330
1F
100
AcDbEntity
  8
0
  6
Continuous
 62
     7
370
    18
100
AcDbLine
 10
171.6327596684
 20
7.5627342528
 30
0.0
 11
215.7427640041
 21
7.5627342528
 31
0.0
  0
LINE
  5
93
330
1F
100
AcDbEntity
  8
0
  6
Continuous
 62
     7
370
    18
100
AcDbLine
 10
171.6327596684
 20
7.5627342528
 30
0.0
 11
171.6327596684
 21
35.2394508358
 31
0.0
  0
LINE
  5
94
330
1F
100
AcDbEntity
  8
0
  6
Continuous
 62
     7
370
    18
100
AcDbLine
 10
171.6327596684
 20
35.2394508358
 30
0.0
 11
215.7427640041
 21
35.2394508358
 31
0.0
  0
LINE
  5
95
330
1F
100
AcDbEntity
  8
0
  6
Continuous
 62
     7
370
    18
100
AcDbLine
 10
270.1683598194
 20
17.1604579552
 30
0.0
 11
270.1683598194
 21
9.1409200612
 31
0.0
  0
LINE
  5
96
330
1F
100
AcDbEntity
  8
0
  6
Continuous
 62
     7
370
    18
100
AcDbLine
 10
215.7427640041
 20
35.2394508358
 30
0.0
 11
277.9892068491
 21
35.2394508358
 31
0.0
  0
LINE
  5
97
330
1F
100
AcDbEntity
  8
0
  6
Continuous
 62
     7
370
    18
100
AcDbLine
 10
277.9892068491
 20
35.2394508358
 30
0.0
 11
277.9892068491
 21
50.0331356147
 31
0.0
  0
LINE
  5
98
330
1F
100
AcDbEntity
  8
0
  6
Continuous
 62
     7
370
    18
100
AcDbLine
 10
215.7427640041
 20
24.8927335446
 30
0.0
 11
277.9892068491
 21
24.8927335446
 31
0.0
  0
INSERT
  5
99
330
1F
100
AcDbEntity
  8
0
  6
Continuous
 62
     7
100
AcDbBlockReference
  2
Third Angle Projection Block
 10
117.7262204235
 20
15.5162339489
 30
0.0
 41
0.8
 42
0.8
 43
0.8
  0
INSERT
  5
BA
330
1F
100
AcDbEntity
  8
0
  6
Continuous
 62
     7
370
     0
100
AcDbBlockReference
  2
SW_NOTE_0
 10
15.7611443296
 20
72.0855837507
 30
0.0
  0
MTEXT
  5
BB
330
1F
100
AcDbEntity
  8
0
  6
Continuous
 62
     7
370
     0
100
AcDbMText
 10
274.1458225539
 20
13.2559386876
 30
0.0
 40
3.175
 41
0.0
 71
     2
 72
     1
  1
A
  7
SLDTEXTSTYLE0
 73
     1
 44
1.0
  0
MTEXT
  5
BC
330
1F
100
AcDbEntity
  8
0
  6
Continuous
 62
     7
370
     0
100
AcDbMText
 10
234.5175602785
 20
5.1306563898
 30
0.0
 40
3.175
 41
0.0
 71
     2
 72
     1
  1
CM508-500-E02
  7
SLDTEXTSTYLE0
 73
     1
 44
1.0
  0
MTEXT
  5
BD
330
1F
100
AcDbEntity
  8
0
  6
Continuous
 62
     7
370
     0
100
AcDbMText
 10
216.4199766059
 20
16.8243178599
 30
0.0
 40
2.1166666667
 41
0.0
 71
     1
 72
     1
  1
MATERIAL
  7
SLDTEXTSTYLE0
 73
     1
 44
1.0
  0
MTEXT
  5
BE
330
1F
100
AcDbEntity
  8
0
  6
Continuous
 62
     7
370
     0
100
AcDbMText
 10
174.230946566
 20
20.054553926
 30
0.0
 40
1.8520833333
 41
0.0
 71
     1
 72
     1
  1
DRAWN
  7
SLDTEXTSTYLE0
 73
     1
 44
1.0
  0
MTEXT
  5
BF
330
1F
100
AcDbEntity
  8
0
  6
Continuous
 62
     7
370
     0
100
AcDbMText
 10
172.3960124543
 20
15.5787169747
 30
0.0
 40
1.8520833333
 41
0.0
 71
     1
 72
     1
  1
APPROVAL
  7
SLDTEXTSTYLE0
 73
     1
 44
1.0
  0
MTEXT
  5
C0
330
1F
100
AcDbEntity
  8
0
  6
Continuous
 62
     7
370
     0
100
AcDbMText
 10
271.7160653675
 20
16.1671746307
 30
0.0
 40
2.1166666667
 41
0.0
 71
     1
 72
     1
  1
REV
  7
SLDTEXTSTYLE0
 73
     1
 44
1.0
  0
MTEXT
  5
C1
330
1F
100
AcDbEntity
  8
0
  6
Continuous
 62
     7
370
     0
100
AcDbMText
 10
190.2958696448
 20
20.3177146903
 30
0.0
 40
2.1166666667
 41
0.0
 71
     1
 72
     1
  1
YB
  7
SLDTEXTSTYLE0
 73
     1
 44
1.0
  0
MTEXT
  5
C2
330
1F
100
AcDbEntity
  8
0
  6
Continuous
 62
     7
370
     0
100
AcDbMText
 10
190.2958696448
 20
15.841877739
 30
0.0
 40
2.1166666667
 41
0.0
 71
     1
 72
     1
  1
DD
  7
SLDTEXTSTYLE0
 73
     1
 44
1.0
  0
MTEXT
  5
C3
330
1F
100
AcDbEntity
  8
0
  6
Continuous
 62
     7
370
     0
100
AcDbMText
 10
199.8662436873
 20
20.3177146903
 30
0.0
 40
2.1166666667
 41
0.0
 71
     1
 72
     1
  1
16/APR/18
  7
SLDTEXTSTYLE0
 73
     1
 44
1.0
  0
MTEXT
  5
C4
330
1F
100
AcDbEntity
  8
0
  6
Continuous
 62
     7
370
     0
100
AcDbMText
 10
203.6145073853
 20
24.8221395769
 30
0.0
 40
2.1166666667
 41
0.0
 71
     1
 72
     1
  1
DATE
  7
SLDTEXTSTYLE0
 73
     1
 44
1.0
  0
MTEXT
  5
C5
330
1F
100
AcDbEntity
  8
0
  6
Continuous
 62
     7
370
     0
100
AcDbMText
 10
199.8662436873
 20
15.841877739
 30
0.0
 40
2.1166666667
 41
0.0
 71
     1
 72
     1
  1
16/APR/18
  7
SLDTEXTSTYLE0
 73
     1
 44
1.0
  0
MTEXT
  5
C7
330
1F
100
AcDbEntity
  8
0
  6
Continuous
 62
     7
370
     0
100
AcDbMText
 10
229.402906477
 20
27.7957480569
 30
0.0
 40
2.1166666667
 41
0.0
 71
     1
 72
     1
  1
w w w . t h o r  l a b s . c o m
  7
SLDTEXTSTYLE3
 73
     1
 44
1.0
  0
MTEXT
  5
C8
330
1F
100
AcDbEntity
  8
0
  6
Continuous
 62
     7
370
     0
100
AcDbMText
 10
216.7004035316
 20
8.3494791871
 30
0.0
 40
2.1166666667
 41
0.0
 71
     1
 72
     1
  1
ITEM #
  7
SLDTEXTSTYLE0
 73
     1
 44
1.0
  0
MTEXT
  5
C9
330
1F
100
AcDbEntity
  8
0
  6
Continuous
 62
     7
370
     0
100
AcDbMText
 10
254.5318000914
 20
8.3494791871
 30
0.0
 40
2.1166666667
 41
0.0
 71
     1
 72
     1
  1
APPROX WEIGHT
  7
SLDTEXTSTYLE0
 73
     1
 44
1.0
  0
MTEXT
  5
CA
330
1F
100
AcDbEntity
  8
0
  6
Continuous
 62
     7
370
     0
100
AcDbMText
 10
243.5159064132
 20
13.8247651814
 30
0.0
 40
3.175
 41
0.0
 71
     2
 72
     1
  1
N-BK7
  7
SLDTEXTSTYLE0
 73
     1
 44
1.0
  0
MTEXT
  5
CB
330
1F
100
AcDbEntity
  8
0
  6
Continuous
 62
     7
370
     0
100
AcDbMText
 10
266.1553537756
 20
5.1306563898
 30
0.0
 40
3.175
 41
0.0
 71
     2
 72
     1
  1
46.61 g
  7
SLDTEXTSTYLE0
 73
     1
 44
1.0
  0
INSERT
  5
D1
330
1F
100
AcDbEntity
  8
0
  6
Continuous
 62
     7
370
     0
100
AcDbBlockReference
  2
SW_NOTE_1
 10
174.8430140051
 20
4.4558554801
 30
0.0
  0
INSERT
  5
D7
330
1F
100
AcDbEntity
  8
0
  6
Continuous
 62
     7
370
     0
100
AcDbBlockReference
  2
SW_NOTE_2
 10
174.5483650337
 20
30.4835322715
 30
0.0
  0
MTEXT
  5
D8
330
1F
100
AcDbEntity
  8
0
  6
Continuous
 62
     7
370
     0
100
AcDbMText
 10
187.9273588276
 20
24.8221395769
 30
0.0
 40
2.1166666667
 41
0.0
 71
     1
 72
     1
  1
NAME
  7
SLDTEXTSTYLE0
 73
     1
 44
1.0
  0
INSERT
  5
DE
330
1F
100
AcDbEntity
  8
0
  6
Continuous
 62
     7
370
     0
100
AcDbBlockReference
  2
SW_NOTE_3
 10
58.6204667508
 20
8.1776609732
 30
0.0
  0
INSERT
  5
E5
330
1F
100
AcDbEntity
  8
0
  6
Continuous
 62
     7
370
     0
100
AcDbBlockReference
  2
SW_NOTE_4
 10
218.0304396749
 20
20.7222222066
 30
0.0
  0
MTEXT
  5
E6
330
1F
100
AcDbEntity
  8
0
  6
Continuous
 62
     7
370
     0
100
AcDbMText
 10
177.6925831922
 20
10.7142101515
 30
0.0
 40
1.5875
 41
0.0
 71
     1
 72
     1
  1
COPYRIGHT © 2018 BY THORLABS
  7
SLDTEXTSTYLE0
 73
     1
 44
1.0
  0
LINE
  5
E7
330
1F
100
AcDbEntity
  8
0
  6
Continuous
 62
     7
370
    18
100
AcDbLine
 10
229.7218741853
 20
193.6649973968
 30
0.0
 11
229.7218741853
 21
193.5057465055
 31
0.0
  0
LINE
  5
E8
330
1F
100
AcDbEntity
  8
0
  6
Continuous
 62
     7
370
    18
100
AcDbLine
 10
247.5415594941
 20
162.6378015696
 30
0.0
 11
247.6794673391
 21
162.5581631825
 31
0.0
  0
LINE
  5
E9
330
1F
100
AcDbEntity
  8
0
  6
Continuous
 62
     7
370
    18
100
AcDbLine
 10
260.3813543319
 20
161.2989732722
 30
0.0
 11
266.6906079502
 21
164.9412278585
 31
0.0
  0
LINE
  5
EA
330
1F
100
AcDbEntity
  8
0
  6
Continuous
 62
     7
370
    18
100
AcDbLine
 10
241.2926721412
 20
208.9365100674
 30
0.0
 11
234.983418523
 21
205.2942554812
 31
0.0
  0
LINE
  5
EB
330
1F
100
AcDbEntity
  8
0
  6
Continuous
 62
     7
370
    18
100
AcDbLine
 10
271.9521522878
 20
176.5704859428
 30
0.0
 11
271.9521522878
 21
176.7337675651
 31
0.0
  0
LINE
  5
EC
330
1F
100
AcDbEntity
  8
0
  6
Continuous
 62
     7
370
    18
100
AcDbLine
 10
254.1359575053
 20
207.595666077
 30
0.0
 11
253.994559134
 21
207.6773201571
 31
0.0
  0
LWPOLYLINE
  5
ED
330
1F
100
AcDbEntity
  8
0
  6
Continuous
 62
     7
370
    18
100
AcDbPolyline
 90
      167
 70
   128
 43
0.0
 10
265.3670381446
 20
172.9282313565
 10
265.3542728061
 20
173.7144107583
 10
265.3159950768
 20
174.5142025117
 10
265.2522597892
 20
175.3264609229
 10
265.1631582435
 20
176.1500224394
 10
265.0488180768
 20
176.9837073173
 10
264.9094030802
 20
177.8263213111
 10
264.7451129645
 20
178.6766573844
 10
264.5561830736
 20
179.5334974388
 10
264.3428840477
 20
180.3956140594
 10
264.1055214358
 20
181.2617722722
 10
263.8444352573
 20
182.1307313141
 10
263.5599995159
 20
183.0012464096
 10
263.2526216628
 20
183.8720705541
 10
262.922742014
 20
184.7419563006
 10
262.5708331188
 20
185.6096575459
 10
262.1973990834
 20
186.4739313166
 10
261.8029748484
 20
187.3335395486
 10
261.3881254228
 20
188.1872508615
 10
260.9534450743
 20
189.0338423221
 10
260.4995564783
 20
189.8721011962
 10
260.0271098259
 20
190.7008266861
 10
259.5367818924
 20
191.5188316506
 10
259.0292750678
 20
192.3249443053
 10
258.5053163508
 20
193.1180099016
 10
257.9656563071
 20
193.8968923808
 10
257.4110679946
 20
194.6604760012
 10
256.8423458557
 20
195.4076669366
 10
256.2603045794
 20
196.1373948431
 10
255.6657779342
 20
196.8486143927
 10
255.0596175738
 20
197.5403067701
 10
254.4426918171
 20
198.2114811326
 10
253.8158844042
 20
198.8611760295
 10
253.1800932308
 20
199.4884607791
 10
252.5362290616
 20
200.092436802
 10
251.8852142258
 20
200.6722389084
 10
251.2279812959
 20
201.2270365374
 10
250.5654717517
 20
201.7560349466
 10
249.8986346318
 20
202.258476351
 10
249.2284251739
 20
202.733641008
 10
248.5558034466
 20
203.180848249
 10
247.8817329741
 20
203.5994574538
 10
247.2071793558
 20
203.9888689688
 10
246.5331088833
 20
204.3485249657
 10
245.860487156
 20
204.6779102408
 10
245.1902776981
 20
204.9765529529
 10
244.5234405782
 20
205.2440252991
 10
243.860931034
 20
205.4799441278
 10
243.2036981041
 20
205.6839714877
 10
242.5526832683
 20
205.8558151115
 10
241.9088190991
 20
205.9952288349
 10
241.2730279257
 20
206.1020129491
 10
240.6462205128
 20
206.1760144867
 10
240.0292947561
 20
206.2171274414
 10
239.4231343957
 20
206.2252929193
 10
238.8286077504
 20
206.2004992233
 10
238.2465664741
 20
206.1427818702
 10
237.6778443352
 20
206.0522235396
 10
237.1232560227
 20
205.9289539554
 10
236.5835959791
 20
205.7731497
 10
236.059637262
 20
205.5850339616
 10
235.5521304375
 20
205.3648762142
 10
235.061802504
 20
205.1129918316
 10
234.5893558516
 20
204.8297416357
 10
234.1354672556
 20
204.5155313798
 10
233.7007869071
 20
204.170811167
 10
233.2859374814
 20
203.7960748056
 10
232.8915132465
 20
203.391859102
 10
232.518079211
 20
202.9587430912
 10
232.1661703159
 20
202.4973472078
 10
231.8362906671
 20
202.0083323968
 10
231.528912814
 20
201.4923991673
 10
231.2444770725
 20
200.9502865887
 10
230.9833908941
 20
200.382771232
 10
230.7460282821
 20
199.7906660576
 10
230.5327292563
 20
199.1748192503
 10
230.3437993654
 20
198.5361130048
 10
230.1795092497
 20
197.8754622616
 10
230.0400942531
 20
197.1938133965
 10
229.9257540864
 20
196.4921428651
 10
229.8366525407
 20
195.7714558035
 10
229.7729172531
 20
195.032784589
 10
229.7346395238
 20
194.2771873611
 10
229.7218741853
 20
193.5057465055
 10
229.7346395238
 20
192.7195671038
 10
229.7729172531
 20
191.9197753503
 10
229.8366525407
 20
191.1075169392
 10
229.9257540864
 20
190.2839554227
 10
230.0400942531
 20
189.4502705447
 10
230.1795092497
 20
188.6076565509
 10
230.3437993654
 20
187.7573204777
 10
230.5327292563
 20
186.9004804232
 10
230.7460282821
 20
186.0383638027
 10
230.9833908941
 20
185.1722055898
 10
231.2444770725
 20
184.3032465479
 10
231.528912814
 20
183.4327314524
 10
231.8362906671
 20
182.5619073079
 10
232.1661703159
 20
181.6920215615
 10
232.518079211
 20
180.8243203161
 10
232.8915132465
 20
179.9600465455
 10
233.2859374814
 20
179.1004383134
 10
233.7007869071
 20
178.2467270005
 10
234.1354672556
 20
177.4001355399
 10
234.5893558516
 20
176.5618766658
 10
235.061802504
 20
175.7331511759
 10
235.5521304375
 20
174.9151462115
 10
236.059637262
 20
174.1090335568
 10
236.5835959791
 20
173.3159679604
 10
237.1232560227
 20
172.5370854812
 10
237.6778443352
 20
171.7735018608
 10
238.2465664741
 20
171.0263109255
 10
238.8286077504
 20
170.2965830189
 10
239.4231343957
 20
169.5853634693
 10
240.0292947561
 20
168.893671092
 10
240.6462205128
 20
168.2224967294
 10
241.2730279257
 20
167.5728018325
 10
241.9088190991
 20
166.9455170829
 10
242.5526832683
 20
166.34154106
 10
243.2036981041
 20
165.7617389536
 10
243.860931034
 20
165.2069413247
 10
244.5234405782
 20
164.6779429155
 10
245.1902776981
 20
164.1755015111
 10
245.860487156
 20
163.700336854
 10
246.5331088833
 20
163.253129613
 10
247.2071793558
 20
162.8345204082
 10
247.8817329741
 20
162.4451088932
 10
248.5558034466
 20
162.0854528963
 10
249.2284251739
 20
161.7560676212
 10
249.8986346318
 20
161.4574249092
 10
250.5654717517
 20
161.189952563
 10
251.2279812959
 20
160.9540337342
 10
251.8852142258
 20
160.7500063743
 10
252.5362290616
 20
160.5781627505
 10
253.1800932308
 20
160.4387490271
 10
253.8158844042
 20
160.331964913
 10
254.4426918171
 20
160.2579633753
 10
255.0596175738
 20
160.2168504206
 10
255.6657779342
 20
160.2086849427
 10
256.2603045794
 20
160.2334786387
 10
256.8423458557
 20
160.2911959918
 10
257.4110679946
 20
160.3817543224
 10
257.9656563071
 20
160.5050239067
 10
258.5053163508
 20
160.660828162
 10
259.0292750678
 20
160.8489439004
 10
259.5367818924
 20
161.0691016479
 10
260.0271098259
 20
161.3209860305
 10
260.4995564783
 20
161.6042362263
 10
260.9534450743
 20
161.9184464823
 10
261.3881254228
 20
162.2631666951
 10
261.8029748484
 20
162.6379030564
 10
262.1973990834
 20
163.04211876
 10
262.5708331188
 20
163.4752347708
 10
262.922742014
 20
163.9366306543
 10
263.2526216628
 20
164.4256454652
 10
263.5599995159
 20
164.9415786947
 10
263.8444352573
 20
165.4836912733
 10
264.1055214358
 20
166.05120663
 10
264.3428840477
 20
166.6433118045
 10
264.5561830736
 20
167.2591586118
 10
264.7451129645
 20
167.8978648573
 10
264.9094030802
 20
168.5585156005
 10
265.0488180768
 20
169.2401644655
 10
265.1631582435
 20
169.941834997
 10
265.2522597892
 20
170.6625220586
 10
265.3159950768
 20
171.401193273
 10
265.3542728061
 20
172.1567905009
 10
265.3670381446
 20
172.9282313565
  0
LWPOLYLINE
  5
EE
330
1F
100
AcDbEntity
  8
0
  6
Continuous
 62
     7
370
    18
100
AcDbPolyline
 90
      127
 70
   128
 43
0.0
 10
229.7218741853
 20
193.6649973968
 10
229.7345847336
 20
194.4377997499
 10
229.7726983883
 20
195.1948330008
 10
229.8361612036
 20
195.9350256539
 10
229.924883355
 20
196.657330049
 10
230.0387392664
 20
197.3607238452
 10
230.1775677873
 20
198.0442114671
 10
230.3411724216
 20
198.7068255145
 10
230.5293216051
 20
199.3476281312
 10
230.7417490337
 20
199.9657123329
 10
230.9781540402
 20
200.5602032904
 10
231.2382020197
 20
201.1302595683
 10
231.5215249034
 20
201.6750743157
 10
231.8277216793
 20
202.1938764081
 10
232.1563589603
 20
202.6859315394
 10
232.506971597
 20
203.1505432604
 10
232.8790633364
 20
203.5870539652
 10
233.2721075243
 20
203.9948458217
 10
233.6855478505
 20
204.3733416462
 10
234.1187991366
 20
204.7220057201
 10
234.5712481637
 20
205.0403445485
 10
235.0422545409
 20
205.3279075583
 10
235.5311516113
 20
205.5842877362
 10
236.0372473958
 20
205.8091222047
 10
236.5598255724
 20
206.0020927359
 10
237.0981464901
 20
206.1629262015
 10
237.6514482158
 20
206.2913949597
 10
238.2189476129
 20
206.3873171774
 10
238.7998414494
 20
206.4505570873
 10
239.393307535
 20
206.4810251805
 10
239.9985058849
 20
206.4786783328
 10
240.6145799085
 20
206.4435198659
 10
241.2406576218
 20
206.3755995427
 10
241.8758528819
 20
206.2750134967
 10
242.5192666409
 20
206.1419040964
 10
243.1699882186
 20
205.976459743
 10
243.8270965914
 20
205.7789146048
 10
244.4896616959
 20
205.5495482846
 10
245.1567457451
 20
205.2886854249
 10
245.8274045563
 20
204.9966952478
 10
246.500688887
 20
204.6739910329
 10
247.1756457783
 20
204.3210295319
 10
247.8513199044
 20
203.9383103222
 10
248.5267549241
 20
203.5263751001
 10
249.2009948345
 20
203.085806914
 10
249.8730853246
 20
202.6172293387
 10
250.5420751253
 20
202.1213055934
 10
251.2070173565
 20
201.5987376028
 10
251.8669708668
 20
201.0502650034
 10
252.5210015657
 20
200.4766640968
 10
253.1681837459
 20
199.8787467509
 10
253.8076013935
 20
199.257359251
 10
254.4383494843
 20
198.6133811015
 10
255.0595352648
 20
197.9477237815
 10
255.6702795161
 20
197.2613294545
 10
256.269717798
 20
196.5551696348
 10
256.8570016726
 20
195.8302438129
 10
257.4312999052
 20
195.08757804
 10
257.991799641
 20
194.3282234766
 10
258.5377075552
 20
193.5532549041
 10
259.0682509763
 20
192.7637692039
 10
259.5826789793
 20
191.9608838046
 10
260.0802634489
 20
191.1457351009
 10
260.56030011
 20
190.3194768445
 10
261.0221095243
 20
189.4832785116
 10
261.4650380523
 20
188.6383236475
 10
261.8884587782
 20
187.7858081912
 10
262.2917723972
 20
186.9269387831
 10
262.6744080641
 20
186.0629310567
 10
263.0358242008
 20
185.1950079184
 10
263.3755092633
 20
184.3243978163
 10
263.6929824652
 20
183.4523330017
 10
263.9877944588
 20
182.5800477848
 10
264.2595279707
 20
181.7087767878
 10
264.5077983924
 20
180.8397531974
 10
264.7322543251
 20
179.9742070192
 10
264.9325780762
 20
179.113363337
 10
265.1084861101
 20
178.258440579
 10
265.2597294486
 20
177.4106487926
 10
265.3860940236
 20
176.5711879322
 10
265.4874009802
 20
175.7412461609
 10
265.5635069297
 20
174.9219981685
 10
265.6143041527
 20
174.1146035088
 10
265.6397207513
 20
173.3202049587
 10
265.6397207513
 20
172.5399269006
 10
265.6143041527
 20
171.7748737307
 10
265.5635069297
 20
171.0261282963
 10
265.4874009802
 20
170.2947503628
 10
265.3860940236
 20
169.5817751139
 10
265.2597294486
 20
168.8882116863
 10
265.1084861101
 20
168.2150417416
 10
264.9325780762
 20
167.5632180764
 10
264.7322543251
 20
166.9336632742
 10
264.5077983924
 20
166.3272683996
 10
264.2595279707
 20
165.7448917367
 10
263.9877944588
 20
165.1873575744
 10
263.6929824652
 20
164.6554550401
 10
263.3755092633
 20
164.1499369823
 10
263.0358242008
 20
163.6715189053
 10
262.6744080641
 20
163.2208779563
 10
262.2917723972
 20
162.7986519673
 10
261.8884587782
 20
162.405438552
 10
261.4650380523
 20
162.0417942599
 10
261.0221095243
 20
161.7082337888
 10
260.56030011
 20
161.4052292564
 10
260.0802634489
 20
161.1332095316
 10
259.5826789793
 20
160.8925596279
 10
259.0682509763
 20
160.6836201585
 10
258.5377075552
 20
160.5066868537
 10
257.991799641
 20
160.3620101428
 10
257.4312999052
 20
160.2497947996
 10
256.8570016726
 20
160.1701996523
 10
256.269717798
 20
160.1233373589
 10
255.6702795161
 20
160.1092742478
 10
255.0595352648
 20
160.1280302238
 10
254.4383494843
 20
160.1795787398
 10
253.8076013935
 20
160.2638468348
 10
253.1681837459
 20
160.3807152365
 10
252.5210015657
 20
160.530018531
 10
251.8669708668
 20
160.711545396
 10
251.2070173565
 20
160.9250389006
 10
250.5420751253
 20
161.1701968686
 10
249.8730853246
 20
161.4466723063
 10
249.2009948345
 20
161.7540738936
 10
248.5267549241
 20
162.0919665381
 10
247.8513199044
 20
162.4598719903
 10
247.6794673391
 20
162.5581631825
  0
LWPOLYLINE
  5
EF
330
1F
100
AcDbEntity
  8
0
  6
Continuous
 62
     7
370
    18
100
AcDbPolyline
 90
       64
 70
   128
 43
0.0
 10
271.9521522878
 20
176.5704859428
 10
271.9394417395
 20
177.3579635825
 10
271.9013280849
 20
178.1590019225
 10
271.8378652696
 20
178.9724671824
 10
271.7491431181
 20
179.7972079932
 10
271.6352872067
 20
180.6320570265
 10
271.4964586858
 20
181.4758326469
 10
271.3328540516
 20
182.3273405842
 10
271.1447048681
 20
183.1853756243
 10
270.9322774394
 20
184.0487233145
 10
270.6958724329
 20
184.9161616827
 10
270.4358244534
 20
185.7864629668
 10
270.1525015698
 20
186.6583953528
 10
269.8463047938
 20
187.5307247177
 10
269.5176675128
 20
188.4022163771
 10
269.1670548761
 20
189.2716368318
 10
268.7949631367
 20
190.1377555145
 10
268.4019189488
 20
190.9993465309
 10
267.9884786226
 20
191.8551903954
 10
267.5552273366
 20
192.7040757567
 10
267.1027783094
 20
193.5448011125
 10
266.6317719322
 20
194.37617651
 10
266.1428748618
 20
195.1970252304
 10
265.6367790773
 20
196.006185454
 10
265.1142009007
 20
196.8025119051
 10
264.575879983
 20
197.5848774725
 10
264.0225782573
 20
198.3521748055
 10
263.4550788602
 20
199.1033178802
 10
262.8741850237
 20
199.8372435379
 10
262.2807189381
 20
200.5529129886
 10
261.6755205882
 20
201.2493132824
 10
261.0594465647
 20
201.9254587426
 10
260.4333688513
 20
202.5803923608
 10
259.7981735912
 20
203.2131871517
 10
259.1547598322
 20
203.822947465
 10
258.5040382545
 20
204.4088102533
 10
257.8469298817
 20
204.9699462933
 10
257.1843647773
 20
205.5055613596
 10
256.517280728
 20
206.014897349
 10
255.8466219168
 20
206.4972333534
 10
255.1733375861
 20
206.9518866802
 10
254.4983806948
 20
207.3782138182
 10
253.8227065687
 20
207.7756113493
 10
253.147271549
 20
208.1435168015
 10
252.4730316386
 20
208.481409446
 10
251.8009411485
 20
208.7888110333
 10
251.1319513478
 20
209.065286471
 10
250.4670091166
 20
209.310444439
 10
249.8070556063
 20
209.5239379436
 10
249.1530249074
 20
209.7054648086
 10
248.5058427272
 20
209.8547681031
 10
247.8664250796
 20
209.9716365049
 10
247.2356769888
 20
210.0559045998
 10
246.6144912083
 20
210.1074531158
 10
246.003746957
 20
210.1262090918
 10
245.4043086751
 20
210.1121459807
 10
244.8170248006
 20
210.0652836874
 10
244.2427265679
 20
209.9856885401
 10
243.6822268321
 20
209.8734731968
 10
243.1363189179
 20
209.7287964859
 10
242.6057754968
 20
209.5518631811
 10
242.0913474938
 20
209.3429237117
 10
241.5937630242
 20
209.102273808
 10
241.2926721412
 20
208.9365100674
  0
LWPOLYLINE
  5
F0
330
1F
100
AcDbEntity
  8
0
  6
Continuous
 62
     7
370
    18
100
AcDbPolyline
 90
       22
 70
   128
 43
0.0
 10
266.6906079502
 20
164.9412278585
 10
267.1027783094
 20
165.1951387911
 10
267.5552273366
 20
165.5134776195
 10
267.9884786226
 20
165.8621416934
 10
268.4019189488
 20
166.2406375179
 10
268.7949631367
 20
166.6484293744
 10
269.1670548761
 20
167.0849400792
 10
269.5176675128
 20
167.5495518002
 10
269.8463047938
 20
168.0416069315
 10
270.1525015698
 20
168.560409024
 10
270.4358244534
 20
169.1052237713
 10
270.6958724329
 20
169.6752800492
 10
270.9322774394
 20
170.2697710067
 10
271.1447048681
 20
170.8878552084
 10
271.3328540516
 20
171.5286578252
 10
271.4964586858
 20
172.1912718725
 10
271.6352872067
 20
172.8747594944
 10
271.7491431181
 20
173.5781532906
 10
271.8378652696
 20
174.3004576858
 10
271.9013280849
 20
175.0406503388
 10
271.9394417395
 20
175.7976835898
 10
271.9521522878
 20
176.5704859428
  0
ARC
  5
F1
330
1F
100
AcDbEntity
  8
0
  6
Continuous
 62
     7
370
    18
100
AcDbCircle
 10
233.342643851
 20
175.0184571928
 30
0.0
 40
38.64759282808846
100
AcDbArc
 50
2.5438153591
 51
57.4508081082
  0
CIRCLE
  5
F2
330
1F
100
AcDbEntity
  8
0
  6
Continuous
 62
     7
370
    18
100
AcDbCircle
 10
53.7609988576
 20
122.2246107007
 30
0.0
 40
25.20493715211658
  0
CIRCLE
  5
F3
330
1F
100
AcDbEntity
  8
0
  6
Continuous
 62
     7
370
    18
100
AcDbCircle
 10
53.7609988576
 20
122.2246107007
 30
0.0
 40
25.40000000000002
  0
DIMENSION
  5
F4
330
1F
100
AcDbEntity
  8
0
  6
Continuous
 62
     7
370
    18
100
AcDbDimension
  2
_D
 10
35.8004866155
 20
104.2640984585
 30
0.0
 11
95.4822954659
 21
153.156590836
 31
0.0
 70
   163
  1
<>
 71
     1
 42
-1.0
  3
SLDDIMSTYLE0
100
AcDbDiametricDimension
 15
71.7215110997
 25
140.1851229428
 35
0.0
 40
0.0
  0
LINE
  5
105
330
1F
100
AcDbEntity
  8
0
  6
PHANTOM
 62
     7
370
    35
100
AcDbLine
 10
53.7609988576
 20
153.7206107007
 30
0.0
 11
53.7609988576
 21
90.7286107007
 31
0.0
  0
LINE
  5
106
330
1F
100
AcDbEntity
  8
0
  6
Continuous
 62
     7
370
    35
100
AcDbLine
 10
53.7609988576
 20
153.7206107007
 30
0.0
 11
44.8709988576
 21
153.7206107007
 31
0.0
  0
SOLID
  5
107
330
1F
100
AcDbEntity
  8
0
  6
Continuous
 62
     7
370
    35
100
AcDbTrace
 10
44.8709988576
 20
153.7206107007
 30
0.0
 11
48.6809988576
 21
153.0856107007
 31
0.0
 12
48.6809988576
 22
154.3556107007
 32
0.0
 13
48.6809988576
 23
154.3556107007
 33
0.0
  0
LINE
  5
108
330
1F
100
AcDbEntity
  8
0
  6
Continuous
 62
     7
370
    35
100
AcDbLine
 10
53.7609988576
 20
90.7286107007
 30
0.0
 11
44.8709988576
 21
90.7286107007
 31
0.0
  0
SOLID
  5
109
330
1F
100
AcDbEntity
  8
0
  6
Continuous
 62
     7
370
    35
100
AcDbTrace
 10
44.8709988576
 20
90.7286107007
 30
0.0
 11
48.6809988576
 21
90.0936107007
 31
0.0
 12
48.6809988576
 22
91.3636107007
 32
0.0
 13
48.6809988576
 23
91.3636107007
 33
0.0
  0
MTEXT
  5
10A
330
1F
100
AcDbEntity
  8
0
  6
Continuous
 62
     7
100
AcDbMText
 10
41.4653632364
 20
155.8217442241
 30
0.0
 40
2.6458333333
 41
0.0
 71
     1
 72
     1
  1
A
  7
SLDTEXTSTYLE0
 73
     1
 44
1.0
  0
MTEXT
  5
10B
330
1F
100
AcDbEntity
  8
0
  6
Continuous
 62
     7
100
AcDbMText
 10
41.4653632364
 20
92.8297442241
 30
0.0
 40
2.6458333333
 41
0.0
 71
     1
 72
     1
  1
A
  7
SLDTEXTSTYLE0
 73
     1
 44
1.0
  0
LINE
  5
10C
330
1F
100
AcDbEntity
  8
0
  6
Continuous
 62
     7
370
    18
100
AcDbLine
 10
144.3264272189
 20
97.0246107007
 30
0.0
 11
144.1264272189
 21
96.8246107007
 31
0.0
  0
LINE
  5
10D
330
1F
100
AcDbEntity
  8
0
  6
Continuous
 62
     7
370
    18
100
AcDbLine
 10
135.2037951835
 20
96.8246107007
 30
0.0
 11
144.1264272189
 21
96.8246107007
 31
0.0
  0
LINE
  5
10E
330
1F
100
AcDbEntity
  8
0
  6
Continuous
 62
     7
370
    18
100
AcDbLine
 10
135.2037951835
 20
96.8246107007
 30
0.0
 11
135.0087323356
 21
97.0196735485
 31
0.0
  0
ARC
  5
10F
330
1F
100
AcDbEntity
  8
0
  6
Continuous
 62
     7
370
    18
100
AcDbCircle
 10
-864.6736048164
 20
122.2246107007
 30
0.0
 40
1000.000032035271
100
AcDbArc
 50
358.5557105735
 51
1.4442894265
  0
LINE
  5
110
330
1F
100
AcDbEntity
  8
0
  6
Continuous
 62
     7
370
    18
100
AcDbLine
 10
135.0087323356
 20
147.4295478528
 30
0.0
 11
135.2037951835
 21
147.6246107007
 31
0.0
  0
LINE
  5
111
330
1F
100
AcDbEntity
  8
0
  6
Continuous
 62
     7
370
    18
100
AcDbLine
 10
144.1264272189
 20
147.6246107007
 30
0.0
 11
135.2037951835
 21
147.6246107007
 31
0.0
  0
LINE
  5
112
330
1F
100
AcDbEntity
  8
0
  6
Continuous
 62
     7
370
    18
100
AcDbLine
 10
144.1264272189
 20
147.6246107007
 30
0.0
 11
144.3264272189
 21
147.4246107007
 31
0.0
  0
LINE
  5
113
330
1F
100
AcDbEntity
  8
0
  6
Continuous
 62
     7
370
    18
100
AcDbLine
 10
144.3264272189
 20
119.4144698019
 30
0.0
 11
144.3264272189
 21
119.7938544583
 31
0.0
  0
LINE
  5
114
330
1F
100
AcDbEntity
  8
0
  6
Continuous
 62
     7
370
    18
100
AcDbLine
 10
144.3264272189
 20
123.2246107007
 30
0.0
 11
144.3264272189
 21
123.3270839785
 31
0.0
  0
LINE
  5
115
330
1F
100
AcDbEntity
  8
0
  6
Continuous
 62
     7
370
    18
100
AcDbLine
 10
144.3264272189
 20
120.6005452206
 30
0.0
 11
144.3264272189
 21
123.2246107007
 31
0.0
  0
LINE
  5
116
330
1F
100
AcDbEntity
  8
0
  6
Continuous
 62
     7
370
    18
100
AcDbLine
 10
144.3264272189
 20
123.3270839785
 30
0.0
 11
144.3264272189
 21
147.4246107007
 31
0.0
  0
LINE
  5
117
330
1F
100
AcDbEntity
  8
0
  6
Continuous
 62
     7
370
    18
100
AcDbLine
 10
144.3264272189
 20
97.0246107007
 30
0.0
 11
144.3264272189
 21
118.9883620614
 31
0.0
  0
LINE
  5
118
330
1F
100
AcDbEntity
  8
0
  6
Continuous
 62
     7
370
    18
100
AcDbLine
 10
144.3264272189
 20
119.7938544583
 30
0.0
 11
144.3264272189
 21
120.6005452206
 31
0.0
  0
LINE
  5
119
330
1F
100
AcDbEntity
  8
0
  6
Continuous
 62
     7
370
    18
100
AcDbLine
 10
144.3264272189
 20
118.9883620614
 30
0.0
 11
144.3264272189
 21
119.4144698019
 31
0.0
  0
HATCH
  5
11A
330
1F
100
AcDbEntity
  8
0
  6
Continuous
 62
     7
370
    18
100
AcDbHatch
 10
0.0
 20
0.0
 30
0.0
210
0.0
220
0.0
230
1.0
  2
ANSI31
 70
     0
 71
     0
 91
        1
 92
        0
 93
       14
 72
     1
 10
144.3264272188792
 20
118.9883620613916
 11
144.3264272188792
 21
119.4144698019193
 72
     1
 10
144.3264272188792
 20
119.4144698019193
 11
144.3264272188792
 21
119.7938544583052
 72
     1
 10
144.3264272188792
 20
119.7938544583052
 11
144.3264272188792
 21
120.600545220565
 72
     1
 10
144.3264272188792
 20
120.600545220565
 11
144.3264272188792
 21
123.2246107006527
 72
     1
 10
144.3264272188792
 20
123.2246107006527
 11
144.3264272188792
 21
123.3270839784661
 72
     1
 10
144.3264272188792
 20
123.3270839784661
 11
144.3264272188792
 21
147.4246107006527
 72
     1
 10
144.3264272188792
 20
147.4246107006527
 11
144.1264272188792
 21
147.6246107006527
 72
     1
 10
144.1264272188792
 20
147.6246107006527
 11
135.2037951834997
 21
147.6246107006527
 72
     1
 10
135.2037951834997
 20
147.6246107006527
 11
135.0087323356164
 21
147.4295478527694
 72
     2
 10
-864.6736048163912
 20
122.2246107006527
 40
1000.00003203527
 50
358.5557105735338
 51
361.4442894264678
 73
     0
 72
     1
 10
135.0087323356164
 20
97.01967354853922
 11
135.2037951834997
 21
96.82461070065266
 72
     1
 10
135.2037951834997
 20
96.82461070065266
 11
144.1264272188792
 21
96.82461070065266
 72
     1
 10
144.1264272188792
 20
96.82461070065266
 11
144.3264272188792
 21
97.02461070065269
 72
     1
 10
144.3264272188792
 20
97.02461070065269
 11
144.3264272188792
 21
118.9883620613916
 97
        0
 75
     0
 76
     1
 52
0.0
 41
1.0
 77
     0
 78
     1
 53
45.0
 43
0.0
 44
0.0
 45
-2.245064030267288
 46
2.245064030267288
 79
     0
 98
        1
 10
0.0
 20
0.0
  0
DIMENSION
  5
11B
330
1F
100
AcDbEntity
  8
0
  6
Continuous
 62
     7
370
    18
100
AcDbDimension
  2
_D_1
 10
144.3334431254
 20
160.6654577197
 30
0.0
 11
163.0717691647
 21
160.6555288728
 31
0.0
 70
   160
  1
<> REF
 71
     2
 42
-1.0
  3
SLDDIMSTYLE1
100
AcDbAlignedDimension
 13
135.0087323356
 23
147.4295478528
 33
0.0
 14
144.3264272189
 24
147.4246107007
 34
0.0
 50
-0.0303592204
100
AcDbRotatedDimension
  0
DIMENSION
  5
12F
330
1F
100
AcDbEntity
  8
0
  6
Continuous
 62
     7
370
    18
100
AcDbDimension
  2
_D_2
 10
-864.6736048164
 20
122.2246107007
 30
0.0
 11
159.9540288324
 21
87.7980977736
 31
0.0
 70
   164
  1
<>
 71
     1
 42
-1.0
  3
SLDDIMSTYLE2
100
AcDbRadialDimension
 15
134.7494641186
 25
88.2600210353
 35
0.0
 40
0.0
  0
DIMENSION
  5
140
330
1F
100
AcDbEntity
  8
0
  6
Continuous
 62
     7
370
    18
100
AcDbDimension
  2
_D_3
 10
135.3264272189
 20
152.3543360475
 30
0.0
 11
160.3264272189
 21
152.3543360475
 31
0.0
 70
   160
  1
<>
 71
     2
 42
-1.0
  3
SLDDIMSTYLE3
100
AcDbAlignedDimension
 13
144.3264272189
 23
147.4246107007
 33
0.0
 14
135.3264272189
 24
122.2246107007
 34
0.0
100
AcDbRotatedDimension
  0
MTEXT
  5
155
330
1F
100
AcDbEntity
  8
0
  6
Continuous
 62
     7
370
     0
100
AcDbMText
 10
139.4865357272
 20
79.2398041862
 30
0.0
 40
2.1166666667
 41
0.0
 71
     2
 72
     1
  1
SECTION A-A
  7
SLDTEXTSTYLE0
 73
     1
 44
1.0
  0
MTEXT
  5
156
330
1F
100
AcDbEntity
  8
0
  6
Continuous
 62
     7
370
     0
100
AcDbMText
 10
114.671289364
 20
102.2984344535
 30
0.0
 40
2.1166666667
 41
0.0
 71
     1
 72
     1
  1
S1
  7
SLDTEXTSTYLE0
 73
     1
 44
1.0
  0
LEADER
  5
158
330
1F
100
AcDbEntity
  8
0
  6
Continuous
 62
     7
370
     0
100
AcDbLeader
  3
SLDDIMSTYLE4
 76
     3
 10
135.3060275461
 20
115.8372066371
 30
0.0
 10
124.4070813275
 20
101.7379628875
 30
0.0
 10
118.0570813275
 20
101.7379628875
 30
0.0
  0
MTEXT
  5
159
330
1F
100
AcDbEntity
  8
0
  6
Continuous
 62
     7
370
     0
100
AcDbMText
 10
161.7979200006
 20
133.652353862
 30
0.0
 40
2.1166666667
 41
0.0
 71
     1
 72
     1
  1
S2
  7
SLDTEXTSTYLE0
 73
     1
 44
1.0
  0
LEADER
  5
15A
330
1F
100
AcDbEntity
  8
0
  6
Continuous
 62
     7
370
     0
100
AcDbLeader
  3
SLDDIMSTYLE4
 76
     3
 10
144.3264272189
 20
120.6005452206
 30
0.0
 10
154.8310877627
 20
133.1347490433
 30
0.0
 10
161.1810877627
 20
133.1347490433
 30
0.0
  0
SPLINE
  5
15B
330
1F
100
AcDbEntity
  8
0
  6
Continuous
 62
     7
370
    18
100
AcDbSpline
210
0.0
220
0.0
230
1.0
 70
     8
 71
     3
 72
    13
 73
     9
 74
     0
 42
0.000000001
 43
0.00000001
 40
0.0
 40
0.0
 40
0.0
 40
0.0
 40
0.1943389941804438
 40
0.3816850483972324
 40
0.5594858099432996
 40
0.6963399801806515
 40
0.8391066529687221
 40
0.9999999999999999
 40
0.9999999999999999
 40
0.9999999999999999
 40
0.9999999999999999
 10
223.3389159985552
 20
124.3439681369354
 30
0.0
 10
223.3360909061634
 20
124.4056005592468
 30
0.0
 10
223.3305423772598
 20
124.5266476717525
 30
0.0
 10
223.2815466691258
 20
124.6986662262918
 30
0.0
 10
223.201535283645
 20
124.8387882488296
 30
0.0
 10
223.0933017631259
 20
124.9377479763792
 30
0.0
 10
222.9642625047497
 20
124.9985184968543
 30
0.0
 10
222.8676106019219
 20
125.0051177027975
 30
0.0
 10
222.8163998822752
 20
125.0086142721931
 30
0.0
  0
SPLINE
  5
15C
330
1F
100
AcDbEntity
  8
0
  6
Continuous
 62
     7
370
    18
100
AcDbSpline
210
0.0
220
0.0
230
1.0
 70
     8
 71
     3
 72
    12
 73
     8
 74
     0
 42
0.000000001
 43
0.00000001
 40
0.0
 40
0.0
 40
0.0
 40
0.0
 40
0.20089083816314
 40
0.3780365369998075
 40
0.5535498386387532
 40
0.771374733518345
 40
0.9999999999999999
 40
0.9999999999999999
 40
0.9999999999999999
 40
0.9999999999999999
 10
222.8163998822752
 20
123.6793039396597
 30
0.0
 10
222.8805380537844
 20
123.6848261429675
 30
0.0
 10
223.0012333152933
 20
123.6952178294884
 30
0.0
 10
223.1539278033207
 20
123.7934782121413
 30
0.0
 10
223.2619097245208
 20
123.9409961904873
 30
0.0
 10
223.3275184770469
 20
124.1301200412154
 30
0.0
 10
223.3350560426383
 20
124.2715450033801
 30
0.0
 10
223.3389159985552
 20
124.3439681369354
 30
0.0
  0
SPLINE
  5
15D
330
1F
100
AcDbEntity
  8
0
  6
Continuous
 62
     7
370
    18
100
AcDbSpline
210
0.0
220
0.0
230
1.0
 70
     8
 71
     3
 72
    13
 73
     9
 74
     0
 42
0.000000001
 43
0.00000001
 40
0.0
 40
0.0
 40
0.0
 40
0.0
 40
0.1943256494037773
 40
0.3816748644005021
 40
0.559488170496602
 40
0.6963511211546937
 40
0.8391184169589753
 40
0.9999999999999999
 40
0.9999999999999999
 40
0.9999999999999999
 40
0.9999999999999999
 10
222.2938657039772
 20
124.3439681369354
 30
0.0
 10
222.2966921582195
 20
124.28233946795
 30
0.0
 10
222.3022435949082
 20
124.1612946447352
 30
0.0
 10
222.3512521238877
 20
123.9892772368579
 30
0.0
 10
222.4312720374522
 20
123.8491507646588
 30
0.0
 10
222.5395078525064
 20
123.7501827911072
 30
0.0
 10
222.668543288146
 20
123.6894026981447
 30
0.0
 10
222.7651924698916
 20
123.6828014589509
 30
0.0
 10
222.8163998822752
 20
123.6793039396597
 30
0.0
  0
SPLINE
  5
15E
330
1F
100
AcDbEntity
  8
0
  6
Continuous
 62
     7
370
    18
100
AcDbSpline
210
0.0
220
0.0
230
1.0
 70
     8
 71
     3
 72
    12
 73
     8
 74
     0
 42
0.000000001
 43
0.00000001
 40
0.0
 40
0.0
 40
0.0
 40
0.0
 40
0.2008792258750607
 40
0.3780217100331201
 40
0.5535332757399345
 40
0.7713595773327315
 40
1.0
 40
1.0
 40
1.0
 40
1.0
 10
222.8163998822752
 20
125.0086142721931
 30
0.0
 10
222.752266089722
 20
125.0030926086962
 30
0.0
 10
222.6315768256815
 20
124.9927017448912
 30
0.0
 10
222.4788832919636
 20
124.8944546672663
 30
0.0
 10
222.3708897219021
 20
124.7469483971271
 30
0.0
 10
222.3052662459051
 20
124.5578250292262
 30
0.0
 10
222.2977267573476
 20
124.4163956478368
 30
0.0
 10
222.2938657039772
 20
124.3439681369354
 30
0.0
  0
SPLINE
  5
15F
330
1F
100
AcDbEntity
  8
0
  6
Continuous
 62
     7
370
    18
100
AcDbSpline
210
0.0
220
0.0
230
1.0
 70
     8
 71
     3
 72
    19
 73
    15
 74
     0
 42
0.000000001
 43
0.00000001
 40
0.0
 40
0.0
 40
0.0
 40
0.0
 40
0.091587339706645
 40
0.1741182870805897
 40
0.2526289966153891
 40
0.3313197891920882
 40
0.4131632671988421
 40
0.4999972215981986
 40
0.5868350001903235
 40
0.6686802724867941
 40
0.7473714879383931
 40
0.8258819896397948
 40
0.9084127008286221
 40
1.0
 40
1.0
 40
1.0
 40
1.0
 10
222.8200050464215
 20
123.1434309837768
 30
0.0
 10
222.9306426211133
 20
123.1508756963282
 30
0.0
 10
223.1409776418026
 20
123.1650289690557
 30
0.0
 10
223.4253052167717
 20
123.2883483658487
 30
0.0
 10
223.6494765033612
 20
123.4756140452185
 30
0.0
 10
223.8101557921619
 20
123.7187574706784
 30
0.0
 10
223.9062578722799
 20
124.0035148348691
 30
0.0
 10
223.936245500152
 20
124.3117674485039
 30
0.0
 10
223.9051078593121
 20
124.6199081462109
 30
0.0
 10
223.8079442456676
 20
124.9043127201098
 30
0.0
 10
223.6463580546795
 20
125.1468576204599
 30
0.0
 10
223.4214884952527
 20
125.333284528846
 30
0.0
 10
223.1367021319518
 20
125.4555390112039
 30
0.0
 10
222.9263161096312
 20
125.4689064734267
 30
0.0
 10
222.8156515808562
 20
125.4759378526575
 30
0.0
  0
SPLINE
  5
160
330
1F
100
AcDbEntity
  8
0
  6
Continuous
 62
     7
370
    18
100
AcDbSpline
210
0.0
220
0.0
230
1.0
 70
     8
 71
     3
 72
    14
 73
    10
 74
     0
 42
0.000000001
 43
0.00000001
 40
0.0
 40
0.0
 40
0.0
 40
0.0
 40
0.1466868109097161
 40
0.2859932799578288
 40
0.419815534109628
 40
0.5510853201411035
 40
0.6904104027401207
 40
0.8377115977293306
 40
1.0
 40
1.0
 40
1.0
 40
1.0
 10
221.7141529509028
 20
124.3158214195164
 30
0.0
 10
221.718035267782
 20
124.2271469252862
 30
0.0
 10
221.7256045681931
 20
124.0542594700594
 30
0.0
 10
221.7954237717475
 20
123.8083204705485
 30
0.0
 10
221.9077221508202
 20
123.5898171604822
 30
0.0
 10
222.0679647012332
 20
123.4023768722029
 30
0.0
 10
222.2769583585692
 20
123.2569108416581
 30
0.0
 10
222.534438815785
 20
123.1605434837403
 30
0.0
 10
222.7217930353539
 20
123.1493163191404
 30
0.0
 10
222.8200050464215
 20
123.1434309837768
 30
0.0
  0
SPLINE
  5
161
330
1F
100
AcDbEntity
  8
0
  6
Continuous
 62
     7
370
    18
100
AcDbSpline
210
0.0
220
0.0
230
1.0
 70
     8
 71
     3
 72
    14
 73
    10
 74
     0
 42
0.000000001
 43
0.00000001
 40
0.0
 40
0.0
 40
0.0
 40
0.0
 40
0.155398965692284
 40
0.2968771122070972
 40
0.4305153137104959
 40
0.5617675040118884
 40
0.701406344972662
 40
0.8467289956139458
 40
1.0
 40
1.0
 40
1.0
 40
1.0
 10
222.8156515808562
 20
125.4759378526575
 30
0.0
 10
222.7224104402215
 20
125.4705829004343
 30
0.0
 10
222.5442808082308
 20
125.4603526988049
 30
0.0
 10
222.2981014055567
 20
125.373350270362
 30
0.0
 10
222.0923330275267
 20
125.2397460316844
 30
0.0
 10
221.9263893401962
 20
125.0599318168709
 30
0.0
 10
221.8050183025678
 20
124.8402129500917
 30
0.0
 10
221.7279458611361
 20
124.5867317634597
 30
0.0
 10
221.718831460631
 20
124.4077133160163
 30
0.0
 10
221.7141529509028
 20
124.3158214195164
 30
0.0
  0
LINE
  5
162
330
1F
100
AcDbEntity
  8
0
  6
Continuous
 62
     7
370
    18
100
AcDbLine
 10
218.5765539855
 20
124.9593230253
 30
0.0
 11
218.5765539855
 21
123.2246107007
 31
0.0
  0
LINE
  5
163
330
1F
100
AcDbEntity
  8
0
  6
Continuous
 62
     7
370
    18
100
AcDbLine
 10
217.9060596917
 20
124.9593230253
 30
0.0
 11
218.5765539855
 21
124.9593230253
 31
0.0
  0
LINE
  5
164
330
1F
100
AcDbEntity
  8
0
  6
Continuous
 62
     7
370
    18
100
AcDbLine
 10
217.9060596917
 20
125.4609594489
 30
0.0
 11
217.9060596917
 21
124.9593230253
 31
0.0
  0
LINE
  5
165
330
1F
100
AcDbEntity
  8
0
  6
Continuous
 62
     7
370
    18
100
AcDbLine
 10
220.3548719567
 20
125.4609594489
 30
0.0
 11
217.9060596917
 21
125.4609594489
 31
0.0
  0
LINE
  5
166
330
1F
100
AcDbEntity
  8
0
  6
Continuous
 62
     7
370
    18
100
AcDbLine
 10
220.3548719567
 20
124.6457844563
 30
0.0
 11
220.3548719567
 21
125.4609594489
 31
0.0
  0
LINE
  5
167
330
1F
100
AcDbEntity
  8
0
  6
Continuous
 62
     7
370
    18
100
AcDbLine
 10
221.1261381837
 20
124.6457844563
 30
0.0
 11
220.3548719567
 21
124.6457844563
 31
0.0
  0
LINE
  5
168
330
1F
100
AcDbEntity
  8
0
  6
Continuous
 62
     7
370
    18
100
AcDbLine
 10
221.1261381837
 20
125.4609594489
 30
0.0
 11
221.1261381837
 21
124.6457844563
 31
0.0
  0
LINE
  5
169
330
1F
100
AcDbEntity
  8
0
  6
Continuous
 62
     7
370
    18
100
AcDbLine
 10
221.7116506832
 20
125.4609594489
 30
0.0
 11
221.1261381837
 21
125.4609594489
 31
0.0
  0
LINE
  5
16A
330
1F
100
AcDbEntity
  8
0
  6
Continuous
 62
     7
370
    18
100
AcDbLine
 10
221.7116506832
 20
123.2246107007
 30
0.0
 11
221.7116506832
 21
125.4609594489
 31
0.0
  0
LINE
  5
16B
330
1F
100
AcDbEntity
  8
0
  6
Continuous
 62
     7
370
    18
100
AcDbLine
 10
221.1261342484
 20
123.2246107007
 30
0.0
 11
221.7116506832
 21
123.2246107007
 31
0.0
  0
LINE
  5
16C
330
1F
100
AcDbEntity
  8
0
  6
Continuous
 62
     7
370
    18
100
AcDbLine
 10
221.1261342484
 20
124.146423847
 30
0.0
 11
221.1261342484
 21
123.2246107007
 31
0.0
  0
LINE
  5
16D
330
1F
100
AcDbEntity
  8
0
  6
Continuous
 62
     7
370
    18
100
AcDbLine
 10
220.3548680214
 20
124.146423847
 30
0.0
 11
221.1261342484
 21
124.146423847
 31
0.0
  0
LINE
  5
16E
330
1F
100
AcDbEntity
  8
0
  6
Continuous
 62
     7
370
    18
100
AcDbLine
 10
220.3548680214
 20
123.2246107007
 30
0.0
 11
220.3548680214
 21
124.146423847
 31
0.0
  0
LINE
  5
16F
330
1F
100
AcDbEntity
  8
0
  6
Continuous
 62
     7
370
    18
100
AcDbLine
 10
219.7694238347
 20
123.2246107007
 30
0.0
 11
220.3548680214
 21
123.2246107007
 31
0.0
  0
LINE
  5
170
330
1F
100
AcDbEntity
  8
0
  6
Continuous
 62
     7
370
    18
100
AcDbLine
 10
219.7694238347
 20
124.9615265915
 30
0.0
 11
219.7694238347
 21
123.2246107007
 31
0.0
  0
LINE
  5
171
330
1F
100
AcDbEntity
  8
0
  6
Continuous
 62
     7
370
    18
100
AcDbLine
 10
219.1620523583
 20
124.9615265915
 30
0.0
 11
219.7694238347
 21
124.9615265915
 31
0.0
  0
LINE
  5
172
330
1F
100
AcDbEntity
  8
0
  6
Continuous
 62
     7
370
    18
100
AcDbLine
 10
219.1620523583
 20
123.2246107007
 30
0.0
 11
219.1620523583
 21
124.9615265915
 31
0.0
  0
LINE
  5
173
330
1F
100
AcDbEntity
  8
0
  6
Continuous
 62
     7
370
    18
100
AcDbLine
 10
218.5765539855
 20
123.2246107007
 30
0.0
 11
219.1620523583
 21
123.2246107007
 31
0.0
  0
SPLINE
  5
174
330
1F
100
AcDbEntity
  8
0
  6
Continuous
 62
     7
370
    18
100
AcDbSpline
210
0.0
220
0.0
230
1.0
 70
     8
 71
     3
 72
    12
 73
     8
 74
     0
 42
0.000000001
 43
0.00000001
 40
0.0
 40
0.0
 40
0.0
 40
0.0
 40
0.1970292569793941
 40
0.3714318737747092
 40
0.5434083414909542
 40
0.7603083066182464
 40
1.0
 40
1.0
 40
1.0
 40
1.0
 10
225.2743154042641
 20
124.7546623003
 30
0.0
 10
225.2721056915463
 20
124.7831004624629
 30
0.0
 10
225.2679400272797
 20
124.8367109770678
 30
0.0
 10
225.2279025336268
 20
124.9064435111213
 30
0.0
 10
225.1644410160458
 20
124.9582352844574
 30
0.0
 10
225.0784434482381
 20
124.9906975765966
 30
0.0
 10
225.012878454578
 20
124.994238470999
 30
0.0
 10
224.9784595508068
 20
124.9960972937776
 30
0.0
  0
SPLINE
  5
175
330
1F
100
AcDbEntity
  8
0
  6
Continuous
 62
     7
370
    18
100
AcDbSpline
210
0.0
220
0.0
230
1.0
 70
     8
 71
     3
 72
    12
 73
     8
 74
     0
 42
0.000000001
 43
0.00000001
 40
0.0
 40
0.0
 40
0.0
 40
0.0
 40
0.21112918881279
 40
0.392706233915228
 40
0.5599129747574106
 40
0.7634359056262731
 40
1.0
 40
1.0
 40
1.0
 40
1.0
 10
225.0036380037811
 20
124.4913722651445
 30
0.0
 10
225.033935958648
 20
124.4929108865604
 30
0.0
 10
225.0902910075071
 20
124.495772765702
 30
0.0
 10
225.166615977317
 20
124.5249517893233
 30
0.0
 10
225.2279400755884
 20
124.5771121981163
 30
0.0
 10
225.2683876003786
 20
124.6573119970928
 30
0.0
 10
225.2722429839028
 20
124.7206276469201
 30
0.0
 10
225.2743154042641
 20
124.7546623003
 30
0.0
  0
LINE
  5
176
330
1F
100
AcDbEntity
  8
0
  6
Continuous
 62
     7
370
    18
100
AcDbLine
 10
224.5125678607
 20
124.4913722651
 30
0.0
 11
225.0036380038
 21
124.4913722651
 31
0.0
  0
LINE
  5
177
330
1F
100
AcDbEntity
  8
0
  6
Continuous
 62
     7
370
    18
100
AcDbLine
 10
224.5125678607
 20
124.9960972938
 30
0.0
 11
224.5125678607
 21
124.4913722651
 31
0.0
  0
LINE
  5
178
330
1F
100
AcDbEntity
  8
0
  6
Continuous
 62
     7
370
    18
100
AcDbLine
 10
224.9784595508
 20
124.9960972938
 30
0.0
 11
224.5125678607
 21
124.9960972938
 31
0.0
  0
SPLINE
  5
179
330
1F
100
AcDbEntity
  8
0
  6
Continuous
 62
     7
370
    18
100
AcDbSpline
210
0.0
220
0.0
230
1.0
 70
     8
 71
     3
 72
    14
 73
    10
 74
     0
 42
0.000000001
 43
0.00000001
 40
0.0
 40
0.0
 40
0.0
 40
0.0
 40
0.2575826845002086
 40
0.4580339644254271
 40
0.6128287983994989
 40
0.7093883131761942
 40
0.799802888308484
 40
0.8941338805613368
 40
1.0
 40
1.0
 40
1.0
 40
1.0
 10
231.894424272703
 20
123.8186343458605
 30
0.0
 10
231.9225015478862
 20
123.8115202822456
 30
0.0
 10
231.9724286060166
 20
123.7988700423159
 30
0.0
 10
232.0411152954227
 20
123.7912737256218
 30
0.0
 10
232.0923194167311
 20
123.7959666065365
 30
0.0
 10
232.1282470669768
 20
123.8110756320389
 30
0.0
 10
232.1523391970231
 20
123.8323165672535
 30
0.0
 10
232.1696482165838
 20
123.860560312723
 30
0.0
 10
232.1759840793564
 20
123.8822135384465
 30
0.0
 10
232.1793345433035
 20
123.8936639682819
 30
0.0
  0
SPLINE
  5
17A
330
1F
100
AcDbEntity
  8
0
  6
Continuous
 62
     7
370
    18
100
AcDbSpline
210
0.0
220
0.0
230
1.0
 70
     8
 71
     3
 72
    12
 73
     8
 74
     0
 42
0.000000001
 43
0.00000001
 40
0.0
 40
0.0
 40
0.0
 40
0.0
 40
0.2545415383352848
 40
0.4933538848768423
 40
0.6299818928893339
 40
0.7933578680691701
 40
1.0
 40
1.0
 40
1.0
 40
1.0
 10
231.6948028507
 20
124.1022802752069
 30
0.0
 10
231.6946481558972
 20
124.0696178260576
 30
0.0
 10
231.6943483255338
 20
124.006311277811
 30
0.0
 10
231.7193421488516
 20
123.9261054330604
 30
0.0
 10
231.767399585688
 20
123.8748798612753
 30
0.0
 10
231.8235953606366
 20
123.8407556795244
 30
0.0
 10
231.8690432313188
 20
123.8265613698513
 30
0.0
 10
231.894424272703
 20
123.8186343458605
 30
0.0
  0
SPLINE
  5
17B
330
1F
100
AcDbEntity
  8
0
  6
Continuous
 62
     7
370
    18
100
AcDbSpline
210
0.0
220
0.0
230
1.0
 70
     8
 71
     3
 72
    14
 73
    10
 74
     0
 42
0.000000001
 43
0.00000001
 40
0.0
 40
0.0
 40
0.0
 40
0.0
 40
0.0123761948722825
 40
0.0260544786030458
 40
0.0423069896659046
 40
0.1107691877094737
 40
0.3353734156282139
 40
0.646563748969061
 40
1.0
 40
1.0
 40
1.0
 40
1.0
 10
232.1793345433035
 20
123.8936639682819
 30
0.0
 10
232.1796007827728
 20
123.8959005882652
 30
0.0
 10
232.1801612725378
 20
123.900609141104
 30
0.0
 10
232.177319884836
 20
123.9079149842556
 30
0.0
 10
232.1671965140246
 20
123.9224498248328
 30
0.0
 10
232.120825486069
 20
123.9552269808532
 30
0.0
 10
232.0211124842117
 20
123.9977393518192
 30
0.0
 10
231.8701717891973
 20
124.0505615400483
 30
0.0
 10
231.7556848886395
 20
124.0843253168027
 30
0.0
 10
231.6948028507
 20
124.1022802752069
 30
0.0
  0
LINE
  5
17C
330
1F
100
AcDbEntity
  8
0
  6
Continuous
 62
     7
370
    18
100
AcDbLine
 10
231.1712933234
 20
124.1062900432
 30
0.0
 11
231.681003469
 21
124.1062900432
 31
0.0
  0
SPLINE
  5
17D
330
1F
100
AcDbEntity
  8
0
  6
Continuous
 62
     7
370
    18
100
AcDbSpline
210
0.0
220
0.0
230
1.0
 70
     8
 71
     3
 72
    11
 73
     7
 74
     0
 42
0.000000001
 43
0.00000001
 40
0.0
 40
0.0
 40
0.0
 40
0.0
 40
0.2403133392799518
 40
0.5276554281052254
 40
0.7630136347472188
 40
1.0
 40
1.0
 40
1.0
 40
1.0
 10
230.9555605814508
 20
124.4472828794125
 30
0.0
 10
230.9822564291981
 20
124.4269750444527
 30
0.0
 10
231.0408724386711
 20
124.3823851794801
 30
0.0
 10
231.1085537586513
 20
124.2996258178148
 30
0.0
 10
231.160305405779
 20
124.205322997084
 30
0.0
 10
231.1676222771986
 20
124.1393767993876
 30
0.0
 10
231.1712933234346
 20
124.1062900431842
 30
0.0
  0
SPLINE
  5
17E
330
1F
100
AcDbEntity
  8
0
  6
Continuous
 62
     7
370
    18
100
AcDbSpline
210
0.0
220
0.0
230
1.0
 70
     8
 71
     3
 72
    10
 73
     6
 74
     0
 42
0.000000001
 43
0.00000001
 40
0.0
 40
0.0
 40
0.0
 40
0.0
 40
0.3052209345869937
 40
0.5892711010915017
 40
0.9999999999999999
 40
0.9999999999999999
 40
0.9999999999999999
 40
0.9999999999999999
 10
231.0808748617492
 20
124.6282281748909
 30
0.0
 10
231.0733738720676
 20
124.6066824634158
 30
0.0
 10
231.0588921771769
 20
124.565085496478
 30
0.0
 10
231.011966900689
 20
124.5065661697443
 30
0.0
 10
230.9765171969976
 20
124.4693083747934
 30
0.0
 10
230.9555605814508
 20
124.4472828794125
 30
0.0
  0
SPLINE
  5
17F
330
1F
100
AcDbEntity
  8
0
  6
Continuous
 62
     7
370
    18
100
AcDbSpline
210
0.0
220
0.0
230
1.0
 70
     8
 71
     3
 72
    11
 73
     7
 74
     0
 42
0.000000001
 43
0.00000001
 40
0.0
 40
0.0
 40
0.0
 40
0.0
 40
0.3113820865694061
 40
0.5952152429024645
 40
0.7995709864930258
 40
1.0
 40
1.0
 40
1.0
 40
1.0
 10
231.5819152387275
 20
124.13414167481
 30
0.0
 10
231.5076113639992
 20
124.1594492269258
 30
0.0
 10
231.3655775067137
 20
124.2078252942387
 30
0.0
 10
231.203550653134
 20
124.3308988452844
 30
0.0
 10
231.0996633563069
 20
124.4754508937928
 30
0.0
 10
231.0870970589503
 20
124.5776328295368
 30
0.0
 10
231.0808748617492
 20
124.6282281748909
 30
0.0
  0
SPLINE
  5
180
330
1F
100
AcDbEntity
  8
0
  6
Continuous
 62
     7
370
    18
100
AcDbSpline
210
0.0
220
0.0
230
1.0
 70
     8
 71
     3
 72
     9
 73
     5
 74
     0
 42
0.000000001
 43
0.00000001
 40
0.0
 40
0.0
 40
0.0
 40
0.0
 40
0.5632377239369323
 40
1.0
 40
1.0
 40
1.0
 40
1.0
 10
231.6810034690125
 20
124.1062900431842
 30
0.0
 10
231.6624172533282
 20
124.1115803128412
 30
0.0
 10
231.629418370451
 20
124.1209729181874
 30
0.0
 10
231.5963557458854
 20
124.1301384961275
 30
0.0
 10
231.5819152387275
 20
124.13414167481
 30
0.0
  0
SPLINE
  5
181
330
1F
100
AcDbEntity
  8
0
  6
Continuous
 62
     7
370
    18
100
AcDbSpline
210
0.0
220
0.0
230
1.0
 70
     8
 71
     3
 72
    13
 73
     9
 74
     0
 42
0.000000001
 43
0.00000001
 40
0.0
 40
0.0
 40
0.0
 40
0.0
 40
0.2070940199890577
 40
0.3978649646626732
 40
0.5739369280037266
 40
0.7077750174858438
 40
0.8462504046616516
 40
1.0
 40
1.0
 40
1.0
 40
1.0
 10
230.3175378606006
 20
123.3270223422341
 30
0.0
 10
230.3889768528898
 20
123.3294888977722
 30
0.0
 10
230.5262240420853
 20
123.3342275958383
 30
0.0
 10
230.719980088037
 20
123.380657029014
 30
0.0
 10
230.8762639520686
 20
123.4591330452745
 30
0.0
 10
230.9894920257018
 20
123.5666643352044
 30
0.0
 10
231.06579629625
 20
123.6952366786056
 30
0.0
 10
231.0859731053838
 20
123.79448485102
 30
0.0
 10
231.0965888173358
 20
123.8467027217013
 30
0.0
  0
LINE
  5
182
330
1F
100
AcDbEntity
  8
0
  6
Continuous
 62
     7
370
    18
100
AcDbLine
 10
228.8390171981
 20
123.3270223422
 30
0.0
 11
230.3175378606
 21
123.3270223422
 31
0.0
  0
LINE
  5
183
330
1F
100
AcDbEntity
  8
0
  6
Continuous
 62
     7
370
    18
100
AcDbLine
 10
228.6884160927
 20
123.6704535509
 30
0.0
 11
228.8390171981
 21
123.3270223422
 31
0.0
  0
LINE
  5
184
330
1F
100
AcDbEntity
  8
0
  6
Continuous
 62
     7
370
    18
100
AcDbLine
 10
228.0350045326
 20
123.6704535509
 30
0.0
 11
228.6884160927
 21
123.6704535509
 31
0.0
  0
LINE
  5
185
330
1F
100
AcDbEntity
  8
0
  6
Continuous
 62
     7
370
    18
100
AcDbLine
 10
227.8814412563
 20
123.329803893
 30
0.0
 11
228.0350045326
 21
123.6704535509
 31
0.0
  0
LINE
  5
186
330
1F
100
AcDbEntity
  8
0
  6
Continuous
 62
     7
370
    18
100
AcDbLine
 10
226.012022402
 20
123.329803893
 30
0.0
 11
227.8814412563
 21
123.329803893
 31
0.0
  0
LINE
  5
187
330
1F
100
AcDbEntity
  8
0
  6
Continuous
 62
     7
370
    18
100
AcDbLine
 10
226.012022402
 20
125.3500405969
 30
0.0
 11
226.012022402
 21
123.329803893
 31
0.0
  0
LINE
  5
188
330
1F
100
AcDbEntity
  8
0
  6
Continuous
 62
     7
370
    18
100
AcDbLine
 10
226.5390720848
 20
125.3500405969
 30
0.0
 11
226.012022402
 21
125.3500405969
 31
0.0
  0
LINE
  5
189
330
1F
100
AcDbEntity
  8
0
  6
Continuous
 62
     7
370
    18
100
AcDbLine
 10
226.5390720848
 20
123.7867729463
 30
0.0
 11
226.5390720848
 21
125.3500405969
 31
0.0
  0
LINE
  5
18A
330
1F
100
AcDbEntity
  8
0
  6
Continuous
 62
     7
370
    18
100
AcDbLine
 10
227.5085328344
 20
123.7867729463
 30
0.0
 11
226.5390720848
 21
123.7867729463
 31
0.0
  0
LINE
  5
18B
330
1F
100
AcDbEntity
  8
0
  6
Continuous
 62
     7
370
    18
100
AcDbLine
 10
228.0967766338
 20
125.3500405969
 30
0.0
 11
227.5085328344
 21
123.7867729463
 31
0.0
  0
LINE
  5
18C
330
1F
100
AcDbEntity
  8
0
  6
Continuous
 62
     7
370
    18
100
AcDbLine
 10
228.632243217
 20
125.3500405969
 30
0.0
 11
228.0967766338
 21
125.3500405969
 31
0.0
  0
LINE
  5
18D
330
1F
100
AcDbEntity
  8
0
  6
Continuous
 62
     7
370
    18
100
AcDbLine
 10
229.3457651727
 20
123.4666417407
 30
0.0
 11
228.632243217
 21
125.3500405969
 31
0.0
  0
LINE
  5
18E
330
1F
100
AcDbEntity
  8
0
  6
Continuous
 62
     7
370
    18
100
AcDbLine
 10
229.3457651727
 20
125.3500405969
 30
0.0
 11
229.3457651727
 21
123.4666417407
 31
0.0
  0
LINE
  5
18F
330
1F
100
AcDbEntity
  8
0
  6
Continuous
 62
     7
370
    18
100
AcDbLine
 10
230.2919981673
 20
125.3500405969
 30
0.0
 11
229.3457651727
 21
125.3500405969
 31
0.0
  0
SPLINE
  5
190
330
1F
100
AcDbEntity
  8
0
  6
Continuous
 62
     7
370
    18
100
AcDbSpline
210
0.0
220
0.0
230
1.0
 70
     8
 71
     3
 72
    14
 73
    10
 74
     0
 42
0.000000001
 43
0.00000001
 40
0.0
 40
0.0
 40
0.0
 40
0.0
 40
0.1423816612635868
 40
0.2654010250778276
 40
0.380208570789926
 40
0.4953201289099366
 40
0.6562432766114746
 40
0.8263515868701826
 40
1.0
 40
1.0
 40
1.0
 40
1.0
 10
231.0229680323118
 20
124.8449362658421
 30
0.0
 10
231.0201441710682
 20
124.8930391765721
 30
0.0
 10
231.014880461809
 20
124.9827035455904
 30
0.0
 10
230.9642999933085
 20
125.1029467663021
 30
0.0
 10
230.8870776997901
 20
125.1951480664927
 30
0.0
 10
230.7770728484664
 20
125.2696709899434
 30
0.0
 10
230.6345179618242
 20
125.3207887022311
 30
0.0
 10
230.4662121858111
 20
125.3482713553006
 30
0.0
 10
230.3504668327871
 20
125.3494468145983
 30
0.0
 10
230.291998167268
 20
125.3500405968515
 30
0.0
  0
SPLINE
  5
191
330
1F
100
AcDbEntity
  8
0
  6
Continuous
 62
     7
370
    18
100
AcDbSpline
210
0.0
220
0.0
230
1.0
 70
     8
 71
     3
 72
    11
 73
     7
 74
     0
 42
0.000000001
 43
0.00000001
 40
0.0
 40
0.0
 40
0.0
 40
0.0
 40
0.2840562052455217
 40
0.5588619016419666
 40
0.7750993838285825
 40
1.0
 40
1.0
 40
1.0
 40
1.0
 10
230.7566255161286
 20
124.438631172831
 30
0.0
 10
230.7985316881117
 20
124.4634857435963
 30
0.0
 10
230.8809793253489
 20
124.5123854769094
 30
0.0
 10
230.96491816566
 20
124.6177004075216
 30
0.0
 10
231.0145484323131
 20
124.7310424862034
 30
0.0
 10
231.0201249945329
 20
124.8064778689651
 30
0.0
 10
231.0229680323118
 20
124.8449362658421
 30
0.0
  0
SPLINE
  5
192
330
1F
100
AcDbEntity
  8
0
  6
Continuous
 62
     7
370
    18
100
AcDbSpline
210
0.0
220
0.0
230
1.0
 70
     8
 71
     3
 72
    11
 73
     7
 74
     0
 42
0.000000001
 43
0.00000001
 40
0.0
 40
0.0
 40
0.0
 40
0.0
 40
0.2849839497112032
 40
0.5578557580524955
 40
0.7738896021956443
 40
1.0
 40
1.0
 40
1.0
 40
1.0
 10
231.1026215313195
 20
124.0125120461664
 30
0.0
 10
231.0929238964303
 20
124.0675624775734
 30
0.0
 10
231.0739407871431
 20
124.1753236345607
 30
0.0
 10
230.9875835956237
 20
124.3032105930939
 30
0.0
 10
230.8792738973722
 20
124.3934431853765
 30
0.0
 10
230.7981247779719
 20
124.423341381767
 30
0.0
 10
230.7566255161286
 20
124.438631172831
 30
0.0
  0
LINE
  5
193
330
1F
100
AcDbEntity
  8
0
  6
Continuous
 62
     7
370
    18
100
AcDbLine
 10
231.606371211
 20
124.0125120462
 30
0.0
 11
231.1026215313
 21
124.0125120462
 31
0.0
  0
SPLINE
  5
194
330
1F
100
AcDbEntity
  8
0
  6
Continuous
 62
     7
370
    18
100
AcDbSpline
210
0.0
220
0.0
230
1.0
 70
     8
 71
     3
 72
    12
 73
     8
 74
     0
 42
0.000000001
 43
0.00000001
 40
0.0
 40
0.0
 40
0.0
 40
0.0
 40
0.3029848175181619
 40
0.5555954840373171
 40
0.686125306864036
 40
0.8302562633026852
 40
1.0
 40
1.0
 40
1.0
 40
1.0
 10
231.9887802542941
 20
123.6992805314743
 30
0.0
 10
231.9319160557054
 20
123.7015493095049
 30
0.0
 10
231.8276418805237
 20
123.7057096593152
 30
0.0
 10
231.7067510829968
 20
123.7647120747525
 30
0.0
 10
231.6453863875071
 20
123.8436623817021
 30
0.0
 10
231.6147379973167
 20
123.9221832725608
 30
0.0
 10
231.6093078434385
 20
123.980807829335
 30
0.0
 10
231.6063712109852
 20
124.0125120461664
 30
0.0
  0
SPLINE
  5
195
330
1F
100
AcDbEntity
  8
0
  6
Continuous
 62
     7
370
    18
100
AcDbSpline
210
0.0
220
0.0
230
1.0
 70
     8
 71
     3
 72
    12
 73
     8
 74
     0
 42
0.000000001
 43
0.00000001
 40
0.0
 40
0.0
 40
0.0
 40
0.0
 40
0.1228977808113469
 40
0.2361517003655377
 40
0.4654549568724366
 40
0.7229435422785235
 40
1.0
 40
1.0
 40
1.0
 40
1.0
 10
232.3118013826964
 20
123.9053320318553
 30
0.0
 10
232.3104801306299
 20
123.887805923059
 30
0.0
 10
232.3079413059247
 20
123.8541289895479
 30
0.0
 10
232.2781309105318
 20
123.7934743045458
 30
0.0
 10
232.2088846126844
 20
123.7384630793761
 30
0.0
 10
232.1041154911084
 20
123.7050429442887
 30
0.0
 10
232.0281522516706
 20
123.7012476467158
 30
0.0
 10
231.9887802542941
 20
123.6992805314743
 30
0.0
  0
SPLINE
  5
196
330
1F
100
AcDbEntity
  8
0
  6
Continuous
 62
     7
370
    18
100
AcDbSpline
210
0.0
220
0.0
230
1.0
 70
     8
 71
     3
 72
    12
 73
     8
 74
     0
 42
0.000000001
 43
0.00000001
 40
0.0
 40
0.0
 40
0.0
 40
0.0
 40
0.3210306919457592
 40
0.6029592976098657
 40
0.8214028303124052
 40
0.9104117121954226
 40
1.0
 40
1.0
 40
1.0
 40
1.0
 10
231.730963010567
 20
124.1987314508761
 30
0.0
 10
231.8023381062095
 20
124.1803386776719
 30
0.0
 10
231.9363946890073
 20
124.1457934024362
 30
0.0
 10
232.1179788631095
 20
124.0978186823342
 30
0.0
 10
232.2439607300835
 20
124.0407140428538
 30
0.0
 10
232.3044462007622
 20
123.9676488823611
 30
0.0
 10
232.3093443585082
 20
123.9261491931973
 30
0.0
 10
232.3118013826964
 20
123.9053320318553
 30
0.0
  0
SPLINE
  5
197
330
1F
100
AcDbEntity
  8
0
  6
Continuous
 62
     7
370
    18
100
AcDbSpline
210
0.0
220
0.0
230
1.0
 70
     8
 71
     3
 72
    12
 73
     8
 74
     0
 42
0.000000001
 43
0.00000001
 40
0.0
 40
0.0
 40
0.0
 40
0.0
 40
0.2059303301560031
 40
0.3857152088822409
 40
0.5622731912300379
 40
0.778500633333376
 40
1.0
 40
1.0
 40
1.0
 40
1.0
 10
231.1388539392582
 20
124.7800574974893
 30
0.0
 10
231.1438227809826
 20
124.7176576515345
 30
0.0
 10
231.1531296073358
 20
124.6007804066991
 30
0.0
 10
231.2419556370561
 20
124.4508459555728
 30
0.0
 10
231.3742232782403
 20
124.3381120612843
 30
0.0
 10
231.5413153252042
 20
124.2560521667128
 30
0.0
 10
231.6672415690302
 20
124.2179911567674
 30
0.0
 10
231.730963010567
 20
124.1987314508761
 30
0.0
  0
SPLINE
  5
198
330
1F
100
AcDbEntity
  8
0
  6
Continuous
 62
     7
370
    18
100
AcDbSpline
210
0.0
220
0.0
230
1.0
 70
     8
 71
     3
 72
    14
 73
    10
 74
     0
 42
0.000000001
 43
0.00000001
 40
0.0
 40
0.0
 40
0.0
 40
0.0
 40
0.1687571149027784
 40
0.3389805425085111
 40
0.5046286467510795
 40
0.6247827513896883
 40
0.7433698504427209
 40
0.8656643973442312
 40
1.0
 40
1.0
 40
1.0
 40
1.0
 10
231.9632766849973
 20
125.3923237807919
 30
0.0
 10
231.8987410986694
 20
125.3894955591408
 30
0.0
 10
231.7691091831372
 20
125.3838145417202
 30
0.0
 10
231.5806258467274
 20
125.3375107450404
 30
0.0
 10
231.4204944385887
 20
125.2656055143047
 30
0.0
 10
231.2962388533412
 20
125.1716115410616
 30
0.0
 10
231.2084159008503
 20
125.0636323781134
 30
0.0
 10
231.1491325409542
 20
124.9300752469071
 30
0.0
 10
231.1423856607593
 20
124.8316035080108
 30
0.0
 10
231.1388539392582
 20
124.7800574974893
 30
0.0
  0
SPLINE
  5
199
330
1F
100
AcDbEntity
  8
0
  6
Continuous
 62
     7
370
    18
100
AcDbSpline
210
0.0
220
0.0
230
1.0
 70
     8
 71
     3
 72
    12
 73
     8
 74
     0
 42
0.000000001
 43
0.00000001
 40
0.0
 40
0.0
 40
0.0
 40
0.0
 40
0.1993974480574499
 40
0.3779257523812703
 40
0.5550669356786526
 40
0.7731143074051396
 40
1.0
 40
1.0
 40
1.0
 40
1.0
 10
232.773647180798
 20
124.7433916011207
 30
0.0
 10
232.7662602868901
 20
124.8211434352273
 30
0.0
 10
232.7522596190526
 20
124.9685095158369
 30
0.0
 10
232.6321319216918
 20
125.1555260016514
 30
0.0
 10
232.4533150008878
 20
125.2912881760211
 30
0.0
 10
232.2236023273661
 20
125.3768044161863
 30
0.0
 10
232.0511934974724
 20
125.3870826026454
 30
0.0
 10
231.9632766849973
 20
125.3923237807919
 30
0.0
  0
LINE
  5
19A
330
1F
100
AcDbEntity
  8
0
  6
Continuous
 62
     7
370
    18
100
AcDbLine
 10
232.2466697461
 20
124.7433916011
 30
0.0
 11
232.7736471808
 21
124.7433916011
 31
0.0
  0
SPLINE
  5
19B
330
1F
100
AcDbEntity
  8
0
  6
Continuous
 62
     7
370
    18
100
AcDbSpline
210
0.0
220
0.0
230
1.0
 70
     8
 71
     3
 72
    13
 73
     9
 74
     0
 42
0.000000001
 43
0.00000001
 40
0.0
 40
0.0
 40
0.0
 40
0.0
 40
0.2626041787201662
 40
0.509983956645249
 40
0.6263386331431532
 40
0.7414049134888278
 40
0.8625801387792151
 40
1.0
 40
1.0
 40
1.0
 40
1.0
 10
231.920758694824
 20
124.9860186877807
 30
0.0
 10
231.9611012524298
 20
124.9839986545788
 30
0.0
 10
232.0394475196115
 20
124.9800756990115
 30
0.0
 10
232.1321823331724
 20
124.9471551356187
 30
0.0
 10
232.1914319212261
 20
124.9026148874085
 30
0.0
 10
232.2248172919853
 20
124.8591945770027
 30
0.0
 10
232.2456720656364
 20
124.8045460697454
 30
0.0
 10
232.2463235442369
 20
124.7646126147202
 30
0.0
 10
232.2466697460928
 20
124.7433916011207
 30
0.0
  0
SPLINE
  5
19C
330
1F
100
AcDbEntity
  8
0
  6
Continuous
 62
     7
370
    18
100
AcDbSpline
210
0.0
220
0.0
230
1.0
 70
     8
 71
     3
 72
    12
 73
     8
 74
     0
 42
0.000000001
 43
0.00000001
 40
0.0
 40
0.0
 40
0.0
 40
0.0
 40
0.1338350776842965
 40
0.2542572338768605
 40
0.4899325118163999
 40
0.7434916633797872
 40
1.0
 40
1.0
 40
1.0
 40
1.0
 10
231.6659036220351
 20
124.813923781081
 30
0.0
 10
231.667011607534
 20
124.829300309297
 30
0.0
 10
231.6691165364735
 20
124.8585123335172
 30
0.0
 10
231.6939204921403
 20
124.9101689708046
 30
0.0
 10
231.7505150758714
 20
124.9555002047662
 30
0.0
 10
231.8330209902952
 20
124.9815439692352
 30
0.0
 10
231.8914002779272
 20
124.9845213765249
 30
0.0
 10
231.920758694824
 20
124.9860186877807
 30
0.0
  0
SPLINE
  5
19D
330
1F
100
AcDbEntity
  8
0
  6
Continuous
 62
     7
370
    18
100
AcDbSpline
210
0.0
220
0.0
230
1.0
 70
     8
 71
     3
 72
    12
 73
     8
 74
     0
 42
0.000000001
 43
0.00000001
 40
0.0
 40
0.0
 40
0.0
 40
0.0
 40
0.3295920737084773
 40
0.6175980183821546
 40
0.8358975487564516
 40
0.919739749004671
 40
0.9999999999999999
 40
0.9999999999999999
 40
0.9999999999999999
 40
0.9999999999999999
 10
232.2523050956825
 20
124.5486288619369
 30
0.0
 10
232.1803081143989
 20
124.5667939008906
 30
0.0
 10
232.0453983379899
 20
124.6008320133227
 30
0.0
 10
231.8629164894134
 20
124.6452234284677
 30
0.0
 10
231.7372506038975
 20
124.6939430022573
 30
0.0
 10
231.6739145145446
 20
124.7581191658595
 30
0.0
 10
231.6685347774349
 20
124.7955949101718
 30
0.0
 10
231.6659036220351
 20
124.813923781081
 30
0.0
  0
SPLINE
  5
19E
330
1F
100
AcDbEntity
  8
0
  6
Continuous
 62
     7
370
    18
100
AcDbSpline
210
0.0
220
0.0
230
1.0
 70
     8
 71
     3
 72
    12
 73
     8
 74
     0
 42
0.000000001
 43
0.00000001
 40
0.0
 40
0.0
 40
0.0
 40
0.0
 40
0.204537882118415
 40
0.3838943514216871
 40
0.5601975822227048
 40
0.776616796224273
 40
1.0
 40
1.0
 40
1.0
 40
1.0
 10
232.8387788174016
 20
123.9673931254133
 30
0.0
 10
232.8339148585735
 20
124.0290196460208
 30
0.0
 10
232.8247857608225
 20
124.1446856190619
 30
0.0
 10
232.7381142013418
 20
124.2939034851703
 30
0.0
 10
232.6080389865681
 20
124.407535546431
 30
0.0
 10
232.4420909187606
 20
124.4911554557007
 30
0.0
 10
232.3162313386718
 20
124.5292698873155
 30
0.0
 10
232.2523050956825
 20
124.5486288619369
 30
0.0
  0
SPLINE
  5
19F
330
1F
100
AcDbEntity
  8
0
  6
Continuous
 62
     7
370
    18
100
AcDbSpline
210
0.0
220
0.0
230
1.0
 70
     8
 71
     3
 72
    13
 73
     9
 74
     0
 42
0.000000001
 43
0.00000001
 40
0.0
 40
0.0
 40
0.0
 40
0.0
 40
0.1943984829390964
 40
0.3808229110812395
 40
0.5574598692554744
 40
0.6939226743571321
 40
0.8373010797229418
 40
1.0
 40
1.0
 40
1.0
 40
1.0
 10
231.9575690873359
 20
123.2669480706468
 30
0.0
 10
232.039810614744
 20
123.2706253055307
 30
0.0
 10
232.2009201944372
 20
123.2778289383578
 30
0.0
 10
232.429683361812
 20
123.3426093483322
 30
0.0
 10
232.6154205836623
 20
123.4495104022847
 30
0.0
 10
232.7459758107449
 20
123.5947750047358
 30
0.0
 10
232.8256672755857
 20
123.7683952438596
 30
0.0
 10
232.8342281736453
 20
123.8983266128756
 30
0.0
 10
232.8387788174016
 20
123.9673931254133
 30
0.0
  0
SPLINE
  5
1A0
330
1F
100
AcDbEntity
  8
0
  6
Continuous
 62
     7
370
    18
100
AcDbSpline
210
0.0
220
0.0
230
1.0
 70
     8
 71
     3
 72
    12
 73
     8
 74
     0
 42
0.000000001
 43
0.00000001
 40
0.0
 40
0.0
 40
0.0
 40
0.0
 40
0.1886637132768469
 40
0.3661825608804964
 40
0.5448728808046002
 40
0.7656579321773193
 40
0.9999999999999999
 40
0.9999999999999999
 40
0.9999999999999999
 40
0.9999999999999999
 10
231.0965888173358
 20
123.8467027217013
 30
0.0
 10
231.116824405763
 20
123.7781865147306
 30
0.0
 10
231.1561002127665
 20
123.645201534765
 30
0.0
 10
231.2894062326743
 20
123.4833963531642
 30
0.0
 10
231.4699860862215
 20
123.3607670844754
 30
0.0
 10
231.6982775892453
 20
123.2811946683727
 30
0.0
 10
231.869439107091
 20
123.2717903133944
 30
0.0
 10
231.9575690873359
 20
123.2669480706468
 30
0.0
  0
LINE
  5
1A1
330
1F
100
AcDbEntity
  8
0
  6
Continuous
 62
     7
370
    18
100
AcDbLine
 10
228.6651160896
 20
124.0092247589
 30
0.0
 11
228.4096830322
 21
124.8177709909
 31
0.0
  0
LINE
  5
1A2
330
1F
100
AcDbEntity
  8
0
  6
Continuous
 62
     7
370
    18
100
AcDbLine
 10
228.4096830322
 20
124.8177709909
 30
0.0
 11
228.3273924786
 21
124.8177709909
 31
0.0
  0
LINE
  5
1A3
330
1F
100
AcDbEntity
  8
0
  6
Continuous
 62
     7
370
    18
100
AcDbLine
 10
228.3273924786
 20
124.8177709909
 30
0.0
 11
228.0631812805
 21
124.0092247589
 31
0.0
  0
LINE
  5
1A4
330
1F
100
AcDbEntity
  8
0
  6
Continuous
 62
     7
370
    18
100
AcDbLine
 10
228.0631812805
 20
124.0092247589
 30
0.0
 11
228.6651160896
 21
124.0092247589
 31
0.0
  0
LINE
  5
1A5
330
1F
100
AcDbEntity
  8
0
  6
Continuous
 62
     7
370
    18
100
AcDbLine
 10
229.8260342291
 20
124.4797222636
 30
0.0
 11
230.2950687103
 21
124.4797222636
 31
0.0
  0
SPLINE
  5
1A6
330
1F
100
AcDbEntity
  8
0
  6
Continuous
 62
     7
370
    18
100
AcDbSpline
210
0.0
220
0.0
230
1.0
 70
     8
 71
     3
 72
    12
 73
     8
 74
     0
 42
0.000000001
 43
0.00000001
 40
0.0
 40
0.0
 40
0.0
 40
0.0
 40
0.242466320512141
 40
0.5040777209641408
 40
0.6506173645415592
 40
0.8119564965868009
 40
1.0
 40
1.0
 40
1.0
 40
1.0
 10
230.2950687103136
 20
124.4797222635889
 30
0.0
 10
230.3265369088254
 20
124.4827152860563
 30
0.0
 10
230.3919580269219
 20
124.4889376592956
 30
0.0
 10
230.4675349420603
 20
124.5340176001474
 30
0.0
 10
230.5136685132541
 20
124.5922602118995
 30
0.0
 10
230.5385208245755
 20
124.6527559412795
 30
0.0
 10
230.5412370555665
 20
124.6981397690043
 30
0.0
 10
230.5426989759364
 20
124.722566094464
 30
0.0
  0
SPLINE
  5
1A7
330
1F
100
AcDbEntity
  8
0
  6
Continuous
 62
     7
370
    18
100
AcDbSpline
210
0.0
220
0.0
230
1.0
 70
     8
 71
     3
 72
    12
 73
     8
 74
     0
 42
0.000000001
 43
0.00000001
 40
0.0
 40
0.0
 40
0.0
 40
0.0
 40
0.2325061039550861
 40
0.422258003895175
 40
0.5928278045028547
 40
0.792214384270928
 40
1.0
 40
1.0
 40
1.0
 40
1.0
 10
230.5426989759364
 20
124.722566094464
 30
0.0
 10
230.5408772793214
 20
124.7534360164959
 30
0.0
 10
230.537568867356
 20
124.8094993689664
 30
0.0
 10
230.5033565844897
 20
124.8823003642829
 30
0.0
 10
230.4486835981471
 20
124.9340799335622
 30
0.0
 10
230.3765079006345
 20
124.9643138999024
 30
0.0
 10
230.3225858700218
 20
124.967431416822
 30
0.0
 10
230.2950687103136
 20
124.9690223289222
 30
0.0
  0
LINE
  5
1A8
330
1F
100
AcDbEntity
  8
0
  6
Continuous
 62
     7
370
    18
100
AcDbLine
 10
230.2950687103
 20
124.9690223289
 30
0.0
 11
229.8260342291
 21
124.9690223289
 31
0.0
  0
LINE
  5
1A9
330
1F
100
AcDbEntity
  8
0
  6
Continuous
 62
     7
370
    18
100
AcDbLine
 10
229.8260342291
 20
124.9690223289
 30
0.0
 11
229.8260342291
 21
124.4797222636
 31
0.0
  0
LINE
  5
1AA
330
1F
100
AcDbEntity
  8
0
  6
Continuous
 62
     7
370
    18
100
AcDbLine
 10
229.8260342291
 20
123.6818326222
 30
0.0
 11
230.3470150738
 21
123.6818326222
 31
0.0
  0
SPLINE
  5
1AB
330
1F
100
AcDbEntity
  8
0
  6
Continuous
 62
     7
370
    18
100
AcDbSpline
210
0.0
220
0.0
230
1.0
 70
     8
 71
     3
 72
    12
 73
     8
 74
     0
 42
0.000000001
 43
0.00000001
 40
0.0
 40
0.0
 40
0.0
 40
0.0
 40
0.2382584506408998
 40
0.4976556531040078
 40
0.6448887038896388
 40
0.8084522641844559
 40
1.0
 40
1.0
 40
1.0
 40
1.0
 10
230.3470150738389
 20
123.6818326221678
 30
0.0
 10
230.3820076163389
 20
123.6853015781014
 30
0.0
 10
230.4550973075746
 20
123.6925472624665
 30
0.0
 10
230.538959023538
 20
123.7448667019756
 30
0.0
 10
230.5898745447944
 20
123.8118202012477
 30
0.0
 10
230.6173428009656
 20
123.8814598080521
 30
0.0
 10
230.6203389706781
 20
123.9336216013182
 30
0.0
 10
230.6219551105499
 20
123.9617577758236
 30
0.0
  0
SPLINE
  5
1AC
330
1F
100
AcDbEntity
  8
0
  6
Continuous
 62
     7
370
    18
100
AcDbSpline
210
0.0
220
0.0
230
1.0
 70
     8
 71
     3
 72
    12
 73
     8
 74
     0
 42
0.000000001
 43
0.00000001
 40
0.0
 40
0.0
 40
0.0
 40
0.0
 40
0.2366945835519308
 40
0.4286648826954234
 40
0.5991110185125298
 40
0.7959723284782185
 40
1.0
 40
1.0
 40
1.0
 40
1.0
 10
230.6219551105499
 20
123.9617577758236
 30
0.0
 10
230.6199416832544
 20
123.9972916579866
 30
0.0
 10
230.6162952729204
 20
124.0616451687452
 30
0.0
 10
230.5785702495255
 20
124.145369645011
 30
0.0
 10
230.5180106146467
 20
124.2051906362272
 30
0.0
 10
230.4376681086588
 20
124.2402811212267
 30
0.0
 10
230.3775907366491
 20
124.2438914086938
 30
0.0
 10
230.3470150738389
 20
124.2457288214925
 30
0.0
  0
LINE
  5
1AD
330
1F
100
AcDbEntity
  8
0
  6
Continuous
 62
     7
370
    18
100
AcDbLine
 10
230.3470150738
 20
124.2457288215
 30
0.0
 11
229.8260342291
 21
124.2457288215
 31
0.0
  0
LINE
  5
1AE
330
1F
100
AcDbEntity
  8
0
  6
Continuous
 62
     7
370
    18
100
AcDbLine
 10
229.8260342291
 20
124.2457288215
 30
0.0
 11
229.8260342291
 21
123.6818326222
 31
0.0
  0
SPLINE
  5
1AF
330
1F
100
AcDbEntity
  8
0
  6
Continuous
 62
     7
370
    18
100
AcDbSpline
210
0.0
220
0.0
230
1.0
 70
     8
 71
     3
 72
    13
 73
     9
 74
     0
 42
0.000000001
 43
0.00000001
 40
0.0
 40
0.0
 40
0.0
 40
0.0
 40
0.5894795511906018
 40
0.8525979839264193
 40
0.9412877217975723
 40
0.9634735681078221
 40
0.9825903643577696
 40
1.0
 40
1.0
 40
1.0
 40
1.0
 10
231.9606757544174
 20
124.8520888249367
 30
0.0
 10
231.9229577110871
 20
124.8501608525786
 30
0.0
 10
231.8684039481345
 20
124.847372315907
 30
0.0
 10
231.8098754804338
 20
124.8329721894123
 30
0.0
 10
231.7880348267733
 20
124.8221527266938
 30
0.0
 10
231.7821916705366
 20
124.8162289867469
 30
0.0
 10
231.7801409040393
 20
124.8129742016815
 30
0.0
 10
231.7798629435634
 20
124.8106326873866
 30
0.0
 10
231.7797304589391
 20
124.8095166487096
 30
0.0
  0
SPLINE
  5
1B0
330
1F
100
AcDbEntity
  8
0
  6
Continuous
 62
     7
370
    18
100
AcDbSpline
210
0.0
220
0.0
230
1.0
 70
     8
 71
     3
 72
    12
 73
     8
 74
     0
 42
0.000000001
 43
0.00000001
 40
0.0
 40
0.0
 40
0.0
 40
0.0
 40
0.1687932262470739
 40
0.3139712558224079
 40
0.4643534436981285
 40
0.6895611553267743
 40
1.0
 40
1.0
 40
1.0
 40
1.0
 10
232.1309644593256
 20
124.7509957106631
 30
0.0
 10
232.1285046520722
 20
124.7632262758304
 30
0.0
 10
232.1239291795274
 20
124.7859762758769
 30
0.0
 10
232.105369612577
 20
124.8158446501697
 30
0.0
 10
232.0725749056557
 20
124.8373784012719
 30
0.0
 10
232.0228270414431
 20
124.8491363351406
 30
0.0
 10
231.9834798043596
 20
124.8510055211471
 30
0.0
 10
231.9606757544174
 20
124.8520888249367
 30
0.0
  0
SPLINE
  5
1B1
330
1F
100
AcDbEntity
  8
0
  6
Continuous
 62
     7
370
    18
100
AcDbSpline
210
0.0
220
0.0
230
1.0
 70
     8
 71
     3
 72
     9
 73
     5
 74
     0
 42
0.000000001
 43
0.00000001
 40
0.0
 40
0.0
 40
0.0
 40
0.0
 40
0.5915228225857311
 40
1.0
 40
1.0
 40
1.0
 40
1.0
 10
232.1362746925927
 20
124.6668628312123
 30
0.0
 10
232.1363458789604
 20
124.6835320968738
 30
0.0
 10
232.1364662232057
 20
124.7117123547184
 30
0.0
 10
232.1325600442712
 20
124.7396030132073
 30
0.0
 10
232.1309644593256
 20
124.7509957106631
 30
0.0
  0
SPLINE
  5
1B2
330
1F
100
AcDbEntity
  8
0
  6
Continuous
 62
     7
370
    18
100
AcDbSpline
210
0.0
220
0.0
230
1.0
 70
     8
 71
     3
 72
    13
 73
     9
 74
     0
 42
0.000000001
 43
0.00000001
 40
0.0
 40
0.0
 40
0.0
 40
0.0
 40
0.0518958002713991
 40
0.104938840065259
 40
0.1730026251899396
 40
0.2659228894279209
 40
0.5508780002890683
 40
1.0
 40
1.0
 40
1.0
 40
1.0
 10
231.7797304589391
 20
124.8095166487096
 30
0.0
 10
231.7803626933672
 20
124.8024972001597
 30
0.0
 10
231.7816411387749
 20
124.7883031269425
 30
0.0
 10
231.7966217818457
 20
124.7693894378105
 30
0.0
 10
231.8210799360674
 20
124.7543961261773
 30
0.0
 10
231.8764705576224
 20
124.7324381920233
 30
0.0
 10
231.9833527313865
 20
124.7049829714814
 30
0.0
 10
232.0782281504514
 20
124.6813325797763
 30
0.0
 10
232.1362746925927
 20
124.6668628312123
 30
0.0
  0
LINE
  5
1B3
330
1F
100
AcDbEntity
  8
0
  6
Continuous
 62
     7
370
    18
100
AcDbLine
 10
226.6548496196
 20
125.4609594489
 30
0.0
 11
225.8942219211
 21
125.4609594489
 31
0.0
  0
LINE
  5
1B4
330
1F
100
AcDbEntity
  8
0
  6
Continuous
 62
     7
370
    18
100
AcDbLine
 10
226.6548496196
 20
123.8659785611
 30
0.0
 11
226.6548496196
 21
125.4609594489
 31
0.0
  0
LINE
  5
1B5
330
1F
100
AcDbEntity
  8
0
  6
Continuous
 62
     7
370
    18
100
AcDbLine
 10
227.4211463974
 20
123.8659785611
 30
0.0
 11
226.6548496196
 21
123.8659785611
 31
0.0
  0
LINE
  5
1B6
330
1F
100
AcDbEntity
  8
0
  6
Continuous
 62
     7
370
    18
100
AcDbLine
 10
228.0331355323
 20
125.4609594489
 30
0.0
 11
227.4211463974
 21
123.8659785611
 31
0.0
  0
LINE
  5
1B7
330
1F
100
AcDbEntity
  8
0
  6
Continuous
 62
     7
370
    18
100
AcDbLine
 10
228.7244278271
 20
125.4609594489
 30
0.0
 11
228.0331355323
 21
125.4609594489
 31
0.0
  0
LINE
  5
1B8
330
1F
100
AcDbEntity
  8
0
  6
Continuous
 62
     7
370
    18
100
AcDbLine
 10
229.2411460357
 20
124.0666980999
 30
0.0
 11
228.7244278271
 21
125.4609594489
 31
0.0
  0
LINE
  5
1B9
330
1F
100
AcDbEntity
  8
0
  6
Continuous
 62
     7
370
    18
100
AcDbLine
 10
229.2411460357
 20
125.4609594489
 30
0.0
 11
229.2411460357
 21
124.0666980999
 31
0.0
  0
LINE
  5
1BA
330
1F
100
AcDbEntity
  8
0
  6
Continuous
 62
     7
370
    18
100
AcDbLine
 10
230.2292361491
 20
125.4609594489
 30
0.0
 11
229.2411460357
 21
125.4609594489
 31
0.0
  0
SPLINE
  5
1BB
330
1F
100
AcDbEntity
  8
0
  6
Continuous
 62
     7
370
    18
100
AcDbSpline
210
0.0
220
0.0
230
1.0
 70
     8
 71
     3
 72
    13
 73
     9
 74
     0
 42
0.000000001
 43
0.00000001
 40
0.0
 40
0.0
 40
0.0
 40
0.0
 40
0.1129894123230104
 40
0.2349035042068361
 40
0.3805358024040086
 40
0.5310429421797489
 40
0.7319137862307443
 40
1.0
 40
1.0
 40
1.0
 40
1.0
 10
231.0983804512123
 20
125.0564966816874
 30
0.0
 10
231.0813581137831
 20
125.0913382194575
 30
0.0
 10
231.0459688978408
 20
125.1637733188699
 30
0.0
 10
230.9729159741647
 20
125.2738023901181
 30
0.0
 10
230.8546586471545
 20
125.3607459026179
 30
0.0
 10
230.6932180146833
 20
125.4195267129385
 30
0.0
 10
230.482537850149
 20
125.4555826460705
 30
0.0
 10
230.3213700801726
 20
125.4590037337041
 30
0.0
 10
230.2292361491142
 20
125.4609594488711
 30
0.0
  0
SPLINE
  5
1BC
330
1F
100
AcDbEntity
  8
0
  6
Continuous
 62
     7
370
    18
100
AcDbSpline
210
0.0
220
0.0
230
1.0
 70
     8
 71
     3
 72
    12
 73
     8
 74
     0
 42
0.000000001
 43
0.00000001
 40
0.0
 40
0.0
 40
0.0
 40
0.0
 40
0.2577824677168405
 40
0.4746472252827225
 40
0.6603530347935911
 40
0.8468286435267817
 40
1.0
 40
1.0
 40
1.0
 40
1.0
 10
231.9551342090202
 20
125.4822365059757
 30
0.0
 10
231.8688728098494
 20
125.4781644098082
 30
0.0
 10
231.7100422496175
 20
125.4706665797033
 30
0.0
 10
231.4967036551549
 20
125.4060121589232
 30
0.0
 10
231.3235372868562
 20
125.3109072422462
 30
0.0
 10
231.1887250714827
 20
125.1947303120582
 30
0.0
 10
231.1264601865389
 20
125.099460653891
 30
0.0
 10
231.0983804512123
 20
125.0564966816874
 30
0.0
  0
SPLINE
  5
1BD
330
1F
100
AcDbEntity
  8
0
  6
Continuous
 62
     7
370
    18
100
AcDbSpline
210
0.0
220
0.0
230
1.0
 70
     8
 71
     3
 72
    15
 73
    11
 74
     0
 42
0.000000001
 43
0.00000001
 40
0.0
 40
0.0
 40
0.0
 40
0.0
 40
0.1009667219583013
 40
0.2110426783902187
 40
0.3263227887254677
 40
0.4481367482187054
 40
0.5538549368465823
 40
0.6756292865222499
 40
0.8215985201030961
 40
1.0
 40
1.0
 40
1.0
 40
1.0
 10
232.8864841008196
 20
124.6347305013405
 30
0.0
 10
232.885615054238
 20
124.6835585126035
 30
0.0
 10
232.8837985555476
 20
124.7856198064393
 30
0.0
 10
232.8595074601889
 20
124.9421690233357
 30
0.0
 10
232.8034628171647
 20
125.1018072966068
 30
0.0
 10
232.7074526034261
 20
125.2400008368091
 30
0.0
 10
232.5749502852527
 20
125.3474769258657
 30
0.0
 10
232.4099345946927
 20
125.424259423855
 30
0.0
 10
232.1985044897304
 20
125.4741658100417
 30
0.0
 10
232.0414906519854
 20
125.4793727356292
 30
0.0
 10
231.9551342090202
 20
125.4822365059757
 30
0.0
  0
LINE
  5
1BE
330
1F
100
AcDbEntity
  8
0
  6
Continuous
 62
     7
370
    18
100
AcDbLine
 10
232.2699528234
 20
124.6347305013
 30
0.0
 11
232.8864841008
 21
124.6347305013
 31
0.0
  0
SPLINE
  5
1BF
330
1F
100
AcDbEntity
  8
0
  6
Continuous
 62
     7
370
    18
100
AcDbSpline
210
0.0
220
0.0
230
1.0
 70
     8
 71
     3
 72
     9
 73
     5
 74
     0
 42
0.000000001
 43
0.00000001
 40
0.0
 40
0.0
 40
0.0
 40
0.0
 40
0.5581053349215384
 40
1.0
 40
1.0
 40
1.0
 40
1.0
 10
232.285305538634
 20
124.6307207333632
 30
0.0
 10
232.2824527442977
 20
124.6314795356735
 30
0.0
 10
232.2773411745673
 20
124.6328391397892
 30
0.0
 10
232.2722171170751
 20
124.6341508594294
 30
0.0
 10
232.2699528234057
 20
124.6347305013405
 30
0.0
  0
SPLINE
  5
1C0
330
1F
100
AcDbEntity
  8
0
  6
Continuous
 62
     7
370
    18
100
AcDbSpline
210
0.0
220
0.0
230
1.0
 70
     8
 71
     3
 72
    12
 73
     8
 74
     0
 42
0.000000001
 43
0.00000001
 40
0.0
 40
0.0
 40
0.0
 40
0.0
 40
0.2081936773952722
 40
0.3823854809342371
 40
0.5475549960392824
 40
0.7576294387459018
 40
1.0
 40
1.0
 40
1.0
 40
1.0
 10
232.9290384186137
 20
123.9122327163186
 30
0.0
 10
232.9267189370282
 20
123.9862032400411
 30
0.0
 10
232.9224587880521
 20
124.1220635343712
 30
0.0
 10
232.8470374761434
 20
124.3053495557596
 30
0.0
 10
232.7130564339329
 20
124.4502339254255
 30
0.0
 10
232.5199643592856
 20
124.5580582219476
 30
0.0
 10
232.3671609156749
 20
124.6053740736803
 30
0.0
 10
232.285305538634
 20
124.6307207333632
 30
0.0
  0
SPLINE
  5
1C1
330
1F
100
AcDbEntity
  8
0
  6
Continuous
 62
     7
370
    18
100
AcDbSpline
210
0.0
220
0.0
230
1.0
 70
     8
 71
     3
 72
    13
 73
     9
 74
     0
 42
0.000000001
 43
0.00000001
 40
0.0
 40
0.0
 40
0.0
 40
0.0
 40
0.2144903110109677
 40
0.4108455396423908
 40
0.5926499974110341
 40
0.7287207904635501
 40
0.8627130606487936
 40
0.9999999999999999
 40
0.9999999999999999
 40
0.9999999999999999
 40
0.9999999999999999
 10
231.9883480870034
 20
123.1419206740974
 30
0.0
 10
232.0851032027323
 20
123.1485946160269
 30
0.0
 10
232.2704328222731
 20
123.1613782203802
 30
0.0
 10
232.5228082998765
 20
123.2589177285537
 30
0.0
 10
232.7131365073171
 20
123.3959536545357
 30
0.0
 10
232.8398690642938
 20
123.557134743545
 30
0.0
 10
232.9159894173955
 20
123.727621953105
 30
0.0
 10
232.9246536759136
 20
123.8501995627598
 30
0.0
 10
232.9290384186137
 20
123.9122327163186
 30
0.0
  0
SPLINE
  5
1C2
330
1F
100
AcDbEntity
  8
0
  6
Continuous
 62
     7
370
    18
100
AcDbSpline
210
0.0
220
0.0
230
1.0
 70
     8
 71
     3
 72
    12
 73
     8
 74
     0
 42
0.000000001
 43
0.00000001
 40
0.0
 40
0.0
 40
0.0
 40
0.0
 40
0.1266166298736493
 40
0.2732454724470878
 40
0.4461934828620918
 40
0.6934352669522347
 40
1.0
 40
1.0
 40
1.0
 40
1.0
 10
231.0946934416743
 20
123.579312608479
 30
0.0
 10
231.1138176376388
 20
123.5389855454655
 30
0.0
 10
231.1550886773648
 20
123.4519575824204
 30
0.0
 10
231.2702511303661
 20
123.3417972392513
 30
0.0
 10
231.4413605558842
 20
123.2395947201295
 30
0.0
 10
231.6869401522582
 20
123.1614764567057
 30
0.0
 10
231.8809513753702
 20
123.1488887280317
 30
0.0
 10
231.9883480870034
 20
123.1419206740974
 30
0.0
  0
SPLINE
  5
1C3
330
1F
100
AcDbEntity
  8
0
  6
Continuous
 62
     7
370
    18
100
AcDbSpline
210
0.0
220
0.0
230
1.0
 70
     8
 71
     3
 72
    11
 73
     7
 74
     0
 42
0.000000001
 43
0.00000001
 40
0.0
 40
0.0
 40
0.0
 40
0.0
 40
0.3104248435957515
 40
0.6000686931456379
 40
0.8080123835287426
 40
1.0
 40
1.0
 40
1.0
 40
1.0
 10
230.4336235859638
 20
123.2246107006527
 30
0.0
 10
230.5153161488217
 20
123.2318020696722
 30
0.0
 10
230.6732324704215
 20
123.2457033907119
 30
0.0
 10
230.8702940647548
 20
123.3314175381656
 30
0.0
 10
231.0184446963309
 20
123.4420731882164
 30
0.0
 10
231.0699623268197
 20
123.5347993007542
 30
0.0
 10
231.0946934416743
 20
123.579312608479
 30
0.0
  0
LINE
  5
1C4
330
1F
100
AcDbEntity
  8
0
  6
Continuous
 62
     7
370
    18
100
AcDbLine
 10
228.7620071644
 20
123.2246107007
 30
0.0
 11
230.433623586
 21
123.2246107007
 31
0.0
  0
LINE
  5
1C5
330
1F
100
AcDbEntity
  8
0
  6
Continuous
 62
     7
370
    18
100
AcDbLine
 10
228.6342725737
 20
123.5545676439
 30
0.0
 11
228.7620071644
 21
123.2246107007
 31
0.0
  0
LINE
  5
1C6
330
1F
100
AcDbEntity
  8
0
  6
Continuous
 62
     7
370
    18
100
AcDbLine
 10
228.0915089354
 20
123.5545676439
 30
0.0
 11
228.6342725737
 21
123.5545676439
 31
0.0
  0
LINE
  5
1C7
330
1F
100
AcDbEntity
  8
0
  6
Continuous
 62
     7
370
    18
100
AcDbLine
 10
227.9583918633
 20
123.2246107007
 30
0.0
 11
228.0915089354
 21
123.5545676439
 31
0.0
  0
LINE
  5
1C8
330
1F
100
AcDbEntity
  8
0
  6
Continuous
 62
     7
370
    18
100
AcDbLine
 10
225.349864889
 20
123.2246107007
 30
0.0
 11
227.9583918633
 21
123.2246107007
 31
0.0
  0
SPLINE
  5
1C9
330
1F
100
AcDbEntity
  8
0
  6
Continuous
 62
     7
370
    18
100
AcDbSpline
210
0.0
220
0.0
230
1.0
 70
     8
 71
     3
 72
    11
 73
     7
 74
     0
 42
0.000000001
 43
0.00000001
 40
0.0
 40
0.0
 40
0.0
 40
0.0
 40
0.2274736611129914
 40
0.5494925387673775
 40
0.8007169048877155
 40
1.0
 40
1.0
 40
1.0
 40
1.0
 10
225.2837940274764
 20
123.5820219111663
 30
0.0
 10
225.2859599597738
 20
123.5543632306097
 30
0.0
 10
225.2911920540352
 20
123.4875500509052
 30
0.0
 10
225.3020364836679
 20
123.390761475697
 30
0.0
 10
225.316738542938
 20
123.2969234889943
 30
0.0
 10
225.3397054296122
 20
123.246788179436
 30
0.0
 10
225.3498648890117
 20
123.2246107006527
 30
0.0
  0
SPLINE
  5
1CA
330
1F
100
AcDbEntity
  8
0
  6
Continuous
 62
     7
370
    18
100
AcDbSpline
210
0.0
220
0.0
230
1.0
 70
     8
 71
     3
 72
    13
 73
     9
 74
     0
 42
0.000000001
 43
0.00000001
 40
0.0
 40
0.0
 40
0.0
 40
0.0
 40
0.1455849753971023
 40
0.2684075940997167
 40
0.3810001390981634
 40
0.4935379506791356
 40
0.7360826269615448
 40
1.0
 40
1.0
 40
1.0
 40
1.0
 10
224.9564922008281
 20
124.0398218172548
 30
0.0
 10
224.9874928461192
 20
124.0381696976903
 30
0.0
 10
225.0446471547657
 20
124.0351237691097
 30
0.0
 10
225.1211106057303
 20
124.0044903367225
 30
0.0
 10
225.1788600468172
 20
123.9568438330528
 30
0.0
 10
225.2346071415431
 20
123.8734919351522
 30
0.0
 10
225.270487679295
 20
123.7447489226033
 30
0.0
 10
225.2792355250621
 20
123.6377690977271
 30
0.0
 10
225.2837940274764
 20
123.5820219111663
 30
0.0
  0
LINE
  5
1CB
330
1F
100
AcDbEntity
  8
0
  6
Continuous
 62
     7
370
    18
100
AcDbLine
 10
224.5125639245
 20
124.0398218173
 30
0.0
 11
224.9564922008
 21
124.0398218173
 31
0.0
  0
LINE
  5
1CC
330
1F
100
AcDbEntity
  8
0
  6
Continuous
 62
     7
370
    18
100
AcDbLine
 10
224.5125639245
 20
123.2246107007
 30
0.0
 11
224.5125639245
 21
124.0398218173
 31
0.0
  0
LINE
  5
1CD
330
1F
100
AcDbEntity
  8
0
  6
Continuous
 62
     7
370
    18
100
AcDbLine
 10
223.927051425
 20
123.2246107007
 30
0.0
 11
224.5125639245
 21
123.2246107007
 31
0.0
  0
LINE
  5
1CE
330
1F
100
AcDbEntity
  8
0
  6
Continuous
 62
     7
370
    18
100
AcDbLine
 10
223.927051425
 20
125.4609594489
 30
0.0
 11
223.927051425
 21
123.2246107007
 31
0.0
  0
LINE
  5
1CF
330
1F
100
AcDbEntity
  8
0
  6
Continuous
 62
     7
370
    18
100
AcDbLine
 10
225.0729058416
 20
125.4609594489
 30
0.0
 11
223.927051425
 21
125.4609594489
 31
0.0
  0
SPLINE
  5
1D0
330
1F
100
AcDbEntity
  8
0
  6
Continuous
 62
     7
370
    18
100
AcDbSpline
210
0.0
220
0.0
230
1.0
 70
     8
 71
     3
 72
    12
 73
     8
 74
     0
 42
0.000000001
 43
0.00000001
 40
0.0
 40
0.0
 40
0.0
 40
0.0
 40
0.2016496499628992
 40
0.3794039236986329
 40
0.554779339558622
 40
0.7718110801448023
 40
1.0
 40
1.0
 40
1.0
 40
1.0
 10
225.8598679621738
 20
124.83082982985
 30
0.0
 10
225.853372724855
 20
124.907568609236
 30
0.0
 10
225.8411519323839
 20
125.0519526634819
 30
0.0
 10
225.7258404462375
 20
125.2355266096911
 30
0.0
 10
225.551754800449
 20
125.3665997784781
 30
0.0
 10
225.3273323748842
 20
125.4469494453586
 30
0.0
 10
225.1591198152463
 20
125.4562120742239
 30
0.0
 10
225.0729058415916
 20
125.4609594488711
 30
0.0
  0
SPLINE
  5
1D1
330
1F
100
AcDbEntity
  8
0
  6
Continuous
 62
     7
370
    18
100
AcDbSpline
210
0.0
220
0.0
230
1.0
 70
     8
 71
     3
 72
    11
 73
     7
 74
     0
 42
0.000000001
 43
0.00000001
 40
0.0
 40
0.0
 40
0.0
 40
0.0
 40
0.2852648350196972
 40
0.5586037747029546
 40
0.7765581993729922
 40
1.0
 40
1.0
 40
1.0
 40
1.0
 10
225.5072612484257
 20
124.2696429332127
 30
0.0
 10
225.5675531451664
 20
124.3006252623408
 30
0.0
 10
225.6856163515935
 20
124.3612946610027
 30
0.0
 10
225.7931063349121
 20
124.5154826035496
 30
0.0
 10
225.8504725096565
 20
124.6744956208639
 30
0.0
 10
225.8567102955748
 20
124.7782883147841
 30
0.0
 10
225.8598679621738
 20
124.83082982985
 30
0.0
  0
LINE
  5
1D2
330
1F
100
AcDbEntity
  8
0
  6
Continuous
 62
     7
370
    18
100
AcDbLine
 10
225.5072612484
 20
124.263357351
 30
0.0
 11
225.5072612484
 21
124.2696429332
 31
0.0
  0
SPLINE
  5
1D3
330
1F
100
AcDbEntity
  8
0
  6
Continuous
 62
     7
370
    18
100
AcDbSpline
210
0.0
220
0.0
230
1.0
 70
     8
 71
     3
 72
    11
 73
     7
 74
     0
 42
0.000000001
 43
0.00000001
 40
0.0
 40
0.0
 40
0.0
 40
0.0
 40
0.2808304286447842
 40
0.563545097838996
 40
0.7771991270060367
 40
1.0
 40
1.0
 40
1.0
 40
1.0
 10
225.8347256332352
 20
123.7272044111814
 30
0.0
 10
225.8270057383055
 20
123.7896678932053
 30
0.0
 10
225.8115141515694
 20
123.9150139579406
 30
0.0
 10
225.7502281463541
 20
124.0792029686507
 30
0.0
 10
225.6479119427066
 20
124.2109028245942
 30
0.0
 10
225.554795299175
 20
124.2456299154257
 30
0.0
 10
225.5072612484257
 20
124.2633573509877
 30
0.0
  0
SPLINE
  5
1D4
330
1F
100
AcDbEntity
  8
0
  6
Continuous
 62
     7
370
    18
100
AcDbSpline
210
0.0
220
0.0
230
1.0
 70
     8
 71
     3
 72
    11
 73
     7
 74
     0
 42
0.000000001
 43
0.00000001
 40
0.0
 40
0.0
 40
0.0
 40
0.0
 40
0.307436007385222
 40
0.6261968550908511
 40
0.8442166228014022
 40
1.0
 40
1.0
 40
1.0
 40
1.0
 10
225.8929083503055
 20
123.327083978885
 30
0.0
 10
225.8830675877487
 20
123.3674305013753
 30
0.0
 10
225.8630235642225
 20
123.4496097675979
 30
0.0
 10
225.8495951033592
 20
123.5629534201398
 30
0.0
 10
225.8408005451986
 20
123.6559832586575
 30
0.0
 10
225.8365126316997
 20
123.7062539692706
 30
0.0
 10
225.8347256332352
 20
123.7272044111814
 30
0.0
  0
LINE
  5
1D5
330
1F
100
AcDbEntity
  8
0
  6
Continuous
 62
     7
370
    18
100
AcDbLine
 10
225.8942219211
 20
125.4609594489
 30
0.0
 11
225.8929083503
 21
123.3270839789
 31
0.0
  0
SPLINE
  5
1D6
330
1F
100
AcDbEntity
  8
0
  6
Continuous
 62
     7
370
    18
100
AcDbSpline
210
0.0
220
0.0
230
1.0
 70
     8
 71
     3
 72
    12
 73
     8
 74
     0
 42
0.000000001
 43
0.00000001
 40
0.0
 40
0.0
 40
0.0
 40
0.0
 40
0.2554031448979543
 40
0.5239992272002586
 40
0.6685053607654261
 40
0.822947353711822
 40
1.0
 40
1.0
 40
1.0
 40
1.0
 10
230.3171766202423
 20
123.777886433443
 30
0.0
 10
230.3433070220806
 20
123.7800712842826
 30
0.0
 10
230.3969176006629
 20
123.7845538451845
 30
0.0
 10
230.4599223505641
 20
123.8172347899685
 30
0.0
 10
230.4990436668528
 20
123.8607161532172
 30
0.0
 10
230.5200725256968
 20
123.9057701908312
 30
0.0
 10
230.5223885088939
 20
123.9397930196567
 30
0.0
 10
230.5236254850174
 20
123.9579647520613
 30
0.0
  0
LINE
  5
1D7
330
1F
100
AcDbEntity
  8
0
  6
Continuous
 62
     7
370
    18
100
AcDbLine
 10
229.9259894362
 20
123.7778864334
 30
0.0
 11
230.3171766202
 21
123.7778864334
 31
0.0
  0
LINE
  5
1D8
330
1F
100
AcDbEntity
  8
0
  6
Continuous
 62
     7
370
    18
100
AcDbLine
 10
229.9259894362
 20
124.1407162493
 30
0.0
 11
229.9259894362
 21
123.7778864334
 31
0.0
  0
LINE
  5
1D9
330
1F
100
AcDbEntity
  8
0
  6
Continuous
 62
     7
370
    18
100
AcDbLine
 10
230.3171766202
 20
124.1407162493
 30
0.0
 11
229.9259894362
 21
124.1407162493
 31
0.0
  0
SPLINE
  5
1DA
330
1F
100
AcDbEntity
  8
0
  6
Continuous
 62
     7
370
    18
100
AcDbSpline
210
0.0
220
0.0
230
1.0
 70
     8
 71
     3
 72
    12
 73
     8
 74
     0
 42
0.000000001
 43
0.00000001
 40
0.0
 40
0.0
 40
0.0
 40
0.0
 40
0.2191709004622778
 40
0.4020322727962852
 40
0.5732124609680136
 40
0.7805893411712348
 40
1.0
 40
1.0
 40
1.0
 40
1.0
 10
230.5236254850174
 20
123.9579647520613
 30
0.0
 10
230.5220777983706
 20
123.9809461073235
 30
0.0
 10
230.5192388266874
 20
124.0231015507172
 30
0.0
 10
230.4900624408932
 20
124.0773584705393
 30
0.0
 10
230.4442530358359
 20
124.1153298836259
 30
0.0
 10
230.3845857932138
 20
124.1372634894432
 30
0.0
 10
230.3400647853622
 20
124.1395438964458
 30
0.0
 10
230.3171766202423
 20
124.1407162493313
 30
0.0
  0
SPLINE
  5
1DB
330
1F
100
AcDbEntity
  8
0
  6
Continuous
 62
     7
370
    18
100
AcDbSpline
210
0.0
220
0.0
230
1.0
 70
     8
 71
     3
 72
    12
 73
     8
 74
     0
 42
0.000000001
 43
0.00000001
 40
0.0
 40
0.0
 40
0.0
 40
0.0
 40
0.2631780919768592
 40
0.5362228315034369
 40
0.6796343489711378
 40
0.8298665817545485
 40
1.0
 40
1.0
 40
1.0
 40
1.0
 10
230.2561269996876
 20
124.5792620443217
 30
0.0
 10
230.2779498275238
 20
124.5809546235713
 30
0.0
 10
230.3224136293768
 20
124.5844032375154
 30
0.0
 10
230.3750672061996
 20
124.6095022130752
 30
0.0
 10
230.4081111450961
 20
124.6434408952598
 30
0.0
 10
230.4258882718412
 20
124.678582484281
 30
0.0
 10
230.4278607556157
 20
124.7052691445799
 30
0.0
 10
230.4289082630682
 20
124.7194413653646
 30
0.0
  0
LINE
  5
1DC
330
1F
100
AcDbEntity
  8
0
  6
Continuous
 62
     7
370
    18
100
AcDbLine
 10
229.9286987389
 20
124.5792620443
 30
0.0
 11
230.2561269997
 21
124.5792620443
 31
0.0
  0
LINE
  5
1DD
330
1F
100
AcDbEntity
  8
0
  6
Continuous
 62
     7
370
    18
100
AcDbLine
 10
229.9286987389
 20
124.8616797564
 30
0.0
 11
229.9286987389
 21
124.5792620443
 31
0.0
  0
LINE
  5
1DE
330
1F
100
AcDbEntity
  8
0
  6
Continuous
 62
     7
370
    18
100
AcDbLine
 10
230.2561269997
 20
124.8616797564
 30
0.0
 11
229.9286987389
 21
124.8616797564
 31
0.0
  0
SPLINE
  5
1DF
330
1F
100
AcDbEntity
  8
0
  6
Continuous
 62
     7
370
    18
100
AcDbSpline
210
0.0
220
0.0
230
1.0
 70
     8
 71
     3
 72
    12
 73
     8
 74
     0
 42
0.000000001
 43
0.00000001
 40
0.0
 40
0.0
 40
0.0
 40
0.0
 40
0.2108655154368299
 40
0.3895958229608483
 40
0.5613353297982713
 40
0.7736399301224683
 40
1.0
 40
1.0
 40
1.0
 40
1.0
 10
230.4289082630682
 20
124.7194413653646
 30
0.0
 10
230.4275919328582
 20
124.7373822861303
 30
0.0
 10
230.4251598768135
 20
124.7705299906086
 30
0.0
 10
230.4003846862336
 20
124.8128465198965
 30
0.0
 10
230.3619974913849
 20
124.8421425717248
 30
0.0
 10
230.312323040795
 20
124.8590066784617
 30
0.0
 10
230.2752549193352
 20
124.8607698983893
 30
0.0
 10
230.2561269996876
 20
124.8616797564498
 30
0.0
  0
LINE
  5
1E0
330
1F
100
AcDbEntity
  8
0
  6
Continuous
 62
     7
370
    18
100
AcDbLine
 10
228.2050403692
 20
124.1170188818
 30
0.0
 11
228.5158154495
 21
124.1170188818
 31
0.0
  0
LINE
  5
1E1
330
1F
100
AcDbEntity
  8
0
  6
Continuous
 62
     7
370
    18
100
AcDbLine
 10
228.363046902
 20
124.6048017377
 30
0.0
 11
228.2050403692
 21
124.1170188818
 31
0.0
  0
LINE
  5
1E2
330
1F
100
AcDbEntity
  8
0
  6
Continuous
 62
     7
370
    18
100
AcDbLine
 10
228.5158154495
 20
124.1170188818
 30
0.0
 11
228.363046902
 21
124.6048017377
 31
0.0
  0
SPLINE
  5
1E3
330
1F
100
AcDbEntity
  8
0
  6
Continuous
 62
     7
370
    18
100
AcDbSpline
210
0.0
220
0.0
230
1.0
 70
     8
 71
     3
 72
    11
 73
     7
 74
     0
 42
0.000000001
 43
0.00000001
 40
0.0
 40
0.0
 40
0.0
 40
0.0
 40
0.1864574482490919
 40
0.3729596547727021
 40
0.5597047812739778
 40
1.0
 40
1.0
 40
1.0
 40
1.0
 10
234.4183921926351
 20
120.3413159766796
 30
0.0
 10
234.4139791333239
 20
120.2779395744041
 30
0.0
 10
234.4051519553666
 20
120.1511715566318
 30
0.0
 10
234.3315507241749
 20
119.9732310523572
 30
0.0
 10
234.1787824716837
 20
119.7431933769439
 30
0.0
 10
234.0356614355846
 20
119.5855907648538
 30
0.0
 10
233.9351646998113
 20
119.4749253553786
 30
0.0
  0
SPLINE
  5
1E4
330
1F
100
AcDbEntity
  8
0
  6
Continuous
 62
     7
370
    18
100
AcDbSpline
210
0.0
220
0.0
230
1.0
 70
     8
 71
     3
 72
    12
 73
     8
 74
     0
 42
0.000000001
 43
0.00000001
 40
0.0
 40
0.0
 40
0.0
 40
0.0
 40
0.1868778883101656
 40
0.3732275735798848
 40
0.5597611269091693
 40
0.7798523860741533
 40
1.0
 40
1.0
 40
1.0
 40
1.0
 10
233.8980574980328
 20
120.9171030065239
 30
0.0
 10
233.9524080266198
 20
120.9138648212261
 30
0.0
 10
234.060955464151
 20
120.9073976032346
 30
0.0
 10
234.2117472832217
 20
120.8336570845786
 30
0.0
 10
234.3240977358367
 20
120.7004563800066
 30
0.0
 10
234.4041819717888
 20
120.5334748823517
 30
0.0
 10
234.4136550481384
 20
120.405374411263
 30
0.0
 10
234.4183921926351
 20
120.3413159766796
 30
0.0
  0
SPLINE
  5
1E5
330
1F
100
AcDbEntity
  8
0
  6
Continuous
 62
     7
370
    18
100
AcDbSpline
210
0.0
220
0.0
230
1.0
 70
     8
 71
     3
 72
    12
 73
     8
 74
     0
 42
0.000000001
 43
0.00000001
 40
0.0
 40
0.0
 40
0.0
 40
0.0
 40
0.1872497526938024
 40
0.3743018666711507
 40
0.5608828182965347
 40
0.7801627485577006
 40
0.9999999999999999
 40
0.9999999999999999
 40
0.9999999999999999
 40
0.9999999999999999
 10
233.3510389729381
 20
120.3033749051981
 30
0.0
 10
233.3572056769535
 20
120.3603718839406
 30
0.0
 10
233.36953257614
 20
120.4743056821487
 30
0.0
 10
233.4240989856214
 20
120.6389517836304
 30
0.0
 10
233.5278126691526
 20
120.7906504845441
 30
0.0
 10
233.6946952052862
 20
120.9009198469778
 30
0.0
 10
233.8302127348205
 20
120.9117040576204
 30
0.0
 10
233.8980574980328
 20
120.9171030065239
 30
0.0
  0
LINE
  5
1E6
330
1F
100
AcDbEntity
  8
0
  6
Continuous
 62
     7
370
    18
100
AcDbLine
 10
233.5645096169
 20
120.2766910747
 30
0.0
 11
233.3510389729
 21
120.3033749052
 31
0.0
  0
SPLINE
  5
1E7
330
1F
100
AcDbEntity
  8
0
  6
Continuous
 62
     7
370
    18
100
AcDbSpline
210
0.0
220
0.0
230
1.0
 70
     8
 71
     3
 72
    12
 73
     8
 74
     0
 42
0.000000001
 43
0.00000001
 40
0.0
 40
0.0
 40
0.0
 40
0.0
 40
0.1864391157278141
 40
0.3727397411937403
 40
0.5593508158951337
 40
0.7794622858929073
 40
1.0
 40
1.0
 40
1.0
 40
1.0
 10
233.8901357358554
 20
120.7036323625845
 30
0.0
 10
233.8523622223039
 20
120.7002577080767
 30
0.0
 10
233.7768432540329
 20
120.6935109058139
 30
0.0
 10
233.6802846115601
 20
120.6284368774526
 30
0.0
 10
233.6076352030973
 20
120.532186768898
 30
0.0
 10
233.5699919606632
 20
120.4093920509049
 30
0.0
 10
233.5663382428979
 20
120.3209532493342
 30
0.0
 10
233.5645096168775
 20
120.2766910747057
 30
0.0
  0
SPLINE
  5
1E8
330
1F
100
AcDbEntity
  8
0
  6
Continuous
 62
     7
370
    18
100
AcDbSpline
210
0.0
220
0.0
230
1.0
 70
     8
 71
     3
 72
    11
 73
     7
 74
     0
 42
0.000000001
 43
0.00000001
 40
0.0
 40
0.0
 40
0.0
 40
0.0
 40
0.2804252551763345
 40
0.5599428213539115
 40
0.7799288191239155
 40
1.0
 40
1.0
 40
1.0
 40
1.0
 10
234.2049215486957
 20
120.345485325194
 30
0.0
 10
234.2012076969255
 20
120.395600159908
 30
0.0
 10
234.1937920144936
 20
120.4956676161142
 30
0.0
 10
234.1146650277498
 20
120.6148717127818
 30
0.0
 10
234.0080649597421
 20
120.6918281159579
 30
0.0
 10
233.9294505496884
 20
120.6996971059681
 30
0.0
 10
233.8901357358554
 20
120.7036323625845
 30
0.0
  0
SPLINE
  5
1E9
330
1F
100
AcDbEntity
  8
0
  6
Continuous
 62
     7
370
    18
100
AcDbSpline
210
0.0
220
0.0
230
1.0
 70
     8
 71
     3
 72
    11
 73
     7
 74
     0
 42
0.000000001
 43
0.00000001
 40
0.0
 40
0.0
 40
0.0
 40
0.0
 40
0.2804571461717634
 40
0.5607896621685726
 40
0.7807300478469669
 40
1.0
 40
1.0
 40
1.0
 40
1.0
 10
233.7454593424042
 20
119.5983380714061
 30
0.0
 10
233.803306737689
 20
119.659018776966
 30
0.0
 10
233.9189758219035
 20
119.780353222658
 30
0.0
 10
234.0676666263418
 20
119.9597059785708
 30
0.0
 10
234.1778525256478
 20
120.1488180828611
 30
0.0
 10
234.1959077278132
 20
120.279996323515
 30
0.0
 10
234.2049215486957
 20
120.345485325194
 30
0.0
  0
SPLINE
  5
1EA
330
1F
100
AcDbEntity
  8
0
  6
Continuous
 62
     7
370
    18
100
AcDbSpline
210
0.0
220
0.0
230
1.0
 70
     8
 71
     3
 72
    12
 73
     8
 74
     0
 42
0.000000001
 43
0.00000001
 40
0.0
 40
0.0
 40
0.0
 40
0.0
 40
0.1862418836010846
 40
0.3729020932602069
 40
0.5596089929318533
 40
0.7797756389926502
 40
0.9999999999999999
 40
0.9999999999999999
 40
0.9999999999999999
 40
0.9999999999999999
 10
233.3243551424457
 20
118.8357642281148
 30
0.0
 10
233.3287405410099
 20
118.891309446028
 30
0.0
 10
233.3375211883743
 20
119.002524644403
 30
0.0
 10
233.4028938251413
 20
119.1579105007316
 30
0.0
 10
233.4936821711122
 20
119.3094335349122
 30
0.0
 10
233.6107938814401
 20
119.4553149993447
 30
0.0
 10
233.7005669337142
 20
119.5506595489615
 30
0.0
 10
233.7454593424042
 20
119.5983380714061
 30
0.0
  0
LINE
  5
1EB
330
1F
100
AcDbEntity
  8
0
  6
Continuous
 62
     7
370
    18
100
AcDbLine
 10
234.4183921926
 20
118.8357642281
 30
0.0
 11
233.3243551424
 21
118.8357642281
 31
0.0
  0
LINE
  5
1EC
330
1F
100
AcDbEntity
  8
0
  6
Continuous
 62
     7
370
    18
100
AcDbLine
 10
234.4183921926
 20
119.0759187025
 30
0.0
 11
234.4183921926
 21
118.8357642281
 31
0.0
  0
LINE
  5
1ED
330
1F
100
AcDbEntity
  8
0
  6
Continuous
 62
     7
370
    18
100
AcDbLine
 10
233.6178772779
 20
119.0759187025
 30
0.0
 11
234.4183921926
 21
119.0759187025
 31
0.0
  0
SPLINE
  5
1EE
330
1F
100
AcDbEntity
  8
0
  6
Continuous
 62
     7
370
    18
100
AcDbSpline
210
0.0
220
0.0
230
1.0
 70
     8
 71
     3
 72
     9
 73
     5
 74
     0
 42
0.000000001
 43
0.00000001
 40
0.0
 40
0.0
 40
0.0
 40
0.0
 40
0.5606459999099406
 40
1.0
 40
1.0
 40
1.0
 40
1.0
 10
233.9351646998113
 20
119.4749253553786
 30
0.0
 10
233.8676722371961
 20
119.4067543481507
 30
0.0
 10
233.7472888533387
 20
119.2851606736415
 30
0.0
 10
233.6573793693144
 20
119.1397885337219
 30
0.0
 10
233.6178772778623
 20
119.0759187025466
 30
0.0
  0
SPLINE
  5
1EF
330
1F
100
AcDbEntity
  8
0
  6
Continuous
 62
     7
370
    18
100
AcDbSpline
210
0.0
220
0.0
230
1.0
 70
     8
 71
     3
 72
    10
 73
     6
 74
     0
 42
0.000000001
 43
0.00000001
 40
0.0
 40
0.0
 40
0.0
 40
0.0
 40
0.2795751783825435
 40
0.5597049368157178
 40
1.0
 40
1.0
 40
1.0
 40
1.0
 10
232.9432766882257
 20
120.7002968837729
 30
0.0
 10
232.9791552291312
 20
120.6277937363059
 30
0.0
 10
233.0509834815058
 20
120.4826436203094
 30
0.0
 10
233.1005816048097
 20
120.1961219603235
 30
0.0
 10
233.1069763090365
 20
119.9889022788357
 30
0.0
 10
233.1108844985063
 20
119.8622578323702
 30
0.0
  0
SPLINE
  5
1F0
330
1F
100
AcDbEntity
  8
0
  6
Continuous
 62
     7
370
    18
100
AcDbSpline
210
0.0
220
0.0
230
1.0
 70
     8
 71
     3
 72
    11
 73
     7
 74
     0
 42
0.000000001
 43
0.00000001
 40
0.0
 40
0.0
 40
0.0
 40
0.0
 40
0.2798903849624062
 40
0.5594964420644583
 40
0.7796718965173927
 40
1.0
 40
1.0
 40
1.0
 40
1.0
 10
232.5651167779659
 20
120.9171030065239
 30
0.0
 10
232.6078737196864
 20
120.914250488252
 30
0.0
 10
232.6933441683029
 20
120.9085483494512
 30
0.0
 10
232.8021144234058
 20
120.8549232675218
 30
0.0
 10
232.8856347489185
 20
120.7828838994369
 30
0.0
 10
232.924058270117
 20
120.727832248066
 30
0.0
 10
232.9432766882257
 20
120.7002968837729
 30
0.0
  0
SPLINE
  5
1F1
330
1F
100
AcDbEntity
  8
0
  6
Continuous
 62
     7
370
    18
100
AcDbSpline
210
0.0
220
0.0
230
1.0
 70
     8
 71
     3
 72
    13
 73
     9
 74
     0
 42
0.000000001
 43
0.00000001
 40
0.0
 40
0.0
 40
0.0
 40
0.0
 40
0.2504890583456496
 40
0.5006738274425616
 40
0.625844637855521
 40
0.7507584155659034
 40
0.8753007099299314
 40
1.0
 40
1.0
 40
1.0
 40
1.0
 10
232.0168474483169
 20
119.8622578323702
 30
0.0
 10
232.019566062932
 20
119.972498029728
 30
0.0
 10
232.0249999896419
 20
120.1928445067903
 30
0.0
 10
232.0750533616835
 20
120.4662719423377
 30
0.0
 10
232.1599888870607
 20
120.6707294766228
 30
0.0
 10
232.2569769627497
 20
120.8062420977019
 30
0.0
 10
232.3989326258334
 20
120.9023413797903
 30
0.0
 10
232.5096988036155
 20
120.912180398434
 30
0.0
 10
232.5651167779659
 20
120.9171030065239
 30
0.0
  0
SPLINE
  5
1F2
330
1F
100
AcDbEntity
  8
0
  6
Continuous
 62
     7
370
    18
100
AcDbSpline
210
0.0
220
0.0
230
1.0
 70
     8
 71
     3
 72
    13
 73
     9
 74
     0
 42
0.000000001
 43
0.00000001
 40
0.0
 40
0.0
 40
0.0
 40
0.0
 40
0.1245870753534838
 40
0.24922271483854
 40
0.3742192396120911
 40
0.4992998133209625
 40
0.7494812006579982
 40
1.0
 40
1.0
 40
1.0
 40
1.0
 10
232.5626151688572
 20
118.8090803976224
 30
0.0
 10
232.5073515255684
 20
118.8147170938994
 30
0.0
 10
232.3968026971829
 20
118.8259926836419
 30
0.0
 10
232.2580137409602
 20
118.9246256964782
 30
0.0
 10
232.1549746322771
 20
119.0546300330382
 30
0.0
 10
232.0689507471087
 20
119.2589759840917
 30
0.0
 10
232.0237798604895
 20
119.5324781632775
 30
0.0
 10
232.0191592902782
 20
119.7522819022009
 30
0.0
 10
232.0168474483169
 20
119.8622578323702
 30
0.0
  0
SPLINE
  5
1F3
330
1F
100
AcDbEntity
  8
0
  6
Continuous
 62
     7
370
    18
100
AcDbSpline
210
0.0
220
0.0
230
1.0
 70
     8
 71
     3
 72
    13
 73
     9
 74
     0
 42
0.000000001
 43
0.00000001
 40
0.0
 40
0.0
 40
0.0
 40
0.0
 40
0.2504702058475058
 40
0.5006494994159222
 40
0.6258027062132785
 40
0.750741095826351
 40
0.8752785399750074
 40
1.0
 40
1.0
 40
1.0
 40
1.0
 10
233.1108844985063
 20
119.8622578323702
 30
0.0
 10
233.1081710032512
 20
119.7521253768187
 30
0.0
 10
233.1027471643696
 20
119.5319883806647
 30
0.0
 10
233.0519773066456
 20
119.2590577804288
 30
0.0
 10
232.96762555921
 20
119.0546336679775
 30
0.0
 10
232.8707427992535
 20
118.9191788392451
 30
0.0
 10
232.7286661823846
 20
118.8235005744433
 30
0.0
 10
232.6179927416615
 20
118.8138894883637
 30
0.0
 10
232.5626151688572
 20
118.8090803976224
 30
0.0
  0
LINE
  5
1F4
330
1F
100
AcDbEntity
  8
0
  6
Continuous
 62
     7
370
    18
100
AcDbLine
 10
230.7360235847
 20
119.0759187025
 30
0.0
 11
231.7766929739
 21
119.0759187025
 31
0.0
  0
LINE
  5
1F5
330
1F
100
AcDbEntity
  8
0
  6
Continuous
 62
     7
370
    18
100
AcDbLine
 10
230.7360235847
 20
119.7696982953
 30
0.0
 11
230.7360235847
 21
119.0759187025
 31
0.0
  0
LINE
  5
1F6
330
1F
100
AcDbEntity
  8
0
  6
Continuous
 62
     7
370
    18
100
AcDbLine
 10
231.6966414824
 20
119.7696982953
 30
0.0
 11
230.7360235847
 21
119.7696982953
 31
0.0
  0
LINE
  5
1F7
330
1F
100
AcDbEntity
  8
0
  6
Continuous
 62
     7
370
    18
100
AcDbLine
 10
231.6966414824
 20
120.0098527698
 30
0.0
 11
231.6966414824
 21
119.7696982953
 31
0.0
  0
LINE
  5
1F8
330
1F
100
AcDbEntity
  8
0
  6
Continuous
 62
     7
370
    18
100
AcDbLine
 10
230.7360235847
 20
120.0098527698
 30
0.0
 11
231.6966414824
 21
120.0098527698
 31
0.0
  0
LINE
  5
1F9
330
1F
100
AcDbEntity
  8
0
  6
Continuous
 62
     7
370
    18
100
AcDbLine
 10
230.7360235847
 20
120.6502647016
 30
0.0
 11
230.7360235847
 21
120.0098527698
 31
0.0
  0
LINE
  5
1FA
330
1F
100
AcDbEntity
  8
0
  6
Continuous
 62
     7
370
    18
100
AcDbLine
 10
231.7500091434
 20
120.6502647016
 30
0.0
 11
230.7360235847
 21
120.6502647016
 31
0.0
  0
LINE
  5
1FB
330
1F
100
AcDbEntity
  8
0
  6
Continuous
 62
     7
370
    18
100
AcDbLine
 10
231.7500091434
 20
120.890419176
 30
0.0
 11
231.7500091434
 21
120.6502647016
 31
0.0
  0
LINE
  5
1FC
330
1F
100
AcDbEntity
  8
0
  6
Continuous
 62
     7
370
    18
100
AcDbLine
 10
230.5225529407
 20
120.890419176
 30
0.0
 11
231.7500091434
 21
120.890419176
 31
0.0
  0
LINE
  5
1FD
330
1F
100
AcDbEntity
  8
0
  6
Continuous
 62
     7
370
    18
100
AcDbLine
 10
230.5225529407
 20
118.8357642281
 30
0.0
 11
230.5225529407
 21
120.890419176
 31
0.0
  0
LINE
  5
1FE
330
1F
100
AcDbEntity
  8
0
  6
Continuous
 62
     7
370
    18
100
AcDbLine
 10
231.7766929739
 20
118.8357642281
 30
0.0
 11
230.5225529407
 21
118.8357642281
 31
0.0
  0
LINE
  5
1FF
330
1F
100
AcDbEntity
  8
0
  6
Continuous
 62
     7
370
    18
100
AcDbLine
 10
231.7766929739
 20
119.0759187025
 30
0.0
 11
231.7766929739
 21
118.8357642281
 31
0.0
  0
LINE
  5
200
330
1F
100
AcDbEntity
  8
0
  6
Continuous
 62
     7
370
    18
100
AcDbLine
 10
229.6419865345
 20
119.6896468039
 30
0.0
 11
230.2823984663
 21
119.6896468039
 31
0.0
  0
LINE
  5
201
330
1F
100
AcDbEntity
  8
0
  6
Continuous
 62
     7
370
    18
100
AcDbLine
 10
229.6419865345
 20
119.4494923294
 30
0.0
 11
229.6419865345
 21
119.6896468039
 31
0.0
  0
LINE
  5
202
330
1F
100
AcDbEntity
  8
0
  6
Continuous
 62
     7
370
    18
100
AcDbLine
 10
230.2823984663
 20
119.4494923294
 30
0.0
 11
229.6419865345
 21
119.4494923294
 31
0.0
  0
LINE
  5
203
330
1F
100
AcDbEntity
  8
0
  6
Continuous
 62
     7
370
    18
100
AcDbLine
 10
230.2823984663
 20
119.6896468039
 30
0.0
 11
230.2823984663
 21
119.4494923294
 31
0.0
  0
SPLINE
  5
204
330
1F
100
AcDbEntity
  8
0
  6
Continuous
 62
     7
370
    18
100
AcDbSpline
210
0.0
220
0.0
230
1.0
 70
     8
 71
     3
 72
    10
 73
     6
 74
     0
 42
0.000000001
 43
0.00000001
 40
0.0
 40
0.0
 40
0.0
 40
0.0
 40
0.2795751783825443
 40
0.559704936815718
 40
1.0
 40
1.0
 40
1.0
 40
1.0
 10
229.2875919107636
 20
120.7002968837729
 30
0.0
 10
229.3234704516691
 20
120.6277937363059
 30
0.0
 10
229.3952987040437
 20
120.4826436203094
 30
0.0
 10
229.4448968273475
 20
120.1961219603235
 30
0.0
 10
229.4512915315744
 20
119.9889022788357
 30
0.0
 10
229.4551997210442
 20
119.8622578323702
 30
0.0
  0
SPLINE
  5
205
330
1F
100
AcDbEntity
  8
0
  6
Continuous
 62
     7
370
    18
100
AcDbSpline
210
0.0
220
0.0
230
1.0
 70
     8
 71
     3
 72
    11
 73
     7
 74
     0
 42
0.000000001
 43
0.00000001
 40
0.0
 40
0.0
 40
0.0
 40
0.0
 40
0.2798903849624051
 40
0.5594964420644629
 40
0.7796718965173829
 40
1.0
 40
1.0
 40
1.0
 40
1.0
 10
228.9094320005038
 20
120.9171030065239
 30
0.0
 10
228.9521889422243
 20
120.914250488252
 30
0.0
 10
229.0376593908408
 20
120.9085483494512
 30
0.0
 10
229.1464296459437
 20
120.8549232675218
 30
0.0
 10
229.2299499714564
 20
120.7828838994369
 30
0.0
 10
229.2683734926549
 20
120.727832248066
 30
0.0
 10
229.2875919107636
 20
120.7002968837729
 30
0.0
  0
SPLINE
  5
206
330
1F
100
AcDbEntity
  8
0
  6
Continuous
 62
     7
370
    18
100
AcDbSpline
210
0.0
220
0.0
230
1.0
 70
     8
 71
     3
 72
    13
 73
     9
 74
     0
 42
0.000000001
 43
0.00000001
 40
0.0
 40
0.0
 40
0.0
 40
0.0
 40
0.2504890583456496
 40
0.5006738274425618
 40
0.6258446378555217
 40
0.7507584155659035
 40
0.8753007099299326
 40
1.0
 40
1.0
 40
1.0
 40
1.0
 10
228.3611626708548
 20
119.8622578323702
 30
0.0
 10
228.3638812854699
 20
119.972498029728
 30
0.0
 10
228.3693152121798
 20
120.1928445067903
 30
0.0
 10
228.4193685842214
 20
120.4662719423377
 30
0.0
 10
228.5043041095986
 20
120.6707294766228
 30
0.0
 10
228.6012921852876
 20
120.8062420977019
 30
0.0
 10
228.7432478483712
 20
120.9023413797903
 30
0.0
 10
228.8540140261534
 20
120.912180398434
 30
0.0
 10
228.9094320005038
 20
120.9171030065239
 30
0.0
  0
SPLINE
  5
207
330
1F
100
AcDbEntity
  8
0
  6
Continuous
 62
     7
370
    18
100
AcDbSpline
210
0.0
220
0.0
230
1.0
 70
     8
 71
     3
 72
    13
 73
     9
 74
     0
 42
0.000000001
 43
0.00000001
 40
0.0
 40
0.0
 40
0.0
 40
0.0
 40
0.124587075353485
 40
0.2492227148385401
 40
0.3742192396120919
 40
0.4992998133209632
 40
0.749481200657996
 40
1.0
 40
1.0
 40
1.0
 40
1.0
 10
228.9069303913951
 20
118.8090803976224
 30
0.0
 10
228.8516667481063
 20
118.8147170938994
 30
0.0
 10
228.7411179197208
 20
118.8259926836419
 30
0.0
 10
228.602328963498
 20
118.9246256964782
 30
0.0
 10
228.499289854815
 20
119.0546300330382
 30
0.0
 10
228.4132659696466
 20
119.2589759840917
 30
0.0
 10
228.3680950830274
 20
119.5324781632776
 30
0.0
 10
228.3634745128161
 20
119.7522819022009
 30
0.0
 10
228.3611626708548
 20
119.8622578323702
 30
0.0
  0
SPLINE
  5
208
330
1F
100
AcDbEntity
  8
0
  6
Continuous
 62
     7
370
    18
100
AcDbSpline
210
0.0
220
0.0
230
1.0
 70
     8
 71
     3
 72
    13
 73
     9
 74
     0
 42
0.000000001
 43
0.00000001
 40
0.0
 40
0.0
 40
0.0
 40
0.0
 40
0.2504702058475086
 40
0.5006494994159222
 40
0.6258027062132785
 40
0.750741095826351
 40
0.8752785399750086
 40
0.9999999999999999
 40
0.9999999999999999
 40
0.9999999999999999
 40
0.9999999999999999
 10
229.4551997210442
 20
119.8622578323702
 30
0.0
 10
229.452486225789
 20
119.7521253768187
 30
0.0
 10
229.4470623869075
 20
119.5319883806647
 30
0.0
 10
229.3962925291834
 20
119.2590577804288
 30
0.0
 10
229.3119407817478
 20
119.0546336679775
 30
0.0
 10
229.2150580217914
 20
118.9191788392451
 30
0.0
 10
229.0729814049225
 20
118.8235005744433
 30
0.0
 10
228.9623079641994
 20
118.8138894883637
 30
0.0
 10
228.9069303913951
 20
118.8090803976224
 30
0.0
  0
SPLINE
  5
209
330
1F
100
AcDbEntity
  8
0
  6
Continuous
 62
     7
370
    18
100
AcDbSpline
210
0.0
220
0.0
230
1.0
 70
     8
 71
     3
 72
    10
 73
     6
 74
     0
 42
0.000000001
 43
0.00000001
 40
0.0
 40
0.0
 40
0.0
 40
0.0
 40
0.2795751783825443
 40
0.559704936815718
 40
1.0
 40
1.0
 40
1.0
 40
1.0
 10
227.9800842166348
 20
120.7002968837729
 30
0.0
 10
228.0159627575403
 20
120.6277937363059
 30
0.0
 10
228.0877910099149
 20
120.4826436203094
 30
0.0
 10
228.1373891332187
 20
120.1961219603235
 30
0.0
 10
228.1437838374456
 20
119.9889022788357
 30
0.0
 10
228.1476920269153
 20
119.8622578323702
 30
0.0
  0
SPLINE
  5
20A
330
1F
100
AcDbEntity
  8
0
  6
Continuous
 62
     7
370
    18
100
AcDbSpline
210
0.0
220
0.0
230
1.0
 70
     8
 71
     3
 72
    11
 73
     7
 74
     0
 42
0.000000001
 43
0.00000001
 40
0.0
 40
0.0
 40
0.0
 40
0.0
 40
0.2798903849624034
 40
0.5594964420644563
 40
0.7796718965173836
 40
1.0
 40
1.0
 40
1.0
 40
1.0
 10
227.601924306375
 20
120.9171030065239
 30
0.0
 10
227.6446812480955
 20
120.914250488252
 30
0.0
 10
227.730151696712
 20
120.9085483494512
 30
0.0
 10
227.8389219518149
 20
120.8549232675218
 30
0.0
 10
227.9224422773276
 20
120.7828838994369
 30
0.0
 10
227.9608657985261
 20
120.727832248066
 30
0.0
 10
227.9800842166348
 20
120.7002968837729
 30
0.0
  0
SPLINE
  5
20B
330
1F
100
AcDbEntity
  8
0
  6
Continuous
 62
     7
370
    18
100
AcDbSpline
210
0.0
220
0.0
230
1.0
 70
     8
 71
     3
 72
    13
 73
     9
 74
     0
 42
0.000000001
 43
0.00000001
 40
0.0
 40
0.0
 40
0.0
 40
0.0
 40
0.2504890583456467
 40
0.5006738274425611
 40
0.6258446378555207
 40
0.7507584155659023
 40
0.8753007099299301
 40
1.0
 40
1.0
 40
1.0
 40
1.0
 10
227.053654976726
 20
119.8622578323702
 30
0.0
 10
227.0563735913411
 20
119.972498029728
 30
0.0
 10
227.061807518051
 20
120.1928445067903
 30
0.0
 10
227.1118608900925
 20
120.4662719423377
 30
0.0
 10
227.1967964154698
 20
120.6707294766228
 30
0.0
 10
227.2937844911588
 20
120.8062420977019
 30
0.0
 10
227.4357401542424
 20
120.9023413797903
 30
0.0
 10
227.5465063320246
 20
120.912180398434
 30
0.0
 10
227.601924306375
 20
120.9171030065239
 30
0.0
  0
SPLINE
  5
20C
330
1F
100
AcDbEntity
  8
0
  6
Continuous
 62
     7
370
    18
100
AcDbSpline
210
0.0
220
0.0
230
1.0
 70
     8
 71
     3
 72
    13
 73
     9
 74
     0
 42
0.000000001
 43
0.00000001
 40
0.0
 40
0.0
 40
0.0
 40
0.0
 40
0.1245870753534849
 40
0.249222714838541
 40
0.3742192396120927
 40
0.4992998133209628
 40
0.7494812006579985
 40
1.0
 40
1.0
 40
1.0
 40
1.0
 10
227.5994226972663
 20
118.8090803976224
 30
0.0
 10
227.5441590539775
 20
118.8147170938995
 30
0.0
 10
227.433610225592
 20
118.8259926836419
 30
0.0
 10
227.2948212693693
 20
118.9246256964782
 30
0.0
 10
227.1917821606862
 20
119.0546300330382
 30
0.0
 10
227.1057582755178
 20
119.2589759840917
 30
0.0
 10
227.0605873888986
 20
119.5324781632776
 30
0.0
 10
227.0559668186873
 20
119.7522819022009
 30
0.0
 10
227.053654976726
 20
119.8622578323702
 30
0.0
  0
SPLINE
  5
20D
330
1F
100
AcDbEntity
  8
0
  6
Continuous
 62
     7
370
    18
100
AcDbSpline
210
0.0
220
0.0
230
1.0
 70
     8
 71
     3
 72
    13
 73
     9
 74
     0
 42
0.000000001
 43
0.00000001
 40
0.0
 40
0.0
 40
0.0
 40
0.0
 40
0.250470205847509
 40
0.5006494994159227
 40
0.6258027062132793
 40
0.750741095826352
 40
0.8752785399750085
 40
1.0
 40
1.0
 40
1.0
 40
1.0
 10
228.1476920269153
 20
119.8622578323702
 30
0.0
 10
228.1449785316602
 20
119.7521253768187
 30
0.0
 10
228.1395546927787
 20
119.5319883806647
 30
0.0
 10
228.0887848350546
 20
119.2590577804288
 30
0.0
 10
228.004433087619
 20
119.0546336679775
 30
0.0
 10
227.9075503276626
 20
118.9191788392451
 30
0.0
 10
227.7654737107937
 20
118.8235005744433
 30
0.0
 10
227.6548002700706
 20
118.8138894883637
 30
0.0
 10
227.5994226972663
 20
118.8090803976224
 30
0.0
  0
SPLINE
  5
20E
330
1F
100
AcDbEntity
  8
0
  6
Continuous
 62
     7
370
    18
100
AcDbSpline
210
0.0
220
0.0
230
1.0
 70
     8
 71
     3
 72
    12
 73
     8
 74
     0
 42
0.000000001
 43
0.00000001
 40
0.0
 40
0.0
 40
0.0
 40
0.0
 40
0.1861323399318238
 40
0.3726108819815571
 40
0.5594136204052339
 40
0.7795030968206015
 40
0.9999999999999999
 40
0.9999999999999999
 40
0.9999999999999999
 40
0.9999999999999999
 10
226.3390286413507
 20
120.1966395832284
 30
0.0
 10
226.3966709562858
 20
120.1899536828455
 30
0.0
 10
226.5120627996123
 20
120.17656944645
 30
0.0
 10
226.654208524441
 20
120.0694578022865
 30
0.0
 10
226.7653785432452
 20
119.9238964844737
 30
0.0
 10
226.8311754430261
 20
119.7385718739757
 30
0.0
 10
226.8371795188017
 20
119.6031529728644
 30
0.0
 10
226.8401843327866
 20
119.5353809088381
 30
0.0
  0
SPLINE
  5
20F
330
1F
100
AcDbEntity
  8
0
  6
Continuous
 62
     7
370
    18
100
AcDbSpline
210
0.0
220
0.0
230
1.0
 70
     8
 71
     3
 72
     9
 73
     5
 74
     0
 42
0.000000001
 43
0.00000001
 40
0.0
 40
0.0
 40
0.0
 40
0.0
 40
0.5597945537684287
 40
1.0
 40
1.0
 40
1.0
 40
1.0
 10
226.0346661997965
 20
120.1161711568997
 30
0.0
 10
226.088787005837
 20
120.1419791620452
 30
0.0
 10
226.185466771076
 20
120.1880817991142
 30
0.0
 10
226.2920917464755
 20
120.1940238569898
 30
0.0
 10
226.3390286413507
 20
120.1966395832284
 30
0.0
  0
LINE
  5
210
330
1F
100
AcDbEntity
  8
0
  6
Continuous
 62
     7
370
    18
100
AcDbLine
 10
226.1117991473
 20
120.6235808711
 30
0.0
 11
226.0346661998
 21
120.1161711569
 31
0.0
  0
LINE
  5
211
330
1F
100
AcDbEntity
  8
0
  6
Continuous
 62
     7
370
    18
100
AcDbLine
 10
226.7601328413
 20
120.6235808711
 30
0.0
 11
226.1117991473
 21
120.6235808711
 31
0.0
  0
LINE
  5
212
330
1F
100
AcDbEntity
  8
0
  6
Continuous
 62
     7
370
    18
100
AcDbLine
 10
226.7601328413
 20
120.8637353455
 30
0.0
 11
226.7601328413
 21
120.6235808711
 31
0.0
  0
LINE
  5
213
330
1F
100
AcDbEntity
  8
0
  6
Continuous
 62
     7
370
    18
100
AcDbLine
 10
225.932934096
 20
120.8637353455
 30
0.0
 11
226.7601328413
 21
120.8637353455
 31
0.0
  0
LINE
  5
214
330
1F
100
AcDbEntity
  8
0
  6
Continuous
 62
     7
370
    18
100
AcDbLine
 10
225.7728311131
 20
119.8109748456
 30
0.0
 11
225.932934096
 21
120.8637353455
 31
0.0
  0
LINE
  5
215
330
1F
100
AcDbEntity
  8
0
  6
Continuous
 62
     7
370
    18
100
AcDbLine
 10
225.986301757
 20
119.7805386015
 30
0.0
 11
225.7728311131
 21
119.8109748456
 31
0.0
  0
SPLINE
  5
216
330
1F
100
AcDbEntity
  8
0
  6
Continuous
 62
     7
370
    18
100
AcDbSpline
210
0.0
220
0.0
230
1.0
 70
     8
 71
     3
 72
    10
 73
     6
 74
     0
 42
0.000000001
 43
0.00000001
 40
0.0
 40
0.0
 40
0.0
 40
0.0
 40
0.28016827716769
 40
0.5607715634932497
 40
0.9999999999999999
 40
0.9999999999999999
 40
0.9999999999999999
 40
0.9999999999999999
 10
226.2794069575942
 20
119.983168939289
 30
0.0
 10
226.2444189443566
 20
119.979301971439
 30
0.0
 10
226.1743885930079
 20
119.9715620316102
 30
0.0
 10
226.0635440804508
 20
119.9049074892568
 30
0.0
 10
226.0155729080347
 20
119.8276684693245
 30
0.0
 10
225.986301757029
 20
119.7805386014872
 30
0.0
  0
SPLINE
  5
217
330
1F
100
AcDbEntity
  8
0
  6
Continuous
 62
     7
370
    18
100
AcDbSpline
210
0.0
220
0.0
230
1.0
 70
     8
 71
     3
 72
    11
 73
     7
 74
     0
 42
0.000000001
 43
0.00000001
 40
0.0
 40
0.0
 40
0.0
 40
0.0
 40
0.2810318196216985
 40
0.5605860755662343
 40
0.7803889752948997
 40
1.0
 40
1.0
 40
1.0
 40
1.0
 10
226.6267136888472
 20
119.5237067329976
 30
0.0
 10
226.6238571956817
 20
119.5842584811267
 30
0.0
 10
226.6181592277588
 20
119.7050436181908
 30
0.0
 10
226.5441173805177
 20
119.8601449116423
 30
0.0
 10
226.4224253242366
 20
119.9662538881228
 30
0.0
 10
226.327065866549
 20
119.9775322305052
 30
0.0
 10
226.2794069575942
 20
119.983168939289
 30
0.0
  0
SPLINE
  5
218
330
1F
100
AcDbEntity
  8
0
  6
Continuous
 62
     7
370
    18
100
AcDbSpline
210
0.0
220
0.0
230
1.0
 70
     8
 71
     3
 72
    12
 73
     8
 74
     0
 42
0.000000001
 43
0.00000001
 40
0.0
 40
0.0
 40
0.0
 40
0.0
 40
0.1858835197478837
 40
0.3723018513499671
 40
0.5590684864252747
 40
0.779324338001526
 40
0.9999999999999999
 40
0.9999999999999999
 40
0.9999999999999999
 40
0.9999999999999999
 10
226.2739868045254
 20
119.0225510415618
 30
0.0
 10
226.3164881077086
 20
119.0280730320483
 30
0.0
 10
226.4016129960329
 20
119.0391329005298
 30
0.0
 10
226.5024008283502
 20
119.1240214274132
 30
0.0
 10
226.5782914577964
 20
119.2355929816325
 30
0.0
 10
226.620637707767
 20
119.3739062535056
 30
0.0
 10
226.6246870766872
 20
119.4737415554722
 30
0.0
 10
226.6267136888472
 20
119.5237067329976
 30
0.0
  0
SPLINE
  5
219
330
1F
100
AcDbEntity
  8
0
  6
Continuous
 62
     7
370
    18
100
AcDbSpline
210
0.0
220
0.0
230
1.0
 70
     8
 71
     3
 72
    11
 73
     7
 74
     0
 42
0.000000001
 43
0.00000001
 40
0.0
 40
0.0
 40
0.0
 40
0.0
 40
0.2811074381184356
 40
0.5611160017532844
 40
0.7809929910720573
 40
1.0
 40
1.0
 40
1.0
 40
1.0
 10
225.9596179265366
 20
119.4228084989481
 30
0.0
 10
225.9678336554894
 20
119.3711622492293
 30
0.0
 10
225.9842329973651
 20
119.2680716396683
 30
0.0
 10
226.048487782666
 20
119.1357833915343
 30
0.0
 10
226.1508653406825
 20
119.0408320525559
 30
0.0
 10
226.2330005876034
 20
119.0286366537594
 30
0.0
 10
226.2739868045254
 20
119.0225510415618
 30
0.0
  0
LINE
  5
21A
330
1F
100
AcDbEntity
  8
0
  6
Continuous
 62
     7
370
    18
100
AcDbLine
 10
225.7461472826
 20
119.3961246685
 30
0.0
 11
225.9596179265
 21
119.4228084989
 31
0.0
  0
SPLINE
  5
21B
330
1F
100
AcDbEntity
  8
0
  6
Continuous
 62
     7
370
    18
100
AcDbSpline
210
0.0
220
0.0
230
1.0
 70
     8
 71
     3
 72
    12
 73
     8
 74
     0
 42
0.000000001
 43
0.00000001
 40
0.0
 40
0.0
 40
0.0
 40
0.0
 40
0.1865885886654279
 40
0.3730457041861946
 40
0.5597053661028952
 40
0.7796179230979424
 40
1.0
 40
1.0
 40
1.0
 40
1.0
 10
226.2760714787827
 20
118.8090803976224
 30
0.0
 10
226.2212545055163
 20
118.8134422456672
 30
0.0
 10
226.111659183853
 20
118.8221628683326
 30
0.0
 10
225.9659657089287
 20
118.9059792316115
 30
0.0
 10
225.8469185105587
 20
119.0340177786592
 30
0.0
 10
225.7699781123523
 20
119.2043192476763
 30
0.0
 10
225.7540965377622
 20
119.3321440917205
 30
0.0
 10
225.7461472825972
 20
119.3961246684557
 30
0.0
  0
SPLINE
  5
21C
330
1F
100
AcDbEntity
  8
0
  6
Continuous
 62
     7
370
    18
100
AcDbSpline
210
0.0
220
0.0
230
1.0
 70
     8
 71
     3
 72
    13
 73
     9
 74
     0
 42
0.000000001
 43
0.00000001
 40
0.0
 40
0.0
 40
0.0
 40
0.0
 40
0.186889079651812
 40
0.3736670037034779
 40
0.5603596573753068
 40
0.7069433013335583
 40
0.8533827747571259
 40
1.0
 40
1.0
 40
1.0
 40
1.0
 10
226.8401843327866
 20
119.5353809088381
 30
0.0
 10
226.8370907527444
 20
119.4714620900211
 30
0.0
 10
226.8309054326217
 20
119.3436624692401
 30
0.0
 10
226.7737421169804
 20
119.158890593532
 30
0.0
 10
226.6829581044646
 20
119.0041255313987
 30
0.0
 10
226.5650890098704
 20
118.8878658485356
 30
0.0
 10
226.4269049386717
 20
118.8196296922014
 30
0.0
 10
226.3263696251136
 20
118.8125982507752
 30
0.0
 10
226.2760714787827
 20
118.8090803976224
 30
0.0
  0
LINE
  5
21D
330
1F
100
AcDbEntity
  8
0
  6
Continuous
 62
     7
370
    18
100
AcDbLine
 10
224.9456323678
 20
119.6896468039
 30
0.0
 11
225.5860442996
 21
119.6896468039
 31
0.0
  0
LINE
  5
21E
330
1F
100
AcDbEntity
  8
0
  6
Continuous
 62
     7
370
    18
100
AcDbLine
 10
224.9456323678
 20
119.4494923294
 30
0.0
 11
224.9456323678
 21
119.6896468039
 31
0.0
  0
LINE
  5
21F
330
1F
100
AcDbEntity
  8
0
  6
Continuous
 62
     7
370
    18
100
AcDbLine
 10
225.5860442996
 20
119.4494923294
 30
0.0
 11
224.9456323678
 21
119.4494923294
 31
0.0
  0
LINE
  5
220
330
1F
100
AcDbEntity
  8
0
  6
Continuous
 62
     7
370
    18
100
AcDbLine
 10
225.5860442996
 20
119.6896468039
 30
0.0
 11
225.5860442996
 21
119.4494923294
 31
0.0
  0
SPLINE
  5
221
330
1F
100
AcDbEntity
  8
0
  6
Continuous
 62
     7
370
    18
100
AcDbSpline
210
0.0
220
0.0
230
1.0
 70
     8
 71
     3
 72
    12
 73
     8
 74
     0
 42
0.000000001
 43
0.00000001
 40
0.0
 40
0.0
 40
0.0
 40
0.0
 40
0.1871057595240078
 40
0.3740211604078918
 40
0.5608338669252976
 40
0.780358512659648
 40
1.0
 40
1.0
 40
1.0
 40
1.0
 10
224.7588455543775
 20
119.4323980005314
 30
0.0
 10
224.7558964460538
 20
119.3747044505226
 30
0.0
 10
224.7500012297858
 20
119.2593760470721
 30
0.0
 10
224.6905009046419
 20
119.0939536860815
 30
0.0
 10
224.5805866818174
 20
118.9464580367822
 30
0.0
 10
224.4178936055625
 20
118.8292462396441
 30
0.0
 10
224.2813618659862
 20
118.8158035371215
 30
0.0
 10
224.2130778338371
 20
118.8090803976224
 30
0.0
  0
SPLINE
  5
222
330
1F
100
AcDbEntity
  8
0
  6
Continuous
 62
     7
370
    18
100
AcDbSpline
210
0.0
220
0.0
230
1.0
 70
     8
 71
     3
 72
    11
 73
     7
 74
     0
 42
0.000000001
 43
0.00000001
 40
0.0
 40
0.0
 40
0.0
 40
0.0
 40
0.2796220600248668
 40
0.5590245428560703
 40
0.7793847317261622
 40
1.0
 40
1.0
 40
1.0
 40
1.0
 10
224.4315516959938
 20
119.9631560664197
 30
0.0
 10
224.4878182246084
 20
119.9353207804716
 30
0.0
 10
224.6003070977468
 20
119.879672066629
 30
0.0
 10
224.7040767871441
 20
119.7332501650656
 30
0.0
 10
224.7520108336755
 20
119.5793736942355
 30
0.0
 10
224.7565664357573
 20
119.4814087874885
 30
0.0
 10
224.7588455543775
 20
119.4323980005314
 30
0.0
  0
SPLINE
  5
223
330
1F
100
AcDbEntity
  8
0
  6
Continuous
 62
     7
370
    18
100
AcDbSpline
210
0.0
220
0.0
230
1.0
 70
     8
 71
     3
 72
    11
 73
     7
 74
     0
 42
0.000000001
 43
0.00000001
 40
0.0
 40
0.0
 40
0.0
 40
0.0
 40
0.280190175248952
 40
0.5597317672418756
 40
0.7798035967389092
 40
1.0
 40
1.0
 40
1.0
 40
1.0
 10
224.6787940629002
 20
120.3775893087552
 30
0.0
 10
224.6761500396491
 20
120.3295913146273
 30
0.0
 10
224.6708681135229
 20
120.2337064319635
 30
0.0
 10
224.6157360488795
 20
120.1090090744021
 30
0.0
 10
224.5313599009634
 20
120.0167769925418
 30
0.0
 10
224.4648273727699
 20
119.9810330797036
 30
0.0
 10
224.4315516959938
 20
119.9631560664197
 30
0.0
  0
SPLINE
  5
224
330
1F
100
AcDbEntity
  8
0
  6
Continuous
 62
     7
370
    18
100
AcDbSpline
210
0.0
220
0.0
230
1.0
 70
     8
 71
     3
 72
    12
 73
     8
 74
     0
 42
0.000000001
 43
0.00000001
 40
0.0
 40
0.0
 40
0.0
 40
0.0
 40
0.1866818949369801
 40
0.3730939207975775
 40
0.5598445729636973
 40
0.7796788980924657
 40
0.9999999999999999
 40
0.9999999999999999
 40
0.9999999999999999
 40
0.9999999999999999
 10
224.2097423550256
 20
120.9171030065239
 30
0.0
 10
224.2596926763968
 20
120.9130675409836
 30
0.0
 10
224.359521110492
 20
120.9050024436094
 30
0.0
 10
224.4921519197493
 20
120.8278813929073
 30
0.0
 10
224.5982754515528
 20
120.7094780508339
 30
0.0
 10
224.668764383131
 20
120.5538603738583
 30
0.0
 10
224.6754483723243
 20
120.4363896348773
 30
0.0
 10
224.6787940629002
 20
120.3775893087552
 30
0.0
  0
SPLINE
  5
225
330
1F
100
AcDbEntity
  8
0
  6
Continuous
 62
     7
370
    18
100
AcDbSpline
210
0.0
220
0.0
230
1.0
 70
     8
 71
     3
 72
    12
 73
     8
 74
     0
 42
0.000000001
 43
0.00000001
 40
0.0
 40
0.0
 40
0.0
 40
0.0
 40
0.1871377587295348
 40
0.3740411921344247
 40
0.5608494686677246
 40
0.7803659435040499
 40
1.0
 40
1.0
 40
1.0
 40
1.0
 10
223.7448599956653
 20
120.3859280057841
 30
0.0
 10
223.7474090929007
 20
120.4351277595763
 30
0.0
 10
223.7525040955088
 20
120.533465661484
 30
0.0
 10
223.8026378191912
 20
120.6746453953531
 30
0.0
 10
223.89569495518
 20
120.8010831955542
 30
0.0
 10
224.0351810401083
 20
120.9000802479647
 30
0.0
 10
224.1515448646609
 20
120.9114277409148
 30
0.0
 10
224.2097423550256
 20
120.9171030065239
 30
0.0
  0
SPLINE
  5
226
330
1F
100
AcDbEntity
  8
0
  6
Continuous
 62
     7
370
    18
100
AcDbSpline
210
0.0
220
0.0
230
1.0
 70
     8
 71
     3
 72
    11
 73
     7
 74
     0
 42
0.000000001
 43
0.00000001
 40
0.0
 40
0.0
 40
0.0
 40
0.0
 40
0.2798399979573776
 40
0.5592260384591583
 40
0.7795665615265374
 40
1.0
 40
1.0
 40
1.0
 40
1.0
 10
223.9946039716804
 20
119.9631560664197
 30
0.0
 10
223.951661508936
 20
119.9870136162963
 30
0.0
 10
223.8658462448653
 20
120.0346900142459
 30
0.0
 10
223.7862696646853
 20
120.1499716308144
 30
0.0
 10
223.7495775320286
 20
120.2708246272914
 30
0.0
 10
223.7464327287619
 20
120.3475548213634
 30
0.0
 10
223.7448599956653
 20
120.3859280057841
 30
0.0
  0
SPLINE
  5
227
330
1F
100
AcDbEntity
  8
0
  6
Continuous
 62
     7
370
    18
100
AcDbSpline
210
0.0
220
0.0
230
1.0
 70
     8
 71
     3
 72
    11
 73
     7
 74
     0
 42
0.000000001
 43
0.00000001
 40
0.0
 40
0.0
 40
0.0
 40
0.0
 40
0.2804755498465858
 40
0.5600957930369873
 40
0.7800256682201219
 40
1.0
 40
1.0
 40
1.0
 40
1.0
 10
223.6648085041881
 20
119.4394858930059
 30
0.0
 10
223.668134897135
 20
119.5018723254272
 30
0.0
 10
223.6747775392356
 20
119.62645494363
 30
0.0
 10
223.7460171641164
 20
119.7882886522239
 30
0.0
 10
223.8578088450499
 20
119.9077125034485
 30
0.0
 10
223.9490025241343
 20
119.9446736336688
 30
0.0
 10
223.9946039716804
 20
119.9631560664197
 30
0.0
  0
SPLINE
  5
228
330
1F
100
AcDbEntity
  8
0
  6
Continuous
 62
     7
370
    18
100
AcDbSpline
210
0.0
220
0.0
230
1.0
 70
     8
 71
     3
 72
    12
 73
     8
 74
     0
 42
0.000000001
 43
0.00000001
 40
0.0
 40
0.0
 40
0.0
 40
0.0
 40
0.1866482491791764
 40
0.3730988090506981
 40
0.5597919176482345
 40
0.779654520329358
 40
1.0
 40
1.0
 40
1.0
 40
1.0
 10
224.2130778338371
 20
118.8090803976224
 30
0.0
 10
224.1546661463042
 20
118.8138408003177
 30
0.0
 10
224.0379046382322
 20
118.823356563707
 30
0.0
 10
223.8825289654981
 20
118.9127783858606
 30
0.0
 10
223.7569913434587
 20
119.0503480873631
 30
0.0
 10
223.6764591400986
 20
119.2333996699635
 30
0.0
 10
223.6686948884357
 20
119.3707402676992
 30
0.0
 10
223.6648085041881
 20
119.4394858930059
 30
0.0
  0
SPLINE
  5
229
330
1F
100
AcDbEntity
  8
0
  6
Continuous
 62
     7
370
    18
100
AcDbSpline
210
0.0
220
0.0
230
1.0
 70
     8
 71
     3
 72
    10
 73
     6
 74
     0
 42
0.000000001
 43
0.00000001
 40
0.0
 40
0.0
 40
0.0
 40
0.0
 40
0.2795751783825469
 40
0.5597049368157196
 40
1.0
 40
1.0
 40
1.0
 40
1.0
 10
223.2837300499681
 20
120.7002968837729
 30
0.0
 10
223.3196085908736
 20
120.6277937363059
 30
0.0
 10
223.3914368432482
 20
120.4826436203094
 30
0.0
 10
223.4410349665521
 20
120.1961219603235
 30
0.0
 10
223.4474296707789
 20
119.9889022788357
 30
0.0
 10
223.4513378602487
 20
119.8622578323702
 30
0.0
  0
SPLINE
  5
22A
330
1F
100
AcDbEntity
  8
0
  6
Continuous
 62
     7
370
    18
100
AcDbSpline
210
0.0
220
0.0
230
1.0
 70
     8
 71
     3
 72
    11
 73
     7
 74
     0
 42
0.000000001
 43
0.00000001
 40
0.0
 40
0.0
 40
0.0
 40
0.0
 40
0.2798903849624101
 40
0.5594964420644691
 40
0.7796718965173901
 40
0.9999999999999999
 40
0.9999999999999999
 40
0.9999999999999999
 40
0.9999999999999999
 10
222.9055701397083
 20
120.9171030065239
 30
0.0
 10
222.9483270814288
 20
120.914250488252
 30
0.0
 10
223.0337975300453
 20
120.9085483494512
 30
0.0
 10
223.1425677851482
 20
120.8549232675218
 30
0.0
 10
223.226088110661
 20
120.7828838994369
 30
0.0
 10
223.2645116318594
 20
120.727832248066
 30
0.0
 10
223.2837300499681
 20
120.7002968837729
 30
0.0
  0
SPLINE
  5
22B
330
1F
100
AcDbEntity
  8
0
  6
Continuous
 62
     7
370
    18
100
AcDbSpline
210
0.0
220
0.0
230
1.0
 70
     8
 71
     3
 72
    13
 73
     9
 74
     0
 42
0.000000001
 43
0.00000001
 40
0.0
 40
0.0
 40
0.0
 40
0.0
 40
0.2504890583456498
 40
0.5006738274425626
 40
0.6258446378555227
 40
0.7507584155659045
 40
0.8753007099299326
 40
1.0
 40
1.0
 40
1.0
 40
1.0
 10
222.3573008100593
 20
119.8622578323702
 30
0.0
 10
222.3600194246744
 20
119.972498029728
 30
0.0
 10
222.3654533513843
 20
120.1928445067903
 30
0.0
 10
222.4155067234259
 20
120.4662719423377
 30
0.0
 10
222.5004422488031
 20
120.6707294766228
 30
0.0
 10
222.5974303244922
 20
120.8062420977019
 30
0.0
 10
222.7393859875758
 20
120.9023413797903
 30
0.0
 10
222.8501521653579
 20
120.912180398434
 30
0.0
 10
222.9055701397083
 20
120.9171030065239
 30
0.0
  0
SPLINE
  5
22C
330
1F
100
AcDbEntity
  8
0
  6
Continuous
 62
     7
370
    18
100
AcDbSpline
210
0.0
220
0.0
230
1.0
 70
     8
 71
     3
 72
    13
 73
     9
 74
     0
 42
0.000000001
 43
0.00000001
 40
0.0
 40
0.0
 40
0.0
 40
0.0
 40
0.1245870753534858
 40
0.2492227148385385
 40
0.3742192396120906
 40
0.4992998133209621
 40
0.7494812006579978
 40
1.0
 40
1.0
 40
1.0
 40
1.0
 10
222.9030685305997
 20
118.8090803976224
 30
0.0
 10
222.8478048873108
 20
118.8147170938994
 30
0.0
 10
222.7372560589253
 20
118.8259926836419
 30
0.0
 10
222.5984671027026
 20
118.9246256964782
 30
0.0
 10
222.4954279940195
 20
119.0546300330382
 30
0.0
 10
222.4094041088511
 20
119.2589759840917
 30
0.0
 10
222.3642332222319
 20
119.5324781632775
 30
0.0
 10
222.3596126520206
 20
119.7522819022009
 30
0.0
 10
222.3573008100593
 20
119.8622578323702
 30
0.0
  0
SPLINE
  5
22D
330
1F
100
AcDbEntity
  8
0
  6
Continuous
 62
     7
370
    18
100
AcDbSpline
210
0.0
220
0.0
230
1.0
 70
     8
 71
     3
 72
    13
 73
     9
 74
     0
 42
0.000000001
 43
0.00000001
 40
0.0
 40
0.0
 40
0.0
 40
0.0
 40
0.2504702058475057
 40
0.5006494994159215
 40
0.6258027062132777
 40
0.75074109582635
 40
0.8752785399750063
 40
1.0
 40
1.0
 40
1.0
 40
1.0
 10
223.4513378602487
 20
119.8622578323702
 30
0.0
 10
223.4486243649936
 20
119.7521253768187
 30
0.0
 10
223.4432005261121
 20
119.5319883806647
 30
0.0
 10
223.392430668388
 20
119.2590577804288
 30
0.0
 10
223.3080789209524
 20
119.0546336679775
 30
0.0
 10
223.2111961609959
 20
118.9191788392451
 30
0.0
 10
223.069119544127
 20
118.8235005744433
 30
0.0
 10
222.9584461034039
 20
118.8138894883637
 30
0.0
 10
222.9030685305997
 20
118.8090803976224
 30
0.0
  0
SPLINE
  5
22E
330
1F
100
AcDbEntity
  8
0
  6
Continuous
 62
     7
370
    18
100
AcDbSpline
210
0.0
220
0.0
230
1.0
 70
     8
 71
     3
 72
    12
 73
     8
 74
     0
 42
0.000000001
 43
0.00000001
 40
0.0
 40
0.0
 40
0.0
 40
0.0
 40
0.1861323399318203
 40
0.3726108819815547
 40
0.5594136204052346
 40
0.779503096820601
 40
1.0
 40
1.0
 40
1.0
 40
1.0
 10
221.642674474684
 20
120.1966395832284
 30
0.0
 10
221.7003167896191
 20
120.1899536828455
 30
0.0
 10
221.8157086329457
 20
120.17656944645
 30
0.0
 10
221.9578543577743
 20
120.0694578022866
 30
0.0
 10
222.0690243765785
 20
119.9238964844737
 30
0.0
 10
222.1348212763594
 20
119.7385718739757
 30
0.0
 10
222.140825352135
 20
119.6031529728644
 30
0.0
 10
222.1438301661199
 20
119.5353809088381
 30
0.0
  0
SPLINE
  5
22F
330
1F
100
AcDbEntity
  8
0
  6
Continuous
 62
     7
370
    18
100
AcDbSpline
210
0.0
220
0.0
230
1.0
 70
     8
 71
     3
 72
     9
 73
     5
 74
     0
 42
0.000000001
 43
0.00000001
 40
0.0
 40
0.0
 40
0.0
 40
0.0
 40
0.5597945537684121
 40
1.0
 40
1.0
 40
1.0
 40
1.0
 10
221.3383120331299
 20
120.1161711568997
 30
0.0
 10
221.3924328391703
 20
120.1419791620452
 30
0.0
 10
221.4891126044093
 20
120.1880817991142
 30
0.0
 10
221.5957375798089
 20
120.1940238569898
 30
0.0
 10
221.642674474684
 20
120.1966395832284
 30
0.0
  0
LINE
  5
230
330
1F
100
AcDbEntity
  8
0
  6
Continuous
 62
     7
370
    18
100
AcDbLine
 10
221.4154449806
 20
120.6235808711
 30
0.0
 11
221.3383120331
 21
120.1161711569
 31
0.0
  0
LINE
  5
231
330
1F
100
AcDbEntity
  8
0
  6
Continuous
 62
     7
370
    18
100
AcDbLine
 10
222.0637786746
 20
120.6235808711
 30
0.0
 11
221.4154449806
 21
120.6235808711
 31
0.0
  0
LINE
  5
232
330
1F
100
AcDbEntity
  8
0
  6
Continuous
 62
     7
370
    18
100
AcDbLine
 10
222.0637786746
 20
120.8637353455
 30
0.0
 11
222.0637786746
 21
120.6235808711
 31
0.0
  0
LINE
  5
233
330
1F
100
AcDbEntity
  8
0
  6
Continuous
 62
     7
370
    18
100
AcDbLine
 10
221.2365799294
 20
120.8637353455
 30
0.0
 11
222.0637786746
 21
120.8637353455
 31
0.0
  0
LINE
  5
234
330
1F
100
AcDbEntity
  8
0
  6
Continuous
 62
     7
370
    18
100
AcDbLine
 10
221.0764769464
 20
119.8109748456
 30
0.0
 11
221.2365799294
 21
120.8637353455
 31
0.0
  0
LINE
  5
235
330
1F
100
AcDbEntity
  8
0
  6
Continuous
 62
     7
370
    18
100
AcDbLine
 10
221.2899475904
 20
119.7805386015
 30
0.0
 11
221.0764769464
 21
119.8109748456
 31
0.0
  0
SPLINE
  5
236
330
1F
100
AcDbEntity
  8
0
  6
Continuous
 62
     7
370
    18
100
AcDbSpline
210
0.0
220
0.0
230
1.0
 70
     8
 71
     3
 72
    10
 73
     6
 74
     0
 42
0.000000001
 43
0.00000001
 40
0.0
 40
0.0
 40
0.0
 40
0.0
 40
0.2801682771676941
 40
0.5607715634932552
 40
1.0
 40
1.0
 40
1.0
 40
1.0
 10
221.5830527909276
 20
119.983168939289
 30
0.0
 10
221.5480647776899
 20
119.979301971439
 30
0.0
 10
221.4780344263412
 20
119.9715620316102
 30
0.0
 10
221.3671899137842
 20
119.9049074892568
 30
0.0
 10
221.319218741368
 20
119.8276684693245
 30
0.0
 10
221.2899475903623
 20
119.7805386014872
 30
0.0
  0
SPLINE
  5
237
330
1F
100
AcDbEntity
  8
0
  6
Continuous
 62
     7
370
    18
100
AcDbSpline
210
0.0
220
0.0
230
1.0
 70
     8
 71
     3
 72
    11
 73
     7
 74
     0
 42
0.000000001
 43
0.00000001
 40
0.0
 40
0.0
 40
0.0
 40
0.0
 40
0.2810318196216983
 40
0.5605860755662345
 40
0.7803889752949045
 40
1.0
 40
1.0
 40
1.0
 40
1.0
 10
221.9303595221805
 20
119.5237067329976
 30
0.0
 10
221.927503029015
 20
119.5842584811267
 30
0.0
 10
221.9218050610922
 20
119.7050436181908
 30
0.0
 10
221.847763213851
 20
119.8601449116423
 30
0.0
 10
221.7260711575699
 20
119.9662538881228
 30
0.0
 10
221.6307116998824
 20
119.9775322305052
 30
0.0
 10
221.5830527909276
 20
119.983168939289
 30
0.0
  0
SPLINE
  5
238
330
1F
100
AcDbEntity
  8
0
  6
Continuous
 62
     7
370
    18
100
AcDbSpline
210
0.0
220
0.0
230
1.0
 70
     8
 71
     3
 72
    12
 73
     8
 74
     0
 42
0.000000001
 43
0.00000001
 40
0.0
 40
0.0
 40
0.0
 40
0.0
 40
0.185883519747884
 40
0.3723018513499636
 40
0.5590684864252744
 40
0.7793243380015261
 40
1.0
 40
1.0
 40
1.0
 40
1.0
 10
221.5776326378588
 20
119.0225510415618
 30
0.0
 10
221.6201339410419
 20
119.0280730320483
 30
0.0
 10
221.7052588293663
 20
119.0391329005298
 30
0.0
 10
221.8060466616836
 20
119.1240214274132
 30
0.0
 10
221.8819372911298
 20
119.2355929816325
 30
0.0
 10
221.9242835411003
 20
119.3739062535056
 30
0.0
 10
221.9283329100205
 20
119.4737415554722
 30
0.0
 10
221.9303595221805
 20
119.5237067329976
 30
0.0
  0
SPLINE
  5
239
330
1F
100
AcDbEntity
  8
0
  6
Continuous
 62
     7
370
    18
100
AcDbSpline
210
0.0
220
0.0
230
1.0
 70
     8
 71
     3
 72
    11
 73
     7
 74
     0
 42
0.000000001
 43
0.00000001
 40
0.0
 40
0.0
 40
0.0
 40
0.0
 40
0.2811074381184404
 40
0.5611160017532795
 40
0.7809929910720568
 40
1.0
 40
1.0
 40
1.0
 40
1.0
 10
221.2632637598699
 20
119.4228084989481
 30
0.0
 10
221.2714794888227
 20
119.3711622492293
 30
0.0
 10
221.2878788306984
 20
119.2680716396683
 30
0.0
 10
221.3521336159993
 20
119.1357833915342
 30
0.0
 10
221.4545111740158
 20
119.0408320525559
 30
0.0
 10
221.5366464209368
 20
119.0286366537594
 30
0.0
 10
221.5776326378588
 20
119.0225510415618
 30
0.0
  0
LINE
  5
23A
330
1F
100
AcDbEntity
  8
0
  6
Continuous
 62
     7
370
    18
100
AcDbLine
 10
221.0497931159
 20
119.3961246685
 30
0.0
 11
221.2632637599
 21
119.4228084989
 31
0.0
  0
SPLINE
  5
23B
330
1F
100
AcDbEntity
  8
0
  6
Continuous
 62
     7
370
    18
100
AcDbSpline
210
0.0
220
0.0
230
1.0
 70
     8
 71
     3
 72
    12
 73
     8
 74
     0
 42
0.000000001
 43
0.00000001
 40
0.0
 40
0.0
 40
0.0
 40
0.0
 40
0.1865885886654313
 40
0.373045704186194
 40
0.559705366102897
 40
0.7796179230979436
 40
1.0
 40
1.0
 40
1.0
 40
1.0
 10
221.579717312116
 20
118.8090803976224
 30
0.0
 10
221.5249003388497
 20
118.8134422456672
 30
0.0
 10
221.4153050171864
 20
118.8221628683326
 30
0.0
 10
221.2696115422621
 20
118.9059792316115
 30
0.0
 10
221.150564343892
 20
119.0340177786592
 30
0.0
 10
221.0736239456857
 20
119.2043192476763
 30
0.0
 10
221.0577423710955
 20
119.3321440917205
 30
0.0
 10
221.0497931159305
 20
119.3961246684557
 30
0.0
  0
SPLINE
  5
23C
330
1F
100
AcDbEntity
  8
0
  6
Continuous
 62
     7
370
    18
100
AcDbSpline
210
0.0
220
0.0
230
1.0
 70
     8
 71
     3
 72
    13
 73
     9
 74
     0
 42
0.000000001
 43
0.00000001
 40
0.0
 40
0.0
 40
0.0
 40
0.0
 40
0.1868890796518121
 40
0.373667003703479
 40
0.5603596573753061
 40
0.70694330133356
 40
0.8533827747571291
 40
1.0
 40
1.0
 40
1.0
 40
1.0
 10
222.1438301661199
 20
119.5353809088381
 30
0.0
 10
222.1407365860777
 20
119.4714620900211
 30
0.0
 10
222.1345512659551
 20
119.3436624692401
 30
0.0
 10
222.0773879503137
 20
119.158890593532
 30
0.0
 10
221.9866039377979
 20
119.0041255313987
 30
0.0
 10
221.8687348432038
 20
118.8878658485356
 30
0.0
 10
221.730550772005
 20
118.8196296922014
 30
0.0
 10
221.630015458447
 20
118.8125982507752
 30
0.0
 10
221.579717312116
 20
118.8090803976224
 30
0.0
  0
LINE
  5
23D
330
1F
100
AcDbEntity
  8
0
  6
Continuous
 62
     7
370
    18
100
AcDbLine
 10
219.8577763757
 20
118.8357642281
 30
0.0
 11
219.3687117949
 21
120.6290010242
 31
0.0
  0
LINE
  5
23E
330
1F
100
AcDbEntity
  8
0
  6
Continuous
 62
     7
370
    18
100
AcDbLine
 10
220.0762502378
 20
118.8357642281
 30
0.0
 11
219.8577763757
 21
118.8357642281
 31
0.0
  0
LINE
  5
23F
330
1F
100
AcDbEntity
  8
0
  6
Continuous
 62
     7
370
    18
100
AcDbLine
 10
220.5694841671
 20
120.5318552038
 30
0.0
 11
220.0762502378
 21
118.8357642281
 31
0.0
  0
LINE
  5
240
330
1F
100
AcDbEntity
  8
0
  6
Continuous
 62
     7
370
    18
100
AcDbLine
 10
220.5694841671
 20
118.8357642281
 30
0.0
 11
220.5694841671
 21
120.5318552038
 31
0.0
  0
LINE
  5
241
330
1F
100
AcDbEntity
  8
0
  6
Continuous
 62
     7
370
    18
100
AcDbLine
 10
220.782954811
 20
118.8357642281
 30
0.0
 11
220.5694841671
 21
118.8357642281
 31
0.0
  0
LINE
  5
242
330
1F
100
AcDbEntity
  8
0
  6
Continuous
 62
     7
370
    18
100
AcDbLine
 10
220.782954811
 20
120.890419176
 30
0.0
 11
220.782954811
 21
118.8357642281
 31
0.0
  0
LINE
  5
243
330
1F
100
AcDbEntity
  8
0
  6
Continuous
 62
     7
370
    18
100
AcDbLine
 10
220.4806770437
 20
120.890419176
 30
0.0
 11
220.782954811
 21
120.890419176
 31
0.0
  0
LINE
  5
244
330
1F
100
AcDbEntity
  8
0
  6
Continuous
 62
     7
370
    18
100
AcDbLine
 10
220.0620744529
 20
119.4607495704
 30
0.0
 11
220.4806770437
 21
120.890419176
 31
0.0
  0
SPLINE
  5
245
330
1F
100
AcDbEntity
  8
0
  6
Continuous
 62
     7
370
    18
100
AcDbSpline
210
0.0
220
0.0
230
1.0
 70
     8
 71
     3
 72
     9
 73
     5
 74
     0
 42
0.000000001
 43
0.00000001
 40
0.0
 40
0.0
 40
0.0
 40
0.0
 40
0.5599947003108182
 40
1.0
 40
1.0
 40
1.0
 40
1.0
 10
219.9690979809873
 20
119.1313710377887
 30
0.0
 10
219.9860278873053
 20
119.1929748338175
 30
0.0
 10
220.016260148983
 20
119.3029826535249
 30
0.0
 10
220.0480755206947
 20
119.4125426092686
 30
0.0
 10
220.0620744528593
 20
119.4607495704295
 30
0.0
  0
LINE
  5
246
330
1F
100
AcDbEntity
  8
0
  6
Continuous
 62
     7
370
    18
100
AcDbLine
 10
219.8890464895
 20
119.4357334793
 30
0.0
 11
219.969097981
 21
119.1313710378
 31
0.0
  0
LINE
  5
247
330
1F
100
AcDbEntity
  8
0
  6
Continuous
 62
     7
370
    18
100
AcDbLine
 10
219.489205967
 20
120.890419176
 30
0.0
 11
219.8890464895
 21
119.4357334793
 31
0.0
  0
LINE
  5
248
330
1F
100
AcDbEntity
  8
0
  6
Continuous
 62
     7
370
    18
100
AcDbLine
 10
219.155241151
 20
120.890419176
 30
0.0
 11
219.489205967
 21
120.890419176
 31
0.0
  0
LINE
  5
249
330
1F
100
AcDbEntity
  8
0
  6
Continuous
 62
     7
370
    18
100
AcDbLine
 10
219.155241151
 20
118.8357642281
 30
0.0
 11
219.155241151
 21
120.890419176
 31
0.0
  0
LINE
  5
24A
330
1F
100
AcDbEntity
  8
0
  6
Continuous
 62
     7
370
    18
100
AcDbLine
 10
219.3687117949
 20
118.8357642281
 30
0.0
 11
219.155241151
 21
118.8357642281
 31
0.0
  0
LINE
  5
24B
330
1F
100
AcDbEntity
  8
0
  6
Continuous
 62
     7
370
    18
100
AcDbLine
 10
219.3687117949
 20
120.6290010242
 30
0.0
 11
219.3687117949
 21
118.8357642281
 31
0.0
  0
SPLINE
  5
24C
330
1F
100
AcDbEntity
  8
0
  6
Continuous
 62
     7
370
    18
100
AcDbSpline
210
0.0
220
0.0
230
1.0
 70
     8
 71
     3
 72
    14
 73
    10
 74
     0
 42
0.000000001
 43
0.00000001
 40
0.0
 40
0.0
 40
0.0
 40
0.0
 40
0.1250267645254237
 40
0.2499561862380699
 40
0.374750631388284
 40
0.4996959194189178
 40
0.6663177050472613
 40
0.8330998507676246
 40
1.0
 40
1.0
 40
1.0
 40
1.0
 10
218.1708579667088
 20
120.6769485320921
 30
0.0
 10
218.1248303784953
 20
120.6741322017823
 30
0.0
 10
218.0328110380344
 20
120.6685017338893
 30
0.0
 10
217.9027233283394
 20
120.6160434348328
 30
0.0
 10
217.7948691866165
 20
120.5275134225364
 30
0.0
 10
217.7080653831663
 20
120.3999560622093
 30
0.0
 10
217.6453506470383
 20
120.2424052854414
 30
0.0
 10
217.6123597299626
 20
120.06068646133
 30
0.0
 10
217.6091729405851
 20
119.9381436339186
 30
0.0
 10
217.6075789824078
 20
119.8768505521708
 30
0.0
  0
SPLINE
  5
24D
330
1F
100
AcDbEntity
  8
0
  6
Continuous
 62
     7
370
    18
100
AcDbSpline
210
0.0
220
0.0
230
1.0
 70
     8
 71
     3
 72
    11
 73
     7
 74
     0
 42
0.000000001
 43
0.00000001
 40
0.0
 40
0.0
 40
0.0
 40
0.0
 40
0.2807713074051749
 40
0.5604369820882232
 40
0.7800147849953724
 40
1.0
 40
1.0
 40
1.0
 40
1.0
 10
218.6215645411199
 20
120.2500072442133
 30
0.0
 10
218.6029711162737
 20
120.3103962265296
 30
0.0
 10
218.5658574845292
 20
120.4309363889612
 30
0.0
 10
218.4621861567822
 20
120.5772032914222
 30
0.0
 10
218.3200354812731
 20
120.6649778082415
 30
0.0
 10
218.2206145212373
 20
120.6729558259811
 30
0.0
 10
218.1708579667088
 20
120.6769485320921
 30
0.0
  0
LINE
  5
24E
330
1F
100
AcDbEntity
  8
0
  6
Continuous
 62
     7
370
    18
100
AcDbLine
 10
218.8350351851
 20
120.3033749052
 30
0.0
 11
218.6215645411
 21
120.2500072442
 31
0.0
  0
SPLINE
  5
24F
330
1F
100
AcDbEntity
  8
0
  6
Continuous
 62
     7
370
    18
100
AcDbSpline
210
0.0
220
0.0
230
1.0
 70
     8
 71
     3
 72
    12
 73
     8
 74
     0
 42
0.000000001
 43
0.00000001
 40
0.0
 40
0.0
 40
0.0
 40
0.0
 40
0.1866161660947042
 40
0.373065298577118
 40
0.5597027812570775
 40
0.7796715026895146
 40
1.0
 40
1.0
 40
1.0
 40
1.0
 10
218.1796135985891
 20
120.9171030065239
 30
0.0
 10
218.2405738236102
 20
120.9126451932855
 30
0.0
 10
218.3624397102841
 20
120.9037335568415
 30
0.0
 10
218.5301121207496
 20
120.8223485655227
 30
0.0
 10
218.6730806087669
 20
120.689824138106
 30
0.0
 10
218.7778699625868
 20
120.5109635061891
 30
0.0
 10
218.815969733534
 20
120.3726087896863
 30
0.0
 10
218.8350351850593
 20
120.3033749051981
 30
0.0
  0
SPLINE
  5
250
330
1F
100
AcDbEntity
  8
0
  6
Continuous
 62
     7
370
    18
100
AcDbSpline
210
0.0
220
0.0
230
1.0
 70
     8
 71
     3
 72
    13
 73
     9
 74
     0
 42
0.000000001
 43
0.00000001
 40
0.0
 40
0.0
 40
0.0
 40
0.0
 40
0.186988627014318
 40
0.3737840604657693
 40
0.5603785113196417
 40
0.7069405280508676
 40
0.8534458164057727
 40
1.0
 40
1.0
 40
1.0
 40
1.0
 10
217.3941083384684
 20
119.8768505521708
 30
0.0
 10
217.3973355958119
 20
119.9679073588481
 30
0.0
 10
217.40378677615
 20
120.1499268938133
 30
0.0
 10
217.4729357305901
 20
120.4160685462141
 30
0.0
 10
217.5970298782273
 20
120.641040189158
 30
0.0
 10
217.7690247675007
 20
120.8025460693903
 30
0.0
 10
217.9648741775527
 20
120.9003073731441
 30
0.0
 10
218.1080258302415
 20
120.9115038393759
 30
0.0
 10
218.1796135985891
 20
120.9171030065239
 30
0.0
  0
SPLINE
  5
251
330
1F
100
AcDbEntity
  8
0
  6
Continuous
 62
     7
370
    18
100
AcDbSpline
210
0.0
220
0.0
230
1.0
 70
     8
 71
     3
 72
    14
 73
    10
 74
     0
 42
0.000000001
 43
0.00000001
 40
0.0
 40
0.0
 40
0.0
 40
0.0
 40
0.1249789553015521
 40
0.24980981635043
 40
0.3745823232578668
 40
0.4995715195159096
 40
0.666278116641619
 40
0.8331039635850064
 40
1.0
 40
1.0
 40
1.0
 40
1.0
 10
218.1604345954227
 20
118.8090803976224
 30
0.0
 10
218.0987903616054
 20
118.8125685336592
 30
0.0
 10
217.9755749395225
 20
118.8195406724538
 30
0.0
 10
217.8008804285489
 20
118.8887417026826
 30
0.0
 10
217.65665358361
 20
119.0078341377645
 30
0.0
 10
217.5409921071081
 20
119.1790051546689
 30
0.0
 10
217.4532058904751
 20
119.3881713533698
 30
0.0
 10
217.4018101119466
 20
119.630469097986
 30
0.0
 10
217.3966759562385
 20
119.7947118860834
 30
0.0
 10
217.3941083384684
 20
119.8768505521708
 30
0.0
  0
SPLINE
  5
252
330
1F
100
AcDbEntity
  8
0
  6
Continuous
 62
     7
370
    18
100
AcDbSpline
210
0.0
220
0.0
230
1.0
 70
     8
 71
     3
 72
    13
 73
     9
 74
     0
 42
0.000000001
 43
0.00000001
 40
0.0
 40
0.0
 40
0.0
 40
0.0
 40
0.1869090516643021
 40
0.3736796016941298
 40
0.5601136847103898
 40
0.7067311959183759
 40
0.8533138294591279
 40
1.0
 40
1.0
 40
1.0
 40
1.0
 10
218.8617190155517
 20
119.5028599904254
 30
0.0
 10
218.8458651397666
 20
119.4375318374527
 30
0.0
 10
218.8141691360903
 20
119.3069239403771
 30
0.0
 10
218.7291061386715
 20
119.1229287540371
 30
0.0
 10
218.6114279741548
 20
118.9746094585632
 30
0.0
 10
218.4690183863597
 20
118.8747578534763
 30
0.0
 10
218.3188679494261
 20
118.8182531353247
 30
0.0
 10
218.2132581417518
 20
118.8121386964132
 30
0.0
 10
218.1604345954227
 20
118.8090803976224
 30
0.0
  0
LINE
  5
253
330
1F
100
AcDbEntity
  8
0
  6
Continuous
 62
     7
370
    18
100
AcDbLine
 10
218.6482483716
 20
119.5562276514
 30
0.0
 11
218.8617190156
 21
119.5028599904
 31
0.0
  0
SPLINE
  5
254
330
1F
100
AcDbEntity
  8
0
  6
Continuous
 62
     7
370
    18
100
AcDbSpline
210
0.0
220
0.0
230
1.0
 70
     8
 71
     3
 72
    12
 73
     8
 74
     0
 42
0.000000001
 43
0.00000001
 40
0.0
 40
0.0
 40
0.0
 40
0.0
 40
0.1865921528409282
 40
0.3730589116156858
 40
0.5596226295490484
 40
0.7796100104163911
 40
1.0
 40
1.0
 40
1.0
 40
1.0
 10
218.1537636377996
 20
119.0492348720542
 30
0.0
 10
218.2022577931003
 20
119.0530245233038
 30
0.0
 10
218.2992135145536
 20
119.0606012790735
 30
0.0
 10
218.4298446918296
 20
119.131182525882
 30
0.0
 10
218.5385828509809
 20
119.2416001383893
 30
0.0
 10
218.6119039794565
 20
119.3892000283839
 30
0.0
 10
218.636126192623
 20
119.5005178534913
 30
0.0
 10
218.6482483716123
 20
119.5562276514102
 30
0.0
  0
SPLINE
  5
255
330
1F
100
AcDbEntity
  8
0
  6
Continuous
 62
     7
370
    18
100
AcDbSpline
210
0.0
220
0.0
230
1.0
 70
     8
 71
     3
 72
    14
 73
    10
 74
     0
 42
0.000000001
 43
0.00000001
 40
0.0
 40
0.0
 40
0.0
 40
0.0
 40
0.1669299867484154
 40
0.3337709048041696
 40
0.5004211293286657
 40
0.6254239239505631
 40
0.7503194582828523
 40
0.8750931289475059
 40
1.0
 40
1.0
 40
1.0
 40
1.0
 10
217.6075789824078
 20
119.8768505521708
 30
0.0
 10
217.6089087183383
 20
119.8149036139101
 30
0.0
 10
217.6115674806933
 20
119.6910427903645
 30
0.0
 10
217.6417136689456
 20
119.5073478148157
 30
0.0
 10
217.6962939440935
 20
119.3446977500741
 30
0.0
 10
217.7820640913912
 20
119.2144031570102
 30
0.0
 10
217.8856473649646
 20
119.1196393019879
 30
0.0
 10
218.0142305367354
 20
119.0588379696504
 30
0.0
 10
218.1072360651475
 20
119.0524370428487
 30
0.0
 10
218.1537636377996
 20
119.0492348720542
 30
0.0
  0
CIRCLE
  5
256
330
1F
100
AcDbEntity
  8
0
  6
Continuous
 62
     7
370
    18
100
AcDbCircle
 10
225.8929083503
 20
122.2246107007
 30
0.0
 40
25.19999999999999
  0
SPLINE
  5
257
330
1F
100
AcDbEntity
  8
0
  6
Continuous
 62
     7
370
    18
100
AcDbSpline
210
0.0
220
0.0
230
1.0
 70
     8
 71
     3
 72
    13
 73
     9
 74
     0
 42
0.000000001
 43
0.00000001
 40
0.0
 40
0.0
 40
0.0
 40
0.0
 40
0.1237345749994074
 40
0.248423210174569
 40
0.3734713343328623
 40
0.498744496763746
 40
0.7493102257733215
 40
1.0
 40
1.0
 40
1.0
 40
1.0
 10
232.5688691916289
 20
119.0225510415618
 30
0.0
 10
232.6099535878185
 20
119.0299142833146
 30
0.0
 10
232.6924391630069
 20
119.0446975413775
 30
0.0
 10
232.7766337327093
 20
119.1424103354484
 30
0.0
 10
232.8337034552651
 20
119.2511524180645
 30
0.0
 10
232.8728736526809
 20
119.4119455251604
 30
0.0
 10
232.8941409756046
 20
119.6165025090202
 30
0.0
 10
232.8963227149418
 20
119.7808817447984
 30
0.0
 10
232.8974138545669
 20
119.8630917020731
 30
0.0
  0
SPLINE
  5
258
330
1F
100
AcDbEntity
  8
0
  6
Continuous
 62
     7
370
    18
100
AcDbSpline
210
0.0
220
0.0
230
1.0
 70
     8
 71
     3
 72
    13
 73
     9
 74
     0
 42
0.000000001
 43
0.00000001
 40
0.0
 40
0.0
 40
0.0
 40
0.0
 40
0.2506668541570156
 40
0.5012048357437087
 40
0.6264537829510468
 40
0.751429187159486
 40
0.8760522367173378
 40
1.0
 40
1.0
 40
1.0
 40
1.0
 10
232.2303180922563
 20
119.8630917020731
 30
0.0
 10
232.2313663990729
 20
119.7801464662781
 30
0.0
 10
232.2334624737517
 20
119.6142986384025
 30
0.0
 10
232.2552815727905
 20
119.4079246360247
 30
0.0
 10
232.295384053061
 20
119.2458702525888
 30
0.0
 10
232.3547553946779
 20
119.1367647494696
 30
0.0
 10
232.4438567540256
 20
119.0420744240108
 30
0.0
 10
232.5272739182208
 20
119.0290470386512
 30
0.0
 10
232.5688691916289
 20
119.0225510415618
 30
0.0
  0
SPLINE
  5
259
330
1F
100
AcDbEntity
  8
0
  6
Continuous
 62
     7
370
    18
100
AcDbSpline
210
0.0
220
0.0
230
1.0
 70
     8
 71
     3
 72
    13
 73
     9
 74
     0
 42
0.000000001
 43
0.00000001
 40
0.0
 40
0.0
 40
0.0
 40
0.0
 40
0.1236770548154447
 40
0.2483884878623322
 40
0.3734455614730981
 40
0.4987169325064014
 40
0.7492948497723048
 40
1.0
 40
1.0
 40
1.0
 40
1.0
 10
232.5563611460856
 20
120.7036323625845
 30
0.0
 10
232.5153725814313
 20
120.6961391633247
 30
0.0
 10
232.4330526425443
 20
120.6810900951191
 30
0.0
 10
232.3499389231227
 20
120.5827327547889
 30
0.0
 10
232.2932058740495
 20
120.474098933453
 30
0.0
 10
232.2551900800569
 20
120.3133169042887
 30
0.0
 10
232.2334453313146
 20
120.1092679943523
 30
0.0
 10
232.2313606816472
 20
119.9451643501332
 30
0.0
 10
232.2303180922563
 20
119.8630917020731
 30
0.0
  0
SPLINE
  5
25A
330
1F
100
AcDbEntity
  8
0
  6
Continuous
 62
     7
370
    18
100
AcDbSpline
210
0.0
220
0.0
230
1.0
 70
     8
 71
     3
 72
    13
 73
     9
 74
     0
 42
0.000000001
 43
0.00000001
 40
0.0
 40
0.0
 40
0.0
 40
0.0
 40
0.2506736071386397
 40
0.5012152607338
 40
0.6264526015104158
 40
0.7514497498805417
 40
0.8760271183236275
 40
1.0
 40
1.0
 40
1.0
 40
1.0
 10
232.8974138545669
 20
119.8630917020731
 30
0.0
 10
232.8963753516548
 20
119.9462378558269
 30
0.0
 10
232.8942988924943
 20
120.1124863955453
 30
0.0
 10
232.8723846480831
 20
120.319377523349
 30
0.0
 10
232.8319921928465
 20
120.4817530990793
 30
0.0
 10
232.7722245620963
 20
120.5910938463388
 30
0.0
 10
232.6817044767435
 20
120.6848320980402
 30
0.0
 10
232.5980744588285
 20
120.6973757766898
 30
0.0
 10
232.5563611460856
 20
120.7036323625845
 30
0.0
  0
SPLINE
  5
25B
330
1F
100
AcDbEntity
  8
0
  6
Continuous
 62
     7
370
    18
100
AcDbSpline
210
0.0
220
0.0
230
1.0
 70
     8
 71
     3
 72
    13
 73
     9
 74
     0
 42
0.000000001
 43
0.00000001
 40
0.0
 40
0.0
 40
0.0
 40
0.0
 40
0.1237345749994058
 40
0.2484232101745687
 40
0.3734713343328614
 40
0.4987444967637455
 40
0.7493102257733212
 40
1.0
 40
1.0
 40
1.0
 40
1.0
 10
228.9131844141668
 20
119.0225510415618
 30
0.0
 10
228.9542688103564
 20
119.0299142833146
 30
0.0
 10
229.0367543855448
 20
119.0446975413775
 30
0.0
 10
229.1209489552472
 20
119.1424103354484
 30
0.0
 10
229.178018677803
 20
119.2511524180645
 30
0.0
 10
229.2171888752187
 20
119.4119455251604
 30
0.0
 10
229.2384561981424
 20
119.6165025090202
 30
0.0
 10
229.2406379374797
 20
119.7808817447984
 30
0.0
 10
229.2417290771047
 20
119.8630917020731
 30
0.0
  0
SPLINE
  5
25C
330
1F
100
AcDbEntity
  8
0
  6
Continuous
 62
     7
370
    18
100
AcDbSpline
210
0.0
220
0.0
230
1.0
 70
     8
 71
     3
 72
    13
 73
     9
 74
     0
 42
0.000000001
 43
0.00000001
 40
0.0
 40
0.0
 40
0.0
 40
0.0
 40
0.2506668541570156
 40
0.5012048357437084
 40
0.6264537829510461
 40
0.7514291871594861
 40
0.8760522367173379
 40
1.0
 40
1.0
 40
1.0
 40
1.0
 10
228.5746333147941
 20
119.8630917020731
 30
0.0
 10
228.5756816216107
 20
119.7801464662781
 30
0.0
 10
228.5777776962896
 20
119.6142986384024
 30
0.0
 10
228.5995967953284
 20
119.4079246360247
 30
0.0
 10
228.6396992755988
 20
119.2458702525888
 30
0.0
 10
228.6990706172158
 20
119.1367647494696
 30
0.0
 10
228.7881719765635
 20
119.0420744240108
 30
0.0
 10
228.8715891407587
 20
119.0290470386512
 30
0.0
 10
228.9131844141668
 20
119.0225510415618
 30
0.0
  0
SPLINE
  5
25D
330
1F
100
AcDbEntity
  8
0
  6
Continuous
 62
     7
370
    18
100
AcDbSpline
210
0.0
220
0.0
230
1.0
 70
     8
 71
     3
 72
    13
 73
     9
 74
     0
 42
0.000000001
 43
0.00000001
 40
0.0
 40
0.0
 40
0.0
 40
0.0
 40
0.1236770548154464
 40
0.2483884878623325
 40
0.3734455614730951
 40
0.4987169325064013
 40
0.7492948497723046
 40
1.0
 40
1.0
 40
1.0
 40
1.0
 10
228.9006763686235
 20
120.7036323625845
 30
0.0
 10
228.8596878039691
 20
120.6961391633247
 30
0.0
 10
228.7773678650821
 20
120.6810900951191
 30
0.0
 10
228.6942541456606
 20
120.5827327547889
 30
0.0
 10
228.6375210965874
 20
120.474098933453
 30
0.0
 10
228.5995053025948
 20
120.3133169042887
 30
0.0
 10
228.5777605538524
 20
120.1092679943523
 30
0.0
 10
228.5756759041851
 20
119.9451643501332
 30
0.0
 10
228.5746333147941
 20
119.8630917020731
 30
0.0
  0
SPLINE
  5
25E
330
1F
100
AcDbEntity
  8
0
  6
Continuous
 62
     7
370
    18
100
AcDbSpline
210
0.0
220
0.0
230
1.0
 70
     8
 71
     3
 72
    13
 73
     9
 74
     0
 42
0.000000001
 43
0.00000001
 40
0.0
 40
0.0
 40
0.0
 40
0.0
 40
0.2506736071386392
 40
0.5012152607337993
 40
0.6264526015104145
 40
0.7514497498805432
 40
0.8760271183236301
 40
1.0
 40
1.0
 40
1.0
 40
1.0
 10
229.2417290771047
 20
119.8630917020731
 30
0.0
 10
229.2406905741927
 20
119.9462378558269
 30
0.0
 10
229.2386141150321
 20
120.1124863955453
 30
0.0
 10
229.2166998706209
 20
120.319377523349
 30
0.0
 10
229.1763074153843
 20
120.4817530990793
 30
0.0
 10
229.1165397846342
 20
120.5910938463388
 30
0.0
 10
229.0260196992814
 20
120.6848320980402
 30
0.0
 10
228.9423896813664
 20
120.6973757766898
 30
0.0
 10
228.9006763686235
 20
120.7036323625845
 30
0.0
  0
SPLINE
  5
25F
330
1F
100
AcDbEntity
  8
0
  6
Continuous
 62
     7
370
    18
100
AcDbSpline
210
0.0
220
0.0
230
1.0
 70
     8
 71
     3
 72
    13
 73
     9
 74
     0
 42
0.000000001
 43
0.00000001
 40
0.0
 40
0.0
 40
0.0
 40
0.0
 40
0.123734574999404
 40
0.2484232101745681
 40
0.3734713343328623
 40
0.498744496763746
 40
0.749310225773325
 40
1.0
 40
1.0
 40
1.0
 40
1.0
 10
227.605676720038
 20
119.0225510415618
 30
0.0
 10
227.6467611162276
 20
119.0299142833146
 30
0.0
 10
227.7292466914159
 20
119.0446975413775
 30
0.0
 10
227.8134412611184
 20
119.1424103354484
 30
0.0
 10
227.8705109836742
 20
119.2511524180645
 30
0.0
 10
227.90968118109
 20
119.4119455251604
 30
0.0
 10
227.9309485040137
 20
119.6165025090202
 30
0.0
 10
227.9331302433509
 20
119.7808817447984
 30
0.0
 10
227.934221382976
 20
119.8630917020731
 30
0.0
  0
SPLINE
  5
260
330
1F
100
AcDbEntity
  8
0
  6
Continuous
 62
     7
370
    18
100
AcDbSpline
210
0.0
220
0.0
230
1.0
 70
     8
 71
     3
 72
    13
 73
     9
 74
     0
 42
0.000000001
 43
0.00000001
 40
0.0
 40
0.0
 40
0.0
 40
0.0
 40
0.2506668541570155
 40
0.5012048357437084
 40
0.6264537829510461
 40
0.7514291871594861
 40
0.8760522367173379
 40
1.0
 40
1.0
 40
1.0
 40
1.0
 10
227.2671256206654
 20
119.8630917020731
 30
0.0
 10
227.2681739274819
 20
119.7801464662781
 30
0.0
 10
227.2702700021608
 20
119.6142986384025
 30
0.0
 10
227.2920891011996
 20
119.4079246360247
 30
0.0
 10
227.3321915814701
 20
119.2458702525888
 30
0.0
 10
227.391562923087
 20
119.1367647494696
 30
0.0
 10
227.4806642824347
 20
119.0420744240108
 30
0.0
 10
227.5640814466299
 20
119.0290470386512
 30
0.0
 10
227.605676720038
 20
119.0225510415618
 30
0.0
  0
SPLINE
  5
261
330
1F
100
AcDbEntity
  8
0
  6
Continuous
 62
     7
370
    18
100
AcDbSpline
210
0.0
220
0.0
230
1.0
 70
     8
 71
     3
 72
    13
 73
     9
 74
     0
 42
0.000000001
 43
0.00000001
 40
0.0
 40
0.0
 40
0.0
 40
0.0
 40
0.1236770548154432
 40
0.2483884878623308
 40
0.3734455614730969
 40
0.4987169325064004
 40
0.7492948497723043
 40
1.0
 40
1.0
 40
1.0
 40
1.0
 10
227.5931686744947
 20
120.7036323625845
 30
0.0
 10
227.5521801098404
 20
120.6961391633247
 30
0.0
 10
227.4698601709534
 20
120.6810900951191
 30
0.0
 10
227.3867464515318
 20
120.5827327547889
 30
0.0
 10
227.3300134024586
 20
120.4740989334529
 30
0.0
 10
227.291997608466
 20
120.3133169042887
 30
0.0
 10
227.2702528597237
 20
120.1092679943523
 30
0.0
 10
227.2681682100563
 20
119.9451643501332
 30
0.0
 10
227.2671256206654
 20
119.8630917020731
 30
0.0
  0
SPLINE
  5
262
330
1F
100
AcDbEntity
  8
0
  6
Continuous
 62
     7
370
    18
100
AcDbSpline
210
0.0
220
0.0
230
1.0
 70
     8
 71
     3
 72
    13
 73
     9
 74
     0
 42
0.000000001
 43
0.00000001
 40
0.0
 40
0.0
 40
0.0
 40
0.0
 40
0.2506736071386391
 40
0.5012152607337986
 40
0.6264526015104142
 40
0.7514497498805428
 40
0.8760271183236269
 40
1.0
 40
1.0
 40
1.0
 40
1.0
 10
227.934221382976
 20
119.8630917020731
 30
0.0
 10
227.9331828800639
 20
119.946237855827
 30
0.0
 10
227.9311064209033
 20
120.1124863955453
 30
0.0
 10
227.9091921764921
 20
120.319377523349
 30
0.0
 10
227.8687997212556
 20
120.4817530990793
 30
0.0
 10
227.8090320905054
 20
120.5910938463388
 30
0.0
 10
227.7185120051526
 20
120.6848320980402
 30
0.0
 10
227.6348819872376
 20
120.6973757766898
 30
0.0
 10
227.5931686744947
 20
120.7036323625845
 30
0.0
  0
SPLINE
  5
263
330
1F
100
AcDbEntity
  8
0
  6
Continuous
 62
     7
370
    18
100
AcDbSpline
210
0.0
220
0.0
230
1.0
 70
     8
 71
     3
 72
    12
 73
     8
 74
     0
 42
0.000000001
 43
0.00000001
 40
0.0
 40
0.0
 40
0.0
 40
0.0
 40
0.1864266110451021
 40
0.3728066183672661
 40
0.5596384089196413
 40
0.7795953861027519
 40
1.0
 40
1.0
 40
1.0
 40
1.0
 10
224.2130778338371
 20
119.0225510415618
 30
0.0
 10
224.2498720772362
 20
119.0261067091504
 30
0.0
 10
224.3234513660518
 20
119.0332171554666
 30
0.0
 10
224.4182458640793
 20
119.0951140068998
 30
0.0
 10
224.4934129570664
 20
119.1850751888603
 30
0.0
 10
224.5386876092493
 20
119.3023361570016
 30
0.0
 10
224.5431442999356
 20
119.3887368200969
 30
0.0
 10
224.5453749104381
 20
119.4319810656799
 30
0.0
  0
SPLINE
  5
264
330
1F
100
AcDbEntity
  8
0
  6
Continuous
 62
     7
370
    18
100
AcDbSpline
210
0.0
220
0.0
230
1.0
 70
     8
 71
     3
 72
    11
 73
     7
 74
     0
 42
0.000000001
 43
0.00000001
 40
0.0
 40
0.0
 40
0.0
 40
0.0
 40
0.2807261943832933
 40
0.560397291612564
 40
0.7804346209650581
 40
1.0
 40
1.0
 40
1.0
 40
1.0
 10
223.8782791481275
 20
119.4403197627088
 30
0.0
 10
223.8818538880449
 20
119.3842871504884
 30
0.0
 10
223.8889899323758
 20
119.2724325221761
 30
0.0
 10
223.9675007363304
 20
119.1340570964575
 30
0.0
 10
224.0812360374774
 20
119.0392550587528
 30
0.0
 10
224.1691620336904
 20
119.0281150607185
 30
0.0
 10
224.2130778338371
 20
119.0225510415618
 30
0.0
  0
SPLINE
  5
265
330
1F
100
AcDbEntity
  8
0
  6
Continuous
 62
     7
370
    18
100
AcDbSpline
210
0.0
220
0.0
230
1.0
 70
     8
 71
     3
 72
    11
 73
     7
 74
     0
 42
0.000000001
 43
0.00000001
 40
0.0
 40
0.0
 40
0.0
 40
0.0
 40
0.2782055765816049
 40
0.5579799253701343
 40
0.7788219222535238
 40
1.0
 40
1.0
 40
1.0
 40
1.0
 10
224.2076576807683
 20
119.8497497868269
 30
0.0
 10
224.152973405367
 20
119.8405600343636
 30
0.0
 10
224.0432964956434
 20
119.822128709382
 30
0.0
 10
223.9380519791694
 20
119.7006570613836
 30
0.0
 10
223.8849746891257
 20
119.569656374924
 30
0.0
 10
223.8805121261328
 20
119.4834538142279
 30
0.0
 10
223.8782791481275
 20
119.4403197627088
 30
0.0
  0
SPLINE
  5
266
330
1F
100
AcDbEntity
  8
0
  6
Continuous
 62
     7
370
    18
100
AcDbSpline
210
0.0
220
0.0
230
1.0
 70
     8
 71
     3
 72
    11
 73
     7
 74
     0
 42
0.000000001
 43
0.00000001
 40
0.0
 40
0.0
 40
0.0
 40
0.0
 40
0.2807535301687743
 40
0.5603207228591549
 40
0.7803822345379182
 40
1.0
 40
1.0
 40
1.0
 40
1.0
 10
224.5453749104381
 20
119.4319810656799
 30
0.0
 10
224.5416907067406
 20
119.4882200164312
 30
0.0
 10
224.5343378671247
 20
119.6004602775558
 30
0.0
 10
224.4542127431304
 20
119.7384995595554
 30
0.0
 10
224.3399784113791
 20
119.8332463739307
 30
0.0
 10
224.2517349043917
 20
119.8442523517884
 30
0.0
 10
224.2076576807683
 20
119.8497497868269
 30
0.0
  0
SPLINE
  5
267
330
1F
100
AcDbEntity
  8
0
  6
Continuous
 62
     7
370
    18
100
AcDbSpline
210
0.0
220
0.0
230
1.0
 70
     8
 71
     3
 72
    11
 73
     7
 74
     0
 42
0.000000001
 43
0.00000001
 40
0.0
 40
0.0
 40
0.0
 40
0.0
 40
0.2783889696083879
 40
0.5580817055296868
 40
0.7789018539988232
 40
1.0
 40
1.0
 40
1.0
 40
1.0
 10
224.2130778338371
 20
120.0632204307663
 30
0.0
 10
224.2550648802525
 20
120.0703858912051
 30
0.0
 10
224.3392356090951
 20
120.0847503697554
 30
0.0
 10
224.419339004845
 20
120.1784442149568
 30
0.0
 10
224.46035446662
 20
120.2787635458482
 30
0.0
 10
224.4636664070331
 20
120.3449114737953
 30
0.0
 10
224.4653234189608
 20
120.3780062436066
 30
0.0
  0
SPLINE
  5
268
330
1F
100
AcDbEntity
  8
0
  6
Continuous
 62
     7
370
    18
100
AcDbSpline
210
0.0
220
0.0
230
1.0
 70
     8
 71
     3
 72
    11
 73
     7
 74
     0
 42
0.000000001
 43
0.00000001
 40
0.0
 40
0.0
 40
0.0
 40
0.0
 40
0.2806987831964738
 40
0.5604086902325288
 40
0.7804393617933053
 40
1.0
 40
1.0
 40
1.0
 40
1.0
 10
223.9583306396048
 20
120.3917650937043
 30
0.0
 10
223.9607583230359
 20
120.3482079464618
 30
0.0
 10
223.9656051373913
 20
120.261247099826
 30
0.0
 10
224.0228751371886
 20
120.1517482039371
 30
0.0
 10
224.1102955705347
 20
120.0759510376341
 30
0.0
 10
224.1788415103364
 20
120.0674609403745
 30
0.0
 10
224.2130778338371
 20
120.0632204307663
 30
0.0
  0
SPLINE
  5
269
330
1F
100
AcDbEntity
  8
0
  6
Continuous
 62
     7
370
    18
100
AcDbSpline
210
0.0
220
0.0
230
1.0
 70
     8
 71
     3
 72
    11
 73
     7
 74
     0
 42
0.000000001
 43
0.00000001
 40
0.0
 40
0.0
 40
0.0
 40
0.0
 40
0.2781848052830279
 40
0.5582334878196241
 40
0.7790790531104522
 40
1.0
 40
1.0
 40
1.0
 40
1.0
 10
224.2105762247284
 20
120.7036323625845
 30
0.0
 10
224.1690192903039
 20
120.6963269808617
 30
0.0
 10
224.0856269841594
 20
120.6816672703327
 30
0.0
 10
224.0061956698789
 20
120.5890384125591
 30
0.0
 10
223.9640576149669
 20
120.4901319060643
 30
0.0
 10
223.9602398485425
 20
120.4245577609438
 30
0.0
 10
223.9583306396048
 20
120.3917650937043
 30
0.0
  0
SPLINE
  5
26A
330
1F
100
AcDbEntity
  8
0
  6
Continuous
 62
     7
370
    18
100
AcDbSpline
210
0.0
220
0.0
230
1.0
 70
     8
 71
     3
 72
    11
 73
     7
 74
     0
 42
0.000000001
 43
0.00000001
 40
0.0
 40
0.0
 40
0.0
 40
0.0
 40
0.2805990159984029
 40
0.5604527759419506
 40
0.7805133266133522
 40
1.0
 40
1.0
 40
1.0
 40
1.0
 10
224.4653234189608
 20
120.3780062436066
 30
0.0
 10
224.4626394964628
 20
120.4211455301729
 30
0.0
 10
224.4572787798221
 20
120.5073095276561
 30
0.0
 10
224.3967662611471
 20
120.6131981876072
 30
0.0
 10
224.3120289998525
 20
120.6893519853676
 30
0.0
 10
224.2443643685617
 20
120.6988763818949
 30
0.0
 10
224.2105762247284
 20
120.7036323625845
 30
0.0
  0
SPLINE
  5
26B
330
1F
100
AcDbEntity
  8
0
  6
Continuous
 62
     7
370
    18
100
AcDbSpline
210
0.0
220
0.0
230
1.0
 70
     8
 71
     3
 72
    13
 73
     9
 74
     0
 42
0.000000001
 43
0.00000001
 40
0.0
 40
0.0
 40
0.0
 40
0.0
 40
0.1237345749994075
 40
0.2484232101745691
 40
0.3734713343328618
 40
0.4987444967637455
 40
0.749310225773325
 40
1.0
 40
1.0
 40
1.0
 40
1.0
 10
222.9093225533713
 20
119.0225510415618
 30
0.0
 10
222.9504069495609
 20
119.0299142833146
 30
0.0
 10
223.0328925247493
 20
119.0446975413775
 30
0.0
 10
223.1170870944517
 20
119.1424103354484
 30
0.0
 10
223.1741568170075
 20
119.2511524180645
 30
0.0
 10
223.2133270144233
 20
119.4119455251604
 30
0.0
 10
223.234594337347
 20
119.6165025090202
 30
0.0
 10
223.2367760766842
 20
119.7808817447984
 30
0.0
 10
223.2378672163093
 20
119.8630917020731
 30
0.0
  0
SPLINE
  5
26C
330
1F
100
AcDbEntity
  8
0
  6
Continuous
 62
     7
370
    18
100
AcDbSpline
210
0.0
220
0.0
230
1.0
 70
     8
 71
     3
 72
    13
 73
     9
 74
     0
 42
0.000000001
 43
0.00000001
 40
0.0
 40
0.0
 40
0.0
 40
0.0
 40
0.2506668541570156
 40
0.5012048357437086
 40
0.6264537829510461
 40
0.7514291871594863
 40
0.8760522367173379
 40
1.0
 40
1.0
 40
1.0
 40
1.0
 10
222.5707714539987
 20
119.8630917020731
 30
0.0
 10
222.5718197608153
 20
119.7801464662781
 30
0.0
 10
222.5739158354941
 20
119.6142986384025
 30
0.0
 10
222.5957349345329
 20
119.4079246360247
 30
0.0
 10
222.6358374148034
 20
119.2458702525888
 30
0.0
 10
222.6952087564203
 20
119.1367647494696
 30
0.0
 10
222.784310115768
 20
119.0420744240108
 30
0.0
 10
222.8677272799632
 20
119.0290470386512
 30
0.0
 10
222.9093225533713
 20
119.0225510415618
 30
0.0
  0
SPLINE
  5
26D
330
1F
100
AcDbEntity
  8
0
  6
Continuous
 62
     7
370
    18
100
AcDbSpline
210
0.0
220
0.0
230
1.0
 70
     8
 71
     3
 72
    13
 73
     9
 74
     0
 42
0.000000001
 43
0.00000001
 40
0.0
 40
0.0
 40
0.0
 40
0.0
 40
0.123677054815444
 40
0.2483884878623314
 40
0.3734455614730956
 40
0.4987169325064014
 40
0.7492948497723048
 40
1.0
 40
1.0
 40
1.0
 40
1.0
 10
222.896814507828
 20
120.7036323625845
 30
0.0
 10
222.8558259431737
 20
120.6961391633247
 30
0.0
 10
222.7735060042867
 20
120.6810900951191
 30
0.0
 10
222.6903922848651
 20
120.5827327547889
 30
0.0
 10
222.6336592357919
 20
120.474098933453
 30
0.0
 10
222.5956434417993
 20
120.3133169042887
 30
0.0
 10
222.573898693057
 20
120.1092679943523
 30
0.0
 10
222.5718140433896
 20
119.9451643501332
 30
0.0
 10
222.5707714539987
 20
119.8630917020731
 30
0.0
  0
SPLINE
  5
26E
330
1F
100
AcDbEntity
  8
0
  6
Continuous
 62
     7
370
    18
100
AcDbSpline
210
0.0
220
0.0
230
1.0
 70
     8
 71
     3
 72
    13
 73
     9
 74
     0
 42
0.000000001
 43
0.00000001
 40
0.0
 40
0.0
 40
0.0
 40
0.0
 40
0.2506736071386389
 40
0.5012152607337989
 40
0.6264526015104134
 40
0.7514497498805419
 40
0.876027118323626
 40
1.0
 40
1.0
 40
1.0
 40
1.0
 10
223.2378672163093
 20
119.8630917020731
 30
0.0
 10
223.2368287133972
 20
119.946237855827
 30
0.0
 10
223.2347522542367
 20
120.1124863955453
 30
0.0
 10
223.2128380098255
 20
120.319377523349
 30
0.0
 10
223.1724455545889
 20
120.4817530990793
 30
0.0
 10
223.1126779238387
 20
120.5910938463388
 30
0.0
 10
223.022157838486
 20
120.6848320980402
 30
0.0
 10
222.938527820571
 20
120.6973757766898
 30
0.0
 10
222.896814507828
 20
120.7036323625845
 30
0.0
  0
CIRCLE
  5
26F
330
1F
100
AcDbEntity
  8
0
  6
Continuous
 62
     7
370
    18
100
AcDbCircle
 10
225.8929083503
 20
122.2246107007
 30
0.0
 40
25.40000000000003
  0
OLE2FRAME
  5
270
330
1F
100
AcDbEntity
  8
0
100
AcDbOle2Frame
 70
     2
  3
Paintbrush Picture
 10
229.0524258301
 20
33.6996297921
 30
0.0
 11
265.1686469208
 21
28.555479607
 31
0.0
 71
     2
 72
     0
 73
     1
 90
     7296
310
80557333EF78ADA16C40002412788DD94040000000000000000041161DC7B292
310
7040002412788DD94040000000000000000041161DC7B2927040F6DD59E9338E
310
3C4000000000000000007333EF78ADA16C40F6DD59E9338E3C40000000000000
310
00000000000001000000000100000100000001000000000001000000001C0000
310
D0CF11E0A1B11AE1000000000000000000000000000000003E000300FEFF0900
310
0600000000000000000000000100000001000000000000000010000002000000
310
01000000FEFFFFFF0000000000000000FFFFFFFFFFFFFFFFFFFFFFFFFFFFFFFF
310
FFFFFFFFFFFFFFFFFFFFFFFFFFFFFFFFFFFFFFFFFFFFFFFFFFFFFFFFFFFFFFFF
310
FFFFFFFFFFFFFFFFFFFFFFFFFFFFFFFFFFFFFFFFFFFFFFFFFFFFFFFFFFFFFFFF
310
FFFFFFFFFFFFFFFFFFFFFFFFFFFFFFFFFFFFFFFFFFFFFFFFFFFFFFFFFFFFFFFF
310
FFFFFFFFFFFFFFFFFFFFFFFFFFFFFFFFFFFFFFFFFFFFFFFFFFFFFFFFFFFFFFFF
310
FFFFFFFFFFFFFFFFFFFFFFFFFFFFFFFFFFFFFFFFFFFFFFFFFFFFFFFFFFFFFFFF
310
FFFFFFFFFFFFFFFFFFFFFFFFFFFFFFFFFFFFFFFFFFFFFFFFFFFFFFFFFFFFFFFF
310
FFFFFFFFFFFFFFFFFFFFFFFFFFFFFFFFFFFFFFFFFFFFFFFFFFFFFFFFFFFFFFFF
310
FFFFFFFFFFFFFFFFFFFFFFFFFFFFFFFFFFFFFFFFFFFFFFFFFFFFFFFFFFFFFFFF
310
FFFFFFFFFFFFFFFFFFFFFFFFFFFFFFFFFFFFFFFFFFFFFFFFFFFFFFFFFFFFFFFF
310
FFFFFFFFFFFFFFFFFFFFFFFFFFFFFFFFFFFFFFFFFFFFFFFFFFFFFFFFFFFFFFFF
310
FFFFFFFFFFFFFFFFFFFFFFFFFFFFFFFFFFFFFFFFFFFFFFFFFFFFFFFFFFFFFFFF
310
FFFFFFFFFFFFFFFFFFFFFFFFFFFFFFFFFFFFFFFFFFFFFFFFFFFFFFFFFFFFFFFF
310
FFFFFFFFFFFFFFFFFFFFFFFFFFFFFFFFFFFFFFFFFFFFFFFFFFFFFFFFFFFFFFFF
310
FDFFFFFFFEFFFFFFFEFFFFFFFEFFFFFF05000000060000000700000008000000
310
090000000A0000000B0000000C000000FEFFFFFFFFFFFFFFFFFFFFFFFFFFFFFF
310
FFFFFFFFFFFFFFFFFFFFFFFFFFFFFFFFFFFFFFFFFFFFFFFFFFFFFFFFFFFFFFFF
310
FFFFFFFFFFFFFFFFFFFFFFFFFFFFFFFFFFFFFFFFFFFFFFFFFFFFFFFFFFFFFFFF
310
FFFFFFFFFFFFFFFFFFFFFFFFFFFFFFFFFFFFFFFFFFFFFFFFFFFFFFFFFFFFFFFF
310
FFFFFFFFFFFFFFFFFFFFFFFFFFFFFFFFFFFFFFFFFFFFFFFFFFFFFFFFFFFFFFFF
310
FFFFFFFFFFFFFFFFFFFFFFFFFFFFFFFFFFFFFFFFFFFFFFFFFFFFFFFFFFFFFFFF
310
FFFFFFFFFFFFFFFFFFFFFFFFFFFFFFFFFFFFFFFFFFFFFFFFFFFFFFFFFFFFFFFF
310
FFFFFFFFFFFFFFFFFFFFFFFFFFFFFFFFFFFFFFFFFFFFFFFFFFFFFFFFFFFFFFFF
310
FFFFFFFFFFFFFFFFFFFFFFFFFFFFFFFFFFFFFFFFFFFFFFFFFFFFFFFFFFFFFFFF
310
FFFFFFFFFFFFFFFFFFFFFFFFFFFFFFFFFFFFFFFFFFFFFFFFFFFFFFFFFFFFFFFF
310
FFFFFFFFFFFFFFFFFFFFFFFFFFFFFFFFFFFFFFFFFFFFFFFFFFFFFFFFFFFFFFFF
310
FFFFFFFFFFFFFFFFFFFFFFFFFFFFFFFFFFFFFFFFFFFFFFFFFFFFFFFFFFFFFFFF
310
FFFFFFFFFFFFFFFFFFFFFFFFFFFFFFFFFFFFFFFFFFFFFFFFFFFFFFFFFFFFFFFF
310
FFFFFFFFFFFFFFFFFFFFFFFFFFFFFFFFFFFFFFFFFFFFFFFFFFFFFFFFFFFFFFFF
310
FFFFFFFFFFFFFFFFFFFFFFFFFFFFFFFFFFFFFFFFFFFFFFFFFFFFFFFFFFFFFFFF
310
52006F006F007400200045006E00740072007900000000000000000000000000
310
0000000000000000000000000000000000000000000000000000000000000000
310
16000500FFFFFFFFFFFFFFFF020000000A00030000000000C000000000000046
310
000000000000000000000000F0FCA6CB4796D40103000000C000000000000000
310
01004F006C006500000000000000000000000000000000000000000000000000
310
0000000000000000000000000000000000000000000000000000000000000000
310
0A000200FFFFFFFFFFFFFFFFFFFFFFFF00000000000000000000000000000000
310
0000000000000000000000000000000000000000000000001400000000000000
310
010043006F006D0070004F0062006A0000000000000000000000000000000000
310
0000000000000000000000000000000000000000000000000000000000000000
310
120002010100000003000000FFFFFFFF00000000000000000000000000000000
310
0000000000000000000000000000000000000000010000004D00000000000000
310
01004F006C006500310030004E00610074006900760065000000000000000000
310
0000000000000000000000000000000000000000000000000000000000000000
310
1A000200FFFFFFFFFFFFFFFFFFFFFFFF00000000000000000000000000000000
310
000000000000000000000000000000000000000004000000E411000000000000
310
FEFFFFFF02000000FEFFFFFFFFFFFFFFFFFFFFFFFFFFFFFFFFFFFFFFFFFFFFFF
310
FFFFFFFFFFFFFFFFFFFFFFFFFFFFFFFFFFFFFFFFFFFFFFFFFFFFFFFFFFFFFFFF
310
FFFFFFFFFFFFFFFFFFFFFFFFFFFFFFFFFFFFFFFFFFFFFFFFFFFFFFFFFFFFFFFF
310
FFFFFFFFFFFFFFFFFFFFFFFFFFFFFFFFFFFFFFFFFFFFFFFFFFFFFFFFFFFFFFFF
310
FFFFFFFFFFFFFFFFFFFFFFFFFFFFFFFFFFFFFFFFFFFFFFFFFFFFFFFFFFFFFFFF
310
FFFFFFFFFFFFFFFFFFFFFFFFFFFFFFFFFFFFFFFFFFFFFFFFFFFFFFFFFFFFFFFF
310
FFFFFFFFFFFFFFFFFFFFFFFFFFFFFFFFFFFFFFFFFFFFFFFFFFFFFFFFFFFFFFFF
310
FFFFFFFFFFFFFFFFFFFFFFFFFFFFFFFFFFFFFFFFFFFFFFFFFFFFFFFFFFFFFFFF
310
FFFFFFFFFFFFFFFFFFFFFFFFFFFFFFFFFFFFFFFFFFFFFFFFFFFFFFFFFFFFFFFF
310
FFFFFFFFFFFFFFFFFFFFFFFFFFFFFFFFFFFFFFFFFFFFFFFFFFFFFFFFFFFFFFFF
310
FFFFFFFFFFFFFFFFFFFFFFFFFFFFFFFFFFFFFFFFFFFFFFFFFFFFFFFFFFFFFFFF
310
FFFFFFFFFFFFFFFFFFFFFFFFFFFFFFFFFFFFFFFFFFFFFFFFFFFFFFFFFFFFFFFF
310
FFFFFFFFFFFFFFFFFFFFFFFFFFFFFFFFFFFFFFFFFFFFFFFFFFFFFFFFFFFFFFFF
310
FFFFFFFFFFFFFFFFFFFFFFFFFFFFFFFFFFFFFFFFFFFFFFFFFFFFFFFFFFFFFFFF
310
FFFFFFFFFFFFFFFFFFFFFFFFFFFFFFFFFFFFFFFFFFFFFFFFFFFFFFFFFFFFFFFF
310
FFFFFFFFFFFFFFFFFFFFFFFFFFFFFFFFFFFFFFFFFFFFFFFFFFFFFFFFFFFFFFFF
310
0100000200000000000000000000000000000000000000000000000000000000
310
0000000000000000000000000000000000000000000000000000000000000000
310
0100FEFF030A0000FFFFFFFF0A00030000000000C00000000000004607000000
310
5042727573680007000000504272757368000700000050427275736800F439B2
310
7100000000000000000000000000000000000000000000000000000000000000
310
0000000000000000000000000000000000000000000000000000000000000000
310
0000000000000000000000000000000000000000000000000000000000000000
310
0000000000000000000000000000000000000000000000000000000000000000
310
0000000000000000000000000000000000000000000000000000000000000000
310
0000000000000000000000000000000000000000000000000000000000000000
310
0000000000000000000000000000000000000000000000000000000000000000
310
0000000000000000000000000000000000000000000000000000000000000000
310
0000000000000000000000000000000000000000000000000000000000000000
310
0000000000000000000000000000000000000000000000000000000000000000
310
0000000000000000000000000000000000000000000000000000000000000000
310
0000000000000000000000000000000000000000000000000000000000000000
310
E0110000424DDE11000000000000360400002800000096000000170000000100
310
08000000000000000000E7240000E72400000001000000010000000000FF0101
310
01FF020202FF030303FF040404FF050505FF060606FF070707FF080808FF0909
310
09FF0A0A0AFF0B0B0BFF0C0C0CFF0D0D0DFF0E0E0EFF0F0F0FFF101010FF1111
310
11FF121212FF131313FF141414FF151515FF161616FF171717FF181818FF1919
310
19FF1A1A1AFF1B1B1BFF1C1C1CFF1D1D1DFF1E1E1EFF1F1F1FFF202020FF2121
310
21FF222222FF232323FF242424FF252525FF262626FF272727FF282828FF2929
310
29FF2A2A2AFF2B2B2BFF2C2C2CFF2D2D2DFF2E2E2EFF2F2F2FFF303030FF3131
310
31FF323232FF333333FF343434FF353535FF363636FF373737FF383838FF3939
310
39FF3A3A3AFF3B3B3BFF3C3C3CFF3D3D3DFF3E3E3EFF3F3F3FFF404040FF4141
310
41FF424242FF434343FF444444FF454545FF464646FF474747FF484848FF4949
310
49FF4A4A4AFF4B4B4BFF4C4C4CFF4D4D4DFF4E4E4EFF4F4F4FFF505050FF5151
310
51FF525252FF535353FF545454FF555555FF565656FF575757FF585858FF5959
310
59FF5A5A5AFF5B5B5BFF5C5C5CFF5D5D5DFF5E5E5EFF5F5F5FFF606060FF6161
310
61FF626262FF636363FF646464FF656565FF666666FF676767FF686868FF6969
310
69FF6A6A6AFF6B6B6BFF6C6C6CFF6D6D6DFF6E6E6EFF6F6F6FFF707070FF7171
310
71FF727272FF737373FF747474FF757575FF767676FF777777FF787878FF7979
310
79FF7A7A7AFF7B7B7BFF7C7C7CFF7D7D7DFF7E7E7EFF7F7F7FFF808080FF8181
310
81FF828282FF838383FF848484FF858585FF868686FF878787FF888888FF8989
310
89FF8A8A8AFF8B8B8BFF8C8C8CFF8D8D8DFF8E8E8EFF8F8F8FFF909090FF9191
310
91FF929292FF939393FF949494FF959595FF969696FF979797FF989898FF9999
310
99FF9A9A9AFF9B9B9BFF9C9C9CFF9D9D9DFF9E9E9EFF9F9F9FFFA0A0A0FFA1A1
310
A1FFA2A2A2FFA3A3A3FFA4A4A4FFA5A5A5FFA6A6A6FFA7A7A7FFA8A8A8FFA9A9
310
A9FFAAAAAAFFABABABFFACACACFFADADADFFAEAEAEFFAFAFAFFFB0B0B0FFB1B1
310
B1FFB2B2B2FFB3B3B3FFB4B4B4FFB5B5B5FFB6B6B6FFB7B7B7FFB8B8B8FFB9B9
310
B9FFBABABAFFBBBBBBFFBCBCBCFFBDBDBDFFBEBEBEFFBFBFBFFFC0C0C0FFC1C1
310
C1FFC2C2C2FFC3C3C3FFC4C4C4FFC5C5C5FFC6C6C6FFC7C7C7FFC8C8C8FFC9C9
310
C9FFCACACAFFCBCBCBFFCCCCCCFFCDCDCDFFCECECEFFCFCFCFFFD0D0D0FFD1D1
310
D1FFD2D2D2FFD3D3D3FFD4D4D4FFD5D5D5FFD6D6D6FFD7D7D7FFD8D8D8FFD9D9
310
D9FFDADADAFFDBDBDBFFDCDCDCFFDDDDDDFFDEDEDEFFDFDFDFFFE0E0E0FFE1E1
310
E1FFE2E2E2FFE3E3E3FFE4E4E4FFE5E5E5FFE6E6E6FFE7E7E7FFE8E8E8FFE9E9
310
E9FFEAEAEAFFEBEBEBFFECECECFFEDEDEDFFEEEEEEFFEFEFEFFFF0F0F0FFF1F1
310
F1FFF2F2F2FFF3F3F3FFF4F4F4FFF5F5F5FFF6F6F6FFF7F7F7FFF8F8F8FFF9F9
310
F9FFFAFAFAFFFBFBFBFFFCFCFCFFFDFDFDFFFEFEFEFFFFFFFFFFFFFFFFFFFFFF
310
C94E4E4E4F4E4EFFFFFFFFFFC94E4E4E4E4E72FFFFFFFFFFFFFF734E4D4E4E4E
310
C9FFFFFFFFFFAA683516171616265B9BE9FFFFFFFFFF4E4E4E4D4E4EFFFFFFFF
310
FFFFFFFF4E4E4F4E4D4E4E4E4F4E4E4F4D4E4E4E4E4E4D4E4F4E4D4E4E4EAAFF
310
FFFFFFFFFFEA4E4F4F4E4E4E4E4E4D4D4F4F4E4E4E4E4E5B7FAAFFFFFFFFFFFF
310
C9744E1716171616164D8DEAFFFFFFFF0000FFFFFFFFFFFFBA161617161716FF
310
FFFFFFFFB917171616174FFFFFFFFFFFFFFF4E1716161616B9FFFFFFB9341717
310
1716171617171616268CFFFFFFFF161617161617FFFFFFFFFFFFFFB917161717
310
1617167F807F7F7F7F7F7F807F7F807F7F807F7F7F414EFFFFFFFFFFFF8C167F
310
7F807F7F7F7E7F7F807F807F7F807F4E3417258EFFFFEA4E162674AABAEAEBBA
310
AA74341680FFFFFF0000FFFFFFFFFFFFB9171717171617FFFFFFFFFFBB161616
310
16164EFFFFFFFFFFFFFF4E1717171717B9FFFF9C171617171716161616171616
310
171766FFFFFF161717161617FFFFFFFFFFFFFF8E16171717161616FFFFFFFFFF
310
FFFFFFFFFFFFFFFFFFFFFFFFFFAA16D9FFFFFFFFFF3467FFFFFFFFEAFFFFFFFF
310
FFFFFFFFFFFFFFFFFFCA671667EB26278DFFFFFFFFFFFFFFFFFFFF8C2541EAFF
310
0000FFFFFFFFFFFFB9171717171716FFFFFFFFFFBA16171617174EFFFFFFFFFF
310
FFFF4E1717161616BAFF9B1617161616171716171617161616161667FFFF1616
310
16161716FFFFFFFFFFFFFF7F16161617174017FFFFFFFFFFFFFFFFFFFFFFFFFF
310
FFFFFFFFFFFF344E7F7F7F7E7417DAFFFFFFFF80FFFFFFFFFFFFFFFFFFFFFFFF
310
FFFFFF9B163425CAFFFFFFFFFFFFFFFFFFFFFFFFCA2667FF0000FFFFFFFFFFFF
310
BA171717171617FFFFFFFFFFB916171716164EFFFFFFFFFFFFFF4F1716161717
310
B9C91716171616161716161617171616161617168DFF161716161717FFFFFFFF
310
FFFFFF7F17171716164F16FFFFFFFFFFFFFFFFFFFFFFFFFFFFFFFFFFFFFF9B16
310
17161617174EFFFFFFFFFF34FFFFFFFFD9BABABABABADAFFFFFFFFFF7F16AAFF
310
FFFFFFFFFFFFFFFFFFFFFFFFFF9C16BA0000FFFFFFFFFFFFB9161717161717FF
310
FFFFFFFFB917161716174DFFFFFFFFFFFFFF4E1616161616BA4E161617171716
310
419BEAEAAA4E16161617161726E9171717161616FFFFFFFFFFFFFF4F16161717
310
164E16FFFFFFFFFFBAB9B9B9B9B9BABABACAFFFFFFFFFFFFFFFFFFFFFFFFFFFF
310
FFFFBA16FFFFFFFF7F1617161617174DEAFFFFFFEA41FFFFFFFFFFAA4D16174E
310
9BFFFFFFFFFF34730000FFFFFFFFFFFFB9161617171617FFFFFFFFFFBA161616
310
16164EFFFFFFFFFFFFFF4F16161717169B1617161716175BFFFFFFFFFFFF7417
310
16171616168D171717161617FFFFFFFFFFFFEA2616171717167416FFFFFFFFFF
310
16171616171717171717EAFFFFFFFFFFFFFFFFFFFFFFFFFFFFFF6716FFFFFFFF
310
7F4EFFFFFFFFBA2573FFFFFFFFBAFFFFFFFFAA167FB9BB9B269BFFFFFFFF664F
310
0000FFFFFFFFFFFFB9171616161616FFFFFFFFFFBA16161717164EFFFFFFFFFF
310
FFFF4E16161616174E161617171626EAFFFFFFFFFFFFFF4E16161616164E1716
310
16161617FFFFFFFFFFFF671616161716347F16FFFFFFFFFF16B9FFFFFFFFFFFF
310
D9168DFFFFFFFFFFFFFFFFFFFFFFFFFFFFEA1716FFFFFFFF7F4EFFFFFFFFFF7F
310
4EFFFFFFFFFFFFFFFFFF5B66FFFFFFEA347FFFFFFFFF7F4D0000FFFFFFFFFFFF
310
B9171616171617FFFFFFFFFFBA17161716174EFFFFFFFFFFFFFF4D1716161617
310
17161716161673FFFFFFFFFFFFFFFF9B1617161717161616171616174F4E4E4E
310
4E341616171616167E7F16FFFFFFFFFF16BAFFFFFFFFFFFFFF5B41FFFFFFFF34
310
1616171616BAFFFFFF9B1716FFFFFFFF7F4EFFFFFFFFFF4E4EFFFFFFFF734E4E
310
4E4E267EDA9B67164EEAFFFFFFFF744D0000FFFFFFFFFFFFBA171717161617FF
310
FFFFFFFFBA1616171616347F7F7F7F80807F331616161717161717161716B9FF
310
FFFFFFFFFFFFFFE9161616161616171716161716171616161616171616171734
310
EA7F16FFFFFFFFFF16BAFFFFFFFFFFFFFFAA17C9FFFFFF7326BABA5B25FFFFFF
310
FF401716FFFFFFFF7F264F4E4E4E4217AAFFFFFFEA16677F73261616164173CA
310
FFFFFFFFFFFF417F0000FFFFFFFFFFFFBA171616171617FFFFFFFFFFBA161616
310
17171616161616161616161717161616161616161617EAFFFFFFFFFFFFFFFFFF
310
261717161716161617161616161617161617161616174EEAFF8016FFFFFFFFFF
310
17BAFFFFFFFFFFFFFFFF3467FFFFFFC916C9FF3467FFFFFFDA166716FFFFFFFF
310
9C4D4E4E4E4E67AAFFFFFFFF6834FF7F262567AAEAFFFFFFFFFFFFFFFF9B17D9
310
0000FFFFFFFFFFFFB9161616161616FFFFFFFFFFBA1617161717171616161616
310
1716171716161716161617171716FFFFFFFFFFFFFFFFFFFF4E17161716171616
310
1617171616161716171717161616169BFF7F17FFFFFFFFFF17B9FFFFFFFFFFFF
310
FFFF7326FFFFFFFF3473DA16AAFFFFFF7317AA16FFFFFFFFFFFFFFFFFFFFFFFF
310
FFFFEA6725BA4E167FEAFFFFFFFFFFFFFFFFFFFF9C167FFF0000FFFFFFFFFFFF
310
B9161717171716FFFFFFFFFFBA16161716171616171717161617161716161616
310
171617171617EAFFFFFFFFFFFFFFFFFF26161717161616161616161617171616
310
1616161616171616AA8016FFFFFFFFFF16BAFFFFFFFFFFFFFFFFDA179BFFFFFF
310
74348D26FFFFFFFF2566B917FFFFFFFFD8BAB9BAB9BADAFFFFEA41169B7425C9
310
FFFFFFFFFFFFFFFFFFFFAB4F1680FFFF0000FFFFFFFFFFFFBA161717171617FF
310
FFFFFFFFBA17161717161617171617161616161617171616171716171617BBFF
310
FFFFFFFFFFFFFFE9171616161617161617161716FFFFFFFFFFD9671616161617
310
348017FFFFFFFFFF16BAFFFFFFFFFFFFFFFFFF4E5AFFFFFFC916265AFFFFFFAA
310
16AABA16FFFFFFFF7F1617161616179BFFFFEB4127168DFFFFFFFFFFFFFFD99B
310
6734175AC9FFFFFF0000FFFFFFFFFFFFB9161617171617FFFFFFFFFFBB161616
310
1616347F807F7F7F7F8033171716171617171616161672FFFFFFFFFFFFFFFF9C
310
171617171617161716161617FFFFFFFFFFFFFF4117161616174E17FFFFFFFFFF
310
16BAFFFFFFFFFFFFFFFFFF9B16DAFFFFFF34169BFFFFFF5A26FFB917FFFFFFFF
310
7F4EFFFFFFEA5B26FFFFFFEA2616EAFFFFFFFFDA743416331617414E4E4E4ECA
310
0000FFFFFFFFFFFFBA161716161616FFFFFFFFFFBA17171616164EFFFFFFFFFF
310
FFFF4E16161717174E161717171626EBFFFFFFFFFFFFFF4E16161617165B1616
310
16171617FFFFFFFFFFFFFF6716161616161617FFFFFFFFFF16BAFFFFFFFFFFFF
310
FFFFFFEA268CFFFFFF7316EAFFFFEB1774FFB916FFFFFFFF7F4EFFFFFFFF7316
310
FFFFFFFF6826FFFFFFFFEB264D9CEABA257F807F7F6616BA0000FFFFFFFFFFFF
310
BA161716161616FFFFFFFFFFBA16171616164DFFFFFFFFFFFFFF4E1617161617
310
9B1617171717165BEBFFFFFFFFFF671616161617179B171616161616FFFFFFFF
310
FFFFFF3417161617171617FFFFFFFFFF17BAFFFFFFFFFFFFFFFFFFFF6734FFFF
310
FFEBCAFFFFFF8D17C9FFBA17FFFFFFFF7F357F808066174FFFFFFFFF7F16FFFF
310
FFFFD91673B99B415BFFFFFFFFBA16DA00009B7F7F7F807F671617161616167F
310
80807F7E6617161616164EFFFFFFFFFFFFFF4E1616161617B94E171716161616
310
349BC9D9AA4E16171616161634FF161617161717B9B9BAB9BA9B411716171716
310
163416FFFFFFFFFF16B9FFFFFFFFFFFFFFFFFFFFC917CAFFFFFFFFFFFFFF3342
310
FFFFBA17FFFFFFFF9B4E4E4F4E4E66EAFFFFFFFF5B16C9FFFFFFFFAA4E164E73
310
EAFFFFFFFF8D26FF00004E161716161616171617171616171717171617161616
310
17174EFFFFFFFFFFFFFF4E1717171616B9D92616171716171716171717171716
310
16171716AAFF161717171617161617171616161617161716166717FFFFFFFFFF
310
17B9FFFFFFFFFFFFFFFFFFFFFF3467FFFFFFFFFFFFCA168CFFFFBB17FFFFFFFF
310
FFFFFFFFFFFFFFFFFFFFFFEA26265BFFFFFFFFFFFFFFFFFFFFFFFFFFEA3467FF
310
00004D16161616161617161717161617161616171617171616164EFFFFFFFFFF
310
FFFF4D1617161616BAFF9B1616161616161716161616171717161766FFFF1616
310
16171617161617161716171616171717667F16FFFFFFFFFF17BAFFFFFFFFFFFF
310
FFFFFFFFFF8C26EAFFFFFFFFFF6617EAFFFFBA17FFFFFFFFFFFFFFFFFFFFFFFF
310
FFFFEA5A25BA269BFFFFFFFFFFFFFFFFFFFFFFFF6616DAFF00004E1616171616
310
1616161616161716161617171616171616174EFFFFFFFFFFFFFF4D1717171716
310
B9FFFF9C161616161616161716161717171667FFFFFF17161717171716161617
310
1716161616161641E97E16FFFFFFFFFF16B9FFFFFFFFFFFFFFFFFFFFFFEA169B
310
FFFFFFFFEA265BFFFFFFB916FFFFFFFFFFFFFFFFFFFFFFFFFF9B3416AAFF9B17
310
67EAFFFFFFFFFFFFFFFFEA5B169BFFFF00004D17161716161616161717171616
310
161717161716171716174EFFFFFFFFFFFFFF4D1616161616BAFFFFFFBB411616
310
161716161616171634ABFFFFFFFF161716161617171716171617171617267FFF
310
FF7F164E4E4E4E4F17BAFFFFFFFFFFFFFFFFFFFFFFFF66344D4E4E4F4117AAFF
310
FFFFBA174E4E4E4D4E4D4D4E4E4E4E4116174EBBFFFFFFCA342666ABEAFFFFEA
310
AA6725269CFFFFFF0000724F4E4D4D4D4E4D4D4E4E4E4D4E4E4E4E4E4E4E4E4D
310
4E4E74FFFFFFFFFFFFFF734E4E4E4D4ECAFFFFFFFFFFAA663416171717265B9B
310
FFFFFFFFFFFF7F8080807F80807F7F7F7F7F807FBAFFFFFFFF9B4E4E4F4D4D4E
310
4DC9FFFFFFFFFFFFFFFFFFFFFFFFBA4E4E4E4E4D4E4EFFFFFFFFC94E4E4E4F4E
310
4E4E4D4E4E5A807F9CD9FFFFFFFFFFFFFF9B5B2617171716174E8DEAFFFFFFFF
310
0000000000000000000000000000000000000000000000000000000000000000
  1
OLE
  0
ENDSEC
  0
SECTION
  2
OBJECTS
  0
DICTIONARY
  5
C
330
0
100
AcDbDictionary
281
     1
  3
ACAD_GROUP
350
D
  3
ACAD_LAYOUT
350
1A
  3
ACAD_MLINESTYLE
350
17
  3
ACAD_PLOTSETTINGS
350
19
  3
ACAD_PLOTSTYLENAME
350
E
  3
ACAD_SCALELIST
350
47
  0
DICTIONARY
  5
D
102
{ACAD_REACTORS
330
C
102
}
330
C
100
AcDbDictionary
281
     1
  0
DICTIONARY
  5
1A
102
{ACAD_REACTORS
330
C
102
}
330
C
100
AcDbDictionary
281
     1
  3
Layout1
350
1E
  3
Layout2
350
26
  3
Model
350
22
  0
DICTIONARY
  5
17
102
{ACAD_REACTORS
330
C
102
}
330
C
100
AcDbDictionary
281
     1
  3
Standard
350
18
  0
DICTIONARY
  5
19
102
{ACAD_REACTORS
330
C
102
}
330
C
100
AcDbDictionary
281
     1
  0
ACDBDICTIONARYWDFLT
  5
E
102
{ACAD_REACTORS
330
C
102
}
330
C
100
AcDbDictionary
281
     1
  3
Normal
350
F
100
AcDbDictionaryWithDefault
340
F
  0
DICTIONARY
  5
47
102
{ACAD_REACTORS
330
C
102
}
330
C
100
AcDbDictionary
281
     1
  3
A0
350
48
  3
A1
350
49
  3
A2
350
4A
  3
A3
350
4B
  3
A4
350
4C
  3
A5
350
4D
  3
A6
350
4E
  3
A7
350
4F
  3
A8
350
50
  3
A9
350
51
  3
B0
350
52
  3
B1
350
53
  3
B2
350
54
  3
B3
350
55
  3
B4
350
56
  3
B5
350
57
  3
B6
350
58
  3
B7
350
59
  3
B8
350
5A
  3
B9
350
5B
  3
C0
350
5C
  3
C1
350
5D
  3
C2
350
5E
  3
C3
350
5F
  3
C4
350
60
  3
C5
350
61
  3
C6
350
62
  3
C7
350
63
  3
C8
350
64
  3
C9
350
65
  3
D0
350
66
  3
D1
350
67
  3
D2
350
68
  0
LAYOUT
  5
1E
102
{ACAD_REACTORS
330
1A
102
}
330
1A
100
AcDbPlotSettings
  1

  2
none_device
  4

  6

 40
0.0
 41
0.0
 42
0.0
 43
0.0
 44
0.0
 45
0.0
 46
0.0
 47
0.0
 48
0.0
 49
0.0
140
0.0
141
0.0
142
1.0
143
1.0
 70
   688
 72
     1
 73
     0
 74
     5
  7

 75
    16
147
1.0
148
0.0
149
0.0
100
AcDbLayout
  1
Layout1
 70
     1
 71
     1
 10
0.0
 20
0.0
 11
420.0
 21
297.0
 12
0.0
 22
0.0
 32
0.0
 14
1.0000000000E+20
 24
1.0000000000E+20
 34
1.0000000000E+20
 15
-1.0000000000E+20
 25
-1.0000000000E+20
 35
-1.0000000000E+20
146
0.0
 13
0.0
 23
0.0
 33
0.0
 16
1.0
 26
0.0
 36
0.0
 17
0.0
 27
1.0
 37
0.0
 76
     0
330
1B
  0
LAYOUT
  5
26
102
{ACAD_REACTORS
330
1A
102
}
330
1A
100
AcDbPlotSettings
  1

  2
none_device
  4

  6

 40
0.0
 41
0.0
 42
0.0
 43
0.0
 44
0.0
 45
0.0
 46
0.0
 47
0.0
 48
0.0
 49
0.0
140
0.0
141
0.0
142
1.0
143
1.0
 70
   688
 72
     1
 73
     0
 74
     5
  7

 75
    16
147
1.0
148
0.0
149
0.0
100
AcDbLayout
  1
Layout2
 70
     1
 71
     2
 10
0.0
 20
0.0
 11
0.0
 21
0.0
 12
0.0
 22
0.0
 32
0.0
 14
0.0
 24
0.0
 34
0.0
 15
0.0
 25
0.0
 35
0.0
146
0.0
 13
0.0
 23
0.0
 33
0.0
 16
1.0
 26
0.0
 36
0.0
 17
0.0
 27
1.0
 37
0.0
 76
     0
330
23
  0
LAYOUT
  5
22
102
{ACAD_REACTORS
330
1A
102
}
330
1A
100
AcDbPlotSettings
  1

  2
none_device
  4
Letter_(8.50_x_11.00_Inches)
  6

 40
6.35
 41
6.35
 42
6.35000508
 43
6.35000508
 44
215.9
 45
279.4
 46
0.0
 47
0.0
 48
0.0
 49
0.0
140
0.0
141
0.0
142
1.0
143
1.0
 70
  1712
 72
     1
 73
     0
 74
     0
  7

 75
     0
147
1.0
148
0.0
149
0.0
100
AcDbLayout
  1
Model
 70
     1
 71
     0
 10
0.0
 20
0.0
 11
279.4
 21
215.9
 12
0.0
 22
0.0
 32
0.0
 14
0.0
 24
0.0
 34
0.0
 15
279.4
 25
215.9
 35
0.0
146
0.0
 13
0.0
 23
0.0
 33
0.0
 16
1.0
 26
0.0
 36
0.0
 17
0.0
 27
1.0
 37
0.0
 76
     0
330
1F
331
29
  0
MLINESTYLE
  5
18
102
{ACAD_REACTORS
330
17
102
}
330
17
100
AcDbMlineStyle
  2
Standard
 70
     0
  3

 62
   256
 51
90.0
 52
90.0
 71
     2
 49
0.5
 62
   256
  6
BYLAYER
 49
-0.5
 62
   256
  6
BYLAYER
  0
ACDBPLACEHOLDER
  5
F
102
{ACAD_REACTORS
330
E
102
}
330
E
  0
SCALE
  5
48
102
{ACAD_REACTORS
330
47
102
}
330
47
100
AcDbScale
 70
     0
300
1:1
140
1.0
141
1.0
290
     1
  0
SCALE
  5
49
102
{ACAD_REACTORS
330
47
102
}
330
47
100
AcDbScale
 70
     0
300
1:2
140
1.0
141
2.0
290
     0
  0
SCALE
  5
4A
102
{ACAD_REACTORS
330
47
102
}
330
47
100
AcDbScale
 70
     0
300
1:4
140
1.0
141
4.0
290
     0
  0
SCALE
  5
4B
102
{ACAD_REACTORS
330
47
102
}
330
47
100
AcDbScale
 70
     0
300
1:5
140
1.0
141
5.0
290
     0
  0
SCALE
  5
4C
102
{ACAD_REACTORS
330
47
102
}
330
47
100
AcDbScale
 70
     0
300
1:8
140
1.0
141
8.0
290
     0
  0
SCALE
  5
4D
102
{ACAD_REACTORS
330
47
102
}
330
47
100
AcDbScale
 70
     0
300
1:10
140
1.0
141
10.0
290
     0
  0
SCALE
  5
4E
102
{ACAD_REACTORS
330
47
102
}
330
47
100
AcDbScale
 70
     0
300
1:16
140
1.0
141
16.0
290
     0
  0
SCALE
  5
4F
102
{ACAD_REACTORS
330
47
102
}
330
47
100
AcDbScale
 70
     0
300
1:20
140
1.0
141
20.0
290
     0
  0
SCALE
  5
50
102
{ACAD_REACTORS
330
47
102
}
330
47
100
AcDbScale
 70
     0
300
1:30
140
1.0
141
30.0
290
     0
  0
SCALE
  5
51
102
{ACAD_REACTORS
330
47
102
}
330
47
100
AcDbScale
 70
     0
300
1:40
140
1.0
141
40.0
290
     0
  0
SCALE
  5
52
102
{ACAD_REACTORS
330
47
102
}
330
47
100
AcDbScale
 70
     0
300
1:50
140
1.0
141
50.0
290
     0
  0
SCALE
  5
53
102
{ACAD_REACTORS
330
47
102
}
330
47
100
AcDbScale
 70
     0
300
1:100
140
1.0
141
100.0
290
     0
  0
SCALE
  5
54
102
{ACAD_REACTORS
330
47
102
}
330
47
100
AcDbScale
 70
     0
300
2:1
140
2.0
141
1.0
290
     0
  0
SCALE
  5
55
102
{ACAD_REACTORS
330
47
102
}
330
47
100
AcDbScale
 70
     0
300
4:1
140
4.0
141
1.0
290
     0
  0
SCALE
  5
56
102
{ACAD_REACTORS
330
47
102
}
330
47
100
AcDbScale
 70
     0
300
8:1
140
8.0
141
1.0
290
     0
  0
SCALE
  5
57
102
{ACAD_REACTORS
330
47
102
}
330
47
100
AcDbScale
 70
     0
300
10:1
140
10.0
141
1.0
290
     0
  0
SCALE
  5
58
102
{ACAD_REACTORS
330
47
102
}
330
47
100
AcDbScale
 70
     0
300
100:1
140
100.0
141
1.0
290
     0
  0
SCALE
  5
59
102
{ACAD_REACTORS
330
47
102
}
330
47
100
AcDbScale
 70
     0
300
1/128" = 1'-0"
140
0.0078125
141
12.0
290
     0
  0
SCALE
  5
5A
102
{ACAD_REACTORS
330
47
102
}
330
47
100
AcDbScale
 70
     0
300
1/64" = 1'-0"
140
0.015625
141
12.0
290
     0
  0
SCALE
  5
5B
102
{ACAD_REACTORS
330
47
102
}
330
47
100
AcDbScale
 70
     0
300
1/32" = 1'-0"
140
0.03125
141
12.0
290
     0
  0
SCALE
  5
5C
102
{ACAD_REACTORS
330
47
102
}
330
47
100
AcDbScale
 70
     0
300
1/16" = 1'-0"
140
0.0625
141
12.0
290
     0
  0
SCALE
  5
5D
102
{ACAD_REACTORS
330
47
102
}
330
47
100
AcDbScale
 70
     0
300
3/32" = 1'-0"
140
0.09375
141
12.0
290
     0
  0
SCALE
  5
5E
102
{ACAD_REACTORS
330
47
102
}
330
47
100
AcDbScale
 70
     0
300
1/8" = 1'-0"
140
0.125
141
12.0
290
     0
  0
SCALE
  5
5F
102
{ACAD_REACTORS
330
47
102
}
330
47
100
AcDbScale
 70
     0
300
3/16" = 1'-0"
140
0.1875
141
12.0
290
     0
  0
SCALE
  5
60
102
{ACAD_REACTORS
330
47
102
}
330
47
100
AcDbScale
 70
     0
300
1/4" = 1'-0"
140
0.25
141
12.0
290
     0
  0
SCALE
  5
61
102
{ACAD_REACTORS
330
47
102
}
330
47
100
AcDbScale
 70
     0
300
3/8" = 1'-0"
140
0.375
141
12.0
290
     0
  0
SCALE
  5
62
102
{ACAD_REACTORS
330
47
102
}
330
47
100
AcDbScale
 70
     0
300
1/2" = 1'-0"
140
0.5
141
12.0
290
     0
  0
SCALE
  5
63
102
{ACAD_REACTORS
330
47
102
}
330
47
100
AcDbScale
 70
     0
300
3/4" = 1'-0"
140
0.75
141
12.0
290
     0
  0
SCALE
  5
64
102
{ACAD_REACTORS
330
47
102
}
330
47
100
AcDbScale
 70
     0
300
1" = 1'-0"
140
1.0
141
12.0
290
     0
  0
SCALE
  5
65
102
{ACAD_REACTORS
330
47
102
}
330
47
100
AcDbScale
 70
     0
300
1-1/2" = 1'-0"
140
1.5
141
12.0
290
     0
  0
SCALE
  5
66
102
{ACAD_REACTORS
330
47
102
}
330
47
100
AcDbScale
 70
     0
300
3" = 1'-0"
140
3.0
141
12.0
290
     0
  0
SCALE
  5
67
102
{ACAD_REACTORS
330
47
102
}
330
47
100
AcDbScale
 70
     0
300
6" = 1'-0"
140
6.0
141
12.0
290
     0
  0
SCALE
  5
68
102
{ACAD_REACTORS
330
47
102
}
330
47
100
AcDbScale
 70
     0
300
1'-0" = 1'-0"
140
12.0
141
12.0
290
     0
  0
ENDSEC
  0
EOF
