  0
SECTION
  2
HEADER
  9
$ACADVER
  1
AC1015
  9
$ACADMAINTVER
 70
     6
  9
$DWGCODEPAGE
  3
ANSI_1252
  9
$INSBASE
 10
0.0
 20
0.0
 30
0.0
  9
$EXTMIN
 10
0.0
 20
0.0
 30
0.0
  9
$EXTMAX
 10
11.0
 20
8.5
 30
0.0
  9
$LIMMIN
 10
0.0
 20
0.0
  9
$LIMMAX
 10
11.0
 20
8.5
  9
$ORTHOMODE
 70
     0
  9
$REGENMODE
 70
     1
  9
$FILLMODE
 70
     1
  9
$QTEXTMODE
 70
     0
  9
$MIRRTEXT
 70
     1
  9
$LTSCALE
 40
1.0
  9
$ATTMODE
 70
     1
  9
$TEXTSIZE
 40
0.1111111111
  9
$TRACEWID
 40
0.05
  9
$TEXTSTYLE
  7
Standard
  9
$CLAYER
  8
0
  9
$CELTYPE
  6
ByLayer
  9
$CECOLOR
 62
   256
  9
$CELTSCALE
 40
1.0
  9
$DISPSILH
 70
     0
  9
$DIMSCALE
 40
1.0
  9
$DIMASZ
 40
0.125
  9
$DIMEXO
 40
0.05
  9
$DIMDLI
 40
0.38
  9
$DIMRND
 40
0.0
  9
$DIMDLE
 40
0.0
  9
$DIMEXE
 40
0.07
  9
$DIMTP
 40
0.0
  9
$DIMTM
 40
0.0
  9
$DIMTXT
 40
0.1111111111
  9
$DIMCEN
 40
0.09
  9
$DIMTSZ
 40
0.0
  9
$DIMTOL
 70
     0
  9
$DIMLIM
 70
     0
  9
$DIMTIH
 70
     1
  9
$DIMTOH
 70
     1
  9
$DIMSE1
 70
     0
  9
$DIMSE2
 70
     0
  9
$DIMTAD
 70
     0
  9
$DIMZIN
 70
     1
  9
$DIMBLK
  1

  9
$DIMASO
 70
     1
  9
$DIMSHO
 70
     1
  9
$DIMPOST
  1

  9
$DIMAPOST
  1

  9
$DIMALT
 70
     0
  9
$DIMALTD
 70
     2
  9
$DIMALTF
 40
25.4
  9
$DIMLFAC
 40
1.0
  9
$DIMTOFL
 70
     0
  9
$DIMTVP
 40
0.0
  9
$DIMTIX
 70
     0
  9
$DIMSOXD
 70
     0
  9
$DIMSAH
 70
     0
  9
$DIMBLK1
  1

  9
$DIMBLK2
  1

  9
$DIMSTYLE
  2
Standard
  9
$DIMCLRD
 70
     0
  9
$DIMCLRE
 70
     0
  9
$DIMCLRT
 70
     0
  9
$DIMTFAC
 40
1.0
  9
$DIMGAP
 40
0.1
  9
$DIMJUST
 70
     0
  9
$DIMSD1
 70
     0
  9
$DIMSD2
 70
     0
  9
$DIMTOLJ
 70
     1
  9
$DIMTZIN
 70
     1
  9
$DIMALTZ
 70
     0
  9
$DIMALTTZ
 70
     0
  9
$DIMUPT
 70
     0
  9
$DIMDEC
 70
     2
  9
$DIMTDEC
 70
     2
  9
$DIMALTU
 70
     2
  9
$DIMALTTD
 70
     2
  9
$DIMTXSTY
  7
Standard
  9
$DIMAUNIT
 70
     0
  9
$DIMADEC
 70
     0
  9
$DIMALTRND
 40
0.0
  9
$DIMAZIN
 70
     0
  9
$DIMDSEP
 70
    46
  9
$DIMATFIT
 70
     3
  9
$DIMFRAC
 70
     0
  9
$DIMLDRBLK
  1

  9
$DIMLUNIT
 70
     2
  9
$DIMLWD
 70
    -2
  9
$DIMLWE
 70
    -2
  9
$DIMTMOVE
 70
     0
  9
$LUNITS
 70
     2
  9
$LUPREC
 70
     2
  9
$SKETCHINC
 40
0.1
  9
$FILLETRAD
 40
0.5
  9
$AUNITS
 70
     0
  9
$AUPREC
 70
     0
  9
$MENU
  1
.
  9
$ELEVATION
 40
0.0
  9
$PELEVATION
 40
0.0
  9
$THICKNESS
 40
0.0
  9
$LIMCHECK
 70
     0
  9
$CHAMFERA
 40
0.0
  9
$CHAMFERB
 40
0.0
  9
$CHAMFERC
 40
0.0
  9
$CHAMFERD
 40
0.0
  9
$SKPOLY
 70
     0
  9
$TDCREATE
 40
2457465.431968356
  9
$TDUCREATE
 40
2457465.598635023
  9
$TDUPDATE
 40
2457465.43197125
  9
$TDUUPDATE
 40
2457465.598637917
  9
$TDINDWG
 40
0.0000000116
  9
$TDUSRTIMER
 40
0.0000000116
  9
$USRTIMER
 70
     1
  9
$ANGBASE
 50
0.0
  9
$ANGDIR
 70
     0
  9
$PDMODE
 70
     0
  9
$PDSIZE
 40
-1.0
  9
$PLINEWID
 40
0.0
  9
$SPLFRAME
 70
     0
  9
$SPLINETYPE
 70
     6
  9
$SPLINESEGS
 70
     8
  9
$HANDSEED
  5
214
  9
$SURFTAB1
 70
     6
  9
$SURFTAB2
 70
     6
  9
$SURFTYPE
 70
     6
  9
$SURFU
 70
     6
  9
$SURFV
 70
     6
  9
$UCSBASE
  2

  9
$UCSNAME
  2

  9
$UCSORG
 10
0.0
 20
0.0
 30
0.0
  9
$UCSXDIR
 10
1.0
 20
0.0
 30
0.0
  9
$UCSYDIR
 10
0.0
 20
1.0
 30
0.0
  9
$UCSORTHOREF
  2

  9
$UCSORTHOVIEW
 70
     0
  9
$UCSORGTOP
 10
0.0
 20
0.0
 30
0.0
  9
$UCSORGBOTTOM
 10
0.0
 20
0.0
 30
0.0
  9
$UCSORGLEFT
 10
0.0
 20
0.0
 30
0.0
  9
$UCSORGRIGHT
 10
0.0
 20
0.0
 30
0.0
  9
$UCSORGFRONT
 10
0.0
 20
0.0
 30
0.0
  9
$UCSORGBACK
 10
0.0
 20
0.0
 30
0.0
  9
$PUCSBASE
  2

  9
$PUCSNAME
  2

  9
$PUCSORG
 10
0.0
 20
0.0
 30
0.0
  9
$PUCSXDIR
 10
1.0
 20
0.0
 30
0.0
  9
$PUCSYDIR
 10
0.0
 20
1.0
 30
0.0
  9
$PUCSORTHOREF
  2

  9
$PUCSORTHOVIEW
 70
     0
  9
$PUCSORGTOP
 10
0.0
 20
0.0
 30
0.0
  9
$PUCSORGBOTTOM
 10
0.0
 20
0.0
 30
0.0
  9
$PUCSORGLEFT
 10
0.0
 20
0.0
 30
0.0
  9
$PUCSORGRIGHT
 10
0.0
 20
0.0
 30
0.0
  9
$PUCSORGFRONT
 10
0.0
 20
0.0
 30
0.0
  9
$PUCSORGBACK
 10
0.0
 20
0.0
 30
0.0
  9
$USERI1
 70
     0
  9
$USERI2
 70
     0
  9
$USERI3
 70
     0
  9
$USERI4
 70
     0
  9
$USERI5
 70
     0
  9
$USERR1
 40
0.0
  9
$USERR2
 40
0.0
  9
$USERR3
 40
0.0
  9
$USERR4
 40
0.0
  9
$USERR5
 40
0.0
  9
$WORLDVIEW
 70
     1
  9
$SHADEDGE
 70
     3
  9
$SHADEDIF
 70
    70
  9
$TILEMODE
 70
     1
  9
$MAXACTVP
 70
    64
  9
$PINSBASE
 10
0.0
 20
0.0
 30
0.0
  9
$PLIMCHECK
 70
     0
  9
$PEXTMIN
 10
1.0000000000E+20
 20
1.0000000000E+20
 30
1.0000000000E+20
  9
$PEXTMAX
 10
-1.0000000000E+20
 20
-1.0000000000E+20
 30
-1.0000000000E+20
  9
$PLIMMIN
 10
0.0
 20
0.0
  9
$PLIMMAX
 10
12.0
 20
9.0
  9
$UNITMODE
 70
     0
  9
$VISRETAIN
 70
     1
  9
$PLINEGEN
 70
     0
  9
$PSLTSCALE
 70
     1
  9
$TREEDEPTH
 70
  3020
  9
$CMLSTYLE
  2
Standard
  9
$CMLJUST
 70
     0
  9
$CMLSCALE
 40
1.0
  9
$PROXYGRAPHICS
 70
     1
  9
$MEASUREMENT
 70
     0
  9
$CELWEIGHT
370
    -1
  9
$ENDCAPS
280
     0
  9
$JOINSTYLE
280
     0
  9
$LWDISPLAY
290
     1
  9
$INSUNITS
 70
     1
  9
$HYPERLINKBASE
  1

  9
$STYLESHEET
  1

  9
$XEDIT
290
     1
  9
$CEPSNTYPE
380
     0
  9
$PSTYLEMODE
290
     1
  9
$FINGERPRINTGUID
  2
{37E74E19-861D-4C72-9A59-E3546F8A34EF}
  9
$VERSIONGUID
  2
{FAEB1C32-E019-11D5-929B-00C0DF256EC4}
  9
$EXTNAMES
290
     1
  9
$PSVPSCALE
 40
0.0
  9
$OLESTARTUP
290
     0
  0
ENDSEC
  0
SECTION
  2
CLASSES
  0
CLASS
  1
ACDBDICTIONARYWDFLT
  2
AcDbDictionaryWithDefault
  3
ObjectDBX Classes
 90
        0
280
     0
281
     0
  0
CLASS
  1
VISUALSTYLE
  2
AcDbVisualStyle
  3
ObjectDBX Classes
 90
     4095
280
     0
281
     0
  0
CLASS
  1
MATERIAL
  2
AcDbMaterial
  3
ObjectDBX Classes
 90
     1153
280
     0
281
     0
  0
CLASS
  1
SCALE
  2
AcDbScale
  3
ObjectDBX Classes
 90
     1153
280
     0
281
     0
  0
CLASS
  1
SUN
  2
AcDbSun
  3
SCENEOE
 90
     1153
280
     0
281
     0
  0
CLASS
  1
ACDBPLACEHOLDER
  2
AcDbPlaceHolder
  3
ObjectDBX Classes
 90
        0
280
     0
281
     0
  0
CLASS
  1
LAYOUT
  2
AcDbLayout
  3
ObjectDBX Classes
 90
        0
280
     0
281
     0
  0
ENDSEC
  0
SECTION
  2
TABLES
  0
TABLE
  2
VPORT
  5
8
330
0
100
AcDbSymbolTable
 70
     1
  0
VPORT
  5
29
330
8
100
AcDbSymbolTableRecord
100
AcDbViewportTableRecord
  2
*Active
 70
     0
 10
0.0
 20
0.0
 11
1.0
 21
1.0
 12
5.5
 22
4.25
 13
0.0
 23
0.0
 14
0.5
 24
0.5
 15
0.5
 25
0.5
 16
0.0
 26
0.0
 36
1.0
 17
0.0
 27
0.0
 37
0.0
 40
8.5
 41
1.2941176471
 42
50.0
 43
0.0
 44
0.0
 50
0.0
 51
0.0
 71
     0
 72
  2000
 73
     1
 74
     3
 75
     0
 76
     0
 77
     0
 78
     0
281
     0
 65
     1
110
0.0
120
0.0
130
0.0
111
1.0
121
0.0
131
0.0
112
0.0
122
1.0
132
0.0
 79
     0
146
0.0
  0
ENDTAB
  0
TABLE
  2
LTYPE
  5
5
330
0
100
AcDbSymbolTable
 70
     6
  0
LTYPE
  5
14
330
5
100
AcDbSymbolTableRecord
100
AcDbLinetypeTableRecord
  2
ByBlock
 70
     0
  3

 72
    65
 73
     0
 40
0.0
  0
LTYPE
  5
15
330
5
100
AcDbSymbolTableRecord
100
AcDbLinetypeTableRecord
  2
ByLayer
 70
     0
  3

 72
    65
 73
     0
 40
0.0
  0
LTYPE
  5
16
330
5
100
AcDbSymbolTableRecord
100
AcDbLinetypeTableRecord
  2
Continuous
 70
     0
  3
Solid line
 72
    65
 73
     0
 40
0.0
  0
LTYPE
  5
6A
330
5
100
AcDbSymbolTableRecord
100
AcDbLinetypeTableRecord
  2
HIDDEN
 70
     0
  3
Hidden __ __ __ __ __ __ __ __ __ __ __ __ __ __
 72
    65
 73
     2
 40
0.075
 49
0.05
 74
     0
 49
-0.025
 74
     0
  0
LTYPE
  5
6B
330
5
100
AcDbSymbolTableRecord
100
AcDbLinetypeTableRecord
  2
PHANTOM
 70
     0
  3
Phantom ______  __  __  ______  __  __  ______
 72
    65
 73
     6
 40
0.5
 49
0.25
 74
     0
 49
-0.05
 74
     0
 49
0.05
 74
     0
 49
-0.05
 74
     0
 49
0.05
 74
     0
 49
-0.05
 74
     0
  0
LTYPE
  5
6C
330
5
100
AcDbSymbolTableRecord
100
AcDbLinetypeTableRecord
  2
CENTER
 70
     0
  3
Center ____ _ ____ _ ____ _ ____ _ ____ _ ____
 72
    65
 73
     4
 40
0.4
 49
0.25
 74
     0
 49
-0.05
 74
     0
 49
0.05
 74
     0
 49
-0.05
 74
     0
  0
LTYPE
  5
6D
330
5
100
AcDbSymbolTableRecord
100
AcDbLinetypeTableRecord
  2
CENTERX2
 70
     0
  3
Center (2x) ________  __  ________  __  _____
 72
    65
 73
     4
 40
0.8
 49
0.5
 74
     0
 49
-0.1
 74
     0
 49
0.1
 74
     0
 49
-0.1
 74
     0
  0
LTYPE
  5
6E
330
5
100
AcDbSymbolTableRecord
100
AcDbLinetypeTableRecord
  2
DOT2
 70
     0
  3
Dot (.5x) ........................................
 72
    65
 73
     2
 40
0.025
 49
0.0
 74
     0
 49
-0.025
 74
     0
  0
ENDTAB
  0
TABLE
  2
LAYER
  5
2
330
0
100
AcDbSymbolTable
 70
     2
  0
LAYER
  5
10
330
2
100
AcDbSymbolTableRecord
100
AcDbLayerTableRecord
  2
0
 70
     0
 62
     7
  6
Continuous
370
    -3
390
F
  0
LAYER
  5
6F
330
2
100
AcDbSymbolTableRecord
100
AcDbLayerTableRecord
  2
FORMAT
 70
     0
 62
     7
  6
Continuous
370
    -3
390
F
  0
ENDTAB
  0
TABLE
  2
STYLE
  5
3
330
0
100
AcDbSymbolTable
 70
     5
  0
STYLE
  5
11
330
3
100
AcDbSymbolTableRecord
100
AcDbTextStyleTableRecord
  2
Standard
 70
     0
 40
0.0
 41
1.0
 50
0.0
 71
     0
 42
0.1111111111
  3
txt
  4

  0
STYLE
  5
96
330
3
100
AcDbSymbolTableRecord
100
AcDbTextStyleTableRecord
  2
SLDTEXTSTYLE0
 70
     0
 40
0.0
 41
0.75
 50
0.0
 71
     0
 42
0.1111111111
  3
TXT
  4

  0
STYLE
  5
A2
330
3
100
AcDbSymbolTableRecord
100
AcDbTextStyleTableRecord
  2
SLDTEXTSTYLE1
 70
     0
 40
0.0
 41
0.6
 50
0.0
 71
     0
 42
0.1111111111
  3
TXT
  4

  0
STYLE
  5
A7
330
3
100
AcDbSymbolTableRecord
100
AcDbTextStyleTableRecord
  2
SLDTEXTSTYLE2
 70
     0
 40
0.0
 41
0.6875
 50
0.0
 71
     0
 42
0.1111111111
  3
TXT
  4

  0
STYLE
  5
1FE
330
3
100
AcDbSymbolTableRecord
100
AcDbTextStyleTableRecord
  2
SLDTEXTSTYLE3
 70
     0
 40
0.0
 41
0.7
 50
0.0
 71
     0
 42
0.1111111111
  3
TXT
  4

  0
ENDTAB
  0
TABLE
  2
VIEW
  5
6
330
0
100
AcDbSymbolTable
 70
     0
  0
ENDTAB
  0
TABLE
  2
UCS
  5
7
330
0
100
AcDbSymbolTable
 70
     0
  0
ENDTAB
  0
TABLE
  2
APPID
  5
9
330
0
100
AcDbSymbolTable
 70
     1
  0
APPID
  5
12
330
9
100
AcDbSymbolTableRecord
100
AcDbRegAppTableRecord
  2
ACAD
 70
     0
  0
ENDTAB
  0
TABLE
  2
DIMSTYLE
  5
A
330
0
100
AcDbSymbolTable
 70
     5
100
AcDbDimStyleTable
  0
DIMSTYLE
105
27
330
A
100
AcDbSymbolTableRecord
100
AcDbDimStyleTableRecord
  2
Standard
 70
     0
178
     0
340
11
  0
DIMSTYLE
105
11A
102
{ACAD_REACTORS
330
119
102
}
330
A
100
AcDbSymbolTableRecord
100
AcDbDimStyleTableRecord
  2
SLDDIMSTYLE0
 70
     0
 41
0.125
 44
0.0
 45
0.000000001
 78
     4
 79
     1
140
0.0833333333
141
0.0
147
0.0208333333
148
0.000000001
170
     1
171
     1
173
     1
178
     0
271
     2
272
     2
274
     1
276
     2
284
    12
340
96
  0
DIMSTYLE
105
1B0
102
{ACAD_REACTORS
330
1AF
330
1D8
102
}
330
A
100
AcDbSymbolTableRecord
100
AcDbDimStyleTableRecord
  2
SLDDIMSTYLE1
 70
     0
 41
0.125
 44
0.0
 45
0.000000001
 78
     8
 79
     2
140
0.0833333333
147
0.0208333333
148
0.000000001
170
     1
171
     1
172
     1
173
     1
178
     0
271
     2
272
     2
274
     1
276
     2
284
    12
289
     0
340
96
  0
DIMSTYLE
105
1C5
102
{ACAD_REACTORS
330
1C4
102
}
330
A
100
AcDbSymbolTableRecord
100
AcDbDimStyleTableRecord
  2
SLDDIMSTYLE2
 70
     0
 41
0.125
 44
0.0
 45
0.000000001
 78
     4
 79
     1
140
0.0833333333
147
0.0208333333
148
0.000000001
170
     1
171
     1
173
     1
178
     0
271
     2
272
     2
274
     1
276
     2
284
    12
340
96
  0
DIMSTYLE
105
1F2
330
A
100
AcDbSymbolTableRecord
100
AcDbDimStyleTableRecord
  2
SLDDIMSTYLE3
 70
     0
 41
0.125
 44
0.0
 45
0.000000001
146
0.125
147
0.0
173
     1
178
     0
271
     0
272
     0
276
     2
340
11
  0
ENDTAB
  0
TABLE
  2
BLOCK_RECORD
  5
1
330
0
100
AcDbSymbolTable
 70
    20
  0
BLOCK_RECORD
  5
1F
330
1
100
AcDbSymbolTableRecord
100
AcDbBlockTableRecord
  2
*Model_Space
340
22
  0
BLOCK_RECORD
  5
1B
330
1
100
AcDbSymbolTableRecord
100
AcDbBlockTableRecord
  2
*Paper_Space
340
1E
  0
BLOCK_RECORD
  5
23
330
1
100
AcDbSymbolTableRecord
100
AcDbBlockTableRecord
  2
*Paper_Space0
340
26
  0
BLOCK_RECORD
  5
70
330
1
100
AcDbSymbolTableRecord
100
AcDbBlockTableRecord
  2
Third Angle Projection Block
340
0
102
{BLKREFS
331
95
102
}
  0
BLOCK_RECORD
  5
A9
330
1
100
AcDbSymbolTableRecord
100
AcDbBlockTableRecord
  2
SW_NOTE_0
340
0
102
{BLKREFS
331
AE
102
}
  0
BLOCK_RECORD
  5
AF
330
1
100
AcDbSymbolTableRecord
100
AcDbBlockTableRecord
  2
SW_NOTE_1
340
0
102
{BLKREFS
331
B4
102
}
  0
BLOCK_RECORD
  5
B6
330
1
100
AcDbSymbolTableRecord
100
AcDbBlockTableRecord
  2
SW_NOTE_2
340
0
102
{BLKREFS
331
BC
102
}
  0
BLOCK_RECORD
  5
BE
330
1
100
AcDbSymbolTableRecord
100
AcDbBlockTableRecord
  2
SW_NOTE_3
340
0
102
{BLKREFS
331
C3
102
}
  0
BLOCK_RECORD
  5
C4
330
1
100
AcDbSymbolTableRecord
100
AcDbBlockTableRecord
  2
SW_NOTE_4
340
0
102
{BLKREFS
331
D6
102
}
  0
BLOCK_RECORD
  5
D7
330
1
100
AcDbSymbolTableRecord
100
AcDbBlockTableRecord
  2
SW_TABLEANNOTATION_0
340
0
102
{BLKREFS
331
100
102
}
  0
BLOCK_RECORD
  5
E5
330
1
100
AcDbSymbolTableRecord
100
AcDbBlockTableRecord
  2
SW_SYMBOL_C#_1
340
0
102
{BLKREFS
331
EA
102
}
  0
BLOCK_RECORD
  5
EE
330
1
100
AcDbSymbolTableRecord
100
AcDbBlockTableRecord
  2
SW_SYMBOL_C#_2
340
0
102
{BLKREFS
331
F3
102
}
  0
BLOCK_RECORD
  5
F6
330
1
100
AcDbSymbolTableRecord
100
AcDbBlockTableRecord
  2
SW_SYMBOL_C#_3
340
0
102
{BLKREFS
331
FB
102
}
  0
BLOCK_RECORD
  5
11B
330
1
100
AcDbSymbolTableRecord
100
AcDbBlockTableRecord
  2
_D
340
0
  0
BLOCK_RECORD
  5
1B1
330
1
100
AcDbSymbolTableRecord
100
AcDbBlockTableRecord
  2
_D_1
340
0
  0
BLOCK_RECORD
  5
1C6
330
1
100
AcDbSymbolTableRecord
100
AcDbBlockTableRecord
  2
_D_2
340
0
  0
BLOCK_RECORD
  5
1D9
330
1
100
AcDbSymbolTableRecord
100
AcDbBlockTableRecord
  2
_D_3
340
0
  0
BLOCK_RECORD
  5
1EC
330
1
100
AcDbSymbolTableRecord
100
AcDbBlockTableRecord
  2
SW_NOTE_5
340
0
102
{BLKREFS
331
1F1
102
}
  0
BLOCK_RECORD
  5
1F4
330
1
100
AcDbSymbolTableRecord
100
AcDbBlockTableRecord
  2
SW_NOTE_6
340
0
102
{BLKREFS
331
1F9
102
}
  0
BLOCK_RECORD
  5
1FB
330
1
100
AcDbSymbolTableRecord
100
AcDbBlockTableRecord
  2
SW_NOTE_7
340
0
102
{BLKREFS
331
202
102
}
  0
BLOCK_RECORD
  5
204
330
1
100
AcDbSymbolTableRecord
100
AcDbBlockTableRecord
  2
SW_NOTE_8
340
0
102
{BLKREFS
331
209
102
}
  0
BLOCK_RECORD
  5
20B
330
1
100
AcDbSymbolTableRecord
100
AcDbBlockTableRecord
  2
SW_NOTE_9
340
0
102
{BLKREFS
331
211
102
}
  0
ENDTAB
  0
ENDSEC
  0
SECTION
  2
BLOCKS
  0
BLOCK
  5
20
330
1F
100
AcDbEntity
  8
0
100
AcDbBlockBegin
  2
*Model_Space
 70
     0
 10
0.0
 20
0.0
 30
0.0
  3
*Model_Space
  1
*Model_Space
  0
ENDBLK
  5
21
330
1F
100
AcDbEntity
  8
0
100
AcDbBlockEnd
  0
BLOCK
  5
1C
330
1B
100
AcDbEntity
 67
     1
  8
0
100
AcDbBlockBegin
  2
*Paper_Space
 70
     0
 10
0.0
 20
0.0
 30
0.0
  3
*Paper_Space
  1
*Paper_Space
  0
ENDBLK
  5
1D
330
1B
100
AcDbEntity
 67
     1
  8
0
100
AcDbBlockEnd
  0
BLOCK
  5
24
330
23
100
AcDbEntity
  8
0
100
AcDbBlockBegin
  2
*Paper_Space0
 70
     0
 10
0.0
 20
0.0
 30
0.0
  3
*Paper_Space0
  1
*Paper_Space0
  0
ENDBLK
  5
25
330
23
100
AcDbEntity
  8
0
100
AcDbBlockEnd
  0
BLOCK
  5
71
330
70
100
AcDbEntity
  8
0
100
AcDbBlockBegin
  2
Third Angle Projection Block
 70
     0
 10
0.0
 20
0.0
 30
0.0
  3
Third Angle Projection Block
  1
Third Angle Projection Block
  0
CIRCLE
  5
73
330
70
100
AcDbEntity
  8
0
  6
Continuous
 62
     7
370
    30
100
AcDbCircle
 10
3.9951432636
 20
0.7456853688
 30
0.0
 40
0.0696152422706639
  0
CIRCLE
  5
74
330
70
100
AcDbEntity
  8
0
  6
Continuous
 62
     7
370
    30
100
AcDbCircle
 10
3.9951432636
 20
0.7456853688
 30
0.0
 40
0.1535916633280245
  0
LINE
  5
75
330
70
100
AcDbEntity
  8
0
  6
CENTERX2
 62
     7
370
     0
100
AcDbLine
 10
4.3360937897
 20
0.7456853688
 30
0.0
 11
4.7028635231
 21
0.7456853688
 31
0.0
  0
LINE
  5
76
330
70
100
AcDbEntity
  8
0
  6
Continuous
 62
     7
370
    30
100
AcDbLine
 10
4.3701432636
 20
0.815300611
 30
0.0
 11
4.3701432636
 21
0.6760701265
 31
0.0
  0
LINE
  5
77
330
70
100
AcDbEntity
  8
0
  6
Continuous
 62
     7
370
    30
100
AcDbLine
 10
4.3701432636
 20
0.6760701265
 30
0.0
 11
4.6701432636
 21
0.5956853688
 31
0.0
  0
LINE
  5
78
330
70
100
AcDbEntity
  8
0
  6
Continuous
 62
     7
370
    30
100
AcDbLine
 10
4.6701432636
 20
0.5956853688
 30
0.0
 11
4.6701432636
 21
0.8956853688
 31
0.0
  0
LINE
  5
79
330
70
100
AcDbEntity
  8
0
  6
Continuous
 62
     7
370
    30
100
AcDbLine
 10
4.6701432636
 20
0.8956853688
 30
0.0
 11
4.3701432636
 21
0.815300611
 31
0.0
  0
LINE
  5
7A
330
70
100
AcDbEntity
  8
0
  6
CENTERX2
 62
     7
370
     0
100
AcDbLine
 10
3.8032513961
 20
0.7456853688
 30
0.0
 11
4.187035131
 21
0.7456853688
 31
0.0
  0
LINE
  5
7B
330
70
100
AcDbEntity
  8
0
  6
CENTERX2
 62
     7
370
     0
100
AcDbLine
 10
3.9951432636
 20
0.9375772362
 30
0.0
 11
3.9951432636
 21
0.5537935013
 31
0.0
  0
POINT
  5
7C
330
70
100
AcDbEntity
  8
0
  6
Continuous
 62
     7
370
     0
100
AcDbPoint
 10
3.9951432636
 20
0.7456853688
 30
0.0
  0
ENDBLK
  5
72
330
70
100
AcDbEntity
  8
0
100
AcDbBlockEnd
  0
BLOCK
  5
AA
330
A9
100
AcDbEntity
  8
0
100
AcDbBlockBegin
  2
SW_NOTE_0
 70
     0
 10
0.0
 20
0.0
 30
0.0
  3
SW_NOTE_0
  1
SW_NOTE_0
  0
MTEXT
  5
AC
330
A9
100
AcDbEntity
  8
0
  6
Continuous
 62
     0
370
     0
100
AcDbMText
 10
0.78375
 20
0.0773440644
 30
0.0
 40
0.06
 41
0.0
 71
     2
 72
     1
  1
VALUES IN PARENTHESIS ARE CALCULATED
  7
SLDTEXTSTYLE0
 73
     1
 44
1.0
  0
MTEXT
  5
AD
330
A9
100
AcDbEntity
  8
0
  6
Continuous
 62
     0
370
     0
100
AcDbMText
 10
0.7825936818
 20
-0.0220260102
 30
0.0
 40
0.06
 41
0.0
 71
     2
 72
     1
  1
AND MAY CONTAIN ROUNDOFF ERRORS
  7
SLDTEXTSTYLE0
 73
     1
 44
1.0
  0
ENDBLK
  5
AB
330
A9
100
AcDbEntity
  8
0
100
AcDbBlockEnd
  0
BLOCK
  5
B0
330
AF
100
AcDbEntity
  8
0
100
AcDbBlockBegin
  2
SW_NOTE_1
 70
     0
 10
0.0
 20
0.0
 30
0.0
  3
SW_NOTE_1
  1
SW_NOTE_1
  0
MTEXT
  5
B2
330
AF
100
AcDbEntity
  8
0
  6
Continuous
 62
     0
370
     0
100
AcDbMText
 10
0.0
 20
0.1074223116
 30
0.0
 40
0.0833333333
 41
0.0
 71
     1
 72
     1
  1
DRAWING
  7
SLDTEXTSTYLE0
 73
     1
 44
1.0
  0
MTEXT
  5
B3
330
AF
100
AcDbEntity
  8
0
  6
Continuous
 62
     0
370
     0
100
AcDbMText
 10
0.0
 20
-0.0036887981
 30
0.0
 40
0.0833333333
 41
0.0
 71
     1
 72
     1
  1
PROJECTION
  7
SLDTEXTSTYLE0
 73
     1
 44
1.0
  0
ENDBLK
  5
B1
330
AF
100
AcDbEntity
  8
0
100
AcDbBlockEnd
  0
BLOCK
  5
B7
330
B6
100
AcDbEntity
  8
0
100
AcDbBlockBegin
  2
SW_NOTE_2
 70
     0
 10
0.0
 20
0.0
 30
0.0
  3
SW_NOTE_2
  1
SW_NOTE_2
  0
MTEXT
  5
B9
330
B6
100
AcDbEntity
  8
0
  6
Continuous
 62
     0
370
     0
100
AcDbMText
 10
0.0823567708
 20
0.1477056785
 30
0.0
 40
0.1145833333
 41
0.0
 71
     2
 72
     1
  1
%%c
  7
SLDTEXTSTYLE0
 73
     1
 44
1.0
  0
MTEXT
  5
BA
330
B6
100
AcDbEntity
  8
0
  6
Continuous
 62
     0
370
     0
100
AcDbMText
 10
1.2471759303
 20
0.1477056785
 30
0.0
 40
0.1145833333
 41
0.0
 71
     2
 72
     1
  1
2" MOUNTED PLANO-CONVEX
  7
SLDTEXTSTYLE0
 73
     1
 44
1.0
  0
MTEXT
  5
BB
330
B6
100
AcDbEntity
  8
0
  6
Continuous
 62
     0
370
     0
100
AcDbMText
 10
1.1891443521
 20
-0.0050720974
 30
0.0
 40
0.1145833333
 41
0.0
 71
     2
 72
     1
  1
LENS, f=60mm
  7
SLDTEXTSTYLE0
 73
     1
 44
1.0
  0
ENDBLK
  5
B8
330
B6
100
AcDbEntity
  8
0
100
AcDbBlockEnd
  0
BLOCK
  5
BF
330
BE
100
AcDbEntity
  8
0
100
AcDbBlockBegin
  2
SW_NOTE_3
 70
     0
 10
0.0
 20
0.0
 30
0.0
  3
SW_NOTE_3
  1
SW_NOTE_3
  0
MTEXT
  5
C1
330
BE
100
AcDbEntity
  8
0
  6
Continuous
 62
     0
370
     0
100
AcDbMText
 10
0.986328125
 20
0.1611334675
 30
0.0
 40
0.125
 41
0.0
 71
     2
 72
     1
  1
FOR INFORMATION ONLY
  7
SLDTEXTSTYLE0
 73
     1
 44
1.0
  0
MTEXT
  5
C2
330
BE
100
AcDbEntity
  8
0
  6
Continuous
 62
     0
370
     0
100
AcDbMText
 10
0.999088459
 20
-0.0055331972
 30
0.0
 40
0.125
 41
0.0
 71
     2
 72
     1
  1
NOT FOR MANUFACTURING PURPOSES
  7
SLDTEXTSTYLE0
 73
     1
 44
1.0
  0
ENDBLK
  5
C0
330
BE
100
AcDbEntity
  8
0
100
AcDbBlockEnd
  0
BLOCK
  5
C5
330
C4
100
AcDbEntity
  8
0
100
AcDbBlockBegin
  2
SW_NOTE_4
 70
     0
 10
0.0
 20
0.0
 30
0.0
  3
SW_NOTE_4
  1
SW_NOTE_4
  0
MTEXT
  5
C7
330
C4
100
AcDbEntity
  8
0
  6
Continuous
 62
     0
370
     0
100
AcDbMText
 10
0.0
 20
0.1074223116
 30
0.0
 40
0.0833333333
 41
0.0
 71
     1
 72
     1
  1
NOTES/SPECIFICATIONS:
  7
SLDTEXTSTYLE0
 73
     1
 44
1.0
  0
MTEXT
  5
C8
330
C4
100
AcDbEntity
  8
0
  6
Continuous
 62
     0
370
     0
100
AcDbMText
 10
0.4183921567
 20
-0.1147999079
 30
0.0
 40
0.0833333333
 41
0.0
 71
     1
 72
     1
  1
DESIGN WAVELENGTH: 546nm
  7
SLDTEXTSTYLE0
 73
     1
 44
1.0
  0
MTEXT
  5
C9
330
C4
100
AcDbEntity
  8
0
  6
Continuous
 62
     0
370
     0
100
AcDbMText
 10
0.0
 20
-0.1147999079
 30
0.0
 40
0.0833333333
 41
0.0
 71
     1
 72
     1
  1
1.
  7
SLDTEXTSTYLE0
 73
     1
 44
1.0
  0
MTEXT
  5
CA
330
C4
100
AcDbEntity
  8
0
  6
Continuous
 62
     0
370
     0
100
AcDbMText
 10
0.4183921567
 20
-0.2259110177
 30
0.0
 40
0.0833333333
 41
0.0
 71
     1
 72
     1
  1
FOCAL LENGTH: f=60.0mm
  7
SLDTEXTSTYLE0
 73
     1
 44
1.0
  0
MTEXT
  5
CB
330
C4
100
AcDbEntity
  8
0
  6
Continuous
 62
     0
370
     0
100
AcDbMText
 10
1.824256436
 20
-0.2259110177
 30
0.0
 40
0.0833333333
 41
0.0
 71
     1
 72
     1
  1
%%p
  7
SLDTEXTSTYLE0
 73
     1
 44
1.0
  0
MTEXT
  5
CC
330
C4
100
AcDbEntity
  8
0
  6
Continuous
 62
     0
370
     0
100
AcDbMText
 10
1.9037008916
 20
-0.2259110177
 30
0.0
 40
0.0833333333
 41
0.0
 71
     1
 72
     1
  1
1%
  7
SLDTEXTSTYLE0
 73
     1
 44
1.0
  0
MTEXT
  5
CD
330
C4
100
AcDbEntity
  8
0
  6
Continuous
 62
     0
370
     0
100
AcDbMText
 10
0.0
 20
-0.2259110177
 30
0.0
 40
0.0833333333
 41
0.0
 71
     1
 72
     1
  1
2.
  7
SLDTEXTSTYLE0
 73
     1
 44
1.0
  0
MTEXT
  5
CE
330
C4
100
AcDbEntity
  8
0
  6
Continuous
 62
     0
370
     0
100
AcDbMText
 10
0.4183921567
 20
-0.3370221274
 30
0.0
 40
0.0833333333
 41
0.0
 71
     1
 72
     1
  1
WORKING DISTANCE (REF): 42.6mm
  7
SLDTEXTSTYLE0
 73
     1
 44
1.0
  0
MTEXT
  5
CF
330
C4
100
AcDbEntity
  8
0
  6
Continuous
 62
     0
370
     0
100
AcDbMText
 10
0.0
 20
-0.3370221274
 30
0.0
 40
0.0833333333
 41
0.0
 71
     1
 72
     1
  1
3.
  7
SLDTEXTSTYLE0
 73
     1
 44
1.0
  0
MTEXT
  5
D0
330
C4
100
AcDbEntity
  8
0
  6
Continuous
 62
     0
370
     0
100
AcDbMText
 10
0.4183921567
 20
-0.4481332372
 30
0.0
 40
0.0833333333
 41
0.0
 71
     1
 72
     1
  1
CLEAR APERTURE: >
  7
SLDTEXTSTYLE0
 73
     1
 44
1.0
  0
MTEXT
  5
D1
330
C4
100
AcDbEntity
  8
0
  6
Continuous
 62
     0
370
     0
100
AcDbMText
 10
1.4507996036
 20
-0.4481332372
 30
0.0
 40
0.0833333333
 41
0.0
 71
     1
 72
     1
  1
%%c
  7
SLDTEXTSTYLE0
 73
     1
 44
1.0
  0
MTEXT
  5
D2
330
C4
100
AcDbEntity
  8
0
  6
Continuous
 62
     0
370
     0
100
AcDbMText
 10
1.5765865971
 20
-0.4481332372
 30
0.0
 40
0.0833333333
 41
0.0
 71
     1
 72
     1
  1
45.72mm
  7
SLDTEXTSTYLE0
 73
     1
 44
1.0
  0
MTEXT
  5
D3
330
C4
100
AcDbEntity
  8
0
  6
Continuous
 62
     0
370
     0
100
AcDbMText
 10
0.0
 20
-0.4481332372
 30
0.0
 40
0.0833333333
 41
0.0
 71
     1
 72
     1
  1
4.
  7
SLDTEXTSTYLE0
 73
     1
 44
1.0
  0
MTEXT
  5
D4
330
C4
100
AcDbEntity
  8
0
  6
Continuous
 62
     0
370
     0
100
AcDbMText
 10
0.4183921567
 20
-0.559244347
 30
0.0
 40
0.0833333333
 41
0.0
 71
     1
 72
     1
  1
SURFACE QUALITY: 40-20 SCRATCH-DIG
  7
SLDTEXTSTYLE0
 73
     1
 44
1.0
  0
MTEXT
  5
D5
330
C4
100
AcDbEntity
  8
0
  6
Continuous
 62
     0
370
     0
100
AcDbMText
 10
0.0
 20
-0.559244347
 30
0.0
 40
0.0833333333
 41
0.0
 71
     1
 72
     1
  1
5.
  7
SLDTEXTSTYLE0
 73
     1
 44
1.0
  0
ENDBLK
  5
C6
330
C4
100
AcDbEntity
  8
0
100
AcDbBlockEnd
  0
BLOCK
  5
D8
330
D7
100
AcDbEntity
  8
0
100
AcDbBlockBegin
  2
SW_TABLEANNOTATION_0
 70
     0
 10
0.0
 20
0.0
 30
0.0
  3
SW_TABLEANNOTATION_0
  1
SW_TABLEANNOTATION_0
  0
LINE
  5
DA
330
D7
100
AcDbEntity
  8
0
  6
Continuous
 62
     0
370
     0
100
AcDbLine
 10
0.0
 20
0.0
 30
0.0
 11
0.0
 21
-1.2444444391
 31
0.0
  0
LINE
  5
DB
330
D7
100
AcDbEntity
  8
0
  6
Continuous
 62
     0
370
     0
100
AcDbLine
 10
0.0
 20
-1.2444444391
 30
0.0
 11
3.3
 21
-1.2444444391
 31
0.0
  0
LINE
  5
DC
330
D7
100
AcDbEntity
  8
0
  6
Continuous
 62
     0
370
     0
100
AcDbLine
 10
3.3
 20
-1.2444444391
 30
0.0
 11
3.3
 21
0.0
 31
0.0
  0
LINE
  5
DD
330
D7
100
AcDbEntity
  8
0
  6
Continuous
 62
     0
370
     0
100
AcDbLine
 10
3.3
 20
0.0
 30
0.0
 11
0.0
 21
0.0
 31
0.0
  0
LINE
  5
DE
330
D7
100
AcDbEntity
  8
0
  6
Continuous
 62
     0
370
     0
100
AcDbLine
 10
1.1
 20
0.0
 30
0.0
 11
1.1
 21
-1.2444444391
 31
0.0
  0
LINE
  5
DF
330
D7
100
AcDbEntity
  8
0
  6
Continuous
 62
     0
370
     0
100
AcDbLine
 10
2.2
 20
0.0
 30
0.0
 11
2.2
 21
-1.2444444391
 31
0.0
  0
LINE
  5
E0
330
D7
100
AcDbEntity
  8
0
  6
Continuous
 62
     0
370
     0
100
AcDbLine
 10
0.0
 20
-0.3111111098
 30
0.0
 11
3.3
 21
-0.3111111098
 31
0.0
  0
LINE
  5
E1
330
D7
100
AcDbEntity
  8
0
  6
Continuous
 62
     0
370
     0
100
AcDbLine
 10
0.0
 20
-0.6222222195
 30
0.0
 11
3.3
 21
-0.6222222195
 31
0.0
  0
LINE
  5
E2
330
D7
100
AcDbEntity
  8
0
  6
Continuous
 62
     0
370
     0
100
AcDbLine
 10
0.0
 20
-0.9333333293
 30
0.0
 11
3.3
 21
-0.9333333293
 31
0.0
  0
MTEXT
  5
E3
330
D7
100
AcDbEntity
  8
0
  6
Continuous
 62
     0
370
     0
100
AcDbMText
 10
1.1543981952
 20
-0.113990325
 30
0.0
 40
0.0833333333
 41
0.0
 71
     1
 72
     1
  1
PART DESCRIPTION
  7
SLDTEXTSTYLE0
 73
     1
 44
1.0
  0
MTEXT
  5
E4
330
D7
100
AcDbEntity
  8
0
  6
Continuous
 62
     0
370
     0
100
AcDbMText
 10
2.491203698
 20
-0.113990325
 30
0.0
 40
0.0833333333
 41
0.0
 71
     1
 72
     1
  1
MATERIAL
  7
SLDTEXTSTYLE0
 73
     1
 44
1.0
  0
INSERT
  5
EA
330
D7
100
AcDbEntity
  8
0
  6
Continuous
 62
     0
370
     0
100
AcDbBlockReference
  2
SW_SYMBOL_C#_1
 10
0.4374537001
 20
-0.5209677568
 30
0.0
 41
0.0027037109
 42
0.0027037109
 43
0.0027037109
  0
MTEXT
  5
EB
330
D7
100
AcDbEntity
  8
0
  6
Continuous
 62
     0
370
     0
100
AcDbMText
 10
1.4729938215
 20
-0.4251014347
 30
0.0
 40
0.0833333333
 41
0.0
 71
     1
 72
     1
  1
SM2RR
  7
SLDTEXTSTYLE0
 73
     1
 44
1.0
  0
MTEXT
  5
EC
330
D7
100
AcDbEntity
  8
0
  6
Continuous
 62
     0
370
     0
100
AcDbMText
 10
2.4676697448
 20
-0.3695458798
 30
0.0
 40
0.0833333333
 41
0.0
 71
     1
 72
     1
  1
ANODIZED
  7
SLDTEXTSTYLE0
 73
     1
 44
1.0
  0
MTEXT
  5
ED
330
D7
100
AcDbEntity
  8
0
  6
Continuous
 62
     0
370
     0
100
AcDbMText
 10
2.4546296155
 20
-0.4806569896
 30
0.0
 40
0.0833333333
 41
0.0
 71
     1
 72
     1
  1
ALUMINUM
  7
SLDTEXTSTYLE0
 73
     1
 44
1.0
  0
INSERT
  5
F3
330
D7
100
AcDbEntity
  8
0
  6
Continuous
 62
     0
370
     0
100
AcDbBlockReference
  2
SW_SYMBOL_C#_2
 10
0.4374537001
 20
-0.8320788666
 30
0.0
 41
0.0027037109
 42
0.0027037109
 43
0.0027037109
  0
MTEXT
  5
F4
330
D7
100
AcDbEntity
  8
0
  6
Continuous
 62
     0
370
     0
100
AcDbMText
 10
1.4600308562
 20
-0.7362125445
 30
0.0
 40
0.0833333333
 41
0.0
 71
     1
 72
     1
  1
LA4464
  7
SLDTEXTSTYLE0
 73
     1
 44
1.0
  0
MTEXT
  5
F5
330
D7
100
AcDbEntity
  8
0
  6
Continuous
 62
     0
370
     0
100
AcDbMText
 10
2.3169753357
 20
-0.7362125445
 30
0.0
 40
0.0833333333
 41
0.0
 71
     1
 72
     1
  1
UV FUSED SILICA
  7
SLDTEXTSTYLE0
 73
     1
 44
1.0
  0
INSERT
  5
FB
330
D7
100
AcDbEntity
  8
0
  6
Continuous
 62
     0
370
     0
100
AcDbBlockReference
  2
SW_SYMBOL_C#_3
 10
0.4374537001
 20
-1.1431899763
 30
0.0
 41
0.0027037109
 42
0.0027037109
 43
0.0027037109
  0
MTEXT
  5
FC
330
D7
100
AcDbEntity
  8
0
  6
Continuous
 62
     0
370
     0
100
AcDbMText
 10
1.3456018548
 20
-0.9917680994
 30
0.0
 40
0.0833333333
 41
0.0
 71
     1
 72
     1
  1
ENGRAVED
  7
SLDTEXTSTYLE0
 73
     1
 44
1.0
  0
MTEXT
  5
FD
330
D7
100
AcDbEntity
  8
0
  6
Continuous
 62
     0
370
     0
100
AcDbMText
 10
1.3975308615
 20
-1.1028792091
 30
0.0
 40
0.0833333333
 41
0.0
 71
     1
 72
     1
  1
HOUSING
  7
SLDTEXTSTYLE0
 73
     1
 44
1.0
  0
MTEXT
  5
FE
330
D7
100
AcDbEntity
  8
0
  6
Continuous
 62
     0
370
     0
100
AcDbMText
 10
2.4676697448
 20
-0.9917680994
 30
0.0
 40
0.0833333333
 41
0.0
 71
     1
 72
     1
  1
ANODIZED
  7
SLDTEXTSTYLE0
 73
     1
 44
1.0
  0
MTEXT
  5
FF
330
D7
100
AcDbEntity
  8
0
  6
Continuous
 62
     0
370
     0
100
AcDbMText
 10
2.4546296155
 20
-1.1028792091
 30
0.0
 40
0.0833333333
 41
0.0
 71
     1
 72
     1
  1
ALUMINUM
  7
SLDTEXTSTYLE0
 73
     1
 44
1.0
  0
ENDBLK
  5
D9
330
D7
100
AcDbEntity
  8
0
100
AcDbBlockEnd
  0
BLOCK
  5
E6
330
E5
100
AcDbEntity
  8
0
100
AcDbBlockBegin
  2
SW_SYMBOL_C#_1
 70
     0
 10
0.0
 20
0.0
 30
0.0
  3
SW_SYMBOL_C#_1
  1
SW_SYMBOL_C#_1
  0
CIRCLE
  5
E8
330
E5
100
AcDbEntity
  8
0
  6
Continuous
 62
     0
370
     0
100
AcDbCircle
 10
31.4960629921
 20
19.6850393701
 30
0.0
 40
31.49606299212599
  0
MTEXT
  5
E9
330
E5
100
AcDbEntity
  8
0
  6
Continuous
 62
     0
370
     0
100
AcDbMText
 10
31.4960629921
 20
19.6850393701
 30
0.0
 40
30.821835344
 41
0.0
 71
     5
 72
     1
  1
1
  7
SLDTEXTSTYLE0
 73
     1
 44
1.0
  0
ENDBLK
  5
E7
330
E5
100
AcDbEntity
  8
0
100
AcDbBlockEnd
  0
BLOCK
  5
EF
330
EE
100
AcDbEntity
  8
0
100
AcDbBlockBegin
  2
SW_SYMBOL_C#_2
 70
     0
 10
0.0
 20
0.0
 30
0.0
  3
SW_SYMBOL_C#_2
  1
SW_SYMBOL_C#_2
  0
CIRCLE
  5
F1
330
EE
100
AcDbEntity
  8
0
  6
Continuous
 62
     0
370
     0
100
AcDbCircle
 10
31.4960629921
 20
19.6850393701
 30
0.0
 40
31.49606299212599
  0
MTEXT
  5
F2
330
EE
100
AcDbEntity
  8
0
  6
Continuous
 62
     0
370
     0
100
AcDbMText
 10
31.4960629921
 20
19.6850393701
 30
0.0
 40
30.821835344
 41
0.0
 71
     5
 72
     1
  1
2
  7
SLDTEXTSTYLE0
 73
     1
 44
1.0
  0
ENDBLK
  5
F0
330
EE
100
AcDbEntity
  8
0
100
AcDbBlockEnd
  0
BLOCK
  5
F7
330
F6
100
AcDbEntity
  8
0
100
AcDbBlockBegin
  2
SW_SYMBOL_C#_3
 70
     0
 10
0.0
 20
0.0
 30
0.0
  3
SW_SYMBOL_C#_3
  1
SW_SYMBOL_C#_3
  0
CIRCLE
  5
F9
330
F6
100
AcDbEntity
  8
0
  6
Continuous
 62
     0
370
     0
100
AcDbCircle
 10
31.4960629921
 20
19.6850393701
 30
0.0
 40
31.49606299212599
  0
MTEXT
  5
FA
330
F6
100
AcDbEntity
  8
0
  6
Continuous
 62
     0
370
     0
100
AcDbMText
 10
31.4960629921
 20
19.6850393701
 30
0.0
 40
30.821835344
 41
0.0
 71
     5
 72
     1
  1
3
  7
SLDTEXTSTYLE0
 73
     1
 44
1.0
  0
ENDBLK
  5
F8
330
F6
100
AcDbEntity
  8
0
100
AcDbBlockEnd
  0
BLOCK
  5
11C
330
11B
100
AcDbEntity
  8
0
100
AcDbBlockBegin
  2
_D
 70
     0
 10
0.0
 20
0.0
 30
0.0
  3
_D
  1
_D
  0
SOLID
  5
11E
330
11B
100
AcDbEntity
  8
0
  6
Continuous
 62
     7
370
     0
100
AcDbTrace
 10
3.2558829266
 20
5.2999702173
 30
0.0
 11
3.3357034347
 21
5.3982233928
 31
0.0
 12
3.3010624186
 22
5.4182233928
 32
0.0
 13
3.3010624186
 23
5.4182233928
 33
0.0
  0
LINE
  5
11F
330
11B
100
AcDbEntity
  8
0
  6
Continuous
 62
     7
370
     0
100
AcDbLine
 10
3.6790868613
 20
5.6539611139
 30
0.0
 11
3.6621887133
 21
5.6539611139
 31
0.0
  0
LINE
  5
120
330
11B
100
AcDbEntity
  8
0
  6
Continuous
 62
     7
370
     0
100
AcDbLine
 10
3.6621887133
 20
5.6539611139
 30
0.0
 11
3.6621887133
 21
5.5215537093
 31
0.0
  0
LINE
  5
121
330
11B
100
AcDbEntity
  8
0
  6
Continuous
 62
     7
370
     0
100
AcDbLine
 10
3.6621887133
 20
5.5215537093
 30
0.0
 11
3.6790868613
 21
5.5215537093
 31
0.0
  0
LINE
  5
122
330
11B
100
AcDbEntity
  8
0
  6
Continuous
 62
     7
370
     0
100
AcDbLine
 10
4.1450976811
 20
5.6539611139
 30
0.0
 11
4.1619958291
 21
5.6539611139
 31
0.0
  0
LINE
  5
123
330
11B
100
AcDbEntity
  8
0
  6
Continuous
 62
     7
370
     0
100
AcDbLine
 10
4.1619958291
 20
5.6539611139
 30
0.0
 11
4.1619958291
 21
5.5215537093
 31
0.0
  0
LINE
  5
124
330
11B
100
AcDbEntity
  8
0
  6
Continuous
 62
     7
370
     0
100
AcDbLine
 10
4.1619958291
 20
5.5215537093
 30
0.0
 11
4.1450976811
 21
5.5215537093
 31
0.0
  0
LINE
  5
125
330
11B
100
AcDbEntity
  8
0
  6
Continuous
 62
     7
370
     0
100
AcDbLine
 10
3.2558829266
 20
5.2999702173
 30
0.0
 11
3.499515102
 21
5.7219535234
 31
0.0
  0
LINE
  5
126
330
11B
100
AcDbEntity
  8
0
  6
Continuous
 62
     7
370
     0
100
AcDbLine
 10
3.499515102
 20
5.7219535234
 30
0.0
 11
3.649515102
 21
5.7219535234
 31
0.0
  0
MTEXT
  5
127
330
11B
100
AcDbEntity
  8
0
  6
Continuous
 62
     7
370
     0
100
AcDbMText
 10
3.649515102
 20
5.7782815724
 30
0.0
 40
0.0833333333
 41
0.0
 71
     1
 72
     1
  1
%%c
  7
SLDTEXTSTYLE0
 73
     1
 44
1.0
  0
MTEXT
  5
128
330
11B
100
AcDbEntity
  8
0
  6
Continuous
 62
     7
370
     0
100
AcDbMText
 10
3.7753021414
 20
5.7782815724
 30
0.0
 40
0.0833333333
 41
0.0
 71
     1
 72
     1
  1
2.20in
  7
SLDTEXTSTYLE0
 73
     1
 44
1.0
  0
MTEXT
  5
129
330
11B
100
AcDbEntity
  8
0
  6
Continuous
 62
     7
370
     0
100
AcDbMText
 10
3.7002095472
 20
5.6289760164
 30
0.0
 40
0.0833333333
 41
0.0
 71
     1
 72
     1
  1
55.9mm
  7
SLDTEXTSTYLE0
 73
     1
 44
1.0
  0
ENDBLK
  5
11D
330
11B
100
AcDbEntity
  8
0
100
AcDbBlockEnd
  0
BLOCK
  5
1B2
330
1B1
100
AcDbEntity
  8
0
100
AcDbBlockBegin
  2
_D_1
 70
     0
 10
0.0
 20
0.0
 30
0.0
  3
_D_1
  1
_D_1
  0
SOLID
  5
1B4
330
1B1
100
AcDbEntity
  8
0
  6
Continuous
 62
     7
370
     0
100
AcDbTrace
 10
7.5119093426
 20
5.6581572678
 30
0.0
 11
7.3869093426
 21
5.6781572678
 31
0.0
 12
7.3869093426
 22
5.6381572678
 32
0.0
 13
7.3869093426
 23
5.6381572678
 33
0.0
  0
SOLID
  5
1B5
330
1B1
100
AcDbEntity
  8
0
  6
Continuous
 62
     7
370
     0
100
AcDbTrace
 10
7.6319093426
 20
5.6581572678
 30
0.0
 11
7.7569093426
 21
5.6381572678
 31
0.0
 12
7.7569093426
 22
5.6781572678
 32
0.0
 13
7.7569093426
 23
5.6781572678
 33
0.0
  0
LINE
  5
1B6
330
1B1
100
AcDbEntity
  8
0
  6
Continuous
 62
     7
370
     0
100
AcDbLine
 10
8.2147111493
 20
5.6581572587
 30
0.0
 11
8.1978130013
 21
5.6581572587
 31
0.0
  0
LINE
  5
1B7
330
1B1
100
AcDbEntity
  8
0
  6
Continuous
 62
     7
370
     0
100
AcDbLine
 10
8.1978130013
 20
5.6581572587
 30
0.0
 11
8.1978130013
 21
5.5257498541
 31
0.0
  0
LINE
  5
1B8
330
1B1
100
AcDbEntity
  8
0
  6
Continuous
 62
     7
370
     0
100
AcDbLine
 10
8.1978130013
 20
5.5257498541
 30
0.0
 11
8.2147111493
 21
5.5257498541
 31
0.0
  0
LINE
  5
1B9
330
1B1
100
AcDbEntity
  8
0
  6
Continuous
 62
     7
370
     0
100
AcDbLine
 10
8.6191478704
 20
5.6581572587
 30
0.0
 11
8.6360460184
 21
5.6581572587
 31
0.0
  0
LINE
  5
1BA
330
1B1
100
AcDbEntity
  8
0
  6
Continuous
 62
     7
370
     0
100
AcDbLine
 10
8.6360460184
 20
5.6581572587
 30
0.0
 11
8.6360460184
 21
5.5257498541
 31
0.0
  0
LINE
  5
1BB
330
1B1
100
AcDbEntity
  8
0
  6
Continuous
 62
     7
370
     0
100
AcDbLine
 10
8.6360460184
 20
5.5257498541
 30
0.0
 11
8.6191478704
 21
5.5257498541
 31
0.0
  0
LINE
  5
1BC
330
1B1
100
AcDbEntity
  8
0
  6
Continuous
 62
     7
370
     0
100
AcDbLine
 10
7.5119093426
 20
5.4873422731
 30
0.0
 11
7.5119093426
 21
5.7281572678
 31
0.0
  0
LINE
  5
1BD
330
1B1
100
AcDbEntity
  8
0
  6
Continuous
 62
     7
370
     0
100
AcDbLine
 10
7.6319093426
 20
5.3975217651
 30
0.0
 11
7.6319093426
 21
5.7281572678
 31
0.0
  0
LINE
  5
1BE
330
1B1
100
AcDbEntity
  8
0
  6
Continuous
 62
     7
370
     0
100
AcDbLine
 10
7.5119093426
 20
5.6581572678
 30
0.0
 11
7.2619093426
 21
5.6581572678
 31
0.0
  0
LINE
  5
1BF
330
1B1
100
AcDbEntity
  8
0
  6
Continuous
 62
     7
370
     0
100
AcDbLine
 10
7.6319093426
 20
5.6581572678
 30
0.0
 11
8.106797261
 21
5.6581572678
 31
0.0
  0
MTEXT
  5
1C0
330
1B1
100
AcDbEntity
  8
0
  6
Continuous
 62
     7
370
     0
100
AcDbMText
 10
8.1862196379
 20
5.7824777172
 30
0.0
 40
0.0833333333
 41
0.0
 71
     1
 72
     1
  1

  7
SLDTEXTSTYLE0
 73
     1
 44
1.0
  0
MTEXT
  5
1C1
330
1B1
100
AcDbEntity
  8
0
  6
Continuous
 62
     7
370
     0
100
AcDbMText
 10
8.2642288797
 20
5.7824777172
 30
0.0
 40
0.0833333333
 41
0.0
 71
     1
 72
     1
  1
0.12in
  7
SLDTEXTSTYLE0
 73
     1
 44
1.0
  0
MTEXT
  5
1C2
330
1B1
100
AcDbEntity
  8
0
  6
Continuous
 62
     7
370
     0
100
AcDbMText
 10
8.2358338352
 20
5.6331721611
 30
0.0
 40
0.0833333333
 41
0.0
 71
     1
 72
     1
  1
3.0mm
  7
SLDTEXTSTYLE0
 73
     1
 44
1.0
  0
MTEXT
  5
1C3
330
1B1
100
AcDbEntity
  8
0
  6
Continuous
 62
     7
370
     0
100
AcDbMText
 10
8.711219593
 20
5.7824777172
 30
0.0
 40
0.0833333333
 41
0.0
 71
     1
 72
     1
  1

  7
SLDTEXTSTYLE0
 73
     1
 44
1.0
  0
ENDBLK
  5
1B3
330
1B1
100
AcDbEntity
  8
0
100
AcDbBlockEnd
  0
BLOCK
  5
1C7
330
1C6
100
AcDbEntity
  8
0
100
AcDbBlockBegin
  2
_D_2
 70
     0
 10
0.0
 20
0.0
 30
0.0
  3
_D_2
  1
_D_2
  0
SOLID
  5
1C9
330
1C6
100
AcDbEntity
  8
0
  6
Continuous
 62
     7
370
     0
100
AcDbTrace
 10
8.4169295007
 20
5.2973422731
 30
0.0
 11
8.3969295007
 21
5.1723422731
 31
0.0
 12
8.4369295007
 22
5.1723422731
 32
0.0
 13
8.4369295007
 23
5.1723422731
 33
0.0
  0
SOLID
  5
1CA
330
1C6
100
AcDbEntity
  8
0
  6
Continuous
 62
     7
370
     0
100
AcDbTrace
 10
8.4169295007
 20
3.3973422731
 30
0.0
 11
8.4369295007
 21
3.5223422731
 31
0.0
 12
8.3969295007
 22
3.5223422731
 32
0.0
 13
8.3969295007
 23
3.5223422731
 33
0.0
  0
LINE
  5
1CB
330
1C6
100
AcDbEntity
  8
0
  6
Continuous
 62
     7
370
     0
100
AcDbLine
 10
8.1839241
 20
4.357990416
 30
0.0
 11
8.167025952
 21
4.357990416
 31
0.0
  0
LINE
  5
1CC
330
1C6
100
AcDbEntity
  8
0
  6
Continuous
 62
     7
370
     0
100
AcDbLine
 10
8.167025952
 20
4.357990416
 30
0.0
 11
8.167025952
 21
4.2255830114
 31
0.0
  0
LINE
  5
1CD
330
1C6
100
AcDbEntity
  8
0
  6
Continuous
 62
     7
370
     0
100
AcDbLine
 10
8.167025952
 20
4.2255830114
 30
0.0
 11
8.1839241
 21
4.2255830114
 31
0.0
  0
LINE
  5
1CE
330
1C6
100
AcDbEntity
  8
0
  6
Continuous
 62
     7
370
     0
100
AcDbLine
 10
8.6499349197
 20
4.357990416
 30
0.0
 11
8.6668330677
 21
4.357990416
 31
0.0
  0
LINE
  5
1CF
330
1C6
100
AcDbEntity
  8
0
  6
Continuous
 62
     7
370
     0
100
AcDbLine
 10
8.6668330677
 20
4.357990416
 30
0.0
 11
8.6668330677
 21
4.2255830114
 31
0.0
  0
LINE
  5
1D0
330
1C6
100
AcDbEntity
  8
0
  6
Continuous
 62
     7
370
     0
100
AcDbLine
 10
8.6668330677
 20
4.2255830114
 30
0.0
 11
8.6499349197
 21
4.2255830114
 31
0.0
  0
LINE
  5
1D1
330
1C6
100
AcDbEntity
  8
0
  6
Continuous
 62
     7
370
     0
100
AcDbLine
 10
7.6819093426
 20
5.2973422731
 30
0.0
 11
8.4869295007
 21
5.2973422731
 31
0.0
  0
LINE
  5
1D2
330
1C6
100
AcDbEntity
  8
0
  6
Continuous
 62
     7
370
     0
100
AcDbLine
 10
7.6819093426
 20
3.3973422731
 30
0.0
 11
8.4869295007
 21
3.3973422731
 31
0.0
  0
LINE
  5
1D3
330
1C6
100
AcDbEntity
  8
0
  6
Continuous
 62
     7
370
     0
100
AcDbLine
 10
8.4169295007
 20
5.2973422731
 30
0.0
 11
8.4169295007
 21
4.4859996772
 31
0.0
  0
LINE
  5
1D4
330
1C6
100
AcDbEntity
  8
0
  6
Continuous
 62
     7
370
     0
100
AcDbLine
 10
8.4169295007
 20
3.3973422731
 30
0.0
 11
8.4169295007
 21
4.2086848691
 31
0.0
  0
MTEXT
  5
1D5
330
1C6
100
AcDbEntity
  8
0
  6
Continuous
 62
     7
370
     0
100
AcDbMText
 10
8.2013353646
 20
4.4823108745
 30
0.0
 40
0.0833333333
 41
0.0
 71
     1
 72
     1
  1
%%c
  7
SLDTEXTSTYLE0
 73
     1
 44
1.0
  0
MTEXT
  5
1D6
330
1C6
100
AcDbEntity
  8
0
  6
Continuous
 62
     7
370
     0
100
AcDbMText
 10
8.327122404
 20
4.4823108745
 30
0.0
 40
0.0833333333
 41
0.0
 71
     1
 72
     1
  1
1.90in
  7
SLDTEXTSTYLE0
 73
     1
 44
1.0
  0
MTEXT
  5
1D7
330
1C6
100
AcDbEntity
  8
0
  6
Continuous
 62
     7
370
     0
100
AcDbMText
 10
8.2050467859
 20
4.3330053184
 30
0.0
 40
0.0833333333
 41
0.0
 71
     1
 72
     1
  1
48.3mm
  7
SLDTEXTSTYLE0
 73
     1
 44
1.0
  0
ENDBLK
  5
1C8
330
1C6
100
AcDbEntity
  8
0
100
AcDbBlockEnd
  0
BLOCK
  5
1DA
330
1D9
100
AcDbEntity
  8
0
100
AcDbBlockBegin
  2
_D_3
 70
     0
 10
0.0
 20
0.0
 30
0.0
  3
_D_3
  1
_D_3
  0
SOLID
  5
1DC
330
1D9
100
AcDbEntity
  8
0
  6
Continuous
 62
     7
370
     0
100
AcDbTrace
 10
7.6319093426
 20
5.9177571438
 30
0.0
 11
7.7569093426
 21
5.8977571438
 31
0.0
 12
7.7569093426
 22
5.9377571438
 32
0.0
 13
7.7569093426
 23
5.9377571438
 33
0.0
  0
SOLID
  5
1DD
330
1D9
100
AcDbEntity
  8
0
  6
Continuous
 62
     7
370
     0
100
AcDbTrace
 10
6.6819093426
 20
5.9177571438
 30
0.0
 11
6.5569093426
 21
5.9377571438
 31
0.0
 12
6.5569093426
 22
5.8977571438
 32
0.0
 13
6.5569093426
 23
5.8977571438
 33
0.0
  0
LINE
  5
1DE
330
1D9
100
AcDbEntity
  8
0
  6
Continuous
 62
     7
370
     0
100
AcDbLine
 10
6.9239039236
 20
5.9177571347
 30
0.0
 11
6.9070057756
 21
5.9177571347
 31
0.0
  0
LINE
  5
1DF
330
1D9
100
AcDbEntity
  8
0
  6
Continuous
 62
     7
370
     0
100
AcDbLine
 10
6.9070057756
 20
5.9177571347
 30
0.0
 11
6.9070057756
 21
5.7853497301
 31
0.0
  0
LINE
  5
1E0
330
1D9
100
AcDbEntity
  8
0
  6
Continuous
 62
     7
370
     0
100
AcDbLine
 10
6.9070057756
 20
5.7853497301
 30
0.0
 11
6.9239039236
 21
5.7853497301
 31
0.0
  0
LINE
  5
1E1
330
1D9
100
AcDbEntity
  8
0
  6
Continuous
 62
     7
370
     0
100
AcDbLine
 10
7.3899147433
 20
5.9177571347
 30
0.0
 11
7.4068128913
 21
5.9177571347
 31
0.0
  0
LINE
  5
1E2
330
1D9
100
AcDbEntity
  8
0
  6
Continuous
 62
     7
370
     0
100
AcDbLine
 10
7.4068128913
 20
5.9177571347
 30
0.0
 11
7.4068128913
 21
5.7853497301
 31
0.0
  0
LINE
  5
1E3
330
1D9
100
AcDbEntity
  8
0
  6
Continuous
 62
     7
370
     0
100
AcDbLine
 10
7.4068128913
 20
5.7853497301
 30
0.0
 11
7.3899147433
 21
5.7853497301
 31
0.0
  0
LINE
  5
1E4
330
1D9
100
AcDbEntity
  8
0
  6
Continuous
 62
     7
370
     0
100
AcDbLine
 10
7.6319093426
 20
5.3975217651
 30
0.0
 11
7.6319093426
 21
5.9877571438
 31
0.0
  0
LINE
  5
1E5
330
1D9
100
AcDbEntity
  8
0
  6
Continuous
 62
     7
370
     0
100
AcDbLine
 10
6.6819093426
 20
5.4873422731
 30
0.0
 11
6.6819093426
 21
5.9877571438
 31
0.0
  0
LINE
  5
1E6
330
1D9
100
AcDbEntity
  8
0
  6
Continuous
 62
     7
370
     0
100
AcDbLine
 10
7.6319093426
 20
5.9177571438
 30
0.0
 11
7.8819093426
 21
5.9177571438
 31
0.0
  0
LINE
  5
1E7
330
1D9
100
AcDbEntity
  8
0
  6
Continuous
 62
     7
370
     0
100
AcDbLine
 10
6.6819093426
 20
5.9177571438
 30
0.0
 11
6.4319093426
 21
5.9177571438
 31
0.0
  0
MTEXT
  5
1E8
330
1D9
100
AcDbEntity
  8
0
  6
Continuous
 62
     7
370
     0
100
AcDbMText
 10
6.8954124121
 20
6.0420775932
 30
0.0
 40
0.0833333333
 41
0.0
 71
     1
 72
     1
  1

  7
SLDTEXTSTYLE0
 73
     1
 44
1.0
  0
MTEXT
  5
1E9
330
1D9
100
AcDbEntity
  8
0
  6
Continuous
 62
     7
370
     0
100
AcDbMText
 10
7.0042087033
 20
6.0420775932
 30
0.0
 40
0.0833333333
 41
0.0
 71
     1
 72
     1
  1
0.95in
  7
SLDTEXTSTYLE0
 73
     1
 44
1.0
  0
MTEXT
  5
1EA
330
1D9
100
AcDbEntity
  8
0
  6
Continuous
 62
     7
370
     0
100
AcDbMText
 10
6.9450266095
 20
5.8927720372
 30
0.0
 40
0.0833333333
 41
0.0
 71
     1
 72
     1
  1
24.1mm
  7
SLDTEXTSTYLE0
 73
     1
 44
1.0
  0
MTEXT
  5
1EB
330
1D9
100
AcDbEntity
  8
0
  6
Continuous
 62
     7
370
     0
100
AcDbMText
 10
7.4819865026
 20
6.0420775932
 30
0.0
 40
0.0833333333
 41
0.0
 71
     1
 72
     1
  1

  7
SLDTEXTSTYLE0
 73
     1
 44
1.0
  0
ENDBLK
  5
1DB
330
1D9
100
AcDbEntity
  8
0
100
AcDbBlockEnd
  0
BLOCK
  5
1ED
330
1EC
100
AcDbEntity
  8
0
100
AcDbBlockBegin
  2
SW_NOTE_5
 70
     0
 10
0.0
 20
0.0
 30
0.0
  3
SW_NOTE_5
  1
SW_NOTE_5
  0
CIRCLE
  5
1EF
330
1EC
100
AcDbEntity
  8
0
  6
Continuous
 62
     0
370
     0
100
AcDbCircle
 10
-0.1752436686
 20
0.0
 30
0.0
 40
0.1752436685975056
  0
MTEXT
  5
1F0
330
1EC
100
AcDbEntity
  8
0
  6
Continuous
 62
     0
370
     0
100
AcDbMText
 10
-0.1765023493
 20
0.0643634991
 30
0.0
 40
0.125
 41
0.0
 71
     2
 72
     1
  1
1
  7
SLDTEXTSTYLE0
 73
     1
 44
1.0
  0
ENDBLK
  5
1EE
330
1EC
100
AcDbEntity
  8
0
100
AcDbBlockEnd
  0
BLOCK
  5
1F5
330
1F4
100
AcDbEntity
  8
0
100
AcDbBlockBegin
  2
SW_NOTE_6
 70
     0
 10
0.0
 20
0.0
 30
0.0
  3
SW_NOTE_6
  1
SW_NOTE_6
  0
CIRCLE
  5
1F7
330
1F4
100
AcDbEntity
  8
0
  6
Continuous
 62
     0
370
     0
100
AcDbCircle
 10
-0.1752436686
 20
0.0
 30
0.0
 40
0.1752436685975053
  0
MTEXT
  5
1F8
330
1F4
100
AcDbEntity
  8
0
  6
Continuous
 62
     0
370
     0
100
AcDbMText
 10
-0.1765023493
 20
0.0643634991
 30
0.0
 40
0.125
 41
0.0
 71
     2
 72
     1
  1
3
  7
SLDTEXTSTYLE0
 73
     1
 44
1.0
  0
ENDBLK
  5
1F6
330
1F4
100
AcDbEntity
  8
0
100
AcDbBlockEnd
  0
BLOCK
  5
1FC
330
1FB
100
AcDbEntity
  8
0
100
AcDbBlockBegin
  2
SW_NOTE_7
 70
     0
 10
0.0
 20
0.0
 30
0.0
  3
SW_NOTE_7
  1
SW_NOTE_7
  0
MTEXT
  5
1FF
330
1FB
100
AcDbEntity
  8
0
  6
Continuous
 62
     0
370
     0
100
AcDbMText
 10
0.0202402587
 20
0.0372381568
 30
0.0
 40
0.0833333333
 41
0.0
 71
     1
 72
     1
  1
SM2 (
  7
SLDTEXTSTYLE3
 73
     1
 44
1.0
  0
MTEXT
  5
200
330
1FB
100
AcDbEntity
  8
0
  6
Continuous
 62
     0
370
     0
100
AcDbMText
 10
0.3418451935
 20
0.0372381568
 30
0.0
 40
0.0833333333
 41
0.0
 71
     1
 72
     1
  1
%%c
  7
SLDTEXTSTYLE0
 73
     1
 44
1.0
  0
MTEXT
  5
201
330
1FB
100
AcDbEntity
  8
0
  6
Continuous
 62
     0
370
     0
100
AcDbMText
 10
0.4676322237
 20
0.0372381568
 30
0.0
 40
0.0833333333
 41
0.0
 71
     1
 72
     1
  1
2.035-40) SERIES EXTERNAL THREAD
  7
SLDTEXTSTYLE0
 73
     1
 44
1.0
  0
ENDBLK
  5
1FD
330
1FB
100
AcDbEntity
  8
0
100
AcDbBlockEnd
  0
BLOCK
  5
205
330
204
100
AcDbEntity
  8
0
100
AcDbBlockBegin
  2
SW_NOTE_8
 70
     0
 10
0.0
 20
0.0
 30
0.0
  3
SW_NOTE_8
  1
SW_NOTE_8
  0
CIRCLE
  5
207
330
204
100
AcDbEntity
  8
0
  6
Continuous
 62
     0
370
     0
100
AcDbCircle
 10
0.1752436686
 20
0.0
 30
0.0
 40
0.1752436685975056
  0
MTEXT
  5
208
330
204
100
AcDbEntity
  8
0
  6
Continuous
 62
     0
370
     0
100
AcDbMText
 10
0.1739849879
 20
0.0643634991
 30
0.0
 40
0.125
 41
0.0
 71
     2
 72
     1
  1
2
  7
SLDTEXTSTYLE0
 73
     1
 44
1.0
  0
ENDBLK
  5
206
330
204
100
AcDbEntity
  8
0
100
AcDbBlockEnd
  0
BLOCK
  5
20C
330
20B
100
AcDbEntity
  8
0
100
AcDbBlockBegin
  2
SW_NOTE_9
 70
     0
 10
0.0
 20
0.0
 30
0.0
  3
SW_NOTE_9
  1
SW_NOTE_9
  0
MTEXT
  5
20E
330
20B
100
AcDbEntity
  8
0
  6
Continuous
 62
     0
370
     0
100
AcDbMText
 10
-2.2706388342
 20
0.0384785071
 30
0.0
 40
0.0833333333
 41
0.0
 71
     1
 72
     1
  1
SM2 (
  7
SLDTEXTSTYLE3
 73
     1
 44
1.0
  0
MTEXT
  5
20F
330
20B
100
AcDbEntity
  8
0
  6
Continuous
 62
     0
370
     0
100
AcDbMText
 10
-1.9490338994
 20
0.0384785071
 30
0.0
 40
0.0833333333
 41
0.0
 71
     1
 72
     1
  1
%%c
  7
SLDTEXTSTYLE0
 73
     1
 44
1.0
  0
MTEXT
  5
210
330
20B
100
AcDbEntity
  8
0
  6
Continuous
 62
     0
370
     0
100
AcDbMText
 10
-1.8232468692
 20
0.0384785071
 30
0.0
 40
0.0833333333
 41
0.0
 71
     1
 72
     1
  1
2.035-40) SERIES INTERNAL THREAD
  7
SLDTEXTSTYLE0
 73
     1
 44
1.0
  0
ENDBLK
  5
20D
330
20B
100
AcDbEntity
  8
0
100
AcDbBlockEnd
  0
ENDSEC
  0
SECTION
  2
ENTITIES
  0
LINE
  5
7D
330
1F
100
AcDbEntity
  8
0
  6
Continuous
 62
     7
370
     0
100
AcDbLine
 10
0.0621791378
 20
8.4506055117
 30
0.0
 11
10.9444569626
 21
8.4506055117
 31
0.0
  0
LINE
  5
7E
330
1F
100
AcDbEntity
  8
0
  6
Continuous
 62
     7
370
     0
100
AcDbLine
 10
0.0621791378
 20
8.4506055117
 30
0.0
 11
0.0621791378
 21
0.035557648
 31
0.0
  0
LINE
  5
7F
330
1F
100
AcDbEntity
  8
0
  6
Continuous
 62
     7
370
     0
100
AcDbLine
 10
10.9444569626
 20
0.035557648
 30
0.0
 11
0.0621791378
 21
0.035557648
 31
0.0
  0
LINE
  5
80
330
1F
100
AcDbEntity
  8
0
  6
Continuous
 62
     7
370
     0
100
AcDbLine
 10
10.9444569626
 20
0.035557648
 30
0.0
 11
10.9444569626
 21
8.4506055117
 31
0.0
  0
LINE
  5
81
330
1F
100
AcDbEntity
  8
0
  6
Continuous
 62
     7
370
     0
100
AcDbLine
 10
8.4938096065
 20
0.4840901186
 30
0.0
 11
6.7571952625
 21
0.4840901186
 31
0.0
  0
LINE
  5
82
330
1F
100
AcDbEntity
  8
0
  6
Continuous
 62
     7
370
     0
100
AcDbLine
 10
6.7571952625
 20
0.4840901186
 30
0.0
 11
6.7571952625
 21
1.030163002
 31
0.0
  0
LINE
  5
83
330
1F
100
AcDbEntity
  8
0
  6
Continuous
 62
     7
370
     0
100
AcDbLine
 10
6.7571952625
 20
0.035557648
 30
0.0
 11
6.7571952625
 21
1.030163002
 31
0.0
  0
LINE
  5
84
330
1F
100
AcDbEntity
  8
0
  6
Continuous
 62
     7
370
     0
100
AcDbLine
 10
8.4938096065
 20
0.6756085809
 30
0.0
 11
10.9444569626
 21
0.6756085809
 31
0.0
  0
LINE
  5
85
330
1F
100
AcDbEntity
  8
0
  6
Continuous
 62
     7
370
     0
100
AcDbLine
 10
8.4938096065
 20
1.3873799542
 30
0.0
 11
8.4938096065
 21
0.035557648
 31
0.0
  0
LINE
  5
86
330
1F
100
AcDbEntity
  8
0
  6
Continuous
 62
     7
370
     0
100
AcDbLine
 10
8.4938096065
 20
1.030163002
 30
0.0
 11
6.7571952625
 21
1.030163002
 31
0.0
  0
LINE
  5
87
330
1F
100
AcDbEntity
  8
0
  6
Continuous
 62
     7
370
     0
100
AcDbLine
 10
8.4938096065
 20
0.3598787426
 30
0.0
 11
10.9444569626
 21
0.3598787426
 31
0.0
  0
LINE
  5
88
330
1F
100
AcDbEntity
  8
0
  6
Continuous
 62
     7
370
     0
100
AcDbLine
 10
8.4938096065
 20
0.6662079686
 30
0.0
 11
6.7571952625
 21
0.6662079686
 31
0.0
  0
LINE
  5
89
330
1F
100
AcDbEntity
  8
0
  6
Continuous
 62
     7
370
     0
100
AcDbLine
 10
8.4938096065
 20
0.8459606517
 30
0.0
 11
6.7571952625
 21
0.8459606517
 31
0.0
  0
LINE
  5
8A
330
1F
100
AcDbEntity
  8
0
  6
Continuous
 62
     7
370
     0
100
AcDbLine
 10
7.3281027587
 20
1.030163002
 30
0.0
 11
7.3281027587
 21
0.4840901186
 31
0.0
  0
LINE
  5
8B
330
1F
100
AcDbEntity
  8
0
  6
Continuous
 62
     7
370
     0
100
AcDbLine
 10
7.8037240401
 20
1.030163002
 30
0.0
 11
7.8037240401
 21
0.4840901186
 31
0.0
  0
LINE
  5
8C
330
1F
100
AcDbEntity
  8
0
  6
Continuous
 62
     7
370
     0
100
AcDbLine
 10
9.990119718
 20
0.3598787426
 30
0.0
 11
9.990119718
 21
0.035557648
 31
0.0
  0
LINE
  5
8D
330
1F
100
AcDbEntity
  8
0
  6
Continuous
 62
     7
370
     0
100
AcDbLine
 10
6.7571952625
 20
0.4840901186
 30
0.0
 11
6.7571952625
 21
0.297745443
 31
0.0
  0
LINE
  5
8E
330
1F
100
AcDbEntity
  8
0
  6
Continuous
 62
     7
370
     0
100
AcDbLine
 10
6.7571952625
 20
0.297745443
 30
0.0
 11
8.4938096065
 21
0.297745443
 31
0.0
  0
LINE
  5
8F
330
1F
100
AcDbEntity
  8
0
  6
Continuous
 62
     7
370
     0
100
AcDbLine
 10
6.7571952625
 20
0.297745443
 30
0.0
 11
6.7571952625
 21
1.3873799542
 31
0.0
  0
LINE
  5
90
330
1F
100
AcDbEntity
  8
0
  6
Continuous
 62
     7
370
     0
100
AcDbLine
 10
6.7571952625
 20
1.3873799542
 30
0.0
 11
8.4938096065
 21
1.3873799542
 31
0.0
  0
LINE
  5
91
330
1F
100
AcDbEntity
  8
0
  6
Continuous
 62
     7
370
     0
100
AcDbLine
 10
10.6365495992
 20
0.6756085809
 30
0.0
 11
10.6365495992
 21
0.3598787426
 31
0.0
  0
LINE
  5
92
330
1F
100
AcDbEntity
  8
0
  6
Continuous
 62
     7
370
     0
100
AcDbLine
 10
8.4938096065
 20
1.3873799542
 30
0.0
 11
10.9444569626
 21
1.3873799542
 31
0.0
  0
LINE
  5
93
330
1F
100
AcDbEntity
  8
0
  6
Continuous
 62
     7
370
     0
100
AcDbLine
 10
10.9444569626
 20
1.3873799542
 30
0.0
 11
10.9444569626
 21
1.9698084888
 31
0.0
  0
LINE
  5
94
330
1F
100
AcDbEntity
  8
0
  6
Continuous
 62
     7
370
     0
100
AcDbLine
 10
8.4938096065
 20
0.9800288797
 30
0.0
 11
10.9444569626
 21
0.9800288797
 31
0.0
  0
INSERT
  5
95
330
1F
100
AcDbEntity
  8
0
  6
Continuous
 62
     7
100
AcDbBlockReference
  2
Third Angle Projection Block
 10
4.6348905679
 20
0.6108753523
 30
0.0
 41
0.8
 42
0.8
 43
0.8
  0
MTEXT
  5
97
330
1F
100
AcDbEntity
  8
0
  6
Continuous
 62
     7
370
     0
100
AcDbMText
 10
10.7892734632
 20
0.5227176726
 30
0.0
 40
0.125
 41
0.0
 71
     2
 72
     1
  1
A
  7
SLDTEXTSTYLE0
 73
     1
 44
1.0
  0
MTEXT
  5
98
330
1F
100
AcDbEntity
  8
0
  6
Continuous
 62
     7
370
     0
100
AcDbMText
 10
9.2282004866
 20
0.2019943461
 30
0.0
 40
0.125
 41
0.0
 71
     2
 72
     1
  1
LA4464-ML
  7
SLDTEXTSTYLE0
 73
     1
 44
1.0
  0
MTEXT
  5
99
330
1F
100
AcDbEntity
  8
0
  6
Continuous
 62
     7
370
     0
100
AcDbMText
 10
8.5204715199
 20
0.6623747189
 30
0.0
 40
0.0833333333
 41
0.0
 71
     1
 72
     1
  1
MATERIAL
  7
SLDTEXTSTYLE0
 73
     1
 44
1.0
  0
MTEXT
  5
9A
330
1F
100
AcDbEntity
  8
0
  6
Continuous
 62
     7
370
     0
100
AcDbMText
 10
6.8594860853
 20
0.7895493672
 30
0.0
 40
0.0729166667
 41
0.0
 71
     1
 72
     1
  1
DRAWN
  7
SLDTEXTSTYLE0
 73
     1
 44
1.0
  0
MTEXT
  5
9B
330
1F
100
AcDbEntity
  8
0
  6
Continuous
 62
     7
370
     0
100
AcDbMText
 10
6.7872445848
 20
0.613335314
 30
0.0
 40
0.0729166667
 41
0.0
 71
     1
 72
     1
  1
APPROVAL
  7
SLDTEXTSTYLE0
 73
     1
 44
1.0
  0
MTEXT
  5
9C
330
1F
100
AcDbEntity
  8
0
  6
Continuous
 62
     7
370
     0
100
AcDbMText
 10
10.6936137314
 20
0.6373332609
 30
0.0
 40
0.0833333333
 41
0.0
 71
     1
 72
     1
  1
REV
  7
SLDTEXTSTYLE0
 73
     1
 44
1.0
  0
MTEXT
  5
9D
330
1F
100
AcDbEntity
  8
0
  6
Continuous
 62
     7
370
     0
100
AcDbMText
 10
7.4919633718
 20
0.7999100272
 30
0.0
 40
0.0833333333
 41
0.0
 71
     1
 72
     1
  1
GG
  7
SLDTEXTSTYLE0
 73
     1
 44
1.0
  0
MTEXT
  5
9E
330
1F
100
AcDbEntity
  8
0
  6
Continuous
 62
     7
370
     0
100
AcDbMText
 10
7.4919633718
 20
0.623695974
 30
0.0
 40
0.0833333333
 41
0.0
 71
     1
 72
     1
  1
DD
  7
SLDTEXTSTYLE0
 73
     1
 44
1.0
  0
MTEXT
  5
9F
330
1F
100
AcDbEntity
  8
0
  6
Continuous
 62
     7
370
     0
100
AcDbMText
 10
7.8687497515
 20
0.7999100272
 30
0.0
 40
0.0833333333
 41
0.0
 71
     1
 72
     1
  1
13/OCT/15
  7
SLDTEXTSTYLE0
 73
     1
 44
1.0
  0
MTEXT
  5
A0
330
1F
100
AcDbEntity
  8
0
  6
Continuous
 62
     7
370
     0
100
AcDbMText
 10
8.0163191884
 20
0.9772495896
 30
0.0
 40
0.0833333333
 41
0.0
 71
     1
 72
     1
  1
DATE
  7
SLDTEXTSTYLE0
 73
     1
 44
1.0
  0
MTEXT
  5
A1
330
1F
100
AcDbEntity
  8
0
  6
Continuous
 62
     7
370
     0
100
AcDbMText
 10
7.8687497515
 20
0.623695974
 30
0.0
 40
0.0833333333
 41
0.0
 71
     1
 72
     1
  1
13/OCT/15
  7
SLDTEXTSTYLE0
 73
     1
 44
1.0
  0
MTEXT
  5
A3
330
1F
100
AcDbEntity
  8
0
  6
Continuous
 62
     7
370
     0
100
AcDbMText
 10
9.0316104912
 20
1.0943207896
 30
0.0
 40
0.0833333333
 41
0.0
 71
     1
 72
     1
  1
w w w . t h o r  l a b s . c o m
  7
SLDTEXTSTYLE1
 73
     1
 44
1.0
  0
MTEXT
  5
A4
330
1F
100
AcDbEntity
  8
0
  6
Continuous
 62
     7
370
     0
100
AcDbMText
 10
8.5315119501
 20
0.328719653
 30
0.0
 40
0.0833333333
 41
0.0
 71
     1
 72
     1
  1
ITEM #
  7
SLDTEXTSTYLE0
 73
     1
 44
1.0
  0
MTEXT
  5
A5
330
1F
100
AcDbEntity
  8
0
  6
Continuous
 62
     7
370
     0
100
AcDbMText
 10
10.0209370115
 20
0.328719653
 30
0.0
 40
0.0833333333
 41
0.0
 71
     1
 72
     1
  1
APPROX WEIGHT
  7
SLDTEXTSTYLE0
 73
     1
 44
1.0
  0
MTEXT
  5
A6
330
1F
100
AcDbEntity
  8
0
  6
Continuous
 62
     7
370
     0
100
AcDbMText
 10
9.5949135982
 20
0.5414715262
 30
0.0
 40
0.125
 41
0.0
 71
     2
 72
     1
  1
SEE TABLE
  7
SLDTEXTSTYLE0
 73
     1
 44
1.0
  0
MTEXT
  5
A8
330
1F
100
AcDbEntity
  8
0
  6
Continuous
 62
     7
370
     0
100
AcDbMText
 10
10.4826226539
 20
0.2019943461
 30
0.0
 40
0.125
 41
0.0
 71
     2
 72
     1
  1
81 g
  7
SLDTEXTSTYLE2
 73
     1
 44
1.0
  0
INSERT
  5
AE
330
1F
100
AcDbEntity
  8
0
  6
Continuous
 62
     7
370
     0
100
AcDbBlockReference
  2
SW_NOTE_0
 10
6.8835832285
 20
0.1754273811
 30
0.0
  0
INSERT
  5
B4
330
1F
100
AcDbEntity
  8
0
  6
Continuous
 62
     7
370
     0
100
AcDbBlockReference
  2
SW_NOTE_1
 10
6.8719828753
 20
1.2001390658
 30
0.0
  0
MTEXT
  5
B5
330
1F
100
AcDbEntity
  8
0
  6
Continuous
 62
     7
370
     0
100
AcDbMText
 10
7.3987149145
 20
0.9772495896
 30
0.0
 40
0.0833333333
 41
0.0
 71
     1
 72
     1
  1
NAME
  7
SLDTEXTSTYLE0
 73
     1
 44
1.0
  0
INSERT
  5
BC
330
1F
100
AcDbEntity
  8
0
  6
Continuous
 62
     7
370
     0
100
AcDbBlockReference
  2
SW_NOTE_2
 10
8.5544172856
 20
0.8160048101
 30
0.0
  0
MTEXT
  5
BD
330
1F
100
AcDbEntity
  8
0
  6
Continuous
 62
     7
370
     0
100
AcDbMText
 10
7.0281258754
 20
0.4200025137
 30
0.0
 40
0.0625
 41
0.0
 71
     1
 72
     1
  1
COPYRIGHT © 2015 BY THORLABS
  7
SLDTEXTSTYLE0
 73
     1
 44
1.0
  0
INSERT
  5
C3
330
1F
100
AcDbEntity
  8
0
  6
Continuous
 62
     7
370
     0
100
AcDbBlockReference
  2
SW_NOTE_3
 10
2.1096529316
 20
0.3219551564
 30
0.0
  0
INSERT
  5
D6
330
1F
100
AcDbEntity
  8
0
  6
Continuous
 62
     7
370
     0
100
AcDbBlockReference
  2
SW_NOTE_4
 10
0.2229009106
 20
1.7636814979
 30
0.0
  0
INSERT
  5
100
330
1F
100
AcDbEntity
  8
0
  6
Continuous
 62
     7
370
     0
100
AcDbBlockReference
  2
SW_TABLEANNOTATION_0
 10
0.0612779343
 20
8.4504327236
 30
0.0
  0
ARC
  5
101
330
1F
100
AcDbEntity
  8
0
  6
Continuous
 62
     7
370
     0
100
AcDbCircle
 10
2.7058829266
 20
4.3473422731
 30
0.0
 40
1.000179491924312
100
AcDbArc
 50
180.8593146732
 51
359.1406853268
  0
LINE
  5
102
330
1F
100
AcDbEntity
  8
0
  6
Continuous
 62
     7
370
     0
100
AcDbLine
 10
3.7059499404
 20
4.3323422735
 30
0.0
 11
3.7232723203
 21
4.3323422735
 31
0.0
  0
LINE
  5
103
330
1F
100
AcDbEntity
  8
0
  6
Continuous
 62
     7
370
     0
100
AcDbLine
 10
1.6884935329
 20
4.3323422735
 30
0.0
 11
1.7058159128
 21
4.3323422735
 31
0.0
  0
ARC
  5
104
330
1F
100
AcDbEntity
  8
0
  6
Continuous
 62
     7
370
     0
100
AcDbCircle
 10
2.7058829266
 20
4.3473422731
 30
0.0
 40
1.000179491924312
100
AcDbArc
 50
0.8593146732
 51
179.1406853268
  0
LINE
  5
105
330
1F
100
AcDbEntity
  8
0
  6
Continuous
 62
     7
370
     0
100
AcDbLine
 10
1.7058159128
 20
4.3623422728
 30
0.0
 11
1.6884935329
 21
4.3623422728
 31
0.0
  0
LINE
  5
106
330
1F
100
AcDbEntity
  8
0
  6
Continuous
 62
     7
370
     0
100
AcDbLine
 10
3.7232723203
 20
4.3623422728
 30
0.0
 11
3.7059499404
 21
4.3623422728
 31
0.0
  0
ARC
  5
107
330
1F
100
AcDbEntity
  8
0
  6
Continuous
 62
     7
370
     0
100
AcDbCircle
 10
2.7058829266
 20
4.3473422731
 30
0.0
 40
0.9500000000000001
100
AcDbArc
 50
180.9047077972
 51
359.0952922028
  0
ARC
  5
108
330
1F
100
AcDbEntity
  8
0
  6
Continuous
 62
     7
370
     0
100
AcDbCircle
 10
2.7058829266
 20
4.3473422731
 30
0.0
 40
0.9600000000000013
100
AcDbArc
 50
180.8952829866
 51
359.1047170134
  0
LINE
  5
109
330
1F
100
AcDbEntity
  8
0
  6
Continuous
 62
     7
370
     0
100
AcDbLine
 10
1.7460001353
 20
4.3323422735
 30
0.0
 11
1.7560013664
 21
4.3323422735
 31
0.0
  0
LINE
  5
10A
330
1F
100
AcDbEntity
  8
0
  6
Continuous
 62
     7
370
     0
100
AcDbLine
 10
3.6557644869
 20
4.3323422735
 30
0.0
 11
3.665765718
 21
4.3323422735
 31
0.0
  0
ARC
  5
10B
330
1F
100
AcDbEntity
  8
0
  6
Continuous
 62
     7
370
     0
100
AcDbCircle
 10
2.7058829266
 20
4.3473422731
 30
0.0
 40
0.9500000000000001
100
AcDbArc
 50
0.9047077972
 51
179.0952922028
  0
LINE
  5
10C
330
1F
100
AcDbEntity
  8
0
  6
Continuous
 62
     7
370
     0
100
AcDbLine
 10
1.7560013664
 20
4.3623422728
 30
0.0
 11
1.7460001353
 21
4.3623422728
 31
0.0
  0
ARC
  5
10D
330
1F
100
AcDbEntity
  8
0
  6
Continuous
 62
     7
370
     0
100
AcDbCircle
 10
2.7058829266
 20
4.3473422731
 30
0.0
 40
0.9600000000000013
100
AcDbArc
 50
0.8952829866
 51
179.1047170134
  0
LINE
  5
10E
330
1F
100
AcDbEntity
  8
0
  6
Continuous
 62
     7
370
     0
100
AcDbLine
 10
3.665765718
 20
4.3623422728
 30
0.0
 11
3.6557644869
 21
4.3623422728
 31
0.0
  0
LINE
  5
10F
330
1F
100
AcDbEntity
  8
0
  6
Continuous
 62
     7
370
     0
100
AcDbLine
 10
1.7058159128
 20
4.3323422735
 30
0.0
 11
1.7460001353
 21
4.3323422735
 31
0.0
  0
LINE
  5
110
330
1F
100
AcDbEntity
  8
0
  6
Continuous
 62
     7
370
     0
100
AcDbLine
 10
3.665765718
 20
4.3323422735
 30
0.0
 11
3.7059499404
 21
4.3323422735
 31
0.0
  0
LINE
  5
111
330
1F
100
AcDbEntity
  8
0
  6
Continuous
 62
     7
370
     0
100
AcDbLine
 10
1.7460001353
 20
4.3623422728
 30
0.0
 11
1.7058159128
 21
4.3623422728
 31
0.0
  0
LINE
  5
112
330
1F
100
AcDbEntity
  8
0
  6
Continuous
 62
     7
370
     0
100
AcDbLine
 10
3.7059499404
 20
4.3623422728
 30
0.0
 11
3.665765718
 21
4.3623422728
 31
0.0
  0
ARC
  5
113
330
1F
100
AcDbEntity
  8
0
  6
Continuous
 62
     7
370
     0
100
AcDbCircle
 10
2.7058829266
 20
4.3473422731
 30
0.0
 40
0.9499999999999997
100
AcDbArc
 50
359.0952922028
 51
0.9047077972
  0
ARC
  5
114
330
1F
100
AcDbEntity
  8
0
  6
Continuous
 62
     7
370
     0
100
AcDbCircle
 10
2.7058829266
 20
4.3473422731
 30
0.0
 40
0.9500000000000001
100
AcDbArc
 50
179.0952922028
 51
180.9047077972
  0
CIRCLE
  5
115
330
1F
100
AcDbEntity
  8
0
  6
Continuous
 62
     7
370
     0
100
AcDbCircle
 10
2.7058829266
 20
4.3473422731
 30
0.0
 40
1.1
  0
CIRCLE
  5
116
330
1F
100
AcDbEntity
  8
0
  6
Continuous
 62
     7
370
     0
100
AcDbCircle
 10
2.7058829266
 20
4.3473422731
 30
0.0
 40
1.09
  0
CIRCLE
  5
117
330
1F
100
AcDbEntity
  8
0
  6
Continuous
 62
     7
370
     0
100
AcDbCircle
 10
2.7058829266
 20
4.3473422731
 30
0.0
 40
1.034820508075689
  0
CIRCLE
  5
118
330
1F
100
AcDbEntity
  8
0
  6
Continuous
 62
     7
370
     0
100
AcDbCircle
 10
2.7058829266
 20
4.3473422731
 30
0.0
 40
1.0175
  0
DIMENSION
  5
119
330
1F
100
AcDbEntity
  8
0
  6
Continuous
 62
     7
370
     0
100
AcDbDimension
  2
_D
 10
2.1558829266
 20
3.394714329
 30
0.0
 11
3.912092262
 21
5.7158192655
 31
0.0
 70
   163
  1
<>
 71
     1
 42
-1.0
  3
SLDDIMSTYLE0
100
AcDbDiametricDimension
 15
3.2558829266
 25
5.2999702173
 35
0.0
 40
0.0
  0
LINE
  5
12A
330
1F
100
AcDbEntity
  8
0
  6
PHANTOM
 62
     7
370
    30
100
AcDbLine
 10
2.7058829266
 20
5.7113422731
 30
0.0
 11
2.7058829266
 21
2.9833422731
 31
0.0
  0
LINE
  5
12B
330
1F
100
AcDbEntity
  8
0
  6
Continuous
 62
     7
370
    30
100
AcDbLine
 10
2.7058829266
 20
5.7113422731
 30
0.0
 11
2.3558829266
 21
5.7113422731
 31
0.0
  0
SOLID
  5
12C
330
1F
100
AcDbEntity
  8
0
  6
Continuous
 62
     7
370
    30
100
AcDbTrace
 10
2.3558829266
 20
5.7113422731
 30
0.0
 11
2.5058829266
 21
5.6863422731
 31
0.0
 12
2.5058829266
 22
5.7363422731
 32
0.0
 13
2.5058829266
 23
5.7363422731
 33
0.0
  0
LINE
  5
12D
330
1F
100
AcDbEntity
  8
0
  6
Continuous
 62
     7
370
    30
100
AcDbLine
 10
2.7058829266
 20
2.9833422731
 30
0.0
 11
2.3558829266
 21
2.9833422731
 31
0.0
  0
SOLID
  5
12E
330
1F
100
AcDbEntity
  8
0
  6
Continuous
 62
     7
370
    30
100
AcDbTrace
 10
2.3558829266
 20
2.9833422731
 30
0.0
 11
2.5058829266
 21
2.9583422731
 31
0.0
 12
2.5058829266
 22
3.0083422731
 32
0.0
 13
2.5058829266
 23
3.0083422731
 33
0.0
  0
MTEXT
  5
12F
330
1F
100
AcDbEntity
  8
0
  6
Continuous
 62
     7
100
AcDbMText
 10
2.2218301167
 20
5.7940444222
 30
0.0
 40
0.1041666667
 41
0.0
 71
     1
 72
     1
  1
A
  7
SLDTEXTSTYLE0
 73
     1
 44
1.0
  0
MTEXT
  5
130
330
1F
100
AcDbEntity
  8
0
  6
Continuous
 62
     7
100
AcDbMText
 10
2.2218301167
 20
3.0660444222
 30
0.0
 40
0.1041666667
 41
0.0
 71
     1
 72
     1
  1
A
  7
SLDTEXTSTYLE0
 73
     1
 44
1.0
  0
ARC
  5
131
330
1F
100
AcDbEntity
  8
0
  6
Continuous
 62
     7
370
     0
100
AcDbCircle
 10
10.1806039974
 20
7.4298479374
 30
0.0
 40
1.086614173228347
100
AcDbArc
 50
156.4774714725
 51
263.5171519948
  0
LINE
  5
132
330
1F
100
AcDbEntity
  8
0
  6
Continuous
 62
     7
370
     0
100
AcDbLine
 10
8.6270807115
 20
7.431066957
 30
0.0
 11
8.6270807115
 21
7.4229028759
 31
0.0
  0
LINE
  5
133
330
1F
100
AcDbEntity
  8
0
  6
Continuous
 62
     7
370
     0
100
AcDbLine
 10
9.397701835
 20
6.0880032974
 30
0.0
 11
9.4047717536
 21
6.0839205934
 31
0.0
  0
LINE
  5
134
330
1F
100
AcDbEntity
  8
0
  6
Continuous
 62
     7
370
     0
100
AcDbLine
 10
9.4276993606
 20
8.2653415294
 30
0.0
 11
8.8549428679
 21
7.9346962441
 31
0.0
  0
LINE
  5
135
330
1F
100
AcDbEntity
  8
0
  6
Continuous
 62
     7
370
     0
100
AcDbLine
 10
9.9548534738
 20
6.0293887469
 30
0.0
 11
10.5276099665
 21
6.3600340322
 31
0.0
  0
LINE
  5
136
330
1F
100
AcDbEntity
  8
0
  6
Continuous
 62
     7
370
     0
100
AcDbLine
 10
10.7554721229
 20
6.8636633193
 30
0.0
 11
10.7554721229
 21
6.8718274004
 31
0.0
  0
LINE
  5
137
330
1F
100
AcDbEntity
  8
0
  6
Continuous
 62
     7
370
     0
100
AcDbLine
 10
9.9848509994
 20
8.2067269789
 30
0.0
 11
9.9777810808
 21
8.2108096829
 31
0.0
  0
ARC
  5
138
330
1F
100
AcDbEntity
  8
0
  6
Continuous
 62
     7
370
     0
100
AcDbCircle
 10
9.6779939239
 20
7.6077568009
 30
0.0
 40
0.6412353319301565
100
AcDbArc
 50
151.8814586797
 51
180.8475659646
  0
LINE
  5
139
330
1F
100
AcDbEntity
  8
0
  6
Continuous
 62
     7
370
     0
100
AcDbLine
 10
9.0368287506
 20
7.5982714701
 30
0.0
 11
9.0316510156
 21
7.609424594
 31
0.0
  0
ARC
  5
13A
330
1F
100
AcDbEntity
  8
0
  6
Continuous
 62
     7
370
     0
100
AcDbCircle
 10
9.6805886918
 20
7.6212674649
 30
0.0
 40
0.6490457311724788
100
AcDbArc
 50
153.525676047
 51
181.0455105811
  0
LWPOLYLINE
  5
13B
330
1F
100
AcDbEntity
  8
0
  6
Continuous
 62
     7
370
     0
100
AcDbPolyline
 90
        3
 70
   128
 43
0.0
 10
9.0422141516
 20
7.5951625443
 10
9.0422234115
 20
7.5941330596
 10
9.0422576173
 20
7.5910514305
  0
LINE
  5
13C
330
1F
100
AcDbEntity
  8
0
  6
Continuous
 62
     7
370
     0
100
AcDbLine
 10
9.0316510156
 20
7.5849283696
 30
0.0
 11
9.0422576173
 21
7.5910514305
 31
0.0
  0
LWPOLYLINE
  5
13D
330
1F
100
AcDbEntity
  8
0
  6
Continuous
 62
     7
370
     0
100
AcDbPolyline
 90
       29
 70
   128
 43
0.0
 10
10.0563465078
 20
6.253306563
 10
10.0547042552
 20
6.2533688661
 10
10.0273850595
 20
6.2552425332
 10
9.9995901409
 20
6.25871146
 10
9.9713673502
 20
6.2637696745
 10
9.9427652749
 20
6.2704084686
 10
9.9138331554
 20
6.2786164132
 10
9.8846208004
 20
6.2883793778
 10
9.8551785009
 20
6.2996805547
 10
9.8255569439
 20
6.3125004882
 10
9.795807125
 20
6.3268171079
 10
9.7659802605
 20
6.3426057667
 10
9.7361276993
 20
6.3598392835
 10
9.7063008347
 20
6.3784879894
 10
9.6765510158
 20
6.3985197795
 10
9.6469294588
 20
6.4199001677
 10
9.6174871594
 20
6.4425923462
 10
9.5882748043
 20
6.4665572488
 10
9.5593426849
 20
6.4917536183
 10
9.5307406096
 20
6.5181380774
 10
9.5025178189
 20
6.5456652035
 10
9.4747229002
 20
6.5742876067
 10
9.4474037045
 20
6.6039560116
 10
9.4206072636
 20
6.634619342
 10
9.3943797094
 20
6.6662248089
 10
9.3687661945
 20
6.6987180012
 10
9.3438108142
 20
6.7320429798
 10
9.3195565311
 20
6.7661423733
 10
9.3132479886
 20
6.7753069413
  0
ARC
  5
13E
330
1F
100
AcDbEntity
  8
0
  6
Continuous
 62
     7
370
     0
100
AcDbCircle
 10
10.4473737897
 20
7.6393794869
 30
0.0
 40
1.416769528689907
100
AcDbArc
 50
182.2026079152
 51
206.5524327017
  0
ARC
  5
13F
330
1F
100
AcDbEntity
  8
0
  6
Continuous
 62
     7
370
     0
100
AcDbCircle
 10
9.648355187
 20
7.5965343637
 30
0.0
 40
0.5832963270399225
100
AcDbArc
 50
148.0031583896
 51
181.440781632
  0
LINE
  5
140
330
1F
100
AcDbEntity
  8
0
  6
Continuous
 62
     7
370
     0
100
AcDbLine
 10
9.0652432712
 20
7.5818681165
 30
0.0
 11
9.0368287506
 21
7.5982714701
 31
0.0
  0
ARC
  5
141
330
1F
100
AcDbEntity
  8
0
  6
Continuous
 62
     7
370
     0
100
AcDbCircle
 10
9.6619039334
 20
7.5993762822
 30
0.0
 40
0.577523841907966
100
AcDbArc
 50
148.2995406411
 51
181.4407124481
  0
LINE
  5
142
330
1F
100
AcDbEntity
  8
0
  6
Continuous
 62
     7
370
     0
100
AcDbLine
 10
9.0845626602
 20
7.5848558739
 30
0.0
 11
9.0652432712
 21
7.5818681165
 31
0.0
  0
ARC
  5
143
330
1F
100
AcDbEntity
  8
0
  6
Continuous
 62
     7
370
     0
100
AcDbCircle
 10
10.1098372093
 20
7.5767759351
 30
0.0
 40
1.025405966153556
100
AcDbArc
 50
180.9173186949
 51
187.8387732339
  0
ARC
  5
144
330
1F
100
AcDbEntity
  8
0
  6
Continuous
 62
     7
370
     0
100
AcDbCircle
 10
10.0879528971
 20
6.9947543751
 30
0.0
 40
0.6761446045965627
100
AcDbArc
 50
228.886107789
 51
269.7585133382
  0
LINE
  5
145
330
1F
100
AcDbEntity
  8
0
  6
Continuous
 62
     7
370
     0
100
AcDbLine
 10
9.089992881
 20
7.5634944493
 30
0.0
 11
9.0845626602
 21
7.5603596496
 31
0.0
  0
ARC
  5
146
330
1F
100
AcDbEntity
  8
0
  6
Continuous
 62
     7
370
     0
100
AcDbCircle
 10
9.9856468529
 20
7.5757425615
 30
0.0
 40
0.8957377147082632
100
AcDbArc
 50
179.2165262291
 51
180.7834737709
  0
LINE
  5
147
330
1F
100
AcDbEntity
  8
0
  6
Continuous
 62
     7
370
     0
100
AcDbLine
 10
9.0845626602
 20
7.5848558739
 30
0.0
 11
9.089992881
 21
7.5879906737
 31
0.0
  0
ARC
  5
148
330
1F
100
AcDbEntity
  8
0
  6
Continuous
 62
     7
370
     0
100
AcDbCircle
 10
9.5973009037
 20
7.6841190214
 30
0.0
 40
0.4502997821702152
100
AcDbArc
 50
151.8333273952
 51
156.5207451205
  0
ARC
  5
149
330
1F
100
AcDbEntity
  8
0
  6
Continuous
 62
     7
370
     0
100
AcDbCircle
 10
10.1092842456
 20
6.8001060948
 30
0.0
 40
0.4528467398665881
100
AcDbArc
 50
263.4870674246
 51
268.1481069943
  0
ARC
  5
14A
330
1F
100
AcDbEntity
  8
0
  6
Continuous
 62
     7
370
     0
100
AcDbCircle
 10
10.416780573
 20
7.6260707824
 30
0.0
 40
1.380942379447688
100
AcDbArc
 50
182.1702789453
 51
205.0908608819
  0
LWPOLYLINE
  5
14B
330
1F
100
AcDbEntity
  8
0
  6
Continuous
 62
     7
370
     0
100
AcDbPolyline
 90
       28
 70
   128
 43
0.0
 10
9.3361056442
 20
6.7460695428
 10
9.3512814203
 20
6.7252759786
 10
9.3763537297
 20
6.6923399459
 10
9.4020759432
 20
6.6602621073
 10
9.4284025883
 20
6.6290991708
 10
9.4552871241
 20
6.598906227
 10
9.4826820235
 20
6.5697366519
 10
9.5105388571
 20
6.5416420119
 10
9.5388083789
 20
6.5146719737
 10
9.5674406134
 20
6.4888742154
 10
9.5963849437
 20
6.464294343
 10
9.6255902014
 20
6.4409758094
 10
9.6550047566
 20
6.4189598377
 10
9.6845766097
 20
6.3982853483
 10
9.7142534826
 20
6.37898889
 10
9.7439829121
 20
6.3611045756
 10
9.7737123415
 20
6.3446640214
 10
9.8033892144
 20
6.3296962915
 10
9.8329610675
 20
6.3162278462
 10
9.8623756227
 20
6.3042824953
 10
9.8915808804
 20
6.2938813561
 10
9.9205252107
 20
6.285042816
 10
9.9491574452
 20
6.2777825001
 10
9.977426967
 20
6.2721132432
 10
10.0052838006
 20
6.2680450676
 10
10.0326787
 20
6.2655851652
 10
10.0595632358
 20
6.2647378846
 10
10.0622103475
 20
6.2647418811
  0
LINE
  5
14C
330
1F
100
AcDbEntity
  8
0
  6
Continuous
 62
     7
370
     0
100
AcDbLine
 10
9.0316510156
 20
7.5849283696
 30
0.0
 11
9.0368287506
 21
7.5737752457
 31
0.0
  0
LINE
  5
14D
330
1F
100
AcDbEntity
  8
0
  6
Continuous
 62
     7
370
     0
100
AcDbLine
 10
9.0368287506
 20
7.5737752457
 30
0.0
 11
9.0652432712
 21
7.5573718921
 31
0.0
  0
LWPOLYLINE
  5
14E
330
1F
100
AcDbEntity
  8
0
  6
Continuous
 62
     7
370
     0
100
AcDbPolyline
 90
       22
 70
   128
 43
0.0
 10
10.0790531094
 20
6.3026311377
 10
10.0634455459
 20
6.3017223118
 10
10.0376435338
 20
6.3015319308
 10
10.0113084933
 20
6.3029320645
 10
9.9844882255
 20
6.3059201716
 10
9.9572314124
 20
6.3104908281
 10
9.9295875282
 20
6.316635738
 10
9.9016067498
 20
6.3243437474
 10
9.8733398657
 20
6.3336008654
 10
9.8448381836
 20
6.3443902892
 10
9.8161534373
 20
6.3566924347
 10
9.7873376931
 20
6.3704849723
 10
9.7584432548
 20
6.3857428666
 10
9.7295225693
 20
6.402438423
 10
9.700628131
 20
6.4205413369
 10
9.6718123868
 20
6.4400187496
 10
9.6431276405
 20
6.4608353071
 10
9.6146259584
 20
6.482953225
 10
9.5863590743
 20
6.5063323567
 10
9.5583782959
 20
6.5309302664
 10
9.5307344117
 20
6.5567023058
 10
9.5200709995
 20
6.5670463842
  0
ARC
  5
14F
330
1F
100
AcDbEntity
  8
0
  6
Continuous
 62
     7
370
     0
100
AcDbCircle
 10
10.213465168
 20
7.5828929966
 30
0.0
 40
1.148505485846551
100
AcDbArc
 50
181.2732825023
 51
194.8103549358
  0
LINE
  5
150
330
1F
100
AcDbEntity
  8
0
  6
Continuous
 62
     7
370
     0
100
AcDbLine
 10
9.0652432712
 20
7.5573718921
 30
0.0
 11
9.0845626602
 21
7.5603596496
 31
0.0
  0
LINE
  5
151
330
1F
100
AcDbEntity
  8
0
  6
Continuous
 62
     7
370
     0
100
AcDbLine
 10
9.0422576173
 20
7.5910514305
 30
0.0
 11
9.089992881
 21
7.5634944493
 31
0.0
  0
LWPOLYLINE
  5
152
330
1F
100
AcDbEntity
  8
0
  6
Continuous
 62
     7
370
     0
100
AcDbPolyline
 90
      120
 70
   128
 43
0.0
 10
8.6270807115
 20
7.431066957
 10
8.6276956562
 20
7.4664210558
 10
8.6295395177
 20
7.5010092526
 10
8.6326093807
 20
7.5347768563
 10
8.636900391
 20
7.5676704733
 10
8.6424057636
 20
7.5996380921
 10
8.6491167935
 20
7.6306291654
 10
8.657022869
 20
7.6605946898
 10
8.6661114892
 20
7.6894872837
 10
8.6763682829
 20
7.7172612619
 10
8.6877770321
 20
7.7438727082
 10
8.7003196973
 20
7.7692795444
 10
8.7139764458
 20
7.7934415969
 10
8.7287256836
 20
7.8163206607
 10
8.7445440891
 20
7.8378805592
 10
8.7614066502
 20
7.8580872019
 10
8.7792867035
 20
7.8769086378
 10
8.7981559773
 20
7.8943151063
 10
8.8179846351
 20
7.9102790844
 10
8.8387413239
 20
7.9247753296
 10
8.860393223
 20
7.9377809205
 10
8.8829060963
 20
7.9492752924
 10
8.9062443465
 20
7.9592402705
 10
8.9303710708
 20
7.9676600981
 10
8.95524812
 20
7.9745214616
 10
8.9808361583
 20
7.9798135119
 10
9.0070947259
 20
7.9835278811
 10
9.0339823024
 20
7.9856586961
 10
9.0614563732
 20
7.9862025875
 10
9.0894734961
 20
7.9851586955
 10
9.1179893702
 20
7.9825286706
 10
9.1469589061
 20
7.9783166713
 10
9.176336297
 20
7.9725293579
 10
9.2060750912
 20
7.9651758811
 10
9.2361282656
 20
7.9562678683
 10
9.2664482998
 20
7.945819405
 10
9.2969872518
 20
7.9338470123
 10
9.3276968331
 20
7.920369621
 10
9.3585284856
 20
7.9054085416
 10
9.3894334581
 20
7.8889874308
 10
9.4203628835
 20
7.8711322536
 10
9.451267856
 20
7.8518712427
 10
9.4820995085
 20
7.8312348538
 10
9.5128090898
 20
7.8092557172
 10
9.5433480418
 20
7.7859685865
 10
9.5736680761
 20
7.7614102834
 10
9.6037212504
 20
7.7356196396
 10
9.6334600446
 20
7.7086374355
 10
9.6628374355
 20
7.6805063354
 10
9.6918069714
 20
7.6512708204
 10
9.7203228455
 20
7.6209771179
 10
9.7483399684
 20
7.5896731284
 10
9.7758140392
 20
7.55740835
 10
9.8027016158
 20
7.5242337999
 10
9.8289601833
 20
7.4902019339
 10
9.8545482217
 20
7.4553665634
 10
9.8794252709
 20
7.4197827702
 10
9.9035519952
 20
7.3835068197
 10
9.9268902453
 20
7.3465960716
 10
9.9494031187
 20
7.3091088894
 10
9.9710550178
 20
7.2711045479
 10
9.9918117066
 20
7.2326431399
 10
10.0116403644
 20
7.1937854808
 10
10.0305096381
 20
7.1545930126
 10
10.0483896915
 20
7.1151277065
 10
10.0652522525
 20
7.0754519653
 10
10.081070658
 20
7.0356285245
 10
10.0958198958
 20
6.9957203532
 10
10.1094766444
 20
6.9557905544
 10
10.1220193095
 20
6.9159022653
 10
10.1334280587
 20
6.8761185576
 10
10.1436848525
 20
6.8365023373
 10
10.1527734726
 20
6.797116246
 10
10.1606795482
 20
6.758022561
 10
10.167390578
 20
6.7192830976
 10
10.1728959507
 20
6.6809591109
 10
10.177186961
 20
6.6431111988
 10
10.1802568239
 20
6.6057992068
 10
10.1821006855
 20
6.5690821328
 10
10.1827156301
 20
6.533018034
 10
10.1821006855
 20
6.4976639351
 10
10.1802568239
 20
6.4630757384
 10
10.177186961
 20
6.4293081347
 10
10.1728959507
 20
6.3964145177
 10
10.167390578
 20
6.3644468989
 10
10.1606795482
 20
6.3334558256
 10
10.1527734726
 20
6.3034903012
 10
10.1436848525
 20
6.2745977073
 10
10.1334280587
 20
6.246823729
 10
10.1220193095
 20
6.2202122827
 10
10.1094766444
 20
6.1948054466
 10
10.0958198958
 20
6.1706433941
 10
10.081070658
 20
6.1477643303
 10
10.0652522525
 20
6.1262044317
 10
10.0483896915
 20
6.1059977891
 10
10.0305096381
 20
6.0871763532
 10
10.0116403644
 20
6.0697698846
 10
9.9918117066
 20
6.0538059066
 10
9.9710550178
 20
6.0393096613
 10
9.9494031187
 20
6.0263040705
 10
9.9268902453
 20
6.0148096985
 10
9.9035519952
 20
6.0048447204
 10
9.8794252709
 20
5.9964248929
 10
9.8545482217
 20
5.9895635294
 10
9.8289601833
 20
5.9842714791
 10
9.8027016158
 20
5.9805571099
 10
9.7758140392
 20
5.9784262949
 10
9.7483399684
 20
5.9778824034
 10
9.7203228455
 20
5.9789262955
 10
9.6918069714
 20
5.9815563204
 10
9.6628374355
 20
5.9857683196
 10
9.6334600446
 20
5.9915556331
 10
9.6037212504
 20
5.9989091099
 10
9.5736680761
 20
6.0078171227
 10
9.5433480418
 20
6.018265586
 10
9.5128090898
 20
6.0302379787
 10
9.4820995085
 20
6.04371537
 10
9.451267856
 20
6.0586764493
 10
9.4203628835
 20
6.0750975602
 10
9.4047717536
 20
6.0839205934
  0
LWPOLYLINE
  5
153
330
1F
100
AcDbEntity
  8
0
  6
Continuous
 62
     7
370
     0
100
AcDbPolyline
 90
      158
 70
   128
 43
0.0
 10
8.6270807115
 20
7.4229028759
 10
8.6276978519
 20
7.3869368788
 10
8.6295482848
 20
7.3503159429
 10
8.6326290468
 20
7.3130987133
 10
8.6369352045
 20
7.2753447901
 10
8.6424598619
 20
7.2371146326
 10
8.6491941718
 20
7.1984694632
 10
8.6571273497
 20
7.1594711684
 10
8.6662466914
 20
7.1201822007
 10
8.6765375931
 20
7.0806654776
 10
8.6879835749
 20
7.0409842817
 10
8.700566307
 20
7.0012021589
 10
8.7142656393
 20
6.9613828166
 10
8.7290596336
 20
6.9215900218
 10
8.7449245987
 20
6.8818874992
 10
8.7618351282
 20
6.8423388288
 10
8.7797641414
 20
6.8030073442
 10
8.7986829267
 20
6.7639560312
 10
8.8185611873
 20
6.7252474269
 10
8.83936709
 20
6.6869435198
 10
8.861067316
 20
6.64910565
 10
8.8836271144
 20
6.6117944115
 10
8.9070103576
 20
6.5750695549
 10
8.9311795995
 20
6.5389898917
 10
8.9560961353
 20
6.5036132002
 10
8.9817200634
 20
6.4689961331
 10
9.0080103494
 20
6.4351941264
 10
9.0349248917
 20
6.4022613109
 10
9.0624205891
 20
6.3702504257
 10
9.0904534098
 20
6.3392127332
 10
9.1189784617
 20
6.3091979376
 10
9.1479500645
 20
6.2802541048
 10
9.1773218229
 20
6.2524275857
 10
9.2070467006
 20
6.225762942
 10
9.2370770958
 20
6.2003028747
 10
9.2673649177
 20
6.1760881559
 10
9.297861663
 20
6.1531575632
 10
9.328518494
 20
6.1315478179
 10
9.3592863164
 20
6.111293526
 10
9.3901158584
 20
6.092427123
 10
9.4209577493
 20
6.0749788217
 10
9.4517625985
 20
6.0589765639
 10
9.4824810749
 20
6.044445976
 10
9.5130639856
 20
6.0314103272
 10
9.5434623549
 20
6.019890493
 10
9.5736275024
 20
6.0099049214
 10
9.6035111215
 20
6.0014696033
 10
9.6330653561
 20
5.9945980472
 10
9.662242878
 20
5.9893012573
 10
9.6909969618
 20
5.9855877158
 10
9.7192815606
 20
5.9834633697
 10
9.7470513791
 20
5.9829316209
 10
9.7742619464
 20
5.983993321
 10
9.8008696873
 20
5.9866467697
 10
9.8268319918
 20
5.9908877178
 10
9.8521072838
 20
5.9967093739
 10
9.876655087
 20
6.0041024149
 10
9.9004360905
 20
6.0130550018
 10
9.923412211
 20
6.0235527976
 10
9.9455466544
 20
6.0355789911
 10
9.9668039744
 20
6.0491143235
 10
9.9871501293
 20
6.0641371192
 10
10.0065525365
 20
6.0806233204
 10
10.0249801249
 20
6.0985465261
 10
10.0424033843
 20
6.1178780337
 10
10.058794413
 20
6.1385868858
 10
10.0741269623
 20
6.1606399189
 10
10.0883764783
 20
6.184001817
 10
10.1015201418
 20
6.2086351683
 10
10.1135369045
 20
6.2345005245
 10
10.1244075225
 20
6.2615564648
 10
10.1341145875
 20
6.2897596613
 10
10.1426425546
 20
6.3190649494
 10
10.1499777669
 20
6.3494253991
 10
10.1561084779
 20
6.3807923909
 10
10.1610248697
 20
6.4131156935
 10
10.1647190691
 20
6.4463435441
 10
10.1671851603
 20
6.4804227311
 10
10.168419194
 20
6.5152986799
 10
10.168419194
 20
6.5509155397
 10
10.1671851603
 20
6.5872162735
 10
10.1647190691
 20
6.6241427487
 10
10.1610248697
 20
6.6616358311
 10
10.1561084779
 20
6.6996354789
 10
10.1499777669
 20
6.738080839
 10
10.1426425546
 20
6.7769103446
 10
10.1341145875
 20
6.8160618138
 10
10.1244075225
 20
6.8554725491
 10
10.1135369045
 20
6.8950794377
 10
10.1015201418
 20
6.9348190528
 10
10.0883764783
 20
6.9746277549
 10
10.0741269623
 20
7.0144417941
 10
10.058794413
 20
7.0541974117
 10
10.0424033843
 20
7.0938309427
 10
10.0249801249
 20
7.1332789175
 10
10.0065525365
 20
7.1724781639
 10
9.9871501293
 20
7.2113659077
 10
9.9668039744
 20
7.2498798737
 10
9.9455466544
 20
7.2879583854
 10
9.923412211
 20
7.3255404633
 10
9.9004360905
 20
7.3625659232
 10
9.876655087
 20
7.3989754722
 10
9.8521072838
 20
7.4347108036
 10
9.8268319918
 20
7.4697146905
 10
9.8008696873
 20
7.5039310775
 10
9.7742619464
 20
7.5373051699
 10
9.7470513791
 20
7.5697835223
 10
9.7192815606
 20
7.6013141235
 10
9.6909969618
 20
7.63184648
 10
9.662242878
 20
7.6613316971
 10
9.6330653561
 20
7.6897225568
 10
9.6035111215
 20
7.7169735937
 10
9.5736275024
 20
7.7430411678
 10
9.5434623549
 20
7.7678835342
 10
9.5130639856
 20
7.79146091
 10
9.4824810749
 20
7.8137355384
 10
9.4517625985
 20
7.8346717483
 10
9.4209577493
 20
7.8542360124
 10
9.3901158584
 20
7.8723970004
 10
9.3592863164
 20
7.8891256289
 10
9.328518494
 20
7.9043951086
 10
9.297861663
 20
7.9181809869
 10
9.2673649177
 20
7.9304611868
 10
9.2370770958
 20
7.9412160428
 10
9.2070467006
 20
7.9504283319
 10
9.1773218229
 20
7.9580833015
 10
9.1479500645
 20
7.9641686928
 10
9.1189784617
 20
7.9686747606
 10
9.0904534098
 20
7.9715942889
 10
9.0624205891
 20
7.9729226023
 10
9.0349248917
 20
7.9726575736
 10
9.0080103494
 20
7.9707996272
 10
8.9817200634
 20
7.9673517385
 10
8.9560961353
 20
7.962319429
 10
8.9311795995
 20
7.9557107574
 10
8.9070103576
 20
7.947536307
 10
8.8836271144
 20
7.9378091683
 10
8.861067316
 20
7.9265449186
 10
8.83936709
 20
7.9137615964
 10
8.8185611873
 20
7.8994796732
 10
8.7986829267
 20
7.8837220202
 10
8.7797641414
 20
7.8665138717
 10
8.7618351282
 20
7.8478827851
 10
8.7449245987
 20
7.8278585965
 10
8.7290596336
 20
7.8064733727
 10
8.7142656393
 20
7.7837613602
 10
8.700566307
 20
7.7597589303
 10
8.6879835749
 20
7.7345045207
 10
8.6765375931
 20
7.7080385741
 10
8.6662466914
 20
7.6804034733
 10
8.6571273497
 20
7.6516434733
 10
8.6491941718
 20
7.6218046308
 10
8.6424598619
 20
7.59093473
 10
8.6369352045
 20
7.5590832062
 10
8.6326290468
 20
7.5263010668
 10
8.6295482848
 20
7.4926408094
 10
8.6276978519
 20
7.4581563378
 10
8.6270807115
 20
7.4229028759
  0
LWPOLYLINE
  5
154
330
1F
100
AcDbEntity
  8
0
  6
Continuous
 62
     7
370
     0
100
AcDbPolyline
 90
       61
 70
   128
 43
0.0
 10
10.7554721229
 20
6.8636633193
 10
10.7548571783
 20
6.8997274181
 10
10.7530133167
 20
6.9364444921
 10
10.7499434537
 20
6.9737564841
 10
10.7456524434
 20
7.0116043962
 10
10.7401470708
 20
7.0499283829
 10
10.7334360409
 20
7.0886678463
 10
10.7255299654
 20
7.1277615312
 10
10.7164413452
 20
7.1671476226
 10
10.7061845515
 20
7.2067638429
 10
10.6947758023
 20
7.2465475506
 10
10.6822331371
 20
7.2864358397
 10
10.6685763886
 20
7.3263656385
 10
10.6538271508
 20
7.3662738098
 10
10.6380087453
 20
7.4060972506
 10
10.6211461843
 20
7.4457729917
 10
10.6032661309
 20
7.4852382979
 10
10.5843968572
 20
7.5244307661
 10
10.5645681993
 20
7.5632884252
 10
10.5438115105
 20
7.6017498332
 10
10.5221596114
 20
7.6397541747
 10
10.4996467381
 20
7.6772413569
 10
10.476308488
 20
7.714152105
 10
10.4521817636
 20
7.7504280555
 10
10.4273047144
 20
7.7860118487
 10
10.4017166761
 20
7.8208472192
 10
10.3754581085
 20
7.8548790852
 10
10.348570532
 20
7.8880536353
 10
10.3210964612
 20
7.9203184137
 10
10.2930793383
 20
7.9516224032
 10
10.2645634642
 20
7.9819161057
 10
10.2355939283
 20
8.0111516207
 10
10.2062165374
 20
8.0392827207
 10
10.1764777432
 20
8.0662649249
 10
10.1464245688
 20
8.0920555687
 10
10.1161045346
 20
8.1166138718
 10
10.0855655826
 20
8.1399010025
 10
10.0548560013
 20
8.1618801391
 10
10.0240243488
 20
8.182516528
 10
9.9931193763
 20
8.2017775388
 10
9.9621899509
 20
8.2196327161
 10
9.9312849784
 20
8.2360538269
 10
9.9004533259
 20
8.2510149063
 10
9.8697437446
 20
8.2644922976
 10
9.8392047926
 20
8.2764646903
 10
9.8088847583
 20
8.2869131536
 10
9.778831584
 20
8.2958211663
 10
9.7490927898
 20
8.3031746431
 10
9.7197153989
 20
8.3089619566
 10
9.690745863
 20
8.3131739558
 10
9.6622299889
 20
8.3158039808
 10
9.634212866
 20
8.3168478728
 10
9.6067387952
 20
8.3163039813
 10
9.5798512186
 20
8.3141731664
 10
9.5535926511
 20
8.3104587972
 10
9.5280046127
 20
8.3051667469
 10
9.5031275635
 20
8.2983053834
 10
9.4790008392
 20
8.2898855558
 10
9.4556625891
 20
8.2799205777
 10
9.4331497157
 20
8.2684262058
 10
9.4276993606
 20
8.2653415294
  0
LWPOLYLINE
  5
155
330
1F
100
AcDbEntity
  8
0
  6
Continuous
 62
     7
370
     0
100
AcDbPolyline
 90
       21
 70
   128
 43
0.0
 10
10.5276099665
 20
6.3600340322
 10
10.5438115105
 20
6.3699549466
 10
10.5645681993
 20
6.3844511918
 10
10.5843968572
 20
6.4004151699
 10
10.6032661309
 20
6.4178216385
 10
10.6211461843
 20
6.4366430744
 10
10.6380087453
 20
6.456849717
 10
10.6538271508
 20
6.4784096155
 10
10.6685763886
 20
6.5012886793
 10
10.6822331371
 20
6.5254507319
 10
10.6947758023
 20
6.550857568
 10
10.7061845515
 20
6.5774690143
 10
10.7164413452
 20
6.6052429926
 10
10.7255299654
 20
6.6341355865
 10
10.7334360409
 20
6.6641011109
 10
10.7401470708
 20
6.6950921841
 10
10.7456524434
 20
6.727059803
 10
10.7499434537
 20
6.75995342
 10
10.7530133167
 20
6.7937210237
 10
10.7548571783
 20
6.8283092204
 10
10.7554721229
 20
6.8636633193
  0
LWPOLYLINE
  5
156
330
1F
100
AcDbEntity
  8
0
  6
Continuous
 62
     7
370
     0
100
AcDbPolyline
 90
      154
 70
   128
 43
0.0
 10
8.6660985044
 20
7.4003783835
 10
8.6667154344
 20
7.4347126355
 10
8.6685651841
 20
7.4682767
 10
8.6716446343
 20
7.5010139803
 10
8.6759485924
 20
7.5328692742
 10
8.681469801
 20
7.5637888662
 10
8.6881989501
 20
7.5937206189
 10
8.6961246928
 20
7.6226140608
 10
8.7052336645
 20
7.6504204708
 10
8.7155105054
 20
7.6770929611
 10
8.7269378864
 20
7.7025865559
 10
8.7394965385
 20
7.7268582671
 10
8.7531652848
 20
7.7498671672
 10
8.7679210767
 20
7.7715744579
 10
8.7837390327
 20
7.7919435359
 10
8.8005924802
 20
7.8109400543
 10
8.8184530003
 20
7.8285319806
 10
8.8372904762
 20
7.844689651
 10
8.8570731437
 20
7.8593858198
 10
8.8777676447
 20
7.8725957061
 10
8.8993390835
 20
7.8842970349
 10
8.921751086
 20
7.8944700752
 10
8.9449658603
 20
7.903097673
 10
8.9689442611
 20
7.9101652802
 10
8.9936458554
 20
7.9156609791
 10
9.0190289908
 20
7.9195755028
 10
9.0450508654
 20
7.9219022505
 10
9.0716676006
 20
7.9226372988
 10
9.0988343145
 20
7.9217794082
 10
9.1265051979
 20
7.9193300254
 10
9.1546335914
 20
7.9152932805
 10
9.1831720641
 20
7.9096759805
 10
9.2120724938
 20
7.9024875972
 10
9.2412861479
 20
7.8937402521
 10
9.2707637653
 20
7.883448695
 10
9.3004556403
 20
7.87163028
 10
9.3303117057
 20
7.8583049354
 10
9.3602816172
 20
7.8434951309
 10
9.3903148389
 20
7.8272258391
 10
9.4203607281
 20
7.8095244938
 10
9.4503686204
 20
7.7904209434
 10
9.4802879158
 20
7.7699474007
 10
9.5100681637
 20
7.748138389
 10
9.5396591477
 20
7.725030683
 10
9.5690109708
 20
7.7006632476
 10
9.5980741392
 20
7.6750771718
 10
9.6267996458
 20
7.6483155995
 10
9.6551390529
 20
7.6204236567
 10
9.6830445738
 20
7.5914483757
 10
9.7104691536
 20
7.5614386153
 10
9.7373665481
 20
7.5304449787
 10
9.7636914023
 20
7.4985197282
 10
9.7893993265
 20
7.465716697
 10
9.8144469714
 20
7.4320911984
 10
9.8387921009
 20
7.3976999327
 10
9.8623936637
 20
7.3626008912
 10
9.8852118622
 20
7.326853259
 10
9.9072082197
 20
7.2905173145
 10
9.9283456454
 20
7.2536543285
 10
9.9485884969
 20
7.2163264603
 10
9.96790264
 20
7.178596653
 10
9.9862555068
 20
7.1405285277
 10
10.0036161502
 20
7.1021862759
 10
10.0199552962
 20
7.0636345512
 10
10.0352453934
 20
7.0249383606
 10
10.0494606591
 20
6.9861629547
 10
10.0625771232
 20
6.9473737175
 10
10.0745726684
 20
6.9086360564
 10
10.0854270675
 20
6.870015292
 10
10.0951220175
 20
6.8315765475
 10
10.1036411705
 20
6.7933846394
 10
10.1109701614
 20
6.7555039679
 10
10.1170966317
 20
6.7179984083
 10
10.1220102508
 20
6.6809312036
 10
10.1257027334
 20
6.6443648574
 10
10.128167853
 20
6.6083610288
 10
10.1294014528
 20
6.5729804285
 10
10.1294014528
 20
6.5382827161
 10
10.128167853
 20
6.5043263998
 10
10.1257027334
 20
6.4711687378
 10
10.1220102508
 20
6.4388656412
 10
10.1170966317
 20
6.4074715804
 10
10.1109701614
 20
6.3770394929
 10
10.1036411705
 20
6.3476206941
 10
10.0951220175
 20
6.3192647907
 10
10.0854270675
 20
6.2920195972
 10
10.0745726684
 20
6.2659310552
 10
10.0625771232
 20
6.2410431558
 10
10.0494606591
 20
6.2173978657
 10
10.0352453934
 20
6.1950350562
 10
10.0199552962
 20
6.1739924361
 10
10.0036161502
 20
6.1543054879
 10
9.9862555068
 20
6.1360074083
 10
9.96790264
 20
6.119129052
 10
9.9485884969
 20
6.1036988797
 10
9.9283456454
 20
6.0897429102
 10
9.9072082197
 20
6.0772846765
 10
9.8852118622
 20
6.0663451858
 10
9.8623936637
 20
6.0569428848
 10
9.8387921009
 20
6.0490936277
 10
9.8144469714
 20
6.0428106502
 10
9.7893993265
 20
6.0381045468
 10
9.7636914023
 20
6.0349832531
 10
9.7373665481
 20
6.0334520324
 10
9.7104691536
 20
6.0335134664
 10
9.6830445738
 20
6.0351674518
 10
9.6551390529
 20
6.0384111994
 10
9.6267996458
 20
6.0432392397
 10
9.5980741392
 20
6.0496434313
 10
9.5690109708
 20
6.0576129755
 10
9.5396591477
 20
6.0671344337
 10
9.5100681637
 20
6.0781917507
 10
9.4802879158
 20
6.0907662812
 10
9.4503686204
 20
6.1048368218
 10
9.4203607281
 20
6.1203796464
 10
9.3903148389
 20
6.1373685462
 10
9.3602816172
 20
6.1557748742
 10
9.3303117057
 20
6.175567593
 10
9.3004556403
 20
6.1967133277
 10
9.2707637653
 20
6.2191764218
 10
9.2412861478
 20
6.2429189975
 10
9.2120724938
 20
6.2679010193
 10
9.1831720641
 20
6.294080362
 10
9.1546335914
 20
6.3214128812
 10
9.1265051979
 20
6.3498524881
 10
9.0988343145
 20
6.3793512272
 10
9.0716676006
 20
6.4098593569
 10
9.0450508654
 20
6.4413254335
 10
9.0190289908
 20
6.4736963982
 10
8.9936458554
 20
6.5069176661
 10
8.9689442611
 20
6.5409332188
 10
8.9449658603
 20
6.5756856982
 10
8.921751086
 20
6.6111165039
 10
8.8993390835
 20
6.6471658915
 10
8.8777676447
 20
6.6837730735
 10
8.8570731437
 20
6.720876322
 10
8.8372904762
 20
6.7584130725
 10
8.8184530003
 20
6.7963200296
 10
8.8005924802
 20
6.8345332735
 10
8.7837390327
 20
6.8729883681
 10
8.7679210767
 20
6.9116204694
 10
8.7531652848
 20
6.9503644349
 10
8.7394965385
 20
6.9891549336
 10
8.7269378864
 20
7.0279265558
 10
8.7155105054
 20
7.0666139238
 10
8.7052336645
 20
7.1051518021
 10
8.6961246928
 20
7.143475207
 10
8.6881989501
 20
7.1815195166
 10
8.681469801
 20
7.2192205795
 10
8.6759485924
 20
7.2565148233
 10
8.6716446343
 20
7.2933393614
 10
8.6685651841
 20
7.3296320993
 10
8.6667154344
 20
7.3653318393
 10
8.6660985044
 20
7.4003783835
  0
LWPOLYLINE
  5
157
330
1F
100
AcDbEntity
  8
0
  6
Continuous
 62
     7
370
     0
100
AcDbPolyline
 90
      153
 70
   128
 43
0.0
 10
8.685417021
 20
7.3973901224
 10
8.6860316317
 20
7.3627012754
 10
8.6878744139
 20
7.3273620793
 10
8.6909422191
 20
7.2914329104
 10
8.6952298061
 20
7.2549751532
 10
8.7007298496
 20
7.2180510952
 10
8.7074329528
 20
7.1807238204
 10
8.7153276637
 20
7.1430571019
 10
8.7244004942
 20
7.1051152927
 10
8.7346359436
 20
7.0669632156
 10
8.7460165248
 20
7.0286660529
 10
8.7585227942
 20
6.9902892347
 10
8.772133385
 20
6.951898327
 10
8.7868250439
 20
6.9135589201
 10
8.8025726704
 20
6.8753365163
 10
8.8193493599
 20
6.8372964179
 10
8.8371264497
 20
6.7995036157
 10
8.855873568
 20
6.7620226781
 10
8.8755586856
 20
6.7249176407
 10
8.8961481708
 20
6.6882518968
 10
8.9176068469
 20
6.6520880892
 10
8.939898052
 20
6.6164880031
 10
8.962983702
 20
6.5815124608
 10
8.9868243555
 20
6.5472212173
 10
9.0113792811
 20
6.5136728587
 10
9.0366065271
 20
6.4809247018
 10
9.0624629932
 20
6.4490326962
 10
9.0889045041
 20
6.4180513289
 10
9.1158858848
 20
6.388033531
 10
9.1433610382
 20
6.3590305875
 10
9.1712830234
 20
6.3310920494
 10
9.1996041361
 20
6.3042656492
 10
9.2282759903
 20
6.2785972194
 10
9.2572496005
 20
6.254130614
 10
9.2864754657
 20
6.2309076339
 10
9.3159036543
 20
6.2089679551
 10
9.3454838884
 20
6.1883490612
 10
9.3751656308
 20
6.1690861792
 10
9.4048981708
 20
6.1512122194
 10
9.4346307108
 20
6.1347577192
 10
9.4643124533
 20
6.1197507908
 10
9.4938926874
 20
6.1062170734
 10
9.5233208759
 20
6.094179689
 10
9.5525467412
 20
6.0836592033
 10
9.5815203514
 20
6.0746735904
 10
9.6101922055
 20
6.067238202
 10
9.6385133183
 20
6.0613657414
 10
9.6664353035
 20
6.0570662417
 10
9.6939104568
 20
6.0543470483
 10
9.7208918376
 20
6.053212807
 10
9.7473333484
 20
6.0536654557
 10
9.7731898145
 20
6.055704221
 10
9.7984170605
 20
6.0593256197
 10
9.8229719861
 20
6.0645234647
 10
9.8468126396
 20
6.0712888756
 10
9.8698982896
 20
6.0796102937
 10
9.8921894948
 20
6.0894735021
 10
9.9136481708
 20
6.1008616497
 10
9.9342376561
 20
6.11375528
 10
9.9539227737
 20
6.1281323644
 10
9.9726698919
 20
6.14396834
 10
9.9904469817
 20
6.1612361511
 10
10.0072236712
 20
6.1799062962
 10
10.0229712977
 20
6.1999468775
 10
10.0376629566
 20
6.221323656
 10
10.0512735475
 20
6.24400011
 10
10.0637798169
 20
6.2679374969
 10
10.0751603981
 20
6.2930949203
 10
10.0853958474
 20
6.319429399
 10
10.094468678
 20
6.3468959411
 10
10.1023633888
 20
6.3754476205
 10
10.1090664921
 20
6.405035657
 10
10.1145665356
 20
6.4356095
 10
10.1188541226
 20
6.4671169146
 10
10.1219219278
 20
6.4995040709
 10
10.1237647099
 20
6.5327156361
 10
10.1243793207
 20
6.5666948686
 10
10.1237647099
 20
6.6013837156
 10
10.1219219278
 20
6.6367229117
 10
10.1188541226
 20
6.6726520806
 10
10.1145665356
 20
6.7091098377
 10
10.1090664921
 20
6.7460338958
 10
10.1023633888
 20
6.7833611706
 10
10.094468678
 20
6.8210278891
 10
10.0853958474
 20
6.8589696983
 10
10.0751603981
 20
6.8971217754
 10
10.0637798169
 20
6.9354189381
 10
10.0512735475
 20
6.9737957563
 10
10.0376629566
 20
7.012186664
 10
10.0229712977
 20
7.0505260708
 10
10.0072236712
 20
7.0887484746
 10
9.9904469817
 20
7.1267885731
 10
9.9726698919
 20
7.1645813753
 10
9.9539227737
 20
7.2020623129
 10
9.9342376561
 20
7.2391673503
 10
9.9136481708
 20
7.2758330942
 10
9.8921894948
 20
7.3119969018
 10
9.8698982896
 20
7.3475969878
 10
9.8468126396
 20
7.3825725302
 10
9.8229719861
 20
7.4168637736
 10
9.7984170605
 20
7.4504121322
 10
9.7731898145
 20
7.4831602892
 10
9.7473333484
 20
7.5150522948
 10
9.7208918376
 20
7.5460336621
 10
9.6939104568
 20
7.5760514599
 10
9.6664353035
 20
7.6050544034
 10
9.6385133183
 20
7.6329929416
 10
9.6101922055
 20
7.6598193417
 10
9.5815203514
 20
7.6854877716
 10
9.5525467412
 20
7.7099543769
 10
9.5233208759
 20
7.733177357
 10
9.4938926874
 20
7.7551170359
 10
9.4643124533
 20
7.7757359298
 10
9.4346307108
 20
7.7949988118
 10
9.4048981708
 20
7.8128727716
 10
9.3751656308
 20
7.8293272718
 10
9.3454838884
 20
7.8443342001
 10
9.3159036543
 20
7.8578679176
 10
9.2864754657
 20
7.869905302
 10
9.2572496005
 20
7.8804257877
 10
9.2282759903
 20
7.8894114006
 10
9.1996041361
 20
7.896846789
 10
9.1712830234
 20
7.9027192495
 10
9.1433610382
 20
7.9070187493
 10
9.1158858848
 20
7.9097379427
 10
9.0889045041
 20
7.9108721839
 10
9.0624629932
 20
7.9104195352
 10
9.0366065271
 20
7.90838077
 10
9.0113792811
 20
7.9047593713
 10
8.9868243555
 20
7.8995615263
 10
8.962983702
 20
7.8927961154
 10
8.939898052
 20
7.8844746973
 10
8.9176068469
 20
7.8746114888
 10
8.8961481708
 20
7.8632233412
 10
8.8755586856
 20
7.850329711
 10
8.855873568
 20
7.8359526266
 10
8.8371264497
 20
7.820116651
 10
8.8193493599
 20
7.8028488398
 10
8.8025726704
 20
7.7841786948
 10
8.7868250439
 20
7.7641381135
 10
8.772133385
 20
7.7427613349
 10
8.7585227942
 20
7.720084881
 10
8.7460165248
 20
7.6961474941
 10
8.7346359436
 20
7.6709900707
 10
8.7244004942
 20
7.6446555919
 10
8.7153276637
 20
7.6171890498
 10
8.7074329528
 20
7.5886373705
 10
8.7007298496
 20
7.559049334
 10
8.6952298061
 20
7.528475491
 10
8.6909422191
 20
7.4969680764
 10
8.6878744139
 20
7.46458092
 10
8.6860316317
 20
7.4313693549
 10
8.685417021
 20
7.3973901224
  0
ARC
  5
158
330
1F
100
AcDbEntity
  8
0
  6
Continuous
 62
     7
370
     0
100
AcDbCircle
 10
9.0831631385
 20
6.7963088148
 30
0.0
 40
1.67401326039319
100
AcDbArc
 50
2.5856218125
 51
57.4090016548
  0
LWPOLYLINE
  5
159
330
1F
100
AcDbEntity
  8
0
  6
Continuous
 62
     7
370
     0
100
AcDbPolyline
 90
       48
 70
   128
 43
0.0
 10
10.7819886272
 20
6.9463246406
 10
10.7813740164
 20
6.9810134876
 10
10.7795312343
 20
7.0163526837
 10
10.7764634291
 20
7.0522818526
 10
10.7721758421
 20
7.0887396097
 10
10.7666757986
 20
7.1256636678
 10
10.7599726953
 20
7.1629909426
 10
10.7520779845
 20
7.2006576611
 10
10.7430051539
 20
7.2385994703
 10
10.7327697046
 20
7.2767515474
 10
10.7213891234
 20
7.3150487101
 10
10.708882854
 20
7.3534255283
 10
10.6952722631
 20
7.391816436
 10
10.6805806042
 20
7.4301558428
 10
10.6648329777
 20
7.4683782466
 10
10.6480562882
 20
7.5064183451
 10
10.6302791984
 20
7.5442111473
 10
10.6115320802
 20
7.5816920849
 10
10.5918469626
 20
7.6187971223
 10
10.5712574773
 20
7.6554628662
 10
10.5497988013
 20
7.6916266738
 10
10.5275075961
 20
7.7272267598
 10
10.5044219461
 20
7.7622023022
 10
10.4805812926
 20
7.7964935456
 10
10.456026367
 20
7.8300419042
 10
10.430799121
 20
7.8627900612
 10
10.4049426549
 20
7.8946820668
 10
10.3785011441
 20
7.9256634341
 10
10.3515197633
 20
7.9556812319
 10
10.32404461
 20
7.9846841754
 10
10.2961226248
 20
8.0126227136
 10
10.267801512
 20
8.0394491137
 10
10.2391296579
 20
8.0651175436
 10
10.2101560477
 20
8.0895841489
 10
10.1809301824
 20
8.112807129
 10
10.1515019939
 20
8.1347468079
 10
10.1219217598
 20
8.1553657018
 10
10.0922400173
 20
8.1746285838
 10
10.0625074773
 20
8.1925025436
 10
10.0327749373
 20
8.2089570438
 10
10.0030931949
 20
8.2239639721
 10
9.9735129608
 20
8.2374976896
 10
9.9440847723
 20
8.249535074
 10
9.914858907
 20
8.2600555597
 10
9.8858852968
 20
8.2690411726
 10
9.8572134426
 20
8.276476561
 10
9.8288923299
 20
8.2823490215
 10
9.8163960936
 20
8.2844599914
  0
ARC
  5
15A
330
1F
100
AcDbEntity
  8
0
  6
Continuous
 62
     7
370
     0
100
AcDbCircle
 10
10.0605437096
 20
6.9339538906
 30
0.0
 40
0.7215509715770486
100
AcDbArc
 50
339.9921689548
 51
0.9823651013
  0
LINE
  5
15B
330
1F
100
AcDbEntity
  8
0
  6
Continuous
 62
     7
370
     0
100
AcDbLine
 10
7.3637991064
 20
3.3473422731
 30
0.0
 11
7.4819093426
 21
3.3473422731
 31
0.0
  0
LINE
  5
15C
330
1F
100
AcDbEntity
  8
0
  6
Continuous
 62
     7
370
     0
100
AcDbLine
 10
7.4819093426
 20
5.3473422731
 30
0.0
 11
7.3637991064
 21
5.3473422731
 31
0.0
  0
ARC
  5
15D
330
1F
100
AcDbEntity
  8
0
  6
Continuous
 62
     7
370
     0
100
AcDbCircle
 10
7.788923043
 20
4.3473422731
 30
0.0
 40
1.086614173228347
100
AcDbArc
 50
113.0315063879
 51
246.9684936121
  0
LINE
  5
15E
330
1F
100
AcDbEntity
  8
0
  6
Continuous
 62
     7
370
     0
100
AcDbLine
 10
7.4819093426
 20
3.3473422731
 30
0.0
 11
7.4819093426
 21
5.3473422731
 31
0.0
  0
LINE
  5
15F
330
1F
100
AcDbEntity
  8
0
  6
Continuous
 62
     7
370
     0
100
AcDbLine
 10
7.2714475824
 20
5.3146627812
 30
0.0
 11
7.2614475824
 21
5.2973422731
 31
0.0
  0
LINE
  5
160
330
1F
100
AcDbEntity
  8
0
  6
Continuous
 62
     7
370
     0
100
AcDbLine
 10
7.2614475824
 20
3.3973422731
 30
0.0
 11
7.2714475824
 21
3.3800217651
 31
0.0
  0
LINE
  5
161
330
1F
100
AcDbEntity
  8
0
  6
Continuous
 62
     7
370
     0
100
AcDbLine
 10
7.2714475824
 20
5.3146627812
 30
0.0
 11
7.2714475824
 21
5.3028261868
 31
0.0
  0
LINE
  5
162
330
1F
100
AcDbEntity
  8
0
  6
Continuous
 62
     7
370
     0
100
AcDbLine
 10
7.2714475824
 20
3.3918583595
 30
0.0
 11
7.2714475824
 21
3.3800217651
 31
0.0
  0
LINE
  5
163
330
1F
100
AcDbEntity
  8
0
  6
Continuous
 62
     7
370
     0
100
AcDbLine
 10
7.2714475824
 20
3.3398422731
 30
0.0
 11
7.2541270744
 21
3.3298422731
 31
0.0
  0
LINE
  5
164
330
1F
100
AcDbEntity
  8
0
  6
Continuous
 62
     7
370
     0
100
AcDbLine
 10
7.2541270744
 20
5.3648422731
 30
0.0
 11
7.2714475824
 21
5.3548422731
 31
0.0
  0
LINE
  5
165
330
1F
100
AcDbEntity
  8
0
  6
Continuous
 62
     7
370
     0
100
AcDbLine
 10
7.2614475824
 20
3.3973422731
 30
0.0
 11
7.1887680905
 21
3.3973422731
 31
0.0
  0
LINE
  5
166
330
1F
100
AcDbEntity
  8
0
  6
Continuous
 62
     7
370
     0
100
AcDbLine
 10
7.1887680905
 20
3.4415032176
 30
0.0
 11
7.1887680905
 21
3.3973422731
 31
0.0
  0
LINE
  5
167
330
1F
100
AcDbEntity
  8
0
  6
Continuous
 62
     7
370
     0
100
AcDbLine
 10
7.1887680905
 20
5.2973422731
 30
0.0
 11
7.1887680905
 21
5.2531813287
 31
0.0
  0
LINE
  5
168
330
1F
100
AcDbEntity
  8
0
  6
Continuous
 62
     7
370
     0
100
AcDbLine
 10
7.1887680905
 20
5.2973422731
 30
0.0
 11
7.2614475824
 21
5.2973422731
 31
0.0
  0
LINE
  5
169
330
1F
100
AcDbEntity
  8
0
  6
Continuous
 62
     7
370
     0
100
AcDbLine
 10
7.1814475824
 20
3.3298422731
 30
0.0
 11
7.2541270744
 21
3.3298422731
 31
0.0
  0
LINE
  5
16A
330
1F
100
AcDbEntity
  8
0
  6
Continuous
 62
     7
370
     0
100
AcDbLine
 10
7.2541270744
 20
5.3648422731
 30
0.0
 11
7.1814475824
 21
5.3648422731
 31
0.0
  0
LINE
  5
16B
330
1F
100
AcDbEntity
  8
0
  6
Continuous
 62
     7
370
     0
100
AcDbLine
 10
7.1814475824
 20
3.3298422731
 30
0.0
 11
7.1714475824
 21
3.3471627812
 31
0.0
  0
LINE
  5
16C
330
1F
100
AcDbEntity
  8
0
  6
Continuous
 62
     7
370
     0
100
AcDbLine
 10
7.1714475824
 20
3.3873422731
 30
0.0
 11
7.1714475824
 21
3.3471627812
 31
0.0
  0
LINE
  5
16D
330
1F
100
AcDbEntity
  8
0
  6
Continuous
 62
     7
370
     0
100
AcDbLine
 10
7.1714475824
 20
3.3873422731
 30
0.0
 11
7.1887680905
 21
3.3973422731
 31
0.0
  0
LINE
  5
16E
330
1F
100
AcDbEntity
  8
0
  6
Continuous
 62
     7
370
     0
100
AcDbLine
 10
7.2714475824
 20
3.3398422731
 30
0.0
 11
7.2714475824
 21
3.3800217651
 31
0.0
  0
LINE
  5
16F
330
1F
100
AcDbEntity
  8
0
  6
Continuous
 62
     7
370
     0
100
AcDbLine
 10
7.1887680905
 20
5.2973422731
 30
0.0
 11
7.1714475824
 21
5.3073422731
 31
0.0
  0
LINE
  5
170
330
1F
100
AcDbEntity
  8
0
  6
Continuous
 62
     7
370
     0
100
AcDbLine
 10
7.1714475824
 20
5.3475217651
 30
0.0
 11
7.1714475824
 21
5.3073422731
 31
0.0
  0
LINE
  5
171
330
1F
100
AcDbEntity
  8
0
  6
Continuous
 62
     7
370
     0
100
AcDbLine
 10
7.1714475824
 20
5.3475217651
 30
0.0
 11
7.1814475824
 21
5.3648422731
 31
0.0
  0
LINE
  5
172
330
1F
100
AcDbEntity
  8
0
  6
Continuous
 62
     7
370
     0
100
AcDbLine
 10
7.2714475824
 20
5.3146627812
 30
0.0
 11
7.2714475824
 21
5.3548422731
 31
0.0
  0
LINE
  5
173
330
1F
100
AcDbEntity
  8
0
  6
Continuous
 62
     7
370
     0
100
AcDbLine
 10
7.1714475824
 20
5.241464422
 30
0.0
 11
7.1714475824
 21
5.3073422731
 31
0.0
  0
LINE
  5
174
330
1F
100
AcDbEntity
  8
0
  6
Continuous
 62
     7
370
     0
100
AcDbLine
 10
7.1714475824
 20
3.3873422731
 30
0.0
 11
7.1714475824
 21
3.4532201243
 31
0.0
  0
LINE
  5
175
330
1F
100
AcDbEntity
  8
0
  6
Continuous
 62
     7
370
     0
100
AcDbLine
 10
7.0440232618
 20
5.4473422731
 30
0.0
 11
7.0352663777
 21
5.4473422731
 31
0.0
  0
LINE
  5
176
330
1F
100
AcDbEntity
  8
0
  6
Continuous
 62
     7
370
     0
100
AcDbLine
 10
7.0876943989
 20
5.4473422731
 30
0.0
 11
7.0784525248
 21
5.4473422731
 31
0.0
  0
LINE
  5
177
330
1F
100
AcDbEntity
  8
0
  6
Continuous
 62
     7
370
     0
100
AcDbLine
 10
7.0784525248
 20
5.4473422731
 30
0.0
 11
7.0440232618
 21
5.4473422731
 31
0.0
  0
LINE
  5
178
330
1F
100
AcDbEntity
  8
0
  6
Continuous
 62
     7
370
     0
100
AcDbLine
 10
7.1369093426
 20
3.2473422731
 30
0.0
 11
7.5019093426
 21
3.2473422731
 31
0.0
  0
LINE
  5
179
330
1F
100
AcDbEntity
  8
0
  6
Continuous
 62
     7
370
     0
100
AcDbLine
 10
7.5019093426
 20
5.4473422731
 30
0.0
 11
7.1869093426
 21
5.4473422731
 31
0.0
  0
LINE
  5
17A
330
1F
100
AcDbEntity
  8
0
  6
Continuous
 62
     7
370
     0
100
AcDbLine
 10
7.1776785734
 20
5.4473422731
 30
0.0
 11
7.1499862657
 21
5.4473422731
 31
0.0
  0
LINE
  5
17B
330
1F
100
AcDbEntity
  8
0
  6
Continuous
 62
     7
370
     0
100
AcDbLine
 10
7.1407554965
 20
5.4473422731
 30
0.0
 11
7.1161401118
 21
5.4473422731
 31
0.0
  0
LINE
  5
17C
330
1F
100
AcDbEntity
  8
0
  6
Continuous
 62
     7
370
     0
100
AcDbLine
 10
7.1069093426
 20
5.4473422731
 30
0.0
 11
7.0876943989
 21
5.4473422731
 31
0.0
  0
LINE
  5
17D
330
1F
100
AcDbEntity
  8
0
  6
Continuous
 62
     7
370
     0
100
AcDbLine
 10
7.0352663777
 20
5.4473422731
 30
0.0
 11
7.0167114503
 21
5.4473422731
 31
0.0
  0
LINE
  5
17E
330
1F
100
AcDbEntity
  8
0
  6
Continuous
 62
     7
370
     0
100
AcDbLine
 10
7.0072929852
 20
5.4473422731
 30
0.0
 11
6.6919093426
 21
5.4473422731
 31
0.0
  0
LINE
  5
17F
330
1F
100
AcDbEntity
  8
0
  6
Continuous
 62
     7
370
     0
100
AcDbLine
 10
6.6919093426
 20
3.2473422731
 30
0.0
 11
7.0631114898
 21
3.2473422731
 31
0.0
  0
LINE
  5
180
330
1F
100
AcDbEntity
  8
0
  6
Continuous
 62
     7
370
     0
100
AcDbLine
 10
7.1161401118
 20
5.4473422731
 30
0.0
 11
7.1069093426
 21
5.4473422731
 31
0.0
  0
LINE
  5
181
330
1F
100
AcDbEntity
  8
0
  6
Continuous
 62
     7
370
     0
100
AcDbLine
 10
7.1499862657
 20
5.4473422731
 30
0.0
 11
7.1407554965
 21
5.4473422731
 31
0.0
  0
LINE
  5
182
330
1F
100
AcDbEntity
  8
0
  6
Continuous
 62
     7
370
     0
100
AcDbLine
 10
7.1869093426
 20
5.4473422731
 30
0.0
 11
7.1776785734
 21
5.4473422731
 31
0.0
  0
LINE
  5
183
330
1F
100
AcDbEntity
  8
0
  6
Continuous
 62
     7
370
     0
100
AcDbLine
 10
7.5019093426
 20
5.4473422731
 30
0.0
 11
7.5119093426
 21
5.4373422731
 31
0.0
  0
LINE
  5
184
330
1F
100
AcDbEntity
  8
0
  6
Continuous
 62
     7
370
     0
100
AcDbLine
 10
7.5119093426
 20
5.3548422731
 30
0.0
 11
7.5119093426
 21
5.4373422731
 31
0.0
  0
LINE
  5
185
330
1F
100
AcDbEntity
  8
0
  6
Continuous
 62
     7
370
     0
100
AcDbLine
 10
7.5219093426
 20
5.3548422731
 30
0.0
 11
7.5119093426
 21
5.3548422731
 31
0.0
  0
LINE
  5
186
330
1F
100
AcDbEntity
  8
0
  6
Continuous
 62
     7
370
     0
100
AcDbLine
 10
7.5219093426
 20
5.3648422731
 30
0.0
 11
7.5219093426
 21
5.3548422731
 31
0.0
  0
LINE
  5
187
330
1F
100
AcDbEntity
  8
0
  6
Continuous
 62
     7
370
     0
100
AcDbLine
 10
7.6219093426
 20
5.3648422731
 30
0.0
 11
7.5219093426
 21
5.3648422731
 31
0.0
  0
LINE
  5
188
330
1F
100
AcDbEntity
  8
0
  6
Continuous
 62
     7
370
     0
100
AcDbLine
 10
7.6219093426
 20
5.3648422731
 30
0.0
 11
7.6319093426
 21
5.3475217651
 31
0.0
  0
LINE
  5
189
330
1F
100
AcDbEntity
  8
0
  6
Continuous
 62
     7
370
     0
100
AcDbLine
 10
7.6319093426
 20
5.2973422731
 30
0.0
 11
7.6319093426
 21
5.3475217651
 31
0.0
  0
LINE
  5
18A
330
1F
100
AcDbEntity
  8
0
  6
Continuous
 62
     7
370
     0
100
AcDbLine
 10
7.4819093426
 20
5.2973422731
 30
0.0
 11
7.6319093426
 21
5.2973422731
 31
0.0
  0
LINE
  5
18B
330
1F
100
AcDbEntity
  8
0
  6
Continuous
 62
     7
370
     0
100
AcDbLine
 10
7.4819093426
 20
5.3748422731
 30
0.0
 11
7.4819093426
 21
5.2973422731
 31
0.0
  0
LINE
  5
18C
330
1F
100
AcDbEntity
  8
0
  6
Continuous
 62
     7
370
     0
100
AcDbLine
 10
7.4719093426
 20
5.3748422731
 30
0.0
 11
7.4819093426
 21
5.3748422731
 31
0.0
  0
LINE
  5
18D
330
1F
100
AcDbEntity
  8
0
  6
Continuous
 62
     7
370
     0
100
AcDbLine
 10
7.4719093426
 20
5.3648422731
 30
0.0
 11
7.4719093426
 21
5.3748422731
 31
0.0
  0
LINE
  5
18E
330
1F
100
AcDbEntity
  8
0
  6
Continuous
 62
     7
370
     0
100
AcDbLine
 10
6.6919093426
 20
5.3648422731
 30
0.0
 11
7.4719093426
 21
5.3648422731
 31
0.0
  0
LINE
  5
18F
330
1F
100
AcDbEntity
  8
0
  6
Continuous
 62
     7
370
     0
100
AcDbLine
 10
6.6919093426
 20
5.3648422731
 30
0.0
 11
6.6819093426
 21
5.3821627812
 31
0.0
  0
LINE
  5
190
330
1F
100
AcDbEntity
  8
0
  6
Continuous
 62
     7
370
     0
100
AcDbLine
 10
6.6819093426
 20
5.4373422731
 30
0.0
 11
6.6819093426
 21
5.3821627812
 31
0.0
  0
LINE
  5
191
330
1F
100
AcDbEntity
  8
0
  6
Continuous
 62
     7
370
     0
100
AcDbLine
 10
6.6819093426
 20
5.4373422731
 30
0.0
 11
6.6919093426
 21
5.4473422731
 31
0.0
  0
LINE
  5
192
330
1F
100
AcDbEntity
  8
0
  6
Continuous
 62
     7
370
     0
100
AcDbLine
 10
7.0167114503
 20
5.4473422731
 30
0.0
 11
7.0072929852
 21
5.4473422731
 31
0.0
  0
LINE
  5
193
330
1F
100
AcDbEntity
  8
0
  6
Continuous
 62
     7
370
     0
100
AcDbLine
 10
7.6319093426
 20
3.3973422731
 30
0.0
 11
7.6319093426
 21
5.2973422731
 31
0.0
  0
LINE
  5
194
330
1F
100
AcDbEntity
  8
0
  6
Continuous
 62
     7
370
     0
100
AcDbLine
 10
7.6319093426
 20
3.3973422731
 30
0.0
 11
7.4819093426
 21
3.3973422731
 31
0.0
  0
LINE
  5
195
330
1F
100
AcDbEntity
  8
0
  6
Continuous
 62
     7
370
     0
100
AcDbLine
 10
7.6319093426
 20
3.3471627812
 30
0.0
 11
7.6219093426
 21
3.3298422731
 31
0.0
  0
LINE
  5
196
330
1F
100
AcDbEntity
  8
0
  6
Continuous
 62
     7
370
     0
100
AcDbLine
 10
7.4719093426
 20
3.3298422731
 30
0.0
 11
6.6919093426
 21
3.3298422731
 31
0.0
  0
LINE
  5
197
330
1F
100
AcDbEntity
  8
0
  6
Continuous
 62
     7
370
     0
100
AcDbLine
 10
7.4719093426
 20
3.3198422731
 30
0.0
 11
7.4719093426
 21
3.3298422731
 31
0.0
  0
LINE
  5
198
330
1F
100
AcDbEntity
  8
0
  6
Continuous
 62
     7
370
     0
100
AcDbLine
 10
7.4819093426
 20
3.3198422731
 30
0.0
 11
7.4719093426
 21
3.3198422731
 31
0.0
  0
LINE
  5
199
330
1F
100
AcDbEntity
  8
0
  6
Continuous
 62
     7
370
     0
100
AcDbLine
 10
7.4819093426
 20
3.3973422731
 30
0.0
 11
7.4819093426
 21
3.3198422731
 31
0.0
  0
LINE
  5
19A
330
1F
100
AcDbEntity
  8
0
  6
Continuous
 62
     7
370
     0
100
AcDbLine
 10
7.6319093426
 20
3.3471627812
 30
0.0
 11
7.6319093426
 21
3.3973422731
 31
0.0
  0
LINE
  5
19B
330
1F
100
AcDbEntity
  8
0
  6
Continuous
 62
     7
370
     0
100
AcDbLine
 10
7.5219093426
 20
3.3298422731
 30
0.0
 11
7.6219093426
 21
3.3298422731
 31
0.0
  0
LINE
  5
19C
330
1F
100
AcDbEntity
  8
0
  6
Continuous
 62
     7
370
     0
100
AcDbLine
 10
7.5219093426
 20
3.3398422731
 30
0.0
 11
7.5219093426
 21
3.3298422731
 31
0.0
  0
LINE
  5
19D
330
1F
100
AcDbEntity
  8
0
  6
Continuous
 62
     7
370
     0
100
AcDbLine
 10
7.5119093426
 20
3.3398422731
 30
0.0
 11
7.5219093426
 21
3.3398422731
 31
0.0
  0
LINE
  5
19E
330
1F
100
AcDbEntity
  8
0
  6
Continuous
 62
     7
370
     0
100
AcDbLine
 10
7.5119093426
 20
3.2573422731
 30
0.0
 11
7.5119093426
 21
3.3398422731
 31
0.0
  0
LINE
  5
19F
330
1F
100
AcDbEntity
  8
0
  6
Continuous
 62
     7
370
     0
100
AcDbLine
 10
7.5119093426
 20
3.2573422731
 30
0.0
 11
7.5019093426
 21
3.2473422731
 31
0.0
  0
LINE
  5
1A0
330
1F
100
AcDbEntity
  8
0
  6
Continuous
 62
     7
370
     0
100
AcDbLine
 10
7.1163899083
 20
3.2473422731
 30
0.0
 11
7.1369093426
 21
3.2473422731
 31
0.0
  0
LINE
  5
1A1
330
1F
100
AcDbEntity
  8
0
  6
Continuous
 62
     7
370
     0
100
AcDbLine
 10
7.0931232219
 20
3.2473422731
 30
0.0
 11
7.1163899083
 21
3.2473422731
 31
0.0
  0
LINE
  5
1A2
330
1F
100
AcDbEntity
  8
0
  6
Continuous
 62
     7
370
     0
100
AcDbLine
 10
7.0631114898
 20
3.2473422731
 30
0.0
 11
7.0931232219
 21
3.2473422731
 31
0.0
  0
LINE
  5
1A3
330
1F
100
AcDbEntity
  8
0
  6
Continuous
 62
     7
370
     0
100
AcDbLine
 10
6.6919093426
 20
3.2473422731
 30
0.0
 11
6.6819093426
 21
3.2573422731
 31
0.0
  0
LINE
  5
1A4
330
1F
100
AcDbEntity
  8
0
  6
Continuous
 62
     7
370
     0
100
AcDbLine
 10
6.6819093426
 20
3.3125217651
 30
0.0
 11
6.6819093426
 21
3.2573422731
 31
0.0
  0
LINE
  5
1A5
330
1F
100
AcDbEntity
  8
0
  6
Continuous
 62
     7
370
     0
100
AcDbLine
 10
6.6819093426
 20
3.3125217651
 30
0.0
 11
6.6919093426
 21
3.3298422731
 31
0.0
  0
LINE
  5
1A6
330
1F
100
AcDbEntity
  8
0
  6
Continuous
 62
     7
370
     0
100
AcDbLine
 10
6.6919093426
 20
5.3648422731
 30
0.0
 11
6.6919093426
 21
3.3298422731
 31
0.0
  0
LINE
  5
1A7
330
1F
100
AcDbEntity
  8
0
  6
Continuous
 62
     7
370
     0
100
AcDbLine
 10
7.4719093426
 20
3.3298422731
 30
0.0
 11
7.4719093426
 21
3.3473422731
 31
0.0
  0
LINE
  5
1A8
330
1F
100
AcDbEntity
  8
0
  6
Continuous
 62
     7
370
     0
100
AcDbLine
 10
7.4719093426
 20
5.3473422731
 30
0.0
 11
7.4719093426
 21
5.3648422731
 31
0.0
  0
LINE
  5
1A9
330
1F
100
AcDbEntity
  8
0
  6
Continuous
 62
     7
370
     0
100
AcDbLine
 10
6.6819093426
 20
3.3125217651
 30
0.0
 11
6.6819093426
 21
5.3821627812
 31
0.0
  0
HATCH
  5
1AA
330
1F
100
AcDbEntity
  8
0
  6
Continuous
 62
     7
370
     0
100
AcDbHatch
 10
0.0
 20
0.0
 30
0.0
210
0.0
220
0.0
230
1.0
  2
ANSI31
 70
     0
 71
     0
 91
        1
 92
        0
 93
       20
 72
     1
 10
6.691909342609103
 20
3.329842273131363
 11
6.681909342609103
 21
3.312521765055675
 72
     1
 10
6.681909342609103
 20
3.312521765055675
 11
6.681909342609103
 21
3.257342273131364
 72
     1
 10
6.681909342609103
 20
3.257342273131364
 11
6.691909342609103
 21
3.247342273131363
 72
     1
 10
6.691909342609103
 20
3.247342273131363
 11
7.06311148983364
 21
3.247342273131363
 72
     1
 10
7.06311148983364
 20
3.247342273131363
 11
7.093123221901082
 21
3.247342273131363
 72
     1
 10
7.093123221901082
 20
3.247342273131363
 11
7.116389908339694
 21
3.247342273131363
 72
     1
 10
7.116389908339694
 20
3.247342273131363
 11
7.136909342609102
 21
3.247342273131363
 72
     1
 10
7.136909342609102
 20
3.247342273131363
 11
7.501909342609102
 21
3.247342273131363
 72
     1
 10
7.501909342609102
 20
3.247342273131363
 11
7.511909342609102
 21
3.257342273131363
 72
     1
 10
7.511909342609102
 20
3.257342273131363
 11
7.511909342609102
 21
3.339842273131363
 72
     1
 10
7.511909342609102
 20
3.339842273131363
 11
7.521909342609103
 21
3.339842273131363
 72
     1
 10
7.521909342609103
 20
3.339842273131363
 11
7.521909342609103
 21
3.329842273131363
 72
     1
 10
7.521909342609103
 20
3.329842273131363
 11
7.621909342609103
 21
3.329842273131363
 72
     1
 10
7.621909342609103
 20
3.329842273131363
 11
7.631909342609102
 21
3.347162781207051
 72
     1
 10
7.631909342609102
 20
3.347162781207051
 11
7.631909342609102
 21
3.397342273131363
 72
     1
 10
7.631909342609102
 20
3.397342273131363
 11
7.481909342609103
 21
3.397342273131363
 72
     1
 10
7.481909342609103
 20
3.397342273131363
 11
7.481909342609103
 21
3.319842273131363
 72
     1
 10
7.481909342609103
 20
3.319842273131363
 11
7.471909342609103
 21
3.319842273131363
 72
     1
 10
7.471909342609103
 20
3.319842273131363
 11
7.471909342609103
 21
3.329842273131363
 72
     1
 10
7.471909342609103
 20
3.329842273131363
 11
6.691909342609103
 21
3.329842273131363
 97
        0
 75
     0
 76
     1
 52
0.0
 41
1.0
 77
     0
 78
     1
 53
45.0
 43
0.0
 44
0.0
 45
-0.0883883476483184
 46
0.0883883476483184
 79
     0
 98
        1
 10
0.0
 20
0.0
  0
HATCH
  5
1AB
330
1F
100
AcDbEntity
  8
0
  6
Continuous
 62
     7
370
     0
100
AcDbHatch
 10
0.0
 20
0.0
 30
0.0
210
0.0
220
0.0
230
1.0
  2
ANSI31
 70
     0
 71
     0
 91
        1
 92
        0
 93
       28
 72
     1
 10
7.044023261801546
 20
5.447342273131363
 11
7.035266377716217
 21
5.447342273131363
 72
     1
 10
7.035266377716217
 20
5.447342273131363
 11
7.016711450333636
 21
5.447342273131363
 72
     1
 10
7.016711450333636
 20
5.447342273131363
 11
7.007292985166369
 21
5.447342273131363
 72
     1
 10
7.007292985166369
 20
5.447342273131363
 11
6.691909342609103
 21
5.447342273131363
 72
     1
 10
6.691909342609103
 20
5.447342273131363
 11
6.681909342609103
 21
5.437342273131363
 72
     1
 10
6.681909342609103
 20
5.437342273131363
 11
6.681909342609103
 21
5.382162781207052
 72
     1
 10
6.681909342609103
 20
5.382162781207052
 11
6.691909342609103
 21
5.364842273131363
 72
     1
 10
6.691909342609103
 20
5.364842273131363
 11
7.471909342609103
 21
5.364842273131363
 72
     1
 10
7.471909342609103
 20
5.364842273131363
 11
7.471909342609103
 21
5.374842273131363
 72
     1
 10
7.471909342609103
 20
5.374842273131363
 11
7.481909342609103
 21
5.374842273131363
 72
     1
 10
7.481909342609103
 20
5.374842273131363
 11
7.481909342609103
 21
5.297342273131364
 72
     1
 10
7.481909342609103
 20
5.297342273131364
 11
7.631909342609102
 21
5.297342273131364
 72
     1
 10
7.631909342609102
 20
5.297342273131364
 11
7.631909342609102
 21
5.347521765055675
 72
     1
 10
7.631909342609102
 20
5.347521765055675
 11
7.621909342609103
 21
5.364842273131363
 72
     1
 10
7.621909342609103
 20
5.364842273131363
 11
7.521909342609103
 21
5.364842273131363
 72
     1
 10
7.521909342609103
 20
5.364842273131363
 11
7.521909342609103
 21
5.354842273131363
 72
     1
 10
7.521909342609103
 20
5.354842273131363
 11
7.511909342609102
 21
5.354842273131363
 72
     1
 10
7.511909342609102
 20
5.354842273131363
 11
7.511909342609102
 21
5.437342273131364
 72
     1
 10
7.511909342609102
 20
5.437342273131364
 11
7.501909342609102
 21
5.447342273131363
 72
     1
 10
7.501909342609102
 20
5.447342273131363
 11
7.186909342609103
 21
5.447342273131363
 72
     1
 10
7.186909342609103
 20
5.447342273131363
 11
7.177678573378333
 21
5.447342273131363
 72
     1
 10
7.177678573378333
 20
5.447342273131363
 11
7.149986265686025
 21
5.447342273131363
 72
     1
 10
7.149986265686025
 20
5.447342273131363
 11
7.140755496455257
 21
5.447342273131363
 72
     1
 10
7.140755496455257
 20
5.447342273131363
 11
7.116140111839872
 21
5.447342273131363
 72
     1
 10
7.116140111839872
 20
5.447342273131363
 11
7.106909342609103
 21
5.447342273131363
 72
     1
 10
7.106909342609103
 20
5.447342273131363
 11
7.087694398939322
 21
5.447342273131363
 72
     1
 10
7.087694398939322
 20
5.447342273131363
 11
7.078452524758211
 21
5.447342273131363
 72
     1
 10
7.078452524758211
 20
5.447342273131363
 11
7.044023261801546
 21
5.447342273131363
 97
        0
 75
     0
 76
     1
 52
0.0
 41
1.0
 77
     0
 78
     1
 53
45.0
 43
0.0
 44
0.0
 45
-0.0883883476483184
 46
0.0883883476483184
 79
     0
 98
        1
 10
0.0
 20
0.0
  0
HATCH
  5
1AC
330
1F
100
AcDbEntity
  8
0
  6
Continuous
 62
     7
370
     0
100
AcDbHatch
 10
0.0
 20
0.0
 30
0.0
210
0.0
220
0.0
230
1.0
  2
ANSI31
 70
     0
 71
     0
 91
        1
 92
        0
 93
        8
 72
     1
 10
7.271447582447965
 20
3.380021765055675
 11
7.261447582447966
 21
3.397342273131364
 72
     1
 10
7.261447582447966
 20
3.397342273131364
 11
7.188768090523656
 21
3.397342273131364
 72
     1
 10
7.188768090523656
 20
3.397342273131364
 11
7.171447582447965
 21
3.387342273131363
 72
     1
 10
7.171447582447965
 20
3.387342273131363
 11
7.171447582447965
 21
3.347162781207051
 72
     1
 10
7.171447582447965
 20
3.347162781207051
 11
7.181447582447964
 21
3.329842273131363
 72
     1
 10
7.181447582447964
 20
3.329842273131363
 11
7.254127074372274
 21
3.329842273131363
 72
     1
 10
7.254127074372274
 20
3.329842273131363
 11
7.271447582447965
 21
3.339842273131365
 72
     1
 10
7.271447582447965
 20
3.339842273131365
 11
7.271447582447965
 21
3.380021765055675
 97
        0
 75
     0
 76
     1
 52
90.0
 41
0.25
 77
     0
 78
     1
 53
135.0000000000002
 43
0.0
 44
0.0
 45
-0.0220970869120795
 46
-0.0220970869120797
 79
     0
 98
        1
 10
0.0
 20
0.0
  0
HATCH
  5
1AD
330
1F
100
AcDbEntity
  8
0
  6
Continuous
 62
     7
370
     0
100
AcDbHatch
 10
0.0
 20
0.0
 30
0.0
210
0.0
220
0.0
230
1.0
  2
ANSI31
 70
     0
 71
     0
 91
        1
 92
        0
 93
        8
 72
     1
 10
7.261447582447966
 20
5.297342273131364
 11
7.271447582447965
 21
5.314662781207053
 72
     1
 10
7.271447582447965
 20
5.314662781207053
 11
7.271447582447965
 21
5.354842273131363
 72
     1
 10
7.271447582447965
 20
5.354842273131363
 11
7.254127074372274
 21
5.364842273131364
 72
     1
 10
7.254127074372274
 20
5.364842273131364
 11
7.181447582447964
 21
5.364842273131364
 72
     1
 10
7.181447582447964
 20
5.364842273131364
 11
7.171447582447965
 21
5.347521765055676
 72
     1
 10
7.171447582447965
 20
5.347521765055676
 11
7.171447582447965
 21
5.307342273131365
 72
     1
 10
7.171447582447965
 20
5.307342273131365
 11
7.188768090523656
 21
5.297342273131364
 72
     1
 10
7.188768090523656
 20
5.297342273131364
 11
7.261447582447966
 21
5.297342273131364
 97
        0
 75
     0
 76
     1
 52
90.0
 41
0.25
 77
     0
 78
     1
 53
135.0000000000002
 43
0.0
 44
0.0
 45
-0.0220970869120795
 46
-0.0220970869120797
 79
     0
 98
        1
 10
0.0
 20
0.0
  0
HATCH
  5
1AE
330
1F
100
AcDbEntity
  8
0
  6
Continuous
 62
     7
370
     0
100
AcDbHatch
 10
0.0
 20
0.0
 30
0.0
210
0.0
220
0.0
230
1.0
  2
ANSI31
 70
     0
 71
     0
 91
        1
 92
        0
 93
        4
 72
     1
 10
7.481909342609102
 20
3.347342273131363
 11
7.481909342609103
 21
5.347342273131364
 72
     1
 10
7.481909342609103
 20
5.347342273131364
 11
7.363799106388631
 21
5.347342273131364
 72
     2
 10
7.788923042977389
 20
4.347342273131363
 40
1.086614173228347
 50
113.031506387896
 51
246.9684936121048
 73
     1
 72
     1
 10
7.363799106388631
 20
3.347342273131363
 11
7.481909342609102
 21
3.347342273131363
 97
        0
 75
     0
 76
     1
 52
0.0
 41
1.0
 77
     0
 78
     1
 53
45.0
 43
0.0
 44
0.0
 45
-0.0883883476483184
 46
0.0883883476483184
 79
     0
 98
        1
 10
0.0
 20
0.0
  0
DIMENSION
  5
1AF
330
1F
100
AcDbEntity
  8
0
  6
Continuous
 62
     7
370
     0
100
AcDbDimension
  2
_D_1
 10
7.6319093426
 20
5.6581572678
 30
0.0
 11
8.4169295007
 21
5.6581572678
 31
0.0
 70
   160
  1
<>
 71
     2
 42
-1.0
  3
SLDDIMSTYLE1
100
AcDbAlignedDimension
 13
7.5119093426
 23
5.4373422731
 33
0.0
 14
7.6319093426
 24
5.3475217651
 34
0.0
100
AcDbRotatedDimension
  0
DIMENSION
  5
1C4
330
1F
100
AcDbEntity
  8
0
  6
Continuous
 62
     7
370
     0
100
AcDbDimension
  2
_D_2
 10
8.4169295007
 20
3.3973422731
 30
0.0
 11
8.4169295007
 21
4.3473422731
 31
0.0
 70
   160
  1
%%c<>
 71
     2
 42
-1.0
  3
SLDDIMSTYLE2
100
AcDbAlignedDimension
 13
7.6319093426
 23
5.2973422731
 33
0.0
 14
7.6319093426
 24
3.3973422731
 34
0.0
 50
90.0
100
AcDbRotatedDimension
  0
DIMENSION
  5
1D8
330
1F
100
AcDbEntity
  8
0
  6
Continuous
 62
     7
370
     0
100
AcDbDimension
  2
_D_3
 10
6.6819093426
 20
5.9177571438
 30
0.0
 11
7.1569093426
 21
5.9177571438
 31
0.0
 70
   160
  1
<>
 71
     2
 42
-1.0
  3
SLDDIMSTYLE1
100
AcDbAlignedDimension
 13
7.6319093426
 23
5.3475217651
 33
0.0
 14
6.6819093426
 24
5.4373422731
 34
0.0
100
AcDbRotatedDimension
  0
INSERT
  5
1F1
102
{ACAD_REACTORS
330
1F3
102
}
330
1F
100
AcDbEntity
  8
0
  6
Continuous
 62
     7
370
     0
100
AcDbBlockReference
  2
SW_NOTE_5
 10
5.9701135722
 20
4.250172417
 30
0.0
  0
LEADER
  5
1F3
330
1F
100
AcDbEntity
  8
0
  6
Continuous
 62
     7
370
     0
100
AcDbLeader
  3
SLDDIMSTYLE3
 73
     2
 76
     3
 10
7.1714475824
 20
3.3873422731
 30
0.0
 10
6.2161765643
 20
4.250172417
 30
0.0
 10
5.9701135722
 20
4.250172417
 30
0.0
340
1F1
  0
INSERT
  5
1F9
102
{ACAD_REACTORS
330
1FA
102
}
330
1F
100
AcDbEntity
  8
0
  6
Continuous
 62
     7
370
     0
100
AcDbBlockReference
  2
SW_NOTE_6
 10
6.209837705
 20
2.8256578583
 30
0.0
  0
LEADER
  5
1FA
330
1F
100
AcDbEntity
  8
0
  6
Continuous
 62
     7
370
     0
100
AcDbLeader
  3
SLDDIMSTYLE3
 73
     2
 76
     3
 10
6.9547095576
 20
3.2473422731
 30
0.0
 10
6.4559006971
 20
2.8256578583
 30
0.0
 10
6.209837705
 20
2.8256578583
 30
0.0
340
1F9
  0
INSERT
  5
202
102
{ACAD_REACTORS
330
203
102
}
330
1F
100
AcDbEntity
  8
0
  6
Continuous
 62
     7
370
     0
100
AcDbBlockReference
  2
SW_NOTE_7
 10
7.9880230135
 20
2.8011319987
 30
0.0
  0
LEADER
  5
203
330
1F
100
AcDbEntity
  8
0
  6
Continuous
 62
     7
370
     0
100
AcDbLeader
  3
SLDDIMSTYLE3
 73
     2
 76
     3
 10
7.3674804958
 20
3.2473422731
 30
0.0
 10
7.7380230135
 20
2.8011319987
 30
0.0
 10
7.9880230135
 20
2.8011319987
 30
0.0
340
202
  0
INSERT
  5
209
102
{ACAD_REACTORS
330
20A
102
}
330
1F
100
AcDbEntity
  8
0
  6
Continuous
 62
     7
370
     0
100
AcDbBlockReference
  2
SW_NOTE_8
 10
8.0952389145
 20
3.0699920707
 30
0.0
  0
LEADER
  5
20A
330
1F
100
AcDbEntity
  8
0
  6
Continuous
 62
     7
370
     0
100
AcDbLeader
  3
SLDDIMSTYLE3
 73
     2
 76
     3
 10
7.4819093426
 20
3.5248733539
 30
0.0
 10
7.8491759224
 20
3.0699920707
 30
0.0
 10
8.0952389145
 20
3.0699920707
 30
0.0
340
209
  0
INSERT
  5
211
102
{ACAD_REACTORS
330
212
102
}
330
1F
100
AcDbEntity
  8
0
  6
Continuous
 62
     7
370
     0
100
AcDbBlockReference
  2
SW_NOTE_9
 10
6.4218586347
 20
3.5986757483
 30
0.0
  0
LEADER
  5
212
330
1F
100
AcDbEntity
  8
0
  6
Continuous
 62
     7
370
     0
100
AcDbLeader
  3
SLDDIMSTYLE3
 73
     2
 76
     3
 10
6.948157638
 20
3.3414196036
 30
0.0
 10
6.6718586347
 20
3.5986757483
 30
0.0
 10
6.4218586347
 20
3.5986757483
 30
0.0
340
211
  0
OLE2FRAME
  5
213
330
1F
100
AcDbEntity
  8
0
100
AcDbOle2Frame
 70
     2
  3
Paintbrush Picture
 10
9.0178120406
 20
1.3267570784
 30
0.0
 11
10.4397105087
 21
1.1242314806
 31
0.0
 71
     2
 72
     0
 73
     1
 90
     7296
310
8055C64EE7A81E092240C05F59A1653AF53F0000000000000000FD155DBC21E1
310
2440C05F59A1653AF53F0000000000000000FD155DBC21E12440A1732426DAFC
310
F13F0000000000000000C64EE7A81E092240A1732426DAFCF13F000000000000
310
00000000000001000000000100000100000001000000000001000000001C0000
310
D0CF11E0A1B11AE1000000000000000000000000000000003E000300FEFF0900
310
0600000000000000000000000100000001000000000000000010000002000000
310
01000000FEFFFFFF0000000000000000FFFFFFFFFFFFFFFFFFFFFFFFFFFFFFFF
310
FFFFFFFFFFFFFFFFFFFFFFFFFFFFFFFFFFFFFFFFFFFFFFFFFFFFFFFFFFFFFFFF
310
FFFFFFFFFFFFFFFFFFFFFFFFFFFFFFFFFFFFFFFFFFFFFFFFFFFFFFFFFFFFFFFF
310
FFFFFFFFFFFFFFFFFFFFFFFFFFFFFFFFFFFFFFFFFFFFFFFFFFFFFFFFFFFFFFFF
310
FFFFFFFFFFFFFFFFFFFFFFFFFFFFFFFFFFFFFFFFFFFFFFFFFFFFFFFFFFFFFFFF
310
FFFFFFFFFFFFFFFFFFFFFFFFFFFFFFFFFFFFFFFFFFFFFFFFFFFFFFFFFFFFFFFF
310
FFFFFFFFFFFFFFFFFFFFFFFFFFFFFFFFFFFFFFFFFFFFFFFFFFFFFFFFFFFFFFFF
310
FFFFFFFFFFFFFFFFFFFFFFFFFFFFFFFFFFFFFFFFFFFFFFFFFFFFFFFFFFFFFFFF
310
FFFFFFFFFFFFFFFFFFFFFFFFFFFFFFFFFFFFFFFFFFFFFFFFFFFFFFFFFFFFFFFF
310
FFFFFFFFFFFFFFFFFFFFFFFFFFFFFFFFFFFFFFFFFFFFFFFFFFFFFFFFFFFFFFFF
310
FFFFFFFFFFFFFFFFFFFFFFFFFFFFFFFFFFFFFFFFFFFFFFFFFFFFFFFFFFFFFFFF
310
FFFFFFFFFFFFFFFFFFFFFFFFFFFFFFFFFFFFFFFFFFFFFFFFFFFFFFFFFFFFFFFF
310
FFFFFFFFFFFFFFFFFFFFFFFFFFFFFFFFFFFFFFFFFFFFFFFFFFFFFFFFFFFFFFFF
310
FFFFFFFFFFFFFFFFFFFFFFFFFFFFFFFFFFFFFFFFFFFFFFFFFFFFFFFFFFFFFFFF
310
FDFFFFFFFEFFFFFFFEFFFFFFFEFFFFFF05000000060000000700000008000000
310
090000000A0000000B0000000C000000FEFFFFFFFFFFFFFFFFFFFFFFFFFFFFFF
310
FFFFFFFFFFFFFFFFFFFFFFFFFFFFFFFFFFFFFFFFFFFFFFFFFFFFFFFFFFFFFFFF
310
FFFFFFFFFFFFFFFFFFFFFFFFFFFFFFFFFFFFFFFFFFFFFFFFFFFFFFFFFFFFFFFF
310
FFFFFFFFFFFFFFFFFFFFFFFFFFFFFFFFFFFFFFFFFFFFFFFFFFFFFFFFFFFFFFFF
310
FFFFFFFFFFFFFFFFFFFFFFFFFFFFFFFFFFFFFFFFFFFFFFFFFFFFFFFFFFFFFFFF
310
FFFFFFFFFFFFFFFFFFFFFFFFFFFFFFFFFFFFFFFFFFFFFFFFFFFFFFFFFFFFFFFF
310
FFFFFFFFFFFFFFFFFFFFFFFFFFFFFFFFFFFFFFFFFFFFFFFFFFFFFFFFFFFFFFFF
310
FFFFFFFFFFFFFFFFFFFFFFFFFFFFFFFFFFFFFFFFFFFFFFFFFFFFFFFFFFFFFFFF
310
FFFFFFFFFFFFFFFFFFFFFFFFFFFFFFFFFFFFFFFFFFFFFFFFFFFFFFFFFFFFFFFF
310
FFFFFFFFFFFFFFFFFFFFFFFFFFFFFFFFFFFFFFFFFFFFFFFFFFFFFFFFFFFFFFFF
310
FFFFFFFFFFFFFFFFFFFFFFFFFFFFFFFFFFFFFFFFFFFFFFFFFFFFFFFFFFFFFFFF
310
FFFFFFFFFFFFFFFFFFFFFFFFFFFFFFFFFFFFFFFFFFFFFFFFFFFFFFFFFFFFFFFF
310
FFFFFFFFFFFFFFFFFFFFFFFFFFFFFFFFFFFFFFFFFFFFFFFFFFFFFFFFFFFFFFFF
310
FFFFFFFFFFFFFFFFFFFFFFFFFFFFFFFFFFFFFFFFFFFFFFFFFFFFFFFFFFFFFFFF
310
FFFFFFFFFFFFFFFFFFFFFFFFFFFFFFFFFFFFFFFFFFFFFFFFFFFFFFFFFFFFFFFF
310
52006F006F007400200045006E00740072007900000000000000000000000000
310
0000000000000000000000000000000000000000000000000000000000000000
310
16000500FFFFFFFFFFFFFFFF020000000A00030000000000C000000000000046
310
000000000000000000000000C058CC5F5880D10103000000C000000000000000
310
01004F006C006500000000000000000000000000000000000000000000000000
310
0000000000000000000000000000000000000000000000000000000000000000
310
0A000200FFFFFFFFFFFFFFFFFFFFFFFF00000000000000000000000000000000
310
0000000000000000000000000000000000000000000000001400000000000000
310
010043006F006D0070004F0062006A0000000000000000000000000000000000
310
0000000000000000000000000000000000000000000000000000000000000000
310
120002010100000003000000FFFFFFFF00000000000000000000000000000000
310
0000000000000000000000000000000000000000010000004D00000000000000
310
01004F006C006500310030004E00610074006900760065000000000000000000
310
0000000000000000000000000000000000000000000000000000000000000000
310
1A000200FFFFFFFFFFFFFFFFFFFFFFFF00000000000000000000000000000000
310
000000000000000000000000000000000000000004000000E411000000000000
310
FEFFFFFF02000000FEFFFFFFFFFFFFFFFFFFFFFFFFFFFFFFFFFFFFFFFFFFFFFF
310
FFFFFFFFFFFFFFFFFFFFFFFFFFFFFFFFFFFFFFFFFFFFFFFFFFFFFFFFFFFFFFFF
310
FFFFFFFFFFFFFFFFFFFFFFFFFFFFFFFFFFFFFFFFFFFFFFFFFFFFFFFFFFFFFFFF
310
FFFFFFFFFFFFFFFFFFFFFFFFFFFFFFFFFFFFFFFFFFFFFFFFFFFFFFFFFFFFFFFF
310
FFFFFFFFFFFFFFFFFFFFFFFFFFFFFFFFFFFFFFFFFFFFFFFFFFFFFFFFFFFFFFFF
310
FFFFFFFFFFFFFFFFFFFFFFFFFFFFFFFFFFFFFFFFFFFFFFFFFFFFFFFFFFFFFFFF
310
FFFFFFFFFFFFFFFFFFFFFFFFFFFFFFFFFFFFFFFFFFFFFFFFFFFFFFFFFFFFFFFF
310
FFFFFFFFFFFFFFFFFFFFFFFFFFFFFFFFFFFFFFFFFFFFFFFFFFFFFFFFFFFFFFFF
310
FFFFFFFFFFFFFFFFFFFFFFFFFFFFFFFFFFFFFFFFFFFFFFFFFFFFFFFFFFFFFFFF
310
FFFFFFFFFFFFFFFFFFFFFFFFFFFFFFFFFFFFFFFFFFFFFFFFFFFFFFFFFFFFFFFF
310
FFFFFFFFFFFFFFFFFFFFFFFFFFFFFFFFFFFFFFFFFFFFFFFFFFFFFFFFFFFFFFFF
310
FFFFFFFFFFFFFFFFFFFFFFFFFFFFFFFFFFFFFFFFFFFFFFFFFFFFFFFFFFFFFFFF
310
FFFFFFFFFFFFFFFFFFFFFFFFFFFFFFFFFFFFFFFFFFFFFFFFFFFFFFFFFFFFFFFF
310
FFFFFFFFFFFFFFFFFFFFFFFFFFFFFFFFFFFFFFFFFFFFFFFFFFFFFFFFFFFFFFFF
310
FFFFFFFFFFFFFFFFFFFFFFFFFFFFFFFFFFFFFFFFFFFFFFFFFFFFFFFFFFFFFFFF
310
FFFFFFFFFFFFFFFFFFFFFFFFFFFFFFFFFFFFFFFFFFFFFFFFFFFFFFFFFFFFFFFF
310
0100000200000000000000000000000000000000000000000000000000000000
310
0000000000000000000000000000000000000000000000000000000000000000
310
0100FEFF030A0000FFFFFFFF0A00030000000000C00000000000004607000000
310
5042727573680007000000504272757368000700000050427275736800F439B2
310
7100000000000000000000000000000000000000000000000000000000000000
310
0000000000000000000000000000000000000000000000000000000000000000
310
0000000000000000000000000000000000000000000000000000000000000000
310
0000000000000000000000000000000000000000000000000000000000000000
310
0000000000000000000000000000000000000000000000000000000000000000
310
0000000000000000000000000000000000000000000000000000000000000000
310
0000000000000000000000000000000000000000000000000000000000000000
310
0000000000000000000000000000000000000000000000000000000000000000
310
0000000000000000000000000000000000000000000000000000000000000000
310
0000000000000000000000000000000000000000000000000000000000000000
310
0000000000000000000000000000000000000000000000000000000000000000
310
0000000000000000000000000000000000000000000000000000000000000000
310
E0110000424DDE11000000000000360400002800000096000000170000000100
310
08000000000000000000E7240000E72400000001000000010000000000FF0101
310
01FF020202FF030303FF040404FF050505FF060606FF070707FF080808FF0909
310
09FF0A0A0AFF0B0B0BFF0C0C0CFF0D0D0DFF0E0E0EFF0F0F0FFF101010FF1111
310
11FF121212FF131313FF141414FF151515FF161616FF171717FF181818FF1919
310
19FF1A1A1AFF1B1B1BFF1C1C1CFF1D1D1DFF1E1E1EFF1F1F1FFF202020FF2121
310
21FF222222FF232323FF242424FF252525FF262626FF272727FF282828FF2929
310
29FF2A2A2AFF2B2B2BFF2C2C2CFF2D2D2DFF2E2E2EFF2F2F2FFF303030FF3131
310
31FF323232FF333333FF343434FF353535FF363636FF373737FF383838FF3939
310
39FF3A3A3AFF3B3B3BFF3C3C3CFF3D3D3DFF3E3E3EFF3F3F3FFF404040FF4141
310
41FF424242FF434343FF444444FF454545FF464646FF474747FF484848FF4949
310
49FF4A4A4AFF4B4B4BFF4C4C4CFF4D4D4DFF4E4E4EFF4F4F4FFF505050FF5151
310
51FF525252FF535353FF545454FF555555FF565656FF575757FF585858FF5959
310
59FF5A5A5AFF5B5B5BFF5C5C5CFF5D5D5DFF5E5E5EFF5F5F5FFF606060FF6161
310
61FF626262FF636363FF646464FF656565FF666666FF676767FF686868FF6969
310
69FF6A6A6AFF6B6B6BFF6C6C6CFF6D6D6DFF6E6E6EFF6F6F6FFF707070FF7171
310
71FF727272FF737373FF747474FF757575FF767676FF777777FF787878FF7979
310
79FF7A7A7AFF7B7B7BFF7C7C7CFF7D7D7DFF7E7E7EFF7F7F7FFF808080FF8181
310
81FF828282FF838383FF848484FF858585FF868686FF878787FF888888FF8989
310
89FF8A8A8AFF8B8B8BFF8C8C8CFF8D8D8DFF8E8E8EFF8F8F8FFF909090FF9191
310
91FF929292FF939393FF949494FF959595FF969696FF979797FF989898FF9999
310
99FF9A9A9AFF9B9B9BFF9C9C9CFF9D9D9DFF9E9E9EFF9F9F9FFFA0A0A0FFA1A1
310
A1FFA2A2A2FFA3A3A3FFA4A4A4FFA5A5A5FFA6A6A6FFA7A7A7FFA8A8A8FFA9A9
310
A9FFAAAAAAFFABABABFFACACACFFADADADFFAEAEAEFFAFAFAFFFB0B0B0FFB1B1
310
B1FFB2B2B2FFB3B3B3FFB4B4B4FFB5B5B5FFB6B6B6FFB7B7B7FFB8B8B8FFB9B9
310
B9FFBABABAFFBBBBBBFFBCBCBCFFBDBDBDFFBEBEBEFFBFBFBFFFC0C0C0FFC1C1
310
C1FFC2C2C2FFC3C3C3FFC4C4C4FFC5C5C5FFC6C6C6FFC7C7C7FFC8C8C8FFC9C9
310
C9FFCACACAFFCBCBCBFFCCCCCCFFCDCDCDFFCECECEFFCFCFCFFFD0D0D0FFD1D1
310
D1FFD2D2D2FFD3D3D3FFD4D4D4FFD5D5D5FFD6D6D6FFD7D7D7FFD8D8D8FFD9D9
310
D9FFDADADAFFDBDBDBFFDCDCDCFFDDDDDDFFDEDEDEFFDFDFDFFFE0E0E0FFE1E1
310
E1FFE2E2E2FFE3E3E3FFE4E4E4FFE5E5E5FFE6E6E6FFE7E7E7FFE8E8E8FFE9E9
310
E9FFEAEAEAFFEBEBEBFFECECECFFEDEDEDFFEEEEEEFFEFEFEFFFF0F0F0FFF1F1
310
F1FFF2F2F2FFF3F3F3FFF4F4F4FFF5F5F5FFF6F6F6FFF7F7F7FFF8F8F8FFF9F9
310
F9FFFAFAFAFFFBFBFBFFFCFCFCFFFDFDFDFFFEFEFEFFFFFFFFFFFFFFFFFFFFFF
310
C94E4E4E4F4E4EFFFFFFFFFFC94E4E4E4E4E72FFFFFFFFFFFFFF734E4D4E4E4E
310
C9FFFFFFFFFFAA683516171616265B9BE9FFFFFFFFFF4E4E4E4D4E4EFFFFFFFF
310
FFFFFFFF4E4E4F4E4D4E4E4E4F4E4E4F4D4E4E4E4E4E4D4E4F4E4D4E4E4EAAFF
310
FFFFFFFFFFEA4E4F4F4E4E4E4E4E4D4D4F4F4E4E4E4E4E5B7FAAFFFFFFFFFFFF
310
C9744E1716171616164D8DEAFFFFFFFF0000FFFFFFFFFFFFBA161617161716FF
310
FFFFFFFFB917171616174FFFFFFFFFFFFFFF4E1716161616B9FFFFFFB9341717
310
1716171617171616268CFFFFFFFF161617161617FFFFFFFFFFFFFFB917161717
310
1617167F807F7F7F7F7F7F807F7F807F7F807F7F7F414EFFFFFFFFFFFF8C167F
310
7F807F7F7F7E7F7F807F807F7F807F4E3417258EFFFFEA4E162674AABAEAEBBA
310
AA74341680FFFFFF0000FFFFFFFFFFFFB9171717171617FFFFFFFFFFBB161616
310
16164EFFFFFFFFFFFFFF4E1717171717B9FFFF9C171617171716161616171616
310
171766FFFFFF161717161617FFFFFFFFFFFFFF8E16171717161616FFFFFFFFFF
310
FFFFFFFFFFFFFFFFFFFFFFFFFFAA16D9FFFFFFFFFF3467FFFFFFFFEAFFFFFFFF
310
FFFFFFFFFFFFFFFFFFCA671667EB26278DFFFFFFFFFFFFFFFFFFFF8C2541EAFF
310
0000FFFFFFFFFFFFB9171717171716FFFFFFFFFFBA16171617174EFFFFFFFFFF
310
FFFF4E1717161616BAFF9B1617161616171716171617161616161667FFFF1616
310
16161716FFFFFFFFFFFFFF7F16161617174017FFFFFFFFFFFFFFFFFFFFFFFFFF
310
FFFFFFFFFFFF344E7F7F7F7E7417DAFFFFFFFF80FFFFFFFFFFFFFFFFFFFFFFFF
310
FFFFFF9B163425CAFFFFFFFFFFFFFFFFFFFFFFFFCA2667FF0000FFFFFFFFFFFF
310
BA171717171617FFFFFFFFFFB916171716164EFFFFFFFFFFFFFF4F1716161717
310
B9C91716171616161716161617171616161617168DFF161716161717FFFFFFFF
310
FFFFFF7F17171716164F16FFFFFFFFFFFFFFFFFFFFFFFFFFFFFFFFFFFFFF9B16
310
17161617174EFFFFFFFFFF34FFFFFFFFD9BABABABABADAFFFFFFFFFF7F16AAFF
310
FFFFFFFFFFFFFFFFFFFFFFFFFF9C16BA0000FFFFFFFFFFFFB9161717161717FF
310
FFFFFFFFB917161716174DFFFFFFFFFFFFFF4E1616161616BA4E161617171716
310
419BEAEAAA4E16161617161726E9171717161616FFFFFFFFFFFFFF4F16161717
310
164E16FFFFFFFFFFBAB9B9B9B9B9BABABACAFFFFFFFFFFFFFFFFFFFFFFFFFFFF
310
FFFFBA16FFFFFFFF7F1617161617174DEAFFFFFFEA41FFFFFFFFFFAA4D16174E
310
9BFFFFFFFFFF34730000FFFFFFFFFFFFB9161617171617FFFFFFFFFFBA161616
310
16164EFFFFFFFFFFFFFF4F16161717169B1617161716175BFFFFFFFFFFFF7417
310
16171616168D171717161617FFFFFFFFFFFFEA2616171717167416FFFFFFFFFF
310
16171616171717171717EAFFFFFFFFFFFFFFFFFFFFFFFFFFFFFF6716FFFFFFFF
310
7F4EFFFFFFFFBA2573FFFFFFFFBAFFFFFFFFAA167FB9BB9B269BFFFFFFFF664F
310
0000FFFFFFFFFFFFB9171616161616FFFFFFFFFFBA16161717164EFFFFFFFFFF
310
FFFF4E16161616174E161617171626EAFFFFFFFFFFFFFF4E16161616164E1716
310
16161617FFFFFFFFFFFF671616161716347F16FFFFFFFFFF16B9FFFFFFFFFFFF
310
D9168DFFFFFFFFFFFFFFFFFFFFFFFFFFFFEA1716FFFFFFFF7F4EFFFFFFFFFF7F
310
4EFFFFFFFFFFFFFFFFFF5B66FFFFFFEA347FFFFFFFFF7F4D0000FFFFFFFFFFFF
310
B9171616171617FFFFFFFFFFBA17161716174EFFFFFFFFFFFFFF4D1716161617
310
17161716161673FFFFFFFFFFFFFFFF9B1617161717161616171616174F4E4E4E
310
4E341616171616167E7F16FFFFFFFFFF16BAFFFFFFFFFFFFFF5B41FFFFFFFF34
310
1616171616BAFFFFFF9B1716FFFFFFFF7F4EFFFFFFFFFF4E4EFFFFFFFF734E4E
310
4E4E267EDA9B67164EEAFFFFFFFF744D0000FFFFFFFFFFFFBA171717161617FF
310
FFFFFFFFBA1616171616347F7F7F7F80807F331616161717161717161716B9FF
310
FFFFFFFFFFFFFFE9161616161616171716161716171616161616171616171734
310
EA7F16FFFFFFFFFF16BAFFFFFFFFFFFFFFAA17C9FFFFFF7326BABA5B25FFFFFF
310
FF401716FFFFFFFF7F264F4E4E4E4217AAFFFFFFEA16677F73261616164173CA
310
FFFFFFFFFFFF417F0000FFFFFFFFFFFFBA171616171617FFFFFFFFFFBA161616
310
17171616161616161616161717161616161616161617EAFFFFFFFFFFFFFFFFFF
310
261717161716161617161616161617161617161616174EEAFF8016FFFFFFFFFF
310
17BAFFFFFFFFFFFFFFFF3467FFFFFFC916C9FF3467FFFFFFDA166716FFFFFFFF
310
9C4D4E4E4E4E67AAFFFFFFFF6834FF7F262567AAEAFFFFFFFFFFFFFFFF9B17D9
310
0000FFFFFFFFFFFFB9161616161616FFFFFFFFFFBA1617161717171616161616
310
1716171716161716161617171716FFFFFFFFFFFFFFFFFFFF4E17161716171616
310
1617171616161716171717161616169BFF7F17FFFFFFFFFF17B9FFFFFFFFFFFF
310
FFFF7326FFFFFFFF3473DA16AAFFFFFF7317AA16FFFFFFFFFFFFFFFFFFFFFFFF
310
FFFFEA6725BA4E167FEAFFFFFFFFFFFFFFFFFFFF9C167FFF0000FFFFFFFFFFFF
310
B9161717171716FFFFFFFFFFBA16161716171616171717161617161716161616
310
171617171617EAFFFFFFFFFFFFFFFFFF26161717161616161616161617171616
310
1616161616171616AA8016FFFFFFFFFF16BAFFFFFFFFFFFFFFFFDA179BFFFFFF
310
74348D26FFFFFFFF2566B917FFFFFFFFD8BAB9BAB9BADAFFFFEA41169B7425C9
310
FFFFFFFFFFFFFFFFFFFFAB4F1680FFFF0000FFFFFFFFFFFFBA161717171617FF
310
FFFFFFFFBA17161717161617171617161616161617171616171716171617BBFF
310
FFFFFFFFFFFFFFE9171616161617161617161716FFFFFFFFFFD9671616161617
310
348017FFFFFFFFFF16BAFFFFFFFFFFFFFFFFFF4E5AFFFFFFC916265AFFFFFFAA
310
16AABA16FFFFFFFF7F1617161616179BFFFFEB4127168DFFFFFFFFFFFFFFD99B
310
6734175AC9FFFFFF0000FFFFFFFFFFFFB9161617171617FFFFFFFFFFBB161616
310
1616347F807F7F7F7F8033171716171617171616161672FFFFFFFFFFFFFFFF9C
310
171617171617161716161617FFFFFFFFFFFFFF4117161616174E17FFFFFFFFFF
310
16BAFFFFFFFFFFFFFFFFFF9B16DAFFFFFF34169BFFFFFF5A26FFB917FFFFFFFF
310
7F4EFFFFFFEA5B26FFFFFFEA2616EAFFFFFFFFDA743416331617414E4E4E4ECA
310
0000FFFFFFFFFFFFBA161716161616FFFFFFFFFFBA17171616164EFFFFFFFFFF
310
FFFF4E16161717174E161717171626EBFFFFFFFFFFFFFF4E16161617165B1616
310
16171617FFFFFFFFFFFFFF6716161616161617FFFFFFFFFF16BAFFFFFFFFFFFF
310
FFFFFFEA268CFFFFFF7316EAFFFFEB1774FFB916FFFFFFFF7F4EFFFFFFFF7316
310
FFFFFFFF6826FFFFFFFFEB264D9CEABA257F807F7F6616BA0000FFFFFFFFFFFF
310
BA161716161616FFFFFFFFFFBA16171616164DFFFFFFFFFFFFFF4E1617161617
310
9B1617171717165BEBFFFFFFFFFF671616161617179B171616161616FFFFFFFF
310
FFFFFF3417161617171617FFFFFFFFFF17BAFFFFFFFFFFFFFFFFFFFF6734FFFF
310
FFEBCAFFFFFF8D17C9FFBA17FFFFFFFF7F357F808066174FFFFFFFFF7F16FFFF
310
FFFFD91673B99B415BFFFFFFFFBA16DA00009B7F7F7F807F671617161616167F
310
80807F7E6617161616164EFFFFFFFFFFFFFF4E1616161617B94E171716161616
310
349BC9D9AA4E16171616161634FF161617161717B9B9BAB9BA9B411716171716
310
163416FFFFFFFFFF16B9FFFFFFFFFFFFFFFFFFFFC917CAFFFFFFFFFFFFFF3342
310
FFFFBA17FFFFFFFF9B4E4E4F4E4E66EAFFFFFFFF5B16C9FFFFFFFFAA4E164E73
310
EAFFFFFFFF8D26FF00004E161716161616171617171616171717171617161616
310
17174EFFFFFFFFFFFFFF4E1717171616B9D92616171716171716171717171716
310
16171716AAFF161717171617161617171616161617161716166717FFFFFFFFFF
310
17B9FFFFFFFFFFFFFFFFFFFFFF3467FFFFFFFFFFFFCA168CFFFFBB17FFFFFFFF
310
FFFFFFFFFFFFFFFFFFFFFFEA26265BFFFFFFFFFFFFFFFFFFFFFFFFFFEA3467FF
310
00004D16161616161617161717161617161616171617171616164EFFFFFFFFFF
310
FFFF4D1617161616BAFF9B1616161616161716161616171717161766FFFF1616
310
16171617161617161716171616171717667F16FFFFFFFFFF17BAFFFFFFFFFFFF
310
FFFFFFFFFF8C26EAFFFFFFFFFF6617EAFFFFBA17FFFFFFFFFFFFFFFFFFFFFFFF
310
FFFFEA5A25BA269BFFFFFFFFFFFFFFFFFFFFFFFF6616DAFF00004E1616171616
310
1616161616161716161617171616171616174EFFFFFFFFFFFFFF4D1717171716
310
B9FFFF9C161616161616161716161717171667FFFFFF17161717171716161617
310
1716161616161641E97E16FFFFFFFFFF16B9FFFFFFFFFFFFFFFFFFFFFFEA169B
310
FFFFFFFFEA265BFFFFFFB916FFFFFFFFFFFFFFFFFFFFFFFFFF9B3416AAFF9B17
310
67EAFFFFFFFFFFFFFFFFEA5B169BFFFF00004D17161716161616161717171616
310
161717161716171716174EFFFFFFFFFFFFFF4D1616161616BAFFFFFFBB411616
310
161716161616171634ABFFFFFFFF161716161617171716171617171617267FFF
310
FF7F164E4E4E4E4F17BAFFFFFFFFFFFFFFFFFFFFFFFF66344D4E4E4F4117AAFF
310
FFFFBA174E4E4E4D4E4D4D4E4E4E4E4116174EBBFFFFFFCA342666ABEAFFFFEA
310
AA6725269CFFFFFF0000724F4E4D4D4D4E4D4D4E4E4E4D4E4E4E4E4E4E4E4E4D
310
4E4E74FFFFFFFFFFFFFF734E4E4E4D4ECAFFFFFFFFFFAA663416171717265B9B
310
FFFFFFFFFFFF7F8080807F80807F7F7F7F7F807FBAFFFFFFFF9B4E4E4F4D4D4E
310
4DC9FFFFFFFFFFFFFFFFFFFFFFFFBA4E4E4E4E4D4E4EFFFFFFFFC94E4E4E4F4E
310
4E4E4D4E4E5A807F9CD9FFFFFFFFFFFFFF9B5B2617171716174E8DEAFFFFFFFF
310
0000000000000000000000000000000000000000000000000000000000000000
  1
OLE
  0
ENDSEC
  0
SECTION
  2
OBJECTS
  0
DICTIONARY
  5
C
330
0
100
AcDbDictionary
281
     1
  3
ACAD_GROUP
350
D
  3
ACAD_LAYOUT
350
1A
  3
ACAD_MLINESTYLE
350
17
  3
ACAD_PLOTSETTINGS
350
19
  3
ACAD_PLOTSTYLENAME
350
E
  3
ACAD_SCALELIST
350
47
  0
DICTIONARY
  5
D
102
{ACAD_REACTORS
330
C
102
}
330
C
100
AcDbDictionary
281
     1
  0
DICTIONARY
  5
1A
102
{ACAD_REACTORS
330
C
102
}
330
C
100
AcDbDictionary
281
     1
  3
Layout1
350
1E
  3
Layout2
350
26
  3
Model
350
22
  0
DICTIONARY
  5
17
102
{ACAD_REACTORS
330
C
102
}
330
C
100
AcDbDictionary
281
     1
  3
Standard
350
18
  0
DICTIONARY
  5
19
102
{ACAD_REACTORS
330
C
102
}
330
C
100
AcDbDictionary
281
     1
  0
ACDBDICTIONARYWDFLT
  5
E
102
{ACAD_REACTORS
330
C
102
}
330
C
100
AcDbDictionary
281
     1
  3
Normal
350
F
100
AcDbDictionaryWithDefault
340
F
  0
DICTIONARY
  5
47
102
{ACAD_REACTORS
330
C
102
}
330
C
100
AcDbDictionary
281
     1
  3
A0
350
48
  3
A1
350
49
  3
A2
350
4A
  3
A3
350
4B
  3
A4
350
4C
  3
A5
350
4D
  3
A6
350
4E
  3
A7
350
4F
  3
A8
350
50
  3
A9
350
51
  3
B0
350
52
  3
B1
350
53
  3
B2
350
54
  3
B3
350
55
  3
B4
350
56
  3
B5
350
57
  3
B6
350
58
  3
B7
350
59
  3
B8
350
5A
  3
B9
350
5B
  3
C0
350
5C
  3
C1
350
5D
  3
C2
350
5E
  3
C3
350
5F
  3
C4
350
60
  3
C5
350
61
  3
C6
350
62
  3
C7
350
63
  3
C8
350
64
  3
C9
350
65
  3
D0
350
66
  3
D1
350
67
  3
D2
350
68
  0
LAYOUT
  5
1E
102
{ACAD_REACTORS
330
1A
102
}
330
1A
100
AcDbPlotSettings
  1

  2
none_device
  4

  6

 40
0.0
 41
0.0
 42
0.0
 43
0.0
 44
0.0
 45
0.0
 46
0.0
 47
0.0
 48
0.0
 49
0.0
140
0.0
141
0.0
142
1.0
143
1.0
 70
   688
 72
     0
 73
     0
 74
     5
  7

 75
    16
147
1.0
148
0.0
149
0.0
100
AcDbLayout
  1
Layout1
 70
     1
 71
     1
 10
0.0
 20
0.0
 11
12.0
 21
9.0
 12
0.0
 22
0.0
 32
0.0
 14
1.0000000000E+20
 24
1.0000000000E+20
 34
1.0000000000E+20
 15
-1.0000000000E+20
 25
-1.0000000000E+20
 35
-1.0000000000E+20
146
0.0
 13
0.0
 23
0.0
 33
0.0
 16
1.0
 26
0.0
 36
0.0
 17
0.0
 27
1.0
 37
0.0
 76
     0
330
1B
  0
LAYOUT
  5
26
102
{ACAD_REACTORS
330
1A
102
}
330
1A
100
AcDbPlotSettings
  1

  2
none_device
  4

  6

 40
0.0
 41
0.0
 42
0.0
 43
0.0
 44
0.0
 45
0.0
 46
0.0
 47
0.0
 48
0.0
 49
0.0
140
0.0
141
0.0
142
1.0
143
1.0
 70
   688
 72
     0
 73
     0
 74
     5
  7

 75
    16
147
1.0
148
0.0
149
0.0
100
AcDbLayout
  1
Layout2
 70
     1
 71
     2
 10
0.0
 20
0.0
 11
0.0
 21
0.0
 12
0.0
 22
0.0
 32
0.0
 14
0.0
 24
0.0
 34
0.0
 15
0.0
 25
0.0
 35
0.0
146
0.0
 13
0.0
 23
0.0
 33
0.0
 16
1.0
 26
0.0
 36
0.0
 17
0.0
 27
1.0
 37
0.0
 76
     0
330
23
  0
LAYOUT
  5
22
102
{ACAD_REACTORS
330
1A
102
}
330
1A
100
AcDbPlotSettings
  1

  2
none_device
  4
Letter_(8.50_x_11.00_Inches)
  6

 40
6.35
 41
6.35
 42
6.35000508
 43
6.35000508
 44
215.9
 45
279.4
 46
0.0
 47
0.0
 48
0.0
 49
0.0
140
0.0
141
0.0
142
1.0
143
1.0
 70
  1712
 72
     0
 73
     0
 74
     0
  7

 75
     0
147
1.0
148
0.0
149
0.0
100
AcDbLayout
  1
Model
 70
     1
 71
     0
 10
0.0
 20
0.0
 11
11.0
 21
8.5
 12
0.0
 22
0.0
 32
0.0
 14
0.0
 24
0.0
 34
0.0
 15
11.0
 25
8.5
 35
0.0
146
0.0
 13
0.0
 23
0.0
 33
0.0
 16
1.0
 26
0.0
 36
0.0
 17
0.0
 27
1.0
 37
0.0
 76
     0
330
1F
331
29
  0
MLINESTYLE
  5
18
102
{ACAD_REACTORS
330
17
102
}
330
17
100
AcDbMlineStyle
  2
Standard
 70
     0
  3

 62
   256
 51
90.0
 52
90.0
 71
     2
 49
0.5
 62
   256
  6
BYLAYER
 49
-0.5
 62
   256
  6
BYLAYER
  0
ACDBPLACEHOLDER
  5
F
102
{ACAD_REACTORS
330
E
102
}
330
E
  0
SCALE
  5
48
102
{ACAD_REACTORS
330
47
102
}
330
47
100
AcDbScale
 70
     0
300
1:1
140
1.0
141
1.0
290
     1
  0
SCALE
  5
49
102
{ACAD_REACTORS
330
47
102
}
330
47
100
AcDbScale
 70
     0
300
1:2
140
1.0
141
2.0
290
     0
  0
SCALE
  5
4A
102
{ACAD_REACTORS
330
47
102
}
330
47
100
AcDbScale
 70
     0
300
1:4
140
1.0
141
4.0
290
     0
  0
SCALE
  5
4B
102
{ACAD_REACTORS
330
47
102
}
330
47
100
AcDbScale
 70
     0
300
1:5
140
1.0
141
5.0
290
     0
  0
SCALE
  5
4C
102
{ACAD_REACTORS
330
47
102
}
330
47
100
AcDbScale
 70
     0
300
1:8
140
1.0
141
8.0
290
     0
  0
SCALE
  5
4D
102
{ACAD_REACTORS
330
47
102
}
330
47
100
AcDbScale
 70
     0
300
1:10
140
1.0
141
10.0
290
     0
  0
SCALE
  5
4E
102
{ACAD_REACTORS
330
47
102
}
330
47
100
AcDbScale
 70
     0
300
1:16
140
1.0
141
16.0
290
     0
  0
SCALE
  5
4F
102
{ACAD_REACTORS
330
47
102
}
330
47
100
AcDbScale
 70
     0
300
1:20
140
1.0
141
20.0
290
     0
  0
SCALE
  5
50
102
{ACAD_REACTORS
330
47
102
}
330
47
100
AcDbScale
 70
     0
300
1:30
140
1.0
141
30.0
290
     0
  0
SCALE
  5
51
102
{ACAD_REACTORS
330
47
102
}
330
47
100
AcDbScale
 70
     0
300
1:40
140
1.0
141
40.0
290
     0
  0
SCALE
  5
52
102
{ACAD_REACTORS
330
47
102
}
330
47
100
AcDbScale
 70
     0
300
1:50
140
1.0
141
50.0
290
     0
  0
SCALE
  5
53
102
{ACAD_REACTORS
330
47
102
}
330
47
100
AcDbScale
 70
     0
300
1:100
140
1.0
141
100.0
290
     0
  0
SCALE
  5
54
102
{ACAD_REACTORS
330
47
102
}
330
47
100
AcDbScale
 70
     0
300
2:1
140
2.0
141
1.0
290
     0
  0
SCALE
  5
55
102
{ACAD_REACTORS
330
47
102
}
330
47
100
AcDbScale
 70
     0
300
4:1
140
4.0
141
1.0
290
     0
  0
SCALE
  5
56
102
{ACAD_REACTORS
330
47
102
}
330
47
100
AcDbScale
 70
     0
300
8:1
140
8.0
141
1.0
290
     0
  0
SCALE
  5
57
102
{ACAD_REACTORS
330
47
102
}
330
47
100
AcDbScale
 70
     0
300
10:1
140
10.0
141
1.0
290
     0
  0
SCALE
  5
58
102
{ACAD_REACTORS
330
47
102
}
330
47
100
AcDbScale
 70
     0
300
100:1
140
100.0
141
1.0
290
     0
  0
SCALE
  5
59
102
{ACAD_REACTORS
330
47
102
}
330
47
100
AcDbScale
 70
     0
300
1/128" = 1'-0"
140
0.0078125
141
12.0
290
     0
  0
SCALE
  5
5A
102
{ACAD_REACTORS
330
47
102
}
330
47
100
AcDbScale
 70
     0
300
1/64" = 1'-0"
140
0.015625
141
12.0
290
     0
  0
SCALE
  5
5B
102
{ACAD_REACTORS
330
47
102
}
330
47
100
AcDbScale
 70
     0
300
1/32" = 1'-0"
140
0.03125
141
12.0
290
     0
  0
SCALE
  5
5C
102
{ACAD_REACTORS
330
47
102
}
330
47
100
AcDbScale
 70
     0
300
1/16" = 1'-0"
140
0.0625
141
12.0
290
     0
  0
SCALE
  5
5D
102
{ACAD_REACTORS
330
47
102
}
330
47
100
AcDbScale
 70
     0
300
3/32" = 1'-0"
140
0.09375
141
12.0
290
     0
  0
SCALE
  5
5E
102
{ACAD_REACTORS
330
47
102
}
330
47
100
AcDbScale
 70
     0
300
1/8" = 1'-0"
140
0.125
141
12.0
290
     0
  0
SCALE
  5
5F
102
{ACAD_REACTORS
330
47
102
}
330
47
100
AcDbScale
 70
     0
300
3/16" = 1'-0"
140
0.1875
141
12.0
290
     0
  0
SCALE
  5
60
102
{ACAD_REACTORS
330
47
102
}
330
47
100
AcDbScale
 70
     0
300
1/4" = 1'-0"
140
0.25
141
12.0
290
     0
  0
SCALE
  5
61
102
{ACAD_REACTORS
330
47
102
}
330
47
100
AcDbScale
 70
     0
300
3/8" = 1'-0"
140
0.375
141
12.0
290
     0
  0
SCALE
  5
62
102
{ACAD_REACTORS
330
47
102
}
330
47
100
AcDbScale
 70
     0
300
1/2" = 1'-0"
140
0.5
141
12.0
290
     0
  0
SCALE
  5
63
102
{ACAD_REACTORS
330
47
102
}
330
47
100
AcDbScale
 70
     0
300
3/4" = 1'-0"
140
0.75
141
12.0
290
     0
  0
SCALE
  5
64
102
{ACAD_REACTORS
330
47
102
}
330
47
100
AcDbScale
 70
     0
300
1" = 1'-0"
140
1.0
141
12.0
290
     0
  0
SCALE
  5
65
102
{ACAD_REACTORS
330
47
102
}
330
47
100
AcDbScale
 70
     0
300
1-1/2" = 1'-0"
140
1.5
141
12.0
290
     0
  0
SCALE
  5
66
102
{ACAD_REACTORS
330
47
102
}
330
47
100
AcDbScale
 70
     0
300
3" = 1'-0"
140
3.0
141
12.0
290
     0
  0
SCALE
  5
67
102
{ACAD_REACTORS
330
47
102
}
330
47
100
AcDbScale
 70
     0
300
6" = 1'-0"
140
6.0
141
12.0
290
     0
  0
SCALE
  5
68
102
{ACAD_REACTORS
330
47
102
}
330
47
100
AcDbScale
 70
     0
300
1'-0" = 1'-0"
140
12.0
141
12.0
290
     0
  0
ENDSEC
  0
EOF
