  0
SECTION
  2
HEADER
  9
$ACADVER
  1
AC1014
  9
$ACADMAINTVER
 70
     9
  9
$DWGCODEPAGE
  3
ANSI_1252
  9
$INSBASE
 10
0.0
 20
0.0
 30
0.0
  9
$EXTMIN
 10
0.0
 20
0.0
 30
0.0
  9
$EXTMAX
 10
279.4
 20
215.9
 30
0.0
  9
$LIMMIN
 10
0.0
 20
0.0
  9
$LIMMAX
 10
279.4
 20
215.9
  9
$ORTHOMODE
 70
     0
  9
$REGENMODE
 70
     1
  9
$FILLMODE
 70
     1
  9
$QTEXTMODE
 70
     0
  9
$MIRRTEXT
 70
     1
  9
$DRAGMODE
 70
     2
  9
$LTSCALE
 40
1.0
  9
$OSMODE
 70
    37
  9
$ATTMODE
 70
     1
  9
$TEXTSIZE
 40
2.8222222222
  9
$TRACEWID
 40
1.0
  9
$TEXTSTYLE
  7
STANDARD
  9
$CLAYER
  8
0
  9
$CELTYPE
  6
BYLAYER
  9
$CECOLOR
 62
   256
  9
$CELTSCALE
 40
1.0
  9
$DELOBJ
 70
     1
  9
$DISPSILH
 70
     0
  9
$DIMSCALE
 40
1.0
  9
$DIMASZ
 40
3.175
  9
$DIMEXO
 40
1.27
  9
$DIMDLI
 40
3.75
  9
$DIMRND
 40
0.0
  9
$DIMDLE
 40
0.0
  9
$DIMEXE
 40
1.778
  9
$DIMTP
 40
0.0
  9
$DIMTM
 40
0.0
  9
$DIMTXT
 40
2.8222222222
  9
$DIMCEN
 40
2.5
  9
$DIMTSZ
 40
0.0
  9
$DIMTOL
 70
     0
  9
$DIMLIM
 70
     0
  9
$DIMTIH
 70
     1
  9
$DIMTOH
 70
     1
  9
$DIMSE1
 70
     0
  9
$DIMSE2
 70
     0
  9
$DIMTAD
 70
     0
  9
$DIMZIN
 70
     1
  9
$DIMBLK
  1

  9
$DIMASO
 70
     1
  9
$DIMSHO
 70
     1
  9
$DIMPOST
  1

  9
$DIMAPOST
  1

  9
$DIMALT
 70
     0
  9
$DIMALTD
 70
     3
  9
$DIMALTF
 40
0.0393700787
  9
$DIMLFAC
 40
1.0
  9
$DIMTOFL
 70
     1
  9
$DIMTVP
 40
0.0
  9
$DIMTIX
 70
     0
  9
$DIMSOXD
 70
     0
  9
$DIMSAH
 70
     0
  9
$DIMBLK1
  1

  9
$DIMBLK2
  1

  9
$DIMSTYLE
  2
ISO-25
  9
$DIMCLRD
 70
     0
  9
$DIMCLRE
 70
     0
  9
$DIMCLRT
 70
     0
  9
$DIMTFAC
 40
1.0
  9
$DIMGAP
 40
2.54
  9
$DIMJUST
 70
     0
  9
$DIMSD1
 70
     0
  9
$DIMSD2
 70
     0
  9
$DIMTOLJ
 70
     0
  9
$DIMTZIN
 70
     1
  9
$DIMALTZ
 70
     0
  9
$DIMALTTZ
 70
     0
  9
$DIMFIT
 70
     3
  9
$DIMUPT
 70
     0
  9
$DIMUNIT
 70
     2
  9
$DIMDEC
 70
     1
  9
$DIMTDEC
 70
     1
  9
$DIMALTU
 70
     2
  9
$DIMALTTD
 70
     3
  9
$DIMTXSTY
  7
STANDARD
  9
$DIMAUNIT
 70
     0
  9
$LUNITS
 70
     2
  9
$LUPREC
 70
     1
  9
$SKETCHINC
 40
1.0
  9
$FILLETRAD
 40
10.0
  9
$AUNITS
 70
     0
  9
$AUPREC
 70
     0
  9
$MENU
  1
.
  9
$ELEVATION
 40
0.0
  9
$PELEVATION
 40
0.0
  9
$THICKNESS
 40
0.0
  9
$LIMCHECK
 70
     0
  9
$CHAMFERA
 40
0.0
  9
$CHAMFERB
 40
0.0
  9
$CHAMFERC
 40
0.0
  9
$CHAMFERD
 40
0.0
  9
$SKPOLY
 70
     0
  9
$TDCREATE
 40
2457751.415724467
  9
$TDUPDATE
 40
2457751.415770185
  9
$TDINDWG
 40
0.0000000116
  9
$TDUSRTIMER
 40
0.0000000116
  9
$USRTIMER
 70
     1
  9
$ANGBASE
 50
0.0
  9
$ANGDIR
 70
     0
  9
$PDMODE
 70
     0
  9
$PDSIZE
 40
-1.0
  9
$PLINEWID
 40
0.0
  9
$COORDS
 70
     1
  9
$SPLFRAME
 70
     0
  9
$SPLINETYPE
 70
     6
  9
$SPLINESEGS
 70
     8
  9
$ATTDIA
 70
     0
  9
$ATTREQ
 70
     1
  9
$HANDLING
 70
     1
  9
$HANDSEED
  5
4DD
  9
$SURFTAB1
 70
     6
  9
$SURFTAB2
 70
     6
  9
$SURFTYPE
 70
     6
  9
$SURFU
 70
     6
  9
$SURFV
 70
     6
  9
$UCSNAME
  2

  9
$UCSORG
 10
0.0
 20
0.0
 30
0.0
  9
$UCSXDIR
 10
1.0
 20
0.0
 30
0.0
  9
$UCSYDIR
 10
0.0
 20
1.0
 30
0.0
  9
$PUCSNAME
  2

  9
$PUCSORG
 10
0.0
 20
0.0
 30
0.0
  9
$PUCSXDIR
 10
1.0
 20
0.0
 30
0.0
  9
$PUCSYDIR
 10
0.0
 20
1.0
 30
0.0
  9
$USERI1
 70
     0
  9
$USERI2
 70
     0
  9
$USERI3
 70
     0
  9
$USERI4
 70
     0
  9
$USERI5
 70
     0
  9
$USERR1
 40
0.0
  9
$USERR2
 40
0.0
  9
$USERR3
 40
0.0
  9
$USERR4
 40
0.0
  9
$USERR5
 40
0.0
  9
$WORLDVIEW
 70
     1
  9
$SHADEDGE
 70
     3
  9
$SHADEDIF
 70
    70
  9
$TILEMODE
 70
     1
  9
$MAXACTVP
 70
    64
  9
$PINSBASE
 10
0.0
 20
0.0
 30
0.0
  9
$PLIMCHECK
 70
     0
  9
$PEXTMIN
 10
1.0000000000E+20
 20
1.0000000000E+20
 30
1.0000000000E+20
  9
$PEXTMAX
 10
-1.0000000000E+20
 20
-1.0000000000E+20
 30
-1.0000000000E+20
  9
$PLIMMIN
 10
0.0
 20
0.0
  9
$PLIMMAX
 10
420.0
 20
297.0
  9
$UNITMODE
 70
     0
  9
$VISRETAIN
 70
     1
  9
$PLINEGEN
 70
     0
  9
$PSLTSCALE
 70
     1
  9
$TREEDEPTH
 70
  3020
  9
$PICKSTYLE
 70
     1
  9
$CMLSTYLE
  2
STANDARD
  9
$CMLJUST
 70
     0
  9
$CMLSCALE
 40
20.0
  9
$PROXYGRAPHICS
 70
     1
  9
$MEASUREMENT
 70
     1
  0
ENDSEC
  0
SECTION
  2
CLASSES
  0
CLASS
  1
ACDBDICTIONARYWDFLT
  2
AcDbDictionaryWithDefault
  3
ObjectDBX Classes
 90
        0
280
     0
281
     0
  0
CLASS
  1
VISUALSTYLE
  2
AcDbVisualStyle
  3
ObjectDBX Classes
 90
     4095
280
     0
281
     0
  0
CLASS
  1
MATERIAL
  2
AcDbMaterial
  3
ObjectDBX Classes
 90
     1153
280
     0
281
     0
  0
CLASS
  1
SCALE
  2
AcDbScale
  3
ObjectDBX Classes
 90
     1153
280
     0
281
     0
  0
CLASS
  1
SUN
  2
AcDbSun
  3
SCENEOE
 90
     1153
280
     0
281
     0
  0
CLASS
  1
XRECORD
  2
AcDbXrecord
  3
ObjectDBX Classes
 90
        0
280
     0
281
     0
  0
CLASS
  1
LWPOLYLINE
  2
AcDbPolyline
  3
ObjectDBX Classes
 90
        0
280
     0
281
     1
  0
CLASS
  1
HATCH
  2
AcDbHatch
  3
ObjectDBX Classes
 90
        0
280
     0
281
     1
  0
ENDSEC
  0
SECTION
  2
TABLES
  0
TABLE
  2
VPORT
  5
8
330
0
100
AcDbSymbolTable
 70
     1
  0
VPORT
  5
29
330
8
100
AcDbSymbolTableRecord
100
AcDbViewportTableRecord
  2
*ACTIVE
 70
     0
 10
0.0
 20
0.0
 11
1.0
 21
1.0
 12
139.7
 22
107.95
 13
0.0
 23
0.0
 14
10.0
 24
10.0
 15
10.0
 25
10.0
 16
0.0
 26
0.0
 36
1.0
 17
0.0
 27
0.0
 37
0.0
 40
215.9
 41
1.2941176471
 42
50.0
 43
0.0
 44
0.0
 50
0.0
 51
0.0
 71
     0
 72
  2000
 73
     1
 74
     3
 75
     0
 76
     0
 77
     0
 78
     0
  0
ENDTAB
  0
TABLE
  2
LTYPE
  5
5
330
0
100
AcDbSymbolTable
 70
     6
  0
LTYPE
  5
14
330
5
100
AcDbSymbolTableRecord
100
AcDbLinetypeTableRecord
  2
BYBLOCK
 70
     0
  3

 72
    65
 73
     0
 40
0.0
  0
LTYPE
  5
15
330
5
100
AcDbSymbolTableRecord
100
AcDbLinetypeTableRecord
  2
BYLAYER
 70
     0
  3

 72
    65
 73
     0
 40
0.0
  0
LTYPE
  5
16
330
5
100
AcDbSymbolTableRecord
100
AcDbLinetypeTableRecord
  2
CONTINUOUS
 70
     0
  3
Solid line
 72
    65
 73
     0
 40
0.0
  0
LTYPE
  5
6A
330
5
100
AcDbSymbolTableRecord
100
AcDbLinetypeTableRecord
  2
HIDDEN
 70
     0
  3
Hidden __ __ __ __ __ __ __ __ __ __ __ __ __ __
 72
    65
 73
     2
 40
1.905
 49
1.27
 74
     0
 49
-0.635
 74
     0
  0
LTYPE
  5
6B
330
5
100
AcDbSymbolTableRecord
100
AcDbLinetypeTableRecord
  2
PHANTOM
 70
     0
  3
Phantom ______  __  __  ______  __  __  ______
 72
    65
 73
     6
 40
12.7
 49
6.35
 74
     0
 49
-1.27
 74
     0
 49
1.27
 74
     0
 49
-1.27
 74
     0
 49
1.27
 74
     0
 49
-1.27
 74
     0
  0
LTYPE
  5
6C
330
5
100
AcDbSymbolTableRecord
100
AcDbLinetypeTableRecord
  2
CENTER
 70
     0
  3
Center ____ _ ____ _ ____ _ ____ _ ____ _ ____
 72
    65
 73
     4
 40
10.16
 49
6.35
 74
     0
 49
-1.27
 74
     0
 49
1.27
 74
     0
 49
-1.27
 74
     0
  0
LTYPE
  5
6D
330
5
100
AcDbSymbolTableRecord
100
AcDbLinetypeTableRecord
  2
CENTERX2
 70
     0
  3
Center (2x) ________  __  ________  __  _____
 72
    65
 73
     4
 40
20.32
 49
12.7
 74
     0
 49
-2.54
 74
     0
 49
2.54
 74
     0
 49
-2.54
 74
     0
  0
LTYPE
  5
6E
330
5
100
AcDbSymbolTableRecord
100
AcDbLinetypeTableRecord
  2
DOT2
 70
     0
  3
Dot (.5x) ........................................
 72
    65
 73
     2
 40
0.635
 49
0.0
 74
     0
 49
-0.635
 74
     0
  0
ENDTAB
  0
TABLE
  2
LAYER
  5
2
330
0
100
AcDbSymbolTable
 70
     2
  0
LAYER
  5
10
330
2
100
AcDbSymbolTableRecord
100
AcDbLayerTableRecord
  2
0
 70
     0
 62
     7
  6
CONTINUOUS
  0
LAYER
  5
6F
330
2
100
AcDbSymbolTableRecord
100
AcDbLayerTableRecord
  2
FORMAT
 70
     0
 62
     7
  6
CONTINUOUS
  0
ENDTAB
  0
TABLE
  2
STYLE
  5
3
330
0
100
AcDbSymbolTable
 70
     5
  0
STYLE
  5
11
330
3
100
AcDbSymbolTableRecord
100
AcDbTextStyleTableRecord
  2
STANDARD
 70
     0
 40
0.0
 41
1.0
 50
0.0
 71
     0
 42
2.8222222222
  3
txt
  4

  0
STYLE
  5
96
330
3
100
AcDbSymbolTableRecord
100
AcDbTextStyleTableRecord
  2
SLDTEXTSTYLE0
 70
     0
 40
0.0
 41
0.75
 50
0.0
 71
     0
 42
2.8222222222
  3
TXT
  4

  0
STYLE
  5
A1
330
3
100
AcDbSymbolTableRecord
100
AcDbTextStyleTableRecord
  2
SLDTEXTSTYLE1
 70
     0
 40
0.0
 41
0.6
 50
0.0
 71
     0
 42
2.8222222222
  3
TXT
  4

  0
STYLE
  5
155
330
3
100
AcDbSymbolTableRecord
100
AcDbTextStyleTableRecord
  2
SLDTEXTSTYLE2
 70
     0
 40
0.0
 41
0.6964285714
 50
0.0
 71
     0
 42
2.8222222222
  3
TXT
  4

  0
STYLE
  5
268
330
3
100
AcDbSymbolTableRecord
100
AcDbTextStyleTableRecord
  2
SLDTEXTSTYLE3
 70
     0
 40
0.0
 41
0.6944444444
 50
0.0
 71
     0
 42
2.8222222222
  3
TXT
  4

  0
ENDTAB
  0
TABLE
  2
VIEW
  5
6
330
0
100
AcDbSymbolTable
 70
     0
  0
ENDTAB
  0
TABLE
  2
UCS
  5
7
330
0
100
AcDbSymbolTable
 70
     0
  0
ENDTAB
  0
TABLE
  2
APPID
  5
9
330
0
100
AcDbSymbolTable
 70
     1
  0
APPID
  5
12
330
9
100
AcDbSymbolTableRecord
100
AcDbRegAppTableRecord
  2
ACAD
 70
     0
  0
ENDTAB
  0
TABLE
  2
DIMSTYLE
  5
A
330
0
100
AcDbSymbolTable
 70
     5
  0
DIMSTYLE
105
27
330
A
100
AcDbSymbolTableRecord
100
AcDbDimStyleTableRecord
  2
ISO-25
 70
     0
  3

  4

  5

  6

  7

 40
1.0
 41
2.5
 42
0.625
 43
3.75
 44
1.25
 45
0.0
 46
0.0
 47
0.0
 48
0.0
140
2.5
141
2.5
142
0.0
143
0.0393700787
144
1.0
145
0.0
146
1.0
147
0.625
 71
     0
 72
     0
 73
     0
 74
     0
 75
     0
 76
     0
 77
     1
 78
     8
170
     0
171
     3
172
     1
173
     0
174
     0
175
     0
176
     0
177
     0
178
     0
270
     2
271
     2
272
     2
273
     2
274
     3
340
11
275
     0
280
     0
281
     0
282
     0
283
     0
284
     8
285
     0
286
     0
287
     3
288
     0
  0
DIMSTYLE
105
10E
102
{ACAD_REACTORS
330
10D
330
122
102
}
330
A
100
AcDbSymbolTableRecord
100
AcDbDimStyleTableRecord
  2
SLDDIMSTYLE0
 70
     0
  3

  4

  5

  6

  7

 40
1.0
 41
3.175
 42
0.0625
 43
0.38
 44
0.0
 45
0.000000001
 46
0.0
 47
0.0
 48
0.0
140
2.1166666667
141
0.09
142
0.0
143
0.0393700787
144
1.0
145
0.0
146
1.0
147
0.5291666667
 71
     0
 72
     0
 73
     1
 74
     1
 75
     0
 76
     0
 77
     0
 78
    12
170
     1
171
     2
172
     1
173
     1
174
     0
175
     0
176
     0
177
     0
178
     0
270
     2
271
     1
272
     1
273
     2
274
     2
340
96
275
     0
280
     0
281
     0
282
     0
283
     1
284
    12
285
     0
286
     0
288
     0
  0
DIMSTYLE
105
137
102
{ACAD_REACTORS
330
136
330
1DB
330
1EF
330
218
330
22C
330
240
330
254
330
356
330
36A
102
}
330
A
100
AcDbSymbolTableRecord
100
AcDbDimStyleTableRecord
  2
SLDDIMSTYLE1
 70
     0
  3

  4

  5

  6

  7

 40
1.0
 41
3.175
 42
0.0625
 43
0.38
 44
0.0
 45
0.000000001
 46
0.0
 47
0.0
 48
0.0
140
2.1166666667
141
0.09
142
0.0
143
0.0393700787
144
1.0
145
0.0
146
1.0
147
0.5291666667
 71
     0
 72
     0
 73
     1
 74
     1
 75
     0
 76
     0
 77
     0
 78
    12
170
     1
171
     2
172
     0
173
     1
174
     0
175
     0
176
     0
177
     0
178
     0
270
     2
271
     1
272
     1
273
     2
274
     2
340
96
275
     0
280
     0
281
     0
282
     0
283
     1
284
    12
285
     0
286
     0
287
     3
288
     0
  0
DIMSTYLE
105
14C
330
A
100
AcDbSymbolTableRecord
100
AcDbDimStyleTableRecord
  2
SLDDIMSTYLE2
 70
     0
  3

  4

  5

  6

  7

 40
1.0
 41
3.175
 42
0.0625
 43
0.38
 44
0.0
 45
0.000000001
 46
0.0
 47
0.0
 48
0.0
140
0.18
141
0.09
142
0.0
143
25.4
144
1.0
145
0.0
146
3.175
147
0.0
 71
     0
 72
     0
 73
     1
 74
     1
 75
     0
 76
     0
 77
     0
 78
     0
170
     0
171
     2
172
     0
173
     1
174
     0
175
     0
176
     0
177
     0
178
     0
270
     2
271
     0
272
     0
273
     2
274
     2
340
11
275
     0
280
     0
281
     0
282
     0
283
     1
284
     0
285
     0
286
     0
287
     3
288
     0
  0
DIMSTYLE
105
204
102
{ACAD_REACTORS
330
203
102
}
330
A
100
AcDbSymbolTableRecord
100
AcDbDimStyleTableRecord
  2
SLDDIMSTYLE3
 70
     0
  3

  4

  5

  6

  7

 40
1.0
 41
3.175
 42
0.0625
 43
0.38
 44
0.0
 45
0.000000001
 46
0.0
 47
0.0
 48
0.0
140
2.1166666667
141
0.09
142
0.0
143
0.0393700787
144
1.0
145
0.0
146
1.0
147
0.5291666667
 71
     0
 72
     0
 73
     1
 74
     1
 75
     0
 76
     0
 77
     0
 78
     4
170
     1
171
     2
172
     0
173
     1
174
     0
175
     0
176
     0
177
     0
178
     0
270
     2
271
     1
272
     1
273
     2
274
     2
340
96
275
     0
280
     0
281
     0
282
     0
283
     1
284
    12
285
     0
286
     0
287
     3
288
     0
  0
ENDTAB
  0
TABLE
  2
BLOCK_RECORD
  5
1
330
0
100
AcDbSymbolTable
 70
    19
  0
BLOCK_RECORD
  5
1F
330
1
100
AcDbSymbolTableRecord
100
AcDbBlockTableRecord
  2
*MODEL_SPACE
  0
BLOCK_RECORD
  5
1B
330
1
100
AcDbSymbolTableRecord
100
AcDbBlockTableRecord
  2
*PAPER_SPACE
  0
BLOCK_RECORD
  5
23
330
1
100
AcDbSymbolTableRecord
100
AcDbBlockTableRecord
  2
*PAPER_SPACE0
  0
BLOCK_RECORD
  5
70
330
1
100
AcDbSymbolTableRecord
100
AcDbBlockTableRecord
  2
THIRD_ANGLE_PROJECTION_BLO
  0
BLOCK_RECORD
  5
A6
330
1
100
AcDbSymbolTableRecord
100
AcDbBlockTableRecord
  2
SW_NOTE_0
  0
BLOCK_RECORD
  5
AC
330
1
100
AcDbSymbolTableRecord
100
AcDbBlockTableRecord
  2
SW_NOTE_1
  0
BLOCK_RECORD
  5
B3
330
1
100
AcDbSymbolTableRecord
100
AcDbBlockTableRecord
  2
SW_NOTE_2
  0
BLOCK_RECORD
  5
10F
330
1
100
AcDbSymbolTableRecord
100
AcDbBlockTableRecord
  2
_D
  0
BLOCK_RECORD
  5
123
330
1
100
AcDbSymbolTableRecord
100
AcDbBlockTableRecord
  2
_D_1
  0
BLOCK_RECORD
  5
138
330
1
100
AcDbSymbolTableRecord
100
AcDbBlockTableRecord
  2
_D_2
  0
BLOCK_RECORD
  5
150
330
1
100
AcDbSymbolTableRecord
100
AcDbBlockTableRecord
  2
SW_NOTE_3
  0
BLOCK_RECORD
  5
1DC
330
1
100
AcDbSymbolTableRecord
100
AcDbBlockTableRecord
  2
_D_3
  0
BLOCK_RECORD
  5
1F0
330
1
100
AcDbSymbolTableRecord
100
AcDbBlockTableRecord
  2
_D_4
  0
BLOCK_RECORD
  5
205
330
1
100
AcDbSymbolTableRecord
100
AcDbBlockTableRecord
  2
_D_5
  0
BLOCK_RECORD
  5
219
330
1
100
AcDbSymbolTableRecord
100
AcDbBlockTableRecord
  2
_D_6
  0
BLOCK_RECORD
  5
22D
330
1
100
AcDbSymbolTableRecord
100
AcDbBlockTableRecord
  2
_D_7
  0
BLOCK_RECORD
  5
241
330
1
100
AcDbSymbolTableRecord
100
AcDbBlockTableRecord
  2
_D_8
  0
BLOCK_RECORD
  5
255
330
1
100
AcDbSymbolTableRecord
100
AcDbBlockTableRecord
  2
_D_9
  0
BLOCK_RECORD
  5
357
330
1
100
AcDbSymbolTableRecord
100
AcDbBlockTableRecord
  2
_D_10
  0
BLOCK_RECORD
  5
36B
330
1
100
AcDbSymbolTableRecord
100
AcDbBlockTableRecord
  2
_D_11
  0
BLOCK_RECORD
  5
37E
330
1
100
AcDbSymbolTableRecord
100
AcDbBlockTableRecord
  2
SW_NOTE_4
  0
ENDTAB
  0
ENDSEC
  0
SECTION
  2
BLOCKS
  0
BLOCK
  5
20
330
1F
100
AcDbEntity
  8
0
100
AcDbBlockBegin
  2
*MODEL_SPACE
 70
     0
 10
0.0
 20
0.0
 30
0.0
  3
*MODEL_SPACE
  1

  0
ENDBLK
  5
21
330
1F
100
AcDbEntity
  8
0
100
AcDbBlockEnd
  0
BLOCK
  5
1C
330
1B
100
AcDbEntity
 67
     1
  8
0
100
AcDbBlockBegin
  2
*PAPER_SPACE
 70
     0
 10
0.0
 20
0.0
 30
0.0
  3
*PAPER_SPACE
  1

  0
ENDBLK
  5
1D
330
1B
100
AcDbEntity
 67
     1
  8
0
100
AcDbBlockEnd
  0
BLOCK
  5
24
330
23
100
AcDbEntity
  8
0
100
AcDbBlockBegin
  2
*PAPER_SPACE0
 70
     0
 10
0.0
 20
0.0
 30
0.0
  3
*PAPER_SPACE0
  1
*PAPER_SPACE0
  0
ENDBLK
  5
25
330
23
100
AcDbEntity
  8
0
100
AcDbBlockEnd
  0
BLOCK
  5
71
330
70
100
AcDbEntity
  8
0
100
AcDbBlockBegin
  2
THIRD_ANGLE_PROJECTION_BLO
 70
     0
 10
0.0
 20
0.0
 30
0.0
  3
THIRD_ANGLE_PROJECTION_BLO
  1
THIRD_ANGLE_PROJECTION_BLO
  0
CIRCLE
  5
73
330
70
100
AcDbEntity
  8
0
  6
CONTINUOUS
 62
     7
100
AcDbCircle
 10
101.4766388944
 20
18.9404083667
 30
0.0
 40
1.768227153674871
  0
CIRCLE
  5
74
330
70
100
AcDbEntity
  8
0
  6
CONTINUOUS
 62
     7
100
AcDbCircle
 10
101.4766388944
 20
18.9404083667
 30
0.0
 40
3.901228248531818
  0
LINE
  5
75
330
70
100
AcDbEntity
  8
0
  6
CENTERX2
 62
     7
100
AcDbLine
 10
110.1367822585
 20
18.9404083667
 30
0.0
 11
119.4527334874
 21
18.9404083667
 31
0.0
  0
LINE
  5
76
330
70
100
AcDbEntity
  8
0
  6
CONTINUOUS
 62
     7
100
AcDbLine
 10
111.0016388944
 20
20.7086355204
 30
0.0
 11
111.0016388944
 21
17.172181213
 31
0.0
  0
LINE
  5
77
330
70
100
AcDbEntity
  8
0
  6
CONTINUOUS
 62
     7
100
AcDbLine
 10
111.0016388944
 20
17.172181213
 30
0.0
 11
118.6216388944
 21
15.1304083667
 31
0.0
  0
LINE
  5
78
330
70
100
AcDbEntity
  8
0
  6
CONTINUOUS
 62
     7
100
AcDbLine
 10
118.6216388944
 20
15.1304083667
 30
0.0
 11
118.6216388944
 21
22.7504083667
 31
0.0
  0
LINE
  5
79
330
70
100
AcDbEntity
  8
0
  6
CONTINUOUS
 62
     7
100
AcDbLine
 10
118.6216388944
 20
22.7504083667
 30
0.0
 11
111.0016388944
 21
20.7086355204
 31
0.0
  0
LINE
  5
7A
330
70
100
AcDbEntity
  8
0
  6
CENTERX2
 62
     7
100
AcDbLine
 10
96.6025854619
 20
18.9404083667
 30
0.0
 11
106.3506923269
 21
18.9404083667
 31
0.0
  0
LINE
  5
7B
330
70
100
AcDbEntity
  8
0
  6
CENTERX2
 62
     7
100
AcDbLine
 10
101.4766388944
 20
23.8144617992
 30
0.0
 11
101.4766388944
 21
14.0663549342
 31
0.0
  0
POINT
  5
7C
330
70
100
AcDbEntity
  8
0
  6
CONTINUOUS
 62
     7
100
AcDbPoint
 10
101.4766388944
 20
18.9404083667
 30
0.0
  0
ENDBLK
  5
72
330
70
100
AcDbEntity
  8
0
100
AcDbBlockEnd
  0
BLOCK
  5
A7
330
A6
100
AcDbEntity
  8
0
100
AcDbBlockBegin
  2
SW_NOTE_0
 70
     0
 10
0.0
 20
0.0
 30
0.0
  3
SW_NOTE_0
  1
SW_NOTE_0
  0
MTEXT
  5
A9
330
A6
100
AcDbEntity
  8
0
  6
CONTINUOUS
 62
     0
100
AcDbMText
 10
19.90725
 20
1.9645392354
 30
0.0
 40
1.524
 41
0.0
 71
     2
 72
     1
  1
VALUES IN PARENTHESIS ARE CALCULATED
  7
SLDTEXTSTYLE0
  0
MTEXT
  5
AA
330
A6
100
AcDbEntity
  8
0
  6
CONTINUOUS
 62
     0
100
AcDbMText
 10
19.8778795174
 20
-0.5594606586
 30
0.0
 40
1.524
 41
0.0
 71
     2
 72
     1
  1
AND MAY CONTAIN ROUNDOFF ERRORS
  7
SLDTEXTSTYLE0
  0
ENDBLK
  5
A8
330
A6
100
AcDbEntity
  8
0
100
AcDbBlockEnd
  0
BLOCK
  5
AD
330
AC
100
AcDbEntity
  8
0
100
AcDbBlockBegin
  2
SW_NOTE_1
 70
     0
 10
0.0
 20
0.0
 30
0.0
  3
SW_NOTE_1
  1
SW_NOTE_1
  0
MTEXT
  5
AF
330
AC
100
AcDbEntity
  8
0
  6
CONTINUOUS
 62
     0
100
AcDbMText
 10
0.0
 20
2.7285267159
 30
0.0
 40
2.1166666667
 41
0.0
 71
     1
 72
     1
  1
DRAWING
  7
SLDTEXTSTYLE0
  0
MTEXT
  5
B0
330
AC
100
AcDbEntity
  8
0
  6
CONTINUOUS
 62
     0
100
AcDbMText
 10
0.0
 20
-0.0936954723
 30
0.0
 40
2.1166666667
 41
0.0
 71
     1
 72
     1
  1
PROJECTION
  7
SLDTEXTSTYLE0
  0
ENDBLK
  5
AE
330
AC
100
AcDbEntity
  8
0
100
AcDbBlockEnd
  0
BLOCK
  5
B4
330
B3
100
AcDbEntity
  8
0
100
AcDbBlockBegin
  2
SW_NOTE_2
 70
     0
 10
0.0
 20
0.0
 30
0.0
  3
SW_NOTE_2
  1
SW_NOTE_2
  0
MTEXT
  5
B6
330
B3
100
AcDbEntity
  8
0
  6
CONTINUOUS
 62
     0
100
AcDbMText
 10
25.052734375
 20
4.0927900738
 30
0.0
 40
3.175
 41
0.0
 71
     2
 72
     1
  1
FOR INFORMATION ONLY
  7
SLDTEXTSTYLE0
  0
MTEXT
  5
B7
330
B3
100
AcDbEntity
  8
0
  6
CONTINUOUS
 62
     0
100
AcDbMText
 10
25.3768468589
 20
-0.1405432084
 30
0.0
 40
3.175
 41
0.0
 71
     2
 72
     1
  1
NOT FOR MANUFACTURING PURPOSES
  7
SLDTEXTSTYLE0
  0
ENDBLK
  5
B5
330
B3
100
AcDbEntity
  8
0
100
AcDbBlockEnd
  0
BLOCK
  5
110
330
10F
100
AcDbEntity
  8
0
100
AcDbBlockBegin
  2
_D
 70
     0
 10
0.0
 20
0.0
 30
0.0
  3
_D
  1
_D
  0
SOLID
  5
112
330
10F
100
AcDbEntity
  8
0
  6
CONTINUOUS
 62
     7
100
AcDbTrace
 10
69.3334896803
 20
119.27743575
 30
0.0
 11
66.1584896803
 21
119.78543575
 31
0.0
 12
66.1584896803
 22
118.76943575
 32
0.0
 13
66.1584896803
 23
118.76943575
 33
0.0
  0
SOLID
  5
113
330
10F
100
AcDbEntity
  8
0
  6
CONTINUOUS
 62
     7
100
AcDbTrace
 10
73.9334896803
 20
119.27743575
 30
0.0
 11
77.1084896803
 21
118.76943575
 31
0.0
 12
77.1084896803
 22
119.78543575
 32
0.0
 13
77.1084896803
 23
119.78543575
 33
0.0
  0
LINE
  5
114
330
10F
100
AcDbEntity
  8
0
  6
CONTINUOUS
 62
     7
100
AcDbLine
 10
83.6998676709
 20
119.2774355172
 30
0.0
 11
83.2706547111
 21
119.2774355172
 31
0.0
  0
LINE
  5
115
330
10F
100
AcDbEntity
  8
0
  6
CONTINUOUS
 62
     7
100
AcDbLine
 10
83.2706547111
 20
119.2774355172
 30
0.0
 11
83.2706547111
 21
115.9142874407
 31
0.0
  0
LINE
  5
116
330
10F
100
AcDbEntity
  8
0
  6
CONTINUOUS
 62
     7
100
AcDbLine
 10
83.2706547111
 20
115.9142874407
 30
0.0
 11
83.6998676709
 21
115.9142874407
 31
0.0
  0
LINE
  5
117
330
10F
100
AcDbEntity
  8
0
  6
CONTINUOUS
 62
     7
100
AcDbLine
 10
92.5300916601
 20
119.2774355172
 30
0.0
 11
92.9593046198
 21
119.2774355172
 31
0.0
  0
LINE
  5
118
330
10F
100
AcDbEntity
  8
0
  6
CONTINUOUS
 62
     7
100
AcDbLine
 10
92.9593046198
 20
119.2774355172
 30
0.0
 11
92.9593046198
 21
115.9142874407
 31
0.0
  0
LINE
  5
119
330
10F
100
AcDbEntity
  8
0
  6
CONTINUOUS
 62
     7
100
AcDbLine
 10
92.9593046198
 20
115.9142874407
 30
0.0
 11
92.5300916601
 21
115.9142874407
 31
0.0
  0
LINE
  5
11A
330
10F
100
AcDbEntity
  8
0
  6
CONTINUOUS
 62
     7
100
AcDbLine
 10
69.3334896803
 20
88.6414219223
 30
0.0
 11
69.3334896803
 21
121.05543575
 31
0.0
  0
LINE
  5
11B
330
10F
100
AcDbEntity
  8
0
  6
CONTINUOUS
 62
     7
100
AcDbLine
 10
73.9334896803
 20
100.2023723061
 30
0.0
 11
73.9334896803
 21
121.05543575
 31
0.0
  0
LINE
  5
11C
330
10F
100
AcDbEntity
  8
0
  6
CONTINUOUS
 62
     7
100
AcDbLine
 10
69.3334896803
 20
119.27743575
 30
0.0
 11
62.9834896803
 21
119.27743575
 31
0.0
  0
LINE
  5
11D
330
10F
100
AcDbEntity
  8
0
  6
CONTINUOUS
 62
     7
100
AcDbLine
 10
73.9334896803
 20
119.27743575
 30
0.0
 11
80.9595091604
 21
119.27743575
 31
0.0
  0
MTEXT
  5
11E
330
10F
100
AcDbEntity
  8
0
  6
CONTINUOUS
 62
     7
100
AcDbMText
 10
82.9761832797
 20
122.4351751637
 30
0.0
 40
2.1166666667
 41
0.0
 71
     1
 72
     1
  1

  7
SLDTEXTSTYLE0
  0
MTEXT
  5
11F
330
10F
100
AcDbEntity
  8
0
  6
CONTINUOUS
 62
     7
100
AcDbMText
 10
83.5151492969
 20
122.4351751637
 30
0.0
 40
2.1166666667
 41
0.0
 71
     1
 72
     1
  1
4.6mm
  7
SLDTEXTSTYLE0
  0
MTEXT
  5
120
330
10F
100
AcDbEntity
  8
0
  6
CONTINUOUS
 62
     7
100
AcDbMText
 10
84.2363838923
 20
118.6428140402
 30
0.0
 40
2.1166666667
 41
0.0
 71
     1
 72
     1
  1
0.18in
  7
SLDTEXTSTYLE0
  0
MTEXT
  5
121
330
10F
100
AcDbEntity
  8
0
  6
CONTINUOUS
 62
     7
100
AcDbMText
 10
94.8687143468
 20
122.4351751637
 30
0.0
 40
2.1166666667
 41
0.0
 71
     1
 72
     1
  1

  7
SLDTEXTSTYLE0
  0
ENDBLK
  5
111
330
10F
100
AcDbEntity
  8
0
100
AcDbBlockEnd
  0
BLOCK
  5
124
330
123
100
AcDbEntity
  8
0
100
AcDbBlockBegin
  2
_D_1
 70
     0
 10
0.0
 20
0.0
 30
0.0
  3
_D_1
  1
_D_1
  0
SOLID
  5
126
330
123
100
AcDbEntity
  8
0
  6
CONTINUOUS
 62
     7
100
AcDbTrace
 10
52.8514896803
 20
131.3956364509
 30
0.0
 11
49.6764896803
 21
131.9036364509
 31
0.0
 12
49.6764896803
 22
130.8876364509
 32
0.0
 13
49.6764896803
 23
130.8876364509
 33
0.0
  0
SOLID
  5
127
330
123
100
AcDbEntity
  8
0
  6
CONTINUOUS
 62
     7
100
AcDbTrace
 10
73.9334896803
 20
131.3956364509
 30
0.0
 11
77.1084896803
 21
130.8876364509
 31
0.0
 12
77.1084896803
 22
131.9036364509
 32
0.0
 13
77.1084896803
 23
131.9036364509
 33
0.0
  0
LINE
  5
128
330
123
100
AcDbEntity
  8
0
  6
CONTINUOUS
 62
     7
100
AcDbLine
 10
58.9773779185
 20
131.3956362181
 30
0.0
 11
58.5481649588
 21
131.3956362181
 31
0.0
  0
LINE
  5
129
330
123
100
AcDbEntity
  8
0
  6
CONTINUOUS
 62
     7
100
AcDbLine
 10
58.5481649588
 20
131.3956362181
 30
0.0
 11
58.5481649588
 21
128.0324881416
 31
0.0
  0
LINE
  5
12A
330
123
100
AcDbEntity
  8
0
  6
CONTINUOUS
 62
     7
100
AcDbLine
 10
58.5481649588
 20
128.0324881416
 30
0.0
 11
58.9773779185
 21
128.0324881416
 31
0.0
  0
LINE
  5
12B
330
123
100
AcDbEntity
  8
0
  6
CONTINUOUS
 62
     7
100
AcDbLine
 10
67.8076019077
 20
131.3956362181
 30
0.0
 11
68.2368148674
 21
131.3956362181
 31
0.0
  0
LINE
  5
12C
330
123
100
AcDbEntity
  8
0
  6
CONTINUOUS
 62
     7
100
AcDbLine
 10
68.2368148674
 20
131.3956362181
 30
0.0
 11
68.2368148674
 21
128.0324881416
 31
0.0
  0
LINE
  5
12D
330
123
100
AcDbEntity
  8
0
  6
CONTINUOUS
 62
     7
100
AcDbLine
 10
68.2368148674
 20
128.0324881416
 30
0.0
 11
67.8076019077
 21
128.0324881416
 31
0.0
  0
LINE
  5
12E
330
123
100
AcDbEntity
  8
0
  6
CONTINUOUS
 62
     7
100
AcDbLine
 10
52.8514896803
 20
105.4728723061
 30
0.0
 11
52.8514896803
 21
133.1736364509
 31
0.0
  0
LINE
  5
12F
330
123
100
AcDbEntity
  8
0
  6
CONTINUOUS
 62
     7
100
AcDbLine
 10
73.9334896803
 20
100.2023723061
 30
0.0
 11
73.9334896803
 21
133.1736364509
 31
0.0
  0
LINE
  5
130
330
123
100
AcDbEntity
  8
0
  6
CONTINUOUS
 62
     7
100
AcDbLine
 10
52.8514896803
 20
131.3956364509
 30
0.0
 11
46.5014896803
 21
131.3956364509
 31
0.0
  0
LINE
  5
131
330
123
100
AcDbEntity
  8
0
  6
CONTINUOUS
 62
     7
100
AcDbLine
 10
73.9334896803
 20
131.3956364509
 30
0.0
 11
80.2834896803
 21
131.3956364509
 31
0.0
  0
MTEXT
  5
132
330
123
100
AcDbEntity
  8
0
  6
CONTINUOUS
 62
     7
100
AcDbMText
 10
58.0381067868
 20
134.5533758645
 30
0.0
 40
2.1166666667
 41
0.0
 71
     1
 72
     1
  1

  7
SLDTEXTSTYLE0
  0
MTEXT
  5
133
330
123
100
AcDbEntity
  8
0
  6
CONTINUOUS
 62
     7
100
AcDbMText
 10
58.0106684912
 20
134.5533758645
 30
0.0
 40
2.1166666667
 41
0.0
 71
     1
 72
     1
  1
21.1mm
  7
SLDTEXTSTYLE0
  0
MTEXT
  5
134
330
123
100
AcDbEntity
  8
0
  6
CONTINUOUS
 62
     7
100
AcDbMText
 10
59.51389414
 20
130.7610147411
 30
0.0
 40
2.1166666667
 41
0.0
 71
     1
 72
     1
  1
0.83in
  7
SLDTEXTSTYLE0
  0
MTEXT
  5
135
330
123
100
AcDbEntity
  8
0
  6
CONTINUOUS
 62
     7
100
AcDbMText
 10
70.3618104037
 20
134.5533758645
 30
0.0
 40
2.1166666667
 41
0.0
 71
     1
 72
     1
  1

  7
SLDTEXTSTYLE0
  0
ENDBLK
  5
125
330
123
100
AcDbEntity
  8
0
100
AcDbBlockEnd
  0
BLOCK
  5
139
330
138
100
AcDbEntity
  8
0
100
AcDbBlockBegin
  2
_D_2
 70
     0
 10
0.0
 20
0.0
 30
0.0
  3
_D_2
  1
_D_2
  0
SOLID
  5
13B
330
138
100
AcDbEntity
  8
0
  6
CONTINUOUS
 62
     7
100
AcDbTrace
 10
61.2334896803
 20
45.8849361777
 30
0.0
 11
64.4084896803
 21
45.3769361777
 31
0.0
 12
64.4084896803
 22
46.3929361777
 32
0.0
 13
64.4084896803
 23
46.3929361777
 33
0.0
  0
SOLID
  5
13C
330
138
100
AcDbEntity
  8
0
  6
CONTINUOUS
 62
     7
100
AcDbTrace
 10
73.9334896803
 20
45.8849361777
 30
0.0
 11
70.7584896803
 21
46.3929361777
 31
0.0
 12
70.7584896803
 22
45.3769361777
 32
0.0
 13
70.7584896803
 23
45.3769361777
 33
0.0
  0
LINE
  5
13D
330
138
100
AcDbEntity
  8
0
  6
CONTINUOUS
 62
     7
100
AcDbLine
 10
44.2895004633
 20
45.8849359449
 30
0.0
 11
43.8602875036
 21
45.8849359449
 31
0.0
  0
LINE
  5
13E
330
138
100
AcDbEntity
  8
0
  6
CONTINUOUS
 62
     7
100
AcDbLine
 10
43.8602875036
 20
45.8849359449
 30
0.0
 11
43.8602875036
 21
42.5217878685
 31
0.0
  0
LINE
  5
13F
330
138
100
AcDbEntity
  8
0
  6
CONTINUOUS
 62
     7
100
AcDbLine
 10
43.8602875036
 20
42.5217878685
 30
0.0
 11
44.2895004633
 21
42.5217878685
 31
0.0
  0
LINE
  5
140
330
138
100
AcDbEntity
  8
0
  6
CONTINUOUS
 62
     7
100
AcDbLine
 10
53.1197244525
 20
45.8849359449
 30
0.0
 11
53.5489374122
 21
45.8849359449
 31
0.0
  0
LINE
  5
141
330
138
100
AcDbEntity
  8
0
  6
CONTINUOUS
 62
     7
100
AcDbLine
 10
53.5489374122
 20
45.8849359449
 30
0.0
 11
53.5489374122
 21
42.5217878685
 31
0.0
  0
LINE
  5
142
330
138
100
AcDbEntity
  8
0
  6
CONTINUOUS
 62
     7
100
AcDbLine
 10
53.5489374122
 20
42.5217878685
 30
0.0
 11
53.1197244525
 21
42.5217878685
 31
0.0
  0
LINE
  5
143
330
138
100
AcDbEntity
  8
0
  6
CONTINUOUS
 62
     7
100
AcDbLine
 10
61.2334896803
 20
56.1078723061
 30
0.0
 11
61.2334896803
 21
44.1069361777
 31
0.0
  0
LINE
  5
144
330
138
100
AcDbEntity
  8
0
  6
CONTINUOUS
 62
     7
100
AcDbLine
 10
73.9334896803
 20
71.3733723061
 30
0.0
 11
73.9334896803
 21
44.1069361777
 31
0.0
  0
LINE
  5
145
330
138
100
AcDbEntity
  8
0
  6
CONTINUOUS
 62
     7
100
AcDbLine
 10
61.2334896803
 20
45.8849361777
 30
0.0
 11
56.0756692378
 21
45.8849361777
 31
0.0
  0
LINE
  5
146
330
138
100
AcDbEntity
  8
0
  6
CONTINUOUS
 62
     7
100
AcDbLine
 10
73.9334896803
 20
45.8849361777
 30
0.0
 11
61.2334896803
 21
45.8849361777
 31
0.0
  0
MTEXT
  5
147
330
138
100
AcDbEntity
  8
0
  6
CONTINUOUS
 62
     7
100
AcDbMText
 10
43.3502293316
 20
49.0426755914
 30
0.0
 40
2.1166666667
 41
0.0
 71
     1
 72
     1
  1

  7
SLDTEXTSTYLE0
  0
MTEXT
  5
148
330
138
100
AcDbEntity
  8
0
  6
CONTINUOUS
 62
     7
100
AcDbMText
 10
43.322791036
 20
49.0426755914
 30
0.0
 40
2.1166666667
 41
0.0
 71
     1
 72
     1
  1
12.7mm
  7
SLDTEXTSTYLE0
  0
MTEXT
  5
149
330
138
100
AcDbEntity
  8
0
  6
CONTINUOUS
 62
     7
100
AcDbMText
 10
44.8260166848
 20
45.2503144679
 30
0.0
 40
2.1166666667
 41
0.0
 71
     1
 72
     1
  1
0.50in
  7
SLDTEXTSTYLE0
  0
MTEXT
  5
14A
330
138
100
AcDbEntity
  8
0
  6
CONTINUOUS
 62
     7
100
AcDbMText
 10
55.6739329485
 20
49.0426755914
 30
0.0
 40
2.1166666667
 41
0.0
 71
     1
 72
     1
  1

  7
SLDTEXTSTYLE0
  0
ENDBLK
  5
13A
330
138
100
AcDbEntity
  8
0
100
AcDbBlockEnd
  0
BLOCK
  5
151
330
150
100
AcDbEntity
  8
0
100
AcDbBlockBegin
  2
SW_NOTE_3
 70
     0
 10
0.0
 20
0.0
 30
0.0
  3
SW_NOTE_3
  1
SW_NOTE_3
  0
MTEXT
  5
153
330
150
100
AcDbEntity
  8
0
  6
CONTINUOUS
 62
     0
100
AcDbMText
 10
-0.6883483926
 20
3.8993853335
 30
0.0
 40
2.1166666667
 41
0.0
 71
     3
 72
     1
  1
POWER SUPPLY CONNECTION
  7
SLDTEXTSTYLE0
  0
MTEXT
  5
154
330
150
100
AcDbEntity
  8
0
  6
CONTINUOUS
 62
     0
100
AcDbMText
 10
-22.5558653036
 20
1.0771631453
 30
0.0
 40
2.1166666667
 41
0.0
 71
     3
 72
     1
  1
%%p
  7
SLDTEXTSTYLE0
  0
MTEXT
  5
156
330
150
100
AcDbEntity
  8
0
  6
CONTINUOUS
 62
     0
100
AcDbMText
 10
-1.0249555313
 20
1.0771631453
 30
0.0
 40
2.1166666667
 41
0.0
 71
     3
 72
     1
  1
12 VDC, 200 mA
  7
SLDTEXTSTYLE2
  0
ENDBLK
  5
152
330
150
100
AcDbEntity
  8
0
100
AcDbBlockEnd
  0
BLOCK
  5
1DD
330
1DC
100
AcDbEntity
  8
0
100
AcDbBlockBegin
  2
_D_3
 70
     0
 10
0.0
 20
0.0
 30
0.0
  3
_D_3
  1
_D_3
  0
SOLID
  5
1DF
330
1DC
100
AcDbEntity
  8
0
  6
CONTINUOUS
 62
     7
100
AcDbTrace
 10
195.9951716978
 20
117.3778723061
 30
0.0
 11
199.1701716978
 21
116.8698723061
 31
0.0
 12
199.1701716978
 22
117.8858723061
 32
0.0
 13
199.1701716978
 23
117.8858723061
 33
0.0
  0
SOLID
  5
1E0
330
1DC
100
AcDbEntity
  8
0
  6
CONTINUOUS
 62
     7
100
AcDbTrace
 10
211.2351716978
 20
117.3778723061
 30
0.0
 11
208.0601716978
 21
117.8858723061
 31
0.0
 12
208.0601716978
 22
116.8698723061
 32
0.0
 13
208.0601716978
 23
116.8698723061
 33
0.0
  0
LINE
  5
1E1
330
1DC
100
AcDbEntity
  8
0
  6
CONTINUOUS
 62
     7
100
AcDbLine
 10
175.3939860068
 20
117.3778720733
 30
0.0
 11
174.9647730471
 21
117.3778720733
 31
0.0
  0
LINE
  5
1E2
330
1DC
100
AcDbEntity
  8
0
  6
CONTINUOUS
 62
     7
100
AcDbLine
 10
174.9647730471
 20
117.3778720733
 30
0.0
 11
174.9647730471
 21
114.0147239968
 31
0.0
  0
LINE
  5
1E3
330
1DC
100
AcDbEntity
  8
0
  6
CONTINUOUS
 62
     7
100
AcDbLine
 10
174.9647730471
 20
114.0147239968
 30
0.0
 11
175.3939860068
 21
114.0147239968
 31
0.0
  0
LINE
  5
1E4
330
1DC
100
AcDbEntity
  8
0
  6
CONTINUOUS
 62
     7
100
AcDbLine
 10
184.224209996
 20
117.3778720733
 30
0.0
 11
184.6534229557
 21
117.3778720733
 31
0.0
  0
LINE
  5
1E5
330
1DC
100
AcDbEntity
  8
0
  6
CONTINUOUS
 62
     7
100
AcDbLine
 10
184.6534229557
 20
117.3778720733
 30
0.0
 11
184.6534229557
 21
114.0147239968
 31
0.0
  0
LINE
  5
1E6
330
1DC
100
AcDbEntity
  8
0
  6
CONTINUOUS
 62
     7
100
AcDbLine
 10
184.6534229557
 20
114.0147239968
 30
0.0
 11
184.224209996
 21
114.0147239968
 31
0.0
  0
LINE
  5
1E7
330
1DC
100
AcDbEntity
  8
0
  6
CONTINUOUS
 62
     7
100
AcDbLine
 10
195.9951716978
 20
87.0578723061
 30
0.0
 11
195.9951716978
 21
119.1558723061
 31
0.0
  0
LINE
  5
1E8
330
1DC
100
AcDbEntity
  8
0
  6
CONTINUOUS
 62
     7
100
AcDbLine
 10
211.2351716978
 20
105.4728723061
 30
0.0
 11
211.2351716978
 21
119.1558723061
 31
0.0
  0
LINE
  5
1E9
330
1DC
100
AcDbEntity
  8
0
  6
CONTINUOUS
 62
     7
100
AcDbLine
 10
195.9951716978
 20
117.3778723061
 30
0.0
 11
187.1801547813
 21
117.3778723061
 31
0.0
  0
LINE
  5
1EA
330
1DC
100
AcDbEntity
  8
0
  6
CONTINUOUS
 62
     7
100
AcDbLine
 10
211.2351716978
 20
117.3778723061
 30
0.0
 11
195.9951716978
 21
117.3778723061
 31
0.0
  0
MTEXT
  5
1EB
330
1DC
100
AcDbEntity
  8
0
  6
CONTINUOUS
 62
     7
100
AcDbMText
 10
174.4547148751
 20
120.5356117197
 30
0.0
 40
2.1166666667
 41
0.0
 71
     1
 72
     1
  1

  7
SLDTEXTSTYLE0
  0
MTEXT
  5
1EC
330
1DC
100
AcDbEntity
  8
0
  6
CONTINUOUS
 62
     7
100
AcDbMText
 10
174.4272765795
 20
120.5356117197
 30
0.0
 40
2.1166666667
 41
0.0
 71
     1
 72
     1
  1
15.2mm
  7
SLDTEXTSTYLE0
  0
MTEXT
  5
1ED
330
1DC
100
AcDbEntity
  8
0
  6
CONTINUOUS
 62
     7
100
AcDbMText
 10
175.9305022283
 20
116.7432505962
 30
0.0
 40
2.1166666667
 41
0.0
 71
     1
 72
     1
  1
0.60in
  7
SLDTEXTSTYLE0
  0
MTEXT
  5
1EE
330
1DC
100
AcDbEntity
  8
0
  6
CONTINUOUS
 62
     7
100
AcDbMText
 10
186.778418492
 20
120.5356117197
 30
0.0
 40
2.1166666667
 41
0.0
 71
     1
 72
     1
  1

  7
SLDTEXTSTYLE0
  0
ENDBLK
  5
1DE
330
1DC
100
AcDbEntity
  8
0
100
AcDbBlockEnd
  0
BLOCK
  5
1F1
330
1F0
100
AcDbEntity
  8
0
100
AcDbBlockBegin
  2
_D_4
 70
     0
 10
0.0
 20
0.0
 30
0.0
  3
_D_4
  1
_D_4
  0
SOLID
  5
1F3
330
1F0
100
AcDbEntity
  8
0
  6
CONTINUOUS
 62
     7
100
AcDbTrace
 10
135.8651716978
 20
107.3778723061
 30
0.0
 11
135.3571716978
 21
104.2028723061
 31
0.0
 12
136.3731716978
 22
104.2028723061
 32
0.0
 13
136.3731716978
 23
104.2028723061
 33
0.0
  0
SOLID
  5
1F4
330
1F0
100
AcDbEntity
  8
0
  6
CONTINUOUS
 62
     7
100
AcDbTrace
 10
135.8651716978
 20
64.1978723061
 30
0.0
 11
136.3731716978
 21
67.3728723061
 31
0.0
 12
135.3571716978
 22
67.3728723061
 32
0.0
 13
135.3571716978
 23
67.3728723061
 33
0.0
  0
LINE
  5
1F5
330
1F0
100
AcDbEntity
  8
0
  6
CONTINUOUS
 62
     7
100
AcDbLine
 10
131.450059936
 20
85.7878720733
 30
0.0
 11
131.0208469763
 21
85.7878720733
 31
0.0
  0
LINE
  5
1F6
330
1F0
100
AcDbEntity
  8
0
  6
CONTINUOUS
 62
     7
100
AcDbLine
 10
131.0208469763
 20
85.7878720733
 30
0.0
 11
131.0208469763
 21
82.4247239968
 31
0.0
  0
LINE
  5
1F7
330
1F0
100
AcDbEntity
  8
0
  6
CONTINUOUS
 62
     7
100
AcDbLine
 10
131.0208469763
 20
82.4247239968
 30
0.0
 11
131.450059936
 21
82.4247239968
 31
0.0
  0
LINE
  5
1F8
330
1F0
100
AcDbEntity
  8
0
  6
CONTINUOUS
 62
     7
100
AcDbLine
 10
140.2802839252
 20
85.7878720733
 30
0.0
 11
140.7094968849
 21
85.7878720733
 31
0.0
  0
LINE
  5
1F9
330
1F0
100
AcDbEntity
  8
0
  6
CONTINUOUS
 62
     7
100
AcDbLine
 10
140.7094968849
 20
85.7878720733
 30
0.0
 11
140.7094968849
 21
82.4247239968
 31
0.0
  0
LINE
  5
1FA
330
1F0
100
AcDbEntity
  8
0
  6
CONTINUOUS
 62
     7
100
AcDbLine
 10
140.7094968849
 20
82.4247239968
 30
0.0
 11
140.2802839252
 21
82.4247239968
 31
0.0
  0
LINE
  5
1FB
330
1F0
100
AcDbEntity
  8
0
  6
CONTINUOUS
 62
     7
100
AcDbLine
 10
159.8001716978
 20
107.3778723061
 30
0.0
 11
134.0871716978
 21
107.3778723061
 31
0.0
  0
LINE
  5
1FC
330
1F0
100
AcDbEntity
  8
0
  6
CONTINUOUS
 62
     7
100
AcDbLine
 10
159.8001716978
 20
64.1978723061
 30
0.0
 11
134.0871716978
 21
64.1978723061
 31
0.0
  0
LINE
  5
1FD
330
1F0
100
AcDbEntity
  8
0
  6
CONTINUOUS
 62
     7
100
AcDbLine
 10
135.8651716978
 20
107.3778723061
 30
0.0
 11
135.8651716978
 21
89.5802331968
 31
0.0
  0
LINE
  5
1FE
330
1F0
100
AcDbEntity
  8
0
  6
CONTINUOUS
 62
     7
100
AcDbLine
 10
135.8651716978
 20
64.1978723061
 30
0.0
 11
135.8651716978
 21
81.9955114154
 31
0.0
  0
MTEXT
  5
1FF
330
1F0
100
AcDbEntity
  8
0
  6
CONTINUOUS
 62
     7
100
AcDbMText
 10
130.5107888044
 20
88.9456117197
 30
0.0
 40
2.1166666667
 41
0.0
 71
     1
 72
     1
  1

  7
SLDTEXTSTYLE0
  0
MTEXT
  5
200
330
1F0
100
AcDbEntity
  8
0
  6
CONTINUOUS
 62
     7
100
AcDbMText
 10
130.4833505087
 20
88.9456117197
 30
0.0
 40
2.1166666667
 41
0.0
 71
     1
 72
     1
  1
43.2mm
  7
SLDTEXTSTYLE0
  0
MTEXT
  5
201
330
1F0
100
AcDbEntity
  8
0
  6
CONTINUOUS
 62
     7
100
AcDbMText
 10
131.9865761575
 20
85.1532505962
 30
0.0
 40
2.1166666667
 41
0.0
 71
     1
 72
     1
  1
1.70in
  7
SLDTEXTSTYLE0
  0
MTEXT
  5
202
330
1F0
100
AcDbEntity
  8
0
  6
CONTINUOUS
 62
     7
100
AcDbMText
 10
142.8344924212
 20
88.9456117197
 30
0.0
 40
2.1166666667
 41
0.0
 71
     1
 72
     1
  1

  7
SLDTEXTSTYLE0
  0
ENDBLK
  5
1F2
330
1F0
100
AcDbEntity
  8
0
100
AcDbBlockEnd
  0
BLOCK
  5
206
330
205
100
AcDbEntity
  8
0
100
AcDbBlockBegin
  2
_D_5
 70
     0
 10
0.0
 20
0.0
 30
0.0
  3
_D_5
  1
_D_5
  0
SOLID
  5
208
330
205
100
AcDbEntity
  8
0
  6
CONTINUOUS
 62
     7
100
AcDbTrace
 10
123.8651716978
 20
59.3778723061
 30
0.0
 11
124.3731716978
 21
62.5528723061
 31
0.0
 12
123.3571716978
 22
62.5528723061
 32
0.0
 13
123.3571716978
 23
62.5528723061
 33
0.0
  0
SOLID
  5
209
330
205
100
AcDbEntity
  8
0
  6
CONTINUOUS
 62
     7
100
AcDbTrace
 10
123.8651716978
 20
107.3778723061
 30
0.0
 11
123.3571716978
 21
104.2028723061
 31
0.0
 12
124.3731716978
 22
104.2028723061
 32
0.0
 13
124.3731716978
 23
104.2028723061
 33
0.0
  0
LINE
  5
20A
330
205
100
AcDbEntity
  8
0
  6
CONTINUOUS
 62
     7
100
AcDbLine
 10
119.450059936
 20
83.3778720733
 30
0.0
 11
119.0208469763
 21
83.3778720733
 31
0.0
  0
LINE
  5
20B
330
205
100
AcDbEntity
  8
0
  6
CONTINUOUS
 62
     7
100
AcDbLine
 10
119.0208469763
 20
83.3778720733
 30
0.0
 11
119.0208469763
 21
80.0147239968
 31
0.0
  0
LINE
  5
20C
330
205
100
AcDbEntity
  8
0
  6
CONTINUOUS
 62
     7
100
AcDbLine
 10
119.0208469763
 20
80.0147239968
 30
0.0
 11
119.450059936
 21
80.0147239968
 31
0.0
  0
LINE
  5
20D
330
205
100
AcDbEntity
  8
0
  6
CONTINUOUS
 62
     7
100
AcDbLine
 10
128.2802839252
 20
83.3778720733
 30
0.0
 11
128.7094968849
 21
83.3778720733
 31
0.0
  0
LINE
  5
20E
330
205
100
AcDbEntity
  8
0
  6
CONTINUOUS
 62
     7
100
AcDbLine
 10
128.7094968849
 20
83.3778720733
 30
0.0
 11
128.7094968849
 21
80.0147239968
 31
0.0
  0
LINE
  5
20F
330
205
100
AcDbEntity
  8
0
  6
CONTINUOUS
 62
     7
100
AcDbLine
 10
128.7094968849
 20
80.0147239968
 30
0.0
 11
128.2802839252
 21
80.0147239968
 31
0.0
  0
LINE
  5
210
330
205
100
AcDbEntity
  8
0
  6
CONTINUOUS
 62
     7
100
AcDbLine
 10
189.6451716978
 20
59.3778723061
 30
0.0
 11
122.0871716978
 21
59.3778723061
 31
0.0
  0
LINE
  5
211
330
205
100
AcDbEntity
  8
0
  6
CONTINUOUS
 62
     7
100
AcDbLine
 10
159.8001716978
 20
107.3778723061
 30
0.0
 11
122.0871716978
 21
107.3778723061
 31
0.0
  0
LINE
  5
212
330
205
100
AcDbEntity
  8
0
  6
CONTINUOUS
 62
     7
100
AcDbLine
 10
123.8651716978
 20
59.3778723061
 30
0.0
 11
123.8651716978
 21
79.5855114154
 31
0.0
  0
LINE
  5
213
330
205
100
AcDbEntity
  8
0
  6
CONTINUOUS
 62
     7
100
AcDbLine
 10
123.8651716978
 20
107.3778723061
 30
0.0
 11
123.8651716978
 21
87.1702331968
 31
0.0
  0
MTEXT
  5
214
330
205
100
AcDbEntity
  8
0
  6
CONTINUOUS
 62
     7
100
AcDbMText
 10
118.5107888044
 20
86.5356117197
 30
0.0
 40
2.1166666667
 41
0.0
 71
     1
 72
     1
  1

  7
SLDTEXTSTYLE0
  0
MTEXT
  5
215
330
205
100
AcDbEntity
  8
0
  6
CONTINUOUS
 62
     7
100
AcDbMText
 10
118.4833505087
 20
86.5356117197
 30
0.0
 40
2.1166666667
 41
0.0
 71
     1
 72
     1
  1
48.0mm
  7
SLDTEXTSTYLE0
  0
MTEXT
  5
216
330
205
100
AcDbEntity
  8
0
  6
CONTINUOUS
 62
     7
100
AcDbMText
 10
119.9865761575
 20
82.7432505962
 30
0.0
 40
2.1166666667
 41
0.0
 71
     1
 72
     1
  1
1.89in
  7
SLDTEXTSTYLE0
  0
MTEXT
  5
217
330
205
100
AcDbEntity
  8
0
  6
CONTINUOUS
 62
     7
100
AcDbMText
 10
130.8344924212
 20
86.5356117197
 30
0.0
 40
2.1166666667
 41
0.0
 71
     1
 72
     1
  1

  7
SLDTEXTSTYLE0
  0
ENDBLK
  5
207
330
205
100
AcDbEntity
  8
0
100
AcDbBlockEnd
  0
BLOCK
  5
21A
330
219
100
AcDbEntity
  8
0
100
AcDbBlockBegin
  2
_D_6
 70
     0
 10
0.0
 20
0.0
 30
0.0
  3
_D_6
  1
_D_6
  0
SOLID
  5
21C
330
219
100
AcDbEntity
  8
0
  6
CONTINUOUS
 62
     7
100
AcDbTrace
 10
238.0551716978
 20
59.3778723061
 30
0.0
 11
238.5631716978
 21
62.5528723061
 31
0.0
 12
237.5471716978
 22
62.5528723061
 32
0.0
 13
237.5471716978
 23
62.5528723061
 33
0.0
  0
SOLID
  5
21D
330
219
100
AcDbEntity
  8
0
  6
CONTINUOUS
 62
     7
100
AcDbTrace
 10
238.0551716978
 20
85.7878723061
 30
0.0
 11
237.5471716978
 21
82.6128723061
 31
0.0
 12
238.5631716978
 22
82.6128723061
 32
0.0
 13
238.5631716978
 23
82.6128723061
 33
0.0
  0
LINE
  5
21E
330
219
100
AcDbEntity
  8
0
  6
CONTINUOUS
 62
     7
100
AcDbLine
 10
233.640059936
 20
72.5828720733
 30
0.0
 11
233.2108469763
 21
72.5828720733
 31
0.0
  0
LINE
  5
21F
330
219
100
AcDbEntity
  8
0
  6
CONTINUOUS
 62
     7
100
AcDbLine
 10
233.2108469763
 20
72.5828720733
 30
0.0
 11
233.2108469763
 21
69.2197239968
 31
0.0
  0
LINE
  5
220
330
219
100
AcDbEntity
  8
0
  6
CONTINUOUS
 62
     7
100
AcDbLine
 10
233.2108469763
 20
69.2197239968
 30
0.0
 11
233.640059936
 21
69.2197239968
 31
0.0
  0
LINE
  5
221
330
219
100
AcDbEntity
  8
0
  6
CONTINUOUS
 62
     7
100
AcDbLine
 10
242.4702839252
 20
72.5828720733
 30
0.0
 11
242.8994968849
 21
72.5828720733
 31
0.0
  0
LINE
  5
222
330
219
100
AcDbEntity
  8
0
  6
CONTINUOUS
 62
     7
100
AcDbLine
 10
242.8994968849
 20
72.5828720733
 30
0.0
 11
242.8994968849
 21
69.2197239968
 31
0.0
  0
LINE
  5
223
330
219
100
AcDbEntity
  8
0
  6
CONTINUOUS
 62
     7
100
AcDbLine
 10
242.8994968849
 20
69.2197239968
 30
0.0
 11
242.4702839252
 21
69.2197239968
 31
0.0
  0
LINE
  5
224
330
219
100
AcDbEntity
  8
0
  6
CONTINUOUS
 62
     7
100
AcDbLine
 10
202.3451716978
 20
59.3778723061
 30
0.0
 11
239.8331716978
 21
59.3778723061
 31
0.0
  0
LINE
  5
225
330
219
100
AcDbEntity
  8
0
  6
CONTINUOUS
 62
     7
100
AcDbLine
 10
197.2651716978
 20
85.7878723061
 30
0.0
 11
239.8331716978
 21
85.7878723061
 31
0.0
  0
LINE
  5
226
330
219
100
AcDbEntity
  8
0
  6
CONTINUOUS
 62
     7
100
AcDbLine
 10
238.0551716978
 20
59.3778723061
 30
0.0
 11
238.0551716978
 21
68.7905114154
 31
0.0
  0
LINE
  5
227
330
219
100
AcDbEntity
  8
0
  6
CONTINUOUS
 62
     7
100
AcDbLine
 10
238.0551716978
 20
85.7878723061
 30
0.0
 11
238.0551716978
 21
76.3752331968
 31
0.0
  0
MTEXT
  5
228
330
219
100
AcDbEntity
  8
0
  6
CONTINUOUS
 62
     7
100
AcDbMText
 10
232.7007888044
 20
75.7406117197
 30
0.0
 40
2.1166666667
 41
0.0
 71
     1
 72
     1
  1

  7
SLDTEXTSTYLE0
  0
MTEXT
  5
229
330
219
100
AcDbEntity
  8
0
  6
CONTINUOUS
 62
     7
100
AcDbMText
 10
232.6733505087
 20
75.7406117197
 30
0.0
 40
2.1166666667
 41
0.0
 71
     1
 72
     1
  1
26.4mm
  7
SLDTEXTSTYLE0
  0
MTEXT
  5
22A
330
219
100
AcDbEntity
  8
0
  6
CONTINUOUS
 62
     7
100
AcDbMText
 10
234.1765761575
 20
71.9482505962
 30
0.0
 40
2.1166666667
 41
0.0
 71
     1
 72
     1
  1
1.04in
  7
SLDTEXTSTYLE0
  0
MTEXT
  5
22B
330
219
100
AcDbEntity
  8
0
  6
CONTINUOUS
 62
     7
100
AcDbMText
 10
245.0244924212
 20
75.7406117197
 30
0.0
 40
2.1166666667
 41
0.0
 71
     1
 72
     1
  1

  7
SLDTEXTSTYLE0
  0
ENDBLK
  5
21B
330
219
100
AcDbEntity
  8
0
100
AcDbBlockEnd
  0
BLOCK
  5
22E
330
22D
100
AcDbEntity
  8
0
100
AcDbBlockBegin
  2
_D_7
 70
     0
 10
0.0
 20
0.0
 30
0.0
  3
_D_7
  1
_D_7
  0
SOLID
  5
230
330
22D
100
AcDbEntity
  8
0
  6
CONTINUOUS
 62
     7
100
AcDbTrace
 10
145.8651716978
 20
135.3778723061
 30
0.0
 11
149.0401716978
 21
134.8698723061
 31
0.0
 12
149.0401716978
 22
135.8858723061
 32
0.0
 13
149.0401716978
 23
135.8858723061
 33
0.0
  0
SOLID
  5
231
330
22D
100
AcDbEntity
  8
0
  6
CONTINUOUS
 62
     7
100
AcDbTrace
 10
216.0551716978
 20
135.3778723061
 30
0.0
 11
212.8801716978
 21
135.8858723061
 31
0.0
 12
212.8801716978
 22
134.8698723061
 32
0.0
 13
212.8801716978
 23
134.8698723061
 33
0.0
  0
LINE
  5
232
330
22D
100
AcDbEntity
  8
0
  6
CONTINUOUS
 62
     7
100
AcDbLine
 10
176.545059936
 20
135.3778720733
 30
0.0
 11
176.1158469763
 21
135.3778720733
 31
0.0
  0
LINE
  5
233
330
22D
100
AcDbEntity
  8
0
  6
CONTINUOUS
 62
     7
100
AcDbLine
 10
176.1158469763
 20
135.3778720733
 30
0.0
 11
176.1158469763
 21
132.0147239968
 31
0.0
  0
LINE
  5
234
330
22D
100
AcDbEntity
  8
0
  6
CONTINUOUS
 62
     7
100
AcDbLine
 10
176.1158469763
 20
132.0147239968
 30
0.0
 11
176.545059936
 21
132.0147239968
 31
0.0
  0
LINE
  5
235
330
22D
100
AcDbEntity
  8
0
  6
CONTINUOUS
 62
     7
100
AcDbLine
 10
185.3752839252
 20
135.3778720733
 30
0.0
 11
185.8044968849
 21
135.3778720733
 31
0.0
  0
LINE
  5
236
330
22D
100
AcDbEntity
  8
0
  6
CONTINUOUS
 62
     7
100
AcDbLine
 10
185.8044968849
 20
135.3778720733
 30
0.0
 11
185.8044968849
 21
132.0147239968
 31
0.0
  0
LINE
  5
237
330
22D
100
AcDbEntity
  8
0
  6
CONTINUOUS
 62
     7
100
AcDbLine
 10
185.8044968849
 20
132.0147239968
 30
0.0
 11
185.3752839252
 21
132.0147239968
 31
0.0
  0
LINE
  5
238
330
22D
100
AcDbEntity
  8
0
  6
CONTINUOUS
 62
     7
100
AcDbLine
 10
145.8651716978
 20
86.8013906289
 30
0.0
 11
145.8651716978
 21
137.1558723061
 31
0.0
  0
LINE
  5
239
330
22D
100
AcDbEntity
  8
0
  6
CONTINUOUS
 62
     7
100
AcDbLine
 10
216.0551716978
 20
92.1378723061
 30
0.0
 11
216.0551716978
 21
137.1558723061
 31
0.0
  0
LINE
  5
23A
330
22D
100
AcDbEntity
  8
0
  6
CONTINUOUS
 62
     7
100
AcDbLine
 10
145.8651716978
 20
135.3778723061
 30
0.0
 11
173.5891146851
 21
135.3778723061
 31
0.0
  0
LINE
  5
23B
330
22D
100
AcDbEntity
  8
0
  6
CONTINUOUS
 62
     7
100
AcDbLine
 10
216.0551716978
 20
135.3778723061
 30
0.0
 11
188.3312287105
 21
135.3778723061
 31
0.0
  0
MTEXT
  5
23C
330
22D
100
AcDbEntity
  8
0
  6
CONTINUOUS
 62
     7
100
AcDbMText
 10
175.6057888044
 20
138.5356117197
 30
0.0
 40
2.1166666667
 41
0.0
 71
     1
 72
     1
  1

  7
SLDTEXTSTYLE0
  0
MTEXT
  5
23D
330
22D
100
AcDbEntity
  8
0
  6
CONTINUOUS
 62
     7
100
AcDbMText
 10
175.5783505087
 20
138.5356117197
 30
0.0
 40
2.1166666667
 41
0.0
 71
     1
 72
     1
  1
70.2mm
  7
SLDTEXTSTYLE0
  0
MTEXT
  5
23E
330
22D
100
AcDbEntity
  8
0
  6
CONTINUOUS
 62
     7
100
AcDbMText
 10
177.0815761575
 20
134.7432505962
 30
0.0
 40
2.1166666667
 41
0.0
 71
     1
 72
     1
  1
2.76in
  7
SLDTEXTSTYLE0
  0
MTEXT
  5
23F
330
22D
100
AcDbEntity
  8
0
  6
CONTINUOUS
 62
     7
100
AcDbMText
 10
187.9294924212
 20
138.5356117197
 30
0.0
 40
2.1166666667
 41
0.0
 71
     1
 72
     1
  1

  7
SLDTEXTSTYLE0
  0
ENDBLK
  5
22F
330
22D
100
AcDbEntity
  8
0
100
AcDbBlockEnd
  0
BLOCK
  5
242
330
241
100
AcDbEntity
  8
0
100
AcDbBlockBegin
  2
_D_8
 70
     0
 10
0.0
 20
0.0
 30
0.0
  3
_D_8
  1
_D_8
  0
SOLID
  5
244
330
241
100
AcDbEntity
  8
0
  6
CONTINUOUS
 62
     7
100
AcDbTrace
 10
216.0551716978
 20
126.8088274197
 30
0.0
 11
212.8801716978
 21
127.3168274197
 31
0.0
 12
212.8801716978
 22
126.3008274197
 32
0.0
 13
212.8801716978
 23
126.3008274197
 33
0.0
  0
SOLID
  5
245
330
241
100
AcDbEntity
  8
0
  6
CONTINUOUS
 62
     7
100
AcDbTrace
 10
195.9951716978
 20
126.8088274197
 30
0.0
 11
199.1701716978
 21
126.3008274197
 31
0.0
 12
199.1701716978
 22
127.3168274197
 32
0.0
 13
199.1701716978
 23
127.3168274197
 33
0.0
  0
LINE
  5
246
330
241
100
AcDbEntity
  8
0
  6
CONTINUOUS
 62
     7
100
AcDbLine
 10
233.640059936
 20
126.8088271869
 30
0.0
 11
233.2108469763
 21
126.8088271869
 31
0.0
  0
LINE
  5
247
330
241
100
AcDbEntity
  8
0
  6
CONTINUOUS
 62
     7
100
AcDbLine
 10
233.2108469763
 20
126.8088271869
 30
0.0
 11
233.2108469763
 21
123.4456791104
 31
0.0
  0
LINE
  5
248
330
241
100
AcDbEntity
  8
0
  6
CONTINUOUS
 62
     7
100
AcDbLine
 10
233.2108469763
 20
123.4456791104
 30
0.0
 11
233.640059936
 21
123.4456791104
 31
0.0
  0
LINE
  5
249
330
241
100
AcDbEntity
  8
0
  6
CONTINUOUS
 62
     7
100
AcDbLine
 10
242.4702839252
 20
126.8088271869
 30
0.0
 11
242.8994968849
 21
126.8088271869
 31
0.0
  0
LINE
  5
24A
330
241
100
AcDbEntity
  8
0
  6
CONTINUOUS
 62
     7
100
AcDbLine
 10
242.8994968849
 20
126.8088271869
 30
0.0
 11
242.8994968849
 21
123.4456791104
 31
0.0
  0
LINE
  5
24B
330
241
100
AcDbEntity
  8
0
  6
CONTINUOUS
 62
     7
100
AcDbLine
 10
242.8994968849
 20
123.4456791104
 30
0.0
 11
242.4702839252
 21
123.4456791104
 31
0.0
  0
LINE
  5
24C
330
241
100
AcDbEntity
  8
0
  6
CONTINUOUS
 62
     7
100
AcDbLine
 10
216.0551716978
 20
92.1378723061
 30
0.0
 11
216.0551716978
 21
128.5868274197
 31
0.0
  0
LINE
  5
24D
330
241
100
AcDbEntity
  8
0
  6
CONTINUOUS
 62
     7
100
AcDbLine
 10
195.9951716978
 20
87.0578723061
 30
0.0
 11
195.9951716978
 21
128.5868274197
 31
0.0
  0
LINE
  5
24E
330
241
100
AcDbEntity
  8
0
  6
CONTINUOUS
 62
     7
100
AcDbLine
 10
216.0551716978
 20
126.8088274197
 30
0.0
 11
230.6841146851
 21
126.8088274197
 31
0.0
  0
LINE
  5
24F
330
241
100
AcDbEntity
  8
0
  6
CONTINUOUS
 62
     7
100
AcDbLine
 10
195.9951716978
 20
126.8088274197
 30
0.0
 11
216.0551716978
 21
126.8088274197
 31
0.0
  0
MTEXT
  5
250
330
241
100
AcDbEntity
  8
0
  6
CONTINUOUS
 62
     7
100
AcDbMText
 10
232.7007888044
 20
129.9665668333
 30
0.0
 40
2.1166666667
 41
0.0
 71
     1
 72
     1
  1

  7
SLDTEXTSTYLE0
  0
MTEXT
  5
251
330
241
100
AcDbEntity
  8
0
  6
CONTINUOUS
 62
     7
100
AcDbMText
 10
232.6733505087
 20
129.9665668333
 30
0.0
 40
2.1166666667
 41
0.0
 71
     1
 72
     1
  1
20.1mm
  7
SLDTEXTSTYLE0
  0
MTEXT
  5
252
330
241
100
AcDbEntity
  8
0
  6
CONTINUOUS
 62
     7
100
AcDbMText
 10
234.1765761575
 20
126.1742057098
 30
0.0
 40
2.1166666667
 41
0.0
 71
     1
 72
     1
  1
0.79in
  7
SLDTEXTSTYLE0
  0
MTEXT
  5
253
330
241
100
AcDbEntity
  8
0
  6
CONTINUOUS
 62
     7
100
AcDbMText
 10
245.0244924212
 20
129.9665668333
 30
0.0
 40
2.1166666667
 41
0.0
 71
     1
 72
     1
  1

  7
SLDTEXTSTYLE0
  0
ENDBLK
  5
243
330
241
100
AcDbEntity
  8
0
100
AcDbBlockEnd
  0
BLOCK
  5
256
330
255
100
AcDbEntity
  8
0
100
AcDbBlockBegin
  2
_D_9
 70
     0
 10
0.0
 20
0.0
 30
0.0
  3
_D_9
  1
_D_9
  0
SOLID
  5
258
330
255
100
AcDbEntity
  8
0
  6
CONTINUOUS
 62
     7
100
AcDbTrace
 10
157.8951716978
 20
49.3778723061
 30
0.0
 11
161.0701716978
 21
48.8698723061
 31
0.0
 12
161.0701716978
 22
49.8858723061
 32
0.0
 13
161.0701716978
 23
49.8858723061
 33
0.0
  0
SOLID
  5
259
330
255
100
AcDbEntity
  8
0
  6
CONTINUOUS
 62
     7
100
AcDbTrace
 10
211.2351716978
 20
49.3778723061
 30
0.0
 11
208.0601716978
 21
49.8858723061
 31
0.0
 12
208.0601716978
 22
48.8698723061
 32
0.0
 13
208.0601716978
 23
48.8698723061
 33
0.0
  0
LINE
  5
25A
330
255
100
AcDbEntity
  8
0
  6
CONTINUOUS
 62
     7
100
AcDbLine
 10
180.150059936
 20
49.3778720733
 30
0.0
 11
179.7208469763
 21
49.3778720733
 31
0.0
  0
LINE
  5
25B
330
255
100
AcDbEntity
  8
0
  6
CONTINUOUS
 62
     7
100
AcDbLine
 10
179.7208469763
 20
49.3778720733
 30
0.0
 11
179.7208469763
 21
46.0147239968
 31
0.0
  0
LINE
  5
25C
330
255
100
AcDbEntity
  8
0
  6
CONTINUOUS
 62
     7
100
AcDbLine
 10
179.7208469763
 20
46.0147239968
 30
0.0
 11
180.150059936
 21
46.0147239968
 31
0.0
  0
LINE
  5
25D
330
255
100
AcDbEntity
  8
0
  6
CONTINUOUS
 62
     7
100
AcDbLine
 10
188.9802839252
 20
49.3778720733
 30
0.0
 11
189.4094968849
 21
49.3778720733
 31
0.0
  0
LINE
  5
25E
330
255
100
AcDbEntity
  8
0
  6
CONTINUOUS
 62
     7
100
AcDbLine
 10
189.4094968849
 20
49.3778720733
 30
0.0
 11
189.4094968849
 21
46.0147239968
 31
0.0
  0
LINE
  5
25F
330
255
100
AcDbEntity
  8
0
  6
CONTINUOUS
 62
     7
100
AcDbLine
 10
189.4094968849
 20
46.0147239968
 30
0.0
 11
188.9802839252
 21
46.0147239968
 31
0.0
  0
LINE
  5
260
330
255
100
AcDbEntity
  8
0
  6
CONTINUOUS
 62
     7
100
AcDbLine
 10
157.8951716978
 20
66.1028723061
 30
0.0
 11
157.8951716978
 21
47.5998723061
 31
0.0
  0
LINE
  5
261
330
255
100
AcDbEntity
  8
0
  6
CONTINUOUS
 62
     7
100
AcDbLine
 10
211.2351716978
 20
66.1028723061
 30
0.0
 11
211.2351716978
 21
47.5998723061
 31
0.0
  0
LINE
  5
262
330
255
100
AcDbEntity
  8
0
  6
CONTINUOUS
 62
     7
100
AcDbLine
 10
157.8951716978
 20
49.3778723061
 30
0.0
 11
177.1941146851
 21
49.3778723061
 31
0.0
  0
LINE
  5
263
330
255
100
AcDbEntity
  8
0
  6
CONTINUOUS
 62
     7
100
AcDbLine
 10
211.2351716978
 20
49.3778723061
 30
0.0
 11
191.9362287105
 21
49.3778723061
 31
0.0
  0
MTEXT
  5
264
330
255
100
AcDbEntity
  8
0
  6
CONTINUOUS
 62
     7
100
AcDbMText
 10
179.2107888044
 20
52.5356117197
 30
0.0
 40
2.1166666667
 41
0.0
 71
     1
 72
     1
  1

  7
SLDTEXTSTYLE0
  0
MTEXT
  5
265
330
255
100
AcDbEntity
  8
0
  6
CONTINUOUS
 62
     7
100
AcDbMText
 10
179.1833505087
 20
52.5356117197
 30
0.0
 40
2.1166666667
 41
0.0
 71
     1
 72
     1
  1
53.3mm
  7
SLDTEXTSTYLE0
  0
MTEXT
  5
266
330
255
100
AcDbEntity
  8
0
  6
CONTINUOUS
 62
     7
100
AcDbMText
 10
180.6865761575
 20
48.7432505962
 30
0.0
 40
2.1166666667
 41
0.0
 71
     1
 72
     1
  1
2.10in
  7
SLDTEXTSTYLE0
  0
MTEXT
  5
267
330
255
100
AcDbEntity
  8
0
  6
CONTINUOUS
 62
     7
100
AcDbMText
 10
191.5344924212
 20
52.5356117197
 30
0.0
 40
2.1166666667
 41
0.0
 71
     1
 72
     1
  1

  7
SLDTEXTSTYLE0
  0
ENDBLK
  5
257
330
255
100
AcDbEntity
  8
0
100
AcDbBlockEnd
  0
BLOCK
  5
358
330
357
100
AcDbEntity
  8
0
100
AcDbBlockBegin
  2
_D_10
 70
     0
 10
0.0
 20
0.0
 30
0.0
  3
_D_10
  1
_D_10
  0
SOLID
  5
35A
330
357
100
AcDbEntity
  8
0
  6
CONTINUOUS
 62
     7
100
AcDbTrace
 10
129.8651716978
 20
196.309014717
 30
0.0
 11
129.3571716978
 21
193.134014717
 31
0.0
 12
130.3731716978
 22
193.134014717
 32
0.0
 13
130.3731716978
 23
193.134014717
 33
0.0
  0
SOLID
  5
35B
330
357
100
AcDbEntity
  8
0
  6
CONTINUOUS
 62
     7
100
AcDbTrace
 10
129.8651716978
 20
177.259014717
 30
0.0
 11
130.3731716978
 21
180.434014717
 31
0.0
 12
129.3571716978
 22
180.434014717
 32
0.0
 13
129.3571716978
 23
180.434014717
 33
0.0
  0
LINE
  5
35C
330
357
100
AcDbEntity
  8
0
  6
CONTINUOUS
 62
     7
100
AcDbLine
 10
125.450059936
 20
186.7840144841
 30
0.0
 11
125.0208469763
 21
186.7840144841
 31
0.0
  0
LINE
  5
35D
330
357
100
AcDbEntity
  8
0
  6
CONTINUOUS
 62
     7
100
AcDbLine
 10
125.0208469763
 20
186.7840144841
 30
0.0
 11
125.0208469763
 21
183.4208664077
 31
0.0
  0
LINE
  5
35E
330
357
100
AcDbEntity
  8
0
  6
CONTINUOUS
 62
     7
100
AcDbLine
 10
125.0208469763
 20
183.4208664077
 30
0.0
 11
125.450059936
 21
183.4208664077
 31
0.0
  0
LINE
  5
35F
330
357
100
AcDbEntity
  8
0
  6
CONTINUOUS
 62
     7
100
AcDbLine
 10
134.2802839252
 20
186.7840144841
 30
0.0
 11
134.7094968849
 21
186.7840144841
 31
0.0
  0
LINE
  5
360
330
357
100
AcDbEntity
  8
0
  6
CONTINUOUS
 62
     7
100
AcDbLine
 10
134.7094968849
 20
186.7840144841
 30
0.0
 11
134.7094968849
 21
183.4208664077
 31
0.0
  0
LINE
  5
361
330
357
100
AcDbEntity
  8
0
  6
CONTINUOUS
 62
     7
100
AcDbLine
 10
134.7094968849
 20
183.4208664077
 30
0.0
 11
134.2802839252
 21
183.4208664077
 31
0.0
  0
LINE
  5
362
330
357
100
AcDbEntity
  8
0
  6
CONTINUOUS
 62
     7
100
AcDbLine
 10
159.8001716978
 20
196.309014717
 30
0.0
 11
128.0871716978
 21
196.309014717
 31
0.0
  0
LINE
  5
363
330
357
100
AcDbEntity
  8
0
  6
CONTINUOUS
 62
     7
100
AcDbLine
 10
159.8001716978
 20
177.259014717
 30
0.0
 11
128.0871716978
 21
177.259014717
 31
0.0
  0
LINE
  5
364
330
357
100
AcDbEntity
  8
0
  6
CONTINUOUS
 62
     7
100
AcDbLine
 10
129.8651716978
 20
196.309014717
 30
0.0
 11
129.8651716978
 21
190.5763756076
 31
0.0
  0
LINE
  5
365
330
357
100
AcDbEntity
  8
0
  6
CONTINUOUS
 62
     7
100
AcDbLine
 10
129.8651716978
 20
177.259014717
 30
0.0
 11
129.8651716978
 21
182.9916538263
 31
0.0
  0
MTEXT
  5
366
330
357
100
AcDbEntity
  8
0
  6
CONTINUOUS
 62
     7
100
AcDbMText
 10
124.5107888044
 20
189.9417541306
 30
0.0
 40
2.1166666667
 41
0.0
 71
     1
 72
     1
  1

  7
SLDTEXTSTYLE0
  0
MTEXT
  5
367
330
357
100
AcDbEntity
  8
0
  6
CONTINUOUS
 62
     7
100
AcDbMText
 10
124.4833505087
 20
189.9417541306
 30
0.0
 40
2.1166666667
 41
0.0
 71
     1
 72
     1
  1
19.1mm
  7
SLDTEXTSTYLE0
  0
MTEXT
  5
368
330
357
100
AcDbEntity
  8
0
  6
CONTINUOUS
 62
     7
100
AcDbMText
 10
125.9865761575
 20
186.1493930071
 30
0.0
 40
2.1166666667
 41
0.0
 71
     1
 72
     1
  1
0.75in
  7
SLDTEXTSTYLE0
  0
MTEXT
  5
369
330
357
100
AcDbEntity
  8
0
  6
CONTINUOUS
 62
     7
100
AcDbMText
 10
136.8344924212
 20
189.9417541306
 30
0.0
 40
2.1166666667
 41
0.0
 71
     1
 72
     1
  1

  7
SLDTEXTSTYLE0
  0
ENDBLK
  5
359
330
357
100
AcDbEntity
  8
0
100
AcDbBlockEnd
  0
BLOCK
  5
36C
330
36B
100
AcDbEntity
  8
0
100
AcDbBlockBegin
  2
_D_11
 70
     0
 10
0.0
 20
0.0
 30
0.0
  3
_D_11
  1
_D_11
  0
SOLID
  5
36E
330
36B
100
AcDbEntity
  8
0
  6
CONTINUOUS
 62
     7
100
AcDbTrace
 10
111.8651716978
 20
169.893014717
 30
0.0
 11
112.3731716978
 21
173.068014717
 31
0.0
 12
111.3571716978
 22
173.068014717
 32
0.0
 13
111.3571716978
 23
173.068014717
 33
0.0
  0
SOLID
  5
36F
330
36B
100
AcDbEntity
  8
0
  6
CONTINUOUS
 62
     7
100
AcDbTrace
 10
111.8651716978
 20
196.309014717
 30
0.0
 11
111.3571716978
 21
193.134014717
 31
0.0
 12
112.3731716978
 22
193.134014717
 32
0.0
 13
112.3731716978
 23
193.134014717
 33
0.0
  0
LINE
  5
370
330
36B
100
AcDbEntity
  8
0
  6
CONTINUOUS
 62
     7
100
AcDbLine
 10
107.450059936
 20
183.1010144841
 30
0.0
 11
107.0208469763
 21
183.1010144841
 31
0.0
  0
LINE
  5
371
330
36B
100
AcDbEntity
  8
0
  6
CONTINUOUS
 62
     7
100
AcDbLine
 10
107.0208469763
 20
183.1010144841
 30
0.0
 11
107.0208469763
 21
179.7378664077
 31
0.0
  0
LINE
  5
372
330
36B
100
AcDbEntity
  8
0
  6
CONTINUOUS
 62
     7
100
AcDbLine
 10
107.0208469763
 20
179.7378664077
 30
0.0
 11
107.450059936
 21
179.7378664077
 31
0.0
  0
LINE
  5
373
330
36B
100
AcDbEntity
  8
0
  6
CONTINUOUS
 62
     7
100
AcDbLine
 10
116.2802839252
 20
183.1010144841
 30
0.0
 11
116.7094968849
 21
183.1010144841
 31
0.0
  0
LINE
  5
374
330
36B
100
AcDbEntity
  8
0
  6
CONTINUOUS
 62
     7
100
AcDbLine
 10
116.7094968849
 20
183.1010144841
 30
0.0
 11
116.7094968849
 21
179.7378664077
 31
0.0
  0
LINE
  5
375
330
36B
100
AcDbEntity
  8
0
  6
CONTINUOUS
 62
     7
100
AcDbLine
 10
116.7094968849
 20
179.7378664077
 30
0.0
 11
116.2802839252
 21
179.7378664077
 31
0.0
  0
LINE
  5
376
330
36B
100
AcDbEntity
  8
0
  6
CONTINUOUS
 62
     7
100
AcDbLine
 10
179.7391716978
 20
169.893014717
 30
0.0
 11
110.0871716978
 21
169.893014717
 31
0.0
  0
LINE
  5
377
330
36B
100
AcDbEntity
  8
0
  6
CONTINUOUS
 62
     7
100
AcDbLine
 10
159.8001716978
 20
196.309014717
 30
0.0
 11
110.0871716978
 21
196.309014717
 31
0.0
  0
LINE
  5
378
330
36B
100
AcDbEntity
  8
0
  6
CONTINUOUS
 62
     7
100
AcDbLine
 10
111.8651716978
 20
169.893014717
 30
0.0
 11
111.8651716978
 21
179.3086538263
 31
0.0
  0
LINE
  5
379
330
36B
100
AcDbEntity
  8
0
  6
CONTINUOUS
 62
     7
100
AcDbLine
 10
111.8651716978
 20
196.309014717
 30
0.0
 11
111.8651716978
 21
186.8933756076
 31
0.0
  0
MTEXT
  5
37A
330
36B
100
AcDbEntity
  8
0
  6
CONTINUOUS
 62
     7
100
AcDbMText
 10
106.5107888044
 20
186.2587541306
 30
0.0
 40
2.1166666667
 41
0.0
 71
     1
 72
     1
  1

  7
SLDTEXTSTYLE0
  0
MTEXT
  5
37B
330
36B
100
AcDbEntity
  8
0
  6
CONTINUOUS
 62
     7
100
AcDbMText
 10
106.4833505087
 20
186.2587541306
 30
0.0
 40
2.1166666667
 41
0.0
 71
     1
 72
     1
  1
26.4mm
  7
SLDTEXTSTYLE0
  0
MTEXT
  5
37C
330
36B
100
AcDbEntity
  8
0
  6
CONTINUOUS
 62
     7
100
AcDbMText
 10
107.9865761575
 20
182.4663930071
 30
0.0
 40
2.1166666667
 41
0.0
 71
     1
 72
     1
  1
1.04in
  7
SLDTEXTSTYLE0
  0
MTEXT
  5
37D
330
36B
100
AcDbEntity
  8
0
  6
CONTINUOUS
 62
     7
100
AcDbMText
 10
118.8344924212
 20
186.2587541306
 30
0.0
 40
2.1166666667
 41
0.0
 71
     1
 72
     1
  1

  7
SLDTEXTSTYLE0
  0
ENDBLK
  5
36D
330
36B
100
AcDbEntity
  8
0
100
AcDbBlockEnd
  0
BLOCK
  5
37F
330
37E
100
AcDbEntity
  8
0
100
AcDbBlockBegin
  2
SW_NOTE_4
 70
     0
 10
0.0
 20
0.0
 30
0.0
  3
SW_NOTE_4
  1
SW_NOTE_4
  0
MTEXT
  5
381
330
37E
100
AcDbEntity
  8
0
  6
CONTINUOUS
 62
     0
100
AcDbMText
 10
-1.1304629547
 20
3.8569481435
 30
0.0
 40
2.1166666667
 41
0.0
 71
     3
 72
     1
  1
SM1T1 THREADED COUPLER
  7
SLDTEXTSTYLE0
  0
MTEXT
  5
382
330
37E
100
AcDbEntity
  8
0
  6
CONTINUOUS
 62
     0
100
AcDbMText
 10
-0.9173254036
 20
1.0347259553
 30
0.0
 40
2.1166666667
 41
0.0
 71
     3
 72
     1
  1
AND INCLUDED RETAINING RING
  7
SLDTEXTSTYLE0
  0
ENDBLK
  5
380
330
37E
100
AcDbEntity
  8
0
100
AcDbBlockEnd
  0
ENDSEC
  0
SECTION
  2
ENTITIES
  0
LINE
  5
7D
330
1F
100
AcDbEntity
  8
0
  6
CONTINUOUS
 62
     7
100
AcDbLine
 10
1.5793501011
 20
214.6453799966
 30
0.0
 11
277.9892068491
 21
214.6453799966
 31
0.0
  0
LINE
  5
7E
330
1F
100
AcDbEntity
  8
0
  6
CONTINUOUS
 62
     7
100
AcDbLine
 10
1.5793501011
 20
214.6453799966
 30
0.0
 11
1.5793501011
 21
0.9031642596
 31
0.0
  0
LINE
  5
7F
330
1F
100
AcDbEntity
  8
0
  6
CONTINUOUS
 62
     7
100
AcDbLine
 10
277.9892068491
 20
0.9031642596
 30
0.0
 11
1.5793501011
 21
0.9031642596
 31
0.0
  0
LINE
  5
80
330
1F
100
AcDbEntity
  8
0
  6
CONTINUOUS
 62
     7
100
AcDbLine
 10
277.9892068491
 20
0.9031642596
 30
0.0
 11
277.9892068491
 21
214.6453799966
 31
0.0
  0
LINE
  5
81
330
1F
100
AcDbEntity
  8
0
  6
CONTINUOUS
 62
     7
100
AcDbLine
 10
215.7427640041
 20
12.2958890132
 30
0.0
 11
171.6327596684
 21
12.2958890132
 31
0.0
  0
LINE
  5
82
330
1F
100
AcDbEntity
  8
0
  6
CONTINUOUS
 62
     7
100
AcDbLine
 10
171.6327596684
 20
12.2958890132
 30
0.0
 11
171.6327596684
 21
26.1661402506
 31
0.0
  0
LINE
  5
83
330
1F
100
AcDbEntity
  8
0
  6
CONTINUOUS
 62
     7
100
AcDbLine
 10
171.6327596684
 20
0.9031642596
 30
0.0
 11
171.6327596684
 21
26.1661402506
 31
0.0
  0
LINE
  5
84
330
1F
100
AcDbEntity
  8
0
  6
CONTINUOUS
 62
     7
100
AcDbLine
 10
215.7427640041
 20
17.1604579552
 30
0.0
 11
277.9892068491
 21
17.1604579552
 31
0.0
  0
LINE
  5
85
330
1F
100
AcDbEntity
  8
0
  6
CONTINUOUS
 62
     7
100
AcDbLine
 10
215.7427640041
 20
35.2394508358
 30
0.0
 11
215.7427640041
 21
0.9031642596
 31
0.0
  0
LINE
  5
86
330
1F
100
AcDbEntity
  8
0
  6
CONTINUOUS
 62
     7
100
AcDbLine
 10
215.7427640041
 20
26.1661402506
 30
0.0
 11
171.6327596684
 21
26.1661402506
 31
0.0
  0
LINE
  5
87
330
1F
100
AcDbEntity
  8
0
  6
CONTINUOUS
 62
     7
100
AcDbLine
 10
215.7427640041
 20
9.1409200612
 30
0.0
 11
277.9892068491
 21
9.1409200612
 31
0.0
  0
LINE
  5
88
330
1F
100
AcDbEntity
  8
0
  6
CONTINUOUS
 62
     7
100
AcDbLine
 10
215.7427640041
 20
16.9216824031
 30
0.0
 11
171.6327596684
 21
16.9216824031
 31
0.0
  0
LINE
  5
89
330
1F
100
AcDbEntity
  8
0
  6
CONTINUOUS
 62
     7
100
AcDbLine
 10
215.7427640041
 20
21.4874005542
 30
0.0
 11
171.6327596684
 21
21.4874005542
 31
0.0
  0
LINE
  5
8A
330
1F
100
AcDbEntity
  8
0
  6
CONTINUOUS
 62
     7
100
AcDbLine
 10
186.1338100705
 20
26.1661402506
 30
0.0
 11
186.1338100705
 21
12.2958890132
 31
0.0
  0
LINE
  5
8B
330
1F
100
AcDbEntity
  8
0
  6
CONTINUOUS
 62
     7
100
AcDbLine
 10
198.2145906188
 20
26.1661402506
 30
0.0
 11
198.2145906188
 21
12.2958890132
 31
0.0
  0
LINE
  5
8C
330
1F
100
AcDbEntity
  8
0
  6
CONTINUOUS
 62
     7
100
AcDbLine
 10
253.7490408369
 20
9.1409200612
 30
0.0
 11
253.7490408369
 21
0.9031642596
 31
0.0
  0
LINE
  5
8D
330
1F
100
AcDbEntity
  8
0
  6
CONTINUOUS
 62
     7
100
AcDbLine
 10
171.6327596684
 20
12.2958890132
 30
0.0
 11
171.6327596684
 21
7.5627342528
 31
0.0
  0
LINE
  5
8E
330
1F
100
AcDbEntity
  8
0
  6
CONTINUOUS
 62
     7
100
AcDbLine
 10
171.6327596684
 20
7.5627342528
 30
0.0
 11
215.7427640041
 21
7.5627342528
 31
0.0
  0
LINE
  5
8F
330
1F
100
AcDbEntity
  8
0
  6
CONTINUOUS
 62
     7
100
AcDbLine
 10
171.6327596684
 20
7.5627342528
 30
0.0
 11
171.6327596684
 21
35.2394508358
 31
0.0
  0
LINE
  5
90
330
1F
100
AcDbEntity
  8
0
  6
CONTINUOUS
 62
     7
100
AcDbLine
 10
171.6327596684
 20
35.2394508358
 30
0.0
 11
215.7427640041
 21
35.2394508358
 31
0.0
  0
LINE
  5
91
330
1F
100
AcDbEntity
  8
0
  6
CONTINUOUS
 62
     7
100
AcDbLine
 10
270.1683598194
 20
17.1604579552
 30
0.0
 11
270.1683598194
 21
9.1409200612
 31
0.0
  0
LINE
  5
92
330
1F
100
AcDbEntity
  8
0
  6
CONTINUOUS
 62
     7
100
AcDbLine
 10
215.7427640041
 20
35.2394508358
 30
0.0
 11
277.9892068491
 21
35.2394508358
 31
0.0
  0
LINE
  5
93
330
1F
100
AcDbEntity
  8
0
  6
CONTINUOUS
 62
     7
100
AcDbLine
 10
277.9892068491
 20
35.2394508358
 30
0.0
 11
277.9892068491
 21
50.0331356147
 31
0.0
  0
LINE
  5
94
330
1F
100
AcDbEntity
  8
0
  6
CONTINUOUS
 62
     7
100
AcDbLine
 10
215.7427640041
 20
24.8927335446
 30
0.0
 11
277.9892068491
 21
24.8927335446
 31
0.0
  0
INSERT
  5
95
330
1F
100
AcDbEntity
  8
0
  6
CONTINUOUS
 62
     7
100
AcDbBlockReference
  2
THIRD_ANGLE_PROJECTION_BLO
 10
117.7262204235
 20
15.5162339489
 30
0.0
 41
0.8
 42
0.8
 43
0.8
  0
MTEXT
  5
97
330
1F
100
AcDbEntity
  8
0
  6
CONTINUOUS
 62
     7
100
AcDbMText
 10
274.1458225539
 20
13.2559386876
 30
0.0
 40
3.175
 41
0.0
 71
     2
 72
     1
  1
A
  7
SLDTEXTSTYLE0
  0
MTEXT
  5
98
330
1F
100
AcDbEntity
  8
0
  6
CONTINUOUS
 62
     7
100
AcDbMText
 10
234.5039623818
 20
5.1306563898
 30
0.0
 40
3.175
 41
0.0
 71
     2
 72
     1
  1
PDA015C/M
  7
SLDTEXTSTYLE0
  0
MTEXT
  5
99
330
1F
100
AcDbEntity
  8
0
  6
CONTINUOUS
 62
     7
100
AcDbMText
 10
216.4199766059
 20
16.8243178599
 30
0.0
 40
2.1166666667
 41
0.0
 71
     1
 72
     1
  1
MATERIAL
  7
SLDTEXTSTYLE0
  0
MTEXT
  5
9A
330
1F
100
AcDbEntity
  8
0
  6
CONTINUOUS
 62
     7
100
AcDbMText
 10
174.230946566
 20
20.054553926
 30
0.0
 40
1.8520833333
 41
0.0
 71
     1
 72
     1
  1
DRAWN
  7
SLDTEXTSTYLE0
  0
MTEXT
  5
9B
330
1F
100
AcDbEntity
  8
0
  6
CONTINUOUS
 62
     7
100
AcDbMText
 10
172.3960124543
 20
15.5787169747
 30
0.0
 40
1.8520833333
 41
0.0
 71
     1
 72
     1
  1
APPROVAL
  7
SLDTEXTSTYLE0
  0
MTEXT
  5
9C
330
1F
100
AcDbEntity
  8
0
  6
CONTINUOUS
 62
     7
100
AcDbMText
 10
271.7160653675
 20
16.1671746307
 30
0.0
 40
2.1166666667
 41
0.0
 71
     1
 72
     1
  1
REV
  7
SLDTEXTSTYLE0
  0
MTEXT
  5
9D
330
1F
100
AcDbEntity
  8
0
  6
CONTINUOUS
 62
     7
100
AcDbMText
 10
190.2958696448
 20
15.8418778554
 30
0.0
 40
2.1166666667
 41
0.0
 71
     1
 72
     1
  1
JV
  7
SLDTEXTSTYLE0
  0
MTEXT
  5
9E
330
1F
100
AcDbEntity
  8
0
  6
CONTINUOUS
 62
     7
100
AcDbMText
 10
199.8662436873
 20
20.3177148067
 30
0.0
 40
2.1166666667
 41
0.0
 71
     1
 72
     1
  1
01/03/17
  7
SLDTEXTSTYLE0
  0
MTEXT
  5
9F
330
1F
100
AcDbEntity
  8
0
  6
CONTINUOUS
 62
     7
100
AcDbMText
 10
203.6145073853
 20
24.8221395769
 30
0.0
 40
2.1166666667
 41
0.0
 71
     1
 72
     1
  1
DATE
  7
SLDTEXTSTYLE0
  0
MTEXT
  5
A0
330
1F
100
AcDbEntity
  8
0
  6
CONTINUOUS
 62
     7
100
AcDbMText
 10
199.8662436873
 20
15.8418778554
 30
0.0
 40
2.1166666667
 41
0.0
 71
     1
 72
     1
  1
01/03/17
  7
SLDTEXTSTYLE0
  0
MTEXT
  5
A2
330
1F
100
AcDbEntity
  8
0
  6
CONTINUOUS
 62
     7
100
AcDbMText
 10
229.402906477
 20
27.7957480569
 30
0.0
 40
2.1166666667
 41
0.0
 71
     1
 72
     1
  1
w w w . t h o r  l a b s . c o m
  7
SLDTEXTSTYLE1
  0
MTEXT
  5
A3
330
1F
100
AcDbEntity
  8
0
  6
CONTINUOUS
 62
     7
100
AcDbMText
 10
216.7004035316
 20
8.3494791871
 30
0.0
 40
2.1166666667
 41
0.0
 71
     1
 72
     1
  1
ITEM #
  7
SLDTEXTSTYLE0
  0
MTEXT
  5
A4
330
1F
100
AcDbEntity
  8
0
  6
CONTINUOUS
 62
     7
100
AcDbMText
 10
254.5318000914
 20
8.3494791871
 30
0.0
 40
2.1166666667
 41
0.0
 71
     1
 72
     1
  1
APPROX WEIGHT
  7
SLDTEXTSTYLE0
  0
MTEXT
  5
A5
330
1F
100
AcDbEntity
  8
0
  6
CONTINUOUS
 62
     7
100
AcDbMText
 10
243.4273448343
 20
13.8247651814
 30
0.0
 40
3.175
 41
0.0
 71
     2
 72
     1
  1
N/A
  7
SLDTEXTSTYLE0
  0
INSERT
  5
AB
330
1F
100
AcDbEntity
  8
0
  6
CONTINUOUS
 62
     7
100
AcDbBlockReference
  2
SW_NOTE_0
 10
174.8430140051
 20
4.4558554801
 30
0.0
  0
INSERT
  5
B1
330
1F
100
AcDbEntity
  8
0
  6
CONTINUOUS
 62
     7
100
AcDbBlockReference
  2
SW_NOTE_1
 10
174.5483650337
 20
30.4835322715
 30
0.0
  0
MTEXT
  5
B2
330
1F
100
AcDbEntity
  8
0
  6
CONTINUOUS
 62
     7
100
AcDbMText
 10
187.9273588276
 20
24.8221395769
 30
0.0
 40
2.1166666667
 41
0.0
 71
     1
 72
     1
  1
NAME
  7
SLDTEXTSTYLE0
  0
INSERT
  5
B8
330
1F
100
AcDbEntity
  8
0
  6
CONTINUOUS
 62
     7
100
AcDbBlockReference
  2
SW_NOTE_2
 10
58.6204667508
 20
8.1776609732
 30
0.0
  0
MTEXT
  5
B9
330
1F
100
AcDbEntity
  8
0
  6
CONTINUOUS
 62
     7
100
AcDbMText
 10
246.7653324093
 20
22.7968299375
 30
0.0
 40
3.175
 41
0.0
 71
     2
 72
     1
  1
InGaAs AMPLIFIED DETECTOR
  7
SLDTEXTSTYLE0
  0
MTEXT
  5
BA
330
1F
100
AcDbEntity
  8
0
  6
CONTINUOUS
 62
     7
100
AcDbMText
 10
177.6925831922
 20
10.7142101515
 30
0.0
 40
1.5875
 41
0.0
 71
     1
 72
     1
  1
COPYRIGHT © 2017 BY THORLABS
  7
SLDTEXTSTYLE0
  0
MTEXT
  5
BB
330
1F
100
AcDbEntity
  8
0
  6
CONTINUOUS
 62
     7
100
AcDbMText
 10
190.2958696448
 20
20.3177148067
 30
0.0
 40
2.1166666667
 41
0.0
 71
     1
 72
     1
  1
AS
  7
SLDTEXTSTYLE0
  0
MTEXT
  5
BC
330
1F
100
AcDbEntity
  8
0
  6
CONTINUOUS
 62
     7
100
AcDbMText
 10
263.7508728422
 20
5.1306563898
 30
0.0
 40
3.175
 41
0.0
 71
     2
 72
     1
  1
70
  7
SLDTEXTSTYLE0
  0
MTEXT
  5
BD
330
1F
100
AcDbEntity
  8
0
  6
CONTINUOUS
 62
     7
100
AcDbMText
 10
275.6133051828
 20
5.1306563898
 30
0.0
 40
3.175
 41
0.0
 71
     2
 72
     1
  1
g
  7
SLDTEXTSTYLE0
  0
LINE
  5
BE
330
1F
100
AcDbEntity
  8
0
  6
CONTINUOUS
 62
     7
100
AcDbLine
 10
55.9034896803
 20
64.1978723061
 30
0.0
 11
55.9034896803
 21
61.8778723061
 31
0.0
  0
LINE
  5
BF
330
1F
100
AcDbEntity
  8
0
  6
CONTINUOUS
 62
     7
100
AcDbLine
 10
66.5634896803
 20
61.8778723061
 30
0.0
 11
66.5634896803
 21
64.1978723061
 31
0.0
  0
LINE
  5
C0
330
1F
100
AcDbEntity
  8
0
  6
CONTINUOUS
 62
     7
100
AcDbLine
 10
66.5634896803
 20
61.3778723061
 30
0.0
 11
66.3134896803
 21
61.6278723061
 31
0.0
  0
LINE
  5
C1
330
1F
100
AcDbEntity
  8
0
  6
CONTINUOUS
 62
     7
100
AcDbLine
 10
56.1534896803
 20
61.6278723061
 30
0.0
 11
55.9034896803
 21
61.3778723061
 31
0.0
  0
LINE
  5
C2
330
1F
100
AcDbEntity
  8
0
  6
CONTINUOUS
 62
     7
100
AcDbLine
 10
55.9034896803
 20
61.3778723061
 30
0.0
 11
55.9034896803
 21
59.6278723061
 31
0.0
  0
LINE
  5
C3
330
1F
100
AcDbEntity
  8
0
  6
CONTINUOUS
 62
     7
100
AcDbLine
 10
66.5634896803
 20
59.6278723061
 30
0.0
 11
66.5634896803
 21
61.3778723061
 31
0.0
  0
LINE
  5
C4
330
1F
100
AcDbEntity
  8
0
  6
CONTINUOUS
 62
     7
100
AcDbLine
 10
55.9034896803
 20
61.8778723061
 30
0.0
 11
56.1534896803
 21
61.6278723061
 31
0.0
  0
LINE
  5
C5
330
1F
100
AcDbEntity
  8
0
  6
CONTINUOUS
 62
     7
100
AcDbLine
 10
66.3134896803
 20
61.6278723061
 30
0.0
 11
66.5634896803
 21
61.8778723061
 31
0.0
  0
LINE
  5
C6
330
1F
100
AcDbEntity
  8
0
  6
CONTINUOUS
 62
     7
100
AcDbLine
 10
55.9034896803
 20
59.6278723061
 30
0.0
 11
56.1534896803
 21
59.3778723061
 31
0.0
  0
LINE
  5
C7
330
1F
100
AcDbEntity
  8
0
  6
CONTINUOUS
 62
     7
100
AcDbLine
 10
66.3134896803
 20
59.3778723061
 30
0.0
 11
66.5634896803
 21
59.6278723061
 31
0.0
  0
LINE
  5
C8
330
1F
100
AcDbEntity
  8
0
  6
CONTINUOUS
 62
     7
100
AcDbLine
 10
52.8360287432
 20
101.1929723061
 30
0.0
 11
52.8360287432
 21
101.1929723061
 31
0.0
  0
LINE
  5
C9
330
1F
100
AcDbEntity
  8
0
  6
CONTINUOUS
 62
     7
100
AcDbLine
 10
52.8360287432
 20
105.3077723061
 30
0.0
 11
52.8360287432
 21
105.3077723061
 31
0.0
  0
LINE
  5
CA
330
1F
100
AcDbEntity
  8
0
  6
CONTINUOUS
 62
     7
100
AcDbLine
 10
52.8360287432
 20
66.2679723061
 30
0.0
 11
52.8360287432
 21
66.2679723061
 31
0.0
  0
LINE
  5
CB
330
1F
100
AcDbEntity
  8
0
  6
CONTINUOUS
 62
     7
100
AcDbLine
 10
52.8360287432
 20
70.3827723061
 30
0.0
 11
52.8360287432
 21
70.3827723061
 31
0.0
  0
LINE
  5
CC
330
1F
100
AcDbEntity
  8
0
  6
CONTINUOUS
 62
     7
100
AcDbLine
 10
58.2402543195
 20
81.7313906289
 30
0.0
 11
57.5549321572
 21
81.7313906289
 31
0.0
  0
LINE
  5
CD
330
1F
100
AcDbEntity
  8
0
  6
CONTINUOUS
 62
     7
100
AcDbLine
 10
57.5549321572
 20
79.7313906289
 30
0.0
 11
58.2402543195
 21
79.7313906289
 31
0.0
  0
LINE
  5
CE
330
1F
100
AcDbEntity
  8
0
  6
CONTINUOUS
 62
     7
100
AcDbLine
 10
67.6296099949
 20
79.7313906289
 30
0.0
 11
68.3149321572
 21
79.7313906289
 31
0.0
  0
LINE
  5
CF
330
1F
100
AcDbEntity
  8
0
  6
CONTINUOUS
 62
     7
100
AcDbLine
 10
68.3149321572
 20
81.7313906289
 30
0.0
 11
67.6296099949
 21
81.7313906289
 31
0.0
  0
LINE
  5
D0
330
1F
100
AcDbEntity
  8
0
  6
CONTINUOUS
 62
     7
100
AcDbLine
 10
71.9014896803
 20
72.6433723061
 30
0.0
 11
73.9334896803
 21
72.6433723061
 31
0.0
  0
LINE
  5
D1
330
1F
100
AcDbEntity
  8
0
  6
CONTINUOUS
 62
     7
100
AcDbLine
 10
73.9334896803
 20
98.9323723061
 30
0.0
 11
71.9014896803
 21
98.9323723061
 31
0.0
  0
LINE
  5
D2
330
1F
100
AcDbEntity
  8
0
  6
CONTINUOUS
 62
     7
100
AcDbLine
 10
59.1982328117
 20
61.8778723061
 30
0.0
 11
55.9034896803
 21
61.8778723061
 31
0.0
  0
LINE
  5
D3
330
1F
100
AcDbEntity
  8
0
  6
CONTINUOUS
 62
     7
100
AcDbLine
 10
66.5634896803
 20
61.8778723061
 30
0.0
 11
59.1982328117
 21
61.8778723061
 31
0.0
  0
LINE
  5
D4
330
1F
100
AcDbEntity
  8
0
  6
CONTINUOUS
 62
     7
100
AcDbLine
 10
59.1982328117
 20
61.3778723061
 30
0.0
 11
55.9034896803
 21
61.3778723061
 31
0.0
  0
LINE
  5
D5
330
1F
100
AcDbEntity
  8
0
  6
CONTINUOUS
 62
     7
100
AcDbLine
 10
66.5634896803
 20
61.3778723061
 30
0.0
 11
59.1982328117
 21
61.3778723061
 31
0.0
  0
LINE
  5
D6
330
1F
100
AcDbEntity
  8
0
  6
CONTINUOUS
 62
     7
100
AcDbLine
 10
59.2936951414
 20
61.6278723061
 30
0.0
 11
56.1534896803
 21
61.6278723061
 31
0.0
  0
LINE
  5
D7
330
1F
100
AcDbEntity
  8
0
  6
CONTINUOUS
 62
     7
100
AcDbLine
 10
66.3134896803
 20
61.6278723061
 30
0.0
 11
59.2936951414
 21
61.6278723061
 31
0.0
  0
LINE
  5
D8
330
1F
100
AcDbEntity
  8
0
  6
CONTINUOUS
 62
     7
100
AcDbLine
 10
55.9034896803
 20
59.6278723061
 30
0.0
 11
66.5634896803
 21
59.6278723061
 31
0.0
  0
LINE
  5
D9
330
1F
100
AcDbEntity
  8
0
  6
CONTINUOUS
 62
     7
100
AcDbLine
 10
66.3134896803
 20
59.3778723061
 30
0.0
 11
56.1534896803
 21
59.3778723061
 31
0.0
  0
CIRCLE
  5
DA
330
1F
100
AcDbEntity
  8
0
  6
CONTINUOUS
 62
     7
100
AcDbCircle
 10
57.2964896803
 20
89.0898723061
 30
0.0
 40
1.650000000000012
  0
LINE
  5
DB
330
1F
100
AcDbEntity
  8
0
  6
CONTINUOUS
 62
     7
100
AcDbLine
 10
57.3793298464
 20
87.4409518996
 30
0.0
 11
57.4365767298
 21
87.4458298436
 31
0.0
  0
LINE
  5
DC
330
1F
100
AcDbEntity
  8
0
  6
CONTINUOUS
 62
     7
100
AcDbLine
 10
57.4365767298
 20
87.4458298436
 30
0.0
 11
57.4938236132
 21
87.4507077875
 31
0.0
  0
LINE
  5
DD
330
1F
100
AcDbEntity
  8
0
  6
CONTINUOUS
 62
     7
100
AcDbLine
 10
52.8360287432
 20
105.1508503372
 30
0.0
 11
52.8360287432
 21
101.1929723061
 31
0.0
  0
LINE
  5
DE
330
1F
100
AcDbEntity
  8
0
  6
CONTINUOUS
 62
     7
100
AcDbLine
 10
52.8360287432
 20
105.3077723061
 30
0.0
 11
52.8360287432
 21
105.1508503372
 31
0.0
  0
LINE
  5
DF
330
1F
100
AcDbEntity
  8
0
  6
CONTINUOUS
 62
     7
100
AcDbLine
 10
52.8360287432
 20
70.2258503372
 30
0.0
 11
52.8360287432
 21
66.2679723061
 31
0.0
  0
LINE
  5
E0
330
1F
100
AcDbEntity
  8
0
  6
CONTINUOUS
 62
     7
100
AcDbLine
 10
52.8360287432
 20
70.3827723061
 30
0.0
 11
52.8360287432
 21
70.2258503372
 31
0.0
  0
LINE
  5
E1
330
1F
100
AcDbEntity
  8
0
  6
CONTINUOUS
 62
     7
100
AcDbLine
 10
52.8387896803
 20
67.6903723061
 30
0.0
 11
52.8387896803
 21
103.8853723061
 31
0.0
  0
LINE
  5
E2
330
1F
100
AcDbEntity
  8
0
  6
CONTINUOUS
 62
     7
100
AcDbLine
 10
52.8387896803
 20
65.1503723061
 30
0.0
 11
52.8387896803
 21
65.1503723061
 31
0.0
  0
LINE
  5
E3
330
1F
100
AcDbEntity
  8
0
  6
CONTINUOUS
 62
     7
100
AcDbLine
 10
52.8387896803
 20
65.1503723061
 30
0.0
 11
52.8387896803
 21
67.6903723061
 31
0.0
  0
LINE
  5
E4
330
1F
100
AcDbEntity
  8
0
  6
CONTINUOUS
 62
     7
100
AcDbLine
 10
52.8387896803
 20
106.4253723061
 30
0.0
 11
52.8387896803
 21
106.4253723061
 31
0.0
  0
LINE
  5
E5
330
1F
100
AcDbEntity
  8
0
  6
CONTINUOUS
 62
     7
100
AcDbLine
 10
52.8387896803
 20
103.8853723061
 30
0.0
 11
52.8387896803
 21
106.4253723061
 31
0.0
  0
CIRCLE
  5
E6
330
1F
100
AcDbEntity
  8
0
  6
CONTINUOUS
 62
     7
100
AcDbCircle
 10
63.0114896803
 20
95.9478723061
 30
0.0
 40
2.794000000000004
  0
CIRCLE
  5
E7
330
1F
100
AcDbEntity
  8
0
  6
CONTINUOUS
 62
     7
100
AcDbCircle
 10
64.7614896803
 20
95.9478723061
 30
0.0
 40
0.5
  0
CIRCLE
  5
E8
330
1F
100
AcDbEntity
  8
0
  6
CONTINUOUS
 62
     7
100
AcDbCircle
 10
63.0114896803
 20
97.6978723061
 30
0.0
 40
0.5
  0
CIRCLE
  5
E9
330
1F
100
AcDbEntity
  8
0
  6
CONTINUOUS
 62
     7
100
AcDbCircle
 10
63.0114896803
 20
94.1978723061
 30
0.0
 40
0.5
  0
SPLINE
  5
EA
330
1F
100
AcDbEntity
  8
0
  6
CONTINUOUS
 62
     7
100
AcDbSpline
210
0.0
220
0.0
230
1.0
 70
    24
 71
     3
 72
    32
 73
    28
 74
     0
 42
0.000000001
 43
0.00000001
 40
0.0
 40
0.0
 40
0.0
 40
0.0
 40
0.0894475094844955
 40
0.179010652145896
 40
0.2241784790755972
 40
0.2694043052382077
 40
0.3149378703315085
 40
0.36068871717527
 40
0.3939306430356188
 40
0.427616002300955
 40
0.4457566345655173
 40
0.4642073776908936
 40
0.4788916386220735
 40
0.4939669358001315
 40
0.5086711155898247
 40
0.5238671002972065
 40
0.5418191979990021
 40
0.5602766177462727
 40
0.5761692444806299
 40
0.5921895092040393
 40
0.624824605781813
 40
0.6787604734899325
 40
0.7332542510362409
 40
0.788605166902204
 40
0.8440693177402017
 40
0.9219913566778738
 40
0.9999999999999999
 40
0.9999999999999999
 40
0.9999999999999999
 40
0.9999999999999999
 10
65.89824102622883
 20
100.9478723060989
 30
0.0
 10
65.78741209578625
 20
100.9478723060989
 30
0.0
 10
65.56561096091397
 20
100.9478723060988
 30
0.0
 10
65.25443383310919
 20
100.9478723060988
 30
0.0
 10
64.98064226794213
 20
100.9478723060988
 30
0.0
 10
64.75729134577858
 20
100.9478723060988
 30
0.0
 10
64.51138931861574
 20
100.9478723060988
 30
0.0
 10
64.25973789655772
 20
100.9478723060989
 30
0.0
 10
64.00097903170602
 20
100.9478723060988
 30
0.0
 10
63.77809286781127
 20
100.9478723060989
 30
0.0
 10
63.57063391385277
 20
100.9478723060988
 30
0.0
 10
63.40558504696356
 20
100.9478723060989
 30
0.0
 10
63.2393668847603
 20
100.9478723060988
 30
0.0
 10
63.07906571742984
 20
100.9478723060989
 30
0.0
 10
62.91462359364036
 20
100.9478723060988
 30
0.0
 10
62.74316215590894
 20
100.9478723060989
 30
0.0
 10
62.56799440745014
 20
100.9478723060988
 30
0.0
 10
62.40436743311921
 20
100.9478723060989
 30
0.0
 10
62.25898063542632
 20
100.9478723060988
 30
0.0
 10
62.08562632255439
 20
100.9478723060989
 30
0.0
 10
61.83720888520038
 20
100.9478723060988
 30
0.0
 10
61.54417697562657
 20
100.9478723060989
 30
0.0
 10
61.24842631298334
 20
100.9478723060988
 30
0.0
 10
60.98092006827061
 20
100.9478723060988
 30
0.0
 10
60.70159969762727
 20
100.9478723060989
 30
0.0
 10
60.41383854815447
 20
100.9478723060988
 30
0.0
 10
60.22114074725858
 20
100.9478723060988
 30
0.0
 10
60.12473833433256
 20
100.9478723060989
 30
0.0
  0
SPLINE
  5
EB
330
1F
100
AcDbEntity
  8
0
  6
CONTINUOUS
 62
     7
100
AcDbSpline
210
0.0
220
0.0
230
1.0
 70
    24
 71
     3
 72
    28
 73
    24
 74
     0
 42
0.000000001
 43
0.00000001
 40
0.0
 40
0.0
 40
0.0
 40
0.0
 40
0.0972255113431566
 40
0.1946090893191805
 40
0.2432285039851776
 40
0.2919391723643762
 40
0.341192608312918
 40
0.3908904120334235
 40
0.4337685099882881
 40
0.4551788160454088
 40
0.477262543551398
 40
0.5053813864235488
 40
0.5334936149755956
 40
0.5541615852685428
 40
0.5753873246440488
 40
0.6002304370079949
 40
0.6253393947562296
 40
0.6766345550155395
 40
0.7299024203613875
 40
0.7833926898685578
 40
0.8371588471283049
 40
0.8899244298408799
 40
1.0
 40
1.0
 40
1.0
 40
1.0
 10
68.78499237217697
 20
95.94787230609884
 30
0.0
 10
68.72466775576802
 20
96.05235760666625
 30
0.0
 10
68.60392044880412
 20
96.26149807720483
 30
0.0
 10
68.43287186676628
 20
96.55776291185704
 30
0.0
 10
68.28072802048204
 20
96.82128378368024
 30
0.0
 10
68.1555053613551
 20
97.03817579154703
 30
0.0
 10
68.01469978078345
 20
97.28205821108631
 30
0.0
 10
67.85889107511606
 20
97.55192680556382
 30
0.0
 10
67.70904360073284
 20
97.81147024458146
 30
0.0
 10
67.5768496505568
 20
98.04043688273953
 30
0.0
 10
67.45579216434652
 20
98.25011459949235
 30
0.0
 10
67.31133997834966
 20
98.50031312490331
 30
0.0
 10
67.17321799348002
 20
98.73954742033978
 30
0.0
 10
67.06017461571973
 20
98.93534429407974
 30
0.0
 10
66.96239207753464
 20
99.10470861830947
 30
0.0
 10
66.86850727591799
 20
99.26732186476795
 30
0.0
 10
66.74780293720097
 20
99.47638791211983
 30
0.0
 10
66.61273282176353
 20
99.71033621464171
 30
0.0
 10
66.46917662631924
 20
99.95898283889245
 30
0.0
 10
66.33831023064913
 20
100.1856500851966
 30
0.0
 10
66.2188647422613
 20
100.3925357398191
 30
0.0
 10
66.06782396485755
 20
100.6541460402971
 30
0.0
 10
65.96663895528027
 20
100.8294036178493
 30
0.0
 10
65.89824102622883
 20
100.9478723060989
 30
0.0
  0
SPLINE
  5
EC
330
1F
100
AcDbEntity
  8
0
  6
CONTINUOUS
 62
     7
100
AcDbSpline
210
0.0
220
0.0
230
1.0
 70
    24
 71
     3
 72
    28
 73
    24
 74
     0
 42
0.000000001
 43
0.00000001
 40
0.0
 40
0.0
 40
0.0
 40
0.0
 40
0.097225511343157
 40
0.1946090893191818
 40
0.2432285039851792
 40
0.2919391723643782
 40
0.3411926083129204
 40
0.3908904120334264
 40
0.4337685099882904
 40
0.4551788160454106
 40
0.4772625435513992
 40
0.5053813864235506
 40
0.5334936149755971
 40
0.5541615852685448
 40
0.5753873246440504
 40
0.6002304370079972
 40
0.6253393947562322
 40
0.6766345550155433
 40
0.7299024203613909
 40
0.7833926898685607
 40
0.8371588471283071
 40
0.8899244298408815
 40
1.0
 40
1.0
 40
1.0
 40
1.0
 10
65.89824102622885
 20
90.94787230609883
 30
0.0
 10
65.9585656426378
 20
91.05235760666625
 30
0.0
 10
66.07931294960167
 20
91.26149807720485
 30
0.0
 10
66.25036153163958
 20
91.55776291185701
 30
0.0
 10
66.40250537792377
 20
91.82128378368024
 30
0.0
 10
66.52772803705076
 20
92.038175791547
 30
0.0
 10
66.66853361762237
 20
92.28205821108631
 30
0.0
 10
66.82434232328981
 20
92.55192680556382
 30
0.0
 10
66.97418979767305
 20
92.81147024458144
 30
0.0
 10
67.10638374784902
 20
93.04043688273956
 30
0.0
 10
67.22744123405934
 20
93.2501145994923
 30
0.0
 10
67.3718934200562
 20
93.5003131249033
 30
0.0
 10
67.51001540492585
 20
93.73954742033978
 30
0.0
 10
67.62305878268607
 20
93.93534429407974
 30
0.0
 10
67.72084132087126
 20
94.10470861830947
 30
0.0
 10
67.81472612248781
 20
94.26732186476792
 30
0.0
 10
67.9354304612049
 20
94.47638791211983
 30
0.0
 10
68.07050057664232
 20
94.71033621464173
 30
0.0
 10
68.21405677208656
 20
94.95898283889244
 30
0.0
 10
68.34492316775675
 20
95.18565008519656
 30
0.0
 10
68.46436865614454
 20
95.39253573981912
 30
0.0
 10
68.61540943354828
 20
95.6541460402971
 30
0.0
 10
68.71659444312554
 20
95.82940361784927
 30
0.0
 10
68.78499237217697
 20
95.94787230609884
 30
0.0
  0
SPLINE
  5
ED
330
1F
100
AcDbEntity
  8
0
  6
CONTINUOUS
 62
     7
100
AcDbSpline
210
0.0
220
0.0
230
1.0
 70
    24
 71
     3
 72
    32
 73
    28
 74
     0
 42
0.000000001
 43
0.00000001
 40
0.0
 40
0.0
 40
0.0
 40
0.0
 40
0.0779303701096578
 40
0.155930656131857
 40
0.2103192990786679
 40
0.264793426378895
 40
0.3197753671445199
 40
0.3751737672813035
 40
0.4071526769362559
 40
0.4233798564072253
 40
0.4397223629148225
 40
0.4577127304745752
 40
0.4761313959273433
 40
0.4908453305415678
 40
0.5060314014516956
 40
0.5206978863482083
 40
0.535791195633484
 40
0.5539018550571567
 40
0.572382838478227
 40
0.6055511796793769
 40
0.6393106599775121
 40
0.6833817497232112
 40
0.7277153635220491
 40
0.7725015246783036
 40
0.8173584695189344
 40
0.9085984432051982
 40
0.9999999999999999
 40
0.9999999999999999
 40
0.9999999999999999
 40
0.9999999999999999
 10
60.12473833433257
 20
90.94787230609883
 30
0.0
 10
60.22104244127971
 20
90.94787230609883
 30
0.0
 10
60.41373705524509
 20
90.94787230609884
 30
0.0
 10
60.70002131524974
 20
90.94787230609883
 30
0.0
 10
60.97638454278859
 20
90.94787230609883
 30
0.0
 10
61.24084623288247
 20
90.94787230609883
 30
0.0
 10
61.53737267209578
 20
90.94787230609884
 30
0.0
 10
61.83231748181883
 20
90.94787230609883
 30
0.0
 10
62.08290329290607
 20
90.94787230609883
 30
0.0
 10
62.25583438511031
 20
90.94787230609883
 30
0.0
 10
62.40162012598766
 20
90.94787230609883
 30
0.0
 10
62.56644835078662
 20
90.94787230609884
 30
0.0
 10
62.73986736274924
 20
90.94787230609883
 30
0.0
 10
62.91282601491746
 20
90.94787230609883
 30
0.0
 10
63.0758428699851
 20
90.94787230609884
 30
0.0
 10
63.23788948281743
 20
90.94787230609884
 30
0.0
 10
63.40310380618516
 20
90.94787230609884
 30
0.0
 10
63.56957512018198
 20
90.94787230609884
 30
0.0
 10
63.77568197515199
 20
90.94787230609884
 30
0.0
 10
63.99972168310249
 20
90.94787230609884
 30
0.0
 10
64.25483757822903
 20
90.94787230609884
 30
0.0
 10
64.50240457466064
 20
90.94787230609883
 30
0.0
 10
64.74361541469712
 20
90.94787230609883
 30
0.0
 10
64.96504054794939
 20
90.94787230609884
 30
0.0
 10
65.24173402394698
 20
90.94787230609883
 30
0.0
 10
65.558540883967
 20
90.94787230609883
 30
0.0
 10
65.7849408800555
 20
90.94787230609884
 30
0.0
 10
65.89824102622885
 20
90.94787230609883
 30
0.0
  0
SPLINE
  5
EE
330
1F
100
AcDbEntity
  8
0
  6
CONTINUOUS
 62
     7
100
AcDbSpline
210
0.0
220
0.0
230
1.0
 70
    24
 71
     3
 72
    27
 73
    23
 74
     0
 42
0.000000001
 43
0.00000001
 40
0.0
 40
0.0
 40
0.0
 40
0.0
 40
0.0972260331854815
 40
0.1946101338522277
 40
0.2432811991477338
 40
0.291941376075132
 40
0.3414646690785926
 40
0.3909003253595013
 40
0.4337786534556733
 40
0.4551890744291743
 40
0.4772729204660265
 40
0.5053919142615522
 40
0.5335042937014726
 40
0.5541723749264326
 40
0.5753982282276884
 40
0.6003619672224377
 40
0.625351608311177
 40
0.6766470438890263
 40
0.7568571646980446
 40
0.8371561732668502
 40
0.9185728544164635
 40
0.9999999999999999
 40
0.9999999999999999
 40
0.9999999999999999
 40
0.9999999999999999
 10
57.23798698838443
 20
95.94787230609884
 30
0.0
 10
57.29830249426662
 20
95.84340278542669
 30
0.0
 10
57.41903156536534
 20
95.63429390033309
 30
0.0
 10
57.59023038062887
 20
95.33776885410107
 30
0.0
 10
57.74214275389491
 20
95.07464890530592
 30
0.0
 10
57.86792420125197
 20
94.85678904783396
 30
0.0
 10
58.00801244699164
 20
94.61414908866963
 30
0.0
 10
58.16455436162369
 20
94.34301053901281
 30
0.0
 10
58.31392174235638
 20
94.0842986465903
 30
0.0
 10
58.4461324406428
 20
93.85530299985409
 30
0.0
 10
58.56718614624505
 20
93.6456318313065
 30
0.0
 10
58.71164009382557
 20
93.39543025474315
 30
0.0
 10
58.84975991585341
 20
93.15619970545855
 30
0.0
 10
58.96280850017192
 20
92.96039381369516
 30
0.0
 10
59.06074820458207
 20
92.79075726957849
 30
0.0
 10
59.15469264152609
 20
92.62804073170301
 30
0.0
 10
59.27527610493355
 20
92.41918404652868
 30
0.0
 10
59.43811808066032
 20
92.13713347096497
 30
0.0
 10
59.62469466032766
 20
91.81397335547877
 30
0.0
 10
59.80705911698628
 20
91.49810885105133
 30
0.0
 10
59.97394758781284
 20
91.20904954038224
 30
0.0
 10
60.07447259889515
 20
91.03493511375626
 30
0.0
 10
60.12473833433257
 20
90.94787230609883
 30
0.0
  0
SPLINE
  5
EF
330
1F
100
AcDbEntity
  8
0
  6
CONTINUOUS
 62
     7
100
AcDbSpline
210
0.0
220
0.0
230
1.0
 70
    24
 71
     3
 72
    27
 73
    23
 74
     0
 42
0.000000001
 43
0.00000001
 40
0.0
 40
0.0
 40
0.0
 40
0.0
 40
0.0972260331854825
 40
0.1946101338522301
 40
0.2432811991477367
 40
0.2919413760751358
 40
0.341464669078597
 40
0.3909003253595064
 40
0.4337786534556769
 40
0.4551890744291771
 40
0.4772729204660287
 40
0.5053919142615546
 40
0.5335042937014751
 40
0.5541723749264356
 40
0.575398228227692
 40
0.6003619672224432
 40
0.625351608311184
 40
0.6766470438890374
 40
0.7568571646980531
 40
0.837156173266856
 40
0.9185728544164662
 40
1.0
 40
1.0
 40
1.0
 40
1.0
 10
60.12473833433256
 20
100.9478723060989
 30
0.0
 10
60.06442282845038
 20
100.8434027854267
 30
0.0
 10
59.94369375735167
 20
100.6342939003331
 30
0.0
 10
59.77249494208814
 20
100.3377688541011
 30
0.0
 10
59.6205825688221
 20
100.0746489053059
 30
0.0
 10
59.49480112146503
 20
99.85678904783394
 30
0.0
 10
59.35471287572535
 20
99.61414908866963
 30
0.0
 10
59.1981709610933
 20
99.3430105390128
 30
0.0
 10
59.04880358036061
 20
99.0842986465903
 30
0.0
 10
58.9165928820742
 20
98.85530299985408
 30
0.0
 10
58.79553917647196
 20
98.6456318313065
 30
0.0
 10
58.65108522889143
 20
98.39543025474313
 30
0.0
 10
58.51296540686358
 20
98.15619970545853
 30
0.0
 10
58.39991682254508
 20
97.96039381369515
 30
0.0
 10
58.30197711813491
 20
97.79075726957848
 30
0.0
 10
58.20803268119089
 20
97.628040731703
 30
0.0
 10
58.08744921778344
 20
97.41918404652863
 30
0.0
 10
57.92460724205664
 20
97.13713347096495
 30
0.0
 10
57.73803066238934
 20
96.81397335547874
 30
0.0
 10
57.55566620573071
 20
96.49810885105131
 30
0.0
 10
57.38877773490416
 20
96.20904954038224
 30
0.0
 10
57.28825272382186
 20
96.03493511375628
 30
0.0
 10
57.23798698838443
 20
95.94787230609884
 30
0.0
  0
CIRCLE
  5
F0
330
1F
100
AcDbEntity
  8
0
  6
CONTINUOUS
 62
     7
100
AcDbCircle
 10
63.0114896803
 20
95.9478723061
 30
0.0
 40
4.650000000000006
  0
CIRCLE
  5
F1
330
1F
100
AcDbEntity
  8
0
  6
CONTINUOUS
 62
     7
100
AcDbCircle
 10
63.0114896803
 20
95.9478723061
 30
0.0
 40
3.937000000000005
  0
CIRCLE
  5
F2
330
1F
100
AcDbEntity
  8
0
  6
CONTINUOUS
 62
     7
100
AcDbCircle
 10
62.9349321572
 20
80.7313906289
 30
0.0
 40
4.800000000000004
  0
CIRCLE
  5
F3
330
1F
100
AcDbEntity
  8
0
  6
CONTINUOUS
 62
     7
100
AcDbCircle
 10
62.9349321572
 20
80.7313906289
 30
0.0
 40
4.110000000000021
  0
LINE
  5
F4
330
1F
100
AcDbEntity
  8
0
  6
CONTINUOUS
 62
     7
100
AcDbLine
 10
57.5549321572
 20
81.7313906289
 30
0.0
 11
57.5549321572
 21
79.7313906289
 31
0.0
  0
LINE
  5
F5
330
1F
100
AcDbEntity
  8
0
  6
CONTINUOUS
 62
     7
100
AcDbLine
 10
68.3149321572
 20
81.7313906289
 30
0.0
 11
68.3149321572
 21
79.7313906289
 31
0.0
  0
CIRCLE
  5
F6
330
1F
100
AcDbEntity
  8
0
  6
CONTINUOUS
 62
     7
100
AcDbCircle
 10
62.9349321572
 20
80.7313906289
 30
0.0
 40
6.250000000000014
  0
LINE
  5
F7
330
1F
100
AcDbEntity
  8
0
  6
CONTINUOUS
 62
     7
100
AcDbLine
 10
71.9014896803
 20
67.3728723061
 30
0.0
 11
71.9014896803
 21
65.5948723061
 31
0.0
  0
ARC
  5
F8
330
1F
100
AcDbEntity
  8
0
  6
CONTINUOUS
 62
     7
100
AcDbCircle
 10
70.5044896803
 20
65.5948723061
 30
0.0
 40
1.396999999999991
100
AcDbArc
 50
270.0
 51
0.0
  0
LINE
  5
F9
330
1F
100
AcDbEntity
  8
0
  6
CONTINUOUS
 62
     7
100
AcDbLine
 10
70.5044896803
 20
64.1978723061
 30
0.0
 11
70.5044896803
 21
67.3728723061
 31
0.0
  0
LINE
  5
FA
330
1F
100
AcDbEntity
  8
0
  6
CONTINUOUS
 62
     7
100
AcDbLine
 10
70.5044896803
 20
67.3728723061
 30
0.0
 11
71.9014896803
 21
67.3728723061
 31
0.0
  0
LINE
  5
FB
330
1F
100
AcDbEntity
  8
0
  6
CONTINUOUS
 62
     7
100
AcDbLine
 10
70.5044896803
 20
104.2028723061
 30
0.0
 11
70.5044896803
 21
107.3778723061
 31
0.0
  0
ARC
  5
FC
330
1F
100
AcDbEntity
  8
0
  6
CONTINUOUS
 62
     7
100
AcDbCircle
 10
70.5044896803
 20
105.9808723061
 30
0.0
 40
1.39700000000002
100
AcDbArc
 50
0.0
 51
90.0
  0
LINE
  5
FD
330
1F
100
AcDbEntity
  8
0
  6
CONTINUOUS
 62
     7
100
AcDbLine
 10
71.9014896803
 20
105.9808723061
 30
0.0
 11
71.9014896803
 21
104.2028723061
 31
0.0
  0
LINE
  5
FE
330
1F
100
AcDbEntity
  8
0
  6
CONTINUOUS
 62
     7
100
AcDbLine
 10
70.5044896803
 20
104.2028723061
 30
0.0
 11
71.9014896803
 21
104.2028723061
 31
0.0
  0
LINE
  5
FF
330
1F
100
AcDbEntity
  8
0
  6
CONTINUOUS
 62
     7
100
AcDbLine
 10
70.5044896803
 20
67.3728723061
 30
0.0
 11
70.5044896803
 21
104.2028723061
 31
0.0
  0
LINE
  5
100
330
1F
100
AcDbEntity
  8
0
  6
CONTINUOUS
 62
     7
100
AcDbLine
 10
71.9014896803
 20
104.2028723061
 30
0.0
 11
71.9014896803
 21
67.3728723061
 31
0.0
  0
LINE
  5
101
330
1F
100
AcDbEntity
  8
0
  6
CONTINUOUS
 62
     7
100
AcDbLine
 10
52.8514896803
 20
67.3728723061
 30
0.0
 11
70.5044896803
 21
67.3728723061
 31
0.0
  0
LINE
  5
102
330
1F
100
AcDbEntity
  8
0
  6
CONTINUOUS
 62
     7
100
AcDbLine
 10
70.5044896803
 20
64.1978723061
 30
0.0
 11
52.8514896803
 21
64.1978723061
 31
0.0
  0
LINE
  5
103
330
1F
100
AcDbEntity
  8
0
  6
CONTINUOUS
 62
     7
100
AcDbLine
 10
52.8514896803
 20
64.1978723061
 30
0.0
 11
52.8514896803
 21
67.3728723061
 31
0.0
  0
LINE
  5
104
330
1F
100
AcDbEntity
  8
0
  6
CONTINUOUS
 62
     7
100
AcDbLine
 10
70.5044896803
 20
104.2028723061
 30
0.0
 11
52.8514896803
 21
104.2028723061
 31
0.0
  0
CIRCLE
  5
105
330
1F
100
AcDbEntity
  8
0
  6
CONTINUOUS
 62
     7
100
AcDbCircle
 10
57.2964896803
 20
89.0898723061
 30
0.0
 40
1.651000000000003
  0
LINE
  5
106
330
1F
100
AcDbEntity
  8
0
  6
CONTINUOUS
 62
     7
100
AcDbLine
 10
52.8514896803
 20
104.2028723061
 30
0.0
 11
52.8514896803
 21
67.3728723061
 31
0.0
  0
LINE
  5
107
330
1F
100
AcDbEntity
  8
0
  6
CONTINUOUS
 62
     7
100
AcDbLine
 10
52.8514896803
 20
107.3778723061
 30
0.0
 11
70.5044896803
 21
107.3778723061
 31
0.0
  0
LINE
  5
108
330
1F
100
AcDbEntity
  8
0
  6
CONTINUOUS
 62
     7
100
AcDbLine
 10
52.8514896803
 20
104.2028723061
 30
0.0
 11
52.8514896803
 21
107.3778723061
 31
0.0
  0
LINE
  5
109
330
1F
100
AcDbEntity
  8
0
  6
CONTINUOUS
 62
     7
100
AcDbLine
 10
73.9334896803
 20
98.9323723061
 30
0.0
 11
73.9334896803
 21
72.6433723061
 31
0.0
  0
LINE
  5
10A
330
1F
100
AcDbEntity
  8
0
  6
CONTINUOUS
 62
     8
100
AcDbLine
 10
52.8387896803
 20
103.8853723061
 30
0.0
 11
52.8387896803
 21
103.8853723061
 31
0.0
  0
LINE
  5
10B
330
1F
100
AcDbEntity
  8
0
  6
CONTINUOUS
 62
     8
100
AcDbLine
 10
52.8387896803
 20
67.6903723061
 30
0.0
 11
52.8387896803
 21
67.6903723061
 31
0.0
  0
LINE
  5
10C
330
1F
100
AcDbEntity
  8
0
  6
CENTERX2
 62
     7
100
AcDbLine
 10
69.3334896803
 20
87.3714219223
 30
0.0
 11
69.3334896803
 21
84.2376688774
 31
0.0
  0
DIMENSION
  5
10D
330
1F
100
AcDbEntity
  8
0
  6
CONTINUOUS
 62
     7
100
AcDbDimension
  2
_D
 10
73.9334896803
 20
119.27743575
 30
0.0
 11
88.1149798983
 21
119.27743575
 31
0.0
 70
   160
  1
<>
  3
SLDDIMSTYLE0
100
AcDbAlignedDimension
 13
69.3334896803
 23
87.3714219223
 33
0.0
 14
73.9334896803
 24
98.9323723061
 34
0.0
100
AcDbRotatedDimension
  0
DIMENSION
  5
122
330
1F
100
AcDbEntity
  8
0
  6
CONTINUOUS
 62
     7
100
AcDbDimension
  2
_D_1
 10
73.9334896803
 20
131.3956364509
 30
0.0
 11
63.3924896803
 21
131.3956364509
 31
0.0
 70
   160
  1
<>
  3
SLDDIMSTYLE0
100
AcDbAlignedDimension
 13
52.8514896803
 23
104.2028723061
 33
0.0
 14
73.9334896803
 24
98.9323723061
 34
0.0
 50
0.0
100
AcDbRotatedDimension
  0
DIMENSION
  5
136
330
1F
100
AcDbEntity
  8
0
  6
CONTINUOUS
 62
     7
100
AcDbDimension
  2
_D_2
 10
73.9334896803
 20
45.8849361777
 30
0.0
 11
48.7046122251
 21
45.8849361777
 31
0.0
 70
   160
  1
<>
  3
SLDDIMSTYLE1
100
AcDbAlignedDimension
 13
61.2334896803
 23
57.3778723061
 33
0.0
 14
73.9334896803
 24
72.6433723061
 34
0.0
 50
0.0
100
AcDbRotatedDimension
  0
MTEXT
  5
14B
330
1F
100
AcDbEntity
  8
0
  6
CONTINUOUS
 62
     7
100
AcDbMText
 10
96.0589837994
 20
47.9902221759
 30
0.0
 40
2.1166666667
 41
0.0
 71
     1
 72
     1
  1
SM1 (1.035-40) EXTERNAL THREAD
  7
SLDTEXTSTYLE0
  0
LEADER
  5
14D
330
1F
100
AcDbEntity
  8
0
  6
CONTINUOUS
 62
     7
100
AcDbLeader
  3
SLDDIMSTYLE2
 76
     3
 10
73.2288393111
 20
72.6433723061
 30
0.0
 10
89.143413831
 20
47.0893127192
 30
0.0
 10
95.493413831
 20
47.0893127192
 30
0.0
1001
ACAD
1000
DSTYLE
1002
{
1070
     6
1000

1002
}
  0
MTEXT
  5
14E
330
1F
100
AcDbEntity
  8
0
  6
CONTINUOUS
 62
     7
100
AcDbMText
 10
8.2572726911
 20
101.9809565641
 30
0.0
 40
2.1166666667
 41
0.0
 71
     1
 72
     1
  1
POWER INDICATOR LED
  7
SLDTEXTSTYLE0
  0
LEADER
  5
14F
330
1F
100
AcDbEntity
  8
0
  6
CONTINUOUS
 62
     7
100
AcDbLeader
  3
SLDDIMSTYLE2
 76
     3
 10
55.8744565098
 20
89.9267245404
 30
0.0
 10
46.7856655883
 20
100.8763599201
 30
0.0
 10
40.4356655883
 20
100.8763599201
 30
0.0
1001
ACAD
1000
DSTYLE
1002
{
1070
     6
1000

1002
}
  0
INSERT
  5
157
102
{ACAD_REACTORS
330
158
102
}
330
1F
100
AcDbEntity
  8
0
  6
CONTINUOUS
 62
     7
100
AcDbBlockReference
  2
SW_NOTE_3
 10
42.9259055982
 20
117.4833364147
 30
0.0
  0
LEADER
  5
158
330
1F
100
AcDbEntity
  8
0
  6
CONTINUOUS
 62
     7
100
AcDbLeader
  3
SLDDIMSTYLE2
 73
     2
 76
     3
 10
59.198377026
 20
98.6092012759
 30
0.0
 10
49.2759055982
 20
117.4833364147
 30
0.0
 10
42.9259055982
 20
117.4833364147
 30
0.0
340
157
1001
ACAD
1000
DSTYLE
1002
{
1070
     6
1000

1002
}
  0
MTEXT
  5
159
330
1F
100
AcDbEntity
  8
0
  6
CONTINUOUS
 62
     7
100
AcDbMText
 10
39.8784090882
 20
70.2546406555
 30
0.0
 40
2.1166666667
 41
0.0
 71
     3
 72
     1
  1
OUTPUT BNC
  7
SLDTEXTSTYLE0
  0
LEADER
  5
15A
330
1F
100
AcDbEntity
  8
0
  6
CONTINUOUS
 62
     7
100
AcDbLeader
  3
SLDDIMSTYLE2
 76
     3
 10
58.2932899479
 20
76.5459805414
 30
0.0
 10
46.8609769484
 20
69.2627485041
 30
0.0
 10
40.5109769484
 20
69.2627485041
 30
0.0
1001
ACAD
1000
DSTYLE
1002
{
1070
     6
1000

1002
}
  0
MTEXT
  5
15B
330
1F
100
AcDbEntity
  8
0
  6
CONTINUOUS
 62
     7
100
AcDbMText
 10
90.5588139367
 20
70.2546406555
 30
0.0
 40
2.1166666667
 41
0.0
 71
     1
 72
     1
  1
DETECTOR SURFACE
  7
SLDTEXTSTYLE0
  0
LEADER
  5
15C
330
1F
100
AcDbEntity
  8
0
  6
CONTINUOUS
 62
     7
100
AcDbLeader
  3
SLDDIMSTYLE2
 76
     3
 10
69.3334896803
 20
85.7195431349
 30
0.0
 10
83.6549396268
 20
69.2627485041
 30
0.0
 10
90.0049396268
 20
69.2627485041
 30
0.0
1001
ACAD
1000
DSTYLE
1002
{
1070
     6
1000

1002
}
  0
LINE
  5
15D
330
1F
100
AcDbEntity
  8
0
  6
CENTERX2
 62
     7
100
AcDbLine
 10
61.2334896803
 20
69.4978723061
 30
0.0
 11
61.2334896803
 21
57.3778723061
 31
0.0
  0
LINE
  5
15E
330
1F
100
AcDbEntity
  8
0
  6
CENTERX2
 62
     7
100
AcDbLine
 10
75.9334896803
 20
85.7878723061
 30
0.0
 11
68.1286272161
 21
85.7878723061
 31
0.0
  0
LINE
  5
15F
330
1F
100
AcDbEntity
  8
0
  6
CONTINUOUS
 62
     7
100
AcDbLine
 10
214.0551716978
 20
80.4578723061
 30
0.0
 11
215.8051716978
 21
80.4578723061
 31
0.0
  0
LINE
  5
160
330
1F
100
AcDbEntity
  8
0
  6
CONTINUOUS
 62
     7
100
AcDbLine
 10
215.8051716978
 20
91.1178723061
 30
0.0
 11
214.0551716978
 21
91.1178723061
 31
0.0
  0
LINE
  5
161
330
1F
100
AcDbEntity
  8
0
  6
CONTINUOUS
 62
     7
100
AcDbLine
 10
215.8051716978
 20
80.4578723061
 30
0.0
 11
216.0551716978
 21
80.7078723061
 31
0.0
  0
LINE
  5
162
330
1F
100
AcDbEntity
  8
0
  6
CONTINUOUS
 62
     7
100
AcDbLine
 10
216.0551716978
 20
90.8678723061
 30
0.0
 11
215.8051716978
 21
91.1178723061
 31
0.0
  0
LINE
  5
163
330
1F
100
AcDbEntity
  8
0
  6
CONTINUOUS
 62
     7
100
AcDbLine
 10
214.0551716978
 20
91.1178723061
 30
0.0
 11
213.8051716978
 21
90.8678723061
 31
0.0
  0
LINE
  5
164
330
1F
100
AcDbEntity
  8
0
  6
CONTINUOUS
 62
     7
100
AcDbLine
 10
213.8051716978
 20
80.7078723061
 30
0.0
 11
214.0551716978
 21
80.4578723061
 31
0.0
  0
LINE
  5
165
330
1F
100
AcDbEntity
  8
0
  6
CONTINUOUS
 62
     7
100
AcDbLine
 10
213.5551716978
 20
80.4578723061
 30
0.0
 11
213.8051716978
 21
80.7078723061
 31
0.0
  0
LINE
  5
166
330
1F
100
AcDbEntity
  8
0
  6
CONTINUOUS
 62
     7
100
AcDbLine
 10
213.8051716978
 20
90.8678723061
 30
0.0
 11
213.5551716978
 21
91.1178723061
 31
0.0
  0
LINE
  5
167
330
1F
100
AcDbEntity
  8
0
  6
CONTINUOUS
 62
     7
100
AcDbLine
 10
211.2351716978
 20
80.4578723061
 30
0.0
 11
213.5551716978
 21
80.4578723061
 31
0.0
  0
LINE
  5
168
330
1F
100
AcDbEntity
  8
0
  6
CONTINUOUS
 62
     7
100
AcDbLine
 10
213.5551716978
 20
91.1178723061
 30
0.0
 11
211.2351716978
 21
91.1178723061
 31
0.0
  0
LINE
  5
169
330
1F
100
AcDbEntity
  8
0
  6
CONTINUOUS
 62
     7
100
AcDbLine
 10
190.6651716978
 20
64.1978723061
 30
0.0
 11
190.6651716978
 21
61.8778723061
 31
0.0
  0
LINE
  5
16A
330
1F
100
AcDbEntity
  8
0
  6
CONTINUOUS
 62
     7
100
AcDbLine
 10
201.3251716978
 20
61.8778723061
 30
0.0
 11
201.3251716978
 21
64.1978723061
 31
0.0
  0
LINE
  5
16B
330
1F
100
AcDbEntity
  8
0
  6
CONTINUOUS
 62
     7
100
AcDbLine
 10
190.6651716978
 20
61.8778723061
 30
0.0
 11
190.9151716978
 21
61.6278723061
 31
0.0
  0
LINE
  5
16C
330
1F
100
AcDbEntity
  8
0
  6
CONTINUOUS
 62
     7
100
AcDbLine
 10
201.0751716978
 20
61.6278723061
 30
0.0
 11
201.3251716978
 21
61.8778723061
 31
0.0
  0
LINE
  5
16D
330
1F
100
AcDbEntity
  8
0
  6
CONTINUOUS
 62
     7
100
AcDbLine
 10
201.3251716978
 20
61.3778723061
 30
0.0
 11
201.0751716978
 21
61.6278723061
 31
0.0
  0
LINE
  5
16E
330
1F
100
AcDbEntity
  8
0
  6
CONTINUOUS
 62
     7
100
AcDbLine
 10
190.9151716978
 20
61.6278723061
 30
0.0
 11
190.6651716978
 21
61.3778723061
 31
0.0
  0
LINE
  5
16F
330
1F
100
AcDbEntity
  8
0
  6
CONTINUOUS
 62
     7
100
AcDbLine
 10
190.6651716978
 20
61.3778723061
 30
0.0
 11
190.6651716978
 21
59.6278723061
 31
0.0
  0
LINE
  5
170
330
1F
100
AcDbEntity
  8
0
  6
CONTINUOUS
 62
     7
100
AcDbLine
 10
201.3251716978
 20
59.6278723061
 30
0.0
 11
201.3251716978
 21
61.3778723061
 31
0.0
  0
LINE
  5
171
330
1F
100
AcDbEntity
  8
0
  6
CONTINUOUS
 62
     7
100
AcDbLine
 10
190.6651716978
 20
59.6278723061
 30
0.0
 11
190.9151716978
 21
59.3778723061
 31
0.0
  0
LINE
  5
172
330
1F
100
AcDbEntity
  8
0
  6
CONTINUOUS
 62
     7
100
AcDbLine
 10
201.0751716978
 20
59.3778723061
 30
0.0
 11
201.3251716978
 21
59.6278723061
 31
0.0
  0
ARC
  5
173
330
1F
100
AcDbEntity
  8
0
  6
CONTINUOUS
 62
     7
100
AcDbCircle
 10
157.8951716978
 20
89.0898723061
 30
0.0
 40
1.650000000000006
100
AcDbArc
 50
90.0
 51
270.0
  0
LINE
  5
174
330
1F
100
AcDbEntity
  8
0
  6
CONTINUOUS
 62
     7
100
AcDbLine
 10
151.3170783246
 20
100.9478723061
 30
0.0
 11
149.3353716978
 21
100.5978723061
 31
0.0
  0
LINE
  5
175
330
1F
100
AcDbEntity
  8
0
  6
CONTINUOUS
 62
     7
100
AcDbLine
 10
149.3353716978
 20
91.2978723061
 30
0.0
 11
151.3171608567
 21
90.9472352266
 31
0.0
  0
LINE
  5
176
330
1F
100
AcDbEntity
  8
0
  6
CONTINUOUS
 62
     7
100
AcDbLine
 10
156.6451716978
 20
74.4813906289
 30
0.0
 11
157.8951716978
 21
74.4813906289
 31
0.0
  0
LINE
  5
177
330
1F
100
AcDbEntity
  8
0
  6
CONTINUOUS
 62
     7
100
AcDbLine
 10
157.8951716978
 20
86.9813906289
 30
0.0
 11
156.6451716978
 21
86.9813906289
 31
0.0
  0
ARC
  5
178
330
1F
100
AcDbEntity
  8
0
  6
CONTINUOUS
 62
     7
100
AcDbCircle
 10
150.0651716978
 20
94.1933906289
 30
0.0
 40
8.76199999999993
100
AcDbArc
 50
261.3353720336
 51
278.6646279664
  0
ARC
  5
179
330
1F
100
AcDbEntity
  8
0
  6
CONTINUOUS
 62
     7
100
AcDbCircle
 10
150.0651716978
 20
67.2693906289
 30
0.0
 40
8.761999999999949
100
AcDbArc
 50
81.3353720336
 51
98.6646279664
  0
LINE
  5
17A
330
1F
100
AcDbEntity
  8
0
  6
CONTINUOUS
 62
     7
100
AcDbLine
 10
151.3851716978
 20
75.9313906289
 30
0.0
 11
156.6451716978
 21
75.9313906289
 31
0.0
  0
LINE
  5
17B
330
1F
100
AcDbEntity
  8
0
  6
CONTINUOUS
 62
     7
100
AcDbLine
 10
156.6451716978
 20
85.5313906289
 30
0.0
 11
151.3851716978
 21
85.5313906289
 31
0.0
  0
LINE
  5
17C
330
1F
100
AcDbEntity
  8
0
  6
CONTINUOUS
 62
     7
100
AcDbLine
 10
145.8651716978
 20
75.9313906289
 30
0.0
 11
148.7451716978
 21
75.9313906289
 31
0.0
  0
LINE
  5
17D
330
1F
100
AcDbEntity
  8
0
  6
CONTINUOUS
 62
     7
100
AcDbLine
 10
148.7451716978
 20
85.5313906289
 30
0.0
 11
145.8651716978
 21
85.5313906289
 31
0.0
  0
LINE
  5
17E
330
1F
100
AcDbEntity
  8
0
  6
CONTINUOUS
 62
     7
100
AcDbLine
 10
214.0551716978
 20
91.1178723061
 30
0.0
 11
214.0551716978
 21
80.4578723061
 31
0.0
  0
LINE
  5
17F
330
1F
100
AcDbEntity
  8
0
  6
CONTINUOUS
 62
     7
100
AcDbLine
 10
215.8051716978
 20
90.8390434107
 30
0.0
 11
215.8051716978
 21
91.1178723061
 31
0.0
  0
LINE
  5
180
330
1F
100
AcDbEntity
  8
0
  6
CONTINUOUS
 62
     7
100
AcDbLine
 10
215.8051716978
 20
80.4578723061
 30
0.0
 11
215.8051716978
 21
90.8390434107
 31
0.0
  0
LINE
  5
181
330
1F
100
AcDbEntity
  8
0
  6
CONTINUOUS
 62
     7
100
AcDbLine
 10
216.0551716978
 20
90.6021216891
 30
0.0
 11
216.0551716978
 21
80.7078723061
 31
0.0
  0
LINE
  5
182
330
1F
100
AcDbEntity
  8
0
  6
CONTINUOUS
 62
     7
100
AcDbLine
 10
216.0551716978
 20
90.8678723061
 30
0.0
 11
216.0551716978
 21
90.6021216891
 31
0.0
  0
LINE
  5
183
330
1F
100
AcDbEntity
  8
0
  6
CONTINUOUS
 62
     7
100
AcDbLine
 10
213.8051716978
 20
90.8678723061
 30
0.0
 11
213.8051716978
 21
80.7078723061
 31
0.0
  0
LINE
  5
184
330
1F
100
AcDbEntity
  8
0
  6
CONTINUOUS
 62
     7
100
AcDbLine
 10
213.5551716978
 20
91.1178723061
 30
0.0
 11
213.5551716978
 21
80.4578723061
 31
0.0
  0
LINE
  5
185
330
1F
100
AcDbEntity
  8
0
  6
CONTINUOUS
 62
     7
100
AcDbLine
 10
201.3251716978
 20
61.8778723061
 30
0.0
 11
190.6651716978
 21
61.8778723061
 31
0.0
  0
LINE
  5
186
330
1F
100
AcDbEntity
  8
0
  6
CONTINUOUS
 62
     7
100
AcDbLine
 10
201.0751716978
 20
61.6278723061
 30
0.0
 11
190.9151716978
 21
61.6278723061
 31
0.0
  0
LINE
  5
187
330
1F
100
AcDbEntity
  8
0
  6
CONTINUOUS
 62
     7
100
AcDbLine
 10
201.3251716978
 20
61.3778723061
 30
0.0
 11
190.6651716978
 21
61.3778723061
 31
0.0
  0
LINE
  5
188
330
1F
100
AcDbEntity
  8
0
  6
CONTINUOUS
 62
     7
100
AcDbLine
 10
200.9212887771
 20
59.6278723061
 30
0.0
 11
201.3251716978
 21
59.6278723061
 31
0.0
  0
LINE
  5
189
330
1F
100
AcDbEntity
  8
0
  6
CONTINUOUS
 62
     7
100
AcDbLine
 10
190.6651716978
 20
59.6278723061
 30
0.0
 11
200.9212887771
 21
59.6278723061
 31
0.0
  0
LINE
  5
18A
330
1F
100
AcDbEntity
  8
0
  6
CONTINUOUS
 62
     7
100
AcDbLine
 10
200.6902326289
 20
59.3778723061
 30
0.0
 11
190.9151716978
 21
59.3778723061
 31
0.0
  0
LINE
  5
18B
330
1F
100
AcDbEntity
  8
0
  6
CONTINUOUS
 62
     7
100
AcDbLine
 10
201.0751716978
 20
59.3778723061
 30
0.0
 11
200.6902326289
 21
59.3778723061
 31
0.0
  0
CIRCLE
  5
18C
330
1F
100
AcDbEntity
  8
0
  6
CONTINUOUS
 62
     7
100
AcDbCircle
 10
195.9951716978
 20
85.7878723061
 30
0.0
 40
15.24000000000001
  0
CIRCLE
  5
18D
330
1F
100
AcDbEntity
  8
0
  6
CONTINUOUS
 62
     7
100
AcDbCircle
 10
195.9951716978
 20
85.7878723061
 30
0.0
 40
14.98599999999999
  0
CIRCLE
  5
18E
330
1F
100
AcDbEntity
  8
0
  6
CONTINUOUS
 62
     7
100
AcDbCircle
 10
195.9951716978
 20
85.7878723061
 30
0.0
 40
13.58444090512248
  0
CIRCLE
  5
18F
330
1F
100
AcDbEntity
  8
0
  6
CONTINUOUS
 62
     7
100
AcDbCircle
 10
195.9951716978
 20
85.7878723061
 30
0.0
 40
13.14449999999999
  0
LINE
  5
190
330
1F
100
AcDbEntity
  8
0
  6
CONTINUOUS
 62
     7
100
AcDbLine
 10
157.8951716978
 20
100.9478723061
 30
0.0
 11
155.6853716978
 21
100.9478723061
 31
0.0
  0
LINE
  5
191
330
1F
100
AcDbEntity
  8
0
  6
CONTINUOUS
 62
     7
100
AcDbLine
 10
157.8951716978
 20
95.9478723061
 30
0.0
 11
155.6853716978
 21
95.9478723061
 31
0.0
  0
SPLINE
  5
192
330
1F
100
AcDbEntity
  8
0
  6
CONTINUOUS
 62
     7
100
AcDbSpline
210
0.0
220
0.0
230
1.0
 70
     8
 71
     3
 72
    28
 73
    24
 74
     0
 42
0.000000001
 43
0.00000001
 40
0.0
 40
0.0
 40
0.0
 40
0.0
 40
0.0972255113431566
 40
0.1946090893191805
 40
0.2432285039851776
 40
0.2919391723643762
 40
0.3411926083129179
 40
0.3908904120334234
 40
0.4337685099882881
 40
0.4551788160454088
 40
0.4772625435513979
 40
0.5053813864235488
 40
0.5334936149755956
 40
0.5541615852685429
 40
0.5753873246440488
 40
0.6002304370079949
 40
0.6253393947562296
 40
0.6766345550155395
 40
0.7299024203613875
 40
0.7833926898685578
 40
0.8371588471283049
 40
0.8899244298408799
 40
1.0
 40
1.0
 40
1.0
 40
1.0
 10
155.6853716977939
 20
95.94787230609883
 30
0.0
 10
155.3531226466903
 20
96.05235760666623
 30
0.0
 10
154.6880843828726
 20
96.26149807720482
 30
0.0
 10
153.8721089929977
 20
96.55776291185703
 30
0.0
 10
153.2328318607892
 20
96.82128378368023
 30
0.0
 10
152.7622054208368
 20
97.03817579154702
 30
0.0
 10
152.3045612791528
 20
97.2820582110863
 30
0.0
 10
151.8924845677873
 20
97.55192680556381
 30
0.0
 10
151.601840358314
 20
97.81147024458144
 30
0.0
 10
151.4302279101489
 20
98.04043688273951
 30
0.0
 10
151.3295626769045
 20
98.25011459949233
 30
0.0
 10
151.2971150170353
 20
98.50031312490329
 30
0.0
 10
151.3660450386176
 20
98.73954742033976
 30
0.0
 10
151.4851912626827
 20
98.93534429407973
 30
0.0
 10
151.6300327797031
 20
99.10470861830946
 30
0.0
 10
151.8088658161505
 20
99.26732186476792
 30
0.0
 10
152.0872186401271
 20
99.47638791211982
 30
0.0
 10
152.4749289214272
 20
99.7103362146417
 30
0.0
 10
152.9730466144377
 20
99.95898283889244
 30
0.0
 10
153.4949113691754
 20
100.1856500851966
 30
0.0
 10
154.0254471015455
 20
100.3925357398191
 30
0.0
 10
154.7528057755606
 20
100.6541460402971
 30
0.0
 10
155.3092396511359
 20
100.8294036178493
 30
0.0
 10
155.6853716977939
 20
100.9478723060988
 30
0.0
  0
SPLINE
  5
193
330
1F
100
AcDbEntity
  8
0
  6
CONTINUOUS
 62
     7
100
AcDbSpline
210
0.0
220
0.0
230
1.0
 70
    24
 71
     3
 72
    20
 73
    16
 74
     0
 42
0.000000001
 43
0.00000001
 40
0.0
 40
0.0
 40
0.0
 40
0.0
 40
0.178893695211552
 40
0.3580186550656277
 40
0.4483536404743685
 40
0.5388046234905813
 40
0.6298710798138651
 40
0.7213720964224605
 40
0.7878554561870722
 40
0.8552256761991702
 40
0.8915066722602619
 40
0.9284078854535688
 40
0.9577761899996527
 40
0.9879265612524437
 40
1.0
 40
1.0
 40
1.0
 40
1.0
 10
155.6853716977939
 20
100.9478723060988
 30
0.0
 10
155.3795516034496
 20
100.9478723060988
 30
0.0
 10
154.7675160661449
 20
100.9478723060988
 30
0.0
 10
154.0136237625173
 20
100.9478723060988
 30
0.0
 10
153.4191727300857
 20
100.9478723060988
 30
0.0
 10
152.978054865422
 20
100.9478723060988
 30
0.0
 10
152.5465803993365
 20
100.9478723060988
 30
0.0
 10
152.1693106799277
 20
100.9478723060988
 30
0.0
 10
151.8510221459203
 20
100.9478723060988
 30
0.0
 10
151.6344918603069
 20
100.9478723060988
 30
0.0
 10
151.4845278500524
 20
100.9478723060988
 30
0.0
 10
151.3956058461075
 20
100.9478723060988
 30
0.0
 10
151.3393105163846
 20
100.9478723060988
 30
0.0
 10
151.3132249224418
 20
100.9478723060988
 30
0.0
 10
151.3162214890446
 20
100.9478723060988
 30
0.0
 10
151.3170783246389
 20
100.9478723060988
 30
0.0
  0
SPLINE
  5
194
330
1F
100
AcDbEntity
  8
0
  6
CONTINUOUS
 62
     7
100
AcDbSpline
210
0.0
220
0.0
230
1.0
 70
     8
 71
     3
 72
    28
 73
    24
 74
     0
 42
0.000000001
 43
0.00000001
 40
0.0
 40
0.0
 40
0.0
 40
0.0
 40
0.097225511343157
 40
0.1946090893191818
 40
0.2432285039851791
 40
0.2919391723643781
 40
0.3411926083129203
 40
0.3908904120334263
 40
0.4337685099882902
 40
0.4551788160454105
 40
0.4772625435513991
 40
0.5053813864235505
 40
0.533493614975597
 40
0.5541615852685446
 40
0.5753873246440503
 40
0.6002304370079972
 40
0.6253393947562321
 40
0.6766345550155431
 40
0.7299024203613909
 40
0.7833926898685606
 40
0.837158847128307
 40
0.8899244298408814
 40
1.0
 40
1.0
 40
1.0
 40
1.0
 10
155.6853716977939
 20
90.94787230609882
 30
0.0
 10
155.3531226466903
 20
91.05235760666622
 30
0.0
 10
154.6880843828726
 20
91.26149807720482
 30
0.0
 10
153.8721089929977
 20
91.557762911857
 30
0.0
 10
153.2328318607892
 20
91.82128378368022
 30
0.0
 10
152.7622054208368
 20
92.03817579154699
 30
0.0
 10
152.3045612791528
 20
92.2820582110863
 30
0.0
 10
151.8924845677873
 20
92.55192680556381
 30
0.0
 10
151.601840358314
 20
92.81147024458141
 30
0.0
 10
151.430227910149
 20
93.04043688273953
 30
0.0
 10
151.3295626769044
 20
93.2501145994923
 30
0.0
 10
151.2971150170353
 20
93.50031312490329
 30
0.0
 10
151.3660450386175
 20
93.73954742033975
 30
0.0
 10
151.4851912626827
 20
93.93534429407971
 30
0.0
 10
151.630032779703
 20
94.10470861830945
 30
0.0
 10
151.8088658161506
 20
94.26732186476791
 30
0.0
 10
152.0872186401272
 20
94.47638791211982
 30
0.0
 10
152.4749289214272
 20
94.71033621464171
 30
0.0
 10
152.9730466144377
 20
94.95898283889242
 30
0.0
 10
153.4949113691754
 20
95.18565008519656
 30
0.0
 10
154.0254471015455
 20
95.3925357398191
 30
0.0
 10
154.7528057755606
 20
95.65414604029709
 30
0.0
 10
155.3092396511359
 20
95.82940361784925
 30
0.0
 10
155.6853716977939
 20
95.94787230609883
 30
0.0
  0
SPLINE
  5
195
330
1F
100
AcDbEntity
  8
0
  6
CONTINUOUS
 62
     7
100
AcDbSpline
210
0.0
220
0.0
230
1.0
 70
     8
 71
     3
 72
    20
 73
    16
 74
     0
 42
0.000000001
 43
0.00000001
 40
0.0
 40
0.0
 40
0.0
 40
0.0
 40
0.0120739446898761
 40
0.0414065836706928
 40
0.0715928618017304
 40
0.1078137721512462
 40
0.144775322142656
 40
0.2111112564112144
 40
0.2786294555402125
 40
0.3667706409792083
 40
0.4554368686030791
 40
0.5450081807342801
 40
0.6347210586376612
 40
0.8171989480325993
 40
1.0
 40
1.0
 40
1.0
 40
1.0
 10
151.3171608567293
 20
90.9472352265973
 30
0.0
 10
151.3163376298222
 20
90.94787230609883
 30
0.0
 10
151.3131278843617
 20
90.94787230609883
 30
0.0
 10
151.3389947535098
 20
90.94787230609883
 30
0.0
 10
151.3944807877925
 20
90.94787230609883
 30
0.0
 10
151.483849179153
 20
90.94787230609883
 30
0.0
 10
151.6325229040546
 20
90.94787230609883
 30
0.0
 10
151.849583747749
 20
90.94787230609883
 30
0.0
 10
152.1630047018662
 20
90.94787230609883
 30
0.0
 10
152.5325932294933
 20
90.94787230609882
 30
0.0
 10
152.9528451615168
 20
90.94787230609883
 30
0.0
 10
153.3869852464577
 20
90.94787230609882
 30
0.0
 10
153.9838095489658
 20
90.94787230609882
 30
0.0
 10
154.748473134065
 20
90.94787230609882
 30
0.0
 10
155.3728880364293
 20
90.94787230609883
 30
0.0
 10
155.6853716977939
 20
90.94787230609882
 30
0.0
  0
LINE
  5
196
330
1F
100
AcDbEntity
  8
0
  6
CONTINUOUS
 62
     7
100
AcDbLine
 10
149.3353716978
 20
100.5978723061
 30
0.0
 11
149.3353716978
 21
91.2978723061
 31
0.0
  0
LINE
  5
197
330
1F
100
AcDbEntity
  8
0
  6
CONTINUOUS
 62
     7
100
AcDbLine
 10
157.8951716978
 20
90.9478723061
 30
0.0
 11
155.6853716978
 21
90.9478723061
 31
0.0
  0
ARC
  5
198
330
1F
100
AcDbEntity
  8
0
  6
CONTINUOUS
 62
     7
100
AcDbCircle
 10
177.8976716978
 20
69.5963723061
 30
0.0
 40
1.27000000000001
100
AcDbArc
 50
270.0
 51
360.0
  0
LINE
  5
199
330
1F
100
AcDbEntity
  8
0
  6
CONTINUOUS
 62
     7
100
AcDbLine
 10
163.2936716978
 20
68.3263723061
 30
0.0
 11
177.8976716978
 21
68.3263723061
 31
0.0
  0
ARC
  5
19A
330
1F
100
AcDbEntity
  8
0
  6
CONTINUOUS
 62
     7
100
AcDbCircle
 10
163.2936716978
 20
69.5963723061
 30
0.0
 40
1.270000000000039
100
AcDbArc
 50
180.0
 51
270.0
  0
LINE
  5
19B
330
1F
100
AcDbEntity
  8
0
  6
CONTINUOUS
 62
     7
100
AcDbLine
 10
162.0236716978
 20
101.9803723061
 30
0.0
 11
162.0236716978
 21
69.5963723061
 31
0.0
  0
ARC
  5
19C
330
1F
100
AcDbEntity
  8
0
  6
CONTINUOUS
 62
     7
100
AcDbCircle
 10
163.2936716978
 20
101.9803723061
 30
0.0
 40
1.270000000000039
100
AcDbArc
 50
90.0
 51
180.0
  0
LINE
  5
19D
330
1F
100
AcDbEntity
  8
0
  6
CONTINUOUS
 62
     7
100
AcDbLine
 10
177.8976716978
 20
103.2503723061
 30
0.0
 11
163.2936716978
 21
103.2503723061
 31
0.0
  0
LINE
  5
19E
330
1F
100
AcDbEntity
  8
0
  6
CONTINUOUS
 62
     7
100
AcDbLine
 10
179.1676716978
 20
69.5963723061
 30
0.0
 11
179.1676716978
 21
101.9803723061
 31
0.0
  0
ARC
  5
19F
330
1F
100
AcDbEntity
  8
0
  6
CONTINUOUS
 62
     7
100
AcDbCircle
 10
177.8976716978
 20
101.9803723061
 30
0.0
 40
1.27000000000001
100
AcDbArc
 50
0.0
 51
90.0
  0
CIRCLE
  5
1A0
330
1F
100
AcDbEntity
  8
0
  6
CONTINUOUS
 62
     7
100
AcDbCircle
 10
195.9951716978
 20
85.7878723061
 30
0.0
 40
2.720000000000002
  0
CIRCLE
  5
1A1
330
1F
100
AcDbEntity
  8
0
  6
CONTINUOUS
 62
     7
100
AcDbCircle
 10
195.9951716978
 20
85.7878723061
 30
0.0
 40
6.370000000000023
  0
CIRCLE
  5
1A2
330
1F
100
AcDbEntity
  8
0
  6
CONTINUOUS
 62
     7
100
AcDbCircle
 10
195.9951716978
 20
85.7878723061
 30
0.0
 40
2.048700000000011
  0
CIRCLE
  5
1A3
330
1F
100
AcDbEntity
  8
0
  6
CONTINUOUS
 62
     7
100
AcDbCircle
 10
195.9951716978
 20
85.7878723061
 30
0.0
 40
2.298700000000011
  0
CIRCLE
  5
1A4
330
1F
100
AcDbEntity
  8
0
  6
CONTINUOUS
 62
     7
100
AcDbCircle
 10
195.9951716978
 20
85.7878723061
 30
0.0
 40
1.016000000000005
  0
CIRCLE
  5
1A5
330
1F
100
AcDbEntity
  8
0
  6
CONTINUOUS
 62
     7
100
AcDbCircle
 10
195.9951716978
 20
85.7878723061
 30
0.0
 40
0.875
  0
CIRCLE
  5
1A6
330
1F
100
AcDbEntity
  8
0
  6
CONTINUOUS
 62
     7
100
AcDbCircle
 10
195.9951716978
 20
85.7878723061
 30
0.0
 40
2.548700000000011
  0
LINE
  5
1A7
330
1F
100
AcDbEntity
  8
0
  6
CONTINUOUS
 62
     7
100
AcDbLine
 10
197.4964355982
 20
88.0075566962
 30
0.0
 11
198.2148560879
 21
87.2891362065
 31
0.0
  0
ARC
  5
1A8
330
1F
100
AcDbEntity
  8
0
  6
CONTINUOUS
 62
     7
100
AcDbCircle
 10
195.9951716978
 20
85.7878723061
 30
0.0
 40
2.679699999999998
100
AcDbArc
 50
55.9278928482
 51
34.0721071507
  0
LINE
  5
1A9
330
1F
100
AcDbEntity
  8
0
  6
CONTINUOUS
 62
     7
100
AcDbLine
 10
156.6451716978
 20
86.9813906289
 30
0.0
 11
156.6451716978
 21
74.4813906289
 31
0.0
  0
CIRCLE
  5
1AA
330
1F
100
AcDbEntity
  8
0
  6
CONTINUOUS
 62
     7
100
AcDbCircle
 10
150.0651716978
 20
80.7313906289
 30
0.0
 40
1.0
  0
LINE
  5
1AB
330
1F
100
AcDbEntity
  8
0
  6
CONTINUOUS
 62
     7
100
AcDbLine
 10
148.7451716978
 20
85.5313906289
 30
0.0
 11
148.7451716978
 21
81.797973959
 31
0.0
  0
LINE
  5
1AC
330
1F
100
AcDbEntity
  8
0
  6
CONTINUOUS
 62
     7
100
AcDbLine
 10
151.3851716978
 20
85.5313906289
 30
0.0
 11
151.3851716978
 21
81.797973959
 31
0.0
  0
LINE
  5
1AD
330
1F
100
AcDbEntity
  8
0
  6
CONTINUOUS
 62
     7
100
AcDbLine
 10
151.3851716978
 20
79.6648072989
 30
0.0
 11
151.3851716978
 21
75.9313906289
 31
0.0
  0
LINE
  5
1AE
330
1F
100
AcDbEntity
  8
0
  6
CONTINUOUS
 62
     7
100
AcDbLine
 10
148.7451716978
 20
79.6648072989
 30
0.0
 11
148.7451716978
 21
75.9313906289
 31
0.0
  0
LINE
  5
1AF
330
1F
100
AcDbEntity
  8
0
  6
CONTINUOUS
 62
     7
100
AcDbLine
 10
151.3851716978
 20
79.6648072989
 30
0.0
 11
152.0588868229
 21
79.6648072989
 31
0.0
  0
SPLINE
  5
1B0
330
1F
100
AcDbEntity
  8
0
  6
CONTINUOUS
 62
     7
100
AcDbSpline
210
0.0
220
0.0
230
1.0
 70
     8
 71
     3
 72
    14
 73
    10
 74
     0
 42
0.000000001
 43
0.00000001
 40
0.0
 40
0.0
 40
0.0
 40
0.0
 40
0.1576103213932896
 40
0.3195416563012346
 40
0.4772348747177147
 40
0.6398298550118108
 40
0.7924824295099429
 40
0.9492693014368073
 40
1.0
 40
1.0
 40
1.0
 40
1.0
 10
152.0588868228807
 20
79.6648072988607
 30
0.0
 10
152.1088977457767
 20
79.76911439575976
 30
0.0
 10
152.2102906811764
 20
79.9805882523731
 30
0.0
 10
152.2984489870941
 20
80.3253400113612
 30
0.0
 10
152.3354014092357
 20
80.68377385525704
 30
0.0
 10
152.3147301720641
 20
81.03757325525406
 30
0.0
 10
152.2397696134984
 20
81.38086862603177
 30
0.0
 10
152.1454239724855
 20
81.63011300432932
 30
0.0
 10
152.0758863174648
 20
81.7649990874946
 30
0.0
 10
152.0588868228807
 20
81.79797395901642
 30
0.0
  0
LINE
  5
1B1
330
1F
100
AcDbEntity
  8
0
  6
CONTINUOUS
 62
     7
100
AcDbLine
 10
152.0588868229
 20
81.797973959
 30
0.0
 11
151.3851716978
 21
81.797973959
 31
0.0
  0
LINE
  5
1B2
330
1F
100
AcDbEntity
  8
0
  6
CONTINUOUS
 62
     7
100
AcDbLine
 10
148.7451716978
 20
81.797973959
 30
0.0
 11
148.0714565727
 21
81.797973959
 31
0.0
  0
SPLINE
  5
1B3
330
1F
100
AcDbEntity
  8
0
  6
CONTINUOUS
 62
     7
100
AcDbSpline
210
0.0
220
0.0
230
1.0
 70
     8
 71
     3
 72
    14
 73
    10
 74
     0
 42
0.000000001
 43
0.00000001
 40
0.0
 40
0.0
 40
0.0
 40
0.0
 40
0.1576103213932887
 40
0.3195416563012349
 40
0.4772348747177251
 40
0.6398298550118178
 40
0.7924824295099426
 40
0.949269301436807
 40
1.0
 40
1.0
 40
1.0
 40
1.0
 10
148.071456572707
 20
81.79797395901642
 30
0.0
 10
148.021445649811
 20
81.69366686211734
 30
0.0
 10
147.9200527144113
 20
81.482193005504
 30
0.0
 10
147.8318944084936
 20
81.13744124651589
 30
0.0
 10
147.794941986352
 20
80.77900740262004
 30
0.0
 10
147.8156132235236
 20
80.42520800262301
 30
0.0
 10
147.8905737820893
 20
80.0819126318453
 30
0.0
 10
147.9849194231022
 20
79.8326682535478
 30
0.0
 10
148.054457078123
 20
79.6977821703825
 30
0.0
 10
148.071456572707
 20
79.6648072988607
 30
0.0
  0
LINE
  5
1B4
330
1F
100
AcDbEntity
  8
0
  6
CONTINUOUS
 62
     7
100
AcDbLine
 10
148.0714565727
 20
79.6648072989
 30
0.0
 11
148.7451716978
 21
79.6648072989
 31
0.0
  0
LINE
  5
1B5
330
1F
100
AcDbEntity
  8
0
  6
CONTINUOUS
 62
     7
100
AcDbLine
 10
145.8651716978
 20
80.7313906289
 30
0.0
 11
145.8651716978
 21
85.5313906289
 31
0.0
  0
LINE
  5
1B6
330
1F
100
AcDbEntity
  8
0
  6
CONTINUOUS
 62
     7
100
AcDbLine
 10
145.8651716978
 20
75.9313906289
 30
0.0
 11
145.8651716978
 21
80.7313906289
 31
0.0
  0
LINE
  5
1B7
330
1F
100
AcDbEntity
  8
0
  6
CONTINUOUS
 62
     7
100
AcDbLine
 10
148.7451716978
 20
79.6648072989
 30
0.0
 11
151.3851716978
 21
79.6648072989
 31
0.0
  0
LINE
  5
1B8
330
1F
100
AcDbEntity
  8
0
  6
CONTINUOUS
 62
     7
100
AcDbLine
 10
151.3851716978
 20
81.797973959
 30
0.0
 11
148.7451716978
 21
81.797973959
 31
0.0
  0
CIRCLE
  5
1B9
330
1F
100
AcDbEntity
  8
0
  6
CONTINUOUS
 62
     7
100
AcDbCircle
 10
195.9951716978
 20
85.7878723061
 30
0.0
 40
6.438900000000004
  0
ARC
  5
1BA
330
1F
100
AcDbEntity
  8
0
  6
CONTINUOUS
 62
     7
100
AcDbCircle
 10
208.0601716978
 20
104.2028723061
 30
0.0
 40
1.777999999999992
100
AcDbArc
 50
0.0
 51
90.0
  0
LINE
  5
1BB
330
1F
100
AcDbEntity
  8
0
  6
CONTINUOUS
 62
     7
100
AcDbLine
 10
208.0601716978
 20
107.3778723061
 30
0.0
 11
208.0601716978
 21
105.9808723061
 31
0.0
  0
ARC
  5
1BC
330
1F
100
AcDbEntity
  8
0
  6
CONTINUOUS
 62
     7
100
AcDbCircle
 10
208.0601716978
 20
104.2028723061
 30
0.0
 40
3.175000000000011
100
AcDbArc
 50
0.0
 51
90.0
  0
LINE
  5
1BD
330
1F
100
AcDbEntity
  8
0
  6
CONTINUOUS
 62
     7
100
AcDbLine
 10
209.8381716978
 20
104.2028723061
 30
0.0
 11
211.2351716978
 21
104.2028723061
 31
0.0
  0
ARC
  5
1BE
330
1F
100
AcDbEntity
  8
0
  6
CONTINUOUS
 62
     7
100
AcDbCircle
 10
163.2926716978
 20
69.5953723061
 30
0.0
 40
1.587500000000034
100
AcDbArc
 50
180.0
 51
270.0
  0
LINE
  5
1BF
330
1F
100
AcDbEntity
  8
0
  6
CONTINUOUS
 62
     7
100
AcDbLine
 10
163.2926716978
 20
68.0078723061
 30
0.0
 11
177.8976716978
 21
68.0078723061
 31
0.0
  0
ARC
  5
1C0
330
1F
100
AcDbEntity
  8
0
  6
CONTINUOUS
 62
     7
100
AcDbCircle
 10
177.8976716978
 20
69.5953723061
 30
0.0
 40
1.587500000000006
100
AcDbArc
 50
270.0
 51
360.0
  0
LINE
  5
1C1
330
1F
100
AcDbEntity
  8
0
  6
CONTINUOUS
 62
     7
100
AcDbLine
 10
179.4851716978
 20
69.5953723061
 30
0.0
 11
179.4851716978
 21
101.9803723061
 31
0.0
  0
ARC
  5
1C2
330
1F
100
AcDbEntity
  8
0
  6
CONTINUOUS
 62
     7
100
AcDbCircle
 10
177.8976716978
 20
101.9803723061
 30
0.0
 40
1.587500000000006
100
AcDbArc
 50
0.0
 51
90.0
  0
LINE
  5
1C3
330
1F
100
AcDbEntity
  8
0
  6
CONTINUOUS
 62
     7
100
AcDbLine
 10
177.8976716978
 20
103.5678723061
 30
0.0
 11
163.2926716978
 21
103.5678723061
 31
0.0
  0
ARC
  5
1C4
330
1F
100
AcDbEntity
  8
0
  6
CONTINUOUS
 62
     7
100
AcDbCircle
 10
163.2926716978
 20
101.9803723061
 30
0.0
 40
1.587500000000006
100
AcDbArc
 50
90.0
 51
180.0
  0
LINE
  5
1C5
330
1F
100
AcDbEntity
  8
0
  6
CONTINUOUS
 62
     7
100
AcDbLine
 10
161.7051716978
 20
101.9803723061
 30
0.0
 11
161.7051716978
 21
69.5953723061
 31
0.0
  0
ARC
  5
1C6
330
1F
100
AcDbEntity
  8
0
  6
CONTINUOUS
 62
     7
100
AcDbCircle
 10
208.0601716978
 20
67.3728723061
 30
0.0
 40
1.778000000000006
100
AcDbArc
 50
270.0
 51
0.0
  0
LINE
  5
1C7
330
1F
100
AcDbEntity
  8
0
  6
CONTINUOUS
 62
     7
100
AcDbLine
 10
161.0701716978
 20
65.5948723061
 30
0.0
 11
208.0601716978
 21
65.5948723061
 31
0.0
  0
ARC
  5
1C8
330
1F
100
AcDbEntity
  8
0
  6
CONTINUOUS
 62
     7
100
AcDbCircle
 10
161.0701716978
 20
67.3728723061
 30
0.0
 40
1.777999999999992
100
AcDbArc
 50
180.0
 51
270.0
  0
LINE
  5
1C9
330
1F
100
AcDbEntity
  8
0
  6
CONTINUOUS
 62
     7
100
AcDbLine
 10
159.2921716978
 20
104.2028723061
 30
0.0
 11
159.2921716978
 21
67.3728723061
 31
0.0
  0
ARC
  5
1CA
330
1F
100
AcDbEntity
  8
0
  6
CONTINUOUS
 62
     7
100
AcDbCircle
 10
161.0701716978
 20
104.2028723061
 30
0.0
 40
1.77800000000002
100
AcDbArc
 50
90.0
 51
180.0
  0
LINE
  5
1CB
330
1F
100
AcDbEntity
  8
0
  6
CONTINUOUS
 62
     7
100
AcDbLine
 10
208.0601716978
 20
105.9808723061
 30
0.0
 11
161.0701716978
 21
105.9808723061
 31
0.0
  0
LINE
  5
1CC
330
1F
100
AcDbEntity
  8
0
  6
CONTINUOUS
 62
     7
100
AcDbLine
 10
161.0701716978
 20
107.3778723061
 30
0.0
 11
208.0601716978
 21
107.3778723061
 31
0.0
  0
LINE
  5
1CD
330
1F
100
AcDbEntity
  8
0
  6
CONTINUOUS
 62
     7
100
AcDbLine
 10
161.0701716978
 20
107.3778723061
 30
0.0
 11
161.0701716978
 21
105.9808723061
 31
0.0
  0
LINE
  5
1CE
330
1F
100
AcDbEntity
  8
0
  6
CONTINUOUS
 62
     7
100
AcDbLine
 10
211.2351716978
 20
104.2028723061
 30
0.0
 11
211.2351716978
 21
67.3728723061
 31
0.0
  0
LINE
  5
1CF
330
1F
100
AcDbEntity
  8
0
  6
CONTINUOUS
 62
     7
100
AcDbLine
 10
209.8381716978
 20
67.3728723061
 30
0.0
 11
211.2351716978
 21
67.3728723061
 31
0.0
  0
ARC
  5
1D0
330
1F
100
AcDbEntity
  8
0
  6
CONTINUOUS
 62
     7
100
AcDbCircle
 10
208.0601716978
 20
67.3728723061
 30
0.0
 40
3.175000000000011
100
AcDbArc
 50
270.0
 51
0.0
  0
LINE
  5
1D1
330
1F
100
AcDbEntity
  8
0
  6
CONTINUOUS
 62
     7
100
AcDbLine
 10
208.0601716978
 20
65.5948723061
 30
0.0
 11
208.0601716978
 21
64.1978723061
 31
0.0
  0
LINE
  5
1D2
330
1F
100
AcDbEntity
  8
0
  6
CONTINUOUS
 62
     7
100
AcDbLine
 10
208.0601716978
 20
64.1978723061
 30
0.0
 11
161.0701716978
 21
64.1978723061
 31
0.0
  0
LINE
  5
1D3
330
1F
100
AcDbEntity
  8
0
  6
CONTINUOUS
 62
     7
100
AcDbLine
 10
161.0701716978
 20
65.5948723061
 30
0.0
 11
161.0701716978
 21
64.1978723061
 31
0.0
  0
ARC
  5
1D4
330
1F
100
AcDbEntity
  8
0
  6
CONTINUOUS
 62
     7
100
AcDbCircle
 10
161.0701716978
 20
104.2028723061
 30
0.0
 40
3.175000000000011
100
AcDbArc
 50
90.0
 51
180.0
  0
LINE
  5
1D5
330
1F
100
AcDbEntity
  8
0
  6
CONTINUOUS
 62
     7
100
AcDbLine
 10
157.8951716978
 20
104.2028723061
 30
0.0
 11
159.2921716978
 21
104.2028723061
 31
0.0
  0
LINE
  5
1D6
330
1F
100
AcDbEntity
  8
0
  6
CONTINUOUS
 62
     7
100
AcDbLine
 10
157.8951716978
 20
67.3728723061
 30
0.0
 11
157.8951716978
 21
104.2028723061
 31
0.0
  0
LINE
  5
1D7
330
1F
100
AcDbEntity
  8
0
  6
CONTINUOUS
 62
     7
100
AcDbLine
 10
157.8951716978
 20
67.3728723061
 30
0.0
 11
159.2921716978
 21
67.3728723061
 31
0.0
  0
ARC
  5
1D8
330
1F
100
AcDbEntity
  8
0
  6
CONTINUOUS
 62
     7
100
AcDbCircle
 10
161.0701716978
 20
67.3728723061
 30
0.0
 40
3.174999999999983
100
AcDbArc
 50
180.0
 51
270.0
  0
LINE
  5
1D9
330
1F
100
AcDbEntity
  8
0
  6
CONTINUOUS
 62
     8
100
AcDbLine
 10
209.8381716978
 20
67.3728723061
 30
0.0
 11
209.8381716978
 21
79.4137879797
 31
0.0
  0
LINE
  5
1DA
330
1F
100
AcDbEntity
  8
0
  6
CONTINUOUS
 62
     8
100
AcDbLine
 10
209.8381716978
 20
92.1619566325
 30
0.0
 11
209.8381716978
 21
104.2028723061
 31
0.0
  0
DIMENSION
  5
1DB
330
1F
100
AcDbEntity
  8
0
  6
CONTINUOUS
 62
     7
100
AcDbDimension
  2
_D_3
 10
211.2351716978
 20
117.3778723061
 30
0.0
 11
179.8090977686
 21
117.3778723061
 31
0.0
 70
   160
  1
<>
  3
SLDDIMSTYLE1
100
AcDbAlignedDimension
 13
195.9951716978
 23
85.7878723061
 33
0.0
 14
211.2351716978
 24
104.2028723061
 34
0.0
100
AcDbRotatedDimension
  0
DIMENSION
  5
1EF
330
1F
100
AcDbEntity
  8
0
  6
CONTINUOUS
 62
     7
100
AcDbDimension
  2
_D_4
 10
135.8651716978
 20
64.1978723061
 30
0.0
 11
135.8651716978
 21
85.7878723061
 31
0.0
 70
   160
  1
<>
  3
SLDDIMSTYLE1
100
AcDbAlignedDimension
 13
161.0701716978
 23
107.3778723061
 33
0.0
 14
161.0701716978
 24
64.1978723061
 34
0.0
 50
90.0
100
AcDbRotatedDimension
  0
DIMENSION
  5
203
330
1F
100
AcDbEntity
  8
0
  6
CONTINUOUS
 62
     7
100
AcDbDimension
  2
_D_5
 10
123.8651716978
 20
107.3778723061
 30
0.0
 11
123.8651716978
 21
83.3778723061
 31
0.0
 70
   160
  1
<>
  3
SLDDIMSTYLE3
100
AcDbAlignedDimension
 13
190.9151716978
 23
59.3778723061
 33
0.0
 14
161.0701716978
 24
107.3778723061
 34
0.0
 50
90.0
100
AcDbRotatedDimension
  0
DIMENSION
  5
218
330
1F
100
AcDbEntity
  8
0
  6
CONTINUOUS
 62
     7
100
AcDbDimension
  2
_D_6
 10
238.0551716978
 20
85.7878723061
 30
0.0
 11
238.0551716978
 21
72.5828723061
 31
0.0
 70
   160
  1
<>
  3
SLDDIMSTYLE1
100
AcDbAlignedDimension
 13
201.0751716978
 23
59.3778723061
 33
0.0
 14
195.9951716978
 24
85.7878723061
 34
0.0
 50
90.0
100
AcDbRotatedDimension
  0
DIMENSION
  5
22C
330
1F
100
AcDbEntity
  8
0
  6
CONTINUOUS
 62
     7
100
AcDbDimension
  2
_D_7
 10
216.0551716978
 20
135.3778723061
 30
0.0
 11
180.9601716978
 21
135.3778723061
 31
0.0
 70
   160
  1
<>
  3
SLDDIMSTYLE1
100
AcDbAlignedDimension
 13
145.8651716978
 23
85.5313906289
 33
0.0
 14
216.0551716978
 24
90.8678723061
 34
0.0
100
AcDbRotatedDimension
  0
DIMENSION
  5
240
330
1F
100
AcDbEntity
  8
0
  6
CONTINUOUS
 62
     7
100
AcDbDimension
  2
_D_8
 10
195.9951716978
 20
126.8088274197
 30
0.0
 11
238.0551716978
 21
126.8088274197
 31
0.0
 70
   160
  1
<>
  3
SLDDIMSTYLE1
100
AcDbAlignedDimension
 13
216.0551716978
 23
90.8678723061
 33
0.0
 14
195.9951716978
 24
85.7878723061
 34
0.0
100
AcDbRotatedDimension
  0
DIMENSION
  5
254
330
1F
100
AcDbEntity
  8
0
  6
CONTINUOUS
 62
     7
100
AcDbDimension
  2
_D_9
 10
211.2351716978
 20
49.3778723061
 30
0.0
 11
184.5651716978
 21
49.3778723061
 31
0.0
 70
   160
  1
<>
  3
SLDDIMSTYLE1
100
AcDbAlignedDimension
 13
157.8951716978
 23
67.3728723061
 33
0.0
 14
211.2351716978
 24
67.3728723061
 34
0.0
100
AcDbRotatedDimension
  0
MTEXT
  5
269
330
1F
100
AcDbEntity
  8
0
  6
CONTINUOUS
 62
     7
100
AcDbMText
 10
226.2335362644
 20
46.2704306366
 30
0.0
 40
2.1166666667
 41
0.0
 71
     1
 72
     1
  1
2X M4 X 0.7 X 6.35mm THREAD
  7
SLDTEXTSTYLE3
  0
MTEXT
  5
26A
330
1F
100
AcDbEntity
  8
0
  6
CONTINUOUS
 62
     7
100
AcDbMText
 10
226.1429839412
 20
110.8884780214
 30
0.0
 40
2.1166666667
 41
0.0
 71
     1
 72
     1
  1
SM05 (0.535-40) INTERNAL THREAD
  7
SLDTEXTSTYLE0
  0
LEADER
  5
26B
330
1F
100
AcDbEntity
  8
0
  6
CONTINUOUS
 62
     7
100
AcDbLeader
  3
SLDDIMSTYLE2
 76
     3
 10
200.2583293255
 20
90.6133173893
 30
0.0
 10
219.2202524698
 20
109.8774576149
 30
0.0
 10
225.5702524698
 20
109.8774576149
 30
0.0
1001
ACAD
1000
DSTYLE
1002
{
1070
     6
1000

1002
}
  0
SOLID
  5
26C
330
1F
100
AcDbEntity
  8
0
  6
CONTINUOUS
 62
     7
100
AcDbTrace
 10
213.272293539
 20
80.4578723061
 30
0.0
 11
213.6564008075
 21
77.2655141485
 31
0.0
 12
214.633280993
 22
77.5447293041
 32
0.0
 13
214.633280993
 23
77.5447293041
 33
0.0
  0
SOLID
  5
26D
330
1F
100
AcDbEntity
  8
0
  6
CONTINUOUS
 62
     7
100
AcDbTrace
 10
201.2618585473
 20
60.2847485693
 30
0.0
 11
203.5833534346
 21
58.0600349949
 31
0.0
 12
204.1615981748
 22
58.8954325173
 32
0.0
 13
204.1615981748
 23
58.8954325173
 33
0.0
  0
LINE
  5
26E
330
1F
100
AcDbEntity
  8
0
  6
CONTINUOUS
 62
     7
100
AcDbLine
 10
201.2618585473
 20
60.2847485693
 30
0.0
 11
223.422531825
 21
44.9455927552
 31
0.0
  0
LINE
  5
26F
330
1F
100
AcDbEntity
  8
0
  6
CONTINUOUS
 62
     7
100
AcDbLine
 10
223.422531825
 20
44.9455927552
 30
0.0
 11
225.0343943822
 21
45.0603732162
 31
0.0
  0
LINE
  5
270
330
1F
100
AcDbEntity
  8
0
  6
CONTINUOUS
 62
     7
100
AcDbLine
 10
225.0343943822
 20
45.0603732162
 30
0.0
 11
226.1800219539
 21
45.0603732162
 31
0.0
  0
LINE
  5
271
330
1F
100
AcDbEntity
  8
0
  6
CONTINUOUS
 62
     7
100
AcDbLine
 10
223.422531825
 20
44.9455927552
 30
0.0
 11
213.272293539
 21
80.4578723061
 31
0.0
  0
LINE
  5
272
330
1F
100
AcDbEntity
  8
0
  6
CENTERX2
 62
     7
100
AcDbLine
 10
195.9951716978
 20
69.4978723061
 30
0.0
 11
195.9951716978
 21
57.3778723061
 31
0.0
  0
LINE
  5
273
330
1F
100
AcDbEntity
  8
0
  6
CONTINUOUS
 62
     7
100
AcDbLine
 10
215.8051716978
 20
182.597014717
 30
0.0
 11
216.0551716978
 21
182.847014717
 31
0.0
  0
LINE
  5
274
330
1F
100
AcDbEntity
  8
0
  6
CONTINUOUS
 62
     7
100
AcDbLine
 10
216.0551716978
 20
193.007014717
 30
0.0
 11
215.8051716978
 21
193.257014717
 31
0.0
  0
LINE
  5
275
330
1F
100
AcDbEntity
  8
0
  6
CONTINUOUS
 62
     7
100
AcDbLine
 10
214.0551716978
 20
182.597014717
 30
0.0
 11
215.8051716978
 21
182.597014717
 31
0.0
  0
LINE
  5
276
330
1F
100
AcDbEntity
  8
0
  6
CONTINUOUS
 62
     7
100
AcDbLine
 10
215.8051716978
 20
193.257014717
 30
0.0
 11
214.0551716978
 21
193.257014717
 31
0.0
  0
LINE
  5
277
330
1F
100
AcDbEntity
  8
0
  6
CONTINUOUS
 62
     7
100
AcDbLine
 10
211.2351716978
 20
182.597014717
 30
0.0
 11
213.5551716978
 21
182.597014717
 31
0.0
  0
LINE
  5
278
330
1F
100
AcDbEntity
  8
0
  6
CONTINUOUS
 62
     7
100
AcDbLine
 10
213.5551716978
 20
193.257014717
 30
0.0
 11
211.2351716978
 21
193.257014717
 31
0.0
  0
LINE
  5
279
330
1F
100
AcDbEntity
  8
0
  6
CONTINUOUS
 62
     7
100
AcDbLine
 10
213.5551716978
 20
182.597014717
 30
0.0
 11
213.8051716978
 21
182.847014717
 31
0.0
  0
LINE
  5
27A
330
1F
100
AcDbEntity
  8
0
  6
CONTINUOUS
 62
     7
100
AcDbLine
 10
213.8051716978
 20
193.007014717
 30
0.0
 11
213.5551716978
 21
193.257014717
 31
0.0
  0
LINE
  5
27B
330
1F
100
AcDbEntity
  8
0
  6
CONTINUOUS
 62
     7
100
AcDbLine
 10
214.0551716978
 20
193.257014717
 30
0.0
 11
213.8051716978
 21
193.007014717
 31
0.0
  0
LINE
  5
27C
330
1F
100
AcDbEntity
  8
0
  6
CONTINUOUS
 62
     7
100
AcDbLine
 10
213.8051716978
 20
182.847014717
 30
0.0
 11
214.0551716978
 21
182.597014717
 31
0.0
  0
LINE
  5
27D
330
1F
100
AcDbEntity
  8
0
  6
CONTINUOUS
 62
     7
100
AcDbLine
 10
211.2351716978
 20
177.005014717
 30
0.0
 11
210.9811716978
 21
177.259014717
 31
0.0
  0
LINE
  5
27E
330
1F
100
AcDbEntity
  8
0
  6
CONTINUOUS
 62
     7
100
AcDbLine
 10
181.0091716978
 20
177.259014717
 30
0.0
 11
180.7551716978
 21
177.005014717
 31
0.0
  0
LINE
  5
27F
330
1F
100
AcDbEntity
  8
0
  6
CONTINUOUS
 62
     7
100
AcDbLine
 10
211.2351716978
 20
170.147014717
 30
0.0
 11
211.2351716978
 21
177.005014717
 31
0.0
  0
LINE
  5
280
330
1F
100
AcDbEntity
  8
0
  6
CONTINUOUS
 62
     7
100
AcDbLine
 10
180.7551716978
 20
177.005014717
 30
0.0
 11
180.7551716978
 21
170.147014717
 31
0.0
  0
LINE
  5
281
330
1F
100
AcDbEntity
  8
0
  6
CONTINUOUS
 62
     7
100
AcDbLine
 10
180.7551716978
 20
170.147014717
 30
0.0
 11
181.0091716978
 21
169.893014717
 31
0.0
  0
LINE
  5
282
330
1F
100
AcDbEntity
  8
0
  6
CONTINUOUS
 62
     7
100
AcDbLine
 10
210.9811716978
 20
169.893014717
 30
0.0
 11
211.2351716978
 21
170.147014717
 31
0.0
  0
ARC
  5
283
330
1F
100
AcDbEntity
  8
0
  6
CONTINUOUS
 62
     7
100
AcDbCircle
 10
157.8951716978
 20
191.864014717
 30
0.0
 40
1.650000000000006
100
AcDbArc
 50
90.0
 51
177.96808482
  0
LINE
  5
284
330
1F
100
AcDbEntity
  8
0
  6
CONTINUOUS
 62
     7
100
AcDbLine
 10
159.9652716978
 20
196.3244756541
 30
0.0
 11
159.9652716978
 21
196.3244756541
 31
0.0
  0
LINE
  5
285
330
1F
100
AcDbEntity
  8
0
  6
CONTINUOUS
 62
     7
100
AcDbLine
 10
164.0800716978
 20
196.3244756541
 30
0.0
 11
164.0800716978
 21
196.3244756541
 31
0.0
  0
LINE
  5
286
330
1F
100
AcDbEntity
  8
0
  6
CONTINUOUS
 62
     7
100
AcDbLine
 10
205.0502716978
 20
196.3244756541
 30
0.0
 11
205.0502716978
 21
196.3244756541
 31
0.0
  0
LINE
  5
287
330
1F
100
AcDbEntity
  8
0
  6
CONTINUOUS
 62
     7
100
AcDbLine
 10
209.1650716978
 20
196.3244756541
 30
0.0
 11
209.1650716978
 21
196.3244756541
 31
0.0
  0
LINE
  5
288
330
1F
100
AcDbEntity
  8
0
  6
CONTINUOUS
 62
     7
100
AcDbLine
 10
155.6853716978
 20
191.9225174089
 30
0.0
 11
149.3353716978
 21
190.799014717
 31
0.0
  0
LINE
  5
289
330
1F
100
AcDbEntity
  8
0
  6
CONTINUOUS
 62
     7
100
AcDbLine
 10
149.3353716978
 20
181.499014717
 30
0.0
 11
155.6853716978
 21
180.3755120251
 31
0.0
  0
LINE
  5
28A
330
1F
100
AcDbEntity
  8
0
  6
CONTINUOUS
 62
     7
100
AcDbLine
 10
156.6451716978
 20
179.9755722401
 30
0.0
 11
157.8951716978
 21
179.9755722401
 31
0.0
  0
LINE
  5
28B
330
1F
100
AcDbEntity
  8
0
  6
CONTINUOUS
 62
     7
100
AcDbLine
 10
145.8651716978
 20
181.4255722401
 30
0.0
 11
147.8076094155
 21
181.4255722401
 31
0.0
  0
LINE
  5
28C
330
1F
100
AcDbEntity
  8
0
  6
CONTINUOUS
 62
     7
100
AcDbLine
 10
147.8076094155
 20
191.0255722401
 30
0.0
 11
145.8651716978
 21
191.0255722401
 31
0.0
  0
LINE
  5
28D
330
1F
100
AcDbEntity
  8
0
  6
CONTINUOUS
 62
     7
100
AcDbLine
 10
151.0651716978
 20
191.105067466
 30
0.0
 11
151.0651716978
 21
191.6055722401
 31
0.0
  0
LINE
  5
28E
330
1F
100
AcDbEntity
  8
0
  6
CONTINUOUS
 62
     7
100
AcDbLine
 10
149.0651716978
 20
191.6055722401
 30
0.0
 11
149.0651716978
 21
190.9055722401
 31
0.0
  0
LINE
  5
28F
330
1F
100
AcDbEntity
  8
0
  6
CONTINUOUS
 62
     7
100
AcDbLine
 10
149.0651716978
 20
181.5455722401
 30
0.0
 11
149.0651716978
 21
180.8455722401
 31
0.0
  0
LINE
  5
290
330
1F
100
AcDbEntity
  8
0
  6
CONTINUOUS
 62
     7
100
AcDbLine
 10
151.0651716978
 20
180.8455722401
 30
0.0
 11
151.0651716978
 21
181.1929619679
 31
0.0
  0
LINE
  5
291
330
1F
100
AcDbEntity
  8
0
  6
CONTINUOUS
 62
     7
100
AcDbLine
 10
215.8051716978
 20
186.2256709915
 30
0.0
 11
215.8051716978
 21
193.257014717
 31
0.0
  0
LINE
  5
292
330
1F
100
AcDbEntity
  8
0
  6
CONTINUOUS
 62
     7
100
AcDbLine
 10
215.8051716978
 20
182.597014717
 30
0.0
 11
215.8051716978
 21
186.2256709915
 31
0.0
  0
LINE
  5
293
330
1F
100
AcDbEntity
  8
0
  6
CONTINUOUS
 62
     7
100
AcDbLine
 10
216.0551716978
 20
186.3054713538
 30
0.0
 11
216.0551716978
 21
182.847014717
 31
0.0
  0
LINE
  5
294
330
1F
100
AcDbEntity
  8
0
  6
CONTINUOUS
 62
     7
100
AcDbLine
 10
216.0551716978
 20
193.007014717
 30
0.0
 11
216.0551716978
 21
186.3054713538
 31
0.0
  0
LINE
  5
295
330
1F
100
AcDbEntity
  8
0
  6
CONTINUOUS
 62
     7
100
AcDbLine
 10
214.0551716978
 20
193.257014717
 30
0.0
 11
214.0551716978
 21
182.597014717
 31
0.0
  0
LINE
  5
296
330
1F
100
AcDbEntity
  8
0
  6
CONTINUOUS
 62
     7
100
AcDbLine
 10
213.5551716978
 20
193.257014717
 30
0.0
 11
213.5551716978
 21
182.597014717
 31
0.0
  0
LINE
  5
297
330
1F
100
AcDbEntity
  8
0
  6
CONTINUOUS
 62
     7
100
AcDbLine
 10
213.8051716978
 20
193.007014717
 30
0.0
 11
213.8051716978
 21
182.847014717
 31
0.0
  0
LINE
  5
298
330
1F
100
AcDbEntity
  8
0
  6
CONTINUOUS
 62
     7
100
AcDbLine
 10
210.9811716978
 20
177.259014717
 30
0.0
 11
209.8381716978
 21
177.259014717
 31
0.0
  0
LINE
  5
299
330
1F
100
AcDbEntity
  8
0
  6
CONTINUOUS
 62
     7
100
AcDbLine
 10
211.2351716978
 20
177.005014717
 30
0.0
 11
180.7551716978
 21
177.005014717
 31
0.0
  0
LINE
  5
29A
330
1F
100
AcDbEntity
  8
0
  6
CONTINUOUS
 62
     7
100
AcDbLine
 10
211.2351716978
 20
170.147014717
 30
0.0
 11
180.7551716978
 21
170.147014717
 31
0.0
  0
LINE
  5
29B
330
1F
100
AcDbEntity
  8
0
  6
CONTINUOUS
 62
     7
100
AcDbLine
 10
210.9811716978
 20
169.893014717
 30
0.0
 11
181.0091716978
 21
169.893014717
 31
0.0
  0
LINE
  5
29C
330
1F
100
AcDbEntity
  8
0
  6
CONTINUOUS
 62
     7
100
AcDbLine
 10
161.2345866686
 20
196.3244756541
 30
0.0
 11
159.9652716978
 21
196.3244756541
 31
0.0
  0
LINE
  5
29D
330
1F
100
AcDbEntity
  8
0
  6
CONTINUOUS
 62
     7
100
AcDbLine
 10
164.0800716978
 20
196.3244756541
 30
0.0
 11
161.2345866686
 21
196.3244756541
 31
0.0
  0
LINE
  5
29E
330
1F
100
AcDbEntity
  8
0
  6
CONTINUOUS
 62
     7
100
AcDbLine
 10
206.3195866686
 20
196.3244756541
 30
0.0
 11
205.0502716978
 21
196.3244756541
 31
0.0
  0
LINE
  5
29F
330
1F
100
AcDbEntity
  8
0
  6
CONTINUOUS
 62
     7
100
AcDbLine
 10
209.1650716978
 20
196.3244756541
 30
0.0
 11
206.3195866686
 21
196.3244756541
 31
0.0
  0
LINE
  5
2A0
330
1F
100
AcDbEntity
  8
0
  6
CONTINUOUS
 62
     7
100
AcDbLine
 10
161.3876716978
 20
196.321714717
 30
0.0
 11
207.7426716978
 21
196.321714717
 31
0.0
  0
LINE
  5
2A1
330
1F
100
AcDbEntity
  8
0
  6
CONTINUOUS
 62
     7
100
AcDbLine
 10
210.2826716978
 20
196.321714717
 30
0.0
 11
210.2826716978
 21
196.321714717
 31
0.0
  0
LINE
  5
2A2
330
1F
100
AcDbEntity
  8
0
  6
CONTINUOUS
 62
     7
100
AcDbLine
 10
207.7426716978
 20
196.321714717
 30
0.0
 11
210.2826716978
 21
196.321714717
 31
0.0
  0
LINE
  5
2A3
330
1F
100
AcDbEntity
  8
0
  6
CONTINUOUS
 62
     7
100
AcDbLine
 10
158.8476716978
 20
196.321714717
 30
0.0
 11
158.8476716978
 21
196.321714717
 31
0.0
  0
LINE
  5
2A4
330
1F
100
AcDbEntity
  8
0
  6
CONTINUOUS
 62
     7
100
AcDbLine
 10
158.8476716978
 20
196.321714717
 30
0.0
 11
161.3876716978
 21
196.321714717
 31
0.0
  0
SPLINE
  5
2A5
330
1F
100
AcDbEntity
  8
0
  6
CONTINUOUS
 62
     7
100
AcDbSpline
210
0.0
220
0.0
230
1.0
 70
     8
 71
     3
 72
    32
 73
    28
 74
     0
 42
0.000000001
 43
0.00000001
 40
0.0
 40
0.0
 40
0.0
 40
0.0
 40
0.0894475094844955
 40
0.1790106521458959
 40
0.2241784790755972
 40
0.2694043052382074
 40
0.3149378703315082
 40
0.3606887171752701
 40
0.3939306430356188
 40
0.427616002300955
 40
0.4457566345655173
 40
0.4642073776908936
 40
0.4788916386220735
 40
0.4939669358001315
 40
0.5086711155898247
 40
0.5238671002972065
 40
0.5418191979990021
 40
0.5602766177462727
 40
0.5761692444806299
 40
0.5921895092040393
 40
0.624824605781813
 40
0.6787604734899325
 40
0.7332542510362409
 40
0.7886051669022041
 40
0.8440693177402017
 40
0.9219913566778738
 40
0.9999999999999999
 40
0.9999999999999999
 40
0.9999999999999999
 40
0.9999999999999999
 10
155.6853716977939
 20
183.262263371011
 30
0.0
 10
155.3795515948557
 20
183.3730923014536
 30
0.0
 10
154.7675160403523
 20
183.5948934363258
 30
0.0
 10
154.0136238445
 20
183.9060705641306
 30
0.0
 10
153.4191725862732
 20
184.1798621292977
 30
0.0
 10
152.9780554167498
 20
184.4032130514612
 30
0.0
 10
152.5465783187252
 20
184.649115078624
 30
0.0
 10
152.1693175828293
 20
184.9007665006821
 30
0.0
 10
151.8510039866844
 20
185.1595253655338
 30
0.0
 10
151.634547832764
 20
185.3824115294286
 30
0.0
 10
151.484421923785
 20
185.589870483387
 30
0.0
 10
151.3959816541688
 20
185.7549193502763
 30
0.0
 10
151.3382097542657
 20
185.9211375124795
 30
0.0
 10
151.3111276442365
 20
186.08143867981
 30
0.0
 10
151.3138434777642
 20
186.2458808035995
 30
0.0
 10
151.3484798911585
 20
186.4173422413309
 30
0.0
 10
151.4185828381603
 20
186.5925099897897
 30
0.0
 10
151.5167592065796
 20
186.7561369641206
 30
0.0
 10
151.6285886934153
 20
186.9015237618135
 30
0.0
 10
151.7871671036964
 20
187.0748780746854
 30
0.0
 10
152.0666834909312
 20
187.3232955120394
 30
0.0
 10
152.4891700088738
 20
187.6163274216133
 30
0.0
 10
153.0065651884854
 20
187.9120780842565
 30
0.0
 10
153.5451748181129
 20
188.1795843289692
 30
0.0
 10
154.1722050918553
 20
188.4589046996125
 30
0.0
 10
154.8852697397196
 20
188.7466658490854
 30
0.0
 10
155.4185723124683
 20
188.9393636499812
 30
0.0
 10
155.6853716977939
 20
189.0357660629072
 30
0.0
  0
SPLINE
  5
2A6
330
1F
100
AcDbEntity
  8
0
  6
CONTINUOUS
 62
     7
100
AcDbSpline
210
0.0
220
0.0
230
1.0
 70
     8
 71
     3
 72
    28
 73
    24
 74
     0
 42
0.000000001
 43
0.00000001
 40
0.0
 40
0.0
 40
0.0
 40
0.0
 40
0.0972255113431566
 40
0.1946090893191804
 40
0.2432285039851775
 40
0.2919391723643762
 40
0.3411926083129179
 40
0.3908904120334232
 40
0.4337685099882879
 40
0.4551788160454086
 40
0.4772625435513977
 40
0.5053813864235486
 40
0.5334936149755953
 40
0.5541615852685426
 40
0.5753873246440486
 40
0.6002304370079948
 40
0.6253393947562293
 40
0.6766345550155394
 40
0.7299024203613874
 40
0.7833926898685577
 40
0.8371588471283048
 40
0.8899244298408798
 40
1.0
 40
1.0
 40
1.0
 40
1.0
 10
155.6853716977939
 20
180.3755120250628
 30
0.0
 10
155.3531226466903
 20
180.4358366414718
 30
0.0
 10
154.6880843828726
 20
180.5565839484357
 30
0.0
 10
153.8721089929977
 20
180.7276325304736
 30
0.0
 10
153.2328318607892
 20
180.8797763767578
 30
0.0
 10
152.7622054208368
 20
181.0049990358847
 30
0.0
 10
152.3045612791528
 20
181.1458046164564
 30
0.0
 10
151.8924845677873
 20
181.3016133221238
 30
0.0
 10
151.601840358314
 20
181.451460796507
 30
0.0
 10
151.4302279101489
 20
181.583654746683
 30
0.0
 10
151.3295626769045
 20
181.7047122328933
 30
0.0
 10
151.2971150170353
 20
181.8491644188902
 30
0.0
 10
151.3660450386176
 20
181.9872864037598
 30
0.0
 10
151.4851912626827
 20
182.1003297815201
 30
0.0
 10
151.6300327797031
 20
182.1981123197052
 30
0.0
 10
151.8088658161505
 20
182.2919971213218
 30
0.0
 10
152.0872186401272
 20
182.4127014600388
 30
0.0
 10
152.4749289214272
 20
182.5477715754763
 30
0.0
 10
152.9730466144377
 20
182.6913277709206
 30
0.0
 10
153.4949113691754
 20
182.8221941665907
 30
0.0
 10
154.0254471015455
 20
182.9416396549785
 30
0.0
 10
154.7528057755606
 20
183.0926804323823
 30
0.0
 10
155.3092396511359
 20
183.1938654419595
 30
0.0
 10
155.6853716977939
 20
183.262263371011
 30
0.0
  0
SPLINE
  5
2A7
330
1F
100
AcDbEntity
  8
0
  6
CONTINUOUS
 62
     7
100
AcDbSpline
210
0.0
220
0.0
230
1.0
 70
     8
 71
     3
 72
    27
 73
    23
 74
     0
 42
0.000000001
 43
0.00000001
 40
0.0
 40
0.0
 40
0.0
 40
0.0
 40
0.0972277632602394
 40
0.194613596814453
 40
0.2432341375932258
 40
0.2919459341988001
 40
0.3412005109451869
 40
0.3908994657558921
 40
0.4337785568443459
 40
0.4551893588025231
 40
0.477273597807218
 40
0.5053930919621615
 40
0.5335059716438016
 40
0.5541744206439805
 40
0.5754006516456511
 40
0.6002443394206032
 40
0.6253538787372998
 40
0.6766502270844531
 40
0.7566138452622115
 40
0.8371539347689371
 40
0.9185257892858305
 40
1.0
 40
1.0
 40
1.0
 40
1.0
 10
155.6853716977939
 20
189.0357660629072
 30
0.0
 10
155.3531226466903
 20
189.0960906793163
 30
0.0
 10
154.6880843828724
 20
189.2168379862803
 30
0.0
 10
153.8721089929982
 20
189.3878865683172
 30
0.0
 10
153.2328318607883
 20
189.5400304146035
 30
0.0
 10
152.7622054208402
 20
189.6652530737239
 30
0.0
 10
152.3045612791396
 20
189.8060586543209
 30
0.0
 10
151.8924845678337
 20
189.9618673598969
 30
0.0
 10
151.6018403581976
 20
190.1117148345301
 30
0.0
 10
151.4302279103533
 20
190.2439087842138
 30
0.0
 10
151.329562676003
 20
190.364966272121
 30
0.0
 10
151.2971150214402
 20
190.509418449975
 30
0.0
 10
151.3660450241402
 20
190.6475404638207
 30
0.0
 10
151.4851913014712
 20
190.760583759841
 30
0.0
 10
151.6300326181712
 20
190.8583666054304
 30
0.0
 10
151.8088665376079
 20
190.9522500520448
 30
0.0
 10
152.0872147326098
 20
191.0729614942129
 30
0.0
 10
152.5547821452509
 20
191.235768910982
 30
0.0
 10
153.230731589309
 20
191.4213575060177
 30
0.0
 10
154.0300935252146
 20
191.6049308118903
 30
0.0
 10
154.8500899789674
 20
191.7714731876678
 30
0.0
 10
155.4068278131242
 20
191.872148242168
 30
0.0
 10
155.6853716977939
 20
191.9225174088554
 30
0.0
  0
LINE
  5
2A8
330
1F
100
AcDbEntity
  8
0
  6
CONTINUOUS
 62
     7
100
AcDbLine
 10
149.3353716978
 20
190.799014717
 30
0.0
 11
149.3353716978
 21
181.499014717
 31
0.0
  0
LINE
  5
2A9
330
1F
100
AcDbEntity
  8
0
  6
CONTINUOUS
 62
     7
100
AcDbLine
 10
157.8951716978
 20
183.262263371
 30
0.0
 11
155.6853716978
 21
183.262263371
 31
0.0
  0
LINE
  5
2AA
330
1F
100
AcDbEntity
  8
0
  6
CONTINUOUS
 62
     7
100
AcDbLine
 10
157.8951716978
 20
180.3755120251
 30
0.0
 11
155.6853716978
 21
180.3755120251
 31
0.0
  0
LINE
  5
2AB
330
1F
100
AcDbEntity
  8
0
  6
CONTINUOUS
 62
     7
100
AcDbLine
 10
157.8951716978
 20
191.9225174089
 30
0.0
 11
155.6853716978
 21
191.9225174089
 31
0.0
  0
LINE
  5
2AC
330
1F
100
AcDbEntity
  8
0
  6
CONTINUOUS
 62
     7
100
AcDbLine
 10
157.8951716978
 20
189.0357660629
 30
0.0
 11
155.6853716978
 21
189.0357660629
 31
0.0
  0
LINE
  5
2AD
330
1F
100
AcDbEntity
  8
0
  6
CONTINUOUS
 62
     7
100
AcDbLine
 10
156.6451716978
 20
180.3755120251
 30
0.0
 11
156.6451716978
 21
179.9755722401
 31
0.0
  0
SPLINE
  5
2AE
330
1F
100
AcDbEntity
  8
0
  6
CONTINUOUS
 62
     7
100
AcDbSpline
210
0.0
220
0.0
230
1.0
 70
     8
 71
     3
 72
     9
 73
     5
 74
     0
 42
0.000000001
 43
0.00000001
 40
0.0
 40
0.0
 40
0.0
 40
0.0
 40
0.4337661338363247
 40
1.0
 40
1.0
 40
1.0
 40
1.0
 10
149.3353716977939
 20
181.6157606655377
 30
0.0
 10
149.2497301104099
 20
181.6082379021204
 30
0.0
 10
149.0522928724528
 20
181.5908950004263
 30
0.0
 10
148.8562039094353
 20
181.5619575847964
 30
0.0
 10
148.7451716977939
 20
181.5455722400675
 30
0.0
  0
LINE
  5
2AF
330
1F
100
AcDbEntity
  8
0
  6
CONTINUOUS
 62
     7
100
AcDbLine
 10
148.7451716978
 20
190.9055722401
 30
0.0
 11
148.7451716978
 21
181.5455722401
 31
0.0
  0
SPLINE
  5
2B0
330
1F
100
AcDbEntity
  8
0
  6
CONTINUOUS
 62
     7
100
AcDbSpline
210
0.0
220
0.0
230
1.0
 70
     8
 71
     3
 72
    10
 73
     6
 74
     0
 42
0.000000001
 43
0.00000001
 40
0.0
 40
0.0
 40
0.0
 40
0.0
 40
0.0950350048423784
 40
0.5468180330291232
 40
1.0
 40
1.0
 40
1.0
 40
1.0
 10
149.4836818631435
 20
190.8252551689285
 30
0.0
 10
149.4601489333746
 20
190.8260241176573
 30
0.0
 10
149.3247437698878
 20
190.8304485403432
 30
0.0
 10
149.0782724579636
 20
190.8587644754066
 30
0.0
 10
148.8563196529876
 20
190.8899535806367
 30
0.0
 10
148.7451716977939
 20
190.9055722400676
 30
0.0
  0
LINE
  5
2B1
330
1F
100
AcDbEntity
  8
0
  6
CONTINUOUS
 62
     7
100
AcDbLine
 10
148.0714565727
 20
190.9055722401
 30
0.0
 11
148.7451716978
 21
190.9055722401
 31
0.0
  0
LINE
  5
2B2
330
1F
100
AcDbEntity
  8
0
  6
CONTINUOUS
 62
     7
100
AcDbLine
 10
148.7451716978
 20
181.5455722401
 30
0.0
 11
148.0714565727
 21
181.5455722401
 31
0.0
  0
SPLINE
  5
2B3
330
1F
100
AcDbEntity
  8
0
  6
CONTINUOUS
 62
     7
100
AcDbSpline
210
0.0
220
0.0
230
1.0
 70
     8
 71
     3
 72
    11
 73
     7
 74
     0
 42
0.000000001
 43
0.00000001
 40
0.0
 40
0.0
 40
0.0
 40
0.0
 40
0.3152057054630651
 40
0.6390530284367282
 40
0.954424520089737
 40
1.0
 40
1.0
 40
1.0
 40
1.0
 10
148.071456572707
 20
181.5455722400675
 30
0.0
 10
148.0211609452908
 20
181.5236925370946
 30
0.0
 10
147.9191907954476
 20
181.4793332815235
 30
0.0
 10
147.8354137359846
 20
181.4402733039577
 30
0.0
 10
147.7974668872675
 20
181.4224662890798
 30
0.0
 10
147.806472330462
 20
181.4266921622658
 30
0.0
 10
147.8076094154848
 20
181.4255722400676
 30
0.0
  0
SPLINE
  5
2B4
330
1F
100
AcDbEntity
  8
0
  6
CONTINUOUS
 62
     7
100
AcDbSpline
210
0.0
220
0.0
230
1.0
 70
     8
 71
     3
 72
    11
 73
     7
 74
     0
 42
0.000000001
 43
0.00000001
 40
0.0
 40
0.0
 40
0.0
 40
0.0
 40
0.3152057054630082
 40
0.6390530284366119
 40
0.9544245200895464
 40
1.0
 40
1.0
 40
1.0
 40
1.0
 10
148.071456572707
 20
190.9055722400676
 30
0.0
 10
148.0211609452908
 20
190.9274519430404
 30
0.0
 10
147.9191907954476
 20
190.9718111986116
 30
0.0
 10
147.8354137359846
 20
191.0108711761773
 30
0.0
 10
147.7974668872675
 20
191.0286781910553
 30
0.0
 10
147.806472330462
 20
191.0244523178693
 30
0.0
 10
147.8076094154848
 20
191.0255722400676
 30
0.0
  0
LINE
  5
2B5
330
1F
100
AcDbEntity
  8
0
  6
CONTINUOUS
 62
     7
100
AcDbLine
 10
145.8651716978
 20
181.4255722401
 30
0.0
 11
145.8651716978
 21
191.0255722401
 31
0.0
  0
LINE
  5
2B6
330
1F
100
AcDbEntity
  8
0
  6
CONTINUOUS
 62
     7
100
AcDbLine
 10
149.9376312888
 20
190.9055722401
 30
0.0
 11
148.7451716978
 21
190.9055722401
 31
0.0
  0
LINE
  5
2B7
330
1F
100
AcDbEntity
  8
0
  6
CONTINUOUS
 62
     7
100
AcDbLine
 10
149.3353716978
 20
181.499014717
 30
0.0
 11
148.7451716978
 21
181.5455722401
 31
0.0
  0
LINE
  5
2B8
330
1F
100
AcDbEntity
  8
0
  6
CONTINUOUS
 62
     7
100
AcDbLine
 10
150.0651716978
 20
191.6055722401
 30
0.0
 11
149.0651716978
 21
191.6055722401
 31
0.0
  0
LINE
  5
2B9
330
1F
100
AcDbEntity
  8
0
  6
CONTINUOUS
 62
     7
100
AcDbLine
 10
151.0651716978
 20
191.6055722401
 30
0.0
 11
150.0651716978
 21
191.6055722401
 31
0.0
  0
LINE
  5
2BA
330
1F
100
AcDbEntity
  8
0
  6
CONTINUOUS
 62
     7
100
AcDbLine
 10
150.0651716978
 20
180.8455722401
 30
0.0
 11
149.0651716978
 21
180.8455722401
 31
0.0
  0
LINE
  5
2BB
330
1F
100
AcDbEntity
  8
0
  6
CONTINUOUS
 62
     7
100
AcDbLine
 10
151.0651716978
 20
180.8455722401
 30
0.0
 11
150.0651716978
 21
180.8455722401
 31
0.0
  0
LINE
  5
2BC
330
1F
100
AcDbEntity
  8
0
  6
CONTINUOUS
 62
     7
100
AcDbLine
 10
175.2259830978
 20
189.205214717
 30
0.0
 11
174.5259830978
 21
189.205214717
 31
0.0
  0
LINE
  5
2BD
330
1F
100
AcDbEntity
  8
0
  6
CONTINUOUS
 62
     7
100
AcDbLine
 10
174.4259830978
 20
189.305214717
 30
0.0
 11
174.5259830978
 21
189.205214717
 31
0.0
  0
LINE
  5
2BE
330
1F
100
AcDbEntity
  8
0
  6
CONTINUOUS
 62
     7
100
AcDbLine
 10
174.4259830978
 20
189.305214717
 30
0.0
 11
175.3259830978
 21
189.305214717
 31
0.0
  0
LINE
  5
2BF
330
1F
100
AcDbEntity
  8
0
  6
CONTINUOUS
 62
     7
100
AcDbLine
 10
175.2259830978
 20
189.205214717
 30
0.0
 11
175.3259830978
 21
189.305214717
 31
0.0
  0
LINE
  5
2C0
330
1F
100
AcDbEntity
  8
0
  6
CONTINUOUS
 62
     7
100
AcDbLine
 10
175.4759830978
 20
188.405214717
 30
0.0
 11
175.4759830978
 21
189.305214717
 31
0.0
  0
LINE
  5
2C1
330
1F
100
AcDbEntity
  8
0
  6
CONTINUOUS
 62
     7
100
AcDbLine
 10
175.4759830978
 20
189.305214717
 30
0.0
 11
175.5759830978
 21
189.205214717
 31
0.0
  0
LINE
  5
2C2
330
1F
100
AcDbEntity
  8
0
  6
CONTINUOUS
 62
     7
100
AcDbLine
 10
175.5759830978
 20
189.205214717
 30
0.0
 11
175.5759830978
 21
188.505214717
 31
0.0
  0
LINE
  5
2C3
330
1F
100
AcDbEntity
  8
0
  6
CONTINUOUS
 62
     7
100
AcDbLine
 10
175.4759830978
 20
188.405214717
 30
0.0
 11
175.5759830978
 21
188.505214717
 31
0.0
  0
LINE
  5
2C4
330
1F
100
AcDbEntity
  8
0
  6
CONTINUOUS
 62
     7
100
AcDbLine
 10
173.4759830978
 20
189.205214717
 30
0.0
 11
173.4759830978
 21
188.505214717
 31
0.0
  0
LINE
  5
2C5
330
1F
100
AcDbEntity
  8
0
  6
CONTINUOUS
 62
     7
100
AcDbLine
 10
173.3759830978
 20
188.405214717
 30
0.0
 11
173.4759830978
 21
188.505214717
 31
0.0
  0
LINE
  5
2C6
330
1F
100
AcDbEntity
  8
0
  6
CONTINUOUS
 62
     7
100
AcDbLine
 10
173.3759830978
 20
188.405214717
 30
0.0
 11
173.3759830978
 21
189.305214717
 31
0.0
  0
LINE
  5
2C7
330
1F
100
AcDbEntity
  8
0
  6
CONTINUOUS
 62
     7
100
AcDbLine
 10
173.4759830978
 20
189.205214717
 30
0.0
 11
173.3759830978
 21
189.305214717
 31
0.0
  0
LINE
  5
2C8
330
1F
100
AcDbEntity
  8
0
  6
CONTINUOUS
 62
     7
100
AcDbLine
 10
174.1759830978
 20
188.505214717
 30
0.0
 11
174.1759830978
 21
189.205214717
 31
0.0
  0
LINE
  5
2C9
330
1F
100
AcDbEntity
  8
0
  6
CONTINUOUS
 62
     7
100
AcDbLine
 10
174.1759830978
 20
189.205214717
 30
0.0
 11
174.2759830978
 21
189.305214717
 31
0.0
  0
LINE
  5
2CA
330
1F
100
AcDbEntity
  8
0
  6
CONTINUOUS
 62
     7
100
AcDbLine
 10
174.2759830978
 20
189.305214717
 30
0.0
 11
174.2759830978
 21
188.405214717
 31
0.0
  0
LINE
  5
2CB
330
1F
100
AcDbEntity
  8
0
  6
CONTINUOUS
 62
     7
100
AcDbLine
 10
174.2759830978
 20
188.405214717
 30
0.0
 11
174.1759830978
 21
188.505214717
 31
0.0
  0
LINE
  5
2CC
330
1F
100
AcDbEntity
  8
0
  6
CONTINUOUS
 62
     7
100
AcDbLine
 10
174.4259830978
 20
188.405214717
 30
0.0
 11
174.4259830978
 21
189.305214717
 31
0.0
  0
LINE
  5
2CD
330
1F
100
AcDbEntity
  8
0
  6
CONTINUOUS
 62
     7
100
AcDbLine
 10
174.5259830978
 20
189.205214717
 30
0.0
 11
174.5259830978
 21
188.505214717
 31
0.0
  0
LINE
  5
2CE
330
1F
100
AcDbEntity
  8
0
  6
CONTINUOUS
 62
     7
100
AcDbLine
 10
174.4259830978
 20
188.405214717
 30
0.0
 11
174.5259830978
 21
188.505214717
 31
0.0
  0
LINE
  5
2CF
330
1F
100
AcDbEntity
  8
0
  6
CONTINUOUS
 62
     7
100
AcDbLine
 10
176.2759830978
 20
189.205214717
 30
0.0
 11
175.5759830978
 21
189.205214717
 31
0.0
  0
LINE
  5
2D0
330
1F
100
AcDbEntity
  8
0
  6
CONTINUOUS
 62
     7
100
AcDbLine
 10
175.4759830978
 20
189.305214717
 30
0.0
 11
176.3759830978
 21
189.305214717
 31
0.0
  0
LINE
  5
2D1
330
1F
100
AcDbEntity
  8
0
  6
CONTINUOUS
 62
     7
100
AcDbLine
 10
176.2759830978
 20
189.205214717
 30
0.0
 11
176.3759830978
 21
189.305214717
 31
0.0
  0
LINE
  5
2D2
330
1F
100
AcDbEntity
  8
0
  6
CONTINUOUS
 62
     7
100
AcDbLine
 10
176.2759830978
 20
188.505214717
 30
0.0
 11
176.2759830978
 21
189.205214717
 31
0.0
  0
LINE
  5
2D3
330
1F
100
AcDbEntity
  8
0
  6
CONTINUOUS
 62
     7
100
AcDbLine
 10
176.3759830978
 20
189.305214717
 30
0.0
 11
176.3759830978
 21
188.405214717
 31
0.0
  0
LINE
  5
2D4
330
1F
100
AcDbEntity
  8
0
  6
CONTINUOUS
 62
     7
100
AcDbLine
 10
176.2759830978
 20
188.505214717
 30
0.0
 11
176.3759830978
 21
188.405214717
 31
0.0
  0
LINE
  5
2D5
330
1F
100
AcDbEntity
  8
0
  6
CONTINUOUS
 62
     7
100
AcDbLine
 10
175.2259830978
 20
188.505214717
 30
0.0
 11
175.2259830978
 21
189.205214717
 31
0.0
  0
LINE
  5
2D6
330
1F
100
AcDbEntity
  8
0
  6
CONTINUOUS
 62
     7
100
AcDbLine
 10
175.3259830978
 20
189.305214717
 30
0.0
 11
175.3259830978
 21
188.405214717
 31
0.0
  0
LINE
  5
2D7
330
1F
100
AcDbEntity
  8
0
  6
CONTINUOUS
 62
     7
100
AcDbLine
 10
175.2259830978
 20
188.505214717
 30
0.0
 11
175.3259830978
 21
188.405214717
 31
0.0
  0
LINE
  5
2D8
330
1F
100
AcDbEntity
  8
0
  6
CONTINUOUS
 62
     7
100
AcDbLine
 10
174.1759830978
 20
189.205214717
 30
0.0
 11
173.4759830978
 21
189.205214717
 31
0.0
  0
LINE
  5
2D9
330
1F
100
AcDbEntity
  8
0
  6
CONTINUOUS
 62
     7
100
AcDbLine
 10
173.3759830978
 20
189.305214717
 30
0.0
 11
174.2759830978
 21
189.305214717
 31
0.0
  0
LINE
  5
2DA
330
1F
100
AcDbEntity
  8
0
  6
CONTINUOUS
 62
     7
100
AcDbLine
 10
173.4759830978
 20
188.505214717
 30
0.0
 11
174.1759830978
 21
188.505214717
 31
0.0
  0
LINE
  5
2DB
330
1F
100
AcDbEntity
  8
0
  6
CONTINUOUS
 62
     7
100
AcDbLine
 10
174.5259830978
 20
188.505214717
 30
0.0
 11
175.2259830978
 21
188.505214717
 31
0.0
  0
LINE
  5
2DC
330
1F
100
AcDbEntity
  8
0
  6
CONTINUOUS
 62
     7
100
AcDbLine
 10
175.5759830978
 20
188.505214717
 30
0.0
 11
176.2759830978
 21
188.505214717
 31
0.0
  0
LINE
  5
2DD
330
1F
100
AcDbEntity
  8
0
  6
CONTINUOUS
 62
     7
100
AcDbLine
 10
174.2759830978
 20
188.405214717
 30
0.0
 11
173.3759830978
 21
188.405214717
 31
0.0
  0
LINE
  5
2DE
330
1F
100
AcDbEntity
  8
0
  6
CONTINUOUS
 62
     7
100
AcDbLine
 10
175.3259830978
 20
188.405214717
 30
0.0
 11
174.4259830978
 21
188.405214717
 31
0.0
  0
LINE
  5
2DF
330
1F
100
AcDbEntity
  8
0
  6
CONTINUOUS
 62
     7
100
AcDbLine
 10
176.3759830978
 20
188.405214717
 30
0.0
 11
175.4759830978
 21
188.405214717
 31
0.0
  0
LINE
  5
2E0
330
1F
100
AcDbEntity
  8
0
  6
CONTINUOUS
 62
     7
100
AcDbLine
 10
175.2259830978
 20
188.155214717
 30
0.0
 11
174.5259830978
 21
188.155214717
 31
0.0
  0
LINE
  5
2E1
330
1F
100
AcDbEntity
  8
0
  6
CONTINUOUS
 62
     7
100
AcDbLine
 10
174.5259830978
 20
188.155214717
 30
0.0
 11
174.4259830978
 21
188.255214717
 31
0.0
  0
LINE
  5
2E2
330
1F
100
AcDbEntity
  8
0
  6
CONTINUOUS
 62
     7
100
AcDbLine
 10
174.4259830978
 20
188.255214717
 30
0.0
 11
175.3259830978
 21
188.255214717
 31
0.0
  0
LINE
  5
2E3
330
1F
100
AcDbEntity
  8
0
  6
CONTINUOUS
 62
     7
100
AcDbLine
 10
175.2259830978
 20
188.155214717
 30
0.0
 11
175.3259830978
 21
188.255214717
 31
0.0
  0
LINE
  5
2E4
330
1F
100
AcDbEntity
  8
0
  6
CONTINUOUS
 62
     7
100
AcDbLine
 10
175.4759830978
 20
188.255214717
 30
0.0
 11
176.3759830978
 21
188.255214717
 31
0.0
  0
LINE
  5
2E5
330
1F
100
AcDbEntity
  8
0
  6
CONTINUOUS
 62
     7
100
AcDbLine
 10
176.3759830978
 20
188.255214717
 30
0.0
 11
176.2759830978
 21
188.155214717
 31
0.0
  0
LINE
  5
2E6
330
1F
100
AcDbEntity
  8
0
  6
CONTINUOUS
 62
     7
100
AcDbLine
 10
176.2759830978
 20
188.155214717
 30
0.0
 11
175.5759830978
 21
188.155214717
 31
0.0
  0
LINE
  5
2E7
330
1F
100
AcDbEntity
  8
0
  6
CONTINUOUS
 62
     7
100
AcDbLine
 10
175.4759830978
 20
188.255214717
 30
0.0
 11
175.5759830978
 21
188.155214717
 31
0.0
  0
LINE
  5
2E8
330
1F
100
AcDbEntity
  8
0
  6
CONTINUOUS
 62
     7
100
AcDbLine
 10
173.4759830978
 20
188.155214717
 30
0.0
 11
173.4759830978
 21
187.455214717
 31
0.0
  0
LINE
  5
2E9
330
1F
100
AcDbEntity
  8
0
  6
CONTINUOUS
 62
     7
100
AcDbLine
 10
173.3759830978
 20
187.355214717
 30
0.0
 11
173.4759830978
 21
187.455214717
 31
0.0
  0
LINE
  5
2EA
330
1F
100
AcDbEntity
  8
0
  6
CONTINUOUS
 62
     7
100
AcDbLine
 10
173.3759830978
 20
187.355214717
 30
0.0
 11
173.3759830978
 21
188.255214717
 31
0.0
  0
LINE
  5
2EB
330
1F
100
AcDbEntity
  8
0
  6
CONTINUOUS
 62
     7
100
AcDbLine
 10
173.4759830978
 20
188.155214717
 30
0.0
 11
173.3759830978
 21
188.255214717
 31
0.0
  0
LINE
  5
2EC
330
1F
100
AcDbEntity
  8
0
  6
CONTINUOUS
 62
     7
100
AcDbLine
 10
174.5259830978
 20
188.155214717
 30
0.0
 11
174.5259830978
 21
187.455214717
 31
0.0
  0
LINE
  5
2ED
330
1F
100
AcDbEntity
  8
0
  6
CONTINUOUS
 62
     7
100
AcDbLine
 10
174.4259830978
 20
187.355214717
 30
0.0
 11
174.5259830978
 21
187.455214717
 31
0.0
  0
LINE
  5
2EE
330
1F
100
AcDbEntity
  8
0
  6
CONTINUOUS
 62
     7
100
AcDbLine
 10
174.4259830978
 20
187.355214717
 30
0.0
 11
174.4259830978
 21
188.255214717
 31
0.0
  0
LINE
  5
2EF
330
1F
100
AcDbEntity
  8
0
  6
CONTINUOUS
 62
     7
100
AcDbLine
 10
175.5759830978
 20
188.155214717
 30
0.0
 11
175.5759830978
 21
187.455214717
 31
0.0
  0
LINE
  5
2F0
330
1F
100
AcDbEntity
  8
0
  6
CONTINUOUS
 62
     7
100
AcDbLine
 10
175.5759830978
 20
187.455214717
 30
0.0
 11
175.4759830978
 21
187.355214717
 31
0.0
  0
LINE
  5
2F1
330
1F
100
AcDbEntity
  8
0
  6
CONTINUOUS
 62
     7
100
AcDbLine
 10
175.4759830978
 20
187.355214717
 30
0.0
 11
175.4759830978
 21
188.255214717
 31
0.0
  0
LINE
  5
2F2
330
1F
100
AcDbEntity
  8
0
  6
CONTINUOUS
 62
     7
100
AcDbLine
 10
176.2759830978
 20
187.455214717
 30
0.0
 11
176.2759830978
 21
188.155214717
 31
0.0
  0
LINE
  5
2F3
330
1F
100
AcDbEntity
  8
0
  6
CONTINUOUS
 62
     7
100
AcDbLine
 10
176.3759830978
 20
188.255214717
 30
0.0
 11
176.3759830978
 21
187.355214717
 31
0.0
  0
LINE
  5
2F4
330
1F
100
AcDbEntity
  8
0
  6
CONTINUOUS
 62
     7
100
AcDbLine
 10
176.2759830978
 20
187.455214717
 30
0.0
 11
176.3759830978
 21
187.355214717
 31
0.0
  0
LINE
  5
2F5
330
1F
100
AcDbEntity
  8
0
  6
CONTINUOUS
 62
     7
100
AcDbLine
 10
174.1759830978
 20
188.155214717
 30
0.0
 11
173.4759830978
 21
188.155214717
 31
0.0
  0
LINE
  5
2F6
330
1F
100
AcDbEntity
  8
0
  6
CONTINUOUS
 62
     7
100
AcDbLine
 10
173.3759830978
 20
188.255214717
 30
0.0
 11
174.2759830978
 21
188.255214717
 31
0.0
  0
LINE
  5
2F7
330
1F
100
AcDbEntity
  8
0
  6
CONTINUOUS
 62
     7
100
AcDbLine
 10
174.1759830978
 20
188.155214717
 30
0.0
 11
174.2759830978
 21
188.255214717
 31
0.0
  0
LINE
  5
2F8
330
1F
100
AcDbEntity
  8
0
  6
CONTINUOUS
 62
     7
100
AcDbLine
 10
175.2259830978
 20
187.455214717
 30
0.0
 11
175.2259830978
 21
188.155214717
 31
0.0
  0
LINE
  5
2F9
330
1F
100
AcDbEntity
  8
0
  6
CONTINUOUS
 62
     7
100
AcDbLine
 10
175.3259830978
 20
188.255214717
 30
0.0
 11
175.3259830978
 21
187.355214717
 31
0.0
  0
LINE
  5
2FA
330
1F
100
AcDbEntity
  8
0
  6
CONTINUOUS
 62
     7
100
AcDbLine
 10
175.3259830978
 20
187.355214717
 30
0.0
 11
175.2259830978
 21
187.455214717
 31
0.0
  0
LINE
  5
2FB
330
1F
100
AcDbEntity
  8
0
  6
CONTINUOUS
 62
     7
100
AcDbLine
 10
174.1759830978
 20
187.455214717
 30
0.0
 11
174.1759830978
 21
188.155214717
 31
0.0
  0
LINE
  5
2FC
330
1F
100
AcDbEntity
  8
0
  6
CONTINUOUS
 62
     7
100
AcDbLine
 10
174.2759830978
 20
188.255214717
 30
0.0
 11
174.2759830978
 21
187.355214717
 31
0.0
  0
LINE
  5
2FD
330
1F
100
AcDbEntity
  8
0
  6
CONTINUOUS
 62
     7
100
AcDbLine
 10
174.2759830978
 20
187.355214717
 30
0.0
 11
174.1759830978
 21
187.455214717
 31
0.0
  0
LINE
  5
2FE
330
1F
100
AcDbEntity
  8
0
  6
CONTINUOUS
 62
     7
100
AcDbLine
 10
174.5259830978
 20
187.455214717
 30
0.0
 11
175.2259830978
 21
187.455214717
 31
0.0
  0
LINE
  5
2FF
330
1F
100
AcDbEntity
  8
0
  6
CONTINUOUS
 62
     7
100
AcDbLine
 10
175.5759830978
 20
187.455214717
 30
0.0
 11
176.2759830978
 21
187.455214717
 31
0.0
  0
LINE
  5
300
330
1F
100
AcDbEntity
  8
0
  6
CONTINUOUS
 62
     7
100
AcDbLine
 10
173.4759830978
 20
187.455214717
 30
0.0
 11
174.1759830978
 21
187.455214717
 31
0.0
  0
LINE
  5
301
330
1F
100
AcDbEntity
  8
0
  6
CONTINUOUS
 62
     7
100
AcDbLine
 10
174.2759830978
 20
187.355214717
 30
0.0
 11
173.3759830978
 21
187.355214717
 31
0.0
  0
LINE
  5
302
330
1F
100
AcDbEntity
  8
0
  6
CONTINUOUS
 62
     7
100
AcDbLine
 10
176.3759830978
 20
187.355214717
 30
0.0
 11
175.4759830978
 21
187.355214717
 31
0.0
  0
LINE
  5
303
330
1F
100
AcDbEntity
  8
0
  6
CONTINUOUS
 62
     7
100
AcDbLine
 10
175.3259830978
 20
187.355214717
 30
0.0
 11
174.4259830978
 21
187.355214717
 31
0.0
  0
LINE
  5
304
330
1F
100
AcDbEntity
  8
0
  6
CONTINUOUS
 62
     7
100
AcDbLine
 10
174.5259830978
 20
187.105214717
 30
0.0
 11
174.5259830978
 21
186.405214717
 31
0.0
  0
LINE
  5
305
330
1F
100
AcDbEntity
  8
0
  6
CONTINUOUS
 62
     7
100
AcDbLine
 10
174.5259830978
 20
186.405214717
 30
0.0
 11
174.4259830978
 21
186.305214717
 31
0.0
  0
LINE
  5
306
330
1F
100
AcDbEntity
  8
0
  6
CONTINUOUS
 62
     7
100
AcDbLine
 10
174.4259830978
 20
186.305214717
 30
0.0
 11
174.4259830978
 21
187.205214717
 31
0.0
  0
LINE
  5
307
330
1F
100
AcDbEntity
  8
0
  6
CONTINUOUS
 62
     7
100
AcDbLine
 10
174.5259830978
 20
187.105214717
 30
0.0
 11
174.4259830978
 21
187.205214717
 31
0.0
  0
LINE
  5
308
330
1F
100
AcDbEntity
  8
0
  6
CONTINUOUS
 62
     7
100
AcDbLine
 10
175.2259830978
 20
187.105214717
 30
0.0
 11
174.5259830978
 21
187.105214717
 31
0.0
  0
LINE
  5
309
330
1F
100
AcDbEntity
  8
0
  6
CONTINUOUS
 62
     7
100
AcDbLine
 10
174.4259830978
 20
187.205214717
 30
0.0
 11
175.3259830978
 21
187.205214717
 31
0.0
  0
LINE
  5
30A
330
1F
100
AcDbEntity
  8
0
  6
CONTINUOUS
 62
     7
100
AcDbLine
 10
175.3259830978
 20
187.205214717
 30
0.0
 11
175.2259830978
 21
187.105214717
 31
0.0
  0
LINE
  5
30B
330
1F
100
AcDbEntity
  8
0
  6
CONTINUOUS
 62
     7
100
AcDbLine
 10
174.2759830978
 20
187.205214717
 30
0.0
 11
174.2759830978
 21
186.305214717
 31
0.0
  0
LINE
  5
30C
330
1F
100
AcDbEntity
  8
0
  6
CONTINUOUS
 62
     7
100
AcDbLine
 10
174.2759830978
 20
186.305214717
 30
0.0
 11
174.1759830978
 21
186.405214717
 31
0.0
  0
LINE
  5
30D
330
1F
100
AcDbEntity
  8
0
  6
CONTINUOUS
 62
     7
100
AcDbLine
 10
174.1759830978
 20
186.405214717
 30
0.0
 11
174.1759830978
 21
187.105214717
 31
0.0
  0
LINE
  5
30E
330
1F
100
AcDbEntity
  8
0
  6
CONTINUOUS
 62
     7
100
AcDbLine
 10
174.2759830978
 20
187.205214717
 30
0.0
 11
174.1759830978
 21
187.105214717
 31
0.0
  0
LINE
  5
30F
330
1F
100
AcDbEntity
  8
0
  6
CONTINUOUS
 62
     7
100
AcDbLine
 10
176.2759830978
 20
186.405214717
 30
0.0
 11
176.2759830978
 21
187.105214717
 31
0.0
  0
LINE
  5
310
330
1F
100
AcDbEntity
  8
0
  6
CONTINUOUS
 62
     7
100
AcDbLine
 10
176.3759830978
 20
187.205214717
 30
0.0
 11
176.2759830978
 21
187.105214717
 31
0.0
  0
LINE
  5
311
330
1F
100
AcDbEntity
  8
0
  6
CONTINUOUS
 62
     7
100
AcDbLine
 10
176.3759830978
 20
187.205214717
 30
0.0
 11
176.3759830978
 21
186.305214717
 31
0.0
  0
LINE
  5
312
330
1F
100
AcDbEntity
  8
0
  6
CONTINUOUS
 62
     7
100
AcDbLine
 10
176.2759830978
 20
186.405214717
 30
0.0
 11
176.3759830978
 21
186.305214717
 31
0.0
  0
LINE
  5
313
330
1F
100
AcDbEntity
  8
0
  6
CONTINUOUS
 62
     7
100
AcDbLine
 10
175.3259830978
 20
187.205214717
 30
0.0
 11
175.3259830978
 21
186.305214717
 31
0.0
  0
LINE
  5
314
330
1F
100
AcDbEntity
  8
0
  6
CONTINUOUS
 62
     7
100
AcDbLine
 10
175.3259830978
 20
186.305214717
 30
0.0
 11
175.2259830978
 21
186.405214717
 31
0.0
  0
LINE
  5
315
330
1F
100
AcDbEntity
  8
0
  6
CONTINUOUS
 62
     7
100
AcDbLine
 10
175.2259830978
 20
186.405214717
 30
0.0
 11
175.2259830978
 21
187.105214717
 31
0.0
  0
LINE
  5
316
330
1F
100
AcDbEntity
  8
0
  6
CONTINUOUS
 62
     7
100
AcDbLine
 10
175.5759830978
 20
187.105214717
 30
0.0
 11
175.5759830978
 21
186.405214717
 31
0.0
  0
LINE
  5
317
330
1F
100
AcDbEntity
  8
0
  6
CONTINUOUS
 62
     7
100
AcDbLine
 10
175.5759830978
 20
186.405214717
 30
0.0
 11
175.4759830978
 21
186.305214717
 31
0.0
  0
LINE
  5
318
330
1F
100
AcDbEntity
  8
0
  6
CONTINUOUS
 62
     7
100
AcDbLine
 10
175.4759830978
 20
186.305214717
 30
0.0
 11
175.4759830978
 21
187.205214717
 31
0.0
  0
LINE
  5
319
330
1F
100
AcDbEntity
  8
0
  6
CONTINUOUS
 62
     7
100
AcDbLine
 10
175.4759830978
 20
187.205214717
 30
0.0
 11
175.5759830978
 21
187.105214717
 31
0.0
  0
LINE
  5
31A
330
1F
100
AcDbEntity
  8
0
  6
CONTINUOUS
 62
     7
100
AcDbLine
 10
175.4759830978
 20
187.205214717
 30
0.0
 11
176.3759830978
 21
187.205214717
 31
0.0
  0
LINE
  5
31B
330
1F
100
AcDbEntity
  8
0
  6
CONTINUOUS
 62
     7
100
AcDbLine
 10
176.2759830978
 20
187.105214717
 30
0.0
 11
175.5759830978
 21
187.105214717
 31
0.0
  0
LINE
  5
31C
330
1F
100
AcDbEntity
  8
0
  6
CONTINUOUS
 62
     7
100
AcDbLine
 10
174.1759830978
 20
187.105214717
 30
0.0
 11
173.4759830978
 21
187.105214717
 31
0.0
  0
LINE
  5
31D
330
1F
100
AcDbEntity
  8
0
  6
CONTINUOUS
 62
     7
100
AcDbLine
 10
173.4759830978
 20
187.105214717
 30
0.0
 11
173.3759830978
 21
187.205214717
 31
0.0
  0
LINE
  5
31E
330
1F
100
AcDbEntity
  8
0
  6
CONTINUOUS
 62
     7
100
AcDbLine
 10
173.3759830978
 20
187.205214717
 30
0.0
 11
174.2759830978
 21
187.205214717
 31
0.0
  0
LINE
  5
31F
330
1F
100
AcDbEntity
  8
0
  6
CONTINUOUS
 62
     7
100
AcDbLine
 10
173.4759830978
 20
187.105214717
 30
0.0
 11
173.4759830978
 21
186.405214717
 31
0.0
  0
LINE
  5
320
330
1F
100
AcDbEntity
  8
0
  6
CONTINUOUS
 62
     7
100
AcDbLine
 10
173.4759830978
 20
186.405214717
 30
0.0
 11
173.3759830978
 21
186.305214717
 31
0.0
  0
LINE
  5
321
330
1F
100
AcDbEntity
  8
0
  6
CONTINUOUS
 62
     7
100
AcDbLine
 10
173.3759830978
 20
186.305214717
 30
0.0
 11
173.3759830978
 21
187.205214717
 31
0.0
  0
LINE
  5
322
330
1F
100
AcDbEntity
  8
0
  6
CONTINUOUS
 62
     7
100
AcDbLine
 10
174.5259830978
 20
186.405214717
 30
0.0
 11
175.2259830978
 21
186.405214717
 31
0.0
  0
LINE
  5
323
330
1F
100
AcDbEntity
  8
0
  6
CONTINUOUS
 62
     7
100
AcDbLine
 10
173.4759830978
 20
186.405214717
 30
0.0
 11
174.1759830978
 21
186.405214717
 31
0.0
  0
LINE
  5
324
330
1F
100
AcDbEntity
  8
0
  6
CONTINUOUS
 62
     7
100
AcDbLine
 10
175.5759830978
 20
186.405214717
 30
0.0
 11
176.2759830978
 21
186.405214717
 31
0.0
  0
LINE
  5
325
330
1F
100
AcDbEntity
  8
0
  6
CONTINUOUS
 62
     7
100
AcDbLine
 10
175.3259830978
 20
186.305214717
 30
0.0
 11
174.4259830978
 21
186.305214717
 31
0.0
  0
LINE
  5
326
330
1F
100
AcDbEntity
  8
0
  6
CONTINUOUS
 62
     7
100
AcDbLine
 10
174.2759830978
 20
186.305214717
 30
0.0
 11
173.3759830978
 21
186.305214717
 31
0.0
  0
LINE
  5
327
330
1F
100
AcDbEntity
  8
0
  6
CONTINUOUS
 62
     7
100
AcDbLine
 10
176.3759830978
 20
186.305214717
 30
0.0
 11
175.4759830978
 21
186.305214717
 31
0.0
  0
LINE
  5
328
330
1F
100
AcDbEntity
  8
0
  6
CONTINUOUS
 62
     7
100
AcDbLine
 10
174.2759830978
 20
186.305214717
 30
0.0
 11
174.4259830978
 21
186.305214717
 31
0.0
  0
LINE
  5
329
330
1F
100
AcDbEntity
  8
0
  6
CONTINUOUS
 62
     7
100
AcDbLine
 10
175.3259830978
 20
186.305214717
 30
0.0
 11
175.4759830978
 21
186.305214717
 31
0.0
  0
LINE
  5
32A
330
1F
100
AcDbEntity
  8
0
  6
CONTINUOUS
 62
     7
100
AcDbLine
 10
173.3759830978
 20
188.405214717
 30
0.0
 11
173.3759830978
 21
188.255214717
 31
0.0
  0
LINE
  5
32B
330
1F
100
AcDbEntity
  8
0
  6
CONTINUOUS
 62
     7
100
AcDbLine
 10
173.3759830978
 20
187.355214717
 30
0.0
 11
173.3759830978
 21
187.205214717
 31
0.0
  0
LINE
  5
32C
330
1F
100
AcDbEntity
  8
0
  6
CONTINUOUS
 62
     7
100
AcDbLine
 10
175.4759830978
 20
189.305214717
 30
0.0
 11
175.3259830978
 21
189.305214717
 31
0.0
  0
LINE
  5
32D
330
1F
100
AcDbEntity
  8
0
  6
CONTINUOUS
 62
     7
100
AcDbLine
 10
174.4259830978
 20
189.305214717
 30
0.0
 11
174.2759830978
 21
189.305214717
 31
0.0
  0
LINE
  5
32E
330
1F
100
AcDbEntity
  8
0
  6
CONTINUOUS
 62
     7
100
AcDbLine
 10
176.3759830978
 20
187.205214717
 30
0.0
 11
176.3759830978
 21
187.355214717
 31
0.0
  0
LINE
  5
32F
330
1F
100
AcDbEntity
  8
0
  6
CONTINUOUS
 62
     7
100
AcDbLine
 10
176.3759830978
 20
188.255214717
 30
0.0
 11
176.3759830978
 21
188.405214717
 31
0.0
  0
LINE
  5
330
330
1F
100
AcDbEntity
  8
0
  6
CONTINUOUS
 62
     7
100
AcDbLine
 10
173.3759830978
 20
186.305214717
 30
0.0
 11
171.3759830978
 21
186.305214717
 31
0.0
  0
LINE
  5
331
330
1F
100
AcDbEntity
  8
0
  6
CONTINUOUS
 62
     7
100
AcDbLine
 10
171.3759830978
 20
189.305214717
 30
0.0
 11
173.3759830978
 21
189.305214717
 31
0.0
  0
LINE
  5
332
330
1F
100
AcDbEntity
  8
0
  6
CONTINUOUS
 62
     7
100
AcDbLine
 10
171.3759830978
 20
186.305214717
 30
0.0
 11
171.3759830978
 21
189.305214717
 31
0.0
  0
LINE
  5
333
330
1F
100
AcDbEntity
  8
0
  6
CONTINUOUS
 62
     7
100
AcDbLine
 10
208.0601716978
 20
196.309014717
 30
0.0
 11
161.0701716978
 21
196.309014717
 31
0.0
  0
LINE
  5
334
330
1F
100
AcDbEntity
  8
0
  6
CONTINUOUS
 62
     7
100
AcDbLine
 10
208.0601716978
 20
178.656014717
 30
0.0
 11
208.0601716978
 21
196.309014717
 31
0.0
  0
LINE
  5
335
330
1F
100
AcDbEntity
  8
0
  6
CONTINUOUS
 62
     7
100
AcDbLine
 10
161.0701716978
 20
178.656014717
 30
0.0
 11
208.0601716978
 21
178.656014717
 31
0.0
  0
LINE
  5
336
330
1F
100
AcDbEntity
  8
0
  6
CONTINUOUS
 62
     7
100
AcDbLine
 10
161.0701716978
 20
196.309014717
 30
0.0
 11
161.0701716978
 21
178.656014717
 31
0.0
  0
ARC
  5
337
330
1F
100
AcDbEntity
  8
0
  6
CONTINUOUS
 62
     7
100
AcDbCircle
 10
170.2459216978
 20
185.418764717
 30
0.0
 40
0.793750000000017
100
AcDbArc
 50
180.0
 51
270.0
  0
LINE
  5
338
330
1F
100
AcDbEntity
  8
0
  6
CONTINUOUS
 62
     7
100
AcDbLine
 10
170.2459216978
 20
184.625014717
 30
0.0
 11
177.0404216978
 21
184.625014717
 31
0.0
  0
ARC
  5
339
330
1F
100
AcDbEntity
  8
0
  6
CONTINUOUS
 62
     7
100
AcDbCircle
 10
177.0404216978
 20
185.418764717
 30
0.0
 40
0.793750000000017
100
AcDbArc
 50
270.0
 51
360.0
  0
LINE
  5
33A
330
1F
100
AcDbEntity
  8
0
  6
CONTINUOUS
 62
     7
100
AcDbLine
 10
177.8341716978
 20
185.418764717
 30
0.0
 11
177.8341716978
 21
190.181264717
 31
0.0
  0
ARC
  5
33B
330
1F
100
AcDbEntity
  8
0
  6
CONTINUOUS
 62
     7
100
AcDbCircle
 10
177.0404216978
 20
190.181264717
 30
0.0
 40
0.793750000000017
100
AcDbArc
 50
0.0
 51
90.0
  0
LINE
  5
33C
330
1F
100
AcDbEntity
  8
0
  6
CONTINUOUS
 62
     7
100
AcDbLine
 10
177.0404216978
 20
190.975014717
 30
0.0
 11
170.2459216978
 21
190.975014717
 31
0.0
  0
ARC
  5
33D
330
1F
100
AcDbEntity
  8
0
  6
CONTINUOUS
 62
     7
100
AcDbCircle
 10
170.2459216978
 20
190.181264717
 30
0.0
 40
0.793750000000017
100
AcDbArc
 50
90.0
 51
180.0
  0
LINE
  5
33E
330
1F
100
AcDbEntity
  8
0
  6
CONTINUOUS
 62
     7
100
AcDbLine
 10
169.4521716978
 20
190.181264717
 30
0.0
 11
169.4521716978
 21
185.418764717
 31
0.0
  0
LINE
  5
33F
330
1F
100
AcDbEntity
  8
0
  6
CONTINUOUS
 62
     7
100
AcDbLine
 10
157.8951716978
 20
196.309014717
 30
0.0
 11
161.0701716978
 21
196.309014717
 31
0.0
  0
LINE
  5
340
330
1F
100
AcDbEntity
  8
0
  6
CONTINUOUS
 62
     7
100
AcDbLine
 10
157.8951716978
 20
178.656014717
 30
0.0
 11
161.0701716978
 21
178.656014717
 31
0.0
  0
LINE
  5
341
330
1F
100
AcDbEntity
  8
0
  6
CONTINUOUS
 62
     7
100
AcDbLine
 10
157.8951716978
 20
178.656014717
 30
0.0
 11
157.8951716978
 21
196.309014717
 31
0.0
  0
LINE
  5
342
330
1F
100
AcDbEntity
  8
0
  6
CONTINUOUS
 62
     7
100
AcDbLine
 10
208.0601716978
 20
196.309014717
 30
0.0
 11
211.2351716978
 21
196.309014717
 31
0.0
  0
LINE
  5
343
330
1F
100
AcDbEntity
  8
0
  6
CONTINUOUS
 62
     7
100
AcDbLine
 10
211.2351716978
 20
196.309014717
 30
0.0
 11
211.2351716978
 21
178.656014717
 31
0.0
  0
LINE
  5
344
330
1F
100
AcDbEntity
  8
0
  6
CONTINUOUS
 62
     7
100
AcDbLine
 10
208.0601716978
 20
178.656014717
 30
0.0
 11
211.2351716978
 21
178.656014717
 31
0.0
  0
LINE
  5
345
330
1F
100
AcDbEntity
  8
0
  6
CONTINUOUS
 62
     7
100
AcDbLine
 10
161.0701716978
 20
178.656014717
 30
0.0
 11
161.0701716978
 21
177.259014717
 31
0.0
  0
LINE
  5
346
330
1F
100
AcDbEntity
  8
0
  6
CONTINUOUS
 62
     7
100
AcDbLine
 10
161.0701716978
 20
177.259014717
 30
0.0
 11
159.2921716978
 21
177.259014717
 31
0.0
  0
ARC
  5
347
330
1F
100
AcDbEntity
  8
0
  6
CONTINUOUS
 62
     7
100
AcDbCircle
 10
159.2921716978
 20
178.656014717
 30
0.0
 40
1.39700000000002
100
AcDbArc
 50
180.0
 51
270.0
  0
LINE
  5
348
330
1F
100
AcDbEntity
  8
0
  6
CONTINUOUS
 62
     7
100
AcDbLine
 10
209.8381716978
 20
177.259014717
 30
0.0
 11
208.0601716978
 21
177.259014717
 31
0.0
  0
LINE
  5
349
330
1F
100
AcDbEntity
  8
0
  6
CONTINUOUS
 62
     7
100
AcDbLine
 10
208.0601716978
 20
178.656014717
 30
0.0
 11
208.0601716978
 21
177.259014717
 31
0.0
  0
ARC
  5
34A
330
1F
100
AcDbEntity
  8
0
  6
CONTINUOUS
 62
     7
100
AcDbCircle
 10
209.8381716978
 20
178.656014717
 30
0.0
 40
1.39700000000002
100
AcDbArc
 50
270.0
 51
0.0
  0
LINE
  5
34B
330
1F
100
AcDbEntity
  8
0
  6
CONTINUOUS
 62
     7
100
AcDbLine
 10
208.0601716978
 20
177.259014717
 30
0.0
 11
161.0701716978
 21
177.259014717
 31
0.0
  0
ARC
  5
34C
330
1F
100
AcDbEntity
  8
0
  6
CONTINUOUS
 62
     7
100
AcDbCircle
 10
171.5159216978
 20
188.911264717
 30
0.0
 40
0.793750000000017
100
AcDbArc
 50
90.0
 51
180.0
  0
LINE
  5
34D
330
1F
100
AcDbEntity
  8
0
  6
CONTINUOUS
 62
     7
100
AcDbLine
 10
170.7221716978
 20
188.911264717
 30
0.0
 11
170.7221716978
 21
186.688764717
 31
0.0
  0
ARC
  5
34E
330
1F
100
AcDbEntity
  8
0
  6
CONTINUOUS
 62
     7
100
AcDbCircle
 10
171.5159216978
 20
186.688764717
 30
0.0
 40
0.7937499999999886
100
AcDbArc
 50
180.0
 51
270.0
  0
LINE
  5
34F
330
1F
100
AcDbEntity
  8
0
  6
CONTINUOUS
 62
     7
100
AcDbLine
 10
171.5159216978
 20
185.895014717
 30
0.0
 11
175.7704216978
 21
185.895014717
 31
0.0
  0
ARC
  5
350
330
1F
100
AcDbEntity
  8
0
  6
CONTINUOUS
 62
     7
100
AcDbCircle
 10
175.7704216978
 20
186.688764717
 30
0.0
 40
0.7937499999999886
100
AcDbArc
 50
270.0
 51
0.0
  0
LINE
  5
351
330
1F
100
AcDbEntity
  8
0
  6
CONTINUOUS
 62
     7
100
AcDbLine
 10
176.5641716978
 20
186.688764717
 30
0.0
 11
176.5641716978
 21
188.911264717
 31
0.0
  0
ARC
  5
352
330
1F
100
AcDbEntity
  8
0
  6
CONTINUOUS
 62
     7
100
AcDbCircle
 10
175.7704216978
 20
188.911264717
 30
0.0
 40
0.793750000000017
100
AcDbArc
 50
0.0
 51
90.0
  0
LINE
  5
353
330
1F
100
AcDbEntity
  8
0
  6
CONTINUOUS
 62
     7
100
AcDbLine
 10
175.7704216978
 20
189.705014717
 30
0.0
 11
171.5159216978
 21
189.705014717
 31
0.0
  0
LINE
  5
354
330
1F
100
AcDbEntity
  8
0
  6
CONTINUOUS
 62
     8
100
AcDbLine
 10
161.3876716978
 20
196.321714717
 30
0.0
 11
161.3876716978
 21
196.321714717
 31
0.0
  0
LINE
  5
355
330
1F
100
AcDbEntity
  8
0
  6
CONTINUOUS
 62
     8
100
AcDbLine
 10
207.7426716978
 20
196.321714717
 30
0.0
 11
207.7426716978
 21
196.321714717
 31
0.0
  0
DIMENSION
  5
356
330
1F
100
AcDbEntity
  8
0
  6
CONTINUOUS
 62
     7
100
AcDbDimension
  2
_D_10
 10
129.8651716978
 20
177.259014717
 30
0.0
 11
129.8651716978
 21
186.784014717
 31
0.0
 70
   160
  1
<>
  3
SLDDIMSTYLE1
100
AcDbAlignedDimension
 13
161.0701716978
 23
196.309014717
 33
0.0
 14
161.0701716978
 24
177.259014717
 34
0.0
 50
90.0
100
AcDbRotatedDimension
  0
DIMENSION
  5
36A
330
1F
100
AcDbEntity
  8
0
  6
CONTINUOUS
 62
     7
100
AcDbDimension
  2
_D_11
 10
111.8651716978
 20
196.309014717
 30
0.0
 11
111.8651716978
 21
183.101014717
 31
0.0
 70
   160
  1
<>
  3
SLDDIMSTYLE1
100
AcDbAlignedDimension
 13
181.0091716978
 23
169.893014717
 33
0.0
 14
161.0701716978
 24
196.309014717
 34
0.0
 50
90.0
100
AcDbRotatedDimension
  0
INSERT
  5
383
102
{ACAD_REACTORS
330
384
102
}
330
1F
100
AcDbEntity
  8
0
  6
CONTINUOUS
 62
     7
100
AcDbBlockReference
  2
SW_NOTE_4
 10
181.6745334797
 20
154.695191519
 30
0.0
  0
LEADER
  5
384
330
1F
100
AcDbEntity
  8
0
  6
CONTINUOUS
 62
     7
100
AcDbLeader
  3
SLDDIMSTYLE2
 73
     2
 76
     3
 10
191.885015871
 20
169.893014717
 30
0.0
 10
188.0245334797
 20
154.695191519
 30
0.0
 10
181.6745334797
 20
154.695191519
 30
0.0
340
383
1001
ACAD
1000
DSTYLE
1002
{
1070
     6
1000

1002
}
  0
MTEXT
  5
385
330
1F
100
AcDbEntity
  8
0
  6
CONTINUOUS
 62
     7
100
AcDbMText
 10
132.9360695266
 20
207.5094489132
 30
0.0
 40
2.1166666667
 41
0.0
 71
     1
 72
     1
  1
POWER SWITCH
  7
SLDTEXTSTYLE0
  0
LEADER
  5
386
330
1F
100
AcDbEntity
  8
0
  6
CONTINUOUS
 62
     7
100
AcDbLeader
  3
SLDDIMSTYLE2
 76
     3
 10
174.8674778037
 20
189.205214717
 30
0.0
 10
160.7436758179
 20
206.4746036083
 30
0.0
 10
154.3936758179
 20
206.4746036083
 30
0.0
1001
ACAD
1000
DSTYLE
1002
{
1070
     6
1000

1002
}
  0
LINE
  5
387
330
1F
100
AcDbEntity
  8
0
  6
CONTINUOUS
 62
     7
100
AcDbLine
 10
227.2439942789
 20
163.2093609377
 30
0.0
 11
227.3080369597
 21
163.0541300584
 31
0.0
  0
LINE
  5
388
330
1F
100
AcDbEntity
  8
0
  6
CONTINUOUS
 62
     7
100
AcDbLine
 10
247.5650784754
 20
146.882083915
 30
0.0
 11
250.5740042058
 21
148.7769624561
 31
0.0
  0
LINE
  5
389
330
1F
100
AcDbEntity
  8
0
  6
CONTINUOUS
 62
     7
100
AcDbLine
 10
237.4267743691
 20
171.9707740613
 30
0.0
 11
234.1672919487
 21
170.5675530179
 31
0.0
  0
LINE
  5
38A
330
1F
100
AcDbEntity
  8
0
  6
CONTINUOUS
 62
     7
100
AcDbLine
 10
260.2413220586
 20
195.84273201
 30
0.0
 11
259.3953289594
 21
200.9763299744
 31
0.0
  0
LINE
  5
38B
330
1F
100
AcDbEntity
  8
0
  6
CONTINUOUS
 62
     7
100
AcDbLine
 10
250.9899598648
 20
200.9610375088
 30
0.0
 11
249.9869970718
 21
195.450285071
 31
0.0
  0
LINE
  5
38C
330
1F
100
AcDbEntity
  8
0
  6
CONTINUOUS
 62
     7
100
AcDbLine
 10
252.6714061784
 20
200.9460302746
 30
0.0
 11
252.6682253518
 21
200.3975373358
 31
0.0
  0
LINE
  5
38D
330
1F
100
AcDbEntity
  8
0
  6
CONTINUOUS
 62
     7
100
AcDbLine
 10
257.7191441007
 20
200.4068602835
 30
0.0
 11
257.7252320956
 21
200.9552293058
 31
0.0
  0
LINE
  5
38E
330
1F
100
AcDbEntity
  8
0
  6
CONTINUOUS
 62
     7
100
AcDbLine
 10
256.6418983822
 20
172.5059550618
 30
0.0
 11
256.7701326957
 21
172.5683113616
 31
0.0
  0
LINE
  5
38F
330
1F
100
AcDbEntity
  8
0
  6
CONTINUOUS
 62
     7
100
AcDbLine
 10
230.9105518816
 20
190.6394117846
 30
0.0
 11
230.7647713489
 21
190.5956856152
 31
0.0
  0
SPLINE
  5
390
330
1F
100
AcDbEntity
  8
0
  6
CONTINUOUS
 62
     7
100
AcDbSpline
210
0.0
220
0.0
230
1.0
 70
     8
 71
     3
 72
    33
 73
    29
 74
     0
 42
0.000000001
 43
0.00000001
 40
0.0
 40
0.0
 40
0.0
 40
0.0
 40
0.0182126768626028
 40
0.0575498135243697
 40
0.0969178557382188
 40
0.1364375341671566
 40
0.1761865394741661
 40
0.216189022795008
 40
0.2564230194087499
 40
0.2968394295199788
 40
0.3373826268067522
 40
0.3780050790207539
 40
0.4186737954166199
 40
0.4593694592506687
 40
0.5000861374739538
 40
0.5408263443423131
 40
0.5815932295190325
 40
0.622389710517731
 40
0.6632122924241205
 40
0.704042307016429
 40
0.7448454367821304
 40
0.7855675749244614
 40
0.8261378935089456
 40
0.8664815944851048
 40
0.9065426220423207
 40
0.9463091233288756
 40
0.9858286848157759
 40
1.0
 40
1.0
 40
1.0
 40
1.0
 10
243.2642477792885
 20
162.2365962096622
 30
0.0
 10
243.2360358386707
 20
162.2195745953631
 30
0.0
 10
243.1469163325588
 20
162.1658045311154
 30
0.0
 10
243.0157012445089
 20
162.0463181385568
 30
0.0
 10
242.8733539358897
 20
161.8825270247468
 30
0.0
 10
242.7549696983601
 20
161.6957587546576
 30
0.0
 10
242.6610581216189
 20
161.4907136871328
 30
0.0
 10
242.5934152425064
 20
161.2699093424235
 30
0.0
 10
242.5531174326878
 20
161.0369152373094
 30
0.0
 10
242.5409314527883
 20
160.7954495163603
 30
0.0
 10
242.5571035973792
 20
160.5494980113234
 30
0.0
 10
242.6013814159593
 20
160.3031185297477
 30
0.0
 10
242.6730295513204
 20
160.0603470389165
 30
0.0
 10
242.7708782340329
 20
159.8251103600622
 30
0.0
 10
242.89337119555
 20
159.6011743248986
 30
0.0
 10
243.0386060971984
 20
159.3921124101983
 30
0.0
 10
243.2043641409396
 20
159.2012799121443
 30
0.0
 10
243.3881295913548
 20
159.0317899974281
 30
0.0
 10
243.5870997058468
 20
158.8864865840268
 30
0.0
 10
243.7981844287802
 20
158.7679069676433
 30
0.0
 10
244.0180069878467
 20
158.6782202682976
 30
0.0
 10
244.2429031383331
 20
158.6191654653479
 30
0.0
 10
244.4690063870157
 20
158.5918763533785
 30
0.0
 10
244.6921616533737
 20
158.597048773361
 30
0.0
 10
244.9087615802648
 20
158.6338591058054
 30
0.0
 10
245.1134507708331
 20
158.7037301540965
 30
0.0
 10
245.2670688792418
 20
158.7768619435981
 30
0.0
 10
245.3450843494368
 20
158.8353269286625
 30
0.0
 10
245.3656814129806
 20
158.8507624186934
 30
0.0
  0
LINE
  5
391
330
1F
100
AcDbEntity
  8
0
  6
CONTINUOUS
 62
     7
100
AcDbLine
 10
243.6284507247
 20
162.4327547813
 30
0.0
 11
243.3201337786
 21
162.2752211877
 31
0.0
  0
LINE
  5
392
330
1F
100
AcDbEntity
  8
0
  6
CONTINUOUS
 62
     7
100
AcDbLine
 10
245.2913337381
 20
158.7984224109
 30
0.0
 11
245.5959626405
 21
158.9631721293
 31
0.0
  0
LINE
  5
393
330
1F
100
AcDbEntity
  8
0
  6
CONTINUOUS
 62
     7
100
AcDbLine
 10
239.157758746
 20
204.9936110276
 30
0.0
 11
239.1789416153
 21
202.4552212174
 31
0.0
  0
LINE
  5
394
330
1F
100
AcDbEntity
  8
0
  6
CONTINUOUS
 62
     7
100
AcDbLine
 10
247.6354207783
 20
202.5241939911
 30
0.0
 11
247.6367236573
 21
205.0580879561
 31
0.0
  0
SPLINE
  5
395
330
1F
100
AcDbEntity
  8
0
  6
CONTINUOUS
 62
     7
100
AcDbSpline
210
0.0
220
0.0
230
1.0
 70
     8
 71
     3
 72
    12
 73
     8
 74
     0
 42
0.000000001
 43
0.00000001
 40
0.0
 40
0.0
 40
0.0
 40
0.0
 40
0.2118858659183039
 40
0.4347309512722627
 40
0.6557701173568087
 40
0.8749048897796117
 40
1.0
 40
1.0
 40
1.0
 40
1.0
 10
247.6269018262357
 20
200.2353747094722
 30
0.0
 10
247.6063695559965
 20
200.3937309437703
 30
0.0
 10
247.5642105045987
 20
200.7188848864734
 30
0.0
 10
247.5421502189871
 20
201.2157408924596
 30
0.0
 10
247.5522073151526
 20
201.7192199234388
 30
0.0
 10
247.58513259468
 20
202.1486930060277
 30
0.0
 10
247.6271383961995
 20
202.4073162400983
 30
0.0
 10
247.6424118232679
 20
202.5013523722721
 30
0.0
  0
LINE
  5
396
330
1F
100
AcDbEntity
  8
0
  6
CONTINUOUS
 62
     7
100
AcDbLine
 10
237.967196313
 20
195.5404798155
 30
0.0
 11
237.9776773072
 21
194.4582482418
 31
0.0
  0
LINE
  5
397
330
1F
100
AcDbEntity
  8
0
  6
CONTINUOUS
 62
     7
100
AcDbLine
 10
248.8977325488
 20
194.5662706593
 30
0.0
 11
248.8997322569
 21
195.6460540233
 31
0.0
  0
LINE
  5
398
330
1F
100
AcDbEntity
  8
0
  6
CONTINUOUS
 62
     7
100
AcDbLine
 10
239.1948289831
 20
200.1619000198
 30
0.0
 11
239.2364747272
 21
195.5609018738
 31
0.0
  0
LINE
  5
399
330
1F
100
AcDbEntity
  8
0
  6
CONTINUOUS
 62
     7
100
AcDbLine
 10
247.6318820676
 20
195.6419604287
 30
0.0
 11
247.6269018262
 21
200.2353747095
 31
0.0
  0
LINE
  5
39A
330
1F
100
AcDbEntity
  8
0
  6
CONTINUOUS
 62
     7
100
AcDbLine
 10
240.992051156
 20
201.6509087783
 30
0.0
 11
240.665849334
 21
201.5699421073
 31
0.0
  0
LINE
  5
39B
330
1F
100
AcDbEntity
  8
0
  6
CONTINUOUS
 62
     7
100
AcDbLine
 10
241.2333360563
 20
199.8632961195
 30
0.0
 11
241.558189238
 21
199.9478213455
 31
0.0
  0
SPLINE
  5
39C
330
1F
100
AcDbEntity
  8
0
  6
CONTINUOUS
 62
     7
100
AcDbSpline
210
0.0
220
0.0
230
1.0
 70
     8
 71
     3
 72
    13
 73
     9
 74
     0
 42
0.000000001
 43
0.00000001
 40
0.0
 40
0.0
 40
0.0
 40
0.0
 40
0.1189691500161689
 40
0.3386969818967127
 40
0.5567106358440073
 40
0.7729672285909613
 40
0.9873949792484732
 40
1.0
 40
1.0
 40
1.0
 40
1.0
 10
239.1789416152748
 20
202.4552212174256
 30
0.0
 10
239.197305502824
 20
202.3442414813616
 30
0.0
 10
239.238711745146
 20
202.0901772047523
 30
0.0
 10
239.2706418168503
 20
201.6671646599241
 30
0.0
 10
239.2822940034041
 20
201.1697304326328
 30
0.0
 10
239.2565100129822
 20
200.6779243805693
 30
0.0
 10
239.2262448102293
 20
200.3425659169012
 30
0.0
 10
239.1959934817972
 20
200.1737619721875
 30
0.0
 10
239.1943143723263
 20
200.1643924563023
 30
0.0
  0
SPLINE
  5
39D
330
1F
100
AcDbEntity
  8
0
  6
CONTINUOUS
 62
     7
100
AcDbSpline
210
0.0
220
0.0
230
1.0
 70
     8
 71
     3
 72
    15
 73
    11
 74
     0
 42
0.000000001
 43
0.00000001
 40
0.0
 40
0.0
 40
0.0
 40
0.0
 40
0.0989292262819904
 40
0.2437042641794414
 40
0.3874874913126294
 40
0.5295005013574545
 40
0.6697205951340185
 40
0.808286088782786
 40
0.9454584645585217
 40
1.0
 40
1.0
 40
1.0
 40
1.0
 10
257.7838964065359
 20
144.9194175235649
 30
0.0
 10
257.8505683928017
 20
144.9061981276996
 30
0.0
 10
258.0148568012559
 20
144.8736238243216
 30
0.0
 10
258.2799764970185
 20
144.8528171097668
 30
0.0
 10
258.5743427226888
 20
144.8624518165918
 30
0.0
 10
258.861892454541
 20
144.9073101024187
 30
0.0
 10
259.1386508073347
 20
144.9849444728914
 30
0.0
 10
259.3995933325772
 20
145.0960518992735
 30
0.0
 10
259.5984879308972
 20
145.2037978630614
 30
0.0
 10
259.7022891547348
 20
145.2834337270729
 30
0.0
 10
259.7364638458812
 20
145.3044792635509
 30
0.0
  0
LINE
  5
39E
330
1F
100
AcDbEntity
  8
0
  6
CONTINUOUS
 62
     7
100
AcDbLine
 10
259.7364638459
 20
145.3044792636
 30
0.0
 11
266.563569606
 21
150.0690317118
 31
0.0
  0
LINE
  5
39F
330
1F
100
AcDbEntity
  8
0
  6
CONTINUOUS
 62
     7
100
AcDbLine
 10
230.5203773146
 20
150.6104448283
 30
0.0
 11
232.0464340103
 21
150.2918934963
 31
0.0
  0
LINE
  5
3A0
330
1F
100
AcDbEntity
  8
0
  6
CONTINUOUS
 62
     7
100
AcDbLine
 10
247.9419070258
 20
146.9738489457
 30
0.0
 11
257.7838964065
 21
144.9194175236
 31
0.0
  0
SPLINE
  5
3A1
330
1F
100
AcDbEntity
  8
0
  6
CONTINUOUS
 62
     7
100
AcDbSpline
210
0.0
220
0.0
230
1.0
 70
     8
 71
     3
 72
    19
 73
    15
 74
     0
 42
0.000000001
 43
0.00000001
 40
0.0
 40
0.0
 40
0.0
 40
0.0
 40
0.0724974082852815
 40
0.158728504415449
 40
0.2447675590374246
 40
0.3309186775114183
 40
0.4174713315312385
 40
0.5046802240311132
 40
0.5927432497032719
 40
0.6817806882083627
 40
0.7718220423295106
 40
0.862808043927997
 40
0.9546117346092766
 40
1.0
 40
1.0
 40
1.0
 40
1.0
 10
229.1595266802613
 20
194.4416075441014
 30
0.0
 10
229.0881660161457
 20
194.4122386382483
 30
0.0
 10
228.9336458585798
 20
194.3534659507474
 30
0.0
 10
228.7110931095359
 20
194.2269207823014
 30
0.0
 10
228.4919053184501
 20
194.0692746770754
 30
0.0
 10
228.2924061053797
 20
193.8857988439842
 30
0.0
 10
228.1139311158657
 20
193.6795466423809
 30
0.0
 10
227.9581807789872
 20
193.4522387576499
 30
0.0
 10
227.8266270464121
 20
193.2060747357216
 30
0.0
 10
227.7207461106274
 20
192.9433619311979
 30
0.0
 10
227.6417372102883
 20
192.666730501588
 30
0.0
 10
227.5912091903718
 20
192.3791717540126
 30
0.0
 10
227.5721574414644
 20
192.1344304763111
 30
0.0
 10
227.5735760299547
 20
191.9866136109317
 30
0.0
 10
227.5740452890432
 20
191.9377168322087
 30
0.0
  0
LINE
  5
3A2
330
1F
100
AcDbEntity
  8
0
  6
CONTINUOUS
 62
     7
100
AcDbLine
 10
237.367732924
 20
196.6905653531
 30
0.0
 11
229.1657910443
 21
194.4439865098
 31
0.0
  0
LINE
  5
3A3
330
1F
100
AcDbEntity
  8
0
  6
CONTINUOUS
 62
     7
100
AcDbLine
 10
227.574045289
 20
191.9377168322
 30
0.0
 11
228.3739532765
 21
153.352614866
 31
0.0
  0
SPLINE
  5
3A4
330
1F
100
AcDbEntity
  8
0
  6
CONTINUOUS
 62
     7
100
AcDbSpline
210
0.0
220
0.0
230
1.0
 70
     8
 71
     3
 72
    21
 73
    17
 74
     0
 42
0.000000001
 43
0.00000001
 40
0.0
 40
0.0
 40
0.0
 40
0.0
 40
0.0488159141627938
 40
0.1247253966893719
 40
0.2008649203510196
 40
0.2773572681206876
 40
0.354105361389686
 40
0.4310899890167203
 40
0.5083334300653229
 40
0.585859096385954
 40
0.6636808504482498
 40
0.7417386800958953
 40
0.8198804869691122
 40
0.8978607893784498
 40
0.9753612804664358
 40
1.0
 40
1.0
 40
1.0
 40
1.0
 10
228.3739532764999
 20
153.3526148660306
 30
0.0
 10
228.3767514283154
 20
153.2918715959876
 30
0.0
 10
228.3839001039763
 20
153.1366856144001
 30
0.0
 10
228.4205231739
 20
152.8873150903365
 30
0.0
 10
228.4882657439937
 20
152.6076883759459
 30
0.0
 10
228.5835863396281
 20
152.3339733739815
 30
0.0
 10
228.7049826575556
 20
152.0692044517489
 30
0.0
 10
228.8513846862476
 20
151.8164939261641
 30
0.0
 10
229.0213889392635
 20
151.5787925251771
 30
0.0
 10
229.2135035793977
 20
151.358959863766
 30
0.0
 10
229.426006281641
 20
151.1598427703769
 30
0.0
 10
229.656852903866
 20
150.9843455201126
 30
0.0
 10
229.903497165355
 20
150.83520624504
 30
0.0
 10
230.162873483044
 20
150.7155032810919
 30
0.0
 10
230.370956100289
 20
150.6460234020611
 30
0.0
 10
230.4913342854169
 20
150.6173602423256
 30
0.0
 10
230.5203773146184
 20
150.6104448283382
 30
0.0
  0
ARC
  5
3A5
330
1F
100
AcDbEntity
  8
0
  6
CONTINUOUS
 62
     7
100
AcDbCircle
 10
247.9855863279
 20
158.8058368037
 30
0.0
 40
12.3349301815117
100
AcDbArc
 50
267.1232605034
 51
273.1106131975
  0
LWPOLYLINE
  5
3A6
330
1F
100
AcDbEntity
  8
0
  6
CONTINUOUS
 62
     7
100
AcDbPolyline
 90
        3
 70
   128
 43
0.0
 10
250.9548831877
 20
145.4950487856
 10
251.2371424737
 20
145.5965171159
 10
251.4881481632
 20
145.7044043377
  0
ARC
  5
3A7
330
1F
100
AcDbEntity
  8
0
  6
CONTINUOUS
 62
     7
100
AcDbCircle
 10
247.9631342926
 20
155.86712377
 30
0.0
 40
10.79492940840911
100
AcDbArc
 50
256.1218233138
 51
286.0898177626
  0
ARC
  5
3A8
330
1F
100
AcDbEntity
  8
0
  6
CONTINUOUS
 62
     7
100
AcDbCircle
 10
247.9742610389
 20
155.1136606067
 30
0.0
 40
10.16222790519687
100
AcDbArc
 50
254.4607585512
 51
286.2169389764
  0
ARC
  5
3A9
330
1F
100
AcDbEntity
  8
0
  6
CONTINUOUS
 62
     7
100
AcDbCircle
 10
249.6074100033
 20
149.1568725239
 30
0.0
 40
3.987497537671475
100
AcDbArc
 50
287.5880613708
 51
298.9398146215
  0
ARC
  5
3AA
330
1F
100
AcDbEntity
  8
0
  6
CONTINUOUS
 62
     7
100
AcDbCircle
 10
233.0780839063
 20
165.0584454146
 30
0.0
 40
6.039966734705049
100
AcDbArc
 50
150.4514334059
 51
211.9544283107
  0
ARC
  5
3AB
330
1F
100
AcDbEntity
  8
0
  6
CONTINUOUS
 62
     7
100
AcDbCircle
 10
233.9532521958
 20
164.912696196
 30
0.0
 40
6.92210176158215
100
AcDbArc
 50
152.5587250923
 51
194.245193019
  0
LWPOLYLINE
  5
3AC
330
1F
100
AcDbEntity
  8
0
  6
CONTINUOUS
 62
     7
100
AcDbPolyline
 90
      121
 70
   128
 43
0.0
 10
239.9885679271
 20
171.4371481914
 10
239.3739020846
 20
171.5152354921
 10
238.7629928821
 20
171.5565163503
 10
238.1575559419
 20
171.5610343517
 10
237.5592759323
 20
171.5289403908
 10
236.9698017861
 20
171.4604903798
 10
236.3907422006
 20
171.3560426364
 10
235.8236614288
 20
171.2160549818
 10
235.2700753684
 20
171.0410815792
 10
234.7314479514
 20
170.8317695412
 10
234.2091878356
 20
170.5888553372
 10
233.7046453968
 20
170.3131610299
 10
233.2191100168
 20
170.005590368
 10
232.7538076626
 20
169.6671247639
 10
232.3098987488
 20
169.2988191806
 10
231.888476274
 20
168.901797954
 10
231.4905642205
 20
168.4772505714
 10
231.1171162056
 20
168.0264274292
 10
230.769014373
 20
167.5506355877
 10
230.4470685085
 20
167.051234541
 10
230.1520153695
 20
166.5296320171
 10
229.8845182105
 20
165.9872798219
 10
229.6451664938
 20
165.425669739
 10
229.4344757685
 20
164.846329495
 10
229.2528877049
 20
164.250818797
 10
229.1007702709
 20
163.6407254508
 10
228.9784180365
 20
163.0176615622
 10
228.886052594
 20
162.3832598259
 10
228.8238230818
 20
161.7391699015
 10
228.7918068016
 20
161.0870548792
 10
228.7900099171
 20
160.4285878316
 10
228.8183682263
 20
159.7654484511
 10
228.8767479985
 20
159.0993197677
 10
228.9649468681
 20
158.4318849449
 10
229.0826947802
 20
157.7648241473
 10
229.2296549812
 20
157.0998114744
 10
229.4054250516
 20
156.4385119549
 10
229.6095379776
 20
155.7825785945
 10
229.841463258
 20
155.1336494702
 10
230.1006080485
 20
154.4933448651
 10
230.3863183406
 20
153.8632644348
 10
230.6978801774
 20
153.2449844005
 10
231.0345209084
 20
152.6400547606
 10
231.3954104866
 20
152.0499965155
 10
231.7796628106
 20
151.4762988982
 10
232.1863371172
 20
150.9204166076
 10
232.6144394303
 20
150.383767037
 10
233.0629240711
 20
149.8677274958
 10
233.5306952366
 20
149.3736324209
 10
234.0166086548
 20
148.9027705745
 10
234.5194733222
 20
148.4563822289
 10
235.0380533335
 20
148.035656337
 10
235.57106981
 20
147.6417276895
 10
236.1172029364
 20
147.2756740628
 10
236.6750941133
 20
146.9385133597
 10
237.2433482347
 20
146.6312007486
 10
237.8205360964
 20
146.3546258091
 10
238.4051969455
 20
146.1096096894
 10
238.9958411758
 20
145.8969022881
 10
239.5909531763
 20
145.7171794694
 10
240.1889943386
 20
145.5710403254
 10
240.7884062271
 20
145.4590044989
 10
241.3876139156
 20
145.3815095829
 10
241.9850294928
 20
145.3389086132
 10
242.5790557368
 20
145.3314676728
 10
243.1680899582
 20
145.3593636267
 10
243.7505280093
 20
145.422682009
 10
244.3247684544
 20
145.5214150814
 10
244.8892168961
 20
145.6554600885
 10
245.4422904477
 20
145.8246177292
 10
245.9824223425
 20
146.0285908697
 10
246.5080666672
 20
146.2669835204
 10
247.0177032043
 20
146.5393000995
 10
247.5098423655
 20
146.8449450066
 10
247.9830301996
 20
147.1832225271
 10
248.4358534501
 20
147.5533370897
 10
248.8669446413
 20
147.9543938953
 10
249.2749871665
 20
148.3853999355
 10
249.6587203516
 20
148.8452654171
 10
250.0169444634
 20
149.3328056053
 10
250.348525635
 20
149.8467430969
 10
250.6524006741
 20
150.3857105326
 10
250.9275817228
 20
150.9482537514
 10
251.173160736
 20
151.5328353897
 10
251.3883137448
 20
152.1378389234
 10
251.5723048708
 20
152.7615731461
 10
251.7244900599
 20
153.4022770737
 10
251.8443205032
 20
154.0581252622
 10
251.9313457131
 20
154.7272335202
 10
251.9852162278
 20
155.4076649939
 10
252.0056859155
 20
156.0974365995
 10
251.9926138541
 20
156.7945257726
 10
251.9459657662
 20
157.4968775016
 10
251.8658149878
 20
158.202411609
 10
251.7523429594
 20
158.9090302394
 10
251.6058392242
 20
159.614625514
 10
251.4267009294
 20
160.3170873049
 10
251.2154318239
 20
161.0143110848
 10
250.9726407559
 20
161.7042058029
 10
250.6990396733
 20
162.3847017389
 10
250.3954411373
 20
163.0537582872
 10
250.062755362
 20
163.7093716216
 10
249.7019867975
 20
164.3495821938
 10
249.3142302778
 20
164.9724820181
 10
248.9006667579
 20
165.5762217001
 10
248.4625586697
 20
166.1590171646
 10
248.0012449251
 20
166.7191560456
 10
247.5181356036
 20
167.2550037009
 10
247.0147063575
 20
167.7650088195
 10
246.4924925739
 20
168.2477085929
 10
245.9530833328
 20
168.7017334261
 10
245.3981152002
 20
169.1258111674
 10
244.8292658978
 20
169.5187708415
 10
244.2482478899
 20
169.8795458757
 10
243.6568019253
 20
170.2071768096
 10
243.0566905768
 20
170.5008134896
 10
242.4496918129
 20
170.7597167466
 10
241.8375926396
 20
170.9832595646
 10
241.2221828461
 20
171.1709277502
 10
240.6052488866
 20
171.3223201154
 10
239.9885679271
 20
171.4371481914
  0
LWPOLYLINE
  5
3AD
330
1F
100
AcDbEntity
  8
0
  6
CONTINUOUS
 62
     7
100
AcDbPolyline
 90
      120
 70
   128
 43
0.0
 10
239.8696176017
 20
171.1620476975
 10
239.259957463
 20
171.2397576152
 10
238.6540452126
 20
171.2806545889
 10
238.0536103944
 20
171.2847802201
 10
237.460351322
 20
171.2522851423
 10
236.87593018
 20
171.1834267068
 10
236.3019684135
 20
171.0785663378
 10
235.7400424146
 20
170.9381665878
 10
235.191679513
 20
170.7627879247
 10
234.6583542752
 20
170.5530852806
 10
234.1414851116
 20
170.309804393
 10
233.6424311914
 20
170.033777969
 10
233.1624896613
 20
169.7259217008
 10
232.7028931622
 20
169.3872301603
 10
232.2648076356
 20
169.018772601
 10
231.8493304112
 20
168.6216886897
 10
231.4574885642
 20
168.1971841939
 10
231.0902375314
 20
167.7465266452
 10
230.7484599715
 20
167.2710409984
 10
230.4329648581
 20
166.7721053052
 10
230.144486789
 20
166.251146417
 10
229.8836854994
 20
165.7096357316
 10
229.6511455631
 20
165.1490849958
 10
229.447376267
 20
164.5710421725
 10
229.2728116458
 20
163.9770873826
 10
229.1278106622
 20
163.3688289259
 10
229.0126575181
 20
162.7478993871
 10
228.9275620861
 20
162.1159518289
 10
228.8726604478
 20
161.4746560739
 10
228.8480155273
 20
160.8256950751
 10
228.8536178107
 20
160.1707613748
 10
228.8893861411
 20
159.5115536474
 10
228.955168582
 20
158.8497733245
 10
229.0507433396
 20
158.1871212968
 10
229.1758197399
 20
157.5252946885
 10
229.3300392548
 20
156.8659836969
 10
229.5129765726
 20
156.210868493
 10
229.72414071
 20
155.5616161739
 10
229.9629761652
 20
154.9198777629
 10
230.2288641095
 20
154.2872852469
 10
230.5211236189
 20
153.6654486478
 10
230.8390129469
 20
153.055953117
 10
231.1817308407
 20
152.4603560502
 10
231.548417904
 20
151.880184213
 10
231.9381580108
 20
151.3169308736
 10
232.3499797754
 20
150.7720529362
 10
232.7828580833
 20
150.2469680717
 10
233.2357156914
 20
149.7430518409
 10
233.7074249019
 20
149.2616348084
 10
234.1968093198
 20
148.8039996449
 10
234.7026457008
 20
148.3713782178
 10
235.223665897
 20
147.9649486703
 10
235.7585589107
 20
147.5858324915
 10
236.305973063
 20
147.2350915794
 10
236.8645182865
 20
146.9137253039
 10
237.4327685498
 20
146.6226675732
 10
238.0092644222
 20
146.362783913
 10
238.5925157847
 20
146.1348685675
 10
239.1810046961
 20
145.9396416323
 10
239.7731884177
 20
145.777746232
 10
240.3675026035
 20
145.6497457563
 10
240.9623646587
 20
145.55612117
 10
241.5561772699
 20
145.4972684136
 10
242.1473321072
 20
145.4734959124
 10
242.7342136995
 20
145.4850222141
 10
243.3152034787
 20
145.5319737757
 10
243.8886839915
 20
145.6143829199
 10
244.4530432706
 20
145.7321859855
 10
245.0066793598
 20
145.8852216937
 10
245.5480049804
 20
146.0732297534
 10
246.075452329
 20
146.2958497308
 10
246.5874779905
 20
146.5526202061
 10
247.0825679505
 20
146.84297824
 10
247.5592426874
 20
147.1662591742
 10
248.016062323
 20
147.5216967864
 10
248.4516318083
 20
147.9084238208
 10
248.8646061182
 20
148.3254729134
 10
249.2536954288
 20
148.7717779272
 10
249.6176702462
 20
149.2461757147
 10
249.9553664576
 20
149.7474083174
 10
250.2656902714
 20
150.2741256119
 10
250.5476230138
 20
150.8248884099
 10
250.8002257472
 20
151.3981720125
 10
251.0226436776
 20
151.9923702187
 10
251.2141103147
 20
152.6057997838
 10
251.3739513524
 20
153.2367053159
 10
251.5015882365
 20
153.8832646002
 10
251.5965413869
 20
154.5435943321
 10
251.6584330443
 20
155.2157562372
 10
251.6869897145
 20
155.8977635536
 10
251.6820441824
 20
156.5875878455
 10
251.6435370745
 20
157.2831661167
 10
251.571517949
 20
157.9824081839
 10
251.4661458977
 20
158.6832042734
 10
251.3276896472
 20
159.3834327947
 10
251.1565271507
 20
160.0809682483
 10
250.9531446653
 20
160.7736892185
 10
250.7181353165
 20
161.4594864034
 10
250.4521971521
 20
162.1362706322
 10
250.1561306954
 20
162.8019808188
 10
249.8308360106
 20
163.4545918032
 10
249.477309297
 20
164.0921220306
 10
249.0966390335
 20
164.7126410196
 10
248.6900016983
 20
165.3142765751
 10
248.2586570929
 20
165.895221701
 10
247.8039433003
 20
166.4537411719
 10
247.3272713134
 20
166.9881777262
 10
246.8301193704
 20
167.4969578472
 10
246.3140270335
 20
167.9785971005
 10
245.7805890547
 20
168.4317050045
 10
245.2314490662
 20
168.8549894093
 10
244.6682931392
 20
169.24726037
 10
244.0928432521
 20
169.6074335004
 10
243.5068507091
 20
169.9345328007
 10
242.9120895495
 20
170.2276929542
 10
242.3103499869
 20
170.4861610976
 10
241.7034319164
 20
170.7092980664
 10
241.0931385234
 20
170.8965791295
 10
240.481270029
 20
171.0475942221
 10
239.8696176017
 20
171.1620476975
  0
LWPOLYLINE
  5
3AE
330
1F
100
AcDbEntity
  8
0
  6
CONTINUOUS
 62
     7
100
AcDbPolyline
 90
      114
 70
   128
 43
0.0
 10
239.8792493675
 20
169.939705026
 10
239.2980200587
 20
170.0145165816
 10
238.7204790668
 20
170.0524190299
 10
238.1484500676
 20
170.053444372
 10
237.5837236178
 20
170.0177451195
 10
237.0280514499
 20
169.9455918169
 10
236.4831410967
 20
169.837370162
 10
235.9506508552
 20
169.6935777606
 10
235.4321851026
 20
169.5148205536
 10
234.9292899663
 20
169.3018089504
 10
234.4434493535
 20
169.0553537068
 10
233.976081338
 20
168.7763615825
 10
233.5285349008
 20
168.4658308127
 10
233.1020870185
 20
168.1248464269
 10
232.6979400914
 20
167.7545754474
 10
232.3172196994
 20
167.3562619965
 10
231.9609726753
 20
166.9312223406
 10
231.6301654804
 20
166.4808398972
 10
231.3256828682
 20
166.0065602275
 10
231.0483268196
 20
165.5098860362
 10
230.7988157352
 20
164.9923721965
 10
230.5777838652
 20
164.455620817
 10
230.3857809629
 20
163.9012763643
 10
230.2232721436
 20
163.331020852
 10
230.0906379326
 20
162.7465691062
 10
229.9881744869
 20
162.1496641137
 10
229.9160939764
 20
161.5420724586
 10
229.8745251077
 20
160.9255798501
 10
229.8635137808
 20
160.3019867417
 10
229.8830238632
 20
159.6731040432
 10
229.9329380727
 20
159.0407489227
 10
230.0130589577
 20
158.4067406949
 10
230.1231099677
 20
157.7728967929
 10
230.2627366055
 20
157.141028817
 10
230.4315076569
 20
156.5129386551
 10
230.6289164925
 20
155.8904146684
 10
230.8543824384
 20
155.275227935
 10
231.1072522155
 20
154.6691285445
 10
231.3868014456
 20
154.0738419362
 10
231.6922362264
 20
153.4910652746
 10
232.0226947766
 20
152.9224638536
 10
232.3772491557
 20
152.369667526
 10
232.7549070617
 20
151.8342671491
 10
233.1546137135
 20
151.317811045
 10
233.5752538226
 20
150.8218014682
 10
234.0156536635
 20
150.347691081
 10
234.4745832485
 20
149.8968794323
 10
234.9507586166
 20
149.4707094402
 10
235.442844245
 20
149.0704638809
 10
235.9494555914
 20
148.6973618841
 10
236.4691617775
 20
148.3525554416
 10
237.0004884221
 20
148.0371259332
 10
237.5419206317
 20
147.7520806792
 10
238.0919061585
 20
147.4983495286
 10
238.6488587325
 20
147.2767814941
 10
239.2111615744
 20
147.0881414495
 10
239.7771710953
 20
146.9331069016
 10
240.3452207883
 20
146.8122648572
 10
240.9136253143
 20
146.7261088025
 10
241.4806847836
 20
146.6750358161
 10
242.0446892332
 20
146.6593438379
 10
242.6039232976
 20
146.6792291182
 10
243.1566710672
 20
146.7347838721
 10
243.7012211293
 20
146.8259941651
 10
244.2358717806
 20
146.9527380567
 10
244.7589363997
 20
147.1147840313
 10
245.2687489648
 20
147.3117897414
 10
245.7636696989
 20
147.5433010942
 10
246.2420908225
 20
147.8087517061
 10
246.7024423895
 20
148.107462753
 10
247.1431981821
 20
148.4386432424
 10
247.5628816339
 20
148.8013907289
 10
247.9600717531
 20
149.1946924966
 10
248.3334090086
 20
149.617427227
 10
248.6816011471
 20
150.0683671679
 10
249.0034289017
 20
150.5461808174
 10
249.2977515538
 20
151.0494361318
 10
249.5635123084
 20
151.576604262
 10
249.7997434422
 20
152.1260638208
 10
250.0055711842
 20
152.6961056755
 10
250.1802202866
 20
153.2849382586
 10
250.3230182477
 20
153.8906933827
 10
250.4333991477
 20
154.5114325408
 10
250.5109070597
 20
155.1451536673
 10
250.555199002
 20
155.7897983329
 10
250.5660474003
 20
156.4432593376
 10
250.5433420296
 20
157.1033886646
 10
250.487091413
 20
157.7680057505
 10
250.3974236547
 20
158.4349060276
 10
250.2745866933
 20
159.1018696846
 10
250.1189479617
 20
159.766670594
 10
249.9309934494
 20
160.4270853491
 10
249.711326165
 20
161.0809023529
 10
249.4606640034
 20
161.7259308992
 10
249.1798370286
 20
162.3600101858
 10
248.8697841855
 20
162.9810182005
 10
248.5315494619
 20
163.5868804204
 10
248.1662775258
 20
164.1755782673
 10
247.7752088679
 20
164.7451572645
 10
247.359674483
 20
165.2937348417
 10
246.9210901282
 20
165.8195077404
 10
246.4609502005
 20
166.3207589738
 10
245.9808212758
 20
166.7958643026
 10
245.4823353581
 20
167.2432981891
 10
244.967182885
 20
167.6616392021
 10
244.4371055403
 20
168.0495748456
 10
243.8938889226
 20
168.4059057938
 10
243.3393551197
 20
168.7295495182
 10
242.7753552381
 20
169.0195432998
 10
242.203761935
 20
169.2750466234
 10
241.626461999
 20
169.4953429583
 10
241.0453490236
 20
169.6798409328
 10
240.4623162142
 20
169.8280749163
 10
239.8792493675
 20
169.939705026
  0
ARC
  5
3AF
330
1F
100
AcDbEntity
  8
0
  6
CONTINUOUS
 62
     7
100
AcDbCircle
 10
241.6419244138
 20
163.5832508432
 30
0.0
 40
9.387120731770795
100
AcDbArc
 50
80.5815584175
 51
116.6818166774
  0
LWPOLYLINE
  5
3B0
330
1F
100
AcDbEntity
  8
0
  6
CONTINUOUS
 62
     7
100
AcDbPolyline
 90
       48
 70
   128
 43
0.0
 10
250.5740042058
 20
148.7769624561
 10
250.9874772402
 20
149.0745074476
 10
251.4355648583
 20
149.4399045326
 10
251.862279799
 20
149.835552729
 10
252.2663221736
 20
150.260469058
 10
252.6464472094
 20
150.7135761481
 10
253.0014701617
 20
151.1937040989
 10
253.3302711397
 20
151.6995927631
 10
253.6317998184
 20
152.2298944526
 10
253.9050800019
 20
152.7831770744
 10
254.1492140088
 20
153.357927696
 10
254.3633868451
 20
153.9525565382
 10
254.5468701339
 20
154.5654013892
 10
254.6990257691
 20
155.1947324296
 10
254.8193092632
 20
155.8387574556
 10
254.9072727585
 20
156.4956274807
 10
254.9625676743
 20
157.1634426965
 10
254.9849469638
 20
157.8402587655
 10
254.9742669575
 20
158.5240934186
 10
254.9304887711
 20
159.2129333235
 10
254.853679261
 20
159.9047411891
 10
254.7440115121
 20
160.5974630679
 10
254.6017648473
 20
161.2890358148
 10
254.4273243505
 20
161.9773946594
 10
254.2211799011
 20
162.660480847
 10
253.9839247193
 20
163.336249303
 10
253.7162534278
 20
164.0026762729
 10
253.4189596379
 20
164.6577668912
 10
253.092933074
 20
165.299562634
 10
252.7391562517
 20
165.9261486064
 10
252.3587007316
 20
166.5356606235
 10
251.9527229709
 20
167.1262920399
 10
251.5224598014
 20
167.696300288
 10
251.0692235639
 20
168.2440130877
 10
250.5943969299
 20
168.7678342914
 10
250.0994274477
 20
169.2662493354
 10
249.5858218478
 20
169.7378302671
 10
249.0551401463
 20
170.1812403267
 10
248.508989584
 20
170.5952380633
 10
247.9490184416
 20
170.9786809694
 10
247.3769097698
 20
171.3305286235
 10
246.7943750721
 20
171.6498453338
 10
246.2031479796
 20
171.9358022812
 10
245.6049779539
 20
172.1876791623
 10
245.0016240535
 20
172.4048653384
 10
244.3948487965
 20
172.5868604995
 10
243.786412152
 20
172.7332748576
 10
243.1780656878
 20
172.8438288824
  0
LWPOLYLINE
  5
3B1
330
1F
100
AcDbEntity
  8
0
  6
CONTINUOUS
 62
     7
100
AcDbPolyline
 90
      113
 70
   128
 43
0.0
 10
240.0027162679
 20
169.61122862
 10
239.4357891456
 20
169.6844515635
 10
238.8724502046
 20
169.7213770205
 10
238.3145089287
 20
169.7220319089
 10
237.7637422554
 20
169.6865635875
 10
237.2218888168
 20
169.6152374352
 10
236.6906435056
 20
169.5084340215
 10
236.1716523801
 20
169.3666459055
 10
235.6665079181
 20
169.1904740993
 10
235.1767446254
 20
168.9806242316
 10
234.7038350025
 20
168.7379024485
 10
234.2491858683
 20
168.4632110868
 10
233.8141350397
 20
168.1575441541
 10
233.3999483583
 20
167.8219826504
 10
233.0078170594
 20
167.4576897611
 10
232.638855471
 20
167.0659059531
 10
232.2940990313
 20
166.6479440013
 10
231.9745026126
 20
166.2051839713
 10
231.6809391349
 20
165.7390681818
 10
231.4141984561
 20
165.2510961687
 10
231.1749865207
 20
164.7428196681
 10
230.9639247521
 20
164.2158376369
 10
230.7815496708
 20
163.6717913226
 10
230.6283127237
 20
163.1123593955
 10
230.5045803062
 20
162.5392531525
 10
230.4106339638
 20
161.9542117991
 10
230.3466707561
 20
161.3589978154
 10
230.3128037718
 20
160.7553924093
 10
230.3090627789
 20
160.1451910581
 10
230.3353949999
 20
159.5301991382
 10
230.3916660009
 20
158.9122276427
 10
230.4776606846
 20
158.2930889815
 10
230.5930843788
 20
157.6745928629
 10
230.7375640153
 20
157.0585422496
 10
230.9106493903
 20
156.4467293843
 10
231.111814506
 20
155.840931879
 10
231.3404589879
 20
155.2429088614
 10
231.5959095773
 20
154.6543971707
 10
231.8774216993
 20
154.0771075982
 10
232.1841811068
 20
153.5127211637
 10
232.5153056033
 20
152.9628854235
 10
232.8698468482
 20
152.4292108032
 10
233.2467922485
 20
151.9132669508
 10
233.6450669433
 20
151.4165791061
 10
234.0635358871
 20
150.9406244824
 10
234.5010060384
 20
150.4868286595
 10
234.9562286632
 20
150.056561987
 10
235.4279017597
 20
149.6511359978
 10
235.9146726134
 20
149.271799835
 10
236.4151404919
 20
148.9197366953
 10
236.9278594873
 20
148.5960602951
 10
237.4513415152
 20
148.3018113652
 10
237.984059478
 20
148.0379541846
 10
238.5244506005
 20
147.8053731645
 10
239.0709199448
 20
147.6048694934
 10
239.621844109
 20
147.4371578607
 10
240.175575116
 20
147.302863274
 10
240.7304444954
 20
147.2025179884
 10
241.2847675588
 20
147.1365585689
 10
241.8368478699
 20
147.1053231076
 10
242.3849819072
 20
147.1090486184
 10
242.9274639143
 20
147.1478686349
 10
243.4625909319
 20
147.2218110362
 10
243.988668002
 20
147.3307961284
 10
244.5040135339
 20
147.4746350086
 10
245.006964816
 20
147.6530282388
 10
245.4958836577
 20
147.8655648582
 10
245.9691621409
 20
148.11172176
 10
246.4252284593
 20
148.3908634604
 10
246.8625528184
 20
148.7022422847
 10
247.2796533704
 20
149.0449989942
 10
247.6751021517
 20
149.4181638762
 10
248.047530991
 20
149.8206583167
 10
248.3956373518
 20
150.2512968719
 10
248.7181900741
 20
150.7087898528
 10
249.0140349754
 20
151.1917464321
 10
249.2821002709
 20
151.6986782804
 10
249.5214017747
 20
152.2280037315
 10
249.7310478386
 20
152.7780524763
 10
249.910243989
 20
153.3470707751
 10
250.058297222
 20
153.9332271774
 10
250.1746199177
 20
154.5346187308
 10
250.2587333354
 20
155.1492776557
 10
250.3102706564
 20
155.7751784581
 10
250.3289795406
 20
156.4102454482
 10
250.3147241679
 20
157.0523606253
 10
250.2674867399
 20
157.6993718889
 10
250.1873684188
 20
158.3491015279
 10
250.0745896886
 20
158.9993549396
 10
249.9294901238
 20
159.6479295227
 10
249.7525275616
 20
160.2926236916
 10
249.5442766726
 20
160.9312459515
 10
249.3054269359
 20
161.561623976
 10
249.0367800257
 20
162.1816136277
 10
248.739246625
 20
162.7891078609
 10
248.4138426844
 20
163.3820454483
 10
248.0616851517
 20
163.9584194725
 10
247.6839871999
 20
164.5162855283
 10
247.2820529887
 20
165.0537695819
 10
246.8572719954
 20
165.5690754375
 10
246.4111129568
 20
166.0604917669
 10
245.9451174658
 20
166.5263986597
 10
245.4608932681
 20
166.9652736582
 10
244.960107309
 20
167.3756972473
 10
244.444478576
 20
167.7563577713
 10
243.9157707909
 20
168.1060557601
 10
243.3757849978
 20
168.423707649
 10
242.826352098
 20
168.7083488838
 10
242.2693253797
 20
168.9591364079
 10
241.7065730879
 20
169.1753505351
 10
241.1399710801
 20
169.3563962133
 10
240.5713956085
 20
169.5018036935
 10
240.0027162679
 20
169.61122862
  0
SPLINE
  5
3B2
330
1F
100
AcDbEntity
  8
0
  6
CONTINUOUS
 62
     7
100
AcDbSpline
210
0.0
220
0.0
230
1.0
 70
     8
 71
     3
 72
    33
 73
    29
 74
     0
 42
0.000000001
 43
0.00000001
 40
0.0
 40
0.0
 40
0.0
 40
0.0
 40
0.089445456614075
 40
0.1790065437512087
 40
0.2241733340539943
 40
0.2693981222585721
 40
0.3149306423310618
 40
0.3606804391672769
 40
0.3939216021068165
 40
0.4276061882742985
 40
0.4457464042011942
 40
0.4641967238716859
 40
0.4788806477908563
 40
0.4939555989824041
 40
0.5086594413029388
 40
0.5238550772539641
 40
0.5418067629450668
 40
0.5602637590842207
 40
0.5761560210738966
 40
0.5921759181232616
 40
0.6248102657072978
 40
0.6517385102581092
 40
0.6787678461169145
 40
0.7332603730005195
 40
0.7886100185319748
 40
0.8440728964366587
 40
0.921993147019912
 40
1.0
 40
1.0
 40
1.0
 40
1.0
 10
257.9348145265981
 20
194.4775914524933
 30
0.0
 10
257.9849988690973
 20
194.7696791630733
 30
0.0
 10
258.0854173478326
 20
195.3541443985021
 30
0.0
 10
258.2251574692027
 20
196.0790593141102
 30
0.0
 10
258.3473167515187
 20
196.6542155671017
 30
0.0
 10
258.446447793925
 20
197.0834788225977
 30
0.0
 10
258.5549365629329
 20
197.5067310740761
 30
0.0
 10
258.6651775093961
 20
197.8813153079662
 30
0.0
 10
258.7776645970466
 20
198.2031037796769
 30
0.0
 10
258.8738230251053
 20
198.4277458149009
 30
0.0
 10
258.9626649582851
 20
198.5901579764133
 30
0.0
 10
259.0329316260842
 20
198.6912015176782
 30
0.0
 10
259.1032798862046
 20
198.76456220381
 30
0.0
 10
259.1707356587731
 20
198.8093547627657
 30
0.0
 10
259.2395179327968
 20
198.8276952202402
 30
0.0
 10
259.3107942608373
 20
198.8180678278539
 30
0.0
 10
259.3831256843063
 20
198.7769012243832
 30
0.0
 10
259.4502306653208
 20
198.7089976468686
 30
0.0
 10
259.5095008969755
 20
198.6265557919477
 30
0.0
 10
259.5797846202448
 20
198.505634171206
 30
0.0
 10
259.6534630563577
 20
198.3435178724108
 30
0.0
 10
259.7288968995878
 20
198.1408490322715
 30
0.0
 10
259.81535826126
 20
197.8733738480366
 30
0.0
 10
259.9124199210274
 20
197.5171212553288
 30
0.0
 10
260.0163838093802
 20
197.0695343417061
 30
0.0
 10
260.1238482423238
 20
196.5456283016999
 30
0.0
 10
260.2334137247405
 20
195.9476980900097
 30
0.0
 10
260.3059044454087
 20
195.4986654733074
 30
0.0
 10
260.3421108993871
 20
195.2743901643906
 30
0.0
  0
SPLINE
  5
3B3
330
1F
100
AcDbEntity
  8
0
  6
CONTINUOUS
 62
     7
100
AcDbSpline
210
0.0
220
0.0
230
1.0
 70
     8
 71
     3
 72
    28
 73
    24
 74
     0
 42
0.000000001
 43
0.00000001
 40
0.0
 40
0.0
 40
0.0
 40
0.0
 40
0.0972255113431564
 40
0.1946090893191801
 40
0.2432285039851774
 40
0.2919391723643759
 40
0.3411926083129173
 40
0.390890412033422
 40
0.4337685099882865
 40
0.4551788160454072
 40
0.4772625435513963
 40
0.5053813864235471
 40
0.5334936149755939
 40
0.554161585268542
 40
0.5753873246440475
 40
0.6002304370079936
 40
0.6253393947562281
 40
0.6766345550155384
 40
0.7299024203613863
 40
0.7833926898685565
 40
0.8371588471283045
 40
0.8899244298408794
 40
1.0
 40
1.0
 40
1.0
 40
1.0
 10
252.6497063085927
 20
194.4775914524932
 30
0.0
 10
252.7619324414985
 20
194.7781191197616
 30
0.0
 10
252.9867813740379
 20
195.3802366786067
 30
0.0
 10
253.3050449477765
 20
196.1200579021277
 30
0.0
 10
253.5880173348408
 20
196.700479601413
 30
0.0
 10
253.8208238454547
 20
197.1282318580586
 30
0.0
 10
254.0823762914527
 20
197.544554554086
 30
0.0
 10
254.3714115695119
 20
197.9197367648684
 30
0.0
 10
254.6488433665926
 20
198.1845370370137
 30
0.0
 10
254.8930891308721
 20
198.3409591175944
 30
0.0
 10
255.11639734011
 20
198.4327378793456
 30
0.0
 10
255.3822240545012
 20
198.4623249197642
 30
0.0
 10
255.6356029414895
 20
198.3994740401704
 30
0.0
 10
255.8424278962644
 20
198.290855270488
 30
0.0
 10
256.0209377224873
 20
198.1588450067501
 30
0.0
 10
256.1919402871912
 20
197.9959050563587
 30
0.0
 10
256.4112757849841
 20
197.7424008968528
 30
0.0
 10
256.6558822387976
 20
197.3895270241541
 30
0.0
 10
256.9148521986779
 20
196.9365506674407
 30
0.0
 10
257.1500657947072
 20
196.4624426791814
 30
0.0
 10
257.3640167552387
 20
195.9809425405828
 30
0.0
 10
257.6336839103835
 20
195.3216050821106
 30
0.0
 10
257.8134240229618
 20
194.8178266662457
 30
0.0
 10
257.9348145265981
 20
194.4775914524933
 30
0.0
  0
SPLINE
  5
3B4
330
1F
100
AcDbEntity
  8
0
  6
CONTINUOUS
 62
     7
100
AcDbSpline
210
0.0
220
0.0
230
1.0
 70
     8
 71
     3
 72
    36
 73
    32
 74
     0
 42
0.000000001
 43
0.00000001
 40
0.0
 40
0.0
 40
0.0
 40
0.0
 40
0.0972040965163673
 40
0.1458736840018209
 40
0.1945746820925323
 40
0.2431833878784291
 40
0.291883327278045
 40
0.3164914843616262
 40
0.3411355104783322
 40
0.3659441840277479
 40
0.3908483793784067
 40
0.4122133531927978
 40
0.4337693744447359
 40
0.4634131156163575
 40
0.4772416893914304
 40
0.4911494942817735
 40
0.5054560411026008
 40
0.5335620776737896
 40
0.5542254956532775
 40
0.5754465598614744
 40
0.6002842002979318
 40
0.625387627563749
 40
0.6509957613616109
 40
0.6766914645970056
 40
0.7033050749253871
 40
0.7299563367581547
 40
0.7834348245339599
 40
0.837189139295488
 40
0.8899430998957315
 40
0.9449595339379755
 40
1.0
 40
1.0
 40
1.0
 40
1.0
 10
249.9570179814412
 20
195.2743901643904
 30
0.0
 10
250.0131532146189
 20
195.5537214099982
 30
0.0
 10
250.0975380269809
 20
195.973623731823
 30
0.0
 10
250.2220353820355
 20
196.5229662117963
 30
0.0
 10
250.3212309899172
 20
196.9300000341238
 30
0.0
 10
250.4281666659643
 20
197.3292976789359
 30
0.0
 10
250.5257370881378
 20
197.6533558092101
 30
0.0
 10
250.6110118324196
 20
197.9048090137597
 30
0.0
 10
250.6797221442868
 20
198.0891010163766
 30
0.0
 10
250.7538728175157
 20
198.2662804097245
 30
0.0
 10
250.8308903302516
 20
198.4252687944439
 30
0.0
 10
250.9112663101299
 20
198.5637113864041
 30
0.0
 10
251.0054660235194
 20
198.6930453747208
 30
0.0
 10
251.100953356675
 20
198.7800621632333
 30
0.0
 10
251.1932048166767
 20
198.8194807057452
 30
0.0
 10
251.2638242229328
 20
198.8271379188459
 30
0.0
 10
251.3602059779509
 20
198.8052789360439
 30
0.0
 10
251.4664199417035
 20
198.7256063813147
 30
0.0
 10
251.572053404851
 20
198.5889753479733
 30
0.0
 10
251.6633896577343
 20
198.4328817749143
 30
0.0
 10
251.7509710168245
 20
198.246831419322
 30
0.0
 10
251.8349478864236
 20
198.0354489439974
 30
0.0
 10
251.9125673019885
 20
197.8123219343659
 30
0.0
 10
251.9857110567285
 20
197.5782243602453
 30
0.0
 10
252.054802709945
 20
197.3361604277538
 30
0.0
 10
252.1425195483156
 20
197.004043743936
 30
0.0
 10
252.2436550101508
 20
196.5805938471897
 30
0.0
 10
252.3542262276726
 20
196.068037483482
 30
0.0
 10
252.4579030939384
 20
195.5460880282297
 30
0.0
 10
252.5563573019355
 20
195.0169477546569
 30
0.0
 10
252.6185836430811
 20
194.657413460085
 30
0.0
 10
252.6497063085927
 20
194.4775914524932
 30
0.0
  0
LINE
  5
3B5
330
1F
100
AcDbEntity
  8
0
  6
CONTINUOUS
 62
     7
100
AcDbLine
 10
249.9869970718
 20
195.450285071
 30
0.0
 11
249.9570179814
 21
195.2743901644
 31
0.0
  0
LINE
  5
3B6
330
1F
100
AcDbEntity
  8
0
  6
CONTINUOUS
 62
     7
100
AcDbLine
 10
260.3421108994
 20
195.2743901644
 30
0.0
 11
260.2413220586
 21
195.84273201
 31
0.0
  0
LWPOLYLINE
  5
3B7
330
1F
100
AcDbEntity
  8
0
  6
CONTINUOUS
 62
     7
100
AcDbPolyline
 90
       67
 70
   128
 43
0.0
 10
257.1590369347
 20
201.5002800344
 10
257.4997448468
 20
201.4682736902
 10
257.8204669248
 20
201.4316128958
 10
258.118348059
 20
201.3906042295
 10
258.3907081364
 20
201.3455927855
 10
258.6350655256
 20
201.2969599693
 10
258.8491598955
 20
201.2451209697
 10
259.0309741604
 20
201.1905218989
 10
259.1787553221
 20
201.1336365944
 10
259.2910339436
 20
201.0749630825
 10
259.3666419703
 20
201.015019707
 10
259.4047285915
 20
200.9543409334
 10
259.4047738234
 20
200.8934728469
 10
259.366599488
 20
200.8329683696
 10
259.290377268
 20
200.7733822312
 10
259.1766335316
 20
200.715265737
 10
259.0262506459
 20
200.6591613841
 10
258.8404645343
 20
200.6055973864
 10
258.6208582851
 20
200.5550821774
 10
258.3693516733
 20
200.5080989629
 10
258.08818653
 20
200.4651004052
 10
257.7799079705
 20
200.4265035213
 10
257.4473415767
 20
200.3926848775
 10
257.0935667145
 20
200.3639761662
 10
256.7218862576
 20
200.3406602424
 10
256.3357930726
 20
200.3229676947
 10
255.9389337015
 20
200.311074017
 10
255.5350697464
 20
200.3050974355
 10
255.1280375248
 20
200.3050974355
 10
254.7217066036
 20
200.311074017
 10
254.3199378539
 20
200.3229676947
 10
253.9265416787
 20
200.3406602424
 10
253.5452370586
 20
200.3639761662
 10
253.179612041
 20
200.3926848775
 10
252.8330862542
 20
200.4265035213
 10
252.5088759773
 20
200.4651004052
 10
252.2099622285
 20
200.5080989629
 10
251.9390622559
 20
200.5550821774
 10
251.6986047372
 20
200.6055973864
 10
251.4907089011
 20
200.6591613841
 10
251.317167703
 20
200.715265737
 10
251.1794350985
 20
200.7733822312
 10
251.0786173823
 20
200.8329683696
 10
251.0154684858
 20
200.8934728469
 10
250.990389069
 20
200.9543409334
 10
251.0034291847
 20
201.015019707
 10
251.0542942576
 20
201.0749630825
 10
251.1423540896
 20
201.1336365944
 10
251.2666545839
 20
201.1905218989
 10
251.425931875
 20
201.2451209697
 10
251.6186285514
 20
201.2969599693
 10
251.8429116704
 20
201.3455927855
 10
252.0966922789
 20
201.3906042295
 10
252.3776461793
 20
201.4316128958
 10
252.6832357036
 20
201.4682736902
 10
253.0107322894
 20
201.5002800344
 10
253.3572396793
 20
201.527365759
 10
253.719717598
 20
201.549306695
 10
254.0950057857
 20
201.5659219777
 10
254.4798482938
 20
201.5770750745
 10
254.8709179726
 20
201.5826745454
 10
255.2648410951
 20
201.5826745454
 10
255.6582220793
 20
201.5770750745
 10
256.0476682747
 20
201.5659219777
 10
256.4298147878
 20
201.549306695
 10
256.801349313
 20
201.527365759
 10
257.1590369347
 20
201.5002800344
  0
LINE
  5
3B8
330
1F
100
AcDbEntity
  8
0
  6
CONTINUOUS
 62
     7
100
AcDbLine
 10
257.9120844078
 20
192.4836151601
 30
0.0
 11
257.9348145266
 21
194.4775914525
 31
0.0
  0
LINE
  5
3B9
330
1F
100
AcDbEntity
  8
0
  6
CONTINUOUS
 62
     7
100
AcDbLine
 10
257.9120844078
 20
192.4836151601
 30
0.0
 11
252.6381095096
 21
192.4836151601
 31
0.0
  0
LINE
  5
3BA
330
1F
100
AcDbEntity
  8
0
  6
CONTINUOUS
 62
     7
100
AcDbLine
 10
252.6381095096
 20
192.4836151601
 30
0.0
 11
252.6497063086
 21
194.4775914525
 31
0.0
  0
LWPOLYLINE
  5
3BB
330
1F
100
AcDbEntity
  8
0
  6
CONTINUOUS
 62
     7
100
AcDbPolyline
 90
       62
 70
   128
 43
0.0
 10
253.492793213
 20
200.4798527368
 10
253.8277853079
 20
200.4538711665
 10
254.1778866819
 20
200.4332348824
 10
254.539261547
 20
200.4181797181
 10
254.9079346839
 20
200.4088781734
 10
255.2798398657
 20
200.4054370125
 10
255.6508698678
 20
200.4078957702
 10
256.0169272205
 20
200.4162261965
 10
256.3739748369
 20
200.430332653
 10
256.718085654
 20
200.4500534532
 10
257.0454904466
 20
200.4751631154
 10
257.3526230332
 20
200.5053754802
 10
257.6361621592
 20
200.5403476253
 10
257.8930694378
 20
200.5796844952
 10
258.1206228372
 20
200.6229441518
 10
258.3164453121
 20
200.6696435407
 10
258.4785283061
 20
200.7192646653
 10
258.605249965
 20
200.7712610562
 10
258.6953880236
 20
200.8250644257
 10
258.7481274313
 20
200.8800914005
 10
258.7630628838
 20
200.9357502334
 10
258.7401965058
 20
200.9914474024
 10
258.6799310007
 20
201.0465940165
 10
258.5830586313
 20
201.1006119587
 10
258.4507464298
 20
201.1529397095
 10
258.2845180558
 20
201.2030378034
 10
258.0862327224
 20
201.2503938853
 10
257.8580616032
 20
201.2945273428
 10
257.6024621138
 20
201.3349934988
 10
257.3221504338
 20
201.3713873586
 10
257.0200726011
 20
201.4033469114
 10
256.699374474
 20
201.4305559911
 10
256.3633708198
 20
201.452746704
 10
256.0155137483
 20
201.4697014345
 10
255.6593606748
 20
201.4812544397
 10
255.2985419693
 20
201.4872930422
 10
254.9367284185
 20
201.4877584311
 10
254.5775986127
 20
201.4826460763
 10
254.2248063556
 20
201.4720057603
 10
253.8819481934
 20
201.4559412279
 10
253.5525311604
 20
201.4346094499
 10
253.2399408542
 20
201.4082194961
 10
252.9474099663
 20
201.3770310087
 10
252.677987425
 20
201.3413522655
 10
252.4345083329
 20
201.3015378232
 10
252.2195649175
 20
201.25798573
 10
252.0354787498
 20
201.2111342972
 10
251.8842745218
 20
201.1614584274
 10
251.7676557104
 20
201.109465495
 10
251.6869824857
 20
201.055690787
 10
251.6432522477
 20
201.0006925159
 10
251.6370831917
 20
200.9450464274
 10
251.6687013105
 20
200.8893400353
 10
251.7379312332
 20
200.8341665285
 10
251.8441912816
 20
200.780118404
 10
251.9864930869
 20
200.7277808946
 10
252.163446059
 20
200.6777252708
 10
252.3732669302
 20
200.6305021037
 10
252.613794512
 20
200.586634591
 10
252.8825097074
 20
200.5466120488
 10
253.1765607109
 20
200.5108836811
 10
253.492793213
 20
200.4798527368
  0
LINE
  5
3BC
330
1F
100
AcDbEntity
  8
0
  6
CONTINUOUS
 62
     7
100
AcDbLine
 10
249.951196998
 20
193.3136143236
 30
0.0
 11
249.9570179814
 21
195.2743901644
 31
0.0
  0
LINE
  5
3BD
330
1F
100
AcDbEntity
  8
0
  6
CONTINUOUS
 62
     7
100
AcDbLine
 10
252.6381095096
 20
192.4836151601
 30
0.0
 11
249.951196998
 21
193.3136143236
 31
0.0
  0
LINE
  5
3BE
330
1F
100
AcDbEntity
  8
0
  6
CONTINUOUS
 62
     7
100
AcDbLine
 10
260.3147955956
 20
193.3136143236
 30
0.0
 11
260.3421108994
 21
195.2743901644
 31
0.0
  0
LINE
  5
3BF
330
1F
100
AcDbEntity
  8
0
  6
CONTINUOUS
 62
     7
100
AcDbLine
 10
260.3147955956
 20
193.3136143236
 30
0.0
 11
257.9120844078
 21
192.4836151601
 31
0.0
  0
LWPOLYLINE
  5
3C0
330
1F
100
AcDbEntity
  8
0
  6
CONTINUOUS
 62
     7
100
AcDbPolyline
 90
       52
 70
   128
 43
0.0
 10
253.9919813965
 20
200.618792013
 10
254.2768767694
 20
200.5973336909
 10
254.576133447
 20
200.5813185395
 10
254.8851029609
 20
200.5710028714
 10
255.1989718808
 20
200.5665521032
 10
255.5128427882
 20
200.5680376827
 10
255.8218171432
 20
200.5754357568
 10
256.1210782394
 20
200.5886276165
 10
256.4059724341
 20
200.6074019072
 10
256.6720869036
 20
200.6314585431
 10
256.9153222881
 20
200.6604142212
 10
257.1319587719
 20
200.6938093889
 10
257.3187143575
 20
200.7311164838
 10
257.4727943513
 20
200.7717492428
 10
257.5919313453
 20
200.8150728536
 10
257.6744152587
 20
200.86041472
 10
257.7191132749
 20
200.9070756056
 10
257.7254797578
 20
200.9543409334
 10
257.6935564568
 20
201.0014920292
 10
257.6239634973
 20
201.0478171168
 10
257.5178818017
 20
201.0926218983
 10
257.3770276941
 20
201.135239573
 10
257.2036205112
 20
201.1750401796
 10
257.0003440716
 20
201.2114391668
 10
256.7703028571
 20
201.2439051232
 10
256.5169737341
 20
201.2719666172
 10
256.2441539963
 20
201.2952181143
 10
255.9559064568
 20
201.313324954
 10
255.6565022516
 20
201.3260273764
 10
255.3503619591
 20
201.3331435989
 10
255.0419955838
 20
201.3345719428
 10
254.7359419107
 20
201.3302920134
 10
254.4367077047
 20
201.3203649359
 10
254.1487072226
 20
201.3049326475
 10
253.8762025025
 20
201.2842162446
 10
253.6232449238
 20
201.2585133813
 10
253.3936185631
 20
201.228194718
 10
253.1907859209
 20
201.1936994189
 10
253.0178366518
 20
201.1555297034
 10
252.8774399856
 20
201.1142444644
 10
252.7718015869
 20
201.0704519783
 10
252.7026256423
 20
201.0248017477
 10
252.6710829942
 20
200.9779755344
 10
252.677786144
 20
200.9306776658
 10
252.7227719246
 20
200.8836247194
 10
252.8054925779
 20
200.8375347149
 10
252.9248158796
 20
200.7931159727
 10
253.0790348118
 20
200.7510558169
 10
253.2658871073
 20
200.7120093265
 10
253.4825847769
 20
200.6765883519
 10
253.7258534877
 20
200.6453510277
 10
253.9919813965
 20
200.618792013
  0
LWPOLYLINE
  5
3C1
330
1F
100
AcDbEntity
  8
0
  6
CONTINUOUS
 62
     7
100
AcDbPolyline
 90
       22
 70
   128
 43
0.0
 10
254.2283337051
 20
200.6845760595
 10
254.3561218653
 20
200.6769840579
 10
254.4918396948
 20
200.6754307611
 10
254.6233668687
 20
200.680055592
 10
254.7389618799
 20
200.6904435226
 10
254.8283244108
 20
200.7056633813
 10
254.8835207051
 20
200.724353439
 10
254.8996861914
 20
200.7448456721
 10
254.8754437887
 20
200.7653165181
 10
254.8130056261
 20
200.7839498467
 10
254.7179563386
 20
200.799097349
 10
254.5987441644
 20
200.8094224414
 10
254.4659294101
 20
200.8140157899
 10
254.3312573148
 20
200.8124733075
 10
254.2066338065
 20
200.8049306588
 10
254.1030884759
 20
200.7920516866
 10
254.0298097202
 20
200.7749716232
 10
253.9933325434
 20
200.7551993786
 10
253.9969496801
 20
200.7344864974
 10
254.0404011609
 20
200.7146733787
 10
254.1198760623
 20
200.6975257719
 10
254.2283337051
 20
200.6845760595
  0
LWPOLYLINE
  5
3C2
330
1F
100
AcDbEntity
  8
0
  6
CONTINUOUS
 62
     7
100
AcDbPolyline
 90
       22
 70
   128
 43
0.0
 10
256.3851733483
 20
200.7736658339
 10
256.5130875185
 20
200.7661082272
 10
256.6485825944
 20
200.7645619683
 10
256.7795582443
 20
200.7691658451
 10
256.8943224376
 20
200.7795067194
 10
256.9826492567
 20
200.794657656
 10
257.0366974551
 20
200.8132631133
 10
257.0517046947
 20
200.8336626348
 10
257.026396691
 20
200.854040914
 10
256.9630798412
 20
200.8725900267
 10
256.8674162886
 20
200.8876690972
 10
256.7479083295
 20
200.8979475591
 10
256.6151422556
 20
200.9025201669
 10
256.4808590119
 20
200.9009846491
 10
256.3569303234
 20
200.893476061
 10
256.2543245878
 20
200.8806552617
 10
256.1821472685
 20
200.8636523766
 10
256.1468358713
 20
200.8439695169
 10
256.1515796031
 20
200.8233503214
 10
256.1960181156
 20
200.8036268647
 10
256.2762522691
 20
200.7865568938
 10
256.3851733483
 20
200.7736658339
  0
LWPOLYLINE
  5
3C3
330
1F
100
AcDbEntity
  8
0
  6
CONTINUOUS
 62
     7
100
AcDbPolyline
 90
       22
 70
   128
 43
0.0
 10
253.5901126666
 20
201.0150165129
 10
253.7167035615
 20
201.0075516924
 10
253.851254603
 20
201.0060244193
 10
253.981750188
 20
201.0105717692
 10
254.0965413219
 20
201.0207857011
 10
254.1853994728
 20
201.0357507078
 10
254.2404354404
 20
201.0541279394
 10
254.2567981134
 20
201.0742773515
 10
254.2330918536
 20
201.0944059107
 10
254.1714802257
 20
201.1127278305
 10
254.0774739281
 20
201.1276222884
 10
253.9594286308
 20
201.1377749518
 10
253.8278016268
 20
201.1422916059
 10
253.6942336175
 20
201.1407748771
 10
253.5705334121
 20
201.1333581765
 10
253.4676491911
 20
201.1206943143
 10
253.3947106657
 20
201.103899637
 10
253.3582220716
 20
201.0844579147
 10
253.3614762114
 20
201.0640914566
 10
253.4042443419
 20
201.0446098814
 10
253.482775506
 20
201.027749348
 10
253.5901126666
 20
201.0150165129
  0
ARC
  5
3C4
330
1F
100
AcDbEntity
  8
0
  6
CONTINUOUS
 62
     7
100
AcDbCircle
 10
231.6604519775
 20
177.2642588297
 30
0.0
 40
1.213006375968933
100
AcDbArc
 50
179.2035501694
 51
256.6544277361
  0
LINE
  5
3C5
330
1F
100
AcDbEntity
  8
0
  6
CONTINUOUS
 62
     7
100
AcDbLine
 10
230.2251910338
 20
189.658463263
 30
0.0
 11
230.4475627935
 21
177.2811198902
 31
0.0
  0
ARC
  5
3C6
330
1F
100
AcDbEntity
  8
0
  6
CONTINUOUS
 62
     7
100
AcDbCircle
 10
231.0940182887
 20
189.7687683149
 30
0.0
 40
0.8758013492466581
100
AcDbArc
 50
87.4372747886
 51
187.2354800449
  0
LINE
  5
3C7
330
1F
100
AcDbEntity
  8
0
  6
CONTINUOUS
 62
     7
100
AcDbLine
 10
256.2250469829
 20
187.7565303903
 30
0.0
 11
231.1331780649
 21
190.6436937491
 31
0.0
  0
ARC
  5
3C8
330
1F
100
AcDbEntity
  8
0
  6
CONTINUOUS
 62
     7
100
AcDbCircle
 10
256.0056373885
 20
186.5241476722
 30
0.0
 40
1.251761851963954
100
AcDbArc
 50
357.9456810113
 51
79.9050110946
  0
LINE
  5
3C9
330
1F
100
AcDbEntity
  8
0
  6
CONTINUOUS
 62
     7
100
AcDbLine
 10
257.1154120648
 20
173.3751664527
 30
0.0
 11
257.2565947227
 21
186.4792758295
 31
0.0
  0
ARC
  5
3CA
330
1F
100
AcDbEntity
  8
0
  6
CONTINUOUS
 62
     7
100
AcDbCircle
 10
256.1949160962
 20
173.3202977361
 30
0.0
 40
0.9221298196241261
100
AcDbArc
 50
262.6365063488
 51
3.4112376184
  0
LINE
  5
3CB
330
1F
100
AcDbEntity
  8
0
  6
CONTINUOUS
 62
     7
100
AcDbLine
 10
231.3804613368
 20
176.0840089793
 30
0.0
 11
256.076732507
 21
172.4057726989
 31
0.0
  0
LINE
  5
3CC
330
1F
100
AcDbEntity
  8
0
  6
CONTINUOUS
 62
     7
100
AcDbLine
 10
256.2250469829
 20
187.7565303903
 30
0.0
 11
256.3556122657
 21
187.805521516
 31
0.0
  0
ARC
  5
3CD
330
1F
100
AcDbEntity
  8
0
  6
CONTINUOUS
 62
     7
100
AcDbCircle
 10
256.2102683856
 20
186.7152033179
 30
0.0
 40
1.099963006992341
100
AcDbArc
 50
45.9491960931
 51
82.4070026382
  0
LINE
  5
3CE
330
1F
100
AcDbEntity
  8
0
  6
CONTINUOUS
 62
     7
100
AcDbLine
 10
257.3863302521
 20
186.5295187782
 30
0.0
 11
257.2565947227
 21
186.4792758295
 31
0.0
  0
LINE
  5
3CF
330
1F
100
AcDbEntity
  8
0
  6
CONTINUOUS
 62
     7
100
AcDbLine
 10
257.1154120648
 20
173.3751664527
 30
0.0
 11
257.2434686735
 21
173.4368445877
 31
0.0
  0
LINE
  5
3D0
330
1F
100
AcDbEntity
  8
0
  6
CONTINUOUS
 62
     7
100
AcDbLine
 10
257.2434686735
 20
173.4368445877
 30
0.0
 11
257.3863302521
 21
186.5295187782
 31
0.0
  0
LINE
  5
3D1
330
1F
100
AcDbEntity
  8
0
  6
CONTINUOUS
 62
     7
100
AcDbLine
 10
231.2787718563
 20
190.6874193004
 30
0.0
 11
231.1331780649
 21
190.6436937491
 31
0.0
  0
LINE
  5
3D2
330
1F
100
AcDbEntity
  8
0
  6
CONTINUOUS
 62
     7
100
AcDbLine
 10
256.3556122657
 20
187.805521516
 30
0.0
 11
231.2787718563
 21
190.6874193004
 31
0.0
  0
ARC
  5
3D3
330
1F
100
AcDbEntity
  8
0
  6
CONTINUOUS
 62
     7
100
AcDbCircle
 10
256.265777316
 20
173.406423228
 30
0.0
 40
0.9781645309309818
100
AcDbArc
 50
301.038508071
 51
1.7822120582
  0
ARC
  5
3D4
330
1F
100
AcDbEntity
  8
0
  6
CONTINUOUS
 62
     7
100
AcDbCircle
 10
231.1887100443
 20
189.9420614759
 30
0.0
 40
0.7507792061833701
100
AcDbArc
 50
83.1103336539
 51
111.7460022577
  0
LWPOLYLINE
  5
3D5
330
1F
100
AcDbEntity
  8
0
  6
CONTINUOUS
 62
     7
100
AcDbPolyline
 90
       35
 70
   128
 43
0.0
 10
239.8716540947
 20
163.9655363217
 10
239.6711484892
 20
163.6425597348
 10
239.4974360266
 20
163.2983474616
 10
239.3515538027
 20
162.9351354584
 10
239.2343615657
 20
162.5552667535
 10
239.1465383186
 20
162.161176631
 10
239.0885799491
 20
161.7553776097
 10
239.0607978515
 20
161.3404442927
 10
239.0633185082
 20
160.9189981533
 10
239.096083995
 20
160.4936923201
 10
239.1588533752
 20
160.0671964121
 10
239.2512049529
 20
159.6421814726
 10
239.3725393526
 20
159.2213050437
 10
239.5220834009
 20
158.8071964202
 10
239.6988947834
 20
158.4024421169
 10
239.9018674587
 20
158.009571584
 10
240.1297378093
 20
157.6310432026
 10
240.3810915157
 20
157.2692305926
 10
240.65437114
 20
156.9264092684
 10
240.9478844079
 20
156.6047436782
 10
241.2598131797
 20
156.306274667
 10
241.5882230989
 20
156.0329074073
 10
241.931073908
 20
155.7863998459
 10
242.2862304187
 20
155.5683517205
 10
242.6514741207
 20
155.380194204
 10
243.0245154079
 20
155.223180242
 10
243.403006398
 20
155.0983756516
 10
243.7845543129
 20
155.0066510552
 10
244.1667353809
 20
154.9486747282
 10
244.5471092127
 20
154.9249064402
 10
244.9232335951
 20
154.9355923733
 10
245.2926796349
 20
154.9807612008
 10
245.6530471761
 20
155.0602214074
 10
246.0019804036
 20
155.1735599322
 10
246.0108837535
 20
155.1769550667
  0
ARC
  5
3D6
330
1F
100
AcDbEntity
  8
0
  6
CONTINUOUS
 62
     7
100
AcDbCircle
 10
243.1341844165
 20
161.7410950687
 30
0.0
 40
3.948701430666335
100
AcDbArc
 50
130.4404036801
 51
145.7132577649
  0
LWPOLYLINE
  5
3D7
330
1F
100
AcDbEntity
  8
0
  6
CONTINUOUS
 62
     7
100
AcDbPolyline
 90
       51
 70
   128
 43
0.0
 10
242.1060709917
 20
161.8477029097
 10
241.9757085894
 20
161.628872004
 10
241.8738508252
 20
161.3887753496
 10
241.8020434677
 20
161.1311932639
 10
241.7613642047
 20
160.860164691
 10
241.7524090399
 20
160.5799249915
 10
241.7752857045
 20
160.2948415982
 10
241.8296140188
 20
160.0093483961
 10
241.9145330731
 20
159.7278796616
 10
242.0287150476
 20
159.454804362
 10
242.1703854367
 20
159.1943615953
 10
242.3373494074
 20
158.9505979211
 10
242.5270239725
 20
158.7273073176
 10
242.7364756214
 20
158.5279744785
 10
242.9624630036
 20
158.3557221543
 10
243.201484209
 20
158.2132632235
 10
243.4498281345
 20
158.1028581674
 10
243.7036293642
 20
158.0262785965
 10
243.9589259231
 20
157.9847774527
 10
244.2117191942
 20
157.9790664624
 10
244.4580352171
 20
158.0093013673
 10
244.6939865164
 20
158.0750753788
 10
244.9158335435
 20
158.1754212115
 10
245.1200447614
 20
158.3088219375
 10
245.3033543626
 20
158.4732307655
 10
245.4628165879
 20
158.6660996966
 10
245.5958556176
 20
158.8844168387
 10
245.7003100339
 20
159.1247519785
 10
245.7744709111
 20
159.3833098211
 10
245.8171126778
 20
159.6559901191
 10
245.8275160134
 20
159.9384537331
 10
245.8054821861
 20
160.2261934954
 10
245.7513384109
 20
160.5146086093
 10
245.6659339982
 20
160.7990811989
 10
245.5506272639
 20
161.0750535464
 10
245.4072633887
 20
161.3381045141
 10
245.2381436188
 20
161.5840236539
 10
245.0459864048
 20
161.8088815491
 10
244.8338812575
 20
162.0090950284
 10
244.6052362613
 20
162.181486012
 10
244.3637203156
 20
162.3233329156
 10
244.1132012756
 20
162.4324137217
 10
243.857681223
 20
162.5070400332
 10
243.6012301265
 20
162.5460816426
 10
243.3479191402
 20
162.5489813646
 10
243.1017547493
 20
162.5157600963
 10
242.8666148991
 20
162.447012264
 10
242.6461881526
 20
162.3438920017
 10
242.4439168093
 20
162.2080905579
 10
242.2629447934
 20
162.0418055658
 10
242.1060709917
 20
161.8477029097
  0
LINE
  5
3D8
330
1F
100
AcDbEntity
  8
0
  6
CONTINUOUS
 62
     7
100
AcDbLine
 10
245.3632964413
 20
158.8450373932
 30
0.0
 11
245.2913337381
 21
158.7984224109
 31
0.0
  0
LWPOLYLINE
  5
3D9
330
1F
100
AcDbEntity
  8
0
  6
CONTINUOUS
 62
     7
100
AcDbPolyline
 90
        3
 70
   128
 43
0.0
 10
243.2642477793
 20
162.2365962097
 10
243.2929499183
 20
162.2590692353
 10
243.3201337786
 20
162.2752211877
  0
LWPOLYLINE
  5
3DA
330
1F
100
AcDbEntity
  8
0
  6
CONTINUOUS
 62
     7
100
AcDbPolyline
 90
       32
 70
   128
 43
0.0
 10
244.938900849
 20
160.3324914354
 10
244.9228776687
 20
160.5049502401
 10
244.8762797086
 20
160.6759937365
 10
244.8010190049
 20
160.8385787037
 10
244.7001949435
 20
160.9860107844
 10
244.5779644062
 20
161.1122247579
 10
244.4393668411
 20
161.2120376225
 10
244.2901121957
 20
161.2813633463
 10
244.1363413385
 20
161.3173800804
 10
243.9843697243
 20
161.3186430058
 10
243.8404255997
 20
161.2851386399
 10
243.7103939861
 20
161.2182791741
 10
243.5995770807
 20
161.1208380886
 10
243.5124806591
 20
160.9968307468
 10
243.4526346533
 20
160.8513458002
 10
243.4224544303
 20
160.6903349794
 10
243.4231475148
 20
160.520370171
 10
243.4546686741
 20
160.3483775969
 10
243.5157244794
 20
160.1813594536
 10
243.6038267276
 20
160.0261135691
 10
243.7153924625
 20
159.8889615387
 10
243.8458867977
 20
159.7754954362
 10
243.9900033136
 20
159.6903525843
 10
244.1418754864
 20
159.6370270073
 10
244.2953114267
 20
159.6177250697
 10
244.4440431945
 20
159.6332714157
 10
244.5819811642
 20
159.6830696547
 10
244.7034633934
 20
159.7651202926
 10
244.8034897886
 20
159.8760962232
 10
244.877931106
 20
160.0114737219
 10
244.9237035391
 20
160.1657144335
 10
244.938900849
 20
160.3324914354
  0
LWPOLYLINE
  5
3DB
330
1F
100
AcDbEntity
  8
0
  6
CONTINUOUS
 62
     7
100
AcDbPolyline
 90
       17
 70
   128
 43
0.0
 10
243.8692005232
 20
161.3046684127
 10
243.8345412598
 20
161.2827401581
 10
243.723767818
 20
161.1853542874
 10
243.6366990041
 20
161.0614257065
 10
243.5768636689
 20
160.9160398186
 10
243.5466767884
 20
160.7551443004
 10
243.5473461944
 20
160.5853063446
 10
243.5788276414
 20
160.4134470273
 10
243.639829325
 20
160.2465631502
 10
243.7278652375
 20
160.0914471087
 10
243.8393551016
 20
159.9544152396
 10
243.9697670906
 20
159.8410547382
 10
244.1137981074
 20
159.7559986223
 10
244.2655850848
 20
159.7027373577
 10
244.41893959
 20
159.683474644
 10
244.5675970035
 20
159.6990334679
 10
244.6333670322
 20
159.7180012253
  0
LWPOLYLINE
  5
3DC
330
1F
100
AcDbEntity
  8
0
  6
CONTINUOUS
 62
     7
100
AcDbPolyline
 90
       19
 70
   128
 43
0.0
 10
244.2471118888
 20
161.2661708341
 10
244.1535748997
 20
161.2669617044
 10
244.0155201049
 20
161.2379960178
 10
243.8918995217
 20
161.1737913151
 10
243.7888905046
 20
161.0776031921
 10
243.7116263986
 20
160.9542794362
 10
243.6639454664
 20
160.810012112
 10
243.6482055562
 20
160.6520254921
 10
243.6651723936
 20
160.4882157781
 10
243.7139858201
 20
160.3267602807
 10
243.7922047649
 20
160.1757146406
 10
243.8959283356
 20
160.0426168582
 10
244.019987219
 20
159.9341164218
 10
244.1581966164
 20
159.8556457338
 10
244.3036592639
 20
159.8111493533
 10
244.4491047394
 20
159.8028843024
 10
244.5872493338
 20
159.8313018134
 10
244.7111593766
 20
159.8950174379
 10
244.8143511886
 20
159.9905716529
  0
ARC
  5
3DD
330
1F
100
AcDbEntity
  8
0
  6
CONTINUOUS
 62
     7
100
AcDbCircle
 10
244.6021652313
 20
160.6941439509
 30
0.0
 40
0.790895784730297
100
AcDbArc
 50
137.3605129942
 51
279.9445541851
  0
LWPOLYLINE
  5
3DE
330
1F
100
AcDbEntity
  8
0
  6
CONTINUOUS
 62
     7
100
AcDbPolyline
 90
       22
 70
   128
 43
0.0
 10
247.6354207783
 20
202.5241939911
 10
247.6388371178
 20
202.4918041219
 10
247.6163074144
 20
202.4344642656
 10
247.5573173103
 20
202.3775136697
 10
247.4622145536
 20
202.3214498124
 10
247.3316692849
 20
202.2667668115
 10
247.1666735618
 20
202.2139508184
 10
246.9685375894
 20
202.1634753387
 10
246.7388825083
 20
202.115796534
 10
246.4796296462
 20
202.0713485671
 10
246.1929861941
 20
202.0305390535
 10
245.8814273364
 20
201.9937446884
 10
245.5476749319
 20
201.961307117
 10
245.1946729155
 20
201.9335291161
 10
244.8255596627
 20
201.910671152
 10
244.4436376287
 20
201.8929483771
 10
244.0523406384
 20
201.8805281182
 10
243.6551992641
 20
201.8735279048
 10
243.2558047711
 20
201.8720140747
 10
242.8577721537
 20
201.8760009829
 10
242.4647028042
 20
201.8854508303
 10
242.0801473679
 20
201.9002741147
  0
LINE
  5
3DF
330
1F
100
AcDbEntity
  8
0
  6
CONTINUOUS
 62
     7
100
AcDbLine
 10
242.0801473679
 20
201.9002741147
 30
0.0
 11
242.0769567432
 21
202.5012907628
 31
0.0
  0
SPLINE
  5
3E0
330
1F
100
AcDbEntity
  8
0
  6
CONTINUOUS
 62
     7
100
AcDbSpline
210
0.0
220
0.0
230
1.0
 70
     8
 71
     3
 72
    14
 73
    10
 74
     0
 42
0.000000001
 43
0.00000001
 40
0.0
 40
0.0
 40
0.0
 40
0.0
 40
0.1576103213932851
 40
0.3195416563012341
 40
0.4772348747177461
 40
0.639829855011839
 40
0.7924824295099431
 40
0.949269301436811
 40
1.0
 40
1.0
 40
1.0
 40
1.0
 10
242.0769567431852
 20
202.5012907628186
 30
0.0
 10
241.9866262178123
 20
202.5502873488791
 30
0.0
 10
241.8035272191966
 20
202.6496028992562
 30
0.0
 10
241.5198503519379
 20
202.7460674404249
 30
0.0
 10
241.2372661815888
 20
202.8003299592382
 30
0.0
 10
240.9715071936151
 20
202.8059105307977
 30
0.0
 10
240.7261387692731
 20
202.7652624291275
 30
0.0
 10
240.5565040901739
 20
202.7021905539274
 30
0.0
 10
240.4680860377552
 20
202.6524174866546
 30
0.0
 10
240.4464814210015
 20
202.6402556258845
 30
0.0
  0
LINE
  5
3E1
330
1F
100
AcDbEntity
  8
0
  6
CONTINUOUS
 62
     7
100
AcDbLine
 10
240.446481421
 20
202.6402556259
 30
0.0
 11
240.4506829793
 21
202.0413792763
 31
0.0
  0
ARC
  5
3E2
330
1F
100
AcDbEntity
  8
0
  6
CONTINUOUS
 62
     7
100
AcDbCircle
 10
240.3237427694
 20
203.8122498335
 30
0.0
 40
1.775414415663938
100
AcDbArc
 50
229.8487296668
 51
274.1000846572
  0
LWPOLYLINE
  5
3E3
330
1F
100
AcDbEntity
  8
0
  6
CONTINUOUS
 62
     7
100
AcDbPolyline
 90
       68
 70
   128
 43
0.0
 10
241.1921265394
 20
204.5280374
 10
241.5465532919
 20
204.5024633849
 10
241.9179755565
 20
204.4816116176
 10
242.303004393
 20
204.4656823399
 10
242.6981093979
 20
204.4548289771
 10
243.0996550383
 20
204.4491562902
 10
243.5039385431
 20
204.4487191074
 10
243.9072287908
 20
204.4535216562
 10
244.3058056103
 20
204.4635175122
 10
244.6959989002
 20
204.4786101642
 10
245.0742269766
 20
204.4986541847
 10
245.4370335795
 20
204.5234569828
 10
245.7811230065
 20
204.5527811049
 10
246.1033928864
 20
204.5863470399
 10
246.4009641694
 20
204.6238364748
 10
246.6712079769
 20
204.6648959433
 10
246.9117690286
 20
204.7091408003
 10
247.1205854428
 20
204.7561594574
 10
247.2959047857
 20
204.805517809
 10
247.4362963194
 20
204.856763781
 10
247.5406594732
 20
204.9094319378
 10
247.608228626
 20
204.9630480838
 10
247.6385743463
 20
205.0171338034
 10
247.631601286
 20
205.0712108897
 10
247.5875429593
 20
205.1248056146
 10
247.5069536693
 20
205.1774528065
 10
247.3906978627
 20
205.2286997026
 10
247.2399371993
 20
205.2781095542
 10
247.0561156277
 20
205.3252649681
 10
246.8409427453
 20
205.3697709728
 10
246.5963757126
 20
205.4112578059
 10
246.3245999665
 20
205.4493834209
 10
246.0280089603
 20
205.4838357176
 10
245.7091831263
 20
205.5143345026
 10
245.3708682355
 20
205.5406331875
 10
245.0159532973
 20
205.5625202354
 10
244.6474481189
 20
205.5798203655
 10
244.2684606179
 20
205.5923955258
 10
243.8821739623
 20
205.6001456423
 10
243.49182359
 20
205.6030091539
 10
243.1006741506
 20
205.6009633373
 10
242.7119963981
 20
205.5940244258
 10
242.3290440593
 20
205.5822475246
 10
241.9550307032
 20
205.56572632
 10
241.5931066385
 20
205.5445925807
 10
241.2463358766
 20
205.5190154441
 10
240.9176732108
 20
205.4892004817
 10
240.6099414788
 20
205.4553885336
 10
240.3258090966
 20
205.4178543035
 10
240.0677679769
 20
205.3769047028
 10
239.83811197
 20
205.3328769344
 10
239.6389159912
 20
205.2861363079
 10
239.4720160307
 20
205.2370737793
 10
239.3389902624
 20
205.1861032104
 10
239.2411414979
 20
205.1336583485
 10
239.1794812497
 20
205.0801895309
 10
239.1547156848
 20
205.0261601221
 10
239.1672337608
 20
204.9720427016
 10
239.217097837
 20
204.9183150216
 10
239.3040370503
 20
204.8654557667
 10
239.4274437273
 20
204.8139401486
 10
239.5863730823
 20
204.7642353816
 10
239.7795464119
 20
204.7167960871
 10
240.0053579548
 20
204.6720596838
 10
240.2618855291
 20
204.6304418246
 10
240.5469049938
 20
204.592331945
 10
240.8579085154
 20
204.5580889918
 10
241.1921265394
 20
204.5280374
  0
LWPOLYLINE
  5
3E4
330
1F
100
AcDbEntity
  8
0
  6
CONTINUOUS
 62
     7
100
AcDbPolyline
 90
       63
 70
   128
 43
0.0
 10
241.5132012562
 20
204.6018439331
 10
241.8413162573
 20
204.5784542433
 10
242.1860158125
 20
204.5597871789
 10
242.5436450508
 20
204.546049534
 10
242.9103955712
 20
204.5373938957
 10
243.2823503569
 20
204.5339165789
 10
243.655530465
 20
204.5356563151
 10
244.0259427271
 20
204.5425937238
 10
244.3896276691
 20
204.5546515772
 10
244.7427068499
 20
204.5716958525
 10
245.0814288403
 20
204.5935375503
 10
245.4022130976
 20
204.6199352385
 10
245.701691056
 20
204.6505982702
 10
245.9767438268
 20
204.6851906066
 10
246.2245359947
 20
204.7233351718
 10
246.4425450992
 20
204.7646186515
 10
246.6285864964
 20
204.8085966485
 10
246.7808334054
 20
204.8547991013
 10
246.8978320545
 20
204.902735876
 10
246.9785119371
 20
204.9519024412
 10
247.0221912869
 20
205.0017855439
 10
247.0285779551
 20
205.0518688082
 10
246.9977659458
 20
205.1016381889
 10
246.9302279144
 20
205.1505872204
 10
246.8268039738
 20
205.198222011
 10
246.6886871768
 20
205.2440659414
 10
246.517406053
 20
205.2876640385
 10
246.3148045769
 20
205.3285870003
 10
246.0830199313
 20
205.3664348592
 10
245.8244584108
 20
205.4008402766
 10
245.5417697809
 20
205.4314714663
 10
245.2378203777
 20
205.4580347515
 10
244.9156652001
 20
205.4802767602
 10
244.5785192104
 20
205.4979862689
 10
244.2297280269
 20
205.510995703
 10
243.8727381621
 20
205.5191823033
 10
243.5110669338
 20
205.5224689683
 10
243.1482721545
 20
205.5208247761
 10
242.7879216914
 20
205.5142651935
 10
242.433562979
 20
205.5028519712
 10
242.0886925665
 20
205.4866927269
 10
241.7567257861
 20
205.4659402101
 10
241.4409666428
 20
205.4407912448
 10
241.144578042
 20
205.4114853411
 10
240.8705524982
 20
205.3783029673
 10
240.621683495
 20
205.3415634726
 10
240.4005377011
 20
205.3016226513
 10
240.2094282785
 20
205.2588699426
 10
240.0503895577
 20
205.213725259
 10
239.9251533847
 20
205.1666354463
 10
239.8351274774
 20
205.1180703775
 10
239.7813761509
 20
205.0685186934
 10
239.7646037911
 20
205.0184832094
 10
239.7851414603
 20
204.9684760157
 10
239.8429370171
 20
204.9190133083
 10
239.9375491129
 20
204.8706099973
 10
240.0681453997
 20
204.8237741498
 10
240.2335052347
 20
204.779001331
 10
240.4320271075
 20
204.7367689205
 10
240.6617409426
 20
204.6975304826
 10
240.920325341
 20
204.6617102805
 10
241.2051297259
 20
204.6296980223
 10
241.5132012562
 20
204.6018439331
  0
SPLINE
  5
3E5
330
1F
100
AcDbEntity
  8
0
  6
CONTINUOUS
 62
     7
100
AcDbSpline
210
0.0
220
0.0
230
1.0
 70
     8
 71
     3
 72
    12
 73
     8
 74
     0
 42
0.000000001
 43
0.00000001
 40
0.0
 40
0.0
 40
0.0
 40
0.0
 40
0.2464211300596447
 40
0.4948758613399173
 40
0.7463547660039558
 40
0.8729815560766394
 40
1.0
 40
1.0
 40
1.0
 40
1.0
 10
242.0926114321094
 20
199.5524235557772
 30
0.0
 10
242.1049348808832
 20
199.747462904348
 30
0.0
 10
242.1296919847468
 20
200.1392858022013
 30
0.0
 10
242.1376097055974
 20
200.7284320966052
 30
0.0
 10
242.1255391696222
 20
201.2183940013628
 30
0.0
 10
242.1040028595009
 20
201.6092026483841
 30
0.0
 10
242.0881098005017
 20
201.8031209322655
 30
0.0
 10
242.0801473679247
 20
201.9002741147297
 30
0.0
  0
LWPOLYLINE
  5
3E6
330
1F
100
AcDbEntity
  8
0
  6
CONTINUOUS
 62
     7
100
AcDbPolyline
 90
       22
 70
   128
 43
0.0
 10
247.6269018262
 20
200.2353747095
 10
247.6376395545
 20
200.1789097822
 10
247.6151626952
 20
200.1181793539
 10
247.5563142238
 20
200.0578616491
 10
247.4614414492
 20
199.9984835436
 10
247.3312132599
 20
199.9405683393
 10
247.166619633
 20
199.8846308866
 10
246.9689678579
 20
199.8311726301
 10
246.7398753301
 20
199.7806766346
 10
246.4812588176
 20
199.7336026572
 10
246.1953201652
 20
199.6903823331
 10
245.8845284644
 20
199.6514145468
 10
245.5515987858
 20
199.6170610613
 10
245.1994676455
 20
199.5876424766
 10
244.8312654432
 20
199.563434588
 10
244.4502861874
 20
199.5446652071
 10
244.0599548788
 20
199.5315115041
 10
243.663792989
 20
199.5240979218
 10
243.2653825135
 20
199.5224946996
 10
242.8683291167
 20
199.5267170367
 10
242.476224913
 20
199.5367249109
 10
242.0926114321
 20
199.5524235558
  0
LWPOLYLINE
  5
3E7
330
1F
100
AcDbEntity
  8
0
  6
CONTINUOUS
 62
     7
100
AcDbPolyline
 90
       57
 70
   128
 43
0.0
 10
247.4882139829
 20
196.2377352693
 10
247.5385237022
 20
196.2281314741
 10
247.8160695403
 20
196.1697676815
 10
248.0655512292
 20
196.1075802429
 10
248.2852445419
 20
196.0419529048
 10
248.473596213
 20
195.9732943209
 10
248.6292364432
 20
195.9020360777
 10
248.7509908551
 20
195.8286305047
 10
248.8378917604
 20
195.7535482652
 10
248.8891885852
 20
195.6772757268
 10
248.9043572913
 20
195.6003121149
 10
248.8831086208
 20
195.5231664542
 10
248.8253949917
 20
195.4463543104
 10
248.731415867
 20
195.3703943475
 10
248.6016214276
 20
195.2958047202
 10
248.4367143864
 20
195.2230993283
 10
248.2376497947
 20
195.1527839622
 10
248.0056327123
 20
195.0853523759
 10
247.7421136346
 20
195.0212823262
 10
247.4487815992
 20
194.9610316221
 10
247.1275549296
 20
194.9050342307
 10
246.7805696057
 20
194.8536964892
 10
246.4101652958
 20
194.8073934726
 10
246.0188691221
 20
194.7664655692
 10
245.6093772765
 20
194.7312153123
 10
245.1845346445
 20
194.7019045169
 10
244.7473126367
 20
194.6787517659
 10
244.3007854638
 20
194.6619302864
 10
243.8481051252
 20
194.6515662494
 10
243.3924754103
 20
194.6477375231
 10
242.9371252317
 20
194.6504728995
 10
242.4852816283
 20
194.6597518072
 10
242.0401427803
 20
194.6755045166
 10
241.6048513793
 20
194.6976128332
 10
241.182468692
 20
194.7259112665
 10
240.7759496339
 20
194.7601886564
 10
240.3881191544
 20
194.8001902286
 10
240.0216502018
 20
194.8456200464
 10
239.6790435025
 20
194.8961438184
 10
239.3626093553
 20
194.9513920191
 10
239.0744515951
 20
195.0109632743
 10
238.8164538434
 20
195.0744279626
 10
238.5902681154
 20
195.1413319803
 10
238.3973058163
 20
195.211200622
 10
238.2387311163
 20
195.2835425245
 10
238.1154566579
 20
195.3578536292
 10
238.0281415168
 20
195.4336211179
 10
237.9771913079
 20
195.5103272816
 10
237.9627603046
 20
195.5874532866
 10
237.98475542
 20
195.6644828069
 10
238.0428418861
 20
195.7409054962
 10
238.136450457
 20
195.816220278
 10
238.2647859579
 20
195.8899384382
 10
238.4268370051
 20
195.9615865076
 10
238.6213867204
 20
196.0307089278
 10
238.8470242788
 20
196.0968704972
 10
239.0938747967
 20
196.1577787465
  0
LWPOLYLINE
  5
3E8
330
1F
100
AcDbEntity
  8
0
  6
CONTINUOUS
 62
     7
100
AcDbPolyline
 90
       40
 70
   128
 43
0.0
 10
248.8977325488
 20
194.5662706593
 10
248.9023502471
 20
194.5194679484
 10
248.8811223676
 20
194.4405334488
 10
248.8234713612
 20
194.3619405107
 10
248.7295966976
 20
194.2842198154
 10
248.5999482661
 20
194.207901515
 10
248.4352281803
 20
194.1335114003
 10
248.2363905783
 20
194.0615669573
 10
248.0046392888
 20
193.9925733503
 10
247.7414232582
 20
193.9270193698
 10
247.448429661
 20
193.865373392
 10
247.1275746501
 20
193.8080793955
 10
246.7809917398
 20
193.7555530867
 10
246.4110178526
 20
193.7081781854
 10
246.0201771043
 20
193.6663029215
 10
245.6111624436
 20
193.6302367954
 10
245.1868153029
 20
193.6002476498
 10
244.7501034605
 20
193.5765590984
 10
244.3040973487
 20
193.5593483542
 10
243.8519450792
 20
193.5487444913
 10
243.396846481
 20
193.5448271689
 10
242.9420264741
 20
193.5476258414
 10
242.4907081112
 20
193.5571194641
 10
242.0460856329
 20
193.5732367036
 10
241.6112978768
 20
193.595856646
 10
241.1894023784
 20
193.6248099929
 10
240.7833504808
 20
193.6598807243
 10
240.3959637523
 20
193.7008082011
 10
240.0299119815
 20
193.7472896715
 10
239.6876929833
 20
193.7989831432
 10
239.3716144152
 20
193.8555105747
 10
239.0837777605
 20
193.9164613378
 10
238.8260645922
 20
193.9813959006
 10
238.600125192
 20
194.0498496789
 10
238.4073695519
 20
194.1213370047
 10
238.2489607518
 20
194.1953551613
 10
238.125810666
 20
194.2713884356
 10
238.0385779189
 20
194.3489121449
 10
237.987667984
 20
194.4273965943
 10
237.9776773072
 20
194.4582482418
  0
LWPOLYLINE
  5
3E9
330
1F
100
AcDbEntity
  8
0
  6
CONTINUOUS
 62
     7
100
AcDbPolyline
 90
       35
 70
   128
 43
0.0
 10
239.2364747272
 20
195.5609018738
 10
239.26603709
 20
195.4999173834
 10
239.3339353933
 20
195.4328473344
 10
239.4382783345
 20
195.3671705241
 10
239.5782946869
 20
195.3034798642
 10
239.7528808206
 20
195.2423552688
 10
239.9606057339
 20
195.1843578684
 10
240.1997197652
 20
195.1300242445
 10
240.4681670645
 20
195.0798607654
 10
240.7636018362
 20
195.0343381063
 10
241.0834082938
 20
194.9938860393
 10
241.4247241884
 20
194.9588885784
 10
241.7844676994
 20
194.9296795634
 10
242.1593673955
 20
194.9065387613
 10
242.5459949027
 20
194.8896885563
 10
242.940799852
 20
194.8792912913
 10
243.3401466183
 20
194.8754473114
 10
243.7403523198
 20
194.8781937491
 10
244.1377255127
 20
194.8875040722
 10
244.5286050009
 20
194.903288407
 10
244.9093981721
 20
194.9253946274
 10
245.2766182931
 20
194.9536101898
 10
245.6269202154
 20
194.987664678
 10
245.9571339913
 20
195.0272330087
 10
246.2642959497
 20
195.0719392365
 10
246.5456768455
 20
195.1213608896
 10
246.7988067661
 20
195.1750337565
 10
247.0214965556
 20
195.2324570435
 10
247.2118555926
 20
195.2930988151
 10
247.368305834
 20
195.3564016339
 10
247.489592113
 20
195.421788314
 10
247.5747887427
 20
195.4886677094
 10
247.6233025432
 20
195.5564404628
 10
247.6348724576
 20
195.624504645
 10
247.6318820676
 20
195.6419604287
  0
LINE
  5
3EA
330
1F
100
AcDbEntity
  8
0
  6
CONTINUOUS
 62
     7
100
AcDbLine
 10
240.4670964083
 20
199.7018629168
 30
0.0
 11
240.4712721519
 21
199.1066661136
 31
0.0
  0
SPLINE
  5
3EB
330
1F
100
AcDbEntity
  8
0
  6
CONTINUOUS
 62
     7
100
AcDbSpline
210
0.0
220
0.0
230
1.0
 70
     8
 71
     3
 72
    14
 73
    10
 74
     0
 42
0.000000001
 43
0.00000001
 40
0.0
 40
0.0
 40
0.0
 40
0.0
 40
0.1576103213932861
 40
0.319541656301234
 40
0.4772348747176928
 40
0.6398298550118109
 40
0.7924824295099432
 40
0.9492693014368113
 40
1.0
 40
1.0
 40
1.0
 40
1.0
 10
240.4712721518865
 20
199.1066661135642
 30
0.0
 10
240.5406305389837
 20
199.0524511954828
 30
0.0
 10
240.681333803192
 20
198.9424685926268
 30
0.0
 10
240.9247859336751
 20
198.8349521570841
 30
0.0
 10
241.1896895971024
 20
198.7745397147847
 30
0.0
 10
241.4636625239067
 20
198.7687323284981
 30
0.0
 10
241.7412758451656
 20
198.8148422457206
 30
0.0
 10
241.9507848679066
 20
198.885841660535
 30
0.0
 10
242.0672928739519
 20
198.9415026046049
 30
0.0
 10
242.0957823807741
 20
198.9551132816703
 30
0.0
  0
LINE
  5
3EC
330
1F
100
AcDbEntity
  8
0
  6
CONTINUOUS
 62
     7
100
AcDbLine
 10
242.0957823808
 20
198.9551132817
 30
0.0
 11
242.0926114321
 21
199.5524235558
 31
0.0
  0
LWPOLYLINE
  5
3ED
330
1F
100
AcDbEntity
  8
0
  6
CONTINUOUS
 62
     7
100
AcDbPolyline
 90
       10
 70
   128
 43
0.0
 10
240.4670964083
 20
199.7018629168
 10
240.1967422052
 20
199.7461844775
 10
239.955043626
 20
199.7942440381
 10
239.7440433193
 20
199.8456017572
 10
239.565489546
 20
199.8997909806
 10
239.4208237727
 20
199.9563230933
 10
239.3111718414
 20
200.0146924672
 10
239.2373386507
 20
200.0743814353
 10
239.1998062249
 20
200.1348652312
 10
239.1948289831
 20
200.1619000198
  0
ARC
  5
3EE
330
1F
100
AcDbEntity
  8
0
  6
CONTINUOUS
 62
     7
100
AcDbCircle
 10
241.1827735185
 20
200.8154449878
 30
0.0
 40
0.856956687791754
100
AcDbArc
 50
354.2409557374
 51
102.8593072205
  0
ARC
  5
3EF
330
1F
100
AcDbEntity
  8
0
  6
CONTINUOUS
 62
     7
100
AcDbCircle
 10
241.2385272097
 20
200.6794820352
 30
0.0
 40
0.798442970569875
100
AcDbArc
 50
293.6004821889
 51
3.5882717915
  0
LWPOLYLINE
  5
3F0
330
1F
100
AcDbEntity
  8
0
  6
CONTINUOUS
 62
     7
100
AcDbPolyline
 90
       31
 70
   128
 43
0.0
 10
241.7109218052
 20
200.6464157944
 10
241.693109199
 20
200.8332026391
 10
241.642558343
 20
201.0148530531
 10
241.5614843658
 20
201.1833805732
 10
241.4534523218
 20
201.331377528
 10
241.3232176052
 20
201.4523461205
 10
241.176512228
 20
201.5409875511
 10
241.0197873335
 20
201.5934356485
 10
240.8599244153
 20
201.607424449
 10
240.7039290522
 20
201.5823826496
 10
240.5586214983
 20
201.5194516138
 10
240.4303382024
 20
201.421427361
 10
240.3246573593
 20
201.2926304841
 10
240.2461600465
 20
201.1387110428
 10
240.1982365258
 20
200.9663980316
 10
240.1829450481
 20
200.7832049827
 10
240.2009281326
 20
200.5971046074
 10
240.2513889148
 20
200.4161861714
 10
240.3321278405
 20
200.2483095718
 10
240.439637789
 20
200.1007699293
 10
240.5692536418
 20
199.9799859672
 10
240.7153503945
 20
199.8912245614
 10
240.8715821405
 20
199.8383726285
 10
241.0311526556
 20
199.8237659596
 10
241.1871069197
 20
199.848082693
 10
241.3326317846
 20
199.9103068347
 10
241.4613532266
 20
200.0077645935
 10
241.567617292
 20
200.1362333276
 10
241.6467420594
 20
200.2901197168
 10
241.6952287746
 20
200.4627004819
 10
241.7109218052
 20
200.6464157944
  0
LINE
  5
3F1
330
1F
100
AcDbEntity
  8
0
  6
CONTINUOUS
 62
     7
100
AcDbLine
 10
242.0926114321
 20
199.5524235558
 30
0.0
 11
242.0801473679
 21
201.9002741147
 31
0.0
  0
LWPOLYLINE
  5
3F2
330
1F
100
AcDbEntity
  8
0
  6
CONTINUOUS
 62
     7
100
AcDbPolyline
 90
        3
 70
   128
 43
0.0
 10
240.6514915786
 20
202.7316757543
 10
240.6379649442
 20
202.726789579
 10
240.446481421
 20
202.6402556259
  0
ARC
  5
3F3
330
1F
100
AcDbEntity
  8
0
  6
CONTINUOUS
 62
     7
100
AcDbCircle
 10
241.4091425126
 20
200.3376224437
 30
0.0
 40
1.547531679876226
100
AcDbArc
 50
232.6960849709
 51
289.7284992279
  0
LINE
  5
3F4
330
1F
100
AcDbEntity
  8
0
  6
CONTINUOUS
 62
     7
100
AcDbLine
 10
240.4506829793
 20
202.0413792763
 30
0.0
 11
240.4550328214
 21
201.4213670408
 31
0.0
  0
LINE
  5
3F5
330
1F
100
AcDbEntity
  8
0
  6
CONTINUOUS
 62
     7
100
AcDbLine
 10
240.4650365367
 20
199.9954702574
 30
0.0
 11
240.4670964083
 21
199.7018629168
 31
0.0
  0
LINE
  5
3F6
330
1F
100
AcDbEntity
  8
0
  6
CONTINUOUS
 62
     7
100
AcDbLine
 10
264.4335989667
 20
178.6911808678
 30
0.0
 11
264.154854161
 21
178.5607369236
 31
0.0
  0
LINE
  5
3F7
330
1F
100
AcDbEntity
  8
0
  6
CONTINUOUS
 62
     7
100
AcDbLine
 10
264.154854161
 20
178.5607369236
 30
0.0
 11
264.0354588101
 21
178.640420283
 31
0.0
  0
LINE
  5
3F8
330
1F
100
AcDbEntity
  8
0
  6
CONTINUOUS
 62
     7
100
AcDbLine
 10
264.0354588101
 20
178.640420283
 30
0.0
 11
264.3940330906
 21
178.8078518977
 31
0.0
  0
LINE
  5
3F9
330
1F
100
AcDbEntity
  8
0
  6
CONTINUOUS
 62
     7
100
AcDbLine
 10
264.4335989667
 20
178.6911808678
 30
0.0
 11
264.3940330906
 21
178.8078518977
 31
0.0
  0
LINE
  5
3FA
330
1F
100
AcDbEntity
  8
0
  6
CONTINUOUS
 62
     7
100
AcDbLine
 10
264.154854161
 20
178.5607369236
 30
0.0
 11
264.1436588279
 21
177.948231508
 31
0.0
  0
LINE
  5
3FB
330
1F
100
AcDbEntity
  8
0
  6
CONTINUOUS
 62
     7
100
AcDbLine
 10
264.0211653503
 20
177.8528187878
 30
0.0
 11
264.1436588279
 21
177.948231508
 31
0.0
  0
LINE
  5
3FC
330
1F
100
AcDbEntity
  8
0
  6
CONTINUOUS
 62
     7
100
AcDbLine
 10
264.0211653503
 20
177.8528187878
 30
0.0
 11
264.0354588101
 21
178.640420283
 31
0.0
  0
LINE
  5
3FD
330
1F
100
AcDbEntity
  8
0
  6
CONTINUOUS
 62
     7
100
AcDbLine
 10
265.2231412041
 20
179.1949931895
 30
0.0
 11
263.291095011
 21
179.4487206473
 31
0.0
  0
LINE
  5
3FE
330
1F
100
AcDbEntity
  8
0
  6
CONTINUOUS
 62
     7
100
AcDbLine
 10
264.8690978173
 20
179.029677217
 30
0.0
 11
265.2231412041
 21
179.1949931895
 31
0.0
  0
LINE
  5
3FF
330
1F
100
AcDbEntity
  8
0
  6
CONTINUOUS
 62
     7
100
AcDbLine
 10
264.788420103
 20
179.0403092318
 30
0.0
 11
264.8690978173
 21
179.029677217
 31
0.0
  0
LINE
  5
400
330
1F
100
AcDbEntity
  8
0
  6
CONTINUOUS
 62
     7
100
AcDbLine
 10
264.788420103
 20
179.0403092318
 30
0.0
 11
264.7291992864
 21
179.0126787423
 31
0.0
  0
LINE
  5
401
330
1F
100
AcDbEntity
  8
0
  6
CONTINUOUS
 62
     7
100
AcDbLine
 10
264.7291992864
 20
179.0126787423
 30
0.0
 11
264.809903253
 21
179.002037082
 31
0.0
  0
LINE
  5
402
330
1F
100
AcDbEntity
  8
0
  6
CONTINUOUS
 62
     7
100
AcDbLine
 10
264.4536052224
 20
178.8356683328
 30
0.0
 11
264.809903253
 21
179.002037082
 31
0.0
  0
LINE
  5
403
330
1F
100
AcDbEntity
  8
0
  6
CONTINUOUS
 62
     7
100
AcDbLine
 10
264.3727434386
 20
178.8463681417
 30
0.0
 11
264.4536052224
 21
178.8356683328
 31
0.0
  0
LINE
  5
404
330
1F
100
AcDbEntity
  8
0
  6
CONTINUOUS
 62
     7
100
AcDbLine
 10
264.3727434386
 20
178.8463681417
 30
0.0
 11
264.3131449533
 21
178.8185614444
 31
0.0
  0
LINE
  5
405
330
1F
100
AcDbEntity
  8
0
  6
CONTINUOUS
 62
     7
100
AcDbLine
 10
264.3131449533
 20
178.8185614444
 30
0.0
 11
264.3940330906
 21
178.8078518977
 31
0.0
  0
LINE
  5
406
330
1F
100
AcDbEntity
  8
0
  6
CONTINUOUS
 62
     7
100
AcDbLine
 10
264.0354588101
 20
178.640420283
 30
0.0
 11
263.4230225457
 21
178.721791641
 31
0.0
  0
LINE
  5
407
330
1F
100
AcDbEntity
  8
0
  6
CONTINUOUS
 62
     7
100
AcDbLine
 10
263.9401898664
 20
177.863716093
 30
0.0
 11
263.937821809
 21
177.7326002182
 31
0.0
  0
LINE
  5
408
330
1F
100
AcDbEntity
  8
0
  6
CONTINUOUS
 62
     7
100
AcDbLine
 10
263.937821809
 20
177.7326002182
 30
0.0
 11
264.0187854586
 21
177.7216814483
 31
0.0
  0
LINE
  5
409
330
1F
100
AcDbEntity
  8
0
  6
CONTINUOUS
 62
     7
100
AcDbLine
 10
264.0045201917
 20
176.9356334459
 30
0.0
 11
264.0187854586
 21
177.7216814483
 31
0.0
  0
LINE
  5
40A
330
1F
100
AcDbEntity
  8
0
  6
CONTINUOUS
 62
     7
100
AcDbLine
 10
263.9236274759
 20
176.9466807409
 30
0.0
 11
264.0045201917
 21
176.9356334459
 31
0.0
  0
LINE
  5
40B
330
1F
100
AcDbEntity
  8
0
  6
CONTINUOUS
 62
     7
100
AcDbLine
 10
263.9236274759
 20
176.9466807409
 30
0.0
 11
263.9212640862
 21
176.8158233109
 31
0.0
  0
LINE
  5
40C
330
1F
100
AcDbEntity
  8
0
  6
CONTINUOUS
 62
     7
100
AcDbLine
 10
263.9212640862
 20
176.8158233109
 30
0.0
 11
264.0021449918
 21
176.8047546387
 31
0.0
  0
LINE
  5
40D
330
1F
100
AcDbEntity
  8
0
  6
CONTINUOUS
 62
     7
100
AcDbLine
 10
263.9879078345
 20
176.0202555374
 30
0.0
 11
264.0021449918
 21
176.8047546387
 31
0.0
  0
LINE
  5
40E
330
1F
100
AcDbEntity
  8
0
  6
CONTINUOUS
 62
     7
100
AcDbLine
 10
263.9879078345
 20
176.0202555374
 30
0.0
 11
263.4174046541
 21
176.0993017974
 31
0.0
  0
LINE
  5
40F
330
1F
100
AcDbEntity
  8
0
  6
CONTINUOUS
 62
     7
100
AcDbLine
 10
263.9401898664
 20
177.863716093
 30
0.0
 11
264.0211653503
 21
177.8528187878
 31
0.0
  0
LINE
  5
410
330
1F
100
AcDbEntity
  8
0
  6
CONTINUOUS
 62
     7
100
AcDbLine
 10
264.7538476651
 20
177.2158050561
 30
0.0
 11
265.1074496804
 21
177.3856791141
 31
0.0
  0
LINE
  5
411
330
1F
100
AcDbEntity
  8
0
  6
CONTINUOUS
 62
     7
100
AcDbLine
 10
264.7752670208
 20
177.1764642187
 30
0.0
 11
264.7538476651
 21
177.2158050561
 31
0.0
  0
LINE
  5
412
330
1F
100
AcDbEntity
  8
0
  6
CONTINUOUS
 62
     7
100
AcDbLine
 10
264.3388782679
 20
177.0164494744
 30
0.0
 11
264.6947272955
 21
177.1874030203
 31
0.0
  0
LINE
  5
413
330
1F
100
AcDbEntity
  8
0
  6
CONTINUOUS
 62
     7
100
AcDbLine
 10
264.3601047483
 20
176.976858221
 30
0.0
 11
264.3388782679
 21
177.0164494744
 31
0.0
  0
LINE
  5
414
330
1F
100
AcDbEntity
  8
0
  6
CONTINUOUS
 62
     7
100
AcDbLine
 10
263.9212640862
 20
176.8158233109
 30
0.0
 11
264.2793816128
 21
176.9878666671
 31
0.0
  0
LINE
  5
415
330
1F
100
AcDbEntity
  8
0
  6
CONTINUOUS
 62
     7
100
AcDbLine
 10
263.937821809
 20
177.7326002182
 30
0.0
 11
264.2962466672
 21
177.9023131184
 31
0.0
  0
LINE
  5
416
330
1F
100
AcDbEntity
  8
0
  6
CONTINUOUS
 62
     7
100
AcDbLine
 10
264.3940330906
 20
178.8078518977
 30
0.0
 11
264.3727434386
 21
178.8463681417
 31
0.0
  0
LINE
  5
417
330
1F
100
AcDbEntity
  8
0
  6
CONTINUOUS
 62
     7
100
AcDbLine
 10
264.809903253
 20
179.002037082
 30
0.0
 11
264.788420103
 21
179.0403092318
 31
0.0
  0
LINE
  5
418
330
1F
100
AcDbEntity
  8
0
  6
CONTINUOUS
 62
     7
100
AcDbLine
 10
265.1250179913
 20
178.2947334033
 30
0.0
 11
265.1264504747
 21
178.3688557901
 31
0.0
  0
LINE
  5
419
330
1F
100
AcDbEntity
  8
0
  6
CONTINUOUS
 62
     7
100
AcDbLine
 10
264.7711169316
 20
178.1271625057
 30
0.0
 11
265.1250179913
 21
178.2947334033
 31
0.0
  0
LINE
  5
41A
330
1F
100
AcDbEntity
  8
0
  6
CONTINUOUS
 62
     7
100
AcDbLine
 10
264.7925681425
 20
178.0883549264
 30
0.0
 11
264.7711169316
 21
178.1271625057
 31
0.0
  0
LINE
  5
41B
330
1F
100
AcDbEntity
  8
0
  6
CONTINUOUS
 62
     7
100
AcDbLine
 10
265.1074496804
 20
177.3856791141
 30
0.0
 11
265.1088664926
 21
177.4589906124
 31
0.0
  0
LINE
  5
41C
330
1F
100
AcDbEntity
  8
0
  6
CONTINUOUS
 62
     7
100
AcDbLine
 10
264.7119463801
 20
178.0991454593
 30
0.0
 11
264.3557941948
 21
177.9305086617
 31
0.0
  0
LINE
  5
41D
330
1F
100
AcDbEntity
  8
0
  6
CONTINUOUS
 62
     7
100
AcDbLine
 10
264.3557941948
 20
177.9305086617
 30
0.0
 11
264.3770522194
 21
177.8914538173
 31
0.0
  0
LINE
  5
41E
330
1F
100
AcDbEntity
  8
0
  6
CONTINUOUS
 62
     7
100
AcDbLine
 10
264.4222443307
 20
178.0798899251
 30
0.0
 11
264.4335989667
 21
178.6911808678
 31
0.0
  0
LINE
  5
41F
330
1F
100
AcDbEntity
  8
0
  6
CONTINUOUS
 62
     7
100
AcDbLine
 10
264.1436588279
 20
177.948231508
 30
0.0
 11
264.4222443307
 21
178.0798899251
 31
0.0
  0
LINE
  5
420
330
1F
100
AcDbEntity
  8
0
  6
CONTINUOUS
 62
     7
100
AcDbLine
 10
264.379476011
 20
178.0222573484
 30
0.0
 11
264.0211653503
 21
177.8528187878
 31
0.0
  0
LINE
  5
421
330
1F
100
AcDbEntity
  8
0
  6
CONTINUOUS
 62
     7
100
AcDbLine
 10
264.379476011
 20
178.0222573484
 30
0.0
 11
264.4222443307
 21
178.0798899251
 31
0.0
  0
LINE
  5
422
330
1F
100
AcDbEntity
  8
0
  6
CONTINUOUS
 62
     7
100
AcDbLine
 10
264.4165726038
 20
177.7745454558
 30
0.0
 11
264.1380666858
 21
177.6422810416
 31
0.0
  0
LINE
  5
423
330
1F
100
AcDbEntity
  8
0
  6
CONTINUOUS
 62
     7
100
AcDbLine
 10
264.1380666858
 20
177.6422810416
 30
0.0
 11
264.0187854586
 21
177.7216814483
 31
0.0
  0
LINE
  5
424
330
1F
100
AcDbEntity
  8
0
  6
CONTINUOUS
 62
     7
100
AcDbLine
 10
264.0187854586
 20
177.7216814483
 30
0.0
 11
264.3770522194
 21
177.8914538173
 31
0.0
  0
LINE
  5
425
330
1F
100
AcDbEntity
  8
0
  6
CONTINUOUS
 62
     7
100
AcDbLine
 10
264.4165726038
 20
177.7745454558
 30
0.0
 11
264.3770522194
 21
177.8914538173
 31
0.0
  0
LINE
  5
426
330
1F
100
AcDbEntity
  8
0
  6
CONTINUOUS
 62
     7
100
AcDbLine
 10
264.1380666858
 20
177.6422810416
 30
0.0
 11
264.126893432
 21
177.0309835981
 31
0.0
  0
LINE
  5
427
330
1F
100
AcDbEntity
  8
0
  6
CONTINUOUS
 62
     7
100
AcDbLine
 10
264.0045201917
 20
176.9356334459
 30
0.0
 11
264.126893432
 21
177.0309835981
 31
0.0
  0
LINE
  5
428
330
1F
100
AcDbEntity
  8
0
  6
CONTINUOUS
 62
     7
100
AcDbLine
 10
264.2962466672
 20
177.9023131184
 30
0.0
 11
264.3770522194
 21
177.8914538173
 31
0.0
  0
LINE
  5
429
330
1F
100
AcDbEntity
  8
0
  6
CONTINUOUS
 62
     7
100
AcDbLine
 10
264.4052403139
 20
177.164457534
 30
0.0
 11
264.4165726038
 21
177.7745454558
 31
0.0
  0
LINE
  5
42A
330
1F
100
AcDbEntity
  8
0
  6
CONTINUOUS
 62
     7
100
AcDbLine
 10
264.126893432
 20
177.0309835981
 30
0.0
 11
264.4052403139
 21
177.164457534
 31
0.0
  0
LINE
  5
42B
330
1F
100
AcDbEntity
  8
0
  6
CONTINUOUS
 62
     7
100
AcDbLine
 10
264.3625237744
 20
177.1074045802
 30
0.0
 11
264.0045201917
 21
176.9356334459
 31
0.0
  0
LINE
  5
42C
330
1F
100
AcDbEntity
  8
0
  6
CONTINUOUS
 62
     7
100
AcDbLine
 10
264.3625237744
 20
177.1074045802
 30
0.0
 11
264.4052403139
 21
177.164457534
 31
0.0
  0
LINE
  5
42D
330
1F
100
AcDbEntity
  8
0
  6
CONTINUOUS
 62
     7
100
AcDbLine
 10
264.1213123131
 20
176.7256362243
 30
0.0
 11
264.1101610733
 21
176.1155431829
 31
0.0
  0
LINE
  5
42E
330
1F
100
AcDbEntity
  8
0
  6
CONTINUOUS
 62
     7
100
AcDbLine
 10
264.1101610733
 20
176.1155431829
 30
0.0
 11
263.9879078345
 21
176.0202555374
 31
0.0
  0
LINE
  5
42F
330
1F
100
AcDbEntity
  8
0
  6
CONTINUOUS
 62
     7
100
AcDbLine
 10
264.1213123131
 20
176.7256362243
 30
0.0
 11
264.0021449918
 21
176.8047546387
 31
0.0
  0
LINE
  5
430
330
1F
100
AcDbEntity
  8
0
  6
CONTINUOUS
 62
     7
100
AcDbLine
 10
264.3995797434
 20
176.8597136872
 30
0.0
 11
264.1213123131
 21
176.7256362243
 31
0.0
  0
LINE
  5
431
330
1F
100
AcDbEntity
  8
0
  6
CONTINUOUS
 62
     7
100
AcDbLine
 10
264.0021449918
 20
176.8047546387
 30
0.0
 11
264.3601047483
 21
176.976858221
 31
0.0
  0
LINE
  5
432
330
1F
100
AcDbEntity
  8
0
  6
CONTINUOUS
 62
     7
100
AcDbLine
 10
264.3601047483
 20
176.976858221
 30
0.0
 11
264.3995797434
 21
176.8597136872
 31
0.0
  0
LINE
  5
433
330
1F
100
AcDbEntity
  8
0
  6
CONTINUOUS
 62
     7
100
AcDbLine
 10
264.2793816128
 20
176.9878666671
 30
0.0
 11
264.3601047483
 21
176.976858221
 31
0.0
  0
LINE
  5
434
330
1F
100
AcDbEntity
  8
0
  6
CONTINUOUS
 62
     7
100
AcDbLine
 10
264.3882697335
 20
176.2508252384
 30
0.0
 11
264.3995797434
 21
176.8597136872
 31
0.0
  0
LINE
  5
435
330
1F
100
AcDbEntity
  8
0
  6
CONTINUOUS
 62
     7
100
AcDbLine
 10
264.1101610733
 20
176.1155431829
 30
0.0
 11
264.3882697335
 21
176.2508252384
 31
0.0
  0
LINE
  5
436
330
1F
100
AcDbEntity
  8
0
  6
CONTINUOUS
 62
     7
100
AcDbLine
 10
264.3456048536
 20
176.1943497411
 30
0.0
 11
264.3882697335
 21
176.2508252384
 31
0.0
  0
LINE
  5
437
330
1F
100
AcDbEntity
  8
0
  6
CONTINUOUS
 62
     7
100
AcDbLine
 10
264.3456048536
 20
176.1943497411
 30
0.0
 11
263.9879078345
 21
176.0202555374
 31
0.0
  0
LINE
  5
438
330
1F
100
AcDbEntity
  8
0
  6
CONTINUOUS
 62
     7
100
AcDbLine
 10
264.4390045063
 20
178.0504072855
 30
0.0
 11
264.4536052224
 21
178.8356683328
 31
0.0
  0
LINE
  5
439
330
1F
100
AcDbEntity
  8
0
  6
CONTINUOUS
 62
     7
100
AcDbLine
 10
264.4536052224
 20
178.8356683328
 30
0.0
 11
264.572527788
 21
178.7561952574
 31
0.0
  0
LINE
  5
43A
330
1F
100
AcDbEntity
  8
0
  6
CONTINUOUS
 62
     7
100
AcDbLine
 10
264.572527788
 20
178.7561952574
 30
0.0
 11
264.561094045
 21
178.145509756
 31
0.0
  0
LINE
  5
43B
330
1F
100
AcDbEntity
  8
0
  6
CONTINUOUS
 62
     7
100
AcDbLine
 10
264.4390045063
 20
178.0504072855
 30
0.0
 11
264.561094045
 21
178.145509756
 31
0.0
  0
LINE
  5
43C
330
1F
100
AcDbEntity
  8
0
  6
CONTINUOUS
 62
     7
100
AcDbLine
 10
264.8495029638
 20
178.8858110696
 30
0.0
 11
264.572527788
 21
178.7561952574
 31
0.0
  0
LINE
  5
43D
330
1F
100
AcDbEntity
  8
0
  6
CONTINUOUS
 62
     7
100
AcDbLine
 10
264.8495029638
 20
178.8858110696
 30
0.0
 11
264.809903253
 21
179.002037082
 31
0.0
  0
LINE
  5
43E
330
1F
100
AcDbEntity
  8
0
  6
CONTINUOUS
 62
     7
100
AcDbLine
 10
264.4222443307
 20
178.0798899251
 30
0.0
 11
264.4390045063
 21
178.0504072855
 31
0.0
  0
LINE
  5
43F
330
1F
100
AcDbEntity
  8
0
  6
CONTINUOUS
 62
     7
100
AcDbLine
 10
264.561094045
 20
178.145509756
 30
0.0
 11
264.8379120865
 21
178.2763328778
 31
0.0
  0
LINE
  5
440
330
1F
100
AcDbEntity
  8
0
  6
CONTINUOUS
 62
     7
100
AcDbLine
 10
264.8379120865
 20
178.2763328778
 30
0.0
 11
264.8495029638
 21
178.8858110696
 31
0.0
  0
LINE
  5
441
330
1F
100
AcDbEntity
  8
0
  6
CONTINUOUS
 62
     7
100
AcDbLine
 10
264.8379120865
 20
178.2763328778
 30
0.0
 11
264.7950425036
 21
178.2187711452
 31
0.0
  0
LINE
  5
442
330
1F
100
AcDbEntity
  8
0
  6
CONTINUOUS
 62
     7
100
AcDbLine
 10
264.7950425036
 20
178.2187711452
 30
0.0
 11
264.4390045063
 21
178.0504072855
 31
0.0
  0
LINE
  5
443
330
1F
100
AcDbEntity
  8
0
  6
CONTINUOUS
 62
     7
100
AcDbLine
 10
264.8321223371
 20
177.9718929392
 30
0.0
 11
264.5553827976
 21
177.8404673906
 31
0.0
  0
LINE
  5
444
330
1F
100
AcDbEntity
  8
0
  6
CONTINUOUS
 62
     7
100
AcDbLine
 10
264.4365734481
 20
177.9196592248
 30
0.0
 11
264.5553827976
 21
177.8404673906
 31
0.0
  0
LINE
  5
445
330
1F
100
AcDbEntity
  8
0
  6
CONTINUOUS
 62
     7
100
AcDbLine
 10
264.4365734481
 20
177.9196592248
 30
0.0
 11
264.7925681425
 21
178.0883549264
 31
0.0
  0
LINE
  5
446
330
1F
100
AcDbEntity
  8
0
  6
CONTINUOUS
 62
     7
100
AcDbLine
 10
264.8321223371
 20
177.9718929392
 30
0.0
 11
264.7925681425
 21
178.0883549264
 31
0.0
  0
LINE
  5
447
330
1F
100
AcDbEntity
  8
0
  6
CONTINUOUS
 62
     7
100
AcDbLine
 10
264.4220014395
 20
177.1359421326
 30
0.0
 11
264.4365734481
 21
177.9196592248
 31
0.0
  0
LINE
  5
448
330
1F
100
AcDbEntity
  8
0
  6
CONTINUOUS
 62
     7
100
AcDbLine
 10
264.5553827976
 20
177.8404673906
 30
0.0
 11
264.5439715323
 21
177.2309824457
 31
0.0
  0
LINE
  5
449
330
1F
100
AcDbEntity
  8
0
  6
CONTINUOUS
 62
     7
100
AcDbLine
 10
264.4220014395
 20
177.1359421326
 30
0.0
 11
264.5439715323
 21
177.2309824457
 31
0.0
  0
LINE
  5
44A
330
1F
100
AcDbEntity
  8
0
  6
CONTINUOUS
 62
     7
100
AcDbLine
 10
264.3557941948
 20
177.9305086617
 30
0.0
 11
264.4365734481
 21
177.9196592248
 31
0.0
  0
LINE
  5
44B
330
1F
100
AcDbEntity
  8
0
  6
CONTINUOUS
 62
     7
100
AcDbLine
 10
264.4052403139
 20
177.164457534
 30
0.0
 11
264.4220014395
 21
177.1359421326
 31
0.0
  0
LINE
  5
44C
330
1F
100
AcDbEntity
  8
0
  6
CONTINUOUS
 62
     7
100
AcDbLine
 10
264.7119463801
 20
178.0991454593
 30
0.0
 11
264.7925681425
 21
178.0883549264
 31
0.0
  0
LINE
  5
44D
330
1F
100
AcDbEntity
  8
0
  6
CONTINUOUS
 62
     7
100
AcDbLine
 10
264.5439715323
 20
177.2309824457
 30
0.0
 11
264.8205541983
 21
177.3636103982
 31
0.0
  0
LINE
  5
44E
330
1F
100
AcDbEntity
  8
0
  6
CONTINUOUS
 62
     7
100
AcDbLine
 10
264.8205541983
 20
177.3636103982
 30
0.0
 11
264.8321223371
 21
177.9718929392
 31
0.0
  0
LINE
  5
44F
330
1F
100
AcDbEntity
  8
0
  6
CONTINUOUS
 62
     7
100
AcDbLine
 10
264.8205541983
 20
177.3636103982
 30
0.0
 11
264.7777365324
 21
177.3066248391
 31
0.0
  0
LINE
  5
450
330
1F
100
AcDbEntity
  8
0
  6
CONTINUOUS
 62
     7
100
AcDbLine
 10
264.7777365324
 20
177.3066248391
 30
0.0
 11
264.4220014395
 21
177.1359421326
 31
0.0
  0
LINE
  5
451
330
1F
100
AcDbEntity
  8
0
  6
CONTINUOUS
 62
     7
100
AcDbLine
 10
264.5382715072
 20
176.9265394734
 30
0.0
 11
264.5268826535
 21
176.3182515484
 31
0.0
  0
LINE
  5
452
330
1F
100
AcDbEntity
  8
0
  6
CONTINUOUS
 62
     7
100
AcDbLine
 10
264.5268826535
 20
176.3182515484
 30
0.0
 11
264.4050317731
 21
176.223273332
 31
0.0
  0
LINE
  5
453
330
1F
100
AcDbEntity
  8
0
  6
CONTINUOUS
 62
     7
100
AcDbLine
 10
264.4050317731
 20
176.223273332
 30
0.0
 11
264.4195751588
 21
177.0054510181
 31
0.0
  0
LINE
  5
454
330
1F
100
AcDbEntity
  8
0
  6
CONTINUOUS
 62
     7
100
AcDbLine
 10
264.5382715072
 20
176.9265394734
 30
0.0
 11
264.4195751588
 21
177.0054510181
 31
0.0
  0
LINE
  5
455
330
1F
100
AcDbEntity
  8
0
  6
CONTINUOUS
 62
     7
100
AcDbLine
 10
264.8147758015
 20
177.0597674053
 30
0.0
 11
264.5382715072
 21
176.9265394734
 31
0.0
  0
LINE
  5
456
330
1F
100
AcDbEntity
  8
0
  6
CONTINUOUS
 62
     7
100
AcDbLine
 10
264.4195751588
 20
177.0054510181
 30
0.0
 11
264.7752670208
 21
177.1764642187
 31
0.0
  0
LINE
  5
457
330
1F
100
AcDbEntity
  8
0
  6
CONTINUOUS
 62
     7
100
AcDbLine
 10
264.7752670208
 20
177.1764642187
 30
0.0
 11
264.8147758015
 21
177.0597674053
 31
0.0
  0
LINE
  5
458
330
1F
100
AcDbEntity
  8
0
  6
CONTINUOUS
 62
     7
100
AcDbLine
 10
264.3388782679
 20
177.0164494744
 30
0.0
 11
264.4195751588
 21
177.0054510181
 31
0.0
  0
LINE
  5
459
330
1F
100
AcDbEntity
  8
0
  6
CONTINUOUS
 62
     7
100
AcDbLine
 10
264.3882697335
 20
176.2508252384
 30
0.0
 11
264.4050317731
 21
176.223273332
 31
0.0
  0
LINE
  5
45A
330
1F
100
AcDbEntity
  8
0
  6
CONTINUOUS
 62
     7
100
AcDbLine
 10
264.6947272955
 20
177.1874030203
 30
0.0
 11
264.7752670208
 21
177.1764642187
 31
0.0
  0
LINE
  5
45B
330
1F
100
AcDbEntity
  8
0
  6
CONTINUOUS
 62
     7
100
AcDbLine
 10
264.8032303344
 20
176.4526770001
 30
0.0
 11
264.8147758015
 21
177.0597674053
 31
0.0
  0
LINE
  5
45C
330
1F
100
AcDbEntity
  8
0
  6
CONTINUOUS
 62
     7
100
AcDbLine
 10
264.5268826535
 20
176.3182515484
 30
0.0
 11
264.8032303344
 21
176.4526770001
 31
0.0
  0
LINE
  5
45D
330
1F
100
AcDbEntity
  8
0
  6
CONTINUOUS
 62
     7
100
AcDbLine
 10
264.7604644645
 20
176.396265468
 30
0.0
 11
264.8032303344
 21
176.4526770001
 31
0.0
  0
LINE
  5
45E
330
1F
100
AcDbEntity
  8
0
  6
CONTINUOUS
 62
     7
100
AcDbLine
 10
264.7604644645
 20
176.396265468
 30
0.0
 11
264.4050317731
 21
176.223273332
 31
0.0
  0
LINE
  5
45F
330
1F
100
AcDbEntity
  8
0
  6
CONTINUOUS
 62
     7
100
AcDbLine
 10
264.8541940249
 20
178.2467428182
 30
0.0
 11
264.8690978173
 21
179.029677217
 31
0.0
  0
LINE
  5
460
330
1F
100
AcDbEntity
  8
0
  6
CONTINUOUS
 62
     7
100
AcDbLine
 10
264.8690978173
 20
179.029677217
 30
0.0
 11
264.9875511847
 21
178.9504133655
 31
0.0
  0
LINE
  5
461
330
1F
100
AcDbEntity
  8
0
  6
CONTINUOUS
 62
     7
100
AcDbLine
 10
264.9875511847
 20
178.9504133655
 30
0.0
 11
264.9758822767
 21
178.3415370491
 31
0.0
  0
LINE
  5
462
330
1F
100
AcDbEntity
  8
0
  6
CONTINUOUS
 62
     7
100
AcDbLine
 10
264.8541940249
 20
178.2467428182
 30
0.0
 11
264.9758822767
 21
178.3415370491
 31
0.0
  0
LINE
  5
463
330
1F
100
AcDbEntity
  8
0
  6
CONTINUOUS
 62
     7
100
AcDbLine
 10
265.2627735291
 20
179.0792089068
 30
0.0
 11
264.9875511847
 21
178.9504133655
 31
0.0
  0
LINE
  5
464
330
1F
100
AcDbEntity
  8
0
  6
CONTINUOUS
 62
     7
100
AcDbLine
 10
265.2627735291
 20
179.0792089068
 30
0.0
 11
265.2231412041
 21
179.1949931895
 31
0.0
  0
LINE
  5
465
330
1F
100
AcDbEntity
  8
0
  6
CONTINUOUS
 62
     7
100
AcDbLine
 10
264.8379120865
 20
178.2763328778
 30
0.0
 11
264.8541940249
 21
178.2467428182
 31
0.0
  0
LINE
  5
466
330
1F
100
AcDbEntity
  8
0
  6
CONTINUOUS
 62
     7
100
AcDbLine
 10
264.9758822767
 20
178.3415370491
 30
0.0
 11
265.2509496239
 21
178.4715327996
 31
0.0
  0
LINE
  5
467
330
1F
100
AcDbEntity
  8
0
  6
CONTINUOUS
 62
     7
100
AcDbLine
 10
265.2509496239
 20
178.4715327996
 30
0.0
 11
265.2627735291
 21
179.0792089068
 31
0.0
  0
LINE
  5
468
330
1F
100
AcDbEntity
  8
0
  6
CONTINUOUS
 62
     7
100
AcDbLine
 10
265.2509496239
 20
178.4715327996
 30
0.0
 11
265.2079809126
 21
178.4140421693
 31
0.0
  0
LINE
  5
469
330
1F
100
AcDbEntity
  8
0
  6
CONTINUOUS
 62
     7
100
AcDbLine
 10
265.2079809126
 20
178.4140421693
 30
0.0
 11
264.8541940249
 21
178.2467428182
 31
0.0
  0
LINE
  5
46A
330
1F
100
AcDbEntity
  8
0
  6
CONTINUOUS
 62
     7
100
AcDbLine
 10
264.8517124959
 20
178.1163817436
 30
0.0
 11
265.2054566691
 21
178.2840109876
 31
0.0
  0
LINE
  5
46B
330
1F
100
AcDbEntity
  8
0
  6
CONTINUOUS
 62
     7
100
AcDbLine
 10
265.2054566691
 20
178.2840109876
 30
0.0
 11
265.2450434565
 21
178.1679920754
 31
0.0
  0
LINE
  5
46C
330
1F
100
AcDbEntity
  8
0
  6
CONTINUOUS
 62
     7
100
AcDbLine
 10
265.2450434565
 20
178.1679920754
 30
0.0
 11
264.9700535442
 21
178.037397437
 31
0.0
  0
LINE
  5
46D
330
1F
100
AcDbEntity
  8
0
  6
CONTINUOUS
 62
     7
100
AcDbLine
 10
264.8517124959
 20
178.1163817436
 30
0.0
 11
264.9700535442
 21
178.037397437
 31
0.0
  0
LINE
  5
46E
330
1F
100
AcDbEntity
  8
0
  6
CONTINUOUS
 62
     7
100
AcDbLine
 10
264.9700535442
 20
178.037397437
 30
0.0
 11
264.9584075036
 21
177.4297143297
 31
0.0
  0
LINE
  5
46F
330
1F
100
AcDbEntity
  8
0
  6
CONTINUOUS
 62
     7
100
AcDbLine
 10
264.9584075036
 20
177.4297143297
 30
0.0
 11
264.836837914
 21
177.3349818496
 31
0.0
  0
LINE
  5
470
330
1F
100
AcDbEntity
  8
0
  6
CONTINUOUS
 62
     7
100
AcDbLine
 10
264.836837914
 20
177.3349818496
 30
0.0
 11
264.8517124959
 21
178.1163817436
 31
0.0
  0
LINE
  5
471
330
1F
100
AcDbEntity
  8
0
  6
CONTINUOUS
 62
     7
100
AcDbLine
 10
265.1250179913
 20
178.2947334033
 30
0.0
 11
265.2054566691
 21
178.2840109876
 31
0.0
  0
LINE
  5
472
330
1F
100
AcDbEntity
  8
0
  6
CONTINUOUS
 62
     7
100
AcDbLine
 10
264.7711169316
 20
178.1271625057
 30
0.0
 11
264.8517124959
 21
178.1163817436
 31
0.0
  0
LINE
  5
473
330
1F
100
AcDbEntity
  8
0
  6
CONTINUOUS
 62
     7
100
AcDbLine
 10
264.8205541983
 20
177.3636103982
 30
0.0
 11
264.836837914
 21
177.3349818496
 31
0.0
  0
LINE
  5
474
330
1F
100
AcDbEntity
  8
0
  6
CONTINUOUS
 62
     7
100
AcDbLine
 10
265.2332426736
 20
177.5615043164
 30
0.0
 11
265.2450434565
 21
178.1679920754
 31
0.0
  0
LINE
  5
475
330
1F
100
AcDbEntity
  8
0
  6
CONTINUOUS
 62
     7
100
AcDbLine
 10
264.9584075036
 20
177.4297143297
 30
0.0
 11
265.2332426736
 21
177.5615043164
 31
0.0
  0
LINE
  5
476
330
1F
100
AcDbEntity
  8
0
  6
CONTINUOUS
 62
     7
100
AcDbLine
 10
265.2332426736
 20
177.5615043164
 30
0.0
 11
265.1903260105
 21
177.5045864407
 31
0.0
  0
LINE
  5
477
330
1F
100
AcDbEntity
  8
0
  6
CONTINUOUS
 62
     7
100
AcDbLine
 10
265.1903260105
 20
177.5045864407
 30
0.0
 11
264.836837914
 21
177.3349818496
 31
0.0
  0
LINE
  5
478
330
1F
100
AcDbEntity
  8
0
  6
CONTINUOUS
 62
     7
100
AcDbLine
 10
264.952590188
 20
177.1261704452
 30
0.0
 11
264.9409669477
 21
176.519677043
 31
0.0
  0
LINE
  5
479
330
1F
100
AcDbEntity
  8
0
  6
CONTINUOUS
 62
     7
100
AcDbLine
 10
264.9409669477
 20
176.519677043
 30
0.0
 11
264.8195157892
 21
176.4250062536
 31
0.0
  0
LINE
  5
47A
330
1F
100
AcDbEntity
  8
0
  6
CONTINUOUS
 62
     7
100
AcDbLine
 10
264.8195157892
 20
176.4250062536
 30
0.0
 11
264.8343612463
 21
177.2048761497
 31
0.0
  0
LINE
  5
47B
330
1F
100
AcDbEntity
  8
0
  6
CONTINUOUS
 62
     7
100
AcDbLine
 10
264.8343612463
 20
177.2048761497
 30
0.0
 11
264.952590188
 21
177.1261704452
 31
0.0
  0
LINE
  5
47C
330
1F
100
AcDbEntity
  8
0
  6
CONTINUOUS
 62
     7
100
AcDbLine
 10
264.8343612463
 20
177.2048761497
 30
0.0
 11
265.1878066984
 21
177.3748092982
 31
0.0
  0
LINE
  5
47D
330
1F
100
AcDbEntity
  8
0
  6
CONTINUOUS
 62
     7
100
AcDbLine
 10
265.1878066984
 20
177.3748092982
 30
0.0
 11
265.2273480505
 21
177.2585568947
 31
0.0
  0
LINE
  5
47E
330
1F
100
AcDbEntity
  8
0
  6
CONTINUOUS
 62
     7
100
AcDbLine
 10
265.2273480505
 20
177.2585568947
 30
0.0
 11
264.952590188
 21
177.1261704452
 31
0.0
  0
LINE
  5
47F
330
1F
100
AcDbEntity
  8
0
  6
CONTINUOUS
 62
     7
100
AcDbLine
 10
264.7538476651
 20
177.2158050561
 30
0.0
 11
264.8343612463
 21
177.2048761497
 31
0.0
  0
LINE
  5
480
330
1F
100
AcDbEntity
  8
0
  6
CONTINUOUS
 62
     7
100
AcDbLine
 10
264.8032303344
 20
176.4526770001
 30
0.0
 11
264.8195157892
 21
176.4250062536
 31
0.0
  0
LINE
  5
481
330
1F
100
AcDbEntity
  8
0
  6
CONTINUOUS
 62
     7
100
AcDbLine
 10
265.1074496804
 20
177.3856791141
 30
0.0
 11
265.1878066984
 21
177.3748092982
 31
0.0
  0
LINE
  5
482
330
1F
100
AcDbEntity
  8
0
  6
CONTINUOUS
 62
     7
100
AcDbLine
 10
265.2155703222
 20
176.6532540014
 30
0.0
 11
265.2273480505
 21
177.2585568947
 31
0.0
  0
LINE
  5
483
330
1F
100
AcDbEntity
  8
0
  6
CONTINUOUS
 62
     7
100
AcDbLine
 10
264.9409669477
 20
176.519677043
 30
0.0
 11
265.2155703222
 21
176.6532540014
 31
0.0
  0
LINE
  5
484
330
1F
100
AcDbEntity
  8
0
  6
CONTINUOUS
 62
     7
100
AcDbLine
 10
265.2155703222
 20
176.6532540014
 30
0.0
 11
265.1727055859
 21
176.5969067536
 31
0.0
  0
LINE
  5
485
330
1F
100
AcDbEntity
  8
0
  6
CONTINUOUS
 62
     7
100
AcDbLine
 10
265.1727055859
 20
176.5969067536
 30
0.0
 11
264.8195157892
 21
176.4250062536
 31
0.0
  0
ARC
  5
486
330
1F
100
AcDbEntity
  8
0
  6
CONTINUOUS
 62
     7
100
AcDbCircle
 10
258.0946078436
 20
188.4377348234
 30
0.0
 40
3.120841196049175
100
AcDbArc
 50
357.7153022482
 51
80.4496962855
  0
ARC
  5
487
330
1F
100
AcDbEntity
  8
0
  6
CONTINUOUS
 62
     7
100
AcDbCircle
 10
260.0825515839
 20
192.836218357
 30
0.0
 40
4.662019611531669
100
AcDbArc
 50
262.2309170009
 51
284.0325797296
  0
ARC
  5
488
330
1F
100
AcDbEntity
  8
0
  6
CONTINUOUS
 62
     7
100
AcDbCircle
 10
257.7004680073
 20
188.2872220621
 30
0.0
 40
1.753274535247417
100
AcDbArc
 50
357.7043087393
 51
80.3545635019
  0
ARC
  5
489
330
1F
100
AcDbEntity
  8
0
  6
CONTINUOUS
 62
     7
100
AcDbCircle
 10
259.6957916822
 20
190.1915117131
 30
0.0
 40
1.71061894447467
100
AcDbArc
 50
129.2965779772
 51
185.8987023079
  0
LINE
  5
48A
330
1F
100
AcDbEntity
  8
0
  6
CONTINUOUS
 62
     7
100
AcDbLine
 10
261.2129682132
 20
188.3133227024
 30
0.0
 11
260.5964647239
 21
147.1032978172
 31
0.0
  0
ARC
  5
48B
330
1F
100
AcDbEntity
  8
0
  6
CONTINUOUS
 62
     7
100
AcDbCircle
 10
259.516499549
 20
149.4391831577
 30
0.0
 40
2.573457810639072
100
AcDbArc
 50
256.414965304
 51
294.8128262039
  0
LINE
  5
48C
330
1F
100
AcDbEntity
  8
0
  6
CONTINUOUS
 62
     7
100
AcDbLine
 10
258.9120245863
 20
146.9377245587
 30
0.0
 11
259.4523353824
 21
188.2169917554
 31
0.0
  0
ARC
  5
48D
330
1F
100
AcDbEntity
  8
0
  6
CONTINUOUS
 62
     7
100
AcDbCircle
 10
230.9840249323
 20
189.7891019201
 30
0.0
 40
1.100112021356473
100
AcDbArc
 50
87.7795056503
 51
186.9625474962
  0
LINE
  5
48E
330
1F
100
AcDbEntity
  8
0
  6
CONTINUOUS
 62
     7
100
AcDbLine
 10
229.892025575
 20
189.6557457685
 30
0.0
 11
230.1188075662
 21
177.276722311
 31
0.0
  0
ARC
  5
48F
330
1F
100
AcDbEntity
  8
0
  6
CONTINUOUS
 62
     7
100
AcDbCircle
 10
231.6296510593
 20
177.2510591483
 30
0.0
 40
1.511061434358067
100
AcDbArc
 50
179.0268684139
 51
256.811505577
  0
LINE
  5
490
330
1F
100
AcDbEntity
  8
0
  6
CONTINUOUS
 62
     7
100
AcDbLine
 10
231.2848942923
 20
175.7798523545
 30
0.0
 11
255.9847742662
 21
172.0827414581
 31
0.0
  0
ARC
  5
491
330
1F
100
AcDbEntity
  8
0
  6
CONTINUOUS
 62
     7
100
AcDbCircle
 10
256.1299315281
 20
173.2297722874
 30
0.0
 40
1.15617920498364
100
AcDbArc
 50
262.7875331306
 51
3.2115053695
  0
LINE
  5
492
330
1F
100
AcDbEntity
  8
0
  6
CONTINUOUS
 62
     7
100
AcDbLine
 10
257.2842949938
 20
173.2945437557
 30
0.0
 11
257.4280552158
 21
186.4145097275
 31
0.0
  0
ARC
  5
493
330
1F
100
AcDbEntity
  8
0
  6
CONTINUOUS
 62
     7
100
AcDbCircle
 10
255.8680421598
 20
186.4748859814
 30
0.0
 40
1.561180971881856
100
AcDbArc
 50
357.7836218321
 51
80.0739616742
  0
LINE
  5
494
330
1F
100
AcDbEntity
  8
0
  6
CONTINUOUS
 62
     7
100
AcDbLine
 10
256.1371534929
 20
188.0126977765
 30
0.0
 11
231.0266490331
 21
190.8883878909
 31
0.0
  0
ARC
  5
495
330
1F
100
AcDbEntity
  8
0
  6
CONTINUOUS
 62
     7
100
AcDbCircle
 10
230.6207997521
 20
153.0684554668
 30
0.0
 40
1.734657016597789
100
AcDbArc
 50
180.3743792478
 51
254.2917040024
  0
ARC
  5
496
330
1F
100
AcDbEntity
  8
0
  6
CONTINUOUS
 62
     7
100
AcDbCircle
 10
229.3262895822
 20
191.9245780868
 30
0.0
 40
1.231103942780229
100
AcDbArc
 50
88.1622265275
 51
187.3612806254
  0
LINE
  5
497
330
1F
100
AcDbEntity
  8
0
  6
CONTINUOUS
 62
     7
100
AcDbLine
 10
257.9942302169
 20
190.015711391
 30
0.0
 11
229.3657707143
 21
193.1550487927
 31
0.0
  0
ARC
  5
498
330
1F
100
AcDbEntity
  8
0
  6
CONTINUOUS
 62
     7
100
AcDbCircle
 10
257.7389418371
 20
146.8847963299
 30
0.0
 40
1.174276174459535
100
AcDbArc
 50
257.4765877451
 51
2.583371742
  0
ARC
  5
499
330
1F
100
AcDbEntity
  8
0
  6
CONTINUOUS
 62
     7
100
AcDbCircle
 10
265.3600717998
 20
191.1684051504
 30
0.0
 40
2.928701825121231
100
AcDbArc
 50
357.4190289218
 51
81.2806296937
  0
LINE
  5
49A
330
1F
100
AcDbEntity
  8
0
  6
CONTINUOUS
 62
     7
100
AcDbLine
 10
268.2858026928
 20
191.0365221629
 30
0.0
 11
261.2129682132
 21
188.3133227024
 31
0.0
  0
LINE
  5
49B
330
1F
100
AcDbEntity
  8
0
  6
CONTINUOUS
 62
     7
100
AcDbLine
 10
258.6123974258
 20
191.5153221446
 30
0.0
 11
265.804048345
 21
194.0632590686
 31
0.0
  0
LINE
  5
49C
330
1F
100
AcDbEntity
  8
0
  6
CONTINUOUS
 62
     7
100
AcDbLine
 10
230.0265941979
 20
194.5517667205
 30
0.0
 11
258.6123974258
 21
191.5153221446
 31
0.0
  0
ARC
  5
49D
330
1F
100
AcDbEntity
  8
0
  6
CONTINUOUS
 62
     7
100
AcDbCircle
 10
230.7754136694
 20
193.3427954735
 30
0.0
 40
1.422090741453832
100
AcDbArc
 50
121.773480918
 51
187.5864279259
  0
LINE
  5
49E
330
1F
100
AcDbEntity
  8
0
  6
CONTINUOUS
 62
     7
100
AcDbLine
 10
267.4061588579
 20
151.7951432368
 30
0.0
 11
268.2858026928
 21
191.0365221629
 31
0.0
  0
LINE
  5
49F
330
1F
100
AcDbEntity
  8
0
  6
CONTINUOUS
 62
     7
100
AcDbLine
 10
260.5964647239
 20
147.1032978172
 30
0.0
 11
267.4061588579
 21
151.7951432368
 31
0.0
  0
ARC
  5
4A0
330
1F
100
AcDbEntity
  8
0
  6
CONTINUOUS
 62
     7
100
AcDbCircle
 10
264.5596255848
 20
181.1596481308
 30
0.0
 40
1.016655717983562
100
AcDbArc
 50
131.9776497992
 51
185.0271690095
  0
LINE
  5
4A1
330
1F
100
AcDbEntity
  8
0
  6
CONTINUOUS
 62
     7
100
AcDbLine
 10
263.5468806792
 20
181.0705605045
 30
0.0
 11
263.4417997165
 21
175.0923230734
 31
0.0
  0
LWPOLYLINE
  5
4A2
330
1F
100
AcDbEntity
  8
0
  6
CONTINUOUS
 62
     7
100
AcDbPolyline
 90
        9
 70
   128
 43
0.0
 10
263.7477999658
 20
174.5570433002
 10
263.6860822847
 20
174.5395453304
 10
263.6271529091
 20
174.5492961834
 10
263.5732821222
 20
174.585960868
 10
263.5265518591
 20
174.648166172
 10
263.4887739268
 20
174.7335479628
 10
263.461417944
 20
174.8388379888
 10
263.4455521419
 20
174.9599874742
 10
263.4417997165
 20
175.0923230734
  0
LINE
  5
4A3
330
1F
100
AcDbEntity
  8
0
  6
CONTINUOUS
 62
     7
100
AcDbLine
 10
263.7477999658
 20
174.5570433002
 30
0.0
 11
265.6251649872
 21
175.489973821
 31
0.0
  0
ARC
  5
4A4
330
1F
100
AcDbEntity
  8
0
  6
CONTINUOUS
 62
     7
100
AcDbCircle
 10
264.9089598668
 20
176.2450318463
 30
0.0
 40
1.040702837479453
100
AcDbArc
 50
313.487292897
 51
4.3534290463
  0
LINE
  5
4A5
330
1F
100
AcDbEntity
  8
0
  6
CONTINUOUS
 62
     7
100
AcDbLine
 10
265.9466600491
 20
176.3240301229
 30
0.0
 11
266.0655757809
 21
182.1958484475
 31
0.0
  0
LWPOLYLINE
  5
4A6
330
1F
100
AcDbEntity
  8
0
  6
CONTINUOUS
 62
     7
100
AcDbPolyline
 90
        9
 70
   128
 43
0.0
 10
265.769808645
 20
182.7499056426
 10
265.8300897898
 20
182.7633286383
 10
265.8874663116
 20
182.749621977
 10
265.9397389977
 20
182.7093514741
 10
265.9849105629
 20
182.644099331
 10
266.0212606398
 20
182.5563980822
 10
266.0474095232
 20
182.4496295098
 10
266.0623685801
 20
182.327892971
 10
266.0655757809
 20
182.1958484475
  0
LINE
  5
4A7
330
1F
100
AcDbEntity
  8
0
  6
CONTINUOUS
 62
     7
100
AcDbLine
 10
265.769808645
 20
182.7499056426
 30
0.0
 11
263.8796448971
 21
181.9154358744
 31
0.0
  0
LINE
  5
4A8
330
1F
100
AcDbEntity
  8
0
  6
CONTINUOUS
 62
     7
100
AcDbLine
 10
265.804048345
 20
194.0632590686
 30
0.0
 11
259.9991000712
 21
194.6383847179
 31
0.0
  0
LINE
  5
4A9
330
1F
100
AcDbEntity
  8
0
  6
CONTINUOUS
 62
     7
100
AcDbLine
 10
249.6118189286
 20
195.6675053113
 30
0.0
 11
247.8340366491
 21
195.8436392129
 31
0.0
  0
LINE
  5
4AA
330
1F
100
AcDbEntity
  8
0
  6
CONTINUOUS
 62
     7
100
AcDbLine
 10
238.7161220452
 20
196.7469972292
 30
0.0
 11
238.2034138673
 21
196.7977938271
 31
0.0
  0
LINE
  5
4AB
330
1F
100
AcDbEntity
  8
0
  6
CONTINUOUS
 62
     7
100
AcDbLine
 10
238.2034138673
 20
196.7977938271
 30
0.0
 11
230.0265941979
 21
194.5517667205
 31
0.0
  0
ARC
  5
4AC
330
1F
100
AcDbEntity
  8
0
  6
CONTINUOUS
 62
     7
100
AcDbCircle
 10
252.4541955268
 20
196.6935313278
 30
0.0
 40
3.972882784894477
100
AcDbArc
 50
250.0208463238
 51
255.646853466
  0
ARC
  5
4AD
330
1F
100
AcDbEntity
  8
0
  6
CONTINUOUS
 62
     7
100
AcDbCircle
 10
258.234664017
 20
195.4761842596
 30
0.0
 40
2.728928944986577
100
AcDbArc
 50
285.354147561
 51
292.7600540439
  0
ARC
  5
4AE
330
1F
100
AcDbEntity
  8
0
  6
CONTINUOUS
 62
     7
100
AcDbCircle
 10
255.2750969587
 20
217.2167303168
 30
0.0
 40
24.73581836253934
100
AcDbArc
 50
269.1529325277
 51
270.8470674723
  0
ARC
  5
4AF
330
1F
100
AcDbEntity
  8
0
  6
CONTINUOUS
 62
     7
100
AcDbCircle
 10
256.3745861608
 20
173.2833627272
 30
0.0
 40
1.107988514433787
100
AcDbArc
 50
261.0684808213
 51
292.8234013601
  0
LINE
  5
4B0
330
1F
100
AcDbEntity
  8
0
  6
CONTINUOUS
 62
     7
100
AcDbLine
 10
231.5273349446
 20
175.8746903056
 30
0.0
 11
256.202566675
 21
172.1888090078
 31
0.0
  0
ARC
  5
4B1
330
1F
100
AcDbEntity
  8
0
  6
CONTINUOUS
 62
     7
100
AcDbCircle
 10
231.8706863877
 20
177.3433279348
 30
0.0
 40
1.508239602727051
100
AcDbArc
 50
179.0158043402
 51
256.8412159908
  0
LINE
  5
4B2
330
1F
100
AcDbEntity
  8
0
  6
CONTINUOUS
 62
     7
100
AcDbLine
 10
230.1394697446
 20
189.730979431
 30
0.0
 11
230.3626692938
 21
177.3692343782
 31
0.0
  0
ARC
  5
4B3
330
1F
100
AcDbEntity
  8
0
  6
CONTINUOUS
 62
     7
100
AcDbCircle
 10
231.3651434776
 20
189.8142619512
 30
0.0
 40
1.228499929952797
100
AcDbArc
 50
122.7175258495
 51
183.8871792627
  0
LINE
  5
4B4
330
1F
100
AcDbEntity
  8
0
  6
CONTINUOUS
 62
     7
100
AcDbLine
 10
256.202566675
 20
172.1888090078
 30
0.0
 11
255.9847742662
 21
172.0827414581
 31
0.0
  0
LINE
  5
4B5
330
1F
100
AcDbEntity
  8
0
  6
CONTINUOUS
 62
     7
100
AcDbLine
 10
231.5273349446
 20
175.8746903056
 30
0.0
 11
231.2848942923
 21
175.7798523545
 31
0.0
  0
LWPOLYLINE
  5
4B6
330
1F
100
AcDbEntity
  8
0
  6
CONTINUOUS
 62
     7
100
AcDbPolyline
 90
       39
 70
   128
 43
0.0
 10
232.7421654256
 20
161.3217869992
 10
232.7665852285
 20
160.7151165943
 10
232.8206783424
 20
160.1055849753
 10
232.9042370479
 20
159.4949815856
 10
233.0169745217
 20
158.8850930773
 10
233.1585259895
 20
158.2776992963
 10
233.3284499641
 20
157.6745693347
 10
233.5262295658
 20
157.0774576458
 10
233.7512739216
 20
156.4881002163
 10
234.0029196411
 20
155.9082107869
 10
234.2804323708
 20
155.3394771184
 10
234.5830084257
 20
154.7835572934
 10
234.909776502
 20
154.2420760515
 10
235.259799473
 20
153.7166211498
 10
235.6320762745
 20
153.2087397459
 10
236.0255438822
 20
152.7199347983
 10
236.4390793904
 20
152.2516614825
 10
236.8715021958
 20
151.80532362
 10
237.3215762964
 20
151.3822701212
 10
237.7880127121
 20
150.9837914407
 10
238.2694720353
 20
150.6111160497
 10
238.7645671199
 20
150.2654069286
 10
239.2718659178
 20
149.9477580841
 10
239.7898944695
 20
149.6591911008
 10
240.3171400585
 20
149.4006517331
 10
240.8520545349
 20
149.1730065515
 10
241.393057816
 20
148.9770396537
 10
241.9385415686
 20
148.8134494563
 10
242.4868730779
 20
148.6828455834
 10
243.0363993052
 20
148.5857458692
 10
243.5854511369
 20
148.5225734967
 10
244.132347824
 20
148.4936542909
 10
244.675401609
 20
148.4992141924
 10
245.2129225373
 20
148.5393769328
 10
245.7432234461
 20
148.6141619395
 10
246.2646251202
 20
148.723482493
 10
246.775461606
 20
148.8671441671
 10
247.2740856665
 20
149.0448435743
 10
247.3729700669
 20
149.0847498164
  0
ARC
  5
4B7
330
1F
100
AcDbEntity
  8
0
  6
CONTINUOUS
 62
     7
100
AcDbCircle
 10
242.309096081
 20
161.8355105438
 30
0.0
 40
9.580713650129713
100
AcDbArc
 50
130.8184394043
 51
183.0737077637
  0
LWPOLYLINE
  5
4B8
330
1F
100
AcDbEntity
  8
0
  6
CONTINUOUS
 62
     7
100
AcDbPolyline
 90
       79
 70
   128
 43
0.0
 10
237.6307941925
 20
160.4282803207
 10
237.6506555381
 20
159.9964132009
 10
237.701138775
 20
159.5620348515
 10
237.7818948617
 20
159.1278664951
 10
237.8923929953
 20
158.6966227631
 10
238.0319242109
 20
158.2709966383
 10
238.1996057716
 20
157.8536445985
 10
238.394386328
 20
157.4471719966
 10
238.6150518259
 20
157.0541187063
 10
238.8602321471
 20
156.6769450688
 10
239.1284084703
 20
156.3180181692
 10
239.4179213398
 20
155.9795984812
 10
239.7269794324
 20
155.6638269152
 10
240.0536690139
 20
155.3727123133
 10
240.3959640756
 20
155.1081194362
 10
240.7517371386
 20
154.8717574947
 10
241.1187707144
 20
154.665169282
 10
241.4947694037
 20
154.489720969
 10
241.8773726113
 20
154.3465926318
 10
242.26416785
 20
154.236769584
 10
242.6527045971
 20
154.1610345917
 10
243.040508662
 20
154.1199610536
 10
243.425097011
 20
154.1139072309
 10
243.803992987
 20
154.1430116116
 10
244.1747418528
 20
154.2071894972
 10
244.534926572
 20
154.3061308948
 10
244.8821837355
 20
154.4392997945
 10
245.2142195257
 20
154.6059349068
 10
245.5288256044
 20
154.8050519264
 10
245.8238947986
 20
155.0354473777
 10
246.0974364506
 20
155.2957040851
 10
246.3475912924
 20
155.5841982966
 10
246.5726456989
 20
155.8991084721
 10
246.7710451707
 20
156.2384257294
 10
246.9414068992
 20
156.5999659205
 10
247.0825312648
 20
156.9813832898
 10
247.1934121271
 20
157.3801856432
 10
247.2732457722
 20
157.7937509354
 10
247.3214383917
 20
158.2193451605
 10
247.3376119814
 20
158.6541414088
 10
247.3216085654
 20
159.0952399328
 10
247.2734926661
 20
159.5396890483
 10
247.1935519631
 20
159.9845066787
 10
247.0822961049
 20
160.4267023372
 10
246.9404536617
 20
160.8632993346
 10
246.7689672284
 20
161.2913569879
 10
246.5689867162
 20
161.7079926093
 10
246.34186089
 20
162.1104030486
 10
246.0891272345
 20
162.4958855724
 10
245.8125002545
 20
162.8618578697
 10
245.5138583322
 20
163.205876985
 10
245.1952292838
 20
163.5256569971
 10
244.8587747722
 20
163.8190852787
 10
244.5067737454
 20
164.0842371941
 10
244.1416050768
 20
164.3193891139
 10
243.7657295924
 20
164.5230296496
 10
243.3816716705
 20
164.6938690381
 10
242.9920005981
 20
164.8308466288
 10
242.5993118663
 20
164.9331364525
 10
242.2062085785
 20
165.0001508748
 10
241.815283138
 20
165.0315423595
 10
241.4290993671
 20
165.0272033892
 10
241.0501752001
 20
164.9872646076
 10
240.6809660762
 20
164.9120912667
 10
240.3238491425
 20
164.8022780738
 10
239.9811083624
 20
164.6586425468
 10
239.6549206078
 20
164.4822169919
 10
239.3473427974
 20
164.2742392277
 10
239.0603001283
 20
164.0361421796
 10
238.7955754335
 20
163.7695424702
 10
238.5547996842
 20
163.4762281328
 10
238.3394436435
 20
163.158145568
 10
238.1508106679
 20
162.8173858614
 10
237.9900306431
 20
162.4561705746
 10
237.8580550337
 20
162.076837112
 10
237.755653019
 20
161.6818237619
 10
237.6834086847
 20
161.2736544975
 10
237.6417192356
 20
160.8549236214
 10
237.6307941925
 20
160.4282803207
  0
LWPOLYLINE
  5
4B9
330
1F
100
AcDbEntity
  8
0
  6
CONTINUOUS
 62
     7
100
AcDbPolyline
 90
        9
 70
   128
 43
0.0
 10
264.6342188039
 20
181.496302982
 10
264.6951268773
 20
181.5103479192
 10
264.7531372104
 20
181.4972392958
 10
264.806026248
 20
181.4575200469
 10
264.8517731089
 20
181.392751347
 10
264.8886354697
 20
181.3054473406
 10
264.9152141298
 20
181.1989747351
 10
264.9305041406
 20
181.0774216784
 10
264.9339309347
 20
180.9454412145
  0
LINE
  5
4BA
330
1F
100
AcDbEntity
  8
0
  6
CONTINUOUS
 62
     7
100
AcDbLine
 10
264.6342188039
 20
181.496302982
 30
0.0
 11
263.7501071928
 21
181.100898686
 31
0.0
  0
ARC
  5
4BB
330
1F
100
AcDbEntity
  8
0
  6
CONTINUOUS
 62
     7
100
AcDbCircle
 10
264.1935037748
 20
180.5175912576
 30
0.0
 40
0.7326991776364149
100
AcDbArc
 50
127.2399974788
 51
170.3820928689
  0
LWPOLYLINE
  5
4BC
330
1F
100
AcDbEntity
  8
0
  6
CONTINUOUS
 62
     7
100
AcDbPolyline
 90
        7
 70
   128
 43
0.0
 10
263.6592899069
 20
175.9972137555
 10
263.5977755286
 20
175.9804812318
 10
263.5390376485
 20
175.9909040139
 10
263.4853391454
 20
176.028120976
 10
263.4387552455
 20
176.0907373222
 10
263.4010920124
 20
176.176372772
 10
263.3933943273
 20
176.200528358
  0
LINE
  5
4BD
330
1F
100
AcDbEntity
  8
0
  6
CONTINUOUS
 62
     7
100
AcDbLine
 10
263.6592899069
 20
175.9972137555
 30
0.0
 11
263.7138013064
 21
176.0236882691
 31
0.0
  0
LINE
  5
4BE
330
1F
100
AcDbEntity
  8
0
  6
CONTINUOUS
 62
     7
100
AcDbLine
 10
264.900861226
 20
179.2109747011
 30
0.0
 11
264.9339309347
 21
180.9454412145
 31
0.0
  0
ARC
  5
4BF
330
1F
100
AcDbEntity
  8
0
  6
CONTINUOUS
 62
     7
100
AcDbCircle
 10
264.2310350913
 20
182.3103697786
 30
0.0
 40
1.222274061252177
100
AcDbArc
 50
358.2113953446
 51
11.0965773368
  0
LINE
  5
4C0
330
1F
100
AcDbEntity
  8
0
  6
CONTINUOUS
 62
     7
100
AcDbLine
 10
265.3378008037
 20
176.407635318
 30
0.0
 11
265.4527136457
 21
182.2722201968
 31
0.0
  0
ARC
  5
4C1
330
1F
100
AcDbEntity
  8
0
  6
CONTINUOUS
 62
     7
100
AcDbCircle
 10
264.3053806902
 20
176.3282077605
 30
0.0
 40
1.035470920770119
100
AcDbArc
 50
313.3155848517
 51
4.3992915772
  0
LINE
  5
4C2
330
1F
100
AcDbEntity
  8
0
  6
CONTINUOUS
 62
     7
100
AcDbLine
 10
263.3894384289
 20
174.7714862327
 30
0.0
 11
265.0157306064
 21
175.5748134253
 31
0.0
  0
LINE
  5
4C3
330
1F
100
AcDbEntity
  8
0
  6
CONTINUOUS
 62
     7
100
AcDbLine
 10
265.6251649872
 20
175.489973821
 30
0.0
 11
265.0157306064
 21
175.5748134253
 31
0.0
  0
LINE
  5
4C4
330
1F
100
AcDbEntity
  8
0
  6
CONTINUOUS
 62
     7
100
AcDbLine
 10
266.0655757809
 20
182.1958484475
 30
0.0
 11
265.4527136457
 21
182.2722201968
 31
0.0
  0
ARC
  5
4C5
330
1F
100
AcDbEntity
  8
0
  6
CONTINUOUS
 62
     7
100
AcDbCircle
 10
265.260709149
 20
151.7737217027
 30
0.0
 40
2.145556649334501
100
AcDbArc
 50
307.3899559669
 51
0.572058486
  0
LINE
  5
4C6
330
1F
100
AcDbEntity
  8
0
  6
CONTINUOUS
 62
     7
100
AcDbLine
 10
263.477724465
 20
179.3979502939
 30
0.0
 11
263.5029989283
 21
180.8393581524
 31
0.0
  0
LINE
  5
4C7
330
1F
100
AcDbEntity
  8
0
  6
CONTINUOUS
 62
     7
100
AcDbLine
 10
265.3378008037
 20
176.407635318
 30
0.0
 11
265.9466600491
 21
176.3240301229
 31
0.0
  0
LINE
  5
4C8
330
1F
100
AcDbEntity
  8
0
  6
CONTINUOUS
 62
     7
100
AcDbLine
 10
230.1394697446
 20
189.730979431
 30
0.0
 11
229.892025575
 21
189.6557457685
 31
0.0
  0
LINE
  5
4C9
330
1F
100
AcDbEntity
  8
0
  6
CONTINUOUS
 62
     7
100
AcDbLine
 10
230.3626692938
 20
177.3692343782
 30
0.0
 11
230.1188075662
 21
177.276722311
 31
0.0
  0
ARC
  5
4CA
330
1F
100
AcDbEntity
  8
0
  6
CONTINUOUS
 62
     7
100
AcDbCircle
 10
238.0144362604
 20
194.9605457525
 30
0.0
 40
1.846941532308639
100
AcDbArc
 50
84.1272631168
 51
110.4963827139
  0
LWPOLYLINE
  5
4CB
330
1F
100
AcDbEntity
  8
0
  6
CONTINUOUS
 62
     8
100
AcDbPolyline
 90
        3
 70
   128
 43
0.0
 10
245.7154084133
 20
160.1927429911
 10
245.6993181257
 20
160.4378265673
 10
245.6758948094
 20
160.5796116557
  0
LWPOLYLINE
  5
4CC
330
1F
100
AcDbEntity
  8
0
  6
CONTINUOUS
 62
     8
100
AcDbPolyline
 90
       40
 70
   128
 43
0.0
 10
245.0703430784
 20
161.6907452778
 10
245.0043213914
 20
161.7519698264
 10
244.8111800537
 20
161.9025870273
 10
244.6052365321
 20
162.0238475446
 10
244.3907320017
 20
162.1132950405
 10
244.1720744975
 20
162.1691365122
 10
243.9537458286
 20
162.1902764875
 10
243.7402078796
 20
162.1763359359
 10
243.5358104043
 20
162.1276557901
 10
243.344702294
 20
162.0452853555
 10
243.1707481341
 20
161.9309562215
 10
243.0174516598
 20
161.7870425908
 10
242.8878874884
 20
161.6165091892
 10
242.784642268
 20
161.4228481142
 10
242.7097661349
 20
161.2100061279
 10
242.6647351371
 20
160.9823039965
 10
242.6504250569
 20
160.7443495376
 10
242.6670968572
 20
160.5009460591
 10
242.714393791
 20
160.2569978696
 10
242.7913500422
 20
160.0174145205
 10
242.8964106156
 20
159.7870154018
 10
243.0274620554
 20
159.5704362745
 10
243.1818734408
 20
159.3720392727
 10
243.3565469866
 20
159.1958278627
 10
243.5479774509
 20
159.0453681896
 10
243.7523194311
 20
158.923718186
 10
243.9654614985
 20
158.8333657469
 10
244.1831059947
 20
158.776177191
 10
244.4008531753
 20
158.7533571244
 10
244.6142882616
 20
158.765420688
 10
244.8190698312
 20
158.8121790088
 10
245.0110178759
 20
158.8927384731
 10
245.186199765
 20
159.0055142021
 10
245.3410123031
 20
159.1482578386
 10
245.4722580533
 20
159.3180994427
 10
245.5772141385
 20
159.5116029639
 10
245.6536918194
 20
159.7248344071
 10
245.7000852992
 20
159.9534414582
 10
245.7154084133
 20
160.1927429911
 10
245.7154084133
 20
160.1927429911
  0
ARC
  5
4CD
330
1F
100
AcDbEntity
  8
0
  6
CONTINUOUS
 62
     8
100
AcDbCircle
 10
244.561785424
 20
159.9935510633
 30
0.0
 40
1.400536883252745
100
AcDbArc
 50
304.9099577635
 51
324.3119229994
  0
ARC
  5
4CE
330
1F
100
AcDbEntity
  8
0
  6
CONTINUOUS
 62
     8
100
AcDbCircle
 10
243.998091109
 20
161.0984271606
 30
0.0
 40
1.358112780316044
100
AcDbArc
 50
98.020361343
 51
119.9464745379
  0
LINE
  5
4CF
330
1F
100
AcDbEntity
  8
0
  6
CONTINUOUS
 62
     8
100
AcDbLine
 10
228.1053324308
 20
191.7668423831
 30
0.0
 11
228.6939803239
 21
162.5852150898
 31
0.0
  0
LINE
  5
4D0
330
1F
100
AcDbEntity
  8
0
  6
CONTINUOUS
 62
     8
100
AcDbLine
 10
228.7981945749
 20
157.4188984057
 30
0.0
 11
228.8861797661
 21
153.0571210374
 31
0.0
  0
LINE
  5
4D1
330
1F
100
AcDbEntity
  8
0
  6
CONTINUOUS
 62
     8
100
AcDbLine
 10
230.151159
 20
151.398583457
 30
0.0
 11
231.4861909704
 21
151.1221262733
 31
0.0
  0
LINE
  5
4D2
330
1F
100
AcDbEntity
  8
0
  6
CONTINUOUS
 62
     8
100
AcDbLine
 10
248.7621862295
 20
147.544629179
 30
0.0
 11
257.4843135166
 21
145.7384591403
 31
0.0
  0
LINE
  5
4D3
330
1F
100
AcDbEntity
  8
0
  6
CONTINUOUS
 62
     8
100
AcDbLine
 10
263.5184589807
 20
174.5895636618
 30
0.0
 11
263.7477999658
 21
174.5570433002
 31
0.0
  0
LINE
  5
4D4
330
1F
100
AcDbEntity
  8
0
  6
CONTINUOUS
 62
     8
100
AcDbLine
 10
263.4341160081
 20
176.0284462777
 30
0.0
 11
263.6592899069
 21
175.9972137555
 31
0.0
  0
ARC
  5
4D5
330
1F
100
AcDbEntity
  8
0
  6
CONTINUOUS
 62
     8
100
AcDbCircle
 10
258.3881435127
 20
147.0540895917
 30
0.0
 40
2.208869398829605
100
AcDbArc
 50
307.619297433
 51
1.2765158967
  0
LWPOLYLINE
  5
4D6
330
1F
100
AcDbEntity
  8
0
  6
CONTINUOUS
 62
     8
100
AcDbPolyline
 90
        8
 70
   128
 43
0.0
 10
257.4843135166
 20
145.7384591403
 10
257.4907750249
 20
145.5420128401
 10
257.5146139823
 20
145.363705727
 10
257.5550774983
 20
145.2089898709
 10
257.6108998727
 20
145.082571871
 10
257.6803454719
 20
144.9882692347
 10
257.7612662627
 20
144.9288973364
 10
257.7838964065
 20
144.9194175236
  0
LINE
  5
4D7
330
1F
100
AcDbEntity
  8
0
  6
CONTINUOUS
 62
     8
100
AcDbLine
 10
264.9339309347
 20
180.9454412145
 30
0.0
 11
263.8997130631
 21
181.0774314859
 31
0.0
  0
LWPOLYLINE
  5
4D8
330
1F
100
AcDbEntity
  8
0
  6
CONTINUOUS
 62
     8
100
AcDbPolyline
 90
        8
 70
   128
 43
0.0
 10
230.151159
 20
151.398583457
 10
230.1646640925
 20
151.2123943736
 10
230.1975475564
 20
151.0426163484
 10
230.2487784425
 20
150.8944396784
 10
230.31676087
 20
150.7723731341
 10
230.3993872981
 20
150.6801062334
 10
230.4941076508
 20
150.6203995608
 10
230.5203773146
 20
150.6104448283
  0
ARC
  5
4D9
330
1F
100
AcDbEntity
  8
0
  6
CONTINUOUS
 62
     8
100
AcDbCircle
 10
228.0363313879
 20
192.4636855093
 30
0.0
 40
0.7002510167650584
100
AcDbArc
 50
228.6870098676
 51
275.6549642388
  0
ARC
  5
4DA
330
1F
100
AcDbEntity
  8
0
  6
CONTINUOUS
 62
     8
100
AcDbCircle
 10
229.8213388415
 20
192.6998982113
 30
0.0
 40
1.863208720634828
100
AcDbArc
 50
83.6753285178
 51
110.8057163509
  0
LWPOLYLINE
  5
4DB
330
1F
100
AcDbEntity
  8
0
  6
CONTINUOUS
 62
     8
100
AcDbPolyline
 90
        7
 70
   128
 43
0.0
 10
228.8861797661
 20
153.0571210374
 10
228.727726928
 20
153.096646368
 10
228.5941799695
 20
153.1453238679
 10
228.4895904208
 20
153.2016464519
 10
228.4171018625
 20
153.2638765355
 10
228.3788586565
 20
153.3301020059
 10
228.3739532765
 20
153.352614866
  0
OLE2FRAME
  5
4DC
330
1F
100
AcDbEntity
  8
0
100
AcDbOle2Frame
 70
     2
  3
Paintbrush Picture
 10
229.0524258301
 20
33.6996297921
 30
0.0
 11
265.1686469208
 21
28.555479607
 31
0.0
 71
     2
 72
     0
 90
     7296
310
80557333EF78ADA16C40002412788DD94040000000000000000041161DC7B292
310
7040002412788DD94040000000000000000041161DC7B2927040F6DD59E9338E
310
3C4000000000000000007333EF78ADA16C40F6DD59E9338E3C40000000000000
310
00000000000001000000000100000100000001000000000001000000001C0000
310
D0CF11E0A1B11AE1000000000000000000000000000000003E000300FEFF0900
310
0600000000000000000000000100000001000000000000000010000002000000
310
01000000FEFFFFFF0000000000000000FFFFFFFFFFFFFFFFFFFFFFFFFFFFFFFF
310
FFFFFFFFFFFFFFFFFFFFFFFFFFFFFFFFFFFFFFFFFFFFFFFFFFFFFFFFFFFFFFFF
310
FFFFFFFFFFFFFFFFFFFFFFFFFFFFFFFFFFFFFFFFFFFFFFFFFFFFFFFFFFFFFFFF
310
FFFFFFFFFFFFFFFFFFFFFFFFFFFFFFFFFFFFFFFFFFFFFFFFFFFFFFFFFFFFFFFF
310
FFFFFFFFFFFFFFFFFFFFFFFFFFFFFFFFFFFFFFFFFFFFFFFFFFFFFFFFFFFFFFFF
310
FFFFFFFFFFFFFFFFFFFFFFFFFFFFFFFFFFFFFFFFFFFFFFFFFFFFFFFFFFFFFFFF
310
FFFFFFFFFFFFFFFFFFFFFFFFFFFFFFFFFFFFFFFFFFFFFFFFFFFFFFFFFFFFFFFF
310
FFFFFFFFFFFFFFFFFFFFFFFFFFFFFFFFFFFFFFFFFFFFFFFFFFFFFFFFFFFFFFFF
310
FFFFFFFFFFFFFFFFFFFFFFFFFFFFFFFFFFFFFFFFFFFFFFFFFFFFFFFFFFFFFFFF
310
FFFFFFFFFFFFFFFFFFFFFFFFFFFFFFFFFFFFFFFFFFFFFFFFFFFFFFFFFFFFFFFF
310
FFFFFFFFFFFFFFFFFFFFFFFFFFFFFFFFFFFFFFFFFFFFFFFFFFFFFFFFFFFFFFFF
310
FFFFFFFFFFFFFFFFFFFFFFFFFFFFFFFFFFFFFFFFFFFFFFFFFFFFFFFFFFFFFFFF
310
FFFFFFFFFFFFFFFFFFFFFFFFFFFFFFFFFFFFFFFFFFFFFFFFFFFFFFFFFFFFFFFF
310
FFFFFFFFFFFFFFFFFFFFFFFFFFFFFFFFFFFFFFFFFFFFFFFFFFFFFFFFFFFFFFFF
310
FDFFFFFFFEFFFFFFFEFFFFFFFEFFFFFF05000000060000000700000008000000
310
090000000A0000000B0000000C000000FEFFFFFFFFFFFFFFFFFFFFFFFFFFFFFF
310
FFFFFFFFFFFFFFFFFFFFFFFFFFFFFFFFFFFFFFFFFFFFFFFFFFFFFFFFFFFFFFFF
310
FFFFFFFFFFFFFFFFFFFFFFFFFFFFFFFFFFFFFFFFFFFFFFFFFFFFFFFFFFFFFFFF
310
FFFFFFFFFFFFFFFFFFFFFFFFFFFFFFFFFFFFFFFFFFFFFFFFFFFFFFFFFFFFFFFF
310
FFFFFFFFFFFFFFFFFFFFFFFFFFFFFFFFFFFFFFFFFFFFFFFFFFFFFFFFFFFFFFFF
310
FFFFFFFFFFFFFFFFFFFFFFFFFFFFFFFFFFFFFFFFFFFFFFFFFFFFFFFFFFFFFFFF
310
FFFFFFFFFFFFFFFFFFFFFFFFFFFFFFFFFFFFFFFFFFFFFFFFFFFFFFFFFFFFFFFF
310
FFFFFFFFFFFFFFFFFFFFFFFFFFFFFFFFFFFFFFFFFFFFFFFFFFFFFFFFFFFFFFFF
310
FFFFFFFFFFFFFFFFFFFFFFFFFFFFFFFFFFFFFFFFFFFFFFFFFFFFFFFFFFFFFFFF
310
FFFFFFFFFFFFFFFFFFFFFFFFFFFFFFFFFFFFFFFFFFFFFFFFFFFFFFFFFFFFFFFF
310
FFFFFFFFFFFFFFFFFFFFFFFFFFFFFFFFFFFFFFFFFFFFFFFFFFFFFFFFFFFFFFFF
310
FFFFFFFFFFFFFFFFFFFFFFFFFFFFFFFFFFFFFFFFFFFFFFFFFFFFFFFFFFFFFFFF
310
FFFFFFFFFFFFFFFFFFFFFFFFFFFFFFFFFFFFFFFFFFFFFFFFFFFFFFFFFFFFFFFF
310
FFFFFFFFFFFFFFFFFFFFFFFFFFFFFFFFFFFFFFFFFFFFFFFFFFFFFFFFFFFFFFFF
310
FFFFFFFFFFFFFFFFFFFFFFFFFFFFFFFFFFFFFFFFFFFFFFFFFFFFFFFFFFFFFFFF
310
52006F006F007400200045006E00740072007900000000000000000000000000
310
0000000000000000000000000000000000000000000000000000000000000000
310
16000500FFFFFFFFFFFFFFFF020000000A00030000000000C000000000000046
310
000000000000000000000000F0D760E11A61D20103000000C000000000000000
310
01004F006C006500000000000000000000000000000000000000000000000000
310
0000000000000000000000000000000000000000000000000000000000000000
310
0A000200FFFFFFFFFFFFFFFFFFFFFFFF00000000000000000000000000000000
310
0000000000000000000000000000000000000000000000001400000000000000
310
010043006F006D0070004F0062006A0000000000000000000000000000000000
310
0000000000000000000000000000000000000000000000000000000000000000
310
120002010100000003000000FFFFFFFF00000000000000000000000000000000
310
0000000000000000000000000000000000000000010000004D00000000000000
310
01004F006C006500310030004E00610074006900760065000000000000000000
310
0000000000000000000000000000000000000000000000000000000000000000
310
1A000200FFFFFFFFFFFFFFFFFFFFFFFF00000000000000000000000000000000
310
000000000000000000000000000000000000000004000000E411000000000000
310
FEFFFFFF02000000FEFFFFFFFFFFFFFFFFFFFFFFFFFFFFFFFFFFFFFFFFFFFFFF
310
FFFFFFFFFFFFFFFFFFFFFFFFFFFFFFFFFFFFFFFFFFFFFFFFFFFFFFFFFFFFFFFF
310
FFFFFFFFFFFFFFFFFFFFFFFFFFFFFFFFFFFFFFFFFFFFFFFFFFFFFFFFFFFFFFFF
310
FFFFFFFFFFFFFFFFFFFFFFFFFFFFFFFFFFFFFFFFFFFFFFFFFFFFFFFFFFFFFFFF
310
FFFFFFFFFFFFFFFFFFFFFFFFFFFFFFFFFFFFFFFFFFFFFFFFFFFFFFFFFFFFFFFF
310
FFFFFFFFFFFFFFFFFFFFFFFFFFFFFFFFFFFFFFFFFFFFFFFFFFFFFFFFFFFFFFFF
310
FFFFFFFFFFFFFFFFFFFFFFFFFFFFFFFFFFFFFFFFFFFFFFFFFFFFFFFFFFFFFFFF
310
FFFFFFFFFFFFFFFFFFFFFFFFFFFFFFFFFFFFFFFFFFFFFFFFFFFFFFFFFFFFFFFF
310
FFFFFFFFFFFFFFFFFFFFFFFFFFFFFFFFFFFFFFFFFFFFFFFFFFFFFFFFFFFFFFFF
310
FFFFFFFFFFFFFFFFFFFFFFFFFFFFFFFFFFFFFFFFFFFFFFFFFFFFFFFFFFFFFFFF
310
FFFFFFFFFFFFFFFFFFFFFFFFFFFFFFFFFFFFFFFFFFFFFFFFFFFFFFFFFFFFFFFF
310
FFFFFFFFFFFFFFFFFFFFFFFFFFFFFFFFFFFFFFFFFFFFFFFFFFFFFFFFFFFFFFFF
310
FFFFFFFFFFFFFFFFFFFFFFFFFFFFFFFFFFFFFFFFFFFFFFFFFFFFFFFFFFFFFFFF
310
FFFFFFFFFFFFFFFFFFFFFFFFFFFFFFFFFFFFFFFFFFFFFFFFFFFFFFFFFFFFFFFF
310
FFFFFFFFFFFFFFFFFFFFFFFFFFFFFFFFFFFFFFFFFFFFFFFFFFFFFFFFFFFFFFFF
310
FFFFFFFFFFFFFFFFFFFFFFFFFFFFFFFFFFFFFFFFFFFFFFFFFFFFFFFFFFFFFFFF
310
0100000200000000000000000000000000000000000000000000000000000000
310
0000000000000000000000000000000000000000000000000000000000000000
310
0100FEFF030A0000FFFFFFFF0A00030000000000C00000000000004607000000
310
5042727573680007000000504272757368000700000050427275736800F439B2
310
7100000000000000000000000000000000000000000000000000000000000000
310
0000000000000000000000000000000000000000000000000000000000000000
310
0000000000000000000000000000000000000000000000000000000000000000
310
0000000000000000000000000000000000000000000000000000000000000000
310
0000000000000000000000000000000000000000000000000000000000000000
310
0000000000000000000000000000000000000000000000000000000000000000
310
0000000000000000000000000000000000000000000000000000000000000000
310
0000000000000000000000000000000000000000000000000000000000000000
310
0000000000000000000000000000000000000000000000000000000000000000
310
0000000000000000000000000000000000000000000000000000000000000000
310
0000000000000000000000000000000000000000000000000000000000000000
310
0000000000000000000000000000000000000000000000000000000000000000
310
E0110000424DDE11000000000000360400002800000096000000170000000100
310
08000000000000000000E7240000E72400000001000000010000000000FF0101
310
01FF020202FF030303FF040404FF050505FF060606FF070707FF080808FF0909
310
09FF0A0A0AFF0B0B0BFF0C0C0CFF0D0D0DFF0E0E0EFF0F0F0FFF101010FF1111
310
11FF121212FF131313FF141414FF151515FF161616FF171717FF181818FF1919
310
19FF1A1A1AFF1B1B1BFF1C1C1CFF1D1D1DFF1E1E1EFF1F1F1FFF202020FF2121
310
21FF222222FF232323FF242424FF252525FF262626FF272727FF282828FF2929
310
29FF2A2A2AFF2B2B2BFF2C2C2CFF2D2D2DFF2E2E2EFF2F2F2FFF303030FF3131
310
31FF323232FF333333FF343434FF353535FF363636FF373737FF383838FF3939
310
39FF3A3A3AFF3B3B3BFF3C3C3CFF3D3D3DFF3E3E3EFF3F3F3FFF404040FF4141
310
41FF424242FF434343FF444444FF454545FF464646FF474747FF484848FF4949
310
49FF4A4A4AFF4B4B4BFF4C4C4CFF4D4D4DFF4E4E4EFF4F4F4FFF505050FF5151
310
51FF525252FF535353FF545454FF555555FF565656FF575757FF585858FF5959
310
59FF5A5A5AFF5B5B5BFF5C5C5CFF5D5D5DFF5E5E5EFF5F5F5FFF606060FF6161
310
61FF626262FF636363FF646464FF656565FF666666FF676767FF686868FF6969
310
69FF6A6A6AFF6B6B6BFF6C6C6CFF6D6D6DFF6E6E6EFF6F6F6FFF707070FF7171
310
71FF727272FF737373FF747474FF757575FF767676FF777777FF787878FF7979
310
79FF7A7A7AFF7B7B7BFF7C7C7CFF7D7D7DFF7E7E7EFF7F7F7FFF808080FF8181
310
81FF828282FF838383FF848484FF858585FF868686FF878787FF888888FF8989
310
89FF8A8A8AFF8B8B8BFF8C8C8CFF8D8D8DFF8E8E8EFF8F8F8FFF909090FF9191
310
91FF929292FF939393FF949494FF959595FF969696FF979797FF989898FF9999
310
99FF9A9A9AFF9B9B9BFF9C9C9CFF9D9D9DFF9E9E9EFF9F9F9FFFA0A0A0FFA1A1
310
A1FFA2A2A2FFA3A3A3FFA4A4A4FFA5A5A5FFA6A6A6FFA7A7A7FFA8A8A8FFA9A9
310
A9FFAAAAAAFFABABABFFACACACFFADADADFFAEAEAEFFAFAFAFFFB0B0B0FFB1B1
310
B1FFB2B2B2FFB3B3B3FFB4B4B4FFB5B5B5FFB6B6B6FFB7B7B7FFB8B8B8FFB9B9
310
B9FFBABABAFFBBBBBBFFBCBCBCFFBDBDBDFFBEBEBEFFBFBFBFFFC0C0C0FFC1C1
310
C1FFC2C2C2FFC3C3C3FFC4C4C4FFC5C5C5FFC6C6C6FFC7C7C7FFC8C8C8FFC9C9
310
C9FFCACACAFFCBCBCBFFCCCCCCFFCDCDCDFFCECECEFFCFCFCFFFD0D0D0FFD1D1
310
D1FFD2D2D2FFD3D3D3FFD4D4D4FFD5D5D5FFD6D6D6FFD7D7D7FFD8D8D8FFD9D9
310
D9FFDADADAFFDBDBDBFFDCDCDCFFDDDDDDFFDEDEDEFFDFDFDFFFE0E0E0FFE1E1
310
E1FFE2E2E2FFE3E3E3FFE4E4E4FFE5E5E5FFE6E6E6FFE7E7E7FFE8E8E8FFE9E9
310
E9FFEAEAEAFFEBEBEBFFECECECFFEDEDEDFFEEEEEEFFEFEFEFFFF0F0F0FFF1F1
310
F1FFF2F2F2FFF3F3F3FFF4F4F4FFF5F5F5FFF6F6F6FFF7F7F7FFF8F8F8FFF9F9
310
F9FFFAFAFAFFFBFBFBFFFCFCFCFFFDFDFDFFFEFEFEFFFFFFFFFFFFFFFFFFFFFF
310
C94E4E4E4F4E4EFFFFFFFFFFC94E4E4E4E4E72FFFFFFFFFFFFFF734E4D4E4E4E
310
C9FFFFFFFFFFAA683516171616265B9BE9FFFFFFFFFF4E4E4E4D4E4EFFFFFFFF
310
FFFFFFFF4E4E4F4E4D4E4E4E4F4E4E4F4D4E4E4E4E4E4D4E4F4E4D4E4E4EAAFF
310
FFFFFFFFFFEA4E4F4F4E4E4E4E4E4D4D4F4F4E4E4E4E4E5B7FAAFFFFFFFFFFFF
310
C9744E1716171616164D8DEAFFFFFFFF0000FFFFFFFFFFFFBA161617161716FF
310
FFFFFFFFB917171616174FFFFFFFFFFFFFFF4E1716161616B9FFFFFFB9341717
310
1716171617171616268CFFFFFFFF161617161617FFFFFFFFFFFFFFB917161717
310
1617167F807F7F7F7F7F7F807F7F807F7F807F7F7F414EFFFFFFFFFFFF8C167F
310
7F807F7F7F7E7F7F807F807F7F807F4E3417258EFFFFEA4E162674AABAEAEBBA
310
AA74341680FFFFFF0000FFFFFFFFFFFFB9171717171617FFFFFFFFFFBB161616
310
16164EFFFFFFFFFFFFFF4E1717171717B9FFFF9C171617171716161616171616
310
171766FFFFFF161717161617FFFFFFFFFFFFFF8E16171717161616FFFFFFFFFF
310
FFFFFFFFFFFFFFFFFFFFFFFFFFAA16D9FFFFFFFFFF3467FFFFFFFFEAFFFFFFFF
310
FFFFFFFFFFFFFFFFFFCA671667EB26278DFFFFFFFFFFFFFFFFFFFF8C2541EAFF
310
0000FFFFFFFFFFFFB9171717171716FFFFFFFFFFBA16171617174EFFFFFFFFFF
310
FFFF4E1717161616BAFF9B1617161616171716171617161616161667FFFF1616
310
16161716FFFFFFFFFFFFFF7F16161617174017FFFFFFFFFFFFFFFFFFFFFFFFFF
310
FFFFFFFFFFFF344E7F7F7F7E7417DAFFFFFFFF80FFFFFFFFFFFFFFFFFFFFFFFF
310
FFFFFF9B163425CAFFFFFFFFFFFFFFFFFFFFFFFFCA2667FF0000FFFFFFFFFFFF
310
BA171717171617FFFFFFFFFFB916171716164EFFFFFFFFFFFFFF4F1716161717
310
B9C91716171616161716161617171616161617168DFF161716161717FFFFFFFF
310
FFFFFF7F17171716164F16FFFFFFFFFFFFFFFFFFFFFFFFFFFFFFFFFFFFFF9B16
310
17161617174EFFFFFFFFFF34FFFFFFFFD9BABABABABADAFFFFFFFFFF7F16AAFF
310
FFFFFFFFFFFFFFFFFFFFFFFFFF9C16BA0000FFFFFFFFFFFFB9161717161717FF
310
FFFFFFFFB917161716174DFFFFFFFFFFFFFF4E1616161616BA4E161617171716
310
419BEAEAAA4E16161617161726E9171717161616FFFFFFFFFFFFFF4F16161717
310
164E16FFFFFFFFFFBAB9B9B9B9B9BABABACAFFFFFFFFFFFFFFFFFFFFFFFFFFFF
310
FFFFBA16FFFFFFFF7F1617161617174DEAFFFFFFEA41FFFFFFFFFFAA4D16174E
310
9BFFFFFFFFFF34730000FFFFFFFFFFFFB9161617171617FFFFFFFFFFBA161616
310
16164EFFFFFFFFFFFFFF4F16161717169B1617161716175BFFFFFFFFFFFF7417
310
16171616168D171717161617FFFFFFFFFFFFEA2616171717167416FFFFFFFFFF
310
16171616171717171717EAFFFFFFFFFFFFFFFFFFFFFFFFFFFFFF6716FFFFFFFF
310
7F4EFFFFFFFFBA2573FFFFFFFFBAFFFFFFFFAA167FB9BB9B269BFFFFFFFF664F
310
0000FFFFFFFFFFFFB9171616161616FFFFFFFFFFBA16161717164EFFFFFFFFFF
310
FFFF4E16161616174E161617171626EAFFFFFFFFFFFFFF4E16161616164E1716
310
16161617FFFFFFFFFFFF671616161716347F16FFFFFFFFFF16B9FFFFFFFFFFFF
310
D9168DFFFFFFFFFFFFFFFFFFFFFFFFFFFFEA1716FFFFFFFF7F4EFFFFFFFFFF7F
310
4EFFFFFFFFFFFFFFFFFF5B66FFFFFFEA347FFFFFFFFF7F4D0000FFFFFFFFFFFF
310
B9171616171617FFFFFFFFFFBA17161716174EFFFFFFFFFFFFFF4D1716161617
310
17161716161673FFFFFFFFFFFFFFFF9B1617161717161616171616174F4E4E4E
310
4E341616171616167E7F16FFFFFFFFFF16BAFFFFFFFFFFFFFF5B41FFFFFFFF34
310
1616171616BAFFFFFF9B1716FFFFFFFF7F4EFFFFFFFFFF4E4EFFFFFFFF734E4E
310
4E4E267EDA9B67164EEAFFFFFFFF744D0000FFFFFFFFFFFFBA171717161617FF
310
FFFFFFFFBA1616171616347F7F7F7F80807F331616161717161717161716B9FF
310
FFFFFFFFFFFFFFE9161616161616171716161716171616161616171616171734
310
EA7F16FFFFFFFFFF16BAFFFFFFFFFFFFFFAA17C9FFFFFF7326BABA5B25FFFFFF
310
FF401716FFFFFFFF7F264F4E4E4E4217AAFFFFFFEA16677F73261616164173CA
310
FFFFFFFFFFFF417F0000FFFFFFFFFFFFBA171616171617FFFFFFFFFFBA161616
310
17171616161616161616161717161616161616161617EAFFFFFFFFFFFFFFFFFF
310
261717161716161617161616161617161617161616174EEAFF8016FFFFFFFFFF
310
17BAFFFFFFFFFFFFFFFF3467FFFFFFC916C9FF3467FFFFFFDA166716FFFFFFFF
310
9C4D4E4E4E4E67AAFFFFFFFF6834FF7F262567AAEAFFFFFFFFFFFFFFFF9B17D9
310
0000FFFFFFFFFFFFB9161616161616FFFFFFFFFFBA1617161717171616161616
310
1716171716161716161617171716FFFFFFFFFFFFFFFFFFFF4E17161716171616
310
1617171616161716171717161616169BFF7F17FFFFFFFFFF17B9FFFFFFFFFFFF
310
FFFF7326FFFFFFFF3473DA16AAFFFFFF7317AA16FFFFFFFFFFFFFFFFFFFFFFFF
310
FFFFEA6725BA4E167FEAFFFFFFFFFFFFFFFFFFFF9C167FFF0000FFFFFFFFFFFF
310
B9161717171716FFFFFFFFFFBA16161716171616171717161617161716161616
310
171617171617EAFFFFFFFFFFFFFFFFFF26161717161616161616161617171616
310
1616161616171616AA8016FFFFFFFFFF16BAFFFFFFFFFFFFFFFFDA179BFFFFFF
310
74348D26FFFFFFFF2566B917FFFFFFFFD8BAB9BAB9BADAFFFFEA41169B7425C9
310
FFFFFFFFFFFFFFFFFFFFAB4F1680FFFF0000FFFFFFFFFFFFBA161717171617FF
310
FFFFFFFFBA17161717161617171617161616161617171616171716171617BBFF
310
FFFFFFFFFFFFFFE9171616161617161617161716FFFFFFFFFFD9671616161617
310
348017FFFFFFFFFF16BAFFFFFFFFFFFFFFFFFF4E5AFFFFFFC916265AFFFFFFAA
310
16AABA16FFFFFFFF7F1617161616179BFFFFEB4127168DFFFFFFFFFFFFFFD99B
310
6734175AC9FFFFFF0000FFFFFFFFFFFFB9161617171617FFFFFFFFFFBB161616
310
1616347F807F7F7F7F8033171716171617171616161672FFFFFFFFFFFFFFFF9C
310
171617171617161716161617FFFFFFFFFFFFFF4117161616174E17FFFFFFFFFF
310
16BAFFFFFFFFFFFFFFFFFF9B16DAFFFFFF34169BFFFFFF5A26FFB917FFFFFFFF
310
7F4EFFFFFFEA5B26FFFFFFEA2616EAFFFFFFFFDA743416331617414E4E4E4ECA
310
0000FFFFFFFFFFFFBA161716161616FFFFFFFFFFBA17171616164EFFFFFFFFFF
310
FFFF4E16161717174E161717171626EBFFFFFFFFFFFFFF4E16161617165B1616
310
16171617FFFFFFFFFFFFFF6716161616161617FFFFFFFFFF16BAFFFFFFFFFFFF
310
FFFFFFEA268CFFFFFF7316EAFFFFEB1774FFB916FFFFFFFF7F4EFFFFFFFF7316
310
FFFFFFFF6826FFFFFFFFEB264D9CEABA257F807F7F6616BA0000FFFFFFFFFFFF
310
BA161716161616FFFFFFFFFFBA16171616164DFFFFFFFFFFFFFF4E1617161617
310
9B1617171717165BEBFFFFFFFFFF671616161617179B171616161616FFFFFFFF
310
FFFFFF3417161617171617FFFFFFFFFF17BAFFFFFFFFFFFFFFFFFFFF6734FFFF
310
FFEBCAFFFFFF8D17C9FFBA17FFFFFFFF7F357F808066174FFFFFFFFF7F16FFFF
310
FFFFD91673B99B415BFFFFFFFFBA16DA00009B7F7F7F807F671617161616167F
310
80807F7E6617161616164EFFFFFFFFFFFFFF4E1616161617B94E171716161616
310
349BC9D9AA4E16171616161634FF161617161717B9B9BAB9BA9B411716171716
310
163416FFFFFFFFFF16B9FFFFFFFFFFFFFFFFFFFFC917CAFFFFFFFFFFFFFF3342
310
FFFFBA17FFFFFFFF9B4E4E4F4E4E66EAFFFFFFFF5B16C9FFFFFFFFAA4E164E73
310
EAFFFFFFFF8D26FF00004E161716161616171617171616171717171617161616
310
17174EFFFFFFFFFFFFFF4E1717171616B9D92616171716171716171717171716
310
16171716AAFF161717171617161617171616161617161716166717FFFFFFFFFF
310
17B9FFFFFFFFFFFFFFFFFFFFFF3467FFFFFFFFFFFFCA168CFFFFBB17FFFFFFFF
310
FFFFFFFFFFFFFFFFFFFFFFEA26265BFFFFFFFFFFFFFFFFFFFFFFFFFFEA3467FF
310
00004D16161616161617161717161617161616171617171616164EFFFFFFFFFF
310
FFFF4D1617161616BAFF9B1616161616161716161616171717161766FFFF1616
310
16171617161617161716171616171717667F16FFFFFFFFFF17BAFFFFFFFFFFFF
310
FFFFFFFFFF8C26EAFFFFFFFFFF6617EAFFFFBA17FFFFFFFFFFFFFFFFFFFFFFFF
310
FFFFEA5A25BA269BFFFFFFFFFFFFFFFFFFFFFFFF6616DAFF00004E1616171616
310
1616161616161716161617171616171616174EFFFFFFFFFFFFFF4D1717171716
310
B9FFFF9C161616161616161716161717171667FFFFFF17161717171716161617
310
1716161616161641E97E16FFFFFFFFFF16B9FFFFFFFFFFFFFFFFFFFFFFEA169B
310
FFFFFFFFEA265BFFFFFFB916FFFFFFFFFFFFFFFFFFFFFFFFFF9B3416AAFF9B17
310
67EAFFFFFFFFFFFFFFFFEA5B169BFFFF00004D17161716161616161717171616
310
161717161716171716174EFFFFFFFFFFFFFF4D1616161616BAFFFFFFBB411616
310
161716161616171634ABFFFFFFFF161716161617171716171617171617267FFF
310
FF7F164E4E4E4E4F17BAFFFFFFFFFFFFFFFFFFFFFFFF66344D4E4E4F4117AAFF
310
FFFFBA174E4E4E4D4E4D4D4E4E4E4E4116174EBBFFFFFFCA342666ABEAFFFFEA
310
AA6725269CFFFFFF0000724F4E4D4D4D4E4D4D4E4E4E4D4E4E4E4E4E4E4E4E4D
310
4E4E74FFFFFFFFFFFFFF734E4E4E4D4ECAFFFFFFFFFFAA663416171717265B9B
310
FFFFFFFFFFFF7F8080807F80807F7F7F7F7F807FBAFFFFFFFF9B4E4E4F4D4D4E
310
4DC9FFFFFFFFFFFFFFFFFFFFFFFFBA4E4E4E4E4D4E4EFFFFFFFFC94E4E4E4F4E
310
4E4E4D4E4E5A807F9CD9FFFFFFFFFFFFFF9B5B2617171716174E8DEAFFFFFFFF
310
0000000000000000000000000000000000000000000000000000000000000000
  1
OLE
  0
ENDSEC
  0
SECTION
  2
OBJECTS
  0
DICTIONARY
  5
C
330
0
100
AcDbDictionary
  3
ACAD_GROUP
350
D
  3
ACAD_MLINESTYLE
350
17
  3
ACAD_SCALELIST
350
47
  0
DICTIONARY
  5
D
102
{ACAD_REACTORS
330
C
102
}
330
C
100
AcDbDictionary
  0
DICTIONARY
  5
17
102
{ACAD_REACTORS
330
C
102
}
330
C
100
AcDbDictionary
  3
STANDARD
350
18
  0
DICTIONARY
  5
47
102
{ACAD_REACTORS
330
C
102
}
330
C
100
AcDbDictionary
  0
MLINESTYLE
  5
18
102
{ACAD_REACTORS
330
17
102
}
330
17
100
AcDbMlineStyle
  2
Standard
 70
     0
  3

 62
   256
 51
90.0
 52
90.0
 71
     2
 49
0.5
 62
   256
  6
BYLAYER
 49
-0.5
 62
   256
  6
BYLAYER
  0
ENDSEC
  0
EOF
