  0
SECTION
  2
HEADER
  9
$ACADVER
  1
AC1015
  9
$ACADMAINTVER
 70
     6
  9
$DWGCODEPAGE
  3
ANSI_1252
  9
$INSBASE
 10
0.0
 20
0.0
 30
0.0
  9
$EXTMIN
 10
0.0
 20
0.0
 30
0.0
  9
$EXTMAX
 10
279.4
 20
215.9
 30
0.0
  9
$LIMMIN
 10
0.0
 20
0.0
  9
$LIMMAX
 10
279.4
 20
215.9
  9
$ORTHOMODE
 70
     0
  9
$REGENMODE
 70
     1
  9
$FILLMODE
 70
     1
  9
$QTEXTMODE
 70
     0
  9
$MIRRTEXT
 70
     1
  9
$LTSCALE
 40
1.0
  9
$ATTMODE
 70
     1
  9
$TEXTSIZE
 40
2.8222222222
  9
$TRACEWID
 40
1.0
  9
$TEXTSTYLE
  7
Standard
  9
$CLAYER
  8
0
  9
$CELTYPE
  6
ByLayer
  9
$CECOLOR
 62
   256
  9
$CELTSCALE
 40
1.0
  9
$DISPSILH
 70
     0
  9
$DIMSCALE
 40
1.0
  9
$DIMASZ
 40
3.175
  9
$DIMEXO
 40
1.27
  9
$DIMDLI
 40
3.75
  9
$DIMRND
 40
0.0
  9
$DIMDLE
 40
0.0
  9
$DIMEXE
 40
1.778
  9
$DIMTP
 40
0.0
  9
$DIMTM
 40
0.0
  9
$DIMTXT
 40
2.8222222222
  9
$DIMCEN
 40
2.5
  9
$DIMTSZ
 40
0.0
  9
$DIMTOL
 70
     0
  9
$DIMLIM
 70
     0
  9
$DIMTIH
 70
     1
  9
$DIMTOH
 70
     1
  9
$DIMSE1
 70
     0
  9
$DIMSE2
 70
     0
  9
$DIMTAD
 70
     0
  9
$DIMZIN
 70
     1
  9
$DIMBLK
  1

  9
$DIMASO
 70
     1
  9
$DIMSHO
 70
     1
  9
$DIMPOST
  1

  9
$DIMAPOST
  1

  9
$DIMALT
 70
     0
  9
$DIMALTD
 70
     3
  9
$DIMALTF
 40
0.0393700787
  9
$DIMLFAC
 40
1.0
  9
$DIMTOFL
 70
     1
  9
$DIMTVP
 40
0.0
  9
$DIMTIX
 70
     0
  9
$DIMSOXD
 70
     0
  9
$DIMSAH
 70
     0
  9
$DIMBLK1
  1

  9
$DIMBLK2
  1

  9
$DIMSTYLE
  2
ISO-25
  9
$DIMCLRD
 70
     0
  9
$DIMCLRE
 70
     0
  9
$DIMCLRT
 70
     0
  9
$DIMTFAC
 40
1.0
  9
$DIMGAP
 40
2.54
  9
$DIMJUST
 70
     0
  9
$DIMSD1
 70
     0
  9
$DIMSD2
 70
     0
  9
$DIMTOLJ
 70
     0
  9
$DIMTZIN
 70
     1
  9
$DIMALTZ
 70
     0
  9
$DIMALTTZ
 70
     0
  9
$DIMUPT
 70
     0
  9
$DIMDEC
 70
     1
  9
$DIMTDEC
 70
     1
  9
$DIMALTU
 70
     2
  9
$DIMALTTD
 70
     3
  9
$DIMTXSTY
  7
Standard
  9
$DIMAUNIT
 70
     0
  9
$DIMADEC
 70
     0
  9
$DIMALTRND
 40
0.0
  9
$DIMAZIN
 70
     0
  9
$DIMDSEP
 70
    44
  9
$DIMATFIT
 70
     3
  9
$DIMFRAC
 70
     0
  9
$DIMLDRBLK
  1

  9
$DIMLUNIT
 70
     2
  9
$DIMLWD
 70
    -2
  9
$DIMLWE
 70
    -2
  9
$DIMTMOVE
 70
     0
  9
$LUNITS
 70
     2
  9
$LUPREC
 70
     1
  9
$SKETCHINC
 40
1.0
  9
$FILLETRAD
 40
10.0
  9
$AUNITS
 70
     0
  9
$AUPREC
 70
     0
  9
$MENU
  1
.
  9
$ELEVATION
 40
0.0
  9
$PELEVATION
 40
0.0
  9
$THICKNESS
 40
0.0
  9
$LIMCHECK
 70
     0
  9
$CHAMFERA
 40
0.0
  9
$CHAMFERB
 40
0.0
  9
$CHAMFERC
 40
0.0
  9
$CHAMFERD
 40
0.0
  9
$SKPOLY
 70
     0
  9
$TDCREATE
 40
2458470.642546852
  9
$TDUCREATE
 40
2458470.850880185
  9
$TDUPDATE
 40
2458470.642554525
  9
$TDUUPDATE
 40
2458470.850887859
  9
$TDINDWG
 40
0.0000000116
  9
$TDUSRTIMER
 40
0.0000000116
  9
$USRTIMER
 70
     1
  9
$ANGBASE
 50
0.0
  9
$ANGDIR
 70
     0
  9
$PDMODE
 70
     0
  9
$PDSIZE
 40
-1.0
  9
$PLINEWID
 40
0.0
  9
$SPLFRAME
 70
     0
  9
$SPLINETYPE
 70
     6
  9
$SPLINESEGS
 70
     8
  9
$HANDSEED
  5
269
  9
$SURFTAB1
 70
     6
  9
$SURFTAB2
 70
     6
  9
$SURFTYPE
 70
     6
  9
$SURFU
 70
     6
  9
$SURFV
 70
     6
  9
$UCSBASE
  2

  9
$UCSNAME
  2

  9
$UCSORG
 10
0.0
 20
0.0
 30
0.0
  9
$UCSXDIR
 10
1.0
 20
0.0
 30
0.0
  9
$UCSYDIR
 10
0.0
 20
1.0
 30
0.0
  9
$UCSORTHOREF
  2

  9
$UCSORTHOVIEW
 70
     0
  9
$UCSORGTOP
 10
0.0
 20
0.0
 30
0.0
  9
$UCSORGBOTTOM
 10
0.0
 20
0.0
 30
0.0
  9
$UCSORGLEFT
 10
0.0
 20
0.0
 30
0.0
  9
$UCSORGRIGHT
 10
0.0
 20
0.0
 30
0.0
  9
$UCSORGFRONT
 10
0.0
 20
0.0
 30
0.0
  9
$UCSORGBACK
 10
0.0
 20
0.0
 30
0.0
  9
$PUCSBASE
  2

  9
$PUCSNAME
  2

  9
$PUCSORG
 10
0.0
 20
0.0
 30
0.0
  9
$PUCSXDIR
 10
1.0
 20
0.0
 30
0.0
  9
$PUCSYDIR
 10
0.0
 20
1.0
 30
0.0
  9
$PUCSORTHOREF
  2

  9
$PUCSORTHOVIEW
 70
     0
  9
$PUCSORGTOP
 10
0.0
 20
0.0
 30
0.0
  9
$PUCSORGBOTTOM
 10
0.0
 20
0.0
 30
0.0
  9
$PUCSORGLEFT
 10
0.0
 20
0.0
 30
0.0
  9
$PUCSORGRIGHT
 10
0.0
 20
0.0
 30
0.0
  9
$PUCSORGFRONT
 10
0.0
 20
0.0
 30
0.0
  9
$PUCSORGBACK
 10
0.0
 20
0.0
 30
0.0
  9
$USERI1
 70
     0
  9
$USERI2
 70
     0
  9
$USERI3
 70
     0
  9
$USERI4
 70
     0
  9
$USERI5
 70
     0
  9
$USERR1
 40
0.0
  9
$USERR2
 40
0.0
  9
$USERR3
 40
0.0
  9
$USERR4
 40
0.0
  9
$USERR5
 40
0.0
  9
$WORLDVIEW
 70
     1
  9
$SHADEDGE
 70
     3
  9
$SHADEDIF
 70
    70
  9
$TILEMODE
 70
     1
  9
$MAXACTVP
 70
    64
  9
$PINSBASE
 10
0.0
 20
0.0
 30
0.0
  9
$PLIMCHECK
 70
     0
  9
$PEXTMIN
 10
1.0000000000E+20
 20
1.0000000000E+20
 30
1.0000000000E+20
  9
$PEXTMAX
 10
-1.0000000000E+20
 20
-1.0000000000E+20
 30
-1.0000000000E+20
  9
$PLIMMIN
 10
0.0
 20
0.0
  9
$PLIMMAX
 10
420.0
 20
297.0
  9
$UNITMODE
 70
     0
  9
$VISRETAIN
 70
     1
  9
$PLINEGEN
 70
     0
  9
$PSLTSCALE
 70
     1
  9
$TREEDEPTH
 70
  3020
  9
$CMLSTYLE
  2
Standard
  9
$CMLJUST
 70
     0
  9
$CMLSCALE
 40
20.0
  9
$PROXYGRAPHICS
 70
     1
  9
$MEASUREMENT
 70
     1
  9
$CELWEIGHT
370
    -1
  9
$ENDCAPS
280
     0
  9
$JOINSTYLE
280
     0
  9
$LWDISPLAY
290
     1
  9
$INSUNITS
 70
     4
  9
$HYPERLINKBASE
  1

  9
$STYLESHEET
  1

  9
$XEDIT
290
     1
  9
$CEPSNTYPE
380
     0
  9
$PSTYLEMODE
290
     1
  9
$FINGERPRINTGUID
  2
{507DB5A6-3465-43AB-B662-BD381E4ECD33}
  9
$VERSIONGUID
  2
{FAEB1C32-E019-11D5-929B-00C0DF256EC4}
  9
$EXTNAMES
290
     1
  9
$PSVPSCALE
 40
0.0
  9
$OLESTARTUP
290
     0
  0
ENDSEC
  0
SECTION
  2
CLASSES
  0
CLASS
  1
ACDBDICTIONARYWDFLT
  2
AcDbDictionaryWithDefault
  3
ObjectDBX Classes
 90
        0
280
     0
281
     0
  0
CLASS
  1
VISUALSTYLE
  2
AcDbVisualStyle
  3
ObjectDBX Classes
 90
     4095
280
     0
281
     0
  0
CLASS
  1
MATERIAL
  2
AcDbMaterial
  3
ObjectDBX Classes
 90
     1153
280
     0
281
     0
  0
CLASS
  1
SCALE
  2
AcDbScale
  3
ObjectDBX Classes
 90
     1153
280
     0
281
     0
  0
CLASS
  1
TABLESTYLE
  2
AcDbTableStyle
  3
ObjectDBX Classes
 90
     4095
280
     0
281
     0
  0
CLASS
  1
MLEADERSTYLE
  2
AcDbMLeaderStyle
  3
ACDB_MLEADERSTYLE_CLASS
 90
     4095
280
     0
281
     0
  0
CLASS
  1
SUN
  2
AcDbSun
  3
SCENEOE
 90
     1153
280
     0
281
     0
  0
CLASS
  1
ACDBPLACEHOLDER
  2
AcDbPlaceHolder
  3
ObjectDBX Classes
 90
        0
280
     0
281
     0
  0
CLASS
  1
LAYOUT
  2
AcDbLayout
  3
ObjectDBX Classes
 90
        0
280
     0
281
     0
  0
ENDSEC
  0
SECTION
  2
TABLES
  0
TABLE
  2
VPORT
  5
8
330
0
100
AcDbSymbolTable
 70
     1
  0
VPORT
  5
29
330
8
100
AcDbSymbolTableRecord
100
AcDbViewportTableRecord
  2
*Active
 70
     0
 10
0.0
 20
0.0
 11
1.0
 21
1.0
 12
139.7
 22
107.95
 13
0.0
 23
0.0
 14
10.0
 24
10.0
 15
10.0
 25
10.0
 16
0.0
 26
0.0
 36
1.0
 17
0.0
 27
0.0
 37
0.0
 40
215.9
 41
1.2941176471
 42
50.0
 43
0.0
 44
0.0
 50
0.0
 51
0.0
 71
     0
 72
  2000
 73
     1
 74
     3
 75
     0
 76
     0
 77
     0
 78
     0
281
     0
 65
     1
110
0.0
120
0.0
130
0.0
111
1.0
121
0.0
131
0.0
112
0.0
122
1.0
132
0.0
 79
     0
146
0.0
  0
ENDTAB
  0
TABLE
  2
LTYPE
  5
5
330
0
100
AcDbSymbolTable
 70
     6
  0
LTYPE
  5
14
330
5
100
AcDbSymbolTableRecord
100
AcDbLinetypeTableRecord
  2
ByBlock
 70
     0
  3

 72
    65
 73
     0
 40
0.0
  0
LTYPE
  5
15
330
5
100
AcDbSymbolTableRecord
100
AcDbLinetypeTableRecord
  2
ByLayer
 70
     0
  3

 72
    65
 73
     0
 40
0.0
  0
LTYPE
  5
16
330
5
100
AcDbSymbolTableRecord
100
AcDbLinetypeTableRecord
  2
Continuous
 70
     0
  3
Solid line
 72
    65
 73
     0
 40
0.0
  0
LTYPE
  5
6E
330
5
100
AcDbSymbolTableRecord
100
AcDbLinetypeTableRecord
  2
HIDDEN
 70
     0
  3
Hidden __ __ __ __ __ __ __ __ __ __ __ __ __ __
 72
    65
 73
     2
 40
1.905
 49
1.27
 74
     0
 49
-0.635
 74
     0
  0
LTYPE
  5
6F
330
5
100
AcDbSymbolTableRecord
100
AcDbLinetypeTableRecord
  2
PHANTOM
 70
     0
  3
Phantom ______  __  __  ______  __  __  ______
 72
    65
 73
     6
 40
12.7
 49
6.35
 74
     0
 49
-1.27
 74
     0
 49
1.27
 74
     0
 49
-1.27
 74
     0
 49
1.27
 74
     0
 49
-1.27
 74
     0
  0
LTYPE
  5
70
330
5
100
AcDbSymbolTableRecord
100
AcDbLinetypeTableRecord
  2
CENTER
 70
     0
  3
Center ____ _ ____ _ ____ _ ____ _ ____ _ ____
 72
    65
 73
     4
 40
10.16
 49
6.35
 74
     0
 49
-1.27
 74
     0
 49
1.27
 74
     0
 49
-1.27
 74
     0
  0
LTYPE
  5
71
330
5
100
AcDbSymbolTableRecord
100
AcDbLinetypeTableRecord
  2
CENTERX2
 70
     0
  3
Center (2x) ________  __  ________  __  _____
 72
    65
 73
     4
 40
20.32
 49
12.7
 74
     0
 49
-2.54
 74
     0
 49
2.54
 74
     0
 49
-2.54
 74
     0
  0
LTYPE
  5
72
330
5
100
AcDbSymbolTableRecord
100
AcDbLinetypeTableRecord
  2
DOT2
 70
     0
  3
Dot (.5x) ........................................
 72
    65
 73
     2
 40
0.635
 49
0.0
 74
     0
 49
-0.635
 74
     0
  0
ENDTAB
  0
TABLE
  2
LAYER
  5
2
330
0
100
AcDbSymbolTable
 70
     2
  0
LAYER
  5
10
330
2
100
AcDbSymbolTableRecord
100
AcDbLayerTableRecord
  2
0
 70
     0
 62
     7
  6
Continuous
370
    -3
390
F
  0
LAYER
  5
73
330
2
100
AcDbSymbolTableRecord
100
AcDbLayerTableRecord
  2
FORMAT
 70
     0
 62
     7
  6
Continuous
370
    -3
390
F
  0
ENDTAB
  0
TABLE
  2
STYLE
  5
3
330
0
100
AcDbSymbolTable
 70
     5
  0
STYLE
  5
11
330
3
100
AcDbSymbolTableRecord
100
AcDbTextStyleTableRecord
  2
Standard
 70
     0
 40
0.0
 41
1.0
 50
0.0
 71
     0
 42
2.8222222222
  3
txt
  4

  0
STYLE
  5
9D
330
3
100
AcDbSymbolTableRecord
100
AcDbTextStyleTableRecord
  2
SLDTEXTSTYLE0
 70
     0
 40
0.0
 41
0.75
 50
0.0
 71
     0
 42
2.8222222222
  3
TXT
  4

  0
STYLE
  5
A3
330
3
100
AcDbSymbolTableRecord
100
AcDbTextStyleTableRecord
  2
SLDTEXTSTYLE1
 70
     0
 40
0.0
 41
0.75
 50
0.0
 71
     0
 42
2.8222222222
  3
TXT
  4
bigfont
  0
STYLE
  5
B6
330
3
100
AcDbSymbolTableRecord
100
AcDbTextStyleTableRecord
  2
SLDTEXTSTYLE2
 70
     0
 40
0.0
 41
0.7
 50
0.0
 71
     0
 42
2.8222222222
  3
TXT
  4

  0
STYLE
  5
C5
330
3
100
AcDbSymbolTableRecord
100
AcDbTextStyleTableRecord
  2
SLDTEXTSTYLE3
 70
     0
 40
0.0
 41
0.6
 50
0.0
 71
     0
 42
2.8222222222
  3
TXT
  4

  0
ENDTAB
  0
TABLE
  2
VIEW
  5
6
330
0
100
AcDbSymbolTable
 70
     0
  0
ENDTAB
  0
TABLE
  2
UCS
  5
7
330
0
100
AcDbSymbolTable
 70
     0
  0
ENDTAB
  0
TABLE
  2
APPID
  5
9
330
0
100
AcDbSymbolTable
 70
     1
  0
APPID
  5
12
330
9
100
AcDbSymbolTableRecord
100
AcDbRegAppTableRecord
  2
ACAD
 70
     0
  0
ENDTAB
  0
TABLE
  2
DIMSTYLE
  5
A
330
0
100
AcDbSymbolTable
 70
     6
100
AcDbDimStyleTable
  0
DIMSTYLE
105
27
330
A
100
AcDbSymbolTableRecord
100
AcDbDimStyleTableRecord
  2
ISO-25
 70
     0
 41
2.5
 42
0.625
 43
3.75
 44
1.25
 73
     0
 74
     0
 77
     1
 78
     8
140
2.5
141
2.5
143
0.0393700787
147
0.625
171
     3
172
     1
178
     0
271
     2
272
     2
274
     3
278
    44
283
     0
284
     8
340
11
  0
DIMSTYLE
105
F4
102
{ACAD_REACTORS
330
F3
102
}
330
A
100
AcDbSymbolTableRecord
100
AcDbDimStyleTableRecord
  2
SLDDIMSTYLE0
 70
     0
 41
3.175
 44
0.0
 45
0.000000001
 78
    12
 79
     3
140
2.1166666667
141
0.0
143
0.0393700787
147
0.5291666667
148
0.000000001
170
     1
173
     1
178
     0
271
     1
272
     1
276
     2
284
    12
340
9D
  0
DIMSTYLE
105
117
102
{ACAD_REACTORS
330
116
102
}
330
A
100
AcDbSymbolTableRecord
100
AcDbDimStyleTableRecord
  2
SLDDIMSTYLE1
 70
     0
 41
3.175
 44
0.0
 45
0.000000001
 78
    12
 79
     3
140
2.1166666667
143
0.0393700787
147
0.5291666667
148
0.000000001
170
     1
172
     1
173
     1
178
     0
271
     1
272
     1
276
     2
284
    12
289
     0
340
9D
  0
DIMSTYLE
105
12B
102
{ACAD_REACTORS
330
12A
102
}
330
A
100
AcDbSymbolTableRecord
100
AcDbDimStyleTableRecord
  2
SLDDIMSTYLE2
 70
     0
 41
3.175
 44
0.0
 45
0.000000001
 78
     4
 79
     1
140
2.1166666667
141
0.0
143
0.0393700787
147
0.5291666667
148
0.000000001
170
     1
173
     1
178
     0
271
     1
272
     1
276
     2
284
    12
340
9D
  0
DIMSTYLE
105
13C
102
{ACAD_REACTORS
330
13B
102
}
330
A
100
AcDbSymbolTableRecord
100
AcDbDimStyleTableRecord
  2
SLDDIMSTYLE3
 70
     0
 41
3.175
 44
0.0
 45
0.000000001
 78
     4
 79
     1
140
2.1166666667
143
0.0393700787
147
0.5291666667
148
0.000000001
170
     1
172
     1
173
     1
178
     0
271
     1
272
     1
276
     2
284
    12
289
     0
340
9D
  0
DIMSTYLE
105
152
330
A
100
AcDbSymbolTableRecord
100
AcDbDimStyleTableRecord
  2
SLDDIMSTYLE4
 70
     0
 41
3.175
 44
0.0
 45
0.000000001
146
3.175
147
0.0
173
     1
178
     0
271
     0
272
     0
276
     2
340
11
  0
ENDTAB
  0
TABLE
  2
BLOCK_RECORD
  5
1
330
0
100
AcDbSymbolTable
 70
    11
  0
BLOCK_RECORD
  5
1F
330
1
100
AcDbSymbolTableRecord
100
AcDbBlockTableRecord
  2
*Model_Space
340
22
  0
BLOCK_RECORD
  5
1B
330
1
100
AcDbSymbolTableRecord
100
AcDbBlockTableRecord
  2
*Paper_Space
340
1E
  0
BLOCK_RECORD
  5
23
330
1
100
AcDbSymbolTableRecord
100
AcDbBlockTableRecord
  2
*Paper_Space0
340
26
  0
BLOCK_RECORD
  5
74
330
1
100
AcDbSymbolTableRecord
100
AcDbBlockTableRecord
  2
Third Angle Projection Block
340
0
102
{BLKREFS
331
99
102
}
  0
BLOCK_RECORD
  5
9A
330
1
100
AcDbSymbolTableRecord
100
AcDbBlockTableRecord
  2
SW_NOTE_0
340
0
102
{BLKREFS
331
B9
102
}
  0
BLOCK_RECORD
  5
CB
330
1
100
AcDbSymbolTableRecord
100
AcDbBlockTableRecord
  2
SW_NOTE_1
340
0
102
{BLKREFS
331
D0
102
}
  0
BLOCK_RECORD
  5
D1
330
1
100
AcDbSymbolTableRecord
100
AcDbBlockTableRecord
  2
SW_NOTE_2
340
0
102
{BLKREFS
331
D6
102
}
  0
BLOCK_RECORD
  5
D8
330
1
100
AcDbSymbolTableRecord
100
AcDbBlockTableRecord
  2
SW_NOTE_3
340
0
102
{BLKREFS
331
DD
102
}
  0
BLOCK_RECORD
  5
DE
330
1
100
AcDbSymbolTableRecord
100
AcDbBlockTableRecord
  2
SW_NOTE_4
340
0
102
{BLKREFS
331
E4
102
}
  0
BLOCK_RECORD
  5
F5
330
1
100
AcDbSymbolTableRecord
100
AcDbBlockTableRecord
  2
_D
340
0
  0
BLOCK_RECORD
  5
118
330
1
100
AcDbSymbolTableRecord
100
AcDbBlockTableRecord
  2
_D_1
340
0
  0
BLOCK_RECORD
  5
12C
330
1
100
AcDbSymbolTableRecord
100
AcDbBlockTableRecord
  2
_D_2
340
0
  0
BLOCK_RECORD
  5
13D
330
1
100
AcDbSymbolTableRecord
100
AcDbBlockTableRecord
  2
_D_3
340
0
  0
ENDTAB
  0
ENDSEC
  0
SECTION
  2
BLOCKS
  0
BLOCK
  5
20
330
1F
100
AcDbEntity
  8
0
100
AcDbBlockBegin
  2
*Model_Space
 70
     0
 10
0.0
 20
0.0
 30
0.0
  3
*Model_Space
  1

  0
ENDBLK
  5
21
330
1F
100
AcDbEntity
  8
0
100
AcDbBlockEnd
  0
BLOCK
  5
1C
330
1B
100
AcDbEntity
 67
     1
  8
0
100
AcDbBlockBegin
  2
*Paper_Space
 70
     0
 10
0.0
 20
0.0
 30
0.0
  3
*Paper_Space
  1

  0
ENDBLK
  5
1D
330
1B
100
AcDbEntity
 67
     1
  8
0
100
AcDbBlockEnd
  0
BLOCK
  5
24
330
23
100
AcDbEntity
  8
0
100
AcDbBlockBegin
  2
*Paper_Space0
 70
     0
 10
0.0
 20
0.0
 30
0.0
  3
*Paper_Space0
  1

  0
ENDBLK
  5
25
330
23
100
AcDbEntity
  8
0
100
AcDbBlockEnd
  0
BLOCK
  5
75
330
74
100
AcDbEntity
  8
0
100
AcDbBlockBegin
  2
Third Angle Projection Block
 70
     0
 10
0.0
 20
0.0
 30
0.0
  3
Third Angle Projection Block
  1

  0
CIRCLE
  5
77
330
74
100
AcDbEntity
  8
0
  6
Continuous
 62
     7
370
    35
100
AcDbCircle
 10
101.4766388944
 20
18.9404083667
 30
0.0
 40
1.768227153674871
  0
CIRCLE
  5
78
330
74
100
AcDbEntity
  8
0
  6
Continuous
 62
     7
370
    35
100
AcDbCircle
 10
101.4766388944
 20
18.9404083667
 30
0.0
 40
3.901228248531818
  0
LINE
  5
79
330
74
100
AcDbEntity
  8
0
  6
CENTERX2
 62
     7
370
    18
100
AcDbLine
 10
110.1367822585
 20
18.9404083667
 30
0.0
 11
119.4527334874
 21
18.9404083667
 31
0.0
  0
LINE
  5
7A
330
74
100
AcDbEntity
  8
0
  6
Continuous
 62
     7
370
    35
100
AcDbLine
 10
111.0016388944
 20
20.7086355204
 30
0.0
 11
111.0016388944
 21
17.172181213
 31
0.0
  0
LINE
  5
7B
330
74
100
AcDbEntity
  8
0
  6
Continuous
 62
     7
370
    35
100
AcDbLine
 10
111.0016388944
 20
17.172181213
 30
0.0
 11
118.6216388944
 21
15.1304083667
 31
0.0
  0
LINE
  5
7C
330
74
100
AcDbEntity
  8
0
  6
Continuous
 62
     7
370
    35
100
AcDbLine
 10
118.6216388944
 20
15.1304083667
 30
0.0
 11
118.6216388944
 21
22.7504083667
 31
0.0
  0
LINE
  5
7D
330
74
100
AcDbEntity
  8
0
  6
Continuous
 62
     7
370
    35
100
AcDbLine
 10
118.6216388944
 20
22.7504083667
 30
0.0
 11
111.0016388944
 21
20.7086355204
 31
0.0
  0
LINE
  5
7E
330
74
100
AcDbEntity
  8
0
  6
CENTERX2
 62
     7
370
    18
100
AcDbLine
 10
96.6025854619
 20
18.9404083667
 30
0.0
 11
106.3506923269
 21
18.9404083667
 31
0.0
  0
LINE
  5
7F
330
74
100
AcDbEntity
  8
0
  6
CENTERX2
 62
     7
370
    18
100
AcDbLine
 10
101.4766388944
 20
23.8144617992
 30
0.0
 11
101.4766388944
 21
14.0663549342
 31
0.0
  0
POINT
  5
80
330
74
100
AcDbEntity
  8
0
  6
Continuous
 62
     7
370
     0
100
AcDbPoint
 10
101.4766388944
 20
18.9404083667
 30
0.0
  0
ENDBLK
  5
76
330
74
100
AcDbEntity
  8
0
100
AcDbBlockEnd
  0
BLOCK
  5
9B
330
9A
100
AcDbEntity
  8
0
100
AcDbBlockBegin
  2
SW_NOTE_0
 70
     0
 10
0.0
 20
0.0
 30
0.0
  3
SW_NOTE_0
  1

  0
MTEXT
  5
9E
330
9A
100
AcDbEntity
  8
0
  6
Continuous
 62
     0
370
     0
100
AcDbMText
 10
0.0
 20
3.4106583948
 30
0.0
 40
2.6458333333
 41
0.0
 71
     1
 72
     1
  1
NOTES/SPECIFICATIONS:
  7
SLDTEXTSTYLE0
 73
     1
 44
1.0
  0
MTEXT
  5
9F
330
9A
100
AcDbEntity
  8
0
  6
Continuous
 62
     0
370
     0
100
AcDbMText
 10
9.9999997765
 20
-5.6448974033
 30
0.0
 40
2.6458333333
 41
0.0
 71
     1
 72
     1
  1
CLEAR APERTURE: >
  7
SLDTEXTSTYLE0
 73
     1
 44
1.0
  0
MTEXT
  5
A0
330
9A
100
AcDbEntity
  8
0
  6
Continuous
 62
     0
370
     0
100
AcDbMText
 10
42.7789334208
 20
-5.6448974033
 30
0.0
 40
2.6458333333
 41
0.0
 71
     1
 72
     1
  1
%%c
  7
SLDTEXTSTYLE0
 73
     1
 44
1.0
  0
MTEXT
  5
A1
330
9A
100
AcDbEntity
  8
0
  6
Continuous
 62
     0
370
     0
100
AcDbMText
 10
46.7726718634
 20
-5.6448974033
 30
0.0
 40
2.6458333333
 41
0.0
 71
     1
 72
     1
  1
45.72mm
  7
SLDTEXTSTYLE0
 73
     1
 44
1.0
  0
MTEXT
  5
A2
330
9A
100
AcDbEntity
  8
0
  6
Continuous
 62
     0
370
     0
100
AcDbMText
 10
0.0
 20
-5.6448974033
 30
0.0
 40
2.6458333333
 41
0.0
 71
     1
 72
     1
  1
1.
  7
SLDTEXTSTYLE0
 73
     1
 44
1.0
  0
MTEXT
  5
A4
330
9A
100
AcDbEntity
  8
0
  6
Continuous
 62
     0
370
     0
100
AcDbMText
 10
9.9999997765
 20
-10.1726753024
 30
0.0
 40
2.6458333333
 41
0.0
 71
     1
 72
     1
  1
SURFACE IRREGULARITY (S1): \U+2264\M+183C9/4 AT 633nm OVER CLEAR APERTURE
  7
SLDTEXTSTYLE1
 73
     1
 44
1.0
  0
MTEXT
  5
A5
330
9A
100
AcDbEntity
  8
0
  6
Continuous
 62
     0
370
     0
100
AcDbMText
 10
0.0
 20
-10.1726753024
 30
0.0
 40
2.6458333333
 41
0.0
 71
     1
 72
     1
  1
2.
  7
SLDTEXTSTYLE0
 73
     1
 44
1.0
  0
MTEXT
  5
A6
330
9A
100
AcDbEntity
  8
0
  6
Continuous
 62
     0
370
     0
100
AcDbMText
 10
9.9999997765
 20
-14.7004532014
 30
0.0
 40
2.6458333333
 41
0.0
 71
     1
 72
     1
  1
BACK SURFACE (S2): UNIFORM FINE GRIND #12-#20 GRIT
  7
SLDTEXTSTYLE0
 73
     1
 44
1.0
  0
MTEXT
  5
A7
330
9A
100
AcDbEntity
  8
0
  6
Continuous
 62
     0
370
     0
100
AcDbMText
 10
0.0
 20
-14.7004532014
 30
0.0
 40
2.6458333333
 41
0.0
 71
     1
 72
     1
  1
3.
  7
SLDTEXTSTYLE0
 73
     1
 44
1.0
  0
MTEXT
  5
A8
330
9A
100
AcDbEntity
  8
0
  6
Continuous
 62
     0
370
     0
100
AcDbMText
 10
9.9999997765
 20
-19.2282311005
 30
0.0
 40
2.6458333333
 41
0.0
 71
     1
 72
     1
  1
SURFACE QUALITY(S1): 40-20 SCRATCH-DIG
  7
SLDTEXTSTYLE0
 73
     1
 44
1.0
  0
MTEXT
  5
A9
330
9A
100
AcDbEntity
  8
0
  6
Continuous
 62
     0
370
     0
100
AcDbMText
 10
0.0
 20
-19.2282311005
 30
0.0
 40
2.6458333333
 41
0.0
 71
     1
 72
     1
  1
4.
  7
SLDTEXTSTYLE0
 73
     1
 44
1.0
  0
MTEXT
  5
AA
330
9A
100
AcDbEntity
  8
0
  6
Continuous
 62
     0
370
     0
100
AcDbMText
 10
9.9999997765
 20
-23.7560089995
 30
0.0
 40
2.6458333333
 41
0.0
 71
     1
 72
     1
  1
THICKNESS TOLERANCE:
  7
SLDTEXTSTYLE0
 73
     1
 44
1.0
  0
MTEXT
  5
AB
330
9A
100
AcDbEntity
  8
0
  6
Continuous
 62
     0
370
     0
100
AcDbMText
 10
50.8242268115
 20
-23.7560089995
 30
0.0
 40
2.6458333333
 41
0.0
 71
     1
 72
     1
  1
%%p
  7
SLDTEXTSTYLE0
 73
     1
 44
1.0
  0
MTEXT
  5
AC
330
9A
100
AcDbEntity
  8
0
  6
Continuous
 62
     0
370
     0
100
AcDbMText
 10
53.3465910703
 20
-23.7560089995
 30
0.0
 40
2.6458333333
 41
0.0
 71
     1
 72
     1
  1
0.1 mm
  7
SLDTEXTSTYLE0
 73
     1
 44
1.0
  0
MTEXT
  5
AD
330
9A
100
AcDbEntity
  8
0
  6
Continuous
 62
     0
370
     0
100
AcDbMText
 10
0.0
 20
-23.7560089995
 30
0.0
 40
2.6458333333
 41
0.0
 71
     1
 72
     1
  1
5.
  7
SLDTEXTSTYLE0
 73
     1
 44
1.0
  0
MTEXT
  5
AE
330
9A
100
AcDbEntity
  8
0
  6
Continuous
 62
     0
370
     0
100
AcDbMText
 10
9.9999997765
 20
-28.2837868986
 30
0.0
 40
2.6458333333
 41
0.0
 71
     1
 72
     1
  1
DIAMETER TOLERANCE: +0.0/-0.2 mm
  7
SLDTEXTSTYLE0
 73
     1
 44
1.0
  0
MTEXT
  5
AF
330
9A
100
AcDbEntity
  8
0
  6
Continuous
 62
     0
370
     0
100
AcDbMText
 10
0.0
 20
-28.2837868986
 30
0.0
 40
2.6458333333
 41
0.0
 71
     1
 72
     1
  1
6.
  7
SLDTEXTSTYLE0
 73
     1
 44
1.0
  0
MTEXT
  5
B0
330
9A
100
AcDbEntity
  8
0
  6
Continuous
 62
     0
370
     0
100
AcDbMText
 10
9.9999997765
 20
-32.8115647976
 30
0.0
 40
2.6458333333
 41
0.0
 71
     1
 72
     1
  1
COATING(S1): PROTECTED SILVER
  7
SLDTEXTSTYLE0
 73
     1
 44
1.0
  0
MTEXT
  5
B1
330
9A
100
AcDbEntity
  8
0
  6
Continuous
 62
     0
370
     0
100
AcDbMText
 10
0.0
 20
-32.8115647976
 30
0.0
 40
2.6458333333
 41
0.0
 71
     1
 72
     1
  1
7.
  7
SLDTEXTSTYLE0
 73
     1
 44
1.0
  0
MTEXT
  5
B2
330
9A
100
AcDbEntity
  8
0
  6
Continuous
 62
     0
370
     0
100
AcDbMText
 10
34.9609375
 20
-37.3393426967
 30
0.0
 40
2.6458333333
 41
0.0
 71
     1
 72
     1
  1
Ravg: >97.5% FROM 450nm-2\M+183CAm
  7
SLDTEXTSTYLE1
 73
     1
 44
1.0
  0
MTEXT
  5
B3
330
9A
100
AcDbEntity
  8
0
  6
Continuous
 62
     0
370
     0
100
AcDbMText
 10
34.9609375
 20
-41.8671205958
 30
0.0
 40
2.6458333333
 41
0.0
 71
     1
 72
     1
  1
Ravg: >96% FROM 2\M+183CAm-20\M+183CAm
  7
SLDTEXTSTYLE1
 73
     1
 44
1.0
  0
MTEXT
  5
B4
330
9A
100
AcDbEntity
  8
0
  6
Continuous
 62
     0
370
     0
100
AcDbMText
 10
34.9609375
 20
-46.3948984948
 30
0.0
 40
2.6458333333
 41
0.0
 71
     1
 72
     1
  1
AOI: 0
  7
SLDTEXTSTYLE0
 73
     1
 44
1.0
  0
MTEXT
  5
B5
330
9A
100
AcDbEntity
  8
0
  6
Continuous
 62
     0
370
     0
100
AcDbMText
 10
45.2576388791
 20
-46.3948984948
 30
0.0
 40
2.6458333333
 41
0.0
 71
     1
 72
     1
  1
%%d
  7
SLDTEXTSTYLE0
 73
     1
 44
1.0
  0
MTEXT
  5
B7
330
9A
100
AcDbEntity
  8
0
  6
Continuous
 62
     0
370
     0
100
AcDbMText
 10
47.9314009994
 20
-46.3948984948
 30
0.0
 40
2.6458333333
 41
0.0
 71
     1
 72
     1
  1
TO 45
  7
SLDTEXTSTYLE2
 73
     1
 44
1.0
  0
MTEXT
  5
B8
330
9A
100
AcDbEntity
  8
0
  6
Continuous
 62
     0
370
     0
100
AcDbMText
 10
57.3706559092
 20
-46.3948984948
 30
0.0
 40
2.6458333333
 41
0.0
 71
     1
 72
     1
  1
%%d
  7
SLDTEXTSTYLE0
 73
     1
 44
1.0
  0
ENDBLK
  5
9C
330
9A
100
AcDbEntity
  8
0
100
AcDbBlockEnd
  0
BLOCK
  5
CC
330
CB
100
AcDbEntity
  8
0
100
AcDbBlockBegin
  2
SW_NOTE_1
 70
     0
 10
0.0
 20
0.0
 30
0.0
  3
SW_NOTE_1
  1

  0
MTEXT
  5
CE
330
CB
100
AcDbEntity
  8
0
  6
Continuous
 62
     0
370
     0
100
AcDbMText
 10
19.90725
 20
1.9645392354
 30
0.0
 40
1.524
 41
0.0
 71
     2
 72
     1
  1
VALUES IN PARENTHESIS ARE CALCULATED
  7
SLDTEXTSTYLE0
 73
     1
 44
1.0
  0
MTEXT
  5
CF
330
CB
100
AcDbEntity
  8
0
  6
Continuous
 62
     0
370
     0
100
AcDbMText
 10
19.8778795174
 20
-0.5594606586
 30
0.0
 40
1.524
 41
0.0
 71
     2
 72
     1
  1
AND MAY CONTAIN ROUNDOFF ERRORS
  7
SLDTEXTSTYLE0
 73
     1
 44
1.0
  0
ENDBLK
  5
CD
330
CB
100
AcDbEntity
  8
0
100
AcDbBlockEnd
  0
BLOCK
  5
D2
330
D1
100
AcDbEntity
  8
0
100
AcDbBlockBegin
  2
SW_NOTE_2
 70
     0
 10
0.0
 20
0.0
 30
0.0
  3
SW_NOTE_2
  1

  0
MTEXT
  5
D4
330
D1
100
AcDbEntity
  8
0
  6
Continuous
 62
     0
370
     0
100
AcDbMText
 10
0.0
 20
2.7285267159
 30
0.0
 40
2.1166666667
 41
0.0
 71
     1
 72
     1
  1
DRAWING
  7
SLDTEXTSTYLE0
 73
     1
 44
1.0
  0
MTEXT
  5
D5
330
D1
100
AcDbEntity
  8
0
  6
Continuous
 62
     0
370
     0
100
AcDbMText
 10
0.0
 20
-0.0936954723
 30
0.0
 40
2.1166666667
 41
0.0
 71
     1
 72
     1
  1
PROJECTION
  7
SLDTEXTSTYLE0
 73
     1
 44
1.0
  0
ENDBLK
  5
D3
330
D1
100
AcDbEntity
  8
0
100
AcDbBlockEnd
  0
BLOCK
  5
D9
330
D8
100
AcDbEntity
  8
0
100
AcDbBlockBegin
  2
SW_NOTE_3
 70
     0
 10
0.0
 20
0.0
 30
0.0
  3
SW_NOTE_3
  1

  0
MTEXT
  5
DB
330
D8
100
AcDbEntity
  8
0
  6
Continuous
 62
     0
370
     0
100
AcDbMText
 10
25.052734375
 20
4.0927900738
 30
0.0
 40
3.175
 41
0.0
 71
     2
 72
     1
  1
FOR INFORMATION ONLY
  7
SLDTEXTSTYLE0
 73
     1
 44
1.0
  0
MTEXT
  5
DC
330
D8
100
AcDbEntity
  8
0
  6
Continuous
 62
     0
370
     0
100
AcDbMText
 10
25.3768468589
 20
-0.1405432084
 30
0.0
 40
3.175
 41
0.0
 71
     2
 72
     1
  1
NOT FOR MANUFACTURING PURPOSES
  7
SLDTEXTSTYLE0
 73
     1
 44
1.0
  0
ENDBLK
  5
DA
330
D8
100
AcDbEntity
  8
0
100
AcDbBlockEnd
  0
BLOCK
  5
DF
330
DE
100
AcDbEntity
  8
0
100
AcDbBlockBegin
  2
SW_NOTE_4
 70
     0
 10
0.0
 20
0.0
 30
0.0
  3
SW_NOTE_4
  1

  0
MTEXT
  5
E1
330
DE
100
AcDbEntity
  8
0
  6
Continuous
 62
     0
370
     0
100
AcDbMText
 10
1.9016927083
 20
3.4106583948
 30
0.0
 40
2.6458333333
 41
0.0
 71
     2
 72
     1
  1
%%c
  7
SLDTEXTSTYLE0
 73
     1
 44
1.0
  0
MTEXT
  5
E2
330
DE
100
AcDbEntity
  8
0
  6
Continuous
 62
     0
370
     0
100
AcDbMText
 10
29.5425665677
 20
3.4106583948
 30
0.0
 40
2.6458333333
 41
0.0
 71
     2
 72
     1
  1
50.8mm, f=1000mm CONCAVE
  7
SLDTEXTSTYLE0
 73
     1
 44
1.0
  0
MTEXT
  5
E3
330
DE
100
AcDbEntity
  8
0
  6
Continuous
 62
     0
370
     0
100
AcDbMText
 10
27.9131733477
 20
-0.1171193403
 30
0.0
 40
2.6458333333
 41
0.0
 71
     2
 72
     1
  1
PROTECTED SILVER MIRROR
  7
SLDTEXTSTYLE0
 73
     1
 44
1.0
  0
ENDBLK
  5
E0
330
DE
100
AcDbEntity
  8
0
100
AcDbBlockEnd
  0
BLOCK
  5
F6
330
F5
100
AcDbEntity
  8
0
100
AcDbBlockBegin
  2
_D
 70
     0
 10
0.0
 20
0.0
 30
0.0
  3
_D
  1

  0
SOLID
  5
F8
330
F5
100
AcDbEntity
  8
0
  6
Continuous
 62
     7
370
    18
100
AcDbTrace
 10
71.5189434782
 20
141.2170393341
 30
0.0
 11
74.0534834185
 21
143.1956237501
 31
0.0
 12
73.309611092
 22
143.8876569587
 32
0.0
 13
73.309611092
 23
143.8876569587
 33
0.0
  0
LINE
  5
F9
330
F5
100
AcDbEntity
  8
0
  6
Continuous
 62
     7
370
    18
100
AcDbLine
 10
93.5942177748
 20
157.8953338131
 30
0.0
 11
92.9503983207
 21
157.8953338131
 31
0.0
  0
LINE
  5
FA
330
F5
100
AcDbEntity
  8
0
  6
Continuous
 62
     7
370
    18
100
AcDbLine
 10
92.9503983207
 20
157.8953338131
 30
0.0
 11
92.9503983207
 21
154.5321857367
 31
0.0
  0
LINE
  5
FB
330
F5
100
AcDbEntity
  8
0
  6
Continuous
 62
     7
370
    18
100
AcDbLine
 10
92.9503983207
 20
154.5321857367
 30
0.0
 11
93.5942177748
 21
154.5321857367
 31
0.0
  0
LINE
  5
FC
330
F5
100
AcDbEntity
  8
0
  6
Continuous
 62
     7
370
    18
100
AcDbLine
 10
101.351409321
 20
157.8953338131
 30
0.0
 11
101.9952287752
 21
157.8953338131
 31
0.0
  0
LINE
  5
FD
330
F5
100
AcDbEntity
  8
0
  6
Continuous
 62
     7
370
    18
100
AcDbLine
 10
101.9952287752
 20
157.8953338131
 30
0.0
 11
101.9952287752
 21
154.5321857367
 31
0.0
  0
LINE
  5
FE
330
F5
100
AcDbEntity
  8
0
  6
Continuous
 62
     7
370
    18
100
AcDbLine
 10
101.9952287752
 20
154.5321857367
 30
0.0
 11
101.351409321
 21
154.5321857367
 31
0.0
  0
LINE
  5
FF
330
F5
100
AcDbEntity
  8
0
  6
Continuous
 62
     7
370
    18
100
AcDbLine
 10
71.5189434782
 20
141.2170393341
 30
0.0
 11
88.4965788665
 21
159.4664426531
 31
0.0
  0
LINE
  5
100
330
F5
100
AcDbEntity
  8
0
  6
Continuous
 62
     7
370
    18
100
AcDbLine
 10
88.4965788665
 20
159.4664426531
 30
0.0
 11
92.3065788665
 21
159.4664426531
 31
0.0
  0
MTEXT
  5
101
330
F5
100
AcDbEntity
  8
0
  6
Continuous
 62
     7
370
    18
100
AcDbMText
 10
92.3065788665
 20
161.0530734596
 30
0.0
 40
2.1166666667
 41
0.0
 71
     1
 72
     1
  1
%%c
  7
SLDTEXTSTYLE0
 73
     1
 44
1.0
  0
MTEXT
  5
102
330
F5
100
AcDbEntity
  8
0
  6
Continuous
 62
     7
370
    18
100
AcDbMText
 10
95.5015696672
 20
161.0530734596
 30
0.0
 40
2.1166666667
 41
0.0
 71
     1
 72
     1
  1
50.8mm
  7
SLDTEXTSTYLE0
 73
     1
 44
1.0
  0
MTEXT
  5
103
330
F5
100
AcDbEntity
  8
0
  6
Continuous
 62
     7
370
    18
100
AcDbMText
 10
93.5942177748
 20
157.2607123361
 30
0.0
 40
2.1166666667
 41
0.0
 71
     1
 72
     1
  1
2.00in
  7
SLDTEXTSTYLE0
 73
     1
 44
1.0
  0
ENDBLK
  5
F7
330
F5
100
AcDbEntity
  8
0
100
AcDbBlockEnd
  0
BLOCK
  5
119
330
118
100
AcDbEntity
  8
0
100
AcDbBlockBegin
  2
_D_1
 70
     0
 10
0.0
 20
0.0
 30
0.0
  3
_D_1
  1

  0
SOLID
  5
11B
330
118
100
AcDbEntity
  8
0
  6
Continuous
 62
     7
370
    18
100
AcDbTrace
 10
135.253098059
 20
160.9509029477
 30
0.0
 11
132.0782367703
 21
161.4597691362
 31
0.0
 12
132.077959584
 22
160.443769174
 32
0.0
 13
132.077959584
 23
160.443769174
 33
0.0
  0
SOLID
  5
11C
330
118
100
AcDbEntity
  8
0
  6
Continuous
 62
     7
370
    18
100
AcDbTrace
 10
144.411895848
 20
160.9484042331
 30
0.0
 11
147.5867571367
 21
160.4395380446
 31
0.0
 12
147.587034323
 22
161.4555380068
 32
0.0
 13
147.587034323
 23
161.4555380068
 33
0.0
  0
LINE
  5
11D
330
118
100
AcDbEntity
  8
0
  6
Continuous
 62
     7
370
    18
100
AcDbLine
 10
157.0610448327
 20
160.9431618122
 30
0.0
 11
156.4172253785
 21
160.9431618122
 31
0.0
  0
LINE
  5
11E
330
118
100
AcDbEntity
  8
0
  6
Continuous
 62
     7
370
    18
100
AcDbLine
 10
156.4172253785
 20
160.9431618122
 30
0.0
 11
156.4172253785
 21
157.5800137358
 31
0.0
  0
LINE
  5
11F
330
118
100
AcDbEntity
  8
0
  6
Continuous
 62
     7
370
    18
100
AcDbLine
 10
156.4172253785
 20
157.5800137358
 30
0.0
 11
157.0610448327
 21
157.5800137358
 31
0.0
  0
LINE
  5
120
330
118
100
AcDbEntity
  8
0
  6
Continuous
 62
     7
370
    18
100
AcDbLine
 10
164.8182363789
 20
160.9431618122
 30
0.0
 11
165.4620558331
 21
160.9431618122
 31
0.0
  0
LINE
  5
121
330
118
100
AcDbEntity
  8
0
  6
Continuous
 62
     7
370
    18
100
AcDbLine
 10
165.4620558331
 20
160.9431618122
 30
0.0
 11
165.4620558331
 21
157.5800137358
 31
0.0
  0
LINE
  5
122
330
118
100
AcDbEntity
  8
0
  6
Continuous
 62
     7
370
    18
100
AcDbLine
 10
165.4620558331
 20
157.5800137358
 30
0.0
 11
164.8182363789
 21
157.5800137358
 31
0.0
  0
LINE
  5
123
330
118
100
AcDbEntity
  8
0
  6
Continuous
 62
     7
370
    18
100
AcDbLine
 10
135.2498628975
 20
149.0927298389
 30
0.0
 11
135.2535831351
 21
162.7289028816
 31
0.0
  0
LINE
  5
124
330
118
100
AcDbEntity
  8
0
  6
Continuous
 62
     7
370
    18
100
AcDbLine
 10
144.4086606865
 20
149.0902311243
 30
0.0
 11
144.4123809242
 21
162.726404167
 31
0.0
  0
LINE
  5
125
330
118
100
AcDbEntity
  8
0
  6
Continuous
 62
     7
370
    18
100
AcDbLine
 10
135.253098059
 20
160.9509029477
 30
0.0
 11
128.9030982953
 21
160.9526353626
 31
0.0
  0
LINE
  5
126
330
118
100
AcDbEntity
  8
0
  6
Continuous
 62
     7
370
    18
100
AcDbLine
 10
144.411895848
 20
160.9484042331
 30
0.0
 11
155.3438924417
 21
160.9454217523
 31
0.0
  0
MTEXT
  5
127
330
118
100
AcDbEntity
  8
0
  6
Continuous
 62
     7
370
    18
100
AcDbMText
 10
156.3398102373
 20
164.1009014587
 30
0.0
 40
2.1166666667
 41
0.0
 71
     1
 72
     1
  1
9.2mm
  7
SLDTEXTSTYLE0
 73
     1
 44
1.0
  0
MTEXT
  5
128
330
118
100
AcDbEntity
  8
0
  6
Continuous
 62
     7
370
    18
100
AcDbMText
 10
157.0610448327
 20
160.3085403352
 30
0.0
 40
2.1166666667
 41
0.0
 71
     1
 72
     1
  1
0.36in
  7
SLDTEXTSTYLE0
 73
     1
 44
1.0
  0
MTEXT
  5
129
330
118
100
AcDbEntity
  8
0
  6
Continuous
 62
     7
370
    18
100
AcDbMText
 10
166.8996248215
 20
164.1009014587
 30
0.0
 40
2.1166666667
 41
0.0
 71
     1
 72
     1
  1
REF
  7
SLDTEXTSTYLE0
 73
     1
 44
1.0
  0
ENDBLK
  5
11A
330
118
100
AcDbEntity
  8
0
100
AcDbBlockEnd
  0
BLOCK
  5
12D
330
12C
100
AcDbEntity
  8
0
100
AcDbBlockBegin
  2
_D_2
 70
     0
 10
0.0
 20
0.0
 30
0.0
  3
_D_2
  1

  0
ARC
  5
12F
330
12C
100
AcDbEntity
  8
0
  6
Continuous
 62
     7
370
    18
100
AcDbCircle
 10
-1864.5916925733
 20
122.6202311716
 30
0.0
 40
2000.000006776844
100
AcDbArc
 50
358.9596182871
 51
359.2415996735
  0
SOLID
  5
130
330
12C
100
AcDbEntity
  8
0
  6
Continuous
 62
     7
370
    18
100
AcDbTrace
 10
135.1101002616
 20
88.0837744904
 30
0.0
 11
138.275854587
 21
87.521023612
 31
0.0
 12
138.293399107
 22
88.5368721193
 32
0.0
 13
138.293399107
 23
88.5368721193
 33
0.0
  0
LINE
  5
131
330
12C
100
AcDbEntity
  8
0
  6
Continuous
 62
     7
370
    18
100
AcDbLine
 10
156.1539845479
 20
86.2372611802
 30
0.0
 11
155.5101650938
 21
86.2372611802
 31
0.0
  0
LINE
  5
132
330
12C
100
AcDbEntity
  8
0
  6
Continuous
 62
     7
370
    18
100
AcDbLine
 10
155.5101650938
 20
86.2372611802
 30
0.0
 11
155.5101650938
 21
82.8741131038
 31
0.0
  0
LINE
  5
133
330
12C
100
AcDbEntity
  8
0
  6
Continuous
 62
     7
370
    18
100
AcDbLine
 10
155.5101650938
 20
82.8741131038
 30
0.0
 11
156.1539845479
 21
82.8741131038
 31
0.0
  0
LINE
  5
134
330
12C
100
AcDbEntity
  8
0
  6
Continuous
 62
     7
370
    18
100
AcDbLine
 10
165.4751582009
 20
86.2372611802
 30
0.0
 11
166.118977655
 21
86.2372611802
 31
0.0
  0
LINE
  5
135
330
12C
100
AcDbEntity
  8
0
  6
Continuous
 62
     7
370
    18
100
AcDbLine
 10
166.118977655
 20
86.2372611802
 30
0.0
 11
166.118977655
 21
82.8741131038
 31
0.0
  0
LINE
  5
136
330
12C
100
AcDbEntity
  8
0
  6
Continuous
 62
     7
370
    18
100
AcDbLine
 10
166.118977655
 20
82.8741131038
 30
0.0
 11
165.4751582009
 21
82.8741131038
 31
0.0
  0
LINE
  5
137
330
12C
100
AcDbEntity
  8
0
  6
Continuous
 62
     7
370
    18
100
AcDbLine
 10
135.1101002616
 20
88.0837744904
 30
0.0
 11
151.0563456397
 21
87.8083700203
 31
0.0
  0
LINE
  5
138
330
12C
100
AcDbEntity
  8
0
  6
Continuous
 62
     7
370
    18
100
AcDbLine
 10
151.0563456397
 20
87.8083700203
 30
0.0
 11
154.8663456397
 21
87.8083700203
 31
0.0
  0
MTEXT
  5
139
330
12C
100
AcDbEntity
  8
0
  6
Continuous
 62
     7
370
    18
100
AcDbMText
 10
154.8663456397
 20
89.3950008267
 30
0.0
 40
2.1166666667
 41
0.0
 71
     1
 72
     1
  1
R2000.0mm
  7
SLDTEXTSTYLE0
 73
     1
 44
1.0
  0
MTEXT
  5
13A
330
12C
100
AcDbEntity
  8
0
  6
Continuous
 62
     7
370
    18
100
AcDbMText
 10
156.1539845479
 20
85.6026397032
 30
0.0
 40
2.1166666667
 41
0.0
 71
     1
 72
     1
  1
78.74in
  7
SLDTEXTSTYLE0
 73
     1
 44
1.0
  0
ENDBLK
  5
12E
330
12C
100
AcDbEntity
  8
0
100
AcDbBlockEnd
  0
BLOCK
  5
13E
330
13D
100
AcDbEntity
  8
0
100
AcDbBlockBegin
  2
_D_3
 70
     0
 10
0.0
 20
0.0
 30
0.0
  3
_D_3
  1

  0
SOLID
  5
140
330
13D
100
AcDbEntity
  8
0
  6
Continuous
 62
     7
370
    18
100
AcDbTrace
 10
144.4083142035
 20
151.5766877724
 30
0.0
 11
147.5833142035
 21
151.0686877724
 31
0.0
 12
147.5833142035
 22
152.0846877724
 32
0.0
 13
147.5833142035
 23
152.0846877724
 33
0.0
  0
SOLID
  5
141
330
13D
100
AcDbEntity
  8
0
  6
Continuous
 62
     7
370
    18
100
AcDbTrace
 10
135.4083142035
 20
151.5766877724
 30
0.0
 11
132.2333142035
 21
152.0846877724
 31
0.0
 12
132.2333142035
 22
151.0686877724
 32
0.0
 13
132.2333142035
 23
151.0686877724
 33
0.0
  0
LINE
  5
142
330
13D
100
AcDbEntity
  8
0
  6
Continuous
 62
     7
370
    18
100
AcDbLine
 10
156.5297181976
 20
151.5766875395
 30
0.0
 11
155.8858987434
 21
151.5766875395
 31
0.0
  0
LINE
  5
143
330
13D
100
AcDbEntity
  8
0
  6
Continuous
 62
     7
370
    18
100
AcDbLine
 10
155.8858987434
 20
151.5766875395
 30
0.0
 11
155.8858987434
 21
148.2135394631
 31
0.0
  0
LINE
  5
144
330
13D
100
AcDbEntity
  8
0
  6
Continuous
 62
     7
370
    18
100
AcDbLine
 10
155.8858987434
 20
148.2135394631
 30
0.0
 11
156.5297181976
 21
148.2135394631
 31
0.0
  0
LINE
  5
145
330
13D
100
AcDbEntity
  8
0
  6
Continuous
 62
     7
370
    18
100
AcDbLine
 10
164.2869097438
 20
151.5766875395
 30
0.0
 11
164.930729198
 21
151.5766875395
 31
0.0
  0
LINE
  5
146
330
13D
100
AcDbEntity
  8
0
  6
Continuous
 62
     7
370
    18
100
AcDbLine
 10
164.930729198
 20
151.5766875395
 30
0.0
 11
164.930729198
 21
148.2135394631
 31
0.0
  0
LINE
  5
147
330
13D
100
AcDbEntity
  8
0
  6
Continuous
 62
     7
370
    18
100
AcDbLine
 10
164.930729198
 20
148.2135394631
 30
0.0
 11
164.2869097438
 21
148.2135394631
 31
0.0
  0
LINE
  5
148
330
13D
100
AcDbEntity
  8
0
  6
Continuous
 62
     7
370
    18
100
AcDbLine
 10
144.4083142035
 20
149.0902311716
 30
0.0
 11
144.4083142035
 21
153.3546877724
 31
0.0
  0
LINE
  5
149
330
13D
100
AcDbEntity
  8
0
  6
Continuous
 62
     7
370
    18
100
AcDbLine
 10
135.4083142035
 20
123.8902311716
 30
0.0
 11
135.4083142035
 21
153.3546877724
 31
0.0
  0
LINE
  5
14A
330
13D
100
AcDbEntity
  8
0
  6
Continuous
 62
     7
370
    18
100
AcDbLine
 10
144.4083142035
 20
151.5766877724
 30
0.0
 11
153.2525041023
 21
151.5766877724
 31
0.0
  0
LINE
  5
14B
330
13D
100
AcDbEntity
  8
0
  6
Continuous
 62
     7
370
    18
100
AcDbLine
 10
135.4083142035
 20
151.5766877724
 30
0.0
 11
129.0583142035
 21
151.5766877724
 31
0.0
  0
MTEXT
  5
14C
330
13D
100
AcDbEntity
  8
0
  6
Continuous
 62
     7
370
    18
100
AcDbMText
 10
155.269517585
 20
154.734427186
 30
0.0
 40
2.1166666667
 41
0.0
 71
     1
 72
     1
  1

  7
SLDTEXTSTYLE0
 73
     1
 44
1.0
  0
MTEXT
  5
14D
330
13D
100
AcDbEntity
  8
0
  6
Continuous
 62
     7
370
    18
100
AcDbMText
 10
155.8084836022
 20
154.734427186
 30
0.0
 40
2.1166666667
 41
0.0
 71
     1
 72
     1
  1
9.0mm
  7
SLDTEXTSTYLE0
 73
     1
 44
1.0
  0
MTEXT
  5
14E
330
13D
100
AcDbEntity
  8
0
  6
Continuous
 62
     7
370
    18
100
AcDbMText
 10
156.5297181976
 20
150.9420660625
 30
0.0
 40
2.1166666667
 41
0.0
 71
     1
 72
     1
  1
0.35in
  7
SLDTEXTSTYLE0
 73
     1
 44
1.0
  0
MTEXT
  5
14F
330
13D
100
AcDbEntity
  8
0
  6
Continuous
 62
     7
370
    18
100
AcDbMText
 10
167.1620486521
 20
154.734427186
 30
0.0
 40
2.1166666667
 41
0.0
 71
     1
 72
     1
  1

  7
SLDTEXTSTYLE0
 73
     1
 44
1.0
  0
ENDBLK
  5
13F
330
13D
100
AcDbEntity
  8
0
100
AcDbBlockEnd
  0
ENDSEC
  0
SECTION
  2
ENTITIES
  0
LINE
  5
81
330
1F
100
AcDbEntity
  8
0
  6
Continuous
 62
     7
370
    18
100
AcDbLine
 10
1.5793501011
 20
214.6453799966
 30
0.0
 11
277.9892068491
 21
214.6453799966
 31
0.0
  0
LINE
  5
82
330
1F
100
AcDbEntity
  8
0
  6
Continuous
 62
     7
370
    18
100
AcDbLine
 10
1.5793501011
 20
214.6453799966
 30
0.0
 11
1.5793501011
 21
0.9031642596
 31
0.0
  0
LINE
  5
83
330
1F
100
AcDbEntity
  8
0
  6
Continuous
 62
     7
370
    18
100
AcDbLine
 10
277.9892068491
 20
0.9031642596
 30
0.0
 11
1.5793501011
 21
0.9031642596
 31
0.0
  0
LINE
  5
84
330
1F
100
AcDbEntity
  8
0
  6
Continuous
 62
     7
370
    18
100
AcDbLine
 10
277.9892068491
 20
0.9031642596
 30
0.0
 11
277.9892068491
 21
214.6453799966
 31
0.0
  0
LINE
  5
85
330
1F
100
AcDbEntity
  8
0
  6
Continuous
 62
     7
370
    18
100
AcDbLine
 10
215.7427640041
 20
12.2958890132
 30
0.0
 11
171.6327596684
 21
12.2958890132
 31
0.0
  0
LINE
  5
86
330
1F
100
AcDbEntity
  8
0
  6
Continuous
 62
     7
370
    18
100
AcDbLine
 10
171.6327596684
 20
12.2958890132
 30
0.0
 11
171.6327596684
 21
26.1661402506
 31
0.0
  0
LINE
  5
87
330
1F
100
AcDbEntity
  8
0
  6
Continuous
 62
     7
370
    18
100
AcDbLine
 10
171.6327596684
 20
0.9031642596
 30
0.0
 11
171.6327596684
 21
26.1661402506
 31
0.0
  0
LINE
  5
88
330
1F
100
AcDbEntity
  8
0
  6
Continuous
 62
     7
370
    18
100
AcDbLine
 10
215.7427640041
 20
17.1604579552
 30
0.0
 11
277.9892068491
 21
17.1604579552
 31
0.0
  0
LINE
  5
89
330
1F
100
AcDbEntity
  8
0
  6
Continuous
 62
     7
370
    18
100
AcDbLine
 10
215.7427640041
 20
35.2394508358
 30
0.0
 11
215.7427640041
 21
0.9031642596
 31
0.0
  0
LINE
  5
8A
330
1F
100
AcDbEntity
  8
0
  6
Continuous
 62
     7
370
    18
100
AcDbLine
 10
215.7427640041
 20
26.1661402506
 30
0.0
 11
171.6327596684
 21
26.1661402506
 31
0.0
  0
LINE
  5
8B
330
1F
100
AcDbEntity
  8
0
  6
Continuous
 62
     7
370
    18
100
AcDbLine
 10
215.7427640041
 20
9.1409200612
 30
0.0
 11
277.9892068491
 21
9.1409200612
 31
0.0
  0
LINE
  5
8C
330
1F
100
AcDbEntity
  8
0
  6
Continuous
 62
     7
370
    18
100
AcDbLine
 10
215.7427640041
 20
16.9216824031
 30
0.0
 11
171.6327596684
 21
16.9216824031
 31
0.0
  0
LINE
  5
8D
330
1F
100
AcDbEntity
  8
0
  6
Continuous
 62
     7
370
    18
100
AcDbLine
 10
215.7427640041
 20
21.4874005542
 30
0.0
 11
171.6327596684
 21
21.4874005542
 31
0.0
  0
LINE
  5
8E
330
1F
100
AcDbEntity
  8
0
  6
Continuous
 62
     7
370
    18
100
AcDbLine
 10
186.1338100705
 20
26.1661402506
 30
0.0
 11
186.1338100705
 21
12.2958890132
 31
0.0
  0
LINE
  5
8F
330
1F
100
AcDbEntity
  8
0
  6
Continuous
 62
     7
370
    18
100
AcDbLine
 10
198.2145906188
 20
26.1661402506
 30
0.0
 11
198.2145906188
 21
12.2958890132
 31
0.0
  0
LINE
  5
90
330
1F
100
AcDbEntity
  8
0
  6
Continuous
 62
     7
370
    18
100
AcDbLine
 10
253.7490408369
 20
9.1409200612
 30
0.0
 11
253.7490408369
 21
0.9031642596
 31
0.0
  0
LINE
  5
91
330
1F
100
AcDbEntity
  8
0
  6
Continuous
 62
     7
370
    18
100
AcDbLine
 10
171.6327596684
 20
12.2958890132
 30
0.0
 11
171.6327596684
 21
7.5627342528
 31
0.0
  0
LINE
  5
92
330
1F
100
AcDbEntity
  8
0
  6
Continuous
 62
     7
370
    18
100
AcDbLine
 10
171.6327596684
 20
7.5627342528
 30
0.0
 11
215.7427640041
 21
7.5627342528
 31
0.0
  0
LINE
  5
93
330
1F
100
AcDbEntity
  8
0
  6
Continuous
 62
     7
370
    18
100
AcDbLine
 10
171.6327596684
 20
7.5627342528
 30
0.0
 11
171.6327596684
 21
35.2394508358
 31
0.0
  0
LINE
  5
94
330
1F
100
AcDbEntity
  8
0
  6
Continuous
 62
     7
370
    18
100
AcDbLine
 10
171.6327596684
 20
35.2394508358
 30
0.0
 11
215.7427640041
 21
35.2394508358
 31
0.0
  0
LINE
  5
95
330
1F
100
AcDbEntity
  8
0
  6
Continuous
 62
     7
370
    18
100
AcDbLine
 10
270.1683598194
 20
17.1604579552
 30
0.0
 11
270.1683598194
 21
9.1409200612
 31
0.0
  0
LINE
  5
96
330
1F
100
AcDbEntity
  8
0
  6
Continuous
 62
     7
370
    18
100
AcDbLine
 10
215.7427640041
 20
35.2394508358
 30
0.0
 11
277.9892068491
 21
35.2394508358
 31
0.0
  0
LINE
  5
97
330
1F
100
AcDbEntity
  8
0
  6
Continuous
 62
     7
370
    18
100
AcDbLine
 10
277.9892068491
 20
35.2394508358
 30
0.0
 11
277.9892068491
 21
50.0331356147
 31
0.0
  0
LINE
  5
98
330
1F
100
AcDbEntity
  8
0
  6
Continuous
 62
     7
370
    18
100
AcDbLine
 10
215.7427640041
 20
24.8927335446
 30
0.0
 11
277.9892068491
 21
24.8927335446
 31
0.0
  0
INSERT
  5
99
330
1F
100
AcDbEntity
  8
0
  6
Continuous
 62
     7
100
AcDbBlockReference
  2
Third Angle Projection Block
 10
117.7262204235
 20
15.5162339489
 30
0.0
 41
0.8
 42
0.8
 43
0.8
  0
INSERT
  5
B9
330
1F
100
AcDbEntity
  8
0
  6
Continuous
 62
     7
370
     0
100
AcDbBlockReference
  2
SW_NOTE_0
 10
21.3732229546
 20
70.616113329
 30
0.0
  0
MTEXT
  5
BA
330
1F
100
AcDbEntity
  8
0
  6
Continuous
 62
     7
370
     0
100
AcDbMText
 10
274.1458225539
 20
13.2559386876
 30
0.0
 40
3.175
 41
0.0
 71
     2
 72
     1
  1
A
  7
SLDTEXTSTYLE0
 73
     1
 44
1.0
  0
MTEXT
  5
BB
330
1F
100
AcDbEntity
  8
0
  6
Continuous
 62
     7
370
     0
100
AcDbMText
 10
234.6443398423
 20
5.1306563898
 30
0.0
 40
3.175
 41
0.0
 71
     2
 72
     1
  1
CM508-1000-P01
  7
SLDTEXTSTYLE0
 73
     1
 44
1.0
  0
MTEXT
  5
BC
330
1F
100
AcDbEntity
  8
0
  6
Continuous
 62
     7
370
     0
100
AcDbMText
 10
216.4199766059
 20
16.8243178599
 30
0.0
 40
2.1166666667
 41
0.0
 71
     1
 72
     1
  1
MATERIAL
  7
SLDTEXTSTYLE0
 73
     1
 44
1.0
  0
MTEXT
  5
BD
330
1F
100
AcDbEntity
  8
0
  6
Continuous
 62
     7
370
     0
100
AcDbMText
 10
174.230946566
 20
20.054553926
 30
0.0
 40
1.8520833333
 41
0.0
 71
     1
 72
     1
  1
DRAWN
  7
SLDTEXTSTYLE0
 73
     1
 44
1.0
  0
MTEXT
  5
BE
330
1F
100
AcDbEntity
  8
0
  6
Continuous
 62
     7
370
     0
100
AcDbMText
 10
172.3960124543
 20
15.5787169747
 30
0.0
 40
1.8520833333
 41
0.0
 71
     1
 72
     1
  1
APPROVAL
  7
SLDTEXTSTYLE0
 73
     1
 44
1.0
  0
MTEXT
  5
BF
330
1F
100
AcDbEntity
  8
0
  6
Continuous
 62
     7
370
     0
100
AcDbMText
 10
271.7160653675
 20
16.1671746307
 30
0.0
 40
2.1166666667
 41
0.0
 71
     1
 72
     1
  1
REV
  7
SLDTEXTSTYLE0
 73
     1
 44
1.0
  0
MTEXT
  5
C0
330
1F
100
AcDbEntity
  8
0
  6
Continuous
 62
     7
370
     0
100
AcDbMText
 10
190.2958696448
 20
20.3177146903
 30
0.0
 40
2.1166666667
 41
0.0
 71
     1
 72
     1
  1
YB
  7
SLDTEXTSTYLE0
 73
     1
 44
1.0
  0
MTEXT
  5
C1
330
1F
100
AcDbEntity
  8
0
  6
Continuous
 62
     7
370
     0
100
AcDbMText
 10
190.2958696448
 20
15.841877739
 30
0.0
 40
2.1166666667
 41
0.0
 71
     1
 72
     1
  1
DD
  7
SLDTEXTSTYLE0
 73
     1
 44
1.0
  0
MTEXT
  5
C2
330
1F
100
AcDbEntity
  8
0
  6
Continuous
 62
     7
370
     0
100
AcDbMText
 10
199.8662436873
 20
20.3177146903
 30
0.0
 40
2.1166666667
 41
0.0
 71
     1
 72
     1
  1
16/APR/18
  7
SLDTEXTSTYLE0
 73
     1
 44
1.0
  0
MTEXT
  5
C3
330
1F
100
AcDbEntity
  8
0
  6
Continuous
 62
     7
370
     0
100
AcDbMText
 10
203.6145073853
 20
24.8221395769
 30
0.0
 40
2.1166666667
 41
0.0
 71
     1
 72
     1
  1
DATE
  7
SLDTEXTSTYLE0
 73
     1
 44
1.0
  0
MTEXT
  5
C4
330
1F
100
AcDbEntity
  8
0
  6
Continuous
 62
     7
370
     0
100
AcDbMText
 10
199.8662436873
 20
15.841877739
 30
0.0
 40
2.1166666667
 41
0.0
 71
     1
 72
     1
  1
16/APR/18
  7
SLDTEXTSTYLE0
 73
     1
 44
1.0
  0
MTEXT
  5
C6
330
1F
100
AcDbEntity
  8
0
  6
Continuous
 62
     7
370
     0
100
AcDbMText
 10
229.402906477
 20
27.7957480569
 30
0.0
 40
2.1166666667
 41
0.0
 71
     1
 72
     1
  1
w w w . t h o r  l a b s . c o m
  7
SLDTEXTSTYLE3
 73
     1
 44
1.0
  0
MTEXT
  5
C7
330
1F
100
AcDbEntity
  8
0
  6
Continuous
 62
     7
370
     0
100
AcDbMText
 10
216.7004035316
 20
8.3494791871
 30
0.0
 40
2.1166666667
 41
0.0
 71
     1
 72
     1
  1
ITEM #
  7
SLDTEXTSTYLE0
 73
     1
 44
1.0
  0
MTEXT
  5
C8
330
1F
100
AcDbEntity
  8
0
  6
Continuous
 62
     7
370
     0
100
AcDbMText
 10
254.5318000914
 20
8.3494791871
 30
0.0
 40
2.1166666667
 41
0.0
 71
     1
 72
     1
  1
APPROX WEIGHT
  7
SLDTEXTSTYLE0
 73
     1
 44
1.0
  0
MTEXT
  5
C9
330
1F
100
AcDbEntity
  8
0
  6
Continuous
 62
     7
370
     0
100
AcDbMText
 10
243.5159064132
 20
13.8247651814
 30
0.0
 40
3.175
 41
0.0
 71
     2
 72
     1
  1
N-BK7
  7
SLDTEXTSTYLE0
 73
     1
 44
1.0
  0
MTEXT
  5
CA
330
1F
100
AcDbEntity
  8
0
  6
Continuous
 62
     7
370
     0
100
AcDbMText
 10
266.1553537756
 20
5.1306563898
 30
0.0
 40
3.175
 41
0.0
 71
     2
 72
     1
  1
46.20 g
  7
SLDTEXTSTYLE0
 73
     1
 44
1.0
  0
INSERT
  5
D0
330
1F
100
AcDbEntity
  8
0
  6
Continuous
 62
     7
370
     0
100
AcDbBlockReference
  2
SW_NOTE_1
 10
174.8430140051
 20
4.4558554801
 30
0.0
  0
INSERT
  5
D6
330
1F
100
AcDbEntity
  8
0
  6
Continuous
 62
     7
370
     0
100
AcDbBlockReference
  2
SW_NOTE_2
 10
174.5483650337
 20
30.4835322715
 30
0.0
  0
MTEXT
  5
D7
330
1F
100
AcDbEntity
  8
0
  6
Continuous
 62
     7
370
     0
100
AcDbMText
 10
187.9273588276
 20
24.8221395769
 30
0.0
 40
2.1166666667
 41
0.0
 71
     1
 72
     1
  1
NAME
  7
SLDTEXTSTYLE0
 73
     1
 44
1.0
  0
INSERT
  5
DD
330
1F
100
AcDbEntity
  8
0
  6
Continuous
 62
     7
370
     0
100
AcDbBlockReference
  2
SW_NOTE_3
 10
58.6204667508
 20
8.1776609732
 30
0.0
  0
INSERT
  5
E4
330
1F
100
AcDbEntity
  8
0
  6
Continuous
 62
     7
370
     0
100
AcDbBlockReference
  2
SW_NOTE_4
 10
219.027530387
 20
20.7222222066
 30
0.0
  0
MTEXT
  5
E5
330
1F
100
AcDbEntity
  8
0
  6
Continuous
 62
     7
370
     0
100
AcDbMText
 10
177.6925831922
 20
10.7142101515
 30
0.0
 40
1.5875
 41
0.0
 71
     1
 72
     1
  1
COPYRIGHT © 2018 BY THORLABS
  7
SLDTEXTSTYLE0
 73
     1
 44
1.0
  0
LINE
  5
E6
330
1F
100
AcDbEntity
  8
0
  6
Continuous
 62
     7
370
    18
100
AcDbLine
 10
231.6879804797
 20
192.8218401085
 30
0.0
 11
231.6879804797
 21
192.660598457
 31
0.0
  0
LINE
  5
E7
330
1F
100
AcDbEntity
  8
0
  6
Continuous
 62
     7
370
    18
100
AcDbLine
 10
249.505941833
 20
161.7956398232
 30
0.0
 11
249.6455736334
 21
161.7150058943
 31
0.0
  0
LINE
  5
E8
330
1F
100
AcDbEntity
  8
0
  6
Continuous
 62
     7
370
    18
100
AcDbLine
 10
262.3474606263
 20
160.455815984
 30
0.0
 11
268.542632796
 21
164.0322127518
 31
0.0
  0
LINE
  5
E9
330
1F
100
AcDbEntity
  8
0
  6
Continuous
 62
     7
370
    18
100
AcDbLine
 10
243.144696987
 20
208.0274949607
 30
0.0
 11
236.9495248173
 21
204.4510981929
 31
0.0
  0
LINE
  5
EA
330
1F
100
AcDbEntity
  8
0
  6
Continuous
 62
     7
370
    18
100
AcDbLine
 10
273.8041771336
 20
175.6614708361
 30
0.0
 11
273.8041771336
 21
175.8247524585
 31
0.0
  0
LINE
  5
EB
330
1F
100
AcDbEntity
  8
0
  6
Continuous
 62
     7
370
    18
100
AcDbLine
 10
255.9879823511
 20
206.6866509703
 30
0.0
 11
255.8465839798
 21
206.7683050504
 31
0.0
  0
LWPOLYLINE
  5
EC
330
1F
100
AcDbEntity
  8
0
  6
Continuous
 62
     7
370
    18
100
AcDbPolyline
 90
      168
 70
   128
 43
0.0
 10
267.3296959675
 20
172.0850740683
 10
267.3170842519
 20
172.8664285645
 10
267.2792669553
 20
173.6612383177
 10
267.2162976041
 20
174.4683783637
 10
267.1282653242
 20
175.286706286
 10
267.0152947156
 20
176.1150638328
 10
266.8775456754
 20
176.9522785567
 10
266.7152131721
 20
177.7971654739
 10
266.5285269691
 20
178.6485287414
 10
266.3177513
 20
179.5051633497
 10
266.083184494
 20
180.3658568284
 10
265.8251585542
 20
181.2293909621
 10
265.5440386877
 20
182.0945435147
 10
265.2402227879
 20
182.9600899595
 10
264.9141408725
 20
183.8248052125
 10
264.5662544739
 20
184.6874653657
 10
264.1970559863
 20
185.5468494203
 10
263.807067969
 20
186.4017410142
 10
263.3968424064
 20
187.2509301439
 10
262.9669599269
 20
188.0932148773
 10
262.518028981
 20
188.9274030544
 10
262.0506849804
 20
189.7523139751
 10
261.5655893982
 20
190.5667800704
 10
261.0634288329
 20
191.3696485544
 10
260.5449140367
 20
192.1597830568
 10
260.0107789093
 20
192.9360652304
 10
259.4617794592
 20
193.6973963346
 10
258.8986927338
 20
194.4426987903
 10
258.3223157193
 20
195.1709177054
 10
257.733464213
 20
195.8810223673
 10
257.1329716683
 20
196.5720077024
 10
256.5216880153
 20
197.242895698
 10
255.9004784576
 20
197.8927367874
 10
255.2702222479
 20
198.5206111931
 10
254.6318114434
 20
199.1256302291
 10
253.9861496432
 20
199.7069375585
 10
253.3341507093
 20
200.263710406
 10
252.6767374733
 20
200.7951607218
 10
252.0148404303
 20
201.3005362973
 10
251.3493964213
 20
201.7791218301
 10
250.681347308
 20
202.2302399357
 10
250.0116386392
 20
202.6532521069
 10
249.3412183127
 20
203.0475596173
 10
248.6710352334
 20
203.4126043688
 10
248.0020379705
 20
203.7478696813
 10
247.3351734149
 20
204.0528810242
 10
246.6713854388
 20
204.3272066881
 10
246.0116135598
 20
204.5704583958
 10
245.3567916112
 20
204.7822918515
 10
244.7078464204
 20
204.9624072287
 10
244.0656964965
 20
205.1105495943
 10
243.4312507311
 20
205.2265092693
 10
242.8054071112
 20
205.3101221258
 10
242.1890514483
 20
205.3612698191
 10
241.5830561252
 20
205.3798799553
 10
240.9882788603
 20
205.3659261939
 10
240.4055614944
 20
205.3194282849
 10
239.8357287987
 20
205.2404520409
 10
239.2795873077
 20
205.129109244
 10
238.7379241776
 20
204.9855574873
 10
238.2115060718
 20
204.8099999523
 10
237.7010780763
 20
204.6026851212
 10
237.207362645
 20
204.3639064249
 10
236.7310585767
 20
204.0940018279
 10
236.2728400266
 20
203.7933533499
 10
235.8333555519
 20
203.4623865254
 10
235.4132271937
 20
203.1015698008
 10
235.0130495966
 20
202.7114138718
 10
234.6333891674
 20
202.2924709606
 10
234.2747832729
 20
201.845334034
 10
233.9377394796
 20
201.3706359643
 10
233.6227348353
 20
200.8690486335
 10
233.330215194
 20
200.3412819824
 10
233.0605945844
 20
199.7880830057
 10
232.8142546244
 20
199.2102346947
 10
232.5915439805
 20
198.6085549291
 10
232.3927778749
 20
197.9838953192
 10
232.2182376388
 20
197.3371400009
 10
232.0681703143
 20
196.669204384
 10
231.9427883049
 20
195.9810338568
 10
231.8422690748
 20
195.2736024476
 10
231.7667548979
 20
194.5479114464
 10
231.7163526559
 20
193.8049879879
 10
231.6911336875
 20
193.0458835969
 10
231.6911336875
 20
192.2716727009
 10
231.7163526559
 20
191.4834511089
 10
231.7667548979
 20
190.6823344604
 10
231.8422690748
 20
189.8694566464
 10
231.9427883049
 20
189.0459682045
 10
232.0681703143
 20
188.2130346906
 10
232.2182376388
 20
187.3718350288
 10
232.3927778749
 20
186.5235598434
 10
232.5915439805
 20
185.6694097728
 10
232.8142546244
 20
184.8105937711
 10
233.0605945844
 20
183.9483273962
 10
233.330215194
 20
183.0838310898
 10
233.6227348353
 20
182.2183284498
 10
233.9377394796
 20
181.3530444983
 10
234.2747832729
 20
180.4892039479
 10
234.6333891674
 20
179.6280294685
 10
235.0130495966
 20
178.7707399562
 10
235.4132271937
 20
177.9185488084
 10
235.8333555519
 20
177.0726622063
 10
236.2728400266
 20
176.234277408
 10
236.7310585767
 20
175.4045810533
 10
237.207362645
 20
174.5847474846
 10
237.7010780763
 20
173.7759370847
 10
238.2115060718
 20
172.9792946342
 10
238.7379241776
 20
172.1959476915
 10
239.2795873077
 20
171.4270049965
 10
239.8357287987
 20
170.6735549017
 10
240.4055614944
 20
169.9366638314
 10
240.9882788603
 20
169.2173747725
 10
241.5830561252
 20
168.5167057982
 10
242.1890514483
 20
167.8356486272
 10
242.8054071112
 20
167.1751672196
 10
243.4312507311
 20
166.5361964131
 10
244.0656964965
 20
165.9196405994
 10
244.7078464204
 20
165.3263724443
 10
245.3567916112
 20
164.7572316525
 10
246.0116135598
 20
164.2130237792
 10
246.6713854388
 20
163.6945190898
 10
247.3351734149
 20
163.2024514696
 10
248.0020379705
 20
162.7375173854
 10
248.6710352334
 20
162.3003748993
 10
249.3412183127
 20
161.8916427377
 10
250.0116386392
 20
161.5118994153
 10
250.681347308
 20
161.1616824162
 10
251.3493964213
 20
160.8414874335
 10
252.0148404303
 20
160.5517676673
 10
252.6767374733
 20
160.2929331836
 10
253.3341507093
 20
160.0653503336
 10
253.9861496432
 20
159.8693412354
 10
254.6318114434
 20
159.705183318
 10
255.2702222479
 20
159.5731089286
 10
255.9004784576
 20
159.4733050036
 10
256.5216880153
 20
159.4059128044
 10
257.1329716683
 20
159.3710277171
 10
257.733464213
 20
159.3686991177
 10
258.3223157193
 20
159.3989303019
 10
258.8986927338
 20
159.4616784811
 10
259.4617794592
 20
159.556854842
 10
260.0107789093
 20
159.6843246732
 10
260.5449140367
 20
159.8439075555
 10
261.0634288329
 20
160.0353776171
 10
261.5655893982
 20
160.2584638535
 10
262.0506849804
 20
160.5128505111
 10
262.518028981
 20
160.7981775341
 10
262.9669599269
 20
161.114041074
 10
263.3968424064
 20
161.4599940612
 10
263.807067969
 20
161.835546838
 10
264.1970559863
 20
162.2401678514
 10
264.5662544739
 20
162.6732844056
 10
264.9141408725
 20
163.1342834726
 10
265.2402227879
 20
163.6225125597
 10
265.5440386877
 20
164.1372806332
 10
265.8251585542
 20
164.6778590966
 10
266.083184494
 20
165.2434828215
 10
266.3177513
 20
165.8333512306
 10
266.5285269691
 20
166.4466294313
 10
266.7152131721
 20
167.0824493969
 10
266.8775456754
 20
167.7399111952
 10
267.0152947156
 20
168.4180842626
 10
267.1282653242
 20
169.116008721
 10
267.2162976041
 20
169.8326967364
 10
267.2792669553
 20
170.567133917
 10
267.3170842519
 20
171.3182807491
 10
267.3296959675
 20
172.0850740683
  0
LWPOLYLINE
  5
ED
330
1F
100
AcDbEntity
  8
0
  6
Continuous
 62
     7
370
    18
100
AcDbPolyline
 90
      127
 70
   128
 43
0.0
 10
231.6879804797
 20
192.8218401086
 10
231.700691028
 20
193.5946424616
 10
231.7388046826
 20
194.3516757126
 10
231.8022674979
 20
195.0918683656
 10
231.8909896494
 20
195.8141727608
 10
232.0048455608
 20
196.5175665569
 10
232.1436740817
 20
197.2010541788
 10
232.3072787159
 20
197.8636682262
 10
232.4954278994
 20
198.504470843
 10
232.7078553281
 20
199.1225550446
 10
232.9442603346
 20
199.7170460021
 10
233.2043083141
 20
200.28710228
 10
233.4876311977
 20
200.8319170274
 10
233.7938279737
 20
201.3507191199
 10
234.1224652547
 20
201.8427742511
 10
234.4730778914
 20
202.3073859721
 10
234.8451696308
 20
202.7438966769
 10
235.2382138186
 20
203.1516885335
 10
235.6516541449
 20
203.530184358
 10
236.0849054309
 20
203.8788484319
 10
236.5373544581
 20
204.1971872602
 10
237.0083608353
 20
204.48475027
 10
237.4972579057
 20
204.7411304479
 10
238.0033536902
 20
204.9659649165
 10
238.5259318667
 20
205.1589354477
 10
239.0642527844
 20
205.3197689133
 10
239.6175545102
 20
205.4482376715
 10
240.1850539073
 20
205.5441598891
 10
240.7659477438
 20
205.6073997991
 10
241.3594138294
 20
205.6378678923
 10
241.9646121793
 20
205.6355210446
 10
242.5806862028
 20
205.6003625777
 10
243.2067639161
 20
205.5324422544
 10
243.8419591762
 20
205.4318562085
 10
244.4853729353
 20
205.2987468081
 10
245.136094513
 20
205.1333024548
 10
245.7932028858
 20
204.9357573165
 10
246.4557679902
 20
204.7063909963
 10
247.1228520395
 20
204.4455281366
 10
247.7935108507
 20
204.1535379596
 10
248.4667951814
 20
203.8308337447
 10
249.1417520727
 20
203.4778722436
 10
249.8174261988
 20
203.0951530339
 10
250.4928612184
 20
202.6832178119
 10
251.1671011289
 20
202.2426496257
 10
251.839191619
 20
201.7740720504
 10
252.5081814197
 20
201.2781483052
 10
253.1731236509
 20
200.7555803146
 10
253.8330771611
 20
200.2071077151
 10
254.48710786
 20
199.6335068085
 10
255.1342900403
 20
199.0355894627
 10
255.7737076879
 20
198.4142019628
 10
256.4044557786
 20
197.7702238133
 10
257.0256415592
 20
197.1045664932
 10
257.6363858105
 20
196.4181721662
 10
258.2358240923
 20
195.7120123466
 10
258.8231079669
 20
194.9870865246
 10
259.3974061996
 20
194.2444207518
 10
259.9579059354
 20
193.4850661883
 10
260.5038138496
 20
192.7100976158
 10
261.0343572706
 20
191.9206119156
 10
261.5487852736
 20
191.1177265164
 10
262.0463697433
 20
190.3025778127
 10
262.5264064044
 20
189.4763195563
 10
262.9882158187
 20
188.6401212234
 10
263.4311443467
 20
187.7951663592
 10
263.8545650726
 20
186.9426509029
 10
264.2578786916
 20
186.0837814948
 10
264.6405143585
 20
185.2197737684
 10
265.0019304952
 20
184.3518506301
 10
265.3416155576
 20
183.4812405281
 10
265.6590887596
 20
182.6091757135
 10
265.9539007532
 20
181.7368904966
 10
266.2256342651
 20
180.8656194996
 10
266.4739046868
 20
179.9965959091
 10
266.6983606194
 20
179.1310497309
 10
266.8986843706
 20
178.2702060488
 10
267.0745924045
 20
177.4152832908
 10
267.225835743
 20
176.5674915043
 10
267.3522003179
 20
175.728030644
 10
267.4535072745
 20
174.8980888727
 10
267.529613224
 20
174.0788408803
 10
267.580410447
 20
173.2714462206
 10
267.6058270457
 20
172.4770476705
 10
267.6058270457
 20
171.6967696124
 10
267.580410447
 20
170.9317164425
 10
267.529613224
 20
170.1829710081
 10
267.4535072745
 20
169.4515930746
 10
267.3522003179
 20
168.7386178257
 10
267.225835743
 20
168.0450543981
 10
267.0745924045
 20
167.3718844533
 10
266.8986843706
 20
166.7200607881
 10
266.6983606194
 20
166.090505986
 10
266.4739046868
 20
165.4841111114
 10
266.2256342651
 20
164.9017344484
 10
265.9539007532
 20
164.3442002862
 10
265.6590887596
 20
163.8122977519
 10
265.3416155576
 20
163.3067796941
 10
265.0019304952
 20
162.828361617
 10
264.6405143585
 20
162.3777206681
 10
264.2578786916
 20
161.9554946791
 10
263.8545650726
 20
161.5622812637
 10
263.4311443467
 20
161.1986369716
 10
262.9882158187
 20
160.8650765006
 10
262.5264064044
 20
160.5620719681
 10
262.0463697433
 20
160.2900522433
 10
261.5487852736
 20
160.0494023397
 10
261.0343572706
 20
159.8404628702
 10
260.5038138496
 20
159.6635295654
 10
259.9579059354
 20
159.5188528545
 10
259.3974061996
 20
159.4066375113
 10
258.8231079669
 20
159.327042364
 10
258.2358240923
 20
159.2801800706
 10
257.6363858105
 20
159.2661169596
 10
257.0256415592
 20
159.2848729355
 10
256.4044557786
 20
159.3364214516
 10
255.7737076879
 20
159.4206895465
 10
255.1342900403
 20
159.5375579483
 10
254.48710786
 20
159.6868612427
 10
253.8330771611
 20
159.8683881077
 10
253.1731236509
 20
160.0818816123
 10
252.5081814197
 20
160.3270395803
 10
251.839191619
 20
160.603515018
 10
251.1671011289
 20
160.9109166054
 10
250.4928612184
 20
161.2488092498
 10
249.8174261988
 20
161.6167147021
 10
249.6455736334
 20
161.7150058943
  0
LWPOLYLINE
  5
EE
330
1F
100
AcDbEntity
  8
0
  6
Continuous
 62
     7
370
    18
100
AcDbPolyline
 90
       64
 70
   128
 43
0.0
 10
273.8041771336
 20
175.6614708361
 10
273.7914665853
 20
176.4489484759
 10
273.7533529307
 20
177.2499868158
 10
273.6898901153
 20
178.0634520757
 10
273.6011679639
 20
178.8881928865
 10
273.4873120525
 20
179.7230419198
 10
273.3484835316
 20
180.5668175402
 10
273.1848788973
 20
181.4183254776
 10
272.9967297138
 20
182.2763605177
 10
272.7843022852
 20
183.1397082078
 10
272.5478972787
 20
184.007146576
 10
272.2878492992
 20
184.8774478601
 10
272.0045264156
 20
185.7493802461
 10
271.6983296396
 20
186.6217096111
 10
271.3696923586
 20
187.4932012704
 10
271.0190797219
 20
188.3626217251
 10
270.6469879825
 20
189.2287404078
 10
270.2539437946
 20
190.0903314242
 10
269.8405034684
 20
190.9461752888
 10
269.4072521823
 20
191.7950606501
 10
268.9548031552
 20
192.6357860058
 10
268.483796778
 20
193.4671614033
 10
267.9948997076
 20
194.2880101237
 10
267.4888039231
 20
195.0971703473
 10
266.9662257465
 20
195.8934967984
 10
266.4279048288
 20
196.6758623659
 10
265.8746031031
 20
197.4431596988
 10
265.307103706
 20
198.1943027736
 10
264.7262098695
 20
198.9282284312
 10
264.1327437839
 20
199.6438978819
 10
263.527545434
 20
200.3402981758
 10
262.9114714105
 20
201.0164436359
 10
262.2853936971
 20
201.6713772541
 10
261.650198437
 20
202.304172045
 10
261.006784678
 20
202.9139323583
 10
260.3560631003
 20
203.4997951466
 10
259.6989547275
 20
204.0609311866
 10
259.0363896231
 20
204.5965462529
 10
258.3693055738
 20
205.1058822424
 10
257.6986467626
 20
205.5882182468
 10
257.0253624319
 20
206.0428715735
 10
256.3504055406
 20
206.4691987116
 10
255.6747314145
 20
206.8665962426
 10
254.9992963948
 20
207.2345016949
 10
254.3250564844
 20
207.5723943393
 10
253.6529659943
 20
207.8797959267
 10
252.9839761936
 20
208.1562713644
 10
252.3190339624
 20
208.4014293324
 10
251.6590804521
 20
208.614922837
 10
251.0050497532
 20
208.796449702
 10
250.357867573
 20
208.9457529964
 10
249.7184499254
 20
209.0626213982
 10
249.0877018346
 20
209.1468894931
 10
248.4665160541
 20
209.1984380091
 10
247.8557718028
 20
209.2171939851
 10
247.2563335209
 20
209.203130874
 10
246.6690496464
 20
209.1562685807
 10
246.0947514137
 20
209.0766734334
 10
245.5342516779
 20
208.9644580901
 10
244.9883437637
 20
208.8197813793
 10
244.4578003426
 20
208.6428480745
 10
243.9433723396
 20
208.433908605
 10
243.44578787
 20
208.1932587014
 10
243.144696987
 20
208.0274949607
  0
LWPOLYLINE
  5
EF
330
1F
100
AcDbEntity
  8
0
  6
Continuous
 62
     7
370
    18
100
AcDbPolyline
 90
       22
 70
   128
 43
0.0
 10
268.542632796
 20
164.0322127518
 10
268.9548031552
 20
164.2861236844
 10
269.4072521823
 20
164.6044625128
 10
269.8405034684
 20
164.9531265867
 10
270.2539437946
 20
165.3316224112
 10
270.6469879825
 20
165.7394142678
 10
271.0190797219
 20
166.1759249726
 10
271.3696923586
 20
166.6405366936
 10
271.6983296396
 20
167.1325918248
 10
272.0045264156
 20
167.6513939173
 10
272.2878492992
 20
168.1962086646
 10
272.5478972787
 20
168.7662649425
 10
272.7843022852
 20
169.3607559001
 10
272.9967297138
 20
169.9788401017
 10
273.1848788973
 20
170.6196427185
 10
273.3484835316
 20
171.2822567658
 10
273.4873120525
 20
171.9657443878
 10
273.6011679639
 20
172.6691381839
 10
273.6898901153
 20
173.3914425791
 10
273.7533529307
 20
174.1316352321
 10
273.7914665853
 20
174.8886684831
 10
273.8041771336
 20
175.6614708361
  0
ARC
  5
F0
330
1F
100
AcDbEntity
  8
0
  6
Continuous
 62
     7
370
    18
100
AcDbCircle
 10
235.1858184768
 20
174.1043329629
 30
0.0
 40
38.6566613740163
100
AcDbArc
 50
2.5507982903
 51
57.443825177
  0
CIRCLE
  5
F1
330
1F
100
AcDbEntity
  8
0
  6
Continuous
 62
     7
370
    18
100
AcDbCircle
 10
54.2181132621
 20
122.6202311716
 30
0.0
 40
25.20249871458333
  0
CIRCLE
  5
F2
330
1F
100
AcDbEntity
  8
0
  6
Continuous
 62
     7
370
    18
100
AcDbCircle
 10
54.2181132621
 20
122.6202311716
 30
0.0
 40
25.4
  0
DIMENSION
  5
F3
330
1F
100
AcDbEntity
  8
0
  6
Continuous
 62
     7
370
    18
100
AcDbDimension
  2
_D
 10
36.917283046
 20
104.0234230091
 30
0.0
 11
99.2858953395
 21
159.4664426531
 31
0.0
 70
   163
  1
<>
 71
     1
 42
-1.0
  3
SLDDIMSTYLE0
100
AcDbDiametricDimension
 15
71.5189434782
 25
141.2170393341
 35
0.0
 40
0.0
  0
LINE
  5
104
330
1F
100
AcDbEntity
  8
0
  6
PHANTOM
 62
     7
370
    35
100
AcDbLine
 10
54.2181132621
 20
154.1162311716
 30
0.0
 11
54.2181132621
 21
91.1242311716
 31
0.0
  0
LINE
  5
105
330
1F
100
AcDbEntity
  8
0
  6
Continuous
 62
     7
370
    35
100
AcDbLine
 10
54.2181132621
 20
154.1162311716
 30
0.0
 11
45.3281132621
 21
154.1162311716
 31
0.0
  0
SOLID
  5
106
330
1F
100
AcDbEntity
  8
0
  6
Continuous
 62
     7
370
    35
100
AcDbTrace
 10
45.3281132621
 20
154.1162311716
 30
0.0
 11
49.1381132621
 21
153.4812311716
 31
0.0
 12
49.1381132621
 22
154.7512311716
 32
0.0
 13
49.1381132621
 23
154.7512311716
 33
0.0
  0
LINE
  5
107
330
1F
100
AcDbEntity
  8
0
  6
Continuous
 62
     7
370
    35
100
AcDbLine
 10
54.2181132621
 20
91.1242311716
 30
0.0
 11
45.3281132621
 21
91.1242311716
 31
0.0
  0
SOLID
  5
108
330
1F
100
AcDbEntity
  8
0
  6
Continuous
 62
     7
370
    35
100
AcDbTrace
 10
45.3281132621
 20
91.1242311716
 30
0.0
 11
49.1381132621
 21
90.4892311716
 31
0.0
 12
49.1381132621
 22
91.7592311716
 32
0.0
 13
49.1381132621
 23
91.7592311716
 33
0.0
  0
MTEXT
  5
109
330
1F
100
AcDbEntity
  8
0
  6
Continuous
 62
     7
100
AcDbMText
 10
41.9224776409
 20
156.217364695
 30
0.0
 40
2.6458333333
 41
0.0
 71
     1
 72
     1
  1
A
  7
SLDTEXTSTYLE0
 73
     1
 44
1.0
  0
MTEXT
  5
10A
330
1F
100
AcDbEntity
  8
0
  6
Continuous
 62
     7
100
AcDbMText
 10
41.9224776409
 20
93.225364695
 30
0.0
 40
2.6458333333
 41
0.0
 71
     1
 72
     1
  1
A
  7
SLDTEXTSTYLE0
 73
     1
 44
1.0
  0
LINE
  5
10B
330
1F
100
AcDbEntity
  8
0
  6
Continuous
 62
     7
370
    18
100
AcDbLine
 10
135.4470176999
 20
97.2202311716
 30
0.0
 11
144.2083142035
 21
97.2202311716
 31
0.0
  0
LINE
  5
10C
330
1F
100
AcDbEntity
  8
0
  6
Continuous
 62
     7
370
    18
100
AcDbLine
 10
135.4470176999
 20
97.2202311716
 30
0.0
 11
135.2495164145
 21
97.417732457
 31
0.0
  0
ARC
  5
10D
330
1F
100
AcDbEntity
  8
0
  6
Continuous
 62
     7
370
    18
100
AcDbCircle
 10
-1864.5916925733
 20
122.6202311716
 30
0.0
 40
2000.000006776844
100
AcDbArc
 50
359.2779824885
 51
0.7220175116
  0
LINE
  5
10E
330
1F
100
AcDbEntity
  8
0
  6
Continuous
 62
     7
370
    18
100
AcDbLine
 10
135.2495164145
 20
147.8227298861
 30
0.0
 11
135.4470176999
 21
148.0202311716
 31
0.0
  0
LINE
  5
10F
330
1F
100
AcDbEntity
  8
0
  6
Continuous
 62
     7
370
    18
100
AcDbLine
 10
144.2083142035
 20
148.0202311716
 30
0.0
 11
135.4470176999
 21
148.0202311716
 31
0.0
  0
LINE
  5
110
330
1F
100
AcDbEntity
  8
0
  6
Continuous
 62
     7
370
    18
100
AcDbLine
 10
144.2083142035
 20
148.0202311716
 30
0.0
 11
144.4083142035
 21
147.8202311716
 31
0.0
  0
LINE
  5
111
330
1F
100
AcDbEntity
  8
0
  6
Continuous
 62
     7
370
    18
100
AcDbLine
 10
144.4083142035
 20
97.4202311716
 30
0.0
 11
144.2083142035
 21
97.2202311716
 31
0.0
  0
LINE
  5
112
330
1F
100
AcDbEntity
  8
0
  6
Continuous
 62
     7
370
    18
100
AcDbLine
 10
144.4083142035
 20
123.7227044494
 30
0.0
 11
144.4083142035
 21
147.8202311716
 31
0.0
  0
LINE
  5
113
330
1F
100
AcDbEntity
  8
0
  6
Continuous
 62
     7
370
    18
100
AcDbLine
 10
144.4083142035
 20
97.4202311716
 30
0.0
 11
144.4083142035
 21
123.6202311716
 31
0.0
  0
LINE
  5
114
330
1F
100
AcDbEntity
  8
0
  6
Continuous
 62
     7
370
    18
100
AcDbLine
 10
144.4083142035
 20
123.6202311716
 30
0.0
 11
144.4083142035
 21
123.7227044494
 31
0.0
  0
HATCH
  5
115
330
1F
100
AcDbEntity
  8
0
  6
Continuous
 62
     7
370
    18
100
AcDbHatch
 10
0.0
 20
0.0
 30
0.0
210
0.0
220
0.0
230
1.0
  2
ANSI31
 70
     0
 71
     0
 91
        1
 92
        0
 93
       10
 72
     1
 10
144.2083142035333
 20
97.22023117156586
 11
144.4083142035333
 21
97.42023117156586
 72
     1
 10
144.4083142035333
 20
97.42023117156586
 11
144.4083142035333
 21
123.6202311715659
 72
     1
 10
144.4083142035333
 20
123.6202311715659
 11
144.4083142035333
 21
123.7227044493793
 72
     1
 10
144.4083142035333
 20
123.7227044493793
 11
144.4083142035333
 21
147.8202311715659
 72
     1
 10
144.4083142035333
 20
147.8202311715659
 11
144.2083142035333
 21
148.0202311715659
 72
     1
 10
144.2083142035333
 20
148.0202311715659
 11
135.4470176999389
 21
148.0202311715659
 72
     1
 10
135.4470176999389
 20
148.0202311715659
 11
135.2495164145224
 21
147.822729886149
 72
     2
 10
-1864.591692573311
 20
122.6202311715659
 40
2000.000006776844
 50
359.2779824884507
 51
360.7220175115509
 73
     0
 72
     1
 10
135.2495164145224
 20
97.41773245698532
 11
135.4470176999389
 21
97.22023117156586
 72
     1
 10
135.4470176999389
 20
97.22023117156586
 11
144.2083142035333
 21
97.22023117156586
 97
        0
 75
     0
 76
     1
 52
0.0
 41
1.0
 77
     0
 78
     1
 53
45.0
 43
0.0
 44
0.0
 45
-2.245064030267288
 46
2.245064030267288
 79
     0
 98
        1
 10
0.0
 20
0.0
  0
DIMENSION
  5
116
330
1F
100
AcDbEntity
  8
0
  6
Continuous
 62
     7
370
    18
100
AcDbDimension
  2
_D_1
 10
144.411895848
 20
160.9484042331
 30
0.0
 11
163.6266317293
 21
160.9431620451
 31
0.0
 70
   160
  1
<> REF
 71
     2
 42
-1.0
  3
SLDDIMSTYLE1
100
AcDbAlignedDimension
 13
135.2495164145
 23
147.8227298861
 33
0.0
 14
144.4083142035
 24
147.8202311716
 34
0.0
 50
-0.0156315053
100
AcDbRotatedDimension
  0
DIMENSION
  5
12A
330
1F
100
AcDbEntity
  8
0
  6
Continuous
 62
     7
370
    18
100
AcDbDimension
  2
_D_2
 10
-1864.5916925733
 20
122.6202311716
 30
0.0
 11
162.6686141299
 21
87.8083700203
 31
0.0
 70
   164
  1
<>
 71
     1
 42
-1.0
  3
SLDDIMSTYLE2
100
AcDbRadialDimension
 15
135.1101002616
 25
88.0837744904
 35
0.0
 40
0.0
  0
DIMENSION
  5
13B
330
1F
100
AcDbEntity
  8
0
  6
Continuous
 62
     7
370
    18
100
AcDbDimension
  2
_D_3
 10
135.4083142035
 20
151.5766877724
 30
0.0
 11
160.4083142035
 21
151.5766877724
 31
0.0
 70
   160
  1
<>
 71
     2
 42
-1.0
  3
SLDDIMSTYLE3
100
AcDbAlignedDimension
 13
144.4083142035
 23
147.8202311716
 33
0.0
 14
135.4083142035
 24
122.6202311716
 34
0.0
100
AcDbRotatedDimension
  0
MTEXT
  5
150
330
1F
100
AcDbEntity
  8
0
  6
Continuous
 62
     7
370
     0
100
AcDbMText
 10
139.647871259
 20
79.6354246571
 30
0.0
 40
2.1166666667
 41
0.0
 71
     2
 72
     1
  1
SECTION A-A
  7
SLDTEXTSTYLE0
 73
     1
 44
1.0
  0
MTEXT
  5
151
330
1F
100
AcDbEntity
  8
0
  6
Continuous
 62
     7
370
     0
100
AcDbMText
 10
117.5466544256
 20
98.4593566299
 30
0.0
 40
2.1166666667
 41
0.0
 71
     1
 72
     1
  1
S1
  7
SLDTEXTSTYLE0
 73
     1
 44
1.0
  0
LEADER
  5
153
330
1F
100
AcDbEntity
  8
0
  6
Continuous
 62
     7
370
     0
100
AcDbLeader
  3
SLDDIMSTYLE4
 76
     3
 10
135.3967981496
 20
115.8331785581
 30
0.0
 10
127.2500973967
 20
98.0296810581
 30
0.0
 10
120.9000973967
 20
98.0296810581
 30
0.0
  0
MTEXT
  5
154
330
1F
100
AcDbEntity
  8
0
  6
Continuous
 62
     7
370
     0
100
AcDbMText
 10
159.6974413314
 20
134.9667777457
 30
0.0
 40
2.1166666667
 41
0.0
 71
     1
 72
     1
  1
S2
  7
SLDTEXTSTYLE0
 73
     1
 44
1.0
  0
LEADER
  5
155
330
1F
100
AcDbEntity
  8
0
  6
Continuous
 62
     7
370
     0
100
AcDbLeader
  3
SLDDIMSTYLE4
 76
     3
 10
144.4083142035
 20
117.3167653089
 30
0.0
 10
152.7297280593
 20
134.3708429864
 30
0.0
 10
159.0797280593
 20
134.3708429864
 30
0.0
  0
SPLINE
  5
156
330
1F
100
AcDbEntity
  8
0
  6
Continuous
 62
     7
370
    18
100
AcDbSpline
210
0.0
220
0.0
230
1.0
 70
     8
 71
     3
 72
    13
 73
     9
 74
     0
 42
0.000000001
 43
0.00000001
 40
0.0
 40
0.0
 40
0.0
 40
0.0
 40
0.194338994180444
 40
0.3816850483972323
 40
0.5594858099433005
 40
0.6963399801806498
 40
0.839106652968723
 40
0.9999999999999999
 40
0.9999999999999999
 40
0.9999999999999999
 40
0.9999999999999999
 10
223.3389159985552
 20
124.7395886078486
 30
0.0
 10
223.3360909061634
 20
124.8012210301601
 30
0.0
 10
223.3305423772598
 20
124.9222681426657
 30
0.0
 10
223.2815466691258
 20
125.094286697205
 30
0.0
 10
223.2015352836449
 20
125.2344087197428
 30
0.0
 10
223.0933017631259
 20
125.3333684472924
 30
0.0
 10
222.9642625047497
 20
125.3941389677675
 30
0.0
 10
222.8676106019219
 20
125.4007381737107
 30
0.0
 10
222.8163998822752
 20
125.4042347431063
 30
0.0
  0
SPLINE
  5
157
330
1F
100
AcDbEntity
  8
0
  6
Continuous
 62
     7
370
    18
100
AcDbSpline
210
0.0
220
0.0
230
1.0
 70
     8
 71
     3
 72
    12
 73
     8
 74
     0
 42
0.000000001
 43
0.00000001
 40
0.0
 40
0.0
 40
0.0
 40
0.0
 40
0.2008908381631382
 40
0.3780365369998056
 40
0.5535498386387566
 40
0.7713747335183462
 40
1.0
 40
1.0
 40
1.0
 40
1.0
 10
222.8163998822752
 20
124.0749244105729
 30
0.0
 10
222.8805380537844
 20
124.0804466138807
 30
0.0
 10
223.0012333152933
 20
124.0908383004016
 30
0.0
 10
223.1539278033207
 20
124.1890986830544
 30
0.0
 10
223.2619097245208
 20
124.3366166614005
 30
0.0
 10
223.3275184770469
 20
124.5257405121286
 30
0.0
 10
223.3350560426383
 20
124.6671654742933
 30
0.0
 10
223.3389159985552
 20
124.7395886078486
 30
0.0
  0
SPLINE
  5
158
330
1F
100
AcDbEntity
  8
0
  6
Continuous
 62
     7
370
    18
100
AcDbSpline
210
0.0
220
0.0
230
1.0
 70
     8
 71
     3
 72
    13
 73
     9
 74
     0
 42
0.000000001
 43
0.00000001
 40
0.0
 40
0.0
 40
0.0
 40
0.0
 40
0.1943256494037765
 40
0.3816748644005008
 40
0.5594881704966058
 40
0.6963511211546933
 40
0.8391184169589759
 40
0.9999999999999999
 40
0.9999999999999999
 40
0.9999999999999999
 40
0.9999999999999999
 10
222.2938657039772
 20
124.7395886078486
 30
0.0
 10
222.2966921582195
 20
124.6779599388632
 30
0.0
 10
222.3022435949082
 20
124.5569151156484
 30
0.0
 10
222.3512521238877
 20
124.3848977077711
 30
0.0
 10
222.4312720374522
 20
124.244771235572
 30
0.0
 10
222.5395078525064
 20
124.1458032620204
 30
0.0
 10
222.668543288146
 20
124.0850231690579
 30
0.0
 10
222.7651924698916
 20
124.0784219298641
 30
0.0
 10
222.8163998822752
 20
124.0749244105729
 30
0.0
  0
SPLINE
  5
159
330
1F
100
AcDbEntity
  8
0
  6
Continuous
 62
     7
370
    18
100
AcDbSpline
210
0.0
220
0.0
230
1.0
 70
     8
 71
     3
 72
    12
 73
     8
 74
     0
 42
0.000000001
 43
0.00000001
 40
0.0
 40
0.0
 40
0.0
 40
0.0
 40
0.2008792258750614
 40
0.3780217100331188
 40
0.5535332757399342
 40
0.771359577332731
 40
1.0
 40
1.0
 40
1.0
 40
1.0
 10
222.8163998822752
 20
125.4042347431063
 30
0.0
 10
222.752266089722
 20
125.3987130796094
 30
0.0
 10
222.6315768256815
 20
125.3883222158044
 30
0.0
 10
222.4788832919636
 20
125.2900751381795
 30
0.0
 10
222.3708897219021
 20
125.1425688680403
 30
0.0
 10
222.3052662459051
 20
124.9534455001394
 30
0.0
 10
222.2977267573476
 20
124.81201611875
 30
0.0
 10
222.2938657039772
 20
124.7395886078486
 30
0.0
  0
SPLINE
  5
15A
330
1F
100
AcDbEntity
  8
0
  6
Continuous
 62
     7
370
    18
100
AcDbSpline
210
0.0
220
0.0
230
1.0
 70
     8
 71
     3
 72
    19
 73
    15
 74
     0
 42
0.000000001
 43
0.00000001
 40
0.0
 40
0.0
 40
0.0
 40
0.0
 40
0.091587339706645
 40
0.1741182870805897
 40
0.2526289966153886
 40
0.3313197891920878
 40
0.4131632671988417
 40
0.4999972215981983
 40
0.5868350001903231
 40
0.6686802724867937
 40
0.7473714879383924
 40
0.8258819896397939
 40
0.908412700828622
 40
1.0
 40
1.0
 40
1.0
 40
1.0
 10
222.8200050464215
 20
123.53905145469
 30
0.0
 10
222.9306426211133
 20
123.5464961672414
 30
0.0
 10
223.1409776418026
 20
123.5606494399689
 30
0.0
 10
223.4253052167717
 20
123.6839688367619
 30
0.0
 10
223.6494765033612
 20
123.8712345161317
 30
0.0
 10
223.8101557921619
 20
124.1143779415916
 30
0.0
 10
223.9062578722799
 20
124.3991353057823
 30
0.0
 10
223.936245500152
 20
124.7073879194171
 30
0.0
 10
223.9051078593121
 20
125.0155286171241
 30
0.0
 10
223.8079442456676
 20
125.2999331910231
 30
0.0
 10
223.6463580546795
 20
125.5424780913731
 30
0.0
 10
223.4214884952527
 20
125.7289049997592
 30
0.0
 10
223.1367021319518
 20
125.8511594821171
 30
0.0
 10
222.9263161096312
 20
125.8645269443399
 30
0.0
 10
222.8156515808562
 20
125.8715583235707
 30
0.0
  0
SPLINE
  5
15B
330
1F
100
AcDbEntity
  8
0
  6
Continuous
 62
     7
370
    18
100
AcDbSpline
210
0.0
220
0.0
230
1.0
 70
     8
 71
     3
 72
    14
 73
    10
 74
     0
 42
0.000000001
 43
0.00000001
 40
0.0
 40
0.0
 40
0.0
 40
0.0
 40
0.1466868109097158
 40
0.2859932799578326
 40
0.4198155341096283
 40
0.5510853201411045
 40
0.6904104027401186
 40
0.8377115977293307
 40
1.0
 40
1.0
 40
1.0
 40
1.0
 10
221.7141529509028
 20
124.7114418904296
 30
0.0
 10
221.718035267782
 20
124.6227673961994
 30
0.0
 10
221.7256045681931
 20
124.4498799409726
 30
0.0
 10
221.7954237717476
 20
124.2039409414617
 30
0.0
 10
221.9077221508202
 20
123.9854376313954
 30
0.0
 10
222.0679647012332
 20
123.7979973431161
 30
0.0
 10
222.2769583585691
 20
123.6525313125713
 30
0.0
 10
222.534438815785
 20
123.5561639546535
 30
0.0
 10
222.7217930353539
 20
123.5449367900535
 30
0.0
 10
222.8200050464215
 20
123.53905145469
 30
0.0
  0
SPLINE
  5
15C
330
1F
100
AcDbEntity
  8
0
  6
Continuous
 62
     7
370
    18
100
AcDbSpline
210
0.0
220
0.0
230
1.0
 70
     8
 71
     3
 72
    14
 73
    10
 74
     0
 42
0.000000001
 43
0.00000001
 40
0.0
 40
0.0
 40
0.0
 40
0.0
 40
0.1553989656922838
 40
0.2968771122070968
 40
0.4305153137104986
 40
0.5617675040118878
 40
0.7014063449726655
 40
0.8467289956139455
 40
1.0
 40
1.0
 40
1.0
 40
1.0
 10
222.8156515808562
 20
125.8715583235707
 30
0.0
 10
222.7224104402215
 20
125.8662033713475
 30
0.0
 10
222.5442808082308
 20
125.8559731697181
 30
0.0
 10
222.2981014055567
 20
125.7689707412752
 30
0.0
 10
222.0923330275267
 20
125.6353665025976
 30
0.0
 10
221.9263893401962
 20
125.4555522877841
 30
0.0
 10
221.8050183025678
 20
125.2358334210049
 30
0.0
 10
221.7279458611361
 20
124.9823522343728
 30
0.0
 10
221.718831460631
 20
124.8033337869295
 30
0.0
 10
221.7141529509028
 20
124.7114418904296
 30
0.0
  0
LINE
  5
15D
330
1F
100
AcDbEntity
  8
0
  6
Continuous
 62
     7
370
    18
100
AcDbLine
 10
218.5765539855
 20
125.3549434962
 30
0.0
 11
218.5765539855
 21
123.6202311716
 31
0.0
  0
LINE
  5
15E
330
1F
100
AcDbEntity
  8
0
  6
Continuous
 62
     7
370
    18
100
AcDbLine
 10
217.9060596917
 20
125.3549434962
 30
0.0
 11
218.5765539855
 21
125.3549434962
 31
0.0
  0
LINE
  5
15F
330
1F
100
AcDbEntity
  8
0
  6
Continuous
 62
     7
370
    18
100
AcDbLine
 10
217.9060596917
 20
125.8565799198
 30
0.0
 11
217.9060596917
 21
125.3549434962
 31
0.0
  0
LINE
  5
160
330
1F
100
AcDbEntity
  8
0
  6
Continuous
 62
     7
370
    18
100
AcDbLine
 10
220.3548719567
 20
125.8565799198
 30
0.0
 11
217.9060596917
 21
125.8565799198
 31
0.0
  0
LINE
  5
161
330
1F
100
AcDbEntity
  8
0
  6
Continuous
 62
     7
370
    18
100
AcDbLine
 10
220.3548719567
 20
125.0414049272
 30
0.0
 11
220.3548719567
 21
125.8565799198
 31
0.0
  0
LINE
  5
162
330
1F
100
AcDbEntity
  8
0
  6
Continuous
 62
     7
370
    18
100
AcDbLine
 10
221.1261381837
 20
125.0414049272
 30
0.0
 11
220.3548719567
 21
125.0414049272
 31
0.0
  0
LINE
  5
163
330
1F
100
AcDbEntity
  8
0
  6
Continuous
 62
     7
370
    18
100
AcDbLine
 10
221.1261381837
 20
125.8565799198
 30
0.0
 11
221.1261381837
 21
125.0414049272
 31
0.0
  0
LINE
  5
164
330
1F
100
AcDbEntity
  8
0
  6
Continuous
 62
     7
370
    18
100
AcDbLine
 10
221.7116506832
 20
125.8565799198
 30
0.0
 11
221.1261381837
 21
125.8565799198
 31
0.0
  0
LINE
  5
165
330
1F
100
AcDbEntity
  8
0
  6
Continuous
 62
     7
370
    18
100
AcDbLine
 10
221.7116506832
 20
123.6202311716
 30
0.0
 11
221.7116506832
 21
125.8565799198
 31
0.0
  0
LINE
  5
166
330
1F
100
AcDbEntity
  8
0
  6
Continuous
 62
     7
370
    18
100
AcDbLine
 10
221.1261342484
 20
123.6202311716
 30
0.0
 11
221.7116506832
 21
123.6202311716
 31
0.0
  0
LINE
  5
167
330
1F
100
AcDbEntity
  8
0
  6
Continuous
 62
     7
370
    18
100
AcDbLine
 10
221.1261342484
 20
124.5420443179
 30
0.0
 11
221.1261342484
 21
123.6202311716
 31
0.0
  0
LINE
  5
168
330
1F
100
AcDbEntity
  8
0
  6
Continuous
 62
     7
370
    18
100
AcDbLine
 10
220.3548680214
 20
124.5420443179
 30
0.0
 11
221.1261342484
 21
124.5420443179
 31
0.0
  0
LINE
  5
169
330
1F
100
AcDbEntity
  8
0
  6
Continuous
 62
     7
370
    18
100
AcDbLine
 10
220.3548680214
 20
123.6202311716
 30
0.0
 11
220.3548680214
 21
124.5420443179
 31
0.0
  0
LINE
  5
16A
330
1F
100
AcDbEntity
  8
0
  6
Continuous
 62
     7
370
    18
100
AcDbLine
 10
219.7694238347
 20
123.6202311716
 30
0.0
 11
220.3548680214
 21
123.6202311716
 31
0.0
  0
LINE
  5
16B
330
1F
100
AcDbEntity
  8
0
  6
Continuous
 62
     7
370
    18
100
AcDbLine
 10
219.7694238347
 20
125.3571470624
 30
0.0
 11
219.7694238347
 21
123.6202311716
 31
0.0
  0
LINE
  5
16C
330
1F
100
AcDbEntity
  8
0
  6
Continuous
 62
     7
370
    18
100
AcDbLine
 10
219.1620523583
 20
125.3571470624
 30
0.0
 11
219.7694238347
 21
125.3571470624
 31
0.0
  0
LINE
  5
16D
330
1F
100
AcDbEntity
  8
0
  6
Continuous
 62
     7
370
    18
100
AcDbLine
 10
219.1620523583
 20
123.6202311716
 30
0.0
 11
219.1620523583
 21
125.3571470624
 31
0.0
  0
LINE
  5
16E
330
1F
100
AcDbEntity
  8
0
  6
Continuous
 62
     7
370
    18
100
AcDbLine
 10
218.5765539855
 20
123.6202311716
 30
0.0
 11
219.1620523583
 21
123.6202311716
 31
0.0
  0
SPLINE
  5
16F
330
1F
100
AcDbEntity
  8
0
  6
Continuous
 62
     7
370
    18
100
AcDbSpline
210
0.0
220
0.0
230
1.0
 70
     8
 71
     3
 72
    12
 73
     8
 74
     0
 42
0.000000001
 43
0.00000001
 40
0.0
 40
0.0
 40
0.0
 40
0.0
 40
0.1970292569794094
 40
0.3714318737747126
 40
0.5434083414909575
 40
0.7603083066182443
 40
1.0
 40
1.0
 40
1.0
 40
1.0
 10
225.2743154042641
 20
125.1502827712132
 30
0.0
 10
225.2721056915463
 20
125.1787209333761
 30
0.0
 10
225.2679400272797
 20
125.232331447981
 30
0.0
 10
225.2279025336268
 20
125.3020639820345
 30
0.0
 10
225.1644410160458
 20
125.3538557553706
 30
0.0
 10
225.0784434482381
 20
125.3863180475098
 30
0.0
 10
225.012878454578
 20
125.3898589419122
 30
0.0
 10
224.9784595508068
 20
125.3917177646908
 30
0.0
  0
SPLINE
  5
170
330
1F
100
AcDbEntity
  8
0
  6
Continuous
 62
     7
370
    18
100
AcDbSpline
210
0.0
220
0.0
230
1.0
 70
     8
 71
     3
 72
    12
 73
     8
 74
     0
 42
0.000000001
 43
0.00000001
 40
0.0
 40
0.0
 40
0.0
 40
0.0
 40
0.2111291888127911
 40
0.3927062339152224
 40
0.5599129747574149
 40
0.7634359056262745
 40
1.0
 40
1.0
 40
1.0
 40
1.0
 10
225.0036380037811
 20
124.8869927360577
 30
0.0
 10
225.033935958648
 20
124.8885313574736
 30
0.0
 10
225.0902910075071
 20
124.8913932366152
 30
0.0
 10
225.166615977317
 20
124.9205722602365
 30
0.0
 10
225.2279400755884
 20
124.9727326690295
 30
0.0
 10
225.2683876003786
 20
125.052932468006
 30
0.0
 10
225.2722429839028
 20
125.1162481178333
 30
0.0
 10
225.2743154042641
 20
125.1502827712132
 30
0.0
  0
LINE
  5
171
330
1F
100
AcDbEntity
  8
0
  6
Continuous
 62
     7
370
    18
100
AcDbLine
 10
224.5125678607
 20
124.8869927361
 30
0.0
 11
225.0036380038
 21
124.8869927361
 31
0.0
  0
LINE
  5
172
330
1F
100
AcDbEntity
  8
0
  6
Continuous
 62
     7
370
    18
100
AcDbLine
 10
224.5125678607
 20
125.3917177647
 30
0.0
 11
224.5125678607
 21
124.8869927361
 31
0.0
  0
LINE
  5
173
330
1F
100
AcDbEntity
  8
0
  6
Continuous
 62
     7
370
    18
100
AcDbLine
 10
224.9784595508
 20
125.3917177647
 30
0.0
 11
224.5125678607
 21
125.3917177647
 31
0.0
  0
SPLINE
  5
174
330
1F
100
AcDbEntity
  8
0
  6
Continuous
 62
     7
370
    18
100
AcDbSpline
210
0.0
220
0.0
230
1.0
 70
     8
 71
     3
 72
    14
 73
    10
 74
     0
 42
0.000000001
 43
0.00000001
 40
0.0
 40
0.0
 40
0.0
 40
0.0
 40
0.2575826845002084
 40
0.4580339644254267
 40
0.6128287983994983
 40
0.7093883131761983
 40
0.799802888308482
 40
0.8941338805613361
 40
1.0
 40
1.0
 40
1.0
 40
1.0
 10
231.894424272703
 20
124.2142548167737
 30
0.0
 10
231.9225015478862
 20
124.2071407531588
 30
0.0
 10
231.9724286060165
 20
124.1944905132291
 30
0.0
 10
232.0411152954227
 20
124.186894196535
 30
0.0
 10
232.0923194167311
 20
124.1915870774497
 30
0.0
 10
232.1282470669768
 20
124.2066961029521
 30
0.0
 10
232.1523391970231
 20
124.2279370381667
 30
0.0
 10
232.1696482165838
 20
124.2561807836362
 30
0.0
 10
232.1759840793564
 20
124.2778340093597
 30
0.0
 10
232.1793345433035
 20
124.2892844391951
 30
0.0
  0
SPLINE
  5
175
330
1F
100
AcDbEntity
  8
0
  6
Continuous
 62
     7
370
    18
100
AcDbSpline
210
0.0
220
0.0
230
1.0
 70
     8
 71
     3
 72
    12
 73
     8
 74
     0
 42
0.000000001
 43
0.00000001
 40
0.0
 40
0.0
 40
0.0
 40
0.0
 40
0.2545415383352844
 40
0.4933538848768417
 40
0.6299818928893286
 40
0.7933578680691682
 40
1.0
 40
1.0
 40
1.0
 40
1.0
 10
231.6948028507
 20
124.4979007461201
 30
0.0
 10
231.6946481558972
 20
124.4652382969708
 30
0.0
 10
231.6943483255338
 20
124.4019317487242
 30
0.0
 10
231.7193421488516
 20
124.3217259039736
 30
0.0
 10
231.767399585688
 20
124.2705003321885
 30
0.0
 10
231.8235953606366
 20
124.2363761504376
 30
0.0
 10
231.8690432313188
 20
124.2221818407646
 30
0.0
 10
231.894424272703
 20
124.2142548167737
 30
0.0
  0
SPLINE
  5
176
330
1F
100
AcDbEntity
  8
0
  6
Continuous
 62
     7
370
    18
100
AcDbSpline
210
0.0
220
0.0
230
1.0
 70
     8
 71
     3
 72
    14
 73
    10
 74
     0
 42
0.000000001
 43
0.00000001
 40
0.0
 40
0.0
 40
0.0
 40
0.0
 40
0.0123761948722824
 40
0.0260544786030442
 40
0.0423069896659065
 40
0.1107691877094743
 40
0.3353734156282144
 40
0.6465637489690628
 40
1.0
 40
1.0
 40
1.0
 40
1.0
 10
232.1793345433035
 20
124.2892844391951
 30
0.0
 10
232.1796007827728
 20
124.2915210591784
 30
0.0
 10
232.1801612725378
 20
124.2962296120172
 30
0.0
 10
232.177319884836
 20
124.3035354551688
 30
0.0
 10
232.1671965140246
 20
124.318070295746
 30
0.0
 10
232.120825486069
 20
124.3508474517663
 30
0.0
 10
232.0211124842117
 20
124.3933598227324
 30
0.0
 10
231.8701717891973
 20
124.4461820109615
 30
0.0
 10
231.7556848886395
 20
124.4799457877159
 30
0.0
 10
231.6948028507
 20
124.4979007461201
 30
0.0
  0
LINE
  5
177
330
1F
100
AcDbEntity
  8
0
  6
Continuous
 62
     7
370
    18
100
AcDbLine
 10
231.1712933234
 20
124.5019105141
 30
0.0
 11
231.681003469
 21
124.5019105141
 31
0.0
  0
SPLINE
  5
178
330
1F
100
AcDbEntity
  8
0
  6
Continuous
 62
     7
370
    18
100
AcDbSpline
210
0.0
220
0.0
230
1.0
 70
     8
 71
     3
 72
    11
 73
     7
 74
     0
 42
0.000000001
 43
0.00000001
 40
0.0
 40
0.0
 40
0.0
 40
0.0
 40
0.2403133392799475
 40
0.5276554281052306
 40
0.7630136347472214
 40
0.9999999999999999
 40
0.9999999999999999
 40
0.9999999999999999
 40
0.9999999999999999
 10
230.9555605814508
 20
124.8429033503257
 30
0.0
 10
230.9822564291981
 20
124.8225955153659
 30
0.0
 10
231.0408724386711
 20
124.7780056503933
 30
0.0
 10
231.1085537586513
 20
124.695246288728
 30
0.0
 10
231.160305405779
 20
124.6009434679972
 30
0.0
 10
231.1676222771986
 20
124.5349972703008
 30
0.0
 10
231.1712933234346
 20
124.5019105140973
 30
0.0
  0
SPLINE
  5
179
330
1F
100
AcDbEntity
  8
0
  6
Continuous
 62
     7
370
    18
100
AcDbSpline
210
0.0
220
0.0
230
1.0
 70
     8
 71
     3
 72
    10
 73
     6
 74
     0
 42
0.000000001
 43
0.00000001
 40
0.0
 40
0.0
 40
0.0
 40
0.0
 40
0.3052209345869945
 40
0.5892711010915033
 40
1.0
 40
1.0
 40
1.0
 40
1.0
 10
231.0808748617492
 20
125.0238486458041
 30
0.0
 10
231.0733738720676
 20
125.002302934329
 30
0.0
 10
231.0588921771769
 20
124.9607059673912
 30
0.0
 10
231.011966900689
 20
124.9021866406575
 30
0.0
 10
230.9765171969976
 20
124.8649288457066
 30
0.0
 10
230.9555605814508
 20
124.8429033503257
 30
0.0
  0
SPLINE
  5
17A
330
1F
100
AcDbEntity
  8
0
  6
Continuous
 62
     7
370
    18
100
AcDbSpline
210
0.0
220
0.0
230
1.0
 70
     8
 71
     3
 72
    11
 73
     7
 74
     0
 42
0.000000001
 43
0.00000001
 40
0.0
 40
0.0
 40
0.0
 40
0.0
 40
0.3113820865694044
 40
0.595215242902464
 40
0.7995709864930255
 40
1.0
 40
1.0
 40
1.0
 40
1.0
 10
231.5819152387275
 20
124.5297621457232
 30
0.0
 10
231.5076113639992
 20
124.555069697839
 30
0.0
 10
231.3655775067137
 20
124.6034457651519
 30
0.0
 10
231.203550653134
 20
124.7265193161976
 30
0.0
 10
231.0996633563069
 20
124.871071364706
 30
0.0
 10
231.0870970589503
 20
124.97325330045
 30
0.0
 10
231.0808748617492
 20
125.0238486458041
 30
0.0
  0
SPLINE
  5
17B
330
1F
100
AcDbEntity
  8
0
  6
Continuous
 62
     7
370
    18
100
AcDbSpline
210
0.0
220
0.0
230
1.0
 70
     8
 71
     3
 72
     9
 73
     5
 74
     0
 42
0.000000001
 43
0.00000001
 40
0.0
 40
0.0
 40
0.0
 40
0.0
 40
0.5632377239369556
 40
1.0
 40
1.0
 40
1.0
 40
1.0
 10
231.6810034690125
 20
124.5019105140973
 30
0.0
 10
231.6624172533282
 20
124.5072007837544
 30
0.0
 10
231.629418370451
 20
124.5165933891006
 30
0.0
 10
231.5963557458854
 20
124.5257589670407
 30
0.0
 10
231.5819152387275
 20
124.5297621457232
 30
0.0
  0
SPLINE
  5
17C
330
1F
100
AcDbEntity
  8
0
  6
Continuous
 62
     7
370
    18
100
AcDbSpline
210
0.0
220
0.0
230
1.0
 70
     8
 71
     3
 72
    13
 73
     9
 74
     0
 42
0.000000001
 43
0.00000001
 40
0.0
 40
0.0
 40
0.0
 40
0.0
 40
0.2070940199890579
 40
0.3978649646626727
 40
0.573936928003727
 40
0.7077750174858425
 40
0.8462504046616478
 40
1.0
 40
1.0
 40
1.0
 40
1.0
 10
230.3175378606006
 20
123.7226428131472
 30
0.0
 10
230.3889768528898
 20
123.7251093686854
 30
0.0
 10
230.5262240420853
 20
123.7298480667514
 30
0.0
 10
230.7199800880369
 20
123.7762774999272
 30
0.0
 10
230.8762639520686
 20
123.8547535161877
 30
0.0
 10
230.9894920257018
 20
123.9622848061177
 30
0.0
 10
231.06579629625
 20
124.0908571495188
 30
0.0
 10
231.0859731053838
 20
124.1901053219332
 30
0.0
 10
231.0965888173358
 20
124.2423231926145
 30
0.0
  0
LINE
  5
17D
330
1F
100
AcDbEntity
  8
0
  6
Continuous
 62
     7
370
    18
100
AcDbLine
 10
228.8390171981
 20
123.7226428131
 30
0.0
 11
230.3175378606
 21
123.7226428131
 31
0.0
  0
LINE
  5
17E
330
1F
100
AcDbEntity
  8
0
  6
Continuous
 62
     7
370
    18
100
AcDbLine
 10
228.6884160927
 20
124.0660740218
 30
0.0
 11
228.8390171981
 21
123.7226428131
 31
0.0
  0
LINE
  5
17F
330
1F
100
AcDbEntity
  8
0
  6
Continuous
 62
     7
370
    18
100
AcDbLine
 10
228.0350045326
 20
124.0660740218
 30
0.0
 11
228.6884160927
 21
124.0660740218
 31
0.0
  0
LINE
  5
180
330
1F
100
AcDbEntity
  8
0
  6
Continuous
 62
     7
370
    18
100
AcDbLine
 10
227.8814412563
 20
123.7254243639
 30
0.0
 11
228.0350045326
 21
124.0660740218
 31
0.0
  0
LINE
  5
181
330
1F
100
AcDbEntity
  8
0
  6
Continuous
 62
     7
370
    18
100
AcDbLine
 10
226.012022402
 20
123.7254243639
 30
0.0
 11
227.8814412563
 21
123.7254243639
 31
0.0
  0
LINE
  5
182
330
1F
100
AcDbEntity
  8
0
  6
Continuous
 62
     7
370
    18
100
AcDbLine
 10
226.012022402
 20
125.7456610678
 30
0.0
 11
226.012022402
 21
123.7254243639
 31
0.0
  0
LINE
  5
183
330
1F
100
AcDbEntity
  8
0
  6
Continuous
 62
     7
370
    18
100
AcDbLine
 10
226.5390720848
 20
125.7456610678
 30
0.0
 11
226.012022402
 21
125.7456610678
 31
0.0
  0
LINE
  5
184
330
1F
100
AcDbEntity
  8
0
  6
Continuous
 62
     7
370
    18
100
AcDbLine
 10
226.5390720848
 20
124.1823934172
 30
0.0
 11
226.5390720848
 21
125.7456610678
 31
0.0
  0
LINE
  5
185
330
1F
100
AcDbEntity
  8
0
  6
Continuous
 62
     7
370
    18
100
AcDbLine
 10
227.5085328344
 20
124.1823934172
 30
0.0
 11
226.5390720848
 21
124.1823934172
 31
0.0
  0
LINE
  5
186
330
1F
100
AcDbEntity
  8
0
  6
Continuous
 62
     7
370
    18
100
AcDbLine
 10
228.0967766338
 20
125.7456610678
 30
0.0
 11
227.5085328344
 21
124.1823934172
 31
0.0
  0
LINE
  5
187
330
1F
100
AcDbEntity
  8
0
  6
Continuous
 62
     7
370
    18
100
AcDbLine
 10
228.632243217
 20
125.7456610678
 30
0.0
 11
228.0967766338
 21
125.7456610678
 31
0.0
  0
LINE
  5
188
330
1F
100
AcDbEntity
  8
0
  6
Continuous
 62
     7
370
    18
100
AcDbLine
 10
229.3457651727
 20
123.8622622116
 30
0.0
 11
228.632243217
 21
125.7456610678
 31
0.0
  0
LINE
  5
189
330
1F
100
AcDbEntity
  8
0
  6
Continuous
 62
     7
370
    18
100
AcDbLine
 10
229.3457651727
 20
125.7456610678
 30
0.0
 11
229.3457651727
 21
123.8622622116
 31
0.0
  0
LINE
  5
18A
330
1F
100
AcDbEntity
  8
0
  6
Continuous
 62
     7
370
    18
100
AcDbLine
 10
230.2919981673
 20
125.7456610678
 30
0.0
 11
229.3457651727
 21
125.7456610678
 31
0.0
  0
SPLINE
  5
18B
330
1F
100
AcDbEntity
  8
0
  6
Continuous
 62
     7
370
    18
100
AcDbSpline
210
0.0
220
0.0
230
1.0
 70
     8
 71
     3
 72
    14
 73
    10
 74
     0
 42
0.000000001
 43
0.00000001
 40
0.0
 40
0.0
 40
0.0
 40
0.0
 40
0.1423816612635871
 40
0.2654010250778279
 40
0.3802085707899266
 40
0.4953201289099343
 40
0.6562432766114735
 40
0.8263515868701822
 40
1.0
 40
1.0
 40
1.0
 40
1.0
 10
231.0229680323118
 20
125.2405567367553
 30
0.0
 10
231.0201441710682
 20
125.2886596474853
 30
0.0
 10
231.014880461809
 20
125.3783240165036
 30
0.0
 10
230.9642999933085
 20
125.4985672372153
 30
0.0
 10
230.8870776997901
 20
125.5907685374059
 30
0.0
 10
230.7770728484664
 20
125.6652914608566
 30
0.0
 10
230.6345179618242
 20
125.7164091731443
 30
0.0
 10
230.466212185811
 20
125.7438918262138
 30
0.0
 10
230.3504668327871
 20
125.7450672855115
 30
0.0
 10
230.291998167268
 20
125.7456610677647
 30
0.0
  0
SPLINE
  5
18C
330
1F
100
AcDbEntity
  8
0
  6
Continuous
 62
     7
370
    18
100
AcDbSpline
210
0.0
220
0.0
230
1.0
 70
     8
 71
     3
 72
    11
 73
     7
 74
     0
 42
0.000000001
 43
0.00000001
 40
0.0
 40
0.0
 40
0.0
 40
0.0
 40
0.2840562052455227
 40
0.5588619016419673
 40
0.775099383828569
 40
1.0
 40
1.0
 40
1.0
 40
1.0
 10
230.7566255161286
 20
124.8342516437442
 30
0.0
 10
230.7985316881117
 20
124.8591062145095
 30
0.0
 10
230.8809793253489
 20
124.9080059478226
 30
0.0
 10
230.96491816566
 20
125.0133208784348
 30
0.0
 10
231.0145484323131
 20
125.1266629571166
 30
0.0
 10
231.0201249945329
 20
125.2020983398782
 30
0.0
 10
231.0229680323118
 20
125.2405567367553
 30
0.0
  0
SPLINE
  5
18D
330
1F
100
AcDbEntity
  8
0
  6
Continuous
 62
     7
370
    18
100
AcDbSpline
210
0.0
220
0.0
230
1.0
 70
     8
 71
     3
 72
    11
 73
     7
 74
     0
 42
0.000000001
 43
0.00000001
 40
0.0
 40
0.0
 40
0.0
 40
0.0
 40
0.2849839497112115
 40
0.5578557580525009
 40
0.7738896021956493
 40
1.0
 40
1.0
 40
1.0
 40
1.0
 10
231.1026215313195
 20
124.4081325170796
 30
0.0
 10
231.0929238964303
 20
124.4631829484866
 30
0.0
 10
231.0739407871431
 20
124.5709441054739
 30
0.0
 10
230.9875835956237
 20
124.6988310640071
 30
0.0
 10
230.8792738973722
 20
124.7890636562897
 30
0.0
 10
230.7981247779719
 20
124.8189618526802
 30
0.0
 10
230.7566255161286
 20
124.8342516437442
 30
0.0
  0
LINE
  5
18E
330
1F
100
AcDbEntity
  8
0
  6
Continuous
 62
     7
370
    18
100
AcDbLine
 10
231.606371211
 20
124.4081325171
 30
0.0
 11
231.1026215313
 21
124.4081325171
 31
0.0
  0
SPLINE
  5
18F
330
1F
100
AcDbEntity
  8
0
  6
Continuous
 62
     7
370
    18
100
AcDbSpline
210
0.0
220
0.0
230
1.0
 70
     8
 71
     3
 72
    12
 73
     8
 74
     0
 42
0.000000001
 43
0.00000001
 40
0.0
 40
0.0
 40
0.0
 40
0.0
 40
0.3029848175181646
 40
0.5555954840373251
 40
0.686125306864035
 40
0.8302562633026846
 40
1.0
 40
1.0
 40
1.0
 40
1.0
 10
231.9887802542941
 20
124.0949010023875
 30
0.0
 10
231.9319160557054
 20
124.0971697804181
 30
0.0
 10
231.8276418805237
 20
124.1013301302284
 30
0.0
 10
231.7067510829968
 20
124.1603325456656
 30
0.0
 10
231.6453863875071
 20
124.2392828526153
 30
0.0
 10
231.6147379973167
 20
124.317803743474
 30
0.0
 10
231.6093078434385
 20
124.3764283002482
 30
0.0
 10
231.6063712109852
 20
124.4081325170796
 30
0.0
  0
SPLINE
  5
190
330
1F
100
AcDbEntity
  8
0
  6
Continuous
 62
     7
370
    18
100
AcDbSpline
210
0.0
220
0.0
230
1.0
 70
     8
 71
     3
 72
    12
 73
     8
 74
     0
 42
0.000000001
 43
0.00000001
 40
0.0
 40
0.0
 40
0.0
 40
0.0
 40
0.1228977808113465
 40
0.236151700365539
 40
0.4654549568724362
 40
0.7229435422785258
 40
1.0
 40
1.0
 40
1.0
 40
1.0
 10
232.3118013826964
 20
124.3009525027685
 30
0.0
 10
232.3104801306299
 20
124.2834263939722
 30
0.0
 10
232.3079413059247
 20
124.2497494604611
 30
0.0
 10
232.2781309105318
 20
124.189094775459
 30
0.0
 10
232.2088846126844
 20
124.1340835502893
 30
0.0
 10
232.1041154911084
 20
124.1006634152019
 30
0.0
 10
232.0281522516706
 20
124.0968681176289
 30
0.0
 10
231.9887802542941
 20
124.0949010023875
 30
0.0
  0
SPLINE
  5
191
330
1F
100
AcDbEntity
  8
0
  6
Continuous
 62
     7
370
    18
100
AcDbSpline
210
0.0
220
0.0
230
1.0
 70
     8
 71
     3
 72
    12
 73
     8
 74
     0
 42
0.000000001
 43
0.00000001
 40
0.0
 40
0.0
 40
0.0
 40
0.0
 40
0.32103069194576
 40
0.60295929760987
 40
0.8214028303124052
 40
0.910411712195422
 40
1.0
 40
1.0
 40
1.0
 40
1.0
 10
231.730963010567
 20
124.5943519217893
 30
0.0
 10
231.8023381062095
 20
124.575959148585
 30
0.0
 10
231.9363946890073
 20
124.5414138733494
 30
0.0
 10
232.1179788631095
 20
124.4934391532475
 30
0.0
 10
232.2439607300835
 20
124.436334513767
 30
0.0
 10
232.3044462007622
 20
124.3632693532743
 30
0.0
 10
232.3093443585082
 20
124.3217696641105
 30
0.0
 10
232.3118013826964
 20
124.3009525027685
 30
0.0
  0
SPLINE
  5
192
330
1F
100
AcDbEntity
  8
0
  6
Continuous
 62
     7
370
    18
100
AcDbSpline
210
0.0
220
0.0
230
1.0
 70
     8
 71
     3
 72
    12
 73
     8
 74
     0
 42
0.000000001
 43
0.00000001
 40
0.0
 40
0.0
 40
0.0
 40
0.0
 40
0.2059303301559957
 40
0.3857152088822404
 40
0.5622731912300376
 40
0.7785006333333759
 40
1.0
 40
1.0
 40
1.0
 40
1.0
 10
231.1388539392582
 20
125.1756779684025
 30
0.0
 10
231.1438227809826
 20
125.1132781224477
 30
0.0
 10
231.1531296073358
 20
124.9964008776123
 30
0.0
 10
231.2419556370561
 20
124.8464664264861
 30
0.0
 10
231.3742232782403
 20
124.7337325321975
 30
0.0
 10
231.5413153252042
 20
124.651672637626
 30
0.0
 10
231.6672415690302
 20
124.6136116276806
 30
0.0
 10
231.730963010567
 20
124.5943519217893
 30
0.0
  0
SPLINE
  5
193
330
1F
100
AcDbEntity
  8
0
  6
Continuous
 62
     7
370
    18
100
AcDbSpline
210
0.0
220
0.0
230
1.0
 70
     8
 71
     3
 72
    14
 73
    10
 74
     0
 42
0.000000001
 43
0.00000001
 40
0.0
 40
0.0
 40
0.0
 40
0.0
 40
0.1687571149027793
 40
0.3389805425085121
 40
0.5046286467510827
 40
0.6247827513896885
 40
0.7433698504427207
 40
0.8656643973442371
 40
1.0
 40
1.0
 40
1.0
 40
1.0
 10
231.9632766849973
 20
125.7879442517051
 30
0.0
 10
231.8987410986694
 20
125.785116030054
 30
0.0
 10
231.7691091831372
 20
125.7794350126333
 30
0.0
 10
231.5806258467274
 20
125.7331312159536
 30
0.0
 10
231.4204944385887
 20
125.6612259852179
 30
0.0
 10
231.2962388533412
 20
125.5672320119748
 30
0.0
 10
231.2084159008503
 20
125.4592528490265
 30
0.0
 10
231.1491325409542
 20
125.3256957178203
 30
0.0
 10
231.1423856607593
 20
125.2272239789239
 30
0.0
 10
231.1388539392582
 20
125.1756779684025
 30
0.0
  0
SPLINE
  5
194
330
1F
100
AcDbEntity
  8
0
  6
Continuous
 62
     7
370
    18
100
AcDbSpline
210
0.0
220
0.0
230
1.0
 70
     8
 71
     3
 72
    12
 73
     8
 74
     0
 42
0.000000001
 43
0.00000001
 40
0.0
 40
0.0
 40
0.0
 40
0.0
 40
0.1993974480574494
 40
0.3779257523812743
 40
0.5550669356786562
 40
0.7731143074051403
 40
1.0
 40
1.0
 40
1.0
 40
1.0
 10
232.773647180798
 20
125.1390120720339
 30
0.0
 10
232.7662602868901
 20
125.2167639061405
 30
0.0
 10
232.7522596190526
 20
125.3641299867501
 30
0.0
 10
232.6321319216918
 20
125.5511464725646
 30
0.0
 10
232.4533150008878
 20
125.6869086469343
 30
0.0
 10
232.2236023273661
 20
125.7724248870996
 30
0.0
 10
232.0511934974724
 20
125.7827030735586
 30
0.0
 10
231.9632766849973
 20
125.7879442517051
 30
0.0
  0
LINE
  5
195
330
1F
100
AcDbEntity
  8
0
  6
Continuous
 62
     7
370
    18
100
AcDbLine
 10
232.2466697461
 20
125.139012072
 30
0.0
 11
232.7736471808
 21
125.139012072
 31
0.0
  0
SPLINE
  5
196
330
1F
100
AcDbEntity
  8
0
  6
Continuous
 62
     7
370
    18
100
AcDbSpline
210
0.0
220
0.0
230
1.0
 70
     8
 71
     3
 72
    13
 73
     9
 74
     0
 42
0.000000001
 43
0.00000001
 40
0.0
 40
0.0
 40
0.0
 40
0.0
 40
0.2626041787201669
 40
0.5099839566452471
 40
0.6263386331431503
 40
0.7414049134888266
 40
0.8625801387792145
 40
1.0
 40
1.0
 40
1.0
 40
1.0
 10
231.920758694824
 20
125.3816391586939
 30
0.0
 10
231.9611012524298
 20
125.3796191254919
 30
0.0
 10
232.0394475196115
 20
125.3756961699247
 30
0.0
 10
232.1321823331724
 20
125.3427756065319
 30
0.0
 10
232.1914319212261
 20
125.2982353583217
 30
0.0
 10
232.2248172919853
 20
125.2548150479159
 30
0.0
 10
232.2456720656364
 20
125.2001665406586
 30
0.0
 10
232.2463235442369
 20
125.1602330856334
 30
0.0
 10
232.2466697460928
 20
125.1390120720339
 30
0.0
  0
SPLINE
  5
197
330
1F
100
AcDbEntity
  8
0
  6
Continuous
 62
     7
370
    18
100
AcDbSpline
210
0.0
220
0.0
230
1.0
 70
     8
 71
     3
 72
    12
 73
     8
 74
     0
 42
0.000000001
 43
0.00000001
 40
0.0
 40
0.0
 40
0.0
 40
0.0
 40
0.1338350776842959
 40
0.2542572338768597
 40
0.4899325118164007
 40
0.7434916633797851
 40
1.0
 40
1.0
 40
1.0
 40
1.0
 10
231.6659036220351
 20
125.2095442519942
 30
0.0
 10
231.667011607534
 20
125.2249207802102
 30
0.0
 10
231.6691165364735
 20
125.2541328044304
 30
0.0
 10
231.6939204921403
 20
125.3057894417179
 30
0.0
 10
231.7505150758714
 20
125.3511206756794
 30
0.0
 10
231.8330209902952
 20
125.3771644401485
 30
0.0
 10
231.8914002779272
 20
125.3801418474381
 30
0.0
 10
231.920758694824
 20
125.3816391586939
 30
0.0
  0
SPLINE
  5
198
330
1F
100
AcDbEntity
  8
0
  6
Continuous
 62
     7
370
    18
100
AcDbSpline
210
0.0
220
0.0
230
1.0
 70
     8
 71
     3
 72
    12
 73
     8
 74
     0
 42
0.000000001
 43
0.00000001
 40
0.0
 40
0.0
 40
0.0
 40
0.0
 40
0.3295920737084782
 40
0.6175980183821552
 40
0.8358975487564532
 40
0.9197397490046709
 40
1.0
 40
1.0
 40
1.0
 40
1.0
 10
232.2523050956825
 20
124.9442493328501
 30
0.0
 10
232.1803081143989
 20
124.9624143718037
 30
0.0
 10
232.0453983379899
 20
124.9964524842359
 30
0.0
 10
231.8629164894134
 20
125.0408438993809
 30
0.0
 10
231.7372506038975
 20
125.0895634731705
 30
0.0
 10
231.6739145145446
 20
125.1537396367727
 30
0.0
 10
231.6685347774349
 20
125.1912153810849
 30
0.0
 10
231.6659036220351
 20
125.2095442519942
 30
0.0
  0
SPLINE
  5
199
330
1F
100
AcDbEntity
  8
0
  6
Continuous
 62
     7
370
    18
100
AcDbSpline
210
0.0
220
0.0
230
1.0
 70
     8
 71
     3
 72
    12
 73
     8
 74
     0
 42
0.000000001
 43
0.00000001
 40
0.0
 40
0.0
 40
0.0
 40
0.0
 40
0.2045378821184091
 40
0.3838943514216822
 40
0.5601975822227004
 40
0.7766167962242722
 40
1.0
 40
1.0
 40
1.0
 40
1.0
 10
232.8387788174016
 20
124.3630135963265
 30
0.0
 10
232.8339148585735
 20
124.424640116934
 30
0.0
 10
232.8247857608225
 20
124.5403060899751
 30
0.0
 10
232.7381142013418
 20
124.6895239560835
 30
0.0
 10
232.6080389865681
 20
124.8031560173442
 30
0.0
 10
232.4420909187606
 20
124.886775926614
 30
0.0
 10
232.3162313386718
 20
124.9248903582287
 30
0.0
 10
232.2523050956825
 20
124.9442493328501
 30
0.0
  0
SPLINE
  5
19A
330
1F
100
AcDbEntity
  8
0
  6
Continuous
 62
     7
370
    18
100
AcDbSpline
210
0.0
220
0.0
230
1.0
 70
     8
 71
     3
 72
    13
 73
     9
 74
     0
 42
0.000000001
 43
0.00000001
 40
0.0
 40
0.0
 40
0.0
 40
0.0
 40
0.194398482939095
 40
0.3808229110812389
 40
0.5574598692554734
 40
0.6939226743571316
 40
0.8373010797229361
 40
1.0
 40
1.0
 40
1.0
 40
1.0
 10
231.9575690873359
 20
123.66256854156
 30
0.0
 10
232.039810614744
 20
123.6662457764439
 30
0.0
 10
232.2009201944372
 20
123.6734494092709
 30
0.0
 10
232.429683361812
 20
123.7382298192454
 30
0.0
 10
232.6154205836623
 20
123.845130873198
 30
0.0
 10
232.7459758107449
 20
123.990395475649
 30
0.0
 10
232.8256672755857
 20
124.1640157147728
 30
0.0
 10
232.8342281736453
 20
124.2939470837888
 30
0.0
 10
232.8387788174016
 20
124.3630135963265
 30
0.0
  0
SPLINE
  5
19B
330
1F
100
AcDbEntity
  8
0
  6
Continuous
 62
     7
370
    18
100
AcDbSpline
210
0.0
220
0.0
230
1.0
 70
     8
 71
     3
 72
    12
 73
     8
 74
     0
 42
0.000000001
 43
0.00000001
 40
0.0
 40
0.0
 40
0.0
 40
0.0
 40
0.1886637132768444
 40
0.3661825608804922
 40
0.5448728808045997
 40
0.765657932177318
 40
1.0
 40
1.0
 40
1.0
 40
1.0
 10
231.0965888173358
 20
124.2423231926145
 30
0.0
 10
231.116824405763
 20
124.1738069856438
 30
0.0
 10
231.1561002127665
 20
124.0408220056782
 30
0.0
 10
231.2894062326743
 20
123.8790168240774
 30
0.0
 10
231.4699860862215
 20
123.7563875553886
 30
0.0
 10
231.6982775892453
 20
123.6768151392859
 30
0.0
 10
231.869439107091
 20
123.6674107843076
 30
0.0
 10
231.9575690873359
 20
123.66256854156
 30
0.0
  0
LINE
  5
19C
330
1F
100
AcDbEntity
  8
0
  6
Continuous
 62
     7
370
    18
100
AcDbLine
 10
228.6651160896
 20
124.4048452298
 30
0.0
 11
228.4096830322
 21
125.2133914618
 31
0.0
  0
LINE
  5
19D
330
1F
100
AcDbEntity
  8
0
  6
Continuous
 62
     7
370
    18
100
AcDbLine
 10
228.4096830322
 20
125.2133914618
 30
0.0
 11
228.3273924786
 21
125.2133914618
 31
0.0
  0
LINE
  5
19E
330
1F
100
AcDbEntity
  8
0
  6
Continuous
 62
     7
370
    18
100
AcDbLine
 10
228.3273924786
 20
125.2133914618
 30
0.0
 11
228.0631812805
 21
124.4048452298
 31
0.0
  0
LINE
  5
19F
330
1F
100
AcDbEntity
  8
0
  6
Continuous
 62
     7
370
    18
100
AcDbLine
 10
228.0631812805
 20
124.4048452298
 30
0.0
 11
228.6651160896
 21
124.4048452298
 31
0.0
  0
LINE
  5
1A0
330
1F
100
AcDbEntity
  8
0
  6
Continuous
 62
     7
370
    18
100
AcDbLine
 10
229.8260342291
 20
124.8753427345
 30
0.0
 11
230.2950687103
 21
124.8753427345
 31
0.0
  0
SPLINE
  5
1A1
330
1F
100
AcDbEntity
  8
0
  6
Continuous
 62
     7
370
    18
100
AcDbSpline
210
0.0
220
0.0
230
1.0
 70
     8
 71
     3
 72
    12
 73
     8
 74
     0
 42
0.000000001
 43
0.00000001
 40
0.0
 40
0.0
 40
0.0
 40
0.0
 40
0.242466320512139
 40
0.5040777209641409
 40
0.6506173645415594
 40
0.8119564965868004
 40
0.9999999999999999
 40
0.9999999999999999
 40
0.9999999999999999
 40
0.9999999999999999
 10
230.2950687103136
 20
124.8753427345021
 30
0.0
 10
230.3265369088254
 20
124.8783357569695
 30
0.0
 10
230.3919580269219
 20
124.8845581302088
 30
0.0
 10
230.4675349420603
 20
124.9296380710606
 30
0.0
 10
230.5136685132541
 20
124.9878806828127
 30
0.0
 10
230.5385208245755
 20
125.0483764121927
 30
0.0
 10
230.5412370555665
 20
125.0937602399175
 30
0.0
 10
230.5426989759364
 20
125.1181865653772
 30
0.0
  0
SPLINE
  5
1A2
330
1F
100
AcDbEntity
  8
0
  6
Continuous
 62
     7
370
    18
100
AcDbSpline
210
0.0
220
0.0
230
1.0
 70
     8
 71
     3
 72
    12
 73
     8
 74
     0
 42
0.000000001
 43
0.00000001
 40
0.0
 40
0.0
 40
0.0
 40
0.0
 40
0.23250610395507
 40
0.4222580038951598
 40
0.5928278045028524
 40
0.7922143842709269
 40
1.0
 40
1.0
 40
1.0
 40
1.0
 10
230.5426989759364
 20
125.1181865653772
 30
0.0
 10
230.5408772793214
 20
125.1490564874091
 30
0.0
 10
230.537568867356
 20
125.2051198398795
 30
0.0
 10
230.5033565844897
 20
125.277920835196
 30
0.0
 10
230.4486835981471
 20
125.3297004044754
 30
0.0
 10
230.3765079006345
 20
125.3599343708156
 30
0.0
 10
230.3225858700218
 20
125.3630518877352
 30
0.0
 10
230.2950687103136
 20
125.3646427998354
 30
0.0
  0
LINE
  5
1A3
330
1F
100
AcDbEntity
  8
0
  6
Continuous
 62
     7
370
    18
100
AcDbLine
 10
230.2950687103
 20
125.3646427998
 30
0.0
 11
229.8260342291
 21
125.3646427998
 31
0.0
  0
LINE
  5
1A4
330
1F
100
AcDbEntity
  8
0
  6
Continuous
 62
     7
370
    18
100
AcDbLine
 10
229.8260342291
 20
125.3646427998
 30
0.0
 11
229.8260342291
 21
124.8753427345
 31
0.0
  0
LINE
  5
1A5
330
1F
100
AcDbEntity
  8
0
  6
Continuous
 62
     7
370
    18
100
AcDbLine
 10
229.8260342291
 20
124.0774530931
 30
0.0
 11
230.3470150738
 21
124.0774530931
 31
0.0
  0
SPLINE
  5
1A6
330
1F
100
AcDbEntity
  8
0
  6
Continuous
 62
     7
370
    18
100
AcDbSpline
210
0.0
220
0.0
230
1.0
 70
     8
 71
     3
 72
    12
 73
     8
 74
     0
 42
0.000000001
 43
0.00000001
 40
0.0
 40
0.0
 40
0.0
 40
0.0
 40
0.238258450640904
 40
0.497655653104007
 40
0.6448887038896375
 40
0.8084522641844551
 40
0.9999999999999999
 40
0.9999999999999999
 40
0.9999999999999999
 40
0.9999999999999999
 10
230.3470150738389
 20
124.077453093081
 30
0.0
 10
230.3820076163389
 20
124.0809220490145
 30
0.0
 10
230.4550973075745
 20
124.0881677333797
 30
0.0
 10
230.538959023538
 20
124.1404871728888
 30
0.0
 10
230.5898745447944
 20
124.2074406721609
 30
0.0
 10
230.6173428009656
 20
124.2770802789653
 30
0.0
 10
230.6203389706781
 20
124.3292420722314
 30
0.0
 10
230.6219551105499
 20
124.3573782467368
 30
0.0
  0
SPLINE
  5
1A7
330
1F
100
AcDbEntity
  8
0
  6
Continuous
 62
     7
370
    18
100
AcDbSpline
210
0.0
220
0.0
230
1.0
 70
     8
 71
     3
 72
    12
 73
     8
 74
     0
 42
0.000000001
 43
0.00000001
 40
0.0
 40
0.0
 40
0.0
 40
0.0
 40
0.2366945835519313
 40
0.4286648826954242
 40
0.5991110185125309
 40
0.7959723284782182
 40
1.0
 40
1.0
 40
1.0
 40
1.0
 10
230.6219551105499
 20
124.3573782467368
 30
0.0
 10
230.6199416832544
 20
124.3929121288998
 30
0.0
 10
230.6162952729204
 20
124.4572656396584
 30
0.0
 10
230.5785702495255
 20
124.5409901159241
 30
0.0
 10
230.5180106146467
 20
124.6008111071404
 30
0.0
 10
230.4376681086588
 20
124.6359015921399
 30
0.0
 10
230.3775907366491
 20
124.639511879607
 30
0.0
 10
230.3470150738389
 20
124.6413492924057
 30
0.0
  0
LINE
  5
1A8
330
1F
100
AcDbEntity
  8
0
  6
Continuous
 62
     7
370
    18
100
AcDbLine
 10
230.3470150738
 20
124.6413492924
 30
0.0
 11
229.8260342291
 21
124.6413492924
 31
0.0
  0
LINE
  5
1A9
330
1F
100
AcDbEntity
  8
0
  6
Continuous
 62
     7
370
    18
100
AcDbLine
 10
229.8260342291
 20
124.6413492924
 30
0.0
 11
229.8260342291
 21
124.0774530931
 31
0.0
  0
SPLINE
  5
1AA
330
1F
100
AcDbEntity
  8
0
  6
Continuous
 62
     7
370
    18
100
AcDbSpline
210
0.0
220
0.0
230
1.0
 70
     8
 71
     3
 72
    13
 73
     9
 74
     0
 42
0.000000001
 43
0.00000001
 40
0.0
 40
0.0
 40
0.0
 40
0.0
 40
0.5894795511906041
 40
0.8525979839264138
 40
0.9412877217975751
 40
0.963473568107822
 40
0.9825903643577696
 40
1.0
 40
1.0
 40
1.0
 40
1.0
 10
231.9606757544174
 20
125.2477092958499
 30
0.0
 10
231.9229577110871
 20
125.2457813234917
 30
0.0
 10
231.8684039481345
 20
125.2429927868202
 30
0.0
 10
231.8098754804338
 20
125.2285926603255
 30
0.0
 10
231.7880348267733
 20
125.217773197607
 30
0.0
 10
231.7821916705366
 20
125.2118494576601
 30
0.0
 10
231.7801409040393
 20
125.2085946725947
 30
0.0
 10
231.7798629435634
 20
125.2062531582998
 30
0.0
 10
231.7797304589391
 20
125.2051371196228
 30
0.0
  0
SPLINE
  5
1AB
330
1F
100
AcDbEntity
  8
0
  6
Continuous
 62
     7
370
    18
100
AcDbSpline
210
0.0
220
0.0
230
1.0
 70
     8
 71
     3
 72
    12
 73
     8
 74
     0
 42
0.000000001
 43
0.00000001
 40
0.0
 40
0.0
 40
0.0
 40
0.0
 40
0.168793226247075
 40
0.3139712558223856
 40
0.4643534436981251
 40
0.6895611553267724
 40
1.0
 40
1.0
 40
1.0
 40
1.0
 10
232.1309644593256
 20
125.1466161815763
 30
0.0
 10
232.1285046520722
 20
125.1588467467436
 30
0.0
 10
232.1239291795274
 20
125.1815967467901
 30
0.0
 10
232.105369612577
 20
125.2114651210829
 30
0.0
 10
232.0725749056557
 20
125.2329988721851
 30
0.0
 10
232.0228270414431
 20
125.2447568060537
 30
0.0
 10
231.9834798043596
 20
125.2466259920602
 30
0.0
 10
231.9606757544174
 20
125.2477092958499
 30
0.0
  0
SPLINE
  5
1AC
330
1F
100
AcDbEntity
  8
0
  6
Continuous
 62
     7
370
    18
100
AcDbSpline
210
0.0
220
0.0
230
1.0
 70
     8
 71
     3
 72
     9
 73
     5
 74
     0
 42
0.000000001
 43
0.00000001
 40
0.0
 40
0.0
 40
0.0
 40
0.0
 40
0.5915228225857656
 40
1.0
 40
1.0
 40
1.0
 40
1.0
 10
232.1362746925927
 20
125.0624833021255
 30
0.0
 10
232.1363458789604
 20
125.0791525677869
 30
0.0
 10
232.1364662232057
 20
125.1073328256316
 30
0.0
 10
232.1325600442712
 20
125.1352234841205
 30
0.0
 10
232.1309644593256
 20
125.1466161815763
 30
0.0
  0
SPLINE
  5
1AD
330
1F
100
AcDbEntity
  8
0
  6
Continuous
 62
     7
370
    18
100
AcDbSpline
210
0.0
220
0.0
230
1.0
 70
     8
 71
     3
 72
    13
 73
     9
 74
     0
 42
0.000000001
 43
0.00000001
 40
0.0
 40
0.0
 40
0.0
 40
0.0
 40
0.0518958002713984
 40
0.104938840065258
 40
0.1730026251899401
 40
0.2659228894279209
 40
0.5508780002890624
 40
0.9999999999999999
 40
0.9999999999999999
 40
0.9999999999999999
 40
0.9999999999999999
 10
231.7797304589391
 20
125.2051371196228
 30
0.0
 10
231.7803626933672
 20
125.1981176710729
 30
0.0
 10
231.7816411387749
 20
125.1839235978557
 30
0.0
 10
231.7966217818457
 20
125.1650099087237
 30
0.0
 10
231.8210799360674
 20
125.1500165970905
 30
0.0
 10
231.8764705576224
 20
125.1280586629365
 30
0.0
 10
231.9833527313865
 20
125.1006034423946
 30
0.0
 10
232.0782281504514
 20
125.0769530506895
 30
0.0
 10
232.1362746925927
 20
125.0624833021255
 30
0.0
  0
LINE
  5
1AE
330
1F
100
AcDbEntity
  8
0
  6
Continuous
 62
     7
370
    18
100
AcDbLine
 10
226.6548496196
 20
125.8565799198
 30
0.0
 11
225.8942219211
 21
125.8565799198
 31
0.0
  0
LINE
  5
1AF
330
1F
100
AcDbEntity
  8
0
  6
Continuous
 62
     7
370
    18
100
AcDbLine
 10
226.6548496196
 20
124.261599032
 30
0.0
 11
226.6548496196
 21
125.8565799198
 31
0.0
  0
LINE
  5
1B0
330
1F
100
AcDbEntity
  8
0
  6
Continuous
 62
     7
370
    18
100
AcDbLine
 10
227.4211463974
 20
124.261599032
 30
0.0
 11
226.6548496196
 21
124.261599032
 31
0.0
  0
LINE
  5
1B1
330
1F
100
AcDbEntity
  8
0
  6
Continuous
 62
     7
370
    18
100
AcDbLine
 10
228.0331355323
 20
125.8565799198
 30
0.0
 11
227.4211463974
 21
124.261599032
 31
0.0
  0
LINE
  5
1B2
330
1F
100
AcDbEntity
  8
0
  6
Continuous
 62
     7
370
    18
100
AcDbLine
 10
228.7244278271
 20
125.8565799198
 30
0.0
 11
228.0331355323
 21
125.8565799198
 31
0.0
  0
LINE
  5
1B3
330
1F
100
AcDbEntity
  8
0
  6
Continuous
 62
     7
370
    18
100
AcDbLine
 10
229.2411460357
 20
124.4623185708
 30
0.0
 11
228.7244278271
 21
125.8565799198
 31
0.0
  0
LINE
  5
1B4
330
1F
100
AcDbEntity
  8
0
  6
Continuous
 62
     7
370
    18
100
AcDbLine
 10
229.2411460357
 20
125.8565799198
 30
0.0
 11
229.2411460357
 21
124.4623185708
 31
0.0
  0
LINE
  5
1B5
330
1F
100
AcDbEntity
  8
0
  6
Continuous
 62
     7
370
    18
100
AcDbLine
 10
230.2292361491
 20
125.8565799198
 30
0.0
 11
229.2411460357
 21
125.8565799198
 31
0.0
  0
SPLINE
  5
1B6
330
1F
100
AcDbEntity
  8
0
  6
Continuous
 62
     7
370
    18
100
AcDbSpline
210
0.0
220
0.0
230
1.0
 70
     8
 71
     3
 72
    13
 73
     9
 74
     0
 42
0.000000001
 43
0.00000001
 40
0.0
 40
0.0
 40
0.0
 40
0.0
 40
0.1129894123230104
 40
0.2349035042068357
 40
0.3805358024040082
 40
0.5310429421797479
 40
0.7319137862307442
 40
1.0
 40
1.0
 40
1.0
 40
1.0
 10
231.0983804512123
 20
125.4521171526006
 30
0.0
 10
231.0813581137831
 20
125.4869586903707
 30
0.0
 10
231.0459688978408
 20
125.5593937897831
 30
0.0
 10
230.9729159741647
 20
125.6694228610313
 30
0.0
 10
230.8546586471545
 20
125.7563663735311
 30
0.0
 10
230.6932180146833
 20
125.8151471838517
 30
0.0
 10
230.482537850149
 20
125.8512031169837
 30
0.0
 10
230.3213700801726
 20
125.8546242046173
 30
0.0
 10
230.2292361491142
 20
125.8565799197843
 30
0.0
  0
SPLINE
  5
1B7
330
1F
100
AcDbEntity
  8
0
  6
Continuous
 62
     7
370
    18
100
AcDbSpline
210
0.0
220
0.0
230
1.0
 70
     8
 71
     3
 72
    12
 73
     8
 74
     0
 42
0.000000001
 43
0.00000001
 40
0.0
 40
0.0
 40
0.0
 40
0.0
 40
0.257782467716842
 40
0.4746472252827229
 40
0.6603530347935899
 40
0.8468286435267808
 40
1.0
 40
1.0
 40
1.0
 40
1.0
 10
231.9551342090202
 20
125.8778569768889
 30
0.0
 10
231.8688728098494
 20
125.8737848807214
 30
0.0
 10
231.7100422496175
 20
125.8662870506165
 30
0.0
 10
231.4967036551549
 20
125.8016326298364
 30
0.0
 10
231.3235372868562
 20
125.7065277131594
 30
0.0
 10
231.1887250714827
 20
125.5903507829714
 30
0.0
 10
231.1264601865389
 20
125.4950811248043
 30
0.0
 10
231.0983804512123
 20
125.4521171526006
 30
0.0
  0
SPLINE
  5
1B8
330
1F
100
AcDbEntity
  8
0
  6
Continuous
 62
     7
370
    18
100
AcDbSpline
210
0.0
220
0.0
230
1.0
 70
     8
 71
     3
 72
    15
 73
    11
 74
     0
 42
0.000000001
 43
0.00000001
 40
0.0
 40
0.0
 40
0.0
 40
0.0
 40
0.1009667219583008
 40
0.2110426783902181
 40
0.3263227887254702
 40
0.4481367482187073
 40
0.5538549368465837
 40
0.6756292865222517
 40
0.8215985201030968
 40
0.9999999999999999
 40
0.9999999999999999
 40
0.9999999999999999
 40
0.9999999999999999
 10
232.8864841008196
 20
125.0303509722537
 30
0.0
 10
232.885615054238
 20
125.0791789835167
 30
0.0
 10
232.8837985555476
 20
125.1812402773525
 30
0.0
 10
232.8595074601889
 20
125.337789494249
 30
0.0
 10
232.8034628171647
 20
125.49742776752
 30
0.0
 10
232.7074526034261
 20
125.6356213077223
 30
0.0
 10
232.5749502852527
 20
125.7430973967789
 30
0.0
 10
232.4099345946927
 20
125.8198798947682
 30
0.0
 10
232.1985044897304
 20
125.8697862809549
 30
0.0
 10
232.0414906519854
 20
125.8749932065424
 30
0.0
 10
231.9551342090202
 20
125.8778569768889
 30
0.0
  0
LINE
  5
1B9
330
1F
100
AcDbEntity
  8
0
  6
Continuous
 62
     7
370
    18
100
AcDbLine
 10
232.2699528234
 20
125.0303509723
 30
0.0
 11
232.8864841008
 21
125.0303509723
 31
0.0
  0
SPLINE
  5
1BA
330
1F
100
AcDbEntity
  8
0
  6
Continuous
 62
     7
370
    18
100
AcDbSpline
210
0.0
220
0.0
230
1.0
 70
     8
 71
     3
 72
     9
 73
     5
 74
     0
 42
0.000000001
 43
0.00000001
 40
0.0
 40
0.0
 40
0.0
 40
0.0
 40
0.5581053349214891
 40
1.0
 40
1.0
 40
1.0
 40
1.0
 10
232.285305538634
 20
125.0263412042764
 30
0.0
 10
232.2824527442977
 20
125.0271000065867
 30
0.0
 10
232.2773411745673
 20
125.0284596107024
 30
0.0
 10
232.2722171170751
 20
125.0297713303426
 30
0.0
 10
232.2699528234057
 20
125.0303509722537
 30
0.0
  0
SPLINE
  5
1BB
330
1F
100
AcDbEntity
  8
0
  6
Continuous
 62
     7
370
    18
100
AcDbSpline
210
0.0
220
0.0
230
1.0
 70
     8
 71
     3
 72
    12
 73
     8
 74
     0
 42
0.000000001
 43
0.00000001
 40
0.0
 40
0.0
 40
0.0
 40
0.0
 40
0.2081936773952727
 40
0.382385480934238
 40
0.5475549960392783
 40
0.7576294387459007
 40
1.0
 40
1.0
 40
1.0
 40
1.0
 10
232.9290384186137
 20
124.3078531872318
 30
0.0
 10
232.9267189370282
 20
124.3818237109543
 30
0.0
 10
232.9224587880521
 20
124.5176840052844
 30
0.0
 10
232.8470374761434
 20
124.7009700266727
 30
0.0
 10
232.7130564339329
 20
124.8458543963387
 30
0.0
 10
232.5199643592856
 20
124.9536786928608
 30
0.0
 10
232.3671609156749
 20
125.0009945445935
 30
0.0
 10
232.285305538634
 20
125.0263412042764
 30
0.0
  0
SPLINE
  5
1BC
330
1F
100
AcDbEntity
  8
0
  6
Continuous
 62
     7
370
    18
100
AcDbSpline
210
0.0
220
0.0
230
1.0
 70
     8
 71
     3
 72
    13
 73
     9
 74
     0
 42
0.000000001
 43
0.00000001
 40
0.0
 40
0.0
 40
0.0
 40
0.0
 40
0.2144903110109676
 40
0.4108455396423897
 40
0.5926499974110344
 40
0.7287207904635504
 40
0.8627130606487936
 40
1.0
 40
1.0
 40
1.0
 40
1.0
 10
231.9883480870034
 20
123.5375411450106
 30
0.0
 10
232.0851032027323
 20
123.5442150869401
 30
0.0
 10
232.2704328222731
 20
123.5569986912934
 30
0.0
 10
232.5228082998765
 20
123.6545381994669
 30
0.0
 10
232.7131365073172
 20
123.7915741254489
 30
0.0
 10
232.8398690642938
 20
123.9527552144582
 30
0.0
 10
232.9159894173955
 20
124.1232424240182
 30
0.0
 10
232.9246536759136
 20
124.245820033673
 30
0.0
 10
232.9290384186137
 20
124.3078531872318
 30
0.0
  0
SPLINE
  5
1BD
330
1F
100
AcDbEntity
  8
0
  6
Continuous
 62
     7
370
    18
100
AcDbSpline
210
0.0
220
0.0
230
1.0
 70
     8
 71
     3
 72
    12
 73
     8
 74
     0
 42
0.000000001
 43
0.00000001
 40
0.0
 40
0.0
 40
0.0
 40
0.0
 40
0.1266166298736462
 40
0.273245472447085
 40
0.4461934828620917
 40
0.6934352669522338
 40
1.0
 40
1.0
 40
1.0
 40
1.0
 10
231.0946934416743
 20
123.9749330793922
 30
0.0
 10
231.1138176376388
 20
123.9346060163787
 30
0.0
 10
231.1550886773648
 20
123.8475780533336
 30
0.0
 10
231.2702511303661
 20
123.7374177101645
 30
0.0
 10
231.4413605558842
 20
123.6352151910427
 30
0.0
 10
231.6869401522582
 20
123.5570969276188
 30
0.0
 10
231.8809513753702
 20
123.5445091989449
 30
0.0
 10
231.9883480870034
 20
123.5375411450106
 30
0.0
  0
SPLINE
  5
1BE
330
1F
100
AcDbEntity
  8
0
  6
Continuous
 62
     7
370
    18
100
AcDbSpline
210
0.0
220
0.0
230
1.0
 70
     8
 71
     3
 72
    11
 73
     7
 74
     0
 42
0.000000001
 43
0.00000001
 40
0.0
 40
0.0
 40
0.0
 40
0.0
 40
0.3104248435957513
 40
0.6000686931456358
 40
0.8080123835287415
 40
1.0
 40
1.0
 40
1.0
 40
1.0
 10
230.4336235859638
 20
123.6202311715659
 30
0.0
 10
230.5153161488217
 20
123.6274225405855
 30
0.0
 10
230.6732324704215
 20
123.6413238616251
 30
0.0
 10
230.8702940647548
 20
123.7270380090788
 30
0.0
 10
231.0184446963309
 20
123.8376936591296
 30
0.0
 10
231.0699623268197
 20
123.9304197716674
 30
0.0
 10
231.0946934416743
 20
123.9749330793922
 30
0.0
  0
LINE
  5
1BF
330
1F
100
AcDbEntity
  8
0
  6
Continuous
 62
     7
370
    18
100
AcDbLine
 10
228.7620071644
 20
123.6202311716
 30
0.0
 11
230.433623586
 21
123.6202311716
 31
0.0
  0
LINE
  5
1C0
330
1F
100
AcDbEntity
  8
0
  6
Continuous
 62
     7
370
    18
100
AcDbLine
 10
228.6342725737
 20
123.9501881148
 30
0.0
 11
228.7620071644
 21
123.6202311716
 31
0.0
  0
LINE
  5
1C1
330
1F
100
AcDbEntity
  8
0
  6
Continuous
 62
     7
370
    18
100
AcDbLine
 10
228.0915089354
 20
123.9501881148
 30
0.0
 11
228.6342725737
 21
123.9501881148
 31
0.0
  0
LINE
  5
1C2
330
1F
100
AcDbEntity
  8
0
  6
Continuous
 62
     7
370
    18
100
AcDbLine
 10
227.9583918633
 20
123.6202311716
 30
0.0
 11
228.0915089354
 21
123.9501881148
 31
0.0
  0
LINE
  5
1C3
330
1F
100
AcDbEntity
  8
0
  6
Continuous
 62
     7
370
    18
100
AcDbLine
 10
225.349864889
 20
123.6202311716
 30
0.0
 11
227.9583918633
 21
123.6202311716
 31
0.0
  0
SPLINE
  5
1C4
330
1F
100
AcDbEntity
  8
0
  6
Continuous
 62
     7
370
    18
100
AcDbSpline
210
0.0
220
0.0
230
1.0
 70
     8
 71
     3
 72
    11
 73
     7
 74
     0
 42
0.000000001
 43
0.00000001
 40
0.0
 40
0.0
 40
0.0
 40
0.0
 40
0.2274736611129817
 40
0.5494925387673857
 40
0.8007169048877155
 40
1.0
 40
1.0
 40
1.0
 40
1.0
 10
225.2837940274764
 20
123.9776423820795
 30
0.0
 10
225.2859599597738
 20
123.9499837015229
 30
0.0
 10
225.2911920540352
 20
123.8831705218184
 30
0.0
 10
225.3020364836679
 20
123.7863819466102
 30
0.0
 10
225.316738542938
 20
123.6925439599075
 30
0.0
 10
225.3397054296122
 20
123.6424086503492
 30
0.0
 10
225.3498648890117
 20
123.6202311715659
 30
0.0
  0
SPLINE
  5
1C5
330
1F
100
AcDbEntity
  8
0
  6
Continuous
 62
     7
370
    18
100
AcDbSpline
210
0.0
220
0.0
230
1.0
 70
     8
 71
     3
 72
    13
 73
     9
 74
     0
 42
0.000000001
 43
0.00000001
 40
0.0
 40
0.0
 40
0.0
 40
0.0
 40
0.1455849753971024
 40
0.2684075940997156
 40
0.3810001390981625
 40
0.4935379506791348
 40
0.7360826269615446
 40
1.0
 40
1.0
 40
1.0
 40
1.0
 10
224.9564922008281
 20
124.435442288168
 30
0.0
 10
224.9874928461192
 20
124.4337901686035
 30
0.0
 10
225.0446471547657
 20
124.4307442400229
 30
0.0
 10
225.1211106057303
 20
124.4001108076357
 30
0.0
 10
225.1788600468172
 20
124.352464303966
 30
0.0
 10
225.2346071415431
 20
124.2691124060654
 30
0.0
 10
225.270487679295
 20
124.1403693935165
 30
0.0
 10
225.2792355250621
 20
124.0333895686403
 30
0.0
 10
225.2837940274764
 20
123.9776423820795
 30
0.0
  0
LINE
  5
1C6
330
1F
100
AcDbEntity
  8
0
  6
Continuous
 62
     7
370
    18
100
AcDbLine
 10
224.5125639245
 20
124.4354422882
 30
0.0
 11
224.9564922008
 21
124.4354422882
 31
0.0
  0
LINE
  5
1C7
330
1F
100
AcDbEntity
  8
0
  6
Continuous
 62
     7
370
    18
100
AcDbLine
 10
224.5125639245
 20
123.6202311716
 30
0.0
 11
224.5125639245
 21
124.4354422882
 31
0.0
  0
LINE
  5
1C8
330
1F
100
AcDbEntity
  8
0
  6
Continuous
 62
     7
370
    18
100
AcDbLine
 10
223.927051425
 20
123.6202311716
 30
0.0
 11
224.5125639245
 21
123.6202311716
 31
0.0
  0
LINE
  5
1C9
330
1F
100
AcDbEntity
  8
0
  6
Continuous
 62
     7
370
    18
100
AcDbLine
 10
223.927051425
 20
125.8565799198
 30
0.0
 11
223.927051425
 21
123.6202311716
 31
0.0
  0
LINE
  5
1CA
330
1F
100
AcDbEntity
  8
0
  6
Continuous
 62
     7
370
    18
100
AcDbLine
 10
225.0729058416
 20
125.8565799198
 30
0.0
 11
223.927051425
 21
125.8565799198
 31
0.0
  0
SPLINE
  5
1CB
330
1F
100
AcDbEntity
  8
0
  6
Continuous
 62
     7
370
    18
100
AcDbSpline
210
0.0
220
0.0
230
1.0
 70
     8
 71
     3
 72
    12
 73
     8
 74
     0
 42
0.000000001
 43
0.00000001
 40
0.0
 40
0.0
 40
0.0
 40
0.0
 40
0.2016496499628993
 40
0.3794039236986319
 40
0.5547793395586204
 40
0.7718110801448022
 40
1.0
 40
1.0
 40
1.0
 40
1.0
 10
225.8598679621738
 20
125.2264503007632
 30
0.0
 10
225.853372724855
 20
125.3031890801492
 30
0.0
 10
225.8411519323839
 20
125.4475731343951
 30
0.0
 10
225.7258404462375
 20
125.6311470806043
 30
0.0
 10
225.551754800449
 20
125.7622202493913
 30
0.0
 10
225.3273323748842
 20
125.8425699162717
 30
0.0
 10
225.1591198152463
 20
125.8518325451371
 30
0.0
 10
225.0729058415916
 20
125.8565799197843
 30
0.0
  0
SPLINE
  5
1CC
330
1F
100
AcDbEntity
  8
0
  6
Continuous
 62
     7
370
    18
100
AcDbSpline
210
0.0
220
0.0
230
1.0
 70
     8
 71
     3
 72
    11
 73
     7
 74
     0
 42
0.000000001
 43
0.00000001
 40
0.0
 40
0.0
 40
0.0
 40
0.0
 40
0.285264835019695
 40
0.5586037747029541
 40
0.7765581993729915
 40
1.0
 40
1.0
 40
1.0
 40
1.0
 10
225.5072612484257
 20
124.6652634041259
 30
0.0
 10
225.5675531451664
 20
124.696245733254
 30
0.0
 10
225.6856163515935
 20
124.7569151319159
 30
0.0
 10
225.7931063349121
 20
124.9111030744628
 30
0.0
 10
225.8504725096564
 20
125.0701160917771
 30
0.0
 10
225.8567102955748
 20
125.1739087856973
 30
0.0
 10
225.8598679621738
 20
125.2264503007632
 30
0.0
  0
LINE
  5
1CD
330
1F
100
AcDbEntity
  8
0
  6
Continuous
 62
     7
370
    18
100
AcDbLine
 10
225.5072612484
 20
124.6589778219
 30
0.0
 11
225.5072612484
 21
124.6652634041
 31
0.0
  0
SPLINE
  5
1CE
330
1F
100
AcDbEntity
  8
0
  6
Continuous
 62
     7
370
    18
100
AcDbSpline
210
0.0
220
0.0
230
1.0
 70
     8
 71
     3
 72
    11
 73
     7
 74
     0
 42
0.000000001
 43
0.00000001
 40
0.0
 40
0.0
 40
0.0
 40
0.0
 40
0.2808304286447827
 40
0.563545097839003
 40
0.777199127006041
 40
1.0
 40
1.0
 40
1.0
 40
1.0
 10
225.8347256332352
 20
124.1228248820946
 30
0.0
 10
225.8270057383055
 20
124.1852883641185
 30
0.0
 10
225.8115141515694
 20
124.3106344288538
 30
0.0
 10
225.7502281463541
 20
124.4748234395639
 30
0.0
 10
225.6479119427066
 20
124.6065232955074
 30
0.0
 10
225.554795299175
 20
124.6412503863389
 30
0.0
 10
225.5072612484257
 20
124.6589778219009
 30
0.0
  0
SPLINE
  5
1CF
330
1F
100
AcDbEntity
  8
0
  6
Continuous
 62
     7
370
    18
100
AcDbSpline
210
0.0
220
0.0
230
1.0
 70
     8
 71
     3
 72
    11
 73
     7
 74
     0
 42
0.000000001
 43
0.00000001
 40
0.0
 40
0.0
 40
0.0
 40
0.0
 40
0.3074360073852218
 40
0.6261968550908508
 40
0.8442166228013988
 40
1.0
 40
1.0
 40
1.0
 40
1.0
 10
225.8929083503055
 20
123.7227044497982
 30
0.0
 10
225.8830675877487
 20
123.7630509722885
 30
0.0
 10
225.8630235642225
 20
123.8452302385111
 30
0.0
 10
225.8495951033592
 20
123.958573891053
 30
0.0
 10
225.8408005451986
 20
124.0516037295707
 30
0.0
 10
225.8365126316997
 20
124.1018744401838
 30
0.0
 10
225.8347256332352
 20
124.1228248820946
 30
0.0
  0
LINE
  5
1D0
330
1F
100
AcDbEntity
  8
0
  6
Continuous
 62
     7
370
    18
100
AcDbLine
 10
225.8942219211
 20
125.8565799198
 30
0.0
 11
225.8929083503
 21
123.7227044498
 31
0.0
  0
SPLINE
  5
1D1
330
1F
100
AcDbEntity
  8
0
  6
Continuous
 62
     7
370
    18
100
AcDbSpline
210
0.0
220
0.0
230
1.0
 70
     8
 71
     3
 72
    12
 73
     8
 74
     0
 42
0.000000001
 43
0.00000001
 40
0.0
 40
0.0
 40
0.0
 40
0.0
 40
0.2554031448979515
 40
0.5239992272002607
 40
0.6685053607654243
 40
0.8229473537118226
 40
1.0
 40
1.0
 40
1.0
 40
1.0
 10
230.3171766202423
 20
124.1735069043561
 30
0.0
 10
230.3433070220806
 20
124.1756917551958
 30
0.0
 10
230.3969176006629
 20
124.1801743160977
 30
0.0
 10
230.4599223505641
 20
124.2128552608817
 30
0.0
 10
230.4990436668528
 20
124.2563366241304
 30
0.0
 10
230.5200725256968
 20
124.3013906617444
 30
0.0
 10
230.5223885088939
 20
124.3354134905698
 30
0.0
 10
230.5236254850174
 20
124.3535852229745
 30
0.0
  0
LINE
  5
1D2
330
1F
100
AcDbEntity
  8
0
  6
Continuous
 62
     7
370
    18
100
AcDbLine
 10
229.9259894362
 20
124.1735069044
 30
0.0
 11
230.3171766202
 21
124.1735069044
 31
0.0
  0
LINE
  5
1D3
330
1F
100
AcDbEntity
  8
0
  6
Continuous
 62
     7
370
    18
100
AcDbLine
 10
229.9259894362
 20
124.5363367202
 30
0.0
 11
229.9259894362
 21
124.1735069044
 31
0.0
  0
LINE
  5
1D4
330
1F
100
AcDbEntity
  8
0
  6
Continuous
 62
     7
370
    18
100
AcDbLine
 10
230.3171766202
 20
124.5363367202
 30
0.0
 11
229.9259894362
 21
124.5363367202
 31
0.0
  0
SPLINE
  5
1D5
330
1F
100
AcDbEntity
  8
0
  6
Continuous
 62
     7
370
    18
100
AcDbSpline
210
0.0
220
0.0
230
1.0
 70
     8
 71
     3
 72
    12
 73
     8
 74
     0
 42
0.000000001
 43
0.00000001
 40
0.0
 40
0.0
 40
0.0
 40
0.0
 40
0.2191709004622782
 40
0.402032272796283
 40
0.5732124609680135
 40
0.7805893411712348
 40
1.0
 40
1.0
 40
1.0
 40
1.0
 10
230.5236254850174
 20
124.3535852229745
 30
0.0
 10
230.5220777983706
 20
124.3765665782367
 30
0.0
 10
230.5192388266874
 20
124.4187220216305
 30
0.0
 10
230.4900624408932
 20
124.4729789414525
 30
0.0
 10
230.4442530358359
 20
124.5109503545391
 30
0.0
 10
230.3845857932138
 20
124.5328839603564
 30
0.0
 10
230.3400647853622
 20
124.535164367359
 30
0.0
 10
230.3171766202423
 20
124.5363367202445
 30
0.0
  0
SPLINE
  5
1D6
330
1F
100
AcDbEntity
  8
0
  6
Continuous
 62
     7
370
    18
100
AcDbSpline
210
0.0
220
0.0
230
1.0
 70
     8
 71
     3
 72
    12
 73
     8
 74
     0
 42
0.000000001
 43
0.00000001
 40
0.0
 40
0.0
 40
0.0
 40
0.0
 40
0.2631780919768604
 40
0.5362228315034394
 40
0.6796343489711612
 40
0.8298665817545476
 40
1.0
 40
1.0
 40
1.0
 40
1.0
 10
230.2561269996876
 20
124.9748825152349
 30
0.0
 10
230.2779498275238
 20
124.9765750944845
 30
0.0
 10
230.3224136293768
 20
124.9800237084286
 30
0.0
 10
230.3750672061996
 20
125.0051226839884
 30
0.0
 10
230.4081111450961
 20
125.039061366173
 30
0.0
 10
230.4258882718412
 20
125.0742029551942
 30
0.0
 10
230.4278607556157
 20
125.1008896154931
 30
0.0
 10
230.4289082630682
 20
125.1150618362778
 30
0.0
  0
LINE
  5
1D7
330
1F
100
AcDbEntity
  8
0
  6
Continuous
 62
     7
370
    18
100
AcDbLine
 10
229.9286987389
 20
124.9748825152
 30
0.0
 11
230.2561269997
 21
124.9748825152
 31
0.0
  0
LINE
  5
1D8
330
1F
100
AcDbEntity
  8
0
  6
Continuous
 62
     7
370
    18
100
AcDbLine
 10
229.9286987389
 20
125.2573002274
 30
0.0
 11
229.9286987389
 21
124.9748825152
 31
0.0
  0
LINE
  5
1D9
330
1F
100
AcDbEntity
  8
0
  6
Continuous
 62
     7
370
    18
100
AcDbLine
 10
230.2561269997
 20
125.2573002274
 30
0.0
 11
229.9286987389
 21
125.2573002274
 31
0.0
  0
SPLINE
  5
1DA
330
1F
100
AcDbEntity
  8
0
  6
Continuous
 62
     7
370
    18
100
AcDbSpline
210
0.0
220
0.0
230
1.0
 70
     8
 71
     3
 72
    12
 73
     8
 74
     0
 42
0.000000001
 43
0.00000001
 40
0.0
 40
0.0
 40
0.0
 40
0.0
 40
0.2108655154368313
 40
0.3895958229608272
 40
0.5613353297982684
 40
0.7736399301224668
 40
1.0
 40
1.0
 40
1.0
 40
1.0
 10
230.4289082630682
 20
125.1150618362778
 30
0.0
 10
230.4275919328582
 20
125.1330027570435
 30
0.0
 10
230.4251598768135
 20
125.1661504615219
 30
0.0
 10
230.4003846862336
 20
125.2084669908097
 30
0.0
 10
230.3619974913849
 20
125.237763042638
 30
0.0
 10
230.312323040795
 20
125.2546271493749
 30
0.0
 10
230.2752549193352
 20
125.2563903693026
 30
0.0
 10
230.2561269996876
 20
125.257300227363
 30
0.0
  0
LINE
  5
1DB
330
1F
100
AcDbEntity
  8
0
  6
Continuous
 62
     7
370
    18
100
AcDbLine
 10
228.2050403692
 20
124.5126393527
 30
0.0
 11
228.5158154495
 21
124.5126393527
 31
0.0
  0
LINE
  5
1DC
330
1F
100
AcDbEntity
  8
0
  6
Continuous
 62
     7
370
    18
100
AcDbLine
 10
228.363046902
 20
125.0004222086
 30
0.0
 11
228.2050403692
 21
124.5126393527
 31
0.0
  0
LINE
  5
1DD
330
1F
100
AcDbEntity
  8
0
  6
Continuous
 62
     7
370
    18
100
AcDbLine
 10
228.5158154495
 20
124.5126393527
 30
0.0
 11
228.363046902
 21
125.0004222086
 31
0.0
  0
SPLINE
  5
1DE
330
1F
100
AcDbEntity
  8
0
  6
Continuous
 62
     7
370
    18
100
AcDbSpline
210
0.0
220
0.0
230
1.0
 70
     8
 71
     3
 72
    11
 73
     7
 74
     0
 42
0.000000001
 43
0.00000001
 40
0.0
 40
0.0
 40
0.0
 40
0.0
 40
0.2800359244938599
 40
0.5600382743760572
 40
0.780121730090825
 40
1.0
 40
1.0
 40
1.0
 40
1.0
 10
234.1115281419722
 20
120.7790468675886
 30
0.0
 10
234.1703750421788
 20
120.8163041100745
 30
0.0
 10
234.288061787205
 20
120.8908141281286
 30
0.0
 10
234.4272710691235
 20
121.0265365804834
 30
0.0
 10
234.5417356219067
 20
121.1649769170186
 30
0.0
 10
234.5895977832326
 20
121.2634899385341
 30
0.0
 10
234.6135177031109
 20
121.3127234774371
 30
0.0
  0
LINE
  5
1DF
330
1F
100
AcDbEntity
  8
0
  6
Continuous
 62
     7
370
    18
100
AcDbLine
 10
234.111528142
 20
120.5388923932
 30
0.0
 11
234.111528142
 21
120.7790468676
 31
0.0
  0
SPLINE
  5
1E0
330
1F
100
AcDbEntity
  8
0
  6
Continuous
 62
     7
370
    18
100
AcDbSpline
210
0.0
220
0.0
230
1.0
 70
     8
 71
     3
 72
     9
 73
     5
 74
     0
 42
0.000000001
 43
0.00000001
 40
0.0
 40
0.0
 40
0.0
 40
0.0
 40
0.5597552341668184
 40
1.0
 40
1.0
 40
1.0
 40
1.0
 10
234.538469429851
 20
120.8590983590659
 30
0.0
 10
234.4669550065632
 20
120.7882266710739
 30
0.0
 10
234.3391948376132
 20
120.6616147456
 30
0.0
 10
234.1811198346402
 20
120.5764053733082
 30
0.0
 10
234.1115281419722
 20
120.5388923931568
 30
0.0
  0
LINE
  5
1E1
330
1F
100
AcDbEntity
  8
0
  6
Continuous
 62
     7
370
    18
100
AcDbLine
 10
234.5384694299
 20
119.231384699
 30
0.0
 11
234.5384694299
 21
120.8590983591
 31
0.0
  0
LINE
  5
1E2
330
1F
100
AcDbEntity
  8
0
  6
Continuous
 62
     7
370
    18
100
AcDbLine
 10
234.7519400738
 20
119.231384699
 30
0.0
 11
234.5384694299
 21
119.231384699
 31
0.0
  0
LINE
  5
1E3
330
1F
100
AcDbEntity
  8
0
  6
Continuous
 62
     7
370
    18
100
AcDbLine
 10
234.7519400738
 20
121.3127234774
 30
0.0
 11
234.7519400738
 21
119.231384699
 31
0.0
  0
LINE
  5
1E4
330
1F
100
AcDbEntity
  8
0
  6
Continuous
 62
     7
370
    18
100
AcDbLine
 10
234.6135177031
 20
121.3127234774
 30
0.0
 11
234.7519400738
 21
121.3127234774
 31
0.0
  0
SPLINE
  5
1E5
330
1F
100
AcDbEntity
  8
0
  6
Continuous
 62
     7
370
    18
100
AcDbSpline
210
0.0
220
0.0
230
1.0
 70
     8
 71
     3
 72
    10
 73
     6
 74
     0
 42
0.000000001
 43
0.00000001
 40
0.0
 40
0.0
 40
0.0
 40
0.0
 40
0.2795751783825465
 40
0.5597049368157196
 40
1.0
 40
1.0
 40
1.0
 40
1.0
 10
233.5970305352901
 20
121.0959173546861
 30
0.0
 10
233.6329090761956
 20
121.0234142072191
 30
0.0
 10
233.7047373285702
 20
120.8782640912226
 30
0.0
 10
233.7543354518741
 20
120.5917424312367
 30
0.0
 10
233.7607301561009
 20
120.3845227497489
 30
0.0
 10
233.7646383455707
 20
120.2578783032834
 30
0.0
  0
SPLINE
  5
1E6
330
1F
100
AcDbEntity
  8
0
  6
Continuous
 62
     7
370
    18
100
AcDbSpline
210
0.0
220
0.0
230
1.0
 70
     8
 71
     3
 72
    11
 73
     7
 74
     0
 42
0.000000001
 43
0.00000001
 40
0.0
 40
0.0
 40
0.0
 40
0.0
 40
0.2798903849624055
 40
0.559496442064464
 40
0.7796718965173965
 40
1.0
 40
1.0
 40
1.0
 40
1.0
 10
233.2188706250303
 20
121.3127234774371
 30
0.0
 10
233.2616275667508
 20
121.3098709591652
 30
0.0
 10
233.3470980153673
 20
121.3041688203644
 30
0.0
 10
233.4558682704702
 20
121.250543738435
 30
0.0
 10
233.5393885959829
 20
121.1785043703501
 30
0.0
 10
233.5778121171814
 20
121.1234527189792
 30
0.0
 10
233.5970305352901
 20
121.0959173546861
 30
0.0
  0
SPLINE
  5
1E7
330
1F
100
AcDbEntity
  8
0
  6
Continuous
 62
     7
370
    18
100
AcDbSpline
210
0.0
220
0.0
230
1.0
 70
     8
 71
     3
 72
    13
 73
     9
 74
     0
 42
0.000000001
 43
0.00000001
 40
0.0
 40
0.0
 40
0.0
 40
0.0
 40
0.2504890583456493
 40
0.5006738274425612
 40
0.6258446378555204
 40
0.7507584155659045
 40
0.8753007099299315
 40
1.0
 40
1.0
 40
1.0
 40
1.0
 10
232.6706012953813
 20
120.2578783032834
 30
0.0
 10
232.6733199099964
 20
120.3681185006412
 30
0.0
 10
232.6787538367063
 20
120.5884649777035
 30
0.0
 10
232.7288072087479
 20
120.8618924132509
 30
0.0
 10
232.8137427341251
 20
121.066349947536
 30
0.0
 10
232.9107308098141
 20
121.2018625686151
 30
0.0
 10
233.0526864728978
 20
121.2979618507035
 30
0.0
 10
233.1634526506799
 20
121.3078008693473
 30
0.0
 10
233.2188706250303
 20
121.3127234774371
 30
0.0
  0
SPLINE
  5
1E8
330
1F
100
AcDbEntity
  8
0
  6
Continuous
 62
     7
370
    18
100
AcDbSpline
210
0.0
220
0.0
230
1.0
 70
     8
 71
     3
 72
    13
 73
     9
 74
     0
 42
0.000000001
 43
0.00000001
 40
0.0
 40
0.0
 40
0.0
 40
0.0
 40
0.1245870753534838
 40
0.24922271483854
 40
0.3742192396120919
 40
0.4992998133209627
 40
0.7494812006579983
 40
1.0
 40
1.0
 40
1.0
 40
1.0
 10
233.2163690159216
 20
119.2047008685356
 30
0.0
 10
233.1611053726328
 20
119.2103375648126
 30
0.0
 10
233.0505565442473
 20
119.2216131545551
 30
0.0
 10
232.9117675880246
 20
119.3202461673914
 30
0.0
 10
232.8087284793415
 20
119.4502505039514
 30
0.0
 10
232.7227045941731
 20
119.6545964550049
 30
0.0
 10
232.6775337075539
 20
119.9280986341907
 30
0.0
 10
232.6729131373426
 20
120.1479023731141
 30
0.0
 10
232.6706012953813
 20
120.2578783032834
 30
0.0
  0
SPLINE
  5
1E9
330
1F
100
AcDbEntity
  8
0
  6
Continuous
 62
     7
370
    18
100
AcDbSpline
210
0.0
220
0.0
230
1.0
 70
     8
 71
     3
 72
    13
 73
     9
 74
     0
 42
0.000000001
 43
0.00000001
 40
0.0
 40
0.0
 40
0.0
 40
0.0
 40
0.2504702058475058
 40
0.5006494994159221
 40
0.6258027062132784
 40
0.7507410958263508
 40
0.8752785399750067
 40
1.0
 40
1.0
 40
1.0
 40
1.0
 10
233.7646383455707
 20
120.2578783032834
 30
0.0
 10
233.7619248503156
 20
120.1477458477319
 30
0.0
 10
233.756501011434
 20
119.9276088515779
 30
0.0
 10
233.70573115371
 20
119.654678251342
 30
0.0
 10
233.6213794062744
 20
119.4502541388907
 30
0.0
 10
233.5244966463179
 20
119.3147993101583
 30
0.0
 10
233.382420029449
 20
119.2191210453565
 30
0.0
 10
233.2717465887259
 20
119.209509959277
 30
0.0
 10
233.2163690159216
 20
119.2047008685356
 30
0.0
  0
LINE
  5
1EA
330
1F
100
AcDbEntity
  8
0
  6
Continuous
 62
     7
370
    18
100
AcDbLine
 10
231.8233896772
 20
120.0585834443
 30
0.0
 11
231.3897774317
 21
120.0585834443
 31
0.0
  0
SPLINE
  5
1EB
330
1F
100
AcDbEntity
  8
0
  6
Continuous
 62
     7
370
    18
100
AcDbSpline
210
0.0
220
0.0
230
1.0
 70
     8
 71
     3
 72
    13
 73
     9
 74
     0
 42
0.000000001
 43
0.00000001
 40
0.0
 40
0.0
 40
0.0
 40
0.0
 40
0.1868926354272034
 40
0.3734936198722604
 40
0.5595111555659787
 40
0.7060865218748859
 40
0.8529613385976961
 40
1.0
 40
1.0
 40
1.0
 40
1.0
 10
232.4571306514419
 20
120.6906566790824
 30
0.0
 10
232.4539807918795
 20
120.6266575006624
 30
0.0
 10
232.4476859881952
 20
120.4987590162608
 30
0.0
 10
232.3812994948202
 20
120.3169402293812
 30
0.0
 10
232.2707083252721
 20
120.1716039552407
 30
0.0
 10
232.1215993201703
 20
120.0963882880884
 30
0.0
 10
231.974055161785
 20
120.0629792170134
 30
0.0
 10
231.8736301663615
 20
120.0600492463126
 30
0.0
 10
231.8233896772468
 20
120.0585834442931
 30
0.0
  0
SPLINE
  5
1EC
330
1F
100
AcDbEntity
  8
0
  6
Continuous
 62
     7
370
    18
100
AcDbSpline
210
0.0
220
0.0
230
1.0
 70
     8
 71
     3
 72
    11
 73
     7
 74
     0
 42
0.000000001
 43
0.00000001
 40
0.0
 40
0.0
 40
0.0
 40
0.0
 40
0.2789374603390856
 40
0.5587365194061736
 40
0.7792635983173134
 40
0.9999999999999999
 40
0.9999999999999999
 40
0.9999999999999999
 40
0.9999999999999999
 10
232.1385924249386
 20
121.2464308360575
 30
0.0
 10
232.1955470793255
 20
121.2164583635185
 30
0.0
 10
232.309632313046
 20
121.1564208376729
 30
0.0
 10
232.4044429502239
 20
120.9989202578426
 30
0.0
 10
232.4512076434041
 20
120.8413286066832
 30
0.0
 10
232.455155691149
 20
120.7408965356498
 30
0.0
 10
232.4571306514419
 20
120.6906566790824
 30
0.0
  0
SPLINE
  5
1ED
330
1F
100
AcDbEntity
  8
0
  6
Continuous
 62
     7
370
    18
100
AcDbSpline
210
0.0
220
0.0
230
1.0
 70
     8
 71
     3
 72
     9
 73
     5
 74
     0
 42
0.000000001
 43
0.00000001
 40
0.0
 40
0.0
 40
0.0
 40
0.0
 40
0.5604294502713231
 40
0.9999999999999999
 40
0.9999999999999999
 40
0.9999999999999999
 40
0.9999999999999999
 10
231.8092138922977
 20
121.2860396469446
 30
0.0
 10
231.8716798949037
 20
121.2858196854499
 30
0.0
 10
231.9831408514536
 20
121.2854271980554
 30
0.0
 10
232.0911255372436
 20
121.2583383124115
 30
0.0
 10
232.1385924249386
 20
121.2464308360575
 30
0.0
  0
LINE
  5
1EE
330
1F
100
AcDbEntity
  8
0
  6
Continuous
 62
     7
370
    18
100
AcDbLine
 10
231.1763067878
 20
121.2860396469
 30
0.0
 11
231.8092138923
 21
121.2860396469
 31
0.0
  0
LINE
  5
1EF
330
1F
100
AcDbEntity
  8
0
  6
Continuous
 62
     7
370
    18
100
AcDbLine
 10
231.1763067878
 20
119.231384699
 30
0.0
 11
231.1763067878
 21
121.2860396469
 31
0.0
  0
LINE
  5
1F0
330
1F
100
AcDbEntity
  8
0
  6
Continuous
 62
     7
370
    18
100
AcDbLine
 10
231.3897774317
 20
119.231384699
 30
0.0
 11
231.1763067878
 21
119.231384699
 31
0.0
  0
LINE
  5
1F1
330
1F
100
AcDbEntity
  8
0
  6
Continuous
 62
     7
370
    18
100
AcDbLine
 10
231.3897774317
 20
120.0585834443
 30
0.0
 11
231.3897774317
 21
119.231384699
 31
0.0
  0
LINE
  5
1F2
330
1F
100
AcDbEntity
  8
0
  6
Continuous
 62
     7
370
    18
100
AcDbLine
 10
230.2957403816
 20
120.0852672748
 30
0.0
 11
230.9361523134
 21
120.0852672748
 31
0.0
  0
LINE
  5
1F3
330
1F
100
AcDbEntity
  8
0
  6
Continuous
 62
     7
370
    18
100
AcDbLine
 10
230.2957403816
 20
119.8451128004
 30
0.0
 11
230.2957403816
 21
120.0852672748
 31
0.0
  0
LINE
  5
1F4
330
1F
100
AcDbEntity
  8
0
  6
Continuous
 62
     7
370
    18
100
AcDbLine
 10
230.9361523134
 20
119.8451128004
 30
0.0
 11
230.2957403816
 21
119.8451128004
 31
0.0
  0
LINE
  5
1F5
330
1F
100
AcDbEntity
  8
0
  6
Continuous
 62
     7
370
    18
100
AcDbLine
 10
230.9361523134
 20
120.0852672748
 30
0.0
 11
230.9361523134
 21
119.8451128004
 31
0.0
  0
SPLINE
  5
1F6
330
1F
100
AcDbEntity
  8
0
  6
Continuous
 62
     7
370
    18
100
AcDbSpline
210
0.0
220
0.0
230
1.0
 70
     8
 71
     3
 72
    10
 73
     6
 74
     0
 42
0.000000001
 43
0.00000001
 40
0.0
 40
0.0
 40
0.0
 40
0.0
 40
0.2795751783825428
 40
0.5597049368157178
 40
1.0
 40
1.0
 40
1.0
 40
1.0
 10
229.941345757828
 20
121.0959173546861
 30
0.0
 10
229.9772242987335
 20
121.0234142072191
 30
0.0
 10
230.0490525511081
 20
120.8782640912226
 30
0.0
 10
230.0986506744119
 20
120.5917424312367
 30
0.0
 10
230.1050453786388
 20
120.3845227497489
 30
0.0
 10
230.1089535681086
 20
120.2578783032834
 30
0.0
  0
SPLINE
  5
1F7
330
1F
100
AcDbEntity
  8
0
  6
Continuous
 62
     7
370
    18
100
AcDbSpline
210
0.0
220
0.0
230
1.0
 70
     8
 71
     3
 72
    11
 73
     7
 74
     0
 42
0.000000001
 43
0.00000001
 40
0.0
 40
0.0
 40
0.0
 40
0.0
 40
0.2798903849624058
 40
0.5594964420644617
 40
0.7796718965173871
 40
1.0
 40
1.0
 40
1.0
 40
1.0
 10
229.5631858475682
 20
121.3127234774371
 30
0.0
 10
229.6059427892887
 20
121.3098709591652
 30
0.0
 10
229.6914132379052
 20
121.3041688203644
 30
0.0
 10
229.8001834930081
 20
121.250543738435
 30
0.0
 10
229.8837038185208
 20
121.1785043703501
 30
0.0
 10
229.9221273397193
 20
121.1234527189792
 30
0.0
 10
229.941345757828
 20
121.0959173546861
 30
0.0
  0
SPLINE
  5
1F8
330
1F
100
AcDbEntity
  8
0
  6
Continuous
 62
     7
370
    18
100
AcDbSpline
210
0.0
220
0.0
230
1.0
 70
     8
 71
     3
 72
    13
 73
     9
 74
     0
 42
0.000000001
 43
0.00000001
 40
0.0
 40
0.0
 40
0.0
 40
0.0
 40
0.2504890583456496
 40
0.5006738274425615
 40
0.6258446378555215
 40
0.7507584155659032
 40
0.8753007099299308
 40
1.0
 40
1.0
 40
1.0
 40
1.0
 10
229.0149165179192
 20
120.2578783032834
 30
0.0
 10
229.0176351325343
 20
120.3681185006412
 30
0.0
 10
229.0230690592442
 20
120.5884649777035
 30
0.0
 10
229.0731224312858
 20
120.8618924132509
 30
0.0
 10
229.158057956663
 20
121.066349947536
 30
0.0
 10
229.255046032352
 20
121.2018625686151
 30
0.0
 10
229.3970016954356
 20
121.2979618507035
 30
0.0
 10
229.5077678732178
 20
121.3078008693472
 30
0.0
 10
229.5631858475682
 20
121.3127234774371
 30
0.0
  0
SPLINE
  5
1F9
330
1F
100
AcDbEntity
  8
0
  6
Continuous
 62
     7
370
    18
100
AcDbSpline
210
0.0
220
0.0
230
1.0
 70
     8
 71
     3
 72
    13
 73
     9
 74
     0
 42
0.000000001
 43
0.00000001
 40
0.0
 40
0.0
 40
0.0
 40
0.0
 40
0.1245870753534851
 40
0.2492227148385399
 40
0.3742192396120914
 40
0.4992998133209625
 40
0.7494812006579983
 40
1.0
 40
1.0
 40
1.0
 40
1.0
 10
229.5606842384595
 20
119.2047008685356
 30
0.0
 10
229.5054205951707
 20
119.2103375648126
 30
0.0
 10
229.3948717667852
 20
119.2216131545551
 30
0.0
 10
229.2560828105624
 20
119.3202461673914
 30
0.0
 10
229.1530437018794
 20
119.4502505039514
 30
0.0
 10
229.067019816711
 20
119.6545964550049
 30
0.0
 10
229.0218489300917
 20
119.9280986341907
 30
0.0
 10
229.0172283598805
 20
120.1479023731141
 30
0.0
 10
229.0149165179192
 20
120.2578783032834
 30
0.0
  0
SPLINE
  5
1FA
330
1F
100
AcDbEntity
  8
0
  6
Continuous
 62
     7
370
    18
100
AcDbSpline
210
0.0
220
0.0
230
1.0
 70
     8
 71
     3
 72
    13
 73
     9
 74
     0
 42
0.000000001
 43
0.00000001
 40
0.0
 40
0.0
 40
0.0
 40
0.0
 40
0.2504702058475057
 40
0.5006494994159217
 40
0.6258027062132787
 40
0.7507410958263497
 40
0.8752785399750078
 40
1.0
 40
1.0
 40
1.0
 40
1.0
 10
230.1089535681086
 20
120.2578783032834
 30
0.0
 10
230.1062400728534
 20
120.1477458477319
 30
0.0
 10
230.1008162339719
 20
119.9276088515779
 30
0.0
 10
230.0500463762478
 20
119.654678251342
 30
0.0
 10
229.9656946288122
 20
119.4502541388907
 30
0.0
 10
229.8688118688558
 20
119.3147993101583
 30
0.0
 10
229.7267352519869
 20
119.2191210453565
 30
0.0
 10
229.6160618112638
 20
119.2095099592769
 30
0.0
 10
229.5606842384595
 20
119.2047008685356
 30
0.0
  0
SPLINE
  5
1FB
330
1F
100
AcDbEntity
  8
0
  6
Continuous
 62
     7
370
    18
100
AcDbSpline
210
0.0
220
0.0
230
1.0
 70
     8
 71
     3
 72
    10
 73
     6
 74
     0
 42
0.000000001
 43
0.00000001
 40
0.0
 40
0.0
 40
0.0
 40
0.0
 40
0.2795751783825432
 40
0.5597049368157176
 40
0.9999999999999999
 40
0.9999999999999999
 40
0.9999999999999999
 40
0.9999999999999999
 10
228.6338380636992
 20
121.0959173546861
 30
0.0
 10
228.6697166046047
 20
121.0234142072191
 30
0.0
 10
228.7415448569793
 20
120.8782640912226
 30
0.0
 10
228.7911429802831
 20
120.5917424312367
 30
0.0
 10
228.79753768451
 20
120.3845227497489
 30
0.0
 10
228.8014458739797
 20
120.2578783032834
 30
0.0
  0
SPLINE
  5
1FC
330
1F
100
AcDbEntity
  8
0
  6
Continuous
 62
     7
370
    18
100
AcDbSpline
210
0.0
220
0.0
230
1.0
 70
     8
 71
     3
 72
    11
 73
     7
 74
     0
 42
0.000000001
 43
0.00000001
 40
0.0
 40
0.0
 40
0.0
 40
0.0
 40
0.2798903849624044
 40
0.5594964420644609
 40
0.7796718965173826
 40
0.9999999999999999
 40
0.9999999999999999
 40
0.9999999999999999
 40
0.9999999999999999
 10
228.2556781534394
 20
121.3127234774371
 30
0.0
 10
228.2984350951599
 20
121.3098709591652
 30
0.0
 10
228.3839055437764
 20
121.3041688203644
 30
0.0
 10
228.4926757988793
 20
121.250543738435
 30
0.0
 10
228.576196124392
 20
121.1785043703501
 30
0.0
 10
228.6146196455905
 20
121.1234527189792
 30
0.0
 10
228.6338380636992
 20
121.0959173546861
 30
0.0
  0
SPLINE
  5
1FD
330
1F
100
AcDbEntity
  8
0
  6
Continuous
 62
     7
370
    18
100
AcDbSpline
210
0.0
220
0.0
230
1.0
 70
     8
 71
     3
 72
    13
 73
     9
 74
     0
 42
0.000000001
 43
0.00000001
 40
0.0
 40
0.0
 40
0.0
 40
0.0
 40
0.2504890583456469
 40
0.5006738274425614
 40
0.6258446378555215
 40
0.7507584155659032
 40
0.8753007099299311
 40
1.0
 40
1.0
 40
1.0
 40
1.0
 10
227.7074088237904
 20
120.2578783032834
 30
0.0
 10
227.7101274384055
 20
120.3681185006412
 30
0.0
 10
227.7155613651154
 20
120.5884649777035
 30
0.0
 10
227.765614737157
 20
120.8618924132509
 30
0.0
 10
227.8505502625342
 20
121.066349947536
 30
0.0
 10
227.9475383382232
 20
121.2018625686151
 30
0.0
 10
228.0894940013068
 20
121.2979618507035
 30
0.0
 10
228.200260179089
 20
121.3078008693472
 30
0.0
 10
228.2556781534394
 20
121.3127234774371
 30
0.0
  0
SPLINE
  5
1FE
330
1F
100
AcDbEntity
  8
0
  6
Continuous
 62
     7
370
    18
100
AcDbSpline
210
0.0
220
0.0
230
1.0
 70
     8
 71
     3
 72
    13
 73
     9
 74
     0
 42
0.000000001
 43
0.00000001
 40
0.0
 40
0.0
 40
0.0
 40
0.0
 40
0.1245870753534851
 40
0.2492227148385402
 40
0.3742192396120916
 40
0.4992998133209627
 40
0.7494812006579985
 40
1.0
 40
1.0
 40
1.0
 40
1.0
 10
228.2531765443307
 20
119.2047008685356
 30
0.0
 10
228.1979129010419
 20
119.2103375648126
 30
0.0
 10
228.0873640726564
 20
119.2216131545551
 30
0.0
 10
227.9485751164336
 20
119.3202461673914
 30
0.0
 10
227.8455360077506
 20
119.4502505039514
 30
0.0
 10
227.7595121225822
 20
119.6545964550049
 30
0.0
 10
227.714341235963
 20
119.9280986341907
 30
0.0
 10
227.7097206657517
 20
120.1479023731141
 30
0.0
 10
227.7074088237904
 20
120.2578783032834
 30
0.0
  0
SPLINE
  5
1FF
330
1F
100
AcDbEntity
  8
0
  6
Continuous
 62
     7
370
    18
100
AcDbSpline
210
0.0
220
0.0
230
1.0
 70
     8
 71
     3
 72
    13
 73
     9
 74
     0
 42
0.000000001
 43
0.00000001
 40
0.0
 40
0.0
 40
0.0
 40
0.0
 40
0.2504702058475083
 40
0.5006494994159215
 40
0.6258027062132806
 40
0.7507410958263525
 40
0.8752785399750083
 40
1.0
 40
1.0
 40
1.0
 40
1.0
 10
228.8014458739797
 20
120.2578783032834
 30
0.0
 10
228.7987323787247
 20
120.1477458477319
 30
0.0
 10
228.7933085398431
 20
119.9276088515779
 30
0.0
 10
228.742538682119
 20
119.6546782513419
 30
0.0
 10
228.6581869346834
 20
119.4502541388907
 30
0.0
 10
228.561304174727
 20
119.3147993101583
 30
0.0
 10
228.4192275578581
 20
119.2191210453565
 30
0.0
 10
228.308554117135
 20
119.209509959277
 30
0.0
 10
228.2531765443307
 20
119.2047008685356
 30
0.0
  0
SPLINE
  5
200
330
1F
100
AcDbEntity
  8
0
  6
Continuous
 62
     7
370
    18
100
AcDbSpline
210
0.0
220
0.0
230
1.0
 70
     8
 71
     3
 72
    10
 73
     6
 74
     0
 42
0.000000001
 43
0.00000001
 40
0.0
 40
0.0
 40
0.0
 40
0.0
 40
0.2795751783825434
 40
0.5597049368157178
 40
1.0
 40
1.0
 40
1.0
 40
1.0
 10
227.3263303695704
 20
121.0959173546861
 30
0.0
 10
227.3622089104759
 20
121.0234142072191
 30
0.0
 10
227.4340371628506
 20
120.8782640912226
 30
0.0
 10
227.4836352861543
 20
120.5917424312367
 30
0.0
 10
227.4900299903812
 20
120.3845227497489
 30
0.0
 10
227.493938179851
 20
120.2578783032834
 30
0.0
  0
SPLINE
  5
201
330
1F
100
AcDbEntity
  8
0
  6
Continuous
 62
     7
370
    18
100
AcDbSpline
210
0.0
220
0.0
230
1.0
 70
     8
 71
     3
 72
    11
 73
     7
 74
     0
 42
0.000000001
 43
0.00000001
 40
0.0
 40
0.0
 40
0.0
 40
0.0
 40
0.2798903849624056
 40
0.5594964420644614
 40
0.7796718965173896
 40
1.0
 40
1.0
 40
1.0
 40
1.0
 10
226.9481704593106
 20
121.3127234774371
 30
0.0
 10
226.9909274010311
 20
121.3098709591652
 30
0.0
 10
227.0763978496476
 20
121.3041688203644
 30
0.0
 10
227.1851681047505
 20
121.250543738435
 30
0.0
 10
227.2686884302632
 20
121.1785043703501
 30
0.0
 10
227.3071119514617
 20
121.1234527189792
 30
0.0
 10
227.3263303695704
 20
121.0959173546861
 30
0.0
  0
SPLINE
  5
202
330
1F
100
AcDbEntity
  8
0
  6
Continuous
 62
     7
370
    18
100
AcDbSpline
210
0.0
220
0.0
230
1.0
 70
     8
 71
     3
 72
    13
 73
     9
 74
     0
 42
0.000000001
 43
0.00000001
 40
0.0
 40
0.0
 40
0.0
 40
0.0
 40
0.2504890583456494
 40
0.5006738274425614
 40
0.6258446378555214
 40
0.7507584155659026
 40
0.8753007099299305
 40
1.0
 40
1.0
 40
1.0
 40
1.0
 10
226.3999011296616
 20
120.2578783032834
 30
0.0
 10
226.4026197442767
 20
120.3681185006412
 30
0.0
 10
226.4080536709866
 20
120.5884649777035
 30
0.0
 10
226.4581070430281
 20
120.8618924132509
 30
0.0
 10
226.5430425684054
 20
121.066349947536
 30
0.0
 10
226.6400306440944
 20
121.2018625686151
 30
0.0
 10
226.781986307178
 20
121.2979618507035
 30
0.0
 10
226.8927524849603
 20
121.3078008693472
 30
0.0
 10
226.9481704593106
 20
121.3127234774371
 30
0.0
  0
SPLINE
  5
203
330
1F
100
AcDbEntity
  8
0
  6
Continuous
 62
     7
370
    18
100
AcDbSpline
210
0.0
220
0.0
230
1.0
 70
     8
 71
     3
 72
    13
 73
     9
 74
     0
 42
0.000000001
 43
0.00000001
 40
0.0
 40
0.0
 40
0.0
 40
0.0
 40
0.1245870753534844
 40
0.2492227148385398
 40
0.3742192396120913
 40
0.4992998133209626
 40
0.7494812006579982
 40
1.0
 40
1.0
 40
1.0
 40
1.0
 10
226.9456688502019
 20
119.2047008685356
 30
0.0
 10
226.8904052069131
 20
119.2103375648126
 30
0.0
 10
226.7798563785276
 20
119.221613154555
 30
0.0
 10
226.6410674223049
 20
119.3202461673914
 30
0.0
 10
226.5380283136218
 20
119.4502505039514
 30
0.0
 10
226.4520044284534
 20
119.6545964550049
 30
0.0
 10
226.4068335418342
 20
119.9280986341907
 30
0.0
 10
226.4022129716229
 20
120.1479023731141
 30
0.0
 10
226.3999011296616
 20
120.2578783032834
 30
0.0
  0
SPLINE
  5
204
330
1F
100
AcDbEntity
  8
0
  6
Continuous
 62
     7
370
    18
100
AcDbSpline
210
0.0
220
0.0
230
1.0
 70
     8
 71
     3
 72
    13
 73
     9
 74
     0
 42
0.000000001
 43
0.00000001
 40
0.0
 40
0.0
 40
0.0
 40
0.0
 40
0.250470205847506
 40
0.5006494994159245
 40
0.6258027062132792
 40
0.750741095826351
 40
0.8752785399750075
 40
0.9999999999999999
 40
0.9999999999999999
 40
0.9999999999999999
 40
0.9999999999999999
 10
227.493938179851
 20
120.2578783032834
 30
0.0
 10
227.4912246845959
 20
120.1477458477319
 30
0.0
 10
227.4858008457144
 20
119.9276088515779
 30
0.0
 10
227.4350309879902
 20
119.654678251342
 30
0.0
 10
227.3506792405547
 20
119.4502541388907
 30
0.0
 10
227.2537964805982
 20
119.3147993101583
 30
0.0
 10
227.1117198637293
 20
119.2191210453565
 30
0.0
 10
227.0010464230062
 20
119.2095099592769
 30
0.0
 10
226.9456688502019
 20
119.2047008685356
 30
0.0
  0
SPLINE
  5
205
330
1F
100
AcDbEntity
  8
0
  6
Continuous
 62
     7
370
    18
100
AcDbSpline
210
0.0
220
0.0
230
1.0
 70
     8
 71
     3
 72
    11
 73
     7
 74
     0
 42
0.000000001
 43
0.00000001
 40
0.0
 40
0.0
 40
0.0
 40
0.0
 40
0.2800359244938578
 40
0.5600382743760558
 40
0.7801217300908262
 40
1.0
 40
1.0
 40
1.0
 40
1.0
 10
225.2258125879949
 20
120.7790468675886
 30
0.0
 10
225.2846594882015
 20
120.8163041100745
 30
0.0
 10
225.4023462332277
 20
120.8908141281286
 30
0.0
 10
225.5415555151461
 20
121.0265365804834
 30
0.0
 10
225.6560200679294
 20
121.1649769170186
 30
0.0
 10
225.7038822292553
 20
121.2634899385341
 30
0.0
 10
225.7278021491336
 20
121.3127234774371
 30
0.0
  0
LINE
  5
206
330
1F
100
AcDbEntity
  8
0
  6
Continuous
 62
     7
370
    18
100
AcDbLine
 10
225.225812588
 20
120.5388923932
 30
0.0
 11
225.225812588
 21
120.7790468676
 31
0.0
  0
SPLINE
  5
207
330
1F
100
AcDbEntity
  8
0
  6
Continuous
 62
     7
370
    18
100
AcDbSpline
210
0.0
220
0.0
230
1.0
 70
     8
 71
     3
 72
     9
 73
     5
 74
     0
 42
0.000000001
 43
0.00000001
 40
0.0
 40
0.0
 40
0.0
 40
0.0
 40
0.5597552341668192
 40
1.0
 40
1.0
 40
1.0
 40
1.0
 10
225.6527538758737
 20
120.8590983590659
 30
0.0
 10
225.5812394525859
 20
120.7882266710739
 30
0.0
 10
225.4534792836359
 20
120.6616147456
 30
0.0
 10
225.2954042806629
 20
120.5764053733082
 30
0.0
 10
225.2258125879949
 20
120.5388923931568
 30
0.0
  0
LINE
  5
208
330
1F
100
AcDbEntity
  8
0
  6
Continuous
 62
     7
370
    18
100
AcDbLine
 10
225.6527538759
 20
119.231384699
 30
0.0
 11
225.6527538759
 21
120.8590983591
 31
0.0
  0
LINE
  5
209
330
1F
100
AcDbEntity
  8
0
  6
Continuous
 62
     7
370
    18
100
AcDbLine
 10
225.8662245198
 20
119.231384699
 30
0.0
 11
225.6527538759
 21
119.231384699
 31
0.0
  0
LINE
  5
20A
330
1F
100
AcDbEntity
  8
0
  6
Continuous
 62
     7
370
    18
100
AcDbLine
 10
225.8662245198
 20
121.3127234774
 30
0.0
 11
225.8662245198
 21
119.231384699
 31
0.0
  0
LINE
  5
20B
330
1F
100
AcDbEntity
  8
0
  6
Continuous
 62
     7
370
    18
100
AcDbLine
 10
225.7278021491
 20
121.3127234774
 30
0.0
 11
225.8662245198
 21
121.3127234774
 31
0.0
  0
LINE
  5
20C
330
1F
100
AcDbEntity
  8
0
  6
Continuous
 62
     7
370
    18
100
AcDbLine
 10
224.2918785208
 20
120.0852672748
 30
0.0
 11
224.9322904526
 21
120.0852672748
 31
0.0
  0
LINE
  5
20D
330
1F
100
AcDbEntity
  8
0
  6
Continuous
 62
     7
370
    18
100
AcDbLine
 10
224.2918785208
 20
119.8451128004
 30
0.0
 11
224.2918785208
 21
120.0852672748
 31
0.0
  0
LINE
  5
20E
330
1F
100
AcDbEntity
  8
0
  6
Continuous
 62
     7
370
    18
100
AcDbLine
 10
224.9322904526
 20
119.8451128004
 30
0.0
 11
224.2918785208
 21
119.8451128004
 31
0.0
  0
LINE
  5
20F
330
1F
100
AcDbEntity
  8
0
  6
Continuous
 62
     7
370
    18
100
AcDbLine
 10
224.9322904526
 20
120.0852672748
 30
0.0
 11
224.9322904526
 21
119.8451128004
 31
0.0
  0
SPLINE
  5
210
330
1F
100
AcDbEntity
  8
0
  6
Continuous
 62
     7
370
    18
100
AcDbSpline
210
0.0
220
0.0
230
1.0
 70
     8
 71
     3
 72
    12
 73
     8
 74
     0
 42
0.000000001
 43
0.00000001
 40
0.0
 40
0.0
 40
0.0
 40
0.0
 40
0.187105759524008
 40
0.3740211604078919
 40
0.5608338669252976
 40
0.780358512659648
 40
0.9999999999999999
 40
0.9999999999999999
 40
0.9999999999999999
 40
0.9999999999999999
 10
224.1050917073131
 20
119.8280184714445
 30
0.0
 10
224.1021425989894
 20
119.7703249214358
 30
0.0
 10
224.0962473827214
 20
119.6549965179853
 30
0.0
 10
224.0367470575775
 20
119.4895741569946
 30
0.0
 10
223.926832834753
 20
119.3420785076955
 30
0.0
 10
223.764139758498
 20
119.2248667105573
 30
0.0
 10
223.6276080189218
 20
119.2114240080347
 30
0.0
 10
223.5593239867727
 20
119.2047008685356
 30
0.0
  0
SPLINE
  5
211
330
1F
100
AcDbEntity
  8
0
  6
Continuous
 62
     7
370
    18
100
AcDbSpline
210
0.0
220
0.0
230
1.0
 70
     8
 71
     3
 72
    11
 73
     7
 74
     0
 42
0.000000001
 43
0.00000001
 40
0.0
 40
0.0
 40
0.0
 40
0.0
 40
0.2796220600248639
 40
0.5590245428560695
 40
0.7793847317261617
 40
1.0
 40
1.0
 40
1.0
 40
1.0
 10
223.7777978489295
 20
120.3587765373329
 30
0.0
 10
223.834064377544
 20
120.3309412513848
 30
0.0
 10
223.9465532506824
 20
120.2752925375422
 30
0.0
 10
224.0503229400797
 20
120.1288706359788
 30
0.0
 10
224.0982569866111
 20
119.9749941651487
 30
0.0
 10
224.1028125886929
 20
119.8770292584017
 30
0.0
 10
224.1050917073131
 20
119.8280184714445
 30
0.0
  0
SPLINE
  5
212
330
1F
100
AcDbEntity
  8
0
  6
Continuous
 62
     7
370
    18
100
AcDbSpline
210
0.0
220
0.0
230
1.0
 70
     8
 71
     3
 72
    11
 73
     7
 74
     0
 42
0.000000001
 43
0.00000001
 40
0.0
 40
0.0
 40
0.0
 40
0.0
 40
0.2801901752489535
 40
0.5597317672418772
 40
0.7798035967389129
 40
1.0
 40
1.0
 40
1.0
 40
1.0
 10
224.0250402158358
 20
120.7732097796684
 30
0.0
 10
224.0223961925847
 20
120.7252117855405
 30
0.0
 10
224.0171142664585
 20
120.6293269028767
 30
0.0
 10
223.9619822018151
 20
120.5046295453152
 30
0.0
 10
223.877606053899
 20
120.412397463455
 30
0.0
 10
223.8110735257056
 20
120.3766535506168
 30
0.0
 10
223.7777978489295
 20
120.3587765373329
 30
0.0
  0
SPLINE
  5
213
330
1F
100
AcDbEntity
  8
0
  6
Continuous
 62
     7
370
    18
100
AcDbSpline
210
0.0
220
0.0
230
1.0
 70
     8
 71
     3
 72
    12
 73
     8
 74
     0
 42
0.000000001
 43
0.00000001
 40
0.0
 40
0.0
 40
0.0
 40
0.0
 40
0.1866818949369827
 40
0.3730939207975814
 40
0.5598445729636945
 40
0.7796788980924662
 40
0.9999999999999999
 40
0.9999999999999999
 40
0.9999999999999999
 40
0.9999999999999999
 10
223.5559885079612
 20
121.3127234774371
 30
0.0
 10
223.6059388293324
 20
121.3086880118968
 30
0.0
 10
223.7057672634276
 20
121.3006229145226
 30
0.0
 10
223.8383980726849
 20
121.2235018638205
 30
0.0
 10
223.9445216044885
 20
121.1050985217471
 30
0.0
 10
224.0150105360667
 20
120.9494808447715
 30
0.0
 10
224.0216945252598
 20
120.8320101057905
 30
0.0
 10
224.0250402158358
 20
120.7732097796684
 30
0.0
  0
SPLINE
  5
214
330
1F
100
AcDbEntity
  8
0
  6
Continuous
 62
     7
370
    18
100
AcDbSpline
210
0.0
220
0.0
230
1.0
 70
     8
 71
     3
 72
    12
 73
     8
 74
     0
 42
0.000000001
 43
0.00000001
 40
0.0
 40
0.0
 40
0.0
 40
0.0
 40
0.187137758729535
 40
0.3740411921344255
 40
0.5608494686677243
 40
0.7803659435040508
 40
1.0
 40
1.0
 40
1.0
 40
1.0
 10
223.0911061486009
 20
120.7815484766973
 30
0.0
 10
223.0936552458363
 20
120.8307482304895
 30
0.0
 10
223.0987502484444
 20
120.9290861323971
 30
0.0
 10
223.1488839721268
 20
121.0702658662663
 30
0.0
 10
223.2419411081156
 20
121.1967036664674
 30
0.0
 10
223.3814271930439
 20
121.2957007188779
 30
0.0
 10
223.4977910175965
 20
121.307048211828
 30
0.0
 10
223.5559885079612
 20
121.3127234774371
 30
0.0
  0
SPLINE
  5
215
330
1F
100
AcDbEntity
  8
0
  6
Continuous
 62
     7
370
    18
100
AcDbSpline
210
0.0
220
0.0
230
1.0
 70
     8
 71
     3
 72
    11
 73
     7
 74
     0
 42
0.000000001
 43
0.00000001
 40
0.0
 40
0.0
 40
0.0
 40
0.0
 40
0.2798399979573812
 40
0.5592260384591595
 40
0.7795665615265377
 40
1.0
 40
1.0
 40
1.0
 40
1.0
 10
223.340850124616
 20
120.3587765373329
 30
0.0
 10
223.2979076618716
 20
120.3826340872095
 30
0.0
 10
223.2120923978009
 20
120.4303104851592
 30
0.0
 10
223.1325158176209
 20
120.5455921017276
 30
0.0
 10
223.0958236849642
 20
120.6664450982046
 30
0.0
 10
223.0926788816975
 20
120.7431752922766
 30
0.0
 10
223.0911061486009
 20
120.7815484766973
 30
0.0
  0
SPLINE
  5
216
330
1F
100
AcDbEntity
  8
0
  6
Continuous
 62
     7
370
    18
100
AcDbSpline
210
0.0
220
0.0
230
1.0
 70
     8
 71
     3
 72
    11
 73
     7
 74
     0
 42
0.000000001
 43
0.00000001
 40
0.0
 40
0.0
 40
0.0
 40
0.0
 40
0.2804755498465851
 40
0.560095793036985
 40
0.7800256682201209
 40
0.9999999999999999
 40
0.9999999999999999
 40
0.9999999999999999
 40
0.9999999999999999
 10
223.0110546571237
 20
119.8351063639191
 30
0.0
 10
223.0143810500707
 20
119.8974927963404
 30
0.0
 10
223.0210236921712
 20
120.0220754145432
 30
0.0
 10
223.092263317052
 20
120.1839091231371
 30
0.0
 10
223.2040549979855
 20
120.3033329743617
 30
0.0
 10
223.2952486770699
 20
120.340294104582
 30
0.0
 10
223.340850124616
 20
120.3587765373329
 30
0.0
  0
SPLINE
  5
217
330
1F
100
AcDbEntity
  8
0
  6
Continuous
 62
     7
370
    18
100
AcDbSpline
210
0.0
220
0.0
230
1.0
 70
     8
 71
     3
 72
    12
 73
     8
 74
     0
 42
0.000000001
 43
0.00000001
 40
0.0
 40
0.0
 40
0.0
 40
0.0
 40
0.1866482491791782
 40
0.3730988090506998
 40
0.5597919176482337
 40
0.7796545203293584
 40
1.0
 40
1.0
 40
1.0
 40
1.0
 10
223.5593239867727
 20
119.2047008685356
 30
0.0
 10
223.5009122992398
 20
119.2094612712309
 30
0.0
 10
223.3841507911679
 20
119.2189770346202
 30
0.0
 10
223.2287751184337
 20
119.3083988567738
 30
0.0
 10
223.1032374963943
 20
119.4459685582763
 30
0.0
 10
223.0227052930342
 20
119.6290201408767
 30
0.0
 10
223.0149410413713
 20
119.7663607386124
 30
0.0
 10
223.0110546571237
 20
119.8351063639191
 30
0.0
  0
SPLINE
  5
218
330
1F
100
AcDbEntity
  8
0
  6
Continuous
 62
     7
370
    18
100
AcDbSpline
210
0.0
220
0.0
230
1.0
 70
     8
 71
     3
 72
    10
 73
     6
 74
     0
 42
0.000000001
 43
0.00000001
 40
0.0
 40
0.0
 40
0.0
 40
0.0
 40
0.2795751783825459
 40
0.5597049368157192
 40
1.0
 40
1.0
 40
1.0
 40
1.0
 10
222.6299762029037
 20
121.0959173546861
 30
0.0
 10
222.6658547438092
 20
121.0234142072191
 30
0.0
 10
222.7376829961838
 20
120.8782640912226
 30
0.0
 10
222.7872811194877
 20
120.5917424312367
 30
0.0
 10
222.7936758237145
 20
120.3845227497489
 30
0.0
 10
222.7975840131843
 20
120.2578783032834
 30
0.0
  0
SPLINE
  5
219
330
1F
100
AcDbEntity
  8
0
  6
Continuous
 62
     7
370
    18
100
AcDbSpline
210
0.0
220
0.0
230
1.0
 70
     8
 71
     3
 72
    11
 73
     7
 74
     0
 42
0.000000001
 43
0.00000001
 40
0.0
 40
0.0
 40
0.0
 40
0.0
 40
0.2798903849624054
 40
0.5594964420644638
 40
0.7796718965173883
 40
1.0
 40
1.0
 40
1.0
 40
1.0
 10
222.2518162926439
 20
121.3127234774371
 30
0.0
 10
222.2945732343644
 20
121.3098709591652
 30
0.0
 10
222.3800436829809
 20
121.3041688203644
 30
0.0
 10
222.4888139380838
 20
121.250543738435
 30
0.0
 10
222.5723342635965
 20
121.1785043703501
 30
0.0
 10
222.610757784795
 20
121.1234527189792
 30
0.0
 10
222.6299762029037
 20
121.0959173546861
 30
0.0
  0
SPLINE
  5
21A
330
1F
100
AcDbEntity
  8
0
  6
Continuous
 62
     7
370
    18
100
AcDbSpline
210
0.0
220
0.0
230
1.0
 70
     8
 71
     3
 72
    13
 73
     9
 74
     0
 42
0.000000001
 43
0.00000001
 40
0.0
 40
0.0
 40
0.0
 40
0.0
 40
0.2504890583456491
 40
0.5006738274425607
 40
0.6258446378555204
 40
0.7507584155659041
 40
0.8753007099299303
 40
1.0
 40
1.0
 40
1.0
 40
1.0
 10
221.7035469629949
 20
120.2578783032834
 30
0.0
 10
221.70626557761
 20
120.3681185006412
 30
0.0
 10
221.7116995043199
 20
120.5884649777035
 30
0.0
 10
221.7617528763615
 20
120.8618924132509
 30
0.0
 10
221.8466884017387
 20
121.066349947536
 30
0.0
 10
221.9436764774278
 20
121.2018625686151
 30
0.0
 10
222.0856321405114
 20
121.2979618507035
 30
0.0
 10
222.1963983182936
 20
121.3078008693472
 30
0.0
 10
222.2518162926439
 20
121.3127234774371
 30
0.0
  0
SPLINE
  5
21B
330
1F
100
AcDbEntity
  8
0
  6
Continuous
 62
     7
370
    18
100
AcDbSpline
210
0.0
220
0.0
230
1.0
 70
     8
 71
     3
 72
    13
 73
     9
 74
     0
 42
0.000000001
 43
0.00000001
 40
0.0
 40
0.0
 40
0.0
 40
0.0
 40
0.1245870753534845
 40
0.2492227148385398
 40
0.3742192396120909
 40
0.4992998133209642
 40
0.7494812006579953
 40
0.9999999999999999
 40
0.9999999999999999
 40
0.9999999999999999
 40
0.9999999999999999
 10
222.2493146835353
 20
119.2047008685356
 30
0.0
 10
222.1940510402464
 20
119.2103375648127
 30
0.0
 10
222.0835022118609
 20
119.2216131545551
 30
0.0
 10
221.9447132556382
 20
119.3202461673914
 30
0.0
 10
221.8416741469551
 20
119.4502505039514
 30
0.0
 10
221.7556502617867
 20
119.6545964550049
 30
0.0
 10
221.7104793751675
 20
119.9280986341907
 30
0.0
 10
221.7058588049562
 20
120.1479023731141
 30
0.0
 10
221.7035469629949
 20
120.2578783032834
 30
0.0
  0
SPLINE
  5
21C
330
1F
100
AcDbEntity
  8
0
  6
Continuous
 62
     7
370
    18
100
AcDbSpline
210
0.0
220
0.0
230
1.0
 70
     8
 71
     3
 72
    13
 73
     9
 74
     0
 42
0.000000001
 43
0.00000001
 40
0.0
 40
0.0
 40
0.0
 40
0.0
 40
0.2504702058475082
 40
0.5006494994159216
 40
0.6258027062132806
 40
0.7507410958263507
 40
0.8752785399750083
 40
1.0
 40
1.0
 40
1.0
 40
1.0
 10
222.7975840131843
 20
120.2578783032834
 30
0.0
 10
222.7948705179292
 20
120.1477458477319
 30
0.0
 10
222.7894466790477
 20
119.9276088515779
 30
0.0
 10
222.7386768213236
 20
119.654678251342
 30
0.0
 10
222.654325073888
 20
119.4502541388907
 30
0.0
 10
222.5574423139315
 20
119.3147993101583
 30
0.0
 10
222.4153656970627
 20
119.2191210453565
 30
0.0
 10
222.3046922563395
 20
119.2095099592769
 30
0.0
 10
222.2493146835353
 20
119.2047008685356
 30
0.0
  0
SPLINE
  5
21D
330
1F
100
AcDbEntity
  8
0
  6
Continuous
 62
     7
370
    18
100
AcDbSpline
210
0.0
220
0.0
230
1.0
 70
     8
 71
     3
 72
    12
 73
     8
 74
     0
 42
0.000000001
 43
0.00000001
 40
0.0
 40
0.0
 40
0.0
 40
0.0
 40
0.1861323399318221
 40
0.3726108819815586
 40
0.5594136204052375
 40
0.7795030968205974
 40
1.0
 40
1.0
 40
1.0
 40
1.0
 10
220.9889206276196
 20
120.5922600541416
 30
0.0
 10
221.0465629425547
 20
120.5855741537588
 30
0.0
 10
221.1619547858813
 20
120.5721899173632
 30
0.0
 10
221.3041005107099
 20
120.4650782731997
 30
0.0
 10
221.4152705295141
 20
120.3195169553869
 30
0.0
 10
221.481067429295
 20
120.1341923448889
 30
0.0
 10
221.4870715050706
 20
119.9987734437776
 30
0.0
 10
221.4900763190555
 20
119.9310013797512
 30
0.0
  0
SPLINE
  5
21E
330
1F
100
AcDbEntity
  8
0
  6
Continuous
 62
     7
370
    18
100
AcDbSpline
210
0.0
220
0.0
230
1.0
 70
     8
 71
     3
 72
     9
 73
     5
 74
     0
 42
0.000000001
 43
0.00000001
 40
0.0
 40
0.0
 40
0.0
 40
0.0
 40
0.5597945537684257
 40
1.0
 40
1.0
 40
1.0
 40
1.0
 10
220.6845581860654
 20
120.5117916278129
 30
0.0
 10
220.7386789921059
 20
120.5375996329585
 30
0.0
 10
220.8353587573449
 20
120.5837022700274
 30
0.0
 10
220.9419837327445
 20
120.589644327903
 30
0.0
 10
220.9889206276196
 20
120.5922600541416
 30
0.0
  0
LINE
  5
21F
330
1F
100
AcDbEntity
  8
0
  6
Continuous
 62
     7
370
    18
100
AcDbLine
 10
220.7616911336
 20
121.019201342
 30
0.0
 11
220.6845581861
 21
120.5117916278
 31
0.0
  0
LINE
  5
220
330
1F
100
AcDbEntity
  8
0
  6
Continuous
 62
     7
370
    18
100
AcDbLine
 10
221.4100248276
 20
121.019201342
 30
0.0
 11
220.7616911336
 21
121.019201342
 31
0.0
  0
LINE
  5
221
330
1F
100
AcDbEntity
  8
0
  6
Continuous
 62
     7
370
    18
100
AcDbLine
 10
221.4100248276
 20
121.2593558165
 30
0.0
 11
221.4100248276
 21
121.019201342
 31
0.0
  0
LINE
  5
222
330
1F
100
AcDbEntity
  8
0
  6
Continuous
 62
     7
370
    18
100
AcDbLine
 10
220.5828260823
 20
121.2593558165
 30
0.0
 11
221.4100248276
 21
121.2593558165
 31
0.0
  0
LINE
  5
223
330
1F
100
AcDbEntity
  8
0
  6
Continuous
 62
     7
370
    18
100
AcDbLine
 10
220.4227230994
 20
120.2065953166
 30
0.0
 11
220.5828260823
 21
121.2593558165
 31
0.0
  0
LINE
  5
224
330
1F
100
AcDbEntity
  8
0
  6
Continuous
 62
     7
370
    18
100
AcDbLine
 10
220.6361937433
 20
120.1761590724
 30
0.0
 11
220.4227230994
 21
120.2065953166
 31
0.0
  0
SPLINE
  5
225
330
1F
100
AcDbEntity
  8
0
  6
Continuous
 62
     7
370
    18
100
AcDbSpline
210
0.0
220
0.0
230
1.0
 70
     8
 71
     3
 72
    10
 73
     6
 74
     0
 42
0.000000001
 43
0.00000001
 40
0.0
 40
0.0
 40
0.0
 40
0.0
 40
0.28016827716769
 40
0.5607715634932497
 40
0.9999999999999999
 40
0.9999999999999999
 40
0.9999999999999999
 40
0.9999999999999999
 10
220.9292989438632
 20
120.3787894102022
 30
0.0
 10
220.8943109306255
 20
120.3749224423522
 30
0.0
 10
220.8242805792769
 20
120.3671825025234
 30
0.0
 10
220.7134360667198
 20
120.30052796017
 30
0.0
 10
220.6654648943036
 20
120.2232889402377
 30
0.0
 10
220.6361937432979
 20
120.1761590724004
 30
0.0
  0
SPLINE
  5
226
330
1F
100
AcDbEntity
  8
0
  6
Continuous
 62
     7
370
    18
100
AcDbSpline
210
0.0
220
0.0
230
1.0
 70
     8
 71
     3
 72
    11
 73
     7
 74
     0
 42
0.000000001
 43
0.00000001
 40
0.0
 40
0.0
 40
0.0
 40
0.0
 40
0.281031819621702
 40
0.560586075566235
 40
0.780388975294901
 40
1.0
 40
1.0
 40
1.0
 40
1.0
 10
221.2766056751161
 20
119.9193272039108
 30
0.0
 10
221.2737491819506
 20
119.9798789520399
 30
0.0
 10
221.2680512140278
 20
120.100664089104
 30
0.0
 10
221.1940093667866
 20
120.2557653825555
 30
0.0
 10
221.0723173105055
 20
120.361874359036
 30
0.0
 10
220.976957852818
 20
120.3731527014184
 30
0.0
 10
220.9292989438632
 20
120.3787894102022
 30
0.0
  0
SPLINE
  5
227
330
1F
100
AcDbEntity
  8
0
  6
Continuous
 62
     7
370
    18
100
AcDbSpline
210
0.0
220
0.0
230
1.0
 70
     8
 71
     3
 72
    12
 73
     8
 74
     0
 42
0.000000001
 43
0.00000001
 40
0.0
 40
0.0
 40
0.0
 40
0.0
 40
0.1858835197478848
 40
0.3723018513499641
 40
0.5590684864252773
 40
0.7793243380015299
 40
1.0
 40
1.0
 40
1.0
 40
1.0
 10
220.9238787907944
 20
119.418171512475
 30
0.0
 10
220.9663800939775
 20
119.4236935029615
 30
0.0
 10
221.0515049823019
 20
119.434753371443
 30
0.0
 10
221.1522928146192
 20
119.5196418983263
 30
0.0
 10
221.2281834440654
 20
119.6312134525457
 30
0.0
 10
221.2705296940359
 20
119.7695267244188
 30
0.0
 10
221.2745790629561
 20
119.8693620263854
 30
0.0
 10
221.2766056751161
 20
119.9193272039108
 30
0.0
  0
SPLINE
  5
228
330
1F
100
AcDbEntity
  8
0
  6
Continuous
 62
     7
370
    18
100
AcDbSpline
210
0.0
220
0.0
230
1.0
 70
     8
 71
     3
 72
    11
 73
     7
 74
     0
 42
0.000000001
 43
0.00000001
 40
0.0
 40
0.0
 40
0.0
 40
0.0
 40
0.2811074381184311
 40
0.561116001753278
 40
0.7809929910720564
 40
1.0
 40
1.0
 40
1.0
 40
1.0
 10
220.6095099128055
 20
119.8184289698613
 30
0.0
 10
220.6177256417583
 20
119.7667827201425
 30
0.0
 10
220.634124983634
 20
119.6636921105815
 30
0.0
 10
220.6983797689349
 20
119.5314038624475
 30
0.0
 10
220.8007573269514
 20
119.4364525234691
 30
0.0
 10
220.8828925738724
 20
119.4242571246726
 30
0.0
 10
220.9238787907944
 20
119.418171512475
 30
0.0
  0
LINE
  5
229
330
1F
100
AcDbEntity
  8
0
  6
Continuous
 62
     7
370
    18
100
AcDbLine
 10
220.3960392689
 20
119.7917451394
 30
0.0
 11
220.6095099128
 21
119.8184289699
 31
0.0
  0
SPLINE
  5
22A
330
1F
100
AcDbEntity
  8
0
  6
Continuous
 62
     7
370
    18
100
AcDbSpline
210
0.0
220
0.0
230
1.0
 70
     8
 71
     3
 72
    12
 73
     8
 74
     0
 42
0.000000001
 43
0.00000001
 40
0.0
 40
0.0
 40
0.0
 40
0.0
 40
0.1865885886654288
 40
0.3730457041861946
 40
0.5597053661028962
 40
0.7796179230979455
 40
1.0
 40
1.0
 40
1.0
 40
1.0
 10
220.9259634650516
 20
119.2047008685356
 30
0.0
 10
220.8711464917853
 20
119.2090627165804
 30
0.0
 10
220.761551170122
 20
119.2177833392458
 30
0.0
 10
220.6158576951977
 20
119.3015997025247
 30
0.0
 10
220.4968104968276
 20
119.4296382495724
 30
0.0
 10
220.4198700986213
 20
119.5999397185895
 30
0.0
 10
220.4039885240311
 20
119.7277645626337
 30
0.0
 10
220.3960392688661
 20
119.7917451393689
 30
0.0
  0
SPLINE
  5
22B
330
1F
100
AcDbEntity
  8
0
  6
Continuous
 62
     7
370
    18
100
AcDbSpline
210
0.0
220
0.0
230
1.0
 70
     8
 71
     3
 72
    13
 73
     9
 74
     0
 42
0.000000001
 43
0.00000001
 40
0.0
 40
0.0
 40
0.0
 40
0.0
 40
0.1868890796518116
 40
0.3736670037034775
 40
0.5603596573753088
 40
0.7069433013335574
 40
0.8533827747571261
 40
1.0
 40
1.0
 40
1.0
 40
1.0
 10
221.4900763190555
 20
119.9310013797512
 30
0.0
 10
221.4869827390133
 20
119.8670825609343
 30
0.0
 10
221.4807974188907
 20
119.7392829401533
 30
0.0
 10
221.4236341032493
 20
119.5545110644452
 30
0.0
 10
221.3328500907335
 20
119.3997460023119
 30
0.0
 10
221.2149809961394
 20
119.2834863194487
 30
0.0
 10
221.0767969249407
 20
119.2152501631146
 30
0.0
 10
220.9762616113826
 20
119.2082187216884
 30
0.0
 10
220.9259634650516
 20
119.2047008685356
 30
0.0
  0
LINE
  5
22C
330
1F
100
AcDbEntity
  8
0
  6
Continuous
 62
     7
370
    18
100
AcDbLine
 10
219.2040225286
 20
119.231384699
 30
0.0
 11
218.7149579478
 21
121.0246214951
 31
0.0
  0
LINE
  5
22D
330
1F
100
AcDbEntity
  8
0
  6
Continuous
 62
     7
370
    18
100
AcDbLine
 10
219.4224963907
 20
119.231384699
 30
0.0
 11
219.2040225286
 21
119.231384699
 31
0.0
  0
LINE
  5
22E
330
1F
100
AcDbEntity
  8
0
  6
Continuous
 62
     7
370
    18
100
AcDbLine
 10
219.91573032
 20
120.9274756747
 30
0.0
 11
219.4224963907
 21
119.231384699
 31
0.0
  0
LINE
  5
22F
330
1F
100
AcDbEntity
  8
0
  6
Continuous
 62
     7
370
    18
100
AcDbLine
 10
219.91573032
 20
119.231384699
 30
0.0
 11
219.91573032
 21
120.9274756747
 31
0.0
  0
LINE
  5
230
330
1F
100
AcDbEntity
  8
0
  6
Continuous
 62
     7
370
    18
100
AcDbLine
 10
220.1292009639
 20
119.231384699
 30
0.0
 11
219.91573032
 21
119.231384699
 31
0.0
  0
LINE
  5
231
330
1F
100
AcDbEntity
  8
0
  6
Continuous
 62
     7
370
    18
100
AcDbLine
 10
220.1292009639
 20
121.2860396469
 30
0.0
 11
220.1292009639
 21
119.231384699
 31
0.0
  0
LINE
  5
232
330
1F
100
AcDbEntity
  8
0
  6
Continuous
 62
     7
370
    18
100
AcDbLine
 10
219.8269231966
 20
121.2860396469
 30
0.0
 11
220.1292009639
 21
121.2860396469
 31
0.0
  0
LINE
  5
233
330
1F
100
AcDbEntity
  8
0
  6
Continuous
 62
     7
370
    18
100
AcDbLine
 10
219.4083206058
 20
119.8563700413
 30
0.0
 11
219.8269231966
 21
121.2860396469
 31
0.0
  0
SPLINE
  5
234
330
1F
100
AcDbEntity
  8
0
  6
Continuous
 62
     7
370
    18
100
AcDbSpline
210
0.0
220
0.0
230
1.0
 70
     8
 71
     3
 72
     9
 73
     5
 74
     0
 42
0.000000001
 43
0.00000001
 40
0.0
 40
0.0
 40
0.0
 40
0.0
 40
0.5599947003108204
 40
1.0
 40
1.0
 40
1.0
 40
1.0
 10
219.3153441339229
 20
119.5269915087019
 30
0.0
 10
219.3322740402409
 20
119.5885953047308
 30
0.0
 10
219.3625063019186
 20
119.6986031244381
 30
0.0
 10
219.3943216736303
 20
119.8081630801818
 30
0.0
 10
219.408320605795
 20
119.8563700413427
 30
0.0
  0
LINE
  5
235
330
1F
100
AcDbEntity
  8
0
  6
Continuous
 62
     7
370
    18
100
AcDbLine
 10
219.2352926424
 20
119.8313539503
 30
0.0
 11
219.3153441339
 21
119.5269915087
 31
0.0
  0
LINE
  5
236
330
1F
100
AcDbEntity
  8
0
  6
Continuous
 62
     7
370
    18
100
AcDbLine
 10
218.8354521199
 20
121.2860396469
 30
0.0
 11
219.2352926424
 21
119.8313539503
 31
0.0
  0
LINE
  5
237
330
1F
100
AcDbEntity
  8
0
  6
Continuous
 62
     7
370
    18
100
AcDbLine
 10
218.5014873039
 20
121.2860396469
 30
0.0
 11
218.8354521199
 21
121.2860396469
 31
0.0
  0
LINE
  5
238
330
1F
100
AcDbEntity
  8
0
  6
Continuous
 62
     7
370
    18
100
AcDbLine
 10
218.5014873039
 20
119.231384699
 30
0.0
 11
218.5014873039
 21
121.2860396469
 31
0.0
  0
LINE
  5
239
330
1F
100
AcDbEntity
  8
0
  6
Continuous
 62
     7
370
    18
100
AcDbLine
 10
218.7149579478
 20
119.231384699
 30
0.0
 11
218.5014873039
 21
119.231384699
 31
0.0
  0
LINE
  5
23A
330
1F
100
AcDbEntity
  8
0
  6
Continuous
 62
     7
370
    18
100
AcDbLine
 10
218.7149579478
 20
121.0246214951
 30
0.0
 11
218.7149579478
 21
119.231384699
 31
0.0
  0
SPLINE
  5
23B
330
1F
100
AcDbEntity
  8
0
  6
Continuous
 62
     7
370
    18
100
AcDbSpline
210
0.0
220
0.0
230
1.0
 70
     8
 71
     3
 72
    14
 73
    10
 74
     0
 42
0.000000001
 43
0.00000001
 40
0.0
 40
0.0
 40
0.0
 40
0.0
 40
0.125026764525426
 40
0.2499561862380689
 40
0.374750631388287
 40
0.4996959194189204
 40
0.6663177050472586
 40
0.833099850767625
 40
1.0
 40
1.0
 40
1.0
 40
1.0
 10
217.5171041196444
 20
121.0725690030053
 30
0.0
 10
217.4710765314309
 20
121.0697526726955
 30
0.0
 10
217.37905719097
 20
121.0641222048025
 30
0.0
 10
217.2489694812751
 20
121.011663905746
 30
0.0
 10
217.1411153395521
 20
120.9231338934496
 30
0.0
 10
217.0543115361019
 20
120.7955765331225
 30
0.0
 10
216.9915967999739
 20
120.6380257563546
 30
0.0
 10
216.9586058828982
 20
120.4563069322432
 30
0.0
 10
216.9554190935207
 20
120.3337641048318
 30
0.0
 10
216.9538251353434
 20
120.272471023084
 30
0.0
  0
SPLINE
  5
23C
330
1F
100
AcDbEntity
  8
0
  6
Continuous
 62
     7
370
    18
100
AcDbSpline
210
0.0
220
0.0
230
1.0
 70
     8
 71
     3
 72
    11
 73
     7
 74
     0
 42
0.000000001
 43
0.00000001
 40
0.0
 40
0.0
 40
0.0
 40
0.0
 40
0.2807713074051796
 40
0.560436982088222
 40
0.7800147849953758
 40
1.0
 40
1.0
 40
1.0
 40
1.0
 10
217.9678106940555
 20
120.6456277151265
 30
0.0
 10
217.9492172692094
 20
120.7060166974428
 30
0.0
 10
217.9121036374648
 20
120.8265568598744
 30
0.0
 10
217.8084323097178
 20
120.9728237623354
 30
0.0
 10
217.6662816342087
 20
121.0605982791547
 30
0.0
 10
217.5668606741729
 20
121.0685762968943
 30
0.0
 10
217.5171041196444
 20
121.0725690030053
 30
0.0
  0
LINE
  5
23D
330
1F
100
AcDbEntity
  8
0
  6
Continuous
 62
     7
370
    18
100
AcDbLine
 10
218.181281338
 20
120.6989953761
 30
0.0
 11
217.9678106941
 21
120.6456277151
 31
0.0
  0
SPLINE
  5
23E
330
1F
100
AcDbEntity
  8
0
  6
Continuous
 62
     7
370
    18
100
AcDbSpline
210
0.0
220
0.0
230
1.0
 70
     8
 71
     3
 72
    12
 73
     8
 74
     0
 42
0.000000001
 43
0.00000001
 40
0.0
 40
0.0
 40
0.0
 40
0.0
 40
0.1866161660947037
 40
0.3730652985771186
 40
0.5597027812570787
 40
0.7796715026895121
 40
1.0
 40
1.0
 40
1.0
 40
1.0
 10
217.5258597515247
 20
121.3127234774371
 30
0.0
 10
217.5868199765458
 20
121.3082656641986
 30
0.0
 10
217.7086858632197
 20
121.2993540277547
 30
0.0
 10
217.8763582736852
 20
121.2179690364359
 30
0.0
 10
218.0193267617025
 20
121.0854446090192
 30
0.0
 10
218.1241161155224
 20
120.9065839771023
 30
0.0
 10
218.1622158864696
 20
120.7682292605995
 30
0.0
 10
218.1812813379949
 20
120.6989953761113
 30
0.0
  0
SPLINE
  5
23F
330
1F
100
AcDbEntity
  8
0
  6
Continuous
 62
     7
370
    18
100
AcDbSpline
210
0.0
220
0.0
230
1.0
 70
     8
 71
     3
 72
    13
 73
     9
 74
     0
 42
0.000000001
 43
0.00000001
 40
0.0
 40
0.0
 40
0.0
 40
0.0
 40
0.1869886270143183
 40
0.37378406046577
 40
0.5603785113196427
 40
0.7069405280508682
 40
0.8534458164057735
 40
1.0
 40
1.0
 40
1.0
 40
1.0
 10
216.740354491404
 20
120.272471023084
 30
0.0
 10
216.7435817487475
 20
120.3635278297613
 30
0.0
 10
216.7500329290856
 20
120.5455473647264
 30
0.0
 10
216.8191818835257
 20
120.8116890171273
 30
0.0
 10
216.9432760311629
 20
121.0366606600712
 30
0.0
 10
217.1152709204363
 20
121.1981665403035
 30
0.0
 10
217.3111203304883
 20
121.2959278440573
 30
0.0
 10
217.4542719831771
 20
121.3071243102891
 30
0.0
 10
217.5258597515247
 20
121.3127234774371
 30
0.0
  0
SPLINE
  5
240
330
1F
100
AcDbEntity
  8
0
  6
Continuous
 62
     7
370
    18
100
AcDbSpline
210
0.0
220
0.0
230
1.0
 70
     8
 71
     3
 72
    14
 73
    10
 74
     0
 42
0.000000001
 43
0.00000001
 40
0.0
 40
0.0
 40
0.0
 40
0.0
 40
0.1249789553015508
 40
0.2498098163504285
 40
0.3745823232578657
 40
0.4995715195159086
 40
0.6662781166416188
 40
0.8331039635850064
 40
0.9999999999999999
 40
0.9999999999999999
 40
0.9999999999999999
 40
0.9999999999999999
 10
217.5066807483583
 20
119.2047008685356
 30
0.0
 10
217.445036514541
 20
119.2081890045724
 30
0.0
 10
217.3218210924581
 20
119.215161143367
 30
0.0
 10
217.1471265814845
 20
119.2843621735958
 30
0.0
 10
217.0028997365456
 20
119.4034546086777
 30
0.0
 10
216.8872382600438
 20
119.5746256255821
 30
0.0
 10
216.7994520434107
 20
119.783791824283
 30
0.0
 10
216.7480562648822
 20
120.0260895688992
 30
0.0
 10
216.7429221091742
 20
120.1903323569966
 30
0.0
 10
216.740354491404
 20
120.272471023084
 30
0.0
  0
SPLINE
  5
241
330
1F
100
AcDbEntity
  8
0
  6
Continuous
 62
     7
370
    18
100
AcDbSpline
210
0.0
220
0.0
230
1.0
 70
     8
 71
     3
 72
    13
 73
     9
 74
     0
 42
0.000000001
 43
0.00000001
 40
0.0
 40
0.0
 40
0.0
 40
0.0
 40
0.1869090516643016
 40
0.3736796016941293
 40
0.5601136847103881
 40
0.7067311959183754
 40
0.853313829459127
 40
1.0
 40
1.0
 40
1.0
 40
1.0
 10
218.2079651684873
 20
119.8984804613386
 30
0.0
 10
218.1921112927022
 20
119.8331523083659
 30
0.0
 10
218.1604152890259
 20
119.7025444112903
 30
0.0
 10
218.0753522916071
 20
119.5185492249503
 30
0.0
 10
217.9576741270904
 20
119.3702299294764
 30
0.0
 10
217.8152645392953
 20
119.2703783243895
 30
0.0
 10
217.6651141023617
 20
119.2138736062379
 30
0.0
 10
217.5595042946874
 20
119.2077591673264
 30
0.0
 10
217.5066807483583
 20
119.2047008685356
 30
0.0
  0
LINE
  5
242
330
1F
100
AcDbEntity
  8
0
  6
Continuous
 62
     7
370
    18
100
AcDbLine
 10
217.9944945245
 20
119.9518481223
 30
0.0
 11
218.2079651685
 21
119.8984804613
 31
0.0
  0
SPLINE
  5
243
330
1F
100
AcDbEntity
  8
0
  6
Continuous
 62
     7
370
    18
100
AcDbSpline
210
0.0
220
0.0
230
1.0
 70
     8
 71
     3
 72
    12
 73
     8
 74
     0
 42
0.000000001
 43
0.00000001
 40
0.0
 40
0.0
 40
0.0
 40
0.0
 40
0.1865921528409335
 40
0.3730589116156794
 40
0.5596226295490518
 40
0.7796100104163908
 40
1.0
 40
1.0
 40
1.0
 40
1.0
 10
217.5000097907352
 20
119.4448553429674
 30
0.0
 10
217.5485039460359
 20
119.448644994217
 30
0.0
 10
217.6454596674892
 20
119.4562217499867
 30
0.0
 10
217.7760908447652
 20
119.5268029967952
 30
0.0
 10
217.8848290039166
 20
119.6372206093025
 30
0.0
 10
217.9581501323921
 20
119.7848204992971
 30
0.0
 10
217.9823723455586
 20
119.8961383244045
 30
0.0
 10
217.9944945245479
 20
119.9518481223234
 30
0.0
  0
SPLINE
  5
244
330
1F
100
AcDbEntity
  8
0
  6
Continuous
 62
     7
370
    18
100
AcDbSpline
210
0.0
220
0.0
230
1.0
 70
     8
 71
     3
 72
    14
 73
    10
 74
     0
 42
0.000000001
 43
0.00000001
 40
0.0
 40
0.0
 40
0.0
 40
0.0
 40
0.1669299867484128
 40
0.3337709048041671
 40
0.500421129328666
 40
0.6254239239505655
 40
0.7503194582828526
 40
0.8750931289475067
 40
1.0
 40
1.0
 40
1.0
 40
1.0
 10
216.9538251353434
 20
120.272471023084
 30
0.0
 10
216.9551548712739
 20
120.2105240848233
 30
0.0
 10
216.9578136336288
 20
120.0866632612777
 30
0.0
 10
216.9879598218812
 20
119.902968285729
 30
0.0
 10
217.0425400970291
 20
119.7403182209873
 30
0.0
 10
217.1283102443268
 20
119.6100236279234
 30
0.0
 10
217.2318935179002
 20
119.5152597729011
 30
0.0
 10
217.360476689671
 20
119.4544584405636
 30
0.0
 10
217.4534822180831
 20
119.4480575137619
 30
0.0
 10
217.5000097907352
 20
119.4448553429674
 30
0.0
  0
CIRCLE
  5
245
330
1F
100
AcDbEntity
  8
0
  6
Continuous
 62
     7
370
    18
100
AcDbCircle
 10
225.8929083503
 20
122.6202311716
 30
0.0
 40
25.19999999999999
  0
SPLINE
  5
246
330
1F
100
AcDbEntity
  8
0
  6
Continuous
 62
     7
370
    18
100
AcDbSpline
210
0.0
220
0.0
230
1.0
 70
     8
 71
     3
 72
    13
 73
     9
 74
     0
 42
0.000000001
 43
0.00000001
 40
0.0
 40
0.0
 40
0.0
 40
0.0
 40
0.1237345749994074
 40
0.2484232101745696
 40
0.3734713343328649
 40
0.4987444967637427
 40
0.7493102257733251
 40
1.0
 40
1.0
 40
1.0
 40
1.0
 10
233.2226230386933
 20
119.418171512475
 30
0.0
 10
233.2637074348829
 20
119.4255347542278
 30
0.0
 10
233.3461930100713
 20
119.4403180122907
 30
0.0
 10
233.4303875797737
 20
119.5380308063616
 30
0.0
 10
233.4874573023295
 20
119.6467728889777
 30
0.0
 10
233.5266274997452
 20
119.8075659960736
 30
0.0
 10
233.547894822669
 20
120.0121229799334
 30
0.0
 10
233.5500765620062
 20
120.1765022157116
 30
0.0
 10
233.5511677016313
 20
120.2587121729863
 30
0.0
  0
SPLINE
  5
247
330
1F
100
AcDbEntity
  8
0
  6
Continuous
 62
     7
370
    18
100
AcDbSpline
210
0.0
220
0.0
230
1.0
 70
     8
 71
     3
 72
    13
 73
     9
 74
     0
 42
0.000000001
 43
0.00000001
 40
0.0
 40
0.0
 40
0.0
 40
0.0
 40
0.2506668541570157
 40
0.5012048357437084
 40
0.6264537829510461
 40
0.7514291871594901
 40
0.8760522367173394
 40
1.0
 40
1.0
 40
1.0
 40
1.0
 10
232.8840719393207
 20
120.2587121729863
 30
0.0
 10
232.8851202461373
 20
120.1757669371913
 30
0.0
 10
232.8872163208161
 20
120.0099191093157
 30
0.0
 10
232.9090354198549
 20
119.8035451069379
 30
0.0
 10
232.9491379001254
 20
119.641490723502
 30
0.0
 10
233.0085092417423
 20
119.5323852203828
 30
0.0
 10
233.09761060109
 20
119.437694894924
 30
0.0
 10
233.1810277652852
 20
119.4246675095644
 30
0.0
 10
233.2226230386933
 20
119.418171512475
 30
0.0
  0
SPLINE
  5
248
330
1F
100
AcDbEntity
  8
0
  6
Continuous
 62
     7
370
    18
100
AcDbSpline
210
0.0
220
0.0
230
1.0
 70
     8
 71
     3
 72
    13
 73
     9
 74
     0
 42
0.000000001
 43
0.00000001
 40
0.0
 40
0.0
 40
0.0
 40
0.0
 40
0.1236770548154457
 40
0.2483884878623331
 40
0.373445561473098
 40
0.4987169325063983
 40
0.7492948497723048
 40
1.0
 40
1.0
 40
1.0
 40
1.0
 10
233.21011499315
 20
121.0992528334977
 30
0.0
 10
233.1691264284957
 20
121.0917596342379
 30
0.0
 10
233.0868064896087
 20
121.0767105660323
 30
0.0
 10
233.0036927701871
 20
120.9783532257021
 30
0.0
 10
232.9469597211139
 20
120.8697194043661
 30
0.0
 10
232.9089439271213
 20
120.7089373752019
 30
0.0
 10
232.887199178379
 20
120.5048884652655
 30
0.0
 10
232.8851145287116
 20
120.3407848210464
 30
0.0
 10
232.8840719393207
 20
120.2587121729863
 30
0.0
  0
SPLINE
  5
249
330
1F
100
AcDbEntity
  8
0
  6
Continuous
 62
     7
370
    18
100
AcDbSpline
210
0.0
220
0.0
230
1.0
 70
     8
 71
     3
 72
    13
 73
     9
 74
     0
 42
0.000000001
 43
0.00000001
 40
0.0
 40
0.0
 40
0.0
 40
0.0
 40
0.250673607138639
 40
0.5012152607337985
 40
0.626452601510414
 40
0.7514497498805396
 40
0.876027118323626
 40
1.0
 40
1.0
 40
1.0
 40
1.0
 10
233.5511677016313
 20
120.2587121729863
 30
0.0
 10
233.5501291987192
 20
120.3418583267401
 30
0.0
 10
233.5480527395587
 20
120.5081068664585
 30
0.0
 10
233.5261384951474
 20
120.7149979942622
 30
0.0
 10
233.4857460399109
 20
120.8773735699925
 30
0.0
 10
233.4259784091607
 20
120.986714317252
 30
0.0
 10
233.3354583238079
 20
121.0804525689534
 30
0.0
 10
233.2518283058929
 20
121.092996247603
 30
0.0
 10
233.21011499315
 20
121.0992528334977
 30
0.0
  0
SPLINE
  5
24A
330
1F
100
AcDbEntity
  8
0
  6
Continuous
 62
     7
370
    18
100
AcDbSpline
210
0.0
220
0.0
230
1.0
 70
     8
 71
     3
 72
    13
 73
     9
 74
     0
 42
0.000000001
 43
0.00000001
 40
0.0
 40
0.0
 40
0.0
 40
0.0
 40
0.1869723523171299
 40
0.3735952220890913
 40
0.5596166875179501
 40
0.7057758564991348
 40
0.8528542218839414
 40
1.0
 40
1.0
 40
1.0
 40
1.0
 10
232.2436600075025
 20
120.6793994380934
 30
0.0
 10
232.2416349584439
 20
120.7194612227696
 30
0.0
 10
232.2375886454815
 20
120.7995099099572
 30
0.0
 10
232.1910205926245
 20
120.9108524454855
 30
0.0
 10
232.1192459835771
 20
121.000683723437
 30
0.0
 10
232.0199244540981
 20
121.0354420233331
 30
0.0
 10
231.9265914496119
 20
121.0443378353673
 30
0.0
 10
231.8639100997135
 20
121.0453693146867
 30
0.0
 10
231.8325622439786
 20
121.0458851725128
 30
0.0
  0
SPLINE
  5
24B
330
1F
100
AcDbEntity
  8
0
  6
Continuous
 62
     7
370
    18
100
AcDbSpline
210
0.0
220
0.0
230
1.0
 70
     8
 71
     3
 72
    12
 73
     8
 74
     0
 42
0.000000001
 43
0.00000001
 40
0.0
 40
0.0
 40
0.0
 40
0.0
 40
0.1873195695557092
 40
0.3742734414807217
 40
0.5603335325703933
 40
0.7795763615061821
 40
1.0
 40
1.0
 40
1.0
 40
1.0
 10
231.836731592493
 20
120.298737918725
 30
0.0
 10
231.8766507596127
 20
120.300151698151
 30
0.0
 10
231.9564111610187
 20
120.3029764969295
 30
0.0
 10
232.0732005966927
 20
120.3351740290209
 30
0.0
 10
232.1777732669493
 20
120.4125102908283
 30
0.0
 10
232.2365092379852
 20
120.5384509211337
 30
0.0
 10
232.2412721537521
 20
120.6323325533306
 30
0.0
 10
232.2436600075025
 20
120.6793994380934
 30
0.0
  0
LINE
  5
24C
330
1F
100
AcDbEntity
  8
0
  6
Continuous
 62
     7
370
    18
100
AcDbLine
 10
231.3897774317
 20
120.2987379187
 30
0.0
 11
231.8367315925
 21
120.2987379187
 31
0.0
  0
LINE
  5
24D
330
1F
100
AcDbEntity
  8
0
  6
Continuous
 62
     7
370
    18
100
AcDbLine
 10
231.3897774317
 20
121.0458851725
 30
0.0
 11
231.3897774317
 21
120.2987379187
 31
0.0
  0
LINE
  5
24E
330
1F
100
AcDbEntity
  8
0
  6
Continuous
 62
     7
370
    18
100
AcDbLine
 10
231.832562244
 20
121.0458851725
 30
0.0
 11
231.3897774317
 21
121.0458851725
 31
0.0
  0
SPLINE
  5
24F
330
1F
100
AcDbEntity
  8
0
  6
Continuous
 62
     7
370
    18
100
AcDbSpline
210
0.0
220
0.0
230
1.0
 70
     8
 71
     3
 72
    13
 73
     9
 74
     0
 42
0.000000001
 43
0.00000001
 40
0.0
 40
0.0
 40
0.0
 40
0.0
 40
0.1237345749994086
 40
0.2484232101745678
 40
0.3734713343328619
 40
0.4987444967637453
 40
0.7493102257733213
 40
1.0
 40
1.0
 40
1.0
 40
1.0
 10
229.5669382612312
 20
119.418171512475
 30
0.0
 10
229.6080226574208
 20
119.4255347542278
 30
0.0
 10
229.6905082326091
 20
119.4403180122907
 30
0.0
 10
229.7747028023116
 20
119.5380308063616
 30
0.0
 10
229.8317725248674
 20
119.6467728889777
 30
0.0
 10
229.8709427222831
 20
119.8075659960736
 30
0.0
 10
229.8922100452069
 20
120.0121229799334
 30
0.0
 10
229.8943917845441
 20
120.1765022157116
 30
0.0
 10
229.8954829241692
 20
120.2587121729863
 30
0.0
  0
SPLINE
  5
250
330
1F
100
AcDbEntity
  8
0
  6
Continuous
 62
     7
370
    18
100
AcDbSpline
210
0.0
220
0.0
230
1.0
 70
     8
 71
     3
 72
    13
 73
     9
 74
     0
 42
0.000000001
 43
0.00000001
 40
0.0
 40
0.0
 40
0.0
 40
0.0
 40
0.250666854157016
 40
0.5012048357437091
 40
0.6264537829510469
 40
0.7514291871594871
 40
0.876052236717339
 40
1.0
 40
1.0
 40
1.0
 40
1.0
 10
229.2283871618586
 20
120.2587121729863
 30
0.0
 10
229.2294354686751
 20
120.1757669371913
 30
0.0
 10
229.231531543354
 20
120.0099191093157
 30
0.0
 10
229.2533506423928
 20
119.8035451069379
 30
0.0
 10
229.2934531226633
 20
119.641490723502
 30
0.0
 10
229.3528244642802
 20
119.5323852203828
 30
0.0
 10
229.4419258236279
 20
119.437694894924
 30
0.0
 10
229.5253429878231
 20
119.4246675095644
 30
0.0
 10
229.5669382612312
 20
119.418171512475
 30
0.0
  0
SPLINE
  5
251
330
1F
100
AcDbEntity
  8
0
  6
Continuous
 62
     7
370
    18
100
AcDbSpline
210
0.0
220
0.0
230
1.0
 70
     8
 71
     3
 72
    13
 73
     9
 74
     0
 42
0.000000001
 43
0.00000001
 40
0.0
 40
0.0
 40
0.0
 40
0.0
 40
0.123677054815446
 40
0.2483884878623323
 40
0.373445561473095
 40
0.498716932506401
 40
0.7492948497723045
 40
1.0
 40
1.0
 40
1.0
 40
1.0
 10
229.5544302156879
 20
121.0992528334977
 30
0.0
 10
229.5134416510335
 20
121.0917596342379
 30
0.0
 10
229.4311217121466
 20
121.0767105660323
 30
0.0
 10
229.348007992725
 20
120.9783532257021
 30
0.0
 10
229.2912749436518
 20
120.8697194043662
 30
0.0
 10
229.2532591496592
 20
120.7089373752019
 30
0.0
 10
229.2315144009169
 20
120.5048884652655
 30
0.0
 10
229.2294297512495
 20
120.3407848210464
 30
0.0
 10
229.2283871618586
 20
120.2587121729863
 30
0.0
  0
SPLINE
  5
252
330
1F
100
AcDbEntity
  8
0
  6
Continuous
 62
     7
370
    18
100
AcDbSpline
210
0.0
220
0.0
230
1.0
 70
     8
 71
     3
 72
    13
 73
     9
 74
     0
 42
0.000000001
 43
0.00000001
 40
0.0
 40
0.0
 40
0.0
 40
0.0
 40
0.2506736071386392
 40
0.5012152607337955
 40
0.6264526015104143
 40
0.75144974988054
 40
0.8760271183236271
 40
1.0
 40
1.0
 40
1.0
 40
1.0
 10
229.8954829241692
 20
120.2587121729863
 30
0.0
 10
229.8944444212571
 20
120.3418583267401
 30
0.0
 10
229.8923679620965
 20
120.5081068664585
 30
0.0
 10
229.8704537176853
 20
120.7149979942622
 30
0.0
 10
229.8300612624488
 20
120.8773735699925
 30
0.0
 10
229.7702936316986
 20
120.986714317252
 30
0.0
 10
229.6797735463458
 20
121.0804525689534
 30
0.0
 10
229.5961435284308
 20
121.092996247603
 30
0.0
 10
229.5544302156879
 20
121.0992528334977
 30
0.0
  0
SPLINE
  5
253
330
1F
100
AcDbEntity
  8
0
  6
Continuous
 62
     7
370
    18
100
AcDbSpline
210
0.0
220
0.0
230
1.0
 70
     8
 71
     3
 72
    13
 73
     9
 74
     0
 42
0.000000001
 43
0.00000001
 40
0.0
 40
0.0
 40
0.0
 40
0.0
 40
0.1237345749994061
 40
0.2484232101745695
 40
0.3734713343328627
 40
0.4987444967637463
 40
0.7493102257733252
 40
1.0
 40
1.0
 40
1.0
 40
1.0
 10
228.2594305671024
 20
119.418171512475
 30
0.0
 10
228.300514963292
 20
119.4255347542278
 30
0.0
 10
228.3830005384804
 20
119.4403180122907
 30
0.0
 10
228.4671951081828
 20
119.5380308063616
 30
0.0
 10
228.5242648307386
 20
119.6467728889777
 30
0.0
 10
228.5634350281543
 20
119.8075659960736
 30
0.0
 10
228.5847023510781
 20
120.0121229799334
 30
0.0
 10
228.5868840904153
 20
120.1765022157116
 30
0.0
 10
228.5879752300403
 20
120.2587121729863
 30
0.0
  0
SPLINE
  5
254
330
1F
100
AcDbEntity
  8
0
  6
Continuous
 62
     7
370
    18
100
AcDbSpline
210
0.0
220
0.0
230
1.0
 70
     8
 71
     3
 72
    13
 73
     9
 74
     0
 42
0.000000001
 43
0.00000001
 40
0.0
 40
0.0
 40
0.0
 40
0.0
 40
0.2506668541570159
 40
0.501204835743709
 40
0.6264537829510466
 40
0.7514291871594873
 40
0.8760522367173389
 40
1.0
 40
1.0
 40
1.0
 40
1.0
 10
227.9208794677298
 20
120.2587121729863
 30
0.0
 10
227.9219277745463
 20
120.1757669371913
 30
0.0
 10
227.9240238492252
 20
120.0099191093157
 30
0.0
 10
227.945842948264
 20
119.8035451069379
 30
0.0
 10
227.9859454285344
 20
119.641490723502
 30
0.0
 10
228.0453167701513
 20
119.5323852203828
 30
0.0
 10
228.1344181294991
 20
119.437694894924
 30
0.0
 10
228.2178352936943
 20
119.4246675095644
 30
0.0
 10
228.2594305671024
 20
119.418171512475
 30
0.0
  0
SPLINE
  5
255
330
1F
100
AcDbEntity
  8
0
  6
Continuous
 62
     7
370
    18
100
AcDbSpline
210
0.0
220
0.0
230
1.0
 70
     8
 71
     3
 72
    13
 73
     9
 74
     0
 42
0.000000001
 43
0.00000001
 40
0.0
 40
0.0
 40
0.0
 40
0.0
 40
0.1236770548154452
 40
0.2483884878623321
 40
0.3734455614730945
 40
0.4987169325064009
 40
0.7492948497723044
 40
1.0
 40
1.0
 40
1.0
 40
1.0
 10
228.2469225215591
 20
121.0992528334977
 30
0.0
 10
228.2059339569047
 20
121.0917596342379
 30
0.0
 10
228.1236140180177
 20
121.0767105660323
 30
0.0
 10
228.0405002985962
 20
120.9783532257021
 30
0.0
 10
227.983767249523
 20
120.8697194043662
 30
0.0
 10
227.9457514555304
 20
120.7089373752019
 30
0.0
 10
227.924006706788
 20
120.5048884652655
 30
0.0
 10
227.9219220571207
 20
120.3407848210464
 30
0.0
 10
227.9208794677298
 20
120.2587121729863
 30
0.0
  0
SPLINE
  5
256
330
1F
100
AcDbEntity
  8
0
  6
Continuous
 62
     7
370
    18
100
AcDbSpline
210
0.0
220
0.0
230
1.0
 70
     8
 71
     3
 72
    13
 73
     9
 74
     0
 42
0.000000001
 43
0.00000001
 40
0.0
 40
0.0
 40
0.0
 40
0.0
 40
0.2506736071386392
 40
0.5012152607337992
 40
0.6264526015104143
 40
0.7514497498805404
 40
0.8760271183236272
 40
1.0
 40
1.0
 40
1.0
 40
1.0
 10
228.5879752300403
 20
120.2587121729863
 30
0.0
 10
228.5869367271283
 20
120.3418583267401
 30
0.0
 10
228.5848602679677
 20
120.5081068664585
 30
0.0
 10
228.5629460235565
 20
120.7149979942622
 30
0.0
 10
228.5225535683199
 20
120.8773735699925
 30
0.0
 10
228.4627859375698
 20
120.986714317252
 30
0.0
 10
228.372265852217
 20
121.0804525689534
 30
0.0
 10
228.288635834302
 20
121.092996247603
 30
0.0
 10
228.2469225215591
 20
121.0992528334977
 30
0.0
  0
SPLINE
  5
257
330
1F
100
AcDbEntity
  8
0
  6
Continuous
 62
     7
370
    18
100
AcDbSpline
210
0.0
220
0.0
230
1.0
 70
     8
 71
     3
 72
    13
 73
     9
 74
     0
 42
0.000000001
 43
0.00000001
 40
0.0
 40
0.0
 40
0.0
 40
0.0
 40
0.1237345749994069
 40
0.2484232101745697
 40
0.3734713343328626
 40
0.4987444967637463
 40
0.7493102257733252
 40
1.0
 40
1.0
 40
1.0
 40
1.0
 10
226.9519228729736
 20
119.418171512475
 30
0.0
 10
226.9930072691632
 20
119.4255347542278
 30
0.0
 10
227.0754928443516
 20
119.4403180122907
 30
0.0
 10
227.159687414054
 20
119.5380308063616
 30
0.0
 10
227.2167571366098
 20
119.6467728889777
 30
0.0
 10
227.2559273340256
 20
119.8075659960736
 30
0.0
 10
227.2771946569493
 20
120.0121229799334
 30
0.0
 10
227.2793763962865
 20
120.1765022157116
 30
0.0
 10
227.2804675359116
 20
120.2587121729863
 30
0.0
  0
SPLINE
  5
258
330
1F
100
AcDbEntity
  8
0
  6
Continuous
 62
     7
370
    18
100
AcDbSpline
210
0.0
220
0.0
230
1.0
 70
     8
 71
     3
 72
    13
 73
     9
 74
     0
 42
0.000000001
 43
0.00000001
 40
0.0
 40
0.0
 40
0.0
 40
0.0
 40
0.2506668541570159
 40
0.501204835743709
 40
0.6264537829510466
 40
0.7514291871594873
 40
0.8760522367173389
 40
1.0
 40
1.0
 40
1.0
 40
1.0
 10
226.613371773601
 20
120.2587121729863
 30
0.0
 10
226.6144200804176
 20
120.1757669371913
 30
0.0
 10
226.6165161550964
 20
120.0099191093157
 30
0.0
 10
226.6383352541352
 20
119.8035451069379
 30
0.0
 10
226.6784377344057
 20
119.641490723502
 30
0.0
 10
226.7378090760226
 20
119.5323852203828
 30
0.0
 10
226.8269104353703
 20
119.437694894924
 30
0.0
 10
226.9103275995655
 20
119.4246675095644
 30
0.0
 10
226.9519228729736
 20
119.418171512475
 30
0.0
  0
SPLINE
  5
259
330
1F
100
AcDbEntity
  8
0
  6
Continuous
 62
     7
370
    18
100
AcDbSpline
210
0.0
220
0.0
230
1.0
 70
     8
 71
     3
 72
    13
 73
     9
 74
     0
 42
0.000000001
 43
0.00000001
 40
0.0
 40
0.0
 40
0.0
 40
0.0
 40
0.1236770548154452
 40
0.2483884878623321
 40
0.373445561473098
 40
0.498716932506401
 40
0.7492948497723045
 40
1.0
 40
1.0
 40
1.0
 40
1.0
 10
226.9394148274303
 20
121.0992528334977
 30
0.0
 10
226.898426262776
 20
121.0917596342379
 30
0.0
 10
226.816106323889
 20
121.0767105660323
 30
0.0
 10
226.7329926044674
 20
120.9783532257021
 30
0.0
 10
226.6762595553942
 20
120.8697194043662
 30
0.0
 10
226.6382437614016
 20
120.7089373752019
 30
0.0
 10
226.6164990126593
 20
120.5048884652656
 30
0.0
 10
226.6144143629919
 20
120.3407848210464
 30
0.0
 10
226.613371773601
 20
120.2587121729863
 30
0.0
  0
SPLINE
  5
25A
330
1F
100
AcDbEntity
  8
0
  6
Continuous
 62
     7
370
    18
100
AcDbSpline
210
0.0
220
0.0
230
1.0
 70
     8
 71
     3
 72
    13
 73
     9
 74
     0
 42
0.000000001
 43
0.00000001
 40
0.0
 40
0.0
 40
0.0
 40
0.0
 40
0.2506736071386391
 40
0.5012152607337989
 40
0.6264526015104139
 40
0.7514497498805403
 40
0.8760271183236277
 40
1.0
 40
1.0
 40
1.0
 40
1.0
 10
227.2804675359116
 20
120.2587121729863
 30
0.0
 10
227.2794290329995
 20
120.3418583267401
 30
0.0
 10
227.277352573839
 20
120.5081068664585
 30
0.0
 10
227.2554383294277
 20
120.7149979942622
 30
0.0
 10
227.2150458741912
 20
120.8773735699925
 30
0.0
 10
227.155278243441
 20
120.986714317252
 30
0.0
 10
227.0647581580882
 20
121.0804525689534
 30
0.0
 10
226.9811281401732
 20
121.092996247603
 30
0.0
 10
226.9394148274303
 20
121.0992528334977
 30
0.0
  0
SPLINE
  5
25B
330
1F
100
AcDbEntity
  8
0
  6
Continuous
 62
     7
370
    18
100
AcDbSpline
210
0.0
220
0.0
230
1.0
 70
     8
 71
     3
 72
    12
 73
     8
 74
     0
 42
0.000000001
 43
0.00000001
 40
0.0
 40
0.0
 40
0.0
 40
0.0
 40
0.186426611045102
 40
0.3728066183672656
 40
0.559638408919642
 40
0.7795953861027517
 40
1.0
 40
1.0
 40
1.0
 40
1.0
 10
223.5593239867727
 20
119.418171512475
 30
0.0
 10
223.5961182301718
 20
119.4217271800636
 30
0.0
 10
223.6696975189874
 20
119.4288376263798
 30
0.0
 10
223.7644920170149
 20
119.490734477813
 30
0.0
 10
223.839659110002
 20
119.5806956597735
 30
0.0
 10
223.8849337621849
 20
119.6979566279148
 30
0.0
 10
223.8893904528712
 20
119.7843572910101
 30
0.0
 10
223.8916210633737
 20
119.8276015365931
 30
0.0
  0
SPLINE
  5
25C
330
1F
100
AcDbEntity
  8
0
  6
Continuous
 62
     7
370
    18
100
AcDbSpline
210
0.0
220
0.0
230
1.0
 70
     8
 71
     3
 72
    11
 73
     7
 74
     0
 42
0.000000001
 43
0.00000001
 40
0.0
 40
0.0
 40
0.0
 40
0.0
 40
0.2807261943832928
 40
0.5603972916125631
 40
0.7804346209650627
 40
1.0
 40
1.0
 40
1.0
 40
1.0
 10
223.2245253010631
 20
119.835940233622
 30
0.0
 10
223.2281000409805
 20
119.7799076214016
 30
0.0
 10
223.2352360853114
 20
119.6680529930893
 30
0.0
 10
223.313746889266
 20
119.5296775673707
 30
0.0
 10
223.427482190413
 20
119.434875529666
 30
0.0
 10
223.515408186626
 20
119.4237355316317
 30
0.0
 10
223.5593239867727
 20
119.418171512475
 30
0.0
  0
SPLINE
  5
25D
330
1F
100
AcDbEntity
  8
0
  6
Continuous
 62
     7
370
    18
100
AcDbSpline
210
0.0
220
0.0
230
1.0
 70
     8
 71
     3
 72
    11
 73
     7
 74
     0
 42
0.000000001
 43
0.00000001
 40
0.0
 40
0.0
 40
0.0
 40
0.0
 40
0.2782055765816072
 40
0.557979925370135
 40
0.7788219222535244
 40
0.9999999999999999
 40
0.9999999999999999
 40
0.9999999999999999
 40
0.9999999999999999
 10
223.5539038337039
 20
120.2453702577401
 30
0.0
 10
223.4992195583027
 20
120.2361805052768
 30
0.0
 10
223.389542648579
 20
120.2177491802952
 30
0.0
 10
223.284298132105
 20
120.0962775322968
 30
0.0
 10
223.2312208420613
 20
119.9652768458372
 30
0.0
 10
223.2267582790685
 20
119.8790742851411
 30
0.0
 10
223.2245253010631
 20
119.835940233622
 30
0.0
  0
SPLINE
  5
25E
330
1F
100
AcDbEntity
  8
0
  6
Continuous
 62
     7
370
    18
100
AcDbSpline
210
0.0
220
0.0
230
1.0
 70
     8
 71
     3
 72
    11
 73
     7
 74
     0
 42
0.000000001
 43
0.00000001
 40
0.0
 40
0.0
 40
0.0
 40
0.0
 40
0.2807535301687757
 40
0.560320722859156
 40
0.7803822345379203
 40
1.0
 40
1.0
 40
1.0
 40
1.0
 10
223.8916210633737
 20
119.8276015365931
 30
0.0
 10
223.8879368596762
 20
119.8838404873444
 30
0.0
 10
223.8805840200603
 20
119.996080748469
 30
0.0
 10
223.8004588960661
 20
120.1341200304686
 30
0.0
 10
223.6862245643147
 20
120.2288668448439
 30
0.0
 10
223.5979810573273
 20
120.2398728227016
 30
0.0
 10
223.5539038337039
 20
120.2453702577401
 30
0.0
  0
SPLINE
  5
25F
330
1F
100
AcDbEntity
  8
0
  6
Continuous
 62
     7
370
    18
100
AcDbSpline
210
0.0
220
0.0
230
1.0
 70
     8
 71
     3
 72
    11
 73
     7
 74
     0
 42
0.000000001
 43
0.00000001
 40
0.0
 40
0.0
 40
0.0
 40
0.0
 40
0.2783889696083873
 40
0.55808170552968
 40
0.7789018539988237
 40
0.9999999999999999
 40
0.9999999999999999
 40
0.9999999999999999
 40
0.9999999999999999
 10
223.5593239867727
 20
120.4588409016795
 30
0.0
 10
223.6013110331882
 20
120.4660063621183
 30
0.0
 10
223.6854817620307
 20
120.4803708406686
 30
0.0
 10
223.7655851577806
 20
120.57406468587
 30
0.0
 10
223.8066006195556
 20
120.6743840167614
 30
0.0
 10
223.8099125599687
 20
120.7405319447085
 30
0.0
 10
223.8115695718964
 20
120.7736267145198
 30
0.0
  0
SPLINE
  5
260
330
1F
100
AcDbEntity
  8
0
  6
Continuous
 62
     7
370
    18
100
AcDbSpline
210
0.0
220
0.0
230
1.0
 70
     8
 71
     3
 72
    11
 73
     7
 74
     0
 42
0.000000001
 43
0.00000001
 40
0.0
 40
0.0
 40
0.0
 40
0.0
 40
0.2806987831964732
 40
0.5604086902325247
 40
0.7804393617933021
 40
1.0
 40
1.0
 40
1.0
 40
1.0
 10
223.3045767925403
 20
120.7873855646175
 30
0.0
 10
223.3070044759715
 20
120.743828417375
 30
0.0
 10
223.3118512903269
 20
120.6568675707392
 30
0.0
 10
223.3691212901242
 20
120.5473686748503
 30
0.0
 10
223.4565417234703
 20
120.4715715085474
 30
0.0
 10
223.525087663272
 20
120.4630814112877
 30
0.0
 10
223.5593239867727
 20
120.4588409016795
 30
0.0
  0
SPLINE
  5
261
330
1F
100
AcDbEntity
  8
0
  6
Continuous
 62
     7
370
    18
100
AcDbSpline
210
0.0
220
0.0
230
1.0
 70
     8
 71
     3
 72
    11
 73
     7
 74
     0
 42
0.000000001
 43
0.00000001
 40
0.0
 40
0.0
 40
0.0
 40
0.0
 40
0.2781848052830313
 40
0.5582334878196245
 40
0.7790790531104523
 40
1.0
 40
1.0
 40
1.0
 40
1.0
 10
223.556822377664
 20
121.0992528334977
 30
0.0
 10
223.5152654432395
 20
121.0919474517748
 30
0.0
 10
223.431873137095
 20
121.0772877412459
 30
0.0
 10
223.3524418228145
 20
120.9846588834723
 30
0.0
 10
223.3103037679024
 20
120.8857523769775
 30
0.0
 10
223.3064860014781
 20
120.820178231857
 30
0.0
 10
223.3045767925403
 20
120.7873855646175
 30
0.0
  0
SPLINE
  5
262
330
1F
100
AcDbEntity
  8
0
  6
Continuous
 62
     7
370
    18
100
AcDbSpline
210
0.0
220
0.0
230
1.0
 70
     8
 71
     3
 72
    11
 73
     7
 74
     0
 42
0.000000001
 43
0.00000001
 40
0.0
 40
0.0
 40
0.0
 40
0.0
 40
0.2805990159984021
 40
0.5604527759419515
 40
0.7805133266133543
 40
1.0
 40
1.0
 40
1.0
 40
1.0
 10
223.8115695718964
 20
120.7736267145198
 30
0.0
 10
223.8088856493984
 20
120.8167660010862
 30
0.0
 10
223.8035249327578
 20
120.9029299985693
 30
0.0
 10
223.7430124140827
 20
121.0088186585204
 30
0.0
 10
223.6582751527881
 20
121.0849724562808
 30
0.0
 10
223.5906105214973
 20
121.0944968528081
 30
0.0
 10
223.556822377664
 20
121.0992528334977
 30
0.0
  0
SPLINE
  5
263
330
1F
100
AcDbEntity
  8
0
  6
Continuous
 62
     7
370
    18
100
AcDbSpline
210
0.0
220
0.0
230
1.0
 70
     8
 71
     3
 72
    13
 73
     9
 74
     0
 42
0.000000001
 43
0.00000001
 40
0.0
 40
0.0
 40
0.0
 40
0.0
 40
0.1237345749994077
 40
0.2484232101745682
 40
0.3734713343328617
 40
0.4987444967637453
 40
0.7493102257733248
 40
1.0
 40
1.0
 40
1.0
 40
1.0
 10
222.2555687063069
 20
119.418171512475
 30
0.0
 10
222.2966531024965
 20
119.4255347542278
 30
0.0
 10
222.3791386776849
 20
119.4403180122907
 30
0.0
 10
222.4633332473873
 20
119.5380308063616
 30
0.0
 10
222.5204029699431
 20
119.6467728889777
 30
0.0
 10
222.5595731673589
 20
119.8075659960736
 30
0.0
 10
222.5808404902826
 20
120.0121229799334
 30
0.0
 10
222.5830222296198
 20
120.1765022157116
 30
0.0
 10
222.5841133692449
 20
120.2587121729863
 30
0.0
  0
SPLINE
  5
264
330
1F
100
AcDbEntity
  8
0
  6
Continuous
 62
     7
370
    18
100
AcDbSpline
210
0.0
220
0.0
230
1.0
 70
     8
 71
     3
 72
    13
 73
     9
 74
     0
 42
0.000000001
 43
0.00000001
 40
0.0
 40
0.0
 40
0.0
 40
0.0
 40
0.2506668541570159
 40
0.5012048357437092
 40
0.6264537829510465
 40
0.7514291871594875
 40
0.8760522367173393
 40
1.0
 40
1.0
 40
1.0
 40
1.0
 10
221.9170176069343
 20
120.2587121729863
 30
0.0
 10
221.9180659137509
 20
120.1757669371913
 30
0.0
 10
221.9201619884297
 20
120.0099191093157
 30
0.0
 10
221.9419810874685
 20
119.8035451069379
 30
0.0
 10
221.982083567739
 20
119.641490723502
 30
0.0
 10
222.0414549093559
 20
119.5323852203828
 30
0.0
 10
222.1305562687036
 20
119.437694894924
 30
0.0
 10
222.2139734328988
 20
119.4246675095644
 30
0.0
 10
222.2555687063069
 20
119.418171512475
 30
0.0
  0
SPLINE
  5
265
330
1F
100
AcDbEntity
  8
0
  6
Continuous
 62
     7
370
    18
100
AcDbSpline
210
0.0
220
0.0
230
1.0
 70
     8
 71
     3
 72
    13
 73
     9
 74
     0
 42
0.000000001
 43
0.00000001
 40
0.0
 40
0.0
 40
0.0
 40
0.0
 40
0.1236770548154457
 40
0.2483884878623331
 40
0.3734455614730988
 40
0.4987169325064016
 40
0.7492948497723048
 40
1.0
 40
1.0
 40
1.0
 40
1.0
 10
222.2430606607636
 20
121.0992528334977
 30
0.0
 10
222.2020720961093
 20
121.0917596342379
 30
0.0
 10
222.1197521572223
 20
121.0767105660323
 30
0.0
 10
222.0366384378007
 20
120.9783532257021
 30
0.0
 10
221.9799053887275
 20
120.8697194043661
 30
0.0
 10
221.9418895947349
 20
120.7089373752019
 30
0.0
 10
221.9201448459926
 20
120.5048884652655
 30
0.0
 10
221.9180601963252
 20
120.3407848210464
 30
0.0
 10
221.9170176069343
 20
120.2587121729863
 30
0.0
  0
SPLINE
  5
266
330
1F
100
AcDbEntity
  8
0
  6
Continuous
 62
     7
370
    18
100
AcDbSpline
210
0.0
220
0.0
230
1.0
 70
     8
 71
     3
 72
    13
 73
     9
 74
     0
 42
0.000000001
 43
0.00000001
 40
0.0
 40
0.0
 40
0.0
 40
0.0
 40
0.250673607138639
 40
0.5012152607337986
 40
0.6264526015104143
 40
0.7514497498805398
 40
0.8760271183236269
 40
1.0
 40
1.0
 40
1.0
 40
1.0
 10
222.5841133692449
 20
120.2587121729863
 30
0.0
 10
222.5830748663328
 20
120.3418583267401
 30
0.0
 10
222.5809984071723
 20
120.5081068664585
 30
0.0
 10
222.5590841627611
 20
120.7149979942622
 30
0.0
 10
222.5186917075245
 20
120.8773735699925
 30
0.0
 10
222.4589240767743
 20
120.986714317252
 30
0.0
 10
222.3684039914216
 20
121.0804525689534
 30
0.0
 10
222.2847739735065
 20
121.092996247603
 30
0.0
 10
222.2430606607636
 20
121.0992528334977
 30
0.0
  0
CIRCLE
  5
267
330
1F
100
AcDbEntity
  8
0
  6
Continuous
 62
     7
370
    18
100
AcDbCircle
 10
225.8929083503
 20
122.6202311716
 30
0.0
 40
25.40000000000001
  0
OLE2FRAME
  5
268
330
1F
100
AcDbEntity
  8
0
100
AcDbOle2Frame
 70
     2
  3
Paintbrush Picture
 10
229.0524258301
 20
33.6996297921
 30
0.0
 11
265.1686469208
 21
28.555479607
 31
0.0
 71
     2
 72
     0
 73
     1
 90
     7296
310
80557333EF78ADA16C40002412788DD94040000000000000000041161DC7B292
310
7040002412788DD94040000000000000000041161DC7B2927040F6DD59E9338E
310
3C4000000000000000007333EF78ADA16C40F6DD59E9338E3C40000000000000
310
00000000000001000000000100000100000001000000000001000000001C0000
310
D0CF11E0A1B11AE1000000000000000000000000000000003E000300FEFF0900
310
0600000000000000000000000100000001000000000000000010000002000000
310
01000000FEFFFFFF0000000000000000FFFFFFFFFFFFFFFFFFFFFFFFFFFFFFFF
310
FFFFFFFFFFFFFFFFFFFFFFFFFFFFFFFFFFFFFFFFFFFFFFFFFFFFFFFFFFFFFFFF
310
FFFFFFFFFFFFFFFFFFFFFFFFFFFFFFFFFFFFFFFFFFFFFFFFFFFFFFFFFFFFFFFF
310
FFFFFFFFFFFFFFFFFFFFFFFFFFFFFFFFFFFFFFFFFFFFFFFFFFFFFFFFFFFFFFFF
310
FFFFFFFFFFFFFFFFFFFFFFFFFFFFFFFFFFFFFFFFFFFFFFFFFFFFFFFFFFFFFFFF
310
FFFFFFFFFFFFFFFFFFFFFFFFFFFFFFFFFFFFFFFFFFFFFFFFFFFFFFFFFFFFFFFF
310
FFFFFFFFFFFFFFFFFFFFFFFFFFFFFFFFFFFFFFFFFFFFFFFFFFFFFFFFFFFFFFFF
310
FFFFFFFFFFFFFFFFFFFFFFFFFFFFFFFFFFFFFFFFFFFFFFFFFFFFFFFFFFFFFFFF
310
FFFFFFFFFFFFFFFFFFFFFFFFFFFFFFFFFFFFFFFFFFFFFFFFFFFFFFFFFFFFFFFF
310
FFFFFFFFFFFFFFFFFFFFFFFFFFFFFFFFFFFFFFFFFFFFFFFFFFFFFFFFFFFFFFFF
310
FFFFFFFFFFFFFFFFFFFFFFFFFFFFFFFFFFFFFFFFFFFFFFFFFFFFFFFFFFFFFFFF
310
FFFFFFFFFFFFFFFFFFFFFFFFFFFFFFFFFFFFFFFFFFFFFFFFFFFFFFFFFFFFFFFF
310
FFFFFFFFFFFFFFFFFFFFFFFFFFFFFFFFFFFFFFFFFFFFFFFFFFFFFFFFFFFFFFFF
310
FFFFFFFFFFFFFFFFFFFFFFFFFFFFFFFFFFFFFFFFFFFFFFFFFFFFFFFFFFFFFFFF
310
FDFFFFFFFEFFFFFFFEFFFFFFFEFFFFFF05000000060000000700000008000000
310
090000000A0000000B0000000C000000FEFFFFFFFFFFFFFFFFFFFFFFFFFFFFFF
310
FFFFFFFFFFFFFFFFFFFFFFFFFFFFFFFFFFFFFFFFFFFFFFFFFFFFFFFFFFFFFFFF
310
FFFFFFFFFFFFFFFFFFFFFFFFFFFFFFFFFFFFFFFFFFFFFFFFFFFFFFFFFFFFFFFF
310
FFFFFFFFFFFFFFFFFFFFFFFFFFFFFFFFFFFFFFFFFFFFFFFFFFFFFFFFFFFFFFFF
310
FFFFFFFFFFFFFFFFFFFFFFFFFFFFFFFFFFFFFFFFFFFFFFFFFFFFFFFFFFFFFFFF
310
FFFFFFFFFFFFFFFFFFFFFFFFFFFFFFFFFFFFFFFFFFFFFFFFFFFFFFFFFFFFFFFF
310
FFFFFFFFFFFFFFFFFFFFFFFFFFFFFFFFFFFFFFFFFFFFFFFFFFFFFFFFFFFFFFFF
310
FFFFFFFFFFFFFFFFFFFFFFFFFFFFFFFFFFFFFFFFFFFFFFFFFFFFFFFFFFFFFFFF
310
FFFFFFFFFFFFFFFFFFFFFFFFFFFFFFFFFFFFFFFFFFFFFFFFFFFFFFFFFFFFFFFF
310
FFFFFFFFFFFFFFFFFFFFFFFFFFFFFFFFFFFFFFFFFFFFFFFFFFFFFFFFFFFFFFFF
310
FFFFFFFFFFFFFFFFFFFFFFFFFFFFFFFFFFFFFFFFFFFFFFFFFFFFFFFFFFFFFFFF
310
FFFFFFFFFFFFFFFFFFFFFFFFFFFFFFFFFFFFFFFFFFFFFFFFFFFFFFFFFFFFFFFF
310
FFFFFFFFFFFFFFFFFFFFFFFFFFFFFFFFFFFFFFFFFFFFFFFFFFFFFFFFFFFFFFFF
310
FFFFFFFFFFFFFFFFFFFFFFFFFFFFFFFFFFFFFFFFFFFFFFFFFFFFFFFFFFFFFFFF
310
FFFFFFFFFFFFFFFFFFFFFFFFFFFFFFFFFFFFFFFFFFFFFFFFFFFFFFFFFFFFFFFF
310
52006F006F007400200045006E00740072007900000000000000000000000000
310
0000000000000000000000000000000000000000000000000000000000000000
310
16000500FFFFFFFFFFFFFFFF020000000A00030000000000C000000000000046
310
00000000000000000000000000CA6A9F4696D40103000000C000000000000000
310
01004F006C006500000000000000000000000000000000000000000000000000
310
0000000000000000000000000000000000000000000000000000000000000000
310
0A000200FFFFFFFFFFFFFFFFFFFFFFFF00000000000000000000000000000000
310
0000000000000000000000000000000000000000000000001400000000000000
310
010043006F006D0070004F0062006A0000000000000000000000000000000000
310
0000000000000000000000000000000000000000000000000000000000000000
310
120002010100000003000000FFFFFFFF00000000000000000000000000000000
310
0000000000000000000000000000000000000000010000004D00000000000000
310
01004F006C006500310030004E00610074006900760065000000000000000000
310
0000000000000000000000000000000000000000000000000000000000000000
310
1A000200FFFFFFFFFFFFFFFFFFFFFFFF00000000000000000000000000000000
310
000000000000000000000000000000000000000004000000E411000000000000
310
FEFFFFFF02000000FEFFFFFFFFFFFFFFFFFFFFFFFFFFFFFFFFFFFFFFFFFFFFFF
310
FFFFFFFFFFFFFFFFFFFFFFFFFFFFFFFFFFFFFFFFFFFFFFFFFFFFFFFFFFFFFFFF
310
FFFFFFFFFFFFFFFFFFFFFFFFFFFFFFFFFFFFFFFFFFFFFFFFFFFFFFFFFFFFFFFF
310
FFFFFFFFFFFFFFFFFFFFFFFFFFFFFFFFFFFFFFFFFFFFFFFFFFFFFFFFFFFFFFFF
310
FFFFFFFFFFFFFFFFFFFFFFFFFFFFFFFFFFFFFFFFFFFFFFFFFFFFFFFFFFFFFFFF
310
FFFFFFFFFFFFFFFFFFFFFFFFFFFFFFFFFFFFFFFFFFFFFFFFFFFFFFFFFFFFFFFF
310
FFFFFFFFFFFFFFFFFFFFFFFFFFFFFFFFFFFFFFFFFFFFFFFFFFFFFFFFFFFFFFFF
310
FFFFFFFFFFFFFFFFFFFFFFFFFFFFFFFFFFFFFFFFFFFFFFFFFFFFFFFFFFFFFFFF
310
FFFFFFFFFFFFFFFFFFFFFFFFFFFFFFFFFFFFFFFFFFFFFFFFFFFFFFFFFFFFFFFF
310
FFFFFFFFFFFFFFFFFFFFFFFFFFFFFFFFFFFFFFFFFFFFFFFFFFFFFFFFFFFFFFFF
310
FFFFFFFFFFFFFFFFFFFFFFFFFFFFFFFFFFFFFFFFFFFFFFFFFFFFFFFFFFFFFFFF
310
FFFFFFFFFFFFFFFFFFFFFFFFFFFFFFFFFFFFFFFFFFFFFFFFFFFFFFFFFFFFFFFF
310
FFFFFFFFFFFFFFFFFFFFFFFFFFFFFFFFFFFFFFFFFFFFFFFFFFFFFFFFFFFFFFFF
310
FFFFFFFFFFFFFFFFFFFFFFFFFFFFFFFFFFFFFFFFFFFFFFFFFFFFFFFFFFFFFFFF
310
FFFFFFFFFFFFFFFFFFFFFFFFFFFFFFFFFFFFFFFFFFFFFFFFFFFFFFFFFFFFFFFF
310
FFFFFFFFFFFFFFFFFFFFFFFFFFFFFFFFFFFFFFFFFFFFFFFFFFFFFFFFFFFFFFFF
310
0100000200000000000000000000000000000000000000000000000000000000
310
0000000000000000000000000000000000000000000000000000000000000000
310
0100FEFF030A0000FFFFFFFF0A00030000000000C00000000000004607000000
310
5042727573680007000000504272757368000700000050427275736800F439B2
310
7100000000000000000000000000000000000000000000000000000000000000
310
0000000000000000000000000000000000000000000000000000000000000000
310
0000000000000000000000000000000000000000000000000000000000000000
310
0000000000000000000000000000000000000000000000000000000000000000
310
0000000000000000000000000000000000000000000000000000000000000000
310
0000000000000000000000000000000000000000000000000000000000000000
310
0000000000000000000000000000000000000000000000000000000000000000
310
0000000000000000000000000000000000000000000000000000000000000000
310
0000000000000000000000000000000000000000000000000000000000000000
310
0000000000000000000000000000000000000000000000000000000000000000
310
0000000000000000000000000000000000000000000000000000000000000000
310
0000000000000000000000000000000000000000000000000000000000000000
310
E0110000424DDE11000000000000360400002800000096000000170000000100
310
08000000000000000000E7240000E72400000001000000010000000000FF0101
310
01FF020202FF030303FF040404FF050505FF060606FF070707FF080808FF0909
310
09FF0A0A0AFF0B0B0BFF0C0C0CFF0D0D0DFF0E0E0EFF0F0F0FFF101010FF1111
310
11FF121212FF131313FF141414FF151515FF161616FF171717FF181818FF1919
310
19FF1A1A1AFF1B1B1BFF1C1C1CFF1D1D1DFF1E1E1EFF1F1F1FFF202020FF2121
310
21FF222222FF232323FF242424FF252525FF262626FF272727FF282828FF2929
310
29FF2A2A2AFF2B2B2BFF2C2C2CFF2D2D2DFF2E2E2EFF2F2F2FFF303030FF3131
310
31FF323232FF333333FF343434FF353535FF363636FF373737FF383838FF3939
310
39FF3A3A3AFF3B3B3BFF3C3C3CFF3D3D3DFF3E3E3EFF3F3F3FFF404040FF4141
310
41FF424242FF434343FF444444FF454545FF464646FF474747FF484848FF4949
310
49FF4A4A4AFF4B4B4BFF4C4C4CFF4D4D4DFF4E4E4EFF4F4F4FFF505050FF5151
310
51FF525252FF535353FF545454FF555555FF565656FF575757FF585858FF5959
310
59FF5A5A5AFF5B5B5BFF5C5C5CFF5D5D5DFF5E5E5EFF5F5F5FFF606060FF6161
310
61FF626262FF636363FF646464FF656565FF666666FF676767FF686868FF6969
310
69FF6A6A6AFF6B6B6BFF6C6C6CFF6D6D6DFF6E6E6EFF6F6F6FFF707070FF7171
310
71FF727272FF737373FF747474FF757575FF767676FF777777FF787878FF7979
310
79FF7A7A7AFF7B7B7BFF7C7C7CFF7D7D7DFF7E7E7EFF7F7F7FFF808080FF8181
310
81FF828282FF838383FF848484FF858585FF868686FF878787FF888888FF8989
310
89FF8A8A8AFF8B8B8BFF8C8C8CFF8D8D8DFF8E8E8EFF8F8F8FFF909090FF9191
310
91FF929292FF939393FF949494FF959595FF969696FF979797FF989898FF9999
310
99FF9A9A9AFF9B9B9BFF9C9C9CFF9D9D9DFF9E9E9EFF9F9F9FFFA0A0A0FFA1A1
310
A1FFA2A2A2FFA3A3A3FFA4A4A4FFA5A5A5FFA6A6A6FFA7A7A7FFA8A8A8FFA9A9
310
A9FFAAAAAAFFABABABFFACACACFFADADADFFAEAEAEFFAFAFAFFFB0B0B0FFB1B1
310
B1FFB2B2B2FFB3B3B3FFB4B4B4FFB5B5B5FFB6B6B6FFB7B7B7FFB8B8B8FFB9B9
310
B9FFBABABAFFBBBBBBFFBCBCBCFFBDBDBDFFBEBEBEFFBFBFBFFFC0C0C0FFC1C1
310
C1FFC2C2C2FFC3C3C3FFC4C4C4FFC5C5C5FFC6C6C6FFC7C7C7FFC8C8C8FFC9C9
310
C9FFCACACAFFCBCBCBFFCCCCCCFFCDCDCDFFCECECEFFCFCFCFFFD0D0D0FFD1D1
310
D1FFD2D2D2FFD3D3D3FFD4D4D4FFD5D5D5FFD6D6D6FFD7D7D7FFD8D8D8FFD9D9
310
D9FFDADADAFFDBDBDBFFDCDCDCFFDDDDDDFFDEDEDEFFDFDFDFFFE0E0E0FFE1E1
310
E1FFE2E2E2FFE3E3E3FFE4E4E4FFE5E5E5FFE6E6E6FFE7E7E7FFE8E8E8FFE9E9
310
E9FFEAEAEAFFEBEBEBFFECECECFFEDEDEDFFEEEEEEFFEFEFEFFFF0F0F0FFF1F1
310
F1FFF2F2F2FFF3F3F3FFF4F4F4FFF5F5F5FFF6F6F6FFF7F7F7FFF8F8F8FFF9F9
310
F9FFFAFAFAFFFBFBFBFFFCFCFCFFFDFDFDFFFEFEFEFFFFFFFFFFFFFFFFFFFFFF
310
C94E4E4E4F4E4EFFFFFFFFFFC94E4E4E4E4E72FFFFFFFFFFFFFF734E4D4E4E4E
310
C9FFFFFFFFFFAA683516171616265B9BE9FFFFFFFFFF4E4E4E4D4E4EFFFFFFFF
310
FFFFFFFF4E4E4F4E4D4E4E4E4F4E4E4F4D4E4E4E4E4E4D4E4F4E4D4E4E4EAAFF
310
FFFFFFFFFFEA4E4F4F4E4E4E4E4E4D4D4F4F4E4E4E4E4E5B7FAAFFFFFFFFFFFF
310
C9744E1716171616164D8DEAFFFFFFFF0000FFFFFFFFFFFFBA161617161716FF
310
FFFFFFFFB917171616174FFFFFFFFFFFFFFF4E1716161616B9FFFFFFB9341717
310
1716171617171616268CFFFFFFFF161617161617FFFFFFFFFFFFFFB917161717
310
1617167F807F7F7F7F7F7F807F7F807F7F807F7F7F414EFFFFFFFFFFFF8C167F
310
7F807F7F7F7E7F7F807F807F7F807F4E3417258EFFFFEA4E162674AABAEAEBBA
310
AA74341680FFFFFF0000FFFFFFFFFFFFB9171717171617FFFFFFFFFFBB161616
310
16164EFFFFFFFFFFFFFF4E1717171717B9FFFF9C171617171716161616171616
310
171766FFFFFF161717161617FFFFFFFFFFFFFF8E16171717161616FFFFFFFFFF
310
FFFFFFFFFFFFFFFFFFFFFFFFFFAA16D9FFFFFFFFFF3467FFFFFFFFEAFFFFFFFF
310
FFFFFFFFFFFFFFFFFFCA671667EB26278DFFFFFFFFFFFFFFFFFFFF8C2541EAFF
310
0000FFFFFFFFFFFFB9171717171716FFFFFFFFFFBA16171617174EFFFFFFFFFF
310
FFFF4E1717161616BAFF9B1617161616171716171617161616161667FFFF1616
310
16161716FFFFFFFFFFFFFF7F16161617174017FFFFFFFFFFFFFFFFFFFFFFFFFF
310
FFFFFFFFFFFF344E7F7F7F7E7417DAFFFFFFFF80FFFFFFFFFFFFFFFFFFFFFFFF
310
FFFFFF9B163425CAFFFFFFFFFFFFFFFFFFFFFFFFCA2667FF0000FFFFFFFFFFFF
310
BA171717171617FFFFFFFFFFB916171716164EFFFFFFFFFFFFFF4F1716161717
310
B9C91716171616161716161617171616161617168DFF161716161717FFFFFFFF
310
FFFFFF7F17171716164F16FFFFFFFFFFFFFFFFFFFFFFFFFFFFFFFFFFFFFF9B16
310
17161617174EFFFFFFFFFF34FFFFFFFFD9BABABABABADAFFFFFFFFFF7F16AAFF
310
FFFFFFFFFFFFFFFFFFFFFFFFFF9C16BA0000FFFFFFFFFFFFB9161717161717FF
310
FFFFFFFFB917161716174DFFFFFFFFFFFFFF4E1616161616BA4E161617171716
310
419BEAEAAA4E16161617161726E9171717161616FFFFFFFFFFFFFF4F16161717
310
164E16FFFFFFFFFFBAB9B9B9B9B9BABABACAFFFFFFFFFFFFFFFFFFFFFFFFFFFF
310
FFFFBA16FFFFFFFF7F1617161617174DEAFFFFFFEA41FFFFFFFFFFAA4D16174E
310
9BFFFFFFFFFF34730000FFFFFFFFFFFFB9161617171617FFFFFFFFFFBA161616
310
16164EFFFFFFFFFFFFFF4F16161717169B1617161716175BFFFFFFFFFFFF7417
310
16171616168D171717161617FFFFFFFFFFFFEA2616171717167416FFFFFFFFFF
310
16171616171717171717EAFFFFFFFFFFFFFFFFFFFFFFFFFFFFFF6716FFFFFFFF
310
7F4EFFFFFFFFBA2573FFFFFFFFBAFFFFFFFFAA167FB9BB9B269BFFFFFFFF664F
310
0000FFFFFFFFFFFFB9171616161616FFFFFFFFFFBA16161717164EFFFFFFFFFF
310
FFFF4E16161616174E161617171626EAFFFFFFFFFFFFFF4E16161616164E1716
310
16161617FFFFFFFFFFFF671616161716347F16FFFFFFFFFF16B9FFFFFFFFFFFF
310
D9168DFFFFFFFFFFFFFFFFFFFFFFFFFFFFEA1716FFFFFFFF7F4EFFFFFFFFFF7F
310
4EFFFFFFFFFFFFFFFFFF5B66FFFFFFEA347FFFFFFFFF7F4D0000FFFFFFFFFFFF
310
B9171616171617FFFFFFFFFFBA17161716174EFFFFFFFFFFFFFF4D1716161617
310
17161716161673FFFFFFFFFFFFFFFF9B1617161717161616171616174F4E4E4E
310
4E341616171616167E7F16FFFFFFFFFF16BAFFFFFFFFFFFFFF5B41FFFFFFFF34
310
1616171616BAFFFFFF9B1716FFFFFFFF7F4EFFFFFFFFFF4E4EFFFFFFFF734E4E
310
4E4E267EDA9B67164EEAFFFFFFFF744D0000FFFFFFFFFFFFBA171717161617FF
310
FFFFFFFFBA1616171616347F7F7F7F80807F331616161717161717161716B9FF
310
FFFFFFFFFFFFFFE9161616161616171716161716171616161616171616171734
310
EA7F16FFFFFFFFFF16BAFFFFFFFFFFFFFFAA17C9FFFFFF7326BABA5B25FFFFFF
310
FF401716FFFFFFFF7F264F4E4E4E4217AAFFFFFFEA16677F73261616164173CA
310
FFFFFFFFFFFF417F0000FFFFFFFFFFFFBA171616171617FFFFFFFFFFBA161616
310
17171616161616161616161717161616161616161617EAFFFFFFFFFFFFFFFFFF
310
261717161716161617161616161617161617161616174EEAFF8016FFFFFFFFFF
310
17BAFFFFFFFFFFFFFFFF3467FFFFFFC916C9FF3467FFFFFFDA166716FFFFFFFF
310
9C4D4E4E4E4E67AAFFFFFFFF6834FF7F262567AAEAFFFFFFFFFFFFFFFF9B17D9
310
0000FFFFFFFFFFFFB9161616161616FFFFFFFFFFBA1617161717171616161616
310
1716171716161716161617171716FFFFFFFFFFFFFFFFFFFF4E17161716171616
310
1617171616161716171717161616169BFF7F17FFFFFFFFFF17B9FFFFFFFFFFFF
310
FFFF7326FFFFFFFF3473DA16AAFFFFFF7317AA16FFFFFFFFFFFFFFFFFFFFFFFF
310
FFFFEA6725BA4E167FEAFFFFFFFFFFFFFFFFFFFF9C167FFF0000FFFFFFFFFFFF
310
B9161717171716FFFFFFFFFFBA16161716171616171717161617161716161616
310
171617171617EAFFFFFFFFFFFFFFFFFF26161717161616161616161617171616
310
1616161616171616AA8016FFFFFFFFFF16BAFFFFFFFFFFFFFFFFDA179BFFFFFF
310
74348D26FFFFFFFF2566B917FFFFFFFFD8BAB9BAB9BADAFFFFEA41169B7425C9
310
FFFFFFFFFFFFFFFFFFFFAB4F1680FFFF0000FFFFFFFFFFFFBA161717171617FF
310
FFFFFFFFBA17161717161617171617161616161617171616171716171617BBFF
310
FFFFFFFFFFFFFFE9171616161617161617161716FFFFFFFFFFD9671616161617
310
348017FFFFFFFFFF16BAFFFFFFFFFFFFFFFFFF4E5AFFFFFFC916265AFFFFFFAA
310
16AABA16FFFFFFFF7F1617161616179BFFFFEB4127168DFFFFFFFFFFFFFFD99B
310
6734175AC9FFFFFF0000FFFFFFFFFFFFB9161617171617FFFFFFFFFFBB161616
310
1616347F807F7F7F7F8033171716171617171616161672FFFFFFFFFFFFFFFF9C
310
171617171617161716161617FFFFFFFFFFFFFF4117161616174E17FFFFFFFFFF
310
16BAFFFFFFFFFFFFFFFFFF9B16DAFFFFFF34169BFFFFFF5A26FFB917FFFFFFFF
310
7F4EFFFFFFEA5B26FFFFFFEA2616EAFFFFFFFFDA743416331617414E4E4E4ECA
310
0000FFFFFFFFFFFFBA161716161616FFFFFFFFFFBA17171616164EFFFFFFFFFF
310
FFFF4E16161717174E161717171626EBFFFFFFFFFFFFFF4E16161617165B1616
310
16171617FFFFFFFFFFFFFF6716161616161617FFFFFFFFFF16BAFFFFFFFFFFFF
310
FFFFFFEA268CFFFFFF7316EAFFFFEB1774FFB916FFFFFFFF7F4EFFFFFFFF7316
310
FFFFFFFF6826FFFFFFFFEB264D9CEABA257F807F7F6616BA0000FFFFFFFFFFFF
310
BA161716161616FFFFFFFFFFBA16171616164DFFFFFFFFFFFFFF4E1617161617
310
9B1617171717165BEBFFFFFFFFFF671616161617179B171616161616FFFFFFFF
310
FFFFFF3417161617171617FFFFFFFFFF17BAFFFFFFFFFFFFFFFFFFFF6734FFFF
310
FFEBCAFFFFFF8D17C9FFBA17FFFFFFFF7F357F808066174FFFFFFFFF7F16FFFF
310
FFFFD91673B99B415BFFFFFFFFBA16DA00009B7F7F7F807F671617161616167F
310
80807F7E6617161616164EFFFFFFFFFFFFFF4E1616161617B94E171716161616
310
349BC9D9AA4E16171616161634FF161617161717B9B9BAB9BA9B411716171716
310
163416FFFFFFFFFF16B9FFFFFFFFFFFFFFFFFFFFC917CAFFFFFFFFFFFFFF3342
310
FFFFBA17FFFFFFFF9B4E4E4F4E4E66EAFFFFFFFF5B16C9FFFFFFFFAA4E164E73
310
EAFFFFFFFF8D26FF00004E161716161616171617171616171717171617161616
310
17174EFFFFFFFFFFFFFF4E1717171616B9D92616171716171716171717171716
310
16171716AAFF161717171617161617171616161617161716166717FFFFFFFFFF
310
17B9FFFFFFFFFFFFFFFFFFFFFF3467FFFFFFFFFFFFCA168CFFFFBB17FFFFFFFF
310
FFFFFFFFFFFFFFFFFFFFFFEA26265BFFFFFFFFFFFFFFFFFFFFFFFFFFEA3467FF
310
00004D16161616161617161717161617161616171617171616164EFFFFFFFFFF
310
FFFF4D1617161616BAFF9B1616161616161716161616171717161766FFFF1616
310
16171617161617161716171616171717667F16FFFFFFFFFF17BAFFFFFFFFFFFF
310
FFFFFFFFFF8C26EAFFFFFFFFFF6617EAFFFFBA17FFFFFFFFFFFFFFFFFFFFFFFF
310
FFFFEA5A25BA269BFFFFFFFFFFFFFFFFFFFFFFFF6616DAFF00004E1616171616
310
1616161616161716161617171616171616174EFFFFFFFFFFFFFF4D1717171716
310
B9FFFF9C161616161616161716161717171667FFFFFF17161717171716161617
310
1716161616161641E97E16FFFFFFFFFF16B9FFFFFFFFFFFFFFFFFFFFFFEA169B
310
FFFFFFFFEA265BFFFFFFB916FFFFFFFFFFFFFFFFFFFFFFFFFF9B3416AAFF9B17
310
67EAFFFFFFFFFFFFFFFFEA5B169BFFFF00004D17161716161616161717171616
310
161717161716171716174EFFFFFFFFFFFFFF4D1616161616BAFFFFFFBB411616
310
161716161616171634ABFFFFFFFF161716161617171716171617171617267FFF
310
FF7F164E4E4E4E4F17BAFFFFFFFFFFFFFFFFFFFFFFFF66344D4E4E4F4117AAFF
310
FFFFBA174E4E4E4D4E4D4D4E4E4E4E4116174EBBFFFFFFCA342666ABEAFFFFEA
310
AA6725269CFFFFFF0000724F4E4D4D4D4E4D4D4E4E4E4D4E4E4E4E4E4E4E4E4D
310
4E4E74FFFFFFFFFFFFFF734E4E4E4D4ECAFFFFFFFFFFAA663416171717265B9B
310
FFFFFFFFFFFF7F8080807F80807F7F7F7F7F807FBAFFFFFFFF9B4E4E4F4D4D4E
310
4DC9FFFFFFFFFFFFFFFFFFFFFFFFBA4E4E4E4E4D4E4EFFFFFFFFC94E4E4E4F4E
310
4E4E4D4E4E5A807F9CD9FFFFFFFFFFFFFF9B5B2617171716174E8DEAFFFFFFFF
310
0000000000000000000000000000000000000000000000000000000000000000
  1
OLE
  0
ENDSEC
  0
SECTION
  2
OBJECTS
  0
DICTIONARY
  5
C
330
0
100
AcDbDictionary
281
     1
  3
ACAD_GROUP
350
D
  3
ACAD_LAYOUT
350
1A
  3
ACAD_MLINESTYLE
350
17
  3
ACAD_PLOTSETTINGS
350
19
  3
ACAD_PLOTSTYLENAME
350
E
  3
ACAD_SCALELIST
350
47
  0
DICTIONARY
  5
D
102
{ACAD_REACTORS
330
C
102
}
330
C
100
AcDbDictionary
281
     1
  0
DICTIONARY
  5
1A
102
{ACAD_REACTORS
330
C
102
}
330
C
100
AcDbDictionary
281
     1
  3
Layout1
350
1E
  3
Layout2
350
26
  3
Model
350
22
  0
DICTIONARY
  5
17
102
{ACAD_REACTORS
330
C
102
}
330
C
100
AcDbDictionary
281
     1
  3
Standard
350
18
  0
DICTIONARY
  5
19
102
{ACAD_REACTORS
330
C
102
}
330
C
100
AcDbDictionary
281
     1
  0
ACDBDICTIONARYWDFLT
  5
E
102
{ACAD_REACTORS
330
C
102
}
330
C
100
AcDbDictionary
281
     1
  3
Normal
350
F
100
AcDbDictionaryWithDefault
340
F
  0
DICTIONARY
  5
47
102
{ACAD_REACTORS
330
C
102
}
330
C
100
AcDbDictionary
281
     1
  3
A0
350
48
  3
A1
350
49
  3
A2
350
4A
  3
A3
350
4B
  3
A4
350
4C
  3
A5
350
4D
  3
A6
350
4E
  3
A7
350
4F
  3
A8
350
50
  3
A9
350
51
  3
B0
350
52
  3
B1
350
53
  3
B2
350
54
  3
B3
350
55
  3
B4
350
56
  3
B5
350
57
  3
B6
350
58
  3
B7
350
59
  3
B8
350
5A
  3
B9
350
5B
  3
C0
350
5C
  3
C1
350
5D
  3
C2
350
5E
  3
C3
350
5F
  3
C4
350
60
  3
C5
350
61
  3
C6
350
62
  3
C7
350
63
  3
C8
350
64
  3
C9
350
65
  3
D0
350
66
  3
D1
350
67
  3
D2
350
68
  0
LAYOUT
  5
1E
102
{ACAD_REACTORS
330
1A
102
}
330
1A
100
AcDbPlotSettings
  1

  2
none_device
  4

  6

 40
0.0
 41
0.0
 42
0.0
 43
0.0
 44
0.0
 45
0.0
 46
0.0
 47
0.0
 48
0.0
 49
0.0
140
0.0
141
0.0
142
1.0
143
1.0
 70
   688
 72
     1
 73
     0
 74
     5
  7

 75
    16
147
1.0
148
0.0
149
0.0
100
AcDbLayout
  1
Layout1
 70
     1
 71
     1
 10
0.0
 20
0.0
 11
420.0
 21
297.0
 12
0.0
 22
0.0
 32
0.0
 14
1.0000000000E+20
 24
1.0000000000E+20
 34
1.0000000000E+20
 15
-1.0000000000E+20
 25
-1.0000000000E+20
 35
-1.0000000000E+20
146
0.0
 13
0.0
 23
0.0
 33
0.0
 16
1.0
 26
0.0
 36
0.0
 17
0.0
 27
1.0
 37
0.0
 76
     0
330
1B
  0
LAYOUT
  5
26
102
{ACAD_REACTORS
330
1A
102
}
330
1A
100
AcDbPlotSettings
  1

  2
none_device
  4

  6

 40
0.0
 41
0.0
 42
0.0
 43
0.0
 44
0.0
 45
0.0
 46
0.0
 47
0.0
 48
0.0
 49
0.0
140
0.0
141
0.0
142
1.0
143
1.0
 70
   688
 72
     1
 73
     0
 74
     5
  7

 75
    16
147
1.0
148
0.0
149
0.0
100
AcDbLayout
  1
Layout2
 70
     1
 71
     2
 10
0.0
 20
0.0
 11
0.0
 21
0.0
 12
0.0
 22
0.0
 32
0.0
 14
0.0
 24
0.0
 34
0.0
 15
0.0
 25
0.0
 35
0.0
146
0.0
 13
0.0
 23
0.0
 33
0.0
 16
1.0
 26
0.0
 36
0.0
 17
0.0
 27
1.0
 37
0.0
 76
     0
330
23
  0
LAYOUT
  5
22
102
{ACAD_REACTORS
330
1A
102
}
330
1A
100
AcDbPlotSettings
  1

  2
none_device
  4
Letter_(8.50_x_11.00_Inches)
  6

 40
6.35
 41
6.35
 42
6.35000508
 43
6.35000508
 44
215.9
 45
279.4
 46
0.0
 47
0.0
 48
0.0
 49
0.0
140
0.0
141
0.0
142
1.0
143
1.0
 70
  1712
 72
     1
 73
     0
 74
     0
  7

 75
     0
147
1.0
148
0.0
149
0.0
100
AcDbLayout
  1
Model
 70
     1
 71
     0
 10
0.0
 20
0.0
 11
279.4
 21
215.9
 12
0.0
 22
0.0
 32
0.0
 14
0.0
 24
0.0
 34
0.0
 15
279.4
 25
215.9
 35
0.0
146
0.0
 13
0.0
 23
0.0
 33
0.0
 16
1.0
 26
0.0
 36
0.0
 17
0.0
 27
1.0
 37
0.0
 76
     0
330
1F
331
29
  0
MLINESTYLE
  5
18
102
{ACAD_REACTORS
330
17
102
}
330
17
100
AcDbMlineStyle
  2
Standard
 70
     0
  3

 62
   256
 51
90.0
 52
90.0
 71
     2
 49
0.5
 62
   256
  6
BYLAYER
 49
-0.5
 62
   256
  6
BYLAYER
  0
ACDBPLACEHOLDER
  5
F
102
{ACAD_REACTORS
330
E
102
}
330
E
  0
SCALE
  5
48
102
{ACAD_REACTORS
330
47
102
}
330
47
100
AcDbScale
 70
     0
300
1:1
140
1.0
141
1.0
290
     1
  0
SCALE
  5
49
102
{ACAD_REACTORS
330
47
102
}
330
47
100
AcDbScale
 70
     0
300
1:2
140
1.0
141
2.0
290
     0
  0
SCALE
  5
4A
102
{ACAD_REACTORS
330
47
102
}
330
47
100
AcDbScale
 70
     0
300
1:4
140
1.0
141
4.0
290
     0
  0
SCALE
  5
4B
102
{ACAD_REACTORS
330
47
102
}
330
47
100
AcDbScale
 70
     0
300
1:5
140
1.0
141
5.0
290
     0
  0
SCALE
  5
4C
102
{ACAD_REACTORS
330
47
102
}
330
47
100
AcDbScale
 70
     0
300
1:8
140
1.0
141
8.0
290
     0
  0
SCALE
  5
4D
102
{ACAD_REACTORS
330
47
102
}
330
47
100
AcDbScale
 70
     0
300
1:10
140
1.0
141
10.0
290
     0
  0
SCALE
  5
4E
102
{ACAD_REACTORS
330
47
102
}
330
47
100
AcDbScale
 70
     0
300
1:16
140
1.0
141
16.0
290
     0
  0
SCALE
  5
4F
102
{ACAD_REACTORS
330
47
102
}
330
47
100
AcDbScale
 70
     0
300
1:20
140
1.0
141
20.0
290
     0
  0
SCALE
  5
50
102
{ACAD_REACTORS
330
47
102
}
330
47
100
AcDbScale
 70
     0
300
1:30
140
1.0
141
30.0
290
     0
  0
SCALE
  5
51
102
{ACAD_REACTORS
330
47
102
}
330
47
100
AcDbScale
 70
     0
300
1:40
140
1.0
141
40.0
290
     0
  0
SCALE
  5
52
102
{ACAD_REACTORS
330
47
102
}
330
47
100
AcDbScale
 70
     0
300
1:50
140
1.0
141
50.0
290
     0
  0
SCALE
  5
53
102
{ACAD_REACTORS
330
47
102
}
330
47
100
AcDbScale
 70
     0
300
1:100
140
1.0
141
100.0
290
     0
  0
SCALE
  5
54
102
{ACAD_REACTORS
330
47
102
}
330
47
100
AcDbScale
 70
     0
300
2:1
140
2.0
141
1.0
290
     0
  0
SCALE
  5
55
102
{ACAD_REACTORS
330
47
102
}
330
47
100
AcDbScale
 70
     0
300
4:1
140
4.0
141
1.0
290
     0
  0
SCALE
  5
56
102
{ACAD_REACTORS
330
47
102
}
330
47
100
AcDbScale
 70
     0
300
8:1
140
8.0
141
1.0
290
     0
  0
SCALE
  5
57
102
{ACAD_REACTORS
330
47
102
}
330
47
100
AcDbScale
 70
     0
300
10:1
140
10.0
141
1.0
290
     0
  0
SCALE
  5
58
102
{ACAD_REACTORS
330
47
102
}
330
47
100
AcDbScale
 70
     0
300
100:1
140
100.0
141
1.0
290
     0
  0
SCALE
  5
59
102
{ACAD_REACTORS
330
47
102
}
330
47
100
AcDbScale
 70
     0
300
1/128" = 1'-0"
140
0.0078125
141
12.0
290
     0
  0
SCALE
  5
5A
102
{ACAD_REACTORS
330
47
102
}
330
47
100
AcDbScale
 70
     0
300
1/64" = 1'-0"
140
0.015625
141
12.0
290
     0
  0
SCALE
  5
5B
102
{ACAD_REACTORS
330
47
102
}
330
47
100
AcDbScale
 70
     0
300
1/32" = 1'-0"
140
0.03125
141
12.0
290
     0
  0
SCALE
  5
5C
102
{ACAD_REACTORS
330
47
102
}
330
47
100
AcDbScale
 70
     0
300
1/16" = 1'-0"
140
0.0625
141
12.0
290
     0
  0
SCALE
  5
5D
102
{ACAD_REACTORS
330
47
102
}
330
47
100
AcDbScale
 70
     0
300
3/32" = 1'-0"
140
0.09375
141
12.0
290
     0
  0
SCALE
  5
5E
102
{ACAD_REACTORS
330
47
102
}
330
47
100
AcDbScale
 70
     0
300
1/8" = 1'-0"
140
0.125
141
12.0
290
     0
  0
SCALE
  5
5F
102
{ACAD_REACTORS
330
47
102
}
330
47
100
AcDbScale
 70
     0
300
3/16" = 1'-0"
140
0.1875
141
12.0
290
     0
  0
SCALE
  5
60
102
{ACAD_REACTORS
330
47
102
}
330
47
100
AcDbScale
 70
     0
300
1/4" = 1'-0"
140
0.25
141
12.0
290
     0
  0
SCALE
  5
61
102
{ACAD_REACTORS
330
47
102
}
330
47
100
AcDbScale
 70
     0
300
3/8" = 1'-0"
140
0.375
141
12.0
290
     0
  0
SCALE
  5
62
102
{ACAD_REACTORS
330
47
102
}
330
47
100
AcDbScale
 70
     0
300
1/2" = 1'-0"
140
0.5
141
12.0
290
     0
  0
SCALE
  5
63
102
{ACAD_REACTORS
330
47
102
}
330
47
100
AcDbScale
 70
     0
300
3/4" = 1'-0"
140
0.75
141
12.0
290
     0
  0
SCALE
  5
64
102
{ACAD_REACTORS
330
47
102
}
330
47
100
AcDbScale
 70
     0
300
1" = 1'-0"
140
1.0
141
12.0
290
     0
  0
SCALE
  5
65
102
{ACAD_REACTORS
330
47
102
}
330
47
100
AcDbScale
 70
     0
300
1-1/2" = 1'-0"
140
1.5
141
12.0
290
     0
  0
SCALE
  5
66
102
{ACAD_REACTORS
330
47
102
}
330
47
100
AcDbScale
 70
     0
300
3" = 1'-0"
140
3.0
141
12.0
290
     0
  0
SCALE
  5
67
102
{ACAD_REACTORS
330
47
102
}
330
47
100
AcDbScale
 70
     0
300
6" = 1'-0"
140
6.0
141
12.0
290
     0
  0
SCALE
  5
68
102
{ACAD_REACTORS
330
47
102
}
330
47
100
AcDbScale
 70
     0
300
1'-0" = 1'-0"
140
12.0
141
12.0
290
     0
  0
ENDSEC
  0
EOF
