  0
SECTION
  2
HEADER
  9
$ACADVER
  1
AC1015
  9
$ACADMAINTVER
 70
     6
  9
$DWGCODEPAGE
  3
ANSI_1252
  9
$INSBASE
 10
0.0
 20
0.0
 30
0.0
  9
$EXTMIN
 10
0.0
 20
0.0
 30
0.0
  9
$EXTMAX
 10
11.0
 20
8.5
 30
0.0
  9
$LIMMIN
 10
0.0
 20
0.0
  9
$LIMMAX
 10
11.0
 20
8.5
  9
$ORTHOMODE
 70
     0
  9
$REGENMODE
 70
     1
  9
$FILLMODE
 70
     1
  9
$QTEXTMODE
 70
     0
  9
$MIRRTEXT
 70
     1
  9
$LTSCALE
 40
1.0
  9
$ATTMODE
 70
     1
  9
$TEXTSIZE
 40
0.1111111111
  9
$TRACEWID
 40
0.05
  9
$TEXTSTYLE
  7
Standard
  9
$CLAYER
  8
0
  9
$CELTYPE
  6
ByLayer
  9
$CECOLOR
 62
   256
  9
$CELTSCALE
 40
1.0
  9
$DISPSILH
 70
     0
  9
$DIMSCALE
 40
1.0
  9
$DIMASZ
 40
0.125
  9
$DIMEXO
 40
0.05
  9
$DIMDLI
 40
0.38
  9
$DIMRND
 40
0.0
  9
$DIMDLE
 40
0.0
  9
$DIMEXE
 40
0.07
  9
$DIMTP
 40
0.0
  9
$DIMTM
 40
0.0
  9
$DIMTXT
 40
0.1111111111
  9
$DIMCEN
 40
0.09
  9
$DIMTSZ
 40
0.0
  9
$DIMTOL
 70
     0
  9
$DIMLIM
 70
     0
  9
$DIMTIH
 70
     1
  9
$DIMTOH
 70
     1
  9
$DIMSE1
 70
     0
  9
$DIMSE2
 70
     0
  9
$DIMTAD
 70
     0
  9
$DIMZIN
 70
     1
  9
$DIMBLK
  1

  9
$DIMASO
 70
     1
  9
$DIMSHO
 70
     1
  9
$DIMPOST
  1

  9
$DIMAPOST
  1

  9
$DIMALT
 70
     0
  9
$DIMALTD
 70
     2
  9
$DIMALTF
 40
25.4
  9
$DIMLFAC
 40
1.0
  9
$DIMTOFL
 70
     0
  9
$DIMTVP
 40
0.0
  9
$DIMTIX
 70
     0
  9
$DIMSOXD
 70
     0
  9
$DIMSAH
 70
     0
  9
$DIMBLK1
  1

  9
$DIMBLK2
  1

  9
$DIMSTYLE
  2
Standard
  9
$DIMCLRD
 70
     0
  9
$DIMCLRE
 70
     0
  9
$DIMCLRT
 70
     0
  9
$DIMTFAC
 40
1.0
  9
$DIMGAP
 40
0.1
  9
$DIMJUST
 70
     0
  9
$DIMSD1
 70
     0
  9
$DIMSD2
 70
     0
  9
$DIMTOLJ
 70
     1
  9
$DIMTZIN
 70
     1
  9
$DIMALTZ
 70
     0
  9
$DIMALTTZ
 70
     0
  9
$DIMUPT
 70
     0
  9
$DIMDEC
 70
     2
  9
$DIMTDEC
 70
     2
  9
$DIMALTU
 70
     2
  9
$DIMALTTD
 70
     2
  9
$DIMTXSTY
  7
Standard
  9
$DIMAUNIT
 70
     0
  9
$DIMADEC
 70
     0
  9
$DIMALTRND
 40
0.0
  9
$DIMAZIN
 70
     0
  9
$DIMDSEP
 70
    46
  9
$DIMATFIT
 70
     3
  9
$DIMFRAC
 70
     0
  9
$DIMLDRBLK
  1

  9
$DIMLUNIT
 70
     2
  9
$DIMLWD
 70
    -2
  9
$DIMLWE
 70
    -2
  9
$DIMTMOVE
 70
     0
  9
$LUNITS
 70
     2
  9
$LUPREC
 70
     2
  9
$SKETCHINC
 40
0.1
  9
$FILLETRAD
 40
0.5
  9
$AUNITS
 70
     0
  9
$AUPREC
 70
     0
  9
$MENU
  1
.
  9
$ELEVATION
 40
0.0
  9
$PELEVATION
 40
0.0
  9
$THICKNESS
 40
0.0
  9
$LIMCHECK
 70
     0
  9
$CHAMFERA
 40
0.0
  9
$CHAMFERB
 40
0.0
  9
$CHAMFERC
 40
0.0
  9
$CHAMFERD
 40
0.0
  9
$SKPOLY
 70
     0
  9
$TDCREATE
 40
2457427.491275312
  9
$TDUCREATE
 40
2457427.699608646
  9
$TDUPDATE
 40
2457427.491278021
  9
$TDUUPDATE
 40
2457427.699611354
  9
$TDINDWG
 40
0.0000000116
  9
$TDUSRTIMER
 40
0.0000000116
  9
$USRTIMER
 70
     1
  9
$ANGBASE
 50
0.0
  9
$ANGDIR
 70
     0
  9
$PDMODE
 70
     0
  9
$PDSIZE
 40
-1.0
  9
$PLINEWID
 40
0.0
  9
$SPLFRAME
 70
     0
  9
$SPLINETYPE
 70
     6
  9
$SPLINESEGS
 70
     8
  9
$HANDSEED
  5
20F
  9
$SURFTAB1
 70
     6
  9
$SURFTAB2
 70
     6
  9
$SURFTYPE
 70
     6
  9
$SURFU
 70
     6
  9
$SURFV
 70
     6
  9
$UCSBASE
  2

  9
$UCSNAME
  2

  9
$UCSORG
 10
0.0
 20
0.0
 30
0.0
  9
$UCSXDIR
 10
1.0
 20
0.0
 30
0.0
  9
$UCSYDIR
 10
0.0
 20
1.0
 30
0.0
  9
$UCSORTHOREF
  2

  9
$UCSORTHOVIEW
 70
     0
  9
$UCSORGTOP
 10
0.0
 20
0.0
 30
0.0
  9
$UCSORGBOTTOM
 10
0.0
 20
0.0
 30
0.0
  9
$UCSORGLEFT
 10
0.0
 20
0.0
 30
0.0
  9
$UCSORGRIGHT
 10
0.0
 20
0.0
 30
0.0
  9
$UCSORGFRONT
 10
0.0
 20
0.0
 30
0.0
  9
$UCSORGBACK
 10
0.0
 20
0.0
 30
0.0
  9
$PUCSBASE
  2

  9
$PUCSNAME
  2

  9
$PUCSORG
 10
0.0
 20
0.0
 30
0.0
  9
$PUCSXDIR
 10
1.0
 20
0.0
 30
0.0
  9
$PUCSYDIR
 10
0.0
 20
1.0
 30
0.0
  9
$PUCSORTHOREF
  2

  9
$PUCSORTHOVIEW
 70
     0
  9
$PUCSORGTOP
 10
0.0
 20
0.0
 30
0.0
  9
$PUCSORGBOTTOM
 10
0.0
 20
0.0
 30
0.0
  9
$PUCSORGLEFT
 10
0.0
 20
0.0
 30
0.0
  9
$PUCSORGRIGHT
 10
0.0
 20
0.0
 30
0.0
  9
$PUCSORGFRONT
 10
0.0
 20
0.0
 30
0.0
  9
$PUCSORGBACK
 10
0.0
 20
0.0
 30
0.0
  9
$USERI1
 70
     0
  9
$USERI2
 70
     0
  9
$USERI3
 70
     0
  9
$USERI4
 70
     0
  9
$USERI5
 70
     0
  9
$USERR1
 40
0.0
  9
$USERR2
 40
0.0
  9
$USERR3
 40
0.0
  9
$USERR4
 40
0.0
  9
$USERR5
 40
0.0
  9
$WORLDVIEW
 70
     1
  9
$SHADEDGE
 70
     3
  9
$SHADEDIF
 70
    70
  9
$TILEMODE
 70
     1
  9
$MAXACTVP
 70
    64
  9
$PINSBASE
 10
0.0
 20
0.0
 30
0.0
  9
$PLIMCHECK
 70
     0
  9
$PEXTMIN
 10
1.0000000000E+20
 20
1.0000000000E+20
 30
1.0000000000E+20
  9
$PEXTMAX
 10
-1.0000000000E+20
 20
-1.0000000000E+20
 30
-1.0000000000E+20
  9
$PLIMMIN
 10
0.0
 20
0.0
  9
$PLIMMAX
 10
12.0
 20
9.0
  9
$UNITMODE
 70
     0
  9
$VISRETAIN
 70
     1
  9
$PLINEGEN
 70
     0
  9
$PSLTSCALE
 70
     1
  9
$TREEDEPTH
 70
  3020
  9
$CMLSTYLE
  2
Standard
  9
$CMLJUST
 70
     0
  9
$CMLSCALE
 40
1.0
  9
$PROXYGRAPHICS
 70
     1
  9
$MEASUREMENT
 70
     0
  9
$CELWEIGHT
370
    -1
  9
$ENDCAPS
280
     0
  9
$JOINSTYLE
280
     0
  9
$LWDISPLAY
290
     1
  9
$INSUNITS
 70
     1
  9
$HYPERLINKBASE
  1

  9
$STYLESHEET
  1

  9
$XEDIT
290
     1
  9
$CEPSNTYPE
380
     0
  9
$PSTYLEMODE
290
     1
  9
$FINGERPRINTGUID
  2
{A38E8393-7B24-46DD-9095-27EE20C5D127}
  9
$VERSIONGUID
  2
{FAEB1C32-E019-11D5-929B-00C0DF256EC4}
  9
$EXTNAMES
290
     1
  9
$PSVPSCALE
 40
0.0
  9
$OLESTARTUP
290
     0
  0
ENDSEC
  0
SECTION
  2
CLASSES
  0
CLASS
  1
ACDBDICTIONARYWDFLT
  2
AcDbDictionaryWithDefault
  3
ObjectDBX Classes
 90
        0
280
     0
281
     0
  0
CLASS
  1
VISUALSTYLE
  2
AcDbVisualStyle
  3
ObjectDBX Classes
 90
     4095
280
     0
281
     0
  0
CLASS
  1
MATERIAL
  2
AcDbMaterial
  3
ObjectDBX Classes
 90
     1153
280
     0
281
     0
  0
CLASS
  1
SCALE
  2
AcDbScale
  3
ObjectDBX Classes
 90
     1153
280
     0
281
     0
  0
CLASS
  1
SUN
  2
AcDbSun
  3
SCENEOE
 90
     1153
280
     0
281
     0
  0
CLASS
  1
ACDBPLACEHOLDER
  2
AcDbPlaceHolder
  3
ObjectDBX Classes
 90
        0
280
     0
281
     0
  0
CLASS
  1
LAYOUT
  2
AcDbLayout
  3
ObjectDBX Classes
 90
        0
280
     0
281
     0
  0
ENDSEC
  0
SECTION
  2
TABLES
  0
TABLE
  2
VPORT
  5
8
330
0
100
AcDbSymbolTable
 70
     1
  0
VPORT
  5
29
330
8
100
AcDbSymbolTableRecord
100
AcDbViewportTableRecord
  2
*Active
 70
     0
 10
0.0
 20
0.0
 11
1.0
 21
1.0
 12
5.5
 22
4.25
 13
0.0
 23
0.0
 14
0.5
 24
0.5
 15
0.5
 25
0.5
 16
0.0
 26
0.0
 36
1.0
 17
0.0
 27
0.0
 37
0.0
 40
8.5
 41
1.2941176471
 42
50.0
 43
0.0
 44
0.0
 50
0.0
 51
0.0
 71
     0
 72
  2000
 73
     1
 74
     3
 75
     0
 76
     0
 77
     0
 78
     0
281
     0
 65
     1
110
0.0
120
0.0
130
0.0
111
1.0
121
0.0
131
0.0
112
0.0
122
1.0
132
0.0
 79
     0
146
0.0
  0
ENDTAB
  0
TABLE
  2
LTYPE
  5
5
330
0
100
AcDbSymbolTable
 70
     6
  0
LTYPE
  5
14
330
5
100
AcDbSymbolTableRecord
100
AcDbLinetypeTableRecord
  2
ByBlock
 70
     0
  3

 72
    65
 73
     0
 40
0.0
  0
LTYPE
  5
15
330
5
100
AcDbSymbolTableRecord
100
AcDbLinetypeTableRecord
  2
ByLayer
 70
     0
  3

 72
    65
 73
     0
 40
0.0
  0
LTYPE
  5
16
330
5
100
AcDbSymbolTableRecord
100
AcDbLinetypeTableRecord
  2
Continuous
 70
     0
  3
Solid line
 72
    65
 73
     0
 40
0.0
  0
LTYPE
  5
6A
330
5
100
AcDbSymbolTableRecord
100
AcDbLinetypeTableRecord
  2
HIDDEN
 70
     0
  3
Hidden __ __ __ __ __ __ __ __ __ __ __ __ __ __
 72
    65
 73
     2
 40
0.075
 49
0.05
 74
     0
 49
-0.025
 74
     0
  0
LTYPE
  5
6B
330
5
100
AcDbSymbolTableRecord
100
AcDbLinetypeTableRecord
  2
PHANTOM
 70
     0
  3
Phantom ______  __  __  ______  __  __  ______
 72
    65
 73
     6
 40
0.5
 49
0.25
 74
     0
 49
-0.05
 74
     0
 49
0.05
 74
     0
 49
-0.05
 74
     0
 49
0.05
 74
     0
 49
-0.05
 74
     0
  0
LTYPE
  5
6C
330
5
100
AcDbSymbolTableRecord
100
AcDbLinetypeTableRecord
  2
CENTER
 70
     0
  3
Center ____ _ ____ _ ____ _ ____ _ ____ _ ____
 72
    65
 73
     4
 40
0.4
 49
0.25
 74
     0
 49
-0.05
 74
     0
 49
0.05
 74
     0
 49
-0.05
 74
     0
  0
LTYPE
  5
6D
330
5
100
AcDbSymbolTableRecord
100
AcDbLinetypeTableRecord
  2
CENTERX2
 70
     0
  3
Center (2x) ________  __  ________  __  _____
 72
    65
 73
     4
 40
0.8
 49
0.5
 74
     0
 49
-0.1
 74
     0
 49
0.1
 74
     0
 49
-0.1
 74
     0
  0
LTYPE
  5
6E
330
5
100
AcDbSymbolTableRecord
100
AcDbLinetypeTableRecord
  2
DOT2
 70
     0
  3
Dot (.5x) ........................................
 72
    65
 73
     2
 40
0.025
 49
0.0
 74
     0
 49
-0.025
 74
     0
  0
ENDTAB
  0
TABLE
  2
LAYER
  5
2
330
0
100
AcDbSymbolTable
 70
     2
  0
LAYER
  5
10
330
2
100
AcDbSymbolTableRecord
100
AcDbLayerTableRecord
  2
0
 70
     0
 62
     7
  6
Continuous
370
    -3
390
F
  0
LAYER
  5
6F
330
2
100
AcDbSymbolTableRecord
100
AcDbLayerTableRecord
  2
FORMAT
 70
     0
 62
     7
  6
Continuous
370
    -3
390
F
  0
ENDTAB
  0
TABLE
  2
STYLE
  5
3
330
0
100
AcDbSymbolTable
 70
     5
  0
STYLE
  5
11
330
3
100
AcDbSymbolTableRecord
100
AcDbTextStyleTableRecord
  2
Standard
 70
     0
 40
0.0
 41
1.0
 50
0.0
 71
     0
 42
0.1111111111
  3
txt
  4

  0
STYLE
  5
96
330
3
100
AcDbSymbolTableRecord
100
AcDbTextStyleTableRecord
  2
SLDTEXTSTYLE0
 70
     0
 40
0.0
 41
0.75
 50
0.0
 71
     0
 42
0.1111111111
  3
TXT
  4

  0
STYLE
  5
A2
330
3
100
AcDbSymbolTableRecord
100
AcDbTextStyleTableRecord
  2
SLDTEXTSTYLE1
 70
     0
 40
0.0
 41
0.6
 50
0.0
 71
     0
 42
0.1111111111
  3
TXT
  4

  0
STYLE
  5
A7
330
3
100
AcDbSymbolTableRecord
100
AcDbTextStyleTableRecord
  2
SLDTEXTSTYLE2
 70
     0
 40
0.0
 41
0.6875
 50
0.0
 71
     0
 42
0.1111111111
  3
TXT
  4

  0
STYLE
  5
1F9
330
3
100
AcDbSymbolTableRecord
100
AcDbTextStyleTableRecord
  2
SLDTEXTSTYLE3
 70
     0
 40
0.0
 41
0.7
 50
0.0
 71
     0
 42
0.1111111111
  3
TXT
  4

  0
ENDTAB
  0
TABLE
  2
VIEW
  5
6
330
0
100
AcDbSymbolTable
 70
     0
  0
ENDTAB
  0
TABLE
  2
UCS
  5
7
330
0
100
AcDbSymbolTable
 70
     0
  0
ENDTAB
  0
TABLE
  2
APPID
  5
9
330
0
100
AcDbSymbolTable
 70
     1
  0
APPID
  5
12
330
9
100
AcDbSymbolTableRecord
100
AcDbRegAppTableRecord
  2
ACAD
 70
     0
  0
ENDTAB
  0
TABLE
  2
DIMSTYLE
  5
A
330
0
100
AcDbSymbolTable
 70
     5
100
AcDbDimStyleTable
  0
DIMSTYLE
105
27
330
A
100
AcDbSymbolTableRecord
100
AcDbDimStyleTableRecord
  2
Standard
 70
     0
178
     0
340
11
  0
DIMSTYLE
105
11A
102
{ACAD_REACTORS
330
119
102
}
330
A
100
AcDbSymbolTableRecord
100
AcDbDimStyleTableRecord
  2
SLDDIMSTYLE0
 70
     0
 41
0.125
 44
0.0
 45
0.000000001
 78
     4
 79
     1
140
0.0833333333
141
0.0
147
0.0208333333
148
0.000000001
170
     1
171
     1
173
     1
178
     0
271
     2
272
     2
274
     1
276
     2
284
    12
340
96
  0
DIMSTYLE
105
1AB
102
{ACAD_REACTORS
330
1AA
102
}
330
A
100
AcDbSymbolTableRecord
100
AcDbDimStyleTableRecord
  2
SLDDIMSTYLE1
 70
     0
 41
0.125
 44
0.0
 45
0.000000001
 78
     4
 79
     1
140
0.0833333333
147
0.0208333333
148
0.000000001
170
     1
171
     1
173
     1
178
     0
271
     2
272
     2
274
     1
276
     2
284
    12
340
96
  0
DIMSTYLE
105
1BF
102
{ACAD_REACTORS
330
1BE
330
1D3
102
}
330
A
100
AcDbSymbolTableRecord
100
AcDbDimStyleTableRecord
  2
SLDDIMSTYLE2
 70
     0
 41
0.125
 44
0.0
 45
0.000000001
 78
     8
 79
     2
140
0.0833333333
147
0.0208333333
148
0.000000001
170
     1
171
     1
172
     1
173
     1
178
     0
271
     2
272
     2
274
     1
276
     2
284
    12
289
     0
340
96
  0
DIMSTYLE
105
1ED
330
A
100
AcDbSymbolTableRecord
100
AcDbDimStyleTableRecord
  2
SLDDIMSTYLE3
 70
     0
 41
0.125
 44
0.0
 45
0.000000001
146
0.125
147
0.0
173
     1
178
     0
271
     0
272
     0
276
     2
340
11
  0
ENDTAB
  0
TABLE
  2
BLOCK_RECORD
  5
1
330
0
100
AcDbSymbolTable
 70
    20
  0
BLOCK_RECORD
  5
1F
330
1
100
AcDbSymbolTableRecord
100
AcDbBlockTableRecord
  2
*Model_Space
340
22
  0
BLOCK_RECORD
  5
1B
330
1
100
AcDbSymbolTableRecord
100
AcDbBlockTableRecord
  2
*Paper_Space
340
1E
  0
BLOCK_RECORD
  5
23
330
1
100
AcDbSymbolTableRecord
100
AcDbBlockTableRecord
  2
*Paper_Space0
340
26
  0
BLOCK_RECORD
  5
70
330
1
100
AcDbSymbolTableRecord
100
AcDbBlockTableRecord
  2
Third Angle Projection Block
340
0
102
{BLKREFS
331
95
102
}
  0
BLOCK_RECORD
  5
A9
330
1
100
AcDbSymbolTableRecord
100
AcDbBlockTableRecord
  2
SW_NOTE_0
340
0
102
{BLKREFS
331
AE
102
}
  0
BLOCK_RECORD
  5
AF
330
1
100
AcDbSymbolTableRecord
100
AcDbBlockTableRecord
  2
SW_NOTE_1
340
0
102
{BLKREFS
331
B4
102
}
  0
BLOCK_RECORD
  5
B6
330
1
100
AcDbSymbolTableRecord
100
AcDbBlockTableRecord
  2
SW_NOTE_2
340
0
102
{BLKREFS
331
BC
102
}
  0
BLOCK_RECORD
  5
BE
330
1
100
AcDbSymbolTableRecord
100
AcDbBlockTableRecord
  2
SW_NOTE_3
340
0
102
{BLKREFS
331
C3
102
}
  0
BLOCK_RECORD
  5
C4
330
1
100
AcDbSymbolTableRecord
100
AcDbBlockTableRecord
  2
SW_NOTE_4
340
0
102
{BLKREFS
331
D6
102
}
  0
BLOCK_RECORD
  5
D7
330
1
100
AcDbSymbolTableRecord
100
AcDbBlockTableRecord
  2
SW_TABLEANNOTATION_0
340
0
102
{BLKREFS
331
100
102
}
  0
BLOCK_RECORD
  5
E5
330
1
100
AcDbSymbolTableRecord
100
AcDbBlockTableRecord
  2
SW_SYMBOL_C#_1
340
0
102
{BLKREFS
331
EA
102
}
  0
BLOCK_RECORD
  5
EE
330
1
100
AcDbSymbolTableRecord
100
AcDbBlockTableRecord
  2
SW_SYMBOL_C#_2
340
0
102
{BLKREFS
331
F3
102
}
  0
BLOCK_RECORD
  5
F6
330
1
100
AcDbSymbolTableRecord
100
AcDbBlockTableRecord
  2
SW_SYMBOL_C#_3
340
0
102
{BLKREFS
331
FB
102
}
  0
BLOCK_RECORD
  5
11B
330
1
100
AcDbSymbolTableRecord
100
AcDbBlockTableRecord
  2
_D
340
0
  0
BLOCK_RECORD
  5
1AC
330
1
100
AcDbSymbolTableRecord
100
AcDbBlockTableRecord
  2
_D_1
340
0
  0
BLOCK_RECORD
  5
1C0
330
1
100
AcDbSymbolTableRecord
100
AcDbBlockTableRecord
  2
_D_2
340
0
  0
BLOCK_RECORD
  5
1D4
330
1
100
AcDbSymbolTableRecord
100
AcDbBlockTableRecord
  2
_D_3
340
0
  0
BLOCK_RECORD
  5
1E7
330
1
100
AcDbSymbolTableRecord
100
AcDbBlockTableRecord
  2
SW_NOTE_5
340
0
102
{BLKREFS
331
1EC
102
}
  0
BLOCK_RECORD
  5
1EF
330
1
100
AcDbSymbolTableRecord
100
AcDbBlockTableRecord
  2
SW_NOTE_6
340
0
102
{BLKREFS
331
1F4
102
}
  0
BLOCK_RECORD
  5
1F6
330
1
100
AcDbSymbolTableRecord
100
AcDbBlockTableRecord
  2
SW_NOTE_7
340
0
102
{BLKREFS
331
1FD
102
}
  0
BLOCK_RECORD
  5
1FF
330
1
100
AcDbSymbolTableRecord
100
AcDbBlockTableRecord
  2
SW_NOTE_8
340
0
102
{BLKREFS
331
204
102
}
  0
BLOCK_RECORD
  5
206
330
1
100
AcDbSymbolTableRecord
100
AcDbBlockTableRecord
  2
SW_NOTE_9
340
0
102
{BLKREFS
331
20C
102
}
  0
ENDTAB
  0
ENDSEC
  0
SECTION
  2
BLOCKS
  0
BLOCK
  5
20
330
1F
100
AcDbEntity
  8
0
100
AcDbBlockBegin
  2
*Model_Space
 70
     0
 10
0.0
 20
0.0
 30
0.0
  3
*Model_Space
  1
*Model_Space
  0
ENDBLK
  5
21
330
1F
100
AcDbEntity
  8
0
100
AcDbBlockEnd
  0
BLOCK
  5
1C
330
1B
100
AcDbEntity
 67
     1
  8
0
100
AcDbBlockBegin
  2
*Paper_Space
 70
     0
 10
0.0
 20
0.0
 30
0.0
  3
*Paper_Space
  1
*Paper_Space
  0
ENDBLK
  5
1D
330
1B
100
AcDbEntity
 67
     1
  8
0
100
AcDbBlockEnd
  0
BLOCK
  5
24
330
23
100
AcDbEntity
  8
0
100
AcDbBlockBegin
  2
*Paper_Space0
 70
     0
 10
0.0
 20
0.0
 30
0.0
  3
*Paper_Space0
  1
*Paper_Space0
  0
ENDBLK
  5
25
330
23
100
AcDbEntity
  8
0
100
AcDbBlockEnd
  0
BLOCK
  5
71
330
70
100
AcDbEntity
  8
0
100
AcDbBlockBegin
  2
Third Angle Projection Block
 70
     0
 10
0.0
 20
0.0
 30
0.0
  3
Third Angle Projection Block
  1
Third Angle Projection Block
  0
CIRCLE
  5
73
330
70
100
AcDbEntity
  8
0
  6
Continuous
 62
     7
370
    30
100
AcDbCircle
 10
3.9951432636
 20
0.7456853688
 30
0.0
 40
0.0696152422706639
  0
CIRCLE
  5
74
330
70
100
AcDbEntity
  8
0
  6
Continuous
 62
     7
370
    30
100
AcDbCircle
 10
3.9951432636
 20
0.7456853688
 30
0.0
 40
0.1535916633280245
  0
LINE
  5
75
330
70
100
AcDbEntity
  8
0
  6
CENTERX2
 62
     7
370
     0
100
AcDbLine
 10
4.3360937897
 20
0.7456853688
 30
0.0
 11
4.7028635231
 21
0.7456853688
 31
0.0
  0
LINE
  5
76
330
70
100
AcDbEntity
  8
0
  6
Continuous
 62
     7
370
    30
100
AcDbLine
 10
4.3701432636
 20
0.815300611
 30
0.0
 11
4.3701432636
 21
0.6760701265
 31
0.0
  0
LINE
  5
77
330
70
100
AcDbEntity
  8
0
  6
Continuous
 62
     7
370
    30
100
AcDbLine
 10
4.3701432636
 20
0.6760701265
 30
0.0
 11
4.6701432636
 21
0.5956853688
 31
0.0
  0
LINE
  5
78
330
70
100
AcDbEntity
  8
0
  6
Continuous
 62
     7
370
    30
100
AcDbLine
 10
4.6701432636
 20
0.5956853688
 30
0.0
 11
4.6701432636
 21
0.8956853688
 31
0.0
  0
LINE
  5
79
330
70
100
AcDbEntity
  8
0
  6
Continuous
 62
     7
370
    30
100
AcDbLine
 10
4.6701432636
 20
0.8956853688
 30
0.0
 11
4.3701432636
 21
0.815300611
 31
0.0
  0
LINE
  5
7A
330
70
100
AcDbEntity
  8
0
  6
CENTERX2
 62
     7
370
     0
100
AcDbLine
 10
3.8032513961
 20
0.7456853688
 30
0.0
 11
4.187035131
 21
0.7456853688
 31
0.0
  0
LINE
  5
7B
330
70
100
AcDbEntity
  8
0
  6
CENTERX2
 62
     7
370
     0
100
AcDbLine
 10
3.9951432636
 20
0.9375772362
 30
0.0
 11
3.9951432636
 21
0.5537935013
 31
0.0
  0
POINT
  5
7C
330
70
100
AcDbEntity
  8
0
  6
Continuous
 62
     7
370
     0
100
AcDbPoint
 10
3.9951432636
 20
0.7456853688
 30
0.0
  0
ENDBLK
  5
72
330
70
100
AcDbEntity
  8
0
100
AcDbBlockEnd
  0
BLOCK
  5
AA
330
A9
100
AcDbEntity
  8
0
100
AcDbBlockBegin
  2
SW_NOTE_0
 70
     0
 10
0.0
 20
0.0
 30
0.0
  3
SW_NOTE_0
  1
SW_NOTE_0
  0
MTEXT
  5
AC
330
A9
100
AcDbEntity
  8
0
  6
Continuous
 62
     0
370
     0
100
AcDbMText
 10
0.78375
 20
0.0773440644
 30
0.0
 40
0.06
 41
0.0
 71
     2
 72
     1
  1
VALUES IN PARENTHESIS ARE CALCULATED
  7
SLDTEXTSTYLE0
 73
     1
 44
1.0
  0
MTEXT
  5
AD
330
A9
100
AcDbEntity
  8
0
  6
Continuous
 62
     0
370
     0
100
AcDbMText
 10
0.7825936818
 20
-0.0220260102
 30
0.0
 40
0.06
 41
0.0
 71
     2
 72
     1
  1
AND MAY CONTAIN ROUNDOFF ERRORS
  7
SLDTEXTSTYLE0
 73
     1
 44
1.0
  0
ENDBLK
  5
AB
330
A9
100
AcDbEntity
  8
0
100
AcDbBlockEnd
  0
BLOCK
  5
B0
330
AF
100
AcDbEntity
  8
0
100
AcDbBlockBegin
  2
SW_NOTE_1
 70
     0
 10
0.0
 20
0.0
 30
0.0
  3
SW_NOTE_1
  1
SW_NOTE_1
  0
MTEXT
  5
B2
330
AF
100
AcDbEntity
  8
0
  6
Continuous
 62
     0
370
     0
100
AcDbMText
 10
0.0
 20
0.1074223116
 30
0.0
 40
0.0833333333
 41
0.0
 71
     1
 72
     1
  1
DRAWING
  7
SLDTEXTSTYLE0
 73
     1
 44
1.0
  0
MTEXT
  5
B3
330
AF
100
AcDbEntity
  8
0
  6
Continuous
 62
     0
370
     0
100
AcDbMText
 10
0.0
 20
-0.0036887981
 30
0.0
 40
0.0833333333
 41
0.0
 71
     1
 72
     1
  1
PROJECTION
  7
SLDTEXTSTYLE0
 73
     1
 44
1.0
  0
ENDBLK
  5
B1
330
AF
100
AcDbEntity
  8
0
100
AcDbBlockEnd
  0
BLOCK
  5
B7
330
B6
100
AcDbEntity
  8
0
100
AcDbBlockBegin
  2
SW_NOTE_2
 70
     0
 10
0.0
 20
0.0
 30
0.0
  3
SW_NOTE_2
  1
SW_NOTE_2
  0
MTEXT
  5
B9
330
B6
100
AcDbEntity
  8
0
  6
Continuous
 62
     0
370
     0
100
AcDbMText
 10
0.0823567708
 20
0.1477056785
 30
0.0
 40
0.1145833333
 41
0.0
 71
     2
 72
     1
  1
%%c
  7
SLDTEXTSTYLE0
 73
     1
 44
1.0
  0
MTEXT
  5
BA
330
B6
100
AcDbEntity
  8
0
  6
Continuous
 62
     0
370
     0
100
AcDbMText
 10
1.2471759303
 20
0.1477056785
 30
0.0
 40
0.1145833333
 41
0.0
 71
     2
 72
     1
  1
2" MOUNTED PLANO-CONVEX
  7
SLDTEXTSTYLE0
 73
     1
 44
1.0
  0
MTEXT
  5
BB
330
B6
100
AcDbEntity
  8
0
  6
Continuous
 62
     0
370
     0
100
AcDbMText
 10
1.1879905698
 20
-0.0050720974
 30
0.0
 40
0.1145833333
 41
0.0
 71
     2
 72
     1
  1
LENS, f=150mm
  7
SLDTEXTSTYLE0
 73
     1
 44
1.0
  0
ENDBLK
  5
B8
330
B6
100
AcDbEntity
  8
0
100
AcDbBlockEnd
  0
BLOCK
  5
BF
330
BE
100
AcDbEntity
  8
0
100
AcDbBlockBegin
  2
SW_NOTE_3
 70
     0
 10
0.0
 20
0.0
 30
0.0
  3
SW_NOTE_3
  1
SW_NOTE_3
  0
MTEXT
  5
C1
330
BE
100
AcDbEntity
  8
0
  6
Continuous
 62
     0
370
     0
100
AcDbMText
 10
0.986328125
 20
0.1611334675
 30
0.0
 40
0.125
 41
0.0
 71
     2
 72
     1
  1
FOR INFORMATION ONLY
  7
SLDTEXTSTYLE0
 73
     1
 44
1.0
  0
MTEXT
  5
C2
330
BE
100
AcDbEntity
  8
0
  6
Continuous
 62
     0
370
     0
100
AcDbMText
 10
0.999088459
 20
-0.0055331972
 30
0.0
 40
0.125
 41
0.0
 71
     2
 72
     1
  1
NOT FOR MANUFACTURING PURPOSES
  7
SLDTEXTSTYLE0
 73
     1
 44
1.0
  0
ENDBLK
  5
C0
330
BE
100
AcDbEntity
  8
0
100
AcDbBlockEnd
  0
BLOCK
  5
C5
330
C4
100
AcDbEntity
  8
0
100
AcDbBlockBegin
  2
SW_NOTE_4
 70
     0
 10
0.0
 20
0.0
 30
0.0
  3
SW_NOTE_4
  1
SW_NOTE_4
  0
MTEXT
  5
C7
330
C4
100
AcDbEntity
  8
0
  6
Continuous
 62
     0
370
     0
100
AcDbMText
 10
0.0
 20
0.1074223116
 30
0.0
 40
0.0833333333
 41
0.0
 71
     1
 72
     1
  1
NOTES/SPECIFICATIONS:
  7
SLDTEXTSTYLE0
 73
     1
 44
1.0
  0
MTEXT
  5
C8
330
C4
100
AcDbEntity
  8
0
  6
Continuous
 62
     0
370
     0
100
AcDbMText
 10
0.4183921567
 20
-0.1147999079
 30
0.0
 40
0.0833333333
 41
0.0
 71
     1
 72
     1
  1
DESIGN WAVELENGTH: 546nm
  7
SLDTEXTSTYLE0
 73
     1
 44
1.0
  0
MTEXT
  5
C9
330
C4
100
AcDbEntity
  8
0
  6
Continuous
 62
     0
370
     0
100
AcDbMText
 10
0.0
 20
-0.1147999079
 30
0.0
 40
0.0833333333
 41
0.0
 71
     1
 72
     1
  1
1.
  7
SLDTEXTSTYLE0
 73
     1
 44
1.0
  0
MTEXT
  5
CA
330
C4
100
AcDbEntity
  8
0
  6
Continuous
 62
     0
370
     0
100
AcDbMText
 10
0.4183921567
 20
-0.2259110177
 30
0.0
 40
0.0833333333
 41
0.0
 71
     1
 72
     1
  1
FOCAL LENGTH: f=150.0mm
  7
SLDTEXTSTYLE0
 73
     1
 44
1.0
  0
MTEXT
  5
CB
330
C4
100
AcDbEntity
  8
0
  6
Continuous
 62
     0
370
     0
100
AcDbMText
 10
1.8858304981
 20
-0.2259110177
 30
0.0
 40
0.0833333333
 41
0.0
 71
     1
 72
     1
  1
%%p
  7
SLDTEXTSTYLE0
 73
     1
 44
1.0
  0
MTEXT
  5
CC
330
C4
100
AcDbEntity
  8
0
  6
Continuous
 62
     0
370
     0
100
AcDbMText
 10
1.9652749536
 20
-0.2259110177
 30
0.0
 40
0.0833333333
 41
0.0
 71
     1
 72
     1
  1
1%
  7
SLDTEXTSTYLE0
 73
     1
 44
1.0
  0
MTEXT
  5
CD
330
C4
100
AcDbEntity
  8
0
  6
Continuous
 62
     0
370
     0
100
AcDbMText
 10
0.0
 20
-0.2259110177
 30
0.0
 40
0.0833333333
 41
0.0
 71
     1
 72
     1
  1
2.
  7
SLDTEXTSTYLE0
 73
     1
 44
1.0
  0
MTEXT
  5
CE
330
C4
100
AcDbEntity
  8
0
  6
Continuous
 62
     0
370
     0
100
AcDbMText
 10
0.4183921567
 20
-0.3370221274
 30
0.0
 40
0.0833333333
 41
0.0
 71
     1
 72
     1
  1
WORKING DISTANCE (REF): 140.8mm
  7
SLDTEXTSTYLE0
 73
     1
 44
1.0
  0
MTEXT
  5
CF
330
C4
100
AcDbEntity
  8
0
  6
Continuous
 62
     0
370
     0
100
AcDbMText
 10
0.0
 20
-0.3370221274
 30
0.0
 40
0.0833333333
 41
0.0
 71
     1
 72
     1
  1
3.
  7
SLDTEXTSTYLE0
 73
     1
 44
1.0
  0
MTEXT
  5
D0
330
C4
100
AcDbEntity
  8
0
  6
Continuous
 62
     0
370
     0
100
AcDbMText
 10
0.4183921567
 20
-0.4481332372
 30
0.0
 40
0.0833333333
 41
0.0
 71
     1
 72
     1
  1
CLEAR APERTURE: >
  7
SLDTEXTSTYLE0
 73
     1
 44
1.0
  0
MTEXT
  5
D1
330
C4
100
AcDbEntity
  8
0
  6
Continuous
 62
     0
370
     0
100
AcDbMText
 10
1.4507996036
 20
-0.4481332372
 30
0.0
 40
0.0833333333
 41
0.0
 71
     1
 72
     1
  1
%%c
  7
SLDTEXTSTYLE0
 73
     1
 44
1.0
  0
MTEXT
  5
D2
330
C4
100
AcDbEntity
  8
0
  6
Continuous
 62
     0
370
     0
100
AcDbMText
 10
1.5765865971
 20
-0.4481332372
 30
0.0
 40
0.0833333333
 41
0.0
 71
     1
 72
     1
  1
45.72mm
  7
SLDTEXTSTYLE0
 73
     1
 44
1.0
  0
MTEXT
  5
D3
330
C4
100
AcDbEntity
  8
0
  6
Continuous
 62
     0
370
     0
100
AcDbMText
 10
0.0
 20
-0.4481332372
 30
0.0
 40
0.0833333333
 41
0.0
 71
     1
 72
     1
  1
4.
  7
SLDTEXTSTYLE0
 73
     1
 44
1.0
  0
MTEXT
  5
D4
330
C4
100
AcDbEntity
  8
0
  6
Continuous
 62
     0
370
     0
100
AcDbMText
 10
0.4183921567
 20
-0.559244347
 30
0.0
 40
0.0833333333
 41
0.0
 71
     1
 72
     1
  1
SURFACE QUALITY: 40-20 SCRATCH-DIG
  7
SLDTEXTSTYLE0
 73
     1
 44
1.0
  0
MTEXT
  5
D5
330
C4
100
AcDbEntity
  8
0
  6
Continuous
 62
     0
370
     0
100
AcDbMText
 10
0.0
 20
-0.559244347
 30
0.0
 40
0.0833333333
 41
0.0
 71
     1
 72
     1
  1
5.
  7
SLDTEXTSTYLE0
 73
     1
 44
1.0
  0
ENDBLK
  5
C6
330
C4
100
AcDbEntity
  8
0
100
AcDbBlockEnd
  0
BLOCK
  5
D8
330
D7
100
AcDbEntity
  8
0
100
AcDbBlockBegin
  2
SW_TABLEANNOTATION_0
 70
     0
 10
0.0
 20
0.0
 30
0.0
  3
SW_TABLEANNOTATION_0
  1
SW_TABLEANNOTATION_0
  0
LINE
  5
DA
330
D7
100
AcDbEntity
  8
0
  6
Continuous
 62
     0
370
     0
100
AcDbLine
 10
0.0
 20
0.0
 30
0.0
 11
0.0
 21
-1.2444444391
 31
0.0
  0
LINE
  5
DB
330
D7
100
AcDbEntity
  8
0
  6
Continuous
 62
     0
370
     0
100
AcDbLine
 10
0.0
 20
-1.2444444391
 30
0.0
 11
3.3
 21
-1.2444444391
 31
0.0
  0
LINE
  5
DC
330
D7
100
AcDbEntity
  8
0
  6
Continuous
 62
     0
370
     0
100
AcDbLine
 10
3.3
 20
-1.2444444391
 30
0.0
 11
3.3
 21
0.0
 31
0.0
  0
LINE
  5
DD
330
D7
100
AcDbEntity
  8
0
  6
Continuous
 62
     0
370
     0
100
AcDbLine
 10
3.3
 20
0.0
 30
0.0
 11
0.0
 21
0.0
 31
0.0
  0
LINE
  5
DE
330
D7
100
AcDbEntity
  8
0
  6
Continuous
 62
     0
370
     0
100
AcDbLine
 10
1.1
 20
0.0
 30
0.0
 11
1.1
 21
-1.2444444391
 31
0.0
  0
LINE
  5
DF
330
D7
100
AcDbEntity
  8
0
  6
Continuous
 62
     0
370
     0
100
AcDbLine
 10
2.2
 20
0.0
 30
0.0
 11
2.2
 21
-1.2444444391
 31
0.0
  0
LINE
  5
E0
330
D7
100
AcDbEntity
  8
0
  6
Continuous
 62
     0
370
     0
100
AcDbLine
 10
0.0
 20
-0.3111111098
 30
0.0
 11
3.3
 21
-0.3111111098
 31
0.0
  0
LINE
  5
E1
330
D7
100
AcDbEntity
  8
0
  6
Continuous
 62
     0
370
     0
100
AcDbLine
 10
0.0
 20
-0.6222222195
 30
0.0
 11
3.3
 21
-0.6222222195
 31
0.0
  0
LINE
  5
E2
330
D7
100
AcDbEntity
  8
0
  6
Continuous
 62
     0
370
     0
100
AcDbLine
 10
0.0
 20
-0.9333333293
 30
0.0
 11
3.3
 21
-0.9333333293
 31
0.0
  0
MTEXT
  5
E3
330
D7
100
AcDbEntity
  8
0
  6
Continuous
 62
     0
370
     0
100
AcDbMText
 10
1.1543981952
 20
-0.1141206209
 30
0.0
 40
0.0833333333
 41
0.0
 71
     1
 72
     1
  1
PART DESCRIPTION
  7
SLDTEXTSTYLE0
 73
     1
 44
1.0
  0
MTEXT
  5
E4
330
D7
100
AcDbEntity
  8
0
  6
Continuous
 62
     0
370
     0
100
AcDbMText
 10
2.491203698
 20
-0.1141206209
 30
0.0
 40
0.0833333333
 41
0.0
 71
     1
 72
     1
  1
MATERIAL
  7
SLDTEXTSTYLE0
 73
     1
 44
1.0
  0
INSERT
  5
EA
330
D7
100
AcDbEntity
  8
0
  6
Continuous
 62
     0
370
     0
100
AcDbBlockReference
  2
SW_SYMBOL_C#_1
 10
0.4374537001
 20
-0.5210980527
 30
0.0
 41
0.0027037109
 42
0.0027037109
 43
0.0027037109
  0
MTEXT
  5
EB
330
D7
100
AcDbEntity
  8
0
  6
Continuous
 62
     0
370
     0
100
AcDbMText
 10
1.4729938215
 20
-0.4252317307
 30
0.0
 40
0.0833333333
 41
0.0
 71
     1
 72
     1
  1
SM2RR
  7
SLDTEXTSTYLE0
 73
     1
 44
1.0
  0
MTEXT
  5
EC
330
D7
100
AcDbEntity
  8
0
  6
Continuous
 62
     0
370
     0
100
AcDbMText
 10
2.4676697448
 20
-0.3696761758
 30
0.0
 40
0.0833333333
 41
0.0
 71
     1
 72
     1
  1
ANODIZED
  7
SLDTEXTSTYLE0
 73
     1
 44
1.0
  0
MTEXT
  5
ED
330
D7
100
AcDbEntity
  8
0
  6
Continuous
 62
     0
370
     0
100
AcDbMText
 10
2.4546296155
 20
-0.4807872855
 30
0.0
 40
0.0833333333
 41
0.0
 71
     1
 72
     1
  1
ALUMINUM
  7
SLDTEXTSTYLE0
 73
     1
 44
1.0
  0
INSERT
  5
F3
330
D7
100
AcDbEntity
  8
0
  6
Continuous
 62
     0
370
     0
100
AcDbBlockReference
  2
SW_SYMBOL_C#_2
 10
0.4374537001
 20
-0.8322091625
 30
0.0
 41
0.0027037109
 42
0.0027037109
 43
0.0027037109
  0
MTEXT
  5
F4
330
D7
100
AcDbEntity
  8
0
  6
Continuous
 62
     0
370
     0
100
AcDbMText
 10
1.4600308562
 20
-0.7363428404
 30
0.0
 40
0.0833333333
 41
0.0
 71
     1
 72
     1
  1
LA4904
  7
SLDTEXTSTYLE0
 73
     1
 44
1.0
  0
MTEXT
  5
F5
330
D7
100
AcDbEntity
  8
0
  6
Continuous
 62
     0
370
     0
100
AcDbMText
 10
2.3169753357
 20
-0.7363428404
 30
0.0
 40
0.0833333333
 41
0.0
 71
     1
 72
     1
  1
UV FUSED SILICA
  7
SLDTEXTSTYLE0
 73
     1
 44
1.0
  0
INSERT
  5
FB
330
D7
100
AcDbEntity
  8
0
  6
Continuous
 62
     0
370
     0
100
AcDbBlockReference
  2
SW_SYMBOL_C#_3
 10
0.4374537001
 20
-1.1433202723
 30
0.0
 41
0.0027037109
 42
0.0027037109
 43
0.0027037109
  0
MTEXT
  5
FC
330
D7
100
AcDbEntity
  8
0
  6
Continuous
 62
     0
370
     0
100
AcDbMText
 10
1.3456018548
 20
-0.9918983953
 30
0.0
 40
0.0833333333
 41
0.0
 71
     1
 72
     1
  1
ENGRAVED
  7
SLDTEXTSTYLE0
 73
     1
 44
1.0
  0
MTEXT
  5
FD
330
D7
100
AcDbEntity
  8
0
  6
Continuous
 62
     0
370
     0
100
AcDbMText
 10
1.3975308615
 20
-1.1030095051
 30
0.0
 40
0.0833333333
 41
0.0
 71
     1
 72
     1
  1
HOUSING
  7
SLDTEXTSTYLE0
 73
     1
 44
1.0
  0
MTEXT
  5
FE
330
D7
100
AcDbEntity
  8
0
  6
Continuous
 62
     0
370
     0
100
AcDbMText
 10
2.4676697448
 20
-0.9918983953
 30
0.0
 40
0.0833333333
 41
0.0
 71
     1
 72
     1
  1
ANODIZED
  7
SLDTEXTSTYLE0
 73
     1
 44
1.0
  0
MTEXT
  5
FF
330
D7
100
AcDbEntity
  8
0
  6
Continuous
 62
     0
370
     0
100
AcDbMText
 10
2.4546296155
 20
-1.1030095051
 30
0.0
 40
0.0833333333
 41
0.0
 71
     1
 72
     1
  1
ALUMINUM
  7
SLDTEXTSTYLE0
 73
     1
 44
1.0
  0
ENDBLK
  5
D9
330
D7
100
AcDbEntity
  8
0
100
AcDbBlockEnd
  0
BLOCK
  5
E6
330
E5
100
AcDbEntity
  8
0
100
AcDbBlockBegin
  2
SW_SYMBOL_C#_1
 70
     0
 10
0.0
 20
0.0
 30
0.0
  3
SW_SYMBOL_C#_1
  1
SW_SYMBOL_C#_1
  0
CIRCLE
  5
E8
330
E5
100
AcDbEntity
  8
0
  6
Continuous
 62
     0
370
     0
100
AcDbCircle
 10
31.4960629921
 20
19.6850393701
 30
0.0
 40
31.49606299212599
  0
MTEXT
  5
E9
330
E5
100
AcDbEntity
  8
0
  6
Continuous
 62
     0
370
     0
100
AcDbMText
 10
31.4960629921
 20
19.6850393701
 30
0.0
 40
30.821835344
 41
0.0
 71
     5
 72
     1
  1
1
  7
SLDTEXTSTYLE0
 73
     1
 44
1.0
  0
ENDBLK
  5
E7
330
E5
100
AcDbEntity
  8
0
100
AcDbBlockEnd
  0
BLOCK
  5
EF
330
EE
100
AcDbEntity
  8
0
100
AcDbBlockBegin
  2
SW_SYMBOL_C#_2
 70
     0
 10
0.0
 20
0.0
 30
0.0
  3
SW_SYMBOL_C#_2
  1
SW_SYMBOL_C#_2
  0
CIRCLE
  5
F1
330
EE
100
AcDbEntity
  8
0
  6
Continuous
 62
     0
370
     0
100
AcDbCircle
 10
31.4960629921
 20
19.6850393701
 30
0.0
 40
31.49606299212599
  0
MTEXT
  5
F2
330
EE
100
AcDbEntity
  8
0
  6
Continuous
 62
     0
370
     0
100
AcDbMText
 10
31.4960629921
 20
19.6850393701
 30
0.0
 40
30.821835344
 41
0.0
 71
     5
 72
     1
  1
2
  7
SLDTEXTSTYLE0
 73
     1
 44
1.0
  0
ENDBLK
  5
F0
330
EE
100
AcDbEntity
  8
0
100
AcDbBlockEnd
  0
BLOCK
  5
F7
330
F6
100
AcDbEntity
  8
0
100
AcDbBlockBegin
  2
SW_SYMBOL_C#_3
 70
     0
 10
0.0
 20
0.0
 30
0.0
  3
SW_SYMBOL_C#_3
  1
SW_SYMBOL_C#_3
  0
CIRCLE
  5
F9
330
F6
100
AcDbEntity
  8
0
  6
Continuous
 62
     0
370
     0
100
AcDbCircle
 10
31.4960629921
 20
19.6850393701
 30
0.0
 40
31.49606299212599
  0
MTEXT
  5
FA
330
F6
100
AcDbEntity
  8
0
  6
Continuous
 62
     0
370
     0
100
AcDbMText
 10
31.4960629921
 20
19.6850393701
 30
0.0
 40
30.821835344
 41
0.0
 71
     5
 72
     1
  1
3
  7
SLDTEXTSTYLE0
 73
     1
 44
1.0
  0
ENDBLK
  5
F8
330
F6
100
AcDbEntity
  8
0
100
AcDbBlockEnd
  0
BLOCK
  5
11C
330
11B
100
AcDbEntity
  8
0
100
AcDbBlockBegin
  2
_D
 70
     0
 10
0.0
 20
0.0
 30
0.0
  3
_D
  1
_D
  0
SOLID
  5
11E
330
11B
100
AcDbEntity
  8
0
  6
Continuous
 62
     7
370
     0
100
AcDbTrace
 10
3.8285857889
 20
5.1996632145
 30
0.0
 11
3.908406297
 21
5.2979163899
 31
0.0
 12
3.8737652809
 22
5.3179163899
 32
0.0
 13
3.8737652809
 23
5.3179163899
 33
0.0
  0
LINE
  5
11F
330
11B
100
AcDbEntity
  8
0
  6
Continuous
 62
     7
370
     0
100
AcDbLine
 10
4.2872443399
 20
5.6150927668
 30
0.0
 11
4.2703461919
 21
5.6150927668
 31
0.0
  0
LINE
  5
120
330
11B
100
AcDbEntity
  8
0
  6
Continuous
 62
     7
370
     0
100
AcDbLine
 10
4.2703461919
 20
5.6150927668
 30
0.0
 11
4.2703461919
 21
5.4826853622
 31
0.0
  0
LINE
  5
121
330
11B
100
AcDbEntity
  8
0
  6
Continuous
 62
     7
370
     0
100
AcDbLine
 10
4.2703461919
 20
5.4826853622
 30
0.0
 11
4.2872443399
 21
5.4826853622
 31
0.0
  0
LINE
  5
122
330
11B
100
AcDbEntity
  8
0
  6
Continuous
 62
     7
370
     0
100
AcDbLine
 10
4.7532551596
 20
5.6150927668
 30
0.0
 11
4.7701533077
 21
5.6150927668
 31
0.0
  0
LINE
  5
123
330
11B
100
AcDbEntity
  8
0
  6
Continuous
 62
     7
370
     0
100
AcDbLine
 10
4.7701533077
 20
5.6150927668
 30
0.0
 11
4.7701533077
 21
5.4826853622
 31
0.0
  0
LINE
  5
124
330
11B
100
AcDbEntity
  8
0
  6
Continuous
 62
     7
370
     0
100
AcDbLine
 10
4.7701533077
 20
5.4826853622
 30
0.0
 11
4.7532551596
 21
5.4826853622
 31
0.0
  0
LINE
  5
125
330
11B
100
AcDbEntity
  8
0
  6
Continuous
 62
     7
370
     0
100
AcDbLine
 10
3.8285857889
 20
5.1996632145
 30
0.0
 11
4.1076725806
 21
5.6830557173
 31
0.0
  0
LINE
  5
126
330
11B
100
AcDbEntity
  8
0
  6
Continuous
 62
     7
370
     0
100
AcDbLine
 10
4.1076725806
 20
5.6830557173
 30
0.0
 11
4.2576725806
 21
5.6830557173
 31
0.0
  0
MTEXT
  5
127
330
11B
100
AcDbEntity
  8
0
  6
Continuous
 62
     7
370
     0
100
AcDbMText
 10
4.2576725806
 20
5.7394132253
 30
0.0
 40
0.0833333333
 41
0.0
 71
     1
 72
     1
  1
%%c
  7
SLDTEXTSTYLE0
 73
     1
 44
1.0
  0
MTEXT
  5
128
330
11B
100
AcDbEntity
  8
0
  6
Continuous
 62
     7
370
     0
100
AcDbMText
 10
4.38345962
 20
5.7394132253
 30
0.0
 40
0.0833333333
 41
0.0
 71
     1
 72
     1
  1
2.20in
  7
SLDTEXTSTYLE0
 73
     1
 44
1.0
  0
MTEXT
  5
129
330
11B
100
AcDbEntity
  8
0
  6
Continuous
 62
     7
370
     0
100
AcDbMText
 10
4.3083670258
 20
5.5901076693
 30
0.0
 40
0.0833333333
 41
0.0
 71
     1
 72
     1
  1
55.9mm
  7
SLDTEXTSTYLE0
 73
     1
 44
1.0
  0
ENDBLK
  5
11D
330
11B
100
AcDbEntity
  8
0
100
AcDbBlockEnd
  0
BLOCK
  5
1AD
330
1AC
100
AcDbEntity
  8
0
100
AcDbBlockBegin
  2
_D_1
 70
     0
 10
0.0
 20
0.0
 30
0.0
  3
_D_1
  1
_D_1
  0
SOLID
  5
1AF
330
1AC
100
AcDbEntity
  8
0
  6
Continuous
 62
     7
370
     0
100
AcDbTrace
 10
8.2076681156
 20
5.1970352703
 30
0.0
 11
8.1876681156
 21
5.0720352703
 31
0.0
 12
8.2276681156
 22
5.0720352703
 32
0.0
 13
8.2276681156
 23
5.0720352703
 33
0.0
  0
SOLID
  5
1B0
330
1AC
100
AcDbEntity
  8
0
  6
Continuous
 62
     7
370
     0
100
AcDbTrace
 10
8.2076681156
 20
3.2970352703
 30
0.0
 11
8.2276681156
 21
3.4220352703
 31
0.0
 12
8.1876681156
 22
3.4220352703
 32
0.0
 13
8.1876681156
 23
3.4220352703
 33
0.0
  0
LINE
  5
1B1
330
1AC
100
AcDbEntity
  8
0
  6
Continuous
 62
     7
370
     0
100
AcDbLine
 10
7.9746627149
 20
4.2576834131
 30
0.0
 11
7.9577645668
 21
4.2576834131
 31
0.0
  0
LINE
  5
1B2
330
1AC
100
AcDbEntity
  8
0
  6
Continuous
 62
     7
370
     0
100
AcDbLine
 10
7.9577645668
 20
4.2576834131
 30
0.0
 11
7.9577645668
 21
4.1252760085
 31
0.0
  0
LINE
  5
1B3
330
1AC
100
AcDbEntity
  8
0
  6
Continuous
 62
     7
370
     0
100
AcDbLine
 10
7.9577645668
 20
4.1252760085
 30
0.0
 11
7.9746627149
 21
4.1252760085
 31
0.0
  0
LINE
  5
1B4
330
1AC
100
AcDbEntity
  8
0
  6
Continuous
 62
     7
370
     0
100
AcDbLine
 10
8.4406735346
 20
4.2576834131
 30
0.0
 11
8.4575716826
 21
4.2576834131
 31
0.0
  0
LINE
  5
1B5
330
1AC
100
AcDbEntity
  8
0
  6
Continuous
 62
     7
370
     0
100
AcDbLine
 10
8.4575716826
 20
4.2576834131
 30
0.0
 11
8.4575716826
 21
4.1252760085
 31
0.0
  0
LINE
  5
1B6
330
1AC
100
AcDbEntity
  8
0
  6
Continuous
 62
     7
370
     0
100
AcDbLine
 10
8.4575716826
 20
4.1252760085
 30
0.0
 11
8.4406735346
 21
4.1252760085
 31
0.0
  0
LINE
  5
1B7
330
1AC
100
AcDbEntity
  8
0
  6
Continuous
 62
     7
370
     0
100
AcDbLine
 10
7.5651160685
 20
5.1970352703
 30
0.0
 11
8.2776681156
 21
5.1970352703
 31
0.0
  0
LINE
  5
1B8
330
1AC
100
AcDbEntity
  8
0
  6
Continuous
 62
     7
370
     0
100
AcDbLine
 10
7.5651160685
 20
3.2970352703
 30
0.0
 11
8.2776681156
 21
3.2970352703
 31
0.0
  0
LINE
  5
1B9
330
1AC
100
AcDbEntity
  8
0
  6
Continuous
 62
     7
370
     0
100
AcDbLine
 10
8.2076681156
 20
5.1970352703
 30
0.0
 11
8.2076681156
 21
4.3856926743
 31
0.0
  0
LINE
  5
1BA
330
1AC
100
AcDbEntity
  8
0
  6
Continuous
 62
     7
370
     0
100
AcDbLine
 10
8.2076681156
 20
3.2970352703
 30
0.0
 11
8.2076681156
 21
4.1083778662
 31
0.0
  0
MTEXT
  5
1BB
330
1AC
100
AcDbEntity
  8
0
  6
Continuous
 62
     7
370
     0
100
AcDbMText
 10
7.9920739795
 20
4.3820038716
 30
0.0
 40
0.0833333333
 41
0.0
 71
     1
 72
     1
  1
%%c
  7
SLDTEXTSTYLE0
 73
     1
 44
1.0
  0
MTEXT
  5
1BC
330
1AC
100
AcDbEntity
  8
0
  6
Continuous
 62
     7
370
     0
100
AcDbMText
 10
8.1178610189
 20
4.3820038716
 30
0.0
 40
0.0833333333
 41
0.0
 71
     1
 72
     1
  1
1.90in
  7
SLDTEXTSTYLE0
 73
     1
 44
1.0
  0
MTEXT
  5
1BD
330
1AC
100
AcDbEntity
  8
0
  6
Continuous
 62
     7
370
     0
100
AcDbMText
 10
7.9957854007
 20
4.2326983156
 30
0.0
 40
0.0833333333
 41
0.0
 71
     1
 72
     1
  1
48.3mm
  7
SLDTEXTSTYLE0
 73
     1
 44
1.0
  0
ENDBLK
  5
1AE
330
1AC
100
AcDbEntity
  8
0
100
AcDbBlockEnd
  0
BLOCK
  5
1C1
330
1C0
100
AcDbEntity
  8
0
100
AcDbBlockBegin
  2
_D_2
 70
     0
 10
0.0
 20
0.0
 30
0.0
  3
_D_2
  1
_D_2
  0
SOLID
  5
1C3
330
1C0
100
AcDbEntity
  8
0
  6
Continuous
 62
     7
370
     0
100
AcDbTrace
 10
7.0051160685
 20
5.9769565301
 30
0.0
 11
6.8801160685
 21
5.9969565301
 31
0.0
 12
6.8801160685
 22
5.9569565301
 32
0.0
 13
6.8801160685
 23
5.9569565301
 33
0.0
  0
SOLID
  5
1C4
330
1C0
100
AcDbEntity
  8
0
  6
Continuous
 62
     7
370
     0
100
AcDbTrace
 10
7.5151160685
 20
5.9769565301
 30
0.0
 11
7.6401160685
 21
5.9569565301
 31
0.0
 12
7.6401160685
 22
5.9969565301
 32
0.0
 13
7.6401160685
 23
5.9969565301
 33
0.0
  0
LINE
  5
1C5
330
1C0
100
AcDbEntity
  8
0
  6
Continuous
 62
     7
370
     0
100
AcDbLine
 10
7.9719925392
 20
5.976956521
 30
0.0
 11
7.9550943912
 21
5.976956521
 31
0.0
  0
LINE
  5
1C6
330
1C0
100
AcDbEntity
  8
0
  6
Continuous
 62
     7
370
     0
100
AcDbLine
 10
7.9550943912
 20
5.976956521
 30
0.0
 11
7.9550943912
 21
5.8445491164
 31
0.0
  0
LINE
  5
1C7
330
1C0
100
AcDbEntity
  8
0
  6
Continuous
 62
     7
370
     0
100
AcDbLine
 10
7.9550943912
 20
5.8445491164
 30
0.0
 11
7.9719925392
 21
5.8445491164
 31
0.0
  0
LINE
  5
1C8
330
1C0
100
AcDbEntity
  8
0
  6
Continuous
 62
     7
370
     0
100
AcDbLine
 10
8.4380033589
 20
5.976956521
 30
0.0
 11
8.4549015069
 21
5.976956521
 31
0.0
  0
LINE
  5
1C9
330
1C0
100
AcDbEntity
  8
0
  6
Continuous
 62
     7
370
     0
100
AcDbLine
 10
8.4549015069
 20
5.976956521
 30
0.0
 11
8.4549015069
 21
5.8445491164
 31
0.0
  0
LINE
  5
1CA
330
1C0
100
AcDbEntity
  8
0
  6
Continuous
 62
     7
370
     0
100
AcDbLine
 10
8.4549015069
 20
5.8445491164
 30
0.0
 11
8.4380033589
 21
5.8445491164
 31
0.0
  0
LINE
  5
1CB
330
1C0
100
AcDbEntity
  8
0
  6
Continuous
 62
     7
370
     0
100
AcDbLine
 10
7.0051160685
 20
5.3870352703
 30
0.0
 11
7.0051160685
 21
6.0469565301
 31
0.0
  0
LINE
  5
1CC
330
1C0
100
AcDbEntity
  8
0
  6
Continuous
 62
     7
370
     0
100
AcDbLine
 10
7.5151160685
 20
5.2972147622
 30
0.0
 11
7.5151160685
 21
6.0469565301
 31
0.0
  0
LINE
  5
1CD
330
1C0
100
AcDbEntity
  8
0
  6
Continuous
 62
     7
370
     0
100
AcDbLine
 10
7.0051160685
 20
5.9769565301
 30
0.0
 11
6.7551160685
 21
5.9769565301
 31
0.0
  0
LINE
  5
1CE
330
1C0
100
AcDbEntity
  8
0
  6
Continuous
 62
     7
370
     0
100
AcDbLine
 10
7.5151160685
 20
5.9769565301
 30
0.0
 11
7.8640989618
 21
5.9769565301
 31
0.0
  0
MTEXT
  5
1CF
330
1C0
100
AcDbEntity
  8
0
  6
Continuous
 62
     7
370
     0
100
AcDbMText
 10
7.9435010277
 20
6.1012769795
 30
0.0
 40
0.0833333333
 41
0.0
 71
     1
 72
     1
  1

  7
SLDTEXTSTYLE0
 73
     1
 44
1.0
  0
MTEXT
  5
1D0
330
1C0
100
AcDbEntity
  8
0
  6
Continuous
 62
     7
370
     0
100
AcDbMText
 10
8.0522973189
 20
6.1012769795
 30
0.0
 40
0.0833333333
 41
0.0
 71
     1
 72
     1
  1
0.51in
  7
SLDTEXTSTYLE0
 73
     1
 44
1.0
  0
MTEXT
  5
1D1
330
1C0
100
AcDbEntity
  8
0
  6
Continuous
 62
     7
370
     0
100
AcDbMText
 10
7.9931152251
 20
5.9519714235
 30
0.0
 40
0.0833333333
 41
0.0
 71
     1
 72
     1
  1
13.0mm
  7
SLDTEXTSTYLE0
 73
     1
 44
1.0
  0
MTEXT
  5
1D2
330
1C0
100
AcDbEntity
  8
0
  6
Continuous
 62
     7
370
     0
100
AcDbMText
 10
8.5300751182
 20
6.1012769795
 30
0.0
 40
0.0833333333
 41
0.0
 71
     1
 72
     1
  1

  7
SLDTEXTSTYLE0
 73
     1
 44
1.0
  0
ENDBLK
  5
1C2
330
1C0
100
AcDbEntity
  8
0
100
AcDbBlockEnd
  0
BLOCK
  5
1D5
330
1D4
100
AcDbEntity
  8
0
100
AcDbBlockBegin
  2
_D_3
 70
     0
 10
0.0
 20
0.0
 30
0.0
  3
_D_3
  1
_D_3
  0
SOLID
  5
1D7
330
1D4
100
AcDbEntity
  8
0
  6
Continuous
 62
     7
370
     0
100
AcDbTrace
 10
7.3951160685
 20
5.5106902326
 30
0.0
 11
7.2701160685
 21
5.5306902326
 31
0.0
 12
7.2701160685
 22
5.4906902326
 32
0.0
 13
7.2701160685
 23
5.4906902326
 33
0.0
  0
SOLID
  5
1D8
330
1D4
100
AcDbEntity
  8
0
  6
Continuous
 62
     7
370
     0
100
AcDbTrace
 10
7.5151160685
 20
5.5106902326
 30
0.0
 11
7.6401160685
 21
5.4906902326
 31
0.0
 12
7.6401160685
 22
5.5306902326
 32
0.0
 13
7.6401160685
 23
5.5306902326
 33
0.0
  0
LINE
  5
1D9
330
1D4
100
AcDbEntity
  8
0
  6
Continuous
 62
     7
370
     0
100
AcDbLine
 10
8.0054497642
 20
5.5106902234
 30
0.0
 11
7.9885516162
 21
5.5106902234
 31
0.0
  0
LINE
  5
1DA
330
1D4
100
AcDbEntity
  8
0
  6
Continuous
 62
     7
370
     0
100
AcDbLine
 10
7.9885516162
 20
5.5106902234
 30
0.0
 11
7.9885516162
 21
5.3782828188
 31
0.0
  0
LINE
  5
1DB
330
1D4
100
AcDbEntity
  8
0
  6
Continuous
 62
     7
370
     0
100
AcDbLine
 10
7.9885516162
 20
5.3782828188
 30
0.0
 11
8.0054497642
 21
5.3782828188
 31
0.0
  0
LINE
  5
1DC
330
1D4
100
AcDbEntity
  8
0
  6
Continuous
 62
     7
370
     0
100
AcDbLine
 10
8.4098864852
 20
5.5106902234
 30
0.0
 11
8.4267846333
 21
5.5106902234
 31
0.0
  0
LINE
  5
1DD
330
1D4
100
AcDbEntity
  8
0
  6
Continuous
 62
     7
370
     0
100
AcDbLine
 10
8.4267846333
 20
5.5106902234
 30
0.0
 11
8.4267846333
 21
5.3782828188
 31
0.0
  0
LINE
  5
1DE
330
1D4
100
AcDbEntity
  8
0
  6
Continuous
 62
     7
370
     0
100
AcDbLine
 10
8.4267846333
 20
5.3782828188
 30
0.0
 11
8.4098864852
 21
5.3782828188
 31
0.0
  0
LINE
  5
1DF
330
1D4
100
AcDbEntity
  8
0
  6
Continuous
 62
     7
370
     0
100
AcDbLine
 10
7.3951160685
 20
5.3870352703
 30
0.0
 11
7.3951160685
 21
5.5806902326
 31
0.0
  0
LINE
  5
1E0
330
1D4
100
AcDbEntity
  8
0
  6
Continuous
 62
     7
370
     0
100
AcDbLine
 10
7.5151160685
 20
5.2972147622
 30
0.0
 11
7.5151160685
 21
5.5806902326
 31
0.0
  0
LINE
  5
1E1
330
1D4
100
AcDbEntity
  8
0
  6
Continuous
 62
     7
370
     0
100
AcDbLine
 10
7.3951160685
 20
5.5106902326
 30
0.0
 11
7.1451160685
 21
5.5106902326
 31
0.0
  0
LINE
  5
1E2
330
1D4
100
AcDbEntity
  8
0
  6
Continuous
 62
     7
370
     0
100
AcDbLine
 10
7.5151160685
 20
5.5106902326
 30
0.0
 11
7.8975561869
 21
5.5106902326
 31
0.0
  0
MTEXT
  5
1E3
330
1D4
100
AcDbEntity
  8
0
  6
Continuous
 62
     7
370
     0
100
AcDbMText
 10
7.9769582527
 20
5.6350106819
 30
0.0
 40
0.0833333333
 41
0.0
 71
     1
 72
     1
  1

  7
SLDTEXTSTYLE0
 73
     1
 44
1.0
  0
MTEXT
  5
1E4
330
1D4
100
AcDbEntity
  8
0
  6
Continuous
 62
     7
370
     0
100
AcDbMText
 10
8.0549674946
 20
5.6350106819
 30
0.0
 40
0.0833333333
 41
0.0
 71
     1
 72
     1
  1
0.12in
  7
SLDTEXTSTYLE0
 73
     1
 44
1.0
  0
MTEXT
  5
1E5
330
1D4
100
AcDbEntity
  8
0
  6
Continuous
 62
     7
370
     0
100
AcDbMText
 10
8.0265724501
 20
5.4857051259
 30
0.0
 40
0.0833333333
 41
0.0
 71
     1
 72
     1
  1
3.0mm
  7
SLDTEXTSTYLE0
 73
     1
 44
1.0
  0
MTEXT
  5
1E6
330
1D4
100
AcDbEntity
  8
0
  6
Continuous
 62
     7
370
     0
100
AcDbMText
 10
8.5019582079
 20
5.6350106819
 30
0.0
 40
0.0833333333
 41
0.0
 71
     1
 72
     1
  1

  7
SLDTEXTSTYLE0
 73
     1
 44
1.0
  0
ENDBLK
  5
1D6
330
1D4
100
AcDbEntity
  8
0
100
AcDbBlockEnd
  0
BLOCK
  5
1E8
330
1E7
100
AcDbEntity
  8
0
100
AcDbBlockBegin
  2
SW_NOTE_5
 70
     0
 10
0.0
 20
0.0
 30
0.0
  3
SW_NOTE_5
  1
SW_NOTE_5
  0
CIRCLE
  5
1EA
330
1E7
100
AcDbEntity
  8
0
  6
Continuous
 62
     0
370
     0
100
AcDbCircle
 10
-0.1778468128
 20
0.0
 30
0.0
 40
0.1778468128131543
  0
MTEXT
  5
1EB
330
1E7
100
AcDbEntity
  8
0
  6
Continuous
 62
     0
370
     0
100
AcDbMText
 10
-0.1791054935
 20
0.0644701083
 30
0.0
 40
0.125
 41
0.0
 71
     2
 72
     1
  1
1
  7
SLDTEXTSTYLE0
 73
     1
 44
1.0
  0
ENDBLK
  5
1E9
330
1E7
100
AcDbEntity
  8
0
100
AcDbBlockEnd
  0
BLOCK
  5
1F0
330
1EF
100
AcDbEntity
  8
0
100
AcDbBlockBegin
  2
SW_NOTE_6
 70
     0
 10
0.0
 20
0.0
 30
0.0
  3
SW_NOTE_6
  1
SW_NOTE_6
  0
CIRCLE
  5
1F2
330
1EF
100
AcDbEntity
  8
0
  6
Continuous
 62
     0
370
     0
100
AcDbCircle
 10
-0.1778468128
 20
0.0
 30
0.0
 40
0.1778468128131543
  0
MTEXT
  5
1F3
330
1EF
100
AcDbEntity
  8
0
  6
Continuous
 62
     0
370
     0
100
AcDbMText
 10
-0.1791054935
 20
0.0644701083
 30
0.0
 40
0.125
 41
0.0
 71
     2
 72
     1
  1
3
  7
SLDTEXTSTYLE0
 73
     1
 44
1.0
  0
ENDBLK
  5
1F1
330
1EF
100
AcDbEntity
  8
0
100
AcDbBlockEnd
  0
BLOCK
  5
1F7
330
1F6
100
AcDbEntity
  8
0
100
AcDbBlockBegin
  2
SW_NOTE_7
 70
     0
 10
0.0
 20
0.0
 30
0.0
  3
SW_NOTE_7
  1
SW_NOTE_7
  0
MTEXT
  5
1FA
330
1F6
100
AcDbEntity
  8
0
  6
Continuous
 62
     0
370
     0
100
AcDbMText
 10
0.023133048
 20
0.0393836884
 30
0.0
 40
0.0833333333
 41
0.0
 71
     1
 72
     1
  1
SM2 (
  7
SLDTEXTSTYLE3
 73
     1
 44
1.0
  0
MTEXT
  5
1FB
330
1F6
100
AcDbEntity
  8
0
  6
Continuous
 62
     0
370
     0
100
AcDbMText
 10
0.3447379828
 20
0.0393836884
 30
0.0
 40
0.0833333333
 41
0.0
 71
     1
 72
     1
  1
%%c
  7
SLDTEXTSTYLE0
 73
     1
 44
1.0
  0
MTEXT
  5
1FC
330
1F6
100
AcDbEntity
  8
0
  6
Continuous
 62
     0
370
     0
100
AcDbMText
 10
0.470525013
 20
0.0393836884
 30
0.0
 40
0.0833333333
 41
0.0
 71
     1
 72
     1
  1
2.035-40) SERIES EXTERNAL THREAD
  7
SLDTEXTSTYLE0
 73
     1
 44
1.0
  0
ENDBLK
  5
1F8
330
1F6
100
AcDbEntity
  8
0
100
AcDbBlockEnd
  0
BLOCK
  5
200
330
1FF
100
AcDbEntity
  8
0
100
AcDbBlockBegin
  2
SW_NOTE_8
 70
     0
 10
0.0
 20
0.0
 30
0.0
  3
SW_NOTE_8
  1
SW_NOTE_8
  0
CIRCLE
  5
202
330
1FF
100
AcDbEntity
  8
0
  6
Continuous
 62
     0
370
     0
100
AcDbCircle
 10
0.1778468128
 20
0.0
 30
0.0
 40
0.1778468128131533
  0
MTEXT
  5
203
330
1FF
100
AcDbEntity
  8
0
  6
Continuous
 62
     0
370
     0
100
AcDbMText
 10
0.1765881321
 20
0.0644701083
 30
0.0
 40
0.125
 41
0.0
 71
     2
 72
     1
  1
2
  7
SLDTEXTSTYLE0
 73
     1
 44
1.0
  0
ENDBLK
  5
201
330
1FF
100
AcDbEntity
  8
0
100
AcDbBlockEnd
  0
BLOCK
  5
207
330
206
100
AcDbEntity
  8
0
100
AcDbBlockBegin
  2
SW_NOTE_9
 70
     0
 10
0.0
 20
0.0
 30
0.0
  3
SW_NOTE_9
  1
SW_NOTE_9
  0
MTEXT
  5
209
330
206
100
AcDbEntity
  8
0
  6
Continuous
 62
     0
370
     0
100
AcDbMText
 10
-2.2690563791
 20
0.0393495705
 30
0.0
 40
0.0833333333
 41
0.0
 71
     1
 72
     1
  1
SM2 (
  7
SLDTEXTSTYLE3
 73
     1
 44
1.0
  0
MTEXT
  5
20A
330
206
100
AcDbEntity
  8
0
  6
Continuous
 62
     0
370
     0
100
AcDbMText
 10
-1.9474514443
 20
0.0393495705
 30
0.0
 40
0.0833333333
 41
0.0
 71
     1
 72
     1
  1
%%c
  7
SLDTEXTSTYLE0
 73
     1
 44
1.0
  0
MTEXT
  5
20B
330
206
100
AcDbEntity
  8
0
  6
Continuous
 62
     0
370
     0
100
AcDbMText
 10
-1.8216644141
 20
0.0393495705
 30
0.0
 40
0.0833333333
 41
0.0
 71
     1
 72
     1
  1
2.035-40) SERIES INTERNAL THREAD
  7
SLDTEXTSTYLE0
 73
     1
 44
1.0
  0
ENDBLK
  5
208
330
206
100
AcDbEntity
  8
0
100
AcDbBlockEnd
  0
ENDSEC
  0
SECTION
  2
ENTITIES
  0
LINE
  5
7D
330
1F
100
AcDbEntity
  8
0
  6
Continuous
 62
     7
370
     0
100
AcDbLine
 10
0.0621791378
 20
8.4506055117
 30
0.0
 11
10.9444569626
 21
8.4506055117
 31
0.0
  0
LINE
  5
7E
330
1F
100
AcDbEntity
  8
0
  6
Continuous
 62
     7
370
     0
100
AcDbLine
 10
0.0621791378
 20
8.4506055117
 30
0.0
 11
0.0621791378
 21
0.035557648
 31
0.0
  0
LINE
  5
7F
330
1F
100
AcDbEntity
  8
0
  6
Continuous
 62
     7
370
     0
100
AcDbLine
 10
10.9444569626
 20
0.035557648
 30
0.0
 11
0.0621791378
 21
0.035557648
 31
0.0
  0
LINE
  5
80
330
1F
100
AcDbEntity
  8
0
  6
Continuous
 62
     7
370
     0
100
AcDbLine
 10
10.9444569626
 20
0.035557648
 30
0.0
 11
10.9444569626
 21
8.4506055117
 31
0.0
  0
LINE
  5
81
330
1F
100
AcDbEntity
  8
0
  6
Continuous
 62
     7
370
     0
100
AcDbLine
 10
8.4938096065
 20
0.4840901186
 30
0.0
 11
6.7571952625
 21
0.4840901186
 31
0.0
  0
LINE
  5
82
330
1F
100
AcDbEntity
  8
0
  6
Continuous
 62
     7
370
     0
100
AcDbLine
 10
6.7571952625
 20
0.4840901186
 30
0.0
 11
6.7571952625
 21
1.030163002
 31
0.0
  0
LINE
  5
83
330
1F
100
AcDbEntity
  8
0
  6
Continuous
 62
     7
370
     0
100
AcDbLine
 10
6.7571952625
 20
0.035557648
 30
0.0
 11
6.7571952625
 21
1.030163002
 31
0.0
  0
LINE
  5
84
330
1F
100
AcDbEntity
  8
0
  6
Continuous
 62
     7
370
     0
100
AcDbLine
 10
8.4938096065
 20
0.6756085809
 30
0.0
 11
10.9444569626
 21
0.6756085809
 31
0.0
  0
LINE
  5
85
330
1F
100
AcDbEntity
  8
0
  6
Continuous
 62
     7
370
     0
100
AcDbLine
 10
8.4938096065
 20
1.3873799542
 30
0.0
 11
8.4938096065
 21
0.035557648
 31
0.0
  0
LINE
  5
86
330
1F
100
AcDbEntity
  8
0
  6
Continuous
 62
     7
370
     0
100
AcDbLine
 10
8.4938096065
 20
1.030163002
 30
0.0
 11
6.7571952625
 21
1.030163002
 31
0.0
  0
LINE
  5
87
330
1F
100
AcDbEntity
  8
0
  6
Continuous
 62
     7
370
     0
100
AcDbLine
 10
8.4938096065
 20
0.3598787426
 30
0.0
 11
10.9444569626
 21
0.3598787426
 31
0.0
  0
LINE
  5
88
330
1F
100
AcDbEntity
  8
0
  6
Continuous
 62
     7
370
     0
100
AcDbLine
 10
8.4938096065
 20
0.6662079686
 30
0.0
 11
6.7571952625
 21
0.6662079686
 31
0.0
  0
LINE
  5
89
330
1F
100
AcDbEntity
  8
0
  6
Continuous
 62
     7
370
     0
100
AcDbLine
 10
8.4938096065
 20
0.8459606517
 30
0.0
 11
6.7571952625
 21
0.8459606517
 31
0.0
  0
LINE
  5
8A
330
1F
100
AcDbEntity
  8
0
  6
Continuous
 62
     7
370
     0
100
AcDbLine
 10
7.3281027587
 20
1.030163002
 30
0.0
 11
7.3281027587
 21
0.4840901186
 31
0.0
  0
LINE
  5
8B
330
1F
100
AcDbEntity
  8
0
  6
Continuous
 62
     7
370
     0
100
AcDbLine
 10
7.8037240401
 20
1.030163002
 30
0.0
 11
7.8037240401
 21
0.4840901186
 31
0.0
  0
LINE
  5
8C
330
1F
100
AcDbEntity
  8
0
  6
Continuous
 62
     7
370
     0
100
AcDbLine
 10
9.990119718
 20
0.3598787426
 30
0.0
 11
9.990119718
 21
0.035557648
 31
0.0
  0
LINE
  5
8D
330
1F
100
AcDbEntity
  8
0
  6
Continuous
 62
     7
370
     0
100
AcDbLine
 10
6.7571952625
 20
0.4840901186
 30
0.0
 11
6.7571952625
 21
0.297745443
 31
0.0
  0
LINE
  5
8E
330
1F
100
AcDbEntity
  8
0
  6
Continuous
 62
     7
370
     0
100
AcDbLine
 10
6.7571952625
 20
0.297745443
 30
0.0
 11
8.4938096065
 21
0.297745443
 31
0.0
  0
LINE
  5
8F
330
1F
100
AcDbEntity
  8
0
  6
Continuous
 62
     7
370
     0
100
AcDbLine
 10
6.7571952625
 20
0.297745443
 30
0.0
 11
6.7571952625
 21
1.3873799542
 31
0.0
  0
LINE
  5
90
330
1F
100
AcDbEntity
  8
0
  6
Continuous
 62
     7
370
     0
100
AcDbLine
 10
6.7571952625
 20
1.3873799542
 30
0.0
 11
8.4938096065
 21
1.3873799542
 31
0.0
  0
LINE
  5
91
330
1F
100
AcDbEntity
  8
0
  6
Continuous
 62
     7
370
     0
100
AcDbLine
 10
10.6365495992
 20
0.6756085809
 30
0.0
 11
10.6365495992
 21
0.3598787426
 31
0.0
  0
LINE
  5
92
330
1F
100
AcDbEntity
  8
0
  6
Continuous
 62
     7
370
     0
100
AcDbLine
 10
8.4938096065
 20
1.3873799542
 30
0.0
 11
10.9444569626
 21
1.3873799542
 31
0.0
  0
LINE
  5
93
330
1F
100
AcDbEntity
  8
0
  6
Continuous
 62
     7
370
     0
100
AcDbLine
 10
10.9444569626
 20
1.3873799542
 30
0.0
 11
10.9444569626
 21
1.9698084888
 31
0.0
  0
LINE
  5
94
330
1F
100
AcDbEntity
  8
0
  6
Continuous
 62
     7
370
     0
100
AcDbLine
 10
8.4938096065
 20
0.9800288797
 30
0.0
 11
10.9444569626
 21
0.9800288797
 31
0.0
  0
INSERT
  5
95
330
1F
100
AcDbEntity
  8
0
  6
Continuous
 62
     7
100
AcDbBlockReference
  2
Third Angle Projection Block
 10
4.6348905679
 20
0.6108753523
 30
0.0
 41
0.8
 42
0.8
 43
0.8
  0
MTEXT
  5
97
330
1F
100
AcDbEntity
  8
0
  6
Continuous
 62
     7
370
     0
100
AcDbMText
 10
10.7943805235
 20
0.5227176726
 30
0.0
 40
0.125
 41
0.0
 71
     2
 72
     1
  1
B
  7
SLDTEXTSTYLE0
 73
     1
 44
1.0
  0
MTEXT
  5
98
330
1F
100
AcDbEntity
  8
0
  6
Continuous
 62
     7
370
     0
100
AcDbMText
 10
9.2283306884
 20
0.2019943461
 30
0.0
 40
0.125
 41
0.0
 71
     2
 72
     1
  1
LA4904-ML
  7
SLDTEXTSTYLE0
 73
     1
 44
1.0
  0
MTEXT
  5
99
330
1F
100
AcDbEntity
  8
0
  6
Continuous
 62
     7
370
     0
100
AcDbMText
 10
8.5204715199
 20
0.6623747189
 30
0.0
 40
0.0833333333
 41
0.0
 71
     1
 72
     1
  1
MATERIAL
  7
SLDTEXTSTYLE0
 73
     1
 44
1.0
  0
MTEXT
  5
9A
330
1F
100
AcDbEntity
  8
0
  6
Continuous
 62
     7
370
     0
100
AcDbMText
 10
6.8594860853
 20
0.7895493672
 30
0.0
 40
0.0729166667
 41
0.0
 71
     1
 72
     1
  1
DRAWN
  7
SLDTEXTSTYLE0
 73
     1
 44
1.0
  0
MTEXT
  5
9B
330
1F
100
AcDbEntity
  8
0
  6
Continuous
 62
     7
370
     0
100
AcDbMText
 10
6.7872445848
 20
0.613335314
 30
0.0
 40
0.0729166667
 41
0.0
 71
     1
 72
     1
  1
APPROVAL
  7
SLDTEXTSTYLE0
 73
     1
 44
1.0
  0
MTEXT
  5
9C
330
1F
100
AcDbEntity
  8
0
  6
Continuous
 62
     7
370
     0
100
AcDbMText
 10
10.6936137314
 20
0.6373332609
 30
0.0
 40
0.0833333333
 41
0.0
 71
     1
 72
     1
  1
REV
  7
SLDTEXTSTYLE0
 73
     1
 44
1.0
  0
MTEXT
  5
9D
330
1F
100
AcDbEntity
  8
0
  6
Continuous
 62
     7
370
     0
100
AcDbMText
 10
7.4919633718
 20
0.7999100272
 30
0.0
 40
0.0833333333
 41
0.0
 71
     1
 72
     1
  1
GG
  7
SLDTEXTSTYLE0
 73
     1
 44
1.0
  0
MTEXT
  5
9E
330
1F
100
AcDbEntity
  8
0
  6
Continuous
 62
     7
370
     0
100
AcDbMText
 10
7.4919633718
 20
0.623695974
 30
0.0
 40
0.0833333333
 41
0.0
 71
     1
 72
     1
  1
DD
  7
SLDTEXTSTYLE0
 73
     1
 44
1.0
  0
MTEXT
  5
9F
330
1F
100
AcDbEntity
  8
0
  6
Continuous
 62
     7
370
     0
100
AcDbMText
 10
7.8687497515
 20
0.7999100272
 30
0.0
 40
0.0833333333
 41
0.0
 71
     1
 72
     1
  1
08/FEB/16
  7
SLDTEXTSTYLE0
 73
     1
 44
1.0
  0
MTEXT
  5
A0
330
1F
100
AcDbEntity
  8
0
  6
Continuous
 62
     7
370
     0
100
AcDbMText
 10
8.0163191884
 20
0.9772495896
 30
0.0
 40
0.0833333333
 41
0.0
 71
     1
 72
     1
  1
DATE
  7
SLDTEXTSTYLE0
 73
     1
 44
1.0
  0
MTEXT
  5
A1
330
1F
100
AcDbEntity
  8
0
  6
Continuous
 62
     7
370
     0
100
AcDbMText
 10
7.8687497515
 20
0.623695974
 30
0.0
 40
0.0833333333
 41
0.0
 71
     1
 72
     1
  1
08/FEB/16
  7
SLDTEXTSTYLE0
 73
     1
 44
1.0
  0
MTEXT
  5
A3
330
1F
100
AcDbEntity
  8
0
  6
Continuous
 62
     7
370
     0
100
AcDbMText
 10
9.0316104912
 20
1.0943207896
 30
0.0
 40
0.0833333333
 41
0.0
 71
     1
 72
     1
  1
w w w . t h o r  l a b s . c o m
  7
SLDTEXTSTYLE1
 73
     1
 44
1.0
  0
MTEXT
  5
A4
330
1F
100
AcDbEntity
  8
0
  6
Continuous
 62
     7
370
     0
100
AcDbMText
 10
8.5315119501
 20
0.328719653
 30
0.0
 40
0.0833333333
 41
0.0
 71
     1
 72
     1
  1
ITEM #
  7
SLDTEXTSTYLE0
 73
     1
 44
1.0
  0
MTEXT
  5
A5
330
1F
100
AcDbEntity
  8
0
  6
Continuous
 62
     7
370
     0
100
AcDbMText
 10
10.0209370115
 20
0.328719653
 30
0.0
 40
0.0833333333
 41
0.0
 71
     1
 72
     1
  1
APPROX WEIGHT
  7
SLDTEXTSTYLE0
 73
     1
 44
1.0
  0
MTEXT
  5
A6
330
1F
100
AcDbEntity
  8
0
  6
Continuous
 62
     7
370
     0
100
AcDbMText
 10
9.5949135982
 20
0.5414715262
 30
0.0
 40
0.125
 41
0.0
 71
     2
 72
     1
  1
SEE TABLE
  7
SLDTEXTSTYLE0
 73
     1
 44
1.0
  0
MTEXT
  5
A8
330
1F
100
AcDbEntity
  8
0
  6
Continuous
 62
     7
370
     0
100
AcDbMText
 10
10.4826226539
 20
0.2019943461
 30
0.0
 40
0.125
 41
0.0
 71
     2
 72
     1
  1
38 g
  7
SLDTEXTSTYLE2
 73
     1
 44
1.0
  0
INSERT
  5
AE
330
1F
100
AcDbEntity
  8
0
  6
Continuous
 62
     7
370
     0
100
AcDbBlockReference
  2
SW_NOTE_0
 10
6.8835832285
 20
0.1754273811
 30
0.0
  0
INSERT
  5
B4
330
1F
100
AcDbEntity
  8
0
  6
Continuous
 62
     7
370
     0
100
AcDbBlockReference
  2
SW_NOTE_1
 10
6.8719828753
 20
1.2001390658
 30
0.0
  0
MTEXT
  5
B5
330
1F
100
AcDbEntity
  8
0
  6
Continuous
 62
     7
370
     0
100
AcDbMText
 10
7.3987149145
 20
0.9772495896
 30
0.0
 40
0.0833333333
 41
0.0
 71
     1
 72
     1
  1
NAME
  7
SLDTEXTSTYLE0
 73
     1
 44
1.0
  0
INSERT
  5
BC
330
1F
100
AcDbEntity
  8
0
  6
Continuous
 62
     7
370
     0
100
AcDbBlockReference
  2
SW_NOTE_2
 10
8.5544172856
 20
0.8160048101
 30
0.0
  0
MTEXT
  5
BD
330
1F
100
AcDbEntity
  8
0
  6
Continuous
 62
     7
370
     0
100
AcDbMText
 10
7.0281258754
 20
0.4200025137
 30
0.0
 40
0.0625
 41
0.0
 71
     1
 72
     1
  1
COPYRIGHT © 2016 BY THORLABS
  7
SLDTEXTSTYLE0
 73
     1
 44
1.0
  0
INSERT
  5
C3
330
1F
100
AcDbEntity
  8
0
  6
Continuous
 62
     7
370
     0
100
AcDbBlockReference
  2
SW_NOTE_3
 10
2.1096529316
 20
0.3219551564
 30
0.0
  0
INSERT
  5
D6
330
1F
100
AcDbEntity
  8
0
  6
Continuous
 62
     7
370
     0
100
AcDbBlockReference
  2
SW_NOTE_4
 10
0.2229009106
 20
1.7636814979
 30
0.0
  0
INSERT
  5
100
330
1F
100
AcDbEntity
  8
0
  6
Continuous
 62
     7
370
     0
100
AcDbBlockReference
  2
SW_TABLEANNOTATION_0
 10
0.0612779343
 20
8.4504327236
 30
0.0
  0
ARC
  5
101
330
1F
100
AcDbEntity
  8
0
  6
Continuous
 62
     7
370
     0
100
AcDbCircle
 10
3.2785857889
 20
4.2470352703
 30
0.0
 40
1.000179491924313
100
AcDbArc
 50
180.8593146732
 51
359.1406853268
  0
LINE
  5
102
330
1F
100
AcDbEntity
  8
0
  6
Continuous
 62
     7
370
     0
100
AcDbLine
 10
2.2785187751
 20
4.2320352707
 30
0.0
 11
2.3187029976
 21
4.2320352707
 31
0.0
  0
ARC
  5
103
330
1F
100
AcDbEntity
  8
0
  6
Continuous
 62
     7
370
     0
100
AcDbCircle
 10
3.2785857889
 20
4.2470352703
 30
0.0
 40
0.9600000000000013
100
AcDbArc
 50
180.8952829866
 51
359.1047170134
  0
LINE
  5
104
330
1F
100
AcDbEntity
  8
0
  6
Continuous
 62
     7
370
     0
100
AcDbLine
 10
4.2384685803
 20
4.2320352707
 30
0.0
 11
4.2786528027
 21
4.2320352707
 31
0.0
  0
LINE
  5
105
330
1F
100
AcDbEntity
  8
0
  6
Continuous
 62
     7
370
     0
100
AcDbLine
 10
4.2786528027
 20
4.2320352707
 30
0.0
 11
4.2959751826
 21
4.2320352707
 31
0.0
  0
LINE
  5
106
330
1F
100
AcDbEntity
  8
0
  6
Continuous
 62
     7
370
     0
100
AcDbLine
 10
2.2611963952
 20
4.2320352707
 30
0.0
 11
2.2785187751
 21
4.2320352707
 31
0.0
  0
ARC
  5
107
330
1F
100
AcDbEntity
  8
0
  6
Continuous
 62
     7
370
     0
100
AcDbCircle
 10
3.2785857889
 20
4.2470352703
 30
0.0
 40
0.9500000000000006
100
AcDbArc
 50
180.9047077972
 51
359.0952922028
  0
LINE
  5
108
330
1F
100
AcDbEntity
  8
0
  6
Continuous
 62
     7
370
     0
100
AcDbLine
 10
4.2284673492
 20
4.2320352707
 30
0.0
 11
4.2384685803
 21
4.2320352707
 31
0.0
  0
LINE
  5
109
330
1F
100
AcDbEntity
  8
0
  6
Continuous
 62
     7
370
     0
100
AcDbLine
 10
2.3187029976
 20
4.2320352707
 30
0.0
 11
2.3287042287
 21
4.2320352707
 31
0.0
  0
ARC
  5
10A
330
1F
100
AcDbEntity
  8
0
  6
Continuous
 62
     7
370
     0
100
AcDbCircle
 10
3.2785857889
 20
4.2470352703
 30
0.0
 40
1.000179491924313
100
AcDbArc
 50
0.8593146732
 51
179.1406853268
  0
LINE
  5
10B
330
1F
100
AcDbEntity
  8
0
  6
Continuous
 62
     7
370
     0
100
AcDbLine
 10
4.2786528027
 20
4.2620352699
 30
0.0
 11
4.2384685803
 21
4.2620352699
 31
0.0
  0
ARC
  5
10C
330
1F
100
AcDbEntity
  8
0
  6
Continuous
 62
     7
370
     0
100
AcDbCircle
 10
3.2785857889
 20
4.2470352703
 30
0.0
 40
0.9600000000000013
100
AcDbArc
 50
0.8952829866
 51
179.1047170134
  0
LINE
  5
10D
330
1F
100
AcDbEntity
  8
0
  6
Continuous
 62
     7
370
     0
100
AcDbLine
 10
2.3187029976
 20
4.2620352699
 30
0.0
 11
2.2785187751
 21
4.2620352699
 31
0.0
  0
ARC
  5
10E
330
1F
100
AcDbEntity
  8
0
  6
Continuous
 62
     7
370
     0
100
AcDbCircle
 10
3.2785857889
 20
4.2470352703
 30
0.0
 40
0.9500000000000006
100
AcDbArc
 50
0.9047077972
 51
179.0952922028
  0
LINE
  5
10F
330
1F
100
AcDbEntity
  8
0
  6
Continuous
 62
     7
370
     0
100
AcDbLine
 10
2.3287042287
 20
4.2620352699
 30
0.0
 11
2.3187029976
 21
4.2620352699
 31
0.0
  0
LINE
  5
110
330
1F
100
AcDbEntity
  8
0
  6
Continuous
 62
     7
370
     0
100
AcDbLine
 10
4.2384685803
 20
4.2620352699
 30
0.0
 11
4.2284673492
 21
4.2620352699
 31
0.0
  0
LINE
  5
111
330
1F
100
AcDbEntity
  8
0
  6
Continuous
 62
     7
370
     0
100
AcDbLine
 10
2.2785187751
 20
4.2620352699
 30
0.0
 11
2.2611963952
 21
4.2620352699
 31
0.0
  0
LINE
  5
112
330
1F
100
AcDbEntity
  8
0
  6
Continuous
 62
     7
370
     0
100
AcDbLine
 10
4.2959751826
 20
4.2620352699
 30
0.0
 11
4.2786528027
 21
4.2620352699
 31
0.0
  0
ARC
  5
113
330
1F
100
AcDbEntity
  8
0
  6
Continuous
 62
     7
370
     0
100
AcDbCircle
 10
3.2785857889
 20
4.2470352703
 30
0.0
 40
0.9499999999999997
100
AcDbArc
 50
359.0952922028
 51
0.9047077972
  0
ARC
  5
114
330
1F
100
AcDbEntity
  8
0
  6
Continuous
 62
     7
370
     0
100
AcDbCircle
 10
3.2785857889
 20
4.2470352703
 30
0.0
 40
0.9500000000000006
100
AcDbArc
 50
179.0952922028
 51
180.9047077972
  0
CIRCLE
  5
115
330
1F
100
AcDbEntity
  8
0
  6
Continuous
 62
     7
370
     0
100
AcDbCircle
 10
3.2785857889
 20
4.2470352703
 30
0.0
 40
1.1
  0
CIRCLE
  5
116
330
1F
100
AcDbEntity
  8
0
  6
Continuous
 62
     7
370
     0
100
AcDbCircle
 10
3.2785857889
 20
4.2470352703
 30
0.0
 40
1.090000000000001
  0
CIRCLE
  5
117
330
1F
100
AcDbEntity
  8
0
  6
Continuous
 62
     7
370
     0
100
AcDbCircle
 10
3.2785857889
 20
4.2470352703
 30
0.0
 40
1.034820508075689
  0
CIRCLE
  5
118
330
1F
100
AcDbEntity
  8
0
  6
Continuous
 62
     7
370
     0
100
AcDbCircle
 10
3.2785857889
 20
4.2470352703
 30
0.0
 40
1.0175
  0
DIMENSION
  5
119
330
1F
100
AcDbEntity
  8
0
  6
Continuous
 62
     7
370
     0
100
AcDbDimension
  2
_D
 10
2.7285857889
 20
3.2944073261
 30
0.0
 11
4.5202497406
 21
5.6769214595
 31
0.0
 70
   163
  1
<>
 71
     1
 42
-1.0
  3
SLDDIMSTYLE0
100
AcDbDiametricDimension
 15
3.8285857889
 25
5.1996632145
 35
0.0
 40
0.0
  0
LINE
  5
12A
330
1F
100
AcDbEntity
  8
0
  6
PHANTOM
 62
     7
370
    30
100
AcDbLine
 10
3.2785857889
 20
5.6110352703
 30
0.0
 11
3.2785857889
 21
2.8830352703
 31
0.0
  0
LINE
  5
12B
330
1F
100
AcDbEntity
  8
0
  6
Continuous
 62
     7
370
    30
100
AcDbLine
 10
3.2785857889
 20
5.6110352703
 30
0.0
 11
2.9285857889
 21
5.6110352703
 31
0.0
  0
SOLID
  5
12C
330
1F
100
AcDbEntity
  8
0
  6
Continuous
 62
     7
370
    30
100
AcDbTrace
 10
2.9285857889
 20
5.6110352703
 30
0.0
 11
3.0785857889
 21
5.5860352703
 31
0.0
 12
3.0785857889
 22
5.6360352703
 32
0.0
 13
3.0785857889
 23
5.6360352703
 33
0.0
  0
LINE
  5
12D
330
1F
100
AcDbEntity
  8
0
  6
Continuous
 62
     7
370
    30
100
AcDbLine
 10
3.2785857889
 20
2.8830352703
 30
0.0
 11
2.9285857889
 21
2.8830352703
 31
0.0
  0
SOLID
  5
12E
330
1F
100
AcDbEntity
  8
0
  6
Continuous
 62
     7
370
    30
100
AcDbTrace
 10
2.9285857889
 20
2.8830352703
 30
0.0
 11
3.0785857889
 21
2.8580352703
 31
0.0
 12
3.0785857889
 22
2.9080352703
 32
0.0
 13
3.0785857889
 23
2.9080352703
 33
0.0
  0
MTEXT
  5
12F
330
1F
100
AcDbEntity
  8
0
  6
Continuous
 62
     7
100
AcDbMText
 10
2.7945206288
 20
5.6937494674
 30
0.0
 40
0.1041666667
 41
0.0
 71
     1
 72
     1
  1
A
  7
SLDTEXTSTYLE0
 73
     1
 44
1.0
  0
MTEXT
  5
130
330
1F
100
AcDbEntity
  8
0
  6
Continuous
 62
     7
100
AcDbMText
 10
2.7945206288
 20
2.9657494674
 30
0.0
 40
0.1041666667
 41
0.0
 71
     1
 72
     1
  1
A
  7
SLDTEXTSTYLE0
 73
     1
 44
1.0
  0
LINE
  5
131
330
1F
100
AcDbEntity
  8
0
  6
Continuous
 62
     7
370
     0
100
AcDbLine
 10
8.9271639032
 20
7.6677283091
 30
0.0
 11
8.9271639032
 21
7.659564228
 31
0.0
  0
LINE
  5
132
330
1F
100
AcDbEntity
  8
0
  6
Continuous
 62
     7
370
     0
100
AcDbLine
 10
9.6977850268
 20
6.3246646495
 30
0.0
 11
9.7048549453
 21
6.3205819455
 31
0.0
  0
LINE
  5
133
330
1F
100
AcDbEntity
  8
0
  6
Continuous
 62
     7
370
     0
100
AcDbLine
 10
9.4166555686
 20
8.3223930969
 30
0.0
 11
9.1550260596
 21
8.1713575962
 31
0.0
  0
LINE
  5
134
330
1F
100
AcDbEntity
  8
0
  6
Continuous
 62
     7
370
     0
100
AcDbLine
 10
10.2549366655
 20
6.266050099
 30
0.0
 11
10.5165661745
 21
6.4170855997
 31
0.0
  0
LINE
  5
135
330
1F
100
AcDbEntity
  8
0
  6
Continuous
 62
     7
370
     0
100
AcDbLine
 10
10.7444283309
 20
6.9207148868
 30
0.0
 11
10.7444283309
 21
6.9288789679
 31
0.0
  0
LINE
  5
136
330
1F
100
AcDbEntity
  8
0
  6
Continuous
 62
     7
370
     0
100
AcDbLine
 10
9.9738072074
 20
8.2637785464
 30
0.0
 11
9.9667372888
 21
8.2678612504
 31
0.0
  0
LWPOLYLINE
  5
137
330
1F
100
AcDbEntity
  8
0
  6
Continuous
 62
     7
370
     0
100
AcDbPolyline
 90
       21
 70
   128
 43
0.0
 10
9.2990054895
 20
8.1389987017
 10
9.2829953078
 20
8.1298823635
 10
9.2637034636
 20
8.1172496555
 10
9.2452478927
 20
8.1032646233
 10
9.2276579615
 20
8.0879495196
 10
9.2109616585
 20
8.0713287137
 10
9.1951855509
 20
8.0534286523
 10
9.180354741
 20
8.0342778175
 10
9.1664928276
 20
8.0139066819
 10
9.1536218675
 20
7.9923476596
 10
9.1417623405
 20
7.969635055
 10
9.1309331175
 20
7.945805008
 10
9.1211514298
 20
7.9208954365
 10
9.1124328416
 20
7.8949459761
 10
9.104791226
 20
7.8679979172
 10
9.098238742
 20
7.8400941391
 10
9.092785816
 20
7.8112790417
 10
9.0884411244
 20
7.7815984751
 10
9.0852115806
 20
7.7510996665
 10
9.0831023232
 20
7.719831145
 10
9.0821167085
 20
7.6878426646
  0
LINE
  5
138
330
1F
100
AcDbEntity
  8
0
  6
Continuous
 62
     7
370
     0
100
AcDbLine
 10
9.0821167085
 20
7.6878426646
 30
0.0
 11
9.0769389735
 21
7.6989957885
 31
0.0
  0
LWPOLYLINE
  5
139
330
1F
100
AcDbEntity
  8
0
  6
Continuous
 62
     7
370
     0
100
AcDbPolyline
 90
       19
 70
   128
 43
0.0
 10
9.0769389735
 20
7.6989957885
 10
9.0779345904
 20
7.731548031
 10
9.0800736994
 20
7.7633679258
 10
9.0833528956
 20
7.7944048251
 10
9.0877669594
 20
7.8246093273
 10
9.0933088651
 20
7.8539333558
 10
9.0999697915
 20
7.8823302354
 10
9.1077391364
 20
7.9097547667
 10
9.1166045333
 20
7.9361632979
 10
9.1265518712
 20
7.9615137944
 10
9.1375653167
 20
7.9857659058
 10
9.1496273398
 20
8.0088810299
 10
9.1627187412
 20
8.0308223742
 10
9.1768186834
 20
8.0515550146
 10
9.1919047234
 20
8.0710459509
 10
9.2079528487
 20
8.0892641592
 10
9.2249375154
 20
8.1061806416
 10
9.2428316889
 20
8.121768472
 10
9.2440074432
 20
8.1227204394
  0
LWPOLYLINE
  5
13A
330
1F
100
AcDbEntity
  8
0
  6
Continuous
 62
     7
370
     0
100
AcDbPolyline
 90
        3
 70
   128
 43
0.0
 10
9.0875021095
 20
7.6847337388
 10
9.0875113694
 20
7.6837042541
 10
9.0875455752
 20
7.680622625
  0
LINE
  5
13B
330
1F
100
AcDbEntity
  8
0
  6
Continuous
 62
     7
370
     0
100
AcDbLine
 10
9.0769389735
 20
7.6744995642
 30
0.0
 11
9.0875455752
 21
7.680622625
 31
0.0
  0
LWPOLYLINE
  5
13C
330
1F
100
AcDbEntity
  8
0
  6
Continuous
 62
     7
370
     0
100
AcDbPolyline
 90
       58
 70
   128
 43
0.0
 10
10.2573158571
 20
6.3674285933
 10
10.2477836619
 20
6.3639047844
 10
10.2250779461
 20
6.3567333117
 10
10.2016898094
 20
6.3510177899
 10
10.1776564788
 20
6.3467673162
 10
10.1530162082
 20
6.3439886563
 10
10.1278082176
 20
6.3426862329
 10
10.1020726308
 20
6.342862119
 10
10.0758504111
 20
6.3445160347
 10
10.0491832966
 20
6.3476453475
 10
10.0221137334
 20
6.3522450765
 10
9.9946848083
 20
6.3583079001
 10
9.96694018
 20
6.3658241683
 10
9.9389240097
 20
6.3747819173
 10
9.910680891
 20
6.385166889
 10
9.8822557785
 20
6.3969625537
 10
9.8536939165
 20
6.4101501361
 10
9.8250407672
 20
6.4247086454
 10
9.7963419378
 20
6.4406149089
 10
9.7676431084
 20
6.4578436085
 10
9.738989959
 20
6.4763673212
 10
9.710428097
 20
6.4961565628
 10
9.6820029845
 20
6.5171798345
 10
9.6537598658
 20
6.5394036735
 10
9.6257436955
 20
6.5627927062
 10
9.5979990672
 20
6.587309704
 10
9.5705701421
 20
6.6129156432
 10
9.5435005789
 20
6.6395697667
 10
9.5168334644
 20
6.6672296489
 10
9.4906112447
 20
6.6958512636
 10
9.4648756579
 20
6.7253890535
 10
9.4396676673
 20
6.7557960034
 10
9.4150273967
 20
6.7870237142
 10
9.3909940661
 20
6.8190224808
 10
9.3676059294
 20
6.8517413705
 10
9.3449002136
 20
6.8851283045
 10
9.3229130595
 20
6.9191301408
 10
9.3016794642
 20
6.9536927584
 10
9.2812332253
 20
6.9887611439
 10
9.2616068871
 20
7.0242794788
 10
9.2428316889
 20
7.0601912284
 10
9.2249375154
 20
7.0964392318
 10
9.2079528487
 20
7.1329657929
 10
9.1919047234
 20
7.1697127723
 10
9.1768186834
 20
7.2066216796
 10
9.1627187412
 20
7.2436337667
 10
9.1496273398
 20
7.2806901214
 10
9.1375653167
 20
7.3177317609
 10
9.1265518712
 20
7.3546997259
 10
9.1166045333
 20
7.3915351742
 10
9.1077391364
 20
7.4281794748
 10
9.0999697915
 20
7.4645743008
 10
9.0933088651
 20
7.5006617223
 10
9.0877669594
 20
7.5363842989
 10
9.0833528956
 20
7.5716851708
 10
9.0800736994
 20
7.6065081494
 10
9.0779345904
 20
7.6407978068
 10
9.0769389735
 20
7.6744995642
  0
LWPOLYLINE
  5
13D
330
1F
100
AcDbEntity
  8
0
  6
Continuous
 62
     7
370
     0
100
AcDbPolyline
 90
       27
 70
   128
 43
0.0
 10
9.1105312291
 20
7.671439311
 10
9.1115335202
 20
7.7029182574
 10
9.1136707952
 20
7.7336677942
 10
9.116939475
 20
7.7636364263
 10
9.1213340856
 20
7.7927739662
 10
9.1268472675
 20
7.8210316182
 10
9.133469788
 20
7.8483620603
 10
9.1411905565
 20
7.8747195229
 10
9.1499966434
 20
7.9000598662
 10
9.1598733014
 20
7.9243406536
 10
9.1708039904
 20
7.9475212227
 10
9.182770405
 20
7.969562754
 10
9.1957525057
 20
7.9904283351
 10
9.2097285516
 20
8.0100830233
 10
9.2246751376
 20
8.0284939034
 10
9.2405672331
 20
8.0456301433
 10
9.2573782242
 20
8.0614630457
 10
9.275079958
 20
8.0759660956
 10
9.2936427901
 20
8.0891150052
 10
9.313035634
 20
8.1008877547
 10
9.3332260129
 20
8.1112646284
 10
9.3541801149
 20
8.1202282486
 10
9.3758628488
 20
8.1277636043
 10
9.3982379032
 20
8.1338580763
 10
9.4212678073
 20
8.1385014582
 10
9.4449139939
 20
8.1416859741
 10
9.4527838299
 20
8.1424106772
  0
LINE
  5
13E
330
1F
100
AcDbEntity
  8
0
  6
Continuous
 62
     7
370
     0
100
AcDbLine
 10
9.1105312291
 20
7.671439311
 30
0.0
 11
9.0821167085
 21
7.6878426646
 31
0.0
  0
LWPOLYLINE
  5
13F
330
1F
100
AcDbEntity
  8
0
  6
Continuous
 62
     7
370
     0
100
AcDbPolyline
 90
       27
 70
   128
 43
0.0
 10
9.466671171
 20
8.1402087761
 10
9.4607810711
 20
8.1396520828
 10
9.4373828308
 20
8.1365031379
 10
9.4145942669
 20
8.1319108191
 10
9.3924535347
 20
8.1258828155
 10
9.3709977047
 20
8.1184292197
 10
9.3502627006
 20
8.1095625116
 10
9.3302832393
 20
8.0992975366
 10
9.3110927727
 20
8.0876514815
 10
9.2927234315
 20
8.0746438456
 10
9.2752059719
 20
8.0602964076
 10
9.2585697235
 20
8.0446331896
 10
9.2428425405
 20
8.0276804168
 10
9.2280507552
 20
8.0094664734
 10
9.2142191337
 20
7.9900218552
 10
9.2013708344
 20
7.9693791185
 10
9.1895273694
 20
7.9475728258
 10
9.1787085683
 20
7.9246394876
 10
9.1689325452
 20
7.9006175015
 10
9.1602156682
 20
7.8755470878
 10
9.152572532
 20
7.8494702221
 10
9.1460159337
 20
7.8224305653
 10
9.1405568511
 20
7.7944733903
 10
9.1362044244
 20
7.765645506
 10
9.1329659408
 20
7.7359951793
 10
9.1308468227
 20
7.7055720542
 10
9.1298506181
 20
7.6744270685
  0
LINE
  5
140
330
1F
100
AcDbEntity
  8
0
  6
Continuous
 62
     7
370
     0
100
AcDbLine
 10
9.1298506181
 20
7.6744270685
 30
0.0
 11
9.1105312291
 21
7.671439311
 31
0.0
  0
LWPOLYLINE
  5
141
330
1F
100
AcDbEntity
  8
0
  6
Continuous
 62
     7
370
     0
100
AcDbPolyline
 90
       65
 70
   128
 43
0.0
 10
9.1298506181
 20
7.6499308441
 10
9.1308468227
 20
7.6176356649
 10
9.1329659408
 20
7.5847658581
 10
9.1362044244
 20
7.551376458
 10
9.1405568511
 20
7.5175233687
 10
9.1460159337
 20
7.483263271
 10
9.152572532
 20
7.448653527
 10
9.1602156682
 20
7.4137520842
 10
9.1689325452
 20
7.3786173785
 10
9.1787085683
 20
7.3433082363
 10
9.1895273694
 20
7.3078837763
 10
9.2013708344
 20
7.2724033099
 10
9.2142191337
 20
7.2369262426
 10
9.2280507552
 20
7.2015119741
 10
9.2428425405
 20
7.166219799
 10
9.2585697235
 20
7.1311088072
 10
9.2752059719
 20
7.0962377856
 10
9.2927234315
 20
7.0616651193
 10
9.3110927727
 20
7.0274486935
 10
9.3302832393
 20
6.9936457973
 10
9.3502627006
 20
6.9603130273
 10
9.3709977047
 20
6.927506193
 10
9.3924535347
 20
6.8952802232
 10
9.4145942669
 20
6.8636890743
 10
9.4373828308
 20
6.8327856397
 10
9.4607810711
 20
6.8026216615
 10
9.4847498121
 20
6.7732476435
 10
9.5092489223
 20
6.744712767
 10
9.5342373829
 20
6.7170648083
 10
9.5596733551
 20
6.6903500588
 10
9.5855142514
 20
6.6646132472
 10
9.6117168059
 20
6.639897465
 10
9.6382371473
 20
6.6162440942
 10
9.6650308725
 20
6.5936927379
 10
9.6920531203
 20
6.572281154
 10
9.7192586469
 20
6.5520451924
 10
9.746601902
 20
6.5330187342
 10
9.7740371042
 20
6.5152336358
 10
9.8015183187
 20
6.4987196748
 10
9.8289995331
 20
6.483504501
 10
9.8564347353
 20
6.4696135891
 10
9.8837779904
 20
6.457070197
 10
9.9109835171
 20
6.4458953262
 10
9.9380057648
 20
6.4361076868
 10
9.96479949
 20
6.4277236666
 10
9.9913198314
 20
6.4207573029
 10
10.0175223859
 20
6.4152202596
 10
10.0433632822
 20
6.4111218074
 10
10.0687992544
 20
6.4084688085
 10
10.093787715
 20
6.4072657048
 10
10.1182868253
 20
6.4075145106
 10
10.1422555662
 20
6.4092148094
 10
10.1656538065
 20
6.4123637544
 10
10.1884423704
 20
6.4169560731
 10
10.2105831026
 20
6.4229840768
 10
10.2320389326
 20
6.4304376725
 10
10.2527739367
 20
6.4393043807
 10
10.272753398
 20
6.4495693557
 10
10.2919438646
 20
6.4612154107
 10
10.3103132058
 20
6.4742230467
 10
10.3278306654
 20
6.4885704847
 10
10.3444669138
 20
6.5042337026
 10
10.3601940968
 20
6.5211864754
 10
10.3749858821
 20
6.5394004189
 10
10.3838103388
 20
6.5515050005
  0
LINE
  5
142
330
1F
100
AcDbEntity
  8
0
  6
Continuous
 62
     7
370
     0
100
AcDbLine
 10
9.1352808389
 20
7.6530656438
 30
0.0
 11
9.1298506181
 21
7.6499308441
 31
0.0
  0
ARC
  5
143
330
1F
100
AcDbEntity
  8
0
  6
Continuous
 62
     7
370
     0
100
AcDbCircle
 10
10.0309348108
 20
7.665313756
 30
0.0
 40
0.8957377147145954
100
AcDbArc
 50
179.2165262291
 51
180.7834737709
  0
LINE
  5
144
330
1F
100
AcDbEntity
  8
0
  6
Continuous
 62
     7
370
     0
100
AcDbLine
 10
9.1298506181
 20
7.6744270685
 30
0.0
 11
9.1352808389
 21
7.6775618682
 31
0.0
  0
LWPOLYLINE
  5
145
330
1F
100
AcDbEntity
  8
0
  6
Continuous
 62
     7
370
     0
100
AcDbPolyline
 90
       58
 70
   128
 43
0.0
 10
9.8529104802
 20
6.5283877382
 10
9.8255106887
 20
6.5448508507
 10
9.7981565015
 20
6.5625776609
 10
9.7708934468
 20
6.5815386645
 10
9.7437669014
 20
6.6017023025
 10
9.7168220147
 20
6.6230350147
 10
9.6901036338
 20
6.6455012949
 10
9.6636562289
 20
6.6690637502
 10
9.637523819
 20
6.6936831631
 10
9.6117498989
 20
6.7193185571
 10
9.5863773668
 20
6.7459272647
 10
9.5614484528
 20
6.7734649982
 10
9.5370046485
 20
6.8018859238
 10
9.5130866384
 20
6.8311427376
 10
9.4897342314
 20
6.8611867447
 10
9.4669862956
 20
6.8919679397
 10
9.4448806924
 20
6.9234350903
 10
9.4234542145
 20
6.9555358226
 10
9.4027425242
 20
6.9882167082
 10
9.3827800941
 20
7.0214233527
 10
9.3636001496
 20
7.0551004872
 10
9.3452346138
 20
7.0891920593
 10
9.3277140544
 20
7.123641327
 10
9.3110676326
 20
7.1583909529
 10
9.2953230548
 20
7.1933830996
 10
9.2805065262
 20
7.2285595261
 10
9.2666427075
 20
7.2638616848
 10
9.2537546737
 20
7.2992308188
 10
9.2418638756
 20
7.3346080595
 10
9.2309901042
 20
7.3699345251
 10
9.2211514579
 20
7.4051514181
 10
9.2123643122
 20
7.4402001236
 10
9.2046432924
 20
7.4750223063
 10
9.1980012493
 20
7.5095600082
 10
9.192449238
 20
7.5437557447
 10
9.1879964992
 20
7.5775526004
 10
9.1846504442
 20
7.6108943238
 10
9.182416642
 20
7.6437254208
 10
9.1812988107
 20
7.6759912473
 10
9.1812988107
 20
7.7076381
 10
9.182416642
 20
7.7386133059
 10
9.1846504442
 20
7.7688653098
 10
9.1879964992
 20
7.7983437603
 10
9.192449238
 20
7.8269995932
 10
9.1980012493
 20
7.854785114
 10
9.2046432924
 20
7.8816540762
 10
9.2123643122
 20
7.9075617591
 10
9.2211514579
 20
7.932465042
 10
9.2309901042
 20
7.9563224759
 10
9.2418638756
 20
7.9790943523
 10
9.2537546737
 20
8.0007427697
 10
9.2666427075
 20
8.0212316965
 10
9.2805065262
 20
8.0405270309
 10
9.2953230548
 20
8.0585966577
 10
9.3110676326
 20
8.0754105018
 10
9.3277140544
 20
8.0909405781
 10
9.3452346138
 20
8.1051610385
 10
9.3529483817
 20
8.1108093327
  0
LWPOLYLINE
  5
146
330
1F
100
AcDbEntity
  8
0
  6
Continuous
 62
     7
370
     0
100
AcDbPolyline
 90
       19
 70
   128
 43
0.0
 10
10.3014804172
 20
6.4677256229
 10
10.282366746
 20
6.4596961725
 10
10.2609402681
 20
6.4523339249
 10
10.2388346649
 20
6.4463893604
 10
10.216086729
 20
6.4418723732
 10
10.1927343221
 20
6.4387904812
 10
10.168816312
 20
6.4371488141
 10
10.1443725077
 20
6.4369501042
 10
10.1194435937
 20
6.4381946822
 10
10.0940710616
 20
6.4408804766
 10
10.0682971415
 20
6.4450030173
 10
10.0421647316
 20
6.4505554427
 10
10.0157173267
 20
6.4575285112
 10
9.9889989458
 20
6.4659106169
 10
9.9620540591
 20
6.4756878087
 10
9.9349275137
 20
6.4868438133
 10
9.907664459
 20
6.4993600627
 10
9.8803102718
 20
6.5132157248
 10
9.8529104802
 20
6.5283877382
  0
LWPOLYLINE
  5
147
330
1F
100
AcDbEntity
  8
0
  6
Continuous
 62
     7
370
     0
100
AcDbPolyline
 90
       61
 70
   128
 43
0.0
 10
9.0821167085
 20
7.6633464402
 10
9.0831023232
 20
7.6302199933
 10
9.0852115806
 20
7.5965161752
 10
9.0884411244
 20
7.5622886146
 10
9.092785816
 20
7.5275917739
 10
9.098238742
 20
7.4924808621
 10
9.104791226
 20
7.457011747
 10
9.1124328416
 20
7.4212408665
 10
9.1211514298
 20
7.3852251386
 10
9.1309331175
 20
7.3490218707
 10
9.1417623405
 20
7.3126886689
 10
9.1536218675
 20
7.276283346
 10
9.1664928276
 20
7.2398638294
 10
9.180354741
 20
7.2034880693
 10
9.1951855509
 20
7.167213946
 10
9.2109616585
 20
7.1310991783
 10
9.2276579615
 20
7.0952012314
 10
9.2452478927
 20
7.0595772254
 10
9.2637034636
 20
7.0242838446
 10
9.2829953078
 20
6.9893772473
 10
9.3030927287
 20
6.9549129761
 10
9.3239637474
 20
6.92094587
 10
9.3455751545
 20
6.8875299768
 10
9.3678925622
 20
6.8547184674
 10
9.3908804595
 20
6.8225635507
 10
9.4145022685
 20
6.7911163912
 10
9.4387204025
 20
6.7604270269
 10
9.4634963262
 20
6.7305442903
 10
9.4887906164
 20
6.7015157302
 10
9.5145630254
 20
6.6733875363
 10
9.5407725446
 20
6.6462044657
 10
9.5673774699
 20
6.6200097717
 10
9.5943354679
 20
6.5948451347
 10
9.6216036437
 20
6.5707505962
 10
9.6491386085
 20
6.5477644952
 10
9.6768965493
 20
6.5259234065
 10
9.704833298
 20
6.5052620835
 10
9.7329044023
 20
6.4858134019
 10
9.761065196
 20
6.4676083082
 10
9.7892708699
 20
6.4506757701
 10
9.8174765439
 20
6.4350427302
 10
9.8456373375
 20
6.4207340637
 10
9.8737084419
 20
6.407772538
 10
9.9016451906
 20
6.3961787775
 10
9.9294031314
 20
6.3859712299
 10
9.9569380962
 20
6.3771661373
 10
9.984206272
 20
6.3697775102
 10
10.01116427
 20
6.3638171051
 10
10.0377691953
 20
6.3592944063
 10
10.0639787145
 20
6.3562166102
 10
10.0897511235
 20
6.354588614
 10
10.1150454137
 20
6.3544130082
 10
10.1398213374
 20
6.3556900723
 10
10.1640394714
 20
6.3584177742
 10
10.1876612804
 20
6.3625917737
 10
10.2106491777
 20
6.368205429
 10
10.2329665854
 20
6.375249808
 10
10.2545779925
 20
6.3837137016
 10
10.2754490112
 20
6.3935836424
 10
10.2955464321
 20
6.4048439254
 10
10.2989159745
 20
6.4069152639
  0
LINE
  5
148
330
1F
100
AcDbEntity
  8
0
  6
Continuous
 62
     7
370
     0
100
AcDbLine
 10
9.0769389735
 20
7.6744995642
 30
0.0
 11
9.0821167085
 21
7.6633464402
 31
0.0
  0
LINE
  5
149
330
1F
100
AcDbEntity
  8
0
  6
Continuous
 62
     7
370
     0
100
AcDbLine
 10
9.0821167085
 20
7.6633464402
 30
0.0
 11
9.1105312291
 21
7.6469430866
 31
0.0
  0
LWPOLYLINE
  5
14A
330
1F
100
AcDbEntity
  8
0
  6
Continuous
 62
     7
370
     0
100
AcDbPolyline
 90
       65
 70
   128
 43
0.0
 10
10.3787723387
 20
6.5383777324
 10
10.3688131883
 20
6.5246432657
 10
10.3538666023
 20
6.5062323856
 10
10.3379745067
 20
6.4890961456
 10
10.3211635157
 20
6.4732632433
 10
10.3034617818
 20
6.4587601934
 10
10.2848989497
 20
6.4456112837
 10
10.2655061059
 20
6.4338385343
 10
10.245315727
 20
6.4234616606
 10
10.224361625
 20
6.4144980403
 10
10.2026788911
 20
6.4069626846
 10
10.1803038367
 20
6.4008682127
 10
10.1572739325
 20
6.3962248307
 10
10.133627746
 20
6.3930403149
 10
10.1094048765
 20
6.3913199981
 10
10.0846458894
 20
6.3910667614
 10
10.0593922476
 20
6.3922810288
 10
10.0336862427
 20
6.3949607669
 10
10.0075709235
 20
6.3991014879
 10
9.9810900245
 20
6.4046962576
 10
9.9542878925
 20
6.4117357066
 10
9.927209412
 20
6.4202080461
 10
9.8998999304
 20
6.4300990878
 10
9.872405182
 20
6.4413922676
 10
9.8447712115
 20
6.454068673
 10
9.8170442963
 20
6.4681070754
 10
9.7892708699
 20
6.4834839651
 10
9.7614974436
 20
6.5001735909
 10
9.7337705284
 20
6.5181480033
 10
9.7061365578
 20
6.5373771012
 10
9.6786418095
 20
6.5578286822
 10
9.6513323279
 20
6.5794684968
 10
9.6242538474
 20
6.6022603054
 10
9.5974517154
 20
6.6261659394
 10
9.5709708164
 20
6.6511453649
 10
9.5448554972
 20
6.6771567495
 10
9.5191494922
 20
6.7041565331
 10
9.4938958505
 20
6.7320994998
 10
9.4691368634
 20
6.7609388546
 10
9.4449139939
 20
6.7906263011
 10
9.4212678073
 20
6.8211121228
 10
9.3982379032
 20
6.8523452662
 10
9.3758628488
 20
6.884273426
 10
9.3541801149
 20
6.9168431334
 10
9.3332260129
 20
6.9499998448
 10
9.313035634
 20
6.9836880339
 10
9.2936427901
 20
7.0178512842
 10
9.275079958
 20
7.0524323836
 10
9.2573782242
 20
7.0873734204
 10
9.2405672331
 20
7.1226158798
 10
9.2246751376
 20
7.1581007427
 10
9.2097285516
 20
7.1937685837
 10
9.1957525057
 20
7.229559671
 10
9.182770405
 20
7.2654140665
 10
9.1708039904
 20
7.3012717261
 10
9.1598733014
 20
7.3370726001
 10
9.1499966434
 20
7.372756734
 10
9.1411905565
 20
7.4082643688
 10
9.133469788
 20
7.4435360411
 10
9.1268472675
 20
7.4785126825
 10
9.1213340856
 20
7.5131357189
 10
9.116939475
 20
7.5473471682
 10
9.1136707952
 20
7.5810897376
 10
9.1115335202
 20
7.6143069197
 10
9.1105312291
 20
7.6469430866
  0
LINE
  5
14B
330
1F
100
AcDbEntity
  8
0
  6
Continuous
 62
     7
370
     0
100
AcDbLine
 10
9.1105312291
 20
7.6469430866
 30
0.0
 11
9.1298506181
 21
7.6499308441
 31
0.0
  0
LINE
  5
14C
330
1F
100
AcDbEntity
  8
0
  6
Continuous
 62
     7
370
     0
100
AcDbLine
 10
9.0875455752
 20
7.680622625
 30
0.0
 11
9.1352808389
 21
7.6530656438
 31
0.0
  0
LWPOLYLINE
  5
14D
330
1F
100
AcDbEntity
  8
0
  6
Continuous
 62
     7
370
     0
100
AcDbPolyline
 90
      125
 70
   128
 43
0.0
 10
8.9271639032
 20
7.6677283091
 10
8.9277277837
 20
7.7015977038
 10
8.9294186076
 20
7.7347669485
 10
8.9322339233
 20
7.767187951
 10
8.9361696489
 20
7.7988137041
 10
8.941220078
 20
7.8295983533
 10
8.947377888
 20
7.8594972639
 10
8.9546341505
 20
7.8884670853
 10
8.9629783448
 20
7.916465814
 10
8.9723983726
 20
7.9434528546
 10
8.9828805756
 20
7.9693890784
 10
8.9944097557
 20
7.9942368804
 10
9.0069691968
 20
8.0179602337
 10
9.0205406887
 20
8.0405247415
 10
9.0351045542
 20
8.0618976877
 10
9.050639677
 20
8.0820480834
 10
9.0671235327
 20
8.1009467125
 10
9.0845322213
 20
8.1185661738
 10
9.1028405018
 20
8.1348809207
 10
9.122021829
 20
8.1498672985
 10
9.1420483918
 20
8.1635035783
 10
9.1628911536
 20
8.1757699888
 10
9.1845198944
 20
8.1866487449
 10
9.2069032545
 20
8.1961240734
 10
9.2300087803
 20
8.204182236
 10
9.2538029709
 20
8.2108115492
 10
9.278251327
 20
8.2160024011
 10
9.3033184009
 20
8.2197472654
 10
9.3289678477
 20
8.2220407125
 10
9.3551624782
 20
8.222879417
 10
9.3818643126
 20
8.2222621629
 10
9.4090346358
 20
8.2201898453
 10
9.4366340535
 20
8.2166654686
 10
9.4646225491
 20
8.2116941431
 10
9.492959542
 20
8.2052830765
 10
9.5216039463
 20
8.1974415644
 10
9.5505142303
 20
8.1881809761
 10
9.5796484769
 20
8.1775147387
 10
9.6089644442
 20
8.1654583172
 10
9.6384196269
 20
8.1520291922
 10
9.6679713177
 20
8.1372468346
 10
9.6975766695
 20
8.1211326776
 10
9.7271927574
 20
8.103710085
 10
9.756776641
 20
8.085004318
 10
9.7862854263
 20
8.0650424981
 10
9.8156763285
 20
8.0438535681
 10
9.8449067336
 20
8.0214682499
 10
9.8739342602
 20
7.9979190001
 10
9.9027168214
 20
7.9732399627
 10
9.931212685
 20
7.9474669202
 10
9.9593805348
 20
7.9206372408
 10
9.9871795301
 20
7.8927898252
 10
10.0145693651
 20
7.8639650493
 10
10.0415103271
 20
7.8342047063
 10
10.0679633542
 20
7.803551946
 10
10.0938900922
 20
7.7720512118
 10
10.1192529497
 20
7.7397481769
 10
10.144015153
 20
7.7066896774
 10
10.1681407992
 20
7.6729236452
 10
10.1915949086
 20
7.6384990377
 10
10.2143434748
 20
7.6034657673
 10
10.2363535147
 20
7.5678746289
 10
10.2575931157
 20
7.5317772263
 10
10.2780314826
 20
7.4952258972
 10
10.2976389815
 20
7.4582736375
 10
10.3163871836
 20
7.4209740246
 10
10.3342489057
 20
7.3833811392
 10
10.3511982499
 20
7.3455494875
 10
10.3672106415
 20
7.3075339218
 10
10.382262864
 20
7.2693895609
 10
10.396333093
 20
7.2311717106
 10
10.4094009281
 20
7.1929357831
 10
10.4214474221
 20
7.1547372168
 10
10.4324551089
 20
7.116631396
 10
10.4424080283
 20
7.0786735705
 10
10.4512917495
 20
7.0409187756
 10
10.459093392
 20
7.003421752
 10
10.4658016442
 20
6.9662368668
 10
10.4714067797
 20
6.9294180347
 10
10.4759006716
 20
6.8930186393
 10
10.4792768042
 20
6.8570914563
 10
10.4815302824
 20
6.8216885767
 10
10.482657839
 20
6.7868613313
 10
10.482657839
 20
6.7526602163
 10
10.4815302824
 20
6.71913482
 10
10.4792768042
 20
6.686333751
 10
10.4759006716
 20
6.6543045677
 10
10.4714067797
 20
6.6230937095
 10
10.4658016442
 20
6.592746429
 10
10.459093392
 20
6.5633067269
 10
10.4512917495
 20
6.534817288
 10
10.4424080283
 20
6.5073194193
 10
10.4324551089
 20
6.4808529899
 10
10.4214474221
 20
6.4554563738
 10
10.4094009281
 20
6.4311663935
 10
10.396333093
 20
6.4080182672
 10
10.382262864
 20
6.3860455575
 10
10.3672106415
 20
6.3652801228
 10
10.3511982499
 20
6.3457520708
 10
10.3342489057
 20
6.3274897155
 10
10.3163871836
 20
6.3105195355
 10
10.2976389815
 20
6.2948661359
 10
10.2780314826
 20
6.2805522127
 10
10.2575931157
 20
6.2675985196
 10
10.2363535147
 20
6.2560238383
 10
10.2143434748
 20
6.2458449511
 10
10.1915949086
 20
6.2370766162
 10
10.1681407992
 20
6.2297315469
 10
10.144015153
 20
6.223820393
 10
10.1192529497
 20
6.2193517249
 10
10.0938900922
 20
6.2163320219
 10
10.0679633542
 20
6.2147656622
 10
10.0415103271
 20
6.2146549169
 10
10.0145693651
 20
6.2159999466
 10
9.9871795301
 20
6.218798801
 10
9.9593805348
 20
6.2230474222
 10
9.931212685
 20
6.22873965
 10
9.9027168214
 20
6.2358672312
 10
9.8739342602
 20
6.2444198316
 10
9.8449067336
 20
6.2543850507
 10
9.8156763285
 20
6.2657484398
 10
9.7862854263
 20
6.2784935232
 10
9.756776641
 20
6.2926018217
 10
9.7271927574
 20
6.3080528795
 10
9.7048549453
 20
6.3205819455
  0
LWPOLYLINE
  5
14E
330
1F
100
AcDbEntity
  8
0
  6
Continuous
 62
     7
370
     0
100
AcDbPolyline
 90
      165
 70
   128
 43
0.0
 10
8.9271639032
 20
7.659564228
 10
8.9277294916
 20
7.6251471585
 10
8.9294254264
 20
7.5901275864
 10
8.9322492188
 20
7.5545569078
 10
8.9361967243
 20
7.5184873276
 10
8.9412621496
 20
7.4819717828
 10
8.9474380604
 20
7.445063865
 10
8.9547153926
 20
7.4078177418
 10
8.9630834659
 20
7.3702880769
 10
8.9725299989
 20
7.3325299502
 10
8.9830411275
 20
7.2945987772
 10
8.9946014251
 20
7.2565502268
 10
9.0071939255
 20
7.2184401408
 10
9.0208001475
 20
7.1803244508
 10
9.0354001219
 20
7.1422590969
 10
9.0509724214
 20
7.1042999452
 10
9.0674941914
 20
7.0665027061
 10
9.084941184
 20
7.0289228523
 10
9.1032877933
 20
6.9916155372
 10
9.1225070931
 20
6.9546355146
 10
9.1425708765
 20
6.9180370577
 10
9.163449697
 20
6.8818738799
 10
9.1851129122
 20
6.8461990555
 10
9.2075287282
 20
6.8110649423
 10
9.2306642468
 20
6.7765231044
 10
9.2544855134
 20
6.7426242368
 10
9.278957567
 20
6.7094180908
 10
9.3040444916
 20
6.6769534008
 10
9.3297094685
 20
6.6452778134
 10
9.3559148309
 20
6.6144378168
 10
9.3826221188
 20
6.584478673
 10
9.4097921355
 20
6.5554443511
 10
9.4373850054
 20
6.5273774631
 10
9.4653602321
 20
6.5003192009
 10
9.4936767581
 20
6.4743092762
 10
9.522293025
 20
6.4493858623
 10
9.5511670344
 20
6.4255855377
 10
9.5802564098
 20
6.4029432326
 10
9.6095184584
 20
6.3814921777
 10
9.6389102343
 20
6.3612638554
 10
9.668388601
 20
6.3422879536
 10
9.6979102947
 20
6.3245923221
 10
9.7274319885
 20
6.3082029315
 10
9.7569103551
 20
6.2931438357
 10
9.786302131
 20
6.2794371358
 10
9.8155641797
 20
6.2671029484
 10
9.8446535551
 20
6.2561593756
 10
9.8735275645
 20
6.2466224786
 10
9.9021438314
 20
6.238506254
 10
9.9304603573
 20
6.2318226137
 10
9.958435584
 20
6.2265813667
 10
9.9860284539
 20
6.2227902053
 10
10.0131984707
 20
6.2204546935
 10
10.0399057586
 20
6.2195782591
 10
10.066111121
 20
6.2201621883
 10
10.0917760979
 20
6.2222056241
 10
10.1168630224
 20
6.2257055675
 10
10.1413350761
 20
6.2306568819
 10
10.1651563427
 20
6.2370523004
 10
10.1882918613
 20
6.2448824371
 10
10.2107076773
 20
6.2541358
 10
10.2323708925
 20
6.2647988085
 10
10.253249713
 20
6.2768558133
 10
10.2733134964
 20
6.290289119
 10
10.2925327962
 20
6.3050790104
 10
10.3108794055
 20
6.3212037813
 10
10.328326398
 20
6.3386397663
 10
10.3448481681
 20
6.3573613757
 10
10.3604204676
 20
6.3773411331
 10
10.375020442
 20
6.3985497153
 10
10.3886266639
 20
6.4209559958
 10
10.4012191644
 20
6.4445270904
 10
10.412779462
 20
6.4692284051
 10
10.4232905906
 20
6.4950236875
 10
10.4327371236
 20
6.5218750793
 10
10.4411051968
 20
6.5497431725
 10
10.4483825291
 20
6.5785870667
 10
10.4545584399
 20
6.6083644297
 10
10.4596238652
 20
6.6390315589
 10
10.4635713707
 20
6.6705434462
 10
10.4663951631
 20
6.7028538435
 10
10.4680910979
 20
6.7359153309
 10
10.4686566862
 20
6.7696793861
 10
10.4680910979
 20
6.8040964556
 10
10.4663951631
 20
6.8391160277
 10
10.4635713707
 20
6.8746867063
 10
10.4596238652
 20
6.9107562865
 10
10.4545584399
 20
6.9472718313
 10
10.4483825291
 20
6.9841797491
 10
10.4411051968
 20
7.0214258723
 10
10.4327371236
 20
7.0589555372
 10
10.4232905906
 20
7.0967136638
 10
10.412779462
 20
7.1346448369
 10
10.4012191644
 20
7.1726933873
 10
10.3886266639
 20
7.2108034733
 10
10.375020442
 20
7.2489191633
 10
10.3604204676
 20
7.2869845172
 10
10.3448481681
 20
7.3249436689
 10
10.328326398
 20
7.3627409079
 10
10.3108794055
 20
7.4003207618
 10
10.2925327962
 20
7.4376280769
 10
10.2733134964
 20
7.4746080995
 10
10.253249713
 20
7.5112065564
 10
10.2323708925
 20
7.5473697342
 10
10.2107076773
 20
7.5830445586
 10
10.1882918613
 20
7.6181786718
 10
10.1651563427
 20
7.6527205097
 10
10.1413350761
 20
7.6866193772
 10
10.1168630224
 20
7.7198255233
 10
10.0917760979
 20
7.7522902133
 10
10.066111121
 20
7.7839658007
 10
10.0399057586
 20
7.8148057973
 10
10.0131984707
 20
7.8447649411
 10
9.9860284539
 20
7.873799263
 10
9.958435584
 20
7.901866151
 10
9.9304603573
 20
7.9289244132
 10
9.9021438314
 20
7.9549343379
 10
9.8735275645
 20
7.9798577518
 10
9.8446535551
 20
8.0036580764
 10
9.8155641797
 20
8.0263003815
 10
9.786302131
 20
8.0477514364
 10
9.7569103551
 20
8.0679797587
 10
9.7274319885
 20
8.0869556604
 10
9.6979102947
 20
8.104651292
 10
9.668388601
 20
8.1210406826
 10
9.6389102343
 20
8.1360997784
 10
9.6095184584
 20
8.1498064783
 10
9.5802564098
 20
8.1621406657
 10
9.5511670344
 20
8.1730842385
 10
9.522293025
 20
8.1826211355
 10
9.4936767581
 20
8.1907373601
 10
9.4653602321
 20
8.1974210004
 10
9.4373850054
 20
8.2026622474
 10
9.4097921355
 20
8.2064534088
 10
9.3826221188
 20
8.2087889206
 10
9.3559148309
 20
8.209665355
 10
9.3297094685
 20
8.2090814258
 10
9.3040444916
 20
8.20703799
 10
9.278957567
 20
8.2035380466
 10
9.2544855134
 20
8.1985867322
 10
9.2306642468
 20
8.1921913136
 10
9.2075287282
 20
8.184361177
 10
9.1851129122
 20
8.1751078141
 10
9.163449697
 20
8.1644448056
 10
9.1425708765
 20
8.1523878008
 10
9.1225070931
 20
8.1389544951
 10
9.1032877933
 20
8.1241646037
 10
9.084941184
 20
8.1080398328
 10
9.0674941914
 20
8.0906038478
 10
9.0509724214
 20
8.0718822384
 10
9.0354001219
 20
8.051902481
 10
9.0208001475
 20
8.0306938988
 10
9.0071939255
 20
8.0082876183
 10
8.9946014251
 20
7.9847165237
 10
8.9830411275
 20
7.960015209
 10
8.9725299989
 20
7.9342199266
 10
8.9630834659
 20
7.9073685348
 10
8.9547153926
 20
7.8795004416
 10
8.9474380604
 20
7.8506565474
 10
8.9412621496
 20
7.8208791844
 10
8.9361967243
 20
7.7902120552
 10
8.9322492188
 20
7.7587001679
 10
8.9294254264
 20
7.7263897705
 10
8.9277294916
 20
7.6933282831
 10
8.9271639032
 20
7.659564228
  0
LWPOLYLINE
  5
14F
330
1F
100
AcDbEntity
  8
0
  6
Continuous
 62
     7
370
     0
100
AcDbPolyline
 90
       63
 70
   128
 43
0.0
 10
10.7444283309
 20
6.9207148868
 10
10.7438644504
 20
6.955235324
 10
10.7421736266
 20
6.9903567524
 10
10.7393583108
 20
7.0260282493
 10
10.7354225852
 20
7.0621980944
 10
10.7303721561
 20
7.098813845
 10
10.7242143462
 20
7.1358224116
 10
10.7169580836
 20
7.1731701354
 10
10.7086138893
 20
7.2108028658
 10
10.6991938616
 20
7.2486660389
 10
10.6887116585
 20
7.2867047567
 10
10.6771824784
 20
7.3248638668
 10
10.6646230374
 20
7.3630880419
 10
10.6510515454
 20
7.4013218609
 10
10.6364876799
 20
7.4395098882
 10
10.6209525571
 20
7.477596755
 10
10.6044687014
 20
7.5155272387
 10
10.5870600128
 20
7.553246344
 10
10.5687517323
 20
7.5906993817
 10
10.5495704051
 20
7.6278320485
 10
10.5295438423
 20
7.6645905055
 10
10.5087010805
 20
7.7009214565
 10
10.4870723398
 20
7.7367722252
 10
10.4646889796
 20
7.7720908312
 10
10.4415834539
 20
7.8068260661
 10
10.4177892632
 20
7.840927567
 10
10.3933409071
 20
7.87434589
 10
10.3682738332
 20
7.9070325818
 10
10.3426243864
 20
7.9389402498
 10
10.3164297559
 20
7.9700226309
 10
10.2897279216
 20
8.0002346586
 10
10.2625575983
 20
8.0295325284
 10
10.2349581807
 20
8.0578737611
 10
10.206969685
 20
8.0852172648
 10
10.1786326921
 20
8.1115233938
 10
10.1499882878
 20
8.1367540069
 10
10.1210780038
 20
8.1608725221
 10
10.0919437572
 20
8.1838439698
 10
10.0626277899
 20
8.2056350437
 10
10.0331726073
 20
8.2262141487
 10
10.0036209165
 20
8.2455514471
 10
9.9740155646
 20
8.2636189017
 10
9.9443994767
 20
8.2803903164
 10
9.9148155932
 20
8.2958413742
 10
9.8853068079
 20
8.3099496727
 10
9.8559159057
 20
8.3226947561
 10
9.8266855006
 20
8.3340581452
 10
9.7976579739
 20
8.3440233643
 10
9.7688754128
 20
8.3525759647
 10
9.7403795492
 20
8.3597035459
 10
9.7122116993
 20
8.3653957737
 10
9.684412704
 20
8.3696443949
 10
9.657022869
 20
8.3724432493
 10
9.630081907
 20
8.373788279
 10
9.6036288799
 20
8.3736775337
 10
9.5777021419
 20
8.372111174
 10
9.5523392845
 20
8.369091471
 10
9.5275770812
 20
8.3646228029
 10
9.5034514349
 20
8.358711649
 10
9.4799973255
 20
8.3513665797
 10
9.4572487593
 20
8.3425982448
 10
9.4352387194
 20
8.3324193576
 10
9.4166555686
 20
8.3223930969
  0
LWPOLYLINE
  5
150
330
1F
100
AcDbEntity
  8
0
  6
Continuous
 62
     7
370
     0
100
AcDbPolyline
 90
       22
 70
   128
 43
0.0
 10
10.5165661745
 20
6.4170855997
 10
10.5295438423
 20
6.4249396176
 10
10.5495704051
 20
6.4385758974
 10
10.5687517323
 20
6.4535622752
 10
10.5870600128
 20
6.4698770221
 10
10.6044687014
 20
6.4874964834
 10
10.6209525571
 20
6.5063951125
 10
10.6364876799
 20
6.5265455082
 10
10.6510515454
 20
6.5479184544
 10
10.6646230374
 20
6.5704829622
 10
10.6771824784
 20
6.5942063155
 10
10.6887116585
 20
6.6190541175
 10
10.6991938616
 20
6.6449903413
 10
10.7086138893
 20
6.6719773819
 10
10.7169580836
 20
6.6999761106
 10
10.7242143462
 20
6.728945932
 10
10.7303721561
 20
6.7588448426
 10
10.7354225852
 20
6.7896294918
 10
10.7393583108
 20
6.8212552448
 10
10.7421736266
 20
6.8536762474
 10
10.7438644504
 20
6.8868454921
 10
10.7444283309
 20
6.9207148868
  0
LWPOLYLINE
  5
151
330
1F
100
AcDbEntity
  8
0
  6
Continuous
 62
     7
370
     0
100
AcDbPolyline
 90
      161
 70
   128
 43
0.0
 10
8.9661816962
 20
7.6370397356
 10
8.9667458324
 20
7.6698875579
 10
8.9684373712
 20
7.7020333935
 10
8.9712537044
 20
7.7334276758
 10
8.9751904894
 20
7.764021997
 10
8.980241656
 20
7.7937691829
 10
8.9863994156
 20
7.8226233655
 10
8.9936542734
 20
7.8505400538
 10
9.0019950429
 20
7.8774762023
 10
9.0114088633
 20
7.9033902774
 10
9.0218812192
 20
7.9282423213
 10
9.0333959629
 20
7.9519940142
 10
9.0459353395
 20
7.9746087326
 10
9.0594800142
 20
7.9960516062
 10
9.0740091022
 20
8.0162895717
 10
9.0895002006
 20
8.0352914236
 10
9.1059294232
 20
8.0530278625
 10
9.1232714375
 20
8.0694715399
 10
9.1414995032
 20
8.0845971011
 10
9.160585514
 20
8.0983812234
 10
9.1805000407
 20
8.1108026528
 10
9.2012123765
 20
8.1218422362
 10
9.2226905845
 20
8.1314829515
 10
9.2449015468
 20
8.1397099334
 10
9.2678110158
 20
8.1465104964
 10
9.2913836667
 20
8.1518741546
 10
9.3155831522
 20
8.1557926376
 10
9.3403721585
 20
8.1582599034
 10
9.3657124626
 20
8.1592721477
 10
9.3915649917
 20
8.1588278096
 10
9.4178898831
 20
8.1569275743
 10
9.4446465456
 20
8.1535743718
 10
9.4717937225
 20
8.1487733726
 10
9.4992895548
 20
8.1425319793
 10
9.5270916458
 20
8.1348598157
 10
9.5551571268
 20
8.1257687119
 10
9.5834427229
 20
8.1152726856
 10
9.6119048196
 20
8.1033879209
 10
9.6404995306
 20
8.0901327432
 10
9.6691827648
 20
8.0755275912
 10
9.6979102947
 20
8.0595949849
 10
9.7266378247
 20
8.0423594911
 10
9.7553210589
 20
8.0238476859
 10
9.7839157699
 20
8.004088113
 10
9.8123778666
 20
7.9831112402
 10
9.8406634627
 20
7.9609494125
 10
9.8687289437
 20
7.9376368017
 10
9.8965310347
 20
7.9132093541
 10
9.924026867
 20
7.8877047353
 10
9.9511740439
 20
7.8611622713
 10
9.9779307064
 20
7.8336228888
 10
10.0042555978
 20
7.8051290515
 10
10.0301081269
 20
7.7757246948
 10
10.055448431
 20
7.7454551581
 10
10.0802374373
 20
7.7143671149
 10
10.1044369228
 20
7.6825085006
 10
10.1280095737
 20
7.649928439
 10
10.1509190427
 20
7.6166771661
 10
10.173130005
 20
7.582805953
 10
10.194608213
 20
7.5483670266
 10
10.2153205488
 20
7.5134134892
 10
10.2352350755
 20
7.4779992368
 10
10.2543210863
 20
7.4421788754
 10
10.272549152
 20
7.4060076376
 10
10.2898911663
 20
7.3695412966
 10
10.3063203889
 20
7.3328360811
 10
10.3218114873
 20
7.2959485877
 10
10.3363405753
 20
7.2589356943
 10
10.34988525
 20
7.221854472
 10
10.3624246266
 20
7.1847620976
 10
10.3739393703
 20
7.1477157646
 10
10.3844117262
 20
7.110772596
 10
10.3938255466
 20
7.0739895552
 10
10.4021663161
 20
7.0374233593
 10
10.4094211739
 20
7.0011303904
 10
10.4155789335
 20
6.9651666099
 10
10.4206301
 20
6.9295874712
 10
10.424566885
 20
6.8944478348
 10
10.4273832182
 20
6.8598018835
 10
10.4290747571
 20
6.8257030387
 10
10.4296388933
 20
6.7922038785
 10
10.4290747571
 20
6.7593560561
 10
10.4273832182
 20
6.7272102206
 10
10.424566885
 20
6.6958159383
 10
10.4206301
 20
6.6652216171
 10
10.4155789335
 20
6.6354744312
 10
10.4094211739
 20
6.6066202486
 10
10.4021663161
 20
6.5787035602
 10
10.3938255466
 20
6.5517674118
 10
10.3844117262
 20
6.5258533367
 10
10.3739393703
 20
6.5010012928
 10
10.3624246266
 20
6.4772495999
 10
10.34988525
 20
6.4546348815
 10
10.3363405753
 20
6.4331920079
 10
10.3218114873
 20
6.4129540424
 10
10.3063203889
 20
6.3939521905
 10
10.2898911663
 20
6.3762157516
 10
10.272549152
 20
6.3597720741
 10
10.2543210863
 20
6.344646513
 10
10.2352350755
 20
6.3308623907
 10
10.2153205488
 20
6.3184409613
 10
10.194608213
 20
6.3074013779
 10
10.173130005
 20
6.2977606626
 10
10.1509190427
 20
6.2895336807
 10
10.1280095737
 20
6.2827331177
 10
10.1044369228
 20
6.2773694595
 10
10.0802374373
 20
6.2734509765
 10
10.055448431
 20
6.2709837106
 10
10.0301081269
 20
6.2699714664
 10
10.0042555978
 20
6.2704158044
 10
9.9779307064
 20
6.2723160398
 10
9.9511740439
 20
6.2756692422
 10
9.924026867
 20
6.2804702415
 10
9.8965310347
 20
6.2867116348
 10
9.8687289437
 20
6.2943837984
 10
9.8406634627
 20
6.3034749022
 10
9.8123778666
 20
6.3139709285
 10
9.7839157699
 20
6.3258556932
 10
9.7553210589
 20
6.3391108708
 10
9.7266378247
 20
6.3537160229
 10
9.6979102947
 20
6.3696486292
 10
9.6691827648
 20
6.386884123
 10
9.6404995306
 20
6.4053959282
 10
9.6119048196
 20
6.4251555011
 10
9.5834427229
 20
6.4461323739
 10
9.5551571268
 20
6.4682942016
 10
9.5270916458
 20
6.4916068124
 10
9.4992895548
 20
6.5160342599
 10
9.4717937225
 20
6.5415388788
 10
9.4446465456
 20
6.5680813428
 10
9.4178898831
 20
6.5956207253
 10
9.3915649917
 20
6.6241145626
 10
9.3657124626
 20
6.6535189193
 10
9.3403721585
 20
6.683788456
 10
9.3155831522
 20
6.7148764992
 10
9.2913836667
 20
6.7467351135
 10
9.2678110158
 20
6.7793151751
 10
9.2449015468
 20
6.812566448
 10
9.2226905845
 20
6.8464376611
 10
9.2012123765
 20
6.8808765875
 10
9.1805000407
 20
6.9158301248
 10
9.160585514
 20
6.9512443773
 10
9.1414995032
 20
6.9870647387
 10
9.1232714375
 20
7.0232359765
 10
9.1059294232
 20
7.0597023175
 10
9.0895002006
 20
7.096407533
 10
9.0740091022
 20
7.1332950264
 10
9.0594800142
 20
7.1703079198
 10
9.0459353395
 20
7.207389142
 10
9.0333959629
 20
7.2444815165
 10
9.0218812192
 20
7.2815278494
 10
9.0114088633
 20
7.3184710181
 10
9.0019950429
 20
7.3552540588
 10
8.9936542734
 20
7.3918202548
 10
8.9863994156
 20
7.4281132236
 10
8.980241656
 20
7.4640770042
 10
8.9751904894
 20
7.4996561429
 10
8.9712537044
 20
7.5347957793
 10
8.9684373712
 20
7.5694417306
 10
8.9667458324
 20
7.6035405754
 10
8.9661816962
 20
7.6370397356
  0
LWPOLYLINE
  5
152
330
1F
100
AcDbEntity
  8
0
  6
Continuous
 62
     7
370
     0
100
AcDbPolyline
 90
      160
 70
   128
 43
0.0
 10
8.9855002127
 20
7.6340514745
 10
8.9860619049
 20
7.6009039332
 10
8.9877461045
 20
7.5671596318
 10
8.9905501818
 20
7.5328712581
 10
8.9944697586
 20
7.4980923493
 10
8.9994987149
 20
7.4628772085
 10
9.0056291986
 20
7.42728082
 10
9.0128516378
 20
7.3913587633
 10
9.0211547553
 20
7.3551671264
 10
9.0305255869
 20
7.3187624184
 10
9.0409495011
 20
7.2822014807
 10
9.0524102222
 20
7.245541399
 10
9.0648898557
 20
7.2088394137
 10
9.0783689162
 20
7.1721528305
 10
9.0928263575
 20
7.1355389313
 10
9.1082396063
 20
7.0990548841
 10
9.1245845964
 20
7.0627576546
 10
9.1418358073
 20
7.0267039166
 10
9.159966303
 20
6.9909499637
 10
9.1789477751
 20
6.9555516214
 10
9.1987505861
 20
6.9205641601
 10
9.2193438165
 20
6.8860422085
 10
9.2406953122
 20
6.8520396686
 10
9.2627717355
 20
6.8186096313
 10
9.2855386166
 20
6.7858042936
 10
9.3089604077
 20
6.7536748772
 10
9.3330005386
 20
6.7222715483
 10
9.3576214734
 20
6.6916433395
 10
9.3827847694
 20
6.6618380731
 10
9.4084511371
 20
6.6329022865
 10
9.4345805016
 20
6.6048811596
 10
9.461132065
 20
6.5778184438
 10
9.48806437
 20
6.5517563946
 10
9.5153353652
 20
6.5267357047
 10
9.5429024701
 20
6.5027954408
 10
9.570722642
 20
6.479972983
 10
9.5987524429
 20
6.4583039657
 10
9.6269481077
 20
6.4378222225
 10
9.6552656121
 20
6.4185597334
 10
9.6836607418
 20
6.4005465742
 10
9.7120891611
 20
6.3838108706
 10
9.7405064824
 20
6.3683787532
 10
9.7688683354
 20
6.3542743175
 10
9.7971304365
 20
6.3415195859
 10
9.8252486578
 20
6.3301344734
 10
9.853179096
 20
6.3201367564
 10
9.880878141
 20
6.3115420454
 10
9.9083025441
 20
6.3043637598
 10
9.9354094853
 20
6.2986131077
 10
9.9621566403
 20
6.2942990681
 10
9.9885022466
 20
6.2914283768
 10
10.0144051688
 20
6.2900055161
 10
10.0398249624
 20
6.2900327076
 10
10.0647219375
 20
6.2915099088
 10
10.0890572203
 20
6.2944348133
 10
10.1127928144
 20
6.2988028542
 10
10.1358916592
 20
6.3046072113
 10
10.1583176888
 20
6.3118388218
 10
10.1800358875
 20
6.3204863943
 10
10.2010123449
 20
6.3305364268
 10
10.2212143089
 20
6.3419732273
 10
10.2406102364
 20
6.3547789386
 10
10.259169843
 20
6.3689335661
 10
10.27686415
 20
6.384415009
 10
10.29366553
 20
6.4011990948
 10
10.3095477495
 20
6.4192596173
 10
10.3244860104
 20
6.4385683771
 10
10.3384569883
 20
6.4590952258
 10
10.3514388693
 20
6.4808081132
 10
10.3634113835
 20
6.5036731372
 10
10.3743558375
 20
6.5276545967
 10
10.3842551426
 20
6.5527150477
 10
10.3930938424
 20
6.578815361
 10
10.4008581363
 20
6.6059147843
 10
10.4075359011
 20
6.633971005
 10
10.4131167105
 20
6.6629402166
 10
10.4175918506
 20
6.6927771872
 10
10.4209543339
 20
6.7234353297
 10
10.4231989105
 20
6.7548667753
 10
10.4243220757
 20
6.7870224474
 10
10.4243220757
 20
6.8198521388
 10
10.4231989105
 20
6.8533045898
 10
10.4209543339
 20
6.8873275683
 10
10.4175918506
 20
6.9218679516
 10
10.4131167105
 20
6.9568718089
 10
10.4075359011
 20
6.9922844858
 10
10.4008581363
 20
7.0280506897
 10
10.3930938424
 20
7.0641145758
 10
10.3842551426
 20
7.1004198348
 10
10.3743558375
 20
7.1369097802
 10
10.3634113835
 20
7.1735274373
 10
10.3514388693
 20
7.210215632
 10
10.3384569883
 20
7.2469170801
 10
10.3244860104
 20
7.2835744765
 10
10.3095477495
 20
7.3201305852
 10
10.29366553
 20
7.356528328
 10
10.27686415
 20
7.3927108743
 10
10.259169843
 20
7.4286217293
 10
10.2406102364
 20
7.4642048224
 10
10.2212143089
 20
7.4994045949
 10
10.2010123449
 20
7.5341660865
 10
10.1800358875
 20
7.5684350213
 10
10.1583176888
 20
7.6021578923
 10
10.1358916592
 20
7.6352820454
 10
10.1127928144
 20
7.667755761
 10
10.0890572203
 20
7.6995283354
 10
10.0647219375
 20
7.7305501595
 10
10.0398249624
 20
7.7607727963
 10
10.0144051688
 20
7.7901490568
 10
9.9885022466
 20
7.8186330734
 10
9.9621566403
 20
7.8461803717
 10
9.9354094853
 20
7.87274794
 10
9.9083025441
 20
7.898294296
 10
9.880878141
 20
7.9227795522
 10
9.853179096
 20
7.9461654778
 10
9.8252486578
 20
7.9684155584
 10
9.7971304365
 20
7.9894950532
 10
9.7688683354
 20
8.0093710489
 10
9.7405064824
 20
8.0280125118
 10
9.7120891611
 20
8.0453903352
 10
9.6836607418
 20
8.0614773858
 10
9.6552656121
 20
8.0762485455
 10
9.6269481077
 20
8.089680751
 10
9.5987524429
 20
8.1017530295
 10
9.570722642
 20
8.1124465315
 10
9.5429024701
 20
8.1217445604
 10
9.5153353652
 20
8.1296325984
 10
9.48806437
 20
8.1360983293
 10
9.461132065
 20
8.1411316576
 10
9.4345805016
 20
8.1447247244
 10
9.4084511371
 20
8.1468719195
 10
9.3827847694
 20
8.1475698903
 10
9.3576214734
 20
8.1468175471
 10
9.3330005386
 20
8.1446160645
 10
9.3089604077
 20
8.1409688799
 10
9.2855386166
 20
8.135881688
 10
9.2627717355
 20
8.1293624317
 10
9.2406953122
 20
8.1214212901
 10
9.2193438165
 20
8.1120706624
 10
9.1987505861
 20
8.1013251485
 10
9.1789477751
 20
8.0892015262
 10
9.159966303
 20
8.0757187251
 10
9.1418358073
 20
8.060897797
 10
9.1245845964
 20
8.044761883
 10
9.1082396063
 20
8.0273361775
 10
9.0928263575
 20
8.0086478885
 10
9.0783689162
 20
7.9887261957
 10
9.0648898557
 20
7.9676022045
 10
9.0524102222
 20
7.9453088973
 10
9.0409495011
 20
7.9218810826
 10
9.0305255869
 20
7.8973553402
 10
9.0211547553
 20
7.8717699639
 10
9.0128516378
 20
7.8451649025
 10
9.0056291986
 20
7.8175816965
 10
8.9994987149
 20
7.7890634138
 10
8.9944697586
 20
7.7596545824
 10
8.9905501818
 20
7.7294011206
 10
8.9877461045
 20
7.6983502657
 10
8.9860619049
 20
7.6665504998
 10
8.9855002127
 20
7.6340514745
  0
ARC
  5
153
330
1F
100
AcDbEntity
  8
0
  6
Continuous
 62
     7
370
     0
100
AcDbCircle
 10
9.0723879419
 20
6.8535154391
 30
0.0
 40
1.673737949627865
100
AcDbArc
 50
2.5807340673
 51
57.4138894
  0
LWPOLYLINE
  5
154
330
1F
100
AcDbEntity
  8
0
  6
Continuous
 62
     7
370
     0
100
AcDbPolyline
 90
       50
 70
   128
 43
0.0
 10
10.7709448352
 20
7.0033762081
 10
10.770383143
 20
7.0365237494
 10
10.7686989434
 20
7.0702680508
 10
10.7658948661
 20
7.1045564245
 10
10.7619752893
 20
7.1393353333
 10
10.756946333
 20
7.1745504741
 10
10.7508158492
 20
7.2101468626
 10
10.7435934101
 20
7.2460689193
 10
10.7352902926
 20
7.2822605562
 10
10.725919461
 20
7.3186652643
 10
10.7154955468
 20
7.3552262019
 10
10.7040348257
 20
7.3918862836
 10
10.6915551921
 20
7.4285882689
 10
10.6780761317
 20
7.4652748521
 10
10.6636186903
 20
7.5018887513
 10
10.6482054416
 20
7.5383727985
 10
10.6318604514
 20
7.574670028
 10
10.6146092406
 20
7.610723766
 10
10.5964787449
 20
7.6464777189
 10
10.5774972728
 20
7.6818760612
 10
10.5576944617
 20
7.7168635225
 10
10.5371012314
 20
7.7513854741
 10
10.5157497357
 20
7.785388014
 10
10.4936733124
 20
7.8188180513
 10
10.4709064313
 20
7.851623389
 10
10.4474846401
 20
7.8837528054
 10
10.4234445093
 20
7.9151561343
 10
10.3988235745
 20
7.9457843431
 10
10.3736602785
 20
7.9755896095
 10
10.3479939107
 20
8.0045253961
 10
10.3218645463
 20
8.032546523
 10
10.2953129829
 20
8.0596092388
 10
10.2683806779
 20
8.085671288
 10
10.2411096827
 20
8.1106919779
 10
10.2135425778
 20
8.1346322418
 10
10.1857224059
 20
8.1574546996
 10
10.157692605
 20
8.1791237169
 10
10.1294969402
 20
8.1996054601
 10
10.1011794358
 20
8.2188679493
 10
10.0727843061
 20
8.2368811084
 10
10.0443558868
 20
8.2536168121
 10
10.0159385655
 20
8.2690489294
 10
9.9875767125
 20
8.2831533651
 10
9.9593146113
 20
8.2959080967
 10
9.9311963901
 20
8.3072932092
 10
9.9032659519
 20
8.3172909262
 10
9.8755669069
 20
8.3258856372
 10
9.8481425038
 20
8.3330639228
 10
9.8210355626
 20
8.3388145749
 10
9.8053523016
 20
8.3415115589
  0
ARC
  5
155
330
1F
100
AcDbEntity
  8
0
  6
Continuous
 62
     7
370
     0
100
AcDbCircle
 10
10.0463671231
 20
6.9915304238
 30
0.0
 40
0.7246745362102144
100
AcDbArc
 50
340.0379154229
 51
0.9366186332
  0
LINE
  5
156
330
1F
100
AcDbEntity
  8
0
  6
Continuous
 62
     7
370
     0
100
AcDbLine
 10
7.0564546154
 20
4.247476098
 30
0.0
 11
7.0564546154
 21
4.2465944426
 31
0.0
  0
LINE
  5
157
330
1F
100
AcDbEntity
  8
0
  6
Continuous
 62
     7
370
     0
100
AcDbLine
 10
7.234319433
 20
3.2395352703
 30
0.0
 11
7.2169989249
 21
3.2295352703
 31
0.0
  0
LINE
  5
158
330
1F
100
AcDbEntity
  8
0
  6
Continuous
 62
     7
370
     0
100
AcDbLine
 10
7.2169989249
 20
5.2645352703
 30
0.0
 11
7.234319433
 21
5.2545352703
 31
0.0
  0
LINE
  5
159
330
1F
100
AcDbEntity
  8
0
  6
Continuous
 62
     7
370
     0
100
AcDbLine
 10
7.234319433
 20
5.2143557784
 30
0.0
 11
7.224319433
 21
5.1970352703
 31
0.0
  0
LINE
  5
15A
330
1F
100
AcDbEntity
  8
0
  6
Continuous
 62
     7
370
     0
100
AcDbLine
 10
7.224319433
 20
3.2970352703
 30
0.0
 11
7.234319433
 21
3.2797147622
 31
0.0
  0
LINE
  5
15B
330
1F
100
AcDbEntity
  8
0
  6
Continuous
 62
     7
370
     0
100
AcDbLine
 10
7.224319433
 20
3.2970352703
 30
0.0
 11
7.224319433
 21
3.3063949797
 31
0.0
  0
LINE
  5
15C
330
1F
100
AcDbEntity
  8
0
  6
Continuous
 62
     7
370
     0
100
AcDbLine
 10
7.224319433
 20
5.1876755609
 30
0.0
 11
7.224319433
 21
5.1970352703
 31
0.0
  0
LINE
  5
15D
330
1F
100
AcDbEntity
  8
0
  6
Continuous
 62
     7
370
     0
100
AcDbLine
 10
7.224319433
 20
3.2970352703
 30
0.0
 11
7.151639941
 21
3.2970352703
 31
0.0
  0
LINE
  5
15E
330
1F
100
AcDbEntity
  8
0
  6
Continuous
 62
     7
370
     0
100
AcDbLine
 10
7.151639941
 20
3.5337386909
 30
0.0
 11
7.151639941
 21
3.2970352703
 31
0.0
  0
LINE
  5
15F
330
1F
100
AcDbEntity
  8
0
  6
Continuous
 62
     7
370
     0
100
AcDbLine
 10
7.151639941
 20
5.1970352703
 30
0.0
 11
7.151639941
 21
4.9603318497
 31
0.0
  0
LINE
  5
160
330
1F
100
AcDbEntity
  8
0
  6
Continuous
 62
     7
370
     0
100
AcDbLine
 10
7.151639941
 20
5.1970352703
 30
0.0
 11
7.224319433
 21
5.1970352703
 31
0.0
  0
LINE
  5
161
330
1F
100
AcDbEntity
  8
0
  6
Continuous
 62
     7
370
     0
100
AcDbLine
 10
7.144319433
 20
3.2295352703
 30
0.0
 11
7.2169989249
 21
3.2295352703
 31
0.0
  0
LINE
  5
162
330
1F
100
AcDbEntity
  8
0
  6
Continuous
 62
     7
370
     0
100
AcDbLine
 10
7.2169989249
 20
5.2645352703
 30
0.0
 11
7.144319433
 21
5.2645352703
 31
0.0
  0
LINE
  5
163
330
1F
100
AcDbEntity
  8
0
  6
Continuous
 62
     7
370
     0
100
AcDbLine
 10
7.144319433
 20
3.2295352703
 30
0.0
 11
7.134319433
 21
3.2468557784
 31
0.0
  0
LINE
  5
164
330
1F
100
AcDbEntity
  8
0
  6
Continuous
 62
     7
370
     0
100
AcDbLine
 10
7.134319433
 20
3.2870352703
 30
0.0
 11
7.134319433
 21
3.2468557784
 31
0.0
  0
LINE
  5
165
330
1F
100
AcDbEntity
  8
0
  6
Continuous
 62
     7
370
     0
100
AcDbLine
 10
7.134319433
 20
3.2870352703
 30
0.0
 11
7.151639941
 21
3.2970352703
 31
0.0
  0
LINE
  5
166
330
1F
100
AcDbEntity
  8
0
  6
Continuous
 62
     7
370
     0
100
AcDbLine
 10
7.234319433
 20
3.2395352703
 30
0.0
 11
7.234319433
 21
3.2797147622
 31
0.0
  0
LINE
  5
167
330
1F
100
AcDbEntity
  8
0
  6
Continuous
 62
     7
370
     0
100
AcDbLine
 10
7.151639941
 20
5.1970352703
 30
0.0
 11
7.134319433
 21
5.2070352703
 31
0.0
  0
LINE
  5
168
330
1F
100
AcDbEntity
  8
0
  6
Continuous
 62
     7
370
     0
100
AcDbLine
 10
7.134319433
 20
5.2472147622
 30
0.0
 11
7.134319433
 21
5.2070352703
 31
0.0
  0
LINE
  5
169
330
1F
100
AcDbEntity
  8
0
  6
Continuous
 62
     7
370
     0
100
AcDbLine
 10
7.134319433
 20
5.2472147622
 30
0.0
 11
7.144319433
 21
5.2645352703
 31
0.0
  0
LINE
  5
16A
330
1F
100
AcDbEntity
  8
0
  6
Continuous
 62
     7
370
     0
100
AcDbLine
 10
7.234319433
 20
5.2143557784
 30
0.0
 11
7.234319433
 21
5.2545352703
 31
0.0
  0
LINE
  5
16B
330
1F
100
AcDbEntity
  8
0
  6
Continuous
 62
     7
370
     0
100
AcDbLine
 10
7.134319433
 20
4.8932651139
 30
0.0
 11
7.134319433
 21
5.2070352703
 31
0.0
  0
LINE
  5
16C
330
1F
100
AcDbEntity
  8
0
  6
Continuous
 62
     7
370
     0
100
AcDbLine
 10
7.134319433
 20
3.2870352703
 30
0.0
 11
7.134319433
 21
3.6008054267
 31
0.0
  0
LINE
  5
16D
330
1F
100
AcDbEntity
  8
0
  6
Continuous
 62
     7
370
     0
100
AcDbLine
 10
7.2470058322
 20
3.2470352703
 30
0.0
 11
7.3651160685
 21
3.2470352703
 31
0.0
  0
LINE
  5
16E
330
1F
100
AcDbEntity
  8
0
  6
Continuous
 62
     7
370
     0
100
AcDbLine
 10
7.3651160685
 20
5.2470352703
 30
0.0
 11
7.2470058322
 21
5.2470352703
 31
0.0
  0
ARC
  5
16F
330
1F
100
AcDbEntity
  8
0
  6
Continuous
 62
     7
370
     0
100
AcDbCircle
 10
9.7733837492
 20
4.2465944426
 30
0.0
 40
2.716929133858268
100
AcDbArc
 50
179.9907036344
 51
201.5861844199
  0
ARC
  5
170
330
1F
100
AcDbEntity
  8
0
  6
Continuous
 62
     7
370
     0
100
AcDbCircle
 10
9.7733837492
 20
4.247476098
 30
0.0
 40
2.716929133858268
100
AcDbArc
 50
158.4138155801
 51
180.0092963656
  0
LINE
  5
171
330
1F
100
AcDbEntity
  8
0
  6
Continuous
 62
     7
370
     0
100
AcDbLine
 10
7.3651160685
 20
3.2470352703
 30
0.0
 11
7.3651160685
 21
5.2470352703
 31
0.0
  0
LINE
  5
172
330
1F
100
AcDbEntity
  8
0
  6
Continuous
 62
     7
370
     0
100
AcDbLine
 10
7.2401160685
 20
3.1470352703
 30
0.0
 11
7.3851160685
 21
3.1470352703
 31
0.0
  0
LINE
  5
173
330
1F
100
AcDbEntity
  8
0
  6
Continuous
 62
     7
370
     0
100
AcDbLine
 10
7.3851160685
 20
5.3470352703
 30
0.0
 11
7.2901160685
 21
5.3470352703
 31
0.0
  0
LINE
  5
174
330
1F
100
AcDbEntity
  8
0
  6
Continuous
 62
     7
370
     0
100
AcDbLine
 10
7.2808852992
 20
5.3470352703
 30
0.0
 11
7.2531929915
 21
5.3470352703
 31
0.0
  0
LINE
  5
175
330
1F
100
AcDbEntity
  8
0
  6
Continuous
 62
     7
370
     0
100
AcDbLine
 10
7.2439622223
 20
5.3470352703
 30
0.0
 11
7.2193468377
 21
5.3470352703
 31
0.0
  0
LINE
  5
176
330
1F
100
AcDbEntity
  8
0
  6
Continuous
 62
     7
370
     0
100
AcDbLine
 10
7.2101160685
 20
5.3470352703
 30
0.0
 11
7.1909228313
 21
5.3470352703
 31
0.0
  0
LINE
  5
177
330
1F
100
AcDbEntity
  8
0
  6
Continuous
 62
     7
370
     0
100
AcDbLine
 10
7.1103174598
 20
5.3470352703
 30
0.0
 11
7.0151160685
 21
5.3470352703
 31
0.0
  0
LINE
  5
178
330
1F
100
AcDbEntity
  8
0
  6
Continuous
 62
     7
370
     0
100
AcDbLine
 10
7.0151160685
 20
3.1470352703
 30
0.0
 11
7.1663182157
 21
3.1470352703
 31
0.0
  0
LINE
  5
179
330
1F
100
AcDbEntity
  8
0
  6
Continuous
 62
     7
370
     0
100
AcDbLine
 10
7.1197758159
 20
5.3470352703
 30
0.0
 11
7.1103174598
 21
5.3470352703
 31
0.0
  0
LINE
  5
17A
330
1F
100
AcDbEntity
  8
0
  6
Continuous
 62
     7
370
     0
100
AcDbLine
 10
7.1909228313
 20
5.3470352703
 30
0.0
 11
7.1814164519
 21
5.3470352703
 31
0.0
  0
LINE
  5
17B
330
1F
100
AcDbEntity
  8
0
  6
Continuous
 62
     7
370
     0
100
AcDbLine
 10
7.2193468377
 20
5.3470352703
 30
0.0
 11
7.2101160685
 21
5.3470352703
 31
0.0
  0
LINE
  5
17C
330
1F
100
AcDbEntity
  8
0
  6
Continuous
 62
     7
370
     0
100
AcDbLine
 10
7.2531929915
 20
5.3470352703
 30
0.0
 11
7.2439622223
 21
5.3470352703
 31
0.0
  0
LINE
  5
17D
330
1F
100
AcDbEntity
  8
0
  6
Continuous
 62
     7
370
     0
100
AcDbLine
 10
7.2901160685
 20
5.3470352703
 30
0.0
 11
7.2808852992
 21
5.3470352703
 31
0.0
  0
LINE
  5
17E
330
1F
100
AcDbEntity
  8
0
  6
Continuous
 62
     7
370
     0
100
AcDbLine
 10
7.3851160685
 20
5.3470352703
 30
0.0
 11
7.3951160685
 21
5.3370352703
 31
0.0
  0
LINE
  5
17F
330
1F
100
AcDbEntity
  8
0
  6
Continuous
 62
     7
370
     0
100
AcDbLine
 10
7.3951160685
 20
5.2545352703
 30
0.0
 11
7.3951160685
 21
5.3370352703
 31
0.0
  0
LINE
  5
180
330
1F
100
AcDbEntity
  8
0
  6
Continuous
 62
     7
370
     0
100
AcDbLine
 10
7.4051160685
 20
5.2545352703
 30
0.0
 11
7.3951160685
 21
5.2545352703
 31
0.0
  0
LINE
  5
181
330
1F
100
AcDbEntity
  8
0
  6
Continuous
 62
     7
370
     0
100
AcDbLine
 10
7.4051160685
 20
5.2645352703
 30
0.0
 11
7.4051160685
 21
5.2545352703
 31
0.0
  0
LINE
  5
182
330
1F
100
AcDbEntity
  8
0
  6
Continuous
 62
     7
370
     0
100
AcDbLine
 10
7.5051160685
 20
5.2645352703
 30
0.0
 11
7.4051160685
 21
5.2645352703
 31
0.0
  0
LINE
  5
183
330
1F
100
AcDbEntity
  8
0
  6
Continuous
 62
     7
370
     0
100
AcDbLine
 10
7.5051160685
 20
5.2645352703
 30
0.0
 11
7.5151160685
 21
5.2472147622
 31
0.0
  0
LINE
  5
184
330
1F
100
AcDbEntity
  8
0
  6
Continuous
 62
     7
370
     0
100
AcDbLine
 10
7.5151160685
 20
5.1970352703
 30
0.0
 11
7.5151160685
 21
5.2472147622
 31
0.0
  0
LINE
  5
185
330
1F
100
AcDbEntity
  8
0
  6
Continuous
 62
     7
370
     0
100
AcDbLine
 10
7.3651160685
 20
5.1970352703
 30
0.0
 11
7.5151160685
 21
5.1970352703
 31
0.0
  0
LINE
  5
186
330
1F
100
AcDbEntity
  8
0
  6
Continuous
 62
     7
370
     0
100
AcDbLine
 10
7.3651160685
 20
5.2745352703
 30
0.0
 11
7.3651160685
 21
5.1970352703
 31
0.0
  0
LINE
  5
187
330
1F
100
AcDbEntity
  8
0
  6
Continuous
 62
     7
370
     0
100
AcDbLine
 10
7.3551160685
 20
5.2745352703
 30
0.0
 11
7.3651160685
 21
5.2745352703
 31
0.0
  0
LINE
  5
188
330
1F
100
AcDbEntity
  8
0
  6
Continuous
 62
     7
370
     0
100
AcDbLine
 10
7.3551160685
 20
5.2645352703
 30
0.0
 11
7.3551160685
 21
5.2745352703
 31
0.0
  0
LINE
  5
189
330
1F
100
AcDbEntity
  8
0
  6
Continuous
 62
     7
370
     0
100
AcDbLine
 10
7.0151160685
 20
5.2645352703
 30
0.0
 11
7.3551160685
 21
5.2645352703
 31
0.0
  0
LINE
  5
18A
330
1F
100
AcDbEntity
  8
0
  6
Continuous
 62
     7
370
     0
100
AcDbLine
 10
7.0151160685
 20
5.2645352703
 30
0.0
 11
7.0051160685
 21
5.2818557784
 31
0.0
  0
LINE
  5
18B
330
1F
100
AcDbEntity
  8
0
  6
Continuous
 62
     7
370
     0
100
AcDbLine
 10
7.0051160685
 20
5.3370352703
 30
0.0
 11
7.0051160685
 21
5.2818557784
 31
0.0
  0
LINE
  5
18C
330
1F
100
AcDbEntity
  8
0
  6
Continuous
 62
     7
370
     0
100
AcDbLine
 10
7.0051160685
 20
5.3370352703
 30
0.0
 11
7.0151160685
 21
5.3470352703
 31
0.0
  0
LINE
  5
18D
330
1F
100
AcDbEntity
  8
0
  6
Continuous
 62
     7
370
     0
100
AcDbLine
 10
7.1814164519
 20
5.3470352703
 30
0.0
 11
7.1197758159
 21
5.3470352703
 31
0.0
  0
LINE
  5
18E
330
1F
100
AcDbEntity
  8
0
  6
Continuous
 62
     7
370
     0
100
AcDbLine
 10
7.5151160685
 20
3.2468557784
 30
0.0
 11
7.5051160685
 21
3.2295352703
 31
0.0
  0
LINE
  5
18F
330
1F
100
AcDbEntity
  8
0
  6
Continuous
 62
     7
370
     0
100
AcDbLine
 10
7.5151160685
 20
3.2970352703
 30
0.0
 11
7.5151160685
 21
5.1970352703
 31
0.0
  0
LINE
  5
190
330
1F
100
AcDbEntity
  8
0
  6
Continuous
 62
     7
370
     0
100
AcDbLine
 10
7.5151160685
 20
3.2970352703
 30
0.0
 11
7.3651160685
 21
3.2970352703
 31
0.0
  0
LINE
  5
191
330
1F
100
AcDbEntity
  8
0
  6
Continuous
 62
     7
370
     0
100
AcDbLine
 10
7.3551160685
 20
3.2295352703
 30
0.0
 11
7.0151160685
 21
3.2295352703
 31
0.0
  0
LINE
  5
192
330
1F
100
AcDbEntity
  8
0
  6
Continuous
 62
     7
370
     0
100
AcDbLine
 10
7.3551160685
 20
3.2195352703
 30
0.0
 11
7.3551160685
 21
3.2295352703
 31
0.0
  0
LINE
  5
193
330
1F
100
AcDbEntity
  8
0
  6
Continuous
 62
     7
370
     0
100
AcDbLine
 10
7.3651160685
 20
3.2195352703
 30
0.0
 11
7.3551160685
 21
3.2195352703
 31
0.0
  0
LINE
  5
194
330
1F
100
AcDbEntity
  8
0
  6
Continuous
 62
     7
370
     0
100
AcDbLine
 10
7.3651160685
 20
3.2970352703
 30
0.0
 11
7.3651160685
 21
3.2195352703
 31
0.0
  0
LINE
  5
195
330
1F
100
AcDbEntity
  8
0
  6
Continuous
 62
     7
370
     0
100
AcDbLine
 10
7.5151160685
 20
3.2468557784
 30
0.0
 11
7.5151160685
 21
3.2970352703
 31
0.0
  0
LINE
  5
196
330
1F
100
AcDbEntity
  8
0
  6
Continuous
 62
     7
370
     0
100
AcDbLine
 10
7.4051160685
 20
3.2295352703
 30
0.0
 11
7.5051160685
 21
3.2295352703
 31
0.0
  0
LINE
  5
197
330
1F
100
AcDbEntity
  8
0
  6
Continuous
 62
     7
370
     0
100
AcDbLine
 10
7.4051160685
 20
3.2395352703
 30
0.0
 11
7.4051160685
 21
3.2295352703
 31
0.0
  0
LINE
  5
198
330
1F
100
AcDbEntity
  8
0
  6
Continuous
 62
     7
370
     0
100
AcDbLine
 10
7.3951160685
 20
3.2395352703
 30
0.0
 11
7.4051160685
 21
3.2395352703
 31
0.0
  0
LINE
  5
199
330
1F
100
AcDbEntity
  8
0
  6
Continuous
 62
     7
370
     0
100
AcDbLine
 10
7.3951160685
 20
3.1570352703
 30
0.0
 11
7.3951160685
 21
3.2395352703
 31
0.0
  0
LINE
  5
19A
330
1F
100
AcDbEntity
  8
0
  6
Continuous
 62
     7
370
     0
100
AcDbLine
 10
7.3951160685
 20
3.1570352703
 30
0.0
 11
7.3851160685
 21
3.1470352703
 31
0.0
  0
LINE
  5
19B
330
1F
100
AcDbEntity
  8
0
  6
Continuous
 62
     7
370
     0
100
AcDbLine
 10
7.2195966342
 20
3.1470352703
 30
0.0
 11
7.2401160685
 21
3.1470352703
 31
0.0
  0
LINE
  5
19C
330
1F
100
AcDbEntity
  8
0
  6
Continuous
 62
     7
370
     0
100
AcDbLine
 10
7.1963299477
 20
3.1470352703
 30
0.0
 11
7.2195966342
 21
3.1470352703
 31
0.0
  0
LINE
  5
19D
330
1F
100
AcDbEntity
  8
0
  6
Continuous
 62
     7
370
     0
100
AcDbLine
 10
7.1663182157
 20
3.1470352703
 30
0.0
 11
7.1963299477
 21
3.1470352703
 31
0.0
  0
LINE
  5
19E
330
1F
100
AcDbEntity
  8
0
  6
Continuous
 62
     7
370
     0
100
AcDbLine
 10
7.0151160685
 20
3.1470352703
 30
0.0
 11
7.0051160685
 21
3.1570352703
 31
0.0
  0
LINE
  5
19F
330
1F
100
AcDbEntity
  8
0
  6
Continuous
 62
     7
370
     0
100
AcDbLine
 10
7.0051160685
 20
3.2122147622
 30
0.0
 11
7.0051160685
 21
3.1570352703
 31
0.0
  0
LINE
  5
1A0
330
1F
100
AcDbEntity
  8
0
  6
Continuous
 62
     7
370
     0
100
AcDbLine
 10
7.0051160685
 20
3.2122147622
 30
0.0
 11
7.0151160685
 21
3.2295352703
 31
0.0
  0
LINE
  5
1A1
330
1F
100
AcDbEntity
  8
0
  6
Continuous
 62
     7
370
     0
100
AcDbLine
 10
7.0151160685
 20
5.2645352703
 30
0.0
 11
7.0151160685
 21
3.2295352703
 31
0.0
  0
LINE
  5
1A2
330
1F
100
AcDbEntity
  8
0
  6
Continuous
 62
     7
370
     0
100
AcDbLine
 10
7.3551160685
 20
3.2295352703
 30
0.0
 11
7.3551160685
 21
3.2470352703
 31
0.0
  0
LINE
  5
1A3
330
1F
100
AcDbEntity
  8
0
  6
Continuous
 62
     7
370
     0
100
AcDbLine
 10
7.3551160685
 20
5.2470352703
 30
0.0
 11
7.3551160685
 21
5.2645352703
 31
0.0
  0
LINE
  5
1A4
330
1F
100
AcDbEntity
  8
0
  6
Continuous
 62
     7
370
     0
100
AcDbLine
 10
7.0051160685
 20
3.2122147622
 30
0.0
 11
7.0051160685
 21
5.2818557784
 31
0.0
  0
HATCH
  5
1A5
330
1F
100
AcDbEntity
  8
0
  6
Continuous
 62
     7
370
     0
100
AcDbHatch
 10
0.0
 20
0.0
 30
0.0
210
0.0
220
0.0
230
1.0
  2
ANSI31
 70
     0
 71
     0
 91
        1
 92
        0
 93
       20
 72
     1
 10
7.015116068451809
 20
3.229535270298096
 11
7.005116068451809
 21
3.212214762222407
 72
     1
 10
7.005116068451809
 20
3.212214762222407
 11
7.00511606845181
 21
3.157035270298095
 72
     1
 10
7.00511606845181
 20
3.157035270298095
 11
7.015116068451808
 21
3.147035270298096
 72
     1
 10
7.015116068451808
 20
3.147035270298096
 11
7.166318215676347
 21
3.147035270298096
 72
     1
 10
7.166318215676347
 20
3.147035270298096
 11
7.196329947743788
 21
3.147035270298096
 72
     1
 10
7.196329947743788
 20
3.147035270298096
 11
7.2195966341824
 21
3.147035270298096
 72
     1
 10
7.2195966341824
 20
3.147035270298096
 11
7.240116068451809
 21
3.147035270298096
 72
     1
 10
7.240116068451809
 20
3.147035270298096
 11
7.38511606845181
 21
3.147035270298096
 72
     1
 10
7.38511606845181
 20
3.147035270298096
 11
7.395116068451808
 21
3.157035270298096
 72
     1
 10
7.395116068451808
 20
3.157035270298096
 11
7.395116068451808
 21
3.239535270298096
 72
     1
 10
7.395116068451808
 20
3.239535270298096
 11
7.405116068451809
 21
3.239535270298096
 72
     1
 10
7.405116068451809
 20
3.239535270298096
 11
7.405116068451809
 21
3.229535270298096
 72
     1
 10
7.405116068451809
 20
3.229535270298096
 11
7.50511606845181
 21
3.229535270298096
 72
     1
 10
7.50511606845181
 20
3.229535270298096
 11
7.515116068451809
 21
3.246855778373785
 72
     1
 10
7.515116068451809
 20
3.246855778373785
 11
7.515116068451809
 21
3.297035270298097
 72
     1
 10
7.515116068451809
 20
3.297035270298097
 11
7.365116068451809
 21
3.297035270298097
 72
     1
 10
7.365116068451809
 20
3.297035270298097
 11
7.365116068451809
 21
3.219535270298097
 72
     1
 10
7.365116068451809
 20
3.219535270298097
 11
7.355116068451809
 21
3.219535270298097
 72
     1
 10
7.355116068451809
 20
3.219535270298097
 11
7.355116068451809
 21
3.229535270298096
 72
     1
 10
7.355116068451809
 20
3.229535270298096
 11
7.015116068451809
 21
3.229535270298096
 97
        0
 75
     0
 76
     1
 52
0.0
 41
1.0
 77
     0
 78
     1
 53
45.0
 43
0.0
 44
0.0
 45
-0.0883883476483184
 46
0.0883883476483184
 79
     0
 98
        1
 10
0.0
 20
0.0
  0
HATCH
  5
1A6
330
1F
100
AcDbEntity
  8
0
  6
Continuous
 62
     7
370
     0
100
AcDbHatch
 10
0.0
 20
0.0
 30
0.0
210
0.0
220
0.0
230
1.0
  2
ANSI31
 70
     0
 71
     0
 91
        1
 92
        0
 93
       26
 72
     1
 10
7.181416451887487
 20
5.347035270298097
 11
7.119775815949948
 21
5.347035270298097
 72
     1
 10
7.119775815949948
 20
5.347035270298097
 11
7.110317459778203
 21
5.347035270298097
 72
     1
 10
7.110317459778203
 20
5.347035270298097
 11
7.015116068451808
 21
5.347035270298097
 72
     1
 10
7.015116068451808
 20
5.347035270298097
 11
7.005116068451809
 21
5.337035270298098
 72
     1
 10
7.005116068451809
 20
5.337035270298098
 11
7.005116068451809
 21
5.281855778373786
 72
     1
 10
7.005116068451809
 20
5.281855778373786
 11
7.015116068451809
 21
5.264535270298097
 72
     1
 10
7.015116068451809
 20
5.264535270298097
 11
7.355116068451809
 21
5.264535270298097
 72
     1
 10
7.355116068451809
 20
5.264535270298097
 11
7.355116068451809
 21
5.274535270298097
 72
     1
 10
7.355116068451809
 20
5.274535270298097
 11
7.365116068451809
 21
5.274535270298097
 72
     1
 10
7.365116068451809
 20
5.274535270298097
 11
7.365116068451809
 21
5.197035270298096
 72
     1
 10
7.365116068451809
 20
5.197035270298096
 11
7.515116068451809
 21
5.197035270298096
 72
     1
 10
7.515116068451809
 20
5.197035270298096
 11
7.515116068451809
 21
5.247214762222407
 72
     1
 10
7.515116068451809
 20
5.247214762222407
 11
7.50511606845181
 21
5.264535270298097
 72
     1
 10
7.50511606845181
 20
5.264535270298097
 11
7.405116068451809
 21
5.264535270298097
 72
     1
 10
7.405116068451809
 20
5.264535270298097
 11
7.405116068451809
 21
5.254535270298097
 72
     1
 10
7.405116068451809
 20
5.254535270298097
 11
7.395116068451808
 21
5.254535270298097
 72
     1
 10
7.395116068451808
 20
5.254535270298097
 11
7.395116068451808
 21
5.337035270298097
 72
     1
 10
7.395116068451808
 20
5.337035270298097
 11
7.38511606845181
 21
5.347035270298097
 72
     1
 10
7.38511606845181
 20
5.347035270298097
 11
7.290116068451809
 21
5.347035270298097
 72
     1
 10
7.290116068451809
 20
5.347035270298097
 11
7.280885299221039
 21
5.347035270298097
 72
     1
 10
7.280885299221039
 20
5.347035270298097
 11
7.253192991528731
 21
5.347035270298097
 72
     1
 10
7.253192991528731
 20
5.347035270298097
 11
7.243962222297962
 21
5.347035270298097
 72
     1
 10
7.243962222297962
 20
5.347035270298097
 11
7.219346837682577
 21
5.347035270298097
 72
     1
 10
7.219346837682577
 20
5.347035270298097
 11
7.210116068451808
 21
5.347035270298097
 72
     1
 10
7.210116068451808
 20
5.347035270298097
 11
7.190922831258979
 21
5.347035270298097
 72
     1
 10
7.190922831258979
 20
5.347035270298097
 11
7.181416451887487
 21
5.347035270298097
 97
        0
 75
     0
 76
     1
 52
0.0
 41
1.0
 77
     0
 78
     1
 53
45.0
 43
0.0
 44
0.0
 45
-0.0883883476483184
 46
0.0883883476483184
 79
     0
 98
        1
 10
0.0
 20
0.0
  0
HATCH
  5
1A7
330
1F
100
AcDbEntity
  8
0
  6
Continuous
 62
     7
370
     0
100
AcDbHatch
 10
0.0
 20
0.0
 30
0.0
210
0.0
220
0.0
230
1.0
  2
ANSI31
 70
     0
 71
     0
 91
        1
 92
        0
 93
        5
 72
     1
 10
7.365116068451809
 20
3.247035270298094
 11
7.365116068451809
 21
5.247035270298098
 72
     1
 10
7.365116068451809
 20
5.247035270298098
 11
7.247005832231337
 21
5.247035270298098
 72
     2
 10
9.773383749224612
 20
4.247476097994349
 40
2.716929133858268
 50
158.4138155800667
 51
180.0092963656233
 73
     1
 72
     2
 10
9.773383749224612
 20
4.246594442601843
 40
2.716929133858268
 50
179.9907036343776
 51
201.5861844199341
 73
     1
 72
     1
 10
7.247005832231337
 20
3.247035270298094
 11
7.365116068451809
 21
3.247035270298094
 97
        0
 75
     0
 76
     1
 52
90.0
 41
1.0
 77
     0
 78
     1
 53
135.0000000000002
 43
0.0
 44
0.0
 45
-0.0883883476483181
 46
-0.0883883476483188
 79
     0
 98
        1
 10
0.0
 20
0.0
  0
HATCH
  5
1A8
330
1F
100
AcDbEntity
  8
0
  6
Continuous
 62
     7
370
     0
100
AcDbHatch
 10
0.0
 20
0.0
 30
0.0
210
0.0
220
0.0
230
1.0
  2
ANSI31
 70
     0
 71
     0
 91
        1
 92
        0
 93
        8
 72
     1
 10
7.23431943297006
 20
3.279714762222407
 11
7.22431943297006
 21
3.297035270298097
 72
     1
 10
7.22431943297006
 20
3.297035270298097
 11
7.15163994104575
 21
3.297035270298097
 72
     1
 10
7.15163994104575
 20
3.297035270298097
 11
7.134319432970059
 21
3.287035270298095
 72
     1
 10
7.134319432970059
 20
3.287035270298095
 11
7.134319432970059
 21
3.246855778373784
 72
     1
 10
7.134319432970059
 20
3.246855778373784
 11
7.14431943297006
 21
3.229535270298096
 72
     1
 10
7.14431943297006
 20
3.229535270298096
 11
7.21699892489437
 21
3.229535270298096
 72
     1
 10
7.21699892489437
 20
3.229535270298096
 11
7.23431943297006
 21
3.239535270298097
 72
     1
 10
7.23431943297006
 20
3.239535270298097
 11
7.23431943297006
 21
3.279714762222407
 97
        0
 75
     0
 76
     1
 52
90.0
 41
0.25
 77
     0
 78
     1
 53
135.0000000000002
 43
0.0
 44
0.0
 45
-0.0220970869120795
 46
-0.0220970869120797
 79
     0
 98
        1
 10
0.0
 20
0.0
  0
HATCH
  5
1A9
330
1F
100
AcDbEntity
  8
0
  6
Continuous
 62
     7
370
     0
100
AcDbHatch
 10
0.0
 20
0.0
 30
0.0
210
0.0
220
0.0
230
1.0
  2
ANSI31
 70
     0
 71
     0
 91
        1
 92
        0
 93
        8
 72
     1
 10
7.22431943297006
 20
5.197035270298096
 11
7.23431943297006
 21
5.214355778373784
 72
     1
 10
7.23431943297006
 20
5.214355778373784
 11
7.23431943297006
 21
5.254535270298096
 72
     1
 10
7.23431943297006
 20
5.254535270298096
 11
7.21699892489437
 21
5.264535270298095
 72
     1
 10
7.21699892489437
 20
5.264535270298095
 11
7.14431943297006
 21
5.264535270298095
 72
     1
 10
7.14431943297006
 20
5.264535270298095
 11
7.134319432970059
 21
5.247214762222408
 72
     1
 10
7.134319432970059
 20
5.247214762222408
 11
7.134319432970059
 21
5.207035270298097
 72
     1
 10
7.134319432970059
 20
5.207035270298097
 11
7.151639941045751
 21
5.197035270298096
 72
     1
 10
7.151639941045751
 20
5.197035270298096
 11
7.22431943297006
 21
5.197035270298096
 97
        0
 75
     0
 76
     1
 52
90.0
 41
0.25
 77
     0
 78
     1
 53
135.0000000000002
 43
0.0
 44
0.0
 45
-0.0220970869120795
 46
-0.0220970869120797
 79
     0
 98
        1
 10
0.0
 20
0.0
  0
DIMENSION
  5
1AA
330
1F
100
AcDbEntity
  8
0
  6
Continuous
 62
     7
370
     0
100
AcDbDimension
  2
_D_1
 10
8.2076681156
 20
3.2970352703
 30
0.0
 11
8.2076681156
 21
4.2470352703
 31
0.0
 70
   160
  1
%%c<>
 71
     2
 42
-1.0
  3
SLDDIMSTYLE1
100
AcDbAlignedDimension
 13
7.5151160685
 23
5.1970352703
 33
0.0
 14
7.5151160685
 24
3.2970352703
 34
0.0
 50
90.0
100
AcDbRotatedDimension
  0
DIMENSION
  5
1BE
330
1F
100
AcDbEntity
  8
0
  6
Continuous
 62
     7
370
     0
100
AcDbDimension
  2
_D_2
 10
7.5151160685
 20
5.9769565301
 30
0.0
 11
8.2049979582
 21
5.9769565301
 31
0.0
 70
   160
  1
<>
 71
     2
 42
-1.0
  3
SLDDIMSTYLE2
100
AcDbAlignedDimension
 13
7.0051160685
 23
5.3370352703
 33
0.0
 14
7.5151160685
 24
5.2472147622
 34
0.0
100
AcDbRotatedDimension
  0
DIMENSION
  5
1D3
330
1F
100
AcDbEntity
  8
0
  6
Continuous
 62
     7
370
     0
100
AcDbDimension
  2
_D_3
 10
7.5151160685
 20
5.5106902326
 30
0.0
 11
8.2076681156
 21
5.5106902326
 31
0.0
 70
   160
  1
<>
 71
     2
 42
-1.0
  3
SLDDIMSTYLE2
100
AcDbAlignedDimension
 13
7.3951160685
 23
5.3370352703
 33
0.0
 14
7.5151160685
 24
5.2472147622
 34
0.0
100
AcDbRotatedDimension
  0
INSERT
  5
1EC
102
{ACAD_REACTORS
330
1EE
102
}
330
1F
100
AcDbEntity
  8
0
  6
Continuous
 62
     7
370
     0
100
AcDbBlockReference
  2
SW_NOTE_5
 10
6.5168271675
 20
3.8958999443
 30
0.0
  0
LEADER
  5
1EE
330
1F
100
AcDbEntity
  8
0
  6
Continuous
 62
     7
370
     0
100
AcDbLeader
  3
SLDDIMSTYLE3
 73
     2
 76
     3
 10
7.134319433
 20
3.3875472914
 30
0.0
 10
6.7628901597
 20
3.8958999443
 30
0.0
 10
6.5168271675
 20
3.8958999443
 30
0.0
340
1EC
  0
INSERT
  5
1F4
102
{ACAD_REACTORS
330
1F5
102
}
330
1F
100
AcDbEntity
  8
0
  6
Continuous
 62
     7
370
     0
100
AcDbBlockReference
  2
SW_NOTE_6
 10
6.317988386
 20
2.7346814603
 30
0.0
  0
LEADER
  5
1F5
330
1F
100
AcDbEntity
  8
0
  6
Continuous
 62
     7
370
     0
100
AcDbLeader
  3
SLDDIMSTYLE3
 73
     2
 76
     3
 10
7.1252930867
 20
3.1470352703
 30
0.0
 10
6.5640513782
 20
2.7346814603
 30
0.0
 10
6.317988386
 20
2.7346814603
 30
0.0
340
1F4
  0
INSERT
  5
1FD
102
{ACAD_REACTORS
330
1FE
102
}
330
1F
100
AcDbEntity
  8
0
  6
Continuous
 62
     7
370
     0
100
AcDbBlockReference
  2
SW_NOTE_7
 10
8.0889604709
 20
2.7086416971
 30
0.0
  0
LEADER
  5
1FE
330
1F
100
AcDbEntity
  8
0
  6
Continuous
 62
     7
370
     0
100
AcDbLeader
  3
SLDDIMSTYLE3
 73
     2
 76
     3
 10
7.4482170308
 20
3.2295352703
 30
0.0
 10
7.8389604709
 20
2.7086416971
 30
0.0
 10
8.0889604709
 20
2.7086416971
 30
0.0
340
1FD
  0
INSERT
  5
204
102
{ACAD_REACTORS
330
205
102
}
330
1F
100
AcDbEntity
  8
0
  6
Continuous
 62
     7
370
     0
100
AcDbBlockReference
  2
SW_NOTE_8
 10
8.0540787419
 20
3.0528235107
 30
0.0
  0
LEADER
  5
205
330
1F
100
AcDbEntity
  8
0
  6
Continuous
 62
     7
370
     0
100
AcDbLeader
  3
SLDDIMSTYLE3
 73
     2
 76
     3
 10
7.3651160685
 20
3.5835645041
 30
0.0
 10
7.8080157498
 20
3.0528235107
 30
0.0
 10
8.0540787419
 20
3.0528235107
 30
0.0
340
204
  0
INSERT
  5
20C
102
{ACAD_REACTORS
330
20D
102
}
330
1F
100
AcDbEntity
  8
0
  6
Continuous
 62
     7
370
     0
100
AcDbBlockReference
  2
SW_NOTE_9
 10
6.5716815611
 20
3.5079735988
 30
0.0
  0
LEADER
  5
20D
330
1F
100
AcDbEntity
  8
0
  6
Continuous
 62
     7
370
     0
100
AcDbLeader
  3
SLDDIMSTYLE3
 73
     2
 76
     3
 10
7.0664318714
 20
3.2295352703
 30
0.0
 10
6.8216815611
 20
3.5079735988
 30
0.0
 10
6.5716815611
 20
3.5079735988
 30
0.0
340
20C
  0
OLE2FRAME
  5
20E
330
1F
100
AcDbEntity
  8
0
100
AcDbOle2Frame
 70
     2
  3
Paintbrush Picture
 10
9.0178120406
 20
1.3267570784
 30
0.0
 11
10.4397105087
 21
1.1242314806
 31
0.0
 71
     2
 72
     0
 73
     1
 90
     7296
310
8055C64EE7A81E092240C05F59A1653AF53F0000000000000000FD155DBC21E1
310
2440C05F59A1653AF53F0000000000000000FD155DBC21E12440A1732426DAFC
310
F13F0000000000000000C64EE7A81E092240A1732426DAFCF13F000000000000
310
00000000000001000000000100000100000001000000000001000000001C0000
310
D0CF11E0A1B11AE1000000000000000000000000000000003E000300FEFF0900
310
0600000000000000000000000100000001000000000000000010000002000000
310
01000000FEFFFFFF0000000000000000FFFFFFFFFFFFFFFFFFFFFFFFFFFFFFFF
310
FFFFFFFFFFFFFFFFFFFFFFFFFFFFFFFFFFFFFFFFFFFFFFFFFFFFFFFFFFFFFFFF
310
FFFFFFFFFFFFFFFFFFFFFFFFFFFFFFFFFFFFFFFFFFFFFFFFFFFFFFFFFFFFFFFF
310
FFFFFFFFFFFFFFFFFFFFFFFFFFFFFFFFFFFFFFFFFFFFFFFFFFFFFFFFFFFFFFFF
310
FFFFFFFFFFFFFFFFFFFFFFFFFFFFFFFFFFFFFFFFFFFFFFFFFFFFFFFFFFFFFFFF
310
FFFFFFFFFFFFFFFFFFFFFFFFFFFFFFFFFFFFFFFFFFFFFFFFFFFFFFFFFFFFFFFF
310
FFFFFFFFFFFFFFFFFFFFFFFFFFFFFFFFFFFFFFFFFFFFFFFFFFFFFFFFFFFFFFFF
310
FFFFFFFFFFFFFFFFFFFFFFFFFFFFFFFFFFFFFFFFFFFFFFFFFFFFFFFFFFFFFFFF
310
FFFFFFFFFFFFFFFFFFFFFFFFFFFFFFFFFFFFFFFFFFFFFFFFFFFFFFFFFFFFFFFF
310
FFFFFFFFFFFFFFFFFFFFFFFFFFFFFFFFFFFFFFFFFFFFFFFFFFFFFFFFFFFFFFFF
310
FFFFFFFFFFFFFFFFFFFFFFFFFFFFFFFFFFFFFFFFFFFFFFFFFFFFFFFFFFFFFFFF
310
FFFFFFFFFFFFFFFFFFFFFFFFFFFFFFFFFFFFFFFFFFFFFFFFFFFFFFFFFFFFFFFF
310
FFFFFFFFFFFFFFFFFFFFFFFFFFFFFFFFFFFFFFFFFFFFFFFFFFFFFFFFFFFFFFFF
310
FFFFFFFFFFFFFFFFFFFFFFFFFFFFFFFFFFFFFFFFFFFFFFFFFFFFFFFFFFFFFFFF
310
FDFFFFFFFEFFFFFFFEFFFFFFFEFFFFFF05000000060000000700000008000000
310
090000000A0000000B0000000C000000FEFFFFFFFFFFFFFFFFFFFFFFFFFFFFFF
310
FFFFFFFFFFFFFFFFFFFFFFFFFFFFFFFFFFFFFFFFFFFFFFFFFFFFFFFFFFFFFFFF
310
FFFFFFFFFFFFFFFFFFFFFFFFFFFFFFFFFFFFFFFFFFFFFFFFFFFFFFFFFFFFFFFF
310
FFFFFFFFFFFFFFFFFFFFFFFFFFFFFFFFFFFFFFFFFFFFFFFFFFFFFFFFFFFFFFFF
310
FFFFFFFFFFFFFFFFFFFFFFFFFFFFFFFFFFFFFFFFFFFFFFFFFFFFFFFFFFFFFFFF
310
FFFFFFFFFFFFFFFFFFFFFFFFFFFFFFFFFFFFFFFFFFFFFFFFFFFFFFFFFFFFFFFF
310
FFFFFFFFFFFFFFFFFFFFFFFFFFFFFFFFFFFFFFFFFFFFFFFFFFFFFFFFFFFFFFFF
310
FFFFFFFFFFFFFFFFFFFFFFFFFFFFFFFFFFFFFFFFFFFFFFFFFFFFFFFFFFFFFFFF
310
FFFFFFFFFFFFFFFFFFFFFFFFFFFFFFFFFFFFFFFFFFFFFFFFFFFFFFFFFFFFFFFF
310
FFFFFFFFFFFFFFFFFFFFFFFFFFFFFFFFFFFFFFFFFFFFFFFFFFFFFFFFFFFFFFFF
310
FFFFFFFFFFFFFFFFFFFFFFFFFFFFFFFFFFFFFFFFFFFFFFFFFFFFFFFFFFFFFFFF
310
FFFFFFFFFFFFFFFFFFFFFFFFFFFFFFFFFFFFFFFFFFFFFFFFFFFFFFFFFFFFFFFF
310
FFFFFFFFFFFFFFFFFFFFFFFFFFFFFFFFFFFFFFFFFFFFFFFFFFFFFFFFFFFFFFFF
310
FFFFFFFFFFFFFFFFFFFFFFFFFFFFFFFFFFFFFFFFFFFFFFFFFFFFFFFFFFFFFFFF
310
FFFFFFFFFFFFFFFFFFFFFFFFFFFFFFFFFFFFFFFFFFFFFFFFFFFFFFFFFFFFFFFF
310
52006F006F007400200045006E00740072007900000000000000000000000000
310
0000000000000000000000000000000000000000000000000000000000000000
310
16000500FFFFFFFFFFFFFFFF020000000A00030000000000C000000000000046
310
00000000000000000000000050A012649062D10103000000C000000000000000
310
01004F006C006500000000000000000000000000000000000000000000000000
310
0000000000000000000000000000000000000000000000000000000000000000
310
0A000200FFFFFFFFFFFFFFFFFFFFFFFF00000000000000000000000000000000
310
0000000000000000000000000000000000000000000000001400000000000000
310
010043006F006D0070004F0062006A0000000000000000000000000000000000
310
0000000000000000000000000000000000000000000000000000000000000000
310
120002010100000003000000FFFFFFFF00000000000000000000000000000000
310
0000000000000000000000000000000000000000010000004D00000000000000
310
01004F006C006500310030004E00610074006900760065000000000000000000
310
0000000000000000000000000000000000000000000000000000000000000000
310
1A000200FFFFFFFFFFFFFFFFFFFFFFFF00000000000000000000000000000000
310
000000000000000000000000000000000000000004000000E411000000000000
310
FEFFFFFF02000000FEFFFFFFFFFFFFFFFFFFFFFFFFFFFFFFFFFFFFFFFFFFFFFF
310
FFFFFFFFFFFFFFFFFFFFFFFFFFFFFFFFFFFFFFFFFFFFFFFFFFFFFFFFFFFFFFFF
310
FFFFFFFFFFFFFFFFFFFFFFFFFFFFFFFFFFFFFFFFFFFFFFFFFFFFFFFFFFFFFFFF
310
FFFFFFFFFFFFFFFFFFFFFFFFFFFFFFFFFFFFFFFFFFFFFFFFFFFFFFFFFFFFFFFF
310
FFFFFFFFFFFFFFFFFFFFFFFFFFFFFFFFFFFFFFFFFFFFFFFFFFFFFFFFFFFFFFFF
310
FFFFFFFFFFFFFFFFFFFFFFFFFFFFFFFFFFFFFFFFFFFFFFFFFFFFFFFFFFFFFFFF
310
FFFFFFFFFFFFFFFFFFFFFFFFFFFFFFFFFFFFFFFFFFFFFFFFFFFFFFFFFFFFFFFF
310
FFFFFFFFFFFFFFFFFFFFFFFFFFFFFFFFFFFFFFFFFFFFFFFFFFFFFFFFFFFFFFFF
310
FFFFFFFFFFFFFFFFFFFFFFFFFFFFFFFFFFFFFFFFFFFFFFFFFFFFFFFFFFFFFFFF
310
FFFFFFFFFFFFFFFFFFFFFFFFFFFFFFFFFFFFFFFFFFFFFFFFFFFFFFFFFFFFFFFF
310
FFFFFFFFFFFFFFFFFFFFFFFFFFFFFFFFFFFFFFFFFFFFFFFFFFFFFFFFFFFFFFFF
310
FFFFFFFFFFFFFFFFFFFFFFFFFFFFFFFFFFFFFFFFFFFFFFFFFFFFFFFFFFFFFFFF
310
FFFFFFFFFFFFFFFFFFFFFFFFFFFFFFFFFFFFFFFFFFFFFFFFFFFFFFFFFFFFFFFF
310
FFFFFFFFFFFFFFFFFFFFFFFFFFFFFFFFFFFFFFFFFFFFFFFFFFFFFFFFFFFFFFFF
310
FFFFFFFFFFFFFFFFFFFFFFFFFFFFFFFFFFFFFFFFFFFFFFFFFFFFFFFFFFFFFFFF
310
FFFFFFFFFFFFFFFFFFFFFFFFFFFFFFFFFFFFFFFFFFFFFFFFFFFFFFFFFFFFFFFF
310
0100000200000000000000000000000000000000000000000000000000000000
310
0000000000000000000000000000000000000000000000000000000000000000
310
0100FEFF030A0000FFFFFFFF0A00030000000000C00000000000004607000000
310
5042727573680007000000504272757368000700000050427275736800F439B2
310
7100000000000000000000000000000000000000000000000000000000000000
310
0000000000000000000000000000000000000000000000000000000000000000
310
0000000000000000000000000000000000000000000000000000000000000000
310
0000000000000000000000000000000000000000000000000000000000000000
310
0000000000000000000000000000000000000000000000000000000000000000
310
0000000000000000000000000000000000000000000000000000000000000000
310
0000000000000000000000000000000000000000000000000000000000000000
310
0000000000000000000000000000000000000000000000000000000000000000
310
0000000000000000000000000000000000000000000000000000000000000000
310
0000000000000000000000000000000000000000000000000000000000000000
310
0000000000000000000000000000000000000000000000000000000000000000
310
0000000000000000000000000000000000000000000000000000000000000000
310
E0110000424DDE11000000000000360400002800000096000000170000000100
310
08000000000000000000E7240000E72400000001000000010000000000FF0101
310
01FF020202FF030303FF040404FF050505FF060606FF070707FF080808FF0909
310
09FF0A0A0AFF0B0B0BFF0C0C0CFF0D0D0DFF0E0E0EFF0F0F0FFF101010FF1111
310
11FF121212FF131313FF141414FF151515FF161616FF171717FF181818FF1919
310
19FF1A1A1AFF1B1B1BFF1C1C1CFF1D1D1DFF1E1E1EFF1F1F1FFF202020FF2121
310
21FF222222FF232323FF242424FF252525FF262626FF272727FF282828FF2929
310
29FF2A2A2AFF2B2B2BFF2C2C2CFF2D2D2DFF2E2E2EFF2F2F2FFF303030FF3131
310
31FF323232FF333333FF343434FF353535FF363636FF373737FF383838FF3939
310
39FF3A3A3AFF3B3B3BFF3C3C3CFF3D3D3DFF3E3E3EFF3F3F3FFF404040FF4141
310
41FF424242FF434343FF444444FF454545FF464646FF474747FF484848FF4949
310
49FF4A4A4AFF4B4B4BFF4C4C4CFF4D4D4DFF4E4E4EFF4F4F4FFF505050FF5151
310
51FF525252FF535353FF545454FF555555FF565656FF575757FF585858FF5959
310
59FF5A5A5AFF5B5B5BFF5C5C5CFF5D5D5DFF5E5E5EFF5F5F5FFF606060FF6161
310
61FF626262FF636363FF646464FF656565FF666666FF676767FF686868FF6969
310
69FF6A6A6AFF6B6B6BFF6C6C6CFF6D6D6DFF6E6E6EFF6F6F6FFF707070FF7171
310
71FF727272FF737373FF747474FF757575FF767676FF777777FF787878FF7979
310
79FF7A7A7AFF7B7B7BFF7C7C7CFF7D7D7DFF7E7E7EFF7F7F7FFF808080FF8181
310
81FF828282FF838383FF848484FF858585FF868686FF878787FF888888FF8989
310
89FF8A8A8AFF8B8B8BFF8C8C8CFF8D8D8DFF8E8E8EFF8F8F8FFF909090FF9191
310
91FF929292FF939393FF949494FF959595FF969696FF979797FF989898FF9999
310
99FF9A9A9AFF9B9B9BFF9C9C9CFF9D9D9DFF9E9E9EFF9F9F9FFFA0A0A0FFA1A1
310
A1FFA2A2A2FFA3A3A3FFA4A4A4FFA5A5A5FFA6A6A6FFA7A7A7FFA8A8A8FFA9A9
310
A9FFAAAAAAFFABABABFFACACACFFADADADFFAEAEAEFFAFAFAFFFB0B0B0FFB1B1
310
B1FFB2B2B2FFB3B3B3FFB4B4B4FFB5B5B5FFB6B6B6FFB7B7B7FFB8B8B8FFB9B9
310
B9FFBABABAFFBBBBBBFFBCBCBCFFBDBDBDFFBEBEBEFFBFBFBFFFC0C0C0FFC1C1
310
C1FFC2C2C2FFC3C3C3FFC4C4C4FFC5C5C5FFC6C6C6FFC7C7C7FFC8C8C8FFC9C9
310
C9FFCACACAFFCBCBCBFFCCCCCCFFCDCDCDFFCECECEFFCFCFCFFFD0D0D0FFD1D1
310
D1FFD2D2D2FFD3D3D3FFD4D4D4FFD5D5D5FFD6D6D6FFD7D7D7FFD8D8D8FFD9D9
310
D9FFDADADAFFDBDBDBFFDCDCDCFFDDDDDDFFDEDEDEFFDFDFDFFFE0E0E0FFE1E1
310
E1FFE2E2E2FFE3E3E3FFE4E4E4FFE5E5E5FFE6E6E6FFE7E7E7FFE8E8E8FFE9E9
310
E9FFEAEAEAFFEBEBEBFFECECECFFEDEDEDFFEEEEEEFFEFEFEFFFF0F0F0FFF1F1
310
F1FFF2F2F2FFF3F3F3FFF4F4F4FFF5F5F5FFF6F6F6FFF7F7F7FFF8F8F8FFF9F9
310
F9FFFAFAFAFFFBFBFBFFFCFCFCFFFDFDFDFFFEFEFEFFFFFFFFFFFFFFFFFFFFFF
310
C94E4E4E4F4E4EFFFFFFFFFFC94E4E4E4E4E72FFFFFFFFFFFFFF734E4D4E4E4E
310
C9FFFFFFFFFFAA683516171616265B9BE9FFFFFFFFFF4E4E4E4D4E4EFFFFFFFF
310
FFFFFFFF4E4E4F4E4D4E4E4E4F4E4E4F4D4E4E4E4E4E4D4E4F4E4D4E4E4EAAFF
310
FFFFFFFFFFEA4E4F4F4E4E4E4E4E4D4D4F4F4E4E4E4E4E5B7FAAFFFFFFFFFFFF
310
C9744E1716171616164D8DEAFFFFFFFF0000FFFFFFFFFFFFBA161617161716FF
310
FFFFFFFFB917171616174FFFFFFFFFFFFFFF4E1716161616B9FFFFFFB9341717
310
1716171617171616268CFFFFFFFF161617161617FFFFFFFFFFFFFFB917161717
310
1617167F807F7F7F7F7F7F807F7F807F7F807F7F7F414EFFFFFFFFFFFF8C167F
310
7F807F7F7F7E7F7F807F807F7F807F4E3417258EFFFFEA4E162674AABAEAEBBA
310
AA74341680FFFFFF0000FFFFFFFFFFFFB9171717171617FFFFFFFFFFBB161616
310
16164EFFFFFFFFFFFFFF4E1717171717B9FFFF9C171617171716161616171616
310
171766FFFFFF161717161617FFFFFFFFFFFFFF8E16171717161616FFFFFFFFFF
310
FFFFFFFFFFFFFFFFFFFFFFFFFFAA16D9FFFFFFFFFF3467FFFFFFFFEAFFFFFFFF
310
FFFFFFFFFFFFFFFFFFCA671667EB26278DFFFFFFFFFFFFFFFFFFFF8C2541EAFF
310
0000FFFFFFFFFFFFB9171717171716FFFFFFFFFFBA16171617174EFFFFFFFFFF
310
FFFF4E1717161616BAFF9B1617161616171716171617161616161667FFFF1616
310
16161716FFFFFFFFFFFFFF7F16161617174017FFFFFFFFFFFFFFFFFFFFFFFFFF
310
FFFFFFFFFFFF344E7F7F7F7E7417DAFFFFFFFF80FFFFFFFFFFFFFFFFFFFFFFFF
310
FFFFFF9B163425CAFFFFFFFFFFFFFFFFFFFFFFFFCA2667FF0000FFFFFFFFFFFF
310
BA171717171617FFFFFFFFFFB916171716164EFFFFFFFFFFFFFF4F1716161717
310
B9C91716171616161716161617171616161617168DFF161716161717FFFFFFFF
310
FFFFFF7F17171716164F16FFFFFFFFFFFFFFFFFFFFFFFFFFFFFFFFFFFFFF9B16
310
17161617174EFFFFFFFFFF34FFFFFFFFD9BABABABABADAFFFFFFFFFF7F16AAFF
310
FFFFFFFFFFFFFFFFFFFFFFFFFF9C16BA0000FFFFFFFFFFFFB9161717161717FF
310
FFFFFFFFB917161716174DFFFFFFFFFFFFFF4E1616161616BA4E161617171716
310
419BEAEAAA4E16161617161726E9171717161616FFFFFFFFFFFFFF4F16161717
310
164E16FFFFFFFFFFBAB9B9B9B9B9BABABACAFFFFFFFFFFFFFFFFFFFFFFFFFFFF
310
FFFFBA16FFFFFFFF7F1617161617174DEAFFFFFFEA41FFFFFFFFFFAA4D16174E
310
9BFFFFFFFFFF34730000FFFFFFFFFFFFB9161617171617FFFFFFFFFFBA161616
310
16164EFFFFFFFFFFFFFF4F16161717169B1617161716175BFFFFFFFFFFFF7417
310
16171616168D171717161617FFFFFFFFFFFFEA2616171717167416FFFFFFFFFF
310
16171616171717171717EAFFFFFFFFFFFFFFFFFFFFFFFFFFFFFF6716FFFFFFFF
310
7F4EFFFFFFFFBA2573FFFFFFFFBAFFFFFFFFAA167FB9BB9B269BFFFFFFFF664F
310
0000FFFFFFFFFFFFB9171616161616FFFFFFFFFFBA16161717164EFFFFFFFFFF
310
FFFF4E16161616174E161617171626EAFFFFFFFFFFFFFF4E16161616164E1716
310
16161617FFFFFFFFFFFF671616161716347F16FFFFFFFFFF16B9FFFFFFFFFFFF
310
D9168DFFFFFFFFFFFFFFFFFFFFFFFFFFFFEA1716FFFFFFFF7F4EFFFFFFFFFF7F
310
4EFFFFFFFFFFFFFFFFFF5B66FFFFFFEA347FFFFFFFFF7F4D0000FFFFFFFFFFFF
310
B9171616171617FFFFFFFFFFBA17161716174EFFFFFFFFFFFFFF4D1716161617
310
17161716161673FFFFFFFFFFFFFFFF9B1617161717161616171616174F4E4E4E
310
4E341616171616167E7F16FFFFFFFFFF16BAFFFFFFFFFFFFFF5B41FFFFFFFF34
310
1616171616BAFFFFFF9B1716FFFFFFFF7F4EFFFFFFFFFF4E4EFFFFFFFF734E4E
310
4E4E267EDA9B67164EEAFFFFFFFF744D0000FFFFFFFFFFFFBA171717161617FF
310
FFFFFFFFBA1616171616347F7F7F7F80807F331616161717161717161716B9FF
310
FFFFFFFFFFFFFFE9161616161616171716161716171616161616171616171734
310
EA7F16FFFFFFFFFF16BAFFFFFFFFFFFFFFAA17C9FFFFFF7326BABA5B25FFFFFF
310
FF401716FFFFFFFF7F264F4E4E4E4217AAFFFFFFEA16677F73261616164173CA
310
FFFFFFFFFFFF417F0000FFFFFFFFFFFFBA171616171617FFFFFFFFFFBA161616
310
17171616161616161616161717161616161616161617EAFFFFFFFFFFFFFFFFFF
310
261717161716161617161616161617161617161616174EEAFF8016FFFFFFFFFF
310
17BAFFFFFFFFFFFFFFFF3467FFFFFFC916C9FF3467FFFFFFDA166716FFFFFFFF
310
9C4D4E4E4E4E67AAFFFFFFFF6834FF7F262567AAEAFFFFFFFFFFFFFFFF9B17D9
310
0000FFFFFFFFFFFFB9161616161616FFFFFFFFFFBA1617161717171616161616
310
1716171716161716161617171716FFFFFFFFFFFFFFFFFFFF4E17161716171616
310
1617171616161716171717161616169BFF7F17FFFFFFFFFF17B9FFFFFFFFFFFF
310
FFFF7326FFFFFFFF3473DA16AAFFFFFF7317AA16FFFFFFFFFFFFFFFFFFFFFFFF
310
FFFFEA6725BA4E167FEAFFFFFFFFFFFFFFFFFFFF9C167FFF0000FFFFFFFFFFFF
310
B9161717171716FFFFFFFFFFBA16161716171616171717161617161716161616
310
171617171617EAFFFFFFFFFFFFFFFFFF26161717161616161616161617171616
310
1616161616171616AA8016FFFFFFFFFF16BAFFFFFFFFFFFFFFFFDA179BFFFFFF
310
74348D26FFFFFFFF2566B917FFFFFFFFD8BAB9BAB9BADAFFFFEA41169B7425C9
310
FFFFFFFFFFFFFFFFFFFFAB4F1680FFFF0000FFFFFFFFFFFFBA161717171617FF
310
FFFFFFFFBA17161717161617171617161616161617171616171716171617BBFF
310
FFFFFFFFFFFFFFE9171616161617161617161716FFFFFFFFFFD9671616161617
310
348017FFFFFFFFFF16BAFFFFFFFFFFFFFFFFFF4E5AFFFFFFC916265AFFFFFFAA
310
16AABA16FFFFFFFF7F1617161616179BFFFFEB4127168DFFFFFFFFFFFFFFD99B
310
6734175AC9FFFFFF0000FFFFFFFFFFFFB9161617171617FFFFFFFFFFBB161616
310
1616347F807F7F7F7F8033171716171617171616161672FFFFFFFFFFFFFFFF9C
310
171617171617161716161617FFFFFFFFFFFFFF4117161616174E17FFFFFFFFFF
310
16BAFFFFFFFFFFFFFFFFFF9B16DAFFFFFF34169BFFFFFF5A26FFB917FFFFFFFF
310
7F4EFFFFFFEA5B26FFFFFFEA2616EAFFFFFFFFDA743416331617414E4E4E4ECA
310
0000FFFFFFFFFFFFBA161716161616FFFFFFFFFFBA17171616164EFFFFFFFFFF
310
FFFF4E16161717174E161717171626EBFFFFFFFFFFFFFF4E16161617165B1616
310
16171617FFFFFFFFFFFFFF6716161616161617FFFFFFFFFF16BAFFFFFFFFFFFF
310
FFFFFFEA268CFFFFFF7316EAFFFFEB1774FFB916FFFFFFFF7F4EFFFFFFFF7316
310
FFFFFFFF6826FFFFFFFFEB264D9CEABA257F807F7F6616BA0000FFFFFFFFFFFF
310
BA161716161616FFFFFFFFFFBA16171616164DFFFFFFFFFFFFFF4E1617161617
310
9B1617171717165BEBFFFFFFFFFF671616161617179B171616161616FFFFFFFF
310
FFFFFF3417161617171617FFFFFFFFFF17BAFFFFFFFFFFFFFFFFFFFF6734FFFF
310
FFEBCAFFFFFF8D17C9FFBA17FFFFFFFF7F357F808066174FFFFFFFFF7F16FFFF
310
FFFFD91673B99B415BFFFFFFFFBA16DA00009B7F7F7F807F671617161616167F
310
80807F7E6617161616164EFFFFFFFFFFFFFF4E1616161617B94E171716161616
310
349BC9D9AA4E16171616161634FF161617161717B9B9BAB9BA9B411716171716
310
163416FFFFFFFFFF16B9FFFFFFFFFFFFFFFFFFFFC917CAFFFFFFFFFFFFFF3342
310
FFFFBA17FFFFFFFF9B4E4E4F4E4E66EAFFFFFFFF5B16C9FFFFFFFFAA4E164E73
310
EAFFFFFFFF8D26FF00004E161716161616171617171616171717171617161616
310
17174EFFFFFFFFFFFFFF4E1717171616B9D92616171716171716171717171716
310
16171716AAFF161717171617161617171616161617161716166717FFFFFFFFFF
310
17B9FFFFFFFFFFFFFFFFFFFFFF3467FFFFFFFFFFFFCA168CFFFFBB17FFFFFFFF
310
FFFFFFFFFFFFFFFFFFFFFFEA26265BFFFFFFFFFFFFFFFFFFFFFFFFFFEA3467FF
310
00004D16161616161617161717161617161616171617171616164EFFFFFFFFFF
310
FFFF4D1617161616BAFF9B1616161616161716161616171717161766FFFF1616
310
16171617161617161716171616171717667F16FFFFFFFFFF17BAFFFFFFFFFFFF
310
FFFFFFFFFF8C26EAFFFFFFFFFF6617EAFFFFBA17FFFFFFFFFFFFFFFFFFFFFFFF
310
FFFFEA5A25BA269BFFFFFFFFFFFFFFFFFFFFFFFF6616DAFF00004E1616171616
310
1616161616161716161617171616171616174EFFFFFFFFFFFFFF4D1717171716
310
B9FFFF9C161616161616161716161717171667FFFFFF17161717171716161617
310
1716161616161641E97E16FFFFFFFFFF16B9FFFFFFFFFFFFFFFFFFFFFFEA169B
310
FFFFFFFFEA265BFFFFFFB916FFFFFFFFFFFFFFFFFFFFFFFFFF9B3416AAFF9B17
310
67EAFFFFFFFFFFFFFFFFEA5B169BFFFF00004D17161716161616161717171616
310
161717161716171716174EFFFFFFFFFFFFFF4D1616161616BAFFFFFFBB411616
310
161716161616171634ABFFFFFFFF161716161617171716171617171617267FFF
310
FF7F164E4E4E4E4F17BAFFFFFFFFFFFFFFFFFFFFFFFF66344D4E4E4F4117AAFF
310
FFFFBA174E4E4E4D4E4D4D4E4E4E4E4116174EBBFFFFFFCA342666ABEAFFFFEA
310
AA6725269CFFFFFF0000724F4E4D4D4D4E4D4D4E4E4E4D4E4E4E4E4E4E4E4E4D
310
4E4E74FFFFFFFFFFFFFF734E4E4E4D4ECAFFFFFFFFFFAA663416171717265B9B
310
FFFFFFFFFFFF7F8080807F80807F7F7F7F7F807FBAFFFFFFFF9B4E4E4F4D4D4E
310
4DC9FFFFFFFFFFFFFFFFFFFFFFFFBA4E4E4E4E4D4E4EFFFFFFFFC94E4E4E4F4E
310
4E4E4D4E4E5A807F9CD9FFFFFFFFFFFFFF9B5B2617171716174E8DEAFFFFFFFF
310
0000000000000000000000000000000000000000000000000000000000000000
  1
OLE
  0
ENDSEC
  0
SECTION
  2
OBJECTS
  0
DICTIONARY
  5
C
330
0
100
AcDbDictionary
281
     1
  3
ACAD_GROUP
350
D
  3
ACAD_LAYOUT
350
1A
  3
ACAD_MLINESTYLE
350
17
  3
ACAD_PLOTSETTINGS
350
19
  3
ACAD_PLOTSTYLENAME
350
E
  3
ACAD_SCALELIST
350
47
  0
DICTIONARY
  5
D
102
{ACAD_REACTORS
330
C
102
}
330
C
100
AcDbDictionary
281
     1
  0
DICTIONARY
  5
1A
102
{ACAD_REACTORS
330
C
102
}
330
C
100
AcDbDictionary
281
     1
  3
Layout1
350
1E
  3
Layout2
350
26
  3
Model
350
22
  0
DICTIONARY
  5
17
102
{ACAD_REACTORS
330
C
102
}
330
C
100
AcDbDictionary
281
     1
  3
Standard
350
18
  0
DICTIONARY
  5
19
102
{ACAD_REACTORS
330
C
102
}
330
C
100
AcDbDictionary
281
     1
  0
ACDBDICTIONARYWDFLT
  5
E
102
{ACAD_REACTORS
330
C
102
}
330
C
100
AcDbDictionary
281
     1
  3
Normal
350
F
100
AcDbDictionaryWithDefault
340
F
  0
DICTIONARY
  5
47
102
{ACAD_REACTORS
330
C
102
}
330
C
100
AcDbDictionary
281
     1
  3
A0
350
48
  3
A1
350
49
  3
A2
350
4A
  3
A3
350
4B
  3
A4
350
4C
  3
A5
350
4D
  3
A6
350
4E
  3
A7
350
4F
  3
A8
350
50
  3
A9
350
51
  3
B0
350
52
  3
B1
350
53
  3
B2
350
54
  3
B3
350
55
  3
B4
350
56
  3
B5
350
57
  3
B6
350
58
  3
B7
350
59
  3
B8
350
5A
  3
B9
350
5B
  3
C0
350
5C
  3
C1
350
5D
  3
C2
350
5E
  3
C3
350
5F
  3
C4
350
60
  3
C5
350
61
  3
C6
350
62
  3
C7
350
63
  3
C8
350
64
  3
C9
350
65
  3
D0
350
66
  3
D1
350
67
  3
D2
350
68
  0
LAYOUT
  5
1E
102
{ACAD_REACTORS
330
1A
102
}
330
1A
100
AcDbPlotSettings
  1

  2
none_device
  4

  6

 40
0.0
 41
0.0
 42
0.0
 43
0.0
 44
0.0
 45
0.0
 46
0.0
 47
0.0
 48
0.0
 49
0.0
140
0.0
141
0.0
142
1.0
143
1.0
 70
   688
 72
     0
 73
     0
 74
     5
  7

 75
    16
147
1.0
148
0.0
149
0.0
100
AcDbLayout
  1
Layout1
 70
     1
 71
     1
 10
0.0
 20
0.0
 11
12.0
 21
9.0
 12
0.0
 22
0.0
 32
0.0
 14
1.0000000000E+20
 24
1.0000000000E+20
 34
1.0000000000E+20
 15
-1.0000000000E+20
 25
-1.0000000000E+20
 35
-1.0000000000E+20
146
0.0
 13
0.0
 23
0.0
 33
0.0
 16
1.0
 26
0.0
 36
0.0
 17
0.0
 27
1.0
 37
0.0
 76
     0
330
1B
  0
LAYOUT
  5
26
102
{ACAD_REACTORS
330
1A
102
}
330
1A
100
AcDbPlotSettings
  1

  2
none_device
  4

  6

 40
0.0
 41
0.0
 42
0.0
 43
0.0
 44
0.0
 45
0.0
 46
0.0
 47
0.0
 48
0.0
 49
0.0
140
0.0
141
0.0
142
1.0
143
1.0
 70
   688
 72
     0
 73
     0
 74
     5
  7

 75
    16
147
1.0
148
0.0
149
0.0
100
AcDbLayout
  1
Layout2
 70
     1
 71
     2
 10
0.0
 20
0.0
 11
0.0
 21
0.0
 12
0.0
 22
0.0
 32
0.0
 14
0.0
 24
0.0
 34
0.0
 15
0.0
 25
0.0
 35
0.0
146
0.0
 13
0.0
 23
0.0
 33
0.0
 16
1.0
 26
0.0
 36
0.0
 17
0.0
 27
1.0
 37
0.0
 76
     0
330
23
  0
LAYOUT
  5
22
102
{ACAD_REACTORS
330
1A
102
}
330
1A
100
AcDbPlotSettings
  1

  2
none_device
  4
Letter_(8.50_x_11.00_Inches)
  6

 40
6.35
 41
6.35
 42
6.35000508
 43
6.35000508
 44
215.9
 45
279.4
 46
0.0
 47
0.0
 48
0.0
 49
0.0
140
0.0
141
0.0
142
1.0
143
1.0
 70
  1712
 72
     0
 73
     0
 74
     0
  7

 75
     0
147
1.0
148
0.0
149
0.0
100
AcDbLayout
  1
Model
 70
     1
 71
     0
 10
0.0
 20
0.0
 11
11.0
 21
8.5
 12
0.0
 22
0.0
 32
0.0
 14
0.0
 24
0.0
 34
0.0
 15
11.0
 25
8.5
 35
0.0
146
0.0
 13
0.0
 23
0.0
 33
0.0
 16
1.0
 26
0.0
 36
0.0
 17
0.0
 27
1.0
 37
0.0
 76
     0
330
1F
331
29
  0
MLINESTYLE
  5
18
102
{ACAD_REACTORS
330
17
102
}
330
17
100
AcDbMlineStyle
  2
Standard
 70
     0
  3

 62
   256
 51
90.0
 52
90.0
 71
     2
 49
0.5
 62
   256
  6
BYLAYER
 49
-0.5
 62
   256
  6
BYLAYER
  0
ACDBPLACEHOLDER
  5
F
102
{ACAD_REACTORS
330
E
102
}
330
E
  0
SCALE
  5
48
102
{ACAD_REACTORS
330
47
102
}
330
47
100
AcDbScale
 70
     0
300
1:1
140
1.0
141
1.0
290
     1
  0
SCALE
  5
49
102
{ACAD_REACTORS
330
47
102
}
330
47
100
AcDbScale
 70
     0
300
1:2
140
1.0
141
2.0
290
     0
  0
SCALE
  5
4A
102
{ACAD_REACTORS
330
47
102
}
330
47
100
AcDbScale
 70
     0
300
1:4
140
1.0
141
4.0
290
     0
  0
SCALE
  5
4B
102
{ACAD_REACTORS
330
47
102
}
330
47
100
AcDbScale
 70
     0
300
1:5
140
1.0
141
5.0
290
     0
  0
SCALE
  5
4C
102
{ACAD_REACTORS
330
47
102
}
330
47
100
AcDbScale
 70
     0
300
1:8
140
1.0
141
8.0
290
     0
  0
SCALE
  5
4D
102
{ACAD_REACTORS
330
47
102
}
330
47
100
AcDbScale
 70
     0
300
1:10
140
1.0
141
10.0
290
     0
  0
SCALE
  5
4E
102
{ACAD_REACTORS
330
47
102
}
330
47
100
AcDbScale
 70
     0
300
1:16
140
1.0
141
16.0
290
     0
  0
SCALE
  5
4F
102
{ACAD_REACTORS
330
47
102
}
330
47
100
AcDbScale
 70
     0
300
1:20
140
1.0
141
20.0
290
     0
  0
SCALE
  5
50
102
{ACAD_REACTORS
330
47
102
}
330
47
100
AcDbScale
 70
     0
300
1:30
140
1.0
141
30.0
290
     0
  0
SCALE
  5
51
102
{ACAD_REACTORS
330
47
102
}
330
47
100
AcDbScale
 70
     0
300
1:40
140
1.0
141
40.0
290
     0
  0
SCALE
  5
52
102
{ACAD_REACTORS
330
47
102
}
330
47
100
AcDbScale
 70
     0
300
1:50
140
1.0
141
50.0
290
     0
  0
SCALE
  5
53
102
{ACAD_REACTORS
330
47
102
}
330
47
100
AcDbScale
 70
     0
300
1:100
140
1.0
141
100.0
290
     0
  0
SCALE
  5
54
102
{ACAD_REACTORS
330
47
102
}
330
47
100
AcDbScale
 70
     0
300
2:1
140
2.0
141
1.0
290
     0
  0
SCALE
  5
55
102
{ACAD_REACTORS
330
47
102
}
330
47
100
AcDbScale
 70
     0
300
4:1
140
4.0
141
1.0
290
     0
  0
SCALE
  5
56
102
{ACAD_REACTORS
330
47
102
}
330
47
100
AcDbScale
 70
     0
300
8:1
140
8.0
141
1.0
290
     0
  0
SCALE
  5
57
102
{ACAD_REACTORS
330
47
102
}
330
47
100
AcDbScale
 70
     0
300
10:1
140
10.0
141
1.0
290
     0
  0
SCALE
  5
58
102
{ACAD_REACTORS
330
47
102
}
330
47
100
AcDbScale
 70
     0
300
100:1
140
100.0
141
1.0
290
     0
  0
SCALE
  5
59
102
{ACAD_REACTORS
330
47
102
}
330
47
100
AcDbScale
 70
     0
300
1/128" = 1'-0"
140
0.0078125
141
12.0
290
     0
  0
SCALE
  5
5A
102
{ACAD_REACTORS
330
47
102
}
330
47
100
AcDbScale
 70
     0
300
1/64" = 1'-0"
140
0.015625
141
12.0
290
     0
  0
SCALE
  5
5B
102
{ACAD_REACTORS
330
47
102
}
330
47
100
AcDbScale
 70
     0
300
1/32" = 1'-0"
140
0.03125
141
12.0
290
     0
  0
SCALE
  5
5C
102
{ACAD_REACTORS
330
47
102
}
330
47
100
AcDbScale
 70
     0
300
1/16" = 1'-0"
140
0.0625
141
12.0
290
     0
  0
SCALE
  5
5D
102
{ACAD_REACTORS
330
47
102
}
330
47
100
AcDbScale
 70
     0
300
3/32" = 1'-0"
140
0.09375
141
12.0
290
     0
  0
SCALE
  5
5E
102
{ACAD_REACTORS
330
47
102
}
330
47
100
AcDbScale
 70
     0
300
1/8" = 1'-0"
140
0.125
141
12.0
290
     0
  0
SCALE
  5
5F
102
{ACAD_REACTORS
330
47
102
}
330
47
100
AcDbScale
 70
     0
300
3/16" = 1'-0"
140
0.1875
141
12.0
290
     0
  0
SCALE
  5
60
102
{ACAD_REACTORS
330
47
102
}
330
47
100
AcDbScale
 70
     0
300
1/4" = 1'-0"
140
0.25
141
12.0
290
     0
  0
SCALE
  5
61
102
{ACAD_REACTORS
330
47
102
}
330
47
100
AcDbScale
 70
     0
300
3/8" = 1'-0"
140
0.375
141
12.0
290
     0
  0
SCALE
  5
62
102
{ACAD_REACTORS
330
47
102
}
330
47
100
AcDbScale
 70
     0
300
1/2" = 1'-0"
140
0.5
141
12.0
290
     0
  0
SCALE
  5
63
102
{ACAD_REACTORS
330
47
102
}
330
47
100
AcDbScale
 70
     0
300
3/4" = 1'-0"
140
0.75
141
12.0
290
     0
  0
SCALE
  5
64
102
{ACAD_REACTORS
330
47
102
}
330
47
100
AcDbScale
 70
     0
300
1" = 1'-0"
140
1.0
141
12.0
290
     0
  0
SCALE
  5
65
102
{ACAD_REACTORS
330
47
102
}
330
47
100
AcDbScale
 70
     0
300
1-1/2" = 1'-0"
140
1.5
141
12.0
290
     0
  0
SCALE
  5
66
102
{ACAD_REACTORS
330
47
102
}
330
47
100
AcDbScale
 70
     0
300
3" = 1'-0"
140
3.0
141
12.0
290
     0
  0
SCALE
  5
67
102
{ACAD_REACTORS
330
47
102
}
330
47
100
AcDbScale
 70
     0
300
6" = 1'-0"
140
6.0
141
12.0
290
     0
  0
SCALE
  5
68
102
{ACAD_REACTORS
330
47
102
}
330
47
100
AcDbScale
 70
     0
300
1'-0" = 1'-0"
140
12.0
141
12.0
290
     0
  0
ENDSEC
  0
EOF
