  0
SECTION
  2
HEADER
  9
$ACADVER
  1
AC1015
  9
$ACADMAINTVER
 70
     6
  9
$DWGCODEPAGE
  3
ANSI_1252
  9
$INSBASE
 10
0.0
 20
0.0
 30
0.0
  9
$EXTMIN
 10
0.0
 20
0.0
 30
0.0
  9
$EXTMAX
 10
279.4
 20
215.9
 30
0.0
  9
$LIMMIN
 10
0.0
 20
0.0
  9
$LIMMAX
 10
279.4
 20
215.9
  9
$ORTHOMODE
 70
     0
  9
$REGENMODE
 70
     1
  9
$FILLMODE
 70
     1
  9
$QTEXTMODE
 70
     0
  9
$MIRRTEXT
 70
     1
  9
$LTSCALE
 40
1.0
  9
$ATTMODE
 70
     1
  9
$TEXTSIZE
 40
2.8222222222
  9
$TRACEWID
 40
1.0
  9
$TEXTSTYLE
  7
Standard
  9
$CLAYER
  8
0
  9
$CELTYPE
  6
ByLayer
  9
$CECOLOR
 62
   256
  9
$CELTSCALE
 40
1.0
  9
$DISPSILH
 70
     0
  9
$DIMSCALE
 40
1.0
  9
$DIMASZ
 40
3.175
  9
$DIMEXO
 40
1.27
  9
$DIMDLI
 40
3.75
  9
$DIMRND
 40
0.0
  9
$DIMDLE
 40
0.0
  9
$DIMEXE
 40
1.778
  9
$DIMTP
 40
0.0
  9
$DIMTM
 40
0.0
  9
$DIMTXT
 40
2.8222222222
  9
$DIMCEN
 40
2.5
  9
$DIMTSZ
 40
0.0
  9
$DIMTOL
 70
     0
  9
$DIMLIM
 70
     0
  9
$DIMTIH
 70
     1
  9
$DIMTOH
 70
     1
  9
$DIMSE1
 70
     0
  9
$DIMSE2
 70
     0
  9
$DIMTAD
 70
     0
  9
$DIMZIN
 70
     1
  9
$DIMBLK
  1

  9
$DIMASO
 70
     1
  9
$DIMSHO
 70
     1
  9
$DIMPOST
  1

  9
$DIMAPOST
  1

  9
$DIMALT
 70
     0
  9
$DIMALTD
 70
     3
  9
$DIMALTF
 40
0.0393700787
  9
$DIMLFAC
 40
1.0
  9
$DIMTOFL
 70
     1
  9
$DIMTVP
 40
0.0
  9
$DIMTIX
 70
     0
  9
$DIMSOXD
 70
     0
  9
$DIMSAH
 70
     0
  9
$DIMBLK1
  1

  9
$DIMBLK2
  1

  9
$DIMSTYLE
  2
ISO-25
  9
$DIMCLRD
 70
     0
  9
$DIMCLRE
 70
     0
  9
$DIMCLRT
 70
     0
  9
$DIMTFAC
 40
1.0
  9
$DIMGAP
 40
2.54
  9
$DIMJUST
 70
     0
  9
$DIMSD1
 70
     0
  9
$DIMSD2
 70
     0
  9
$DIMTOLJ
 70
     0
  9
$DIMTZIN
 70
     1
  9
$DIMALTZ
 70
     0
  9
$DIMALTTZ
 70
     0
  9
$DIMUPT
 70
     0
  9
$DIMDEC
 70
     1
  9
$DIMTDEC
 70
     1
  9
$DIMALTU
 70
     2
  9
$DIMALTTD
 70
     3
  9
$DIMTXSTY
  7
Standard
  9
$DIMAUNIT
 70
     0
  9
$DIMADEC
 70
     0
  9
$DIMALTRND
 40
0.0
  9
$DIMAZIN
 70
     0
  9
$DIMDSEP
 70
    44
  9
$DIMATFIT
 70
     3
  9
$DIMFRAC
 70
     0
  9
$DIMLDRBLK
  1

  9
$DIMLUNIT
 70
     2
  9
$DIMLWD
 70
    -2
  9
$DIMLWE
 70
    -2
  9
$DIMTMOVE
 70
     0
  9
$LUNITS
 70
     2
  9
$LUPREC
 70
     1
  9
$SKETCHINC
 40
1.0
  9
$FILLETRAD
 40
10.0
  9
$AUNITS
 70
     0
  9
$AUPREC
 70
     0
  9
$MENU
  1
.
  9
$ELEVATION
 40
0.0
  9
$PELEVATION
 40
0.0
  9
$THICKNESS
 40
0.0
  9
$LIMCHECK
 70
     0
  9
$CHAMFERA
 40
0.0
  9
$CHAMFERB
 40
0.0
  9
$CHAMFERC
 40
0.0
  9
$CHAMFERD
 40
0.0
  9
$SKPOLY
 70
     0
  9
$TDCREATE
 40
2458470.645074907
  9
$TDUCREATE
 40
2458470.853408241
  9
$TDUPDATE
 40
2458470.645083901
  9
$TDUUPDATE
 40
2458470.853417234
  9
$TDINDWG
 40
0.0000000116
  9
$TDUSRTIMER
 40
0.0000000116
  9
$USRTIMER
 70
     1
  9
$ANGBASE
 50
0.0
  9
$ANGDIR
 70
     0
  9
$PDMODE
 70
     0
  9
$PDSIZE
 40
-1.0
  9
$PLINEWID
 40
0.0
  9
$SPLFRAME
 70
     0
  9
$SPLINETYPE
 70
     6
  9
$SPLINESEGS
 70
     8
  9
$HANDSEED
  5
26C
  9
$SURFTAB1
 70
     6
  9
$SURFTAB2
 70
     6
  9
$SURFTYPE
 70
     6
  9
$SURFU
 70
     6
  9
$SURFV
 70
     6
  9
$UCSBASE
  2

  9
$UCSNAME
  2

  9
$UCSORG
 10
0.0
 20
0.0
 30
0.0
  9
$UCSXDIR
 10
1.0
 20
0.0
 30
0.0
  9
$UCSYDIR
 10
0.0
 20
1.0
 30
0.0
  9
$UCSORTHOREF
  2

  9
$UCSORTHOVIEW
 70
     0
  9
$UCSORGTOP
 10
0.0
 20
0.0
 30
0.0
  9
$UCSORGBOTTOM
 10
0.0
 20
0.0
 30
0.0
  9
$UCSORGLEFT
 10
0.0
 20
0.0
 30
0.0
  9
$UCSORGRIGHT
 10
0.0
 20
0.0
 30
0.0
  9
$UCSORGFRONT
 10
0.0
 20
0.0
 30
0.0
  9
$UCSORGBACK
 10
0.0
 20
0.0
 30
0.0
  9
$PUCSBASE
  2

  9
$PUCSNAME
  2

  9
$PUCSORG
 10
0.0
 20
0.0
 30
0.0
  9
$PUCSXDIR
 10
1.0
 20
0.0
 30
0.0
  9
$PUCSYDIR
 10
0.0
 20
1.0
 30
0.0
  9
$PUCSORTHOREF
  2

  9
$PUCSORTHOVIEW
 70
     0
  9
$PUCSORGTOP
 10
0.0
 20
0.0
 30
0.0
  9
$PUCSORGBOTTOM
 10
0.0
 20
0.0
 30
0.0
  9
$PUCSORGLEFT
 10
0.0
 20
0.0
 30
0.0
  9
$PUCSORGRIGHT
 10
0.0
 20
0.0
 30
0.0
  9
$PUCSORGFRONT
 10
0.0
 20
0.0
 30
0.0
  9
$PUCSORGBACK
 10
0.0
 20
0.0
 30
0.0
  9
$USERI1
 70
     0
  9
$USERI2
 70
     0
  9
$USERI3
 70
     0
  9
$USERI4
 70
     0
  9
$USERI5
 70
     0
  9
$USERR1
 40
0.0
  9
$USERR2
 40
0.0
  9
$USERR3
 40
0.0
  9
$USERR4
 40
0.0
  9
$USERR5
 40
0.0
  9
$WORLDVIEW
 70
     1
  9
$SHADEDGE
 70
     3
  9
$SHADEDIF
 70
    70
  9
$TILEMODE
 70
     1
  9
$MAXACTVP
 70
    64
  9
$PINSBASE
 10
0.0
 20
0.0
 30
0.0
  9
$PLIMCHECK
 70
     0
  9
$PEXTMIN
 10
1.0000000000E+20
 20
1.0000000000E+20
 30
1.0000000000E+20
  9
$PEXTMAX
 10
-1.0000000000E+20
 20
-1.0000000000E+20
 30
-1.0000000000E+20
  9
$PLIMMIN
 10
0.0
 20
0.0
  9
$PLIMMAX
 10
420.0
 20
297.0
  9
$UNITMODE
 70
     0
  9
$VISRETAIN
 70
     1
  9
$PLINEGEN
 70
     0
  9
$PSLTSCALE
 70
     1
  9
$TREEDEPTH
 70
  3020
  9
$CMLSTYLE
  2
Standard
  9
$CMLJUST
 70
     0
  9
$CMLSCALE
 40
20.0
  9
$PROXYGRAPHICS
 70
     1
  9
$MEASUREMENT
 70
     1
  9
$CELWEIGHT
370
    -1
  9
$ENDCAPS
280
     0
  9
$JOINSTYLE
280
     0
  9
$LWDISPLAY
290
     1
  9
$INSUNITS
 70
     4
  9
$HYPERLINKBASE
  1

  9
$STYLESHEET
  1

  9
$XEDIT
290
     1
  9
$CEPSNTYPE
380
     0
  9
$PSTYLEMODE
290
     1
  9
$FINGERPRINTGUID
  2
{6F159A44-8177-47EE-92B1-B6833300C311}
  9
$VERSIONGUID
  2
{FAEB1C32-E019-11D5-929B-00C0DF256EC4}
  9
$EXTNAMES
290
     1
  9
$PSVPSCALE
 40
0.0
  9
$OLESTARTUP
290
     0
  0
ENDSEC
  0
SECTION
  2
CLASSES
  0
CLASS
  1
ACDBDICTIONARYWDFLT
  2
AcDbDictionaryWithDefault
  3
ObjectDBX Classes
 90
        0
280
     0
281
     0
  0
CLASS
  1
VISUALSTYLE
  2
AcDbVisualStyle
  3
ObjectDBX Classes
 90
     4095
280
     0
281
     0
  0
CLASS
  1
MATERIAL
  2
AcDbMaterial
  3
ObjectDBX Classes
 90
     1153
280
     0
281
     0
  0
CLASS
  1
SCALE
  2
AcDbScale
  3
ObjectDBX Classes
 90
     1153
280
     0
281
     0
  0
CLASS
  1
TABLESTYLE
  2
AcDbTableStyle
  3
ObjectDBX Classes
 90
     4095
280
     0
281
     0
  0
CLASS
  1
MLEADERSTYLE
  2
AcDbMLeaderStyle
  3
ACDB_MLEADERSTYLE_CLASS
 90
     4095
280
     0
281
     0
  0
CLASS
  1
SUN
  2
AcDbSun
  3
SCENEOE
 90
     1153
280
     0
281
     0
  0
CLASS
  1
ACDBPLACEHOLDER
  2
AcDbPlaceHolder
  3
ObjectDBX Classes
 90
        0
280
     0
281
     0
  0
CLASS
  1
LAYOUT
  2
AcDbLayout
  3
ObjectDBX Classes
 90
        0
280
     0
281
     0
  0
ENDSEC
  0
SECTION
  2
TABLES
  0
TABLE
  2
VPORT
  5
8
330
0
100
AcDbSymbolTable
 70
     1
  0
VPORT
  5
29
330
8
100
AcDbSymbolTableRecord
100
AcDbViewportTableRecord
  2
*Active
 70
     0
 10
0.0
 20
0.0
 11
1.0
 21
1.0
 12
139.7
 22
107.95
 13
0.0
 23
0.0
 14
10.0
 24
10.0
 15
10.0
 25
10.0
 16
0.0
 26
0.0
 36
1.0
 17
0.0
 27
0.0
 37
0.0
 40
215.9
 41
1.2941176471
 42
50.0
 43
0.0
 44
0.0
 50
0.0
 51
0.0
 71
     0
 72
  2000
 73
     1
 74
     3
 75
     0
 76
     0
 77
     0
 78
     0
281
     0
 65
     1
110
0.0
120
0.0
130
0.0
111
1.0
121
0.0
131
0.0
112
0.0
122
1.0
132
0.0
 79
     0
146
0.0
  0
ENDTAB
  0
TABLE
  2
LTYPE
  5
5
330
0
100
AcDbSymbolTable
 70
     6
  0
LTYPE
  5
14
330
5
100
AcDbSymbolTableRecord
100
AcDbLinetypeTableRecord
  2
ByBlock
 70
     0
  3

 72
    65
 73
     0
 40
0.0
  0
LTYPE
  5
15
330
5
100
AcDbSymbolTableRecord
100
AcDbLinetypeTableRecord
  2
ByLayer
 70
     0
  3

 72
    65
 73
     0
 40
0.0
  0
LTYPE
  5
16
330
5
100
AcDbSymbolTableRecord
100
AcDbLinetypeTableRecord
  2
Continuous
 70
     0
  3
Solid line
 72
    65
 73
     0
 40
0.0
  0
LTYPE
  5
6E
330
5
100
AcDbSymbolTableRecord
100
AcDbLinetypeTableRecord
  2
HIDDEN
 70
     0
  3
Hidden __ __ __ __ __ __ __ __ __ __ __ __ __ __
 72
    65
 73
     2
 40
1.905
 49
1.27
 74
     0
 49
-0.635
 74
     0
  0
LTYPE
  5
6F
330
5
100
AcDbSymbolTableRecord
100
AcDbLinetypeTableRecord
  2
PHANTOM
 70
     0
  3
Phantom ______  __  __  ______  __  __  ______
 72
    65
 73
     6
 40
12.7
 49
6.35
 74
     0
 49
-1.27
 74
     0
 49
1.27
 74
     0
 49
-1.27
 74
     0
 49
1.27
 74
     0
 49
-1.27
 74
     0
  0
LTYPE
  5
70
330
5
100
AcDbSymbolTableRecord
100
AcDbLinetypeTableRecord
  2
CENTER
 70
     0
  3
Center ____ _ ____ _ ____ _ ____ _ ____ _ ____
 72
    65
 73
     4
 40
10.16
 49
6.35
 74
     0
 49
-1.27
 74
     0
 49
1.27
 74
     0
 49
-1.27
 74
     0
  0
LTYPE
  5
71
330
5
100
AcDbSymbolTableRecord
100
AcDbLinetypeTableRecord
  2
CENTERX2
 70
     0
  3
Center (2x) ________  __  ________  __  _____
 72
    65
 73
     4
 40
20.32
 49
12.7
 74
     0
 49
-2.54
 74
     0
 49
2.54
 74
     0
 49
-2.54
 74
     0
  0
LTYPE
  5
72
330
5
100
AcDbSymbolTableRecord
100
AcDbLinetypeTableRecord
  2
DOT2
 70
     0
  3
Dot (.5x) ........................................
 72
    65
 73
     2
 40
0.635
 49
0.0
 74
     0
 49
-0.635
 74
     0
  0
ENDTAB
  0
TABLE
  2
LAYER
  5
2
330
0
100
AcDbSymbolTable
 70
     2
  0
LAYER
  5
10
330
2
100
AcDbSymbolTableRecord
100
AcDbLayerTableRecord
  2
0
 70
     0
 62
     7
  6
Continuous
370
    -3
390
F
  0
LAYER
  5
73
330
2
100
AcDbSymbolTableRecord
100
AcDbLayerTableRecord
  2
FORMAT
 70
     0
 62
     7
  6
Continuous
370
    -3
390
F
  0
ENDTAB
  0
TABLE
  2
STYLE
  5
3
330
0
100
AcDbSymbolTable
 70
     5
  0
STYLE
  5
11
330
3
100
AcDbSymbolTableRecord
100
AcDbTextStyleTableRecord
  2
Standard
 70
     0
 40
0.0
 41
1.0
 50
0.0
 71
     0
 42
2.8222222222
  3
txt
  4

  0
STYLE
  5
9D
330
3
100
AcDbSymbolTableRecord
100
AcDbTextStyleTableRecord
  2
SLDTEXTSTYLE0
 70
     0
 40
0.0
 41
0.75
 50
0.0
 71
     0
 42
2.8222222222
  3
TXT
  4

  0
STYLE
  5
A3
330
3
100
AcDbSymbolTableRecord
100
AcDbTextStyleTableRecord
  2
SLDTEXTSTYLE1
 70
     0
 40
0.0
 41
0.75
 50
0.0
 71
     0
 42
2.8222222222
  3
TXT
  4
bigfont
  0
STYLE
  5
B6
330
3
100
AcDbSymbolTableRecord
100
AcDbTextStyleTableRecord
  2
SLDTEXTSTYLE2
 70
     0
 40
0.0
 41
0.7
 50
0.0
 71
     0
 42
2.8222222222
  3
TXT
  4

  0
STYLE
  5
C5
330
3
100
AcDbSymbolTableRecord
100
AcDbTextStyleTableRecord
  2
SLDTEXTSTYLE3
 70
     0
 40
0.0
 41
0.6
 50
0.0
 71
     0
 42
2.8222222222
  3
TXT
  4

  0
ENDTAB
  0
TABLE
  2
VIEW
  5
6
330
0
100
AcDbSymbolTable
 70
     0
  0
ENDTAB
  0
TABLE
  2
UCS
  5
7
330
0
100
AcDbSymbolTable
 70
     0
  0
ENDTAB
  0
TABLE
  2
APPID
  5
9
330
0
100
AcDbSymbolTable
 70
     1
  0
APPID
  5
12
330
9
100
AcDbSymbolTableRecord
100
AcDbRegAppTableRecord
  2
ACAD
 70
     0
  0
ENDTAB
  0
TABLE
  2
DIMSTYLE
  5
A
330
0
100
AcDbSymbolTable
 70
     6
100
AcDbDimStyleTable
  0
DIMSTYLE
105
27
330
A
100
AcDbSymbolTableRecord
100
AcDbDimStyleTableRecord
  2
ISO-25
 70
     0
 41
2.5
 42
0.625
 43
3.75
 44
1.25
 73
     0
 74
     0
 77
     1
 78
     8
140
2.5
141
2.5
143
0.0393700787
147
0.625
171
     3
172
     1
178
     0
271
     2
272
     2
274
     3
278
    44
283
     0
284
     8
340
11
  0
DIMSTYLE
105
F4
102
{ACAD_REACTORS
330
F3
102
}
330
A
100
AcDbSymbolTableRecord
100
AcDbDimStyleTableRecord
  2
SLDDIMSTYLE0
 70
     0
 41
3.175
 44
0.0
 45
0.000000001
 78
    12
 79
     3
140
2.1166666667
141
0.0
143
0.0393700787
147
0.5291666667
148
0.000000001
170
     1
173
     1
178
     0
271
     1
272
     1
276
     2
284
    12
340
9D
  0
DIMSTYLE
105
11B
102
{ACAD_REACTORS
330
11A
102
}
330
A
100
AcDbSymbolTableRecord
100
AcDbDimStyleTableRecord
  2
SLDDIMSTYLE1
 70
     0
 41
3.175
 44
0.0
 45
0.000000001
 78
    12
 79
     3
140
2.1166666667
143
0.0393700787
147
0.5291666667
148
0.000000001
170
     1
172
     1
173
     1
178
     0
271
     1
272
     1
276
     2
284
    12
289
     0
340
9D
  0
DIMSTYLE
105
12F
102
{ACAD_REACTORS
330
12E
102
}
330
A
100
AcDbSymbolTableRecord
100
AcDbDimStyleTableRecord
  2
SLDDIMSTYLE2
 70
     0
 41
3.175
 44
0.0
 45
0.000000001
 78
     4
 79
     1
140
2.1166666667
141
0.0
143
0.0393700787
147
0.5291666667
148
0.000000001
170
     1
173
     1
178
     0
271
     1
272
     1
276
     2
284
    12
340
9D
  0
DIMSTYLE
105
140
102
{ACAD_REACTORS
330
13F
102
}
330
A
100
AcDbSymbolTableRecord
100
AcDbDimStyleTableRecord
  2
SLDDIMSTYLE3
 70
     0
 41
3.175
 44
0.0
 45
0.000000001
 78
     4
 79
     1
140
2.1166666667
143
0.0393700787
147
0.5291666667
148
0.000000001
170
     1
172
     1
173
     1
178
     0
271
     1
272
     1
276
     2
284
    12
289
     0
340
9D
  0
DIMSTYLE
105
156
330
A
100
AcDbSymbolTableRecord
100
AcDbDimStyleTableRecord
  2
SLDDIMSTYLE4
 70
     0
 41
3.175
 44
0.0
 45
0.000000001
146
3.175
147
0.0
173
     1
178
     0
271
     0
272
     0
276
     2
340
11
  0
ENDTAB
  0
TABLE
  2
BLOCK_RECORD
  5
1
330
0
100
AcDbSymbolTable
 70
    11
  0
BLOCK_RECORD
  5
1F
330
1
100
AcDbSymbolTableRecord
100
AcDbBlockTableRecord
  2
*Model_Space
340
22
  0
BLOCK_RECORD
  5
1B
330
1
100
AcDbSymbolTableRecord
100
AcDbBlockTableRecord
  2
*Paper_Space
340
1E
  0
BLOCK_RECORD
  5
23
330
1
100
AcDbSymbolTableRecord
100
AcDbBlockTableRecord
  2
*Paper_Space0
340
26
  0
BLOCK_RECORD
  5
74
330
1
100
AcDbSymbolTableRecord
100
AcDbBlockTableRecord
  2
Third Angle Projection Block
340
0
102
{BLKREFS
331
99
102
}
  0
BLOCK_RECORD
  5
9A
330
1
100
AcDbSymbolTableRecord
100
AcDbBlockTableRecord
  2
SW_NOTE_0
340
0
102
{BLKREFS
331
B9
102
}
  0
BLOCK_RECORD
  5
CB
330
1
100
AcDbSymbolTableRecord
100
AcDbBlockTableRecord
  2
SW_NOTE_1
340
0
102
{BLKREFS
331
D0
102
}
  0
BLOCK_RECORD
  5
D1
330
1
100
AcDbSymbolTableRecord
100
AcDbBlockTableRecord
  2
SW_NOTE_2
340
0
102
{BLKREFS
331
D6
102
}
  0
BLOCK_RECORD
  5
D8
330
1
100
AcDbSymbolTableRecord
100
AcDbBlockTableRecord
  2
SW_NOTE_3
340
0
102
{BLKREFS
331
DD
102
}
  0
BLOCK_RECORD
  5
DE
330
1
100
AcDbSymbolTableRecord
100
AcDbBlockTableRecord
  2
SW_NOTE_4
340
0
102
{BLKREFS
331
E4
102
}
  0
BLOCK_RECORD
  5
F5
330
1
100
AcDbSymbolTableRecord
100
AcDbBlockTableRecord
  2
_D
340
0
  0
BLOCK_RECORD
  5
11C
330
1
100
AcDbSymbolTableRecord
100
AcDbBlockTableRecord
  2
_D_1
340
0
  0
BLOCK_RECORD
  5
130
330
1
100
AcDbSymbolTableRecord
100
AcDbBlockTableRecord
  2
_D_2
340
0
  0
BLOCK_RECORD
  5
141
330
1
100
AcDbSymbolTableRecord
100
AcDbBlockTableRecord
  2
_D_3
340
0
  0
ENDTAB
  0
ENDSEC
  0
SECTION
  2
BLOCKS
  0
BLOCK
  5
20
330
1F
100
AcDbEntity
  8
0
100
AcDbBlockBegin
  2
*Model_Space
 70
     0
 10
0.0
 20
0.0
 30
0.0
  3
*Model_Space
  1

  0
ENDBLK
  5
21
330
1F
100
AcDbEntity
  8
0
100
AcDbBlockEnd
  0
BLOCK
  5
1C
330
1B
100
AcDbEntity
 67
     1
  8
0
100
AcDbBlockBegin
  2
*Paper_Space
 70
     0
 10
0.0
 20
0.0
 30
0.0
  3
*Paper_Space
  1

  0
ENDBLK
  5
1D
330
1B
100
AcDbEntity
 67
     1
  8
0
100
AcDbBlockEnd
  0
BLOCK
  5
24
330
23
100
AcDbEntity
  8
0
100
AcDbBlockBegin
  2
*Paper_Space0
 70
     0
 10
0.0
 20
0.0
 30
0.0
  3
*Paper_Space0
  1

  0
ENDBLK
  5
25
330
23
100
AcDbEntity
  8
0
100
AcDbBlockEnd
  0
BLOCK
  5
75
330
74
100
AcDbEntity
  8
0
100
AcDbBlockBegin
  2
Third Angle Projection Block
 70
     0
 10
0.0
 20
0.0
 30
0.0
  3
Third Angle Projection Block
  1

  0
CIRCLE
  5
77
330
74
100
AcDbEntity
  8
0
  6
Continuous
 62
     7
370
    35
100
AcDbCircle
 10
101.4766388944
 20
18.9404083667
 30
0.0
 40
1.768227153674871
  0
CIRCLE
  5
78
330
74
100
AcDbEntity
  8
0
  6
Continuous
 62
     7
370
    35
100
AcDbCircle
 10
101.4766388944
 20
18.9404083667
 30
0.0
 40
3.901228248531818
  0
LINE
  5
79
330
74
100
AcDbEntity
  8
0
  6
CENTERX2
 62
     7
370
    18
100
AcDbLine
 10
110.1367822585
 20
18.9404083667
 30
0.0
 11
119.4527334874
 21
18.9404083667
 31
0.0
  0
LINE
  5
7A
330
74
100
AcDbEntity
  8
0
  6
Continuous
 62
     7
370
    35
100
AcDbLine
 10
111.0016388944
 20
20.7086355204
 30
0.0
 11
111.0016388944
 21
17.172181213
 31
0.0
  0
LINE
  5
7B
330
74
100
AcDbEntity
  8
0
  6
Continuous
 62
     7
370
    35
100
AcDbLine
 10
111.0016388944
 20
17.172181213
 30
0.0
 11
118.6216388944
 21
15.1304083667
 31
0.0
  0
LINE
  5
7C
330
74
100
AcDbEntity
  8
0
  6
Continuous
 62
     7
370
    35
100
AcDbLine
 10
118.6216388944
 20
15.1304083667
 30
0.0
 11
118.6216388944
 21
22.7504083667
 31
0.0
  0
LINE
  5
7D
330
74
100
AcDbEntity
  8
0
  6
Continuous
 62
     7
370
    35
100
AcDbLine
 10
118.6216388944
 20
22.7504083667
 30
0.0
 11
111.0016388944
 21
20.7086355204
 31
0.0
  0
LINE
  5
7E
330
74
100
AcDbEntity
  8
0
  6
CENTERX2
 62
     7
370
    18
100
AcDbLine
 10
96.6025854619
 20
18.9404083667
 30
0.0
 11
106.3506923269
 21
18.9404083667
 31
0.0
  0
LINE
  5
7F
330
74
100
AcDbEntity
  8
0
  6
CENTERX2
 62
     7
370
    18
100
AcDbLine
 10
101.4766388944
 20
23.8144617992
 30
0.0
 11
101.4766388944
 21
14.0663549342
 31
0.0
  0
POINT
  5
80
330
74
100
AcDbEntity
  8
0
  6
Continuous
 62
     7
370
     0
100
AcDbPoint
 10
101.4766388944
 20
18.9404083667
 30
0.0
  0
ENDBLK
  5
76
330
74
100
AcDbEntity
  8
0
100
AcDbBlockEnd
  0
BLOCK
  5
9B
330
9A
100
AcDbEntity
  8
0
100
AcDbBlockBegin
  2
SW_NOTE_0
 70
     0
 10
0.0
 20
0.0
 30
0.0
  3
SW_NOTE_0
  1

  0
MTEXT
  5
9E
330
9A
100
AcDbEntity
  8
0
  6
Continuous
 62
     0
370
     0
100
AcDbMText
 10
0.0
 20
3.4106583948
 30
0.0
 40
2.6458333333
 41
0.0
 71
     1
 72
     1
  1
NOTES/SPECIFICATIONS:
  7
SLDTEXTSTYLE0
 73
     1
 44
1.0
  0
MTEXT
  5
9F
330
9A
100
AcDbEntity
  8
0
  6
Continuous
 62
     0
370
     0
100
AcDbMText
 10
9.9999997765
 20
-5.6448974033
 30
0.0
 40
2.6458333333
 41
0.0
 71
     1
 72
     1
  1
CLEAR APERTURE: >
  7
SLDTEXTSTYLE0
 73
     1
 44
1.0
  0
MTEXT
  5
A0
330
9A
100
AcDbEntity
  8
0
  6
Continuous
 62
     0
370
     0
100
AcDbMText
 10
42.7789334208
 20
-5.6448974033
 30
0.0
 40
2.6458333333
 41
0.0
 71
     1
 72
     1
  1
%%c
  7
SLDTEXTSTYLE0
 73
     1
 44
1.0
  0
MTEXT
  5
A1
330
9A
100
AcDbEntity
  8
0
  6
Continuous
 62
     0
370
     0
100
AcDbMText
 10
46.7726718634
 20
-5.6448974033
 30
0.0
 40
2.6458333333
 41
0.0
 71
     1
 72
     1
  1
45.72mm
  7
SLDTEXTSTYLE0
 73
     1
 44
1.0
  0
MTEXT
  5
A2
330
9A
100
AcDbEntity
  8
0
  6
Continuous
 62
     0
370
     0
100
AcDbMText
 10
0.0
 20
-5.6448974033
 30
0.0
 40
2.6458333333
 41
0.0
 71
     1
 72
     1
  1
1.
  7
SLDTEXTSTYLE0
 73
     1
 44
1.0
  0
MTEXT
  5
A4
330
9A
100
AcDbEntity
  8
0
  6
Continuous
 62
     0
370
     0
100
AcDbMText
 10
9.9999997765
 20
-10.1726753024
 30
0.0
 40
2.6458333333
 41
0.0
 71
     1
 72
     1
  1
SURFACE IRREGULARITY (S1): \U+2264\M+183C9/4 AT 633nm OVER CLEAR APERTURE
  7
SLDTEXTSTYLE1
 73
     1
 44
1.0
  0
MTEXT
  5
A5
330
9A
100
AcDbEntity
  8
0
  6
Continuous
 62
     0
370
     0
100
AcDbMText
 10
0.0
 20
-10.1726753024
 30
0.0
 40
2.6458333333
 41
0.0
 71
     1
 72
     1
  1
2.
  7
SLDTEXTSTYLE0
 73
     1
 44
1.0
  0
MTEXT
  5
A6
330
9A
100
AcDbEntity
  8
0
  6
Continuous
 62
     0
370
     0
100
AcDbMText
 10
9.9999997765
 20
-14.7004532014
 30
0.0
 40
2.6458333333
 41
0.0
 71
     1
 72
     1
  1
BACK SURFACE (S2): UNIFORM FINE GRIND #12-#20 GRIT
  7
SLDTEXTSTYLE0
 73
     1
 44
1.0
  0
MTEXT
  5
A7
330
9A
100
AcDbEntity
  8
0
  6
Continuous
 62
     0
370
     0
100
AcDbMText
 10
0.0
 20
-14.7004532014
 30
0.0
 40
2.6458333333
 41
0.0
 71
     1
 72
     1
  1
3.
  7
SLDTEXTSTYLE0
 73
     1
 44
1.0
  0
MTEXT
  5
A8
330
9A
100
AcDbEntity
  8
0
  6
Continuous
 62
     0
370
     0
100
AcDbMText
 10
9.9999997765
 20
-19.2282311005
 30
0.0
 40
2.6458333333
 41
0.0
 71
     1
 72
     1
  1
SURFACE QUALITY(S1): 40-20 SCRATCH-DIG
  7
SLDTEXTSTYLE0
 73
     1
 44
1.0
  0
MTEXT
  5
A9
330
9A
100
AcDbEntity
  8
0
  6
Continuous
 62
     0
370
     0
100
AcDbMText
 10
0.0
 20
-19.2282311005
 30
0.0
 40
2.6458333333
 41
0.0
 71
     1
 72
     1
  1
4.
  7
SLDTEXTSTYLE0
 73
     1
 44
1.0
  0
MTEXT
  5
AA
330
9A
100
AcDbEntity
  8
0
  6
Continuous
 62
     0
370
     0
100
AcDbMText
 10
9.9999997765
 20
-23.7560089995
 30
0.0
 40
2.6458333333
 41
0.0
 71
     1
 72
     1
  1
THICKNESS TOLERANCE:
  7
SLDTEXTSTYLE0
 73
     1
 44
1.0
  0
MTEXT
  5
AB
330
9A
100
AcDbEntity
  8
0
  6
Continuous
 62
     0
370
     0
100
AcDbMText
 10
50.8242268115
 20
-23.7560089995
 30
0.0
 40
2.6458333333
 41
0.0
 71
     1
 72
     1
  1
%%p
  7
SLDTEXTSTYLE0
 73
     1
 44
1.0
  0
MTEXT
  5
AC
330
9A
100
AcDbEntity
  8
0
  6
Continuous
 62
     0
370
     0
100
AcDbMText
 10
53.3465910703
 20
-23.7560089995
 30
0.0
 40
2.6458333333
 41
0.0
 71
     1
 72
     1
  1
0.1 mm
  7
SLDTEXTSTYLE0
 73
     1
 44
1.0
  0
MTEXT
  5
AD
330
9A
100
AcDbEntity
  8
0
  6
Continuous
 62
     0
370
     0
100
AcDbMText
 10
0.0
 20
-23.7560089995
 30
0.0
 40
2.6458333333
 41
0.0
 71
     1
 72
     1
  1
5.
  7
SLDTEXTSTYLE0
 73
     1
 44
1.0
  0
MTEXT
  5
AE
330
9A
100
AcDbEntity
  8
0
  6
Continuous
 62
     0
370
     0
100
AcDbMText
 10
9.9999997765
 20
-28.2837868986
 30
0.0
 40
2.6458333333
 41
0.0
 71
     1
 72
     1
  1
DIAMETER TOLERANCE: +0.0/-0.2 mm
  7
SLDTEXTSTYLE0
 73
     1
 44
1.0
  0
MTEXT
  5
AF
330
9A
100
AcDbEntity
  8
0
  6
Continuous
 62
     0
370
     0
100
AcDbMText
 10
0.0
 20
-28.2837868986
 30
0.0
 40
2.6458333333
 41
0.0
 71
     1
 72
     1
  1
6.
  7
SLDTEXTSTYLE0
 73
     1
 44
1.0
  0
MTEXT
  5
B0
330
9A
100
AcDbEntity
  8
0
  6
Continuous
 62
     0
370
     0
100
AcDbMText
 10
9.9999997765
 20
-32.8115647976
 30
0.0
 40
2.6458333333
 41
0.0
 71
     1
 72
     1
  1
COATING(S1): PROTECTED SILVER
  7
SLDTEXTSTYLE0
 73
     1
 44
1.0
  0
MTEXT
  5
B1
330
9A
100
AcDbEntity
  8
0
  6
Continuous
 62
     0
370
     0
100
AcDbMText
 10
0.0
 20
-32.8115647976
 30
0.0
 40
2.6458333333
 41
0.0
 71
     1
 72
     1
  1
7.
  7
SLDTEXTSTYLE0
 73
     1
 44
1.0
  0
MTEXT
  5
B2
330
9A
100
AcDbEntity
  8
0
  6
Continuous
 62
     0
370
     0
100
AcDbMText
 10
34.9609375
 20
-37.3393426967
 30
0.0
 40
2.6458333333
 41
0.0
 71
     1
 72
     1
  1
Ravg: >97.5% FROM 450nm-2\M+183CAm
  7
SLDTEXTSTYLE1
 73
     1
 44
1.0
  0
MTEXT
  5
B3
330
9A
100
AcDbEntity
  8
0
  6
Continuous
 62
     0
370
     0
100
AcDbMText
 10
34.9609375
 20
-41.8671205958
 30
0.0
 40
2.6458333333
 41
0.0
 71
     1
 72
     1
  1
Ravg: >96% FROM 2\M+183CAm-20\M+183CAm
  7
SLDTEXTSTYLE1
 73
     1
 44
1.0
  0
MTEXT
  5
B4
330
9A
100
AcDbEntity
  8
0
  6
Continuous
 62
     0
370
     0
100
AcDbMText
 10
34.9609375
 20
-46.3948984948
 30
0.0
 40
2.6458333333
 41
0.0
 71
     1
 72
     1
  1
AOI: 0
  7
SLDTEXTSTYLE0
 73
     1
 44
1.0
  0
MTEXT
  5
B5
330
9A
100
AcDbEntity
  8
0
  6
Continuous
 62
     0
370
     0
100
AcDbMText
 10
45.2576388791
 20
-46.3948984948
 30
0.0
 40
2.6458333333
 41
0.0
 71
     1
 72
     1
  1
%%d
  7
SLDTEXTSTYLE0
 73
     1
 44
1.0
  0
MTEXT
  5
B7
330
9A
100
AcDbEntity
  8
0
  6
Continuous
 62
     0
370
     0
100
AcDbMText
 10
47.9314009994
 20
-46.3948984948
 30
0.0
 40
2.6458333333
 41
0.0
 71
     1
 72
     1
  1
TO 45
  7
SLDTEXTSTYLE2
 73
     1
 44
1.0
  0
MTEXT
  5
B8
330
9A
100
AcDbEntity
  8
0
  6
Continuous
 62
     0
370
     0
100
AcDbMText
 10
57.3706559092
 20
-46.3948984948
 30
0.0
 40
2.6458333333
 41
0.0
 71
     1
 72
     1
  1
%%d
  7
SLDTEXTSTYLE0
 73
     1
 44
1.0
  0
ENDBLK
  5
9C
330
9A
100
AcDbEntity
  8
0
100
AcDbBlockEnd
  0
BLOCK
  5
CC
330
CB
100
AcDbEntity
  8
0
100
AcDbBlockBegin
  2
SW_NOTE_1
 70
     0
 10
0.0
 20
0.0
 30
0.0
  3
SW_NOTE_1
  1

  0
MTEXT
  5
CE
330
CB
100
AcDbEntity
  8
0
  6
Continuous
 62
     0
370
     0
100
AcDbMText
 10
19.90725
 20
1.9645392354
 30
0.0
 40
1.524
 41
0.0
 71
     2
 72
     1
  1
VALUES IN PARENTHESIS ARE CALCULATED
  7
SLDTEXTSTYLE0
 73
     1
 44
1.0
  0
MTEXT
  5
CF
330
CB
100
AcDbEntity
  8
0
  6
Continuous
 62
     0
370
     0
100
AcDbMText
 10
19.8778795174
 20
-0.5594606586
 30
0.0
 40
1.524
 41
0.0
 71
     2
 72
     1
  1
AND MAY CONTAIN ROUNDOFF ERRORS
  7
SLDTEXTSTYLE0
 73
     1
 44
1.0
  0
ENDBLK
  5
CD
330
CB
100
AcDbEntity
  8
0
100
AcDbBlockEnd
  0
BLOCK
  5
D2
330
D1
100
AcDbEntity
  8
0
100
AcDbBlockBegin
  2
SW_NOTE_2
 70
     0
 10
0.0
 20
0.0
 30
0.0
  3
SW_NOTE_2
  1

  0
MTEXT
  5
D4
330
D1
100
AcDbEntity
  8
0
  6
Continuous
 62
     0
370
     0
100
AcDbMText
 10
0.0
 20
2.7285267159
 30
0.0
 40
2.1166666667
 41
0.0
 71
     1
 72
     1
  1
DRAWING
  7
SLDTEXTSTYLE0
 73
     1
 44
1.0
  0
MTEXT
  5
D5
330
D1
100
AcDbEntity
  8
0
  6
Continuous
 62
     0
370
     0
100
AcDbMText
 10
0.0
 20
-0.0936954723
 30
0.0
 40
2.1166666667
 41
0.0
 71
     1
 72
     1
  1
PROJECTION
  7
SLDTEXTSTYLE0
 73
     1
 44
1.0
  0
ENDBLK
  5
D3
330
D1
100
AcDbEntity
  8
0
100
AcDbBlockEnd
  0
BLOCK
  5
D9
330
D8
100
AcDbEntity
  8
0
100
AcDbBlockBegin
  2
SW_NOTE_3
 70
     0
 10
0.0
 20
0.0
 30
0.0
  3
SW_NOTE_3
  1

  0
MTEXT
  5
DB
330
D8
100
AcDbEntity
  8
0
  6
Continuous
 62
     0
370
     0
100
AcDbMText
 10
25.052734375
 20
4.0927900738
 30
0.0
 40
3.175
 41
0.0
 71
     2
 72
     1
  1
FOR INFORMATION ONLY
  7
SLDTEXTSTYLE0
 73
     1
 44
1.0
  0
MTEXT
  5
DC
330
D8
100
AcDbEntity
  8
0
  6
Continuous
 62
     0
370
     0
100
AcDbMText
 10
25.3768468589
 20
-0.1405432084
 30
0.0
 40
3.175
 41
0.0
 71
     2
 72
     1
  1
NOT FOR MANUFACTURING PURPOSES
  7
SLDTEXTSTYLE0
 73
     1
 44
1.0
  0
ENDBLK
  5
DA
330
D8
100
AcDbEntity
  8
0
100
AcDbBlockEnd
  0
BLOCK
  5
DF
330
DE
100
AcDbEntity
  8
0
100
AcDbBlockBegin
  2
SW_NOTE_4
 70
     0
 10
0.0
 20
0.0
 30
0.0
  3
SW_NOTE_4
  1

  0
MTEXT
  5
E1
330
DE
100
AcDbEntity
  8
0
  6
Continuous
 62
     0
370
     0
100
AcDbMText
 10
1.9016927083
 20
3.4106583948
 30
0.0
 40
2.6458333333
 41
0.0
 71
     2
 72
     1
  1
%%c
  7
SLDTEXTSTYLE0
 73
     1
 44
1.0
  0
MTEXT
  5
E2
330
DE
100
AcDbEntity
  8
0
  6
Continuous
 62
     0
370
     0
100
AcDbMText
 10
28.5917202135
 20
3.4106583948
 30
0.0
 40
2.6458333333
 41
0.0
 71
     2
 72
     1
  1
50.8mm, f=500mm CONCAVE
  7
SLDTEXTSTYLE0
 73
     1
 44
1.0
  0
MTEXT
  5
E3
330
DE
100
AcDbEntity
  8
0
  6
Continuous
 62
     0
370
     0
100
AcDbMText
 10
26.9356851131
 20
-0.1171193403
 30
0.0
 40
2.6458333333
 41
0.0
 71
     2
 72
     1
  1
PROTECTED SILVER MIRROR
  7
SLDTEXTSTYLE0
 73
     1
 44
1.0
  0
ENDBLK
  5
E0
330
DE
100
AcDbEntity
  8
0
100
AcDbBlockEnd
  0
BLOCK
  5
F6
330
F5
100
AcDbEntity
  8
0
100
AcDbBlockBegin
  2
_D
 70
     0
 10
0.0
 20
0.0
 30
0.0
  3
_D
  1

  0
SOLID
  5
F8
330
F5
100
AcDbEntity
  8
0
  6
Continuous
 62
     7
370
    18
100
AcDbTrace
 10
72.2961621708
 20
137.841813188
 30
0.0
 11
74.9004364459
 21
139.7276669734
 31
0.0
 12
74.1820159562
 22
140.4460874631
 32
0.0
 13
74.1820159562
 23
140.4460874631
 33
0.0
  0
LINE
  5
F9
330
F5
100
AcDbEntity
  8
0
  6
Continuous
 62
     7
370
    18
100
AcDbLine
 10
89.7630683906
 20
148.6399716596
 30
0.0
 11
89.1192489365
 21
148.6399716596
 31
0.0
  0
LINE
  5
FA
330
F5
100
AcDbEntity
  8
0
  6
Continuous
 62
     7
370
    18
100
AcDbLine
 10
89.1192489365
 20
148.6399716596
 30
0.0
 11
89.1192489365
 21
145.2768235832
 31
0.0
  0
LINE
  5
FB
330
F5
100
AcDbEntity
  8
0
  6
Continuous
 62
     7
370
    18
100
AcDbLine
 10
89.1192489365
 20
145.2768235832
 30
0.0
 11
89.7630683906
 21
145.2768235832
 31
0.0
  0
LINE
  5
FC
330
F5
100
AcDbEntity
  8
0
  6
Continuous
 62
     7
370
    18
100
AcDbLine
 10
97.5202599369
 20
148.6399716596
 30
0.0
 11
98.164079391
 21
148.6399716596
 31
0.0
  0
LINE
  5
FD
330
F5
100
AcDbEntity
  8
0
  6
Continuous
 62
     7
370
    18
100
AcDbLine
 10
98.164079391
 20
148.6399716596
 30
0.0
 11
98.164079391
 21
145.2768235832
 31
0.0
  0
LINE
  5
FE
330
F5
100
AcDbEntity
  8
0
  6
Continuous
 62
     7
370
    18
100
AcDbLine
 10
98.164079391
 20
145.2768235832
 30
0.0
 11
97.5202599369
 21
145.2768235832
 31
0.0
  0
LINE
  5
FF
330
F5
100
AcDbEntity
  8
0
  6
Continuous
 62
     7
370
    18
100
AcDbLine
 10
72.2961621708
 20
137.841813188
 30
0.0
 11
84.6654294824
 21
150.2110804997
 31
0.0
  0
LINE
  5
100
330
F5
100
AcDbEntity
  8
0
  6
Continuous
 62
     7
370
    18
100
AcDbLine
 10
84.6654294824
 20
150.2110804997
 30
0.0
 11
88.4754294824
 21
150.2110804997
 31
0.0
  0
MTEXT
  5
101
330
F5
100
AcDbEntity
  8
0
  6
Continuous
 62
     7
370
    18
100
AcDbMText
 10
88.4754294824
 20
151.7977113061
 30
0.0
 40
2.1166666667
 41
0.0
 71
     1
 72
     1
  1
%%c
  7
SLDTEXTSTYLE0
 73
     1
 44
1.0
  0
MTEXT
  5
102
330
F5
100
AcDbEntity
  8
0
  6
Continuous
 62
     7
370
    18
100
AcDbMText
 10
91.6704202831
 20
151.7977113061
 30
0.0
 40
2.1166666667
 41
0.0
 71
     1
 72
     1
  1
50.8mm
  7
SLDTEXTSTYLE0
 73
     1
 44
1.0
  0
MTEXT
  5
103
330
F5
100
AcDbEntity
  8
0
  6
Continuous
 62
     7
370
    18
100
AcDbMText
 10
89.7630683906
 20
148.0053501826
 30
0.0
 40
2.1166666667
 41
0.0
 71
     1
 72
     1
  1
2.00in
  7
SLDTEXTSTYLE0
 73
     1
 44
1.0
  0
ENDBLK
  5
F7
330
F5
100
AcDbEntity
  8
0
100
AcDbBlockEnd
  0
BLOCK
  5
11D
330
11C
100
AcDbEntity
  8
0
100
AcDbBlockBegin
  2
_D_1
 70
     0
 10
0.0
 20
0.0
 30
0.0
  3
_D_1
  1

  0
SOLID
  5
11F
330
11C
100
AcDbEntity
  8
0
  6
Continuous
 62
     7
370
    18
100
AcDbTrace
 10
135.0157138994
 20
158.2622715817
 30
0.0
 11
131.8409835183
 21
158.7719538423
 31
0.0
 12
131.840445172
 22
157.7559539849
 32
0.0
 13
131.840445172
 23
157.7559539849
 33
0.0
  0
SOLID
  5
120
330
11C
100
AcDbEntity
  8
0
  6
Continuous
 62
     7
370
    18
100
AcDbTrace
 10
144.3334087827
 20
158.2573344296
 30
0.0
 11
147.5081391639
 21
157.7476521689
 31
0.0
 12
147.5086775101
 22
158.7636520263
 32
0.0
 13
147.5086775101
 23
158.7636520263
 33
0.0
  0
LINE
  5
121
330
11C
100
AcDbEntity
  8
0
  6
Continuous
 62
     7
370
    18
100
AcDbLine
 10
156.4171657058
 20
158.2474524987
 30
0.0
 11
155.7733462517
 21
158.2474524987
 31
0.0
  0
LINE
  5
122
330
11C
100
AcDbEntity
  8
0
  6
Continuous
 62
     7
370
    18
100
AcDbLine
 10
155.7733462517
 20
158.2474524987
 30
0.0
 11
155.7733462517
 21
154.8843044222
 31
0.0
  0
LINE
  5
123
330
11C
100
AcDbEntity
  8
0
  6
Continuous
 62
     7
370
    18
100
AcDbLine
 10
155.7733462517
 20
154.8843044222
 30
0.0
 11
156.4171657058
 21
154.8843044222
 31
0.0
  0
LINE
  5
124
330
11C
100
AcDbEntity
  8
0
  6
Continuous
 62
     7
370
    18
100
AcDbLine
 10
164.1743572521
 20
158.2474524987
 30
0.0
 11
164.8181767062
 21
158.2474524987
 31
0.0
  0
LINE
  5
125
330
11C
100
AcDbEntity
  8
0
  6
Continuous
 62
     7
370
    18
100
AcDbLine
 10
164.8181767062
 20
158.2474524987
 30
0.0
 11
164.8181767062
 21
154.8843044222
 31
0.0
  0
LINE
  5
126
330
11C
100
AcDbEntity
  8
0
  6
Continuous
 62
     7
370
    18
100
AcDbLine
 10
164.8181767062
 20
154.8843044222
 30
0.0
 11
164.1743572521
 21
154.8843044222
 31
0.0
  0
LINE
  5
127
330
11C
100
AcDbEntity
  8
0
  6
Continuous
 62
     7
370
    18
100
AcDbLine
 10
135.0094052684
 20
146.3562379197
 30
0.0
 11
135.0166560053
 21
160.0402713321
 31
0.0
  0
LINE
  5
128
330
11C
100
AcDbEntity
  8
0
  6
Continuous
 62
     7
370
    18
100
AcDbLine
 10
144.3271001517
 20
146.3513007676
 30
0.0
 11
144.3343508886
 21
160.03533418
 31
0.0
  0
LINE
  5
129
330
11C
100
AcDbEntity
  8
0
  6
Continuous
 62
     7
370
    18
100
AcDbLine
 10
135.0157138994
 20
158.2622715817
 30
0.0
 11
128.6657147909
 21
158.2656362456
 31
0.0
  0
LINE
  5
12A
330
11C
100
AcDbEntity
  8
0
  6
Continuous
 62
     7
370
    18
100
AcDbLine
 10
144.3334087827
 20
158.2573344296
 30
0.0
 11
154.7000133149
 21
158.2518414934
 31
0.0
  0
MTEXT
  5
12B
330
11C
100
AcDbEntity
  8
0
  6
Continuous
 62
     7
370
    18
100
AcDbMText
 10
155.6959311104
 20
161.4051921451
 30
0.0
 40
2.1166666667
 41
0.0
 71
     1
 72
     1
  1
9.3mm
  7
SLDTEXTSTYLE0
 73
     1
 44
1.0
  0
MTEXT
  5
12C
330
11C
100
AcDbEntity
  8
0
  6
Continuous
 62
     7
370
    18
100
AcDbMText
 10
156.4171657058
 20
157.6128310217
 30
0.0
 40
2.1166666667
 41
0.0
 71
     1
 72
     1
  1
0.37in
  7
SLDTEXTSTYLE0
 73
     1
 44
1.0
  0
MTEXT
  5
12D
330
11C
100
AcDbEntity
  8
0
  6
Continuous
 62
     7
370
    18
100
AcDbMText
 10
166.2557456946
 20
161.4051921451
 30
0.0
 40
2.1166666667
 41
0.0
 71
     1
 72
     1
  1
REF
  7
SLDTEXTSTYLE0
 73
     1
 44
1.0
  0
ENDBLK
  5
11E
330
11C
100
AcDbEntity
  8
0
100
AcDbBlockEnd
  0
BLOCK
  5
131
330
130
100
AcDbEntity
  8
0
100
AcDbBlockBegin
  2
_D_2
 70
     0
 10
0.0
 20
0.0
 30
0.0
  3
_D_2
  1

  0
ARC
  5
133
330
130
100
AcDbEntity
  8
0
  6
Continuous
 62
     7
370
    18
100
AcDbCircle
 10
-864.6736048164
 20
119.8813009459
 30
0.0
 40
1000.000032035271
100
AcDbArc
 50
357.9373154799
 51
358.482944975
  0
SOLID
  5
134
330
130
100
AcDbEntity
  8
0
  6
Continuous
 62
     7
370
    18
100
AcDbTrace
 10
134.7408898675
 20
85.6653414189
 30
0.0
 11
137.8966490796
 21
85.0490032038
 31
0.0
 12
137.9314124933
 22
86.0644082979
 32
0.0
 13
137.9314124933
 23
86.0644082979
 33
0.0
  0
LINE
  5
135
330
130
100
AcDbEntity
  8
0
  6
Continuous
 62
     7
370
    18
100
AcDbLine
 10
158.7898175215
 20
83.4454161647
 30
0.0
 11
158.1459980674
 21
83.4454161647
 31
0.0
  0
LINE
  5
136
330
130
100
AcDbEntity
  8
0
  6
Continuous
 62
     7
370
    18
100
AcDbLine
 10
158.1459980674
 20
83.4454161647
 30
0.0
 11
158.1459980674
 21
80.0822680882
 31
0.0
  0
LINE
  5
137
330
130
100
AcDbEntity
  8
0
  6
Continuous
 62
     7
370
    18
100
AcDbLine
 10
158.1459980674
 20
80.0822680882
 30
0.0
 11
158.7898175215
 21
80.0822680882
 31
0.0
  0
LINE
  5
138
330
130
100
AcDbEntity
  8
0
  6
Continuous
 62
     7
370
    18
100
AcDbLine
 10
168.1109911745
 20
83.4454161647
 30
0.0
 11
168.7548106286
 21
83.4454161647
 31
0.0
  0
LINE
  5
139
330
130
100
AcDbEntity
  8
0
  6
Continuous
 62
     7
370
    18
100
AcDbLine
 10
168.7548106286
 20
83.4454161647
 30
0.0
 11
168.7548106286
 21
80.0822680882
 31
0.0
  0
LINE
  5
13A
330
130
100
AcDbEntity
  8
0
  6
Continuous
 62
     7
370
    18
100
AcDbLine
 10
168.7548106286
 20
80.0822680882
 30
0.0
 11
168.1109911745
 21
80.0822680882
 31
0.0
  0
LINE
  5
13B
330
130
100
AcDbEntity
  8
0
  6
Continuous
 62
     7
370
    18
100
AcDbLine
 10
134.7408898675
 20
85.6653414189
 30
0.0
 11
153.6921786132
 21
85.0165250047
 31
0.0
  0
LINE
  5
13C
330
130
100
AcDbEntity
  8
0
  6
Continuous
 62
     7
370
    18
100
AcDbLine
 10
153.6921786132
 20
85.0165250047
 30
0.0
 11
157.5021786132
 21
85.0165250047
 31
0.0
  0
MTEXT
  5
13D
330
130
100
AcDbEntity
  8
0
  6
Continuous
 62
     7
370
    18
100
AcDbMText
 10
157.5021786132
 20
86.6031558111
 30
0.0
 40
2.1166666667
 41
0.0
 71
     1
 72
     1
  1
R1000.0mm
  7
SLDTEXTSTYLE0
 73
     1
 44
1.0
  0
MTEXT
  5
13E
330
130
100
AcDbEntity
  8
0
  6
Continuous
 62
     7
370
    18
100
AcDbMText
 10
158.7898175215
 20
82.8107946877
 30
0.0
 40
2.1166666667
 41
0.0
 71
     1
 72
     1
  1
39.37in
  7
SLDTEXTSTYLE0
 73
     1
 44
1.0
  0
ENDBLK
  5
132
330
130
100
AcDbEntity
  8
0
100
AcDbBlockEnd
  0
BLOCK
  5
142
330
141
100
AcDbEntity
  8
0
100
AcDbBlockBegin
  2
_D_3
 70
     0
 10
0.0
 20
0.0
 30
0.0
  3
_D_3
  1

  0
SOLID
  5
144
330
141
100
AcDbEntity
  8
0
  6
Continuous
 62
     7
370
    18
100
AcDbTrace
 10
144.3264272189
 20
149.3446555713
 30
0.0
 11
147.5014272189
 21
148.8366555713
 31
0.0
 12
147.5014272189
 22
149.8526555713
 32
0.0
 13
147.5014272189
 23
149.8526555713
 33
0.0
  0
SOLID
  5
145
330
141
100
AcDbEntity
  8
0
  6
Continuous
 62
     7
370
    18
100
AcDbTrace
 10
135.3264272189
 20
149.3446555713
 30
0.0
 11
132.1514272189
 21
149.8526555713
 31
0.0
 12
132.1514272189
 22
148.8366555713
 32
0.0
 13
132.1514272189
 23
148.8366555713
 33
0.0
  0
LINE
  5
146
330
141
100
AcDbEntity
  8
0
  6
Continuous
 62
     7
370
    18
100
AcDbLine
 10
156.4478312129
 20
149.3446553384
 30
0.0
 11
155.8040117588
 21
149.3446553384
 31
0.0
  0
LINE
  5
147
330
141
100
AcDbEntity
  8
0
  6
Continuous
 62
     7
370
    18
100
AcDbLine
 10
155.8040117588
 20
149.3446553384
 30
0.0
 11
155.8040117588
 21
145.981507262
 31
0.0
  0
LINE
  5
148
330
141
100
AcDbEntity
  8
0
  6
Continuous
 62
     7
370
    18
100
AcDbLine
 10
155.8040117588
 20
145.981507262
 30
0.0
 11
156.4478312129
 21
145.981507262
 31
0.0
  0
LINE
  5
149
330
141
100
AcDbEntity
  8
0
  6
Continuous
 62
     7
370
    18
100
AcDbLine
 10
164.2050227592
 20
149.3446553384
 30
0.0
 11
164.8488422133
 21
149.3446553384
 31
0.0
  0
LINE
  5
14A
330
141
100
AcDbEntity
  8
0
  6
Continuous
 62
     7
370
    18
100
AcDbLine
 10
164.8488422133
 20
149.3446553384
 30
0.0
 11
164.8488422133
 21
145.981507262
 31
0.0
  0
LINE
  5
14B
330
141
100
AcDbEntity
  8
0
  6
Continuous
 62
     7
370
    18
100
AcDbLine
 10
164.8488422133
 20
145.981507262
 30
0.0
 11
164.2050227592
 21
145.981507262
 31
0.0
  0
LINE
  5
14C
330
141
100
AcDbEntity
  8
0
  6
Continuous
 62
     7
370
    18
100
AcDbLine
 10
144.3264272189
 20
146.3513009459
 30
0.0
 11
144.3264272189
 21
151.1226555713
 31
0.0
  0
LINE
  5
14D
330
141
100
AcDbEntity
  8
0
  6
Continuous
 62
     7
370
    18
100
AcDbLine
 10
135.3264272189
 20
121.1513009459
 30
0.0
 11
135.3264272189
 21
151.1226555713
 31
0.0
  0
LINE
  5
14E
330
141
100
AcDbEntity
  8
0
  6
Continuous
 62
     7
370
    18
100
AcDbLine
 10
144.3264272189
 20
149.3446555713
 30
0.0
 11
153.1706171176
 21
149.3446555713
 31
0.0
  0
LINE
  5
14F
330
141
100
AcDbEntity
  8
0
  6
Continuous
 62
     7
370
    18
100
AcDbLine
 10
135.3264272189
 20
149.3446555713
 30
0.0
 11
128.9764272189
 21
149.3446555713
 31
0.0
  0
MTEXT
  5
150
330
141
100
AcDbEntity
  8
0
  6
Continuous
 62
     7
370
    18
100
AcDbMText
 10
155.1876306003
 20
152.5023949849
 30
0.0
 40
2.1166666667
 41
0.0
 71
     1
 72
     1
  1

  7
SLDTEXTSTYLE0
 73
     1
 44
1.0
  0
MTEXT
  5
151
330
141
100
AcDbEntity
  8
0
  6
Continuous
 62
     7
370
    18
100
AcDbMText
 10
155.7265966175
 20
152.5023949849
 30
0.0
 40
2.1166666667
 41
0.0
 71
     1
 72
     1
  1
9.0mm
  7
SLDTEXTSTYLE0
 73
     1
 44
1.0
  0
MTEXT
  5
152
330
141
100
AcDbEntity
  8
0
  6
Continuous
 62
     7
370
    18
100
AcDbMText
 10
156.4478312129
 20
148.7100338614
 30
0.0
 40
2.1166666667
 41
0.0
 71
     1
 72
     1
  1
0.35in
  7
SLDTEXTSTYLE0
 73
     1
 44
1.0
  0
MTEXT
  5
153
330
141
100
AcDbEntity
  8
0
  6
Continuous
 62
     7
370
    18
100
AcDbMText
 10
167.0801616674
 20
152.5023949849
 30
0.0
 40
2.1166666667
 41
0.0
 71
     1
 72
     1
  1

  7
SLDTEXTSTYLE0
 73
     1
 44
1.0
  0
ENDBLK
  5
143
330
141
100
AcDbEntity
  8
0
100
AcDbBlockEnd
  0
ENDSEC
  0
SECTION
  2
ENTITIES
  0
LINE
  5
81
330
1F
100
AcDbEntity
  8
0
  6
Continuous
 62
     7
370
    18
100
AcDbLine
 10
1.5793501011
 20
214.6453799966
 30
0.0
 11
277.9892068491
 21
214.6453799966
 31
0.0
  0
LINE
  5
82
330
1F
100
AcDbEntity
  8
0
  6
Continuous
 62
     7
370
    18
100
AcDbLine
 10
1.5793501011
 20
214.6453799966
 30
0.0
 11
1.5793501011
 21
0.9031642596
 31
0.0
  0
LINE
  5
83
330
1F
100
AcDbEntity
  8
0
  6
Continuous
 62
     7
370
    18
100
AcDbLine
 10
277.9892068491
 20
0.9031642596
 30
0.0
 11
1.5793501011
 21
0.9031642596
 31
0.0
  0
LINE
  5
84
330
1F
100
AcDbEntity
  8
0
  6
Continuous
 62
     7
370
    18
100
AcDbLine
 10
277.9892068491
 20
0.9031642596
 30
0.0
 11
277.9892068491
 21
214.6453799966
 31
0.0
  0
LINE
  5
85
330
1F
100
AcDbEntity
  8
0
  6
Continuous
 62
     7
370
    18
100
AcDbLine
 10
215.7427640041
 20
12.2958890132
 30
0.0
 11
171.6327596684
 21
12.2958890132
 31
0.0
  0
LINE
  5
86
330
1F
100
AcDbEntity
  8
0
  6
Continuous
 62
     7
370
    18
100
AcDbLine
 10
171.6327596684
 20
12.2958890132
 30
0.0
 11
171.6327596684
 21
26.1661402506
 31
0.0
  0
LINE
  5
87
330
1F
100
AcDbEntity
  8
0
  6
Continuous
 62
     7
370
    18
100
AcDbLine
 10
171.6327596684
 20
0.9031642596
 30
0.0
 11
171.6327596684
 21
26.1661402506
 31
0.0
  0
LINE
  5
88
330
1F
100
AcDbEntity
  8
0
  6
Continuous
 62
     7
370
    18
100
AcDbLine
 10
215.7427640041
 20
17.1604579552
 30
0.0
 11
277.9892068491
 21
17.1604579552
 31
0.0
  0
LINE
  5
89
330
1F
100
AcDbEntity
  8
0
  6
Continuous
 62
     7
370
    18
100
AcDbLine
 10
215.7427640041
 20
35.2394508358
 30
0.0
 11
215.7427640041
 21
0.9031642596
 31
0.0
  0
LINE
  5
8A
330
1F
100
AcDbEntity
  8
0
  6
Continuous
 62
     7
370
    18
100
AcDbLine
 10
215.7427640041
 20
26.1661402506
 30
0.0
 11
171.6327596684
 21
26.1661402506
 31
0.0
  0
LINE
  5
8B
330
1F
100
AcDbEntity
  8
0
  6
Continuous
 62
     7
370
    18
100
AcDbLine
 10
215.7427640041
 20
9.1409200612
 30
0.0
 11
277.9892068491
 21
9.1409200612
 31
0.0
  0
LINE
  5
8C
330
1F
100
AcDbEntity
  8
0
  6
Continuous
 62
     7
370
    18
100
AcDbLine
 10
215.7427640041
 20
16.9216824031
 30
0.0
 11
171.6327596684
 21
16.9216824031
 31
0.0
  0
LINE
  5
8D
330
1F
100
AcDbEntity
  8
0
  6
Continuous
 62
     7
370
    18
100
AcDbLine
 10
215.7427640041
 20
21.4874005542
 30
0.0
 11
171.6327596684
 21
21.4874005542
 31
0.0
  0
LINE
  5
8E
330
1F
100
AcDbEntity
  8
0
  6
Continuous
 62
     7
370
    18
100
AcDbLine
 10
186.1338100705
 20
26.1661402506
 30
0.0
 11
186.1338100705
 21
12.2958890132
 31
0.0
  0
LINE
  5
8F
330
1F
100
AcDbEntity
  8
0
  6
Continuous
 62
     7
370
    18
100
AcDbLine
 10
198.2145906188
 20
26.1661402506
 30
0.0
 11
198.2145906188
 21
12.2958890132
 31
0.0
  0
LINE
  5
90
330
1F
100
AcDbEntity
  8
0
  6
Continuous
 62
     7
370
    18
100
AcDbLine
 10
253.7490408369
 20
9.1409200612
 30
0.0
 11
253.7490408369
 21
0.9031642596
 31
0.0
  0
LINE
  5
91
330
1F
100
AcDbEntity
  8
0
  6
Continuous
 62
     7
370
    18
100
AcDbLine
 10
171.6327596684
 20
12.2958890132
 30
0.0
 11
171.6327596684
 21
7.5627342528
 31
0.0
  0
LINE
  5
92
330
1F
100
AcDbEntity
  8
0
  6
Continuous
 62
     7
370
    18
100
AcDbLine
 10
171.6327596684
 20
7.5627342528
 30
0.0
 11
215.7427640041
 21
7.5627342528
 31
0.0
  0
LINE
  5
93
330
1F
100
AcDbEntity
  8
0
  6
Continuous
 62
     7
370
    18
100
AcDbLine
 10
171.6327596684
 20
7.5627342528
 30
0.0
 11
171.6327596684
 21
35.2394508358
 31
0.0
  0
LINE
  5
94
330
1F
100
AcDbEntity
  8
0
  6
Continuous
 62
     7
370
    18
100
AcDbLine
 10
171.6327596684
 20
35.2394508358
 30
0.0
 11
215.7427640041
 21
35.2394508358
 31
0.0
  0
LINE
  5
95
330
1F
100
AcDbEntity
  8
0
  6
Continuous
 62
     7
370
    18
100
AcDbLine
 10
270.1683598194
 20
17.1604579552
 30
0.0
 11
270.1683598194
 21
9.1409200612
 31
0.0
  0
LINE
  5
96
330
1F
100
AcDbEntity
  8
0
  6
Continuous
 62
     7
370
    18
100
AcDbLine
 10
215.7427640041
 20
35.2394508358
 30
0.0
 11
277.9892068491
 21
35.2394508358
 31
0.0
  0
LINE
  5
97
330
1F
100
AcDbEntity
  8
0
  6
Continuous
 62
     7
370
    18
100
AcDbLine
 10
277.9892068491
 20
35.2394508358
 30
0.0
 11
277.9892068491
 21
50.0331356147
 31
0.0
  0
LINE
  5
98
330
1F
100
AcDbEntity
  8
0
  6
Continuous
 62
     7
370
    18
100
AcDbLine
 10
215.7427640041
 20
24.8927335446
 30
0.0
 11
277.9892068491
 21
24.8927335446
 31
0.0
  0
INSERT
  5
99
330
1F
100
AcDbEntity
  8
0
  6
Continuous
 62
     7
100
AcDbBlockReference
  2
Third Angle Projection Block
 10
117.7262204235
 20
15.5162339489
 30
0.0
 41
0.8
 42
0.8
 43
0.8
  0
INSERT
  5
B9
330
1F
100
AcDbEntity
  8
0
  6
Continuous
 62
     7
370
     0
100
AcDbBlockReference
  2
SW_NOTE_0
 10
27.4788807973
 20
66.5311714564
 30
0.0
  0
MTEXT
  5
BA
330
1F
100
AcDbEntity
  8
0
  6
Continuous
 62
     7
370
     0
100
AcDbMText
 10
274.1458225539
 20
13.2559386876
 30
0.0
 40
3.175
 41
0.0
 71
     2
 72
     1
  1
A
  7
SLDTEXTSTYLE0
 73
     1
 44
1.0
  0
MTEXT
  5
BB
330
1F
100
AcDbEntity
  8
0
  6
Continuous
 62
     7
370
     0
100
AcDbMText
 10
234.5844416461
 20
5.1306563898
 30
0.0
 40
3.175
 41
0.0
 71
     2
 72
     1
  1
CM508-500-P01
  7
SLDTEXTSTYLE0
 73
     1
 44
1.0
  0
MTEXT
  5
BC
330
1F
100
AcDbEntity
  8
0
  6
Continuous
 62
     7
370
     0
100
AcDbMText
 10
216.4199766059
 20
16.8243178599
 30
0.0
 40
2.1166666667
 41
0.0
 71
     1
 72
     1
  1
MATERIAL
  7
SLDTEXTSTYLE0
 73
     1
 44
1.0
  0
MTEXT
  5
BD
330
1F
100
AcDbEntity
  8
0
  6
Continuous
 62
     7
370
     0
100
AcDbMText
 10
174.230946566
 20
20.054553926
 30
0.0
 40
1.8520833333
 41
0.0
 71
     1
 72
     1
  1
DRAWN
  7
SLDTEXTSTYLE0
 73
     1
 44
1.0
  0
MTEXT
  5
BE
330
1F
100
AcDbEntity
  8
0
  6
Continuous
 62
     7
370
     0
100
AcDbMText
 10
172.3960124543
 20
15.5787169747
 30
0.0
 40
1.8520833333
 41
0.0
 71
     1
 72
     1
  1
APPROVAL
  7
SLDTEXTSTYLE0
 73
     1
 44
1.0
  0
MTEXT
  5
BF
330
1F
100
AcDbEntity
  8
0
  6
Continuous
 62
     7
370
     0
100
AcDbMText
 10
271.7160653675
 20
16.1671746307
 30
0.0
 40
2.1166666667
 41
0.0
 71
     1
 72
     1
  1
REV
  7
SLDTEXTSTYLE0
 73
     1
 44
1.0
  0
MTEXT
  5
C0
330
1F
100
AcDbEntity
  8
0
  6
Continuous
 62
     7
370
     0
100
AcDbMText
 10
190.2958696448
 20
20.3177146903
 30
0.0
 40
2.1166666667
 41
0.0
 71
     1
 72
     1
  1
YB
  7
SLDTEXTSTYLE0
 73
     1
 44
1.0
  0
MTEXT
  5
C1
330
1F
100
AcDbEntity
  8
0
  6
Continuous
 62
     7
370
     0
100
AcDbMText
 10
190.2958696448
 20
15.841877739
 30
0.0
 40
2.1166666667
 41
0.0
 71
     1
 72
     1
  1
DD
  7
SLDTEXTSTYLE0
 73
     1
 44
1.0
  0
MTEXT
  5
C2
330
1F
100
AcDbEntity
  8
0
  6
Continuous
 62
     7
370
     0
100
AcDbMText
 10
199.8662436873
 20
20.3177146903
 30
0.0
 40
2.1166666667
 41
0.0
 71
     1
 72
     1
  1
16/APR/18
  7
SLDTEXTSTYLE0
 73
     1
 44
1.0
  0
MTEXT
  5
C3
330
1F
100
AcDbEntity
  8
0
  6
Continuous
 62
     7
370
     0
100
AcDbMText
 10
203.6145073853
 20
24.8221395769
 30
0.0
 40
2.1166666667
 41
0.0
 71
     1
 72
     1
  1
DATE
  7
SLDTEXTSTYLE0
 73
     1
 44
1.0
  0
MTEXT
  5
C4
330
1F
100
AcDbEntity
  8
0
  6
Continuous
 62
     7
370
     0
100
AcDbMText
 10
199.8662436873
 20
15.841877739
 30
0.0
 40
2.1166666667
 41
0.0
 71
     1
 72
     1
  1
16/APR/18
  7
SLDTEXTSTYLE0
 73
     1
 44
1.0
  0
MTEXT
  5
C6
330
1F
100
AcDbEntity
  8
0
  6
Continuous
 62
     7
370
     0
100
AcDbMText
 10
229.402906477
 20
27.7957480569
 30
0.0
 40
2.1166666667
 41
0.0
 71
     1
 72
     1
  1
w w w . t h o r  l a b s . c o m
  7
SLDTEXTSTYLE3
 73
     1
 44
1.0
  0
MTEXT
  5
C7
330
1F
100
AcDbEntity
  8
0
  6
Continuous
 62
     7
370
     0
100
AcDbMText
 10
216.7004035316
 20
8.3494791871
 30
0.0
 40
2.1166666667
 41
0.0
 71
     1
 72
     1
  1
ITEM #
  7
SLDTEXTSTYLE0
 73
     1
 44
1.0
  0
MTEXT
  5
C8
330
1F
100
AcDbEntity
  8
0
  6
Continuous
 62
     7
370
     0
100
AcDbMText
 10
254.5318000914
 20
8.3494791871
 30
0.0
 40
2.1166666667
 41
0.0
 71
     1
 72
     1
  1
APPROX WEIGHT
  7
SLDTEXTSTYLE0
 73
     1
 44
1.0
  0
MTEXT
  5
C9
330
1F
100
AcDbEntity
  8
0
  6
Continuous
 62
     7
370
     0
100
AcDbMText
 10
243.5159064132
 20
13.8247651814
 30
0.0
 40
3.175
 41
0.0
 71
     2
 72
     1
  1
N-BK7
  7
SLDTEXTSTYLE0
 73
     1
 44
1.0
  0
MTEXT
  5
CA
330
1F
100
AcDbEntity
  8
0
  6
Continuous
 62
     7
370
     0
100
AcDbMText
 10
266.1553537756
 20
5.1306563898
 30
0.0
 40
3.175
 41
0.0
 71
     2
 72
     1
  1
46.61 g
  7
SLDTEXTSTYLE0
 73
     1
 44
1.0
  0
INSERT
  5
D0
330
1F
100
AcDbEntity
  8
0
  6
Continuous
 62
     7
370
     0
100
AcDbBlockReference
  2
SW_NOTE_1
 10
174.8430140051
 20
4.4558554801
 30
0.0
  0
INSERT
  5
D6
330
1F
100
AcDbEntity
  8
0
  6
Continuous
 62
     7
370
     0
100
AcDbBlockReference
  2
SW_NOTE_2
 10
174.5483650337
 20
30.4835322715
 30
0.0
  0
MTEXT
  5
D7
330
1F
100
AcDbEntity
  8
0
  6
Continuous
 62
     7
370
     0
100
AcDbMText
 10
187.9273588276
 20
24.8221395769
 30
0.0
 40
2.1166666667
 41
0.0
 71
     1
 72
     1
  1
NAME
  7
SLDTEXTSTYLE0
 73
     1
 44
1.0
  0
INSERT
  5
DD
330
1F
100
AcDbEntity
  8
0
  6
Continuous
 62
     7
370
     0
100
AcDbBlockReference
  2
SW_NOTE_3
 10
58.6204667508
 20
8.1776609732
 30
0.0
  0
INSERT
  5
E4
330
1F
100
AcDbEntity
  8
0
  6
Continuous
 62
     7
370
     0
100
AcDbBlockReference
  2
SW_NOTE_4
 10
220.0050186217
 20
20.7222222066
 30
0.0
  0
MTEXT
  5
E5
330
1F
100
AcDbEntity
  8
0
  6
Continuous
 62
     7
370
     0
100
AcDbMText
 10
177.6925831922
 20
10.7142101515
 30
0.0
 40
1.5875
 41
0.0
 71
     1
 72
     1
  1
COPYRIGHT © 2018 BY THORLABS
  7
SLDTEXTSTYLE0
 73
     1
 44
1.0
  0
LINE
  5
E6
330
1F
100
AcDbEntity
  8
0
  6
Continuous
 62
     7
370
    18
100
AcDbLine
 10
228.0991143208
 20
193.4498726968
 30
0.0
 11
228.0991143208
 21
193.2906218055
 31
0.0
  0
LINE
  5
E7
330
1F
100
AcDbEntity
  8
0
  6
Continuous
 62
     7
370
    18
100
AcDbLine
 10
245.9187996296
 20
162.4226768695
 30
0.0
 11
246.0567074746
 21
162.3430384825
 31
0.0
  0
LINE
  5
E8
330
1F
100
AcDbEntity
  8
0
  6
Continuous
 62
     7
370
    18
100
AcDbLine
 10
258.7585944674
 20
161.0838485722
 30
0.0
 11
265.0678480857
 21
164.7261031584
 31
0.0
  0
LINE
  5
E9
330
1F
100
AcDbEntity
  8
0
  6
Continuous
 62
     7
370
    18
100
AcDbLine
 10
239.6699122767
 20
208.7213853674
 30
0.0
 11
233.3606586585
 21
205.0791307811
 31
0.0
  0
LINE
  5
EA
330
1F
100
AcDbEntity
  8
0
  6
Continuous
 62
     7
370
    18
100
AcDbLine
 10
270.3293924233
 20
176.3553612427
 30
0.0
 11
270.3293924233
 21
176.5186428651
 31
0.0
  0
LINE
  5
EB
330
1F
100
AcDbEntity
  8
0
  6
Continuous
 62
     7
370
    18
100
AcDbLine
 10
252.5131976408
 20
207.3805413769
 30
0.0
 11
252.3717992695
 21
207.462195457
 31
0.0
  0
LWPOLYLINE
  5
EC
330
1F
100
AcDbEntity
  8
0
  6
Continuous
 62
     7
370
    18
100
AcDbPolyline
 90
      167
 70
   128
 43
0.0
 10
263.7442782801
 20
172.7131066565
 10
263.7315129416
 20
173.4992860582
 10
263.6932352123
 20
174.2990778117
 10
263.6294999247
 20
175.1113362228
 10
263.540398379
 20
175.9348977393
 10
263.4260582123
 20
176.7685826173
 10
263.2866432157
 20
177.6111966111
 10
263.1223531
 20
178.4615326843
 10
262.9334232091
 20
179.3183727388
 10
262.7201241833
 20
180.1804893593
 10
262.4827615713
 20
181.0466475722
 10
262.2216753928
 20
181.9156066141
 10
261.9372396514
 20
182.7861217096
 10
261.6298617983
 20
183.6569458541
 10
261.2999821495
 20
184.5268316005
 10
260.9480732543
 20
185.3945328459
 10
260.5746392189
 20
186.2588066165
 10
260.1802149839
 20
187.1184148486
 10
259.7653655583
 20
187.9721261615
 10
259.3306852098
 20
188.8187176221
 10
258.8767966138
 20
189.6569764962
 10
258.4043499614
 20
190.4857019861
 10
257.9140220279
 20
191.3037069505
 10
257.4065152033
 20
192.1098196052
 10
256.8825564863
 20
192.9028852016
 10
256.3428964426
 20
193.6817676808
 10
255.7883081301
 20
194.4453513012
 10
255.2195859913
 20
195.1925422365
 10
254.6375447149
 20
195.9222701431
 10
254.0430180697
 20
196.6334896926
 10
253.4368577093
 20
197.32518207
 10
252.8199319526
 20
197.9963564326
 10
252.1931245397
 20
198.6460513295
 10
251.5573333663
 20
199.2733360791
 10
250.9134691971
 20
199.877312102
 10
250.2624543613
 20
200.4571142084
 10
249.6052214314
 20
201.0119118373
 10
248.9427118872
 20
201.5409102465
 10
248.2758747673
 20
202.0433516509
 10
247.6056653094
 20
202.518516308
 10
246.9330435821
 20
202.965723549
 10
246.2589731096
 20
203.3843327538
 10
245.5844194913
 20
203.7737442688
 10
244.9103490188
 20
204.1334002657
 10
244.2377272915
 20
204.4627855408
 10
243.5675178336
 20
204.7614282528
 10
242.9006807137
 20
205.028900599
 10
242.2381711695
 20
205.2648194278
 10
241.5809382396
 20
205.4688467877
 10
240.9299234038
 20
205.6406904115
 10
240.2860592346
 20
205.7801041349
 10
239.6502680612
 20
205.886888249
 10
239.0234606483
 20
205.9608897867
 10
238.4065348916
 20
206.0020027414
 10
237.8003745312
 20
206.0101682193
 10
237.2058478859
 20
205.9853745233
 10
236.6238066096
 20
205.9276571702
 10
236.0550844707
 20
205.8370988396
 10
235.5004961583
 20
205.7138292553
 10
234.9608361146
 20
205.558025
 10
234.4368773975
 20
205.3699092616
 10
233.929370573
 20
205.1497515141
 10
233.4390426395
 20
204.8978671315
 10
232.9665959871
 20
204.6146169357
 10
232.5127073911
 20
204.3004066797
 10
232.0780270426
 20
203.9556864669
 10
231.6631776169
 20
203.5809501056
 10
231.268753382
 20
203.176734402
 10
230.8953193466
 20
202.7436183912
 10
230.5434104514
 20
202.2822225077
 10
230.2135308026
 20
201.7932076968
 10
229.9061529495
 20
201.2772744673
 10
229.621717208
 20
200.7351618887
 10
229.3606310296
 20
200.167646532
 10
229.1232684176
 20
199.5755413575
 10
228.9099693918
 20
198.9596945502
 10
228.7210395009
 20
198.3209883047
 10
228.5567493852
 20
197.6603375615
 10
228.4173343886
 20
196.9786886965
 10
228.3029942219
 20
196.277018165
 10
228.2138926762
 20
195.5563311034
 10
228.1501573886
 20
194.817659889
 10
228.1118796593
 20
194.0620626611
 10
228.0991143208
 20
193.2906218055
 10
228.1118796593
 20
192.5044424037
 10
228.1501573886
 20
191.7046506503
 10
228.2138926762
 20
190.8923922391
 10
228.3029942219
 20
190.0688307226
 10
228.4173343886
 20
189.2351458447
 10
228.5567493852
 20
188.3925318509
 10
228.7210395009
 20
187.5421957776
 10
228.9099693918
 20
186.6853557232
 10
229.1232684176
 20
185.8232391026
 10
229.3606310296
 20
184.9570808898
 10
229.621717208
 20
184.0881218479
 10
229.9061529495
 20
183.2176067524
 10
230.2135308026
 20
182.3467826079
 10
230.5434104514
 20
181.4768968614
 10
230.8953193466
 20
180.6091956161
 10
231.268753382
 20
179.7449218454
 10
231.6631776169
 20
178.8853136134
 10
232.0780270426
 20
178.0316023005
 10
232.5127073911
 20
177.1850108399
 10
232.9665959871
 20
176.3467519658
 10
233.4390426395
 20
175.5180264758
 10
233.929370573
 20
174.7000215114
 10
234.4368773975
 20
173.8939088567
 10
234.9608361146
 20
173.1008432604
 10
235.5004961583
 20
172.3219607812
 10
236.0550844707
 20
171.5583771608
 10
236.6238066096
 20
170.8111862254
 10
237.2058478859
 20
170.0814583189
 10
237.8003745312
 20
169.3702387693
 10
238.4065348916
 20
168.6785463919
 10
239.0234606483
 20
168.0073720294
 10
239.6502680612
 20
167.3576771325
 10
240.2860592346
 20
166.7303923829
 10
240.9299234038
 20
166.12641636
 10
241.5809382396
 20
165.5466142536
 10
242.2381711695
 20
164.9918166246
 10
242.9006807137
 20
164.4628182154
 10
243.5675178336
 20
163.960376811
 10
244.2377272915
 20
163.485212154
 10
244.9103490188
 20
163.038004913
 10
245.5844194913
 20
162.6193957082
 10
246.2589731096
 20
162.2299841932
 10
246.9330435821
 20
161.8703281963
 10
247.6056653094
 20
161.5409429212
 10
248.2758747673
 20
161.2423002091
 10
248.9427118872
 20
160.9748278629
 10
249.6052214314
 20
160.7389090342
 10
250.2624543613
 20
160.5348816743
 10
250.9134691971
 20
160.3630380505
 10
251.5573333663
 20
160.2236243271
 10
252.1931245397
 20
160.1168402129
 10
252.8199319526
 20
160.0428386753
 10
253.4368577093
 20
160.0017257206
 10
254.0430180697
 20
159.9935602427
 10
254.6375447149
 20
160.0183539387
 10
255.2195859913
 20
160.0760712918
 10
255.7883081301
 20
160.1666296224
 10
256.3428964426
 20
160.2898992066
 10
256.8825564863
 20
160.445703462
 10
257.4065152033
 20
160.6338192004
 10
257.9140220279
 20
160.8539769478
 10
258.4043499614
 20
161.1058613304
 10
258.8767966138
 20
161.3891115263
 10
259.3306852098
 20
161.7033217822
 10
259.7653655583
 20
162.048041995
 10
260.1802149839
 20
162.4227783564
 10
260.5746392189
 20
162.82699406
 10
260.9480732543
 20
163.2601100708
 10
261.2999821495
 20
163.7215059542
 10
261.6298617983
 20
164.2105207652
 10
261.9372396514
 20
164.7264539947
 10
262.2216753928
 20
165.2685665733
 10
262.4827615713
 20
165.83608193
 10
262.7201241833
 20
166.4281871044
 10
262.9334232091
 20
167.0440339117
 10
263.1223531
 20
167.6827401572
 10
263.2866432157
 20
168.3433909004
 10
263.4260582123
 20
169.0250397655
 10
263.540398379
 20
169.7267102969
 10
263.6294999247
 20
170.4473973585
 10
263.6932352123
 20
171.186068573
 10
263.7315129416
 20
171.9416658009
 10
263.7442782801
 20
172.7131066565
  0
LWPOLYLINE
  5
ED
330
1F
100
AcDbEntity
  8
0
  6
Continuous
 62
     7
370
    18
100
AcDbPolyline
 90
      127
 70
   128
 43
0.0
 10
228.0991143208
 20
193.4498726968
 10
228.1118248691
 20
194.2226750498
 10
228.1499385238
 20
194.9797083008
 10
228.2134013391
 20
195.7199009538
 10
228.3021234905
 20
196.442205349
 10
228.4159794019
 20
197.1455991451
 10
228.5548079228
 20
197.829086767
 10
228.7184125571
 20
198.4917008144
 10
228.9065617406
 20
199.1325034312
 10
229.1189891692
 20
199.7505876328
 10
229.3553941757
 20
200.3450785904
 10
229.6154421552
 20
200.9151348683
 10
229.8987650389
 20
201.4599496156
 10
230.2049618148
 20
201.9787517081
 10
230.5335990958
 20
202.4708068393
 10
230.8842117325
 20
202.9354185603
 10
231.2563034719
 20
203.3719292651
 10
231.6493476598
 20
203.7797211217
 10
232.062787986
 20
204.1582169462
 10
232.4960392721
 20
204.5068810201
 10
232.9484882992
 20
204.8252198484
 10
233.4194946764
 20
205.1127828582
 10
233.9083917468
 20
205.3691630361
 10
234.4144875313
 20
205.5939975047
 10
234.9370657079
 20
205.7869680359
 10
235.4753866256
 20
205.9478015015
 10
236.0286883513
 20
206.0762702597
 10
236.5961877484
 20
206.1721924773
 10
237.1770815849
 20
206.2354323873
 10
237.7705476705
 20
206.2659004805
 10
238.3757460204
 20
206.2635536328
 10
238.991820044
 20
206.2283951659
 10
239.6178977573
 20
206.1604748427
 10
240.2530930174
 20
206.0598887967
 10
240.8965067764
 20
205.9267793963
 10
241.5472283541
 20
205.761335043
 10
242.2043367269
 20
205.5637899047
 10
242.8669018314
 20
205.3344235845
 10
243.5339858806
 20
205.0735607248
 10
244.2046446919
 20
204.7815705478
 10
244.8779290225
 20
204.4588663329
 10
245.5528859139
 20
204.1059048318
 10
246.2285600399
 20
203.7231856222
 10
246.9039950596
 20
203.3112504001
 10
247.57823497
 20
202.8706822139
 10
248.2503254601
 20
202.4021046386
 10
248.9193152608
 20
201.9061808934
 10
249.584257492
 20
201.3836129028
 10
250.2442110023
 20
200.8351403033
 10
250.8982417012
 20
200.2615393967
 10
251.5454238814
 20
199.6636220509
 10
252.184841529
 20
199.042234551
 10
252.8155896198
 20
198.3982564015
 10
253.4367754003
 20
197.7325990814
 10
254.0475196516
 20
197.0462047544
 10
254.6469579335
 20
196.3400449348
 10
255.2342418081
 20
195.6151191128
 10
255.8085400407
 20
194.87245334
 10
256.3690397765
 20
194.1130987765
 10
256.9149476907
 20
193.338130204
 10
257.4454911118
 20
192.5486445038
 10
257.9599191148
 20
191.7457591046
 10
258.4575035844
 20
190.9306104009
 10
258.9375402455
 20
190.1043521445
 10
259.3993496599
 20
189.2681538116
 10
259.8422781879
 20
188.4231989474
 10
260.2656989137
 20
187.5706834911
 10
260.6690125327
 20
186.711814083
 10
261.0516481996
 20
185.8478063566
 10
261.4130643363
 20
184.9798832183
 10
261.7527493988
 20
184.1092731163
 10
262.0702226007
 20
183.2372083017
 10
262.3650345943
 20
182.3649230848
 10
262.6367681062
 20
181.4936520878
 10
262.885038528
 20
180.6246284973
 10
263.1094944606
 20
179.7590823191
 10
263.3098182117
 20
178.898238637
 10
263.4857262456
 20
178.043315879
 10
263.6369695841
 20
177.1955240925
 10
263.7633341591
 20
176.3560632322
 10
263.8646411157
 20
175.5261214609
 10
263.9407470652
 20
174.7068734685
 10
263.9915442882
 20
173.8994788088
 10
264.0169608868
 20
173.1050802587
 10
264.0169608868
 20
172.3248022006
 10
263.9915442882
 20
171.5597490307
 10
263.9407470652
 20
170.8110035963
 10
263.8646411157
 20
170.0796256628
 10
263.7633341591
 20
169.3666504139
 10
263.6369695841
 20
168.6730869863
 10
263.4857262456
 20
167.9999170415
 10
263.3098182117
 20
167.3480933763
 10
263.1094944606
 20
166.7185385742
 10
262.885038528
 20
166.1121436996
 10
262.6367681062
 20
165.5297670367
 10
262.3650345943
 20
164.9722328744
 10
262.0702226007
 20
164.4403303401
 10
261.7527493988
 20
163.9348122823
 10
261.4130643363
 20
163.4563942052
 10
261.0516481996
 20
163.0057532563
 10
260.6690125327
 20
162.5835272673
 10
260.2656989137
 20
162.1903138519
 10
259.8422781879
 20
161.8266695598
 10
259.3993496599
 20
161.4931090888
 10
258.9375402455
 20
161.1901045563
 10
258.4575035844
 20
160.9180848315
 10
257.9599191148
 20
160.6774349279
 10
257.4454911118
 20
160.4684954584
 10
256.9149476907
 20
160.2915621536
 10
256.3690397765
 20
160.1468854427
 10
255.8085400407
 20
160.0346700995
 10
255.2342418081
 20
159.9550749522
 10
254.6469579335
 20
159.9082126589
 10
254.0475196516
 20
159.8941495478
 10
253.4367754003
 20
159.9129055238
 10
252.8155896198
 20
159.9644540398
 10
252.184841529
 20
160.0487221347
 10
251.5454238814
 20
160.1655905365
 10
250.8982417012
 20
160.3148938309
 10
250.2442110023
 20
160.4964206959
 10
249.584257492
 20
160.7099142005
 10
248.9193152608
 20
160.9550721685
 10
248.2503254601
 20
161.2315476062
 10
247.57823497
 20
161.5389491936
 10
246.9039950596
 20
161.876841838
 10
246.2285600399
 20
162.2447472903
 10
246.0567074746
 20
162.3430384825
  0
LWPOLYLINE
  5
EE
330
1F
100
AcDbEntity
  8
0
  6
Continuous
 62
     7
370
    18
100
AcDbPolyline
 90
       64
 70
   128
 43
0.0
 10
270.3293924233
 20
176.3553612427
 10
270.316681875
 20
177.1428388825
 10
270.2785682204
 20
177.9438772224
 10
270.2151054051
 20
178.7573424824
 10
270.1263832536
 20
179.5820832932
 10
270.0125273422
 20
180.4169323265
 10
269.8736988213
 20
181.2607079468
 10
269.7100941871
 20
182.1122158842
 10
269.5219450036
 20
182.9702509243
 10
269.3095175749
 20
183.8335986145
 10
269.0731125684
 20
184.7010369826
 10
268.8130645889
 20
185.5713382668
 10
268.5297417053
 20
186.4432706527
 10
268.2235449293
 20
187.3156000177
 10
267.8949076483
 20
188.187091677
 10
267.5442950116
 20
189.0565121318
 10
267.1722032722
 20
189.9226308144
 10
266.7791590843
 20
190.7842218309
 10
266.3657187581
 20
191.6400656954
 10
265.9324674721
 20
192.4889510567
 10
265.4800184449
 20
193.3296764125
 10
265.0090120677
 20
194.16105181
 10
264.5201149973
 20
194.9819005303
 10
264.0140192128
 20
195.791060754
 10
263.4914410362
 20
196.587387205
 10
262.9531201185
 20
197.3697527725
 10
262.3998183928
 20
198.1370501054
 10
261.8323189957
 20
198.8881931802
 10
261.2514251592
 20
199.6221188378
 10
260.6579590736
 20
200.3377882886
 10
260.0527607237
 20
201.0341885824
 10
259.4366867002
 20
201.7103340425
 10
258.8106089868
 20
202.3652676607
 10
258.1754137267
 20
202.9980624516
 10
257.5319999677
 20
203.607822765
 10
256.88127839
 20
204.1936855533
 10
256.2241700172
 20
204.7548215932
 10
255.5616049128
 20
205.2904366596
 10
254.8945208635
 20
205.799772649
 10
254.2238620523
 20
206.2821086534
 10
253.5505777216
 20
206.7367619801
 10
252.8756208303
 20
207.1630891182
 10
252.1999467042
 20
207.5604866493
 10
251.5245116846
 20
207.9283921015
 10
250.8502717741
 20
208.2662847459
 10
250.178181284
 20
208.5736863333
 10
249.5091914833
 20
208.850161771
 10
248.8442492521
 20
209.095319739
 10
248.1842957419
 20
209.3088132436
 10
247.5302650429
 20
209.4903401086
 10
246.8830828627
 20
209.6396434031
 10
246.2436652151
 20
209.7565118048
 10
245.6129171243
 20
209.8407798998
 10
244.9917313438
 20
209.8923284158
 10
244.3809870925
 20
209.9110843918
 10
243.7815488106
 20
209.8970212807
 10
243.1942649361
 20
209.8501589873
 10
242.6199667034
 20
209.77056384
 10
242.0594669676
 20
209.6583484968
 10
241.5135590534
 20
209.5136717859
 10
240.9830156323
 20
209.3367384811
 10
240.4685876293
 20
209.1277990116
 10
239.9710031597
 20
208.887149108
 10
239.6699122767
 20
208.7213853674
  0
LWPOLYLINE
  5
EF
330
1F
100
AcDbEntity
  8
0
  6
Continuous
 62
     7
370
    18
100
AcDbPolyline
 90
       22
 70
   128
 43
0.0
 10
265.0678480857
 20
164.7261031584
 10
265.4800184449
 20
164.9800140911
 10
265.9324674721
 20
165.2983529194
 10
266.3657187581
 20
165.6470169934
 10
266.7791590843
 20
166.0255128179
 10
267.1722032722
 20
166.4333046744
 10
267.5442950116
 20
166.8698153792
 10
267.8949076483
 20
167.3344271002
 10
268.2235449293
 20
167.8264822314
 10
268.5297417053
 20
168.3452843239
 10
268.8130645889
 20
168.8900990713
 10
269.0731125684
 20
169.4601553492
 10
269.3095175749
 20
170.0546463067
 10
269.5219450036
 20
170.6727305084
 10
269.7100941871
 20
171.3135331251
 10
269.8736988213
 20
171.9761471725
 10
270.0125273422
 20
172.6596347944
 10
270.1263832536
 20
173.3630285906
 10
270.2151054051
 20
174.0853329857
 10
270.2785682204
 20
174.8255256387
 10
270.316681875
 20
175.5825588897
 10
270.3293924233
 20
176.3553612427
  0
ARC
  5
F0
330
1F
100
AcDbEntity
  8
0
  6
Continuous
 62
     7
370
    18
100
AcDbCircle
 10
231.7198839865
 20
174.8033324928
 30
0.0
 40
38.64759282808868
100
AcDbArc
 50
2.5438153591
 51
57.4508081082
  0
CIRCLE
  5
F1
330
1F
100
AcDbEntity
  8
0
  6
Continuous
 62
     7
370
    18
100
AcDbCircle
 10
54.3356499286
 20
119.8813009459
 30
0.0
 40
25.20493715211659
  0
CIRCLE
  5
F2
330
1F
100
AcDbEntity
  8
0
  6
Continuous
 62
     7
370
    18
100
AcDbCircle
 10
54.3356499286
 20
119.8813009459
 30
0.0
 40
25.40000000000002
  0
DIMENSION
  5
F3
330
1F
100
AcDbEntity
  8
0
  6
Continuous
 62
     7
370
    18
100
AcDbDimension
  2
_D
 10
36.3751376865
 20
101.9207887037
 30
0.0
 11
95.4547459554
 21
150.2110804997
 31
0.0
 70
   163
  1
<>
 71
     1
 42
-1.0
  3
SLDDIMSTYLE0
100
AcDbDiametricDimension
 15
72.2961621708
 25
137.841813188
 35
0.0
 40
0.0
  0
LINE
  5
104
330
1F
100
AcDbEntity
  8
0
  6
PHANTOM
 62
     7
370
    35
100
AcDbLine
 10
54.3356499286
 20
151.3773009459
 30
0.0
 11
54.3356499286
 21
88.3853009459
 31
0.0
  0
LINE
  5
105
330
1F
100
AcDbEntity
  8
0
  6
Continuous
 62
     7
370
    35
100
AcDbLine
 10
54.3356499286
 20
151.3773009459
 30
0.0
 11
45.4456499286
 21
151.3773009459
 31
0.0
  0
SOLID
  5
106
330
1F
100
AcDbEntity
  8
0
  6
Continuous
 62
     7
370
    35
100
AcDbTrace
 10
45.4456499286
 20
151.3773009459
 30
0.0
 11
49.2556499286
 21
150.7423009459
 31
0.0
 12
49.2556499286
 22
152.0123009459
 32
0.0
 13
49.2556499286
 23
152.0123009459
 33
0.0
  0
LINE
  5
107
330
1F
100
AcDbEntity
  8
0
  6
Continuous
 62
     7
370
    35
100
AcDbLine
 10
54.3356499286
 20
88.3853009459
 30
0.0
 11
45.4456499286
 21
88.3853009459
 31
0.0
  0
SOLID
  5
108
330
1F
100
AcDbEntity
  8
0
  6
Continuous
 62
     7
370
    35
100
AcDbTrace
 10
45.4456499286
 20
88.3853009459
 30
0.0
 11
49.2556499286
 21
87.7503009459
 31
0.0
 12
49.2556499286
 22
89.0203009459
 32
0.0
 13
49.2556499286
 23
89.0203009459
 33
0.0
  0
MTEXT
  5
109
330
1F
100
AcDbEntity
  8
0
  6
Continuous
 62
     7
100
AcDbMText
 10
42.0400143074
 20
153.4784344693
 30
0.0
 40
2.6458333333
 41
0.0
 71
     1
 72
     1
  1
A
  7
SLDTEXTSTYLE0
 73
     1
 44
1.0
  0
MTEXT
  5
10A
330
1F
100
AcDbEntity
  8
0
  6
Continuous
 62
     7
100
AcDbMText
 10
42.0400143074
 20
90.4864344693
 30
0.0
 40
2.6458333333
 41
0.0
 71
     1
 72
     1
  1
A
  7
SLDTEXTSTYLE0
 73
     1
 44
1.0
  0
LINE
  5
10B
330
1F
100
AcDbEntity
  8
0
  6
Continuous
 62
     7
370
    18
100
AcDbLine
 10
144.3264272189
 20
94.6813009459
 30
0.0
 11
144.1264272189
 21
94.4813009459
 31
0.0
  0
LINE
  5
10C
330
1F
100
AcDbEntity
  8
0
  6
Continuous
 62
     7
370
    18
100
AcDbLine
 10
135.2037951835
 20
94.4813009459
 30
0.0
 11
144.1264272189
 21
94.4813009459
 31
0.0
  0
LINE
  5
10D
330
1F
100
AcDbEntity
  8
0
  6
Continuous
 62
     7
370
    18
100
AcDbLine
 10
135.2037951835
 20
94.4813009459
 30
0.0
 11
135.0087323356
 21
94.6763637938
 31
0.0
  0
ARC
  5
10E
330
1F
100
AcDbEntity
  8
0
  6
Continuous
 62
     7
370
    18
100
AcDbCircle
 10
-864.6736048164
 20
119.8813009459
 30
0.0
 40
1000.000032035271
100
AcDbArc
 50
358.5557105735
 51
1.4442894265
  0
LINE
  5
10F
330
1F
100
AcDbEntity
  8
0
  6
Continuous
 62
     7
370
    18
100
AcDbLine
 10
135.0087323356
 20
145.086238098
 30
0.0
 11
135.2037951835
 21
145.2813009459
 31
0.0
  0
LINE
  5
110
330
1F
100
AcDbEntity
  8
0
  6
Continuous
 62
     7
370
    18
100
AcDbLine
 10
144.1264272189
 20
145.2813009459
 30
0.0
 11
135.2037951835
 21
145.2813009459
 31
0.0
  0
LINE
  5
111
330
1F
100
AcDbEntity
  8
0
  6
Continuous
 62
     7
370
    18
100
AcDbLine
 10
144.1264272189
 20
145.2813009459
 30
0.0
 11
144.3264272189
 21
145.0813009459
 31
0.0
  0
LINE
  5
112
330
1F
100
AcDbEntity
  8
0
  6
Continuous
 62
     7
370
    18
100
AcDbLine
 10
144.3264272189
 20
117.0711600472
 30
0.0
 11
144.3264272189
 21
117.4505447035
 31
0.0
  0
LINE
  5
113
330
1F
100
AcDbEntity
  8
0
  6
Continuous
 62
     7
370
    18
100
AcDbLine
 10
144.3264272189
 20
120.8813009459
 30
0.0
 11
144.3264272189
 21
120.9837742237
 31
0.0
  0
LINE
  5
114
330
1F
100
AcDbEntity
  8
0
  6
Continuous
 62
     7
370
    18
100
AcDbLine
 10
144.3264272189
 20
118.2572354658
 30
0.0
 11
144.3264272189
 21
120.8813009459
 31
0.0
  0
LINE
  5
115
330
1F
100
AcDbEntity
  8
0
  6
Continuous
 62
     7
370
    18
100
AcDbLine
 10
144.3264272189
 20
120.9837742237
 30
0.0
 11
144.3264272189
 21
145.0813009459
 31
0.0
  0
LINE
  5
116
330
1F
100
AcDbEntity
  8
0
  6
Continuous
 62
     7
370
    18
100
AcDbLine
 10
144.3264272189
 20
94.6813009459
 30
0.0
 11
144.3264272189
 21
116.6450523066
 31
0.0
  0
LINE
  5
117
330
1F
100
AcDbEntity
  8
0
  6
Continuous
 62
     7
370
    18
100
AcDbLine
 10
144.3264272189
 20
117.4505447035
 30
0.0
 11
144.3264272189
 21
118.2572354658
 31
0.0
  0
LINE
  5
118
330
1F
100
AcDbEntity
  8
0
  6
Continuous
 62
     7
370
    18
100
AcDbLine
 10
144.3264272189
 20
116.6450523066
 30
0.0
 11
144.3264272189
 21
117.0711600472
 31
0.0
  0
HATCH
  5
119
330
1F
100
AcDbEntity
  8
0
  6
Continuous
 62
     7
370
    18
100
AcDbHatch
 10
0.0
 20
0.0
 30
0.0
210
0.0
220
0.0
230
1.0
  2
ANSI31
 70
     0
 71
     0
 91
        1
 92
        0
 93
       14
 72
     1
 10
144.3264272188792
 20
116.6450523066229
 11
144.3264272188792
 21
117.0711600471505
 72
     1
 10
144.3264272188792
 20
117.0711600471505
 11
144.3264272188792
 21
117.4505447035365
 72
     1
 10
144.3264272188792
 20
117.4505447035365
 11
144.3264272188792
 21
118.2572354657962
 72
     1
 10
144.3264272188792
 20
118.2572354657962
 11
144.3264272188792
 21
120.881300945884
 72
     1
 10
144.3264272188792
 20
120.881300945884
 11
144.3264272188792
 21
120.9837742236974
 72
     1
 10
144.3264272188792
 20
120.9837742236974
 11
144.3264272188792
 21
145.081300945884
 72
     1
 10
144.3264272188792
 20
145.081300945884
 11
144.1264272188792
 21
145.281300945884
 72
     1
 10
144.1264272188792
 20
145.281300945884
 11
135.2037951834997
 21
145.281300945884
 72
     1
 10
135.2037951834997
 20
145.281300945884
 11
135.0087323356164
 21
145.0862380980007
 72
     2
 10
-864.6736048163912
 20
119.881300945884
 40
1000.00003203527
 50
358.5557105735338
 51
361.4442894264678
 73
     0
 72
     1
 10
135.0087323356164
 20
94.67636379377049
 11
135.2037951834997
 21
94.48130094588393
 72
     1
 10
135.2037951834997
 20
94.48130094588393
 11
144.1264272188792
 21
94.48130094588393
 72
     1
 10
144.1264272188792
 20
94.48130094588393
 11
144.3264272188792
 21
94.68130094588395
 72
     1
 10
144.3264272188792
 20
94.68130094588395
 11
144.3264272188792
 21
116.6450523066229
 97
        0
 75
     0
 76
     1
 52
0.0
 41
1.0
 77
     0
 78
     1
 53
45.0
 43
0.0
 44
0.0
 45
-2.245064030267288
 46
2.245064030267288
 79
     0
 98
        1
 10
0.0
 20
0.0
  0
DIMENSION
  5
11A
330
1F
100
AcDbEntity
  8
0
  6
Continuous
 62
     7
370
    18
100
AcDbDimension
  2
_D_1
 10
144.3334087827
 20
158.2573344296
 30
0.0
 11
162.9827526024
 21
158.2474527315
 31
0.0
 70
   160
  1
<> REF
 71
     2
 42
-1.0
  3
SLDDIMSTYLE1
100
AcDbAlignedDimension
 13
135.0087323356
 23
145.086238098
 33
0.0
 14
144.3264272189
 24
145.0813009459
 34
0.0
 50
-0.0303592204
100
AcDbRotatedDimension
  0
DIMENSION
  5
12E
330
1F
100
AcDbEntity
  8
0
  6
Continuous
 62
     7
370
    18
100
AcDbDimension
  2
_D_2
 10
-864.6736048164
 20
119.8813009459
 30
0.0
 11
165.3044471034
 21
85.0165250047
 31
0.0
 70
   164
  1
<>
 71
     1
 42
-1.0
  3
SLDDIMSTYLE2
100
AcDbRadialDimension
 15
134.7408898675
 25
85.6653414189
 35
0.0
 40
0.0
  0
DIMENSION
  5
13F
330
1F
100
AcDbEntity
  8
0
  6
Continuous
 62
     7
370
    18
100
AcDbDimension
  2
_D_3
 10
135.3264272189
 20
149.3446555713
 30
0.0
 11
160.3264272189
 21
149.3446555713
 31
0.0
 70
   160
  1
<>
 71
     2
 42
-1.0
  3
SLDDIMSTYLE3
100
AcDbAlignedDimension
 13
144.3264272189
 23
145.0813009459
 33
0.0
 14
135.3264272189
 24
119.8813009459
 34
0.0
100
AcDbRotatedDimension
  0
MTEXT
  5
154
330
1F
100
AcDbEntity
  8
0
  6
Continuous
 62
     7
370
     0
100
AcDbMText
 10
139.4865357272
 20
76.8964944314
 30
0.0
 40
2.1166666667
 41
0.0
 71
     2
 72
     1
  1
SECTION A-A
  7
SLDTEXTSTYLE0
 73
     1
 44
1.0
  0
MTEXT
  5
155
330
1F
100
AcDbEntity
  8
0
  6
Continuous
 62
     7
370
     0
100
AcDbMText
 10
116.6216283862
 20
96.6514855094
 30
0.0
 40
2.1166666667
 41
0.0
 71
     1
 72
     1
  1
S1
  7
SLDTEXTSTYLE0
 73
     1
 44
1.0
  0
LEADER
  5
157
330
1F
100
AcDbEntity
  8
0
  6
Continuous
 62
     7
370
     0
100
AcDbLeader
  3
SLDDIMSTYLE4
 76
     3
 10
135.3013000854
 20
112.7923209564
 30
0.0
 10
126.3848316365
 20
96.1755401434
 30
0.0
 10
120.0348316365
 20
96.1755401434
 30
0.0
  0
MTEXT
  5
158
330
1F
100
AcDbEntity
  8
0
  6
Continuous
 62
     7
370
     0
100
AcDbMText
 10
158.43017941
 20
131.4513054559
 30
0.0
 40
2.1166666667
 41
0.0
 71
     1
 72
     1
  1
S2
  7
SLDTEXTSTYLE0
 73
     1
 44
1.0
  0
LEADER
  5
159
330
1F
100
AcDbEntity
  8
0
  6
Continuous
 62
     7
370
     0
100
AcDbLeader
  3
SLDDIMSTYLE4
 76
     3
 10
144.3264272189
 20
116.3529681904
 30
0.0
 10
151.4936341162
 20
130.9097799456
 30
0.0
 10
157.8436341162
 20
130.9097799456
 30
0.0
  0
SPLINE
  5
15A
330
1F
100
AcDbEntity
  8
0
  6
Continuous
 62
     7
370
    18
100
AcDbSpline
210
0.0
220
0.0
230
1.0
 70
     8
 71
     3
 72
    13
 73
     9
 74
     0
 42
0.000000001
 43
0.00000001
 40
0.0
 40
0.0
 40
0.0
 40
0.0
 40
0.1943389941804439
 40
0.3816850483972324
 40
0.5594858099433007
 40
0.6963399801806499
 40
0.8391066529687222
 40
0.9999999999999999
 40
0.9999999999999999
 40
0.9999999999999999
 40
0.9999999999999999
 10
223.3389159985552
 20
122.0006583821666
 30
0.0
 10
223.3360909061634
 20
122.0622908044781
 30
0.0
 10
223.3305423772598
 20
122.1833379169838
 30
0.0
 10
223.2815466691258
 20
122.3553564715231
 30
0.0
 10
223.2015352836449
 20
122.4954784940609
 30
0.0
 10
223.0933017631259
 20
122.5944382216105
 30
0.0
 10
222.9642625047497
 20
122.6552087420856
 30
0.0
 10
222.8676106019219
 20
122.6618079480288
 30
0.0
 10
222.8163998822752
 20
122.6653045174244
 30
0.0
  0
SPLINE
  5
15B
330
1F
100
AcDbEntity
  8
0
  6
Continuous
 62
     7
370
    18
100
AcDbSpline
210
0.0
220
0.0
230
1.0
 70
     8
 71
     3
 72
    12
 73
     8
 74
     0
 42
0.000000001
 43
0.00000001
 40
0.0
 40
0.0
 40
0.0
 40
0.0
 40
0.2008908381631387
 40
0.3780365369998095
 40
0.5535498386387557
 40
0.7713747335183457
 40
1.0
 40
1.0
 40
1.0
 40
1.0
 10
222.8163998822752
 20
121.3359941848909
 30
0.0
 10
222.8805380537844
 20
121.3415163881988
 30
0.0
 10
223.0012333152933
 20
121.3519080747197
 30
0.0
 10
223.1539278033207
 20
121.4501684573726
 30
0.0
 10
223.2619097245208
 20
121.5976864357186
 30
0.0
 10
223.3275184770469
 20
121.7868102864467
 30
0.0
 10
223.3350560426383
 20
121.9282352486113
 30
0.0
 10
223.3389159985552
 20
122.0006583821666
 30
0.0
  0
SPLINE
  5
15C
330
1F
100
AcDbEntity
  8
0
  6
Continuous
 62
     7
370
    18
100
AcDbSpline
210
0.0
220
0.0
230
1.0
 70
     8
 71
     3
 72
    13
 73
     9
 74
     0
 42
0.000000001
 43
0.00000001
 40
0.0
 40
0.0
 40
0.0
 40
0.0
 40
0.1943256494037766
 40
0.3816748644005011
 40
0.5594881704966057
 40
0.6963511211546932
 40
0.8391184169589758
 40
0.9999999999999999
 40
0.9999999999999999
 40
0.9999999999999999
 40
0.9999999999999999
 10
222.2938657039772
 20
122.0006583821666
 30
0.0
 10
222.2966921582195
 20
121.9390297131813
 30
0.0
 10
222.3022435949082
 20
121.8179848899665
 30
0.0
 10
222.3512521238877
 20
121.6459674820891
 30
0.0
 10
222.4312720374522
 20
121.5058410098901
 30
0.0
 10
222.5395078525064
 20
121.4068730363385
 30
0.0
 10
222.668543288146
 20
121.346092943376
 30
0.0
 10
222.7651924698916
 20
121.3394917041822
 30
0.0
 10
222.8163998822752
 20
121.3359941848909
 30
0.0
  0
SPLINE
  5
15D
330
1F
100
AcDbEntity
  8
0
  6
Continuous
 62
     7
370
    18
100
AcDbSpline
210
0.0
220
0.0
230
1.0
 70
     8
 71
     3
 72
    12
 73
     8
 74
     0
 42
0.000000001
 43
0.00000001
 40
0.0
 40
0.0
 40
0.0
 40
0.0
 40
0.2008792258750605
 40
0.3780217100331197
 40
0.5535332757399352
 40
0.7713595773327315
 40
0.9999999999999999
 40
0.9999999999999999
 40
0.9999999999999999
 40
0.9999999999999999
 10
222.8163998822752
 20
122.6653045174244
 30
0.0
 10
222.752266089722
 20
122.6597828539275
 30
0.0
 10
222.6315768256815
 20
122.6493919901225
 30
0.0
 10
222.4788832919636
 20
122.5511449124975
 30
0.0
 10
222.3708897219021
 20
122.4036386423584
 30
0.0
 10
222.3052662459051
 20
122.2145152744575
 30
0.0
 10
222.2977267573476
 20
122.073085893068
 30
0.0
 10
222.2938657039772
 20
122.0006583821666
 30
0.0
  0
SPLINE
  5
15E
330
1F
100
AcDbEntity
  8
0
  6
Continuous
 62
     7
370
    18
100
AcDbSpline
210
0.0
220
0.0
230
1.0
 70
     8
 71
     3
 72
    19
 73
    15
 74
     0
 42
0.000000001
 43
0.00000001
 40
0.0
 40
0.0
 40
0.0
 40
0.0
 40
0.091587339706645
 40
0.1741182870805897
 40
0.2526289966153887
 40
0.3313197891920878
 40
0.4131632671988437
 40
0.4999972215981983
 40
0.5868350001903231
 40
0.6686802724867937
 40
0.7473714879383926
 40
0.8258819896397939
 40
0.9084127008286218
 40
1.0
 40
1.0
 40
1.0
 40
1.0
 10
222.8200050464215
 20
120.800121229008
 30
0.0
 10
222.9306426211133
 20
120.8075659415594
 30
0.0
 10
223.1409776418026
 20
120.821719214287
 30
0.0
 10
223.4253052167717
 20
120.94503861108
 30
0.0
 10
223.6494765033612
 20
121.1323042904498
 30
0.0
 10
223.8101557921619
 20
121.3754477159097
 30
0.0
 10
223.9062578722799
 20
121.6602050801004
 30
0.0
 10
223.936245500152
 20
121.9684576937351
 30
0.0
 10
223.9051078593121
 20
122.2765983914422
 30
0.0
 10
223.8079442456676
 20
122.5610029653411
 30
0.0
 10
223.6463580546795
 20
122.8035478656912
 30
0.0
 10
223.4214884952527
 20
122.9899747740773
 30
0.0
 10
223.1367021319518
 20
123.1122292564352
 30
0.0
 10
222.9263161096312
 20
123.1255967186579
 30
0.0
 10
222.8156515808562
 20
123.1326280978888
 30
0.0
  0
SPLINE
  5
15F
330
1F
100
AcDbEntity
  8
0
  6
Continuous
 62
     7
370
    18
100
AcDbSpline
210
0.0
220
0.0
230
1.0
 70
     8
 71
     3
 72
    14
 73
    10
 74
     0
 42
0.000000001
 43
0.00000001
 40
0.0
 40
0.0
 40
0.0
 40
0.0
 40
0.1466868109097157
 40
0.2859932799578324
 40
0.419815534109628
 40
0.551085320141104
 40
0.6904104027401201
 40
0.8377115977293308
 40
1.0
 40
1.0
 40
1.0
 40
1.0
 10
221.7141529509028
 20
121.9725116647477
 30
0.0
 10
221.718035267782
 20
121.8838371705175
 30
0.0
 10
221.7256045681931
 20
121.7109497152907
 30
0.0
 10
221.7954237717475
 20
121.4650107157798
 30
0.0
 10
221.9077221508202
 20
121.2465074057134
 30
0.0
 10
222.0679647012332
 20
121.0590671174342
 30
0.0
 10
222.2769583585691
 20
120.9136010868894
 30
0.0
 10
222.534438815785
 20
120.8172337289715
 30
0.0
 10
222.7217930353539
 20
120.8060065643716
 30
0.0
 10
222.8200050464215
 20
120.800121229008
 30
0.0
  0
SPLINE
  5
160
330
1F
100
AcDbEntity
  8
0
  6
Continuous
 62
     7
370
    18
100
AcDbSpline
210
0.0
220
0.0
230
1.0
 70
     8
 71
     3
 72
    14
 73
    10
 74
     0
 42
0.000000001
 43
0.00000001
 40
0.0
 40
0.0
 40
0.0
 40
0.0
 40
0.1553989656922832
 40
0.2968771122070966
 40
0.4305153137104961
 40
0.561767504011888
 40
0.7014063449726622
 40
0.8467289956139457
 40
1.0
 40
1.0
 40
1.0
 40
1.0
 10
222.8156515808562
 20
123.1326280978888
 30
0.0
 10
222.7224104402215
 20
123.1272731456656
 30
0.0
 10
222.5442808082308
 20
123.1170429440362
 30
0.0
 10
222.2981014055567
 20
123.0300405155932
 30
0.0
 10
222.0923330275267
 20
122.8964362769157
 30
0.0
 10
221.9263893401962
 20
122.7166220621022
 30
0.0
 10
221.8050183025678
 20
122.496903195323
 30
0.0
 10
221.7279458611361
 20
122.2434220086909
 30
0.0
 10
221.718831460631
 20
122.0644035612475
 30
0.0
 10
221.7141529509028
 20
121.9725116647477
 30
0.0
  0
LINE
  5
161
330
1F
100
AcDbEntity
  8
0
  6
Continuous
 62
     7
370
    18
100
AcDbLine
 10
218.5765539855
 20
122.6160132705
 30
0.0
 11
218.5765539855
 21
120.8813009459
 31
0.0
  0
LINE
  5
162
330
1F
100
AcDbEntity
  8
0
  6
Continuous
 62
     7
370
    18
100
AcDbLine
 10
217.9060596917
 20
122.6160132705
 30
0.0
 11
218.5765539855
 21
122.6160132705
 31
0.0
  0
LINE
  5
163
330
1F
100
AcDbEntity
  8
0
  6
Continuous
 62
     7
370
    18
100
AcDbLine
 10
217.9060596917
 20
123.1176496941
 30
0.0
 11
217.9060596917
 21
122.6160132705
 31
0.0
  0
LINE
  5
164
330
1F
100
AcDbEntity
  8
0
  6
Continuous
 62
     7
370
    18
100
AcDbLine
 10
220.3548719567
 20
123.1176496941
 30
0.0
 11
217.9060596917
 21
123.1176496941
 31
0.0
  0
LINE
  5
165
330
1F
100
AcDbEntity
  8
0
  6
Continuous
 62
     7
370
    18
100
AcDbLine
 10
220.3548719567
 20
122.3024747015
 30
0.0
 11
220.3548719567
 21
123.1176496941
 31
0.0
  0
LINE
  5
166
330
1F
100
AcDbEntity
  8
0
  6
Continuous
 62
     7
370
    18
100
AcDbLine
 10
221.1261381837
 20
122.3024747015
 30
0.0
 11
220.3548719567
 21
122.3024747015
 31
0.0
  0
LINE
  5
167
330
1F
100
AcDbEntity
  8
0
  6
Continuous
 62
     7
370
    18
100
AcDbLine
 10
221.1261381837
 20
123.1176496941
 30
0.0
 11
221.1261381837
 21
122.3024747015
 31
0.0
  0
LINE
  5
168
330
1F
100
AcDbEntity
  8
0
  6
Continuous
 62
     7
370
    18
100
AcDbLine
 10
221.7116506832
 20
123.1176496941
 30
0.0
 11
221.1261381837
 21
123.1176496941
 31
0.0
  0
LINE
  5
169
330
1F
100
AcDbEntity
  8
0
  6
Continuous
 62
     7
370
    18
100
AcDbLine
 10
221.7116506832
 20
120.8813009459
 30
0.0
 11
221.7116506832
 21
123.1176496941
 31
0.0
  0
LINE
  5
16A
330
1F
100
AcDbEntity
  8
0
  6
Continuous
 62
     7
370
    18
100
AcDbLine
 10
221.1261342484
 20
120.8813009459
 30
0.0
 11
221.7116506832
 21
120.8813009459
 31
0.0
  0
LINE
  5
16B
330
1F
100
AcDbEntity
  8
0
  6
Continuous
 62
     7
370
    18
100
AcDbLine
 10
221.1261342484
 20
121.8031140922
 30
0.0
 11
221.1261342484
 21
120.8813009459
 31
0.0
  0
LINE
  5
16C
330
1F
100
AcDbEntity
  8
0
  6
Continuous
 62
     7
370
    18
100
AcDbLine
 10
220.3548680214
 20
121.8031140922
 30
0.0
 11
221.1261342484
 21
121.8031140922
 31
0.0
  0
LINE
  5
16D
330
1F
100
AcDbEntity
  8
0
  6
Continuous
 62
     7
370
    18
100
AcDbLine
 10
220.3548680214
 20
120.8813009459
 30
0.0
 11
220.3548680214
 21
121.8031140922
 31
0.0
  0
LINE
  5
16E
330
1F
100
AcDbEntity
  8
0
  6
Continuous
 62
     7
370
    18
100
AcDbLine
 10
219.7694238347
 20
120.8813009459
 30
0.0
 11
220.3548680214
 21
120.8813009459
 31
0.0
  0
LINE
  5
16F
330
1F
100
AcDbEntity
  8
0
  6
Continuous
 62
     7
370
    18
100
AcDbLine
 10
219.7694238347
 20
122.6182168367
 30
0.0
 11
219.7694238347
 21
120.8813009459
 31
0.0
  0
LINE
  5
170
330
1F
100
AcDbEntity
  8
0
  6
Continuous
 62
     7
370
    18
100
AcDbLine
 10
219.1620523583
 20
122.6182168367
 30
0.0
 11
219.7694238347
 21
122.6182168367
 31
0.0
  0
LINE
  5
171
330
1F
100
AcDbEntity
  8
0
  6
Continuous
 62
     7
370
    18
100
AcDbLine
 10
219.1620523583
 20
120.8813009459
 30
0.0
 11
219.1620523583
 21
122.6182168367
 31
0.0
  0
LINE
  5
172
330
1F
100
AcDbEntity
  8
0
  6
Continuous
 62
     7
370
    18
100
AcDbLine
 10
218.5765539855
 20
120.8813009459
 30
0.0
 11
219.1620523583
 21
120.8813009459
 31
0.0
  0
SPLINE
  5
173
330
1F
100
AcDbEntity
  8
0
  6
Continuous
 62
     7
370
    18
100
AcDbSpline
210
0.0
220
0.0
230
1.0
 70
     8
 71
     3
 72
    12
 73
     8
 74
     0
 42
0.000000001
 43
0.00000001
 40
0.0
 40
0.0
 40
0.0
 40
0.0
 40
0.1970292569793939
 40
0.3714318737747114
 40
0.5434083414909567
 40
0.7603083066182458
 40
1.0
 40
1.0
 40
1.0
 40
1.0
 10
225.2743154042641
 20
122.4113525455313
 30
0.0
 10
225.2721056915463
 20
122.4397907076942
 30
0.0
 10
225.2679400272797
 20
122.4934012222991
 30
0.0
 10
225.2279025336268
 20
122.5631337563525
 30
0.0
 10
225.1644410160458
 20
122.6149255296887
 30
0.0
 10
225.0784434482381
 20
122.6473878218279
 30
0.0
 10
225.012878454578
 20
122.6509287162303
 30
0.0
 10
224.9784595508068
 20
122.6527875390089
 30
0.0
  0
SPLINE
  5
174
330
1F
100
AcDbEntity
  8
0
  6
Continuous
 62
     7
370
    18
100
AcDbSpline
210
0.0
220
0.0
230
1.0
 70
     8
 71
     3
 72
    12
 73
     8
 74
     0
 42
0.000000001
 43
0.00000001
 40
0.0
 40
0.0
 40
0.0
 40
0.0
 40
0.2111291888127921
 40
0.3927062339152247
 40
0.5599129747574164
 40
0.7634359056262752
 40
0.9999999999999999
 40
0.9999999999999999
 40
0.9999999999999999
 40
0.9999999999999999
 10
225.0036380037811
 20
122.1480625103757
 30
0.0
 10
225.033935958648
 20
122.1496011317916
 30
0.0
 10
225.0902910075071
 20
122.1524630109333
 30
0.0
 10
225.166615977317
 20
122.1816420345546
 30
0.0
 10
225.2279400755884
 20
122.2338024433476
 30
0.0
 10
225.2683876003786
 20
122.314002242324
 30
0.0
 10
225.2722429839028
 20
122.3773178921514
 30
0.0
 10
225.2743154042641
 20
122.4113525455313
 30
0.0
  0
LINE
  5
175
330
1F
100
AcDbEntity
  8
0
  6
Continuous
 62
     7
370
    18
100
AcDbLine
 10
224.5125678607
 20
122.1480625104
 30
0.0
 11
225.0036380038
 21
122.1480625104
 31
0.0
  0
LINE
  5
176
330
1F
100
AcDbEntity
  8
0
  6
Continuous
 62
     7
370
    18
100
AcDbLine
 10
224.5125678607
 20
122.652787539
 30
0.0
 11
224.5125678607
 21
122.1480625104
 31
0.0
  0
LINE
  5
177
330
1F
100
AcDbEntity
  8
0
  6
Continuous
 62
     7
370
    18
100
AcDbLine
 10
224.9784595508
 20
122.652787539
 30
0.0
 11
224.5125678607
 21
122.652787539
 31
0.0
  0
SPLINE
  5
178
330
1F
100
AcDbEntity
  8
0
  6
Continuous
 62
     7
370
    18
100
AcDbSpline
210
0.0
220
0.0
230
1.0
 70
     8
 71
     3
 72
    14
 73
    10
 74
     0
 42
0.000000001
 43
0.00000001
 40
0.0
 40
0.0
 40
0.0
 40
0.0
 40
0.2575826845002084
 40
0.4580339644254267
 40
0.6128287983994983
 40
0.7093883131761983
 40
0.799802888308482
 40
0.8941338805613361
 40
1.0
 40
1.0
 40
1.0
 40
1.0
 10
231.894424272703
 20
121.4753245910917
 30
0.0
 10
231.9225015478862
 20
121.4682105274769
 30
0.0
 10
231.9724286060166
 20
121.4555602875471
 30
0.0
 10
232.0411152954227
 20
121.447963970853
 30
0.0
 10
232.0923194167311
 20
121.4526568517677
 30
0.0
 10
232.1282470669768
 20
121.4677658772702
 30
0.0
 10
232.1523391970231
 20
121.4890068124848
 30
0.0
 10
232.1696482165838
 20
121.5172505579543
 30
0.0
 10
232.1759840793564
 20
121.5389037836777
 30
0.0
 10
232.1793345433035
 20
121.5503542135131
 30
0.0
  0
SPLINE
  5
179
330
1F
100
AcDbEntity
  8
0
  6
Continuous
 62
     7
370
    18
100
AcDbSpline
210
0.0
220
0.0
230
1.0
 70
     8
 71
     3
 72
    12
 73
     8
 74
     0
 42
0.000000001
 43
0.00000001
 40
0.0
 40
0.0
 40
0.0
 40
0.0
 40
0.2545415383352844
 40
0.4933538848768417
 40
0.6299818928893286
 40
0.7933578680691682
 40
1.0
 40
1.0
 40
1.0
 40
1.0
 10
231.6948028507
 20
121.7589705204382
 30
0.0
 10
231.6946481558972
 20
121.7263080712889
 30
0.0
 10
231.6943483255338
 20
121.6630015230422
 30
0.0
 10
231.7193421488516
 20
121.5827956782916
 30
0.0
 10
231.767399585688
 20
121.5315701065066
 30
0.0
 10
231.8235953606366
 20
121.4974459247557
 30
0.0
 10
231.8690432313188
 20
121.4832516150826
 30
0.0
 10
231.894424272703
 20
121.4753245910917
 30
0.0
  0
SPLINE
  5
17A
330
1F
100
AcDbEntity
  8
0
  6
Continuous
 62
     7
370
    18
100
AcDbSpline
210
0.0
220
0.0
230
1.0
 70
     8
 71
     3
 72
    14
 73
    10
 74
     0
 42
0.000000001
 43
0.00000001
 40
0.0
 40
0.0
 40
0.0
 40
0.0
 40
0.0123761948722824
 40
0.0260544786030442
 40
0.0423069896659065
 40
0.1107691877094743
 40
0.3353734156282144
 40
0.6465637489690628
 40
1.0
 40
1.0
 40
1.0
 40
1.0
 10
232.1793345433035
 20
121.5503542135131
 30
0.0
 10
232.1796007827728
 20
121.5525908334965
 30
0.0
 10
232.1801612725378
 20
121.5572993863352
 30
0.0
 10
232.177319884836
 20
121.5646052294869
 30
0.0
 10
232.1671965140246
 20
121.5791400700641
 30
0.0
 10
232.120825486069
 20
121.6119172260844
 30
0.0
 10
232.0211124842117
 20
121.6544295970505
 30
0.0
 10
231.8701717891973
 20
121.7072517852795
 30
0.0
 10
231.7556848886395
 20
121.741015562034
 30
0.0
 10
231.6948028507
 20
121.7589705204382
 30
0.0
  0
LINE
  5
17B
330
1F
100
AcDbEntity
  8
0
  6
Continuous
 62
     7
370
    18
100
AcDbLine
 10
231.1712933234
 20
121.7629802884
 30
0.0
 11
231.681003469
 21
121.7629802884
 31
0.0
  0
SPLINE
  5
17C
330
1F
100
AcDbEntity
  8
0
  6
Continuous
 62
     7
370
    18
100
AcDbSpline
210
0.0
220
0.0
230
1.0
 70
     8
 71
     3
 72
    11
 73
     7
 74
     0
 42
0.000000001
 43
0.00000001
 40
0.0
 40
0.0
 40
0.0
 40
0.0
 40
0.2403133392799475
 40
0.5276554281052306
 40
0.7630136347472214
 40
0.9999999999999999
 40
0.9999999999999999
 40
0.9999999999999999
 40
0.9999999999999999
 10
230.9555605814508
 20
122.1039731246438
 30
0.0
 10
230.9822564291981
 20
122.083665289684
 30
0.0
 10
231.0408724386711
 20
122.0390754247114
 30
0.0
 10
231.1085537586513
 20
121.956316063046
 30
0.0
 10
231.160305405779
 20
121.8620132423152
 30
0.0
 10
231.1676222771986
 20
121.7960670446189
 30
0.0
 10
231.1712933234346
 20
121.7629802884154
 30
0.0
  0
SPLINE
  5
17D
330
1F
100
AcDbEntity
  8
0
  6
Continuous
 62
     7
370
    18
100
AcDbSpline
210
0.0
220
0.0
230
1.0
 70
     8
 71
     3
 72
    10
 73
     6
 74
     0
 42
0.000000001
 43
0.00000001
 40
0.0
 40
0.0
 40
0.0
 40
0.0
 40
0.3052209345869945
 40
0.5892711010915033
 40
1.0
 40
1.0
 40
1.0
 40
1.0
 10
231.0808748617492
 20
122.2849184201222
 30
0.0
 10
231.0733738720676
 20
122.2633727086471
 30
0.0
 10
231.0588921771769
 20
122.2217757417093
 30
0.0
 10
231.011966900689
 20
122.1632564149756
 30
0.0
 10
230.9765171969976
 20
122.1259986200247
 30
0.0
 10
230.9555605814508
 20
122.1039731246438
 30
0.0
  0
SPLINE
  5
17E
330
1F
100
AcDbEntity
  8
0
  6
Continuous
 62
     7
370
    18
100
AcDbSpline
210
0.0
220
0.0
230
1.0
 70
     8
 71
     3
 72
    11
 73
     7
 74
     0
 42
0.000000001
 43
0.00000001
 40
0.0
 40
0.0
 40
0.0
 40
0.0
 40
0.3113820865694044
 40
0.595215242902464
 40
0.7995709864930255
 40
1.0
 40
1.0
 40
1.0
 40
1.0
 10
231.5819152387275
 20
121.7908319200413
 30
0.0
 10
231.5076113639992
 20
121.8161394721571
 30
0.0
 10
231.3655775067137
 20
121.86451553947
 30
0.0
 10
231.203550653134
 20
121.9875890905157
 30
0.0
 10
231.0996633563069
 20
122.1321411390241
 30
0.0
 10
231.0870970589502
 20
122.2343230747681
 30
0.0
 10
231.0808748617492
 20
122.2849184201222
 30
0.0
  0
SPLINE
  5
17F
330
1F
100
AcDbEntity
  8
0
  6
Continuous
 62
     7
370
    18
100
AcDbSpline
210
0.0
220
0.0
230
1.0
 70
     8
 71
     3
 72
     9
 73
     5
 74
     0
 42
0.000000001
 43
0.00000001
 40
0.0
 40
0.0
 40
0.0
 40
0.0
 40
0.5632377239369556
 40
1.0
 40
1.0
 40
1.0
 40
1.0
 10
231.6810034690125
 20
121.7629802884154
 30
0.0
 10
231.6624172533282
 20
121.7682705580725
 30
0.0
 10
231.629418370451
 20
121.7776631634187
 30
0.0
 10
231.5963557458854
 20
121.7868287413587
 30
0.0
 10
231.5819152387275
 20
121.7908319200413
 30
0.0
  0
SPLINE
  5
180
330
1F
100
AcDbEntity
  8
0
  6
Continuous
 62
     7
370
    18
100
AcDbSpline
210
0.0
220
0.0
230
1.0
 70
     8
 71
     3
 72
    13
 73
     9
 74
     0
 42
0.000000001
 43
0.00000001
 40
0.0
 40
0.0
 40
0.0
 40
0.0
 40
0.2070940199890579
 40
0.3978649646626727
 40
0.573936928003727
 40
0.7077750174858425
 40
0.8462504046616478
 40
1.0
 40
1.0
 40
1.0
 40
1.0
 10
230.3175378606006
 20
120.9837125874653
 30
0.0
 10
230.3889768528898
 20
120.9861791430035
 30
0.0
 10
230.5262240420853
 20
120.9909178410695
 30
0.0
 10
230.7199800880369
 20
121.0373472742453
 30
0.0
 10
230.8762639520686
 20
121.1158232905058
 30
0.0
 10
230.9894920257018
 20
121.2233545804357
 30
0.0
 10
231.06579629625
 20
121.3519269238369
 30
0.0
 10
231.0859731053838
 20
121.4511750962513
 30
0.0
 10
231.0965888173358
 20
121.5033929669326
 30
0.0
  0
LINE
  5
181
330
1F
100
AcDbEntity
  8
0
  6
Continuous
 62
     7
370
    18
100
AcDbLine
 10
228.8390171981
 20
120.9837125875
 30
0.0
 11
230.3175378606
 21
120.9837125875
 31
0.0
  0
LINE
  5
182
330
1F
100
AcDbEntity
  8
0
  6
Continuous
 62
     7
370
    18
100
AcDbLine
 10
228.6884160927
 20
121.3271437961
 30
0.0
 11
228.8390171981
 21
120.9837125875
 31
0.0
  0
LINE
  5
183
330
1F
100
AcDbEntity
  8
0
  6
Continuous
 62
     7
370
    18
100
AcDbLine
 10
228.0350045326
 20
121.3271437961
 30
0.0
 11
228.6884160927
 21
121.3271437961
 31
0.0
  0
LINE
  5
184
330
1F
100
AcDbEntity
  8
0
  6
Continuous
 62
     7
370
    18
100
AcDbLine
 10
227.8814412563
 20
120.9864941382
 30
0.0
 11
228.0350045326
 21
121.3271437961
 31
0.0
  0
LINE
  5
185
330
1F
100
AcDbEntity
  8
0
  6
Continuous
 62
     7
370
    18
100
AcDbLine
 10
226.012022402
 20
120.9864941382
 30
0.0
 11
227.8814412563
 21
120.9864941382
 31
0.0
  0
LINE
  5
186
330
1F
100
AcDbEntity
  8
0
  6
Continuous
 62
     7
370
    18
100
AcDbLine
 10
226.012022402
 20
123.0067308421
 30
0.0
 11
226.012022402
 21
120.9864941382
 31
0.0
  0
LINE
  5
187
330
1F
100
AcDbEntity
  8
0
  6
Continuous
 62
     7
370
    18
100
AcDbLine
 10
226.5390720848
 20
123.0067308421
 30
0.0
 11
226.012022402
 21
123.0067308421
 31
0.0
  0
LINE
  5
188
330
1F
100
AcDbEntity
  8
0
  6
Continuous
 62
     7
370
    18
100
AcDbLine
 10
226.5390720848
 20
121.4434631915
 30
0.0
 11
226.5390720848
 21
123.0067308421
 31
0.0
  0
LINE
  5
189
330
1F
100
AcDbEntity
  8
0
  6
Continuous
 62
     7
370
    18
100
AcDbLine
 10
227.5085328344
 20
121.4434631915
 30
0.0
 11
226.5390720848
 21
121.4434631915
 31
0.0
  0
LINE
  5
18A
330
1F
100
AcDbEntity
  8
0
  6
Continuous
 62
     7
370
    18
100
AcDbLine
 10
228.0967766338
 20
123.0067308421
 30
0.0
 11
227.5085328344
 21
121.4434631915
 31
0.0
  0
LINE
  5
18B
330
1F
100
AcDbEntity
  8
0
  6
Continuous
 62
     7
370
    18
100
AcDbLine
 10
228.632243217
 20
123.0067308421
 30
0.0
 11
228.0967766338
 21
123.0067308421
 31
0.0
  0
LINE
  5
18C
330
1F
100
AcDbEntity
  8
0
  6
Continuous
 62
     7
370
    18
100
AcDbLine
 10
229.3457651727
 20
121.123331986
 30
0.0
 11
228.632243217
 21
123.0067308421
 31
0.0
  0
LINE
  5
18D
330
1F
100
AcDbEntity
  8
0
  6
Continuous
 62
     7
370
    18
100
AcDbLine
 10
229.3457651727
 20
123.0067308421
 30
0.0
 11
229.3457651727
 21
121.123331986
 31
0.0
  0
LINE
  5
18E
330
1F
100
AcDbEntity
  8
0
  6
Continuous
 62
     7
370
    18
100
AcDbLine
 10
230.2919981673
 20
123.0067308421
 30
0.0
 11
229.3457651727
 21
123.0067308421
 31
0.0
  0
SPLINE
  5
18F
330
1F
100
AcDbEntity
  8
0
  6
Continuous
 62
     7
370
    18
100
AcDbSpline
210
0.0
220
0.0
230
1.0
 70
     8
 71
     3
 72
    14
 73
    10
 74
     0
 42
0.000000001
 43
0.00000001
 40
0.0
 40
0.0
 40
0.0
 40
0.0
 40
0.1423816612635869
 40
0.2654010250778275
 40
0.3802085707899261
 40
0.4953201289099336
 40
0.656243276611475
 40
0.8263515868701823
 40
1.0
 40
1.0
 40
1.0
 40
1.0
 10
231.0229680323118
 20
122.5016265110734
 30
0.0
 10
231.0201441710682
 20
122.5497294218034
 30
0.0
 10
231.014880461809
 20
122.6393937908217
 30
0.0
 10
230.9642999933085
 20
122.7596370115334
 30
0.0
 10
230.8870776997901
 20
122.851838311724
 30
0.0
 10
230.7770728484664
 20
122.9263612351747
 30
0.0
 10
230.6345179618242
 20
122.9774789474624
 30
0.0
 10
230.466212185811
 20
123.0049616005318
 30
0.0
 10
230.3504668327871
 20
123.0061370598296
 30
0.0
 10
230.291998167268
 20
123.0067308420828
 30
0.0
  0
SPLINE
  5
190
330
1F
100
AcDbEntity
  8
0
  6
Continuous
 62
     7
370
    18
100
AcDbSpline
210
0.0
220
0.0
230
1.0
 70
     8
 71
     3
 72
    11
 73
     7
 74
     0
 42
0.000000001
 43
0.00000001
 40
0.0
 40
0.0
 40
0.0
 40
0.0
 40
0.2840562052455284
 40
0.5588619016419711
 40
0.7750993838285841
 40
1.0
 40
1.0
 40
1.0
 40
1.0
 10
230.7566255161286
 20
122.0953214180622
 30
0.0
 10
230.7985316881117
 20
122.1201759888276
 30
0.0
 10
230.8809793253489
 20
122.1690757221407
 30
0.0
 10
230.96491816566
 20
122.2743906527529
 30
0.0
 10
231.0145484323131
 20
122.3877327314347
 30
0.0
 10
231.0201249945329
 20
122.4631681141963
 30
0.0
 10
231.0229680323118
 20
122.5016265110734
 30
0.0
  0
SPLINE
  5
191
330
1F
100
AcDbEntity
  8
0
  6
Continuous
 62
     7
370
    18
100
AcDbSpline
210
0.0
220
0.0
230
1.0
 70
     8
 71
     3
 72
    11
 73
     7
 74
     0
 42
0.000000001
 43
0.00000001
 40
0.0
 40
0.0
 40
0.0
 40
0.0
 40
0.2849839497112047
 40
0.5578557580524984
 40
0.7738896021956505
 40
1.0
 40
1.0
 40
1.0
 40
1.0
 10
231.1026215313195
 20
121.6692022913977
 30
0.0
 10
231.0929238964303
 20
121.7242527228047
 30
0.0
 10
231.0739407871431
 20
121.8320138797919
 30
0.0
 10
230.9875835956237
 20
121.9599008383251
 30
0.0
 10
230.8792738973722
 20
122.0501334306078
 30
0.0
 10
230.7981247779719
 20
122.0800316269983
 30
0.0
 10
230.7566255161286
 20
122.0953214180622
 30
0.0
  0
LINE
  5
192
330
1F
100
AcDbEntity
  8
0
  6
Continuous
 62
     7
370
    18
100
AcDbLine
 10
231.606371211
 20
121.6692022914
 30
0.0
 11
231.1026215313
 21
121.6692022914
 31
0.0
  0
SPLINE
  5
193
330
1F
100
AcDbEntity
  8
0
  6
Continuous
 62
     7
370
    18
100
AcDbSpline
210
0.0
220
0.0
230
1.0
 70
     8
 71
     3
 72
    12
 73
     8
 74
     0
 42
0.000000001
 43
0.00000001
 40
0.0
 40
0.0
 40
0.0
 40
0.0
 40
0.3029848175181617
 40
0.5555954840373197
 40
0.6861253068640379
 40
0.8302562633026862
 40
1.0
 40
1.0
 40
1.0
 40
1.0
 10
231.9887802542941
 20
121.3559707767056
 30
0.0
 10
231.9319160557054
 20
121.3582395547362
 30
0.0
 10
231.8276418805237
 20
121.3623999045465
 30
0.0
 10
231.7067510829968
 20
121.4214023199837
 30
0.0
 10
231.6453863875071
 20
121.5003526269333
 30
0.0
 10
231.6147379973167
 20
121.578873517792
 30
0.0
 10
231.6093078434385
 20
121.6374980745663
 30
0.0
 10
231.6063712109852
 20
121.6692022913977
 30
0.0
  0
SPLINE
  5
194
330
1F
100
AcDbEntity
  8
0
  6
Continuous
 62
     7
370
    18
100
AcDbSpline
210
0.0
220
0.0
230
1.0
 70
     8
 71
     3
 72
    12
 73
     8
 74
     0
 42
0.000000001
 43
0.00000001
 40
0.0
 40
0.0
 40
0.0
 40
0.0
 40
0.1228977808113465
 40
0.236151700365539
 40
0.4654549568724362
 40
0.7229435422785258
 40
1.0
 40
1.0
 40
1.0
 40
1.0
 10
232.3118013826964
 20
121.5620222770866
 30
0.0
 10
232.3104801306299
 20
121.5444961682903
 30
0.0
 10
232.3079413059247
 20
121.5108192347792
 30
0.0
 10
232.2781309105318
 20
121.4501645497771
 30
0.0
 10
232.2088846126844
 20
121.3951533246074
 30
0.0
 10
232.1041154911084
 20
121.36173318952
 30
0.0
 10
232.0281522516706
 20
121.357937891947
 30
0.0
 10
231.9887802542941
 20
121.3559707767056
 30
0.0
  0
SPLINE
  5
195
330
1F
100
AcDbEntity
  8
0
  6
Continuous
 62
     7
370
    18
100
AcDbSpline
210
0.0
220
0.0
230
1.0
 70
     8
 71
     3
 72
    12
 73
     8
 74
     0
 42
0.000000001
 43
0.00000001
 40
0.0
 40
0.0
 40
0.0
 40
0.0
 40
0.3210306919457593
 40
0.602959297609866
 40
0.8214028303124057
 40
0.9104117121954223
 40
1.0
 40
1.0
 40
1.0
 40
1.0
 10
231.730963010567
 20
121.8554216961074
 30
0.0
 10
231.8023381062095
 20
121.8370289229031
 30
0.0
 10
231.9363946890073
 20
121.8024836476675
 30
0.0
 10
232.1179788631095
 20
121.7545089275656
 30
0.0
 10
232.2439607300835
 20
121.6974042880851
 30
0.0
 10
232.3044462007622
 20
121.6243391275924
 30
0.0
 10
232.3093443585082
 20
121.5828394384286
 30
0.0
 10
232.3118013826964
 20
121.5620222770866
 30
0.0
  0
SPLINE
  5
196
330
1F
100
AcDbEntity
  8
0
  6
Continuous
 62
     7
370
    18
100
AcDbSpline
210
0.0
220
0.0
230
1.0
 70
     8
 71
     3
 72
    12
 73
     8
 74
     0
 42
0.000000001
 43
0.00000001
 40
0.0
 40
0.0
 40
0.0
 40
0.0
 40
0.2059303301559971
 40
0.3857152088822362
 40
0.5622731912300346
 40
0.7785006333333745
 40
1.0
 40
1.0
 40
1.0
 40
1.0
 10
231.1388539392582
 20
122.4367477427206
 30
0.0
 10
231.1438227809826
 20
122.3743478967658
 30
0.0
 10
231.1531296073358
 20
122.2574706519303
 30
0.0
 10
231.2419556370561
 20
122.1075362008041
 30
0.0
 10
231.3742232782403
 20
121.9948023065156
 30
0.0
 10
231.5413153252042
 20
121.9127424119441
 30
0.0
 10
231.6672415690302
 20
121.8746814019986
 30
0.0
 10
231.730963010567
 20
121.8554216961074
 30
0.0
  0
SPLINE
  5
197
330
1F
100
AcDbEntity
  8
0
  6
Continuous
 62
     7
370
    18
100
AcDbSpline
210
0.0
220
0.0
230
1.0
 70
     8
 71
     3
 72
    14
 73
    10
 74
     0
 42
0.000000001
 43
0.00000001
 40
0.0
 40
0.0
 40
0.0
 40
0.0
 40
0.1687571149027783
 40
0.3389805425085101
 40
0.5046286467510797
 40
0.6247827513896848
 40
0.7433698504427163
 40
0.8656643973442318
 40
1.0
 40
1.0
 40
1.0
 40
1.0
 10
231.9632766849973
 20
123.0490140260232
 30
0.0
 10
231.8987410986694
 20
123.0461858043721
 30
0.0
 10
231.7691091831372
 20
123.0405047869514
 30
0.0
 10
231.5806258467274
 20
122.9942009902717
 30
0.0
 10
231.4204944385887
 20
122.922295759536
 30
0.0
 10
231.2962388533412
 20
122.8283017862928
 30
0.0
 10
231.2084159008503
 20
122.7203226233446
 30
0.0
 10
231.1491325409542
 20
122.5867654921384
 30
0.0
 10
231.1423856607593
 20
122.488293753242
 30
0.0
 10
231.1388539392582
 20
122.4367477427206
 30
0.0
  0
SPLINE
  5
198
330
1F
100
AcDbEntity
  8
0
  6
Continuous
 62
     7
370
    18
100
AcDbSpline
210
0.0
220
0.0
230
1.0
 70
     8
 71
     3
 72
    12
 73
     8
 74
     0
 42
0.000000001
 43
0.00000001
 40
0.0
 40
0.0
 40
0.0
 40
0.0
 40
0.19939744805745
 40
0.3779257523812704
 40
0.5550669356786526
 40
0.7731143074051395
 40
1.0
 40
1.0
 40
1.0
 40
1.0
 10
232.773647180798
 20
122.4000818463519
 30
0.0
 10
232.7662602868901
 20
122.4778336804586
 30
0.0
 10
232.7522596190526
 20
122.6251997610682
 30
0.0
 10
232.6321319216918
 20
122.8122162468827
 30
0.0
 10
232.4533150008878
 20
122.9479784212523
 30
0.0
 10
232.2236023273661
 20
123.0334946614176
 30
0.0
 10
232.0511934974724
 20
123.0437728478767
 30
0.0
 10
231.9632766849973
 20
123.0490140260232
 30
0.0
  0
LINE
  5
199
330
1F
100
AcDbEntity
  8
0
  6
Continuous
 62
     7
370
    18
100
AcDbLine
 10
232.2466697461
 20
122.4000818464
 30
0.0
 11
232.7736471808
 21
122.4000818464
 31
0.0
  0
SPLINE
  5
19A
330
1F
100
AcDbEntity
  8
0
  6
Continuous
 62
     7
370
    18
100
AcDbSpline
210
0.0
220
0.0
230
1.0
 70
     8
 71
     3
 72
    13
 73
     9
 74
     0
 42
0.000000001
 43
0.00000001
 40
0.0
 40
0.0
 40
0.0
 40
0.0
 40
0.2626041787201643
 40
0.509983956645249
 40
0.6263386331431517
 40
0.7414049134888275
 40
0.862580138779215
 40
1.0
 40
1.0
 40
1.0
 40
1.0
 10
231.920758694824
 20
122.642708933012
 30
0.0
 10
231.9611012524298
 20
122.64068889981
 30
0.0
 10
232.0394475196115
 20
122.6367659442428
 30
0.0
 10
232.1321823331724
 20
122.60384538085
 30
0.0
 10
232.1914319212261
 20
122.5593051326398
 30
0.0
 10
232.2248172919853
 20
122.515884822234
 30
0.0
 10
232.2456720656364
 20
122.4612363149767
 30
0.0
 10
232.2463235442369
 20
122.4213028599515
 30
0.0
 10
232.2466697460928
 20
122.4000818463519
 30
0.0
  0
SPLINE
  5
19B
330
1F
100
AcDbEntity
  8
0
  6
Continuous
 62
     7
370
    18
100
AcDbSpline
210
0.0
220
0.0
230
1.0
 70
     8
 71
     3
 72
    12
 73
     8
 74
     0
 42
0.000000001
 43
0.00000001
 40
0.0
 40
0.0
 40
0.0
 40
0.0
 40
0.1338350776842959
 40
0.2542572338768597
 40
0.4899325118164007
 40
0.7434916633797851
 40
1.0
 40
1.0
 40
1.0
 40
1.0
 10
231.6659036220351
 20
122.4706140263123
 30
0.0
 10
231.667011607534
 20
122.4859905545283
 30
0.0
 10
231.6691165364735
 20
122.5152025787485
 30
0.0
 10
231.6939204921403
 20
122.5668592160359
 30
0.0
 10
231.7505150758714
 20
122.6121904499975
 30
0.0
 10
231.8330209902952
 20
122.6382342144665
 30
0.0
 10
231.8914002779272
 20
122.6412116217562
 30
0.0
 10
231.920758694824
 20
122.642708933012
 30
0.0
  0
SPLINE
  5
19C
330
1F
100
AcDbEntity
  8
0
  6
Continuous
 62
     7
370
    18
100
AcDbSpline
210
0.0
220
0.0
230
1.0
 70
     8
 71
     3
 72
    12
 73
     8
 74
     0
 42
0.000000001
 43
0.00000001
 40
0.0
 40
0.0
 40
0.0
 40
0.0
 40
0.3295920737084782
 40
0.6175980183821552
 40
0.8358975487564532
 40
0.9197397490046709
 40
1.0
 40
1.0
 40
1.0
 40
1.0
 10
232.2523050956825
 20
122.2053191071682
 30
0.0
 10
232.1803081143989
 20
122.2234841461218
 30
0.0
 10
232.0453983379899
 20
122.257522258554
 30
0.0
 10
231.8629164894134
 20
122.301913673699
 30
0.0
 10
231.7372506038975
 20
122.3506332474886
 30
0.0
 10
231.6739145145446
 20
122.4148094110908
 30
0.0
 10
231.6685347774349
 20
122.452285155403
 30
0.0
 10
231.6659036220351
 20
122.4706140263123
 30
0.0
  0
SPLINE
  5
19D
330
1F
100
AcDbEntity
  8
0
  6
Continuous
 62
     7
370
    18
100
AcDbSpline
210
0.0
220
0.0
230
1.0
 70
     8
 71
     3
 72
    12
 73
     8
 74
     0
 42
0.000000001
 43
0.00000001
 40
0.0
 40
0.0
 40
0.0
 40
0.0
 40
0.2045378821184163
 40
0.383894351421682
 40
0.5601975822227051
 40
0.7766167962242728
 40
1.0
 40
1.0
 40
1.0
 40
1.0
 10
232.8387788174016
 20
121.6240833706446
 30
0.0
 10
232.8339148585735
 20
121.6857098912521
 30
0.0
 10
232.8247857608225
 20
121.8013758642931
 30
0.0
 10
232.7381142013418
 20
121.9505937304015
 30
0.0
 10
232.6080389865681
 20
122.0642257916623
 30
0.0
 10
232.4420909187606
 20
122.147845700932
 30
0.0
 10
232.3162313386718
 20
122.1859601325467
 30
0.0
 10
232.2523050956825
 20
122.2053191071682
 30
0.0
  0
SPLINE
  5
19E
330
1F
100
AcDbEntity
  8
0
  6
Continuous
 62
     7
370
    18
100
AcDbSpline
210
0.0
220
0.0
230
1.0
 70
     8
 71
     3
 72
    13
 73
     9
 74
     0
 42
0.000000001
 43
0.00000001
 40
0.0
 40
0.0
 40
0.0
 40
0.0
 40
0.1943984829390947
 40
0.3808229110812398
 40
0.5574598692554741
 40
0.6939226743571321
 40
0.8373010797229363
 40
1.0
 40
1.0
 40
1.0
 40
1.0
 10
231.9575690873359
 20
120.9236383158781
 30
0.0
 10
232.039810614744
 20
120.927315550762
 30
0.0
 10
232.2009201944372
 20
120.934519183589
 30
0.0
 10
232.429683361812
 20
120.9992995935635
 30
0.0
 10
232.6154205836623
 20
121.106200647516
 30
0.0
 10
232.7459758107449
 20
121.2514652499671
 30
0.0
 10
232.8256672755857
 20
121.4250854890909
 30
0.0
 10
232.8342281736453
 20
121.5550168581069
 30
0.0
 10
232.8387788174016
 20
121.6240833706446
 30
0.0
  0
SPLINE
  5
19F
330
1F
100
AcDbEntity
  8
0
  6
Continuous
 62
     7
370
    18
100
AcDbSpline
210
0.0
220
0.0
230
1.0
 70
     8
 71
     3
 72
    12
 73
     8
 74
     0
 42
0.000000001
 43
0.00000001
 40
0.0
 40
0.0
 40
0.0
 40
0.0
 40
0.188663713276849
 40
0.3661825608804958
 40
0.5448728808046023
 40
0.7656579321773194
 40
1.0
 40
1.0
 40
1.0
 40
1.0
 10
231.0965888173358
 20
121.5033929669326
 30
0.0
 10
231.116824405763
 20
121.4348767599619
 30
0.0
 10
231.1561002127665
 20
121.3018917799963
 30
0.0
 10
231.2894062326743
 20
121.1400865983955
 30
0.0
 10
231.4699860862215
 20
121.0174573297067
 30
0.0
 10
231.6982775892453
 20
120.937884913604
 30
0.0
 10
231.869439107091
 20
120.9284805586257
 30
0.0
 10
231.9575690873359
 20
120.9236383158781
 30
0.0
  0
LINE
  5
1A0
330
1F
100
AcDbEntity
  8
0
  6
Continuous
 62
     7
370
    18
100
AcDbLine
 10
228.6651160896
 20
121.6659150041
 30
0.0
 11
228.4096830322
 21
122.4744612361
 31
0.0
  0
LINE
  5
1A1
330
1F
100
AcDbEntity
  8
0
  6
Continuous
 62
     7
370
    18
100
AcDbLine
 10
228.4096830322
 20
122.4744612361
 30
0.0
 11
228.3273924786
 21
122.4744612361
 31
0.0
  0
LINE
  5
1A2
330
1F
100
AcDbEntity
  8
0
  6
Continuous
 62
     7
370
    18
100
AcDbLine
 10
228.3273924786
 20
122.4744612361
 30
0.0
 11
228.0631812805
 21
121.6659150041
 31
0.0
  0
LINE
  5
1A3
330
1F
100
AcDbEntity
  8
0
  6
Continuous
 62
     7
370
    18
100
AcDbLine
 10
228.0631812805
 20
121.6659150041
 30
0.0
 11
228.6651160896
 21
121.6659150041
 31
0.0
  0
LINE
  5
1A4
330
1F
100
AcDbEntity
  8
0
  6
Continuous
 62
     7
370
    18
100
AcDbLine
 10
229.8260342291
 20
122.1364125088
 30
0.0
 11
230.2950687103
 21
122.1364125088
 31
0.0
  0
SPLINE
  5
1A5
330
1F
100
AcDbEntity
  8
0
  6
Continuous
 62
     7
370
    18
100
AcDbSpline
210
0.0
220
0.0
230
1.0
 70
     8
 71
     3
 72
    12
 73
     8
 74
     0
 42
0.000000001
 43
0.00000001
 40
0.0
 40
0.0
 40
0.0
 40
0.0
 40
0.242466320512139
 40
0.5040777209641409
 40
0.6506173645415594
 40
0.8119564965868004
 40
0.9999999999999999
 40
0.9999999999999999
 40
0.9999999999999999
 40
0.9999999999999999
 10
230.2950687103136
 20
122.1364125088202
 30
0.0
 10
230.3265369088254
 20
122.1394055312876
 30
0.0
 10
230.3919580269219
 20
122.1456279045268
 30
0.0
 10
230.4675349420603
 20
122.1907078453786
 30
0.0
 10
230.5136685132541
 20
122.2489504571308
 30
0.0
 10
230.5385208245755
 20
122.3094461865108
 30
0.0
 10
230.5412370555665
 20
122.3548300142356
 30
0.0
 10
230.5426989759364
 20
122.3792563396953
 30
0.0
  0
SPLINE
  5
1A6
330
1F
100
AcDbEntity
  8
0
  6
Continuous
 62
     7
370
    18
100
AcDbSpline
210
0.0
220
0.0
230
1.0
 70
     8
 71
     3
 72
    12
 73
     8
 74
     0
 42
0.000000001
 43
0.00000001
 40
0.0
 40
0.0
 40
0.0
 40
0.0
 40
0.2325061039550861
 40
0.422258003895175
 40
0.5928278045028547
 40
0.792214384270928
 40
1.0
 40
1.0
 40
1.0
 40
1.0
 10
230.5426989759364
 20
122.3792563396953
 30
0.0
 10
230.5408772793214
 20
122.4101262617271
 30
0.0
 10
230.537568867356
 20
122.4661896141976
 30
0.0
 10
230.5033565844897
 20
122.5389906095141
 30
0.0
 10
230.4486835981471
 20
122.5907701787935
 30
0.0
 10
230.3765079006345
 20
122.6210041451337
 30
0.0
 10
230.3225858700218
 20
122.6241216620533
 30
0.0
 10
230.2950687103136
 20
122.6257125741535
 30
0.0
  0
LINE
  5
1A7
330
1F
100
AcDbEntity
  8
0
  6
Continuous
 62
     7
370
    18
100
AcDbLine
 10
230.2950687103
 20
122.6257125742
 30
0.0
 11
229.8260342291
 21
122.6257125742
 31
0.0
  0
LINE
  5
1A8
330
1F
100
AcDbEntity
  8
0
  6
Continuous
 62
     7
370
    18
100
AcDbLine
 10
229.8260342291
 20
122.6257125742
 30
0.0
 11
229.8260342291
 21
122.1364125088
 31
0.0
  0
LINE
  5
1A9
330
1F
100
AcDbEntity
  8
0
  6
Continuous
 62
     7
370
    18
100
AcDbLine
 10
229.8260342291
 20
121.3385228674
 30
0.0
 11
230.3470150738
 21
121.3385228674
 31
0.0
  0
SPLINE
  5
1AA
330
1F
100
AcDbEntity
  8
0
  6
Continuous
 62
     7
370
    18
100
AcDbSpline
210
0.0
220
0.0
230
1.0
 70
     8
 71
     3
 72
    12
 73
     8
 74
     0
 42
0.000000001
 43
0.00000001
 40
0.0
 40
0.0
 40
0.0
 40
0.0
 40
0.238258450640904
 40
0.497655653104007
 40
0.6448887038896375
 40
0.8084522641844551
 40
0.9999999999999999
 40
0.9999999999999999
 40
0.9999999999999999
 40
0.9999999999999999
 10
230.3470150738389
 20
121.3385228673991
 30
0.0
 10
230.3820076163389
 20
121.3419918233326
 30
0.0
 10
230.4550973075746
 20
121.3492375076978
 30
0.0
 10
230.538959023538
 20
121.4015569472068
 30
0.0
 10
230.5898745447944
 20
121.468510446479
 30
0.0
 10
230.6173428009656
 20
121.5381500532834
 30
0.0
 10
230.6203389706781
 20
121.5903118465495
 30
0.0
 10
230.6219551105499
 20
121.6184480210549
 30
0.0
  0
SPLINE
  5
1AB
330
1F
100
AcDbEntity
  8
0
  6
Continuous
 62
     7
370
    18
100
AcDbSpline
210
0.0
220
0.0
230
1.0
 70
     8
 71
     3
 72
    12
 73
     8
 74
     0
 42
0.000000001
 43
0.00000001
 40
0.0
 40
0.0
 40
0.0
 40
0.0
 40
0.2366945835519313
 40
0.4286648826954242
 40
0.5991110185125309
 40
0.7959723284782182
 40
1.0
 40
1.0
 40
1.0
 40
1.0
 10
230.6219551105499
 20
121.6184480210549
 30
0.0
 10
230.6199416832544
 20
121.6539819032179
 30
0.0
 10
230.6162952729204
 20
121.7183354139764
 30
0.0
 10
230.5785702495255
 20
121.8020598902422
 30
0.0
 10
230.5180106146467
 20
121.8618808814585
 30
0.0
 10
230.4376681086588
 20
121.8969713664579
 30
0.0
 10
230.3775907366491
 20
121.9005816539251
 30
0.0
 10
230.3470150738389
 20
121.9024190667238
 30
0.0
  0
LINE
  5
1AC
330
1F
100
AcDbEntity
  8
0
  6
Continuous
 62
     7
370
    18
100
AcDbLine
 10
230.3470150738
 20
121.9024190667
 30
0.0
 11
229.8260342291
 21
121.9024190667
 31
0.0
  0
LINE
  5
1AD
330
1F
100
AcDbEntity
  8
0
  6
Continuous
 62
     7
370
    18
100
AcDbLine
 10
229.8260342291
 20
121.9024190667
 30
0.0
 11
229.8260342291
 21
121.3385228674
 31
0.0
  0
SPLINE
  5
1AE
330
1F
100
AcDbEntity
  8
0
  6
Continuous
 62
     7
370
    18
100
AcDbSpline
210
0.0
220
0.0
230
1.0
 70
     8
 71
     3
 72
    13
 73
     9
 74
     0
 42
0.000000001
 43
0.00000001
 40
0.0
 40
0.0
 40
0.0
 40
0.0
 40
0.5894795511906041
 40
0.8525979839264138
 40
0.9412877217975751
 40
0.963473568107822
 40
0.9825903643577696
 40
1.0
 40
1.0
 40
1.0
 40
1.0
 10
231.9606757544174
 20
122.5087790701679
 30
0.0
 10
231.9229577110871
 20
122.5068510978098
 30
0.0
 10
231.8684039481345
 20
122.5040625611383
 30
0.0
 10
231.8098754804338
 20
122.4896624346436
 30
0.0
 10
231.7880348267733
 20
122.4788429719251
 30
0.0
 10
231.7821916705366
 20
122.4729192319782
 30
0.0
 10
231.7801409040393
 20
122.4696644469128
 30
0.0
 10
231.7798629435634
 20
122.4673229326179
 30
0.0
 10
231.7797304589391
 20
122.4662068939409
 30
0.0
  0
SPLINE
  5
1AF
330
1F
100
AcDbEntity
  8
0
  6
Continuous
 62
     7
370
    18
100
AcDbSpline
210
0.0
220
0.0
230
1.0
 70
     8
 71
     3
 72
    12
 73
     8
 74
     0
 42
0.000000001
 43
0.00000001
 40
0.0
 40
0.0
 40
0.0
 40
0.0
 40
0.1687932262470736
 40
0.3139712558224093
 40
0.4643534436981296
 40
0.689561155326775
 40
0.9999999999999999
 40
0.9999999999999999
 40
0.9999999999999999
 40
0.9999999999999999
 10
232.1309644593256
 20
122.4076859558944
 30
0.0
 10
232.1285046520722
 20
122.4199165210617
 30
0.0
 10
232.1239291795274
 20
122.4426665211082
 30
0.0
 10
232.105369612577
 20
122.472534895401
 30
0.0
 10
232.0725749056557
 20
122.4940686465032
 30
0.0
 10
232.0228270414431
 20
122.5058265803718
 30
0.0
 10
231.9834798043596
 20
122.5076957663783
 30
0.0
 10
231.9606757544174
 20
122.5087790701679
 30
0.0
  0
SPLINE
  5
1B0
330
1F
100
AcDbEntity
  8
0
  6
Continuous
 62
     7
370
    18
100
AcDbSpline
210
0.0
220
0.0
230
1.0
 70
     8
 71
     3
 72
     9
 73
     5
 74
     0
 42
0.000000001
 43
0.00000001
 40
0.0
 40
0.0
 40
0.0
 40
0.0
 40
0.5915228225856837
 40
1.0
 40
1.0
 40
1.0
 40
1.0
 10
232.1362746925927
 20
122.3235530764436
 30
0.0
 10
232.1363458789604
 20
122.340222342105
 30
0.0
 10
232.1364662232056
 20
122.3684025999497
 30
0.0
 10
232.1325600442712
 20
122.3962932584386
 30
0.0
 10
232.1309644593256
 20
122.4076859558944
 30
0.0
  0
SPLINE
  5
1B1
330
1F
100
AcDbEntity
  8
0
  6
Continuous
 62
     7
370
    18
100
AcDbSpline
210
0.0
220
0.0
230
1.0
 70
     8
 71
     3
 72
    13
 73
     9
 74
     0
 42
0.000000001
 43
0.00000001
 40
0.0
 40
0.0
 40
0.0
 40
0.0
 40
0.0518958002713984
 40
0.104938840065258
 40
0.1730026251899401
 40
0.2659228894279209
 40
0.5508780002890624
 40
0.9999999999999999
 40
0.9999999999999999
 40
0.9999999999999999
 40
0.9999999999999999
 10
231.7797304589391
 20
122.4662068939409
 30
0.0
 10
231.7803626933672
 20
122.459187445391
 30
0.0
 10
231.7816411387749
 20
122.4449933721737
 30
0.0
 10
231.7966217818457
 20
122.4260796830418
 30
0.0
 10
231.8210799360674
 20
122.4110863714086
 30
0.0
 10
231.8764705576224
 20
122.3891284372546
 30
0.0
 10
231.9833527313865
 20
122.3616732167127
 30
0.0
 10
232.0782281504514
 20
122.3380228250076
 30
0.0
 10
232.1362746925927
 20
122.3235530764436
 30
0.0
  0
LINE
  5
1B2
330
1F
100
AcDbEntity
  8
0
  6
Continuous
 62
     7
370
    18
100
AcDbLine
 10
226.6548496196
 20
123.1176496941
 30
0.0
 11
225.8942219211
 21
123.1176496941
 31
0.0
  0
LINE
  5
1B3
330
1F
100
AcDbEntity
  8
0
  6
Continuous
 62
     7
370
    18
100
AcDbLine
 10
226.6548496196
 20
121.5226688063
 30
0.0
 11
226.6548496196
 21
123.1176496941
 31
0.0
  0
LINE
  5
1B4
330
1F
100
AcDbEntity
  8
0
  6
Continuous
 62
     7
370
    18
100
AcDbLine
 10
227.4211463974
 20
121.5226688063
 30
0.0
 11
226.6548496196
 21
121.5226688063
 31
0.0
  0
LINE
  5
1B5
330
1F
100
AcDbEntity
  8
0
  6
Continuous
 62
     7
370
    18
100
AcDbLine
 10
228.0331355323
 20
123.1176496941
 30
0.0
 11
227.4211463974
 21
121.5226688063
 31
0.0
  0
LINE
  5
1B6
330
1F
100
AcDbEntity
  8
0
  6
Continuous
 62
     7
370
    18
100
AcDbLine
 10
228.7244278271
 20
123.1176496941
 30
0.0
 11
228.0331355323
 21
123.1176496941
 31
0.0
  0
LINE
  5
1B7
330
1F
100
AcDbEntity
  8
0
  6
Continuous
 62
     7
370
    18
100
AcDbLine
 10
229.2411460357
 20
121.7233883451
 30
0.0
 11
228.7244278271
 21
123.1176496941
 31
0.0
  0
LINE
  5
1B8
330
1F
100
AcDbEntity
  8
0
  6
Continuous
 62
     7
370
    18
100
AcDbLine
 10
229.2411460357
 20
123.1176496941
 30
0.0
 11
229.2411460357
 21
121.7233883451
 31
0.0
  0
LINE
  5
1B9
330
1F
100
AcDbEntity
  8
0
  6
Continuous
 62
     7
370
    18
100
AcDbLine
 10
230.2292361491
 20
123.1176496941
 30
0.0
 11
229.2411460357
 21
123.1176496941
 31
0.0
  0
SPLINE
  5
1BA
330
1F
100
AcDbEntity
  8
0
  6
Continuous
 62
     7
370
    18
100
AcDbSpline
210
0.0
220
0.0
230
1.0
 70
     8
 71
     3
 72
    13
 73
     9
 74
     0
 42
0.000000001
 43
0.00000001
 40
0.0
 40
0.0
 40
0.0
 40
0.0
 40
0.1129894123230107
 40
0.2349035042068363
 40
0.3805358024040092
 40
0.5310429421797467
 40
0.7319137862307435
 40
1.0
 40
1.0
 40
1.0
 40
1.0
 10
231.0983804512123
 20
122.7131869269186
 30
0.0
 10
231.0813581137831
 20
122.7480284646888
 30
0.0
 10
231.0459688978408
 20
122.8204635641012
 30
0.0
 10
230.9729159741647
 20
122.9304926353493
 30
0.0
 10
230.8546586471545
 20
123.0174361478492
 30
0.0
 10
230.6932180146833
 20
123.0762169581698
 30
0.0
 10
230.482537850149
 20
123.1122728913018
 30
0.0
 10
230.3213700801726
 20
123.1156939789354
 30
0.0
 10
230.2292361491142
 20
123.1176496941024
 30
0.0
  0
SPLINE
  5
1BB
330
1F
100
AcDbEntity
  8
0
  6
Continuous
 62
     7
370
    18
100
AcDbSpline
210
0.0
220
0.0
230
1.0
 70
     8
 71
     3
 72
    12
 73
     8
 74
     0
 42
0.000000001
 43
0.00000001
 40
0.0
 40
0.0
 40
0.0
 40
0.0
 40
0.257782467716842
 40
0.4746472252827229
 40
0.6603530347935899
 40
0.8468286435267808
 40
1.0
 40
1.0
 40
1.0
 40
1.0
 10
231.9551342090202
 20
123.1389267512069
 30
0.0
 10
231.8688728098494
 20
123.1348546550395
 30
0.0
 10
231.7100422496175
 20
123.1273568249346
 30
0.0
 10
231.4967036551549
 20
123.0627024041545
 30
0.0
 10
231.3235372868562
 20
122.9675974874774
 30
0.0
 10
231.1887250714827
 20
122.8514205572895
 30
0.0
 10
231.1264601865389
 20
122.7561508991223
 30
0.0
 10
231.0983804512123
 20
122.7131869269186
 30
0.0
  0
SPLINE
  5
1BC
330
1F
100
AcDbEntity
  8
0
  6
Continuous
 62
     7
370
    18
100
AcDbSpline
210
0.0
220
0.0
230
1.0
 70
     8
 71
     3
 72
    15
 73
    11
 74
     0
 42
0.000000001
 43
0.00000001
 40
0.0
 40
0.0
 40
0.0
 40
0.0
 40
0.1009667219583008
 40
0.2110426783902181
 40
0.3263227887254702
 40
0.4481367482187073
 40
0.5538549368465837
 40
0.6756292865222517
 40
0.8215985201030968
 40
0.9999999999999999
 40
0.9999999999999999
 40
0.9999999999999999
 40
0.9999999999999999
 10
232.8864841008196
 20
122.2914207465718
 30
0.0
 10
232.885615054238
 20
122.3402487578348
 30
0.0
 10
232.8837985555476
 20
122.4423100516706
 30
0.0
 10
232.8595074601889
 20
122.598859268567
 30
0.0
 10
232.8034628171647
 20
122.7584975418381
 30
0.0
 10
232.7074526034261
 20
122.8966910820404
 30
0.0
 10
232.5749502852527
 20
123.004167171097
 30
0.0
 10
232.4099345946927
 20
123.0809496690863
 30
0.0
 10
232.1985044897304
 20
123.130856055273
 30
0.0
 10
232.0414906519854
 20
123.1360629808605
 30
0.0
 10
231.9551342090202
 20
123.1389267512069
 30
0.0
  0
LINE
  5
1BD
330
1F
100
AcDbEntity
  8
0
  6
Continuous
 62
     7
370
    18
100
AcDbLine
 10
232.2699528234
 20
122.2914207466
 30
0.0
 11
232.8864841008
 21
122.2914207466
 31
0.0
  0
SPLINE
  5
1BE
330
1F
100
AcDbEntity
  8
0
  6
Continuous
 62
     7
370
    18
100
AcDbSpline
210
0.0
220
0.0
230
1.0
 70
     8
 71
     3
 72
     9
 73
     5
 74
     0
 42
0.000000001
 43
0.00000001
 40
0.0
 40
0.0
 40
0.0
 40
0.0
 40
0.5581053349215993
 40
1.0
 40
1.0
 40
1.0
 40
1.0
 10
232.285305538634
 20
122.2874109785945
 30
0.0
 10
232.2824527442977
 20
122.2881697809048
 30
0.0
 10
232.2773411745673
 20
122.2895293850205
 30
0.0
 10
232.2722171170751
 20
122.2908411046607
 30
0.0
 10
232.2699528234057
 20
122.2914207465718
 30
0.0
  0
SPLINE
  5
1BF
330
1F
100
AcDbEntity
  8
0
  6
Continuous
 62
     7
370
    18
100
AcDbSpline
210
0.0
220
0.0
230
1.0
 70
     8
 71
     3
 72
    12
 73
     8
 74
     0
 42
0.000000001
 43
0.00000001
 40
0.0
 40
0.0
 40
0.0
 40
0.0
 40
0.2081936773952724
 40
0.3823854809342374
 40
0.5475549960392821
 40
0.757629438745901
 40
1.0
 40
1.0
 40
1.0
 40
1.0
 10
232.9290384186137
 20
121.5689229615499
 30
0.0
 10
232.9267189370282
 20
121.6428934852724
 30
0.0
 10
232.9224587880521
 20
121.7787537796025
 30
0.0
 10
232.8470374761434
 20
121.9620398009908
 30
0.0
 10
232.7130564339329
 20
122.1069241706568
 30
0.0
 10
232.5199643592856
 20
122.2147484671789
 30
0.0
 10
232.3671609156749
 20
122.2620643189115
 30
0.0
 10
232.285305538634
 20
122.2874109785945
 30
0.0
  0
SPLINE
  5
1C0
330
1F
100
AcDbEntity
  8
0
  6
Continuous
 62
     7
370
    18
100
AcDbSpline
210
0.0
220
0.0
230
1.0
 70
     8
 71
     3
 72
    13
 73
     9
 74
     0
 42
0.000000001
 43
0.00000001
 40
0.0
 40
0.0
 40
0.0
 40
0.0
 40
0.2144903110109676
 40
0.4108455396423897
 40
0.5926499974110344
 40
0.7287207904635504
 40
0.8627130606487936
 40
1.0
 40
1.0
 40
1.0
 40
1.0
 10
231.9883480870034
 20
120.7986109193287
 30
0.0
 10
232.0851032027323
 20
120.8052848612582
 30
0.0
 10
232.2704328222731
 20
120.8180684656115
 30
0.0
 10
232.5228082998765
 20
120.915607973785
 30
0.0
 10
232.7131365073172
 20
121.052643899767
 30
0.0
 10
232.8398690642938
 20
121.2138249887763
 30
0.0
 10
232.9159894173955
 20
121.3843121983363
 30
0.0
 10
232.9246536759136
 20
121.5068898079911
 30
0.0
 10
232.9290384186137
 20
121.5689229615499
 30
0.0
  0
SPLINE
  5
1C1
330
1F
100
AcDbEntity
  8
0
  6
Continuous
 62
     7
370
    18
100
AcDbSpline
210
0.0
220
0.0
230
1.0
 70
     8
 71
     3
 72
    12
 73
     8
 74
     0
 42
0.000000001
 43
0.00000001
 40
0.0
 40
0.0
 40
0.0
 40
0.0
 40
0.1266166298736462
 40
0.273245472447085
 40
0.4461934828620917
 40
0.6934352669522338
 40
1.0
 40
1.0
 40
1.0
 40
1.0
 10
231.0946934416743
 20
121.2360028537102
 30
0.0
 10
231.1138176376388
 20
121.1956757906968
 30
0.0
 10
231.1550886773648
 20
121.1086478276517
 30
0.0
 10
231.2702511303661
 20
120.9984874844826
 30
0.0
 10
231.4413605558842
 20
120.8962849653608
 30
0.0
 10
231.6869401522582
 20
120.8181667019369
 30
0.0
 10
231.8809513753702
 20
120.805578973263
 30
0.0
 10
231.9883480870034
 20
120.7986109193287
 30
0.0
  0
SPLINE
  5
1C2
330
1F
100
AcDbEntity
  8
0
  6
Continuous
 62
     7
370
    18
100
AcDbSpline
210
0.0
220
0.0
230
1.0
 70
     8
 71
     3
 72
    11
 73
     7
 74
     0
 42
0.000000001
 43
0.00000001
 40
0.0
 40
0.0
 40
0.0
 40
0.0
 40
0.310424843595752
 40
0.6000686931456405
 40
0.8080123835287412
 40
1.0
 40
1.0
 40
1.0
 40
1.0
 10
230.4336235859638
 20
120.881300945884
 30
0.0
 10
230.5153161488217
 20
120.8884923149035
 30
0.0
 10
230.6732324704215
 20
120.9023936359432
 30
0.0
 10
230.8702940647548
 20
120.9881077833969
 30
0.0
 10
231.0184446963309
 20
121.0987634334477
 30
0.0
 10
231.0699623268197
 20
121.1914895459855
 30
0.0
 10
231.0946934416743
 20
121.2360028537102
 30
0.0
  0
LINE
  5
1C3
330
1F
100
AcDbEntity
  8
0
  6
Continuous
 62
     7
370
    18
100
AcDbLine
 10
228.7620071644
 20
120.8813009459
 30
0.0
 11
230.433623586
 21
120.8813009459
 31
0.0
  0
LINE
  5
1C4
330
1F
100
AcDbEntity
  8
0
  6
Continuous
 62
     7
370
    18
100
AcDbLine
 10
228.6342725737
 20
121.2112578892
 30
0.0
 11
228.7620071644
 21
120.8813009459
 31
0.0
  0
LINE
  5
1C5
330
1F
100
AcDbEntity
  8
0
  6
Continuous
 62
     7
370
    18
100
AcDbLine
 10
228.0915089354
 20
121.2112578892
 30
0.0
 11
228.6342725737
 21
121.2112578892
 31
0.0
  0
LINE
  5
1C6
330
1F
100
AcDbEntity
  8
0
  6
Continuous
 62
     7
370
    18
100
AcDbLine
 10
227.9583918633
 20
120.8813009459
 30
0.0
 11
228.0915089354
 21
121.2112578892
 31
0.0
  0
LINE
  5
1C7
330
1F
100
AcDbEntity
  8
0
  6
Continuous
 62
     7
370
    18
100
AcDbLine
 10
225.349864889
 20
120.8813009459
 30
0.0
 11
227.9583918633
 21
120.8813009459
 31
0.0
  0
SPLINE
  5
1C8
330
1F
100
AcDbEntity
  8
0
  6
Continuous
 62
     7
370
    18
100
AcDbSpline
210
0.0
220
0.0
230
1.0
 70
     8
 71
     3
 72
    11
 73
     7
 74
     0
 42
0.000000001
 43
0.00000001
 40
0.0
 40
0.0
 40
0.0
 40
0.0
 40
0.2274736611129818
 40
0.5494925387673861
 40
0.8007169048877155
 40
1.0
 40
1.0
 40
1.0
 40
1.0
 10
225.2837940274764
 20
121.2387121563976
 30
0.0
 10
225.2859599597738
 20
121.211053475841
 30
0.0
 10
225.2911920540352
 20
121.1442402961364
 30
0.0
 10
225.3020364836679
 20
121.0474517209283
 30
0.0
 10
225.316738542938
 20
120.9536137342256
 30
0.0
 10
225.3397054296122
 20
120.9034784246673
 30
0.0
 10
225.3498648890117
 20
120.881300945884
 30
0.0
  0
SPLINE
  5
1C9
330
1F
100
AcDbEntity
  8
0
  6
Continuous
 62
     7
370
    18
100
AcDbSpline
210
0.0
220
0.0
230
1.0
 70
     8
 71
     3
 72
    13
 73
     9
 74
     0
 42
0.000000001
 43
0.00000001
 40
0.0
 40
0.0
 40
0.0
 40
0.0
 40
0.1455849753971025
 40
0.2684075940997144
 40
0.3810001390981613
 40
0.4935379506791351
 40
0.7360826269615445
 40
1.0
 40
1.0
 40
1.0
 40
1.0
 10
224.9564922008281
 20
121.6965120624861
 30
0.0
 10
224.9874928461192
 20
121.6948599429216
 30
0.0
 10
225.0446471547657
 20
121.691814014341
 30
0.0
 10
225.1211106057303
 20
121.6611805819538
 30
0.0
 10
225.1788600468172
 20
121.613534078284
 30
0.0
 10
225.2346071415431
 20
121.5301821803835
 30
0.0
 10
225.270487679295
 20
121.4014391678346
 30
0.0
 10
225.2792355250621
 20
121.2944593429584
 30
0.0
 10
225.2837940274764
 20
121.2387121563976
 30
0.0
  0
LINE
  5
1CA
330
1F
100
AcDbEntity
  8
0
  6
Continuous
 62
     7
370
    18
100
AcDbLine
 10
224.5125639245
 20
121.6965120625
 30
0.0
 11
224.9564922008
 21
121.6965120625
 31
0.0
  0
LINE
  5
1CB
330
1F
100
AcDbEntity
  8
0
  6
Continuous
 62
     7
370
    18
100
AcDbLine
 10
224.5125639245
 20
120.8813009459
 30
0.0
 11
224.5125639245
 21
121.6965120625
 31
0.0
  0
LINE
  5
1CC
330
1F
100
AcDbEntity
  8
0
  6
Continuous
 62
     7
370
    18
100
AcDbLine
 10
223.927051425
 20
120.8813009459
 30
0.0
 11
224.5125639245
 21
120.8813009459
 31
0.0
  0
LINE
  5
1CD
330
1F
100
AcDbEntity
  8
0
  6
Continuous
 62
     7
370
    18
100
AcDbLine
 10
223.927051425
 20
123.1176496941
 30
0.0
 11
223.927051425
 21
120.8813009459
 31
0.0
  0
LINE
  5
1CE
330
1F
100
AcDbEntity
  8
0
  6
Continuous
 62
     7
370
    18
100
AcDbLine
 10
225.0729058416
 20
123.1176496941
 30
0.0
 11
223.927051425
 21
123.1176496941
 31
0.0
  0
SPLINE
  5
1CF
330
1F
100
AcDbEntity
  8
0
  6
Continuous
 62
     7
370
    18
100
AcDbSpline
210
0.0
220
0.0
230
1.0
 70
     8
 71
     3
 72
    12
 73
     8
 74
     0
 42
0.000000001
 43
0.00000001
 40
0.0
 40
0.0
 40
0.0
 40
0.0
 40
0.2016496499629001
 40
0.3794039236986337
 40
0.5547793395586186
 40
0.7718110801448013
 40
1.0
 40
1.0
 40
1.0
 40
1.0
 10
225.8598679621738
 20
122.4875200750813
 30
0.0
 10
225.853372724855
 20
122.5642588544673
 30
0.0
 10
225.8411519323839
 20
122.7086429087132
 30
0.0
 10
225.7258404462375
 20
122.8922168549224
 30
0.0
 10
225.551754800449
 20
123.0232900237094
 30
0.0
 10
225.3273323748842
 20
123.1036396905898
 30
0.0
 10
225.1591198152463
 20
123.1129023194552
 30
0.0
 10
225.0729058415916
 20
123.1176496941024
 30
0.0
  0
SPLINE
  5
1D0
330
1F
100
AcDbEntity
  8
0
  6
Continuous
 62
     7
370
    18
100
AcDbSpline
210
0.0
220
0.0
230
1.0
 70
     8
 71
     3
 72
    11
 73
     7
 74
     0
 42
0.000000001
 43
0.00000001
 40
0.0
 40
0.0
 40
0.0
 40
0.0
 40
0.285264835019694
 40
0.558603774702954
 40
0.7765581993729914
 40
1.0
 40
1.0
 40
1.0
 40
1.0
 10
225.5072612484257
 20
121.926333178444
 30
0.0
 10
225.5675531451664
 20
121.9573155075721
 30
0.0
 10
225.6856163515935
 20
122.017984906234
 30
0.0
 10
225.7931063349121
 20
122.1721728487809
 30
0.0
 10
225.8504725096565
 20
122.3311858660952
 30
0.0
 10
225.8567102955748
 20
122.4349785600154
 30
0.0
 10
225.8598679621738
 20
122.4875200750813
 30
0.0
  0
LINE
  5
1D1
330
1F
100
AcDbEntity
  8
0
  6
Continuous
 62
     7
370
    18
100
AcDbLine
 10
225.5072612484
 20
121.9200475962
 30
0.0
 11
225.5072612484
 21
121.9263331784
 31
0.0
  0
SPLINE
  5
1D2
330
1F
100
AcDbEntity
  8
0
  6
Continuous
 62
     7
370
    18
100
AcDbSpline
210
0.0
220
0.0
230
1.0
 70
     8
 71
     3
 72
    11
 73
     7
 74
     0
 42
0.000000001
 43
0.00000001
 40
0.0
 40
0.0
 40
0.0
 40
0.0
 40
0.2808304286447863
 40
0.5635450978390018
 40
0.7771991270060348
 40
1.0
 40
1.0
 40
1.0
 40
1.0
 10
225.8347256332352
 20
121.3838946564127
 30
0.0
 10
225.8270057383055
 20
121.4463581384366
 30
0.0
 10
225.8115141515694
 20
121.5717042031719
 30
0.0
 10
225.7502281463541
 20
121.735893213882
 30
0.0
 10
225.6479119427066
 20
121.8675930698254
 30
0.0
 10
225.554795299175
 20
121.9023201606569
 30
0.0
 10
225.5072612484257
 20
121.920047596219
 30
0.0
  0
SPLINE
  5
1D3
330
1F
100
AcDbEntity
  8
0
  6
Continuous
 62
     7
370
    18
100
AcDbSpline
210
0.0
220
0.0
230
1.0
 70
     8
 71
     3
 72
    11
 73
     7
 74
     0
 42
0.000000001
 43
0.00000001
 40
0.0
 40
0.0
 40
0.0
 40
0.0
 40
0.3074360073852285
 40
0.6261968550908463
 40
0.844216622801404
 40
1.0
 40
1.0
 40
1.0
 40
1.0
 10
225.8929083503055
 20
120.9837742241163
 30
0.0
 10
225.8830675877487
 20
121.0241207466066
 30
0.0
 10
225.8630235642225
 20
121.1063000128292
 30
0.0
 10
225.8495951033592
 20
121.2196436653711
 30
0.0
 10
225.8408005451986
 20
121.3126735038888
 30
0.0
 10
225.8365126316997
 20
121.3629442145019
 30
0.0
 10
225.8347256332352
 20
121.3838946564127
 30
0.0
  0
LINE
  5
1D4
330
1F
100
AcDbEntity
  8
0
  6
Continuous
 62
     7
370
    18
100
AcDbLine
 10
225.8942219211
 20
123.1176496941
 30
0.0
 11
225.8929083503
 21
120.9837742241
 31
0.0
  0
SPLINE
  5
1D5
330
1F
100
AcDbEntity
  8
0
  6
Continuous
 62
     7
370
    18
100
AcDbSpline
210
0.0
220
0.0
230
1.0
 70
     8
 71
     3
 72
    12
 73
     8
 74
     0
 42
0.000000001
 43
0.00000001
 40
0.0
 40
0.0
 40
0.0
 40
0.0
 40
0.2554031448979515
 40
0.5239992272002607
 40
0.6685053607654243
 40
0.8229473537118226
 40
1.0
 40
1.0
 40
1.0
 40
1.0
 10
230.3171766202423
 20
121.4345766786742
 30
0.0
 10
230.3433070220806
 20
121.4367615295139
 30
0.0
 10
230.3969176006629
 20
121.4412440904158
 30
0.0
 10
230.4599223505641
 20
121.4739250351998
 30
0.0
 10
230.4990436668528
 20
121.5174063984485
 30
0.0
 10
230.5200725256968
 20
121.5624604360625
 30
0.0
 10
230.5223885088939
 20
121.5964832648879
 30
0.0
 10
230.5236254850174
 20
121.6146549972926
 30
0.0
  0
LINE
  5
1D6
330
1F
100
AcDbEntity
  8
0
  6
Continuous
 62
     7
370
    18
100
AcDbLine
 10
229.9259894362
 20
121.4345766787
 30
0.0
 11
230.3171766202
 21
121.4345766787
 31
0.0
  0
LINE
  5
1D7
330
1F
100
AcDbEntity
  8
0
  6
Continuous
 62
     7
370
    18
100
AcDbLine
 10
229.9259894362
 20
121.7974064946
 30
0.0
 11
229.9259894362
 21
121.4345766787
 31
0.0
  0
LINE
  5
1D8
330
1F
100
AcDbEntity
  8
0
  6
Continuous
 62
     7
370
    18
100
AcDbLine
 10
230.3171766202
 20
121.7974064946
 30
0.0
 11
229.9259894362
 21
121.7974064946
 31
0.0
  0
SPLINE
  5
1D9
330
1F
100
AcDbEntity
  8
0
  6
Continuous
 62
     7
370
    18
100
AcDbSpline
210
0.0
220
0.0
230
1.0
 70
     8
 71
     3
 72
    12
 73
     8
 74
     0
 42
0.000000001
 43
0.00000001
 40
0.0
 40
0.0
 40
0.0
 40
0.0
 40
0.2191709004622782
 40
0.402032272796283
 40
0.5732124609680135
 40
0.7805893411712348
 40
1.0
 40
1.0
 40
1.0
 40
1.0
 10
230.5236254850174
 20
121.6146549972926
 30
0.0
 10
230.5220777983706
 20
121.6376363525548
 30
0.0
 10
230.5192388266874
 20
121.6797917959485
 30
0.0
 10
230.4900624408932
 20
121.7340487157706
 30
0.0
 10
230.4442530358359
 20
121.7720201288572
 30
0.0
 10
230.3845857932138
 20
121.7939537346744
 30
0.0
 10
230.3400647853622
 20
121.7962341416771
 30
0.0
 10
230.3171766202423
 20
121.7974064945626
 30
0.0
  0
SPLINE
  5
1DA
330
1F
100
AcDbEntity
  8
0
  6
Continuous
 62
     7
370
    18
100
AcDbSpline
210
0.0
220
0.0
230
1.0
 70
     8
 71
     3
 72
    12
 73
     8
 74
     0
 42
0.000000001
 43
0.00000001
 40
0.0
 40
0.0
 40
0.0
 40
0.0
 40
0.2631780919768592
 40
0.5362228315034369
 40
0.6796343489711378
 40
0.8298665817545485
 40
1.0
 40
1.0
 40
1.0
 40
1.0
 10
230.2561269996876
 20
122.235952289553
 30
0.0
 10
230.2779498275238
 20
122.2376448688026
 30
0.0
 10
230.3224136293768
 20
122.2410934827467
 30
0.0
 10
230.3750672061996
 20
122.2661924583065
 30
0.0
 10
230.4081111450961
 20
122.3001311404911
 30
0.0
 10
230.4258882718412
 20
122.3352727295123
 30
0.0
 10
230.4278607556157
 20
122.3619593898112
 30
0.0
 10
230.4289082630682
 20
122.3761316105959
 30
0.0
  0
LINE
  5
1DB
330
1F
100
AcDbEntity
  8
0
  6
Continuous
 62
     7
370
    18
100
AcDbLine
 10
229.9286987389
 20
122.2359522896
 30
0.0
 11
230.2561269997
 21
122.2359522896
 31
0.0
  0
LINE
  5
1DC
330
1F
100
AcDbEntity
  8
0
  6
Continuous
 62
     7
370
    18
100
AcDbLine
 10
229.9286987389
 20
122.5183700017
 30
0.0
 11
229.9286987389
 21
122.2359522896
 31
0.0
  0
LINE
  5
1DD
330
1F
100
AcDbEntity
  8
0
  6
Continuous
 62
     7
370
    18
100
AcDbLine
 10
230.2561269997
 20
122.5183700017
 30
0.0
 11
229.9286987389
 21
122.5183700017
 31
0.0
  0
SPLINE
  5
1DE
330
1F
100
AcDbEntity
  8
0
  6
Continuous
 62
     7
370
    18
100
AcDbSpline
210
0.0
220
0.0
230
1.0
 70
     8
 71
     3
 72
    12
 73
     8
 74
     0
 42
0.000000001
 43
0.00000001
 40
0.0
 40
0.0
 40
0.0
 40
0.0
 40
0.2108655154368299
 40
0.3895958229608483
 40
0.5613353297982713
 40
0.7736399301224683
 40
1.0
 40
1.0
 40
1.0
 40
1.0
 10
230.4289082630682
 20
122.3761316105959
 30
0.0
 10
230.4275919328582
 20
122.3940725313615
 30
0.0
 10
230.4251598768135
 20
122.4272202358399
 30
0.0
 10
230.4003846862336
 20
122.4695367651278
 30
0.0
 10
230.3619974913849
 20
122.4988328169561
 30
0.0
 10
230.312323040795
 20
122.5156969236929
 30
0.0
 10
230.2752549193352
 20
122.5174601436206
 30
0.0
 10
230.2561269996876
 20
122.5183700016811
 30
0.0
  0
LINE
  5
1DF
330
1F
100
AcDbEntity
  8
0
  6
Continuous
 62
     7
370
    18
100
AcDbLine
 10
228.2050403692
 20
121.7737091271
 30
0.0
 11
228.5158154495
 21
121.7737091271
 31
0.0
  0
LINE
  5
1E0
330
1F
100
AcDbEntity
  8
0
  6
Continuous
 62
     7
370
    18
100
AcDbLine
 10
228.363046902
 20
122.2614919829
 30
0.0
 11
228.2050403692
 21
121.7737091271
 31
0.0
  0
LINE
  5
1E1
330
1F
100
AcDbEntity
  8
0
  6
Continuous
 62
     7
370
    18
100
AcDbLine
 10
228.5158154495
 20
121.7737091271
 30
0.0
 11
228.363046902
 21
122.2614919829
 31
0.0
  0
SPLINE
  5
1E2
330
1F
100
AcDbEntity
  8
0
  6
Continuous
 62
     7
370
    18
100
AcDbSpline
210
0.0
220
0.0
230
1.0
 70
     8
 71
     3
 72
    11
 73
     7
 74
     0
 42
0.000000001
 43
0.00000001
 40
0.0
 40
0.0
 40
0.0
 40
0.0
 40
0.2800359244938579
 40
0.5600382743760569
 40
0.7801217300908261
 40
1.0
 40
1.0
 40
1.0
 40
1.0
 10
233.4577742949078
 20
118.0401166419067
 30
0.0
 10
233.5166211951144
 20
118.0773738843926
 30
0.0
 10
233.6343079401406
 20
118.1518839024467
 30
0.0
 10
233.773517222059
 20
118.2876063548014
 30
0.0
 10
233.8879817748423
 20
118.4260466913367
 30
0.0
 10
233.9358439361682
 20
118.5245597128521
 30
0.0
 10
233.9597638560465
 20
118.5737932517551
 30
0.0
  0
LINE
  5
1E3
330
1F
100
AcDbEntity
  8
0
  6
Continuous
 62
     7
370
    18
100
AcDbLine
 10
233.4577742949
 20
117.7999621675
 30
0.0
 11
233.4577742949
 21
118.0401166419
 31
0.0
  0
SPLINE
  5
1E4
330
1F
100
AcDbEntity
  8
0
  6
Continuous
 62
     7
370
    18
100
AcDbSpline
210
0.0
220
0.0
230
1.0
 70
     8
 71
     3
 72
     9
 73
     5
 74
     0
 42
0.000000001
 43
0.00000001
 40
0.0
 40
0.0
 40
0.0
 40
0.0
 40
0.5597552341668168
 40
1.0
 40
1.0
 40
1.0
 40
1.0
 10
233.8847155827866
 20
118.120168133384
 30
0.0
 10
233.8132011594988
 20
118.049296445392
 30
0.0
 10
233.6854409905488
 20
117.922684519918
 30
0.0
 10
233.5273659875757
 20
117.8374751476262
 30
0.0
 10
233.4577742949078
 20
117.7999621674749
 30
0.0
  0
LINE
  5
1E5
330
1F
100
AcDbEntity
  8
0
  6
Continuous
 62
     7
370
    18
100
AcDbLine
 10
233.8847155828
 20
116.4924544733
 30
0.0
 11
233.8847155828
 21
118.1201681334
 31
0.0
  0
LINE
  5
1E6
330
1F
100
AcDbEntity
  8
0
  6
Continuous
 62
     7
370
    18
100
AcDbLine
 10
234.0981862267
 20
116.4924544733
 30
0.0
 11
233.8847155828
 21
116.4924544733
 31
0.0
  0
LINE
  5
1E7
330
1F
100
AcDbEntity
  8
0
  6
Continuous
 62
     7
370
    18
100
AcDbLine
 10
234.0981862267
 20
118.5737932518
 30
0.0
 11
234.0981862267
 21
116.4924544733
 31
0.0
  0
LINE
  5
1E8
330
1F
100
AcDbEntity
  8
0
  6
Continuous
 62
     7
370
    18
100
AcDbLine
 10
233.959763856
 20
118.5737932518
 30
0.0
 11
234.0981862267
 21
118.5737932518
 31
0.0
  0
SPLINE
  5
1E9
330
1F
100
AcDbEntity
  8
0
  6
Continuous
 62
     7
370
    18
100
AcDbSpline
210
0.0
220
0.0
230
1.0
 70
     8
 71
     3
 72
    10
 73
     6
 74
     0
 42
0.000000001
 43
0.00000001
 40
0.0
 40
0.0
 40
0.0
 40
0.0
 40
0.2795751783825433
 40
0.5597049368157176
 40
1.0
 40
1.0
 40
1.0
 40
1.0
 10
232.9432766882257
 20
118.3569871290042
 30
0.0
 10
232.9791552291312
 20
118.2844839815372
 30
0.0
 10
233.0509834815058
 20
118.1393338655407
 30
0.0
 10
233.1005816048097
 20
117.8528122055548
 30
0.0
 10
233.1069763090365
 20
117.645592524067
 30
0.0
 10
233.1108844985063
 20
117.5189480776015
 30
0.0
  0
SPLINE
  5
1EA
330
1F
100
AcDbEntity
  8
0
  6
Continuous
 62
     7
370
    18
100
AcDbSpline
210
0.0
220
0.0
230
1.0
 70
     8
 71
     3
 72
    11
 73
     7
 74
     0
 42
0.000000001
 43
0.00000001
 40
0.0
 40
0.0
 40
0.0
 40
0.0
 40
0.2798903849624041
 40
0.5594964420644593
 40
0.7796718965173906
 40
1.0
 40
1.0
 40
1.0
 40
1.0
 10
232.5651167779659
 20
118.5737932517551
 30
0.0
 10
232.6078737196864
 20
118.5709407334833
 30
0.0
 10
232.6933441683029
 20
118.5652385946825
 30
0.0
 10
232.8021144234058
 20
118.5116135127531
 30
0.0
 10
232.8856347489185
 20
118.4395741446682
 30
0.0
 10
232.924058270117
 20
118.3845224932973
 30
0.0
 10
232.9432766882257
 20
118.3569871290042
 30
0.0
  0
SPLINE
  5
1EB
330
1F
100
AcDbEntity
  8
0
  6
Continuous
 62
     7
370
    18
100
AcDbSpline
210
0.0
220
0.0
230
1.0
 70
     8
 71
     3
 72
    13
 73
     9
 74
     0
 42
0.000000001
 43
0.00000001
 40
0.0
 40
0.0
 40
0.0
 40
0.0
 40
0.2504890583456494
 40
0.5006738274425614
 40
0.6258446378555209
 40
0.7507584155659031
 40
0.8753007099299315
 40
1.0
 40
1.0
 40
1.0
 40
1.0
 10
232.0168474483169
 20
117.5189480776015
 30
0.0
 10
232.019566062932
 20
117.6291882749593
 30
0.0
 10
232.0249999896419
 20
117.8495347520216
 30
0.0
 10
232.0750533616835
 20
118.1229621875689
 30
0.0
 10
232.1599888870607
 20
118.327419721854
 30
0.0
 10
232.2569769627497
 20
118.4629323429332
 30
0.0
 10
232.3989326258334
 20
118.5590316250216
 30
0.0
 10
232.5096988036155
 20
118.5688706436653
 30
0.0
 10
232.5651167779659
 20
118.5737932517551
 30
0.0
  0
SPLINE
  5
1EC
330
1F
100
AcDbEntity
  8
0
  6
Continuous
 62
     7
370
    18
100
AcDbSpline
210
0.0
220
0.0
230
1.0
 70
     8
 71
     3
 72
    13
 73
     9
 74
     0
 42
0.000000001
 43
0.00000001
 40
0.0
 40
0.0
 40
0.0
 40
0.0
 40
0.1245870753534838
 40
0.24922271483854
 40
0.3742192396120919
 40
0.4992998133209627
 40
0.7494812006579983
 40
1.0
 40
1.0
 40
1.0
 40
1.0
 10
232.5626151688572
 20
116.4657706428537
 30
0.0
 10
232.5073515255684
 20
116.4714073391307
 30
0.0
 10
232.3968026971829
 20
116.4826829288731
 30
0.0
 10
232.2580137409602
 20
116.5813159417094
 30
0.0
 10
232.1549746322771
 20
116.7113202782694
 30
0.0
 10
232.0689507471087
 20
116.915666229323
 30
0.0
 10
232.0237798604895
 20
117.1891684085088
 30
0.0
 10
232.0191592902782
 20
117.4089721474322
 30
0.0
 10
232.0168474483169
 20
117.5189480776015
 30
0.0
  0
SPLINE
  5
1ED
330
1F
100
AcDbEntity
  8
0
  6
Continuous
 62
     7
370
    18
100
AcDbSpline
210
0.0
220
0.0
230
1.0
 70
     8
 71
     3
 72
    13
 73
     9
 74
     0
 42
0.000000001
 43
0.00000001
 40
0.0
 40
0.0
 40
0.0
 40
0.0
 40
0.2504702058475058
 40
0.5006494994159222
 40
0.6258027062132785
 40
0.7507410958263504
 40
0.8752785399750074
 40
1.0
 40
1.0
 40
1.0
 40
1.0
 10
233.1108844985063
 20
117.5189480776015
 30
0.0
 10
233.1081710032512
 20
117.40881562205
 30
0.0
 10
233.1027471643696
 20
117.188678625896
 30
0.0
 10
233.0519773066456
 20
116.91574802566
 30
0.0
 10
232.96762555921
 20
116.7113239132087
 30
0.0
 10
232.8707427992535
 20
116.5758690844764
 30
0.0
 10
232.7286661823846
 20
116.4801908196746
 30
0.0
 10
232.6179927416615
 20
116.470579733595
 30
0.0
 10
232.5626151688572
 20
116.4657706428537
 30
0.0
  0
LINE
  5
1EE
330
1F
100
AcDbEntity
  8
0
  6
Continuous
 62
     7
370
    18
100
AcDbLine
 10
231.1696358302
 20
117.3196532186
 30
0.0
 11
230.7360235847
 21
117.3196532186
 31
0.0
  0
SPLINE
  5
1EF
330
1F
100
AcDbEntity
  8
0
  6
Continuous
 62
     7
370
    18
100
AcDbSpline
210
0.0
220
0.0
230
1.0
 70
     8
 71
     3
 72
    13
 73
     9
 74
     0
 42
0.000000001
 43
0.00000001
 40
0.0
 40
0.0
 40
0.0
 40
0.0
 40
0.1868926354272031
 40
0.3734936198722609
 40
0.5595111555659776
 40
0.7060865218748862
 40
0.8529613385976946
 40
1.0
 40
1.0
 40
1.0
 40
1.0
 10
231.8033768043775
 20
117.9517264534005
 30
0.0
 10
231.8002269448151
 20
117.8877272749805
 30
0.0
 10
231.7939321411308
 20
117.7598287905789
 30
0.0
 10
231.7275456477558
 20
117.5780100036993
 30
0.0
 10
231.6169544782077
 20
117.4326737295588
 30
0.0
 10
231.4678454731059
 20
117.3574580624065
 30
0.0
 10
231.3203013147206
 20
117.3240489913315
 30
0.0
 10
231.2198763192971
 20
117.3211190206307
 30
0.0
 10
231.1696358301824
 20
117.3196532186112
 30
0.0
  0
SPLINE
  5
1F0
330
1F
100
AcDbEntity
  8
0
  6
Continuous
 62
     7
370
    18
100
AcDbSpline
210
0.0
220
0.0
230
1.0
 70
     8
 71
     3
 72
    11
 73
     7
 74
     0
 42
0.000000001
 43
0.00000001
 40
0.0
 40
0.0
 40
0.0
 40
0.0
 40
0.2789374603390856
 40
0.5587365194061735
 40
0.7792635983173135
 40
0.9999999999999999
 40
0.9999999999999999
 40
0.9999999999999999
 40
0.9999999999999999
 10
231.4848385778742
 20
118.5075006103755
 30
0.0
 10
231.5417932322611
 20
118.4775281378366
 30
0.0
 10
231.6558784659816
 20
118.4174906119909
 30
0.0
 10
231.7506891031595
 20
118.2599900321607
 30
0.0
 10
231.7974537963397
 20
118.1023983810013
 30
0.0
 10
231.8014018440846
 20
118.0019663099679
 30
0.0
 10
231.8033768043775
 20
117.9517264534005
 30
0.0
  0
SPLINE
  5
1F1
330
1F
100
AcDbEntity
  8
0
  6
Continuous
 62
     7
370
    18
100
AcDbSpline
210
0.0
220
0.0
230
1.0
 70
     8
 71
     3
 72
     9
 73
     5
 74
     0
 42
0.000000001
 43
0.00000001
 40
0.0
 40
0.0
 40
0.0
 40
0.0
 40
0.5604294502713282
 40
0.9999999999999999
 40
0.9999999999999999
 40
0.9999999999999999
 40
0.9999999999999999
 10
231.1554600452333
 20
118.5471094212627
 30
0.0
 10
231.2179260478393
 20
118.546889459768
 30
0.0
 10
231.3293870043892
 20
118.5464969723735
 30
0.0
 10
231.4373716901792
 20
118.5194080867296
 30
0.0
 10
231.4848385778742
 20
118.5075006103755
 30
0.0
  0
LINE
  5
1F2
330
1F
100
AcDbEntity
  8
0
  6
Continuous
 62
     7
370
    18
100
AcDbLine
 10
230.5225529407
 20
118.5471094213
 30
0.0
 11
231.1554600452
 21
118.5471094213
 31
0.0
  0
LINE
  5
1F3
330
1F
100
AcDbEntity
  8
0
  6
Continuous
 62
     7
370
    18
100
AcDbLine
 10
230.5225529407
 20
116.4924544733
 30
0.0
 11
230.5225529407
 21
118.5471094213
 31
0.0
  0
LINE
  5
1F4
330
1F
100
AcDbEntity
  8
0
  6
Continuous
 62
     7
370
    18
100
AcDbLine
 10
230.7360235847
 20
116.4924544733
 30
0.0
 11
230.5225529407
 21
116.4924544733
 31
0.0
  0
LINE
  5
1F5
330
1F
100
AcDbEntity
  8
0
  6
Continuous
 62
     7
370
    18
100
AcDbLine
 10
230.7360235847
 20
117.3196532186
 30
0.0
 11
230.7360235847
 21
116.4924544733
 31
0.0
  0
LINE
  5
1F6
330
1F
100
AcDbEntity
  8
0
  6
Continuous
 62
     7
370
    18
100
AcDbLine
 10
229.6419865345
 20
117.3463370491
 30
0.0
 11
230.2823984663
 21
117.3463370491
 31
0.0
  0
LINE
  5
1F7
330
1F
100
AcDbEntity
  8
0
  6
Continuous
 62
     7
370
    18
100
AcDbLine
 10
229.6419865345
 20
117.1061825747
 30
0.0
 11
229.6419865345
 21
117.3463370491
 31
0.0
  0
LINE
  5
1F8
330
1F
100
AcDbEntity
  8
0
  6
Continuous
 62
     7
370
    18
100
AcDbLine
 10
230.2823984663
 20
117.1061825747
 30
0.0
 11
229.6419865345
 21
117.1061825747
 31
0.0
  0
LINE
  5
1F9
330
1F
100
AcDbEntity
  8
0
  6
Continuous
 62
     7
370
    18
100
AcDbLine
 10
230.2823984663
 20
117.3463370491
 30
0.0
 11
230.2823984663
 21
117.1061825747
 31
0.0
  0
SPLINE
  5
1FA
330
1F
100
AcDbEntity
  8
0
  6
Continuous
 62
     7
370
    18
100
AcDbSpline
210
0.0
220
0.0
230
1.0
 70
     8
 71
     3
 72
    10
 73
     6
 74
     0
 42
0.000000001
 43
0.00000001
 40
0.0
 40
0.0
 40
0.0
 40
0.0
 40
0.2795751783825435
 40
0.5597049368157178
 40
1.0
 40
1.0
 40
1.0
 40
1.0
 10
229.2875919107636
 20
118.3569871290042
 30
0.0
 10
229.3234704516691
 20
118.2844839815372
 30
0.0
 10
229.3952987040437
 20
118.1393338655407
 30
0.0
 10
229.4448968273475
 20
117.8528122055548
 30
0.0
 10
229.4512915315744
 20
117.645592524067
 30
0.0
 10
229.4551997210442
 20
117.5189480776015
 30
0.0
  0
SPLINE
  5
1FB
330
1F
100
AcDbEntity
  8
0
  6
Continuous
 62
     7
370
    18
100
AcDbSpline
210
0.0
220
0.0
230
1.0
 70
     8
 71
     3
 72
    11
 73
     7
 74
     0
 42
0.000000001
 43
0.00000001
 40
0.0
 40
0.0
 40
0.0
 40
0.0
 40
0.2798903849624037
 40
0.559496442064462
 40
0.7796718965173824
 40
1.0
 40
1.0
 40
1.0
 40
1.0
 10
228.9094320005038
 20
118.5737932517551
 30
0.0
 10
228.9521889422243
 20
118.5709407334833
 30
0.0
 10
229.0376593908408
 20
118.5652385946825
 30
0.0
 10
229.1464296459437
 20
118.5116135127531
 30
0.0
 10
229.2299499714564
 20
118.4395741446682
 30
0.0
 10
229.2683734926549
 20
118.3845224932973
 30
0.0
 10
229.2875919107636
 20
118.3569871290042
 30
0.0
  0
SPLINE
  5
1FC
330
1F
100
AcDbEntity
  8
0
  6
Continuous
 62
     7
370
    18
100
AcDbSpline
210
0.0
220
0.0
230
1.0
 70
     8
 71
     3
 72
    13
 73
     9
 74
     0
 42
0.000000001
 43
0.00000001
 40
0.0
 40
0.0
 40
0.0
 40
0.0
 40
0.2504890583456494
 40
0.5006738274425615
 40
0.6258446378555212
 40
0.7507584155659031
 40
0.8753007099299321
 40
1.0
 40
1.0
 40
1.0
 40
1.0
 10
228.3611626708548
 20
117.5189480776015
 30
0.0
 10
228.3638812854699
 20
117.6291882749593
 30
0.0
 10
228.3693152121798
 20
117.8495347520216
 30
0.0
 10
228.4193685842214
 20
118.122962187569
 30
0.0
 10
228.5043041095986
 20
118.327419721854
 30
0.0
 10
228.6012921852876
 20
118.4629323429332
 30
0.0
 10
228.7432478483712
 20
118.5590316250216
 30
0.0
 10
228.8540140261534
 20
118.5688706436653
 30
0.0
 10
228.9094320005038
 20
118.5737932517551
 30
0.0
  0
SPLINE
  5
1FD
330
1F
100
AcDbEntity
  8
0
  6
Continuous
 62
     7
370
    18
100
AcDbSpline
210
0.0
220
0.0
230
1.0
 70
     8
 71
     3
 72
    13
 73
     9
 74
     0
 42
0.000000001
 43
0.00000001
 40
0.0
 40
0.0
 40
0.0
 40
0.0
 40
0.124587075353485
 40
0.2492227148385401
 40
0.3742192396120919
 40
0.4992998133209632
 40
0.749481200657996
 40
1.0
 40
1.0
 40
1.0
 40
1.0
 10
228.9069303913951
 20
116.4657706428537
 30
0.0
 10
228.8516667481063
 20
116.4714073391307
 30
0.0
 10
228.7411179197208
 20
116.4826829288731
 30
0.0
 10
228.602328963498
 20
116.5813159417094
 30
0.0
 10
228.499289854815
 20
116.7113202782694
 30
0.0
 10
228.4132659696466
 20
116.915666229323
 30
0.0
 10
228.3680950830274
 20
117.1891684085088
 30
0.0
 10
228.3634745128161
 20
117.4089721474322
 30
0.0
 10
228.3611626708548
 20
117.5189480776015
 30
0.0
  0
SPLINE
  5
1FE
330
1F
100
AcDbEntity
  8
0
  6
Continuous
 62
     7
370
    18
100
AcDbSpline
210
0.0
220
0.0
230
1.0
 70
     8
 71
     3
 72
    13
 73
     9
 74
     0
 42
0.000000001
 43
0.00000001
 40
0.0
 40
0.0
 40
0.0
 40
0.0
 40
0.2504702058475087
 40
0.5006494994159222
 40
0.6258027062132792
 40
0.7507410958263516
 40
0.8752785399750087
 40
1.0
 40
1.0
 40
1.0
 40
1.0
 10
229.4551997210442
 20
117.5189480776015
 30
0.0
 10
229.452486225789
 20
117.40881562205
 30
0.0
 10
229.4470623869075
 20
117.188678625896
 30
0.0
 10
229.3962925291834
 20
116.91574802566
 30
0.0
 10
229.3119407817478
 20
116.7113239132087
 30
0.0
 10
229.2150580217914
 20
116.5758690844764
 30
0.0
 10
229.0729814049225
 20
116.4801908196746
 30
0.0
 10
228.9623079641993
 20
116.470579733595
 30
0.0
 10
228.9069303913951
 20
116.4657706428537
 30
0.0
  0
SPLINE
  5
1FF
330
1F
100
AcDbEntity
  8
0
  6
Continuous
 62
     7
370
    18
100
AcDbSpline
210
0.0
220
0.0
230
1.0
 70
     8
 71
     3
 72
    10
 73
     6
 74
     0
 42
0.000000001
 43
0.00000001
 40
0.0
 40
0.0
 40
0.0
 40
0.0
 40
0.2795751783825436
 40
0.5597049368157176
 40
1.0
 40
1.0
 40
1.0
 40
1.0
 10
227.9800842166348
 20
118.3569871290042
 30
0.0
 10
228.0159627575403
 20
118.2844839815372
 30
0.0
 10
228.0877910099149
 20
118.1393338655407
 30
0.0
 10
228.1373891332187
 20
117.8528122055548
 30
0.0
 10
228.1437838374456
 20
117.645592524067
 30
0.0
 10
228.1476920269153
 20
117.5189480776015
 30
0.0
  0
SPLINE
  5
200
330
1F
100
AcDbEntity
  8
0
  6
Continuous
 62
     7
370
    18
100
AcDbSpline
210
0.0
220
0.0
230
1.0
 70
     8
 71
     3
 72
    11
 73
     7
 74
     0
 42
0.000000001
 43
0.00000001
 40
0.0
 40
0.0
 40
0.0
 40
0.0
 40
0.2798903849624053
 40
0.5594964420644598
 40
0.7796718965173827
 40
1.0
 40
1.0
 40
1.0
 40
1.0
 10
227.601924306375
 20
118.5737932517551
 30
0.0
 10
227.6446812480955
 20
118.5709407334833
 30
0.0
 10
227.730151696712
 20
118.5652385946825
 30
0.0
 10
227.8389219518149
 20
118.5116135127531
 30
0.0
 10
227.9224422773276
 20
118.4395741446682
 30
0.0
 10
227.9608657985261
 20
118.3845224932973
 30
0.0
 10
227.9800842166348
 20
118.3569871290042
 30
0.0
  0
SPLINE
  5
201
330
1F
100
AcDbEntity
  8
0
  6
Continuous
 62
     7
370
    18
100
AcDbSpline
210
0.0
220
0.0
230
1.0
 70
     8
 71
     3
 72
    13
 73
     9
 74
     0
 42
0.000000001
 43
0.00000001
 40
0.0
 40
0.0
 40
0.0
 40
0.0
 40
0.2504890583456469
 40
0.5006738274425617
 40
0.6258446378555216
 40
0.7507584155659033
 40
0.8753007099299301
 40
1.0
 40
1.0
 40
1.0
 40
1.0
 10
227.053654976726
 20
117.5189480776015
 30
0.0
 10
227.0563735913411
 20
117.6291882749593
 30
0.0
 10
227.061807518051
 20
117.8495347520216
 30
0.0
 10
227.1118608900925
 20
118.1229621875689
 30
0.0
 10
227.1967964154698
 20
118.327419721854
 30
0.0
 10
227.2937844911588
 20
118.4629323429332
 30
0.0
 10
227.4357401542424
 20
118.5590316250216
 30
0.0
 10
227.5465063320246
 20
118.5688706436653
 30
0.0
 10
227.601924306375
 20
118.5737932517551
 30
0.0
  0
SPLINE
  5
202
330
1F
100
AcDbEntity
  8
0
  6
Continuous
 62
     7
370
    18
100
AcDbSpline
210
0.0
220
0.0
230
1.0
 70
     8
 71
     3
 72
    13
 73
     9
 74
     0
 42
0.000000001
 43
0.00000001
 40
0.0
 40
0.0
 40
0.0
 40
0.0
 40
0.1245870753534838
 40
0.24922271483854
 40
0.3742192396120919
 40
0.4992998133209627
 40
0.7494812006579983
 40
1.0
 40
1.0
 40
1.0
 40
1.0
 10
227.5994226972663
 20
116.4657706428537
 30
0.0
 10
227.5441590539775
 20
116.4714073391307
 30
0.0
 10
227.433610225592
 20
116.4826829288731
 30
0.0
 10
227.2948212693693
 20
116.5813159417094
 30
0.0
 10
227.1917821606862
 20
116.7113202782694
 30
0.0
 10
227.1057582755178
 20
116.915666229323
 30
0.0
 10
227.0605873888986
 20
117.1891684085088
 30
0.0
 10
227.0559668186873
 20
117.4089721474322
 30
0.0
 10
227.053654976726
 20
117.5189480776015
 30
0.0
  0
SPLINE
  5
203
330
1F
100
AcDbEntity
  8
0
  6
Continuous
 62
     7
370
    18
100
AcDbSpline
210
0.0
220
0.0
230
1.0
 70
     8
 71
     3
 72
    13
 73
     9
 74
     0
 42
0.000000001
 43
0.00000001
 40
0.0
 40
0.0
 40
0.0
 40
0.0
 40
0.2504702058475085
 40
0.5006494994159217
 40
0.6258027062132786
 40
0.750741095826351
 40
0.8752785399750074
 40
1.0
 40
1.0
 40
1.0
 40
1.0
 10
228.1476920269153
 20
117.5189480776015
 30
0.0
 10
228.1449785316602
 20
117.40881562205
 30
0.0
 10
228.1395546927787
 20
117.188678625896
 30
0.0
 10
228.0887848350546
 20
116.91574802566
 30
0.0
 10
228.004433087619
 20
116.7113239132087
 30
0.0
 10
227.9075503276626
 20
116.5758690844764
 30
0.0
 10
227.7654737107937
 20
116.4801908196746
 30
0.0
 10
227.6548002700706
 20
116.470579733595
 30
0.0
 10
227.5994226972663
 20
116.4657706428537
 30
0.0
  0
SPLINE
  5
204
330
1F
100
AcDbEntity
  8
0
  6
Continuous
 62
     7
370
    18
100
AcDbSpline
210
0.0
220
0.0
230
1.0
 70
     8
 71
     3
 72
    12
 73
     8
 74
     0
 42
0.000000001
 43
0.00000001
 40
0.0
 40
0.0
 40
0.0
 40
0.0
 40
0.1861323399318223
 40
0.3726108819815575
 40
0.5594136204052335
 40
0.7795030968206007
 40
0.9999999999999999
 40
0.9999999999999999
 40
0.9999999999999999
 40
0.9999999999999999
 10
226.3390286413507
 20
117.8533298284597
 30
0.0
 10
226.3966709562858
 20
117.8466439280768
 30
0.0
 10
226.5120627996123
 20
117.8332596916813
 30
0.0
 10
226.654208524441
 20
117.7261480475178
 30
0.0
 10
226.7653785432452
 20
117.580586729705
 30
0.0
 10
226.8311754430261
 20
117.395262119207
 30
0.0
 10
226.8371795188017
 20
117.2598432180956
 30
0.0
 10
226.8401843327866
 20
117.1920711540693
 30
0.0
  0
SPLINE
  5
205
330
1F
100
AcDbEntity
  8
0
  6
Continuous
 62
     7
370
    18
100
AcDbSpline
210
0.0
220
0.0
230
1.0
 70
     8
 71
     3
 72
     9
 73
     5
 74
     0
 42
0.000000001
 43
0.00000001
 40
0.0
 40
0.0
 40
0.0
 40
0.0
 40
0.5597945537684257
 40
1.0
 40
1.0
 40
1.0
 40
1.0
 10
226.0346661997965
 20
117.772861402131
 30
0.0
 10
226.088787005837
 20
117.7986694072765
 30
0.0
 10
226.185466771076
 20
117.8447720443455
 30
0.0
 10
226.2920917464755
 20
117.8507141022211
 30
0.0
 10
226.3390286413507
 20
117.8533298284597
 30
0.0
  0
LINE
  5
206
330
1F
100
AcDbEntity
  8
0
  6
Continuous
 62
     7
370
    18
100
AcDbLine
 10
226.1117991473
 20
118.2802711163
 30
0.0
 11
226.0346661998
 21
117.7728614021
 31
0.0
  0
LINE
  5
207
330
1F
100
AcDbEntity
  8
0
  6
Continuous
 62
     7
370
    18
100
AcDbLine
 10
226.7601328413
 20
118.2802711163
 30
0.0
 11
226.1117991473
 21
118.2802711163
 31
0.0
  0
LINE
  5
208
330
1F
100
AcDbEntity
  8
0
  6
Continuous
 62
     7
370
    18
100
AcDbLine
 10
226.7601328413
 20
118.5204255908
 30
0.0
 11
226.7601328413
 21
118.2802711163
 31
0.0
  0
LINE
  5
209
330
1F
100
AcDbEntity
  8
0
  6
Continuous
 62
     7
370
    18
100
AcDbLine
 10
225.932934096
 20
118.5204255908
 30
0.0
 11
226.7601328413
 21
118.5204255908
 31
0.0
  0
LINE
  5
20A
330
1F
100
AcDbEntity
  8
0
  6
Continuous
 62
     7
370
    18
100
AcDbLine
 10
225.7728311131
 20
117.4676650909
 30
0.0
 11
225.932934096
 21
118.5204255908
 31
0.0
  0
LINE
  5
20B
330
1F
100
AcDbEntity
  8
0
  6
Continuous
 62
     7
370
    18
100
AcDbLine
 10
225.986301757
 20
117.4372288467
 30
0.0
 11
225.7728311131
 21
117.4676650909
 31
0.0
  0
SPLINE
  5
20C
330
1F
100
AcDbEntity
  8
0
  6
Continuous
 62
     7
370
    18
100
AcDbSpline
210
0.0
220
0.0
230
1.0
 70
     8
 71
     3
 72
    10
 73
     6
 74
     0
 42
0.000000001
 43
0.00000001
 40
0.0
 40
0.0
 40
0.0
 40
0.0
 40
0.28016827716769
 40
0.5607715634932497
 40
0.9999999999999999
 40
0.9999999999999999
 40
0.9999999999999999
 40
0.9999999999999999
 10
226.2794069575942
 20
117.6398591845203
 30
0.0
 10
226.2444189443566
 20
117.6359922166703
 30
0.0
 10
226.1743885930079
 20
117.6282522768414
 30
0.0
 10
226.0635440804508
 20
117.5615977344881
 30
0.0
 10
226.0155729080347
 20
117.4843587145558
 30
0.0
 10
225.986301757029
 20
117.4372288467185
 30
0.0
  0
SPLINE
  5
20D
330
1F
100
AcDbEntity
  8
0
  6
Continuous
 62
     7
370
    18
100
AcDbSpline
210
0.0
220
0.0
230
1.0
 70
     8
 71
     3
 72
    11
 73
     7
 74
     0
 42
0.000000001
 43
0.00000001
 40
0.0
 40
0.0
 40
0.0
 40
0.0
 40
0.2810318196216982
 40
0.5605860755662325
 40
0.7803889752948999
 40
1.0
 40
1.0
 40
1.0
 40
1.0
 10
226.6267136888472
 20
117.1803969782289
 30
0.0
 10
226.6238571956817
 20
117.240948726358
 30
0.0
 10
226.6181592277588
 20
117.361733863422
 30
0.0
 10
226.5441173805177
 20
117.5168351568736
 30
0.0
 10
226.4224253242366
 20
117.6229441333541
 30
0.0
 10
226.327065866549
 20
117.6342224757365
 30
0.0
 10
226.2794069575942
 20
117.6398591845203
 30
0.0
  0
SPLINE
  5
20E
330
1F
100
AcDbEntity
  8
0
  6
Continuous
 62
     7
370
    18
100
AcDbSpline
210
0.0
220
0.0
230
1.0
 70
     8
 71
     3
 72
    12
 73
     8
 74
     0
 42
0.000000001
 43
0.00000001
 40
0.0
 40
0.0
 40
0.0
 40
0.0
 40
0.1858835197478814
 40
0.3723018513499651
 40
0.5590684864252744
 40
0.779324338001526
 40
1.0
 40
1.0
 40
1.0
 40
1.0
 10
226.2739868045254
 20
116.679241286793
 30
0.0
 10
226.3164881077086
 20
116.6847632772796
 30
0.0
 10
226.4016129960329
 20
116.6958231457611
 30
0.0
 10
226.5024008283502
 20
116.7807116726444
 30
0.0
 10
226.5782914577964
 20
116.8922832268637
 30
0.0
 10
226.620637707767
 20
117.0305964987369
 30
0.0
 10
226.6246870766872
 20
117.1304318007035
 30
0.0
 10
226.6267136888472
 20
117.1803969782289
 30
0.0
  0
SPLINE
  5
20F
330
1F
100
AcDbEntity
  8
0
  6
Continuous
 62
     7
370
    18
100
AcDbSpline
210
0.0
220
0.0
230
1.0
 70
     8
 71
     3
 72
    11
 73
     7
 74
     0
 42
0.000000001
 43
0.00000001
 40
0.0
 40
0.0
 40
0.0
 40
0.0
 40
0.2811074381184342
 40
0.5611160017532787
 40
0.7809929910720553
 40
1.0
 40
1.0
 40
1.0
 40
1.0
 10
225.9596179265366
 20
117.0794987441794
 30
0.0
 10
225.9678336554894
 20
117.0278524944606
 30
0.0
 10
225.9842329973651
 20
116.9247618848996
 30
0.0
 10
226.048487782666
 20
116.7924736367655
 30
0.0
 10
226.1508653406825
 20
116.6975222977872
 30
0.0
 10
226.2330005876034
 20
116.6853268989907
 30
0.0
 10
226.2739868045254
 20
116.679241286793
 30
0.0
  0
LINE
  5
210
330
1F
100
AcDbEntity
  8
0
  6
Continuous
 62
     7
370
    18
100
AcDbLine
 10
225.7461472826
 20
117.0528149137
 30
0.0
 11
225.9596179265
 21
117.0794987442
 31
0.0
  0
SPLINE
  5
211
330
1F
100
AcDbEntity
  8
0
  6
Continuous
 62
     7
370
    18
100
AcDbSpline
210
0.0
220
0.0
230
1.0
 70
     8
 71
     3
 72
    12
 73
     8
 74
     0
 42
0.000000001
 43
0.00000001
 40
0.0
 40
0.0
 40
0.0
 40
0.0
 40
0.1865885886654298
 40
0.3730457041861948
 40
0.5597053661028955
 40
0.7796179230979428
 40
1.0
 40
1.0
 40
1.0
 40
1.0
 10
226.2760714787827
 20
116.4657706428537
 30
0.0
 10
226.2212545055163
 20
116.4701324908985
 30
0.0
 10
226.111659183853
 20
116.4788531135639
 30
0.0
 10
225.9659657089287
 20
116.5626694768428
 30
0.0
 10
225.8469185105587
 20
116.6907080238905
 30
0.0
 10
225.7699781123523
 20
116.8610094929076
 30
0.0
 10
225.7540965377622
 20
116.9888343369518
 30
0.0
 10
225.7461472825972
 20
117.052814913687
 30
0.0
  0
SPLINE
  5
212
330
1F
100
AcDbEntity
  8
0
  6
Continuous
 62
     7
370
    18
100
AcDbSpline
210
0.0
220
0.0
230
1.0
 70
     8
 71
     3
 72
    13
 73
     9
 74
     0
 42
0.000000001
 43
0.00000001
 40
0.0
 40
0.0
 40
0.0
 40
0.0
 40
0.1868890796518121
 40
0.3736670037034781
 40
0.5603596573753078
 40
0.7069433013335569
 40
0.8533827747571274
 40
1.0
 40
1.0
 40
1.0
 40
1.0
 10
226.8401843327866
 20
117.1920711540693
 30
0.0
 10
226.8370907527444
 20
117.1281523352523
 30
0.0
 10
226.8309054326217
 20
117.0003527144714
 30
0.0
 10
226.7737421169804
 20
116.8155808387633
 30
0.0
 10
226.6829581044646
 20
116.66081577663
 30
0.0
 10
226.5650890098704
 20
116.5445560937668
 30
0.0
 10
226.4269049386717
 20
116.4763199374327
 30
0.0
 10
226.3263696251136
 20
116.4692884960065
 30
0.0
 10
226.2760714787827
 20
116.4657706428537
 30
0.0
  0
LINE
  5
213
330
1F
100
AcDbEntity
  8
0
  6
Continuous
 62
     7
370
    18
100
AcDbLine
 10
224.9456323678
 20
117.3463370491
 30
0.0
 11
225.5860442996
 21
117.3463370491
 31
0.0
  0
LINE
  5
214
330
1F
100
AcDbEntity
  8
0
  6
Continuous
 62
     7
370
    18
100
AcDbLine
 10
224.9456323678
 20
117.1061825747
 30
0.0
 11
224.9456323678
 21
117.3463370491
 31
0.0
  0
LINE
  5
215
330
1F
100
AcDbEntity
  8
0
  6
Continuous
 62
     7
370
    18
100
AcDbLine
 10
225.5860442996
 20
117.1061825747
 30
0.0
 11
224.9456323678
 21
117.1061825747
 31
0.0
  0
LINE
  5
216
330
1F
100
AcDbEntity
  8
0
  6
Continuous
 62
     7
370
    18
100
AcDbLine
 10
225.5860442996
 20
117.3463370491
 30
0.0
 11
225.5860442996
 21
117.1061825747
 31
0.0
  0
SPLINE
  5
217
330
1F
100
AcDbEntity
  8
0
  6
Continuous
 62
     7
370
    18
100
AcDbSpline
210
0.0
220
0.0
230
1.0
 70
     8
 71
     3
 72
    12
 73
     8
 74
     0
 42
0.000000001
 43
0.00000001
 40
0.0
 40
0.0
 40
0.0
 40
0.0
 40
0.187105759524008
 40
0.3740211604078919
 40
0.5608338669252976
 40
0.780358512659648
 40
0.9999999999999999
 40
0.9999999999999999
 40
0.9999999999999999
 40
0.9999999999999999
 10
224.7588455543775
 20
117.0890882457626
 30
0.0
 10
224.7558964460538
 20
117.0313946957539
 30
0.0
 10
224.7500012297858
 20
116.9160662923034
 30
0.0
 10
224.6905009046419
 20
116.7506439313128
 30
0.0
 10
224.5805866818174
 20
116.6031482820135
 30
0.0
 10
224.4178936055625
 20
116.4859364848754
 30
0.0
 10
224.2813618659862
 20
116.4724937823527
 30
0.0
 10
224.2130778338371
 20
116.4657706428537
 30
0.0
  0
SPLINE
  5
218
330
1F
100
AcDbEntity
  8
0
  6
Continuous
 62
     7
370
    18
100
AcDbSpline
210
0.0
220
0.0
230
1.0
 70
     8
 71
     3
 72
    11
 73
     7
 74
     0
 42
0.000000001
 43
0.00000001
 40
0.0
 40
0.0
 40
0.0
 40
0.0
 40
0.2796220600248627
 40
0.5590245428560697
 40
0.779384731726162
 40
1.0
 40
1.0
 40
1.0
 40
1.0
 10
224.4315516959938
 20
117.619846311651
 30
0.0
 10
224.4878182246083
 20
117.5920110257029
 30
0.0
 10
224.6003070977467
 20
117.5363623118603
 30
0.0
 10
224.7040767871441
 20
117.3899404102968
 30
0.0
 10
224.7520108336755
 20
117.2360639394668
 30
0.0
 10
224.7565664357573
 20
117.1380990327198
 30
0.0
 10
224.7588455543775
 20
117.0890882457626
 30
0.0
  0
SPLINE
  5
219
330
1F
100
AcDbEntity
  8
0
  6
Continuous
 62
     7
370
    18
100
AcDbSpline
210
0.0
220
0.0
230
1.0
 70
     8
 71
     3
 72
    11
 73
     7
 74
     0
 42
0.000000001
 43
0.00000001
 40
0.0
 40
0.0
 40
0.0
 40
0.0
 40
0.2801901752489531
 40
0.5597317672418775
 40
0.7798035967389116
 40
1.0
 40
1.0
 40
1.0
 40
1.0
 10
224.6787940629002
 20
118.0342795539865
 30
0.0
 10
224.6761500396491
 20
117.9862815598585
 30
0.0
 10
224.6708681135229
 20
117.8903966771948
 30
0.0
 10
224.6157360488795
 20
117.7656993196333
 30
0.0
 10
224.5313599009633
 20
117.6734672377731
 30
0.0
 10
224.4648273727699
 20
117.6377233249348
 30
0.0
 10
224.4315516959938
 20
117.619846311651
 30
0.0
  0
SPLINE
  5
21A
330
1F
100
AcDbEntity
  8
0
  6
Continuous
 62
     7
370
    18
100
AcDbSpline
210
0.0
220
0.0
230
1.0
 70
     8
 71
     3
 72
    12
 73
     8
 74
     0
 42
0.000000001
 43
0.00000001
 40
0.0
 40
0.0
 40
0.0
 40
0.0
 40
0.186681894936982
 40
0.373093920797581
 40
0.5598445729636977
 40
0.7796788980924658
 40
1.0
 40
1.0
 40
1.0
 40
1.0
 10
224.2097423550256
 20
118.5737932517552
 30
0.0
 10
224.2596926763968
 20
118.5697577862149
 30
0.0
 10
224.359521110492
 20
118.5616926888408
 30
0.0
 10
224.4921519197493
 20
118.4845716381385
 30
0.0
 10
224.5982754515528
 20
118.3661682960651
 30
0.0
 10
224.668764383131
 20
118.2105506190896
 30
0.0
 10
224.6754483723243
 20
118.0930798801086
 30
0.0
 10
224.6787940629002
 20
118.0342795539865
 30
0.0
  0
SPLINE
  5
21B
330
1F
100
AcDbEntity
  8
0
  6
Continuous
 62
     7
370
    18
100
AcDbSpline
210
0.0
220
0.0
230
1.0
 70
     8
 71
     3
 72
    12
 73
     8
 74
     0
 42
0.000000001
 43
0.00000001
 40
0.0
 40
0.0
 40
0.0
 40
0.0
 40
0.1871377587295348
 40
0.3740411921344247
 40
0.5608494686677246
 40
0.7803659435040499
 40
1.0
 40
1.0
 40
1.0
 40
1.0
 10
223.7448599956653
 20
118.0426182510154
 30
0.0
 10
223.7474090929007
 20
118.0918180048076
 30
0.0
 10
223.7525040955088
 20
118.1901559067152
 30
0.0
 10
223.8026378191912
 20
118.3313356405844
 30
0.0
 10
223.89569495518
 20
118.4577734407854
 30
0.0
 10
224.0351810401083
 20
118.556770493196
 30
0.0
 10
224.1515448646609
 20
118.5681179861461
 30
0.0
 10
224.2097423550256
 20
118.5737932517551
 30
0.0
  0
SPLINE
  5
21C
330
1F
100
AcDbEntity
  8
0
  6
Continuous
 62
     7
370
    18
100
AcDbSpline
210
0.0
220
0.0
230
1.0
 70
     8
 71
     3
 72
    11
 73
     7
 74
     0
 42
0.000000001
 43
0.00000001
 40
0.0
 40
0.0
 40
0.0
 40
0.0
 40
0.2798399979573804
 40
0.5592260384591592
 40
0.7795665615265372
 40
1.0
 40
1.0
 40
1.0
 40
1.0
 10
223.9946039716804
 20
117.619846311651
 30
0.0
 10
223.951661508936
 20
117.6437038615276
 30
0.0
 10
223.8658462448653
 20
117.6913802594772
 30
0.0
 10
223.7862696646853
 20
117.8066618760457
 30
0.0
 10
223.7495775320286
 20
117.9275148725227
 30
0.0
 10
223.7464327287619
 20
118.0042450665947
 30
0.0
 10
223.7448599956653
 20
118.0426182510153
 30
0.0
  0
SPLINE
  5
21D
330
1F
100
AcDbEntity
  8
0
  6
Continuous
 62
     7
370
    18
100
AcDbSpline
210
0.0
220
0.0
230
1.0
 70
     8
 71
     3
 72
    11
 73
     7
 74
     0
 42
0.000000001
 43
0.00000001
 40
0.0
 40
0.0
 40
0.0
 40
0.0
 40
0.2804755498465856
 40
0.5600957930369872
 40
0.7800256682201218
 40
0.9999999999999999
 40
0.9999999999999999
 40
0.9999999999999999
 40
0.9999999999999999
 10
223.6648085041881
 20
117.0961761382372
 30
0.0
 10
223.668134897135
 20
117.1585625706585
 30
0.0
 10
223.6747775392356
 20
117.2831451888613
 30
0.0
 10
223.7460171641164
 20
117.4449788974552
 30
0.0
 10
223.8578088450499
 20
117.5644027486797
 30
0.0
 10
223.9490025241343
 20
117.6013638789001
 30
0.0
 10
223.9946039716804
 20
117.619846311651
 30
0.0
  0
SPLINE
  5
21E
330
1F
100
AcDbEntity
  8
0
  6
Continuous
 62
     7
370
    18
100
AcDbSpline
210
0.0
220
0.0
230
1.0
 70
     8
 71
     3
 72
    12
 73
     8
 74
     0
 42
0.000000001
 43
0.00000001
 40
0.0
 40
0.0
 40
0.0
 40
0.0
 40
0.1866482491791782
 40
0.3730988090506981
 40
0.5597919176482344
 40
0.7796545203293586
 40
1.0
 40
1.0
 40
1.0
 40
1.0
 10
224.2130778338371
 20
116.4657706428537
 30
0.0
 10
224.1546661463042
 20
116.4705310455489
 30
0.0
 10
224.0379046382322
 20
116.4800468089382
 30
0.0
 10
223.8825289654981
 20
116.5694686310918
 30
0.0
 10
223.7569913434587
 20
116.7070383325944
 30
0.0
 10
223.6764591400986
 20
116.8900899151947
 30
0.0
 10
223.6686948884357
 20
117.0274305129305
 30
0.0
 10
223.6648085041881
 20
117.0961761382372
 30
0.0
  0
SPLINE
  5
21F
330
1F
100
AcDbEntity
  8
0
  6
Continuous
 62
     7
370
    18
100
AcDbSpline
210
0.0
220
0.0
230
1.0
 70
     8
 71
     3
 72
    10
 73
     6
 74
     0
 42
0.000000001
 43
0.00000001
 40
0.0
 40
0.0
 40
0.0
 40
0.0
 40
0.2795751783825469
 40
0.5597049368157196
 40
1.0
 40
1.0
 40
1.0
 40
1.0
 10
223.2837300499681
 20
118.3569871290042
 30
0.0
 10
223.3196085908736
 20
118.2844839815372
 30
0.0
 10
223.3914368432482
 20
118.1393338655407
 30
0.0
 10
223.4410349665521
 20
117.8528122055548
 30
0.0
 10
223.4474296707789
 20
117.645592524067
 30
0.0
 10
223.4513378602487
 20
117.5189480776015
 30
0.0
  0
SPLINE
  5
220
330
1F
100
AcDbEntity
  8
0
  6
Continuous
 62
     7
370
    18
100
AcDbSpline
210
0.0
220
0.0
230
1.0
 70
     8
 71
     3
 72
    11
 73
     7
 74
     0
 42
0.000000001
 43
0.00000001
 40
0.0
 40
0.0
 40
0.0
 40
0.0
 40
0.2798903849624066
 40
0.5594964420644659
 40
0.77967189651739
 40
1.0
 40
1.0
 40
1.0
 40
1.0
 10
222.9055701397083
 20
118.5737932517551
 30
0.0
 10
222.9483270814288
 20
118.5709407334833
 30
0.0
 10
223.0337975300453
 20
118.5652385946825
 30
0.0
 10
223.1425677851482
 20
118.5116135127531
 30
0.0
 10
223.226088110661
 20
118.4395741446682
 30
0.0
 10
223.2645116318594
 20
118.3845224932973
 30
0.0
 10
223.2837300499681
 20
118.3569871290042
 30
0.0
  0
SPLINE
  5
221
330
1F
100
AcDbEntity
  8
0
  6
Continuous
 62
     7
370
    18
100
AcDbSpline
210
0.0
220
0.0
230
1.0
 70
     8
 71
     3
 72
    13
 73
     9
 74
     0
 42
0.000000001
 43
0.00000001
 40
0.0
 40
0.0
 40
0.0
 40
0.0
 40
0.2504890583456496
 40
0.500673827442562
 40
0.6258446378555224
 40
0.7507584155659033
 40
0.8753007099299314
 40
1.0
 40
1.0
 40
1.0
 40
1.0
 10
222.3573008100593
 20
117.5189480776015
 30
0.0
 10
222.3600194246744
 20
117.6291882749593
 30
0.0
 10
222.3654533513843
 20
117.8495347520216
 30
0.0
 10
222.4155067234259
 20
118.1229621875689
 30
0.0
 10
222.5004422488031
 20
118.327419721854
 30
0.0
 10
222.5974303244922
 20
118.4629323429332
 30
0.0
 10
222.7393859875758
 20
118.5590316250216
 30
0.0
 10
222.8501521653579
 20
118.5688706436653
 30
0.0
 10
222.9055701397083
 20
118.5737932517551
 30
0.0
  0
SPLINE
  5
222
330
1F
100
AcDbEntity
  8
0
  6
Continuous
 62
     7
370
    18
100
AcDbSpline
210
0.0
220
0.0
230
1.0
 70
     8
 71
     3
 72
    13
 73
     9
 74
     0
 42
0.000000001
 43
0.00000001
 40
0.0
 40
0.0
 40
0.0
 40
0.0
 40
0.1245870753534858
 40
0.2492227148385386
 40
0.3742192396120907
 40
0.4992998133209617
 40
0.7494812006579977
 40
1.0
 40
1.0
 40
1.0
 40
1.0
 10
222.9030685305997
 20
116.4657706428537
 30
0.0
 10
222.8478048873108
 20
116.4714073391307
 30
0.0
 10
222.7372560589253
 20
116.4826829288731
 30
0.0
 10
222.5984671027026
 20
116.5813159417095
 30
0.0
 10
222.4954279940195
 20
116.7113202782694
 30
0.0
 10
222.4094041088511
 20
116.915666229323
 30
0.0
 10
222.3642332222319
 20
117.1891684085088
 30
0.0
 10
222.3596126520206
 20
117.4089721474322
 30
0.0
 10
222.3573008100593
 20
117.5189480776015
 30
0.0
  0
SPLINE
  5
223
330
1F
100
AcDbEntity
  8
0
  6
Continuous
 62
     7
370
    18
100
AcDbSpline
210
0.0
220
0.0
230
1.0
 70
     8
 71
     3
 72
    13
 73
     9
 74
     0
 42
0.000000001
 43
0.00000001
 40
0.0
 40
0.0
 40
0.0
 40
0.0
 40
0.2504702058475057
 40
0.5006494994159213
 40
0.6258027062132779
 40
0.7507410958263502
 40
0.8752785399750076
 40
1.0
 40
1.0
 40
1.0
 40
1.0
 10
223.4513378602487
 20
117.5189480776015
 30
0.0
 10
223.4486243649936
 20
117.40881562205
 30
0.0
 10
223.4432005261121
 20
117.188678625896
 30
0.0
 10
223.392430668388
 20
116.91574802566
 30
0.0
 10
223.3080789209524
 20
116.7113239132087
 30
0.0
 10
223.2111961609959
 20
116.5758690844764
 30
0.0
 10
223.0691195441271
 20
116.4801908196746
 30
0.0
 10
222.9584461034039
 20
116.470579733595
 30
0.0
 10
222.9030685305997
 20
116.4657706428537
 30
0.0
  0
SPLINE
  5
224
330
1F
100
AcDbEntity
  8
0
  6
Continuous
 62
     7
370
    18
100
AcDbSpline
210
0.0
220
0.0
230
1.0
 70
     8
 71
     3
 72
    12
 73
     8
 74
     0
 42
0.000000001
 43
0.00000001
 40
0.0
 40
0.0
 40
0.0
 40
0.0
 40
0.1861323399318221
 40
0.3726108819815549
 40
0.5594136204052347
 40
0.7795030968206011
 40
1.0
 40
1.0
 40
1.0
 40
1.0
 10
221.642674474684
 20
117.8533298284597
 30
0.0
 10
221.7003167896191
 20
117.8466439280768
 30
0.0
 10
221.8157086329457
 20
117.8332596916813
 30
0.0
 10
221.9578543577743
 20
117.7261480475178
 30
0.0
 10
222.0690243765785
 20
117.580586729705
 30
0.0
 10
222.1348212763594
 20
117.395262119207
 30
0.0
 10
222.140825352135
 20
117.2598432180956
 30
0.0
 10
222.1438301661199
 20
117.1920711540693
 30
0.0
  0
SPLINE
  5
225
330
1F
100
AcDbEntity
  8
0
  6
Continuous
 62
     7
370
    18
100
AcDbSpline
210
0.0
220
0.0
230
1.0
 70
     8
 71
     3
 72
     9
 73
     5
 74
     0
 42
0.000000001
 43
0.00000001
 40
0.0
 40
0.0
 40
0.0
 40
0.0
 40
0.5597945537684172
 40
1.0
 40
1.0
 40
1.0
 40
1.0
 10
221.3383120331299
 20
117.772861402131
 30
0.0
 10
221.3924328391703
 20
117.7986694072765
 30
0.0
 10
221.4891126044093
 20
117.8447720443455
 30
0.0
 10
221.5957375798089
 20
117.850714102221
 30
0.0
 10
221.642674474684
 20
117.8533298284597
 30
0.0
  0
LINE
  5
226
330
1F
100
AcDbEntity
  8
0
  6
Continuous
 62
     7
370
    18
100
AcDbLine
 10
221.4154449806
 20
118.2802711163
 30
0.0
 11
221.3383120331
 21
117.7728614021
 31
0.0
  0
LINE
  5
227
330
1F
100
AcDbEntity
  8
0
  6
Continuous
 62
     7
370
    18
100
AcDbLine
 10
222.0637786746
 20
118.2802711163
 30
0.0
 11
221.4154449806
 21
118.2802711163
 31
0.0
  0
LINE
  5
228
330
1F
100
AcDbEntity
  8
0
  6
Continuous
 62
     7
370
    18
100
AcDbLine
 10
222.0637786746
 20
118.5204255908
 30
0.0
 11
222.0637786746
 21
118.2802711163
 31
0.0
  0
LINE
  5
229
330
1F
100
AcDbEntity
  8
0
  6
Continuous
 62
     7
370
    18
100
AcDbLine
 10
221.2365799294
 20
118.5204255908
 30
0.0
 11
222.0637786746
 21
118.5204255908
 31
0.0
  0
LINE
  5
22A
330
1F
100
AcDbEntity
  8
0
  6
Continuous
 62
     7
370
    18
100
AcDbLine
 10
221.0764769464
 20
117.4676650909
 30
0.0
 11
221.2365799294
 21
118.5204255908
 31
0.0
  0
LINE
  5
22B
330
1F
100
AcDbEntity
  8
0
  6
Continuous
 62
     7
370
    18
100
AcDbLine
 10
221.2899475904
 20
117.4372288467
 30
0.0
 11
221.0764769464
 21
117.4676650909
 31
0.0
  0
SPLINE
  5
22C
330
1F
100
AcDbEntity
  8
0
  6
Continuous
 62
     7
370
    18
100
AcDbSpline
210
0.0
220
0.0
230
1.0
 70
     8
 71
     3
 72
    10
 73
     6
 74
     0
 42
0.000000001
 43
0.00000001
 40
0.0
 40
0.0
 40
0.0
 40
0.0
 40
0.2801682771676919
 40
0.5607715634932514
 40
1.0
 40
1.0
 40
1.0
 40
1.0
 10
221.5830527909276
 20
117.6398591845203
 30
0.0
 10
221.5480647776899
 20
117.6359922166703
 30
0.0
 10
221.4780344263412
 20
117.6282522768414
 30
0.0
 10
221.3671899137842
 20
117.5615977344881
 30
0.0
 10
221.319218741368
 20
117.4843587145558
 30
0.0
 10
221.2899475903623
 20
117.4372288467185
 30
0.0
  0
SPLINE
  5
22D
330
1F
100
AcDbEntity
  8
0
  6
Continuous
 62
     7
370
    18
100
AcDbSpline
210
0.0
220
0.0
230
1.0
 70
     8
 71
     3
 72
    11
 73
     7
 74
     0
 42
0.000000001
 43
0.00000001
 40
0.0
 40
0.0
 40
0.0
 40
0.0
 40
0.2810318196216987
 40
0.5605860755662324
 40
0.780388975294902
 40
0.9999999999999999
 40
0.9999999999999999
 40
0.9999999999999999
 40
0.9999999999999999
 10
221.9303595221805
 20
117.1803969782289
 30
0.0
 10
221.927503029015
 20
117.240948726358
 30
0.0
 10
221.9218050610921
 20
117.3617338634221
 30
0.0
 10
221.847763213851
 20
117.5168351568736
 30
0.0
 10
221.7260711575699
 20
117.6229441333541
 30
0.0
 10
221.6307116998824
 20
117.6342224757365
 30
0.0
 10
221.5830527909276
 20
117.6398591845203
 30
0.0
  0
SPLINE
  5
22E
330
1F
100
AcDbEntity
  8
0
  6
Continuous
 62
     7
370
    18
100
AcDbSpline
210
0.0
220
0.0
230
1.0
 70
     8
 71
     3
 72
    12
 73
     8
 74
     0
 42
0.000000001
 43
0.00000001
 40
0.0
 40
0.0
 40
0.0
 40
0.0
 40
0.1858835197478839
 40
0.3723018513499675
 40
0.5590684864252754
 40
0.7793243380015261
 40
1.0
 40
1.0
 40
1.0
 40
1.0
 10
221.5776326378588
 20
116.679241286793
 30
0.0
 10
221.6201339410419
 20
116.6847632772796
 30
0.0
 10
221.7052588293663
 20
116.6958231457611
 30
0.0
 10
221.8060466616836
 20
116.7807116726444
 30
0.0
 10
221.8819372911298
 20
116.8922832268637
 30
0.0
 10
221.9242835411003
 20
117.0305964987369
 30
0.0
 10
221.9283329100205
 20
117.1304318007035
 30
0.0
 10
221.9303595221805
 20
117.1803969782289
 30
0.0
  0
SPLINE
  5
22F
330
1F
100
AcDbEntity
  8
0
  6
Continuous
 62
     7
370
    18
100
AcDbSpline
210
0.0
220
0.0
230
1.0
 70
     8
 71
     3
 72
    11
 73
     7
 74
     0
 42
0.000000001
 43
0.00000001
 40
0.0
 40
0.0
 40
0.0
 40
0.0
 40
0.28110743811844
 40
0.5611160017532808
 40
0.7809929910720536
 40
1.0
 40
1.0
 40
1.0
 40
1.0
 10
221.2632637598699
 20
117.0794987441794
 30
0.0
 10
221.2714794888227
 20
117.0278524944606
 30
0.0
 10
221.2878788306984
 20
116.9247618848996
 30
0.0
 10
221.3521336159993
 20
116.7924736367655
 30
0.0
 10
221.4545111740158
 20
116.6975222977872
 30
0.0
 10
221.5366464209368
 20
116.6853268989907
 30
0.0
 10
221.5776326378588
 20
116.679241286793
 30
0.0
  0
LINE
  5
230
330
1F
100
AcDbEntity
  8
0
  6
Continuous
 62
     7
370
    18
100
AcDbLine
 10
221.0497931159
 20
117.0528149137
 30
0.0
 11
221.2632637599
 21
117.0794987442
 31
0.0
  0
SPLINE
  5
231
330
1F
100
AcDbEntity
  8
0
  6
Continuous
 62
     7
370
    18
100
AcDbSpline
210
0.0
220
0.0
230
1.0
 70
     8
 71
     3
 72
    12
 73
     8
 74
     0
 42
0.000000001
 43
0.00000001
 40
0.0
 40
0.0
 40
0.0
 40
0.0
 40
0.1865885886654297
 40
0.3730457041861928
 40
0.5597053661028961
 40
0.7796179230979432
 40
1.0
 40
1.0
 40
1.0
 40
1.0
 10
221.579717312116
 20
116.4657706428537
 30
0.0
 10
221.5249003388497
 20
116.4701324908985
 30
0.0
 10
221.4153050171864
 20
116.4788531135639
 30
0.0
 10
221.2696115422621
 20
116.5626694768428
 30
0.0
 10
221.150564343892
 20
116.6907080238905
 30
0.0
 10
221.0736239456857
 20
116.8610094929076
 30
0.0
 10
221.0577423710955
 20
116.9888343369518
 30
0.0
 10
221.0497931159305
 20
117.052814913687
 30
0.0
  0
SPLINE
  5
232
330
1F
100
AcDbEntity
  8
0
  6
Continuous
 62
     7
370
    18
100
AcDbSpline
210
0.0
220
0.0
230
1.0
 70
     8
 71
     3
 72
    13
 73
     9
 74
     0
 42
0.000000001
 43
0.00000001
 40
0.0
 40
0.0
 40
0.0
 40
0.0
 40
0.1868890796518117
 40
0.3736670037034778
 40
0.5603596573753064
 40
0.7069433013335588
 40
0.8533827747571276
 40
1.0
 40
1.0
 40
1.0
 40
1.0
 10
222.1438301661199
 20
117.1920711540693
 30
0.0
 10
222.1407365860777
 20
117.1281523352523
 30
0.0
 10
222.1345512659551
 20
117.0003527144714
 30
0.0
 10
222.0773879503137
 20
116.8155808387633
 30
0.0
 10
221.9866039377979
 20
116.66081577663
 30
0.0
 10
221.8687348432038
 20
116.5445560937668
 30
0.0
 10
221.730550772005
 20
116.4763199374327
 30
0.0
 10
221.630015458447
 20
116.4692884960065
 30
0.0
 10
221.579717312116
 20
116.4657706428537
 30
0.0
  0
LINE
  5
233
330
1F
100
AcDbEntity
  8
0
  6
Continuous
 62
     7
370
    18
100
AcDbLine
 10
219.8577763757
 20
116.4924544733
 30
0.0
 11
219.3687117949
 21
118.2856912694
 31
0.0
  0
LINE
  5
234
330
1F
100
AcDbEntity
  8
0
  6
Continuous
 62
     7
370
    18
100
AcDbLine
 10
220.0762502378
 20
116.4924544733
 30
0.0
 11
219.8577763757
 21
116.4924544733
 31
0.0
  0
LINE
  5
235
330
1F
100
AcDbEntity
  8
0
  6
Continuous
 62
     7
370
    18
100
AcDbLine
 10
220.5694841671
 20
118.188545449
 30
0.0
 11
220.0762502378
 21
116.4924544733
 31
0.0
  0
LINE
  5
236
330
1F
100
AcDbEntity
  8
0
  6
Continuous
 62
     7
370
    18
100
AcDbLine
 10
220.5694841671
 20
116.4924544733
 30
0.0
 11
220.5694841671
 21
118.188545449
 31
0.0
  0
LINE
  5
237
330
1F
100
AcDbEntity
  8
0
  6
Continuous
 62
     7
370
    18
100
AcDbLine
 10
220.782954811
 20
116.4924544733
 30
0.0
 11
220.5694841671
 21
116.4924544733
 31
0.0
  0
LINE
  5
238
330
1F
100
AcDbEntity
  8
0
  6
Continuous
 62
     7
370
    18
100
AcDbLine
 10
220.782954811
 20
118.5471094213
 30
0.0
 11
220.782954811
 21
116.4924544733
 31
0.0
  0
LINE
  5
239
330
1F
100
AcDbEntity
  8
0
  6
Continuous
 62
     7
370
    18
100
AcDbLine
 10
220.4806770437
 20
118.5471094213
 30
0.0
 11
220.782954811
 21
118.5471094213
 31
0.0
  0
LINE
  5
23A
330
1F
100
AcDbEntity
  8
0
  6
Continuous
 62
     7
370
    18
100
AcDbLine
 10
220.0620744529
 20
117.1174398157
 30
0.0
 11
220.4806770437
 21
118.5471094213
 31
0.0
  0
SPLINE
  5
23B
330
1F
100
AcDbEntity
  8
0
  6
Continuous
 62
     7
370
    18
100
AcDbSpline
210
0.0
220
0.0
230
1.0
 70
     8
 71
     3
 72
     9
 73
     5
 74
     0
 42
0.000000001
 43
0.00000001
 40
0.0
 40
0.0
 40
0.0
 40
0.0
 40
0.5599947003108182
 40
1.0
 40
1.0
 40
1.0
 40
1.0
 10
219.9690979809873
 20
116.78806128302
 30
0.0
 10
219.9860278873053
 20
116.8496650790488
 30
0.0
 10
220.016260148983
 20
116.9596728987562
 30
0.0
 10
220.0480755206947
 20
117.0692328544999
 30
0.0
 10
220.0620744528593
 20
117.1174398156608
 30
0.0
  0
LINE
  5
23C
330
1F
100
AcDbEntity
  8
0
  6
Continuous
 62
     7
370
    18
100
AcDbLine
 10
219.8890464895
 20
117.0924237246
 30
0.0
 11
219.969097981
 21
116.788061283
 31
0.0
  0
LINE
  5
23D
330
1F
100
AcDbEntity
  8
0
  6
Continuous
 62
     7
370
    18
100
AcDbLine
 10
219.489205967
 20
118.5471094213
 30
0.0
 11
219.8890464895
 21
117.0924237246
 31
0.0
  0
LINE
  5
23E
330
1F
100
AcDbEntity
  8
0
  6
Continuous
 62
     7
370
    18
100
AcDbLine
 10
219.155241151
 20
118.5471094213
 30
0.0
 11
219.489205967
 21
118.5471094213
 31
0.0
  0
LINE
  5
23F
330
1F
100
AcDbEntity
  8
0
  6
Continuous
 62
     7
370
    18
100
AcDbLine
 10
219.155241151
 20
116.4924544733
 30
0.0
 11
219.155241151
 21
118.5471094213
 31
0.0
  0
LINE
  5
240
330
1F
100
AcDbEntity
  8
0
  6
Continuous
 62
     7
370
    18
100
AcDbLine
 10
219.3687117949
 20
116.4924544733
 30
0.0
 11
219.155241151
 21
116.4924544733
 31
0.0
  0
LINE
  5
241
330
1F
100
AcDbEntity
  8
0
  6
Continuous
 62
     7
370
    18
100
AcDbLine
 10
219.3687117949
 20
118.2856912694
 30
0.0
 11
219.3687117949
 21
116.4924544733
 31
0.0
  0
SPLINE
  5
242
330
1F
100
AcDbEntity
  8
0
  6
Continuous
 62
     7
370
    18
100
AcDbSpline
210
0.0
220
0.0
230
1.0
 70
     8
 71
     3
 72
    14
 73
    10
 74
     0
 42
0.000000001
 43
0.00000001
 40
0.0
 40
0.0
 40
0.0
 40
0.0
 40
0.1250267645254237
 40
0.2499561862380699
 40
0.374750631388284
 40
0.4996959194189178
 40
0.6663177050472613
 40
0.8330998507676246
 40
1.0
 40
1.0
 40
1.0
 40
1.0
 10
218.1708579667088
 20
118.3336387773233
 30
0.0
 10
218.1248303784953
 20
118.3308224470136
 30
0.0
 10
218.0328110380344
 20
118.3251919791206
 30
0.0
 10
217.9027233283394
 20
118.2727336800641
 30
0.0
 10
217.7948691866165
 20
118.1842036677677
 30
0.0
 10
217.7080653831663
 20
118.0566463074406
 30
0.0
 10
217.6453506470383
 20
117.8990955306727
 30
0.0
 10
217.6123597299626
 20
117.7173767065613
 30
0.0
 10
217.6091729405851
 20
117.5948338791498
 30
0.0
 10
217.6075789824078
 20
117.5335407974021
 30
0.0
  0
SPLINE
  5
243
330
1F
100
AcDbEntity
  8
0
  6
Continuous
 62
     7
370
    18
100
AcDbSpline
210
0.0
220
0.0
230
1.0
 70
     8
 71
     3
 72
    11
 73
     7
 74
     0
 42
0.000000001
 43
0.00000001
 40
0.0
 40
0.0
 40
0.0
 40
0.0
 40
0.2807713074051749
 40
0.5604369820882232
 40
0.7800147849953724
 40
1.0
 40
1.0
 40
1.0
 40
1.0
 10
218.6215645411199
 20
117.9066974894446
 30
0.0
 10
218.6029711162737
 20
117.9670864717609
 30
0.0
 10
218.5658574845292
 20
118.0876266341924
 30
0.0
 10
218.4621861567822
 20
118.2338935366534
 30
0.0
 10
218.3200354812731
 20
118.3216680534728
 30
0.0
 10
218.2206145212373
 20
118.3296460712124
 30
0.0
 10
218.1708579667088
 20
118.3336387773233
 30
0.0
  0
LINE
  5
244
330
1F
100
AcDbEntity
  8
0
  6
Continuous
 62
     7
370
    18
100
AcDbLine
 10
218.8350351851
 20
117.9600651504
 30
0.0
 11
218.6215645411
 21
117.9066974894
 31
0.0
  0
SPLINE
  5
245
330
1F
100
AcDbEntity
  8
0
  6
Continuous
 62
     7
370
    18
100
AcDbSpline
210
0.0
220
0.0
230
1.0
 70
     8
 71
     3
 72
    12
 73
     8
 74
     0
 42
0.000000001
 43
0.00000001
 40
0.0
 40
0.0
 40
0.0
 40
0.0
 40
0.1866161660947042
 40
0.373065298577118
 40
0.5597027812570775
 40
0.7796715026895146
 40
1.0
 40
1.0
 40
1.0
 40
1.0
 10
218.1796135985891
 20
118.5737932517552
 30
0.0
 10
218.2405738236102
 20
118.5693354385167
 30
0.0
 10
218.3624397102841
 20
118.5604238020728
 30
0.0
 10
218.5301121207496
 20
118.479038810754
 30
0.0
 10
218.6730806087669
 20
118.3465143833373
 30
0.0
 10
218.7778699625868
 20
118.1676537514204
 30
0.0
 10
218.815969733534
 20
118.0292990349175
 30
0.0
 10
218.8350351850593
 20
117.9600651504294
 30
0.0
  0
SPLINE
  5
246
330
1F
100
AcDbEntity
  8
0
  6
Continuous
 62
     7
370
    18
100
AcDbSpline
210
0.0
220
0.0
230
1.0
 70
     8
 71
     3
 72
    13
 73
     9
 74
     0
 42
0.000000001
 43
0.00000001
 40
0.0
 40
0.0
 40
0.0
 40
0.0
 40
0.186988627014318
 40
0.3737840604657693
 40
0.5603785113196417
 40
0.7069405280508676
 40
0.8534458164057727
 40
1.0
 40
1.0
 40
1.0
 40
1.0
 10
217.3941083384684
 20
117.5335407974021
 30
0.0
 10
217.3973355958119
 20
117.6245976040794
 30
0.0
 10
217.40378677615
 20
117.8066171390445
 30
0.0
 10
217.4729357305901
 20
118.0727587914454
 30
0.0
 10
217.5970298782273
 20
118.2977304343893
 30
0.0
 10
217.7690247675007
 20
118.4592363146216
 30
0.0
 10
217.9648741775527
 20
118.5569976183754
 30
0.0
 10
218.1080258302415
 20
118.5681940846072
 30
0.0
 10
218.1796135985891
 20
118.5737932517551
 30
0.0
  0
SPLINE
  5
247
330
1F
100
AcDbEntity
  8
0
  6
Continuous
 62
     7
370
    18
100
AcDbSpline
210
0.0
220
0.0
230
1.0
 70
     8
 71
     3
 72
    14
 73
    10
 74
     0
 42
0.000000001
 43
0.00000001
 40
0.0
 40
0.0
 40
0.0
 40
0.0
 40
0.1249789553015521
 40
0.24980981635043
 40
0.3745823232578668
 40
0.4995715195159096
 40
0.666278116641619
 40
0.8331039635850064
 40
1.0
 40
1.0
 40
1.0
 40
1.0
 10
218.1604345954227
 20
116.4657706428537
 30
0.0
 10
218.0987903616054
 20
116.4692587788905
 30
0.0
 10
217.9755749395225
 20
116.4762309176851
 30
0.0
 10
217.8008804285489
 20
116.5454319479139
 30
0.0
 10
217.65665358361
 20
116.6645243829958
 30
0.0
 10
217.5409921071081
 20
116.8356953999002
 30
0.0
 10
217.4532058904751
 20
117.0448615986011
 30
0.0
 10
217.4018101119466
 20
117.2871593432173
 30
0.0
 10
217.3966759562385
 20
117.4514021313147
 30
0.0
 10
217.3941083384684
 20
117.5335407974021
 30
0.0
  0
SPLINE
  5
248
330
1F
100
AcDbEntity
  8
0
  6
Continuous
 62
     7
370
    18
100
AcDbSpline
210
0.0
220
0.0
230
1.0
 70
     8
 71
     3
 72
    13
 73
     9
 74
     0
 42
0.000000001
 43
0.00000001
 40
0.0
 40
0.0
 40
0.0
 40
0.0
 40
0.1869090516643021
 40
0.3736796016941298
 40
0.5601136847103898
 40
0.7067311959183759
 40
0.8533138294591279
 40
1.0
 40
1.0
 40
1.0
 40
1.0
 10
218.8617190155517
 20
117.1595502356567
 30
0.0
 10
218.8458651397666
 20
117.0942220826839
 30
0.0
 10
218.8141691360903
 20
116.9636141856084
 30
0.0
 10
218.7291061386715
 20
116.7796189992684
 30
0.0
 10
218.6114279741548
 20
116.6312997037945
 30
0.0
 10
218.4690183863597
 20
116.5314480987075
 30
0.0
 10
218.3188679494261
 20
116.4749433805559
 30
0.0
 10
218.2132581417518
 20
116.4688289416445
 30
0.0
 10
218.1604345954227
 20
116.4657706428536
 30
0.0
  0
LINE
  5
249
330
1F
100
AcDbEntity
  8
0
  6
Continuous
 62
     7
370
    18
100
AcDbLine
 10
218.6482483716
 20
117.2129178966
 30
0.0
 11
218.8617190156
 21
117.1595502357
 31
0.0
  0
SPLINE
  5
24A
330
1F
100
AcDbEntity
  8
0
  6
Continuous
 62
     7
370
    18
100
AcDbSpline
210
0.0
220
0.0
230
1.0
 70
     8
 71
     3
 72
    12
 73
     8
 74
     0
 42
0.000000001
 43
0.00000001
 40
0.0
 40
0.0
 40
0.0
 40
0.0
 40
0.1865921528409282
 40
0.3730589116156858
 40
0.5596226295490484
 40
0.7796100104163911
 40
1.0
 40
1.0
 40
1.0
 40
1.0
 10
218.1537636377996
 20
116.7059251172855
 30
0.0
 10
218.2022577931003
 20
116.7097147685351
 30
0.0
 10
218.2992135145536
 20
116.7172915243047
 30
0.0
 10
218.4298446918296
 20
116.7878727711133
 30
0.0
 10
218.5385828509809
 20
116.8982903836205
 30
0.0
 10
218.6119039794565
 20
117.0458902736151
 30
0.0
 10
218.636126192623
 20
117.1572080987226
 30
0.0
 10
218.6482483716123
 20
117.2129178966415
 30
0.0
  0
SPLINE
  5
24B
330
1F
100
AcDbEntity
  8
0
  6
Continuous
 62
     7
370
    18
100
AcDbSpline
210
0.0
220
0.0
230
1.0
 70
     8
 71
     3
 72
    14
 73
    10
 74
     0
 42
0.000000001
 43
0.00000001
 40
0.0
 40
0.0
 40
0.0
 40
0.0
 40
0.1669299867484154
 40
0.3337709048041696
 40
0.5004211293286657
 40
0.6254239239505631
 40
0.7503194582828523
 40
0.8750931289475059
 40
1.0
 40
1.0
 40
1.0
 40
1.0
 10
217.6075789824078
 20
117.5335407974021
 30
0.0
 10
217.6089087183383
 20
117.4715938591414
 30
0.0
 10
217.6115674806933
 20
117.3477330355958
 30
0.0
 10
217.6417136689456
 20
117.164038060047
 30
0.0
 10
217.6962939440935
 20
117.0013879953054
 30
0.0
 10
217.7820640913912
 20
116.8710934022415
 30
0.0
 10
217.8856473649646
 20
116.7763295472191
 30
0.0
 10
218.0142305367354
 20
116.7155282148817
 30
0.0
 10
218.1072360651475
 20
116.70912728808
 30
0.0
 10
218.1537636377996
 20
116.7059251172855
 30
0.0
  0
CIRCLE
  5
24C
330
1F
100
AcDbEntity
  8
0
  6
Continuous
 62
     7
370
    18
100
AcDbCircle
 10
225.8929083503
 20
119.8813009459
 30
0.0
 40
25.19999999999999
  0
SPLINE
  5
24D
330
1F
100
AcDbEntity
  8
0
  6
Continuous
 62
     7
370
    18
100
AcDbSpline
210
0.0
220
0.0
230
1.0
 70
     8
 71
     3
 72
    13
 73
     9
 74
     0
 42
0.000000001
 43
0.00000001
 40
0.0
 40
0.0
 40
0.0
 40
0.0
 40
0.1237345749994066
 40
0.2484232101745689
 40
0.3734713343328615
 40
0.4987444967637459
 40
0.7493102257733214
 40
1.0
 40
1.0
 40
1.0
 40
1.0
 10
232.5688691916289
 20
116.679241286793
 30
0.0
 10
232.6099535878185
 20
116.6866045285459
 30
0.0
 10
232.6924391630069
 20
116.7013877866088
 30
0.0
 10
232.7766337327093
 20
116.7991005806796
 30
0.0
 10
232.8337034552651
 20
116.9078426632958
 30
0.0
 10
232.8728736526809
 20
117.0686357703917
 30
0.0
 10
232.8941409756046
 20
117.2731927542514
 30
0.0
 10
232.8963227149418
 20
117.4375719900297
 30
0.0
 10
232.8974138545669
 20
117.5197819473044
 30
0.0
  0
SPLINE
  5
24E
330
1F
100
AcDbEntity
  8
0
  6
Continuous
 62
     7
370
    18
100
AcDbSpline
210
0.0
220
0.0
230
1.0
 70
     8
 71
     3
 72
    13
 73
     9
 74
     0
 42
0.000000001
 43
0.00000001
 40
0.0
 40
0.0
 40
0.0
 40
0.0
 40
0.2506668541570156
 40
0.5012048357437088
 40
0.6264537829510465
 40
0.7514291871594861
 40
0.8760522367173379
 40
1.0
 40
1.0
 40
1.0
 40
1.0
 10
232.2303180922563
 20
117.5197819473044
 30
0.0
 10
232.2313663990729
 20
117.4368367115094
 30
0.0
 10
232.2334624737517
 20
117.2709888836337
 30
0.0
 10
232.2552815727905
 20
117.064614881256
 30
0.0
 10
232.295384053061
 20
116.9025604978201
 30
0.0
 10
232.3547553946779
 20
116.7934549947009
 30
0.0
 10
232.4438567540256
 20
116.6987646692421
 30
0.0
 10
232.5272739182208
 20
116.6857372838825
 30
0.0
 10
232.5688691916289
 20
116.679241286793
 30
0.0
  0
SPLINE
  5
24F
330
1F
100
AcDbEntity
  8
0
  6
Continuous
 62
     7
370
    18
100
AcDbSpline
210
0.0
220
0.0
230
1.0
 70
     8
 71
     3
 72
    13
 73
     9
 74
     0
 42
0.000000001
 43
0.00000001
 40
0.0
 40
0.0
 40
0.0
 40
0.0
 40
0.1236770548154448
 40
0.2483884878623323
 40
0.3734455614730974
 40
0.4987169325064012
 40
0.7492948497723044
 40
1.0
 40
1.0
 40
1.0
 40
1.0
 10
232.5563611460856
 20
118.3603226078158
 30
0.0
 10
232.5153725814313
 20
118.352829408556
 30
0.0
 10
232.4330526425443
 20
118.3377803403504
 30
0.0
 10
232.3499389231227
 20
118.2394230000202
 30
0.0
 10
232.2932058740495
 20
118.1307891786842
 30
0.0
 10
232.2551900800569
 20
117.97000714952
 30
0.0
 10
232.2334453313146
 20
117.7659582395836
 30
0.0
 10
232.2313606816472
 20
117.6018545953645
 30
0.0
 10
232.2303180922563
 20
117.5197819473044
 30
0.0
  0
SPLINE
  5
250
330
1F
100
AcDbEntity
  8
0
  6
Continuous
 62
     7
370
    18
100
AcDbSpline
210
0.0
220
0.0
230
1.0
 70
     8
 71
     3
 72
    13
 73
     9
 74
     0
 42
0.000000001
 43
0.00000001
 40
0.0
 40
0.0
 40
0.0
 40
0.0
 40
0.2506736071386397
 40
0.5012152607337999
 40
0.6264526015104157
 40
0.7514497498805411
 40
0.8760271183236275
 40
1.0
 40
1.0
 40
1.0
 40
1.0
 10
232.8974138545669
 20
117.5197819473044
 30
0.0
 10
232.8963753516548
 20
117.6029281010582
 30
0.0
 10
232.8942988924942
 20
117.7691766407766
 30
0.0
 10
232.8723846480831
 20
117.9760677685803
 30
0.0
 10
232.8319921928465
 20
118.1384433443106
 30
0.0
 10
232.7722245620963
 20
118.2477840915701
 30
0.0
 10
232.6817044767435
 20
118.3415223432715
 30
0.0
 10
232.5980744588285
 20
118.3540660219211
 30
0.0
 10
232.5563611460856
 20
118.3603226078158
 30
0.0
  0
SPLINE
  5
251
330
1F
100
AcDbEntity
  8
0
  6
Continuous
 62
     7
370
    18
100
AcDbSpline
210
0.0
220
0.0
230
1.0
 70
     8
 71
     3
 72
    13
 73
     9
 74
     0
 42
0.000000001
 43
0.00000001
 40
0.0
 40
0.0
 40
0.0
 40
0.0
 40
0.18697235231713
 40
0.3735952220890922
 40
0.559616687517951
 40
0.7057758564991345
 40
0.8528542218839413
 40
0.9999999999999999
 40
0.9999999999999999
 40
0.9999999999999999
 40
0.9999999999999999
 10
231.5899061604381
 20
117.9404692124115
 30
0.0
 10
231.5878811113795
 20
117.9805309970877
 30
0.0
 10
231.5838347984171
 20
118.0605796842752
 30
0.0
 10
231.5372667455601
 20
118.1719222198035
 30
0.0
 10
231.4654921365128
 20
118.261753497755
 30
0.0
 10
231.3661706070337
 20
118.2965117976512
 30
0.0
 10
231.2728376025476
 20
118.3054076096854
 30
0.0
 10
231.210156252649
 20
118.3064390890048
 30
0.0
 10
231.1788083969142
 20
118.3069549468309
 30
0.0
  0
SPLINE
  5
252
330
1F
100
AcDbEntity
  8
0
  6
Continuous
 62
     7
370
    18
100
AcDbSpline
210
0.0
220
0.0
230
1.0
 70
     8
 71
     3
 72
    12
 73
     8
 74
     0
 42
0.000000001
 43
0.00000001
 40
0.0
 40
0.0
 40
0.0
 40
0.0
 40
0.1873195695557093
 40
0.3742734414807207
 40
0.5603335325703934
 40
0.7795763615061819
 40
1.0
 40
1.0
 40
1.0
 40
1.0
 10
231.1829777454286
 20
117.559807693043
 30
0.0
 10
231.2228969125484
 20
117.5612214724691
 30
0.0
 10
231.3026573139543
 20
117.5640462712476
 30
0.0
 10
231.4194467496282
 20
117.596243803339
 30
0.0
 10
231.524019419885
 20
117.6735800651464
 30
0.0
 10
231.5827553909208
 20
117.7995206954518
 30
0.0
 10
231.5875183066877
 20
117.8934023276487
 30
0.0
 10
231.5899061604381
 20
117.9404692124115
 30
0.0
  0
LINE
  5
253
330
1F
100
AcDbEntity
  8
0
  6
Continuous
 62
     7
370
    18
100
AcDbLine
 10
230.7360235847
 20
117.559807693
 30
0.0
 11
231.1829777454
 21
117.559807693
 31
0.0
  0
LINE
  5
254
330
1F
100
AcDbEntity
  8
0
  6
Continuous
 62
     7
370
    18
100
AcDbLine
 10
230.7360235847
 20
118.3069549468
 30
0.0
 11
230.7360235847
 21
117.559807693
 31
0.0
  0
LINE
  5
255
330
1F
100
AcDbEntity
  8
0
  6
Continuous
 62
     7
370
    18
100
AcDbLine
 10
231.1788083969
 20
118.3069549468
 30
0.0
 11
230.7360235847
 21
118.3069549468
 31
0.0
  0
SPLINE
  5
256
330
1F
100
AcDbEntity
  8
0
  6
Continuous
 62
     7
370
    18
100
AcDbSpline
210
0.0
220
0.0
230
1.0
 70
     8
 71
     3
 72
    13
 73
     9
 74
     0
 42
0.000000001
 43
0.00000001
 40
0.0
 40
0.0
 40
0.0
 40
0.0
 40
0.1237345749994065
 40
0.2484232101745687
 40
0.3734713343328624
 40
0.498744496763746
 40
0.7493102257733216
 40
1.0
 40
1.0
 40
1.0
 40
1.0
 10
228.9131844141668
 20
116.679241286793
 30
0.0
 10
228.9542688103564
 20
116.6866045285458
 30
0.0
 10
229.0367543855448
 20
116.7013877866088
 30
0.0
 10
229.1209489552472
 20
116.7991005806796
 30
0.0
 10
229.178018677803
 20
116.9078426632958
 30
0.0
 10
229.2171888752187
 20
117.0686357703917
 30
0.0
 10
229.2384561981424
 20
117.2731927542515
 30
0.0
 10
229.2406379374797
 20
117.4375719900297
 30
0.0
 10
229.2417290771047
 20
117.5197819473044
 30
0.0
  0
SPLINE
  5
257
330
1F
100
AcDbEntity
  8
0
  6
Continuous
 62
     7
370
    18
100
AcDbSpline
210
0.0
220
0.0
230
1.0
 70
     8
 71
     3
 72
    13
 73
     9
 74
     0
 42
0.000000001
 43
0.00000001
 40
0.0
 40
0.0
 40
0.0
 40
0.0
 40
0.2506668541570158
 40
0.5012048357437089
 40
0.6264537829510467
 40
0.7514291871594868
 40
0.8760522367173387
 40
1.0
 40
1.0
 40
1.0
 40
1.0
 10
228.5746333147941
 20
117.5197819473044
 30
0.0
 10
228.5756816216107
 20
117.4368367115094
 30
0.0
 10
228.5777776962896
 20
117.2709888836337
 30
0.0
 10
228.5995967953284
 20
117.064614881256
 30
0.0
 10
228.6396992755988
 20
116.9025604978201
 30
0.0
 10
228.6990706172158
 20
116.7934549947009
 30
0.0
 10
228.7881719765635
 20
116.6987646692421
 30
0.0
 10
228.8715891407587
 20
116.6857372838825
 30
0.0
 10
228.9131844141668
 20
116.679241286793
 30
0.0
  0
SPLINE
  5
258
330
1F
100
AcDbEntity
  8
0
  6
Continuous
 62
     7
370
    18
100
AcDbSpline
210
0.0
220
0.0
230
1.0
 70
     8
 71
     3
 72
    13
 73
     9
 74
     0
 42
0.000000001
 43
0.00000001
 40
0.0
 40
0.0
 40
0.0
 40
0.0
 40
0.1236770548154456
 40
0.2483884878623319
 40
0.3734455614730946
 40
0.498716932506401
 40
0.7492948497723045
 40
1.0
 40
1.0
 40
1.0
 40
1.0
 10
228.9006763686235
 20
118.3603226078158
 30
0.0
 10
228.8596878039691
 20
118.352829408556
 30
0.0
 10
228.7773678650821
 20
118.3377803403504
 30
0.0
 10
228.6942541456606
 20
118.2394230000202
 30
0.0
 10
228.6375210965874
 20
118.1307891786842
 30
0.0
 10
228.5995053025948
 20
117.97000714952
 30
0.0
 10
228.5777605538524
 20
117.7659582395836
 30
0.0
 10
228.5756759041851
 20
117.6018545953645
 30
0.0
 10
228.5746333147941
 20
117.5197819473044
 30
0.0
  0
SPLINE
  5
259
330
1F
100
AcDbEntity
  8
0
  6
Continuous
 62
     7
370
    18
100
AcDbSpline
210
0.0
220
0.0
230
1.0
 70
     8
 71
     3
 72
    13
 73
     9
 74
     0
 42
0.000000001
 43
0.00000001
 40
0.0
 40
0.0
 40
0.0
 40
0.0
 40
0.250673607138639
 40
0.5012152607337987
 40
0.6264526015104133
 40
0.7514497498805432
 40
0.8760271183236287
 40
1.0
 40
1.0
 40
1.0
 40
1.0
 10
229.2417290771047
 20
117.5197819473044
 30
0.0
 10
229.2406905741927
 20
117.6029281010582
 30
0.0
 10
229.2386141150321
 20
117.7691766407766
 30
0.0
 10
229.2166998706209
 20
117.9760677685803
 30
0.0
 10
229.1763074153843
 20
118.1384433443106
 30
0.0
 10
229.1165397846342
 20
118.2477840915701
 30
0.0
 10
229.0260196992814
 20
118.3415223432715
 30
0.0
 10
228.9423896813664
 20
118.3540660219211
 30
0.0
 10
228.9006763686235
 20
118.3603226078158
 30
0.0
  0
SPLINE
  5
25A
330
1F
100
AcDbEntity
  8
0
  6
Continuous
 62
     7
370
    18
100
AcDbSpline
210
0.0
220
0.0
230
1.0
 70
     8
 71
     3
 72
    13
 73
     9
 74
     0
 42
0.000000001
 43
0.00000001
 40
0.0
 40
0.0
 40
0.0
 40
0.0
 40
0.1237345749994073
 40
0.2484232101745688
 40
0.3734713343328629
 40
0.4987444967637465
 40
0.7493102257733253
 40
1.0
 40
1.0
 40
1.0
 40
1.0
 10
227.605676720038
 20
116.679241286793
 30
0.0
 10
227.6467611162276
 20
116.6866045285458
 30
0.0
 10
227.7292466914159
 20
116.7013877866088
 30
0.0
 10
227.8134412611184
 20
116.7991005806796
 30
0.0
 10
227.8705109836742
 20
116.9078426632958
 30
0.0
 10
227.9096811810899
 20
117.0686357703917
 30
0.0
 10
227.9309485040137
 20
117.2731927542515
 30
0.0
 10
227.9331302433509
 20
117.4375719900297
 30
0.0
 10
227.9342213829759
 20
117.5197819473044
 30
0.0
  0
SPLINE
  5
25B
330
1F
100
AcDbEntity
  8
0
  6
Continuous
 62
     7
370
    18
100
AcDbSpline
210
0.0
220
0.0
230
1.0
 70
     8
 71
     3
 72
    13
 73
     9
 74
     0
 42
0.000000001
 43
0.00000001
 40
0.0
 40
0.0
 40
0.0
 40
0.0
 40
0.2506668541570159
 40
0.501204835743709
 40
0.6264537829510471
 40
0.7514291871594874
 40
0.8760522367173392
 40
1.0
 40
1.0
 40
1.0
 40
1.0
 10
227.2671256206654
 20
117.5197819473044
 30
0.0
 10
227.2681739274819
 20
117.4368367115094
 30
0.0
 10
227.2702700021608
 20
117.2709888836337
 30
0.0
 10
227.2920891011996
 20
117.064614881256
 30
0.0
 10
227.3321915814701
 20
116.9025604978201
 30
0.0
 10
227.391562923087
 20
116.7934549947009
 30
0.0
 10
227.4806642824347
 20
116.6987646692421
 30
0.0
 10
227.5640814466299
 20
116.6857372838825
 30
0.0
 10
227.605676720038
 20
116.679241286793
 30
0.0
  0
SPLINE
  5
25C
330
1F
100
AcDbEntity
  8
0
  6
Continuous
 62
     7
370
    18
100
AcDbSpline
210
0.0
220
0.0
230
1.0
 70
     8
 71
     3
 72
    13
 73
     9
 74
     0
 42
0.000000001
 43
0.00000001
 40
0.0
 40
0.0
 40
0.0
 40
0.0
 40
0.1236770548154448
 40
0.2483884878623323
 40
0.3734455614730982
 40
0.4987169325064011
 40
0.7492948497723044
 40
1.0
 40
1.0
 40
1.0
 40
1.0
 10
227.5931686744947
 20
118.3603226078158
 30
0.0
 10
227.5521801098404
 20
118.352829408556
 30
0.0
 10
227.4698601709534
 20
118.3377803403504
 30
0.0
 10
227.3867464515318
 20
118.2394230000202
 30
0.0
 10
227.3300134024586
 20
118.1307891786842
 30
0.0
 10
227.291997608466
 20
117.97000714952
 30
0.0
 10
227.2702528597237
 20
117.7659582395836
 30
0.0
 10
227.2681682100563
 20
117.6018545953645
 30
0.0
 10
227.2671256206654
 20
117.5197819473044
 30
0.0
  0
SPLINE
  5
25D
330
1F
100
AcDbEntity
  8
0
  6
Continuous
 62
     7
370
    18
100
AcDbSpline
210
0.0
220
0.0
230
1.0
 70
     8
 71
     3
 72
    13
 73
     9
 74
     0
 42
0.000000001
 43
0.00000001
 40
0.0
 40
0.0
 40
0.0
 40
0.0
 40
0.250673607138639
 40
0.5012152607337984
 40
0.6264526015104134
 40
0.7514497498805428
 40
0.8760271183236269
 40
1.0
 40
1.0
 40
1.0
 40
1.0
 10
227.9342213829759
 20
117.5197819473044
 30
0.0
 10
227.9331828800639
 20
117.6029281010582
 30
0.0
 10
227.9311064209033
 20
117.7691766407766
 30
0.0
 10
227.9091921764921
 20
117.9760677685803
 30
0.0
 10
227.8687997212556
 20
118.1384433443106
 30
0.0
 10
227.8090320905054
 20
118.2477840915701
 30
0.0
 10
227.7185120051526
 20
118.3415223432715
 30
0.0
 10
227.6348819872376
 20
118.3540660219211
 30
0.0
 10
227.5931686744947
 20
118.3603226078158
 30
0.0
  0
SPLINE
  5
25E
330
1F
100
AcDbEntity
  8
0
  6
Continuous
 62
     7
370
    18
100
AcDbSpline
210
0.0
220
0.0
230
1.0
 70
     8
 71
     3
 72
    12
 73
     8
 74
     0
 42
0.000000001
 43
0.00000001
 40
0.0
 40
0.0
 40
0.0
 40
0.0
 40
0.1864266110451019
 40
0.3728066183672681
 40
0.559638408919643
 40
0.7795953861027521
 40
1.0
 40
1.0
 40
1.0
 40
1.0
 10
224.2130778338371
 20
116.679241286793
 30
0.0
 10
224.2498720772362
 20
116.6827969543816
 30
0.0
 10
224.3234513660518
 20
116.6899074006978
 30
0.0
 10
224.4182458640793
 20
116.7518042521311
 30
0.0
 10
224.4934129570664
 20
116.8417654340916
 30
0.0
 10
224.5386876092493
 20
116.9590264022329
 30
0.0
 10
224.5431442999356
 20
117.0454270653282
 30
0.0
 10
224.5453749104381
 20
117.0886713109112
 30
0.0
  0
SPLINE
  5
25F
330
1F
100
AcDbEntity
  8
0
  6
Continuous
 62
     7
370
    18
100
AcDbSpline
210
0.0
220
0.0
230
1.0
 70
     8
 71
     3
 72
    11
 73
     7
 74
     0
 42
0.000000001
 43
0.00000001
 40
0.0
 40
0.0
 40
0.0
 40
0.0
 40
0.2807261943832934
 40
0.5603972916125645
 40
0.7804346209650609
 40
1.0
 40
1.0
 40
1.0
 40
1.0
 10
223.8782791481275
 20
117.0970100079401
 30
0.0
 10
223.8818538880449
 20
117.0409773957197
 30
0.0
 10
223.8889899323758
 20
116.9291227674074
 30
0.0
 10
223.9675007363304
 20
116.7907473416888
 30
0.0
 10
224.0812360374774
 20
116.6959453039841
 30
0.0
 10
224.1691620336904
 20
116.6848053059498
 30
0.0
 10
224.2130778338371
 20
116.679241286793
 30
0.0
  0
SPLINE
  5
260
330
1F
100
AcDbEntity
  8
0
  6
Continuous
 62
     7
370
    18
100
AcDbSpline
210
0.0
220
0.0
230
1.0
 70
     8
 71
     3
 72
    11
 73
     7
 74
     0
 42
0.000000001
 43
0.00000001
 40
0.0
 40
0.0
 40
0.0
 40
0.0
 40
0.2782055765816071
 40
0.5579799253701359
 40
0.7788219222535245
 40
1.0
 40
1.0
 40
1.0
 40
1.0
 10
224.2076576807683
 20
117.5064400320582
 30
0.0
 10
224.152973405367
 20
117.4972502795949
 30
0.0
 10
224.0432964956434
 20
117.4788189546133
 30
0.0
 10
223.9380519791694
 20
117.3573473066149
 30
0.0
 10
223.8849746891257
 20
117.2263466201552
 30
0.0
 10
223.8805121261329
 20
117.1401440594592
 30
0.0
 10
223.8782791481275
 20
117.0970100079401
 30
0.0
  0
SPLINE
  5
261
330
1F
100
AcDbEntity
  8
0
  6
Continuous
 62
     7
370
    18
100
AcDbSpline
210
0.0
220
0.0
230
1.0
 70
     8
 71
     3
 72
    11
 73
     7
 74
     0
 42
0.000000001
 43
0.00000001
 40
0.0
 40
0.0
 40
0.0
 40
0.0
 40
0.2807535301687759
 40
0.5603207228591561
 40
0.7803822345379202
 40
1.0
 40
1.0
 40
1.0
 40
1.0
 10
224.5453749104381
 20
117.0886713109112
 30
0.0
 10
224.5416907067406
 20
117.1449102616625
 30
0.0
 10
224.5343378671247
 20
117.2571505227871
 30
0.0
 10
224.4542127431304
 20
117.3951898047867
 30
0.0
 10
224.3399784113791
 20
117.489936619162
 30
0.0
 10
224.2517349043917
 20
117.5009425970197
 30
0.0
 10
224.2076576807683
 20
117.5064400320582
 30
0.0
  0
SPLINE
  5
262
330
1F
100
AcDbEntity
  8
0
  6
Continuous
 62
     7
370
    18
100
AcDbSpline
210
0.0
220
0.0
230
1.0
 70
     8
 71
     3
 72
    11
 73
     7
 74
     0
 42
0.000000001
 43
0.00000001
 40
0.0
 40
0.0
 40
0.0
 40
0.0
 40
0.2783889696083879
 40
0.5580817055296868
 40
0.7789018539988232
 40
1.0
 40
1.0
 40
1.0
 40
1.0
 10
224.2130778338371
 20
117.7199106759976
 30
0.0
 10
224.2550648802525
 20
117.7270761364364
 30
0.0
 10
224.3392356090951
 20
117.7414406149867
 30
0.0
 10
224.419339004845
 20
117.8351344601881
 30
0.0
 10
224.46035446662
 20
117.9354537910795
 30
0.0
 10
224.4636664070331
 20
118.0016017190266
 30
0.0
 10
224.4653234189608
 20
118.0346964888379
 30
0.0
  0
SPLINE
  5
263
330
1F
100
AcDbEntity
  8
0
  6
Continuous
 62
     7
370
    18
100
AcDbSpline
210
0.0
220
0.0
230
1.0
 70
     8
 71
     3
 72
    11
 73
     7
 74
     0
 42
0.000000001
 43
0.00000001
 40
0.0
 40
0.0
 40
0.0
 40
0.0
 40
0.2806987831964729
 40
0.5604086902325236
 40
0.7804393617933023
 40
1.0
 40
1.0
 40
1.0
 40
1.0
 10
223.9583306396048
 20
118.0484553389356
 30
0.0
 10
223.9607583230359
 20
118.0048981916931
 30
0.0
 10
223.9656051373913
 20
117.9179373450573
 30
0.0
 10
224.0228751371886
 20
117.8084384491684
 30
0.0
 10
224.1102955705347
 20
117.7326412828654
 30
0.0
 10
224.1788415103364
 20
117.7241511856058
 30
0.0
 10
224.2130778338371
 20
117.7199106759976
 30
0.0
  0
SPLINE
  5
264
330
1F
100
AcDbEntity
  8
0
  6
Continuous
 62
     7
370
    18
100
AcDbSpline
210
0.0
220
0.0
230
1.0
 70
     8
 71
     3
 72
    11
 73
     7
 74
     0
 42
0.000000001
 43
0.00000001
 40
0.0
 40
0.0
 40
0.0
 40
0.0
 40
0.2781848052830314
 40
0.5582334878196246
 40
0.7790790531104524
 40
1.0
 40
1.0
 40
1.0
 40
1.0
 10
224.2105762247284
 20
118.3603226078158
 30
0.0
 10
224.1690192903039
 20
118.3530172260929
 30
0.0
 10
224.0856269841594
 20
118.338357515564
 30
0.0
 10
224.0061956698789
 20
118.2457286577904
 30
0.0
 10
223.9640576149669
 20
118.1468221512956
 30
0.0
 10
223.9602398485425
 20
118.0812480061751
 30
0.0
 10
223.9583306396048
 20
118.0484553389356
 30
0.0
  0
SPLINE
  5
265
330
1F
100
AcDbEntity
  8
0
  6
Continuous
 62
     7
370
    18
100
AcDbSpline
210
0.0
220
0.0
230
1.0
 70
     8
 71
     3
 72
    11
 73
     7
 74
     0
 42
0.000000001
 43
0.00000001
 40
0.0
 40
0.0
 40
0.0
 40
0.0
 40
0.2805990159984029
 40
0.5604527759419506
 40
0.7805133266133522
 40
1.0
 40
1.0
 40
1.0
 40
1.0
 10
224.4653234189608
 20
118.0346964888379
 30
0.0
 10
224.4626394964628
 20
118.0778357754042
 30
0.0
 10
224.4572787798221
 20
118.1639997728874
 30
0.0
 10
224.3967662611471
 20
118.2698884328385
 30
0.0
 10
224.3120289998525
 20
118.3460422305989
 30
0.0
 10
224.2443643685617
 20
118.3555666271262
 30
0.0
 10
224.2105762247284
 20
118.3603226078158
 30
0.0
  0
SPLINE
  5
266
330
1F
100
AcDbEntity
  8
0
  6
Continuous
 62
     7
370
    18
100
AcDbSpline
210
0.0
220
0.0
230
1.0
 70
     8
 71
     3
 72
    13
 73
     9
 74
     0
 42
0.000000001
 43
0.00000001
 40
0.0
 40
0.0
 40
0.0
 40
0.0
 40
0.1237345749994058
 40
0.2484232101745687
 40
0.3734713343328614
 40
0.4987444967637455
 40
0.7493102257733247
 40
1.0
 40
1.0
 40
1.0
 40
1.0
 10
222.9093225533713
 20
116.679241286793
 30
0.0
 10
222.9504069495609
 20
116.6866045285458
 30
0.0
 10
223.0328925247493
 20
116.7013877866088
 30
0.0
 10
223.1170870944517
 20
116.7991005806796
 30
0.0
 10
223.1741568170075
 20
116.9078426632958
 30
0.0
 10
223.2133270144233
 20
117.0686357703917
 30
0.0
 10
223.234594337347
 20
117.2731927542515
 30
0.0
 10
223.2367760766842
 20
117.4375719900297
 30
0.0
 10
223.2378672163093
 20
117.5197819473044
 30
0.0
  0
SPLINE
  5
267
330
1F
100
AcDbEntity
  8
0
  6
Continuous
 62
     7
370
    18
100
AcDbSpline
210
0.0
220
0.0
230
1.0
 70
     8
 71
     3
 72
    13
 73
     9
 74
     0
 42
0.000000001
 43
0.00000001
 40
0.0
 40
0.0
 40
0.0
 40
0.0
 40
0.2506668541570155
 40
0.5012048357437084
 40
0.626453782951046
 40
0.7514291871594861
 40
0.8760522367173378
 40
1.0
 40
1.0
 40
1.0
 40
1.0
 10
222.5707714539987
 20
117.5197819473044
 30
0.0
 10
222.5718197608153
 20
117.4368367115094
 30
0.0
 10
222.5739158354941
 20
117.2709888836337
 30
0.0
 10
222.5957349345329
 20
117.064614881256
 30
0.0
 10
222.6358374148034
 20
116.9025604978201
 30
0.0
 10
222.6952087564203
 20
116.7934549947009
 30
0.0
 10
222.784310115768
 20
116.6987646692421
 30
0.0
 10
222.8677272799632
 20
116.6857372838825
 30
0.0
 10
222.9093225533713
 20
116.679241286793
 30
0.0
  0
SPLINE
  5
268
330
1F
100
AcDbEntity
  8
0
  6
Continuous
 62
     7
370
    18
100
AcDbSpline
210
0.0
220
0.0
230
1.0
 70
     8
 71
     3
 72
    13
 73
     9
 74
     0
 42
0.000000001
 43
0.00000001
 40
0.0
 40
0.0
 40
0.0
 40
0.0
 40
0.1236770548154456
 40
0.2483884878623329
 40
0.3734455614730955
 40
0.4987169325064016
 40
0.7492948497723049
 40
1.0
 40
1.0
 40
1.0
 40
1.0
 10
222.896814507828
 20
118.3603226078158
 30
0.0
 10
222.8558259431737
 20
118.352829408556
 30
0.0
 10
222.7735060042867
 20
118.3377803403504
 30
0.0
 10
222.6903922848651
 20
118.2394230000202
 30
0.0
 10
222.6336592357919
 20
118.1307891786843
 30
0.0
 10
222.5956434417993
 20
117.97000714952
 30
0.0
 10
222.573898693057
 20
117.7659582395836
 30
0.0
 10
222.5718140433896
 20
117.6018545953645
 30
0.0
 10
222.5707714539987
 20
117.5197819473044
 30
0.0
  0
SPLINE
  5
269
330
1F
100
AcDbEntity
  8
0
  6
Continuous
 62
     7
370
    18
100
AcDbSpline
210
0.0
220
0.0
230
1.0
 70
     8
 71
     3
 72
    13
 73
     9
 74
     0
 42
0.000000001
 43
0.00000001
 40
0.0
 40
0.0
 40
0.0
 40
0.0
 40
0.250673607138639
 40
0.5012152607337987
 40
0.6264526015104137
 40
0.7514497498805424
 40
0.8760271183236278
 40
1.0
 40
1.0
 40
1.0
 40
1.0
 10
223.2378672163093
 20
117.5197819473044
 30
0.0
 10
223.2368287133972
 20
117.6029281010582
 30
0.0
 10
223.2347522542367
 20
117.7691766407766
 30
0.0
 10
223.2128380098255
 20
117.9760677685803
 30
0.0
 10
223.1724455545889
 20
118.1384433443106
 30
0.0
 10
223.1126779238387
 20
118.2477840915701
 30
0.0
 10
223.022157838486
 20
118.3415223432715
 30
0.0
 10
222.938527820571
 20
118.3540660219211
 30
0.0
 10
222.896814507828
 20
118.3603226078158
 30
0.0
  0
CIRCLE
  5
26A
330
1F
100
AcDbEntity
  8
0
  6
Continuous
 62
     7
370
    18
100
AcDbCircle
 10
225.8929083503
 20
119.8813009459
 30
0.0
 40
25.40000000000003
  0
OLE2FRAME
  5
26B
330
1F
100
AcDbEntity
  8
0
100
AcDbOle2Frame
 70
     2
  3
Paintbrush Picture
 10
229.0524258301
 20
33.6996297921
 30
0.0
 11
265.1686469208
 21
28.555479607
 31
0.0
 71
     2
 72
     0
 73
     1
 90
     7296
310
80557333EF78ADA16C40002412788DD94040000000000000000041161DC7B292
310
7040002412788DD94040000000000000000041161DC7B2927040F6DD59E9338E
310
3C4000000000000000007333EF78ADA16C40F6DD59E9338E3C40000000000000
310
00000000000001000000000100000100000001000000000001000000001C0000
310
D0CF11E0A1B11AE1000000000000000000000000000000003E000300FEFF0900
310
0600000000000000000000000100000001000000000000000010000002000000
310
01000000FEFFFFFF0000000000000000FFFFFFFFFFFFFFFFFFFFFFFFFFFFFFFF
310
FFFFFFFFFFFFFFFFFFFFFFFFFFFFFFFFFFFFFFFFFFFFFFFFFFFFFFFFFFFFFFFF
310
FFFFFFFFFFFFFFFFFFFFFFFFFFFFFFFFFFFFFFFFFFFFFFFFFFFFFFFFFFFFFFFF
310
FFFFFFFFFFFFFFFFFFFFFFFFFFFFFFFFFFFFFFFFFFFFFFFFFFFFFFFFFFFFFFFF
310
FFFFFFFFFFFFFFFFFFFFFFFFFFFFFFFFFFFFFFFFFFFFFFFFFFFFFFFFFFFFFFFF
310
FFFFFFFFFFFFFFFFFFFFFFFFFFFFFFFFFFFFFFFFFFFFFFFFFFFFFFFFFFFFFFFF
310
FFFFFFFFFFFFFFFFFFFFFFFFFFFFFFFFFFFFFFFFFFFFFFFFFFFFFFFFFFFFFFFF
310
FFFFFFFFFFFFFFFFFFFFFFFFFFFFFFFFFFFFFFFFFFFFFFFFFFFFFFFFFFFFFFFF
310
FFFFFFFFFFFFFFFFFFFFFFFFFFFFFFFFFFFFFFFFFFFFFFFFFFFFFFFFFFFFFFFF
310
FFFFFFFFFFFFFFFFFFFFFFFFFFFFFFFFFFFFFFFFFFFFFFFFFFFFFFFFFFFFFFFF
310
FFFFFFFFFFFFFFFFFFFFFFFFFFFFFFFFFFFFFFFFFFFFFFFFFFFFFFFFFFFFFFFF
310
FFFFFFFFFFFFFFFFFFFFFFFFFFFFFFFFFFFFFFFFFFFFFFFFFFFFFFFFFFFFFFFF
310
FFFFFFFFFFFFFFFFFFFFFFFFFFFFFFFFFFFFFFFFFFFFFFFFFFFFFFFFFFFFFFFF
310
FFFFFFFFFFFFFFFFFFFFFFFFFFFFFFFFFFFFFFFFFFFFFFFFFFFFFFFFFFFFFFFF
310
FDFFFFFFFEFFFFFFFEFFFFFFFEFFFFFF05000000060000000700000008000000
310
090000000A0000000B0000000C000000FEFFFFFFFFFFFFFFFFFFFFFFFFFFFFFF
310
FFFFFFFFFFFFFFFFFFFFFFFFFFFFFFFFFFFFFFFFFFFFFFFFFFFFFFFFFFFFFFFF
310
FFFFFFFFFFFFFFFFFFFFFFFFFFFFFFFFFFFFFFFFFFFFFFFFFFFFFFFFFFFFFFFF
310
FFFFFFFFFFFFFFFFFFFFFFFFFFFFFFFFFFFFFFFFFFFFFFFFFFFFFFFFFFFFFFFF
310
FFFFFFFFFFFFFFFFFFFFFFFFFFFFFFFFFFFFFFFFFFFFFFFFFFFFFFFFFFFFFFFF
310
FFFFFFFFFFFFFFFFFFFFFFFFFFFFFFFFFFFFFFFFFFFFFFFFFFFFFFFFFFFFFFFF
310
FFFFFFFFFFFFFFFFFFFFFFFFFFFFFFFFFFFFFFFFFFFFFFFFFFFFFFFFFFFFFFFF
310
FFFFFFFFFFFFFFFFFFFFFFFFFFFFFFFFFFFFFFFFFFFFFFFFFFFFFFFFFFFFFFFF
310
FFFFFFFFFFFFFFFFFFFFFFFFFFFFFFFFFFFFFFFFFFFFFFFFFFFFFFFFFFFFFFFF
310
FFFFFFFFFFFFFFFFFFFFFFFFFFFFFFFFFFFFFFFFFFFFFFFFFFFFFFFFFFFFFFFF
310
FFFFFFFFFFFFFFFFFFFFFFFFFFFFFFFFFFFFFFFFFFFFFFFFFFFFFFFFFFFFFFFF
310
FFFFFFFFFFFFFFFFFFFFFFFFFFFFFFFFFFFFFFFFFFFFFFFFFFFFFFFFFFFFFFFF
310
FFFFFFFFFFFFFFFFFFFFFFFFFFFFFFFFFFFFFFFFFFFFFFFFFFFFFFFFFFFFFFFF
310
FFFFFFFFFFFFFFFFFFFFFFFFFFFFFFFFFFFFFFFFFFFFFFFFFFFFFFFFFFFFFFFF
310
FFFFFFFFFFFFFFFFFFFFFFFFFFFFFFFFFFFFFFFFFFFFFFFFFFFFFFFFFFFFFFFF
310
52006F006F007400200045006E00740072007900000000000000000000000000
310
0000000000000000000000000000000000000000000000000000000000000000
310
16000500FFFFFFFFFFFFFFFF020000000A00030000000000C000000000000046
310
000000000000000000000000A00AAD214796D40103000000C000000000000000
310
01004F006C006500000000000000000000000000000000000000000000000000
310
0000000000000000000000000000000000000000000000000000000000000000
310
0A000200FFFFFFFFFFFFFFFFFFFFFFFF00000000000000000000000000000000
310
0000000000000000000000000000000000000000000000001400000000000000
310
010043006F006D0070004F0062006A0000000000000000000000000000000000
310
0000000000000000000000000000000000000000000000000000000000000000
310
120002010100000003000000FFFFFFFF00000000000000000000000000000000
310
0000000000000000000000000000000000000000010000004D00000000000000
310
01004F006C006500310030004E00610074006900760065000000000000000000
310
0000000000000000000000000000000000000000000000000000000000000000
310
1A000200FFFFFFFFFFFFFFFFFFFFFFFF00000000000000000000000000000000
310
000000000000000000000000000000000000000004000000E411000000000000
310
FEFFFFFF02000000FEFFFFFFFFFFFFFFFFFFFFFFFFFFFFFFFFFFFFFFFFFFFFFF
310
FFFFFFFFFFFFFFFFFFFFFFFFFFFFFFFFFFFFFFFFFFFFFFFFFFFFFFFFFFFFFFFF
310
FFFFFFFFFFFFFFFFFFFFFFFFFFFFFFFFFFFFFFFFFFFFFFFFFFFFFFFFFFFFFFFF
310
FFFFFFFFFFFFFFFFFFFFFFFFFFFFFFFFFFFFFFFFFFFFFFFFFFFFFFFFFFFFFFFF
310
FFFFFFFFFFFFFFFFFFFFFFFFFFFFFFFFFFFFFFFFFFFFFFFFFFFFFFFFFFFFFFFF
310
FFFFFFFFFFFFFFFFFFFFFFFFFFFFFFFFFFFFFFFFFFFFFFFFFFFFFFFFFFFFFFFF
310
FFFFFFFFFFFFFFFFFFFFFFFFFFFFFFFFFFFFFFFFFFFFFFFFFFFFFFFFFFFFFFFF
310
FFFFFFFFFFFFFFFFFFFFFFFFFFFFFFFFFFFFFFFFFFFFFFFFFFFFFFFFFFFFFFFF
310
FFFFFFFFFFFFFFFFFFFFFFFFFFFFFFFFFFFFFFFFFFFFFFFFFFFFFFFFFFFFFFFF
310
FFFFFFFFFFFFFFFFFFFFFFFFFFFFFFFFFFFFFFFFFFFFFFFFFFFFFFFFFFFFFFFF
310
FFFFFFFFFFFFFFFFFFFFFFFFFFFFFFFFFFFFFFFFFFFFFFFFFFFFFFFFFFFFFFFF
310
FFFFFFFFFFFFFFFFFFFFFFFFFFFFFFFFFFFFFFFFFFFFFFFFFFFFFFFFFFFFFFFF
310
FFFFFFFFFFFFFFFFFFFFFFFFFFFFFFFFFFFFFFFFFFFFFFFFFFFFFFFFFFFFFFFF
310
FFFFFFFFFFFFFFFFFFFFFFFFFFFFFFFFFFFFFFFFFFFFFFFFFFFFFFFFFFFFFFFF
310
FFFFFFFFFFFFFFFFFFFFFFFFFFFFFFFFFFFFFFFFFFFFFFFFFFFFFFFFFFFFFFFF
310
FFFFFFFFFFFFFFFFFFFFFFFFFFFFFFFFFFFFFFFFFFFFFFFFFFFFFFFFFFFFFFFF
310
0100000200000000000000000000000000000000000000000000000000000000
310
0000000000000000000000000000000000000000000000000000000000000000
310
0100FEFF030A0000FFFFFFFF0A00030000000000C00000000000004607000000
310
5042727573680007000000504272757368000700000050427275736800F439B2
310
7100000000000000000000000000000000000000000000000000000000000000
310
0000000000000000000000000000000000000000000000000000000000000000
310
0000000000000000000000000000000000000000000000000000000000000000
310
0000000000000000000000000000000000000000000000000000000000000000
310
0000000000000000000000000000000000000000000000000000000000000000
310
0000000000000000000000000000000000000000000000000000000000000000
310
0000000000000000000000000000000000000000000000000000000000000000
310
0000000000000000000000000000000000000000000000000000000000000000
310
0000000000000000000000000000000000000000000000000000000000000000
310
0000000000000000000000000000000000000000000000000000000000000000
310
0000000000000000000000000000000000000000000000000000000000000000
310
0000000000000000000000000000000000000000000000000000000000000000
310
E0110000424DDE11000000000000360400002800000096000000170000000100
310
08000000000000000000E7240000E72400000001000000010000000000FF0101
310
01FF020202FF030303FF040404FF050505FF060606FF070707FF080808FF0909
310
09FF0A0A0AFF0B0B0BFF0C0C0CFF0D0D0DFF0E0E0EFF0F0F0FFF101010FF1111
310
11FF121212FF131313FF141414FF151515FF161616FF171717FF181818FF1919
310
19FF1A1A1AFF1B1B1BFF1C1C1CFF1D1D1DFF1E1E1EFF1F1F1FFF202020FF2121
310
21FF222222FF232323FF242424FF252525FF262626FF272727FF282828FF2929
310
29FF2A2A2AFF2B2B2BFF2C2C2CFF2D2D2DFF2E2E2EFF2F2F2FFF303030FF3131
310
31FF323232FF333333FF343434FF353535FF363636FF373737FF383838FF3939
310
39FF3A3A3AFF3B3B3BFF3C3C3CFF3D3D3DFF3E3E3EFF3F3F3FFF404040FF4141
310
41FF424242FF434343FF444444FF454545FF464646FF474747FF484848FF4949
310
49FF4A4A4AFF4B4B4BFF4C4C4CFF4D4D4DFF4E4E4EFF4F4F4FFF505050FF5151
310
51FF525252FF535353FF545454FF555555FF565656FF575757FF585858FF5959
310
59FF5A5A5AFF5B5B5BFF5C5C5CFF5D5D5DFF5E5E5EFF5F5F5FFF606060FF6161
310
61FF626262FF636363FF646464FF656565FF666666FF676767FF686868FF6969
310
69FF6A6A6AFF6B6B6BFF6C6C6CFF6D6D6DFF6E6E6EFF6F6F6FFF707070FF7171
310
71FF727272FF737373FF747474FF757575FF767676FF777777FF787878FF7979
310
79FF7A7A7AFF7B7B7BFF7C7C7CFF7D7D7DFF7E7E7EFF7F7F7FFF808080FF8181
310
81FF828282FF838383FF848484FF858585FF868686FF878787FF888888FF8989
310
89FF8A8A8AFF8B8B8BFF8C8C8CFF8D8D8DFF8E8E8EFF8F8F8FFF909090FF9191
310
91FF929292FF939393FF949494FF959595FF969696FF979797FF989898FF9999
310
99FF9A9A9AFF9B9B9BFF9C9C9CFF9D9D9DFF9E9E9EFF9F9F9FFFA0A0A0FFA1A1
310
A1FFA2A2A2FFA3A3A3FFA4A4A4FFA5A5A5FFA6A6A6FFA7A7A7FFA8A8A8FFA9A9
310
A9FFAAAAAAFFABABABFFACACACFFADADADFFAEAEAEFFAFAFAFFFB0B0B0FFB1B1
310
B1FFB2B2B2FFB3B3B3FFB4B4B4FFB5B5B5FFB6B6B6FFB7B7B7FFB8B8B8FFB9B9
310
B9FFBABABAFFBBBBBBFFBCBCBCFFBDBDBDFFBEBEBEFFBFBFBFFFC0C0C0FFC1C1
310
C1FFC2C2C2FFC3C3C3FFC4C4C4FFC5C5C5FFC6C6C6FFC7C7C7FFC8C8C8FFC9C9
310
C9FFCACACAFFCBCBCBFFCCCCCCFFCDCDCDFFCECECEFFCFCFCFFFD0D0D0FFD1D1
310
D1FFD2D2D2FFD3D3D3FFD4D4D4FFD5D5D5FFD6D6D6FFD7D7D7FFD8D8D8FFD9D9
310
D9FFDADADAFFDBDBDBFFDCDCDCFFDDDDDDFFDEDEDEFFDFDFDFFFE0E0E0FFE1E1
310
E1FFE2E2E2FFE3E3E3FFE4E4E4FFE5E5E5FFE6E6E6FFE7E7E7FFE8E8E8FFE9E9
310
E9FFEAEAEAFFEBEBEBFFECECECFFEDEDEDFFEEEEEEFFEFEFEFFFF0F0F0FFF1F1
310
F1FFF2F2F2FFF3F3F3FFF4F4F4FFF5F5F5FFF6F6F6FFF7F7F7FFF8F8F8FFF9F9
310
F9FFFAFAFAFFFBFBFBFFFCFCFCFFFDFDFDFFFEFEFEFFFFFFFFFFFFFFFFFFFFFF
310
C94E4E4E4F4E4EFFFFFFFFFFC94E4E4E4E4E72FFFFFFFFFFFFFF734E4D4E4E4E
310
C9FFFFFFFFFFAA683516171616265B9BE9FFFFFFFFFF4E4E4E4D4E4EFFFFFFFF
310
FFFFFFFF4E4E4F4E4D4E4E4E4F4E4E4F4D4E4E4E4E4E4D4E4F4E4D4E4E4EAAFF
310
FFFFFFFFFFEA4E4F4F4E4E4E4E4E4D4D4F4F4E4E4E4E4E5B7FAAFFFFFFFFFFFF
310
C9744E1716171616164D8DEAFFFFFFFF0000FFFFFFFFFFFFBA161617161716FF
310
FFFFFFFFB917171616174FFFFFFFFFFFFFFF4E1716161616B9FFFFFFB9341717
310
1716171617171616268CFFFFFFFF161617161617FFFFFFFFFFFFFFB917161717
310
1617167F807F7F7F7F7F7F807F7F807F7F807F7F7F414EFFFFFFFFFFFF8C167F
310
7F807F7F7F7E7F7F807F807F7F807F4E3417258EFFFFEA4E162674AABAEAEBBA
310
AA74341680FFFFFF0000FFFFFFFFFFFFB9171717171617FFFFFFFFFFBB161616
310
16164EFFFFFFFFFFFFFF4E1717171717B9FFFF9C171617171716161616171616
310
171766FFFFFF161717161617FFFFFFFFFFFFFF8E16171717161616FFFFFFFFFF
310
FFFFFFFFFFFFFFFFFFFFFFFFFFAA16D9FFFFFFFFFF3467FFFFFFFFEAFFFFFFFF
310
FFFFFFFFFFFFFFFFFFCA671667EB26278DFFFFFFFFFFFFFFFFFFFF8C2541EAFF
310
0000FFFFFFFFFFFFB9171717171716FFFFFFFFFFBA16171617174EFFFFFFFFFF
310
FFFF4E1717161616BAFF9B1617161616171716171617161616161667FFFF1616
310
16161716FFFFFFFFFFFFFF7F16161617174017FFFFFFFFFFFFFFFFFFFFFFFFFF
310
FFFFFFFFFFFF344E7F7F7F7E7417DAFFFFFFFF80FFFFFFFFFFFFFFFFFFFFFFFF
310
FFFFFF9B163425CAFFFFFFFFFFFFFFFFFFFFFFFFCA2667FF0000FFFFFFFFFFFF
310
BA171717171617FFFFFFFFFFB916171716164EFFFFFFFFFFFFFF4F1716161717
310
B9C91716171616161716161617171616161617168DFF161716161717FFFFFFFF
310
FFFFFF7F17171716164F16FFFFFFFFFFFFFFFFFFFFFFFFFFFFFFFFFFFFFF9B16
310
17161617174EFFFFFFFFFF34FFFFFFFFD9BABABABABADAFFFFFFFFFF7F16AAFF
310
FFFFFFFFFFFFFFFFFFFFFFFFFF9C16BA0000FFFFFFFFFFFFB9161717161717FF
310
FFFFFFFFB917161716174DFFFFFFFFFFFFFF4E1616161616BA4E161617171716
310
419BEAEAAA4E16161617161726E9171717161616FFFFFFFFFFFFFF4F16161717
310
164E16FFFFFFFFFFBAB9B9B9B9B9BABABACAFFFFFFFFFFFFFFFFFFFFFFFFFFFF
310
FFFFBA16FFFFFFFF7F1617161617174DEAFFFFFFEA41FFFFFFFFFFAA4D16174E
310
9BFFFFFFFFFF34730000FFFFFFFFFFFFB9161617171617FFFFFFFFFFBA161616
310
16164EFFFFFFFFFFFFFF4F16161717169B1617161716175BFFFFFFFFFFFF7417
310
16171616168D171717161617FFFFFFFFFFFFEA2616171717167416FFFFFFFFFF
310
16171616171717171717EAFFFFFFFFFFFFFFFFFFFFFFFFFFFFFF6716FFFFFFFF
310
7F4EFFFFFFFFBA2573FFFFFFFFBAFFFFFFFFAA167FB9BB9B269BFFFFFFFF664F
310
0000FFFFFFFFFFFFB9171616161616FFFFFFFFFFBA16161717164EFFFFFFFFFF
310
FFFF4E16161616174E161617171626EAFFFFFFFFFFFFFF4E16161616164E1716
310
16161617FFFFFFFFFFFF671616161716347F16FFFFFFFFFF16B9FFFFFFFFFFFF
310
D9168DFFFFFFFFFFFFFFFFFFFFFFFFFFFFEA1716FFFFFFFF7F4EFFFFFFFFFF7F
310
4EFFFFFFFFFFFFFFFFFF5B66FFFFFFEA347FFFFFFFFF7F4D0000FFFFFFFFFFFF
310
B9171616171617FFFFFFFFFFBA17161716174EFFFFFFFFFFFFFF4D1716161617
310
17161716161673FFFFFFFFFFFFFFFF9B1617161717161616171616174F4E4E4E
310
4E341616171616167E7F16FFFFFFFFFF16BAFFFFFFFFFFFFFF5B41FFFFFFFF34
310
1616171616BAFFFFFF9B1716FFFFFFFF7F4EFFFFFFFFFF4E4EFFFFFFFF734E4E
310
4E4E267EDA9B67164EEAFFFFFFFF744D0000FFFFFFFFFFFFBA171717161617FF
310
FFFFFFFFBA1616171616347F7F7F7F80807F331616161717161717161716B9FF
310
FFFFFFFFFFFFFFE9161616161616171716161716171616161616171616171734
310
EA7F16FFFFFFFFFF16BAFFFFFFFFFFFFFFAA17C9FFFFFF7326BABA5B25FFFFFF
310
FF401716FFFFFFFF7F264F4E4E4E4217AAFFFFFFEA16677F73261616164173CA
310
FFFFFFFFFFFF417F0000FFFFFFFFFFFFBA171616171617FFFFFFFFFFBA161616
310
17171616161616161616161717161616161616161617EAFFFFFFFFFFFFFFFFFF
310
261717161716161617161616161617161617161616174EEAFF8016FFFFFFFFFF
310
17BAFFFFFFFFFFFFFFFF3467FFFFFFC916C9FF3467FFFFFFDA166716FFFFFFFF
310
9C4D4E4E4E4E67AAFFFFFFFF6834FF7F262567AAEAFFFFFFFFFFFFFFFF9B17D9
310
0000FFFFFFFFFFFFB9161616161616FFFFFFFFFFBA1617161717171616161616
310
1716171716161716161617171716FFFFFFFFFFFFFFFFFFFF4E17161716171616
310
1617171616161716171717161616169BFF7F17FFFFFFFFFF17B9FFFFFFFFFFFF
310
FFFF7326FFFFFFFF3473DA16AAFFFFFF7317AA16FFFFFFFFFFFFFFFFFFFFFFFF
310
FFFFEA6725BA4E167FEAFFFFFFFFFFFFFFFFFFFF9C167FFF0000FFFFFFFFFFFF
310
B9161717171716FFFFFFFFFFBA16161716171616171717161617161716161616
310
171617171617EAFFFFFFFFFFFFFFFFFF26161717161616161616161617171616
310
1616161616171616AA8016FFFFFFFFFF16BAFFFFFFFFFFFFFFFFDA179BFFFFFF
310
74348D26FFFFFFFF2566B917FFFFFFFFD8BAB9BAB9BADAFFFFEA41169B7425C9
310
FFFFFFFFFFFFFFFFFFFFAB4F1680FFFF0000FFFFFFFFFFFFBA161717171617FF
310
FFFFFFFFBA17161717161617171617161616161617171616171716171617BBFF
310
FFFFFFFFFFFFFFE9171616161617161617161716FFFFFFFFFFD9671616161617
310
348017FFFFFFFFFF16BAFFFFFFFFFFFFFFFFFF4E5AFFFFFFC916265AFFFFFFAA
310
16AABA16FFFFFFFF7F1617161616179BFFFFEB4127168DFFFFFFFFFFFFFFD99B
310
6734175AC9FFFFFF0000FFFFFFFFFFFFB9161617171617FFFFFFFFFFBB161616
310
1616347F807F7F7F7F8033171716171617171616161672FFFFFFFFFFFFFFFF9C
310
171617171617161716161617FFFFFFFFFFFFFF4117161616174E17FFFFFFFFFF
310
16BAFFFFFFFFFFFFFFFFFF9B16DAFFFFFF34169BFFFFFF5A26FFB917FFFFFFFF
310
7F4EFFFFFFEA5B26FFFFFFEA2616EAFFFFFFFFDA743416331617414E4E4E4ECA
310
0000FFFFFFFFFFFFBA161716161616FFFFFFFFFFBA17171616164EFFFFFFFFFF
310
FFFF4E16161717174E161717171626EBFFFFFFFFFFFFFF4E16161617165B1616
310
16171617FFFFFFFFFFFFFF6716161616161617FFFFFFFFFF16BAFFFFFFFFFFFF
310
FFFFFFEA268CFFFFFF7316EAFFFFEB1774FFB916FFFFFFFF7F4EFFFFFFFF7316
310
FFFFFFFF6826FFFFFFFFEB264D9CEABA257F807F7F6616BA0000FFFFFFFFFFFF
310
BA161716161616FFFFFFFFFFBA16171616164DFFFFFFFFFFFFFF4E1617161617
310
9B1617171717165BEBFFFFFFFFFF671616161617179B171616161616FFFFFFFF
310
FFFFFF3417161617171617FFFFFFFFFF17BAFFFFFFFFFFFFFFFFFFFF6734FFFF
310
FFEBCAFFFFFF8D17C9FFBA17FFFFFFFF7F357F808066174FFFFFFFFF7F16FFFF
310
FFFFD91673B99B415BFFFFFFFFBA16DA00009B7F7F7F807F671617161616167F
310
80807F7E6617161616164EFFFFFFFFFFFFFF4E1616161617B94E171716161616
310
349BC9D9AA4E16171616161634FF161617161717B9B9BAB9BA9B411716171716
310
163416FFFFFFFFFF16B9FFFFFFFFFFFFFFFFFFFFC917CAFFFFFFFFFFFFFF3342
310
FFFFBA17FFFFFFFF9B4E4E4F4E4E66EAFFFFFFFF5B16C9FFFFFFFFAA4E164E73
310
EAFFFFFFFF8D26FF00004E161716161616171617171616171717171617161616
310
17174EFFFFFFFFFFFFFF4E1717171616B9D92616171716171716171717171716
310
16171716AAFF161717171617161617171616161617161716166717FFFFFFFFFF
310
17B9FFFFFFFFFFFFFFFFFFFFFF3467FFFFFFFFFFFFCA168CFFFFBB17FFFFFFFF
310
FFFFFFFFFFFFFFFFFFFFFFEA26265BFFFFFFFFFFFFFFFFFFFFFFFFFFEA3467FF
310
00004D16161616161617161717161617161616171617171616164EFFFFFFFFFF
310
FFFF4D1617161616BAFF9B1616161616161716161616171717161766FFFF1616
310
16171617161617161716171616171717667F16FFFFFFFFFF17BAFFFFFFFFFFFF
310
FFFFFFFFFF8C26EAFFFFFFFFFF6617EAFFFFBA17FFFFFFFFFFFFFFFFFFFFFFFF
310
FFFFEA5A25BA269BFFFFFFFFFFFFFFFFFFFFFFFF6616DAFF00004E1616171616
310
1616161616161716161617171616171616174EFFFFFFFFFFFFFF4D1717171716
310
B9FFFF9C161616161616161716161717171667FFFFFF17161717171716161617
310
1716161616161641E97E16FFFFFFFFFF16B9FFFFFFFFFFFFFFFFFFFFFFEA169B
310
FFFFFFFFEA265BFFFFFFB916FFFFFFFFFFFFFFFFFFFFFFFFFF9B3416AAFF9B17
310
67EAFFFFFFFFFFFFFFFFEA5B169BFFFF00004D17161716161616161717171616
310
161717161716171716174EFFFFFFFFFFFFFF4D1616161616BAFFFFFFBB411616
310
161716161616171634ABFFFFFFFF161716161617171716171617171617267FFF
310
FF7F164E4E4E4E4F17BAFFFFFFFFFFFFFFFFFFFFFFFF66344D4E4E4F4117AAFF
310
FFFFBA174E4E4E4D4E4D4D4E4E4E4E4116174EBBFFFFFFCA342666ABEAFFFFEA
310
AA6725269CFFFFFF0000724F4E4D4D4D4E4D4D4E4E4E4D4E4E4E4E4E4E4E4E4D
310
4E4E74FFFFFFFFFFFFFF734E4E4E4D4ECAFFFFFFFFFFAA663416171717265B9B
310
FFFFFFFFFFFF7F8080807F80807F7F7F7F7F807FBAFFFFFFFF9B4E4E4F4D4D4E
310
4DC9FFFFFFFFFFFFFFFFFFFFFFFFBA4E4E4E4E4D4E4EFFFFFFFFC94E4E4E4F4E
310
4E4E4D4E4E5A807F9CD9FFFFFFFFFFFFFF9B5B2617171716174E8DEAFFFFFFFF
310
0000000000000000000000000000000000000000000000000000000000000000
  1
OLE
  0
ENDSEC
  0
SECTION
  2
OBJECTS
  0
DICTIONARY
  5
C
330
0
100
AcDbDictionary
281
     1
  3
ACAD_GROUP
350
D
  3
ACAD_LAYOUT
350
1A
  3
ACAD_MLINESTYLE
350
17
  3
ACAD_PLOTSETTINGS
350
19
  3
ACAD_PLOTSTYLENAME
350
E
  3
ACAD_SCALELIST
350
47
  0
DICTIONARY
  5
D
102
{ACAD_REACTORS
330
C
102
}
330
C
100
AcDbDictionary
281
     1
  0
DICTIONARY
  5
1A
102
{ACAD_REACTORS
330
C
102
}
330
C
100
AcDbDictionary
281
     1
  3
Layout1
350
1E
  3
Layout2
350
26
  3
Model
350
22
  0
DICTIONARY
  5
17
102
{ACAD_REACTORS
330
C
102
}
330
C
100
AcDbDictionary
281
     1
  3
Standard
350
18
  0
DICTIONARY
  5
19
102
{ACAD_REACTORS
330
C
102
}
330
C
100
AcDbDictionary
281
     1
  0
ACDBDICTIONARYWDFLT
  5
E
102
{ACAD_REACTORS
330
C
102
}
330
C
100
AcDbDictionary
281
     1
  3
Normal
350
F
100
AcDbDictionaryWithDefault
340
F
  0
DICTIONARY
  5
47
102
{ACAD_REACTORS
330
C
102
}
330
C
100
AcDbDictionary
281
     1
  3
A0
350
48
  3
A1
350
49
  3
A2
350
4A
  3
A3
350
4B
  3
A4
350
4C
  3
A5
350
4D
  3
A6
350
4E
  3
A7
350
4F
  3
A8
350
50
  3
A9
350
51
  3
B0
350
52
  3
B1
350
53
  3
B2
350
54
  3
B3
350
55
  3
B4
350
56
  3
B5
350
57
  3
B6
350
58
  3
B7
350
59
  3
B8
350
5A
  3
B9
350
5B
  3
C0
350
5C
  3
C1
350
5D
  3
C2
350
5E
  3
C3
350
5F
  3
C4
350
60
  3
C5
350
61
  3
C6
350
62
  3
C7
350
63
  3
C8
350
64
  3
C9
350
65
  3
D0
350
66
  3
D1
350
67
  3
D2
350
68
  0
LAYOUT
  5
1E
102
{ACAD_REACTORS
330
1A
102
}
330
1A
100
AcDbPlotSettings
  1

  2
none_device
  4

  6

 40
0.0
 41
0.0
 42
0.0
 43
0.0
 44
0.0
 45
0.0
 46
0.0
 47
0.0
 48
0.0
 49
0.0
140
0.0
141
0.0
142
1.0
143
1.0
 70
   688
 72
     1
 73
     0
 74
     5
  7

 75
    16
147
1.0
148
0.0
149
0.0
100
AcDbLayout
  1
Layout1
 70
     1
 71
     1
 10
0.0
 20
0.0
 11
420.0
 21
297.0
 12
0.0
 22
0.0
 32
0.0
 14
1.0000000000E+20
 24
1.0000000000E+20
 34
1.0000000000E+20
 15
-1.0000000000E+20
 25
-1.0000000000E+20
 35
-1.0000000000E+20
146
0.0
 13
0.0
 23
0.0
 33
0.0
 16
1.0
 26
0.0
 36
0.0
 17
0.0
 27
1.0
 37
0.0
 76
     0
330
1B
  0
LAYOUT
  5
26
102
{ACAD_REACTORS
330
1A
102
}
330
1A
100
AcDbPlotSettings
  1

  2
none_device
  4

  6

 40
0.0
 41
0.0
 42
0.0
 43
0.0
 44
0.0
 45
0.0
 46
0.0
 47
0.0
 48
0.0
 49
0.0
140
0.0
141
0.0
142
1.0
143
1.0
 70
   688
 72
     1
 73
     0
 74
     5
  7

 75
    16
147
1.0
148
0.0
149
0.0
100
AcDbLayout
  1
Layout2
 70
     1
 71
     2
 10
0.0
 20
0.0
 11
0.0
 21
0.0
 12
0.0
 22
0.0
 32
0.0
 14
0.0
 24
0.0
 34
0.0
 15
0.0
 25
0.0
 35
0.0
146
0.0
 13
0.0
 23
0.0
 33
0.0
 16
1.0
 26
0.0
 36
0.0
 17
0.0
 27
1.0
 37
0.0
 76
     0
330
23
  0
LAYOUT
  5
22
102
{ACAD_REACTORS
330
1A
102
}
330
1A
100
AcDbPlotSettings
  1

  2
none_device
  4
Letter_(8.50_x_11.00_Inches)
  6

 40
6.35
 41
6.35
 42
6.35000508
 43
6.35000508
 44
215.9
 45
279.4
 46
0.0
 47
0.0
 48
0.0
 49
0.0
140
0.0
141
0.0
142
1.0
143
1.0
 70
  1712
 72
     1
 73
     0
 74
     0
  7

 75
     0
147
1.0
148
0.0
149
0.0
100
AcDbLayout
  1
Model
 70
     1
 71
     0
 10
0.0
 20
0.0
 11
279.4
 21
215.9
 12
0.0
 22
0.0
 32
0.0
 14
0.0
 24
0.0
 34
0.0
 15
279.4
 25
215.9
 35
0.0
146
0.0
 13
0.0
 23
0.0
 33
0.0
 16
1.0
 26
0.0
 36
0.0
 17
0.0
 27
1.0
 37
0.0
 76
     0
330
1F
331
29
  0
MLINESTYLE
  5
18
102
{ACAD_REACTORS
330
17
102
}
330
17
100
AcDbMlineStyle
  2
Standard
 70
     0
  3

 62
   256
 51
90.0
 52
90.0
 71
     2
 49
0.5
 62
   256
  6
BYLAYER
 49
-0.5
 62
   256
  6
BYLAYER
  0
ACDBPLACEHOLDER
  5
F
102
{ACAD_REACTORS
330
E
102
}
330
E
  0
SCALE
  5
48
102
{ACAD_REACTORS
330
47
102
}
330
47
100
AcDbScale
 70
     0
300
1:1
140
1.0
141
1.0
290
     1
  0
SCALE
  5
49
102
{ACAD_REACTORS
330
47
102
}
330
47
100
AcDbScale
 70
     0
300
1:2
140
1.0
141
2.0
290
     0
  0
SCALE
  5
4A
102
{ACAD_REACTORS
330
47
102
}
330
47
100
AcDbScale
 70
     0
300
1:4
140
1.0
141
4.0
290
     0
  0
SCALE
  5
4B
102
{ACAD_REACTORS
330
47
102
}
330
47
100
AcDbScale
 70
     0
300
1:5
140
1.0
141
5.0
290
     0
  0
SCALE
  5
4C
102
{ACAD_REACTORS
330
47
102
}
330
47
100
AcDbScale
 70
     0
300
1:8
140
1.0
141
8.0
290
     0
  0
SCALE
  5
4D
102
{ACAD_REACTORS
330
47
102
}
330
47
100
AcDbScale
 70
     0
300
1:10
140
1.0
141
10.0
290
     0
  0
SCALE
  5
4E
102
{ACAD_REACTORS
330
47
102
}
330
47
100
AcDbScale
 70
     0
300
1:16
140
1.0
141
16.0
290
     0
  0
SCALE
  5
4F
102
{ACAD_REACTORS
330
47
102
}
330
47
100
AcDbScale
 70
     0
300
1:20
140
1.0
141
20.0
290
     0
  0
SCALE
  5
50
102
{ACAD_REACTORS
330
47
102
}
330
47
100
AcDbScale
 70
     0
300
1:30
140
1.0
141
30.0
290
     0
  0
SCALE
  5
51
102
{ACAD_REACTORS
330
47
102
}
330
47
100
AcDbScale
 70
     0
300
1:40
140
1.0
141
40.0
290
     0
  0
SCALE
  5
52
102
{ACAD_REACTORS
330
47
102
}
330
47
100
AcDbScale
 70
     0
300
1:50
140
1.0
141
50.0
290
     0
  0
SCALE
  5
53
102
{ACAD_REACTORS
330
47
102
}
330
47
100
AcDbScale
 70
     0
300
1:100
140
1.0
141
100.0
290
     0
  0
SCALE
  5
54
102
{ACAD_REACTORS
330
47
102
}
330
47
100
AcDbScale
 70
     0
300
2:1
140
2.0
141
1.0
290
     0
  0
SCALE
  5
55
102
{ACAD_REACTORS
330
47
102
}
330
47
100
AcDbScale
 70
     0
300
4:1
140
4.0
141
1.0
290
     0
  0
SCALE
  5
56
102
{ACAD_REACTORS
330
47
102
}
330
47
100
AcDbScale
 70
     0
300
8:1
140
8.0
141
1.0
290
     0
  0
SCALE
  5
57
102
{ACAD_REACTORS
330
47
102
}
330
47
100
AcDbScale
 70
     0
300
10:1
140
10.0
141
1.0
290
     0
  0
SCALE
  5
58
102
{ACAD_REACTORS
330
47
102
}
330
47
100
AcDbScale
 70
     0
300
100:1
140
100.0
141
1.0
290
     0
  0
SCALE
  5
59
102
{ACAD_REACTORS
330
47
102
}
330
47
100
AcDbScale
 70
     0
300
1/128" = 1'-0"
140
0.0078125
141
12.0
290
     0
  0
SCALE
  5
5A
102
{ACAD_REACTORS
330
47
102
}
330
47
100
AcDbScale
 70
     0
300
1/64" = 1'-0"
140
0.015625
141
12.0
290
     0
  0
SCALE
  5
5B
102
{ACAD_REACTORS
330
47
102
}
330
47
100
AcDbScale
 70
     0
300
1/32" = 1'-0"
140
0.03125
141
12.0
290
     0
  0
SCALE
  5
5C
102
{ACAD_REACTORS
330
47
102
}
330
47
100
AcDbScale
 70
     0
300
1/16" = 1'-0"
140
0.0625
141
12.0
290
     0
  0
SCALE
  5
5D
102
{ACAD_REACTORS
330
47
102
}
330
47
100
AcDbScale
 70
     0
300
3/32" = 1'-0"
140
0.09375
141
12.0
290
     0
  0
SCALE
  5
5E
102
{ACAD_REACTORS
330
47
102
}
330
47
100
AcDbScale
 70
     0
300
1/8" = 1'-0"
140
0.125
141
12.0
290
     0
  0
SCALE
  5
5F
102
{ACAD_REACTORS
330
47
102
}
330
47
100
AcDbScale
 70
     0
300
3/16" = 1'-0"
140
0.1875
141
12.0
290
     0
  0
SCALE
  5
60
102
{ACAD_REACTORS
330
47
102
}
330
47
100
AcDbScale
 70
     0
300
1/4" = 1'-0"
140
0.25
141
12.0
290
     0
  0
SCALE
  5
61
102
{ACAD_REACTORS
330
47
102
}
330
47
100
AcDbScale
 70
     0
300
3/8" = 1'-0"
140
0.375
141
12.0
290
     0
  0
SCALE
  5
62
102
{ACAD_REACTORS
330
47
102
}
330
47
100
AcDbScale
 70
     0
300
1/2" = 1'-0"
140
0.5
141
12.0
290
     0
  0
SCALE
  5
63
102
{ACAD_REACTORS
330
47
102
}
330
47
100
AcDbScale
 70
     0
300
3/4" = 1'-0"
140
0.75
141
12.0
290
     0
  0
SCALE
  5
64
102
{ACAD_REACTORS
330
47
102
}
330
47
100
AcDbScale
 70
     0
300
1" = 1'-0"
140
1.0
141
12.0
290
     0
  0
SCALE
  5
65
102
{ACAD_REACTORS
330
47
102
}
330
47
100
AcDbScale
 70
     0
300
1-1/2" = 1'-0"
140
1.5
141
12.0
290
     0
  0
SCALE
  5
66
102
{ACAD_REACTORS
330
47
102
}
330
47
100
AcDbScale
 70
     0
300
3" = 1'-0"
140
3.0
141
12.0
290
     0
  0
SCALE
  5
67
102
{ACAD_REACTORS
330
47
102
}
330
47
100
AcDbScale
 70
     0
300
6" = 1'-0"
140
6.0
141
12.0
290
     0
  0
SCALE
  5
68
102
{ACAD_REACTORS
330
47
102
}
330
47
100
AcDbScale
 70
     0
300
1'-0" = 1'-0"
140
12.0
141
12.0
290
     0
  0
ENDSEC
  0
EOF
