  0
SECTION
  2
HEADER
  9
$ACADVER
  1
AC1015
  9
$ACADMAINTVER
 70
     6
  9
$DWGCODEPAGE
  3
ANSI_1252
  9
$INSBASE
 10
0.0
 20
0.0
 30
0.0
  9
$EXTMIN
 10
0.0
 20
0.0
 30
0.0
  9
$EXTMAX
 10
279.4
 20
215.9
 30
0.0
  9
$LIMMIN
 10
0.0
 20
0.0
  9
$LIMMAX
 10
279.4
 20
215.9
  9
$ORTHOMODE
 70
     0
  9
$REGENMODE
 70
     1
  9
$FILLMODE
 70
     1
  9
$QTEXTMODE
 70
     0
  9
$MIRRTEXT
 70
     1
  9
$LTSCALE
 40
1.0
  9
$ATTMODE
 70
     1
  9
$TEXTSIZE
 40
2.8222222222
  9
$TRACEWID
 40
1.0
  9
$TEXTSTYLE
  7
Standard
  9
$CLAYER
  8
0
  9
$CELTYPE
  6
ByLayer
  9
$CECOLOR
 62
   256
  9
$CELTSCALE
 40
1.0
  9
$DISPSILH
 70
     0
  9
$DIMSCALE
 40
1.0
  9
$DIMASZ
 40
3.175
  9
$DIMEXO
 40
1.27
  9
$DIMDLI
 40
3.75
  9
$DIMRND
 40
0.0
  9
$DIMDLE
 40
0.0
  9
$DIMEXE
 40
1.778
  9
$DIMTP
 40
0.0
  9
$DIMTM
 40
0.0
  9
$DIMTXT
 40
2.8222222222
  9
$DIMCEN
 40
2.5
  9
$DIMTSZ
 40
0.0
  9
$DIMTOL
 70
     0
  9
$DIMLIM
 70
     0
  9
$DIMTIH
 70
     1
  9
$DIMTOH
 70
     1
  9
$DIMSE1
 70
     0
  9
$DIMSE2
 70
     0
  9
$DIMTAD
 70
     0
  9
$DIMZIN
 70
     1
  9
$DIMBLK
  1

  9
$DIMASO
 70
     1
  9
$DIMSHO
 70
     1
  9
$DIMPOST
  1

  9
$DIMAPOST
  1

  9
$DIMALT
 70
     0
  9
$DIMALTD
 70
     3
  9
$DIMALTF
 40
0.0393700787
  9
$DIMLFAC
 40
1.0
  9
$DIMTOFL
 70
     1
  9
$DIMTVP
 40
0.0
  9
$DIMTIX
 70
     0
  9
$DIMSOXD
 70
     0
  9
$DIMSAH
 70
     0
  9
$DIMBLK1
  1

  9
$DIMBLK2
  1

  9
$DIMSTYLE
  2
ISO-25
  9
$DIMCLRD
 70
     0
  9
$DIMCLRE
 70
     0
  9
$DIMCLRT
 70
     0
  9
$DIMTFAC
 40
1.0
  9
$DIMGAP
 40
2.54
  9
$DIMJUST
 70
     0
  9
$DIMSD1
 70
     0
  9
$DIMSD2
 70
     0
  9
$DIMTOLJ
 70
     0
  9
$DIMTZIN
 70
     1
  9
$DIMALTZ
 70
     0
  9
$DIMALTTZ
 70
     0
  9
$DIMUPT
 70
     0
  9
$DIMDEC
 70
     1
  9
$DIMTDEC
 70
     1
  9
$DIMALTU
 70
     2
  9
$DIMALTTD
 70
     3
  9
$DIMTXSTY
  7
Standard
  9
$DIMAUNIT
 70
     0
  9
$DIMADEC
 70
     0
  9
$DIMALTRND
 40
0.0
  9
$DIMAZIN
 70
     0
  9
$DIMDSEP
 70
    44
  9
$DIMATFIT
 70
     3
  9
$DIMFRAC
 70
     0
  9
$DIMLDRBLK
  1

  9
$DIMLUNIT
 70
     2
  9
$DIMLWD
 70
    -2
  9
$DIMLWE
 70
    -2
  9
$DIMTMOVE
 70
     0
  9
$LUNITS
 70
     2
  9
$LUPREC
 70
     1
  9
$SKETCHINC
 40
1.0
  9
$FILLETRAD
 40
10.0
  9
$AUNITS
 70
     0
  9
$AUPREC
 70
     0
  9
$MENU
  1
.
  9
$ELEVATION
 40
0.0
  9
$PELEVATION
 40
0.0
  9
$THICKNESS
 40
0.0
  9
$LIMCHECK
 70
     0
  9
$CHAMFERA
 40
10.0
  9
$CHAMFERB
 40
10.0
  9
$CHAMFERC
 40
20.0
  9
$CHAMFERD
 40
0.0
  9
$SKPOLY
 70
     0
  9
$TDCREATE
 40
2456839.340897836
  9
$TDUCREATE
 40
2456839.507564502
  9
$TDUPDATE
 40
2456839.340899283
  9
$TDUUPDATE
 40
2456839.507565949
  9
$TDINDWG
 40
0.0000000116
  9
$TDUSRTIMER
 40
0.0000000116
  9
$USRTIMER
 70
     1
  9
$ANGBASE
 50
0.0
  9
$ANGDIR
 70
     0
  9
$PDMODE
 70
     0
  9
$PDSIZE
 40
-1.0
  9
$PLINEWID
 40
0.0
  9
$SPLFRAME
 70
     0
  9
$SPLINETYPE
 70
     6
  9
$SPLINESEGS
 70
     8
  9
$HANDSEED
  5
1C3
  9
$SURFTAB1
 70
     6
  9
$SURFTAB2
 70
     6
  9
$SURFTYPE
 70
     6
  9
$SURFU
 70
     6
  9
$SURFV
 70
     6
  9
$UCSBASE
  2

  9
$UCSNAME
  2

  9
$UCSORG
 10
0.0
 20
0.0
 30
0.0
  9
$UCSXDIR
 10
1.0
 20
0.0
 30
0.0
  9
$UCSYDIR
 10
0.0
 20
1.0
 30
0.0
  9
$UCSORTHOREF
  2

  9
$UCSORTHOVIEW
 70
     0
  9
$UCSORGTOP
 10
0.0
 20
0.0
 30
0.0
  9
$UCSORGBOTTOM
 10
0.0
 20
0.0
 30
0.0
  9
$UCSORGLEFT
 10
0.0
 20
0.0
 30
0.0
  9
$UCSORGRIGHT
 10
0.0
 20
0.0
 30
0.0
  9
$UCSORGFRONT
 10
0.0
 20
0.0
 30
0.0
  9
$UCSORGBACK
 10
0.0
 20
0.0
 30
0.0
  9
$PUCSBASE
  2

  9
$PUCSNAME
  2

  9
$PUCSORG
 10
0.0
 20
0.0
 30
0.0
  9
$PUCSXDIR
 10
1.0
 20
0.0
 30
0.0
  9
$PUCSYDIR
 10
0.0
 20
1.0
 30
0.0
  9
$PUCSORTHOREF
  2

  9
$PUCSORTHOVIEW
 70
     0
  9
$PUCSORGTOP
 10
0.0
 20
0.0
 30
0.0
  9
$PUCSORGBOTTOM
 10
0.0
 20
0.0
 30
0.0
  9
$PUCSORGLEFT
 10
0.0
 20
0.0
 30
0.0
  9
$PUCSORGRIGHT
 10
0.0
 20
0.0
 30
0.0
  9
$PUCSORGFRONT
 10
0.0
 20
0.0
 30
0.0
  9
$PUCSORGBACK
 10
0.0
 20
0.0
 30
0.0
  9
$USERI1
 70
     0
  9
$USERI2
 70
     0
  9
$USERI3
 70
     0
  9
$USERI4
 70
     0
  9
$USERI5
 70
     0
  9
$USERR1
 40
0.0
  9
$USERR2
 40
0.0
  9
$USERR3
 40
0.0
  9
$USERR4
 40
0.0
  9
$USERR5
 40
0.0
  9
$WORLDVIEW
 70
     1
  9
$SHADEDGE
 70
     3
  9
$SHADEDIF
 70
    70
  9
$TILEMODE
 70
     1
  9
$MAXACTVP
 70
    64
  9
$PINSBASE
 10
0.0
 20
0.0
 30
0.0
  9
$PLIMCHECK
 70
     0
  9
$PEXTMIN
 10
1.0000000000E+20
 20
1.0000000000E+20
 30
1.0000000000E+20
  9
$PEXTMAX
 10
-1.0000000000E+20
 20
-1.0000000000E+20
 30
-1.0000000000E+20
  9
$PLIMMIN
 10
0.0
 20
0.0
  9
$PLIMMAX
 10
420.0
 20
297.0
  9
$UNITMODE
 70
     0
  9
$VISRETAIN
 70
     1
  9
$PLINEGEN
 70
     0
  9
$PSLTSCALE
 70
     1
  9
$TREEDEPTH
 70
  3020
  9
$CMLSTYLE
  2
Standard
  9
$CMLJUST
 70
     0
  9
$CMLSCALE
 40
20.0
  9
$PROXYGRAPHICS
 70
     1
  9
$MEASUREMENT
 70
     1
  9
$CELWEIGHT
370
    -1
  9
$ENDCAPS
280
     0
  9
$JOINSTYLE
280
     0
  9
$LWDISPLAY
290
     1
  9
$INSUNITS
 70
     4
  9
$HYPERLINKBASE
  1

  9
$STYLESHEET
  1

  9
$XEDIT
290
     1
  9
$CEPSNTYPE
380
     0
  9
$PSTYLEMODE
290
     1
  9
$FINGERPRINTGUID
  2
{2B5F653F-D2DB-47BF-9898-4037054DB050}
  9
$VERSIONGUID
  2
{FAEB1C32-E019-11D5-929B-00C0DF256EC4}
  9
$EXTNAMES
290
     1
  9
$PSVPSCALE
 40
0.0
  9
$OLESTARTUP
290
     0
  0
ENDSEC
  0
SECTION
  2
CLASSES
  0
CLASS
  1
ACDBDICTIONARYWDFLT
  2
AcDbDictionaryWithDefault
  3
ObjectDBX Classes
 90
        0
280
     0
281
     0
  0
CLASS
  1
VISUALSTYLE
  2
AcDbVisualStyle
  3
ObjectDBX Classes
 90
     4095
280
     0
281
     0
  0
CLASS
  1
MATERIAL
  2
AcDbMaterial
  3
ObjectDBX Classes
 90
     1153
280
     0
281
     0
  0
CLASS
  1
ACDBPLACEHOLDER
  2
AcDbPlaceHolder
  3
ObjectDBX Classes
 90
        0
280
     0
281
     0
  0
CLASS
  1
LAYOUT
  2
AcDbLayout
  3
ObjectDBX Classes
 90
        0
280
     0
281
     0
  0
ENDSEC
  0
SECTION
  2
TABLES
  0
TABLE
  2
VPORT
  5
8
330
0
100
AcDbSymbolTable
 70
     1
  0
VPORT
  5
29
330
8
100
AcDbSymbolTableRecord
100
AcDbViewportTableRecord
  2
*Active
 70
     0
 10
0.0
 20
0.0
 11
1.0
 21
1.0
 12
139.7
 22
107.95
 13
0.0
 23
0.0
 14
10.0
 24
10.0
 15
10.0
 25
10.0
 16
0.0
 26
0.0
 36
1.0
 17
0.0
 27
0.0
 37
0.0
 40
215.9
 41
1.2941176471
 42
50.0
 43
0.0
 44
0.0
 50
0.0
 51
0.0
 71
     0
 72
  2000
 73
     1
 74
     3
 75
     0
 76
     0
 77
     0
 78
     0
281
     0
 65
     1
110
0.0
120
0.0
130
0.0
111
1.0
121
0.0
131
0.0
112
0.0
122
1.0
132
0.0
 79
     0
146
0.0
  0
ENDTAB
  0
TABLE
  2
LTYPE
  5
5
330
0
100
AcDbSymbolTable
 70
     6
  0
LTYPE
  5
14
330
5
100
AcDbSymbolTableRecord
100
AcDbLinetypeTableRecord
  2
ByBlock
 70
     0
  3

 72
    65
 73
     0
 40
0.0
  0
LTYPE
  5
15
330
5
100
AcDbSymbolTableRecord
100
AcDbLinetypeTableRecord
  2
ByLayer
 70
     0
  3

 72
    65
 73
     0
 40
0.0
  0
LTYPE
  5
16
330
5
100
AcDbSymbolTableRecord
100
AcDbLinetypeTableRecord
  2
Continuous
 70
     0
  3
Solid line
 72
    65
 73
     0
 40
0.0
  0
LTYPE
  5
3F
330
5
100
AcDbSymbolTableRecord
100
AcDbLinetypeTableRecord
  2
HIDDEN
 70
     0
  3
Hidden __ __ __ __ __ __ __ __ __ __ __ __ __ __
 72
    65
 73
     2
 40
1.905
 49
1.27
 74
     0
 49
-0.635
 74
     0
  0
LTYPE
  5
40
330
5
100
AcDbSymbolTableRecord
100
AcDbLinetypeTableRecord
  2
PHANTOM
 70
     0
  3
Phantom ______  __  __  ______  __  __  ______
 72
    65
 73
     6
 40
12.7
 49
6.35
 74
     0
 49
-1.27
 74
     0
 49
1.27
 74
     0
 49
-1.27
 74
     0
 49
1.27
 74
     0
 49
-1.27
 74
     0
  0
LTYPE
  5
41
330
5
100
AcDbSymbolTableRecord
100
AcDbLinetypeTableRecord
  2
CENTER
 70
     0
  3
Center ____ _ ____ _ ____ _ ____ _ ____ _ ____
 72
    65
 73
     4
 40
10.16
 49
6.35
 74
     0
 49
-1.27
 74
     0
 49
1.27
 74
     0
 49
-1.27
 74
     0
  0
LTYPE
  5
42
330
5
100
AcDbSymbolTableRecord
100
AcDbLinetypeTableRecord
  2
CENTERX2
 70
     0
  3
Center (2x) ________  __  ________  __  _____
 72
    65
 73
     4
 40
20.32
 49
12.7
 74
     0
 49
-2.54
 74
     0
 49
2.54
 74
     0
 49
-2.54
 74
     0
  0
LTYPE
  5
43
330
5
100
AcDbSymbolTableRecord
100
AcDbLinetypeTableRecord
  2
DOT2
 70
     0
  3
Dot (.5x) ........................................
 72
    65
 73
     2
 40
0.635
 49
0.0
 74
     0
 49
-0.635
 74
     0
  0
ENDTAB
  0
TABLE
  2
LAYER
  5
2
330
0
100
AcDbSymbolTable
 70
     2
  0
LAYER
  5
10
330
2
100
AcDbSymbolTableRecord
100
AcDbLayerTableRecord
  2
0
 70
     0
 62
     7
  6
Continuous
370
    -3
390
F
  0
LAYER
  5
44
330
2
100
AcDbSymbolTableRecord
100
AcDbLayerTableRecord
  2
FORMAT
 70
     0
 62
     7
  6
Continuous
370
    -3
390
F
  0
ENDTAB
  0
TABLE
  2
STYLE
  5
3
330
0
100
AcDbSymbolTable
 70
     4
  0
STYLE
  5
11
330
3
100
AcDbSymbolTableRecord
100
AcDbTextStyleTableRecord
  2
Standard
 70
     0
 40
0.0
 41
1.0
 50
0.0
 71
     0
 42
2.8222222222
  3
txt
  4

  0
STYLE
  5
6E
330
3
100
AcDbSymbolTableRecord
100
AcDbTextStyleTableRecord
  2
SLDTEXTSTYLE0
 70
     0
 40
0.0
 41
0.75
 50
0.0
 71
     0
 42
0.2
  3
TXT
  4

  0
STYLE
  5
70
330
3
100
AcDbSymbolTableRecord
100
AcDbTextStyleTableRecord
  2
SLDTEXTSTYLE1
 70
     0
 40
0.0
 41
0.75
 50
0.0
 71
     0
 42
0.2
  3
TXT
  4
bigfont
  0
STYLE
  5
93
330
3
100
AcDbSymbolTableRecord
100
AcDbTextStyleTableRecord
  2
SLDTEXTSTYLE2
 70
     0
 40
0.0
 41
0.6
 50
0.0
 71
     0
 42
0.2
  3
TXT
  4

  0
ENDTAB
  0
TABLE
  2
VIEW
  5
6
330
0
100
AcDbSymbolTable
 70
     0
  0
ENDTAB
  0
TABLE
  2
UCS
  5
7
330
0
100
AcDbSymbolTable
 70
     0
  0
ENDTAB
  0
TABLE
  2
APPID
  5
9
330
0
100
AcDbSymbolTable
 70
     1
  0
APPID
  5
12
330
9
100
AcDbSymbolTableRecord
100
AcDbRegAppTableRecord
  2
ACAD
 70
     0
  0
ENDTAB
  0
TABLE
  2
DIMSTYLE
  5
A
330
0
100
AcDbSymbolTable
 70
     4
100
AcDbDimStyleTable
  0
DIMSTYLE
105
27
330
A
100
AcDbSymbolTableRecord
100
AcDbDimStyleTableRecord
  2
ISO-25
 70
     0
 41
2.5
 42
0.625
 43
3.75
 44
1.25
 73
     0
 74
     0
 77
     1
 78
     8
140
2.5
141
2.5
143
0.0393700787
147
0.625
171
     3
172
     1
178
     0
271
     2
272
     2
274
     3
278
    44
283
     0
284
     8
340
11
  0
DIMSTYLE
105
126
102
{ACAD_REACTORS
330
125
102
}
330
A
100
AcDbSymbolTableRecord
100
AcDbDimStyleTableRecord
  2
SLDDIMSTYLE0
 70
     0
 41
3.175
 44
0.0
 45
0.000000001
 78
    12
 79
     3
140
2.1166666667
141
0.0
143
0.0393700787
147
0.5291666667
148
0.000000001
170
     1
173
     1
178
     0
271
     1
272
     1
276
     2
284
    12
340
6E
  0
DIMSTYLE
105
1A4
102
{ACAD_REACTORS
330
1A3
102
}
330
A
100
AcDbSymbolTableRecord
100
AcDbDimStyleTableRecord
  2
SLDDIMSTYLE1
 70
     0
 41
3.175
 44
0.0
 45
0.000000001
 78
     4
 79
     1
140
2.1166666667
143
0.0393700787
147
0.5291666667
148
0.000000001
170
     1
172
     1
173
     1
178
     0
271
     1
272
     1
276
     2
284
    12
289
     0
340
6E
  0
DIMSTYLE
105
1B9
330
A
100
AcDbSymbolTableRecord
100
AcDbDimStyleTableRecord
  2
SLDDIMSTYLE2
 70
     0
 41
3.175
 44
0.0
 45
0.000000001
140
0.0
146
3.175
147
0.0
173
     1
178
     0
271
     0
272
     0
276
     2
340
11
  0
ENDTAB
  0
TABLE
  2
BLOCK_RECORD
  5
1
330
0
100
AcDbSymbolTable
 70
    10
  0
BLOCK_RECORD
  5
1F
330
1
100
AcDbSymbolTableRecord
100
AcDbBlockTableRecord
  2
*Model_Space
340
22
  0
BLOCK_RECORD
  5
1B
330
1
100
AcDbSymbolTableRecord
100
AcDbBlockTableRecord
  2
*Paper_Space
340
1E
  0
BLOCK_RECORD
  5
23
330
1
100
AcDbSymbolTableRecord
100
AcDbBlockTableRecord
  2
*Paper_Space0
340
26
  0
BLOCK_RECORD
  5
45
330
1
100
AcDbSymbolTableRecord
100
AcDbBlockTableRecord
  2
Third Angle Projection Block
340
0
102
{BLKREFS
331
6A
102
}
  0
BLOCK_RECORD
  5
6B
330
1
100
AcDbSymbolTableRecord
100
AcDbBlockTableRecord
  2
SW_NOTE_0
340
0
102
{BLKREFS
331
87
102
}
  0
BLOCK_RECORD
  5
97
330
1
100
AcDbSymbolTableRecord
100
AcDbBlockTableRecord
  2
SW_NOTE_1
340
0
102
{BLKREFS
331
9C
102
}
  0
BLOCK_RECORD
  5
9D
330
1
100
AcDbSymbolTableRecord
100
AcDbBlockTableRecord
  2
SW_NOTE_2
340
0
102
{BLKREFS
331
A2
102
}
  0
BLOCK_RECORD
  5
A4
330
1
100
AcDbSymbolTableRecord
100
AcDbBlockTableRecord
  2
SW_NOTE_3
340
0
102
{BLKREFS
331
A9
102
}
  0
BLOCK_RECORD
  5
AB
330
1
100
AcDbSymbolTableRecord
100
AcDbBlockTableRecord
  2
SW_NOTE_4
340
0
102
{BLKREFS
331
B1
102
}
  0
BLOCK_RECORD
  5
127
330
1
100
AcDbSymbolTableRecord
100
AcDbBlockTableRecord
  2
_D
340
0
  0
BLOCK_RECORD
  5
1A5
330
1
100
AcDbSymbolTableRecord
100
AcDbBlockTableRecord
  2
_D_1
340
0
  0
BLOCK_RECORD
  5
1BB
330
1
100
AcDbSymbolTableRecord
100
AcDbBlockTableRecord
  2
SW_NOTE_5
340
0
102
{BLKREFS
331
1C0
102
}
  0
ENDTAB
  0
ENDSEC
  0
SECTION
  2
BLOCKS
  0
BLOCK
  5
20
330
1F
100
AcDbEntity
  8
0
100
AcDbBlockBegin
  2
*Model_Space
 70
     0
 10
0.0
 20
0.0
 30
0.0
  3
*Model_Space
  1

  0
ENDBLK
  5
21
330
1F
100
AcDbEntity
  8
0
100
AcDbBlockEnd
  0
BLOCK
  5
1C
330
1B
100
AcDbEntity
 67
     1
  8
0
100
AcDbBlockBegin
  2
*Paper_Space
 70
     0
 10
0.0
 20
0.0
 30
0.0
  3
*Paper_Space
  1

  0
ENDBLK
  5
1D
330
1B
100
AcDbEntity
 67
     1
  8
0
100
AcDbBlockEnd
  0
BLOCK
  5
24
330
23
100
AcDbEntity
  8
0
100
AcDbBlockBegin
  2
*Paper_Space0
 70
     0
 10
0.0
 20
0.0
 30
0.0
  3
*Paper_Space0
  1

  0
ENDBLK
  5
25
330
23
100
AcDbEntity
  8
0
100
AcDbBlockEnd
  0
BLOCK
  5
46
330
45
100
AcDbEntity
  8
0
100
AcDbBlockBegin
  2
Third Angle Projection Block
 70
     0
 10
0.0
 20
0.0
 30
0.0
  3
Third Angle Projection Block
  1

  0
CIRCLE
  5
48
330
45
100
AcDbEntity
  8
0
  6
Continuous
 62
     7
370
    30
100
AcDbCircle
 10
101.4766388944
 20
18.9404083667
 30
0.0
 40
1.768227153674871
  0
CIRCLE
  5
49
330
45
100
AcDbEntity
  8
0
  6
Continuous
 62
     7
370
    30
100
AcDbCircle
 10
101.4766388944
 20
18.9404083667
 30
0.0
 40
3.901228248531818
  0
LINE
  5
4A
330
45
100
AcDbEntity
  8
0
  6
CENTERX2
 62
     7
370
     0
100
AcDbLine
 10
110.1367822585
 20
18.9404083667
 30
0.0
 11
119.4527334874
 21
18.9404083667
 31
0.0
  0
LINE
  5
4B
330
45
100
AcDbEntity
  8
0
  6
Continuous
 62
     7
370
    30
100
AcDbLine
 10
111.0016388944
 20
20.7086355204
 30
0.0
 11
111.0016388944
 21
17.172181213
 31
0.0
  0
LINE
  5
4C
330
45
100
AcDbEntity
  8
0
  6
Continuous
 62
     7
370
    30
100
AcDbLine
 10
111.0016388944
 20
17.172181213
 30
0.0
 11
118.6216388944
 21
15.1304083667
 31
0.0
  0
LINE
  5
4D
330
45
100
AcDbEntity
  8
0
  6
Continuous
 62
     7
370
    30
100
AcDbLine
 10
118.6216388944
 20
15.1304083667
 30
0.0
 11
118.6216388944
 21
22.7504083667
 31
0.0
  0
LINE
  5
4E
330
45
100
AcDbEntity
  8
0
  6
Continuous
 62
     7
370
    30
100
AcDbLine
 10
118.6216388944
 20
22.7504083667
 30
0.0
 11
111.0016388944
 21
20.7086355204
 31
0.0
  0
LINE
  5
4F
330
45
100
AcDbEntity
  8
0
  6
CENTERX2
 62
     7
370
     0
100
AcDbLine
 10
96.6025854619
 20
18.9404083667
 30
0.0
 11
106.3506923269
 21
18.9404083667
 31
0.0
  0
LINE
  5
50
330
45
100
AcDbEntity
  8
0
  6
CENTERX2
 62
     7
370
     0
100
AcDbLine
 10
101.4766388944
 20
23.8144617992
 30
0.0
 11
101.4766388944
 21
14.0663549342
 31
0.0
  0
POINT
  5
51
330
45
100
AcDbEntity
  8
0
  6
Continuous
 62
     7
370
     0
100
AcDbPoint
 10
101.4766388944
 20
18.9404083667
 30
0.0
  0
ENDBLK
  5
47
330
45
100
AcDbEntity
  8
0
100
AcDbBlockEnd
  0
BLOCK
  5
6C
330
6B
100
AcDbEntity
  8
0
100
AcDbBlockBegin
  2
SW_NOTE_0
 70
     0
 10
0.0
 20
0.0
 30
0.0
  3
SW_NOTE_0
  1

  0
MTEXT
  5
6F
330
6B
100
AcDbEntity
  8
0
  6
Continuous
 62
     0
370
     0
100
AcDbMText
 10
0.0
 20
3.4106583948
 30
0.0
 40
2.6458333333
 41
0.0
 71
     1
 72
     1
  1
NOTES/SPECIFICATIONS:
  7
SLDTEXTSTYLE0
 73
     1
 44
1.0
  0
MTEXT
  5
71
330
6B
100
AcDbEntity
  8
0
  6
Continuous
 62
     0
370
     0
100
AcDbMText
 10
9.9999997765
 20
-3.6448970755
 30
0.0
 40
2.6458333333
 41
0.0
 71
     1
 72
     1
  1
CLEAR APERTURE: \U+2265
  7
SLDTEXTSTYLE1
 73
     1
 44
1.0
  0
MTEXT
  5
72
330
6B
100
AcDbEntity
  8
0
  6
Continuous
 62
     0
370
     0
100
AcDbMText
 10
42.5780471414
 20
-3.6448970173
 30
0.0
 40
2.6458333333
 41
0.0
 71
     1
 72
     1
  1
%%c
  7
SLDTEXTSTYLE0
 73
     1
 44
1.0
  0
MTEXT
  5
73
330
6B
100
AcDbEntity
  8
0
  6
Continuous
 62
     0
370
     0
100
AcDbMText
 10
46.5717855841
 20
-3.6448970755
 30
0.0
 40
2.6458333333
 41
0.0
 71
     1
 72
     1
  1
45.72mm
  7
SLDTEXTSTYLE0
 73
     1
 44
1.0
  0
MTEXT
  5
74
330
6B
100
AcDbEntity
  8
0
  6
Continuous
 62
     0
370
     0
100
AcDbMText
 10
0.0
 20
-3.6448970755
 30
0.0
 40
2.6458333333
 41
0.0
 71
     1
 72
     1
  1
1.
  7
SLDTEXTSTYLE0
 73
     1
 44
1.0
  0
MTEXT
  5
75
330
6B
100
AcDbEntity
  8
0
  6
Continuous
 62
     0
370
     0
100
AcDbMText
 10
9.9999997765
 20
-7.1726748106
 30
0.0
 40
2.6458333333
 41
0.0
 71
     1
 72
     1
  1
SURFACE QUALITY: 40-20 SCRATCH-DIG
  7
SLDTEXTSTYLE0
 73
     1
 44
1.0
  0
MTEXT
  5
76
330
6B
100
AcDbEntity
  8
0
  6
Continuous
 62
     0
370
     0
100
AcDbMText
 10
0.0
 20
-7.1726748106
 30
0.0
 40
2.6458333333
 41
0.0
 71
     1
 72
     1
  1
2.
  7
SLDTEXTSTYLE0
 73
     1
 44
1.0
  0
MTEXT
  5
77
330
6B
100
AcDbEntity
  8
0
  6
Continuous
 62
     0
370
     0
100
AcDbMText
 10
9.9999997765
 20
-10.7004525458
 30
0.0
 40
2.6458333333
 41
0.0
 71
     1
 72
     1
  1
TRANSMITTED WAVEFRONT ERROR: <\M+183C9/4 AT 633nm
  7
SLDTEXTSTYLE1
 73
     1
 44
1.0
  0
MTEXT
  5
78
330
6B
100
AcDbEntity
  8
0
  6
Continuous
 62
     0
370
     0
100
AcDbMText
 10
0.0
 20
-10.7004525458
 30
0.0
 40
2.6458333333
 41
0.0
 71
     1
 72
     1
  1
3.
  7
SLDTEXTSTYLE0
 73
     1
 44
1.0
  0
MTEXT
  5
79
330
6B
100
AcDbEntity
  8
0
  6
Continuous
 62
     0
370
     0
100
AcDbMText
 10
9.9999997765
 20
-14.2282302809
 30
0.0
 40
2.6458333333
 41
0.0
 71
     1
 72
     1
  1
PARALLELISM: \U+22643 arcmin
  7
SLDTEXTSTYLE1
 73
     1
 44
1.0
  0
MTEXT
  5
7A
330
6B
100
AcDbEntity
  8
0
  6
Continuous
 62
     0
370
     0
100
AcDbMText
 10
0.0
 20
-14.2282302809
 30
0.0
 40
2.6458333333
 41
0.0
 71
     1
 72
     1
  1
4.
  7
SLDTEXTSTYLE0
 73
     1
 44
1.0
  0
MTEXT
  5
7B
330
6B
100
AcDbEntity
  8
0
  6
Continuous
 62
     0
370
     0
100
AcDbMText
 10
9.9999997765
 20
-17.7560080161
 30
0.0
 40
2.6458333333
 41
0.0
 71
     1
 72
     1
  1
FILTER COATING (S1)
  7
SLDTEXTSTYLE0
 73
     1
 44
1.0
  0
MTEXT
  5
7C
330
6B
100
AcDbEntity
  8
0
  6
Continuous
 62
     0
370
     0
100
AcDbMText
 10
0.0
 20
-17.7560080161
 30
0.0
 40
2.6458333333
 41
0.0
 71
     1
 72
     1
  1
5.
  7
SLDTEXTSTYLE0
 73
     1
 44
1.0
  0
MTEXT
  5
7D
330
6B
100
AcDbEntity
  8
0
  6
Continuous
 62
     0
370
     0
100
AcDbMText
 10
20.0
 20
-21.2837857512
 30
0.0
 40
2.6458333333
 41
0.0
 71
     1
 72
     1
  1
REFLECTION BAND (R): >95% AVERAGE, >90% ABSOLUTE 470-590nm
  7
SLDTEXTSTYLE0
 73
     1
 44
1.0
  0
MTEXT
  5
7E
330
6B
100
AcDbEntity
  8
0
  6
Continuous
 62
     0
370
     0
100
AcDbMText
 10
20.0
 20
-24.8115634863
 30
0.0
 40
2.6458333333
 41
0.0
 71
     1
 72
     1
  1
TRANSMISSION BAND (T): > 90% AVERAGE, >85% ABSOLUTE 620-800nm
  7
SLDTEXTSTYLE0
 73
     1
 44
1.0
  0
MTEXT
  5
7F
330
6B
100
AcDbEntity
  8
0
  6
Continuous
 62
     0
370
     0
100
AcDbMText
 10
20.0
 20
-28.3393412215
 30
0.0
 40
2.6458333333
 41
0.0
 71
     1
 72
     1
  1
45
  7
SLDTEXTSTYLE0
 73
     1
 44
1.0
  0
MTEXT
  5
80
330
6B
100
AcDbEntity
  8
0
  6
Continuous
 62
     0
370
     0
100
AcDbMText
 10
23.9099538699
 20
-28.3393411633
 30
0.0
 40
2.6458333333
 41
0.0
 71
     1
 72
     1
  1
%%d
  7
SLDTEXTSTYLE0
 73
     1
 44
1.0
  0
MTEXT
  5
81
330
6B
100
AcDbEntity
  8
0
  6
Continuous
 62
     0
370
     0
100
AcDbMText
 10
26.5837155245
 20
-28.3393412215
 30
0.0
 40
2.6458333333
 41
0.0
 71
     1
 72
     1
  1
AOI
  7
SLDTEXTSTYLE0
 73
     1
 44
1.0
  0
MTEXT
  5
82
330
6B
100
AcDbEntity
  8
0
  6
Continuous
 62
     0
370
     0
100
AcDbMText
 10
9.9999997765
 20
-31.8671189566
 30
0.0
 40
2.6458333333
 41
0.0
 71
     1
 72
     1
  1
AR COATING (S2)
  7
SLDTEXTSTYLE0
 73
     1
 44
1.0
  0
MTEXT
  5
83
330
6B
100
AcDbEntity
  8
0
  6
Continuous
 62
     0
370
     0
100
AcDbMText
 10
0.0
 20
-31.8671189566
 30
0.0
 40
2.6458333333
 41
0.0
 71
     1
 72
     1
  1
6.
  7
SLDTEXTSTYLE0
 73
     1
 44
1.0
  0
MTEXT
  5
84
330
6B
100
AcDbEntity
  8
0
  6
Continuous
 62
     0
370
     0
100
AcDbMText
 10
20.0
 20
-35.3948966918
 30
0.0
 40
2.6458333333
 41
0.0
 71
     1
 72
     1
  1
R: <2% ABSOLUTE 400-800nm, 45
  7
SLDTEXTSTYLE0
 73
     1
 44
1.0
  0
MTEXT
  5
85
330
6B
100
AcDbEntity
  8
0
  6
Continuous
 62
     0
370
     0
100
AcDbMText
 10
73.881905973
 20
-35.3948966336
 30
0.0
 40
2.6458333333
 41
0.0
 71
     1
 72
     1
  1
%%d
  7
SLDTEXTSTYLE0
 73
     1
 44
1.0
  0
MTEXT
  5
86
330
6B
100
AcDbEntity
  8
0
  6
Continuous
 62
     0
370
     0
100
AcDbMText
 10
76.5556671619
 20
-35.3948966918
 30
0.0
 40
2.6458333333
 41
0.0
 71
     1
 72
     1
  1
AOI
  7
SLDTEXTSTYLE0
 73
     1
 44
1.0
  0
ENDBLK
  5
6D
330
6B
100
AcDbEntity
  8
0
100
AcDbBlockEnd
  0
BLOCK
  5
98
330
97
100
AcDbEntity
  8
0
100
AcDbBlockBegin
  2
SW_NOTE_1
 70
     0
 10
0.0
 20
0.0
 30
0.0
  3
SW_NOTE_1
  1

  0
MTEXT
  5
9A
330
97
100
AcDbEntity
  8
0
  6
Continuous
 62
     0
370
     0
100
AcDbMText
 10
19.90725
 20
1.9645392354
 30
0.0
 40
1.524
 41
0.0
 71
     2
 72
     1
  1
VALUES IN PARENTHESIS ARE CALCULATED
  7
SLDTEXTSTYLE0
 73
     1
 44
1.0
  0
MTEXT
  5
9B
330
97
100
AcDbEntity
  8
0
  6
Continuous
 62
     0
370
     0
100
AcDbMText
 10
19.8778776548
 20
-0.5594606586
 30
0.0
 40
1.524
 41
0.0
 71
     2
 72
     1
  1
AND MAY CONTAIN ROUNDOFF ERRORS
  7
SLDTEXTSTYLE0
 73
     1
 44
1.0
  0
ENDBLK
  5
99
330
97
100
AcDbEntity
  8
0
100
AcDbBlockEnd
  0
BLOCK
  5
9E
330
9D
100
AcDbEntity
  8
0
100
AcDbBlockBegin
  2
SW_NOTE_2
 70
     0
 10
0.0
 20
0.0
 30
0.0
  3
SW_NOTE_2
  1

  0
MTEXT
  5
A0
330
9D
100
AcDbEntity
  8
0
  6
Continuous
 62
     0
370
     0
100
AcDbMText
 10
0.0
 20
2.7285267159
 30
0.0
 40
2.1166666667
 41
0.0
 71
     1
 72
     1
  1
DRAWING
  7
SLDTEXTSTYLE0
 73
     1
 44
1.0
  0
MTEXT
  5
A1
330
9D
100
AcDbEntity
  8
0
  6
Continuous
 62
     0
370
     0
100
AcDbMText
 10
0.0
 20
-0.0936954723
 30
0.0
 40
2.1166666667
 41
0.0
 71
     1
 72
     1
  1
PROJECTION
  7
SLDTEXTSTYLE0
 73
     1
 44
1.0
  0
ENDBLK
  5
9F
330
9D
100
AcDbEntity
  8
0
100
AcDbBlockEnd
  0
BLOCK
  5
A5
330
A4
100
AcDbEntity
  8
0
100
AcDbBlockBegin
  2
SW_NOTE_3
 70
     0
 10
0.0
 20
0.0
 30
0.0
  3
SW_NOTE_3
  1

  0
MTEXT
  5
A7
330
A4
100
AcDbEntity
  8
0
  6
Continuous
 62
     0
370
     0
100
AcDbMText
 10
25.052734375
 20
4.0927900738
 30
0.0
 40
3.175
 41
0.0
 71
     2
 72
     1
  1
FOR INFORMATION ONLY
  7
SLDTEXTSTYLE0
 73
     1
 44
1.0
  0
MTEXT
  5
A8
330
A4
100
AcDbEntity
  8
0
  6
Continuous
 62
     0
370
     0
100
AcDbMText
 10
25.3768487215
 20
-0.1405432084
 30
0.0
 40
3.175
 41
0.0
 71
     2
 72
     1
  1
NOT FOR MANUFACTURING PURPOSES
  7
SLDTEXTSTYLE0
 73
     1
 44
1.0
  0
ENDBLK
  5
A6
330
A4
100
AcDbEntity
  8
0
100
AcDbBlockEnd
  0
BLOCK
  5
AC
330
AB
100
AcDbEntity
  8
0
100
AcDbBlockBegin
  2
SW_NOTE_4
 70
     0
 10
0.0
 20
0.0
 30
0.0
  3
SW_NOTE_4
  1

  0
MTEXT
  5
AE
330
AB
100
AcDbEntity
  8
0
  6
Continuous
 62
     0
370
     0
100
AcDbMText
 10
1.9016927083
 20
3.4106583948
 30
0.0
 40
2.6458333333
 41
0.0
 71
     2
 72
     1
  1
%%c
  7
SLDTEXTSTYLE0
 73
     1
 44
1.0
  0
MTEXT
  5
AF
330
AB
100
AcDbEntity
  8
0
  6
Continuous
 62
     0
370
     0
100
AcDbMText
 10
27.3514858385
 20
3.4106583366
 30
0.0
 40
2.6458333333
 41
0.0
 71
     2
 72
     1
  1
50.8mm DICHROIC MIRROR,
  7
SLDTEXTSTYLE0
 73
     1
 44
1.0
  0
MTEXT
  5
B0
330
AB
100
AcDbEntity
  8
0
  6
Continuous
 62
     0
370
     0
100
AcDbMText
 10
25.8752139608
 20
-0.1171193985
 30
0.0
 40
2.6458333333
 41
0.0
 71
     2
 72
     1
  1
LONGPASS, 605nm
  7
SLDTEXTSTYLE0
 73
     1
 44
1.0
  0
ENDBLK
  5
AD
330
AB
100
AcDbEntity
  8
0
100
AcDbBlockEnd
  0
BLOCK
  5
128
330
127
100
AcDbEntity
  8
0
100
AcDbBlockBegin
  2
_D
 70
     0
 10
0.0
 20
0.0
 30
0.0
  3
_D
  1

  0
SOLID
  5
12A
330
127
100
AcDbEntity
  8
0
  6
Continuous
 62
     7
370
     0
100
AcDbTrace
 10
108.0817168192
 20
133.5191914732
 30
0.0
 11
110.6626507305
 21
135.4368643195
 31
0.0
 12
109.9354674942
 22
136.1464138533
 32
0.0
 13
109.9354674942
 23
136.1464138533
 33
0.0
  0
LINE
  5
12B
330
127
100
AcDbEntity
  8
0
  6
Continuous
 62
     7
370
     0
100
AcDbLine
 10
129.4456750663
 20
149.1693602565
 30
0.0
 11
129.0164621066
 21
149.1693602565
 31
0.0
  0
LINE
  5
12C
330
127
100
AcDbEntity
  8
0
  6
Continuous
 62
     7
370
     0
100
AcDbLine
 10
129.0164621066
 20
149.1693602565
 30
0.0
 11
129.0164621066
 21
145.8062119472
 31
0.0
  0
LINE
  5
12D
330
127
100
AcDbEntity
  8
0
  6
Continuous
 62
     7
370
     0
100
AcDbLine
 10
129.0164621066
 20
145.8062119472
 30
0.0
 11
129.4456750663
 21
145.8062119472
 31
0.0
  0
LINE
  5
12E
330
127
100
AcDbEntity
  8
0
  6
Continuous
 62
     7
370
     0
100
AcDbLine
 10
138.2758990555
 20
149.1693602565
 30
0.0
 11
138.7051120152
 21
149.1693602565
 31
0.0
  0
LINE
  5
12F
330
127
100
AcDbEntity
  8
0
  6
Continuous
 62
     7
370
     0
100
AcDbLine
 10
138.7051120152
 20
149.1693602565
 30
0.0
 11
138.7051120152
 21
145.8062119472
 31
0.0
  0
LINE
  5
130
330
127
100
AcDbEntity
  8
0
  6
Continuous
 62
     7
370
     0
100
AcDbLine
 10
138.7051120152
 20
145.8062119472
 30
0.0
 11
138.2758990555
 21
145.8062119472
 31
0.0
  0
LINE
  5
131
330
127
100
AcDbEntity
  8
0
  6
Continuous
 62
     7
370
     0
100
AcDbLine
 10
108.0817168192
 20
133.5191914732
 30
0.0
 11
124.8845523795
 21
150.7396105675
 31
0.0
  0
LINE
  5
132
330
127
100
AcDbEntity
  8
0
  6
Continuous
 62
     7
370
     0
100
AcDbLine
 10
124.8845523795
 20
150.7396105675
 30
0.0
 11
128.6945523795
 21
150.7396105675
 31
0.0
  0
MTEXT
  5
133
330
127
100
AcDbEntity
  8
0
  6
Continuous
 62
     7
370
     0
100
AcDbMText
 10
128.6945523795
 20
152.327100194
 30
0.1
 40
2.1166666667
 41
0.0
 71
     1
 72
     1
  1
%%c
  7
SLDTEXTSTYLE0
 73
     1
 44
1.0
  0
MTEXT
  5
134
330
127
100
AcDbEntity
  8
0
  6
Continuous
 62
     7
370
     0
100
AcDbMText
 10
131.8895431802
 20
152.3271000776
 30
0.1
 40
2.1166666667
 41
0.0
 71
     1
 72
     1
  1
50.8mm
  7
SLDTEXTSTYLE0
 73
     1
 44
1.0
  0
MTEXT
  5
135
330
127
100
AcDbEntity
  8
0
  6
Continuous
 62
     7
370
     0
100
AcDbMText
 10
129.9821912878
 20
148.5347387213
 30
0.1
 40
2.1166666667
 41
0.0
 71
     1
 72
     1
  1
2.00in
  7
SLDTEXTSTYLE0
 73
     1
 44
1.0
  0
ENDBLK
  5
129
330
127
100
AcDbEntity
  8
0
100
AcDbBlockEnd
  0
BLOCK
  5
1A6
330
1A5
100
AcDbEntity
  8
0
100
AcDbBlockBegin
  2
_D_1
 70
     0
 10
0.0
 20
0.0
 30
0.0
  3
_D_1
  1

  0
SOLID
  5
1A8
330
1A5
100
AcDbEntity
  8
0
  6
Continuous
 62
     7
370
     0
100
AcDbTrace
 10
177.3548649706
 20
79.9396105675
 30
0.0
 11
174.1798649706
 21
80.4476105675
 31
0.0
 12
174.1798649706
 22
79.4316105675
 32
0.0
 13
174.1798649706
 23
79.4316105675
 33
0.0
  0
SOLID
  5
1A9
330
1A5
100
AcDbEntity
  8
0
  6
Continuous
 62
     7
370
     0
100
AcDbTrace
 10
182.3548649706
 20
79.9396105675
 30
0.0
 11
185.5298649706
 21
79.4316105675
 31
0.0
 12
185.5298649706
 22
80.4476105675
 32
0.0
 13
185.5298649706
 23
80.4476105675
 33
0.0
  0
LINE
  5
1AA
330
1A5
100
AcDbEntity
  8
0
  6
Continuous
 62
     7
370
     0
100
AcDbLine
 10
159.863456241
 20
79.9396103347
 30
0.0
 11
159.4342432813
 21
79.9396103347
 31
0.0
  0
LINE
  5
1AB
330
1A5
100
AcDbEntity
  8
0
  6
Continuous
 62
     7
370
     0
100
AcDbLine
 10
159.4342432813
 20
79.9396103347
 30
0.0
 11
159.4342432813
 21
76.5764620254
 31
0.0
  0
LINE
  5
1AC
330
1A5
100
AcDbEntity
  8
0
  6
Continuous
 62
     7
370
     0
100
AcDbLine
 10
159.4342432813
 20
76.5764620254
 30
0.0
 11
159.863456241
 21
76.5764620254
 31
0.0
  0
LINE
  5
1AD
330
1A5
100
AcDbEntity
  8
0
  6
Continuous
 62
     7
370
     0
100
AcDbLine
 10
168.6936802303
 20
79.9396103347
 30
0.0
 11
169.12289319
 21
79.9396103347
 31
0.0
  0
LINE
  5
1AE
330
1A5
100
AcDbEntity
  8
0
  6
Continuous
 62
     7
370
     0
100
AcDbLine
 10
169.12289319
 20
79.9396103347
 30
0.0
 11
169.12289319
 21
76.5764620254
 31
0.0
  0
LINE
  5
1AF
330
1A5
100
AcDbEntity
  8
0
  6
Continuous
 62
     7
370
     0
100
AcDbLine
 10
169.12289319
 20
76.5764620254
 30
0.0
 11
168.6936802303
 21
76.5764620254
 31
0.0
  0
LINE
  5
1B0
330
1A5
100
AcDbEntity
  8
0
  6
Continuous
 62
     7
370
     0
100
AcDbLine
 10
177.3548649706
 20
88.9696105675
 30
0.0
 11
177.3548649706
 21
78.1616105675
 31
0.0
  0
LINE
  5
1B1
330
1A5
100
AcDbEntity
  8
0
  6
Continuous
 62
     7
370
     0
100
AcDbLine
 10
182.3548649706
 20
88.9696105675
 30
0.0
 11
182.3548649706
 21
78.1616105675
 31
0.0
  0
LINE
  5
1B2
330
1A5
100
AcDbEntity
  8
0
  6
Continuous
 62
     7
370
     0
100
AcDbLine
 10
177.3548649706
 20
79.9396105675
 30
0.0
 11
171.7259957052
 21
79.9396105675
 31
0.0
  0
LINE
  5
1B3
330
1A5
100
AcDbEntity
  8
0
  6
Continuous
 62
     7
370
     0
100
AcDbLine
 10
182.3548649706
 20
79.9396105675
 30
0.0
 11
188.7048649706
 21
79.9396105675
 31
0.0
  0
MTEXT
  5
1B4
330
1A5
100
AcDbEntity
  8
0
  6
Continuous
 62
     7
370
     0
100
AcDbMText
 10
158.8477499523
 20
83.0973503886
 30
0.1
 40
2.1166666667
 41
0.0
 71
     1
 72
     1
  1

  7
SLDTEXTSTYLE0
 73
     1
 44
1.0
  0
MTEXT
  5
1B5
330
1A5
100
AcDbEntity
  8
0
  6
Continuous
 62
     7
370
     0
100
AcDbMText
 10
158.8203117731
 20
83.0973501558
 30
0.1
 40
2.1166666667
 41
0.0
 71
     1
 72
     1
  1
5.0mm
  7
SLDTEXTSTYLE0
 73
     1
 44
1.0
  0
MTEXT
  5
1B6
330
1A5
100
AcDbEntity
  8
0
  6
Continuous
 62
     7
370
     0
100
AcDbMText
 10
160.3999724625
 20
79.3049887995
 30
0.1
 40
2.1166666667
 41
0.0
 71
     1
 72
     1
  1
0.20in
  7
SLDTEXTSTYLE0
 73
     1
 44
1.0
  0
MTEXT
  5
1B7
330
1A5
100
AcDbEntity
  8
0
  6
Continuous
 62
     7
370
     0
100
AcDbMText
 10
171.3243245818
 20
83.0973503886
 30
0.1
 40
2.1166666667
 41
0.0
 71
     1
 72
     1
  1

  7
SLDTEXTSTYLE0
 73
     1
 44
1.0
  0
ENDBLK
  5
1A7
330
1A5
100
AcDbEntity
  8
0
100
AcDbBlockEnd
  0
BLOCK
  5
1BC
330
1BB
100
AcDbEntity
  8
0
100
AcDbBlockBegin
  2
SW_NOTE_5
 70
     0
 10
0.0
 20
0.0
 30
0.0
  3
SW_NOTE_5
  1

  0
MTEXT
  5
1BE
330
1BB
100
AcDbEntity
  8
0
  6
Continuous
 62
     0
370
     0
100
AcDbMText
 10
0.5000191343
 20
1.0117561855
 30
0.0
 40
2.1166666667
 41
0.0
 71
     1
 72
     1
  1
S2, INDICATED BY
  7
SLDTEXTSTYLE0
 73
     1
 44
1.0
  0
MTEXT
  5
1BF
330
1BB
100
AcDbEntity
  8
0
  6
Continuous
 62
     0
370
     0
100
AcDbMText
 10
0.5000191343
 20
-1.8104660026
 30
0.0
 40
2.1166666667
 41
0.0
 71
     1
 72
     1
  1
ENGRAVED ARROW
  7
SLDTEXTSTYLE0
 73
     1
 44
1.0
  0
ENDBLK
  5
1BD
330
1BB
100
AcDbEntity
  8
0
100
AcDbBlockEnd
  0
ENDSEC
  0
SECTION
  2
ENTITIES
  0
LINE
  5
52
330
1F
100
AcDbEntity
  8
0
  6
Continuous
 62
     7
370
     0
100
AcDbLine
 10
1.5793501011
 20
214.6453799966
 30
0.0
 11
277.9892068491
 21
214.6453799966
 31
0.0
  0
LINE
  5
53
330
1F
100
AcDbEntity
  8
0
  6
Continuous
 62
     7
370
     0
100
AcDbLine
 10
1.5793501011
 20
214.6453799966
 30
0.0
 11
1.5793501011
 21
0.9031642596
 31
0.0
  0
LINE
  5
54
330
1F
100
AcDbEntity
  8
0
  6
Continuous
 62
     7
370
     0
100
AcDbLine
 10
277.9892068491
 20
0.9031642596
 30
0.0
 11
1.5793501011
 21
0.9031642596
 31
0.0
  0
LINE
  5
55
330
1F
100
AcDbEntity
  8
0
  6
Continuous
 62
     7
370
     0
100
AcDbLine
 10
277.9892068491
 20
0.9031642596
 30
0.0
 11
277.9892068491
 21
214.6453799966
 31
0.0
  0
LINE
  5
56
330
1F
100
AcDbEntity
  8
0
  6
Continuous
 62
     7
370
     0
100
AcDbLine
 10
215.7427640041
 20
12.2958890132
 30
0.0
 11
171.6327596684
 21
12.2958890132
 31
0.0
  0
LINE
  5
57
330
1F
100
AcDbEntity
  8
0
  6
Continuous
 62
     7
370
     0
100
AcDbLine
 10
171.6327596684
 20
12.2958890132
 30
0.0
 11
171.6327596684
 21
26.1661402506
 31
0.0
  0
LINE
  5
58
330
1F
100
AcDbEntity
  8
0
  6
Continuous
 62
     7
370
     0
100
AcDbLine
 10
171.6327596684
 20
0.9031642596
 30
0.0
 11
171.6327596684
 21
26.1661402506
 31
0.0
  0
LINE
  5
59
330
1F
100
AcDbEntity
  8
0
  6
Continuous
 62
     7
370
     0
100
AcDbLine
 10
215.7427640041
 20
17.1604579552
 30
0.0
 11
277.9892068491
 21
17.1604579552
 31
0.0
  0
LINE
  5
5A
330
1F
100
AcDbEntity
  8
0
  6
Continuous
 62
     7
370
     0
100
AcDbLine
 10
215.7427640041
 20
35.2394508358
 30
0.0
 11
215.7427640041
 21
0.9031642596
 31
0.0
  0
LINE
  5
5B
330
1F
100
AcDbEntity
  8
0
  6
Continuous
 62
     7
370
     0
100
AcDbLine
 10
215.7427640041
 20
26.1661402506
 30
0.0
 11
171.6327596684
 21
26.1661402506
 31
0.0
  0
LINE
  5
5C
330
1F
100
AcDbEntity
  8
0
  6
Continuous
 62
     7
370
     0
100
AcDbLine
 10
215.7427640041
 20
9.1409200612
 30
0.0
 11
277.9892068491
 21
9.1409200612
 31
0.0
  0
LINE
  5
5D
330
1F
100
AcDbEntity
  8
0
  6
Continuous
 62
     7
370
     0
100
AcDbLine
 10
215.7427640041
 20
16.9216824031
 30
0.0
 11
171.6327596684
 21
16.9216824031
 31
0.0
  0
LINE
  5
5E
330
1F
100
AcDbEntity
  8
0
  6
Continuous
 62
     7
370
     0
100
AcDbLine
 10
215.7427640041
 20
21.4874005542
 30
0.0
 11
171.6327596684
 21
21.4874005542
 31
0.0
  0
LINE
  5
5F
330
1F
100
AcDbEntity
  8
0
  6
Continuous
 62
     7
370
     0
100
AcDbLine
 10
186.1338100705
 20
26.1661402506
 30
0.0
 11
186.1338100705
 21
12.2958890132
 31
0.0
  0
LINE
  5
60
330
1F
100
AcDbEntity
  8
0
  6
Continuous
 62
     7
370
     0
100
AcDbLine
 10
198.2145906188
 20
26.1661402506
 30
0.0
 11
198.2145906188
 21
12.2958890132
 31
0.0
  0
LINE
  5
61
330
1F
100
AcDbEntity
  8
0
  6
Continuous
 62
     7
370
     0
100
AcDbLine
 10
253.7490408369
 20
9.1409200612
 30
0.0
 11
253.7490408369
 21
0.9031642596
 31
0.0
  0
LINE
  5
62
330
1F
100
AcDbEntity
  8
0
  6
Continuous
 62
     7
370
     0
100
AcDbLine
 10
171.6327596684
 20
12.2958890132
 30
0.0
 11
171.6327596684
 21
7.5627342528
 31
0.0
  0
LINE
  5
63
330
1F
100
AcDbEntity
  8
0
  6
Continuous
 62
     7
370
     0
100
AcDbLine
 10
171.6327596684
 20
7.5627342528
 30
0.0
 11
215.7427640041
 21
7.5627342528
 31
0.0
  0
LINE
  5
64
330
1F
100
AcDbEntity
  8
0
  6
Continuous
 62
     7
370
     0
100
AcDbLine
 10
171.6327596684
 20
7.5627342528
 30
0.0
 11
171.6327596684
 21
35.2394508358
 31
0.0
  0
LINE
  5
65
330
1F
100
AcDbEntity
  8
0
  6
Continuous
 62
     7
370
     0
100
AcDbLine
 10
171.6327596684
 20
35.2394508358
 30
0.0
 11
215.7427640041
 21
35.2394508358
 31
0.0
  0
LINE
  5
66
330
1F
100
AcDbEntity
  8
0
  6
Continuous
 62
     7
370
     0
100
AcDbLine
 10
270.1683598194
 20
17.1604579552
 30
0.0
 11
270.1683598194
 21
9.1409200612
 31
0.0
  0
LINE
  5
67
330
1F
100
AcDbEntity
  8
0
  6
Continuous
 62
     7
370
     0
100
AcDbLine
 10
215.7427640041
 20
35.2394508358
 30
0.0
 11
277.9892068491
 21
35.2394508358
 31
0.0
  0
LINE
  5
68
330
1F
100
AcDbEntity
  8
0
  6
Continuous
 62
     7
370
     0
100
AcDbLine
 10
277.9892068491
 20
35.2394508358
 30
0.0
 11
277.9892068491
 21
50.0331356147
 31
0.0
  0
LINE
  5
69
330
1F
100
AcDbEntity
  8
0
  6
Continuous
 62
     7
370
     0
100
AcDbLine
 10
215.7427640041
 20
24.8927335446
 30
0.0
 11
277.9892068491
 21
24.8927335446
 31
0.0
  0
INSERT
  5
6A
330
1F
100
AcDbEntity
  8
0
  6
Continuous
 62
     7
100
AcDbBlockReference
  2
Third Angle Projection Block
 10
117.7262204235
 20
15.5162339489
 30
0.0
 41
0.8
 42
0.8
 43
0.8
  0
INSERT
  5
87
330
1F
100
AcDbEntity
  8
0
  6
Continuous
 62
     7
370
     0
100
AcDbBlockReference
  2
SW_NOTE_0
 10
7.8242281509
 20
61.8182203667
 30
0.0
  0
MTEXT
  5
88
330
1F
100
AcDbEntity
  8
0
  6
Continuous
 62
     7
370
     0
100
AcDbMText
 10
273.866099399
 20
13.1125292762
 30
0.0
 40
3.175
 41
0.0
 71
     2
 72
     1
  1
F
  7
SLDTEXTSTYLE0
 73
     1
 44
1.0
  0
MTEXT
  5
89
330
1F
100
AcDbEntity
  8
0
  6
Continuous
 62
     7
370
     0
100
AcDbMText
 10
234.5576145581
 20
5.1306563898
 30
0.0
 40
3.175
 41
0.0
 71
     2
 72
     1
  1
DMLP605L
  7
SLDTEXTSTYLE0
 73
     1
 44
1.0
  0
MTEXT
  5
8A
330
1F
100
AcDbEntity
  8
0
  6
Continuous
 62
     7
370
     0
100
AcDbMText
 10
216.4199766059
 20
16.8243180345
 30
0.0
 40
2.1166666667
 41
0.0
 71
     1
 72
     1
  1
MATERIAL
  7
SLDTEXTSTYLE0
 73
     1
 44
1.0
  0
MTEXT
  5
8B
330
1F
100
AcDbEntity
  8
0
  6
Continuous
 62
     7
370
     0
100
AcDbMText
 10
174.230946566
 20
20.054553926
 30
0.0
 40
1.8520833333
 41
0.0
 71
     1
 72
     1
  1
DRAWN
  7
SLDTEXTSTYLE0
 73
     1
 44
1.0
  0
MTEXT
  5
8C
330
1F
100
AcDbEntity
  8
0
  6
Continuous
 62
     7
370
     0
100
AcDbMText
 10
172.3960124543
 20
15.5787169747
 30
0.0
 40
1.8520833333
 41
0.0
 71
     1
 72
     1
  1
APPROVAL
  7
SLDTEXTSTYLE0
 73
     1
 44
1.0
  0
MTEXT
  5
8D
330
1F
100
AcDbEntity
  8
0
  6
Continuous
 62
     7
370
     0
100
AcDbMText
 10
271.321689486
 20
16.0237653939
 30
0.0
 40
2.1166666667
 41
0.0
 71
     1
 72
     1
  1
REV
  7
SLDTEXTSTYLE0
 73
     1
 44
1.0
  0
MTEXT
  5
8E
330
1F
100
AcDbEntity
  8
0
  6
Continuous
 62
     7
370
     0
100
AcDbMText
 10
190.2958696448
 20
20.317714865
 30
0.0
 40
2.1166666667
 41
0.0
 71
     1
 72
     1
  1
TW
  7
SLDTEXTSTYLE0
 73
     1
 44
1.0
  0
MTEXT
  5
8F
330
1F
100
AcDbEntity
  8
0
  6
Continuous
 62
     7
370
     0
100
AcDbMText
 10
190.2958696448
 20
15.8418779137
 30
0.0
 40
2.1166666667
 41
0.0
 71
     1
 72
     1
  1
BW
  7
SLDTEXTSTYLE0
 73
     1
 44
1.0
  0
MTEXT
  5
90
330
1F
100
AcDbEntity
  8
0
  6
Continuous
 62
     7
370
     0
100
AcDbMText
 10
199.8662436873
 20
20.317714865
 30
0.0
 40
2.1166666667
 41
0.0
 71
     1
 72
     1
  1
17/OCT/11
  7
SLDTEXTSTYLE0
 73
     1
 44
1.0
  0
MTEXT
  5
91
330
1F
100
AcDbEntity
  8
0
  6
Continuous
 62
     7
370
     0
100
AcDbMText
 10
203.6145073853
 20
24.8221397515
 30
0.0
 40
2.1166666667
 41
0.0
 71
     1
 72
     1
  1
DATE
  7
SLDTEXTSTYLE0
 73
     1
 44
1.0
  0
MTEXT
  5
92
330
1F
100
AcDbEntity
  8
0
  6
Continuous
 62
     7
370
     0
100
AcDbMText
 10
199.8662436873
 20
15.8418779137
 30
0.0
 40
2.1166666667
 41
0.0
 71
     1
 72
     1
  1
27/JUN/14
  7
SLDTEXTSTYLE0
 73
     1
 44
1.0
  0
MTEXT
  5
94
330
1F
100
AcDbEntity
  8
0
  6
Continuous
 62
     7
370
     0
100
AcDbMText
 10
229.402906477
 20
27.7957479987
 30
0.0
 40
2.1166666667
 41
0.0
 71
     1
 72
     1
  1
w w w . t h o r  l a b s . c o m
  7
SLDTEXTSTYLE2
 73
     1
 44
1.0
  0
MTEXT
  5
95
330
1F
100
AcDbEntity
  8
0
  6
Continuous
 62
     7
370
     0
100
AcDbMText
 10
216.7004035316
 20
8.3494793617
 30
0.0
 40
2.1166666667
 41
0.0
 71
     1
 72
     1
  1
ITEM #
  7
SLDTEXTSTYLE0
 73
     1
 44
1.0
  0
MTEXT
  5
96
330
1F
100
AcDbEntity
  8
0
  6
Continuous
 62
     7
370
     0
100
AcDbMText
 10
266.1678480997
 20
5.1306563898
 30
0.0
 40
3.175
 41
0.0
 71
     2
 72
     1
  1
0.12 kg
  7
SLDTEXTSTYLE0
 73
     1
 44
1.0
  0
INSERT
  5
9C
330
1F
100
AcDbEntity
  8
0
  6
Continuous
 62
     7
370
     0
100
AcDbBlockReference
  2
SW_NOTE_1
 10
174.8430140051
 20
4.4558554801
 30
0.0
  0
INSERT
  5
A2
330
1F
100
AcDbEntity
  8
0
  6
Continuous
 62
     7
370
     0
100
AcDbBlockReference
  2
SW_NOTE_2
 10
174.5483650337
 20
30.4835324461
 30
0.0
  0
MTEXT
  5
A3
330
1F
100
AcDbEntity
  8
0
  6
Continuous
 62
     7
370
     0
100
AcDbMText
 10
187.9273588276
 20
24.8221397515
 30
0.0
 40
2.1166666667
 41
0.0
 71
     1
 72
     1
  1
NAME
  7
SLDTEXTSTYLE0
 73
     1
 44
1.0
  0
INSERT
  5
A9
330
1F
100
AcDbEntity
  8
0
  6
Continuous
 62
     7
370
     0
100
AcDbBlockReference
  2
SW_NOTE_3
 10
58.6204648882
 20
8.1776609732
 30
0.0
  0
MTEXT
  5
AA
330
1F
100
AcDbEntity
  8
0
  6
Continuous
 62
     7
370
     0
100
AcDbMText
 10
179.1174811218
 20
10.6680638482
 30
0.0
 40
1.5875
 41
0.0
 71
     1
 72
     1
  1
COPYRIGHT © 2014 BY THORLABS
  7
SLDTEXTSTYLE0
 73
     1
 44
1.0
  0
INSERT
  5
B1
330
1F
100
AcDbEntity
  8
0
  6
Continuous
 62
     7
370
     0
100
AcDbBlockReference
  2
SW_NOTE_4
 10
220.9702853407
 20
20.9611555593
 30
0.0
  0
MTEXT
  5
B2
330
1F
100
AcDbEntity
  8
0
  6
Continuous
 62
     7
370
     0
100
AcDbMText
 10
254.5318000914
 20
8.3494793617
 30
0.0
 40
2.1166666667
 41
0.0
 71
     1
 72
     1
  1
APPROX WEIGHT
  7
SLDTEXTSTYLE0
 73
     1
 44
1.0
  0
MTEXT
  5
B3
330
1F
100
AcDbEntity
  8
0
  6
Continuous
 62
     7
370
     0
100
AcDbMText
 10
242.9471370996
 20
13.2188100831
 30
0.0
 40
3.175
 41
0.0
 71
     2
 72
     1
  1
UV GRADE FUSED SILICA
  7
SLDTEXTSTYLE0
 73
     1
 44
1.0
  0
LINE
  5
B4
330
1F
100
AcDbEntity
  8
0
  6
Continuous
 62
     7
370
     0
100
AcDbLine
 10
216.2422348533
 20
187.2814203967
 30
0.0
 11
216.2422348533
 21
187.0364979632
 31
0.0
  0
LINE
  5
B5
330
1F
100
AcDbEntity
  8
0
  6
Continuous
 62
     7
370
     0
100
AcDbLine
 10
233.9877304502
 20
156.2970673026
 30
0.0
 11
234.1998280071
 21
156.1745861825
 31
0.0
  0
LINE
  5
B6
330
1F
100
AcDbEntity
  8
0
  6
Continuous
 62
     7
370
     0
100
AcDbLine
 10
246.9017149999
 20
154.9153962721
 30
0.0
 11
250.0129848372
 21
156.7114941181
 31
0.0
  0
LINE
  5
B7
330
1F
100
AcDbEntity
  8
0
  6
Continuous
 62
     7
370
     0
100
AcDbLine
 10
224.6150490282
 20
200.7067763271
 30
0.0
 11
221.503779191
 21
198.9106784811
 31
0.0
  0
LINE
  5
B8
330
1F
100
AcDbEntity
  8
0
  6
Continuous
 62
     7
370
     0
100
AcDbLine
 10
255.2745291748
 20
168.3407522024
 30
0.0
 11
255.2745291748
 21
168.585674636
 31
0.0
  0
LINE
  5
B9
330
1F
100
AcDbEntity
  8
0
  6
Continuous
 62
     7
370
     0
100
AcDbLine
 10
237.529033578
 20
199.3251052966
 30
0.0
 11
237.316936021
 21
199.4475864167
 31
0.0
  0
LWPOLYLINE
  5
BA
330
1F
100
AcDbEntity
  8
0
  6
Continuous
 62
     7
370
     0
100
AcDbPolyline
 90
      170
 70
   128
 43
0.0
 10
251.7389952689
 20
166.5446543564
 10
251.7267303401
 20
167.3135413411
 10
251.6899525051
 20
168.0955264402
 10
251.6287125941
 20
168.8895288799
 10
251.5430952462
 20
169.6944512774
 10
251.4332187922
 20
170.5091811577
 10
251.2992350913
 20
171.3325924907
 10
251.141329321
 20
172.163547248
 10
250.9597197213
 20
173.0008969753
 10
250.754657293
 20
173.84348438
 10
250.5264254508
 20
174.6901449306
 10
250.2753396316
 20
175.5397084661
 10
250.0017468586
 20
176.3910008132
 10
249.7060252617
 20
177.2428454093
 10
249.3885835546
 20
178.0940649287
 10
249.0498604704
 20
178.9434829094
 10
248.6903241548
 20
179.7899253793
 10
248.3104715193
 20
180.6322224789
 10
247.9108275545
 20
181.4692100779
 10
247.4919446042
 20
182.299731384
 10
247.0544016023
 20
183.1226385422
 10
246.5988032727
 20
183.9367942207
 10
246.1257792931
 20
184.7410731832
 10
245.6359834253
 20
185.5343638439
 10
245.1300926112
 20
186.3155698038
 10
244.6088060373
 20
187.0836113658
 10
244.0728441687
 20
187.8374270276
 10
243.5229477528
 20
188.5759749481
 10
242.9598767959
 20
189.2982343876
 10
242.3844095128
 20
190.0032071187
 10
241.7973412508
 20
190.6899188056
 10
241.1994833912
 20
191.3574203511
 10
240.5916622274
 20
192.0047892079
 10
239.9747178227
 20
192.6311306542
 10
239.3495028499
 20
193.2355790296
 10
238.7168814122
 20
193.8172989323
 10
238.0777278495
 20
194.3754863729
 10
237.4329255293
 20
194.9093698862
 10
236.7833656265
 20
195.4182115973
 10
236.1299458913
 20
195.901308241
 10
235.4735694085
 20
196.3579921345
 10
234.8151433494
 20
196.7876320994
 10
234.1555777181
 20
197.1896343348
 10
233.4957840935
 20
197.5634432373
 10
232.8366743699
 20
197.9085421696
 10
232.179159496
 20
198.2244541737
 10
231.5241482167
 20
198.5107426309
 10
230.8725458163
 20
198.7670118648
 10
230.225252868
 20
198.9929076884
 10
229.5831639889
 20
199.1881178931
 10
228.9471666035
 20
199.3523726811
 10
228.3181397174
 20
199.4854450374
 10
227.6969527023
 20
199.587151044
 10
227.0844640946
 20
199.657350134
 10
226.4815204086
 20
199.6959452862
 10
225.8889549667
 20
199.7028831583
 10
225.3075867475
 20
199.6781541618
 10
224.7382192544
 20
199.6217924743
 10
224.1816394042
 20
199.5338759927
 10
223.6386164405
 20
199.4145262255
 10
223.1099008699
 20
199.2639081248
 10
222.5962234247
 20
199.0822298584
 10
222.0982940534
 20
198.8697425219
 10
221.6168009392
 20
198.6267397921
 10
221.1524095488
 20
198.3535575204
 10
220.705761713
 20
198.0505732694
 10
220.2774747391
 20
197.7182057906
 10
219.8681405583
 20
197.3569144457
 10
219.4783249073
 20
196.9671985717
 10
219.1085665464
 20
196.5495967912
 10
218.7593765147
 20
196.1046862674
 10
218.4312374245
 20
195.6330819065
 10
218.1246027933
 20
195.1354355082
 10
217.8398964179
 20
194.6124348646
 10
217.577511788
 20
194.0648028096
 10
217.3378115428
 20
193.49329622
 10
217.1211269696
 20
192.8987049692
 10
216.9277575459
 20
192.2818508358
 10
216.7579705258
 20
191.6435863678
 10
216.6120005701
 20
190.984793704
 10
216.4900494224
 20
190.3063833551
 10
216.3922856302
 20
189.6092929452
 10
216.3188443118
 20
188.894485916
 10
216.2698269698
 20
188.1629501951
 10
216.2453013504
 20
187.4156968305
 10
216.2453013504
 20
186.6537585937
 10
216.2698269698
 20
185.8781885518
 10
216.3188443118
 20
185.0900586123
 10
216.3922856302
 20
184.2904580418
 10
216.4900494224
 20
183.4804919601
 10
216.6120005701
 20
182.6612798131
 10
216.7579705258
 20
181.8339538257
 10
216.9277575459
 20
180.9996574369
 10
217.1211269696
 20
180.1595437193
 10
217.3378115428
 20
179.3147737855
 10
217.577511788
 20
178.4665151836
 10
217.8398964179
 20
177.6159402832
 10
218.1246027933
 20
176.7642246555
 10
218.4312374245
 20
175.9125454478
 10
218.7593765147
 20
175.0620797576
 10
219.1085665464
 20
174.2140030048
 10
219.4783249073
 20
173.3694873079
 10
219.8681405583
 20
172.5296998633
 10
220.2774747391
 20
171.695801333
 10
220.705761713
 20
170.8689442397
 10
221.1524095488
 20
170.0502713742
 10
221.6168009392
 20
169.240914216
 10
222.0982940534
 20
168.4419913695
 10
222.5962234247
 20
167.654607018
 10
223.1099008699
 20
166.8798493975
 10
223.6386164405
 20
166.1187892925
 10
224.1816394042
 20
165.3724785567
 10
224.7382192544
 20
164.6419486585
 10
225.3075867475
 20
163.928209256
 10
225.8889549667
 20
163.2322468013
 10
226.4815204086
 20
162.555023177
 10
227.0844640946
 20
161.8974743671
 10
227.6969527023
 20
161.2605091631
 10
228.3181397174
 20
160.6450079083
 10
228.9471666035
 20
160.0518212808
 10
229.5831639889
 20
159.4817691177
 10
230.225252868
 20
158.9356392825
 10
230.8725458163
 20
158.4141865757
 10
231.5241482167
 20
157.9181316919
 10
232.179159496
 20
157.4481602234
 10
232.8366743699
 20
157.0049217131
 10
233.4957840935
 20
156.5890287566
 10
234.1555777181
 20
156.2010561552
 10
234.8151433494
 20
155.841540122
 10
235.4735694085
 20
155.5109775405
 10
236.1299458913
 20
155.2098252779
 10
236.7833656265
 20
154.9384995537
 10
237.4329255293
 20
154.6973753645
 10
238.0777278495
 20
154.4867859655
 10
238.7168814122
 20
154.3070224103
 10
239.3495028499
 20
154.1583331482
 10
239.9747178227
 20
154.0409236812
 10
240.5916622274
 20
153.9549562798
 10
241.1994833912
 20
153.9005497585
 10
241.7973412508
 20
153.8777793122
 10
242.3844095128
 20
153.8866764115
 10
242.9598767959
 20
153.92722876
 10
243.5229477528
 20
153.9993803107
 10
244.0728441687
 20
154.1030313435
 10
244.6088060373
 20
154.2380386035
 10
245.1300926112
 20
154.4042154985
 10
245.6359834253
 20
154.601332357
 10
246.1257792931
 20
154.8291167458
 10
246.5988032727
 20
155.0872538465
 10
247.0544016023
 20
155.3753868904
 10
247.4919446042
 20
155.6931176516
 10
247.9108275545
 20
156.0400069977
 10
248.3104715193
 20
156.4155754964
 10
248.6903241548
 20
156.8193040783
 10
249.0498604704
 20
157.2506347541
 10
249.3885835546
 20
157.7089713862
 10
249.7060252617
 20
158.193680512
 10
250.0017468586
 20
158.7040922199
 10
250.2753396316
 20
159.2395010751
 10
250.5264254508
 20
159.7991670943
 10
250.754657293
 20
160.3823167689
 10
250.9597197213
 20
160.9881441335
 10
251.141329321
 20
161.6158118802
 10
251.2992350913
 20
162.2644525157
 10
251.4332187922
 20
162.9331695605
 10
251.5430952462
 20
163.6210387873
 10
251.6287125941
 20
164.327109499
 10
251.6899525051
 20
165.0504058425
 10
251.7267303401
 20
165.7899281571
 10
251.7389952689
 20
166.5446543564
  0
LWPOLYLINE
  5
BB
330
1F
100
AcDbEntity
  8
0
  6
Continuous
 62
     7
370
     0
100
AcDbPolyline
 90
       44
 70
   128
 43
0.0
 10
252.1632593376
 20
166.5446543564
 10
252.1509933879
 20
165.7853561927
 10
252.1142122928
 20
165.041257103
 10
252.0529662906
 20
164.3133734372
 10
251.9673390362
 20
163.6026993967
 10
251.857447486
 20
162.9102056768
 10
251.7234417387
 20
162.2368381407
 10
251.56550483
 20
161.5835165275
 10
251.3838524828
 20
160.9511331957
 10
251.1787328122
 20
160.3405519051
 10
250.9504259871
 20
159.7526066362
 10
250.6992438472
 20
159.1881004516
 10
250.425529477
 20
158.6478043987
 10
250.1296567374
 20
158.132456457
 10
249.8120297551
 20
157.6427605298
 10
249.4730823702
 20
157.1793854828
 10
249.1132775442
 20
156.7429642306
 10
248.733106727
 20
156.3340928722
 10
248.3330891865
 20
155.9533298766
 10
247.9137712983
 20
155.6011953203
 10
247.4757258003
 20
155.2781701767
 10
247.0195510099
 20
154.9846956594
 10
246.5458700071
 20
154.7211726191
 10
246.055329783
 20
154.4879609968
 10
245.5486003568
 20
154.2853793313
 10
245.0263738597
 20
154.113704325
 10
244.4893635904
 20
153.9731704651
 10
243.9383030403
 20
153.8639697041
 10
243.3739448918
 20
153.7862511971
 10
242.7970599903
 20
153.7401210982
 10
242.2084362912
 20
153.7256424155
 10
241.6088777836
 20
153.7428349252
 10
240.9992033923
 20
153.7916751444
 10
240.3802458593
 20
153.8720963633
 10
239.752850606
 20
153.9839887361
 10
239.1178745789
 20
154.1271994312
 10
238.4761850789
 20
154.3015328402
 10
237.8286585766
 20
154.5067508445
 10
237.1761795154
 20
154.7425731411
 10
236.5196391032
 20
155.008677625
 10
235.8599340952
 20
155.3047008296
 10
235.1979655691
 20
155.6302384227
 10
234.5346376942
 20
155.9848457591
 10
234.1998280071
 20
156.1745861825
  0
LWPOLYLINE
  5
BC
330
1F
100
AcDbEntity
  8
0
  6
Continuous
 62
     7
370
     0
100
AcDbPolyline
 90
       86
 70
   128
 43
0.0
 10
216.2422348533
 20
187.2814203967
 10
216.254500803
 20
188.0407185604
 10
216.2912818982
 20
188.7848176501
 10
216.3525279003
 20
189.512701316
 10
216.4381551547
 20
190.2233753565
 10
216.5480467049
 20
190.9158690763
 10
216.6820524522
 20
191.5892366124
 10
216.8399893609
 20
192.2425582257
 10
217.0216417081
 20
192.8749415574
 10
217.2267613787
 20
193.485522848
 10
217.4550682038
 20
194.0734681169
 10
217.7062503437
 20
194.6379743016
 10
217.9799647139
 20
195.1782703545
 10
218.2758374535
 20
195.6936182962
 10
218.5934644358
 20
196.1833142234
 10
218.9324118207
 20
196.6466892704
 10
219.2922166468
 20
197.0831105225
 10
219.6723874639
 20
197.491981881
 10
220.0724050045
 20
197.8727448766
 10
220.4917228927
 20
198.2248794329
 10
220.9297683907
 20
198.5479045764
 10
221.385943181
 20
198.8413790938
 10
221.8596241839
 20
199.104902134
 10
222.3501644079
 20
199.3381137564
 10
222.8568938342
 20
199.5406954218
 10
223.3791203312
 20
199.7123704282
 10
223.9161306005
 20
199.852904288
 10
224.4671911507
 20
199.962105049
 10
225.0315492991
 20
200.039823556
 10
225.6084342006
 20
200.085953655
 10
226.1970578998
 20
200.1004323377
 10
226.7966164074
 20
200.0832398279
 10
227.4062907986
 20
200.0343996087
 10
228.0252483317
 20
199.9539783899
 10
228.652643585
 20
199.8420860171
 10
229.2876196121
 20
199.6988753219
 10
229.9293091121
 20
199.524541913
 10
230.5768356143
 20
199.3193239086
 10
231.2293146755
 20
199.0835016121
 10
231.8858550878
 20
198.8173971281
 10
232.5455600958
 20
198.5213739236
 10
233.2075286219
 20
198.1958363305
 10
233.8708564967
 20
197.8412289941
 10
234.5346376942
 20
197.4580362652
 10
235.1979655691
 20
197.0467815392
 10
235.8599340952
 20
196.6080265405
 10
236.5196391032
 20
196.1423705556
 10
237.1761795154
 20
195.6504496146
 10
237.8286585766
 20
195.1329356223
 10
238.4761850789
 20
194.5905354406
 10
239.1178745789
 20
194.0239899229
 10
239.752850606
 20
193.4340729023
 10
240.3802458593
 20
192.8215901343
 10
240.9992033923
 20
192.1873781969
 10
241.6088777836
 20
191.5323033472
 10
242.2084362912
 20
190.8572603387
 10
242.7970599903
 20
190.163171199
 10
243.3739448918
 20
189.4509839702
 10
243.9383030403
 20
188.7216714145
 10
244.4893635904
 20
187.9762296851
 10
245.0263738597
 20
187.2156769658
 10
245.5486003568
 20
186.4410520801
 10
246.055329783
 20
185.6534130724
 10
246.5458700071
 20
184.8538357628
 10
247.0195510099
 20
184.0434122778
 10
247.4757258003
 20
183.2232495583
 10
247.9137712983
 20
182.3944678481
 10
248.3330891865
 20
181.5581991632
 10
248.733106727
 20
180.715585746
 10
249.1132775442
 20
179.8677785051
 10
249.4730823702
 20
179.0159354433
 10
249.8120297551
 20
178.1612200756
 10
250.1296567374
 20
177.3047998406
 10
250.425529477
 20
176.4478445051
 10
250.6992438472
 20
175.5915245671
 10
250.9504259871
 20
174.7370096567
 10
251.1787328122
 20
173.8854669384
 10
251.3838524828
 20
173.0380595171
 10
251.56550483
 20
172.1959448495
 10
251.7234417387
 20
171.3602731629
 10
251.857447486
 20
170.5321858843
 10
251.9673390362
 20
169.7128140813
 10
252.0529662906
 20
168.9032769172
 10
252.1142122928
 20
168.1046801224
 10
252.1509933879
 20
167.3181144842
 10
252.1632593376
 20
166.5446543564
  0
ARC
  5
BD
330
1F
100
AcDbEntity
  8
0
  6
Continuous
 62
     7
370
     0
100
AcDbCircle
 10
216.2574473995
 20
168.4126031436
 30
0.0
 40
35.14565313743383
100
AcDbArc
 50
45.5574811247
 51
47.4434025227
  0
LINE
  5
BE
330
1F
100
AcDbEntity
  8
0
  6
Continuous
 62
     7
370
     0
100
AcDbLine
 10
241.9004650061
 20
195.3827050572
 30
0.0
 11
240.0270911962
 21
194.3012293766
 31
0.0
  0
ARC
  5
BF
330
1F
100
AcDbEntity
  8
0
  6
Continuous
 62
     7
370
     0
100
AcDbCircle
 10
218.8306553503
 20
170.2502289914
 30
0.0
 40
34.11535535142371
100
AcDbArc
 50
47.4502992141
 51
47.9312335668
  0
LINE
  5
C0
330
1F
100
AcDbEntity
  8
0
  6
Continuous
 62
     7
370
     0
100
AcDbLine
 10
239.5673752379
 20
194.3508506339
 30
0.0
 11
241.6886955815
 21
195.5754628017
 31
0.0
  0
ARC
  5
C1
330
1F
100
AcDbEntity
  8
0
  6
Continuous
 62
     7
370
     0
100
AcDbCircle
 10
216.1521002691
 20
168.4185065647
 30
0.0
 40
34.93939854650768
100
AcDbArc
 50
45.55330367
 51
47.919949605
  0
LINE
  5
C2
330
1F
100
AcDbEntity
  8
0
  6
Continuous
 62
     7
370
     0
100
AcDbLine
 10
240.866200147
 20
193.5049570122
 30
0.0
 11
240.6182536133
 21
193.3618205251
 31
0.0
  0
SPLINE
  5
C3
330
1F
100
AcDbEntity
  8
0
  6
Continuous
 62
     7
370
     0
100
AcDbSpline
210
0.0
220
0.0
230
1.0
 70
     8
 71
     3
 72
    14
 73
    10
 74
     0
 42
0.00000001
 43
0.00000001
 12
1.0
 22
0.0
 32
0.0
 13
1.0
 23
0.0
 33
0.0
 40
0.0
 40
0.0
 40
0.0
 40
0.0
 40
0.1249642785198784
 40
0.2499282715641357
 40
0.3720998994052874
 40
0.499925055776528
 40
0.6246427517331034
 40
0.7499738496850062
 40
1.0
 40
1.0
 40
1.0
 40
1.0
 10
239.7126604407704
 20
196.9572132832053
 30
0.0
 10
239.6985989647182
 20
196.9243064623845
 30
0.0
 10
239.6704760447366
 20
196.858492895917
 30
0.0
 10
239.6026220866174
 20
196.7691420508685
 30
0.0
 10
239.5238818929455
 20
196.6842141494476
 30
0.0
 10
239.4342756933679
 20
196.6049661025315
 30
0.0
 10
239.3368863683518
 20
196.5293790780708
 30
0.0
 10
239.201693739469
 20
196.4333849041016
 30
0.0
 10
239.0912902123995
 20
196.3677780396515
 30
0.0
 10
239.01775022088
 20
196.3240771871211
 30
0.0
  0
SPLINE
  5
C4
330
1F
100
AcDbEntity
  8
0
  6
Continuous
 62
     7
370
     0
100
AcDbSpline
210
0.0
220
0.0
230
1.0
 70
     8
 71
     3
 72
    13
 73
     9
 74
     0
 42
0.00000001
 43
0.00000001
 12
1.0
 22
0.0
 32
0.0
 13
1.0
 23
0.0
 33
0.0
 40
0.0
 40
0.0
 40
0.0
 40
0.0
 40
0.1251948774509663
 40
0.2503112808433225
 40
0.4999074824305171
 40
0.7496464708871706
 40
0.8747928721822839
 40
1.0
 40
1.0
 40
1.0
 40
1.0
 10
239.5511928685899
 20
197.3815986273917
 30
0.0
 10
239.5699994152043
 20
197.3665776711578
 30
0.0
 10
239.6076007202027
 20
197.3365451740545
 30
0.0
 10
239.67037905148
 20
197.2704516986766
 30
0.0
 10
239.7234925882846
 20
197.1792100074841
 30
0.0
 10
239.7379244876537
 20
197.0844172321058
 30
0.0
 10
239.7287596316422
 20
197.0108043584423
 30
0.0
 10
239.7180277054507
 20
196.9750798634321
 30
0.0
 10
239.7126604407704
 20
196.9572132832053
 30
0.0
  0
SPLINE
  5
C5
330
1F
100
AcDbEntity
  8
0
  6
Continuous
 62
     7
370
     0
100
AcDbSpline
210
0.0
220
0.0
230
1.0
 70
     8
 71
     3
 72
    16
 73
    12
 74
     0
 42
0.00000001
 43
0.00000001
 12
1.0
 22
0.0
 32
0.0
 13
1.0
 23
0.0
 33
0.0
 40
0.0
 40
0.0
 40
0.0
 40
0.0
 40
0.1251729595269894
 40
0.2503372774080774
 40
0.5002449954419736
 40
0.6352206015976527
 40
0.7500261309021405
 40
0.8134102944341974
 40
0.8749697478553877
 40
0.9374576207513602
 40
1.0
 40
1.0
 40
1.0
 40
1.0
 10
237.9012679701856
 20
197.1648995660823
 30
0.0
 10
237.9588651650267
 20
197.1973482090107
 30
0.0
 10
238.0740555783342
 20
197.2622432546897
 30
0.0
 10
238.3190159834139
 20
197.3802278145176
 30
0.0
 10
238.5899344744045
 20
197.4842640650987
 30
0.0
 10
238.8889384865927
 20
197.5422331299122
 30
0.0
 10
239.090316193224
 20
197.54723923722
 30
0.0
 10
239.2439400202821
 20
197.5244628528638
 30
0.0
 10
239.3584559080839
 20
197.4906695931239
 30
0.0
 10
239.4630824095376
 20
197.4430662397821
 30
0.0
 10
239.521814180959
 20
197.4020937854383
 30
0.0
 10
239.5511928685899
 20
197.3815986273917
 30
0.0
  0
SPLINE
  5
C6
330
1F
100
AcDbEntity
  8
0
  6
Continuous
 62
     7
370
     0
100
AcDbSpline
210
0.0
220
0.0
230
1.0
 70
     8
 71
     3
 72
    18
 73
    14
 74
     0
 42
0.00000001
 43
0.00000001
 12
1.0
 22
0.0
 32
0.0
 13
1.0
 23
0.0
 33
0.0
 40
0.0
 40
0.0
 40
0.0
 40
0.0
 40
0.0624950322413483
 40
0.1249340560767728
 40
0.1865917156229146
 40
0.249853639594221
 40
0.3120654852396299
 40
0.3748805468663523
 40
0.4997120087598385
 40
0.6247329320280185
 40
0.7498001999826471
 40
0.8748958867714979
 40
1.0
 40
1.0
 40
1.0
 40
1.0
 10
237.3722199425891
 20
196.127101280428
 30
0.0
 10
237.3454065461232
 20
196.1489944523865
 30
0.0
 10
237.2918037835109
 20
196.1927611755175
 30
0.0
 10
237.2357054178537
 20
196.2674824566872
 30
0.0
 10
237.200615465775
 20
196.3459231176122
 30
0.0
 10
237.1886551574864
 20
196.4253422236568
 30
0.0
 10
237.1950776959232
 20
196.5037345862932
 30
0.0
 10
237.223877307574
 20
196.6045923787715
 30
0.0
 10
237.3005761010384
 20
196.7208947053264
 30
0.0
 10
237.4283237941439
 20
196.8444294737493
 30
0.0
 10
237.5737266863469
 20
196.9588313515172
 30
0.0
 10
237.7328633069828
 20
197.0650193723163
 30
0.0
 10
237.8451318220935
 20
197.1316054206467
 30
0.0
 10
237.9012679701856
 20
197.1648995660823
 30
0.0
  0
SPLINE
  5
C7
330
1F
100
AcDbEntity
  8
0
  6
Continuous
 62
     7
370
     0
100
AcDbSpline
210
0.0
220
0.0
230
1.0
 70
     8
 71
     3
 72
    16
 73
    12
 74
     0
 42
0.00000001
 43
0.00000001
 12
1.0
 22
0.0
 32
0.0
 13
1.0
 23
0.0
 33
0.0
 40
0.0
 40
0.0
 40
0.0
 40
0.0
 40
0.125168179578366
 40
0.2503286224455503
 40
0.5002403576317201
 40
0.6338071334602303
 40
0.7500155071378941
 40
0.8124974968691971
 40
0.8749673844673904
 40
0.9374604080777053
 40
1.0
 40
1.0
 40
1.0
 40
1.0
 10
239.01775022088
 20
196.3240771871211
 30
0.0
 10
238.960201863319
 20
196.2917234549947
 30
0.0
 10
238.8451087052914
 20
196.227017990543
 30
0.0
 10
238.6005185338181
 20
196.1103886029008
 30
0.0
 10
238.3305174675755
 20
196.0099161911263
 30
0.0
 10
238.0329677009712
 20
195.9563460115227
 30
0.0
 10
237.8328416209129
 20
195.9545755320901
 30
0.0
 10
237.6789954497297
 20
195.980635720017
 30
0.0
 10
237.5647235471063
 20
196.0160629538459
 30
0.0
 10
237.4602002378863
 20
196.0654866877006
 30
0.0
 10
237.4015539886066
 20
196.1065579838601
 30
0.0
 10
237.3722199425891
 20
196.127101280428
 30
0.0
  0
ARC
  5
C8
330
1F
100
AcDbEntity
  8
0
  6
Continuous
 62
     7
370
     0
100
AcDbCircle
 10
223.8760698563
 20
178.2139061968
 30
0.0
 40
23.34716877543552
100
AcDbArc
 50
60.2085010619
 51
61.4664420431
  0
SPLINE
  5
C9
330
1F
100
AcDbEntity
  8
0
  6
Continuous
 62
     7
370
     0
100
AcDbSpline
210
0.0
220
0.0
230
1.0
 70
     8
 71
     3
 72
    17
 73
    13
 74
     0
 42
0.00000001
 43
0.00000001
 12
1.0
 22
0.0
 32
0.0
 13
1.0
 23
0.0
 33
0.0
 40
0.0
 40
0.0
 40
0.0
 40
0.0
 40
0.0625867507144379
 40
0.1251607877735521
 40
0.2502054915255323
 40
0.3751630122568523
 40
0.4405101568607808
 40
0.5002773891343765
 40
0.6183058012602893
 40
0.7498302131143925
 40
0.874861890725474
 40
1.0
 40
1.0
 40
1.0
 40
1.0
 10
236.7827832718559
 20
198.4639833071465
 30
0.0
 10
236.7603584288752
 20
198.4514293526555
 30
0.0
 10
236.7155132982186
 20
198.4263239938404
 30
0.0
 10
236.6189284875096
 20
198.3808368438605
 30
0.0
 10
236.4876360415701
 20
198.3322078680706
 30
0.0
 10
236.3406838938494
 20
198.2992812127972
 30
0.0
 10
236.2189188386131
 20
198.2843658790875
 30
0.0
 10
236.0980212424589
 20
198.2777783633275
 30
0.0
 10
235.9422760624709
 20
198.2914734599188
 30
0.0
 10
235.769279196962
 20
198.3371517543869
 30
0.0
 10
235.6120059371261
 20
198.4012900710607
 30
0.0
 10
235.521347293262
 20
198.450752353416
 30
0.0
 10
235.4759986865266
 20
198.475494016154
 30
0.0
  0
SPLINE
  5
CA
330
1F
100
AcDbEntity
  8
0
  6
Continuous
 62
     7
370
     0
100
AcDbSpline
210
0.0
220
0.0
230
1.0
 70
     8
 71
     3
 72
    16
 73
    12
 74
     0
 42
0.00000001
 43
0.00000001
 12
1.0
 22
0.0
 32
0.0
 13
1.0
 23
0.0
 33
0.0
 40
0.0
 40
0.0
 40
0.0
 40
0.0
 40
0.0625716166060415
 40
0.1251333442834471
 40
0.2500890908637027
 40
0.371222529760408
 40
0.5001650323831508
 40
0.7497016235417546
 40
0.8498037792774736
 40
0.9248985296235307
 40
1.0
 40
1.0
 40
1.0
 40
1.0
 10
237.0278085701316
 20
198.9937917305743
 30
0.0
 10
237.0361635760981
 20
198.98255574653
 30
0.0
 10
237.0528722675912
 20
198.9600855541962
 30
0.0
 10
237.0752650721248
 20
198.912751569383
 30
0.0
 10
237.0898806302128
 20
198.8523705050923
 30
0.0
 10
237.0813988789548
 20
198.7785721303922
 30
0.0
 10
237.0445341915616
 20
198.6828388185475
 30
0.0
 10
236.9725722568322
 20
198.5979624595188
 30
0.0
 10
236.8886479949887
 20
198.5319167391963
 30
0.0
 10
236.8351624885527
 20
198.4948971625505
 30
0.0
 10
236.8002435315324
 20
198.4742882329738
 30
0.0
 10
236.7827832718559
 20
198.4639833071465
 30
0.0
  0
SPLINE
  5
CB
330
1F
100
AcDbEntity
  8
0
  6
Continuous
 62
     7
370
     0
100
AcDbSpline
210
0.0
220
0.0
230
1.0
 70
     8
 71
     3
 72
    13
 73
     9
 74
     0
 42
0.00000001
 43
0.00000001
 12
1.0
 22
0.0
 32
0.0
 13
1.0
 23
0.0
 33
0.0
 40
0.0
 40
0.0
 40
0.0
 40
0.0
 40
0.2716161760927583
 40
0.5000373570164428
 40
0.6342271489842847
 40
0.7500701523405284
 40
0.8670131673702696
 40
1.0
 40
1.0
 40
1.0
 40
1.0
 10
236.7286453937857
 20
199.2154512669272
 30
0.0
 10
236.7595543988702
 20
199.1974544055969
 30
0.0
 10
236.8164569642211
 20
199.1643227154905
 30
0.0
 10
236.8842562810904
 20
199.1193844197036
 30
0.0
 10
236.9323220744938
 20
199.0838486502877
 30
0.0
 10
236.9677162067312
 20
199.0558149696321
 30
0.0
 10
236.9993968130051
 20
199.0263217227638
 30
0.0
 10
237.0179411765596
 20
199.0050893857809
 30
0.0
 10
237.0278085701316
 20
198.9937917305743
 30
0.0
  0
ARC
  5
CC
330
1F
100
AcDbEntity
  8
0
  6
Continuous
 62
     7
370
     0
100
AcDbCircle
 10
225.2570697715
 20
179.1487738684
 30
0.0
 40
23.11425077904135
100
AcDbArc
 50
60.2445668095
 51
62.0929923019
  0
LINE
  5
CD
330
1F
100
AcDbEntity
  8
0
  6
Continuous
 62
     7
370
     0
100
AcDbLine
 10
233.9540948651
 20
198.3504190934
 30
0.0
 11
236.0754152087
 21
199.5750312612
 31
0.0
  0
ARC
  5
CE
330
1F
100
AcDbEntity
  8
0
  6
Continuous
 62
     7
370
     0
100
AcDbCircle
 10
223.3373817766
 20
178.2983771218
 30
0.0
 40
22.68918209275861
100
AcDbArc
 50
61.4694521771
 51
62.1006619761
  0
LINE
  5
CF
330
1F
100
AcDbEntity
  8
0
  6
Continuous
 62
     7
370
     0
100
AcDbLine
 10
235.0283913175
 20
198.7252692879
 30
0.0
 11
234.1743532571
 21
198.23224361
 31
0.0
  0
SPLINE
  5
D0
330
1F
100
AcDbEntity
  8
0
  6
Continuous
 62
     7
370
     0
100
AcDbSpline
210
0.0
220
0.0
230
1.0
 70
     8
 71
     3
 72
     8
 73
     4
 74
     0
 42
0.00000001
 43
0.00000001
 12
1.0
 22
0.0
 32
0.0
 13
1.0
 23
0.0
 33
0.0
 40
0.0
 40
0.0
 40
0.0
 40
0.0
 40
1.0
 40
1.0
 40
1.0
 40
1.0
 10
231.311007397583
 20
199.5219642900104
 30
0.0
 10
231.7628559006851
 20
199.9370032115289
 30
0.0
 10
232.2151505603731
 20
200.3491013479852
 30
0.0
 10
232.6679565132464
 20
200.7582366385547
 30
0.0
  0
ARC
  5
D1
330
1F
100
AcDbEntity
  8
0
  6
Continuous
 62
     7
370
     0
100
AcDbCircle
 10
225.3468942737
 20
182.7495014398
 30
0.0
 40
17.80129645327271
100
AcDbArc
 50
69.6657262332
 51
70.4251432078
  0
SPLINE
  5
D2
330
1F
100
AcDbEntity
  8
0
  6
Continuous
 62
     7
370
     0
100
AcDbSpline
210
0.0
220
0.0
230
1.0
 70
     8
 71
     3
 72
     8
 73
     4
 74
     0
 42
0.00000001
 43
0.00000001
 12
1.0
 22
0.0
 32
0.0
 13
1.0
 23
0.0
 33
0.0
 40
0.0
 40
0.0
 40
0.0
 40
0.0
 40
1.0
 40
1.0
 40
1.0
 40
1.0
 10
233.7863806011634
 20
200.2576771356431
 30
0.0
 10
233.0348027795115
 20
199.9885620727256
 30
0.0
 10
232.2835817102514
 20
199.7164927395229
 30
0.0
 10
231.5327847175346
 20
199.4414430534356
 30
0.0
  0
LINE
  5
D3
330
1F
100
AcDbEntity
  8
0
  6
Continuous
 62
     7
370
     0
100
AcDbLine
 10
232.0352582072
 20
199.2467756952
 30
0.0
 11
233.7863806012
 21
200.2576771356
 31
0.0
  0
ARC
  5
D4
330
1F
100
AcDbEntity
  8
0
  6
Continuous
 62
     7
370
     0
100
AcDbCircle
 10
224.8878116893
 20
181.5646210374
 30
0.0
 40
19.07208916375898
100
AcDbArc
 50
67.2818641146
 51
67.9905510109
  0
LINE
  5
D5
330
1F
100
AcDbEntity
  8
0
  6
Continuous
 62
     7
370
     0
100
AcDbLine
 10
234.3747353877
 20
200.3816313444
 30
0.0
 11
232.2534150441
 21
199.1570191766
 31
0.0
  0
ARC
  5
D6
330
1F
100
AcDbEntity
  8
0
  6
Continuous
 62
     7
370
     0
100
AcDbCircle
 10
227.040218783
 20
182.8645331955
 30
0.0
 40
18.99062561851823
100
AcDbArc
 50
67.2806398053
 51
68.2870202014
  0
SPLINE
  5
D7
330
1F
100
AcDbEntity
  8
0
  6
Continuous
 62
     7
370
     0
100
AcDbSpline
210
0.0
220
0.0
230
1.0
 70
     8
 71
     3
 72
     8
 73
     4
 74
     0
 42
0.00000001
 43
0.00000001
 12
1.0
 22
0.0
 32
0.0
 13
1.0
 23
0.0
 33
0.0
 40
0.0
 40
0.0
 40
0.0
 40
0.0
 40
1.0
 40
1.0
 40
1.0
 40
1.0
 10
232.1636427004229
 20
199.8192770501582
 30
0.0
 10
232.7974480428583
 20
200.0509102010489
 30
0.0
 10
233.4315602218072
 20
200.2803962057827
 30
0.0
 10
234.0659381027038
 20
200.5077508561663
 30
0.0
  0
SPLINE
  5
D8
330
1F
100
AcDbEntity
  8
0
  6
Continuous
 62
     7
370
     0
100
AcDbSpline
210
0.0
220
0.0
230
1.0
 70
     8
 71
     3
 72
    12
 73
     8
 74
     0
 42
0.00000001
 43
0.00000001
 12
1.0
 22
0.0
 32
0.0
 13
1.0
 23
0.0
 33
0.0
 40
0.0
 40
0.0
 40
0.0
 40
0.0
 40
0.2499936386573782
 40
0.4999942819844623
 40
0.6249956604535687
 40
0.7499971038686543
 40
1.0
 40
1.0
 40
1.0
 40
1.0
 10
231.7291457824332
 20
199.6575615985298
 30
0.0
 10
231.7652170359686
 20
199.671158195241
 30
0.0
 10
231.8373605537339
 20
199.6983517696315
 30
0.0
 10
231.9274837433096
 20
199.7323542735177
 30
0.0
 10
232.0002584835965
 20
199.7590338840725
 30
0.0
 10
232.0729821110792
 20
199.7857397251174
 30
0.0
 10
232.1273784644156
 20
199.8058621200421
 30
0.0
 10
232.1636427004229
 20
199.8192770501582
 30
0.0
  0
SPLINE
  5
D9
330
1F
100
AcDbEntity
  8
0
  6
Continuous
 62
     7
370
     0
100
AcDbSpline
210
0.0
220
0.0
230
1.0
 70
     8
 71
     3
 72
     8
 73
     4
 74
     0
 42
0.00000001
 43
0.00000001
 12
1.0
 22
0.0
 32
0.0
 13
1.0
 23
0.0
 33
0.0
 40
0.0
 40
0.0
 40
0.0
 40
0.0
 40
1.0
 40
1.0
 40
1.0
 40
1.0
 10
231.9621542669705
 20
199.868247634635
 30
0.0
 10
231.8844730269511
 20
199.7980976662561
 30
0.0
 10
231.8068036276654
 20
199.7278689531082
 30
0.0
 10
231.7291457824332
 20
199.6575615985298
 30
0.0
  0
SPLINE
  5
DA
330
1F
100
AcDbEntity
  8
0
  6
Continuous
 62
     7
370
     0
100
AcDbSpline
210
0.0
220
0.0
230
1.0
 70
     8
 71
     3
 72
     8
 73
     4
 74
     0
 42
0.00000001
 43
0.00000001
 12
1.0
 22
0.0
 32
0.0
 13
1.0
 23
0.0
 33
0.0
 40
0.0
 40
0.0
 40
0.0
 40
0.0
 40
1.0
 40
1.0
 40
1.0
 40
1.0
 10
233.059413125234
 20
200.8744311886552
 30
0.0
 10
232.6933410062024
 20
200.5410094427826
 30
0.0
 10
232.3275999290485
 20
200.2056108403649
 30
0.0
 10
231.9621542669705
 20
199.868247634635
 30
0.0
  0
ARC
  5
DB
330
1F
100
AcDbEntity
  8
0
  6
Continuous
 62
     7
370
     0
100
AcDbCircle
 10
227.822493097
 20
185.0122781428
 30
0.0
 40
16.70428779177691
100
AcDbArc
 50
71.7292616859
 51
72.9404127003
  0
LINE
  5
DC
330
1F
100
AcDbEntity
  8
0
  6
Continuous
 62
     7
370
     0
100
AcDbLine
 10
230.6016444859
 20
199.7569680084
 30
0.0
 11
232.7229648295
 21
200.9815801761
 31
0.0
  0
ARC
  5
DD
330
1F
100
AcDbEntity
  8
0
  6
Continuous
 62
     7
370
     0
100
AcDbCircle
 10
225.7309070942
 20
183.8826075053
 30
0.0
 40
16.60480063476081
100
AcDbArc
 50
72.1651347229
 51
72.9423912783
  0
LINE
  5
DE
330
1F
100
AcDbEntity
  8
0
  6
Continuous
 62
     7
370
     0
100
AcDbLine
 10
232.6679565132
 20
200.7582366386
 30
0.0
 11
230.8165363027
 21
199.6894345011
 31
0.0
  0
LWPOLYLINE
  5
DF
330
1F
100
AcDbEntity
  8
0
  6
Continuous
 62
     7
370
     0
100
AcDbPolyline
 90
       65
 70
   128
 43
0.0
 10
255.2745291748
 20
168.3407522024
 10
255.2622632252
 20
169.1142123302
 10
255.22548213
 20
169.9007779684
 10
255.1642361279
 20
170.6993747632
 10
255.0786088734
 20
171.5089119273
 10
254.9687173233
 20
172.3282837303
 10
254.834711576
 20
173.1563710089
 10
254.6767746673
 20
173.9920426955
 10
254.49512232
 20
174.8341573632
 10
254.2900026494
 20
175.6815647844
 10
254.0616958244
 20
176.5331075027
 10
253.8105136844
 20
177.3876224131
 10
253.5367993142
 20
178.2439423511
 10
253.2409265747
 20
179.1008976866
 10
252.9232995923
 20
179.9573179217
 10
252.5843522074
 20
180.8120332893
 10
252.2245473814
 20
181.6638763511
 10
251.8443765643
 20
182.511683592
 10
251.4443590237
 20
183.3542970092
 10
251.0250411355
 20
184.1905656941
 10
250.5869956375
 20
185.0193474044
 10
250.1308208471
 20
185.8395101238
 10
249.6571398443
 20
186.6499336088
 10
249.1665996203
 20
187.4495109184
 10
248.659870194
 20
188.2371499261
 10
248.1376436969
 20
189.0117748118
 10
247.6006334276
 20
189.7723275311
 10
247.0495728775
 20
190.5177692605
 10
246.485214729
 20
191.2470818162
 10
245.9083298275
 20
191.959269045
 10
245.3197061284
 20
192.6533581847
 10
244.7201476208
 20
193.3284011933
 10
244.1104732295
 20
193.9834760429
 10
243.4915156965
 20
194.6176879804
 10
242.8641204432
 20
195.2301707483
 10
242.2291444161
 20
195.8200877689
 10
241.5874549161
 20
196.3866332866
 10
240.9399284138
 20
196.9290334683
 10
240.2874493526
 20
197.4465474606
 10
239.6309089404
 20
197.9384684016
 10
238.9712039324
 20
198.4041243865
 10
238.3092354063
 20
198.8428793852
 10
237.6459075314
 20
199.2541341113
 10
236.9821263339
 20
199.6373268401
 10
236.3187984591
 20
199.9919341765
 10
235.656829933
 20
200.3174717696
 10
234.997124925
 20
200.6134949742
 10
234.3405845128
 20
200.8795994581
 10
233.6881054516
 20
201.1154217546
 10
233.0405789493
 20
201.320639759
 10
232.3988894493
 20
201.4949731679
 10
231.7639134222
 20
201.6381838631
 10
231.1365181689
 20
201.7500762359
 10
230.5175606358
 20
201.8304974547
 10
229.9078862446
 20
201.8793376739
 10
229.308327737
 20
201.8965301837
 10
228.7197040378
 20
201.882051501
 10
228.1428191363
 20
201.8359214021
 10
227.5784609879
 20
201.758202895
 10
227.0274004378
 20
201.649002134
 10
226.4903901685
 20
201.5084682742
 10
225.9681636714
 20
201.3367932679
 10
225.4614342451
 20
201.1342116024
 10
224.9708940211
 20
200.9009999801
 10
224.6150490282
 20
200.7067763271
  0
LWPOLYLINE
  5
E0
330
1F
100
AcDbEntity
  8
0
  6
Continuous
 62
     7
370
     0
100
AcDbPolyline
 90
       23
 70
   128
 43
0.0
 10
250.0129848372
 20
156.7114941181
 10
250.1308208471
 20
156.7807935054
 10
250.5869956375
 20
157.0742680227
 10
251.0250411355
 20
157.3972931663
 10
251.4443590237
 20
157.7494277226
 10
251.8443765643
 20
158.1301907182
 10
252.2245473814
 20
158.5390620767
 10
252.5843522074
 20
158.9754833288
 10
252.9232995923
 20
159.4388583758
 10
253.2409265747
 20
159.928554303
 10
253.5367993142
 20
160.4439022447
 10
253.8105136844
 20
160.9841982976
 10
254.0616958244
 20
161.5487044822
 10
254.2900026494
 20
162.1366497511
 10
254.49512232
 20
162.7472310417
 10
254.6767746673
 20
163.3796143735
 10
254.834711576
 20
164.0329359868
 10
254.9687173233
 20
164.7063035228
 10
255.0786088734
 20
165.3987972427
 10
255.1642361279
 20
166.1094712832
 10
255.22548213
 20
166.837354949
 10
255.2622632252
 20
167.5814540387
 10
255.2745291748
 20
168.3407522024
  0
SPLINE
  5
E1
330
1F
100
AcDbEntity
  8
0
  6
Continuous
 62
     7
370
     0
100
AcDbSpline
210
0.0
220
0.0
230
1.0
 70
     8
 71
     3
 72
    14
 73
    10
 74
     0
 42
0.00000001
 43
0.00000001
 12
1.0
 22
0.0
 32
0.0
 13
1.0
 23
0.0
 33
0.0
 40
0.0
 40
0.0
 40
0.0
 40
0.0
 40
0.0626209035518769
 40
0.1251971369841647
 40
0.2501776311320264
 40
0.4995004115477651
 40
0.7494942445745856
 40
0.8747342129769934
 40
1.0
 40
1.0
 40
1.0
 40
1.0
 10
231.8824622828432
 20
201.1821980055447
 30
0.0
 10
231.8960539325383
 20
201.1713939650958
 30
0.0
 10
231.9232275364342
 20
201.1497935911736
 30
0.0
 10
231.9554644667902
 20
201.0989281165777
 30
0.0
 10
231.9629455038568
 20
200.9973798469202
 30
0.0
 10
231.8625019622847
 20
200.8360283975934
 30
0.0
 10
231.6786645714372
 20
200.6787896762286
 30
0.0
 10
231.5003217879671
 20
200.5581793188354
 30
0.0
 10
231.4019479700299
 20
200.5000029736574
 30
0.0
 10
231.3527559915644
 20
200.4709118030674
 30
0.0
  0
SPLINE
  5
E2
330
1F
100
AcDbEntity
  8
0
  6
Continuous
 62
     7
370
     0
100
AcDbSpline
210
0.0
220
0.0
230
1.0
 70
     8
 71
     3
 72
    13
 73
     9
 74
     0
 42
0.00000001
 43
0.00000001
 12
1.0
 22
0.0
 32
0.0
 13
1.0
 23
0.0
 33
0.0
 40
0.0
 40
0.0
 40
0.0
 40
0.0
 40
0.2621623226486194
 40
0.5000242273424923
 40
0.6219901488738572
 40
0.75005454304432
 40
0.8623234327934889
 40
1.0
 40
1.0
 40
1.0
 40
1.0
 10
231.5978239024685
 20
201.2819616548111
 30
0.0
 10
231.6260349949372
 20
201.2752675449199
 30
0.0
 10
231.6798422299801
 20
201.2624998173065
 30
0.0
 10
231.74301232938
 20
201.2438991052753
 30
0.0
 10
231.7895400619011
 20
201.2275473510042
 30
0.0
 10
231.8227788601459
 20
201.2146178664134
 30
0.0
 10
231.8542851590665
 20
201.1995365513794
 30
0.0
 10
231.8724542610243
 20
201.188356353941
 30
0.0
 10
231.8824622828432
 20
201.1821980055447
 30
0.0
  0
ARC
  5
E3
330
1F
100
AcDbEntity
  8
0
  6
Continuous
 62
     7
370
     0
100
AcDbCircle
 10
228.44356828
 20
187.3646659053
 30
0.0
 40
14.27026452138949
100
AcDbArc
 50
77.2300551587
 51
79.5628185982
  0
LINE
  5
E4
330
1F
100
AcDbEntity
  8
0
  6
Continuous
 62
     7
370
     0
100
AcDbLine
 10
228.9074117259
 20
200.1742041462
 30
0.0
 11
231.0287320695
 21
201.398816314
 31
0.0
  0
ARC
  5
E5
330
1F
100
AcDbEntity
  8
0
  6
Continuous
 62
     7
370
     0
100
AcDbCircle
 10
226.3185740378
 20
186.1215524542
 30
0.0
 40
14.28912524095843
100
AcDbArc
 50
77.1236658708
 51
79.5617701828
  0
SPLINE
  5
E6
330
1F
100
AcDbEntity
  8
0
  6
Continuous
 62
     7
370
     0
100
AcDbSpline
210
0.0
220
0.0
230
1.0
 70
     8
 71
     3
 72
    17
 73
    13
 74
     0
 42
0.00000001
 43
0.00000001
 12
1.0
 22
0.0
 32
0.0
 13
1.0
 23
0.0
 33
0.0
 40
0.0
 40
0.0
 40
0.0
 40
0.0
 40
0.0715357051320337
 40
0.143064735485807
 40
0.2860245204547989
 40
0.4289089802452734
 40
0.5716729696068827
 40
0.6786677761034713
 40
0.7855971142383397
 40
0.8927121774632336
 40
0.9463509865938889
 40
1.0
 40
1.0
 40
1.0
 40
1.0
 10
231.3527559915644
 20
200.4709118030674
 30
0.0
 10
231.3158891396079
 20
200.4500362687907
 30
0.0
 10
231.2421588756283
 20
200.4082871480697
 30
0.0
 10
231.0867494936752
 20
200.3273789755384
 30
0.0
 10
230.8780365344377
 20
200.2315906928409
 30
0.0
 10
230.6030210525529
 20
200.130495483049
 30
0.0
 10
230.3321450462201
 20
200.0551086046041
 30
0.0
 10
230.0764382965643
 20
200.0105694654397
 30
0.0
 10
229.857936985242
 20
200.002692992497
 30
0.0
 10
229.6981261915233
 20
200.0159005226541
 30
0.0
 10
229.5827783582643
 20
200.0341750468207
 30
0.0
 10
229.5295074814009
 20
200.0456271132949
 30
0.0
 10
229.5028695096401
 20
200.0513536911419
 30
0.0
  0
ARC
  5
E7
330
1F
100
AcDbEntity
  8
0
  6
Continuous
 62
     7
370
     0
100
AcDbCircle
 10
224.2892031162
 20
179.8128360814
 30
0.0
 40
21.14773174803478
100
AcDbArc
 50
62.8042683761
 51
65.450371781
  0
LINE
  5
E8
330
1F
100
AcDbEntity
  8
0
  6
Continuous
 62
     7
370
     0
100
AcDbLine
 10
234.9490634433
 20
200.1303251944
 30
0.0
 11
233.0756896334
 21
199.0488495138
 31
0.0
  0
ARC
  5
E9
330
1F
100
AcDbEntity
  8
0
  6
Continuous
 62
     7
370
     0
100
AcDbCircle
 10
226.5950540301
 20
181.8272055266
 30
0.0
 40
20.11948465668292
100
AcDbArc
 50
65.4668377162
 51
66.1507103957
  0
LINE
  5
EA
330
1F
100
AcDbEntity
  8
0
  6
Continuous
 62
     7
370
     0
100
AcDbLine
 10
232.6086902976
 20
199.004118942
 30
0.0
 11
234.7300106412
 21
200.2287311097
 31
0.0
  0
ARC
  5
EB
330
1F
100
AcDbEntity
  8
0
  6
Continuous
 62
     7
370
     0
100
AcDbCircle
 10
224.1334575069
 20
179.8570573357
 30
0.0
 40
20.9389478964384
100
AcDbArc
 50
62.7943621394
 51
66.1239587775
  0
LINE
  5
EC
330
1F
100
AcDbEntity
  8
0
  6
Continuous
 62
     7
370
     0
100
AcDbLine
 10
233.9543862049
 20
198.6226950375
 30
0.0
 11
233.7064396713
 21
198.4795585504
 31
0.0
  0
SPLINE
  5
ED
330
1F
100
AcDbEntity
  8
0
  6
Continuous
 62
     7
370
     0
100
AcDbSpline
210
0.0
220
0.0
230
1.0
 70
     8
 71
     3
 72
    18
 73
    14
 74
     0
 42
0.00000001
 43
0.00000001
 12
1.0
 22
0.0
 32
0.0
 13
1.0
 23
0.0
 33
0.0
 40
0.0
 40
0.0
 40
0.0
 40
0.0
 40
0.0625017672758701
 40
0.1249767194373948
 40
0.1874405397014911
 40
0.2499072625739301
 40
0.3213249937575778
 40
0.3927461089174684
 40
0.4997948830968786
 40
0.6143446776344226
 40
0.749838826380545
 40
0.8749099219191546
 40
1.0
 40
1.0
 40
1.0
 40
1.0
 10
236.0621827083369
 20
197.0570368540502
 30
0.0
 10
236.0357201416435
 20
197.0761996588841
 30
0.0
 10
235.9828063614836
 20
197.1145170471397
 30
0.0
 10
235.9226745553654
 20
197.1799986603195
 30
0.0
 10
235.8820968088293
 20
197.2497747184865
 30
0.0
 10
235.8590367432836
 20
197.325199078178
 30
0.0
 10
235.858664029542
 20
197.4042931485896
 30
0.0
 10
235.8782284373623
 20
197.4987464458686
 30
0.0
 10
235.9364703892058
 20
197.6039043223202
 30
0.0
 10
236.0440736929814
 20
197.7204903282138
 30
0.0
 10
236.1812894465202
 20
197.8328296754206
 30
0.0
 10
236.3376204350135
 20
197.9406043895763
 30
0.0
 10
236.4474631141977
 20
198.0055874908907
 30
0.0
 10
236.5023886212897
 20
198.0380815070473
 30
0.0
  0
SPLINE
  5
EE
330
1F
100
AcDbEntity
  8
0
  6
Continuous
 62
     7
370
     0
100
AcDbSpline
210
0.0
220
0.0
230
1.0
 70
     8
 71
     3
 72
    16
 73
    12
 74
     0
 42
0.00000001
 43
0.00000001
 12
1.0
 22
0.0
 32
0.0
 13
1.0
 23
0.0
 33
0.0
 40
0.0
 40
0.0
 40
0.0
 40
0.0
 40
0.125141562472801
 40
0.2502242604832171
 40
0.3774823235847191
 40
0.5003657507131224
 40
0.629356435458054
 40
0.7500881083544272
 40
0.8748949524102552
 40
0.9374238382137784
 40
1.0
 40
1.0
 40
1.0
 40
1.0
 10
237.3146755460554
 20
197.1079191746244
 30
0.0
 10
237.2718564085122
 20
197.084711400938
 30
0.0
 10
237.1862382748197
 20
197.038306770107
 30
0.0
 10
237.0391286311053
 20
196.9831497171432
 30
0.0
 10
236.8813763531874
 20
196.9417665011448
 30
0.0
 10
236.7119713086798
 20
196.9156211761917
 30
0.0
 10
236.5375350716682
 20
196.9090955246895
 30
0.0
 10
236.3609195951317
 20
196.930765954962
 30
0.0
 10
236.2250604672896
 20
196.9717106351758
 30
0.0
 10
236.126890373558
 20
197.0168680228441
 30
0.0
 10
236.0837573632592
 20
197.0436438708705
 30
0.0
 10
236.0621827083369
 20
197.0570368540502
 30
0.0
  0
SPLINE
  5
EF
330
1F
100
AcDbEntity
  8
0
  6
Continuous
 62
     7
370
     0
100
AcDbSpline
210
0.0
220
0.0
230
1.0
 70
     8
 71
     3
 72
    16
 73
    12
 74
     0
 42
0.00000001
 43
0.00000001
 12
1.0
 22
0.0
 32
0.0
 13
1.0
 23
0.0
 33
0.0
 40
0.0
 40
0.0
 40
0.0
 40
0.0
 40
0.0714849144540489
 40
0.1429337451704767
 40
0.2854116503119442
 40
0.3925655405453349
 40
0.4997322810527072
 40
0.6247304050320027
 40
0.7497831095180534
 40
0.8748562503498962
 40
1.0
 40
1.0
 40
1.0
 40
1.0
 10
237.4856665438089
 20
197.8558230560338
 30
0.0
 10
237.5073746279425
 20
197.8400849684
 30
0.0
 10
237.5507798385298
 20
197.8086167373124
 30
0.0
 10
237.6166861710919
 20
197.736251273953
 30
0.0
 10
237.6598285607418
 20
197.6460246571596
 30
0.0
 10
237.6672012641654
 20
197.5440974223314
 30
0.0
 10
237.6518663732795
 20
197.4484987032457
 30
0.0
 10
237.6057855953932
 20
197.3526800157746
 30
0.0
 10
237.5285777385502
 20
197.2613185921383
 30
0.0
 10
237.4309270419875
 20
197.1789897615053
 30
0.0
 10
237.3534333340277
 20
197.1316138265969
 30
0.0
 10
237.3146755460554
 20
197.1079191746244
 30
0.0
  0
SPLINE
  5
F0
330
1F
100
AcDbEntity
  8
0
  6
Continuous
 62
     7
370
     0
100
AcDbSpline
210
0.0
220
0.0
230
1.0
 70
     8
 71
     3
 72
    13
 73
     9
 74
     0
 42
0.00000001
 43
0.00000001
 12
1.0
 22
0.0
 32
0.0
 13
1.0
 23
0.0
 33
0.0
 40
0.0
 40
0.0
 40
0.0
 40
0.0
 40
0.1252064650766518
 40
0.250347637559903
 40
0.5000234775137319
 40
0.7497435158999793
 40
0.8748273607871844
 40
1.0
 40
1.0
 40
1.0
 40
1.0
 10
236.7918528064087
 20
197.9743278296894
 30
0.0
 10
236.8219398506733
 20
197.9782615232413
 30
0.0
 10
236.8820982494285
 20
197.9861268590048
 30
0.0
 10
237.0056906105386
 20
197.9911596827876
 30
0.0
 10
237.1624043779518
 20
197.9807016463539
 30
0.0
 10
237.3105659374826
 20
197.9427255090892
 30
0.0
 10
237.4170734237134
 20
197.8981929923322
 30
0.0
 10
237.4627967626944
 20
197.8699497084973
 30
0.0
 10
237.4856665438089
 20
197.8558230560338
 30
0.0
  0
SPLINE
  5
F1
330
1F
100
AcDbEntity
  8
0
  6
Continuous
 62
     7
370
     0
100
AcDbSpline
210
0.0
220
0.0
230
1.0
 70
     8
 71
     3
 72
    12
 73
     8
 74
     0
 42
0.00000001
 43
0.00000001
 12
1.0
 22
0.0
 32
0.0
 13
1.0
 23
0.0
 33
0.0
 40
0.0
 40
0.0
 40
0.0
 40
0.0
 40
0.1249974191074113
 40
0.250001643839323
 40
0.4999494407406341
 40
0.7499494651721297
 40
1.0
 40
1.0
 40
1.0
 40
1.0
 10
237.4812898967029
 20
198.2526537863291
 30
0.0
 10
237.4480750006277
 20
198.2459423537197
 30
0.0
 10
237.3816434000551
 20
198.2325191230896
 30
0.0
 10
237.2565779877245
 20
198.1948013157299
 30
0.0
 10
237.1100753645974
 20
198.137679773769
 30
0.0
 10
236.9451708447929
 20
198.0600614986116
 30
0.0
 10
236.8429622605861
 20
198.0029076437115
 30
0.0
 10
236.7918528064087
 20
197.9743278296894
 30
0.0
  0
SPLINE
  5
F2
330
1F
100
AcDbEntity
  8
0
  6
Continuous
 62
     7
370
     0
100
AcDbSpline
210
0.0
220
0.0
230
1.0
 70
     8
 71
     3
 72
    12
 73
     8
 74
     0
 42
0.00000001
 43
0.00000001
 12
1.0
 22
0.0
 32
0.0
 13
1.0
 23
0.0
 33
0.0
 40
0.0
 40
0.0
 40
0.0
 40
0.0
 40
0.1251943715410444
 40
0.2503092074440488
 40
0.4995697016855025
 40
0.7495824696687634
 40
1.0
 40
1.0
 40
1.0
 40
1.0
 10
238.0109093928099
 20
198.1910897939412
 30
0.0
 10
237.9935447500776
 20
198.2017652723284
 30
0.0
 10
237.9588264963224
 20
198.223109447001
 30
0.0
 10
237.8753104773973
 20
198.254235712583
 30
0.0
 10
237.7586955094848
 20
198.2748978220467
 30
0.0
 10
237.6164135662483
 20
198.273643439323
 30
0.0
 10
237.5263554004254
 20
198.259654108984
 30
0.0
 10
237.4812898967029
 20
198.2526537863291
 30
0.0
  0
SPLINE
  5
F3
330
1F
100
AcDbEntity
  8
0
  6
Continuous
 62
     7
370
     0
100
AcDbSpline
210
0.0
220
0.0
230
1.0
 70
     8
 71
     3
 72
    11
 73
     7
 74
     0
 42
0.00000001
 43
0.00000001
 12
1.0
 22
0.0
 32
0.0
 13
1.0
 23
0.0
 33
0.0
 40
0.0
 40
0.0
 40
0.0
 40
0.0
 40
0.2501498668194548
 40
0.5001182101488377
 40
0.74999113706576
 40
1.0
 40
1.0
 40
1.0
 40
1.0
 10
238.1148074180986
 20
197.9957219110013
 30
0.0
 10
238.115836641187
 20
198.0131199862977
 30
0.0
 10
238.1178943404988
 20
198.0479035118212
 30
0.0
 10
238.101608938309
 20
198.1002804926015
 30
0.0
 10
238.065753126645
 20
198.1495583140746
 30
0.0
 10
238.0291939513442
 20
198.1772434577869
 30
0.0
 10
238.0109093928099
 20
198.1910897939412
 30
0.0
  0
SPLINE
  5
F4
330
1F
100
AcDbEntity
  8
0
  6
Continuous
 62
     7
370
     0
100
AcDbSpline
210
0.0
220
0.0
230
1.0
 70
     8
 71
     3
 72
    11
 73
     7
 74
     0
 42
0.00000001
 43
0.00000001
 12
1.0
 22
0.0
 32
0.0
 13
1.0
 23
0.0
 33
0.0
 40
0.0
 40
0.0
 40
0.0
 40
0.0
 40
0.2501453768984927
 40
0.5002105857360005
 40
0.7501695483138507
 40
0.9999999999999999
 40
0.9999999999999999
 40
0.9999999999999999
 40
0.9999999999999999
 10
237.9736749306744
 20
197.8018965203137
 30
0.0
 10
237.9900124964368
 20
197.8164809680856
 30
0.0
 10
238.0226823920024
 20
197.84564518952
 30
0.0
 10
238.0645809368449
 20
197.8923440140964
 30
0.0
 10
238.1011773456516
 20
197.9414503530235
 30
0.0
 10
238.1102648395056
 20
197.977634493019
 30
0.0
 10
238.1148074180986
 20
197.9957219110013
 30
0.0
  0
SPLINE
  5
F5
330
1F
100
AcDbEntity
  8
0
  6
Continuous
 62
     7
370
     0
100
AcDbSpline
210
0.0
220
0.0
230
1.0
 70
     8
 71
     3
 72
     8
 73
     4
 74
     0
 42
0.00000001
 43
0.00000001
 12
1.0
 22
0.0
 32
0.0
 13
1.0
 23
0.0
 33
0.0
 40
0.0
 40
0.0
 40
0.0
 40
0.0
 40
1.0
 40
1.0
 40
1.0
 40
1.0
 10
238.2205255372251
 20
197.6658678382782
 30
0.0
 10
238.1382877861873
 20
197.7117021230902
 30
0.0
 10
238.0560024160645
 20
197.7570462881255
 30
0.0
 10
237.9736749306744
 20
197.8018965203137
 30
0.0
  0
SPLINE
  5
F6
330
1F
100
AcDbEntity
  8
0
  6
Continuous
 62
     7
370
     0
100
AcDbSpline
210
0.0
220
0.0
230
1.0
 70
     8
 71
     3
 72
    16
 73
    12
 74
     0
 42
0.00000001
 43
0.00000001
 12
1.0
 22
0.0
 32
0.0
 13
1.0
 23
0.0
 33
0.0
 40
0.0
 40
0.0
 40
0.0
 40
0.0
 40
0.0625723509088663
 40
0.1251169806303084
 40
0.2500252679446887
 40
0.3500109261581434
 40
0.4998543840072935
 40
0.624800217705081
 40
0.7498078838122627
 40
0.8748912078062911
 40
1.0
 40
1.0
 40
1.0
 40
1.0
 10
238.2583431559283
 20
198.3002762103445
 30
0.0
 10
238.2743421299221
 20
198.2889879346616
 30
0.0
 10
238.3063329899459
 20
198.266416384297
 30
0.0
 10
238.3626343690758
 20
198.217272877569
 30
0.0
 10
238.4118078339798
 20
198.154465540708
 30
0.0
 10
238.4490907010039
 20
198.0673830301287
 30
0.0
 10
238.454643815579
 20
197.9776416588943
 30
0.0
 10
238.4258209691603
 20
197.885886171063
 30
0.0
 10
238.3751265562852
 20
197.8054843004878
 30
0.0
 10
238.3054333263149
 20
197.7318769367369
 30
0.0
 10
238.2488300542237
 20
197.68787236424
 30
0.0
 10
238.2205255372251
 20
197.6658678382782
 30
0.0
  0
SPLINE
  5
F7
330
1F
100
AcDbEntity
  8
0
  6
Continuous
 62
     7
370
     0
100
AcDbSpline
210
0.0
220
0.0
230
1.0
 70
     8
 71
     3
 72
    17
 73
    13
 74
     0
 42
0.00000001
 43
0.00000001
 12
1.0
 22
0.0
 32
0.0
 13
1.0
 23
0.0
 33
0.0
 40
0.0
 40
0.0
 40
0.0
 40
0.0
 40
0.1251470263986586
 40
0.2502848246898056
 40
0.5000607495379534
 40
0.5715358706692544
 40
0.6429886773963305
 40
0.7500501686849583
 40
0.8131518885203778
 40
0.8750026788769604
 40
0.9374739688445926
 40
1.0
 40
1.0
 40
1.0
 40
1.0
 10
236.5023886212897
 20
198.0380815070473
 30
0.0
 10
236.5632982016101
 20
198.0724747689524
 30
0.0
 10
236.6851128708927
 20
198.1412587566677
 30
0.0
 10
236.9433970722417
 20
198.2682011903022
 30
0.0
 10
237.1952677336828
 20
198.3676898810339
 30
0.0
 10
237.4419543483591
 20
198.4241668679818
 30
0.0
 10
237.6072897931104
 20
198.4447756108859
 30
0.0
 10
237.7726533404768
 20
198.4477075165558
 30
0.0
 10
237.9300454411803
 20
198.4300031064315
 30
0.0
 10
238.0516310620089
 20
198.4005973657474
 30
0.0
 10
238.163913686891
 20
198.3579196375733
 30
0.0
 10
238.226857477738
 20
198.3194962951127
 30
0.0
 10
238.2583431559283
 20
198.3002762103445
 30
0.0
  0
SPLINE
  5
F8
330
1F
100
AcDbEntity
  8
0
  6
Continuous
 62
     7
370
     0
100
AcDbSpline
210
0.0
220
0.0
230
1.0
 70
     8
 71
     3
 72
    16
 73
    12
 74
     0
 42
0.00000001
 43
0.00000001
 12
1.0
 22
0.0
 32
0.0
 13
1.0
 23
0.0
 33
0.0
 40
0.0
 40
0.0
 40
0.0
 40
0.0
 40
0.0625647985474463
 40
0.1251035349199303
 40
0.2498538211251495
 40
0.3714414588612218
 40
0.4997975618923305
 40
0.6202135167839378
 40
0.7497910752833445
 40
0.8748595856835114
 40
1.0
 40
1.0
 40
1.0
 40
1.0
 10
240.1778706817347
 20
195.8565975528193
 30
0.0
 10
240.1964409865706
 20
195.8397422020616
 30
0.0
 10
240.2335738605419
 20
195.8060385218603
 30
0.0
 10
240.2933235425991
 20
195.7320051342393
 30
0.0
 10
240.3407672058473
 20
195.6328745441601
 30
0.0
 10
240.357128113956
 20
195.5110157710237
 30
0.0
 10
240.3398842925133
 20
195.3944657627729
 30
0.0
 10
240.2903821348241
 20
195.2839860780245
 30
0.0
 10
240.2131396856488
 20
195.1864334652379
 30
0.0
 10
240.1134858450801
 20
195.1002049238404
 30
0.0
 10
240.0360480144895
 20
195.0525088269976
 30
0.0
 10
239.9973179723264
 20
195.0286539252312
 30
0.0
  0
SPLINE
  5
F9
330
1F
100
AcDbEntity
  8
0
  6
Continuous
 62
     7
370
     0
100
AcDbSpline
210
0.0
220
0.0
230
1.0
 70
     8
 71
     3
 72
    11
 73
     7
 74
     0
 42
0.00000001
 43
0.00000001
 12
1.0
 22
0.0
 32
0.0
 13
1.0
 23
0.0
 33
0.0
 40
0.0
 40
0.0
 40
0.0
 40
0.0
 40
0.2500771941306477
 40
0.5000175858753042
 40
0.749938238182302
 40
1.0
 40
1.0
 40
1.0
 40
1.0
 10
239.7881409242625
 20
196.0648994889843
 30
0.0
 10
239.8244798741773
 20
196.0523949419737
 30
0.0
 10
239.8971378951248
 20
196.0273926884476
 30
0.0
 10
239.9996894366284
 20
195.9791146075834
 30
0.0
 10
240.0948543748745
 20
195.9225207137217
 30
0.0
 10
240.1501933733589
 20
195.8785760739366
 30
0.0
 10
240.1778706817347
 20
195.8565975528193
 30
0.0
  0
SPLINE
  5
FA
330
1F
100
AcDbEntity
  8
0
  6
Continuous
 62
     7
370
     0
100
AcDbSpline
210
0.0
220
0.0
230
1.0
 70
     8
 71
     3
 72
     8
 73
     4
 74
     0
 42
0.00000001
 43
0.00000001
 12
1.0
 22
0.0
 32
0.0
 13
1.0
 23
0.0
 33
0.0
 40
0.0
 40
0.0
 40
0.0
 40
0.0
 40
1.0
 40
1.0
 40
1.0
 40
1.0
 10
240.3898396962297
 20
196.3029029019613
 30
0.0
 10
240.1892859567633
 20
196.223627606879
 30
0.0
 10
239.9887196144392
 20
196.144293206249
 30
0.0
 10
239.7881409242625
 20
196.0648994889843
 30
0.0
  0
ARC
  5
FB
330
1F
100
AcDbEntity
  8
0
  6
Continuous
 62
     7
370
     0
100
AcDbCircle
 10
219.6236577733
 20
171.3017622932
 30
0.0
 40
32.50063604600054
100
AcDbArc
 50
48.7780340048
 51
50.2866598475
  0
LINE
  5
FC
330
1F
100
AcDbEntity
  8
0
  6
Continuous
 62
     7
370
     0
100
AcDbLine
 10
241.2888042786
 20
195.8906527833
 30
0.0
 11
241.0408577449
 21
195.7475162961
 31
0.0
  0
ARC
  5
FD
330
1F
100
AcDbEntity
  8
0
  6
Continuous
 62
     7
370
     0
100
AcDbCircle
 10
219.9914031381
 20
171.5844266426
 30
0.0
 40
32.31674371805983
100
AcDbArc
 50
48.7747760317
 51
50.7068926845
  0
SPLINE
  5
FE
330
1F
100
AcDbEntity
  8
0
  6
Continuous
 62
     7
370
     0
100
AcDbSpline
210
0.0
220
0.0
230
1.0
 70
     8
 71
     3
 72
     8
 73
     4
 74
     0
 42
0.00000001
 43
0.00000001
 12
1.0
 22
0.0
 32
0.0
 13
1.0
 23
0.0
 33
0.0
 40
0.0
 40
0.0
 40
0.0
 40
0.0
 40
1.0
 40
1.0
 40
1.0
 40
1.0
 10
239.2083122633733
 20
196.0990217290218
 30
0.0
 10
239.624659021933
 20
196.2645673447876
 30
0.0
 10
240.0409563175862
 20
196.4298543479722
 30
0.0
 10
240.4572018637691
 20
196.5948845964109
 30
0.0
  0
SPLINE
  5
FF
330
1F
100
AcDbEntity
  8
0
  6
Continuous
 62
     7
370
     0
100
AcDbSpline
210
0.0
220
0.0
230
1.0
 70
     8
 71
     3
 72
     8
 73
     4
 74
     0
 42
0.00000001
 43
0.00000001
 12
1.0
 22
0.0
 32
0.0
 13
1.0
 23
0.0
 33
0.0
 40
0.0
 40
0.0
 40
0.0
 40
0.0
 40
1.0
 40
1.0
 40
1.0
 40
1.0
 10
239.3927817649676
 20
195.9050692541399
 30
0.0
 10
239.3313834778534
 20
195.9701768957329
 30
0.0
 10
239.2698918378907
 20
196.034829191483
 30
0.0
 10
239.2083122633733
 20
196.0990217290218
 30
0.0
  0
SPLINE
  5
100
330
1F
100
AcDbEntity
  8
0
  6
Continuous
 62
     7
370
     0
100
AcDbSpline
210
0.0
220
0.0
230
1.0
 70
     8
 71
     3
 72
    13
 73
     9
 74
     0
 42
0.00000001
 43
0.00000001
 12
1.0
 22
0.0
 32
0.0
 13
1.0
 23
0.0
 33
0.0
 40
0.0
 40
0.0
 40
0.0
 40
0.0
 40
0.1251847097082125
 40
0.2502624997043217
 40
0.4999265329858778
 40
0.7496170513301588
 40
0.8747749619545566
 40
1.0
 40
1.0
 40
1.0
 40
1.0
 10
239.8974991826559
 20
195.7799972463123
 30
0.0
 10
239.8809908974676
 20
195.7928618044653
 30
0.0
 10
239.8479884267449
 20
195.8185799332086
 30
0.0
 10
239.7703059756487
 20
195.8605435905451
 30
0.0
 10
239.6614238676048
 20
195.897399814373
 30
0.0
 10
239.5472749925749
 20
195.9122979640988
 30
0.0
 10
239.4578082443016
 20
195.9118913922611
 30
0.0
 10
239.4144611318516
 20
195.9073437065903
 30
0.0
 10
239.3927817649676
 20
195.9050692541399
 30
0.0
  0
SPLINE
  5
101
330
1F
100
AcDbEntity
  8
0
  6
Continuous
 62
     7
370
     0
100
AcDbSpline
210
0.0
220
0.0
230
1.0
 70
     8
 71
     3
 72
    15
 73
    11
 74
     0
 42
0.00000001
 43
0.00000001
 12
1.0
 22
0.0
 32
0.0
 13
1.0
 23
0.0
 33
0.0
 40
0.0
 40
0.0
 40
0.0
 40
0.0
 40
0.1253495801705164
 40
0.2506599194264303
 40
0.3759066795964748
 40
0.5010417308309494
 40
0.7496862051623804
 40
0.8746835149766058
 40
0.9373192359432208
 40
0.9999999999999999
 40
0.9999999999999999
 40
0.9999999999999999
 40
0.9999999999999999
 10
239.7718063354272
 20
195.2082729037104
 30
0.0
 10
239.7988649889638
 20
195.224959545834
 30
0.0
 10
239.8529738252762
 20
195.2583276062974
 30
0.0
 10
239.9240067538724
 20
195.3162535694027
 30
0.0
 10
239.9800608566337
 20
195.3831245595397
 30
0.0
 10
240.0308926681174
 20
195.4821460590586
 30
0.0
 10
240.032243400782
 20
195.5977911232452
 30
0.0
 10
239.9802092956233
 20
195.6940050711125
 30
0.0
 10
239.9365684965935
 20
195.7448431840375
 30
0.0
 10
239.9105254075649
 20
195.7682764179818
 30
0.0
 10
239.8974991826559
 20
195.7799972463123
 30
0.0
  0
SPLINE
  5
102
330
1F
100
AcDbEntity
  8
0
  6
Continuous
 62
     7
370
     0
100
AcDbSpline
210
0.0
220
0.0
230
1.0
 70
     8
 71
     3
 72
    16
 73
    12
 74
     0
 42
0.00000001
 43
0.00000001
 12
1.0
 22
0.0
 32
0.0
 13
1.0
 23
0.0
 33
0.0
 40
0.0
 40
0.0
 40
0.0
 40
0.0
 40
0.0625568803557648
 40
0.1250886456959724
 40
0.249823695431122
 40
0.3746883977337547
 40
0.4996668591645541
 40
0.6247035305831706
 40
0.7497357800776746
 40
0.8748599883283997
 40
1.0
 40
1.0
 40
1.0
 40
1.0
 10
238.9002584641565
 20
195.2120438026614
 30
0.0
 10
238.9151271288725
 20
195.2003252115173
 30
0.0
 10
238.9448584889092
 20
195.1768927339489
 30
0.0
 10
239.0138765199847
 20
195.1372271634684
 30
0.0
 10
239.1116658518956
 20
195.1011547102725
 30
0.0
 10
239.2347487949723
 20
195.0809388839698
 30
0.0
 10
239.3571583632865
 20
195.0764070739176
 30
0.0
 10
239.4735136465822
 20
195.0915068672363
 30
0.0
 10
239.5821323045007
 20
195.1195715229399
 30
0.0
 10
239.6816301567291
 20
195.1594243882159
 30
0.0
 10
239.74174634381
 20
195.1919893797524
 30
0.0
 10
239.7718063354272
 20
195.2082729037104
 30
0.0
  0
SPLINE
  5
103
330
1F
100
AcDbEntity
  8
0
  6
Continuous
 62
     7
370
     0
100
AcDbSpline
210
0.0
220
0.0
230
1.0
 70
     8
 71
     3
 72
    16
 73
    12
 74
     0
 42
0.00000001
 43
0.00000001
 12
1.0
 22
0.0
 32
0.0
 13
1.0
 23
0.0
 33
0.0
 40
0.0
 40
0.0
 40
0.0
 40
0.0
 40
0.1379233981945615
 40
0.2502472527041422
 40
0.3818701388625571
 40
0.5003541146047574
 40
0.6430936768240806
 40
0.750209728083991
 40
0.8749103985108527
 40
0.9374462236058034
 40
1.0
 40
1.0
 40
1.0
 40
1.0
 10
238.9964880454768
 20
195.7139819711394
 30
0.0
 10
238.9739863979152
 20
195.6957754007077
 30
0.0
 10
238.9331595653596
 20
195.6627415261706
 30
0.0
 10
238.878225777612
 20
195.6078482370652
 30
0.0
 10
238.8358047917619
 20
195.5508259869307
 30
0.0
 10
238.8029417340368
 20
195.483772393404
 30
0.0
 10
238.7925703457644
 20
195.4150630593012
 30
0.0
 10
238.8037315510969
 20
195.3430927040024
 30
0.0
 10
238.8305023018506
 20
195.2867962028485
 30
0.0
 10
238.8666392059237
 20
195.2425101481224
 30
0.0
 10
238.8890509726598
 20
195.2222002226907
 30
0.0
 10
238.9002584641565
 20
195.2120438026614
 30
0.0
  0
SPLINE
  5
104
330
1F
100
AcDbEntity
  8
0
  6
Continuous
 62
     7
370
     0
100
AcDbSpline
210
0.0
220
0.0
230
1.0
 70
     8
 71
     3
 72
     8
 73
     4
 74
     0
 42
0.00000001
 43
0.00000001
 12
1.0
 22
0.0
 32
0.0
 13
1.0
 23
0.0
 33
0.0
 40
0.0
 40
0.0
 40
0.0
 40
0.0
 40
1.0
 40
1.0
 40
1.0
 40
1.0
 10
238.7529774208234
 20
195.873546459442
 30
0.0
 10
238.8342366920191
 20
195.8208171336661
 30
0.0
 10
238.9154087069014
 20
195.7676275029818
 30
0.0
 10
238.9964880454768
 20
195.7139819711394
 30
0.0
  0
SPLINE
  5
105
330
1F
100
AcDbEntity
  8
0
  6
Continuous
 62
     7
370
     0
100
AcDbSpline
210
0.0
220
0.0
230
1.0
 70
     8
 71
     3
 72
    15
 73
    11
 74
     0
 42
0.00000001
 43
0.00000001
 12
1.0
 22
0.0
 32
0.0
 13
1.0
 23
0.0
 33
0.0
 40
0.0
 40
0.0
 40
0.0
 40
0.0
 40
0.0626601510107118
 40
0.1252967808133424
 40
0.2503298908547895
 40
0.499131164955675
 40
0.621599956416201
 40
0.7494646694160495
 40
0.8747197951605626
 40
0.9999999999999999
 40
0.9999999999999999
 40
0.9999999999999999
 40
0.9999999999999999
 10
238.6819595083041
 20
195.0830452272537
 30
0.0
 10
238.6640966010386
 20
195.0988499190653
 30
0.0
 10
238.6283774918403
 20
195.1304533699634
 30
0.0
 10
238.5666139547875
 20
195.197947384861
 30
0.0
 10
238.4857494867233
 20
195.3243434766287
 30
0.0
 10
238.4650271900469
 20
195.4774350728614
 30
0.0
 10
238.5069743457518
 20
195.6171314848675
 30
0.0
 10
238.5687597809664
 20
195.712660125915
 30
0.0
 10
238.6515166972903
 20
195.7992899865311
 30
0.0
 10
238.7191549227379
 20
195.8487926500327
 30
0.0
 10
238.7529774208234
 20
195.873546459442
 30
0.0
  0
SPLINE
  5
106
330
1F
100
AcDbEntity
  8
0
  6
Continuous
 62
     7
370
     0
100
AcDbSpline
210
0.0
220
0.0
230
1.0
 70
     8
 71
     3
 72
    16
 73
    12
 74
     0
 42
0.00000001
 43
0.00000001
 12
1.0
 22
0.0
 32
0.0
 13
1.0
 23
0.0
 33
0.0
 40
0.0
 40
0.0
 40
0.0
 40
0.0
 40
0.0626482196101815
 40
0.1252863497981882
 40
0.250488334093547
 40
0.4999565017260333
 40
0.6664476492180204
 40
0.7498743130154343
 40
0.8747603764964857
 40
0.9373645182863889
 40
1.0
 40
1.0
 40
1.0
 40
1.0
 10
239.9973179723264
 20
195.0286539252312
 30
0.0
 10
239.9748002039299
 20
195.0162809192295
 30
0.0
 10
239.929768293597
 20
194.9915368998841
 30
0.0
 10
239.834430021038
 20
194.9470965050191
 30
0.0
 10
239.6545600519869
 20
194.8840723018588
 30
0.0
 10
239.4016148181265
 20
194.8470852931351
 30
0.0
 10
239.1534315478335
 20
194.8644991853953
 30
0.0
 10
238.9715476295262
 20
194.9117490724592
 30
0.0
 10
238.8486785670012
 20
194.9665955853469
 30
0.0
 10
238.7485252796505
 20
195.0297091900661
 30
0.0
 10
238.704151800088
 20
195.0652635824846
 30
0.0
 10
238.6819595083041
 20
195.0830452272537
 30
0.0
  0
LINE
  5
107
330
1F
100
AcDbEntity
  8
0
  6
Continuous
 62
     7
370
     0
100
AcDbLine
 10
243.4959455594
 20
193.8226105315
 30
0.0
 11
242.1511323948
 21
193.0462664165
 31
0.0
  0
ARC
  5
108
330
1F
100
AcDbEntity
  8
0
  6
Continuous
 62
     7
370
     0
100
AcDbCircle
 10
215.3772021787
 20
167.2955462129
 30
0.0
 40
37.14758310060937
100
AcDbArc
 50
43.8839868424
 51
44.3895429874
  0
SPLINE
  5
109
330
1F
100
AcDbEntity
  8
0
  6
Continuous
 62
     7
370
     0
100
AcDbSpline
210
0.0
220
0.0
230
1.0
 70
     8
 71
     3
 72
     8
 73
     4
 74
     0
 42
0.00000001
 43
0.00000001
 12
1.0
 22
0.0
 32
0.0
 13
1.0
 23
0.0
 33
0.0
 40
0.0
 40
0.0
 40
0.0
 40
0.0
 40
1.0
 40
1.0
 40
1.0
 40
1.0
 10
241.9228785395323
 20
193.2815038971254
 30
0.0
 10
241.7699974308395
 20
193.0238462011843
 30
0.0
 10
241.616729853193
 20
192.7652515297387
 30
0.0
 10
241.4630568280305
 20
192.5057395092323
 30
0.0
  0
SPLINE
  5
10A
330
1F
100
AcDbEntity
  8
0
  6
Continuous
 62
     7
370
     0
100
AcDbSpline
210
0.0
220
0.0
230
1.0
 70
     8
 71
     3
 72
     8
 73
     4
 74
     0
 42
0.00000001
 43
0.00000001
 12
1.0
 22
0.0
 32
0.0
 13
1.0
 23
0.0
 33
0.0
 40
0.0
 40
0.0
 40
0.0
 40
0.0
 40
1.0
 40
1.0
 40
1.0
 40
1.0
 10
241.4630568280305
 20
192.5057395092323
 30
0.0
 10
241.8270552554929
 20
192.5450728572237
 30
0.0
 10
242.1906482349861
 20
192.5834888566288
 30
0.0
 10
242.5538169337273
 20
192.621007463725
 30
0.0
  0
ARC
  5
10B
330
1F
100
AcDbEntity
  8
0
  6
Continuous
 62
     7
370
     0
100
AcDbCircle
 10
214.8528566514
 20
166.7946082747
 30
0.0
 40
37.87276192245696
100
AcDbArc
 50
42.994286213
 51
43.4933680407
  0
LINE
  5
10C
330
1F
100
AcDbEntity
  8
0
  6
Continuous
 62
     7
370
     0
100
AcDbLine
 10
242.3278049027
 20
192.8613172005
 30
0.0
 11
243.6726180673
 21
193.6376613155
 31
0.0
  0
ARC
  5
10D
330
1F
100
AcDbEntity
  8
0
  6
Continuous
 62
     7
370
     0
100
AcDbCircle
 10
216.4580076623
 20
167.8177963742
 30
0.0
 40
37.51400331992574
100
AcDbArc
 50
43.4935343984
 51
43.884180323
  0
ARC
  5
10E
330
1F
100
AcDbEntity
  8
0
  6
Continuous
 62
     7
370
     0
100
AcDbCircle
 10
216.793020048
 20
166.8626158813
 30
0.0
 40
38.5200658897196
100
AcDbArc
 50
2.5637792864
 51
57.4308441809
  0
SPLINE
  5
10F
330
1F
100
AcDbEntity
  8
0
  6
Continuous
 62
     7
370
     0
100
AcDbSpline
210
0.0
220
0.0
230
1.0
 70
     8
 71
     3
 72
    16
 73
    12
 74
     0
 42
0.00000001
 43
0.00000001
 12
1.0
 22
0.0
 32
0.0
 13
1.0
 23
0.0
 33
0.0
 40
0.0
 40
0.0
 40
0.0
 40
0.0
 40
0.2502666070979152
 40
0.5003870414468611
 40
0.625397804024071
 40
0.750118336666443
 40
0.8126309605029061
 40
0.8750812198716654
 40
0.9374681530762606
 40
0.9687217402228865
 40
1.0
 40
1.0
 40
1.0
 40
1.0
 10
238.1207833405635
 20
197.0072428591893
 30
0.0
 10
238.0362094724587
 20
196.9570225354319
 30
0.0
 10
237.86711113315
 20
196.8566112200076
 30
0.0
 10
237.6761571011795
 20
196.7170573756738
 30
0.0
 10
237.5502731215018
 20
196.5907604474242
 30
0.0
 10
237.5060300311442
 20
196.4981279859727
 30
0.0
 10
237.4960587045232
 20
196.4196731602309
 30
0.0
 10
237.5066208378964
 20
196.3590850540382
 30
0.0
 10
237.5356243561451
 20
196.3103006011359
 30
0.0
 10
237.5681202372894
 20
196.273976871492
 30
0.0
 10
237.5887041308038
 20
196.2576782050571
 30
0.0
 10
237.5990001383623
 20
196.2495256564303
 30
0.0
  0
SPLINE
  5
110
330
1F
100
AcDbEntity
  8
0
  6
Continuous
 62
     7
370
     0
100
AcDbSpline
210
0.0
220
0.0
230
1.0
 70
     8
 71
     3
 72
    15
 73
    11
 74
     0
 42
0.00000001
 43
0.00000001
 12
1.0
 22
0.0
 32
0.0
 13
1.0
 23
0.0
 33
0.0
 40
0.0
 40
0.0
 40
0.0
 40
0.0
 40
0.0312914406377332
 40
0.0625559738335162
 40
0.1249665424421842
 40
0.2494283959541484
 40
0.3742714550651965
 40
0.4993601535802148
 40
0.7496086004653207
 40
1.0
 40
1.0
 40
1.0
 40
1.0
 10
237.5990001383623
 20
196.2495256564303
 30
0.0
 10
237.6098477567335
 20
196.2418038011424
 30
0.0
 10
237.6315336656324
 20
196.2263667305733
 30
0.0
 10
237.682262764527
 20
196.2010438769186
 30
0.0
 10
237.7808422696973
 20
196.1680243027303
 30
0.0
 10
237.9336337858851
 20
196.1592514744268
 30
0.0
 10
238.1050513200798
 20
196.1800834266458
 30
0.0
 10
238.3106280820343
 20
196.2448140932187
 30
0.0
 10
238.5436833777895
 20
196.3500978774877
 30
0.0
 10
238.7156352166884
 20
196.4463522673142
 30
0.0
 10
238.801635685693
 20
196.4944932044617
 30
0.0
  0
SPLINE
  5
111
330
1F
100
AcDbEntity
  8
0
  6
Continuous
 62
     7
370
     0
100
AcDbSpline
210
0.0
220
0.0
230
1.0
 70
     8
 71
     3
 72
    16
 73
    12
 74
     0
 42
0.00000001
 43
0.00000001
 12
1.0
 22
0.0
 32
0.0
 13
1.0
 23
0.0
 33
0.0
 40
0.0
 40
0.0
 40
0.0
 40
0.0
 40
0.2503496394344897
 40
0.5005495143908351
 40
0.6255888818189816
 40
0.6881323128788709
 40
0.7506868671567912
 40
0.8750305488322877
 40
0.9374399021183714
 40
0.9687083653526494
 40
1.0
 40
1.0
 40
1.0
 40
1.0
 10
238.801635685693
 20
196.4944932044617
 30
0.0
 10
238.8864067859316
 20
196.5448835655301
 30
0.0
 10
239.0558982745339
 20
196.6456341430813
 30
0.0
 10
239.247751274422
 20
196.7862927831331
 30
0.0
 10
239.3575760190639
 20
196.8988376042107
 30
0.0
 10
239.4009236309728
 20
196.9711637130205
 30
0.0
 10
239.4263865966952
 20
197.0479861851465
 30
0.0
 10
239.4265817955973
 20
197.1311287416613
 30
0.0
 10
239.3866116307252
 20
197.2003968876753
 30
0.0
 10
239.3525707547542
 20
197.2364767922159
 30
0.0
 10
239.3320987596681
 20
197.2528867260345
 30
0.0
 10
239.3218589708502
 20
197.2610947319525
 30
0.0
  0
SPLINE
  5
112
330
1F
100
AcDbEntity
  8
0
  6
Continuous
 62
     7
370
     0
100
AcDbSpline
210
0.0
220
0.0
230
1.0
 70
     8
 71
     3
 72
    15
 73
    11
 74
     0
 42
0.00000001
 43
0.00000001
 12
1.0
 22
0.0
 32
0.0
 13
1.0
 23
0.0
 33
0.0
 40
0.0
 40
0.0
 40
0.0
 40
0.0
 40
0.0312909998794804
 40
0.062553893925019
 40
0.1249573530937509
 40
0.2494428287818868
 40
0.3742794951282856
 40
0.499361431682827
 40
0.749608215773406
 40
1.0
 40
1.0
 40
1.0
 40
1.0
 10
239.3218589708502
 20
197.2610947319525
 30
0.0
 10
239.3110372585486
 20
197.2687895861446
 30
0.0
 10
239.2894035540966
 20
197.2841723829474
 30
0.0
 10
239.2386214686088
 20
197.3090901659427
 30
0.0
 10
239.1397508390946
 20
197.3407239320931
 30
0.0
 10
238.987152781662
 20
197.3469990278159
 30
0.0
 10
238.8159087334153
 20
197.3241517215462
 30
0.0
 10
238.611328791035
 20
197.2571393272003
 30
0.0
 10
238.3781798115292
 20
197.1516371805544
 30
0.0
 10
238.2065987292498
 20
197.0553835922986
 30
0.0
 10
238.1207833405635
 20
197.0072428591893
 30
0.0
  0
SPLINE
  5
113
330
1F
100
AcDbEntity
  8
0
  6
Continuous
 62
     7
370
     0
100
AcDbSpline
210
0.0
220
0.0
230
1.0
 70
     8
 71
     3
 72
    16
 73
    12
 74
     0
 42
0.00000001
 43
0.00000001
 12
1.0
 22
0.0
 32
0.0
 13
1.0
 23
0.0
 33
0.0
 40
0.0
 40
0.0
 40
0.0
 40
0.0
 40
0.1251455295635135
 40
0.2502672356213222
 40
0.3779636231445404
 40
0.5003586457970585
 40
0.6431581242061798
 40
0.785785633786216
 40
0.8927524405963405
 40
0.9463645194336513
 40
1.0
 40
1.0
 40
1.0
 40
1.0
 10
236.4168733235684
 20
197.7217000508561
 30
0.0
 10
236.3887773297362
 20
197.7045962294666
 30
0.0
 10
236.3325906906054
 20
197.6703918426808
 30
0.0
 10
236.2607918938655
 20
197.6115149900376
 30
0.0
 10
236.2024359713917
 20
197.5476192632816
 30
0.0
 10
236.1628541499927
 20
197.4741314051531
 30
0.0
 10
236.1469611775923
 20
197.3933993701898
 30
0.0
 10
236.1596060215224
 20
197.3137666936017
 30
0.0
 10
236.1968223319338
 20
197.2550890680789
 30
0.0
 10
236.2353890200427
 20
197.2173619050444
 30
0.0
 10
236.2591224822211
 20
197.2004516410885
 30
0.0
 10
236.2709918026655
 20
197.1919946641763
 30
0.0
  0
SPLINE
  5
114
330
1F
100
AcDbEntity
  8
0
  6
Continuous
 62
     7
370
     0
100
AcDbSpline
210
0.0
220
0.0
230
1.0
 70
     8
 71
     3
 72
    15
 73
    11
 74
     0
 42
0.00000001
 43
0.00000001
 12
1.0
 22
0.0
 32
0.0
 13
1.0
 23
0.0
 33
0.0
 40
0.0
 40
0.0
 40
0.0
 40
0.0
 40
0.0715134253843407
 40
0.1429748421749412
 40
0.2855214986884532
 40
0.4080905000837247
 40
0.5000667352255134
 40
0.749535943185327
 40
0.8747362323901956
 40
1.0
 40
1.0
 40
1.0
 40
1.0
 10
236.2709918026655
 20
197.1919946641763
 30
0.0
 10
236.28732744352
 20
197.1821219696607
 30
0.0
 10
236.3199868450301
 20
197.1623837606097
 30
0.0
 10
236.3986688094172
 20
197.1338103351998
 30
0.0
 10
236.5013127702524
 20
197.1153871335531
 30
0.0
 10
236.6111959925468
 20
197.1135684136557
 30
0.0
 10
236.751092520507
 20
197.1237179686259
 30
0.0
 10
236.8814397639883
 20
197.1584027781038
 30
0.0
 10
237.0044037543465
 20
197.2097565085134
 30
0.0
 10
237.0599033184796
 20
197.2404147370751
 30
0.0
 10
237.087660133539
 20
197.2557477364152
 30
0.0
  0
SPLINE
  5
115
330
1F
100
AcDbEntity
  8
0
  6
Continuous
 62
     7
370
     0
100
AcDbSpline
210
0.0
220
0.0
230
1.0
 70
     8
 71
     3
 72
    15
 73
    11
 74
     0
 42
0.00000001
 43
0.00000001
 12
1.0
 22
0.0
 32
0.0
 13
1.0
 23
0.0
 33
0.0
 40
0.0
 40
0.0
 40
0.0
 40
0.0
 40
0.1254900545901006
 40
0.2509253290261151
 40
0.3762890484356027
 40
0.5015870529781995
 40
0.7852084580458263
 40
0.8924696902402228
 40
0.9462252253689362
 40
1.0
 40
1.0
 40
1.0
 40
1.0
 10
237.087660133539
 20
197.2557477364152
 30
0.0
 10
237.1141691910699
 20
197.2718605299827
 30
0.0
 10
237.167175734137
 20
197.3040790834022
 30
0.0
 10
237.2365685944595
 20
197.3585629375563
 30
0.0
 10
237.2925597493993
 20
197.4193753208736
 30
0.0
 10
237.3469520762878
 20
197.5137099771494
 30
0.0
 10
237.3490044618195
 20
197.6188838635279
 30
0.0
 10
237.2918490431072
 20
197.6992293062435
 30
0.0
 10
237.2546779225052
 20
197.7347052202461
 30
0.0
 10
237.2319842779622
 20
197.7504694449889
 30
0.0
 10
237.2206354254983
 20
197.7583529676409
 30
0.0
  0
SPLINE
  5
116
330
1F
100
AcDbEntity
  8
0
  6
Continuous
 62
     7
370
     0
100
AcDbSpline
210
0.0
220
0.0
230
1.0
 70
     8
 71
     3
 72
    15
 73
    11
 74
     0
 42
0.00000001
 43
0.00000001
 12
1.0
 22
0.0
 32
0.0
 13
1.0
 23
0.0
 33
0.0
 40
0.0
 40
0.0
 40
0.0
 40
0.0
 40
0.0626173427386428
 40
0.1252286942408525
 40
0.2501494449114082
 40
0.3751278682770096
 40
0.5002516890628569
 40
0.7495287002126386
 40
0.8747345946215767
 40
1.0
 40
1.0
 40
1.0
 40
1.0
 10
237.2206354254983
 20
197.7583529676409
 30
0.0
 10
237.2069683432958
 20
197.7669713708525
 30
0.0
 10
237.179635486559
 20
197.7842073526656
 30
0.0
 10
237.1160468576128
 20
197.8119014523486
 30
0.0
 10
237.0275719416201
 20
197.8367424484386
 30
0.0
 10
236.9146442460948
 20
197.848021390614
 30
0.0
 10
236.7642762626871
 20
197.8466406534256
 30
0.0
 10
236.6217982600139
 20
197.8154449637512
 30
0.0
 10
236.4989931336161
 20
197.7664335841587
 30
0.0
 10
236.4442509290933
 20
197.736613590327
 30
0.0
 10
236.4168733235684
 20
197.7217000508561
 30
0.0
  0
ARC
  5
117
330
1F
100
AcDbEntity
  8
0
  6
Continuous
 62
     7
370
     0
100
AcDbCircle
 10
224.1174198876
 20
178.3451221228
 30
0.0
 40
23.36079240924845
100
AcDbArc
 50
60.1700512787
 51
61.466193983
  0
SPLINE
  5
118
330
1F
100
AcDbEntity
  8
0
  6
Continuous
 62
     7
370
     0
100
AcDbSpline
210
0.0
220
0.0
230
1.0
 70
     8
 71
     3
 72
    15
 73
    11
 74
     0
 42
0.00000001
 43
0.00000001
 12
1.0
 22
0.0
 32
0.0
 13
1.0
 23
0.0
 33
0.0
 40
0.0
 40
0.0
 40
0.0
 40
0.0
 40
0.1253687344043246
 40
0.2506537146082105
 40
0.4990061076881855
 40
0.5824744486737397
 40
0.6659284924138863
 40
0.7494593542610676
 40
0.8746717774612628
 40
0.9999999999999999
 40
0.9999999999999999
 40
0.9999999999999999
 40
0.9999999999999999
 10
235.7377199259963
 20
198.6107395326925
 30
0.0
 10
235.7660523038986
 20
198.5952487130246
 30
0.0
 10
235.8226981318925
 20
198.5642774225308
 30
0.0
 10
235.9485826296465
 20
198.5114162172697
 30
0.0
 10
236.0877281318481
 20
198.4786597737327
 30
0.0
 10
236.2177756964896
 20
198.4815617654251
 30
0.0
 10
236.2940706257631
 20
198.4914358152166
 30
0.0
 10
236.3775426397795
 20
198.5123303409795
 30
0.0
 10
236.4653702701569
 20
198.5448772415238
 30
0.0
 10
236.5223414256246
 20
198.5756862991412
 30
0.0
 10
236.5508401693301
 20
198.5910979478895
 30
0.0
  0
SPLINE
  5
119
330
1F
100
AcDbEntity
  8
0
  6
Continuous
 62
     7
370
     0
100
AcDbSpline
210
0.0
220
0.0
230
1.0
 70
     8
 71
     3
 72
    15
 73
    11
 74
     0
 42
0.00000001
 43
0.00000001
 12
1.0
 22
0.0
 32
0.0
 13
1.0
 23
0.0
 33
0.0
 40
0.0
 40
0.0
 40
0.0
 40
0.0
 40
0.1251540318599156
 40
0.2502318117948294
 40
0.375237720869918
 40
0.5001643140107042
 40
0.6246887580925312
 40
0.7495887405035494
 40
0.8622797430452331
 40
1.0
 40
1.0
 40
1.0
 40
1.0
 10
236.5508401693301
 20
198.5910979478895
 30
0.0
 10
236.5774908779966
 20
198.6075943223499
 30
0.0
 10
236.6307760579955
 20
198.6405770206132
 30
0.0
 10
236.6928389096952
 20
198.6989238012388
 30
0.0
 10
236.7315080076442
 20
198.7637028951496
 30
0.0
 10
236.7496083320629
 20
198.8317724174939
 30
0.0
 10
236.727473127076
 20
198.9008888173343
 30
0.0
 10
236.6634071544171
 20
198.9562821850228
 30
0.0
 10
236.5892666194638
 20
199.0086903423734
 30
0.0
 10
236.534774123216
 20
199.0408391870212
 30
0.0
 10
236.504804541974
 20
199.0585202895188
 30
0.0
  0
ARC
  5
11A
330
1F
100
AcDbEntity
  8
0
  6
Continuous
 62
     7
370
     0
100
AcDbCircle
 10
224.8908709103
 20
178.7941608529
 30
0.0
 40
23.35653479819429
100
AcDbArc
 50
60.1820644313
 51
61.4662722866
  0
LINE
  5
11B
330
1F
100
AcDbEntity
  8
0
  6
Continuous
 62
     7
370
     0
100
AcDbLine
 10
236.047727067
 20
199.3137192906
 30
0.0
 11
235.2763378511
 21
198.868405775
 31
0.0
  0
ARC
  5
11C
330
1F
100
AcDbEntity
  8
0
  6
Continuous
 62
     7
370
     0
100
AcDbCircle
 10
226.5382680827
 20
186.1346738112
 30
0.0
 40
14.42216452103823
100
AcDbArc
 50
77.2334173082
 51
78.6992605148
  0
SPLINE
  5
11D
330
1F
100
AcDbEntity
  8
0
  6
Continuous
 62
     7
370
     0
100
AcDbSpline
210
0.0
220
0.0
230
1.0
 70
     8
 71
     3
 72
    15
 73
    11
 74
     0
 42
0.00000001
 43
0.00000001
 12
1.0
 22
0.0
 32
0.0
 13
1.0
 23
0.0
 33
0.0
 40
0.0
 40
0.0
 40
0.0
 40
0.0
 40
0.1397214989305027
 40
0.2501771574758241
 40
0.375238625844428
 40
0.50023145062014
 40
0.6214276674151485
 40
0.7499576434759527
 40
0.8749319569283701
 40
1.0
 40
1.0
 40
1.0
 40
1.0
 10
229.7252738429043
 20
200.2002994196123
 30
0.0
 10
229.7555075963067
 20
200.1939836237504
 30
0.0
 10
229.8096423897631
 20
200.1826749284672
 30
0.0
 10
229.8975740801741
 20
200.1692022831489
 30
0.0
 10
229.9886217763513
 20
200.160443289053
 30
0.0
 10
230.0919086795197
 20
200.1590257727325
 30
0.0
 10
230.2049359307057
 20
200.1688020865119
 30
0.0
 10
230.3204147887636
 20
200.1897080798938
 30
0.0
 10
230.4352912733782
 20
200.2182282664011
 30
0.0
 10
230.5069119354762
 20
200.2421864332013
 30
0.0
 10
230.5427356902057
 20
200.2541700070204
 30
0.0
  0
SPLINE
  5
11E
330
1F
100
AcDbEntity
  8
0
  6
Continuous
 62
     7
370
     0
100
AcDbSpline
210
0.0
220
0.0
230
1.0
 70
     8
 71
     3
 72
    12
 73
     8
 74
     0
 42
0.00000001
 43
0.00000001
 12
1.0
 22
0.0
 32
0.0
 13
1.0
 23
0.0
 33
0.0
 40
0.0
 40
0.0
 40
0.0
 40
0.0
 40
0.1250178846381799
 40
0.2500201696718625
 40
0.4999844141952995
 40
0.7499868018933629
 40
1.0
 40
1.0
 40
1.0
 40
1.0
 10
230.5427356902057
 20
200.2541700070204
 30
0.0
 10
230.5707326782296
 20
200.2641544829196
 30
0.0
 10
230.6267231608417
 20
200.2841221888654
 30
0.0
 10
230.7344858797536
 20
200.326976597444
 30
0.0
 10
230.8630477694288
 20
200.3838928740626
 30
0.0
 10
231.008402846842
 20
200.4559994398346
 30
0.0
 10
231.0977868733931
 20
200.5064493308632
 30
0.0
 10
231.1424798529164
 20
200.5316748217444
 30
0.0
  0
SPLINE
  5
11F
330
1F
100
AcDbEntity
  8
0
  6
Continuous
 62
     7
370
     0
100
AcDbSpline
210
0.0
220
0.0
230
1.0
 70
     8
 71
     3
 72
    15
 73
    11
 74
     0
 42
0.00000001
 43
0.00000001
 12
1.0
 22
0.0
 32
0.0
 13
1.0
 23
0.0
 33
0.0
 40
0.0
 40
0.0
 40
0.0
 40
0.0
 40
0.1251268274281163
 40
0.2502484251834727
 40
0.5001030853491313
 40
0.6251006234200797
 40
0.7501052843047152
 40
0.874955926622918
 40
0.9374630657903266
 40
1.0
 40
1.0
 40
1.0
 40
1.0
 10
231.1424798529164
 20
200.5316748217444
 30
0.0
 10
231.1781223897197
 20
200.5526110287593
 30
0.0
 10
231.2494059736473
 20
200.5944825677609
 30
0.0
 10
231.3813716213772
 20
200.6804854931681
 30
0.0
 10
231.498386597471
 20
200.7699528148199
 30
0.0
 10
231.5771906134957
 20
200.8611515192822
 30
0.0
 10
231.6162882536004
 20
200.928900170699
 30
0.0
 10
231.6245261009601
 20
200.9827208105641
 30
0.0
 10
231.6132118382555
 20
201.0220681689089
 30
0.0
 10
231.5980820917116
 20
201.0390270274302
 30
0.0
 10
231.5905154159094
 20
201.047508477138
 30
0.0
  0
SPLINE
  5
120
330
1F
100
AcDbEntity
  8
0
  6
Continuous
 62
     7
370
     0
100
AcDbSpline
210
0.0
220
0.0
230
1.0
 70
     8
 71
     3
 72
    12
 73
     8
 74
     0
 42
0.00000001
 43
0.00000001
 12
1.0
 22
0.0
 32
0.0
 13
1.0
 23
0.0
 33
0.0
 40
0.0
 40
0.0
 40
0.0
 40
0.0
 40
0.1428151998865892
 40
0.2856721884586214
 40
0.4999151269693849
 40
0.749937838827124
 40
1.0
 40
1.0
 40
1.0
 40
1.0
 10
231.5905154159094
 20
201.047508477138
 30
0.0
 10
231.582804000226
 20
201.0537685708832
 30
0.0
 10
231.5673789124473
 20
201.0662905901192
 30
0.0
 10
231.5310647296271
 20
201.0844270529921
 30
0.0
 10
231.4812299693461
 20
201.1035164017904
 30
0.0
 10
231.4170476002582
 20
201.1228487696534
 30
0.0
 10
231.3689738767277
 20
201.1342448850943
 30
0.0
 10
231.3449351188089
 20
201.1399433923074
 30
0.0
  0
ARC
  5
121
330
1F
100
AcDbEntity
  8
0
  6
Continuous
 62
     7
370
     0
100
AcDbCircle
 10
228.1645471687
 20
187.0770957612
 30
0.0
 40
14.41799400083086
100
AcDbArc
 50
77.2566262445
 51
78.6994005667
  0
LINE
  5
122
330
1F
100
AcDbEntity
  8
0
  6
Continuous
 62
     7
370
     0
100
AcDbLine
 10
230.9898454188
 20
201.2155624676
 30
0.0
 11
229.3644181426
 21
200.2772232741
 31
0.0
  0
CIRCLE
  5
123
330
1F
100
AcDbEntity
  8
0
  6
Continuous
 62
     7
370
     0
100
AcDbCircle
 10
90.3429784736
 20
115.3396105675
 30
0.0
 40
25.10000000000002
  0
CIRCLE
  5
124
330
1F
100
AcDbEntity
  8
0
  6
Continuous
 62
     7
370
     0
100
AcDbCircle
 10
90.3429784736
 20
115.3396105675
 30
0.0
 40
25.40000000000001
  0
DIMENSION
  5
125
330
1F
100
AcDbEntity
  8
0
  6
Continuous
 62
     7
370
     0
100
AcDbDimension
  2
_D
 10
72.604240128
 20
97.1600296618
 30
0.0
 11
136.5322949466
 21
150.7396105675
 31
0.0
 70
   163
  1
<>
 71
     1
 42
-1.0
  3
SLDDIMSTYLE0
100
AcDbDiametricDimension
 15
108.0817168192
 25
133.5191914732
 35
0.0
 40
0.0
  0
LINE
  5
136
330
1F
100
AcDbEntity
  8
0
  6
Continuous
 62
     7
370
     0
100
AcDbLine
 10
182.0548649706
 20
89.9396105675
 30
0.0
 11
182.3548649706
 21
90.2396105675
 31
0.0
  0
LINE
  5
137
330
1F
100
AcDbEntity
  8
0
  6
Continuous
 62
     7
370
     0
100
AcDbLine
 10
182.3548649706
 20
140.4396105675
 30
0.0
 11
182.0548649706
 21
140.7396105675
 31
0.0
  0
LINE
  5
138
330
1F
100
AcDbEntity
  8
0
  6
Continuous
 62
     7
370
     0
100
AcDbLine
 10
182.0548649706
 20
140.7396105675
 30
0.0
 11
177.6548649706
 21
140.7396105675
 31
0.0
  0
LINE
  5
139
330
1F
100
AcDbEntity
  8
0
  6
Continuous
 62
     7
370
     0
100
AcDbLine
 10
177.6548649706
 20
89.9396105675
 30
0.0
 11
182.0548649706
 21
89.9396105675
 31
0.0
  0
LINE
  5
13A
330
1F
100
AcDbEntity
  8
0
  6
Continuous
 62
     7
370
     0
100
AcDbLine
 10
177.6548649706
 20
140.7396105675
 30
0.0
 11
177.3548649706
 21
140.4396105675
 31
0.0
  0
LINE
  5
13B
330
1F
100
AcDbEntity
  8
0
  6
Continuous
 62
     7
370
     0
100
AcDbLine
 10
177.3548649706
 20
90.2396105675
 30
0.0
 11
177.6548649706
 21
89.9396105675
 31
0.0
  0
LINE
  5
13C
330
1F
100
AcDbEntity
  8
0
  6
Continuous
 62
     7
370
     0
100
AcDbLine
 10
182.3548649706
 20
140.4396105675
 30
0.0
 11
182.3548649706
 21
90.2396105675
 31
0.0
  0
LINE
  5
13D
330
1F
100
AcDbEntity
  8
0
  6
Continuous
 62
     7
370
     0
100
AcDbLine
 10
182.0548649706
 20
89.9396105675
 30
0.0
 11
182.0548649706
 21
140.7396105675
 31
0.0
  0
LINE
  5
13E
330
1F
100
AcDbEntity
  8
0
  6
Continuous
 62
     7
370
     0
100
AcDbLine
 10
181.00421562
 20
123.7125068946
 30
0.0
 11
181.00421562
 21
122.525827636
 31
0.0
  0
LINE
  5
13F
330
1F
100
AcDbEntity
  8
0
  6
Continuous
 62
     7
370
     0
100
AcDbLine
 10
178.3548649706
 20
122.525827636
 30
0.0
 11
181.00421562
 21
122.525827636
 31
0.0
  0
LINE
  5
140
330
1F
100
AcDbEntity
  8
0
  6
Continuous
 62
     7
370
     0
100
AcDbLine
 10
178.3548649706
 20
122.525827636
 30
0.0
 11
178.3548649706
 21
122.2263404437
 31
0.0
  0
LINE
  5
141
330
1F
100
AcDbEntity
  8
0
  6
Continuous
 62
     7
370
     0
100
AcDbLine
 10
181.3548649706
 20
122.2263404437
 30
0.0
 11
178.3548649706
 21
122.2263404437
 31
0.0
  0
LINE
  5
142
330
1F
100
AcDbEntity
  8
0
  6
Continuous
 62
     7
370
     0
100
AcDbLine
 10
181.3548649706
 20
123.7125068946
 30
0.0
 11
181.3548649706
 21
122.2263404437
 31
0.0
  0
LINE
  5
143
330
1F
100
AcDbEntity
  8
0
  6
Continuous
 62
     7
370
     0
100
AcDbLine
 10
181.00421562
 20
123.7125068946
 30
0.0
 11
181.3548649706
 21
123.7125068946
 31
0.0
  0
SPLINE
  5
144
330
1F
100
AcDbEntity
  8
0
  6
Continuous
 62
     7
370
     0
100
AcDbSpline
210
0.0
220
0.0
230
1.0
 70
     8
 71
     3
 72
    14
 73
    10
 74
     0
 42
0.00000001
 43
0.00000001
 12
1.0
 22
0.0
 32
0.0
 13
1.0
 23
0.0
 33
0.0
 40
0.0
 40
0.0
 40
0.0
 40
0.0
 40
0.1249642785198784
 40
0.2499282715641357
 40
0.3720998994052874
 40
0.499925055776528
 40
0.6246427517331034
 40
0.7499738496850062
 40
1.0
 40
1.0
 40
1.0
 40
1.0
 10
178.6324623732432
 20
119.7094021505394
 30
0.0
 10
178.6781739862577
 20
119.7352278334139
 30
0.0
 10
178.7695971078605
 20
119.7868791401652
 30
0.0
 10
178.9176642809279
 20
119.8389863253998
 30
0.0
 10
179.069963126148
 20
119.8799297208252
 30
0.0
 10
179.2251907613789
 20
119.9084350533407
 30
0.0
 10
179.3829647945411
 20
119.9284797822348
 30
0.0
 10
179.5927228462322
 20
119.9470465846269
 30
0.0
 10
179.7507922102984
 20
119.9489817833778
 30
0.0
 10
179.8560825031134
 20
119.9502708228089
 30
0.0
  0
SPLINE
  5
145
330
1F
100
AcDbEntity
  8
0
  6
Continuous
 62
     7
370
     0
100
AcDbSpline
210
0.0
220
0.0
230
1.0
 70
     8
 71
     3
 72
    13
 73
     9
 74
     0
 42
0.00000001
 43
0.00000001
 12
1.0
 22
0.0
 32
0.0
 13
1.0
 23
0.0
 33
0.0
 40
0.0
 40
0.0
 40
0.0
 40
0.0
 40
0.1251948774509663
 40
0.2503112808433225
 40
0.4999074824305171
 40
0.7496464708871706
 40
0.8747928721822839
 40
1.0
 40
1.0
 40
1.0
 40
1.0
 10
178.3159039316848
 20
119.1644940785199
 30
0.0
 10
178.316790628153
 20
119.1919772482715
 30
0.0
 10
178.3185634652945
 20
119.2469263609048
 30
0.0
 10
178.3380671586646
 20
119.3552120217905
 30
0.0
 10
178.3914091267258
 20
119.4836678739463
 30
0.0
 10
178.4790994949529
 20
119.5917680299919
 30
0.0
 10
178.5634840409528
 20
119.6631915123232
 30
0.0
 10
178.6094658779811
 20
119.6939961137811
 30
0.0
 10
178.6324623732432
 20
119.7094021505394
 30
0.0
  0
SPLINE
  5
146
330
1F
100
AcDbEntity
  8
0
  6
Continuous
 62
     7
370
     0
100
AcDbSpline
210
0.0
220
0.0
230
1.0
 70
     8
 71
     3
 72
    16
 73
    12
 74
     0
 42
0.00000001
 43
0.00000001
 12
1.0
 22
0.0
 32
0.0
 13
1.0
 23
0.0
 33
0.0
 40
0.0
 40
0.0
 40
0.0
 40
0.0
 40
0.1251729595269894
 40
0.2503372774080774
 40
0.5002449954419736
 40
0.6352206015976527
 40
0.7500261309021405
 40
0.8134102944341974
 40
0.8749697478553877
 40
0.9374576207513602
 40
1.0
 40
1.0
 40
1.0
 40
1.0
 10
179.8560825031134
 20
118.3713264817281
 30
0.0
 10
179.7755045966186
 20
118.3722033093322
 30
0.0
 10
179.6143543465379
 20
118.3739569040063
 30
0.0
 10
179.293531305265
 20
118.3995601898416
 30
0.0
 10
178.9676076470026
 20
118.4567731358358
 30
0.0
 10
178.6694452376488
 20
118.5814662557225
 30
0.0
 10
178.5051308101182
 20
118.7019429120693
 30
0.0
 10
178.4080243415378
 20
118.8220933432182
 30
0.0
 10
178.3533623912034
 20
118.9293813145203
 30
0.0
 10
178.3209608437173
 20
119.0449439843738
 30
0.0
 10
178.3175900588549
 20
119.1246324671976
 30
0.0
 10
178.3159039316848
 20
119.1644940785199
 30
0.0
  0
SPLINE
  5
147
330
1F
100
AcDbEntity
  8
0
  6
Continuous
 62
     7
370
     0
100
AcDbSpline
210
0.0
220
0.0
230
1.0
 70
     8
 71
     3
 72
    18
 73
    14
 74
     0
 42
0.00000001
 43
0.00000001
 12
1.0
 22
0.0
 32
0.0
 13
1.0
 23
0.0
 33
0.0
 40
0.0
 40
0.0
 40
0.0
 40
0.0
 40
0.0624950322413483
 40
0.1249340560767728
 40
0.1865917156229146
 40
0.249853639594221
 40
0.3120654852396299
 40
0.3748805468663523
 40
0.4997120087598385
 40
0.6247329320280185
 40
0.7498001999826471
 40
0.8748958867714979
 40
1.0
 40
1.0
 40
1.0
 40
1.0
 10
181.3938260096068
 20
119.1608830924478
 30
0.0
 10
181.3919673498201
 20
119.1211045637257
 30
0.0
 10
181.388251695988
 20
119.0415831560267
 30
0.0
 10
181.3529710299843
 20
118.9269674204836
 30
0.0
 10
181.2965940429909
 20
118.8209657473574
 30
0.0
 10
181.2204555460941
 20
118.7279128202688
 30
0.0
 10
181.1306202060242
 20
118.647160321161
 30
0.0
 10
180.9985685486654
 20
118.55583746519
 30
0.0
 10
180.8117294400307
 20
118.4774668304902
 30
0.0
 10
180.5767655174027
 20
118.4231654280139
 30
0.0
 10
180.3378618590276
 20
118.3898925118005
 30
0.0
 10
180.0971536444426
 20
118.374237464389
 30
0.0
 10
179.9364413544244
 20
118.3722968310678
 30
0.0
 10
179.8560825031134
 20
118.3713264817281
 30
0.0
  0
SPLINE
  5
148
330
1F
100
AcDbEntity
  8
0
  6
Continuous
 62
     7
370
     0
100
AcDbSpline
210
0.0
220
0.0
230
1.0
 70
     8
 71
     3
 72
    16
 73
    12
 74
     0
 42
0.00000001
 43
0.00000001
 12
1.0
 22
0.0
 32
0.0
 13
1.0
 23
0.0
 33
0.0
 40
0.0
 40
0.0
 40
0.0
 40
0.0
 40
0.125168179578366
 40
0.2503286224455503
 40
0.5002403576317201
 40
0.6338071334602303
 40
0.7500155071378941
 40
0.8124974968691971
 40
0.8749673844673904
 40
0.9374604080777053
 40
1.0
 40
1.0
 40
1.0
 40
1.0
 10
179.8560825031134
 20
119.9502708228089
 30
0.0
 10
179.9365708515564
 20
119.949373503497
 30
0.0
 10
180.0975425734153
 20
119.9475789203369
 30
0.0
 10
180.4180284154191
 20
119.9221620246199
 30
0.0
 10
180.7425484142696
 20
119.864842853735
 30
0.0
 10
181.0405018797196
 20
119.7419974037721
 30
0.0
 10
181.2048030348959
 20
119.6232775423455
 30
0.0
 10
181.3019420044873
 20
119.5028451701304
 30
0.0
 10
181.3568547432922
 20
119.3961530344471
 30
0.0
 10
181.3887512153659
 20
119.2802312250377
 30
0.0
 10
181.3921339915557
 20
119.2006756801138
 30
0.0
 10
181.3938260096068
 20
119.1608830924478
 30
0.0
  0
LINE
  5
149
330
1F
100
AcDbEntity
  8
0
  6
Continuous
 62
     7
370
     0
100
AcDbLine
 10
180.1470727629
 20
115.2324680281
 30
0.0
 11
180.1470727629
 21
114.5994556162
 31
0.0
  0
SPLINE
  5
14A
330
1F
100
AcDbEntity
  8
0
  6
Continuous
 62
     7
370
     0
100
AcDbSpline
210
0.0
220
0.0
230
1.0
 70
     8
 71
     3
 72
    17
 73
    13
 74
     0
 42
0.00000001
 43
0.00000001
 12
1.0
 22
0.0
 32
0.0
 13
1.0
 23
0.0
 33
0.0
 40
0.0
 40
0.0
 40
0.0
 40
0.0
 40
0.0625867507144379
 40
0.1251607877735521
 40
0.2502054915255323
 40
0.3751630122568523
 40
0.4405101568607808
 40
0.5002773891343765
 40
0.6183058012602893
 40
0.7498302131143925
 40
0.874861890725474
 40
1.0
 40
1.0
 40
1.0
 40
1.0
 10
179.224183152464
 20
116.157650901394
 30
0.0
 10
179.255431998692
 20
116.1571862305447
 30
0.0
 10
179.3179233433659
 20
116.1562569832376
 30
0.0
 10
179.4423259087802
 20
116.144067999428
 30
0.0
 10
179.5957472772326
 20
116.1118138101956
 30
0.0
 10
179.7418075152738
 20
116.0500523279103
 30
0.0
 10
179.8479265417127
 20
115.983969561811
 30
0.0
 10
179.9433232268486
 20
115.9083912268074
 30
0.0
 10
180.0392870578031
 20
115.7840981119485
 30
0.0
 10
180.1081618686178
 20
115.6083184093125
 30
0.0
 10
180.1421819467535
 20
115.4199205103896
 30
0.0
 10
180.1454420284996
 20
115.2949699084368
 30
0.0
 10
180.1470727628536
 20
115.2324680281108
 30
0.0
  0
SPLINE
  5
14B
330
1F
100
AcDbEntity
  8
0
  6
Continuous
 62
     7
370
     0
100
AcDbSpline
210
0.0
220
0.0
230
1.0
 70
     8
 71
     3
 72
    16
 73
    12
 74
     0
 42
0.00000001
 43
0.00000001
 12
1.0
 22
0.0
 32
0.0
 13
1.0
 23
0.0
 33
0.0
 40
0.0
 40
0.0
 40
0.0
 40
0.0
 40
0.0625716166060415
 40
0.1251333442834471
 40
0.2500890908637027
 40
0.371222529760408
 40
0.5001650323831508
 40
0.7497016235417546
 40
0.8498037792774736
 40
0.9248985296235307
 40
1.0
 40
1.0
 40
1.0
 40
1.0
 10
178.4126977628536
 20
115.6926836117297
 30
0.0
 10
178.4202697570911
 20
115.7120713687186
 30
0.0
 10
178.4354125488746
 20
115.7508438186213
 30
0.0
 10
178.476291752742
 20
115.8233912303596
 30
0.0
 10
178.5382220756832
 20
115.9059910737706
 30
0.0
 10
178.6326234658935
 20
115.9883974563191
 30
0.0
 10
178.7735465052504
 20
116.0771859547918
 30
0.0
 10
178.9267963856987
 20
116.1286662911713
 30
0.0
 10
179.0663756002942
 20
116.1495586764555
 30
0.0
 10
179.1493056458134
 20
116.1568487933826
 30
0.0
 10
179.1992232391149
 20
116.157383524082
 30
0.0
 10
179.224183152464
 20
116.157650901394
 30
0.0
  0
SPLINE
  5
14C
330
1F
100
AcDbEntity
  8
0
  6
Continuous
 62
     7
370
     0
100
AcDbSpline
210
0.0
220
0.0
230
1.0
 70
     8
 71
     3
 72
    13
 73
     9
 74
     0
 42
0.00000001
 43
0.00000001
 12
1.0
 22
0.0
 32
0.0
 13
1.0
 23
0.0
 33
0.0
 40
0.0
 40
0.0
 40
0.0
 40
0.0
 40
0.2716161760927583
 40
0.5000373570164428
 40
0.6342271489842847
 40
0.7500701523405284
 40
0.8670131673702696
 40
1.0
 40
1.0
 40
1.0
 40
1.0
 10
178.3548649706458
 20
115.2117701981708
 30
0.0
 10
178.3552095541968
 20
115.2558267159119
 30
0.0
 10
178.3558439223357
 20
115.3369334637038
 30
0.0
 10
178.3626742618806
 20
115.4396465166849
 30
0.0
 10
178.3717700800079
 20
115.5167176317295
 30
0.0
 10
178.380595473796
 20
115.5755978873562
 30
0.0
 10
178.3937245958368
 20
115.6335301524537
 30
0.0
 10
178.4061083884116
 20
115.6721396354728
 30
0.0
 10
178.4126977628536
 20
115.6926836117297
 30
0.0
  0
LINE
  5
14D
330
1F
100
AcDbEntity
  8
0
  6
Continuous
 62
     7
370
     0
100
AcDbLine
 10
178.3548649706
 20
115.2117701982
 30
0.0
 11
178.3548649706
 21
114.2879632111
 31
0.0
  0
LINE
  5
14E
330
1F
100
AcDbEntity
  8
0
  6
Continuous
 62
     7
370
     0
100
AcDbLine
 10
181.3548649706
 20
114.2879632111
 30
0.0
 11
178.3548649706
 21
114.2879632111
 31
0.0
  0
LINE
  5
14F
330
1F
100
AcDbEntity
  8
0
  6
Continuous
 62
     7
370
     0
100
AcDbLine
 10
181.3548649706
 20
114.5994556162
 30
0.0
 11
181.3548649706
 21
114.2879632111
 31
0.0
  0
LINE
  5
150
330
1F
100
AcDbEntity
  8
0
  6
Continuous
 62
     7
370
     0
100
AcDbLine
 10
180.1470727629
 20
114.5994556162
 30
0.0
 11
181.3548649706
 21
114.5994556162
 31
0.0
  0
SPLINE
  5
151
330
1F
100
AcDbEntity
  8
0
  6
Continuous
 62
     7
370
     0
100
AcDbSpline
210
0.0
220
0.0
230
1.0
 70
     8
 71
     3
 72
     8
 73
     4
 74
     0
 42
0.00000001
 43
0.00000001
 12
1.0
 22
0.0
 32
0.0
 13
1.0
 23
0.0
 33
0.0
 40
0.0
 40
0.0
 40
0.0
 40
0.0
 40
1.0
 40
1.0
 40
1.0
 40
1.0
 10
181.3548649706458
 20
110.5500730679132
 30
0.0
 10
180.482097113503
 20
110.3163154919954
 30
0.0
 10
179.6093292563601
 20
110.0831888767722
 30
0.0
 10
178.7365613992172
 20
109.850785339306
 30
0.0
  0
LINE
  5
152
330
1F
100
AcDbEntity
  8
0
  6
Continuous
 62
     7
370
     0
100
AcDbLine
 10
181.3548649706
 20
110.8637135616
 30
0.0
 11
181.3548649706
 21
110.5500730679
 31
0.0
  0
SPLINE
  5
153
330
1F
100
AcDbEntity
  8
0
  6
Continuous
 62
     7
370
     0
100
AcDbSpline
210
0.0
220
0.0
230
1.0
 70
     8
 71
     3
 72
     8
 73
     4
 74
     0
 42
0.00000001
 43
0.00000001
 12
1.0
 22
0.0
 32
0.0
 13
1.0
 23
0.0
 33
0.0
 40
0.0
 40
0.0
 40
0.0
 40
0.0
 40
1.0
 40
1.0
 40
1.0
 40
1.0
 10
178.8784039316848
 20
111.5743183853906
 30
0.0
 10
179.7038909446718
 20
111.3369138498186
 30
0.0
 10
180.5293779576588
 20
111.1000138383175
 30
0.0
 10
181.3548649706458
 20
110.8637135616155
 30
0.0
  0
LINE
  5
154
330
1F
100
AcDbEntity
  8
0
  6
Continuous
 62
     7
370
     0
100
AcDbLine
 10
181.3548649706
 20
111.5743183854
 30
0.0
 11
178.8784039317
 21
111.5743183854
 31
0.0
  0
LINE
  5
155
330
1F
100
AcDbEntity
  8
0
  6
Continuous
 62
     7
370
     0
100
AcDbLine
 10
181.3548649706
 20
111.8828387429
 30
0.0
 11
181.3548649706
 21
111.5743183854
 31
0.0
  0
LINE
  5
156
330
1F
100
AcDbEntity
  8
0
  6
Continuous
 62
     7
370
     0
100
AcDbLine
 10
178.3548649706
 20
111.8828387429
 30
0.0
 11
181.3548649706
 21
111.8828387429
 31
0.0
  0
LINE
  5
157
330
1F
100
AcDbEntity
  8
0
  6
Continuous
 62
     7
370
     0
100
AcDbLine
 10
178.3548649706
 20
111.8828387429
 30
0.0
 11
178.3548649706
 21
111.4461334345
 31
0.0
  0
SPLINE
  5
158
330
1F
100
AcDbEntity
  8
0
  6
Continuous
 62
     7
370
     0
100
AcDbSpline
210
0.0
220
0.0
230
1.0
 70
     8
 71
     3
 72
     8
 73
     4
 74
     0
 42
0.00000001
 43
0.00000001
 12
1.0
 22
0.0
 32
0.0
 13
1.0
 23
0.0
 33
0.0
 40
0.0
 40
0.0
 40
0.0
 40
0.0
 40
1.0
 40
1.0
 40
1.0
 40
1.0
 10
180.4423243862302
 20
110.8433408925319
 30
0.0
 10
179.7465045810354
 20
111.0438571985138
 30
0.0
 10
179.0506847758406
 20
111.2448074368545
 30
0.0
 10
178.3548649706458
 20
111.4461334344932
 30
0.0
  0
SPLINE
  5
159
330
1F
100
AcDbEntity
  8
0
  6
Continuous
 62
     7
370
     0
100
AcDbSpline
210
0.0
220
0.0
230
1.0
 70
     8
 71
     3
 72
    12
 73
     8
 74
     0
 42
0.00000001
 43
0.00000001
 12
1.0
 22
0.0
 32
0.0
 13
1.0
 23
0.0
 33
0.0
 40
0.0
 40
0.0
 40
0.0
 40
0.0
 40
0.2499936386573782
 40
0.4999942819844623
 40
0.6249956604535687
 40
0.7499971038686543
 40
1.0
 40
1.0
 40
1.0
 40
1.0
 10
180.9232497109056
 20
110.7097947829769
 30
0.0
 10
180.8830989206001
 20
110.7206564486329
 30
0.0
 10
180.8027962149885
 20
110.7423800842823
 30
0.0
 10
180.7023767219628
 20
110.769414028239
 30
0.0
 10
180.6224265294318
 20
110.7923828604199
 30
0.0
 10
180.5424461625459
 20
110.815249233825
 30
0.0
 10
180.4823730970545
 20
110.8321042289655
 30
0.0
 10
180.4423243862302
 20
110.8433408925319
 30
0.0
  0
SPLINE
  5
15A
330
1F
100
AcDbEntity
  8
0
  6
Continuous
 62
     7
370
     0
100
AcDbSpline
210
0.0
220
0.0
230
1.0
 70
     8
 71
     3
 72
     8
 73
     4
 74
     0
 42
0.00000001
 43
0.00000001
 12
1.0
 22
0.0
 32
0.0
 13
1.0
 23
0.0
 33
0.0
 40
0.0
 40
0.0
 40
0.0
 40
0.0
 40
1.0
 40
1.0
 40
1.0
 40
1.0
 10
180.4788503602562
 20
110.5949191913082
 30
0.0
 10
180.6269834771393
 20
110.6331944450139
 30
0.0
 10
180.7751165940224
 20
110.6714864440459
 30
0.0
 10
180.9232497109056
 20
110.7097947829769
 30
0.0
  0
SPLINE
  5
15B
330
1F
100
AcDbEntity
  8
0
  6
Continuous
 62
     7
370
     0
100
AcDbSpline
210
0.0
220
0.0
230
1.0
 70
     8
 71
     3
 72
     8
 73
     4
 74
     0
 42
0.00000001
 43
0.00000001
 12
1.0
 22
0.0
 32
0.0
 13
1.0
 23
0.0
 33
0.0
 40
0.0
 40
0.0
 40
0.0
 40
0.0
 40
1.0
 40
1.0
 40
1.0
 40
1.0
 10
178.3548649706458
 20
110.0226921604881
 30
0.0
 10
179.0628601005159
 20
110.2129831348171
 30
0.0
 10
179.7708552303861
 20
110.4037422730592
 30
0.0
 10
180.4788503602562
 20
110.5949191913082
 30
0.0
  0
LINE
  5
15C
330
1F
100
AcDbEntity
  8
0
  6
Continuous
 62
     7
370
     0
100
AcDbLine
 10
178.3548649706
 20
110.0226921605
 30
0.0
 11
178.3548649706
 21
109.5468824176
 31
0.0
  0
LINE
  5
15D
330
1F
100
AcDbEntity
  8
0
  6
Continuous
 62
     7
370
     0
100
AcDbLine
 10
181.3548649706
 20
109.5468824176
 30
0.0
 11
178.3548649706
 21
109.5468824176
 31
0.0
  0
LINE
  5
15E
330
1F
100
AcDbEntity
  8
0
  6
Continuous
 62
     7
370
     0
100
AcDbLine
 10
181.3548649706
 20
109.8507853393
 30
0.0
 11
181.3548649706
 21
109.5468824176
 31
0.0
  0
LINE
  5
15F
330
1F
100
AcDbEntity
  8
0
  6
Continuous
 62
     7
370
     0
100
AcDbLine
 10
178.7365613992
 20
109.8507853393
 30
0.0
 11
181.3548649706
 21
109.8507853393
 31
0.0
  0
LINE
  5
160
330
1F
100
AcDbEntity
  8
0
  6
Continuous
 62
     7
370
     0
100
AcDbLine
 10
177.6548649706
 20
140.7396105675
 30
0.0
 11
177.6548649706
 21
89.9396105675
 31
0.0
  0
SPLINE
  5
161
330
1F
100
AcDbEntity
  8
0
  6
Continuous
 62
     7
370
     0
100
AcDbSpline
210
0.0
220
0.0
230
1.0
 70
     8
 71
     3
 72
    14
 73
    10
 74
     0
 42
0.00000001
 43
0.00000001
 12
1.0
 22
0.0
 32
0.0
 13
1.0
 23
0.0
 33
0.0
 40
0.0
 40
0.0
 40
0.0
 40
0.0
 40
0.0626209035518769
 40
0.1251971369841647
 40
0.2501776311320264
 40
0.4995004115477651
 40
0.7494942445745856
 40
0.8747342129769934
 40
1.0
 40
1.0
 40
1.0
 40
1.0
 10
178.4102626979185
 20
108.4136300442053
 30
0.0
 10
178.4228667961206
 20
108.4454556377412
 30
0.0
 10
178.4480660014922
 20
108.5090841222809
 30
0.0
 10
178.5201698895534
 20
108.6267779144608
 30
0.0
 10
178.6875675830762
 20
108.8047553920639
 30
0.0
 10
179.001040223872
 20
108.9761794141157
 30
0.0
 10
179.3451141080514
 20
109.0602679668871
 30
0.0
 10
179.626326379836
 20
109.089265455537
 30
0.0
 10
179.7677227904483
 20
109.0915402786401
 30
0.0
 10
179.8384282823341
 20
109.0926778074201
 30
0.0
  0
SPLINE
  5
162
330
1F
100
AcDbEntity
  8
0
  6
Continuous
 62
     7
370
     0
100
AcDbSpline
210
0.0
220
0.0
230
1.0
 70
     8
 71
     3
 72
    13
 73
     9
 74
     0
 42
0.00000001
 43
0.00000001
 12
1.0
 22
0.0
 32
0.0
 13
1.0
 23
0.0
 33
0.0
 40
0.0
 40
0.0
 40
0.0
 40
0.0
 40
0.2621623226486194
 40
0.5000242273424923
 40
0.6219901488738572
 40
0.75005454304432
 40
0.8623234327934889
 40
1.0
 40
1.0
 40
1.0
 40
1.0
 10
178.3548649706458
 20
107.9556928590347
 30
0.0
 10
178.3553134204979
 20
107.9960378184654
 30
0.0
 10
178.3561687523722
 20
108.0729880718912
 30
0.0
 10
178.3625992421434
 20
108.1687545729702
 30
0.0
 10
178.3715948178499
 20
108.2435502990345
 30
0.0
 10
178.3799723861505
 20
108.2989346266099
 30
0.0
 10
178.3926044783815
 20
108.3561233540747
 30
0.0
 10
178.4039908070112
 20
108.3932046731091
 30
0.0
 10
178.4102626979185
 20
108.4136300442053
 30
0.0
  0
LINE
  5
163
330
1F
100
AcDbEntity
  8
0
  6
Continuous
 62
     7
370
     0
100
AcDbLine
 10
178.3548649706
 20
107.955692859
 30
0.0
 11
178.3548649706
 21
107.1508754706
 31
0.0
  0
LINE
  5
164
330
1F
100
AcDbEntity
  8
0
  6
Continuous
 62
     7
370
     0
100
AcDbLine
 10
181.3548649706
 20
107.1508754706
 30
0.0
 11
178.3548649706
 21
107.1508754706
 31
0.0
  0
LINE
  5
165
330
1F
100
AcDbEntity
  8
0
  6
Continuous
 62
     7
370
     0
100
AcDbLine
 10
181.3548649706
 20
107.9929799441
 30
0.0
 11
181.3548649706
 21
107.1508754706
 31
0.0
  0
SPLINE
  5
166
330
1F
100
AcDbEntity
  8
0
  6
Continuous
 62
     7
370
     0
100
AcDbSpline
210
0.0
220
0.0
230
1.0
 70
     8
 71
     3
 72
    17
 73
    13
 74
     0
 42
0.00000001
 43
0.00000001
 12
1.0
 22
0.0
 32
0.0
 13
1.0
 23
0.0
 33
0.0
 40
0.0
 40
0.0
 40
0.0
 40
0.0
 40
0.0715357051320337
 40
0.143064735485807
 40
0.2860245204547989
 40
0.4289089802452734
 40
0.5716729696068827
 40
0.6786677761034713
 40
0.7855971142383397
 40
0.8927121774632336
 40
0.9463509865938889
 40
1.0
 40
1.0
 40
1.0
 40
1.0
 10
179.8384282823341
 20
109.0926778074201
 30
0.0
 10
179.8898975290751
 20
109.0920094521221
 30
0.0
 10
179.9928312201186
 20
109.0906728038884
 30
0.0
 10
180.1981508266956
 20
109.0762103547871
 30
0.0
 10
180.4527295745036
 20
109.0356244049986
 30
0.0
 10
180.7465108092095
 20
108.9404750153604
 30
0.0
 10
180.9950446446069
 20
108.8059323288805
 30
0.0
 10
181.1837873725115
 20
108.6330511034315
 30
0.0
 10
181.2922483561117
 20
108.4325045691634
 30
0.0
 10
181.3369683363821
 20
108.2512179575431
 30
0.0
 10
181.3527565205249
 20
108.1038796715007
 30
0.0
 10
181.3541621093764
 20
108.0299488638125
 30
0.0
 10
181.3548649706458
 20
107.9929799441438
 30
0.0
  0
LINE
  5
167
330
1F
100
AcDbEntity
  8
0
  6
Continuous
 62
     7
370
     0
100
AcDbLine
 10
181.00421562
 20
113.9377258771
 30
0.0
 11
181.00421562
 21
112.6950612685
 31
0.0
  0
LINE
  5
168
330
1F
100
AcDbEntity
  8
0
  6
Continuous
 62
     7
370
     0
100
AcDbLine
 10
178.3548649706
 20
112.6950612685
 30
0.0
 11
181.00421562
 21
112.6950612685
 31
0.0
  0
LINE
  5
169
330
1F
100
AcDbEntity
  8
0
  6
Continuous
 62
     7
370
     0
100
AcDbLine
 10
178.3548649706
 20
112.6950612685
 30
0.0
 11
178.3548649706
 21
112.3852738248
 31
0.0
  0
LINE
  5
16A
330
1F
100
AcDbEntity
  8
0
  6
Continuous
 62
     7
370
     0
100
AcDbLine
 10
181.3548649706
 20
112.3852738248
 30
0.0
 11
178.3548649706
 21
112.3852738248
 31
0.0
  0
LINE
  5
16B
330
1F
100
AcDbEntity
  8
0
  6
Continuous
 62
     7
370
     0
100
AcDbLine
 10
181.3548649706
 20
113.9377258771
 30
0.0
 11
181.3548649706
 21
112.3852738248
 31
0.0
  0
LINE
  5
16C
330
1F
100
AcDbEntity
  8
0
  6
Continuous
 62
     7
370
     0
100
AcDbLine
 10
181.00421562
 20
113.9377258771
 30
0.0
 11
181.3548649706
 21
113.9377258771
 31
0.0
  0
SPLINE
  5
16D
330
1F
100
AcDbEntity
  8
0
  6
Continuous
 62
     7
370
     0
100
AcDbSpline
210
0.0
220
0.0
230
1.0
 70
     8
 71
     3
 72
    18
 73
    14
 74
     0
 42
0.00000001
 43
0.00000001
 12
1.0
 22
0.0
 32
0.0
 13
1.0
 23
0.0
 33
0.0
 40
0.0
 40
0.0
 40
0.0
 40
0.0
 40
0.0625017672758701
 40
0.1249767194373948
 40
0.1874405397014911
 40
0.2499072625739301
 40
0.3213249937575778
 40
0.3927461089174684
 40
0.4997948830968786
 40
0.6143446776344226
 40
0.749838826380545
 40
0.8749099219191546
 40
1.0
 40
1.0
 40
1.0
 40
1.0
 10
181.3938260096068
 20
117.3082106685546
 30
0.0
 10
181.3920596527664
 20
117.2690205910011
 30
0.0
 10
181.3885276969049
 20
117.1906572496011
 30
0.0
 10
181.3589186225205
 20
117.0760089594744
 30
0.0
 10
181.3092502345713
 20
116.9689549720432
 30
0.0
 10
181.2395330360882
 20
116.8666259161163
 30
0.0
 10
181.1482684189838
 20
116.7748342021835
 30
0.0
 10
181.0240291684628
 20
116.6782632025418
 30
0.0
 10
180.8582813074718
 20
116.594881899747
 30
0.0
 10
180.6424421975231
 20
116.5312168413539
 30
0.0
 10
180.4095944285456
 20
116.4924214520022
 30
0.0
 10
180.16796182152
 20
116.4718742491231
 30
0.0
 10
180.0107767711954
 20
116.4700302054282
 30
0.0
 10
179.9321782823341
 20
116.4691081136165
 30
0.0
  0
SPLINE
  5
16E
330
1F
100
AcDbEntity
  8
0
  6
Continuous
 62
     7
370
     0
100
AcDbSpline
210
0.0
220
0.0
230
1.0
 70
     8
 71
     3
 72
    16
 73
    12
 74
     0
 42
0.00000001
 43
0.00000001
 12
1.0
 22
0.0
 32
0.0
 13
1.0
 23
0.0
 33
0.0
 40
0.0
 40
0.0
 40
0.0
 40
0.0
 40
0.125141562472801
 40
0.2502242604832171
 40
0.3774823235847191
 40
0.5003657507131224
 40
0.629356435458054
 40
0.7500881083544272
 40
0.8748949524102552
 40
0.9374238382137784
 40
1.0
 40
1.0
 40
1.0
 40
1.0
 10
180.3759688667497
 20
118.0616458835743
 30
0.0
 10
180.4348537617135
 20
118.0599753734952
 30
0.0
 10
180.552595853188
 20
118.0566351391167
 30
0.0
 10
180.7277110844283
 20
118.0237059170603
 30
0.0
 10
180.895755412087
 20
117.9686548337922
 30
0.0
 10
181.0557492567235
 20
117.8890737669516
 30
0.0
 10
181.1974995050034
 20
117.7841339230804
 30
0.0
 10
181.3088948067277
 20
117.6457572225617
 30
0.0
 10
181.3666566875876
 20
117.5113852822552
 30
0.0
 10
181.3903389567417
 20
117.3962340734347
 30
0.0
 10
181.3926633658612
 20
117.3375591944037
 30
0.0
 10
181.3938260096068
 20
117.3082106685546
 30
0.0
  0
SPLINE
  5
16F
330
1F
100
AcDbEntity
  8
0
  6
Continuous
 62
     7
370
     0
100
AcDbSpline
210
0.0
220
0.0
230
1.0
 70
     8
 71
     3
 72
    16
 73
    12
 74
     0
 42
0.00000001
 43
0.00000001
 12
1.0
 22
0.0
 32
0.0
 13
1.0
 23
0.0
 33
0.0
 40
0.0
 40
0.0
 40
0.0
 40
0.0
 40
0.0714849144540489
 40
0.1429337451704767
 40
0.2854116503119442
 40
0.3925655405453349
 40
0.4997322810527072
 40
0.6247304050320027
 40
0.7497831095180534
 40
0.8748562503498962
 40
1.0
 40
1.0
 40
1.0
 40
1.0
 10
179.4068130225939
 20
117.334307827485
 30
0.0
 10
179.4081781162278
 20
117.3663727881138
 30
0.0
 10
179.4109076144317
 20
117.4304865238079
 30
0.0
 10
179.4423810162072
 20
117.5551655549391
 30
0.0
 10
179.5107304751052
 20
117.6845275663931
 30
0.0
 10
179.6190161492373
 20
117.8032398176982
 30
0.0
 10
179.7373396705118
 20
117.8998765283044
 30
0.0
 10
179.8793587650497
 20
117.9767275617908
 30
0.0
 10
180.0403767684829
 20
118.0285571669549
 30
0.0
 10
180.2071866885734
 20
118.0572681475912
 30
0.0
 10
180.3196975575265
 20
118.060186363749
 30
0.0
 10
180.3759688667497
 20
118.0616458835743
 30
0.0
  0
SPLINE
  5
170
330
1F
100
AcDbEntity
  8
0
  6
Continuous
 62
     7
370
     0
100
AcDbSpline
210
0.0
220
0.0
230
1.0
 70
     8
 71
     3
 72
    13
 73
     9
 74
     0
 42
0.00000001
 43
0.00000001
 12
1.0
 22
0.0
 32
0.0
 13
1.0
 23
0.0
 33
0.0
 40
0.0
 40
0.0
 40
0.0
 40
0.0
 40
0.1252064650766518
 40
0.250347637559903
 40
0.5000234775137319
 40
0.7497435158999793
 40
0.8748273607871844
 40
1.0
 40
1.0
 40
1.0
 40
1.0
 10
179.7921620485679
 20
116.7384560562669
 30
0.0
 10
179.765201650025
 20
116.7540451637748
 30
0.0
 10
179.7112949122319
 20
116.785215249392
 30
0.0
 10
179.6132767705199
 20
116.8619831009676
 30
0.0
 10
179.5081204615012
 20
116.9784535272351
 30
0.0
 10
179.4402628325141
 20
117.1201279851588
 30
0.0
 10
179.4106566371678
 20
117.2411461213344
 30
0.0
 10
179.408094530475
 20
117.3032465807455
 30
0.0
 10
179.4068130225939
 20
117.334307827485
 30
0.0
  0
SPLINE
  5
171
330
1F
100
AcDbEntity
  8
0
  6
Continuous
 62
     7
370
     0
100
AcDbSpline
210
0.0
220
0.0
230
1.0
 70
     8
 71
     3
 72
    12
 73
     8
 74
     0
 42
0.00000001
 43
0.00000001
 12
1.0
 22
0.0
 32
0.0
 13
1.0
 23
0.0
 33
0.0
 40
0.0
 40
0.0
 40
0.0
 40
0.0
 40
0.1249974191074113
 40
0.250001643839323
 40
0.4999494407406341
 40
0.7499494651721297
 40
1.0
 40
1.0
 40
1.0
 40
1.0
 10
178.9557172433731
 20
116.8770225345692
 30
0.0
 10
178.9882897071109
 20
116.8626220418047
 30
0.0
 10
179.0534364080309
 20
116.8338202722248
 30
0.0
 10
179.1903871262473
 20
116.7939017881394
 30
0.0
 10
179.365749989406
 20
116.7620786547486
 30
0.0
 10
179.5785591210832
 20
116.7416775780216
 30
0.0
 10
179.7209562781999
 20
116.7395299691622
 30
0.0
 10
179.7921620485679
 20
116.7384560562669
 30
0.0
  0
SPLINE
  5
172
330
1F
100
AcDbEntity
  8
0
  6
Continuous
 62
     7
370
     0
100
AcDbSpline
210
0.0
220
0.0
230
1.0
 70
     8
 71
     3
 72
    12
 73
     8
 74
     0
 42
0.00000001
 43
0.00000001
 12
1.0
 22
0.0
 32
0.0
 13
1.0
 23
0.0
 33
0.0
 40
0.0
 40
0.0
 40
0.0
 40
0.0
 40
0.1251943715410444
 40
0.2503092074440488
 40
0.4995697016855025
 40
0.7495824696687634
 40
1.0
 40
1.0
 40
1.0
 40
1.0
 10
178.6275922433731
 20
117.297892608861
 30
0.0
 10
178.6285969107164
 20
117.2743399629465
 30
0.0
 10
178.6306056071406
 20
117.2272496340482
 30
0.0
 10
178.6581447621637
 20
117.1366793024319
 30
0.0
 10
178.7222579427309
 20
117.0358740138016
 30
0.0
 10
178.8304285361151
 20
116.9428275533799
 30
0.0
 10
178.9139318276697
 20
116.8989693654253
 30
0.0
 10
178.9557172433731
 20
116.8770225345692
 30
0.0
  0
SPLINE
  5
173
330
1F
100
AcDbEntity
  8
0
  6
Continuous
 62
     7
370
     0
100
AcDbSpline
210
0.0
220
0.0
230
1.0
 70
     8
 71
     3
 72
    11
 73
     7
 74
     0
 42
0.00000001
 43
0.00000001
 12
1.0
 22
0.0
 32
0.0
 13
1.0
 23
0.0
 33
0.0
 40
0.0
 40
0.0
 40
0.0
 40
0.0
 40
0.2501498668194548
 40
0.5001182101488377
 40
0.74999113706576
 40
1.0
 40
1.0
 40
1.0
 40
1.0
 10
178.7694347758406
 20
117.5866691377956
 30
0.0
 10
178.7490658045058
 20
117.567755707711
 30
0.0
 10
178.7083426427624
 20
117.5299425722416
 30
0.0
 10
178.6616437064113
 20
117.460212599245
 30
0.0
 10
178.6331725625063
 20
117.3810336801949
 30
0.0
 10
178.6294526869406
 20
117.3256113230897
 30
0.0
 10
178.6275922433731
 20
117.297892608861
 30
0.0
  0
SPLINE
  5
174
330
1F
100
AcDbEntity
  8
0
  6
Continuous
 62
     7
370
     0
100
AcDbSpline
210
0.0
220
0.0
230
1.0
 70
     8
 71
     3
 72
    11
 73
     7
 74
     0
 42
0.00000001
 43
0.00000001
 12
1.0
 22
0.0
 32
0.0
 13
1.0
 23
0.0
 33
0.0
 40
0.0
 40
0.0
 40
0.0
 40
0.0
 40
0.2501453768984927
 40
0.5002105857360005
 40
0.7501695483138507
 40
0.9999999999999999
 40
0.9999999999999999
 40
0.9999999999999999
 40
0.9999999999999999
 10
179.0951247109055
 20
117.7127675950537
 30
0.0
 10
179.0662490966258
 20
117.7069967878513
 30
0.0
 10
179.008507122293
 20
117.6954570229087
 30
0.0
 10
178.9240172822686
 20
117.6702206732443
 30
0.0
 10
178.8408779185327
 20
117.638836447177
 30
0.0
 10
178.7932450741257
 20
117.6040552598262
 30
0.0
 10
178.7694347758406
 20
117.5866691377956
 30
0.0
  0
SPLINE
  5
175
330
1F
100
AcDbEntity
  8
0
  6
Continuous
 62
     7
370
     0
100
AcDbSpline
210
0.0
220
0.0
230
1.0
 70
     8
 71
     3
 72
     8
 73
     4
 74
     0
 42
0.00000001
 43
0.00000001
 12
1.0
 22
0.0
 32
0.0
 13
1.0
 23
0.0
 33
0.0
 40
0.0
 40
0.0
 40
0.0
 40
0.0
 40
1.0
 40
1.0
 40
1.0
 40
1.0
 10
179.0561636719445
 20
118.0229060317567
 30
0.0
 10
179.0691506849315
 20
117.919591301887
 30
0.0
 10
179.0821376979185
 20
117.8162092284615
 30
0.0
 10
179.0951247109055
 20
117.7127675950537
 30
0.0
  0
SPLINE
  5
176
330
1F
100
AcDbEntity
  8
0
  6
Continuous
 62
     7
370
     0
100
AcDbSpline
210
0.0
220
0.0
230
1.0
 70
     8
 71
     3
 72
    16
 73
    12
 74
     0
 42
0.00000001
 43
0.00000001
 12
1.0
 22
0.0
 32
0.0
 13
1.0
 23
0.0
 33
0.0
 40
0.0
 40
0.0
 40
0.0
 40
0.0
 40
0.0625723509088663
 40
0.1251169806303084
 40
0.2500252679446887
 40
0.3500109261581434
 40
0.4998543840072935
 40
0.624800217705081
 40
0.7498078838122627
 40
0.8748912078062911
 40
1.0
 40
1.0
 40
1.0
 40
1.0
 10
178.3159039316848
 20
117.3361284807636
 30
0.0
 10
178.3165626875959
 20
117.3594132026809
 30
0.0
 10
178.3178799075721
 20
117.4059723307748
 30
0.0
 10
178.3305849991092
 20
117.4982995962578
 30
0.0
 10
178.363790373895
 20
117.6010467520196
 30
0.0
 10
178.432905115879
 20
117.7228874301931
 30
0.0
 10
178.5288730822506
 20
117.8267086865104
 30
0.0
 10
178.6532412310932
 20
117.9103151750413
 30
0.0
 10
178.7817130747314
 20
117.9670942924551
 30
0.0
 10
178.9172688456037
 20
118.0040889522978
 30
0.0
 10
179.009862254662
 20
118.01663324629
 30
0.0
 10
179.0561636719445
 20
118.0229060317567
 30
0.0
  0
SPLINE
  5
177
330
1F
100
AcDbEntity
  8
0
  6
Continuous
 62
     7
370
     0
100
AcDbSpline
210
0.0
220
0.0
230
1.0
 70
     8
 71
     3
 72
    17
 73
    13
 74
     0
 42
0.00000001
 43
0.00000001
 12
1.0
 22
0.0
 32
0.0
 13
1.0
 23
0.0
 33
0.0
 40
0.0
 40
0.0
 40
0.0
 40
0.0
 40
0.1251470263986586
 40
0.2502848246898056
 40
0.5000607495379534
 40
0.5715358706692544
 40
0.6429886773963305
 40
0.7500501686849583
 40
0.8131518885203778
 40
0.8750026788769604
 40
0.9374739688445926
 40
1.0
 40
1.0
 40
1.0
 40
1.0
 10
179.9321782823341
 20
116.4691081136165
 30
0.0
 10
179.846941604194
 20
116.4700105900441
 30
0.0
 10
179.6764745331069
 20
116.4718154763524
 30
0.0
 10
179.3371777763553
 20
116.4977877400952
 30
0.0
 10
179.0347902974835
 20
116.5515991665972
 30
0.0
 10
178.7861324351313
 20
116.6518088603763
 30
0.0
 10
178.6393665778723
 20
116.7388626314255
 30
0.0
 10
178.5127444513483
 20
116.8460998763092
 30
0.0
 10
178.4153537722078
 20
116.971295240594
 30
0.0
 10
178.3577816049451
 20
117.0856711072968
 30
0.0
 10
178.3219364957561
 20
117.2086176090348
 30
0.0
 10
178.3179153733772
 20
117.2936124493388
 30
0.0
 10
178.3159039316848
 20
117.3361284807636
 30
0.0
  0
SPLINE
  5
178
330
1F
100
AcDbEntity
  8
0
  6
Continuous
 62
     7
370
     0
100
AcDbSpline
210
0.0
220
0.0
230
1.0
 70
     8
 71
     3
 72
    16
 73
    12
 74
     0
 42
0.00000001
 43
0.00000001
 12
1.0
 22
0.0
 32
0.0
 13
1.0
 23
0.0
 33
0.0
 40
0.0
 40
0.0
 40
0.0
 40
0.0
 40
0.0625647985474463
 40
0.1251035349199303
 40
0.2498538211251495
 40
0.3714414588612218
 40
0.4997975618923305
 40
0.6202135167839378
 40
0.7497910752833445
 40
0.8748595856835114
 40
1.0
 40
1.0
 40
1.0
 40
1.0
 10
179.3678519836328
 20
121.1026983930557
 30
0.0
 10
179.3689608902814
 20
121.1300696766605
 30
0.0
 10
179.3711782416493
 20
121.1848008420085
 30
0.0
 10
179.3940166753293
 20
121.2921380864013
 30
0.0
 10
179.451550932339
 20
121.4167678154254
 30
0.0
 10
179.5571241810856
 20
121.545478882312
 30
0.0
 10
179.6855791131749
 20
121.6495473682499
 30
0.0
 10
179.8352936357165
 20
121.7292552680206
 30
0.0
 10
179.9959562863971
 20
121.7806805994867
 30
0.0
 10
180.1647185155665
 20
121.8085110157813
 30
0.0
 10
180.2771322237975
 20
121.8114110937502
 30
0.0
 10
180.3333552303861
 20
121.8128615494404
 30
0.0
  0
SPLINE
  5
179
330
1F
100
AcDbEntity
  8
0
  6
Continuous
 62
     7
370
     0
100
AcDbSpline
210
0.0
220
0.0
230
1.0
 70
     8
 71
     3
 72
    11
 73
     7
 74
     0
 42
0.00000001
 43
0.00000001
 12
1.0
 22
0.0
 32
0.0
 13
1.0
 23
0.0
 33
0.0
 40
0.0
 40
0.0
 40
0.0
 40
0.0
 40
0.2500771941306477
 40
0.5000175858753042
 40
0.749938238182302
 40
1.0
 40
1.0
 40
1.0
 40
1.0
 10
179.4853438667497
 20
120.6690291674949
 30
0.0
 10
179.467685185803
 20
120.7027615223602
 30
0.0
 10
179.4323774839256
 20
120.770207779122
 30
0.0
 10
179.3951346397556
 20
120.8779947157886
 30
0.0
 10
179.3720302716242
 20
120.9894738939872
 30
0.0
 10
179.3692450083239
 20
121.0649497928717
 30
0.0
 10
179.3678519836328
 20
121.1026983930557
 30
0.0
  0
SPLINE
  5
17A
330
1F
100
AcDbEntity
  8
0
  6
Continuous
 62
     7
370
     0
100
AcDbSpline
210
0.0
220
0.0
230
1.0
 70
     8
 71
     3
 72
     8
 73
     4
 74
     0
 42
0.00000001
 43
0.00000001
 12
1.0
 22
0.0
 32
0.0
 13
1.0
 23
0.0
 33
0.0
 40
0.0
 40
0.0
 40
0.0
 40
0.0
 40
1.0
 40
1.0
 40
1.0
 40
1.0
 10
178.7444753602562
 20
120.7790912247807
 30
0.0
 10
178.9914315290874
 20
120.7424215752738
 30
0.0
 10
179.2383876979186
 20
120.7057341026347
 30
0.0
 10
179.4853438667497
 20
120.6690291674949
 30
0.0
  0
LINE
  5
17B
330
1F
100
AcDbEntity
  8
0
  6
Continuous
 62
     7
370
     0
100
AcDbLine
 10
178.7444753603
 20
121.6997697786
 30
0.0
 11
178.7444753603
 21
120.7790912248
 31
0.0
  0
LINE
  5
17C
330
1F
100
AcDbEntity
  8
0
  6
Continuous
 62
     7
370
     0
100
AcDbLine
 10
178.3938260096
 20
121.6997697786
 30
0.0
 11
178.7444753603
 21
121.6997697786
 31
0.0
  0
LINE
  5
17D
330
1F
100
AcDbEntity
  8
0
  6
Continuous
 62
     7
370
     0
100
AcDbLine
 10
178.3938260096
 20
121.6997697786
 30
0.0
 11
178.3938260096
 21
120.5237063651
 31
0.0
  0
SPLINE
  5
17E
330
1F
100
AcDbEntity
  8
0
  6
Continuous
 62
     7
370
     0
100
AcDbSpline
210
0.0
220
0.0
230
1.0
 70
     8
 71
     3
 72
     8
 73
     4
 74
     0
 42
0.00000001
 43
0.00000001
 12
1.0
 22
0.0
 32
0.0
 13
1.0
 23
0.0
 33
0.0
 40
0.0
 40
0.0
 40
0.0
 40
0.0
 40
1.0
 40
1.0
 40
1.0
 40
1.0
 10
179.9309607498666
 20
120.2946444945297
 30
0.0
 10
179.4185825031134
 20
120.3710694803817
 30
0.0
 10
178.9062042563601
 20
120.4474245151203
 30
0.0
 10
178.3938260096068
 20
120.5237063650563
 30
0.0
  0
SPLINE
  5
17F
330
1F
100
AcDbEntity
  8
0
  6
Continuous
 62
     7
370
     0
100
AcDbSpline
210
0.0
220
0.0
230
1.0
 70
     8
 71
     3
 72
     8
 73
     4
 74
     0
 42
0.00000001
 43
0.00000001
 12
1.0
 22
0.0
 32
0.0
 13
1.0
 23
0.0
 33
0.0
 40
0.0
 40
0.0
 40
0.0
 40
0.0
 40
1.0
 40
1.0
 40
1.0
 40
1.0
 10
179.9754006849315
 20
120.5999637005935
 30
0.0
 10
179.9605873732432
 20
120.4983200985619
 30
0.0
 10
179.9457740615549
 20
120.3965444756656
 30
0.0
 10
179.9309607498666
 20
120.2946444945297
 30
0.0
  0
SPLINE
  5
180
330
1F
100
AcDbEntity
  8
0
  6
Continuous
 62
     7
370
     0
100
AcDbSpline
210
0.0
220
0.0
230
1.0
 70
     8
 71
     3
 72
    13
 73
     9
 74
     0
 42
0.00000001
 43
0.00000001
 12
1.0
 22
0.0
 32
0.0
 13
1.0
 23
0.0
 33
0.0
 40
0.0
 40
0.0
 40
0.0
 40
0.0
 40
0.1251847097082125
 40
0.2502624997043217
 40
0.4999265329858778
 40
0.7496170513301588
 40
0.8747749619545566
 40
1.0
 40
1.0
 40
1.0
 40
1.0
 10
179.6795402953211
 20
121.0178815282439
 30
0.0
 10
179.6805591177525
 20
120.9955541098703
 30
0.0
 10
179.6825958924434
 20
120.9509183428733
 30
0.0
 10
179.7056541716089
 20
120.8641170461402
 30
0.0
 10
179.759606622595
 20
120.764086943231
 30
0.0
 10
179.8396654190606
 20
120.6827148524996
 30
0.0
 10
179.9144811123357
 20
120.6310054569851
 30
0.0
 10
179.9550905316179
 20
120.6103128019509
 30
0.0
 10
179.9754006849315
 20
120.5999637005935
 30
0.0
  0
SPLINE
  5
181
330
1F
100
AcDbEntity
  8
0
  6
Continuous
 62
     7
370
     0
100
AcDbSpline
210
0.0
220
0.0
230
1.0
 70
     8
 71
     3
 72
    15
 73
    11
 74
     0
 42
0.00000001
 43
0.00000001
 12
1.0
 22
0.0
 32
0.0
 13
1.0
 23
0.0
 33
0.0
 40
0.0
 40
0.0
 40
0.0
 40
0.0
 40
0.1253495801705164
 40
0.2506599194264303
 40
0.3759066795964748
 40
0.5010417308309494
 40
0.7496862051623804
 40
0.8746835149766058
 40
0.9373192359432208
 40
0.9999999999999999
 40
0.9999999999999999
 40
0.9999999999999999
 40
0.9999999999999999
 10
180.3504006849315
 20
121.51098538861
 30
0.0
 10
180.3110898350848
 20
121.5099412535743
 30
0.0
 10
180.2324804417245
 20
121.5078533103712
 30
0.0
 10
180.1154486809642
 20
121.4912772806069
 30
0.0
 10
180.0023356565897
 20
121.4574367285839
 30
0.0
 10
179.8620296541586
 20
121.3890177633531
 30
0.0
 10
179.7470105679191
 20
121.2759089015671
 30
0.0
 10
179.6955523629692
 20
121.1508633593958
 30
0.0
 10
179.6817508802569
 20
121.0753444668228
 30
0.0
 10
179.6802773335143
 20
121.0370404303698
 30
0.0
 10
179.6795402953211
 20
121.0178815282439
 30
0.0
  0
SPLINE
  5
182
330
1F
100
AcDbEntity
  8
0
  6
Continuous
 62
     7
370
     0
100
AcDbSpline
210
0.0
220
0.0
230
1.0
 70
     8
 71
     3
 72
    16
 73
    12
 74
     0
 42
0.00000001
 43
0.00000001
 12
1.0
 22
0.0
 32
0.0
 13
1.0
 23
0.0
 33
0.0
 40
0.0
 40
0.0
 40
0.0
 40
0.0
 40
0.0625568803557648
 40
0.1250886456959724
 40
0.249823695431122
 40
0.3746883977337547
 40
0.4996668591645541
 40
0.6247035305831706
 40
0.7497357800776746
 40
0.8748599883283997
 40
1.0
 40
1.0
 40
1.0
 40
1.0
 10
181.0821376979185
 20
121.0101675817887
 30
0.0
 10
181.08133069987
 20
121.0303880510358
 30
0.0
 10
181.0797170277622
 20
121.0708208715198
 30
0.0
 10
181.0610913075505
 20
121.1498013869033
 30
0.0
 10
181.0144324358346
 20
121.2414375146312
 30
0.0
 10
180.9304408656672
 20
121.3315115118597
 30
0.0
 10
180.8313309221589
 20
121.4055148400256
 30
0.0
 10
180.7179105842106
 20
121.4566457217678
 30
0.0
 10
180.5982679325602
 20
121.4906130492726
 30
0.0
 10
180.4747858693148
 20
121.5078421980756
 30
0.0
 10
180.3918641584769
 20
121.5099376143255
 30
0.0
 10
180.3504006849315
 20
121.51098538861
 30
0.0
  0
SPLINE
  5
183
330
1F
100
AcDbEntity
  8
0
  6
Continuous
 62
     7
370
     0
100
AcDbSpline
210
0.0
220
0.0
230
1.0
 70
     8
 71
     3
 72
    16
 73
    12
 74
     0
 42
0.00000001
 43
0.00000001
 12
1.0
 22
0.0
 32
0.0
 13
1.0
 23
0.0
 33
0.0
 40
0.0
 40
0.0
 40
0.0
 40
0.0
 40
0.1379233981945615
 40
0.2502472527041422
 40
0.3818701388625571
 40
0.5003541146047574
 40
0.6430936768240806
 40
0.750209728083991
 40
0.8749103985108527
 40
0.9374462236058034
 40
1.0
 40
1.0
 40
1.0
 40
1.0
 10
180.497722113503
 20
120.5618411763777
 30
0.0
 10
180.5348239097163
 20
120.5671208374338
 30
0.0
 10
180.6021411502594
 20
120.5767002176679
 30
0.0
 10
180.7032728969435
 20
120.6001438566869
 30
0.0
 10
180.7961375287888
 20
120.6330161550137
 30
0.0
 10
180.8911295060014
 20
120.6815327502904
 30
0.0
 10
180.9689642841435
 20
120.7447001704772
 30
0.0
 10
181.0319457385865
 20
120.8234659528738
 30
0.0
 10
181.0659595634008
 20
120.8953393364789
 30
0.0
 10
181.079953296418
 20
120.9604383693385
 30
0.0
 10
181.0814094944266
 20
120.993589591822
 30
0.0
 10
181.0821376979185
 20
121.0101675817887
 30
0.0
  0
SPLINE
  5
184
330
1F
100
AcDbEntity
  8
0
  6
Continuous
 62
     7
370
     0
100
AcDbSpline
210
0.0
220
0.0
230
1.0
 70
     8
 71
     3
 72
     8
 73
     4
 74
     0
 42
0.00000001
 43
0.00000001
 12
1.0
 22
0.0
 32
0.0
 13
1.0
 23
0.0
 33
0.0
 40
0.0
 40
0.0
 40
0.0
 40
0.0
 40
1.0
 40
1.0
 40
1.0
 40
1.0
 10
180.536683152464
 20
120.256426187372
 30
0.0
 10
180.523696139477
 20
120.3583571377785
 30
0.0
 10
180.51070912649
 20
120.4601646891233
 30
0.0
 10
180.497722113503
 20
120.5618411763777
 30
0.0
  0
SPLINE
  5
185
330
1F
100
AcDbEntity
  8
0
  6
Continuous
 62
     7
370
     0
100
AcDbSpline
210
0.0
220
0.0
230
1.0
 70
     8
 71
     3
 72
    15
 73
    11
 74
     0
 42
0.00000001
 43
0.00000001
 12
1.0
 22
0.0
 32
0.0
 13
1.0
 23
0.0
 33
0.0
 40
0.0
 40
0.0
 40
0.0
 40
0.0
 40
0.0626601510107118
 40
0.1252967808133424
 40
0.2503298908547895
 40
0.499131164955675
 40
0.621599956416201
 40
0.7494646694160495
 40
0.8747197951605626
 40
0.9999999999999999
 40
0.9999999999999999
 40
0.9999999999999999
 40
0.9999999999999999
 10
181.3938260096068
 20
121.0131345494586
 30
0.0
 10
181.3930425046852
 20
120.9870890788187
 30
0.0
 10
181.391475788952
 20
120.9350079144214
 30
0.0
 10
181.3756033301817
 20
120.8317886238908
 30
0.0
 10
181.3160947111666
 20
120.6579203774253
 30
0.0
 10
181.1782446055935
 20
120.490764518849
 30
0.0
 10
181.0014093345918
 20
120.3732514843481
 30
0.0
 10
180.852960269023
 20
120.312180219217
 30
0.0
 10
180.696215028447
 20
120.2724709320864
 30
0.0
 10
180.5898639931098
 20
120.2617747925119
 30
0.0
 10
180.536683152464
 20
120.256426187372
 30
0.0
  0
SPLINE
  5
186
330
1F
100
AcDbEntity
  8
0
  6
Continuous
 62
     7
370
     0
100
AcDbSpline
210
0.0
220
0.0
230
1.0
 70
     8
 71
     3
 72
    16
 73
    12
 74
     0
 42
0.00000001
 43
0.00000001
 12
1.0
 22
0.0
 32
0.0
 13
1.0
 23
0.0
 33
0.0
 40
0.0
 40
0.0
 40
0.0
 40
0.0
 40
0.0626482196101815
 40
0.1252863497981882
 40
0.250488334093547
 40
0.4999565017260333
 40
0.6664476492180204
 40
0.7498743130154343
 40
0.8747603764964857
 40
0.9373645182863889
 40
1.0
 40
1.0
 40
1.0
 40
1.0
 10
180.3333552303861
 20
121.8128615494404
 30
0.0
 10
180.3645931342631
 20
121.8122545198568
 30
0.0
 10
180.4270639111895
 20
121.8110405584509
 30
0.0
 10
180.5516188960337
 20
121.8007668652288
 30
0.0
 10
180.7664077147792
 20
121.7611811342787
 30
0.0
 10
181.0181908819922
 20
121.6552457212286
 30
0.0
 10
181.2120939471745
 20
121.4981646396084
 30
0.0
 10
181.3197228079979
 20
121.3485707963841
 30
0.0
 10
181.3693248583282
 20
121.2244097520956
 30
0.0
 10
181.3910449828275
 20
121.1044917393072
 30
0.0
 10
181.3928988460437
 20
121.0435920259165
 30
0.0
 10
181.3938260096068
 20
121.0131345494586
 30
0.0
  0
LINE
  5
187
330
1F
100
AcDbEntity
  8
0
  6
Continuous
 62
     7
370
     0
100
AcDbLine
 10
178.3548649706
 20
124.7821778731
 30
0.0
 11
180.2567179869
 21
124.7821778731
 31
0.0
  0
LINE
  5
188
330
1F
100
AcDbEntity
  8
0
  6
Continuous
 62
     7
370
     0
100
AcDbLine
 10
180.2567179869
 20
124.7821778731
 30
0.0
 11
180.2567179869
 21
124.4593781753
 31
0.0
  0
SPLINE
  5
189
330
1F
100
AcDbEntity
  8
0
  6
Continuous
 62
     7
370
     0
100
AcDbSpline
210
0.0
220
0.0
230
1.0
 70
     8
 71
     3
 72
     8
 73
     4
 74
     0
 42
0.00000001
 43
0.00000001
 12
1.0
 22
0.0
 32
0.0
 13
1.0
 23
0.0
 33
0.0
 40
0.0
 40
0.0
 40
0.0
 40
0.0
 40
1.0
 40
1.0
 40
1.0
 40
1.0
 10
180.2567179869127
 20
124.4593781752805
 30
0.0
 10
180.6227669814904
 20
124.6092206325143
 30
0.0
 10
180.9888159760681
 20
124.7585165401121
 30
0.0
 10
181.3548649706458
 20
124.9072390583342
 30
0.0
  0
SPLINE
  5
18A
330
1F
100
AcDbEntity
  8
0
  6
Continuous
 62
     7
370
     0
100
AcDbSpline
210
0.0
220
0.0
230
1.0
 70
     8
 71
     3
 72
     8
 73
     4
 74
     0
 42
0.00000001
 43
0.00000001
 12
1.0
 22
0.0
 32
0.0
 13
1.0
 23
0.0
 33
0.0
 40
0.0
 40
0.0
 40
0.0
 40
0.0
 40
1.0
 40
1.0
 40
1.0
 40
1.0
 10
181.3548649706458
 20
124.9072390583342
 30
0.0
 10
180.9888159760681
 20
125.0559615765562
 30
0.0
 10
180.6227669814904
 20
125.2041107047615
 30
0.0
 10
180.2567179869127
 20
125.351659809373
 30
0.0
  0
LINE
  5
18B
330
1F
100
AcDbEntity
  8
0
  6
Continuous
 62
     7
370
     0
100
AcDbLine
 10
180.2567179869
 20
125.3516598094
 30
0.0
 11
180.2567179869
 21
125.0320305298
 31
0.0
  0
LINE
  5
18C
330
1F
100
AcDbEntity
  8
0
  6
Continuous
 62
     7
370
     0
100
AcDbLine
 10
180.2567179869
 20
125.0320305298
 30
0.0
 11
178.3548649706
 21
125.0320305298
 31
0.0
  0
LINE
  5
18D
330
1F
100
AcDbEntity
  8
0
  6
Continuous
 62
     7
370
     0
100
AcDbLine
 10
178.3548649706
 20
125.0320305298
 30
0.0
 11
178.3548649706
 21
124.7821778731
 31
0.0
  0
LINE
  5
18E
330
1F
100
AcDbEntity
  8
0
  6
Continuous
 62
     7
370
     0
100
AcDbLine
 10
177.3548649706
 20
90.2396105675
 30
0.0
 11
177.3548649706
 21
140.4396105675
 31
0.0
  0
LINE
  5
18F
330
1F
100
AcDbEntity
  8
0
  6
Continuous
 62
     7
370
     0
100
AcDbLine
 10
179.7964234122
 20
115.2519484039
 30
0.0
 11
179.7964234122
 21
114.5994556162
 31
0.0
  0
SPLINE
  5
190
330
1F
100
AcDbEntity
  8
0
  6
Continuous
 62
     7
370
     0
100
AcDbSpline
210
0.0
220
0.0
230
1.0
 70
     8
 71
     3
 72
    15
 73
    11
 74
     0
 42
0.00000001
 43
0.00000001
 12
1.0
 22
0.0
 32
0.0
 13
1.0
 23
0.0
 33
0.0
 40
0.0
 40
0.0
 40
0.0
 40
0.0
 40
0.1253687344043246
 40
0.2506537146082105
 40
0.4990061076881855
 40
0.5824744486737397
 40
0.6659284924138863
 40
0.7494593542610676
 40
0.8746717774612628
 40
0.9999999999999999
 40
0.9999999999999999
 40
0.9999999999999999
 40
0.9999999999999999
 10
179.7964234122043
 20
115.2519484038807
 30
0.0
 10
179.7954454614585
 20
115.2910384862186
 30
0.0
 10
179.7934902132997
 20
115.3691925362606
 30
0.0
 10
179.7686689116325
 20
115.5223987986097
 30
0.0
 10
179.7089434905835
 20
115.6594548339174
 30
0.0
 10
179.6121038810144
 20
115.7465302540179
 30
0.0
 10
179.5453626685348
 20
115.7876863652572
 30
0.0
 10
179.460142689716
 20
115.820513640739
 30
0.0
 10
179.3577461988436
 20
115.8423241758974
 30
0.0
 10
179.2796739883999
 20
115.8448213461802
 30
0.0
 10
179.2406198407757
 20
115.8460705084149
 30
0.0
  0
SPLINE
  5
191
330
1F
100
AcDbEntity
  8
0
  6
Continuous
 62
     7
370
     0
100
AcDbSpline
210
0.0
220
0.0
230
1.0
 70
     8
 71
     3
 72
    15
 73
    11
 74
     0
 42
0.00000001
 43
0.00000001
 12
1.0
 22
0.0
 32
0.0
 13
1.0
 23
0.0
 33
0.0
 40
0.0
 40
0.0
 40
0.0
 40
0.0
 40
0.1251540318599156
 40
0.2502318117948294
 40
0.375237720869918
 40
0.5001643140107042
 40
0.6246887580925312
 40
0.7495887405035494
 40
0.8622797430452331
 40
1.0
 40
1.0
 40
1.0
 40
1.0
 10
179.2406198407757
 20
115.8460705084149
 30
0.0
 10
179.2015956501622
 20
115.8447361114444
 30
0.0
 10
179.1235710449943
 20
115.8420681305044
 30
0.0
 10
179.0087487098055
 20
115.8150159219089
 30
0.0
 10
178.9029764826856
 20
115.7639300575532
 30
0.0
 10
178.8078895795349
 20
115.6944408786788
 30
0.0
 10
178.7401104408804
 20
115.5953578329259
 30
0.0
 10
178.7184377107551
 20
115.4830821353797
 30
0.0
 10
178.7070968733126
 20
115.3668907478848
 30
0.0
 10
178.7060758563967
 20
115.2888057037275
 30
0.0
 10
178.7055143212952
 20
115.245860780375
 30
0.0
  0
LINE
  5
192
330
1F
100
AcDbEntity
  8
0
  6
Continuous
 62
     7
370
     0
100
AcDbLine
 10
178.7055143213
 20
115.2458607804
 30
0.0
 11
178.7055143213
 21
114.5994556162
 31
0.0
  0
LINE
  5
193
330
1F
100
AcDbEntity
  8
0
  6
Continuous
 62
     7
370
     0
100
AcDbLine
 10
178.7055143213
 20
114.5994556162
 30
0.0
 11
179.7964234122
 21
114.5994556162
 31
0.0
  0
SPLINE
  5
194
330
1F
100
AcDbEntity
  8
0
  6
Continuous
 62
     7
370
     0
100
AcDbSpline
210
0.0
220
0.0
230
1.0
 70
     8
 71
     3
 72
    16
 73
    12
 74
     0
 42
0.00000001
 43
0.00000001
 12
1.0
 22
0.0
 32
0.0
 13
1.0
 23
0.0
 33
0.0
 40
0.0
 40
0.0
 40
0.0
 40
0.0
 40
0.1251455295635135
 40
0.2502672356213222
 40
0.3779636231445404
 40
0.5003586457970585
 40
0.6431581242061798
 40
0.785785633786216
 40
0.8927524405963405
 40
0.9463645194336513
 40
1.0
 40
1.0
 40
1.0
 40
1.0
 10
180.3644023083082
 20
116.7803952457628
 30
0.0
 10
180.4051611818625
 20
116.7814203837914
 30
0.0
 10
180.4866711698507
 20
116.7834704646966
 30
0.0
 10
180.6084032951103
 20
116.8036637578444
 30
0.0
 10
180.7258969875402
 20
116.8386297132671
 30
0.0
 10
180.8403895101287
 20
116.8971450872098
 30
0.0
 10
180.9453424195567
 20
116.9796219395227
 30
0.0
 10
181.0272982436007
 20
117.0794602733467
 30
0.0
 10
181.0663527693007
 20
117.1711466099721
 30
0.0
 10
181.080237694579
 20
117.2395730686298
 30
0.0
 10
181.0815042713485
 20
117.274403829494
 30
0.0
 10
181.0821376979185
 20
117.2918230100127
 30
0.0
  0
SPLINE
  5
195
330
1F
100
AcDbEntity
  8
0
  6
Continuous
 62
     7
370
     0
100
AcDbSpline
210
0.0
220
0.0
230
1.0
 70
     8
 71
     3
 72
    15
 73
    11
 74
     0
 42
0.00000001
 43
0.00000001
 12
1.0
 22
0.0
 32
0.0
 13
1.0
 23
0.0
 33
0.0
 40
0.0
 40
0.0
 40
0.0
 40
0.0
 40
0.0715134253843407
 40
0.1429748421749412
 40
0.2855214986884532
 40
0.4080905000837247
 40
0.5000667352255134
 40
0.749535943185327
 40
0.8747362323901956
 40
1.0
 40
1.0
 40
1.0
 40
1.0
 10
181.0821376979185
 20
117.2918230100127
 30
0.0
 10
181.0809713856797
 20
117.3137587826203
 30
0.0
 10
181.0786396094099
 20
117.3576143749051
 30
0.0
 10
181.0511984065953
 20
117.4414462732408
 30
0.0
 10
180.9937491761792
 20
117.5291575243335
 30
0.0
 10
180.9117828469137
 20
117.6025895383141
 30
0.0
 10
180.7932325571045
 20
117.6818828156751
 30
0.0
 10
180.6542903202974
 20
117.7272794184172
 30
0.0
 10
180.5023531482627
 20
117.7492395892306
 30
0.0
 10
180.4254086557446
 20
117.7507833330154
 30
0.0
 10
180.3869266589575
 20
117.7515554005335
 30
0.0
  0
SPLINE
  5
196
330
1F
100
AcDbEntity
  8
0
  6
Continuous
 62
     7
370
     0
100
AcDbSpline
210
0.0
220
0.0
230
1.0
 70
     8
 71
     3
 72
    15
 73
    11
 74
     0
 42
0.00000001
 43
0.00000001
 12
1.0
 22
0.0
 32
0.0
 13
1.0
 23
0.0
 33
0.0
 40
0.0
 40
0.0
 40
0.0
 40
0.0
 40
0.1254900545901006
 40
0.2509253290261151
 40
0.3762890484356027
 40
0.5015870529781995
 40
0.7852084580458263
 40
0.8924696902402228
 40
0.9462252253689362
 40
1.0
 40
1.0
 40
1.0
 40
1.0
 10
180.3869266589575
 20
117.7515554005335
 30
0.0
 10
180.3485321264729
 20
117.7506503367349
 30
0.0
 10
180.271759821863
 20
117.748840604225
 30
0.0
 10
180.157490985326
 20
117.732708091888
 30
0.0
 10
180.0464166274623
 20
117.7008171847129
 30
0.0
 10
179.8989440231037
 20
117.6302669467292
 30
0.0
 10
179.7791195487404
 20
117.5133449838201
 30
0.0
 10
179.7316553332768
 20
117.3850508000504
 30
0.0
 10
179.7196102022765
 20
117.3204377661662
 30
0.0
 10
179.7188710010333
 20
117.2876049050305
 30
0.0
 10
179.7185013342822
 20
117.2711855372076
 30
0.0
  0
SPLINE
  5
197
330
1F
100
AcDbEntity
  8
0
  6
Continuous
 62
     7
370
     0
100
AcDbSpline
210
0.0
220
0.0
230
1.0
 70
     8
 71
     3
 72
    15
 73
    11
 74
     0
 42
0.00000001
 43
0.00000001
 12
1.0
 22
0.0
 32
0.0
 13
1.0
 23
0.0
 33
0.0
 40
0.0
 40
0.0
 40
0.0
 40
0.0
 40
0.0626173427386428
 40
0.1252286942408525
 40
0.2501494449114082
 40
0.3751278682770096
 40
0.5002516890628569
 40
0.7495287002126386
 40
0.8747345946215767
 40
1.0
 40
1.0
 40
1.0
 40
1.0
 10
179.7185013342822
 20
117.2711855372076
 30
0.0
 10
179.719030582479
 20
117.2523866123955
 30
0.0
 10
179.7200890282342
 20
117.2147905614552
 30
0.0
 10
179.7364850991026
 20
117.1412587308551
 30
0.0
 10
179.7746713980823
 20
117.0543226037082
 30
0.0
 10
179.8464837903907
 20
116.9664311174371
 30
0.0
 10
179.9606549421093
 20
116.8679498276739
 30
0.0
 10
180.1030462139906
 20
116.8088467758349
 30
0.0
 10
180.2513663843559
 20
116.7834942709195
 30
0.0
 10
180.326717699268
 20
116.7814284177612
 30
0.0
 10
180.3644023083082
 20
116.7803952457628
 30
0.0
  0
SPLINE
  5
198
330
1F
100
AcDbEntity
  8
0
  6
Continuous
 62
     7
370
     0
100
AcDbSpline
210
0.0
220
0.0
230
1.0
 70
     8
 71
     3
 72
    16
 73
    12
 74
     0
 42
0.00000001
 43
0.00000001
 12
1.0
 22
0.0
 32
0.0
 13
1.0
 23
0.0
 33
0.0
 40
0.0
 40
0.0
 40
0.0
 40
0.0
 40
0.2502666070979152
 40
0.5003870414468611
 40
0.625397804024071
 40
0.750118336666443
 40
0.8126309605029061
 40
0.8750812198716654
 40
0.9374681530762606
 40
0.9687217402228865
 40
1.0
 40
1.0
 40
1.0
 40
1.0
 10
179.8548649706458
 20
118.6805505631984
 30
0.0
 10
179.9759810593788
 20
118.6820611406351
 30
0.0
 10
180.2181424967974
 20
118.6850814132285
 30
0.0
 10
180.5198867236661
 20
118.7167758582948
 30
0.0
 10
180.7557768194156
 20
118.7746391226985
 30
0.0
 10
180.8905796525845
 20
118.8468727774425
 30
0.0
 10
180.9827058867748
 20
118.9248974262904
 30
0.0
 10
181.0391780192434
 20
118.9963066710231
 30
0.0
 10
181.0681301547957
 20
119.0662759754392
 30
0.0
 10
181.0808573639174
 20
119.1249593003964
 30
0.0
 10
181.0817108076729
 20
119.1549227655266
 30
0.0
 10
181.0821376979185
 20
119.1699104092996
 30
0.0
  0
SPLINE
  5
199
330
1F
100
AcDbEntity
  8
0
  6
Continuous
 62
     7
370
     0
100
AcDbSpline
210
0.0
220
0.0
230
1.0
 70
     8
 71
     3
 72
    15
 73
    11
 74
     0
 42
0.00000001
 43
0.00000001
 12
1.0
 22
0.0
 32
0.0
 13
1.0
 23
0.0
 33
0.0
 40
0.0
 40
0.0
 40
0.0
 40
0.0
 40
0.0312914406377332
 40
0.0625559738335162
 40
0.1249665424421842
 40
0.2494283959541484
 40
0.3742714550651965
 40
0.4993601535802148
 40
0.7496086004653207
 40
1.0
 40
1.0
 40
1.0
 40
1.0
 10
181.0821376979185
 20
119.1699104092996
 30
0.0
 10
181.0816513564691
 20
119.1847649168702
 30
0.0
 10
181.0806790917743
 20
119.2144611586526
 30
0.0
 10
181.0668303183576
 20
119.2723541648996
 30
0.0
 10
181.0225404125035
 20
119.3674767322295
 30
0.0
 10
180.9085976000887
 20
119.4696137542229
 30
0.0
 10
180.7481761624058
 20
119.5516133182266
 30
0.0
 10
180.5139470271283
 20
119.608113627814
 30
0.0
 10
180.2149432677719
 20
119.6386998284975
 30
0.0
 10
179.9749139156733
 20
119.6418470990447
 30
0.0
 10
179.8548649706458
 20
119.643421183654
 30
0.0
  0
SPLINE
  5
19A
330
1F
100
AcDbEntity
  8
0
  6
Continuous
 62
     7
370
     0
100
AcDbSpline
210
0.0
220
0.0
230
1.0
 70
     8
 71
     3
 72
    16
 73
    12
 74
     0
 42
0.00000001
 43
0.00000001
 12
1.0
 22
0.0
 32
0.0
 13
1.0
 23
0.0
 33
0.0
 40
0.0
 40
0.0
 40
0.0
 40
0.0
 40
0.2503496394344897
 40
0.5005495143908351
 40
0.6255888818189816
 40
0.6881323128788709
 40
0.7506868671567912
 40
0.8750305488322877
 40
0.9374399021183714
 40
0.9687083653526494
 40
1.0
 40
1.0
 40
1.0
 40
1.0
 10
179.8548649706458
 20
119.643421183654
 30
0.0
 10
179.7334617646042
 20
119.6419024172671
 30
0.0
 10
179.4907279785007
 20
119.6388657930517
 30
0.0
 10
179.188144649678
 20
119.6076035786527
 30
0.0
 10
178.9813537390694
 20
119.5561283114009
 30
0.0
 10
178.8704147901042
 20
119.5064921430938
 30
0.0
 10
178.7691140034696
 20
119.441201427922
 30
0.0
 10
178.6813553741957
 20
119.3537188515828
 30
0.0
 10
178.6401498664165
 20
119.2559869945513
 30
0.0
 10
178.6291713122414
 20
119.1968673719028
 30
0.0
 10
178.6281187296167
 20
119.1668630161785
 30
0.0
 10
178.6275922433731
 20
119.1518552817129
 30
0.0
  0
SPLINE
  5
19B
330
1F
100
AcDbEntity
  8
0
  6
Continuous
 62
     7
370
     0
100
AcDbSpline
210
0.0
220
0.0
230
1.0
 70
     8
 71
     3
 72
    15
 73
    11
 74
     0
 42
0.00000001
 43
0.00000001
 12
1.0
 22
0.0
 32
0.0
 13
1.0
 23
0.0
 33
0.0
 40
0.0
 40
0.0
 40
0.0
 40
0.0
 40
0.0312909998794804
 40
0.062553893925019
 40
0.1249573530937509
 40
0.2494428287818868
 40
0.3742794951282856
 40
0.499361431682827
 40
0.749608215773406
 40
1.0
 40
1.0
 40
1.0
 40
1.0
 10
178.6275922433731
 20
119.1518552817129
 30
0.0
 10
178.6280633554568
 20
119.1370221814916
 30
0.0
 10
178.6290051564675
 20
119.1073693042618
 30
0.0
 10
178.6430082900251
 20
119.0495557237969
 30
0.0
 10
178.6880515000989
 20
118.9547747486914
 30
0.0
 10
178.8025954595919
 20
118.8535124657714
 30
0.0
 10
178.9629265423947
 20
118.7716678930681
 30
0.0
 10
179.1971164717685
 20
118.7165380933382
 30
0.0
 10
179.4953909570476
 20
118.6850901297468
 30
0.0
 10
179.7350171651036
 20
118.6820640441966
 30
0.0
 10
179.8548649706458
 20
118.6805505631984
 30
0.0
  0
LINE
  5
19C
330
1F
100
AcDbEntity
  8
0
  6
Continuous
 62
     7
370
     0
100
AcDbLine
 10
181.00421562
 20
107.9568578179
 30
0.0
 11
181.00421562
 21
107.4465307925
 31
0.0
  0
SPLINE
  5
19D
330
1F
100
AcDbEntity
  8
0
  6
Continuous
 62
     7
370
     0
100
AcDbSpline
210
0.0
220
0.0
230
1.0
 70
     8
 71
     3
 72
    15
 73
    11
 74
     0
 42
0.00000001
 43
0.00000001
 12
1.0
 22
0.0
 32
0.0
 13
1.0
 23
0.0
 33
0.0
 40
0.0
 40
0.0
 40
0.0
 40
0.0
 40
0.1397214989305027
 40
0.2501771574758241
 40
0.375238625844428
 40
0.50023145062014
 40
0.6214276674151485
 40
0.7499576434759527
 40
0.8749319569283701
 40
1.0
 40
1.0
 40
1.0
 40
1.0
 10
181.0042156199965
 20
107.9568578179272
 30
0.0
 10
181.0031834615022
 20
107.998582643536
 30
0.0
 10
181.0013353387714
 20
108.0732926799076
 30
0.0
 10
180.9886973679429
 20
108.1850088982206
 30
0.0
 10
180.965931443878
 20
108.2910038609123
 30
0.0
 10
180.9246437557709
 20
108.3957859120815
 30
0.0
 10
180.859429896731
 20
108.4904167245866
 30
0.0
 10
180.7737606151306
 20
108.5680592102191
 30
0.0
 10
180.6751616275557
 20
108.6319201051839
 30
0.0
 10
180.6031438506939
 20
108.6611892400072
 30
0.0
 10
180.5671214641523
 20
108.6758292932591
 30
0.0
  0
SPLINE
  5
19E
330
1F
100
AcDbEntity
  8
0
  6
Continuous
 62
     7
370
     0
100
AcDbSpline
210
0.0
220
0.0
230
1.0
 70
     8
 71
     3
 72
    12
 73
     8
 74
     0
 42
0.00000001
 43
0.00000001
 12
1.0
 22
0.0
 32
0.0
 13
1.0
 23
0.0
 33
0.0
 40
0.0
 40
0.0
 40
0.0
 40
0.0
 40
0.1250178846381799
 40
0.2500201696718625
 40
0.4999844141952995
 40
0.7499868018933629
 40
1.0
 40
1.0
 40
1.0
 40
1.0
 10
180.5671214641523
 20
108.6758292932591
 30
0.0
 10
180.5379148160496
 20
108.6862163653254
 30
0.0
 10
180.4795051642199
 20
108.7069892133697
 30
0.0
 10
180.3595749560081
 20
108.7394585037613
 30
0.0
 10
180.2067288601269
 20
108.7684263758629
 30
0.0
 10
180.0208978050819
 20
108.7881584426555
 30
0.0
 10
179.8964114446301
 20
108.7900801848119
 30
0.0
 10
179.8341669186978
 20
108.7910410766642
 30
0.0
  0
SPLINE
  5
19F
330
1F
100
AcDbEntity
  8
0
  6
Continuous
 62
     7
370
     0
100
AcDbSpline
210
0.0
220
0.0
230
1.0
 70
     8
 71
     3
 72
    15
 73
    11
 74
     0
 42
0.00000001
 43
0.00000001
 12
1.0
 22
0.0
 32
0.0
 13
1.0
 23
0.0
 33
0.0
 40
0.0
 40
0.0
 40
0.0
 40
0.0
 40
0.1251268274281163
 40
0.2502484251834727
 40
0.5001030853491313
 40
0.6251006234200797
 40
0.7501052843047152
 40
0.874955926622918
 40
0.9374630657903266
 40
1.0
 40
1.0
 40
1.0
 40
1.0
 10
179.8341669186978
 20
108.7910410766642
 30
0.0
 10
179.7831592474133
 20
108.7904395643244
 30
0.0
 10
179.6811460367088
 20
108.7892365647849
 30
0.0
 10
179.478100757444
 20
108.772818894307
 30
0.0
 10
179.2759737556921
 20
108.7361760587477
 30
0.0
 10
179.0877242643538
 20
108.659372275641
 30
0.0
 10
178.9562111569213
 20
108.5831515811013
 30
0.0
 10
178.8613313284393
 20
108.4999218280802
 30
0.0
 10
178.7991167158305
 20
108.4217064317064
 30
0.0
 10
178.7764896439115
 20
108.3776826670297
 30
0.0
 10
178.7651734122043
 20
108.3556655397809
 30
0.0
  0
SPLINE
  5
1A0
330
1F
100
AcDbEntity
  8
0
  6
Continuous
 62
     7
370
     0
100
AcDbSpline
210
0.0
220
0.0
230
1.0
 70
     8
 71
     3
 72
    12
 73
     8
 74
     0
 42
0.00000001
 43
0.00000001
 12
1.0
 22
0.0
 32
0.0
 13
1.0
 23
0.0
 33
0.0
 40
0.0
 40
0.0
 40
0.0
 40
0.0
 40
0.1428151998865892
 40
0.2856721884586214
 40
0.4999151269693849
 40
0.749937838827124
 40
1.0
 40
1.0
 40
1.0
 40
1.0
 10
178.7651734122043
 20
108.3556655397809
 30
0.0
 10
178.7576841867241
 20
108.3372707256562
 30
0.0
 10
178.7427035443662
 20
108.3004757149607
 30
0.0
 10
178.7266199146489
 20
108.2330360753927
 30
0.0
 10
178.7141810673472
 20
108.150120234224
 30
0.0
 10
178.7067093413593
 20
108.0518809314067
 30
0.0
 10
178.7059126822647
 20
107.9830977605016
 30
0.0
 10
178.7055143212952
 20
107.9487034620606
 30
0.0
  0
LINE
  5
1A1
330
1F
100
AcDbEntity
  8
0
  6
Continuous
 62
     7
370
     0
100
AcDbLine
 10
178.7055143213
 20
107.9487034621
 30
0.0
 11
178.7055143213
 21
107.4465307925
 31
0.0
  0
LINE
  5
1A2
330
1F
100
AcDbEntity
  8
0
  6
Continuous
 62
     7
370
     0
100
AcDbLine
 10
178.7055143213
 20
107.4465307925
 30
0.0
 11
181.00421562
 21
107.4465307925
 31
0.0
  0
DIMENSION
  5
1A3
330
1F
100
AcDbEntity
  8
0
  6
Continuous
 62
     7
370
     0
100
AcDbDimension
  2
_D_1
 10
182.3548649706
 20
79.9396105675
 30
0.0
 11
164.2785683521
 21
79.9396105675
 31
0.0
 70
   160
  1
<>
 71
     2
 42
-1.0
  3
SLDDIMSTYLE1
100
AcDbAlignedDimension
 13
177.3548649706
 23
90.2396105675
 33
0.0
 14
182.3548649706
 24
90.2396105675
 34
0.0
100
AcDbRotatedDimension
  0
MTEXT
  5
1B8
330
1F
100
AcDbEntity
  8
0
  6
Continuous
 62
     7
370
     0
100
AcDbMText
 10
153.5504189779
 20
129.4221282261
 30
0.0
 40
2.1166666667
 41
0.0
 71
     1
 72
     1
  1
S1
  7
SLDTEXTSTYLE0
 73
     1
 44
1.0
  0
LEADER
  5
1BA
330
1F
100
AcDbEntity
  8
0
  6
Continuous
 62
     7
370
     0
100
AcDbLeader
  3
SLDDIMSTYLE2
 76
     3
 10
177.3548649706
 20
115.3748425785
 30
0.0
 10
163.3325253664
 20
128.297632469
 30
0.0
 10
156.9825253664
 20
128.297632469
 30
0.0
  0
INSERT
  5
1C0
102
{ACAD_REACTORS
330
1C1
102
}
330
1F
100
AcDbEntity
  8
0
  6
Continuous
 62
     7
370
     0
100
AcDbBlockReference
  2
SW_NOTE_5
 10
196.5687711387
 20
128.4103720406
 30
0.0
  0
LEADER
  5
1C1
330
1F
100
AcDbEntity
  8
0
  6
Continuous
 62
     7
370
     0
100
AcDbLeader
  3
SLDDIMSTYLE2
 73
     2
 76
     3
 10
182.3548649706
 20
114.7773363365
 30
0.0
 10
190.2187711387
 20
128.4103720406
 30
0.0
 10
196.5687711387
 20
128.4103720406
 30
0.0
340
1C0
  0
OLE2FRAME
  5
1C2
330
1F
100
AcDbEntity
  8
0
100
AcDbOle2Frame
 70
     2
  3
Paintbrush Picture
 10
229.0524258301
 20
33.6996297921
 30
0.0
 11
265.1686469208
 21
28.555479607
 31
0.0
 71
     2
 72
     0
 73
     1
 90
     7296
310
80557333EF78ADA16C40002412788DD94040000000000000000041161DC7B292
310
7040002412788DD94040000000000000000041161DC7B2927040F6DD59E9338E
310
3C4000000000000000007333EF78ADA16C40F6DD59E9338E3C40000000000000
310
00000000000001000000000100000100000001000000000001000000001C0000
310
D0CF11E0A1B11AE1000000000000000000000000000000003E000300FEFF0900
310
0600000000000000000000000100000001000000000000000010000002000000
310
01000000FEFFFFFF0000000000000000FFFFFFFFFFFFFFFFFFFFFFFFFFFFFFFF
310
FFFFFFFFFFFFFFFFFFFFFFFFFFFFFFFFFFFFFFFFFFFFFFFFFFFFFFFFFFFFFFFF
310
FFFFFFFFFFFFFFFFFFFFFFFFFFFFFFFFFFFFFFFFFFFFFFFFFFFFFFFFFFFFFFFF
310
FFFFFFFFFFFFFFFFFFFFFFFFFFFFFFFFFFFFFFFFFFFFFFFFFFFFFFFFFFFFFFFF
310
FFFFFFFFFFFFFFFFFFFFFFFFFFFFFFFFFFFFFFFFFFFFFFFFFFFFFFFFFFFFFFFF
310
FFFFFFFFFFFFFFFFFFFFFFFFFFFFFFFFFFFFFFFFFFFFFFFFFFFFFFFFFFFFFFFF
310
FFFFFFFFFFFFFFFFFFFFFFFFFFFFFFFFFFFFFFFFFFFFFFFFFFFFFFFFFFFFFFFF
310
FFFFFFFFFFFFFFFFFFFFFFFFFFFFFFFFFFFFFFFFFFFFFFFFFFFFFFFFFFFFFFFF
310
FFFFFFFFFFFFFFFFFFFFFFFFFFFFFFFFFFFFFFFFFFFFFFFFFFFFFFFFFFFFFFFF
310
FFFFFFFFFFFFFFFFFFFFFFFFFFFFFFFFFFFFFFFFFFFFFFFFFFFFFFFFFFFFFFFF
310
FFFFFFFFFFFFFFFFFFFFFFFFFFFFFFFFFFFFFFFFFFFFFFFFFFFFFFFFFFFFFFFF
310
FFFFFFFFFFFFFFFFFFFFFFFFFFFFFFFFFFFFFFFFFFFFFFFFFFFFFFFFFFFFFFFF
310
FFFFFFFFFFFFFFFFFFFFFFFFFFFFFFFFFFFFFFFFFFFFFFFFFFFFFFFFFFFFFFFF
310
FFFFFFFFFFFFFFFFFFFFFFFFFFFFFFFFFFFFFFFFFFFFFFFFFFFFFFFFFFFFFFFF
310
FDFFFFFFFEFFFFFFFEFFFFFFFEFFFFFF05000000060000000700000008000000
310
090000000A0000000B0000000C000000FEFFFFFFFFFFFFFFFFFFFFFFFFFFFFFF
310
FFFFFFFFFFFFFFFFFFFFFFFFFFFFFFFFFFFFFFFFFFFFFFFFFFFFFFFFFFFFFFFF
310
FFFFFFFFFFFFFFFFFFFFFFFFFFFFFFFFFFFFFFFFFFFFFFFFFFFFFFFFFFFFFFFF
310
FFFFFFFFFFFFFFFFFFFFFFFFFFFFFFFFFFFFFFFFFFFFFFFFFFFFFFFFFFFFFFFF
310
FFFFFFFFFFFFFFFFFFFFFFFFFFFFFFFFFFFFFFFFFFFFFFFFFFFFFFFFFFFFFFFF
310
FFFFFFFFFFFFFFFFFFFFFFFFFFFFFFFFFFFFFFFFFFFFFFFFFFFFFFFFFFFFFFFF
310
FFFFFFFFFFFFFFFFFFFFFFFFFFFFFFFFFFFFFFFFFFFFFFFFFFFFFFFFFFFFFFFF
310
FFFFFFFFFFFFFFFFFFFFFFFFFFFFFFFFFFFFFFFFFFFFFFFFFFFFFFFFFFFFFFFF
310
FFFFFFFFFFFFFFFFFFFFFFFFFFFFFFFFFFFFFFFFFFFFFFFFFFFFFFFFFFFFFFFF
310
FFFFFFFFFFFFFFFFFFFFFFFFFFFFFFFFFFFFFFFFFFFFFFFFFFFFFFFFFFFFFFFF
310
FFFFFFFFFFFFFFFFFFFFFFFFFFFFFFFFFFFFFFFFFFFFFFFFFFFFFFFFFFFFFFFF
310
FFFFFFFFFFFFFFFFFFFFFFFFFFFFFFFFFFFFFFFFFFFFFFFFFFFFFFFFFFFFFFFF
310
FFFFFFFFFFFFFFFFFFFFFFFFFFFFFFFFFFFFFFFFFFFFFFFFFFFFFFFFFFFFFFFF
310
FFFFFFFFFFFFFFFFFFFFFFFFFFFFFFFFFFFFFFFFFFFFFFFFFFFFFFFFFFFFFFFF
310
FFFFFFFFFFFFFFFFFFFFFFFFFFFFFFFFFFFFFFFFFFFFFFFFFFFFFFFFFFFFFFFF
310
52006F006F007400200045006E00740072007900000000000000000000000000
310
0000000000000000000000000000000000000000000000000000000000000000
310
16000500FFFFFFFFFFFFFFFF020000000A00030000000000C000000000000046
310
000000000000000000000000200625575C94CF0103000000C000000000000000
310
01004F006C006500000000000000000000000000000000000000000000000000
310
0000000000000000000000000000000000000000000000000000000000000000
310
0A000200FFFFFFFFFFFFFFFFFFFFFFFF00000000000000000000000000000000
310
0000000000000000000000000000000000000000000000001400000000000000
310
010043006F006D0070004F0062006A0000000000000000000000000000000000
310
0000000000000000000000000000000000000000000000000000000000000000
310
120002010100000003000000FFFFFFFF00000000000000000000000000000000
310
0000000000000000000000000000000000000000010000004D00000000000000
310
01004F006C006500310030004E00610074006900760065000000000000000000
310
0000000000000000000000000000000000000000000000000000000000000000
310
1A000200FFFFFFFFFFFFFFFFFFFFFFFF00000000000000000000000000000000
310
000000000000000000000000000000000000000004000000E411000000000000
310
FEFFFFFF02000000FEFFFFFFFFFFFFFFFFFFFFFFFFFFFFFFFFFFFFFFFFFFFFFF
310
FFFFFFFFFFFFFFFFFFFFFFFFFFFFFFFFFFFFFFFFFFFFFFFFFFFFFFFFFFFFFFFF
310
FFFFFFFFFFFFFFFFFFFFFFFFFFFFFFFFFFFFFFFFFFFFFFFFFFFFFFFFFFFFFFFF
310
FFFFFFFFFFFFFFFFFFFFFFFFFFFFFFFFFFFFFFFFFFFFFFFFFFFFFFFFFFFFFFFF
310
FFFFFFFFFFFFFFFFFFFFFFFFFFFFFFFFFFFFFFFFFFFFFFFFFFFFFFFFFFFFFFFF
310
FFFFFFFFFFFFFFFFFFFFFFFFFFFFFFFFFFFFFFFFFFFFFFFFFFFFFFFFFFFFFFFF
310
FFFFFFFFFFFFFFFFFFFFFFFFFFFFFFFFFFFFFFFFFFFFFFFFFFFFFFFFFFFFFFFF
310
FFFFFFFFFFFFFFFFFFFFFFFFFFFFFFFFFFFFFFFFFFFFFFFFFFFFFFFFFFFFFFFF
310
FFFFFFFFFFFFFFFFFFFFFFFFFFFFFFFFFFFFFFFFFFFFFFFFFFFFFFFFFFFFFFFF
310
FFFFFFFFFFFFFFFFFFFFFFFFFFFFFFFFFFFFFFFFFFFFFFFFFFFFFFFFFFFFFFFF
310
FFFFFFFFFFFFFFFFFFFFFFFFFFFFFFFFFFFFFFFFFFFFFFFFFFFFFFFFFFFFFFFF
310
FFFFFFFFFFFFFFFFFFFFFFFFFFFFFFFFFFFFFFFFFFFFFFFFFFFFFFFFFFFFFFFF
310
FFFFFFFFFFFFFFFFFFFFFFFFFFFFFFFFFFFFFFFFFFFFFFFFFFFFFFFFFFFFFFFF
310
FFFFFFFFFFFFFFFFFFFFFFFFFFFFFFFFFFFFFFFFFFFFFFFFFFFFFFFFFFFFFFFF
310
FFFFFFFFFFFFFFFFFFFFFFFFFFFFFFFFFFFFFFFFFFFFFFFFFFFFFFFFFFFFFFFF
310
FFFFFFFFFFFFFFFFFFFFFFFFFFFFFFFFFFFFFFFFFFFFFFFFFFFFFFFFFFFFFFFF
310
0100000200000000000000000000000000000000000000000000000000000000
310
0000000000000000000000000000000000000000000000000000000000000000
310
0100FEFF030A0000FFFFFFFF0A00030000000000C00000000000004607000000
310
5042727573680007000000504272757368000700000050427275736800F439B2
310
7100000000000000000000000000000000000000000000000000000000000000
310
0000000000000000000000000000000000000000000000000000000000000000
310
0000000000000000000000000000000000000000000000000000000000000000
310
0000000000000000000000000000000000000000000000000000000000000000
310
0000000000000000000000000000000000000000000000000000000000000000
310
0000000000000000000000000000000000000000000000000000000000000000
310
0000000000000000000000000000000000000000000000000000000000000000
310
0000000000000000000000000000000000000000000000000000000000000000
310
0000000000000000000000000000000000000000000000000000000000000000
310
0000000000000000000000000000000000000000000000000000000000000000
310
0000000000000000000000000000000000000000000000000000000000000000
310
0000000000000000000000000000000000000000000000000000000000000000
310
E0110000424DDE11000000000000360400002800000096000000170000000100
310
08000000000000000000E7240000E72400000001000000010000000000FF0101
310
01FF020202FF030303FF040404FF050505FF060606FF070707FF080808FF0909
310
09FF0A0A0AFF0B0B0BFF0C0C0CFF0D0D0DFF0E0E0EFF0F0F0FFF101010FF1111
310
11FF121212FF131313FF141414FF151515FF161616FF171717FF181818FF1919
310
19FF1A1A1AFF1B1B1BFF1C1C1CFF1D1D1DFF1E1E1EFF1F1F1FFF202020FF2121
310
21FF222222FF232323FF242424FF252525FF262626FF272727FF282828FF2929
310
29FF2A2A2AFF2B2B2BFF2C2C2CFF2D2D2DFF2E2E2EFF2F2F2FFF303030FF3131
310
31FF323232FF333333FF343434FF353535FF363636FF373737FF383838FF3939
310
39FF3A3A3AFF3B3B3BFF3C3C3CFF3D3D3DFF3E3E3EFF3F3F3FFF404040FF4141
310
41FF424242FF434343FF444444FF454545FF464646FF474747FF484848FF4949
310
49FF4A4A4AFF4B4B4BFF4C4C4CFF4D4D4DFF4E4E4EFF4F4F4FFF505050FF5151
310
51FF525252FF535353FF545454FF555555FF565656FF575757FF585858FF5959
310
59FF5A5A5AFF5B5B5BFF5C5C5CFF5D5D5DFF5E5E5EFF5F5F5FFF606060FF6161
310
61FF626262FF636363FF646464FF656565FF666666FF676767FF686868FF6969
310
69FF6A6A6AFF6B6B6BFF6C6C6CFF6D6D6DFF6E6E6EFF6F6F6FFF707070FF7171
310
71FF727272FF737373FF747474FF757575FF767676FF777777FF787878FF7979
310
79FF7A7A7AFF7B7B7BFF7C7C7CFF7D7D7DFF7E7E7EFF7F7F7FFF808080FF8181
310
81FF828282FF838383FF848484FF858585FF868686FF878787FF888888FF8989
310
89FF8A8A8AFF8B8B8BFF8C8C8CFF8D8D8DFF8E8E8EFF8F8F8FFF909090FF9191
310
91FF929292FF939393FF949494FF959595FF969696FF979797FF989898FF9999
310
99FF9A9A9AFF9B9B9BFF9C9C9CFF9D9D9DFF9E9E9EFF9F9F9FFFA0A0A0FFA1A1
310
A1FFA2A2A2FFA3A3A3FFA4A4A4FFA5A5A5FFA6A6A6FFA7A7A7FFA8A8A8FFA9A9
310
A9FFAAAAAAFFABABABFFACACACFFADADADFFAEAEAEFFAFAFAFFFB0B0B0FFB1B1
310
B1FFB2B2B2FFB3B3B3FFB4B4B4FFB5B5B5FFB6B6B6FFB7B7B7FFB8B8B8FFB9B9
310
B9FFBABABAFFBBBBBBFFBCBCBCFFBDBDBDFFBEBEBEFFBFBFBFFFC0C0C0FFC1C1
310
C1FFC2C2C2FFC3C3C3FFC4C4C4FFC5C5C5FFC6C6C6FFC7C7C7FFC8C8C8FFC9C9
310
C9FFCACACAFFCBCBCBFFCCCCCCFFCDCDCDFFCECECEFFCFCFCFFFD0D0D0FFD1D1
310
D1FFD2D2D2FFD3D3D3FFD4D4D4FFD5D5D5FFD6D6D6FFD7D7D7FFD8D8D8FFD9D9
310
D9FFDADADAFFDBDBDBFFDCDCDCFFDDDDDDFFDEDEDEFFDFDFDFFFE0E0E0FFE1E1
310
E1FFE2E2E2FFE3E3E3FFE4E4E4FFE5E5E5FFE6E6E6FFE7E7E7FFE8E8E8FFE9E9
310
E9FFEAEAEAFFEBEBEBFFECECECFFEDEDEDFFEEEEEEFFEFEFEFFFF0F0F0FFF1F1
310
F1FFF2F2F2FFF3F3F3FFF4F4F4FFF5F5F5FFF6F6F6FFF7F7F7FFF8F8F8FFF9F9
310
F9FFFAFAFAFFFBFBFBFFFCFCFCFFFDFDFDFFFEFEFEFFFFFFFFFFFFFFFFFFFFFF
310
C94E4E4E4F4E4EFFFFFFFFFFC94E4E4E4E4E72FFFFFFFFFFFFFF734E4D4E4E4E
310
C9FFFFFFFFFFAA683516171616265B9BE9FFFFFFFFFF4E4E4E4D4E4EFFFFFFFF
310
FFFFFFFF4E4E4F4E4D4E4E4E4F4E4E4F4D4E4E4E4E4E4D4E4F4E4D4E4E4EAAFF
310
FFFFFFFFFFEA4E4F4F4E4E4E4E4E4D4D4F4F4E4E4E4E4E5B7FAAFFFFFFFFFFFF
310
C9744E1716171616164D8DEAFFFFFFFF0000FFFFFFFFFFFFBA161617161716FF
310
FFFFFFFFB917171616174FFFFFFFFFFFFFFF4E1716161616B9FFFFFFB9341717
310
1716171617171616268CFFFFFFFF161617161617FFFFFFFFFFFFFFB917161717
310
1617167F807F7F7F7F7F7F807F7F807F7F807F7F7F414EFFFFFFFFFFFF8C167F
310
7F807F7F7F7E7F7F807F807F7F807F4E3417258EFFFFEA4E162674AABAEAEBBA
310
AA74341680FFFFFF0000FFFFFFFFFFFFB9171717171617FFFFFFFFFFBB161616
310
16164EFFFFFFFFFFFFFF4E1717171717B9FFFF9C171617171716161616171616
310
171766FFFFFF161717161617FFFFFFFFFFFFFF8E16171717161616FFFFFFFFFF
310
FFFFFFFFFFFFFFFFFFFFFFFFFFAA16D9FFFFFFFFFF3467FFFFFFFFEAFFFFFFFF
310
FFFFFFFFFFFFFFFFFFCA671667EB26278DFFFFFFFFFFFFFFFFFFFF8C2541EAFF
310
0000FFFFFFFFFFFFB9171717171716FFFFFFFFFFBA16171617174EFFFFFFFFFF
310
FFFF4E1717161616BAFF9B1617161616171716171617161616161667FFFF1616
310
16161716FFFFFFFFFFFFFF7F16161617174017FFFFFFFFFFFFFFFFFFFFFFFFFF
310
FFFFFFFFFFFF344E7F7F7F7E7417DAFFFFFFFF80FFFFFFFFFFFFFFFFFFFFFFFF
310
FFFFFF9B163425CAFFFFFFFFFFFFFFFFFFFFFFFFCA2667FF0000FFFFFFFFFFFF
310
BA171717171617FFFFFFFFFFB916171716164EFFFFFFFFFFFFFF4F1716161717
310
B9C91716171616161716161617171616161617168DFF161716161717FFFFFFFF
310
FFFFFF7F17171716164F16FFFFFFFFFFFFFFFFFFFFFFFFFFFFFFFFFFFFFF9B16
310
17161617174EFFFFFFFFFF34FFFFFFFFD9BABABABABADAFFFFFFFFFF7F16AAFF
310
FFFFFFFFFFFFFFFFFFFFFFFFFF9C16BA0000FFFFFFFFFFFFB9161717161717FF
310
FFFFFFFFB917161716174DFFFFFFFFFFFFFF4E1616161616BA4E161617171716
310
419BEAEAAA4E16161617161726E9171717161616FFFFFFFFFFFFFF4F16161717
310
164E16FFFFFFFFFFBAB9B9B9B9B9BABABACAFFFFFFFFFFFFFFFFFFFFFFFFFFFF
310
FFFFBA16FFFFFFFF7F1617161617174DEAFFFFFFEA41FFFFFFFFFFAA4D16174E
310
9BFFFFFFFFFF34730000FFFFFFFFFFFFB9161617171617FFFFFFFFFFBA161616
310
16164EFFFFFFFFFFFFFF4F16161717169B1617161716175BFFFFFFFFFFFF7417
310
16171616168D171717161617FFFFFFFFFFFFEA2616171717167416FFFFFFFFFF
310
16171616171717171717EAFFFFFFFFFFFFFFFFFFFFFFFFFFFFFF6716FFFFFFFF
310
7F4EFFFFFFFFBA2573FFFFFFFFBAFFFFFFFFAA167FB9BB9B269BFFFFFFFF664F
310
0000FFFFFFFFFFFFB9171616161616FFFFFFFFFFBA16161717164EFFFFFFFFFF
310
FFFF4E16161616174E161617171626EAFFFFFFFFFFFFFF4E16161616164E1716
310
16161617FFFFFFFFFFFF671616161716347F16FFFFFFFFFF16B9FFFFFFFFFFFF
310
D9168DFFFFFFFFFFFFFFFFFFFFFFFFFFFFEA1716FFFFFFFF7F4EFFFFFFFFFF7F
310
4EFFFFFFFFFFFFFFFFFF5B66FFFFFFEA347FFFFFFFFF7F4D0000FFFFFFFFFFFF
310
B9171616171617FFFFFFFFFFBA17161716174EFFFFFFFFFFFFFF4D1716161617
310
17161716161673FFFFFFFFFFFFFFFF9B1617161717161616171616174F4E4E4E
310
4E341616171616167E7F16FFFFFFFFFF16BAFFFFFFFFFFFFFF5B41FFFFFFFF34
310
1616171616BAFFFFFF9B1716FFFFFFFF7F4EFFFFFFFFFF4E4EFFFFFFFF734E4E
310
4E4E267EDA9B67164EEAFFFFFFFF744D0000FFFFFFFFFFFFBA171717161617FF
310
FFFFFFFFBA1616171616347F7F7F7F80807F331616161717161717161716B9FF
310
FFFFFFFFFFFFFFE9161616161616171716161716171616161616171616171734
310
EA7F16FFFFFFFFFF16BAFFFFFFFFFFFFFFAA17C9FFFFFF7326BABA5B25FFFFFF
310
FF401716FFFFFFFF7F264F4E4E4E4217AAFFFFFFEA16677F73261616164173CA
310
FFFFFFFFFFFF417F0000FFFFFFFFFFFFBA171616171617FFFFFFFFFFBA161616
310
17171616161616161616161717161616161616161617EAFFFFFFFFFFFFFFFFFF
310
261717161716161617161616161617161617161616174EEAFF8016FFFFFFFFFF
310
17BAFFFFFFFFFFFFFFFF3467FFFFFFC916C9FF3467FFFFFFDA166716FFFFFFFF
310
9C4D4E4E4E4E67AAFFFFFFFF6834FF7F262567AAEAFFFFFFFFFFFFFFFF9B17D9
310
0000FFFFFFFFFFFFB9161616161616FFFFFFFFFFBA1617161717171616161616
310
1716171716161716161617171716FFFFFFFFFFFFFFFFFFFF4E17161716171616
310
1617171616161716171717161616169BFF7F17FFFFFFFFFF17B9FFFFFFFFFFFF
310
FFFF7326FFFFFFFF3473DA16AAFFFFFF7317AA16FFFFFFFFFFFFFFFFFFFFFFFF
310
FFFFEA6725BA4E167FEAFFFFFFFFFFFFFFFFFFFF9C167FFF0000FFFFFFFFFFFF
310
B9161717171716FFFFFFFFFFBA16161716171616171717161617161716161616
310
171617171617EAFFFFFFFFFFFFFFFFFF26161717161616161616161617171616
310
1616161616171616AA8016FFFFFFFFFF16BAFFFFFFFFFFFFFFFFDA179BFFFFFF
310
74348D26FFFFFFFF2566B917FFFFFFFFD8BAB9BAB9BADAFFFFEA41169B7425C9
310
FFFFFFFFFFFFFFFFFFFFAB4F1680FFFF0000FFFFFFFFFFFFBA161717171617FF
310
FFFFFFFFBA17161717161617171617161616161617171616171716171617BBFF
310
FFFFFFFFFFFFFFE9171616161617161617161716FFFFFFFFFFD9671616161617
310
348017FFFFFFFFFF16BAFFFFFFFFFFFFFFFFFF4E5AFFFFFFC916265AFFFFFFAA
310
16AABA16FFFFFFFF7F1617161616179BFFFFEB4127168DFFFFFFFFFFFFFFD99B
310
6734175AC9FFFFFF0000FFFFFFFFFFFFB9161617171617FFFFFFFFFFBB161616
310
1616347F807F7F7F7F8033171716171617171616161672FFFFFFFFFFFFFFFF9C
310
171617171617161716161617FFFFFFFFFFFFFF4117161616174E17FFFFFFFFFF
310
16BAFFFFFFFFFFFFFFFFFF9B16DAFFFFFF34169BFFFFFF5A26FFB917FFFFFFFF
310
7F4EFFFFFFEA5B26FFFFFFEA2616EAFFFFFFFFDA743416331617414E4E4E4ECA
310
0000FFFFFFFFFFFFBA161716161616FFFFFFFFFFBA17171616164EFFFFFFFFFF
310
FFFF4E16161717174E161717171626EBFFFFFFFFFFFFFF4E16161617165B1616
310
16171617FFFFFFFFFFFFFF6716161616161617FFFFFFFFFF16BAFFFFFFFFFFFF
310
FFFFFFEA268CFFFFFF7316EAFFFFEB1774FFB916FFFFFFFF7F4EFFFFFFFF7316
310
FFFFFFFF6826FFFFFFFFEB264D9CEABA257F807F7F6616BA0000FFFFFFFFFFFF
310
BA161716161616FFFFFFFFFFBA16171616164DFFFFFFFFFFFFFF4E1617161617
310
9B1617171717165BEBFFFFFFFFFF671616161617179B171616161616FFFFFFFF
310
FFFFFF3417161617171617FFFFFFFFFF17BAFFFFFFFFFFFFFFFFFFFF6734FFFF
310
FFEBCAFFFFFF8D17C9FFBA17FFFFFFFF7F357F808066174FFFFFFFFF7F16FFFF
310
FFFFD91673B99B415BFFFFFFFFBA16DA00009B7F7F7F807F671617161616167F
310
80807F7E6617161616164EFFFFFFFFFFFFFF4E1616161617B94E171716161616
310
349BC9D9AA4E16171616161634FF161617161717B9B9BAB9BA9B411716171716
310
163416FFFFFFFFFF16B9FFFFFFFFFFFFFFFFFFFFC917CAFFFFFFFFFFFFFF3342
310
FFFFBA17FFFFFFFF9B4E4E4F4E4E66EAFFFFFFFF5B16C9FFFFFFFFAA4E164E73
310
EAFFFFFFFF8D26FF00004E161716161616171617171616171717171617161616
310
17174EFFFFFFFFFFFFFF4E1717171616B9D92616171716171716171717171716
310
16171716AAFF161717171617161617171616161617161716166717FFFFFFFFFF
310
17B9FFFFFFFFFFFFFFFFFFFFFF3467FFFFFFFFFFFFCA168CFFFFBB17FFFFFFFF
310
FFFFFFFFFFFFFFFFFFFFFFEA26265BFFFFFFFFFFFFFFFFFFFFFFFFFFEA3467FF
310
00004D16161616161617161717161617161616171617171616164EFFFFFFFFFF
310
FFFF4D1617161616BAFF9B1616161616161716161616171717161766FFFF1616
310
16171617161617161716171616171717667F16FFFFFFFFFF17BAFFFFFFFFFFFF
310
FFFFFFFFFF8C26EAFFFFFFFFFF6617EAFFFFBA17FFFFFFFFFFFFFFFFFFFFFFFF
310
FFFFEA5A25BA269BFFFFFFFFFFFFFFFFFFFFFFFF6616DAFF00004E1616171616
310
1616161616161716161617171616171616174EFFFFFFFFFFFFFF4D1717171716
310
B9FFFF9C161616161616161716161717171667FFFFFF17161717171716161617
310
1716161616161641E97E16FFFFFFFFFF16B9FFFFFFFFFFFFFFFFFFFFFFEA169B
310
FFFFFFFFEA265BFFFFFFB916FFFFFFFFFFFFFFFFFFFFFFFFFF9B3416AAFF9B17
310
67EAFFFFFFFFFFFFFFFFEA5B169BFFFF00004D17161716161616161717171616
310
161717161716171716174EFFFFFFFFFFFFFF4D1616161616BAFFFFFFBB411616
310
161716161616171634ABFFFFFFFF161716161617171716171617171617267FFF
310
FF7F164E4E4E4E4F17BAFFFFFFFFFFFFFFFFFFFFFFFF66344D4E4E4F4117AAFF
310
FFFFBA174E4E4E4D4E4D4D4E4E4E4E4116174EBBFFFFFFCA342666ABEAFFFFEA
310
AA6725269CFFFFFF0000724F4E4D4D4D4E4D4D4E4E4E4D4E4E4E4E4E4E4E4E4D
310
4E4E74FFFFFFFFFFFFFF734E4E4E4D4ECAFFFFFFFFFFAA663416171717265B9B
310
FFFFFFFFFFFF7F8080807F80807F7F7F7F7F807FBAFFFFFFFF9B4E4E4F4D4D4E
310
4DC9FFFFFFFFFFFFFFFFFFFFFFFFBA4E4E4E4E4D4E4EFFFFFFFFC94E4E4E4F4E
310
4E4E4D4E4E5A807F9CD9FFFFFFFFFFFFFF9B5B2617171716174E8DEAFFFFFFFF
310
0000000000000000000000000000000000000000000000000000000000000000
  1
OLE
  0
ENDSEC
  0
SECTION
  2
OBJECTS
  0
DICTIONARY
  5
C
330
0
100
AcDbDictionary
281
     1
  3
ACAD_GROUP
350
D
  3
ACAD_LAYOUT
350
1A
  3
ACAD_MLINESTYLE
350
17
  3
ACAD_PLOTSETTINGS
350
19
  3
ACAD_PLOTSTYLENAME
350
E
  0
DICTIONARY
  5
D
102
{ACAD_REACTORS
330
C
102
}
330
C
100
AcDbDictionary
281
     1
  0
DICTIONARY
  5
1A
102
{ACAD_REACTORS
330
C
102
}
330
C
100
AcDbDictionary
281
     1
  3
Layout1
350
1E
  3
Layout2
350
26
  3
Model
350
22
  0
DICTIONARY
  5
17
102
{ACAD_REACTORS
330
C
102
}
330
C
100
AcDbDictionary
281
     1
  3
Standard
350
18
  0
DICTIONARY
  5
19
102
{ACAD_REACTORS
330
C
102
}
330
C
100
AcDbDictionary
281
     1
  0
ACDBDICTIONARYWDFLT
  5
E
102
{ACAD_REACTORS
330
C
102
}
330
C
100
AcDbDictionary
281
     1
  3
Normal
350
F
100
AcDbDictionaryWithDefault
340
F
  0
LAYOUT
  5
1E
102
{ACAD_REACTORS
330
1A
102
}
330
1A
100
AcDbPlotSettings
  1

  2
none_device
  4

  6

 40
0.0
 41
0.0
 42
0.0
 43
0.0
 44
0.0
 45
0.0
 46
0.0
 47
0.0
 48
0.0
 49
0.0
140
0.0
141
0.0
142
1.0
143
1.0
 70
   688
 72
     0
 73
     0
 74
     5
  7

 75
    16
147
1.0
148
0.0
149
0.0
100
AcDbLayout
  1
Layout1
 70
     1
 71
     1
 10
0.0
 20
0.0
 11
420.0
 21
297.0
 12
0.0
 22
0.0
 32
0.0
 14
1.0000000000E+20
 24
1.0000000000E+20
 34
1.0000000000E+20
 15
-1.0000000000E+20
 25
-1.0000000000E+20
 35
-1.0000000000E+20
146
0.0
 13
0.0
 23
0.0
 33
0.0
 16
1.0
 26
0.0
 36
0.0
 17
0.0
 27
1.0
 37
0.0
 76
     0
330
1B
  0
LAYOUT
  5
26
102
{ACAD_REACTORS
330
1A
102
}
330
1A
100
AcDbPlotSettings
  1

  2
none_device
  4

  6

 40
0.0
 41
0.0
 42
0.0
 43
0.0
 44
0.0
 45
0.0
 46
0.0
 47
0.0
 48
0.0
 49
0.0
140
0.0
141
0.0
142
1.0
143
1.0
 70
   688
 72
     0
 73
     0
 74
     5
  7

 75
    16
147
1.0
148
0.0
149
0.0
100
AcDbLayout
  1
Layout2
 70
     1
 71
     2
 10
0.0
 20
0.0
 11
0.0
 21
0.0
 12
0.0
 22
0.0
 32
0.0
 14
0.0
 24
0.0
 34
0.0
 15
0.0
 25
0.0
 35
0.0
146
0.0
 13
0.0
 23
0.0
 33
0.0
 16
1.0
 26
0.0
 36
0.0
 17
0.0
 27
1.0
 37
0.0
 76
     0
330
23
  0
LAYOUT
  5
22
102
{ACAD_REACTORS
330
1A
102
}
330
1A
100
AcDbPlotSettings
  1

  2
none_device
  4

  6

 40
0.0
 41
0.0
 42
0.0
 43
0.0
 44
0.0
 45
0.0
 46
0.0
 47
0.0
 48
0.0
 49
0.0
140
0.0
141
0.0
142
1.0
143
1.0
 70
  1712
 72
     0
 73
     0
 74
     0
  7

 75
     0
147
1.0
148
0.0
149
0.0
100
AcDbLayout
  1
Model
 70
     1
 71
     0
 10
0.0
 20
0.0
 11
279.4
 21
215.9
 12
0.0
 22
0.0
 32
0.0
 14
0.0
 24
0.0
 34
0.0
 15
279.4
 25
215.9
 35
0.0
146
0.0
 13
0.0
 23
0.0
 33
0.0
 16
1.0
 26
0.0
 36
0.0
 17
0.0
 27
1.0
 37
0.0
 76
     0
330
1F
331
29
  0
MLINESTYLE
  5
18
102
{ACAD_REACTORS
330
17
102
}
330
17
100
AcDbMlineStyle
  2
Standard
 70
     0
  3

 62
   256
 51
90.0
 52
90.0
 71
     2
 49
0.5
 62
   256
  6
BYLAYER
 49
-0.5
 62
   256
  6
BYLAYER
  0
ACDBPLACEHOLDER
  5
F
102
{ACAD_REACTORS
330
E
102
}
330
E
  0
ENDSEC
  0
EOF
