  0
SECTION
  2
HEADER
  9
$ACADVER
  1
AC1015
  9
$ACADMAINTVER
 70
     6
  9
$DWGCODEPAGE
  3
ANSI_1252
  9
$INSBASE
 10
0.0
 20
0.0
 30
0.0
  9
$EXTMIN
 10
0.0
 20
0.0
 30
0.0
  9
$EXTMAX
 10
11.0
 20
8.5
 30
0.0
  9
$LIMMIN
 10
0.0
 20
0.0
  9
$LIMMAX
 10
0.0
 20
0.0
  9
$ORTHOMODE
 70
     0
  9
$REGENMODE
 70
     1
  9
$FILLMODE
 70
     1
  9
$QTEXTMODE
 70
     0
  9
$MIRRTEXT
 70
     1
  9
$LTSCALE
 40
1.0
  9
$ATTMODE
 70
     1
  9
$TEXTSIZE
 40
0.1388888889
  9
$TRACEWID
 40
0.05
  9
$TEXTSTYLE
  7
Standard
  9
$CLAYER
  8
0
  9
$CELTYPE
  6
ByLayer
  9
$CECOLOR
 62
   256
  9
$CELTSCALE
 40
1.0
  9
$DISPSILH
 70
     0
  9
$DIMSCALE
 40
1.0
  9
$DIMASZ
 40
0.156
  9
$DIMEXO
 40
0.05
  9
$DIMDLI
 40
0.38
  9
$DIMRND
 40
0.0
  9
$DIMDLE
 40
0.0
  9
$DIMEXE
 40
0.125
  9
$DIMTP
 40
0.0
  9
$DIMTM
 40
0.0
  9
$DIMTXT
 40
0.1388888889
  9
$DIMCEN
 40
0.09
  9
$DIMTSZ
 40
0.0
  9
$DIMTOL
 70
     0
  9
$DIMLIM
 70
     0
  9
$DIMTIH
 70
     1
  9
$DIMTOH
 70
     1
  9
$DIMSE1
 70
     0
  9
$DIMSE2
 70
     0
  9
$DIMTAD
 70
     0
  9
$DIMZIN
 70
     0
  9
$DIMBLK
  1

  9
$DIMASO
 70
     1
  9
$DIMSHO
 70
     1
  9
$DIMPOST
  1

  9
$DIMAPOST
  1

  9
$DIMALT
 70
     0
  9
$DIMALTD
 70
     2
  9
$DIMALTF
 40
25.4
  9
$DIMLFAC
 40
0.5
  9
$DIMTOFL
 70
     0
  9
$DIMTVP
 40
0.0
  9
$DIMTIX
 70
     0
  9
$DIMSOXD
 70
     0
  9
$DIMSAH
 70
     0
  9
$DIMBLK1
  1

  9
$DIMBLK2
  1

  9
$DIMSTYLE
  2
Standard
  9
$DIMCLRD
 70
     0
  9
$DIMCLRE
 70
     0
  9
$DIMCLRT
 70
     0
  9
$DIMTFAC
 40
1.0
  9
$DIMGAP
 40
0.06
  9
$DIMJUST
 70
     0
  9
$DIMSD1
 70
     0
  9
$DIMSD2
 70
     0
  9
$DIMTOLJ
 70
     1
  9
$DIMTZIN
 70
     0
  9
$DIMALTZ
 70
     0
  9
$DIMALTTZ
 70
     0
  9
$DIMUPT
 70
     0
  9
$DIMDEC
 70
     4
  9
$DIMTDEC
 70
     4
  9
$DIMALTU
 70
     2
  9
$DIMALTTD
 70
     2
  9
$DIMTXSTY
  7
Standard
  9
$DIMAUNIT
 70
     0
  9
$DIMADEC
 70
     0
  9
$DIMALTRND
 40
0.0
  9
$DIMAZIN
 70
     0
  9
$DIMDSEP
 70
    46
  9
$DIMATFIT
 70
     3
  9
$DIMFRAC
 70
     0
  9
$DIMLDRBLK
  1

  9
$DIMLUNIT
 70
     2
  9
$DIMLWD
 70
    -2
  9
$DIMLWE
 70
    -2
  9
$DIMTMOVE
 70
     0
  9
$LUNITS
 70
     2
  9
$LUPREC
 70
     2
  9
$SKETCHINC
 40
0.1
  9
$FILLETRAD
 40
0.5
  9
$AUNITS
 70
     0
  9
$AUPREC
 70
     0
  9
$MENU
  1
.
  9
$ELEVATION
 40
0.0
  9
$PELEVATION
 40
0.0
  9
$THICKNESS
 40
0.0
  9
$LIMCHECK
 70
     0
  9
$CHAMFERA
 40
0.5
  9
$CHAMFERB
 40
0.5
  9
$CHAMFERC
 40
1.0
  9
$CHAMFERD
 40
0.0
  9
$SKPOLY
 70
     0
  9
$TDCREATE
 40
2454805.32069162
  9
$TDUCREATE
 40
2454805.529024953
  9
$TDUPDATE
 40
2454805.320691632
  9
$TDUUPDATE
 40
2454805.529024965
  9
$TDINDWG
 40
0.0000000116
  9
$TDUSRTIMER
 40
0.0000000116
  9
$USRTIMER
 70
     1
  9
$ANGBASE
 50
0.0
  9
$ANGDIR
 70
     0
  9
$PDMODE
 70
     0
  9
$PDSIZE
 40
-1.0
  9
$PLINEWID
 40
0.0
  9
$SPLFRAME
 70
     0
  9
$SPLINETYPE
 70
     6
  9
$SPLINESEGS
 70
     8
  9
$HANDSEED
  5
48B
  9
$SURFTAB1
 70
     6
  9
$SURFTAB2
 70
     6
  9
$SURFTYPE
 70
     6
  9
$SURFU
 70
     6
  9
$SURFV
 70
     6
  9
$UCSBASE
  2

  9
$UCSNAME
  2

  9
$UCSORG
 10
0.0
 20
0.0
 30
0.0
  9
$UCSXDIR
 10
1.0
 20
0.0
 30
0.0
  9
$UCSYDIR
 10
0.0
 20
1.0
 30
0.0
  9
$UCSORTHOREF
  2

  9
$UCSORTHOVIEW
 70
     0
  9
$UCSORGTOP
 10
0.0
 20
0.0
 30
0.0
  9
$UCSORGBOTTOM
 10
0.0
 20
0.0
 30
0.0
  9
$UCSORGLEFT
 10
0.0
 20
0.0
 30
0.0
  9
$UCSORGRIGHT
 10
0.0
 20
0.0
 30
0.0
  9
$UCSORGFRONT
 10
0.0
 20
0.0
 30
0.0
  9
$UCSORGBACK
 10
0.0
 20
0.0
 30
0.0
  9
$PUCSBASE
  2

  9
$PUCSNAME
  2

  9
$PUCSORG
 10
0.0
 20
0.0
 30
0.0
  9
$PUCSXDIR
 10
1.0
 20
0.0
 30
0.0
  9
$PUCSYDIR
 10
0.0
 20
1.0
 30
0.0
  9
$PUCSORTHOREF
  2

  9
$PUCSORTHOVIEW
 70
     0
  9
$PUCSORGTOP
 10
0.0
 20
0.0
 30
0.0
  9
$PUCSORGBOTTOM
 10
0.0
 20
0.0
 30
0.0
  9
$PUCSORGLEFT
 10
0.0
 20
0.0
 30
0.0
  9
$PUCSORGRIGHT
 10
0.0
 20
0.0
 30
0.0
  9
$PUCSORGFRONT
 10
0.0
 20
0.0
 30
0.0
  9
$PUCSORGBACK
 10
0.0
 20
0.0
 30
0.0
  9
$USERI1
 70
     0
  9
$USERI2
 70
     0
  9
$USERI3
 70
     0
  9
$USERI4
 70
     0
  9
$USERI5
 70
     0
  9
$USERR1
 40
0.0
  9
$USERR2
 40
0.0
  9
$USERR3
 40
0.0
  9
$USERR4
 40
0.0
  9
$USERR5
 40
0.0
  9
$WORLDVIEW
 70
     1
  9
$SHADEDGE
 70
     3
  9
$SHADEDIF
 70
    70
  9
$TILEMODE
 70
     1
  9
$MAXACTVP
 70
    64
  9
$PINSBASE
 10
0.0
 20
0.0
 30
0.0
  9
$PLIMCHECK
 70
     0
  9
$PEXTMIN
 10
1.0000000000E+20
 20
1.0000000000E+20
 30
1.0000000000E+20
  9
$PEXTMAX
 10
-1.0000000000E+20
 20
-1.0000000000E+20
 30
-1.0000000000E+20
  9
$PLIMMIN
 10
0.0
 20
0.0
  9
$PLIMMAX
 10
12.0
 20
9.0
  9
$UNITMODE
 70
     0
  9
$VISRETAIN
 70
     1
  9
$PLINEGEN
 70
     0
  9
$PSLTSCALE
 70
     1
  9
$TREEDEPTH
 70
  3020
  9
$CMLSTYLE
  2
Standard
  9
$CMLJUST
 70
     0
  9
$CMLSCALE
 40
1.0
  9
$PROXYGRAPHICS
 70
     1
  9
$MEASUREMENT
 70
     0
  9
$CELWEIGHT
370
    -1
  9
$ENDCAPS
280
     0
  9
$JOINSTYLE
280
     0
  9
$LWDISPLAY
290
     1
  9
$INSUNITS
 70
     1
  9
$HYPERLINKBASE
  1

  9
$STYLESHEET
  1

  9
$XEDIT
290
     1
  9
$CEPSNTYPE
380
     0
  9
$PSTYLEMODE
290
     1
  9
$FINGERPRINTGUID
  2
{4424B2B8-B1A6-4B3D-8E91-8F5CC76B0C89}
  9
$VERSIONGUID
  2
{FAEB1C32-E019-11D5-929B-00C0DF256EC4}
  9
$EXTNAMES
290
     1
  9
$PSVPSCALE
 40
0.0
  9
$OLESTARTUP
290
     0
  0
ENDSEC
  0
SECTION
  2
CLASSES
  0
CLASS
  1
ACDBDICTIONARYWDFLT
  2
AcDbDictionaryWithDefault
  3
ObjectDBX Classes
 90
        0
280
     0
281
     0
  0
CLASS
  1
ACDBPLACEHOLDER
  2
AcDbPlaceHolder
  3
ObjectDBX Classes
 90
        0
280
     0
281
     0
  0
CLASS
  1
LAYOUT
  2
AcDbLayout
  3
ObjectDBX Classes
 90
        0
280
     0
281
     0
  0
ENDSEC
  0
SECTION
  2
TABLES
  0
TABLE
  2
VPORT
  5
8
330
0
100
AcDbSymbolTable
 70
     1
  0
VPORT
  5
29
330
8
100
AcDbSymbolTableRecord
100
AcDbViewportTableRecord
  2
*Active
 70
     0
 10
0.0
 20
0.0
 11
1.0
 21
1.0
 12
5.5
 22
4.25
 13
0.0
 23
0.0
 14
0.5
 24
0.5
 15
0.5
 25
0.5
 16
0.0
 26
0.0
 36
1.0
 17
0.0
 27
0.0
 37
0.0
 40
8.5
 41
1.2941176471
 42
50.0
 43
0.0
 44
0.0
 50
0.0
 51
0.0
 71
     0
 72
  2000
 73
     1
 74
     3
 75
     0
 76
     0
 77
     0
 78
     0
281
     0
 65
     1
110
0.0
120
0.0
130
0.0
111
1.0
121
0.0
131
0.0
112
0.0
122
1.0
132
0.0
 79
     0
146
0.0
  0
ENDTAB
  0
TABLE
  2
LTYPE
  5
5
330
0
100
AcDbSymbolTable
 70
     6
  0
LTYPE
  5
14
330
5
100
AcDbSymbolTableRecord
100
AcDbLinetypeTableRecord
  2
ByBlock
 70
     0
  3

 72
    65
 73
     0
 40
0.0
  0
LTYPE
  5
15
330
5
100
AcDbSymbolTableRecord
100
AcDbLinetypeTableRecord
  2
ByLayer
 70
     0
  3

 72
    65
 73
     0
 40
0.0
  0
LTYPE
  5
16
330
5
100
AcDbSymbolTableRecord
100
AcDbLinetypeTableRecord
  2
Continuous
 70
     0
  3
Solid line
 72
    65
 73
     0
 40
0.0
  0
LTYPE
  5
2A
330
5
100
AcDbSymbolTableRecord
100
AcDbLinetypeTableRecord
  2
HIDDEN
 70
     0
  3
Hidden __ __ __ __ __ __ __ __ __ __ __ __ __ __
 72
    65
 73
     2
 40
0.075
 49
0.05
 74
     0
 49
-0.025
 74
     0
  0
LTYPE
  5
2B
330
5
100
AcDbSymbolTableRecord
100
AcDbLinetypeTableRecord
  2
PHANTOM
 70
     0
  3
Phantom ______  __  __  ______  __  __  ______
 72
    65
 73
     6
 40
0.5
 49
0.25
 74
     0
 49
-0.05
 74
     0
 49
0.05
 74
     0
 49
-0.05
 74
     0
 49
0.05
 74
     0
 49
-0.05
 74
     0
  0
LTYPE
  5
2C
330
5
100
AcDbSymbolTableRecord
100
AcDbLinetypeTableRecord
  2
CENTER
 70
     0
  3
Center ____ _ ____ _ ____ _ ____ _ ____ _ ____
 72
    65
 73
     4
 40
0.4
 49
0.25
 74
     0
 49
-0.05
 74
     0
 49
0.05
 74
     0
 49
-0.05
 74
     0
  0
LTYPE
  5
2D
330
5
100
AcDbSymbolTableRecord
100
AcDbLinetypeTableRecord
  2
CENTERX2
 70
     0
  3
Center (2x) ________  __  ________  __  _____
 72
    65
 73
     4
 40
0.8
 49
0.5
 74
     0
 49
-0.1
 74
     0
 49
0.1
 74
     0
 49
-0.1
 74
     0
  0
LTYPE
  5
2E
330
5
100
AcDbSymbolTableRecord
100
AcDbLinetypeTableRecord
  2
DOT2
 70
     0
  3
Dot (.5x) ........................................
 72
    65
 73
     2
 40
0.025
 49
0.0
 74
     0
 49
-0.025
 74
     0
  0
ENDTAB
  0
TABLE
  2
LAYER
  5
2
330
0
100
AcDbSymbolTable
 70
     2
  0
LAYER
  5
10
330
2
100
AcDbSymbolTableRecord
100
AcDbLayerTableRecord
  2
0
 70
     0
 62
     7
  6
Continuous
370
    -3
390
F
  0
LAYER
  5
2F
330
2
100
AcDbSymbolTableRecord
100
AcDbLayerTableRecord
  2
FORMAT
 70
     0
 62
     7
  6
Continuous
370
    -3
390
F
  0
ENDTAB
  0
TABLE
  2
STYLE
  5
3
330
0
100
AcDbSymbolTable
 70
    21
  0
STYLE
  5
11
330
3
100
AcDbSymbolTableRecord
100
AcDbTextStyleTableRecord
  2
Standard
 70
     0
 40
0.0
 41
1.0
 50
0.0
 71
     0
 42
0.2
  3
txt
  4

  0
STYLE
  5
4D
330
3
100
AcDbSymbolTableRecord
100
AcDbTextStyleTableRecord
  2
SLDTEXTSTYLE0
 70
     0
 40
0.0
 41
0.75
 50
0.0
 71
     0
 42
0.2
  3
TXT
  4

  0
STYLE
  5
56
330
3
100
AcDbSymbolTableRecord
100
AcDbTextStyleTableRecord
  2
SLDTEXTSTYLE1
 70
     0
 40
0.0
 41
0.6428571429
 50
0.0
 71
     0
 42
0.2
  3
TXT
  4

  0
STYLE
  5
58
330
3
100
AcDbSymbolTableRecord
100
AcDbTextStyleTableRecord
  2
SLDTEXTSTYLE2
 70
     0
 40
0.0
 41
0.7211538462
 50
0.0
 71
     0
 42
0.2
  3
TXT
  4

  0
STYLE
  5
63
330
3
100
AcDbSymbolTableRecord
100
AcDbTextStyleTableRecord
  2
SLDTEXTSTYLE3
 70
     0
 40
0.0
 41
0.6375
 50
0.0
 71
     0
 42
0.2
  3
TXT
  4

  0
STYLE
  5
69
330
3
100
AcDbSymbolTableRecord
100
AcDbTextStyleTableRecord
  2
SLDTEXTSTYLE4
 70
     0
 40
0.0
 41
0.7016129032
 50
0.0
 71
     0
 42
0.2
  3
TXT
  4

  0
STYLE
  5
6B
330
3
100
AcDbSymbolTableRecord
100
AcDbTextStyleTableRecord
  2
SLDTEXTSTYLE5
 70
     0
 40
0.0
 41
0.6853448276
 50
0.0
 71
     0
 42
0.2
  3
TXT
  4

  0
STYLE
  5
6D
330
3
100
AcDbSymbolTableRecord
100
AcDbTextStyleTableRecord
  2
SLDTEXTSTYLE6
 70
     0
 40
0.0
 41
0.689516129
 50
0.0
 71
     0
 42
0.2
  3
TXT
  4

  0
STYLE
  5
6F
330
3
100
AcDbSymbolTableRecord
100
AcDbTextStyleTableRecord
  2
SLDTEXTSTYLE7
 70
     0
 40
0.0
 41
0.6666666667
 50
0.0
 71
     0
 42
0.2
  3
TXT
  4

  0
STYLE
  5
71
330
3
100
AcDbSymbolTableRecord
100
AcDbTextStyleTableRecord
  2
SLDTEXTSTYLE8
 70
     0
 40
0.0
 41
0.7010869565
 50
0.0
 71
     0
 42
0.2
  3
TXT
  4

  0
STYLE
  5
73
330
3
100
AcDbSymbolTableRecord
100
AcDbTextStyleTableRecord
  2
SLDTEXTSTYLE9
 70
     0
 40
0.0
 41
0.7083333333
 50
0.0
 71
     0
 42
0.2
  3
TXT
  4

  0
STYLE
  5
82
330
3
100
AcDbSymbolTableRecord
100
AcDbTextStyleTableRecord
  2
SLDTEXTSTYLE10
 70
     0
 40
0.0
 41
0.65625
 50
0.0
 71
     0
 42
0.2
  3
TXT
  4

  0
STYLE
  5
89
330
3
100
AcDbSymbolTableRecord
100
AcDbTextStyleTableRecord
  2
SLDTEXTSTYLE11
 70
     0
 40
0.0
 41
0.7105263158
 50
0.0
 71
     0
 42
0.2
  3
TXT
  4

  0
STYLE
  5
92
330
3
100
AcDbSymbolTableRecord
100
AcDbTextStyleTableRecord
  2
SLDTEXTSTYLE12
 70
     0
 40
0.0
 41
0.69375
 50
0.0
 71
     0
 42
0.2
  3
TXT
  4

  0
STYLE
  5
94
330
3
100
AcDbSymbolTableRecord
100
AcDbTextStyleTableRecord
  2
SLDTEXTSTYLE13
 70
     0
 40
0.0
 41
0.6988636364
 50
0.0
 71
     0
 42
0.2
  3
TXT
  4

  0
STYLE
  5
96
330
3
100
AcDbSymbolTableRecord
100
AcDbTextStyleTableRecord
  2
SLDTEXTSTYLE14
 70
     0
 40
0.0
 41
0.7115384615
 50
0.0
 71
     0
 42
0.2
  3
TXT
  4

  0
STYLE
  5
99
330
3
100
AcDbSymbolTableRecord
100
AcDbTextStyleTableRecord
  2
SLDTEXTSTYLE15
 70
     0
 40
0.0
 41
0.6796875
 50
0.0
 71
     0
 42
0.2
  3
TXT
  4

  0
STYLE
  5
A3
330
3
100
AcDbSymbolTableRecord
100
AcDbTextStyleTableRecord
  2
SLDTEXTSTYLE16
 70
     0
 40
0.0
 41
0.6995192308
 50
0.0
 71
     0
 42
0.2
  3
TXT
  4

  0
STYLE
  5
452
330
3
100
AcDbSymbolTableRecord
100
AcDbTextStyleTableRecord
  2
SLDTEXTSTYLE17
 70
     0
 40
0.0
 41
0.675
 50
0.0
 71
     0
 42
0.2
  3
TXT
  4

  0
STYLE
  5
454
330
3
100
AcDbSymbolTableRecord
100
AcDbTextStyleTableRecord
  2
SLDTEXTSTYLE18
 70
     0
 40
0.0
 41
0.625
 50
0.0
 71
     0
 42
0.2
  3
TXT
  4

  0
STYLE
  5
45A
330
3
100
AcDbSymbolTableRecord
100
AcDbTextStyleTableRecord
  2
SLDTEXTSTYLE19
 70
     0
 40
0.0
 41
0.6875
 50
0.0
 71
     0
 42
0.2
  3
TXT
  4

  0
ENDTAB
  0
TABLE
  2
VIEW
  5
6
330
0
100
AcDbSymbolTable
 70
     0
  0
ENDTAB
  0
TABLE
  2
UCS
  5
7
330
0
100
AcDbSymbolTable
 70
     0
  0
ENDTAB
  0
TABLE
  2
APPID
  5
9
330
0
100
AcDbSymbolTable
 70
     1
  0
APPID
  5
12
330
9
100
AcDbSymbolTableRecord
100
AcDbRegAppTableRecord
  2
ACAD
 70
     0
  0
ENDTAB
  0
TABLE
  2
DIMSTYLE
  5
A
330
0
100
AcDbSymbolTable
 70
     7
100
AcDbDimStyleTable
  0
DIMSTYLE
105
27
330
A
100
AcDbSymbolTableRecord
100
AcDbDimStyleTableRecord
  2
Standard
 70
     0
340
11
  0
DIMSTYLE
105
D6
102
{ACAD_REACTORS
330
D5
102
}
330
A
100
AcDbSymbolTableRecord
100
AcDbDimStyleTableRecord
  2
SLDDIMSTYLE0
 70
     0
 41
0.156
 44
0.0
 78
     4
140
0.1041666667
147
0.0260416667
170
     1
172
     1
173
     1
271
     2
272
     2
284
    12
340
4D
  0
DIMSTYLE
105
3CE
102
{ACAD_REACTORS
330
3CD
330
3F3
102
}
330
A
100
AcDbSymbolTableRecord
100
AcDbDimStyleTableRecord
  2
SLDDIMSTYLE1
 70
     0
 41
0.156
 44
0.0
 78
    12
140
0.1041666667
147
0.0260416667
170
     1
173
     1
271
     2
272
     2
284
    12
340
4D
  0
DIMSTYLE
105
3E1
102
{ACAD_REACTORS
330
3E0
330
405
330
42A
102
}
330
A
100
AcDbSymbolTableRecord
100
AcDbDimStyleTableRecord
  2
SLDDIMSTYLE2
 70
     0
 41
0.156
 44
0.0
 78
     8
140
0.1041666667
147
0.0260416667
170
     1
173
     1
271
     2
272
     2
284
    12
340
4D
  0
DIMSTYLE
105
418
102
{ACAD_REACTORS
330
417
102
}
330
A
100
AcDbSymbolTableRecord
100
AcDbDimStyleTableRecord
  2
SLDDIMSTYLE3
 70
     0
 41
0.156
 44
0.0
 78
     4
140
0.1041666667
147
0.0260416667
170
     1
173
     1
271
     3
272
     3
284
    12
340
4D
  0
DIMSTYLE
105
43D
102
{ACAD_REACTORS
330
43C
102
}
330
A
100
AcDbSymbolTableRecord
100
AcDbDimStyleTableRecord
  2
SLDDIMSTYLE4
 70
     0
 41
0.156
 44
0.0
 78
     4
140
0.1041666667
147
0.0260416667
170
     1
173
     1
271
     2
272
     2
284
    12
340
4D
  0
DIMSTYLE
105
45E
330
A
100
AcDbSymbolTableRecord
100
AcDbDimStyleTableRecord
  2
SLDDIMSTYLE5
 70
     0
 41
0.156
 44
0.0
140
0.156
147
0.039
173
     1
271
     0
272
     0
340
11
  0
ENDTAB
  0
TABLE
  2
BLOCK_RECORD
  5
1
330
0
100
AcDbSymbolTable
 70
    22
  0
BLOCK_RECORD
  5
1F
330
1
100
AcDbSymbolTableRecord
100
AcDbBlockTableRecord
  2
*Model_Space
340
22
  0
BLOCK_RECORD
  5
1B
330
1
100
AcDbSymbolTableRecord
100
AcDbBlockTableRecord
  2
*Paper_Space
340
1E
  0
BLOCK_RECORD
  5
23
330
1
100
AcDbSymbolTableRecord
100
AcDbBlockTableRecord
  2
*Paper_Space0
340
26
  0
BLOCK_RECORD
  5
66
330
1
100
AcDbSymbolTableRecord
100
AcDbBlockTableRecord
  2
SW_NOTE_0
340
0
102
{BLKREFS
331
75
102
}
1001
ACAD
1000
DesignCenter Data
1002
{
1070
     1
1070
     0
1002
}
  0
BLOCK_RECORD
  5
7F
330
1
100
AcDbSymbolTableRecord
100
AcDbBlockTableRecord
  2
SW_NOTE_1
340
0
102
{BLKREFS
331
85
102
}
1001
ACAD
1000
DesignCenter Data
1002
{
1070
     1
1070
     0
1002
}
  0
BLOCK_RECORD
  5
86
330
1
100
AcDbSymbolTableRecord
100
AcDbBlockTableRecord
  2
SW_NOTE_2
340
0
102
{BLKREFS
331
8C
102
}
1001
ACAD
1000
DesignCenter Data
1002
{
1070
     1
1070
     0
1002
}
  0
BLOCK_RECORD
  5
8E
330
1
100
AcDbSymbolTableRecord
100
AcDbBlockTableRecord
  2
SW_NOTE_3
340
0
102
{BLKREFS
331
9D
102
}
1001
ACAD
1000
DesignCenter Data
1002
{
1070
     1
1070
     0
1002
}
  0
BLOCK_RECORD
  5
9F
330
1
100
AcDbSymbolTableRecord
100
AcDbBlockTableRecord
  2
SW_NOTE_4
340
0
102
{BLKREFS
331
A5
102
}
1001
ACAD
1000
DesignCenter Data
1002
{
1070
     1
1070
     0
1002
}
  0
BLOCK_RECORD
  5
A6
330
1
100
AcDbSymbolTableRecord
100
AcDbBlockTableRecord
  2
SW_TABLEANNOTATION_0
340
0
102
{BLKREFS
331
C2
102
}
1001
ACAD
1000
DesignCenter Data
1002
{
1070
     1
1070
     0
1002
}
  0
BLOCK_RECORD
  5
D7
330
1
100
AcDbSymbolTableRecord
100
AcDbBlockTableRecord
  2
*D7
340
0
  0
BLOCK_RECORD
  5
3CF
330
1
100
AcDbSymbolTableRecord
100
AcDbBlockTableRecord
  2
*D8
340
0
  0
BLOCK_RECORD
  5
3E2
330
1
100
AcDbSymbolTableRecord
100
AcDbBlockTableRecord
  2
*D9
340
0
  0
BLOCK_RECORD
  5
3F4
330
1
100
AcDbSymbolTableRecord
100
AcDbBlockTableRecord
  2
*D10
340
0
  0
BLOCK_RECORD
  5
406
330
1
100
AcDbSymbolTableRecord
100
AcDbBlockTableRecord
  2
*D11
340
0
  0
BLOCK_RECORD
  5
419
330
1
100
AcDbSymbolTableRecord
100
AcDbBlockTableRecord
  2
*D12
340
0
  0
BLOCK_RECORD
  5
42B
330
1
100
AcDbSymbolTableRecord
100
AcDbBlockTableRecord
  2
*D13
340
0
  0
BLOCK_RECORD
  5
43E
330
1
100
AcDbSymbolTableRecord
100
AcDbBlockTableRecord
  2
*D14
340
0
  0
BLOCK_RECORD
  5
44F
330
1
100
AcDbSymbolTableRecord
100
AcDbBlockTableRecord
  2
SW_NOTE_5
340
0
102
{BLKREFS
331
456
102
}
1001
ACAD
1000
DesignCenter Data
1002
{
1070
     1
1070
     0
1002
}
  0
BLOCK_RECORD
  5
457
330
1
100
AcDbSymbolTableRecord
100
AcDbBlockTableRecord
  2
SW_NOTE_6
340
0
102
{BLKREFS
331
45D
102
}
1001
ACAD
1000
DesignCenter Data
1002
{
1070
     1
1070
     0
1002
}
  0
BLOCK_RECORD
  5
461
330
1
100
AcDbSymbolTableRecord
100
AcDbBlockTableRecord
  2
SW_NOTE_7
340
0
102
{BLKREFS
331
466
102
}
1001
ACAD
1000
DesignCenter Data
1002
{
1070
     1
1070
     0
1002
}
  0
BLOCK_RECORD
  5
468
330
1
100
AcDbSymbolTableRecord
100
AcDbBlockTableRecord
  2
SW_NOTE_8
340
0
102
{BLKREFS
331
46D
102
}
1001
ACAD
1000
DesignCenter Data
1002
{
1070
     1
1070
     0
1002
}
  0
BLOCK_RECORD
  5
46F
330
1
100
AcDbSymbolTableRecord
100
AcDbBlockTableRecord
  2
SW_NOTE_9
340
0
102
{BLKREFS
331
474
102
}
1001
ACAD
1000
DesignCenter Data
1002
{
1070
     1
1070
     0
1002
}
  0
BLOCK_RECORD
  5
477
330
1
100
AcDbSymbolTableRecord
100
AcDbBlockTableRecord
  2
SW_NOTE_10
340
0
102
{BLKREFS
331
47C
102
}
1001
ACAD
1000
DesignCenter Data
1002
{
1070
     1
1070
     0
1002
}
  0
BLOCK_RECORD
  5
47E
330
1
100
AcDbSymbolTableRecord
100
AcDbBlockTableRecord
  2
SW_NOTE_11
340
0
102
{BLKREFS
331
483
102
}
1001
ACAD
1000
DesignCenter Data
1002
{
1070
     1
1070
     0
1002
}
  0
ENDTAB
  0
ENDSEC
  0
SECTION
  2
BLOCKS
  0
BLOCK
  5
20
330
1F
100
AcDbEntity
  8
0
100
AcDbBlockBegin
  2
*Model_Space
 70
     0
 71
     0
 10
0.0
 20
0.0
 30
0.0
  3
*Model_Space
  1

  0
ENDBLK
  5
21
330
1F
100
AcDbEntity
  8
0
100
AcDbBlockEnd
  0
BLOCK
  5
1C
330
1B
100
AcDbEntity
 67
     1
  8
0
100
AcDbBlockBegin
  2
*Paper_Space
 70
     0
 71
     0
 10
0.0
 20
0.0
 30
0.0
  3
*Paper_Space
  1

  0
ENDBLK
  5
1D
330
1B
100
AcDbEntity
 67
     1
  8
0
100
AcDbBlockEnd
  0
BLOCK
  5
24
330
23
100
AcDbEntity
  8
0
100
AcDbBlockBegin
  2
*Paper_Space0
 70
     0
 71
     0
 10
0.0
 20
0.0
 30
0.0
  3
*Paper_Space0
  1

  0
ENDBLK
  5
25
330
23
100
AcDbEntity
  8
0
100
AcDbBlockEnd
  0
BLOCK
  5
67
330
66
100
AcDbEntity
  8
0
100
AcDbBlockBegin
  2
SW_NOTE_0
 70
     0
 71
     0
 10
0.0
 20
0.0
 30
0.0
  3
SW_NOTE_0
  1

  0
MTEXT
  5
6A
330
66
100
AcDbEntity
  8
0
  6
Continuous
 62
     0
370
     0
100
AcDbMText
 10
0.0
 20
0.076640625
 30
0.0
 40
0.06
 41
0.0
 71
     1
 72
     1
  1
THE INFORMATION CONTAINED IN THIS
  7
SLDTEXTSTYLE4
 73
     1
 44
1.0
  0
MTEXT
  5
6C
330
66
100
AcDbEntity
  8
0
  6
Continuous
 62
     0
370
     0
100
AcDbMText
 10
0.0
 20
-0.0227294496
 30
0.0
 40
0.06
 41
0.0
 71
     1
 72
     1
  1
DRAWING IS THE SOLE PROPERTY OF
  7
SLDTEXTSTYLE5
 73
     1
 44
1.0
  0
MTEXT
  5
6E
330
66
100
AcDbEntity
  8
0
  6
Continuous
 62
     0
370
     0
100
AcDbMText
 10
0.0
 20
-0.1220995241
 30
0.0
 40
0.06
 41
0.0
 71
     1
 72
     1
  1
THORLABS, INC.  ANY REPRODUCTION 
  7
SLDTEXTSTYLE6
 73
     1
 44
1.0
  0
MTEXT
  5
70
330
66
100
AcDbEntity
  8
0
  6
Continuous
 62
     0
370
     0
100
AcDbMText
 10
0.0
 20
-0.2214695987
 30
0.0
 40
0.06
 41
0.0
 71
     1
 72
     1
  1
IN PART OR AS A WHOLE WITHOUT
  7
SLDTEXTSTYLE7
 73
     1
 44
1.0
  0
MTEXT
  5
72
330
66
100
AcDbEntity
  8
0
  6
Continuous
 62
     0
370
     0
100
AcDbMText
 10
0.0
 20
-0.3208396733
 30
0.0
 40
0.06
 41
0.0
 71
     1
 72
     1
  1
THE WRITTEN PERMISSION OF
  7
SLDTEXTSTYLE8
 73
     1
 44
1.0
  0
MTEXT
  5
74
330
66
100
AcDbEntity
  8
0
  6
Continuous
 62
     0
370
     0
100
AcDbMText
 10
0.0
 20
-0.4202097478
 30
0.0
 40
0.06
 41
0.0
 71
     1
 72
     1
  1
THORLABS, INC. IS PROHIBITED.
  7
SLDTEXTSTYLE9
 73
     1
 44
1.0
  0
ENDBLK
  5
68
330
66
100
AcDbEntity
  8
0
100
AcDbBlockEnd
  0
BLOCK
  5
80
330
7F
100
AcDbEntity
  8
0
100
AcDbBlockBegin
  2
SW_NOTE_1
 70
     0
 71
     0
 10
0.0
 20
0.0
 30
0.0
  3
SW_NOTE_1
  1

  0
MTEXT
  5
83
330
7F
100
AcDbEntity
  8
0
  6
Continuous
 62
     0
370
     0
100
AcDbMText
 10
0.0
 20
0.1330566406
 30
0.0
 40
0.1041666667
 41
0.0
 71
     1
 72
     1
  1
PO BOX 366
  7
SLDTEXTSTYLE10
 73
     1
 44
1.0
  0
MTEXT
  5
84
330
7F
100
AcDbEntity
  8
0
  6
Continuous
 62
     0
370
     0
100
AcDbMText
 10
0.0
 20
-0.0058322466
 30
0.0
 40
0.1041666667
 41
0.0
 71
     1
 72
     1
  1
NEWTON NJ
  7
SLDTEXTSTYLE0
 73
     1
 44
1.0
  0
ENDBLK
  5
81
330
7F
100
AcDbEntity
  8
0
100
AcDbBlockEnd
  0
BLOCK
  5
87
330
86
100
AcDbEntity
  8
0
100
AcDbBlockBegin
  2
SW_NOTE_2
 70
     0
 71
     0
 10
0.0
 20
0.0
 30
0.0
  3
SW_NOTE_2
  1

  0
MTEXT
  5
8A
330
86
100
AcDbEntity
  8
0
  6
Continuous
 62
     0
370
     0
100
AcDbMText
 10
0.0
 20
0.1330566406
 30
0.0
 40
0.1041666667
 41
0.0
 71
     1
 72
     1
  1
MATCHED ACHROMAT PAIR
  7
SLDTEXTSTYLE11
 73
     1
 44
1.0
  0
MTEXT
  5
8B
330
86
100
AcDbEntity
  8
0
  6
Continuous
 62
     0
370
     0
100
AcDbMText
 10
0.0
 20
-0.0058322466
 30
0.0
 40
0.1041666667
 41
0.0
 71
     1
 72
     1
  1
F1=30mm, F2=40mm
  7
SLDTEXTSTYLE0
 73
     1
 44
1.0
  0
ENDBLK
  5
88
330
86
100
AcDbEntity
  8
0
100
AcDbBlockEnd
  0
BLOCK
  5
8F
330
8E
100
AcDbEntity
  8
0
100
AcDbBlockBegin
  2
SW_NOTE_3
 70
     0
 71
     0
 10
0.0
 20
0.0
 30
0.0
  3
SW_NOTE_3
  1

  0
LINE
  5
91
330
8E
100
AcDbEntity
  8
0
  6
Continuous
 62
     0
370
     0
100
AcDbLine
 10
1.0817708433
 20
-0.6526041506
 30
0.0
 11
1.4039930543
 21
-0.6526041506
 31
0.0
  0
MTEXT
  5
93
330
8E
100
AcDbEntity
  8
0
  6
Continuous
 62
     0
370
     0
100
AcDbMText
 10
0.0
 20
0.1197509766
 30
0.0
 40
0.09375
 41
0.0
 71
     1
 72
     1
  1
DESIGN WAVELENGTH:  486.1, 587.6 & 656.3nm
  7
SLDTEXTSTYLE12
 73
     1
 44
1.0
  0
MTEXT
  5
95
330
8E
100
AcDbEntity
  8
0
  6
Continuous
 62
     0
370
     0
100
AcDbMText
 10
0.0
 20
-0.0052490219
 30
0.0
 40
0.09375
 41
0.0
 71
     1
 72
     1
  1
COATING:  BBAR 400-700nm
  7
SLDTEXTSTYLE13
 73
     1
 44
1.0
  0
MTEXT
  5
97
330
8E
100
AcDbEntity
  8
0
  6
Continuous
 62
     0
370
     0
100
AcDbMText
 10
0.0
 20
-0.1302490204
 30
0.0
 40
0.09375
 41
0.0
 71
     1
 72
     1
  1
COATING RANGE: R(AVG)<0.5% FROM 400-700nm
  7
SLDTEXTSTYLE14
 73
     1
 44
1.0
  0
MTEXT
  5
98
330
8E
100
AcDbEntity
  8
0
  6
Continuous
 62
     0
370
     0
100
AcDbMText
 10
0.0
 20
-0.2552490189
 30
0.0
 40
0.09375
 41
0.0
 71
     1
 72
     1
  1
MAGNIFICATION: 1:1.33
  7
SLDTEXTSTYLE0
 73
     1
 44
1.0
  0
MTEXT
  5
9A
330
8E
100
AcDbEntity
  8
0
  6
Continuous
 62
     0
370
     0
100
AcDbMText
 10
0.0
 20
-0.6091552547
 30
0.0
 40
0.09375
 41
0.0
 71
     1
 72
     1
  1
Dimensions are in 
  7
SLDTEXTSTYLE15
 73
     1
 44
1.0
  0
MTEXT
  5
9B
330
8E
100
AcDbEntity
  8
0
  6
Continuous
 62
     0
370
     0
100
AcDbMText
 10
1.0817708433
 20
-0.5052490159
 30
0.0
 40
0.09375
 41
0.0
 71
     1
 72
     1
  1
[mm]
  7
SLDTEXTSTYLE0
 73
     1
 44
1.0
  0
MTEXT
  5
9C
330
8E
100
AcDbEntity
  8
0
  6
Continuous
 62
     0
370
     0
100
AcDbMText
 10
1.1922743109
 20
-0.6854573399
 30
0.0
 40
0.09375
 41
0.0
 71
     1
 72
     1
  1
in
  7
SLDTEXTSTYLE0
 73
     1
 44
1.0
  0
ENDBLK
  5
90
330
8E
100
AcDbEntity
  8
0
100
AcDbBlockEnd
  0
BLOCK
  5
A0
330
9F
100
AcDbEntity
  8
0
100
AcDbBlockBegin
  2
SW_NOTE_4
 70
     0
 71
     0
 10
0.0
 20
0.0
 30
0.0
  3
SW_NOTE_4
  1

  0
MTEXT
  5
A2
330
9F
100
AcDbEntity
  8
0
  6
Continuous
 62
     0
370
     0
100
AcDbMText
 10
0.0
 20
0.1149609375
 30
0.0
 40
0.09
 41
0.0
 71
     1
 72
     1
  1
NOTE:
  7
SLDTEXTSTYLE0
 73
     1
 44
1.0
  0
MTEXT
  5
A4
330
9F
100
AcDbEntity
  8
0
  6
Continuous
 62
     0
370
     0
100
AcDbMText
 10
0.0
 20
-0.0144091455
 30
0.0
 40
0.09
 41
0.0
 71
     1
 72
     1
  1
FOR INFORMATION ONLY.  NOT INTENDED FOR MANUFACTURING.
  7
SLDTEXTSTYLE16
 73
     1
 44
1.0
  0
ENDBLK
  5
A1
330
9F
100
AcDbEntity
  8
0
100
AcDbBlockEnd
  0
BLOCK
  5
A7
330
A6
100
AcDbEntity
  8
0
100
AcDbBlockBegin
  2
SW_TABLEANNOTATION_0
 70
     0
 71
     0
 10
0.0
 20
0.0
 30
0.0
  3
SW_TABLEANNOTATION_0
  1

  0
LINE
  5
A9
330
A6
100
AcDbEntity
  8
0
  6
Continuous
 62
     0
370
     0
100
AcDbLine
 10
0.0
 20
0.0
 30
0.0
 11
0.0
 21
-1.0877351438
 31
0.0
  0
LINE
  5
AA
330
A6
100
AcDbEntity
  8
0
  6
Continuous
 62
     0
370
     0
100
AcDbLine
 10
0.0
 20
-1.0877351438
 30
0.0
 11
5.3007222216
 21
-1.0877351438
 31
0.0
  0
LINE
  5
AB
330
A6
100
AcDbEntity
  8
0
  6
Continuous
 62
     0
370
     0
100
AcDbLine
 10
5.3007222216
 20
-1.0877351438
 30
0.0
 11
5.3007222216
 21
0.0
 31
0.0
  0
LINE
  5
AC
330
A6
100
AcDbEntity
  8
0
  6
Continuous
 62
     0
370
     0
100
AcDbLine
 10
5.3007222216
 20
0.0
 30
0.0
 11
0.0
 21
0.0
 31
0.0
  0
LINE
  5
AD
330
A6
100
AcDbEntity
  8
0
  6
Continuous
 62
     0
370
     0
100
AcDbLine
 10
1.7669074072
 20
0.0
 30
0.0
 11
1.7669074072
 21
-1.0877351438
 31
0.0
  0
LINE
  5
AE
330
A6
100
AcDbEntity
  8
0
  6
Continuous
 62
     0
370
     0
100
AcDbLine
 10
3.5338148144
 20
0.0
 30
0.0
 11
3.5338148144
 21
-1.0877351438
 31
0.0
  0
LINE
  5
AF
330
A6
100
AcDbEntity
  8
0
  6
Continuous
 62
     0
370
     0
100
AcDbLine
 10
0.0
 20
-0.2175470288
 30
0.0
 11
5.3007222216
 21
-0.2175470288
 31
0.0
  0
LINE
  5
B0
330
A6
100
AcDbEntity
  8
0
  6
Continuous
 62
     0
370
     0
100
AcDbLine
 10
0.0
 20
-0.4350940575
 30
0.0
 11
5.3007222216
 21
-0.4350940575
 31
0.0
  0
LINE
  5
B1
330
A6
100
AcDbEntity
  8
0
  6
Continuous
 62
     0
370
     0
100
AcDbLine
 10
0.0
 20
-0.6526410863
 30
0.0
 11
5.3007222216
 21
-0.6526410863
 31
0.0
  0
LINE
  5
B2
330
A6
100
AcDbEntity
  8
0
  6
Continuous
 62
     0
370
     0
100
AcDbLine
 10
0.0
 20
-0.870188115
 30
0.0
 11
5.3007222216
 21
-0.870188115
 31
0.0
  0
MTEXT
  5
B3
330
A6
100
AcDbEntity
  8
0
  6
Continuous
 62
     0
370
     0
100
AcDbMText
 10
0.6662347763
 20
-0.0391846857
 30
0.0
 40
0.1377952756
 41
0.0
 71
     1
 72
     1
  1
PART
  7
SLDTEXTSTYLE0
 73
     1
 44
1.0
  0
MTEXT
  5
B4
330
A6
100
AcDbEntity
  8
0
  6
Continuous
 62
     0
370
     0
100
AcDbMText
 10
2.2344873384
 20
-0.0391846857
 30
0.0
 40
0.1377952756
 41
0.0
 71
     1
 72
     1
  1
PART NO.
  7
SLDTEXTSTYLE0
 73
     1
 44
1.0
  0
MTEXT
  5
B5
330
A6
100
AcDbEntity
  8
0
  6
Continuous
 62
     0
370
     0
100
AcDbMText
 10
3.9896246982
 20
-0.0391846857
 30
0.0
 40
0.1377952756
 41
0.0
 71
     1
 72
     1
  1
MATERIAL
  7
SLDTEXTSTYLE0
 73
     1
 44
1.0
  0
MTEXT
  5
B6
330
A6
100
AcDbEntity
  8
0
  6
Continuous
 62
     0
370
     0
100
AcDbMText
 10
0.8155129793
 20
-0.2567317144
 30
0.0
 40
0.1377952756
 41
0.0
 71
     1
 72
     1
  1
A
  7
SLDTEXTSTYLE0
 73
     1
 44
1.0
  0
MTEXT
  5
B7
330
A6
100
AcDbEntity
  8
0
  6
Continuous
 62
     0
370
     0
100
AcDbMText
 10
2.0224357113
 20
-0.2567317144
 30
0.0
 40
0.1377952756
 41
0.0
 71
     1
 72
     1
  1
AC254-030-A1
  7
SLDTEXTSTYLE0
 73
     1
 44
1.0
  0
MTEXT
  5
B8
330
A6
100
AcDbEntity
  8
0
  6
Continuous
 62
     0
370
     0
100
AcDbMText
 10
3.8682882899
 20
-0.2567317144
 30
0.0
 40
0.1377952756
 41
0.0
 71
     1
 72
     1
  1
BAFN10-SFL6
  7
SLDTEXTSTYLE0
 73
     1
 44
1.0
  0
MTEXT
  5
B9
330
A6
100
AcDbEntity
  8
0
  6
Continuous
 62
     0
370
     0
100
AcDbMText
 10
0.8307278706
 20
-0.4742787432
 30
0.0
 40
0.1377952756
 41
0.0
 71
     1
 72
     1
  1
B
  7
SLDTEXTSTYLE0
 73
     1
 44
1.0
  0
MTEXT
  5
BA
330
A6
100
AcDbEntity
  8
0
  6
Continuous
 62
     0
370
     0
100
AcDbMText
 10
2.0224357113
 20
-0.4742787432
 30
0.0
 40
0.1377952756
 41
0.0
 71
     1
 72
     1
  1
AC254-040-A1
  7
SLDTEXTSTYLE0
 73
     1
 44
1.0
  0
MTEXT
  5
BB
330
A6
100
AcDbEntity
  8
0
  6
Continuous
 62
     0
370
     0
100
AcDbMText
 10
4.0877081451
 20
-0.4742787432
 30
0.0
 40
0.1377952756
 41
0.0
 71
     1
 72
     1
  1
BK7-SF5
  7
SLDTEXTSTYLE0
 73
     1
 44
1.0
  0
MTEXT
  5
BC
330
A6
100
AcDbEntity
  8
0
  6
Continuous
 62
     0
370
     0
100
AcDbMText
 10
0.8088145975
 20
-0.691825772
 30
0.0
 40
0.1377952756
 41
0.0
 71
     1
 72
     1
  1
C
  7
SLDTEXTSTYLE0
 73
     1
 44
1.0
  0
MTEXT
  5
BD
330
A6
100
AcDbEntity
  8
0
  6
Continuous
 62
     0
370
     0
100
AcDbMText
 10
2.088079873
 20
-0.691825772
 30
0.0
 40
0.1377952756
 41
0.0
 71
     1
 72
     1
  1
LENS MOUNT
  7
SLDTEXTSTYLE0
 73
     1
 44
1.0
  0
MTEXT
  5
BE
330
A6
100
AcDbEntity
  8
0
  6
Continuous
 62
     0
370
     0
100
AcDbMText
 10
3.5937345782
 20
-0.6960533749
 30
0.0
 40
0.1354166667
 41
0.0
 71
     1
 72
     1
  1
6061-T6 ALUMINUM
  7
SLDTEXTSTYLE0
 73
     1
 44
1.0
  0
MTEXT
  5
BF
330
A6
100
AcDbEntity
  8
0
  6
Continuous
 62
     0
370
     0
100
AcDbMText
 10
0.8151302112
 20
-0.9093728007
 30
0.0
 40
0.1377952756
 41
0.0
 71
     1
 72
     1
  1
D
  7
SLDTEXTSTYLE0
 73
     1
 44
1.0
  0
MTEXT
  5
C0
330
A6
100
AcDbEntity
  8
0
  6
Continuous
 62
     0
370
     0
100
AcDbMText
 10
2.3577375412
 20
-0.9093728007
 30
0.0
 40
0.1377952756
 41
0.0
 71
     1
 72
     1
  1
SM1RR
  7
SLDTEXTSTYLE0
 73
     1
 44
1.0
  0
MTEXT
  5
C1
330
A6
100
AcDbEntity
  8
0
  6
Continuous
 62
     0
370
     0
100
AcDbMText
 10
3.5937345782
 20
-0.9136004036
 30
0.0
 40
0.1354166667
 41
0.0
 71
     1
 72
     1
  1
6061-T6 ALUMINUM
  7
SLDTEXTSTYLE0
 73
     1
 44
1.0
  0
ENDBLK
  5
A8
330
A6
100
AcDbEntity
  8
0
100
AcDbBlockEnd
  0
BLOCK
  5
D8
330
D7
100
AcDbEntity
  8
0
100
AcDbBlockBegin
  2
*D7
 70
     1
 71
     0
 10
0.0
 20
0.0
 30
0.0
  3
*D7
  1

  0
SOLID
  5
DA
330
D7
100
AcDbEntity
  8
0
  6
Continuous
 62
     7
370
     0
100
AcDbTrace
 10
2.7866803748
 20
4.8270099066
 30
0.0
 11
2.8871132499
 21
4.9491787963
 31
0.0
 12
2.8420621032
 22
4.9751478969
 32
0.0
 13
2.8420621032
 23
4.9751478969
 33
0.0
  0
LINE
  5
DB
330
D7
100
AcDbEntity
  8
0
  6
Continuous
 62
     7
370
     0
100
AcDbLine
 10
3.3798287159
 20
5.3793281269
 30
0.0
 11
3.3798287159
 21
5.2386852086
 31
0.0
  0
LINE
  5
DC
330
D7
100
AcDbEntity
  8
0
  6
Continuous
 62
     7
370
     0
100
AcDbLine
 10
3.3798287159
 20
5.2386852086
 30
0.0
 11
3.4009298832
 21
5.2386852086
 31
0.0
  0
LINE
  5
DD
330
D7
100
AcDbEntity
  8
0
  6
Continuous
 62
     7
370
     0
100
AcDbLine
 10
3.3798287159
 20
5.3793281269
 30
0.0
 11
3.4009298832
 21
5.3793281269
 31
0.0
  0
LINE
  5
DE
330
D7
100
AcDbEntity
  8
0
  6
Continuous
 62
     7
370
     0
100
AcDbLine
 10
3.8104380544
 20
5.3793281269
 30
0.0
 11
3.8104380544
 21
5.2386852086
 31
0.0
  0
LINE
  5
DF
330
D7
100
AcDbEntity
  8
0
  6
Continuous
 62
     7
370
     0
100
AcDbLine
 10
3.8104380544
 20
5.2386852086
 30
0.0
 11
3.7893368871
 21
5.2386852086
 31
0.0
  0
LINE
  5
E0
330
D7
100
AcDbEntity
  8
0
  6
Continuous
 62
     7
370
     0
100
AcDbLine
 10
3.8104380544
 20
5.3793281269
 30
0.0
 11
3.7893368871
 21
5.3793281269
 31
0.0
  0
LINE
  5
E1
330
D7
100
AcDbEntity
  8
0
  6
Continuous
 62
     7
370
     0
100
AcDbLine
 10
2.7866803748
 20
4.8270099066
 30
0.0
 11
3.0168314396
 21
5.2262755393
 31
0.0
  0
LINE
  5
E2
330
D7
100
AcDbEntity
  8
0
  6
Continuous
 62
     7
370
     0
100
AcDbLine
 10
3.0168314396
 20
5.2262755393
 30
0.0
 11
3.2668314396
 21
5.2262755393
 31
0.0
  0
MTEXT
  5
E3
330
D7
100
AcDbEntity
  8
0
  6
Continuous
 62
     7
370
     0
100
AcDbMText
 10
3.3860644746
 20
5.1938699209
 30
0.0
 40
0.1041666667
 41
0.0
 71
     1
 72
     1
  1
%%c
  7
SLDTEXTSTYLE0
 73
     1
 44
1.0
  0
MTEXT
  5
E4
330
D7
100
AcDbEntity
  8
0
  6
Continuous
 62
     7
370
     0
100
AcDbMText
 10
3.5349805058
 20
5.1938699209
 30
0.0
 40
0.1041666667
 41
0.0
 71
     1
 72
     1
  1
1.20
  7
SLDTEXTSTYLE0
 73
     1
 44
1.0
  0
MTEXT
  5
E5
330
D7
100
AcDbEntity
  8
0
  6
Continuous
 62
     7
370
     0
100
AcDbMText
 10
3.4220310505
 20
5.3593321777
 30
0.0
 40
0.1041666667
 41
0.0
 71
     1
 72
     1
  1
30.48
  7
SLDTEXTSTYLE0
 73
     1
 44
1.0
  0
ENDBLK
  5
D9
330
D7
100
AcDbEntity
  8
0
100
AcDbBlockEnd
  0
BLOCK
  5
3D0
330
3CF
100
AcDbEntity
  8
0
100
AcDbBlockBegin
  2
*D8
 70
     1
 71
     0
 10
0.0
 20
0.0
 30
0.0
  3
*D8
  1

  0
SOLID
  5
3D2
330
3CF
100
AcDbEntity
  8
0
  6
Continuous
 62
     7
370
     0
100
AcDbTrace
 10
5.6675274854
 20
3.1558584563
 30
0.0
 11
5.8235274854
 21
3.1298584563
 31
0.0
 12
5.8235274854
 22
3.1818584563
 32
0.0
 13
5.8235274854
 23
3.1818584563
 33
0.0
  0
SOLID
  5
3D3
330
3CF
100
AcDbEntity
  8
0
  6
Continuous
 62
     7
370
     0
100
AcDbTrace
 10
6.8449345326
 20
3.1558584563
 30
0.0
 11
6.6889345326
 21
3.1818584563
 31
0.0
 12
6.6889345326
 22
3.1298584563
 32
0.0
 13
6.6889345326
 23
3.1298584563
 33
0.0
  0
LINE
  5
3D4
330
3CF
100
AcDbEntity
  8
0
  6
Continuous
 62
     7
370
     0
100
AcDbLine
 10
6.0139759827
 20
3.3089110438
 30
0.0
 11
6.0139759827
 21
3.1682681256
 31
0.0
  0
LINE
  5
3D5
330
3CF
100
AcDbEntity
  8
0
  6
Continuous
 62
     7
370
     0
100
AcDbLine
 10
6.0139759827
 20
3.1682681256
 30
0.0
 11
6.03507715
 21
3.1682681256
 31
0.0
  0
LINE
  5
3D6
330
3CF
100
AcDbEntity
  8
0
  6
Continuous
 62
     7
370
     0
100
AcDbLine
 10
6.0139759827
 20
3.3089110438
 30
0.0
 11
6.03507715
 21
3.3089110438
 31
0.0
  0
LINE
  5
3D7
330
3CF
100
AcDbEntity
  8
0
  6
Continuous
 62
     7
370
     0
100
AcDbLine
 10
6.4445853212
 20
3.3089110438
 30
0.0
 11
6.4445853212
 21
3.1682681256
 31
0.0
  0
LINE
  5
3D8
330
3CF
100
AcDbEntity
  8
0
  6
Continuous
 62
     7
370
     0
100
AcDbLine
 10
6.4445853212
 20
3.1682681256
 30
0.0
 11
6.4234841539
 21
3.1682681256
 31
0.0
  0
LINE
  5
3D9
330
3CF
100
AcDbEntity
  8
0
  6
Continuous
 62
     7
370
     0
100
AcDbLine
 10
6.4445853212
 20
3.3089110438
 30
0.0
 11
6.4234841539
 21
3.3089110438
 31
0.0
  0
LINE
  5
3DA
330
3CF
100
AcDbEntity
  8
0
  6
Continuous
 62
     7
370
     0
100
AcDbLine
 10
5.6675274854
 20
4.2571889837
 30
0.0
 11
5.6675274854
 21
3.0308584563
 31
0.0
  0
LINE
  5
3DB
330
3CF
100
AcDbEntity
  8
0
  6
Continuous
 62
     7
370
     0
100
AcDbLine
 10
6.8449345326
 20
3.6671889837
 30
0.0
 11
6.8449345326
 21
3.0308584563
 31
0.0
  0
LINE
  5
3DC
330
3CF
100
AcDbEntity
  8
0
  6
Continuous
 62
     7
370
     0
100
AcDbLine
 10
5.6675274854
 20
3.1558584563
 30
0.0
 11
5.8881360994
 21
3.1558584563
 31
0.0
  0
LINE
  5
3DD
330
3CF
100
AcDbEntity
  8
0
  6
Continuous
 62
     7
370
     0
100
AcDbLine
 10
6.8449345326
 20
3.1558584563
 30
0.0
 11
6.5704252045
 21
3.1558584563
 31
0.0
  0
MTEXT
  5
3DE
330
3CF
100
AcDbEntity
  8
0
  6
Continuous
 62
     7
370
     0
100
AcDbMText
 10
6.094669757
 20
3.1234528378
 30
0.0
 40
0.1041666667
 41
0.0
 71
     1
 72
     1
  1
1.18
  7
SLDTEXTSTYLE0
 73
     1
 44
1.0
  0
MTEXT
  5
3DF
330
3CF
100
AcDbEntity
  8
0
  6
Continuous
 62
     7
370
     0
100
AcDbMText
 10
6.0561783173
 20
3.2889150946
 30
0.0
 40
0.1041666667
 41
0.0
 71
     1
 72
     1
  1
29.91
  7
SLDTEXTSTYLE0
 73
     1
 44
1.0
  0
ENDBLK
  5
3D1
330
3CF
100
AcDbEntity
  8
0
100
AcDbBlockEnd
  0
BLOCK
  5
3E3
330
3E2
100
AcDbEntity
  8
0
100
AcDbBlockBegin
  2
*D9
 70
     1
 71
     0
 10
0.0
 20
0.0
 30
0.0
  3
*D9
  1

  0
SOLID
  5
3E5
330
3E2
100
AcDbEntity
  8
0
  6
Continuous
 62
     7
370
     0
100
AcDbTrace
 10
9.0799054382
 20
3.1541065099
 30
0.0
 11
8.9239054382
 21
3.1801065099
 31
0.0
 12
8.9239054382
 22
3.1281065099
 32
0.0
 13
8.9239054382
 23
3.1281065099
 33
0.0
  0
SOLID
  5
3E6
330
3E2
100
AcDbEntity
  8
0
  6
Continuous
 62
     7
370
     0
100
AcDbTrace
 10
8.4249345326
 20
3.1541065099
 30
0.0
 11
8.5809345326
 21
3.1281065099
 31
0.0
 12
8.5809345326
 22
3.1801065099
 32
0.0
 13
8.5809345326
 23
3.1801065099
 33
0.0
  0
LINE
  5
3E7
330
3E2
100
AcDbEntity
  8
0
  6
Continuous
 62
     7
370
     0
100
AcDbLine
 10
9.3119920681
 20
3.3071590975
 30
0.0
 11
9.3119920681
 21
3.1665161792
 31
0.0
  0
LINE
  5
3E8
330
3E2
100
AcDbEntity
  8
0
  6
Continuous
 62
     7
370
     0
100
AcDbLine
 10
9.3119920681
 20
3.1665161792
 30
0.0
 11
9.3330932354
 21
3.1665161792
 31
0.0
  0
LINE
  5
3E9
330
3E2
100
AcDbEntity
  8
0
  6
Continuous
 62
     7
370
     0
100
AcDbLine
 10
9.3119920681
 20
3.3071590975
 30
0.0
 11
9.3330932354
 21
3.3071590975
 31
0.0
  0
LINE
  5
3EA
330
3E2
100
AcDbEntity
  8
0
  6
Continuous
 62
     7
370
     0
100
AcDbLine
 10
9.7426014066
 20
3.3071590975
 30
0.0
 11
9.7426014066
 21
3.1665161792
 31
0.0
  0
LINE
  5
3EB
330
3E2
100
AcDbEntity
  8
0
  6
Continuous
 62
     7
370
     0
100
AcDbLine
 10
9.7426014066
 20
3.1665161792
 30
0.0
 11
9.7215002393
 21
3.1665161792
 31
0.0
  0
LINE
  5
3EC
330
3E2
100
AcDbEntity
  8
0
  6
Continuous
 62
     7
370
     0
100
AcDbLine
 10
9.7426014066
 20
3.3071590975
 30
0.0
 11
9.7215002393
 21
3.3071590975
 31
0.0
  0
LINE
  5
3ED
330
3E2
100
AcDbEntity
  8
0
  6
Continuous
 62
     7
370
     0
100
AcDbLine
 10
9.0799054382
 20
4.2571889837
 30
0.0
 11
9.0799054382
 21
3.0291065099
 31
0.0
  0
LINE
  5
3EE
330
3E2
100
AcDbEntity
  8
0
  6
Continuous
 62
     7
370
     0
100
AcDbLine
 10
8.4249345326
 20
3.6671889837
 30
0.0
 11
8.4249345326
 21
3.0291065099
 31
0.0
  0
LINE
  5
3EF
330
3E2
100
AcDbEntity
  8
0
  6
Continuous
 62
     7
370
     0
100
AcDbLine
 10
9.0799054382
 20
3.1541065099
 30
0.0
 11
9.1861521848
 21
3.1541065099
 31
0.0
  0
LINE
  5
3F0
330
3E2
100
AcDbEntity
  8
0
  6
Continuous
 62
     7
370
     0
100
AcDbLine
 10
8.4249345326
 20
3.1541065099
 30
0.0
 11
9.0799054382
 21
3.1541065099
 31
0.0
  0
MTEXT
  5
3F1
330
3E2
100
AcDbEntity
  8
0
  6
Continuous
 62
     7
370
     0
100
AcDbMText
 10
9.3926858424
 20
3.1217008914
 30
0.0
 40
0.1041666667
 41
0.0
 71
     1
 72
     1
  1
0.65
  7
SLDTEXTSTYLE0
 73
     1
 44
1.0
  0
MTEXT
  5
3F2
330
3E2
100
AcDbEntity
  8
0
  6
Continuous
 62
     7
370
     0
100
AcDbMText
 10
9.3541944027
 20
3.2871631482
 30
0.0
 40
0.1041666667
 41
0.0
 71
     1
 72
     1
  1
16.64
  7
SLDTEXTSTYLE0
 73
     1
 44
1.0
  0
ENDBLK
  5
3E4
330
3E2
100
AcDbEntity
  8
0
100
AcDbBlockEnd
  0
BLOCK
  5
3F5
330
3F4
100
AcDbEntity
  8
0
100
AcDbBlockBegin
  2
*D10
 70
     1
 71
     0
 10
0.0
 20
0.0
 30
0.0
  3
*D10
  1

  0
SOLID
  5
3F7
330
3F4
100
AcDbEntity
  8
0
  6
Continuous
 62
     7
370
     0
100
AcDbTrace
 10
5.6675274854
 20
5.2825603756
 30
0.0
 11
5.8235274854
 21
5.2565603756
 31
0.0
 12
5.8235274854
 22
5.3085603756
 32
0.0
 13
5.8235274854
 23
5.3085603756
 33
0.0
  0
SOLID
  5
3F8
330
3F4
100
AcDbEntity
  8
0
  6
Continuous
 62
     7
370
     0
100
AcDbTrace
 10
7.0249440466
 20
5.2825603756
 30
0.0
 11
6.8689440466
 21
5.3085603756
 31
0.0
 12
6.8689440466
 22
5.2565603756
 32
0.0
 13
6.8689440466
 23
5.2565603756
 33
0.0
  0
LINE
  5
3F9
330
3F4
100
AcDbEntity
  8
0
  6
Continuous
 62
     7
370
     0
100
AcDbLine
 10
6.0258315088
 20
5.4356129632
 30
0.0
 11
6.0258315088
 21
5.2949700449
 31
0.0
  0
LINE
  5
3FA
330
3F4
100
AcDbEntity
  8
0
  6
Continuous
 62
     7
370
     0
100
AcDbLine
 10
6.0258315088
 20
5.2949700449
 30
0.0
 11
6.0469326761
 21
5.2949700449
 31
0.0
  0
LINE
  5
3FB
330
3F4
100
AcDbEntity
  8
0
  6
Continuous
 62
     7
370
     0
100
AcDbLine
 10
6.0258315088
 20
5.4356129632
 30
0.0
 11
6.0469326761
 21
5.4356129632
 31
0.0
  0
LINE
  5
3FC
330
3F4
100
AcDbEntity
  8
0
  6
Continuous
 62
     7
370
     0
100
AcDbLine
 10
6.4564408473
 20
5.4356129632
 30
0.0
 11
6.4564408473
 21
5.2949700449
 31
0.0
  0
LINE
  5
3FD
330
3F4
100
AcDbEntity
  8
0
  6
Continuous
 62
     7
370
     0
100
AcDbLine
 10
6.4564408473
 20
5.2949700449
 30
0.0
 11
6.43533968
 21
5.2949700449
 31
0.0
  0
LINE
  5
3FE
330
3F4
100
AcDbEntity
  8
0
  6
Continuous
 62
     7
370
     0
100
AcDbLine
 10
6.4564408473
 20
5.4356129632
 30
0.0
 11
6.43533968
 21
5.4356129632
 31
0.0
  0
LINE
  5
3FF
330
3F4
100
AcDbEntity
  8
0
  6
Continuous
 62
     7
370
     0
100
AcDbLine
 10
5.6675274854
 20
4.3571889837
 30
0.0
 11
5.6675274854
 21
5.4075603756
 31
0.0
  0
LINE
  5
400
330
3F4
100
AcDbEntity
  8
0
  6
Continuous
 62
     7
370
     0
100
AcDbLine
 10
7.0249440466
 20
4.3571889837
 30
0.0
 11
7.0249440466
 21
5.4075603756
 31
0.0
  0
LINE
  5
401
330
3F4
100
AcDbEntity
  8
0
  6
Continuous
 62
     7
370
     0
100
AcDbLine
 10
5.6675274854
 20
5.2825603756
 30
0.0
 11
5.8999916255
 21
5.2825603756
 31
0.0
  0
LINE
  5
402
330
3F4
100
AcDbEntity
  8
0
  6
Continuous
 62
     7
370
     0
100
AcDbLine
 10
7.0249440466
 20
5.2825603756
 30
0.0
 11
6.5822807305
 21
5.2825603756
 31
0.0
  0
MTEXT
  5
403
330
3F4
100
AcDbEntity
  8
0
  6
Continuous
 62
     7
370
     0
100
AcDbMText
 10
6.1065252831
 20
5.2501547571
 30
0.0
 40
0.1041666667
 41
0.0
 71
     1
 72
     1
  1
1.36
  7
SLDTEXTSTYLE0
 73
     1
 44
1.0
  0
MTEXT
  5
404
330
3F4
100
AcDbEntity
  8
0
  6
Continuous
 62
     7
370
     0
100
AcDbMText
 10
6.0680338434
 20
5.415617014
 30
0.0
 40
0.1041666667
 41
0.0
 71
     1
 72
     1
  1
34.48
  7
SLDTEXTSTYLE0
 73
     1
 44
1.0
  0
ENDBLK
  5
3F6
330
3F4
100
AcDbEntity
  8
0
100
AcDbBlockEnd
  0
BLOCK
  5
407
330
406
100
AcDbEntity
  8
0
100
AcDbBlockBegin
  2
*D11
 70
     1
 71
     0
 10
0.0
 20
0.0
 30
0.0
  3
*D11
  1

  0
SOLID
  5
409
330
406
100
AcDbEntity
  8
0
  6
Continuous
 62
     7
370
     0
100
AcDbTrace
 10
9.0799054382
 20
5.2825603756
 30
0.0
 11
8.9239054382
 21
5.3085603756
 31
0.0
 12
8.9239054382
 22
5.2565603756
 32
0.0
 13
8.9239054382
 23
5.2565603756
 33
0.0
  0
SOLID
  5
40A
330
406
100
AcDbEntity
  8
0
  6
Continuous
 62
     7
370
     0
100
AcDbTrace
 10
8.2257014645
 20
5.2825603756
 30
0.0
 11
8.3817014645
 21
5.2565603756
 31
0.0
 12
8.3817014645
 22
5.3085603756
 32
0.0
 13
8.3817014645
 23
5.3085603756
 33
0.0
  0
LINE
  5
40B
330
406
100
AcDbEntity
  8
0
  6
Continuous
 62
     7
370
     0
100
AcDbLine
 10
8.4392219942
 20
5.4356129632
 30
0.0
 11
8.4392219942
 21
5.2949700449
 31
0.0
  0
LINE
  5
40C
330
406
100
AcDbEntity
  8
0
  6
Continuous
 62
     7
370
     0
100
AcDbLine
 10
8.4392219942
 20
5.2949700449
 30
0.0
 11
8.4603231616
 21
5.2949700449
 31
0.0
  0
LINE
  5
40D
330
406
100
AcDbEntity
  8
0
  6
Continuous
 62
     7
370
     0
100
AcDbLine
 10
8.4392219942
 20
5.4356129632
 30
0.0
 11
8.4603231616
 21
5.4356129632
 31
0.0
  0
LINE
  5
40E
330
406
100
AcDbEntity
  8
0
  6
Continuous
 62
     7
370
     0
100
AcDbLine
 10
8.8698313328
 20
5.4356129632
 30
0.0
 11
8.8698313328
 21
5.2949700449
 31
0.0
  0
LINE
  5
40F
330
406
100
AcDbEntity
  8
0
  6
Continuous
 62
     7
370
     0
100
AcDbLine
 10
8.8698313328
 20
5.2949700449
 30
0.0
 11
8.8487301655
 21
5.2949700449
 31
0.0
  0
LINE
  5
410
330
406
100
AcDbEntity
  8
0
  6
Continuous
 62
     7
370
     0
100
AcDbLine
 10
8.8698313328
 20
5.4356129632
 30
0.0
 11
8.8487301655
 21
5.4356129632
 31
0.0
  0
LINE
  5
411
330
406
100
AcDbEntity
  8
0
  6
Continuous
 62
     7
370
     0
100
AcDbLine
 10
9.0799054382
 20
4.3571889837
 30
0.0
 11
9.0799054382
 21
5.4075603756
 31
0.0
  0
LINE
  5
412
330
406
100
AcDbEntity
  8
0
  6
Continuous
 62
     7
370
     0
100
AcDbLine
 10
8.2257014645
 20
4.3571889837
 30
0.0
 11
8.2257014645
 21
5.4075603756
 31
0.0
  0
LINE
  5
413
330
406
100
AcDbEntity
  8
0
  6
Continuous
 62
     7
370
     0
100
AcDbLine
 10
9.0799054382
 20
5.2825603756
 30
0.0
 11
8.995671216
 21
5.2825603756
 31
0.0
  0
LINE
  5
414
330
406
100
AcDbEntity
  8
0
  6
Continuous
 62
     7
370
     0
100
AcDbLine
 10
8.2257014645
 20
5.2825603756
 30
0.0
 11
8.313382111
 21
5.2825603756
 31
0.0
  0
MTEXT
  5
415
330
406
100
AcDbEntity
  8
0
  6
Continuous
 62
     7
370
     0
100
AcDbMText
 10
8.5199157686
 20
5.2501547571
 30
0.0
 40
0.1041666667
 41
0.0
 71
     1
 72
     1
  1
0.85
  7
SLDTEXTSTYLE0
 73
     1
 44
1.0
  0
MTEXT
  5
416
330
406
100
AcDbEntity
  8
0
  6
Continuous
 62
     7
370
     0
100
AcDbMText
 10
8.4814243289
 20
5.415617014
 30
0.0
 40
0.1041666667
 41
0.0
 71
     1
 72
     1
  1
21.70
  7
SLDTEXTSTYLE0
 73
     1
 44
1.0
  0
ENDBLK
  5
408
330
406
100
AcDbEntity
  8
0
100
AcDbBlockEnd
  0
BLOCK
  5
41A
330
419
100
AcDbEntity
  8
0
100
AcDbBlockBegin
  2
*D12
 70
     1
 71
     0
 10
0.0
 20
0.0
 30
0.0
  3
*D12
  1

  0
SOLID
  5
41C
330
419
100
AcDbEntity
  8
0
  6
Continuous
 62
     7
370
     0
100
AcDbTrace
 10
6.8449345326
 20
2.4454450926
 30
0.0
 11
7.0009345326
 21
2.4194450926
 31
0.0
 12
7.0009345326
 22
2.4714450926
 32
0.0
 13
7.0009345326
 23
2.4714450926
 33
0.0
  0
SOLID
  5
41D
330
419
100
AcDbEntity
  8
0
  6
Continuous
 62
     7
370
     0
100
AcDbTrace
 10
8.4249345326
 20
2.4454450926
 30
0.0
 11
8.2689345326
 21
2.4714450926
 31
0.0
 12
8.2689345326
 22
2.4194450926
 32
0.0
 13
8.2689345326
 23
2.4194450926
 33
0.0
  0
LINE
  5
41E
330
419
100
AcDbEntity
  8
0
  6
Continuous
 62
     7
370
     0
100
AcDbLine
 10
7.4196298634
 20
2.5984976801
 30
0.0
 11
7.4196298634
 21
2.4578547618
 31
0.0
  0
LINE
  5
41F
330
419
100
AcDbEntity
  8
0
  6
Continuous
 62
     7
370
     0
100
AcDbLine
 10
7.4196298634
 20
2.4578547618
 30
0.0
 11
7.4407310307
 21
2.4578547618
 31
0.0
  0
LINE
  5
420
330
419
100
AcDbEntity
  8
0
  6
Continuous
 62
     7
370
     0
100
AcDbLine
 10
7.4196298634
 20
2.5984976801
 30
0.0
 11
7.4407310307
 21
2.5984976801
 31
0.0
  0
LINE
  5
421
330
419
100
AcDbEntity
  8
0
  6
Continuous
 62
     7
370
     0
100
AcDbLine
 10
7.8502392019
 20
2.5984976801
 30
0.0
 11
7.8502392019
 21
2.4578547618
 31
0.0
  0
LINE
  5
422
330
419
100
AcDbEntity
  8
0
  6
Continuous
 62
     7
370
     0
100
AcDbLine
 10
7.8502392019
 20
2.4578547618
 30
0.0
 11
7.8291380346
 21
2.4578547618
 31
0.0
  0
LINE
  5
423
330
419
100
AcDbEntity
  8
0
  6
Continuous
 62
     7
370
     0
100
AcDbLine
 10
7.8502392019
 20
2.5984976801
 30
0.0
 11
7.8291380346
 21
2.5984976801
 31
0.0
  0
LINE
  5
424
330
419
100
AcDbEntity
  8
0
  6
Continuous
 62
     7
370
     0
100
AcDbLine
 10
6.8449345326
 20
3.6671889837
 30
0.0
 11
6.8449345326
 21
2.3204450926
 31
0.0
  0
LINE
  5
425
330
419
100
AcDbEntity
  8
0
  6
Continuous
 62
     7
370
     0
100
AcDbLine
 10
8.4249345326
 20
3.6671889837
 30
0.0
 11
8.4249345326
 21
2.3204450926
 31
0.0
  0
LINE
  5
426
330
419
100
AcDbEntity
  8
0
  6
Continuous
 62
     7
370
     0
100
AcDbLine
 10
6.8449345326
 20
2.4454450926
 30
0.0
 11
7.2937899801
 21
2.4454450926
 31
0.0
  0
LINE
  5
427
330
419
100
AcDbEntity
  8
0
  6
Continuous
 62
     7
370
     0
100
AcDbLine
 10
8.4249345326
 20
2.4454450926
 30
0.0
 11
7.9760790852
 21
2.4454450926
 31
0.0
  0
MTEXT
  5
428
330
419
100
AcDbEntity
  8
0
  6
Continuous
 62
     7
370
     0
100
AcDbMText
 10
7.461832198
 20
2.4130394741
 30
0.0
 40
0.1041666667
 41
0.0
 71
     1
 72
     1
  1
1.580
  7
SLDTEXTSTYLE0
 73
     1
 44
1.0
  0
MTEXT
  5
429
330
419
100
AcDbEntity
  8
0
  6
Continuous
 62
     7
370
     0
100
AcDbMText
 10
7.461832198
 20
2.5785017309
 30
0.0
 40
0.1041666667
 41
0.0
 71
     1
 72
     1
  1
40.13
  7
SLDTEXTSTYLE0
 73
     1
 44
1.0
  0
ENDBLK
  5
41B
330
419
100
AcDbEntity
  8
0
100
AcDbBlockEnd
  0
BLOCK
  5
42C
330
42B
100
AcDbEntity
  8
0
100
AcDbBlockBegin
  2
*D13
 70
     1
 71
     0
 10
0.0
 20
0.0
 30
0.0
  3
*D13
  1

  0
SOLID
  5
42E
330
42B
100
AcDbEntity
  8
0
  6
Continuous
 62
     7
370
     0
100
AcDbTrace
 10
7.5170700308
 20
3.3120288628
 30
0.0
 11
7.3610700308
 21
3.3380288628
 31
0.0
 12
7.3610700308
 22
3.2860288628
 32
0.0
 13
7.3610700308
 23
3.2860288628
 33
0.0
  0
SOLID
  5
42F
330
42B
100
AcDbEntity
  8
0
  6
Continuous
 62
     7
370
     0
100
AcDbTrace
 10
7.6745203621
 20
3.3120288628
 30
0.0
 11
7.8305203621
 21
3.2860288628
 31
0.0
 12
7.8305203621
 22
3.3380288628
 32
0.0
 13
7.8305203621
 23
3.3380288628
 33
0.0
  0
LINE
  5
430
330
42B
100
AcDbEntity
  8
0
  6
Continuous
 62
     7
370
     0
100
AcDbLine
 10
8.113613021
 20
3.4650814503
 30
0.0
 11
8.113613021
 21
3.324438532
 31
0.0
  0
LINE
  5
431
330
42B
100
AcDbEntity
  8
0
  6
Continuous
 62
     7
370
     0
100
AcDbLine
 10
8.113613021
 20
3.324438532
 30
0.0
 11
8.1347141883
 21
3.324438532
 31
0.0
  0
LINE
  5
432
330
42B
100
AcDbEntity
  8
0
  6
Continuous
 62
     7
370
     0
100
AcDbLine
 10
8.113613021
 20
3.4650814503
 30
0.0
 11
8.1347141883
 21
3.4650814503
 31
0.0
  0
LINE
  5
433
330
42B
100
AcDbEntity
  8
0
  6
Continuous
 62
     7
370
     0
100
AcDbLine
 10
8.2748550443
 20
3.4650814503
 30
0.0
 11
8.2748550443
 21
3.324438532
 31
0.0
  0
LINE
  5
434
330
42B
100
AcDbEntity
  8
0
  6
Continuous
 62
     7
370
     0
100
AcDbLine
 10
8.2748550443
 20
3.324438532
 30
0.0
 11
8.253753877
 21
3.324438532
 31
0.0
  0
LINE
  5
435
330
42B
100
AcDbEntity
  8
0
  6
Continuous
 62
     7
370
     0
100
AcDbLine
 10
8.2748550443
 20
3.4650814503
 30
0.0
 11
8.253753877
 21
3.4650814503
 31
0.0
  0
LINE
  5
436
330
42B
100
AcDbEntity
  8
0
  6
Continuous
 62
     7
370
     0
100
AcDbLine
 10
7.5170700308
 20
4.2571889837
 30
0.0
 11
7.5170700308
 21
3.1870288628
 31
0.0
  0
LINE
  5
437
330
42B
100
AcDbEntity
  8
0
  6
Continuous
 62
     7
370
     0
100
AcDbLine
 10
7.6745203621
 20
4.2571889837
 30
0.0
 11
7.6745203621
 21
3.1870288628
 31
0.0
  0
LINE
  5
438
330
42B
100
AcDbEntity
  8
0
  6
Continuous
 62
     7
370
     0
100
AcDbLine
 10
7.5170700308
 20
3.3120288628
 30
0.0
 11
7.0170700308
 21
3.3120288628
 31
0.0
  0
LINE
  5
439
330
42B
100
AcDbEntity
  8
0
  6
Continuous
 62
     7
370
     0
100
AcDbLine
 10
7.6745203621
 20
3.3120288628
 30
0.0
 11
7.9759855891
 21
3.3120288628
 31
0.0
  0
MTEXT
  5
43A
330
42B
100
AcDbEntity
  8
0
  6
Continuous
 62
     7
370
     0
100
AcDbMText
 10
8.0596231377
 20
3.2796232443
 30
0.0
 40
0.1041666667
 41
0.0
 71
     1
 72
     1
  1
0.16
  7
SLDTEXTSTYLE0
 73
     1
 44
1.0
  0
MTEXT
  5
43B
330
42B
100
AcDbEntity
  8
0
  6
Continuous
 62
     7
370
     0
100
AcDbMText
 10
8.1558153556
 20
3.4450855011
 30
0.0
 40
0.1041666667
 41
0.0
 71
     1
 72
     1
  1
4
  7
SLDTEXTSTYLE0
 73
     1
 44
1.0
  0
ENDBLK
  5
42D
330
42B
100
AcDbEntity
  8
0
100
AcDbBlockEnd
  0
BLOCK
  5
43F
330
43E
100
AcDbEntity
  8
0
100
AcDbBlockBegin
  2
*D14
 70
     1
 71
     0
 10
0.0
 20
0.0
 30
0.0
  3
*D14
  1

  0
SOLID
  5
441
330
43E
100
AcDbEntity
  8
0
  6
Continuous
 62
     7
370
     0
100
AcDbTrace
 10
7.0249440466
 20
5.5478802371
 30
0.0
 11
7.1809440466
 21
5.5218802371
 31
0.0
 12
7.1809440466
 22
5.5738802371
 32
0.0
 13
7.1809440466
 23
5.5738802371
 33
0.0
  0
SOLID
  5
442
330
43E
100
AcDbEntity
  8
0
  6
Continuous
 62
     7
370
     0
100
AcDbTrace
 10
8.2257014645
 20
5.5478802371
 30
0.0
 11
8.0697014645
 21
5.5738802371
 31
0.0
 12
8.0697014645
 22
5.5218802371
 32
0.0
 13
8.0697014645
 23
5.5218802371
 33
0.0
  0
LINE
  5
443
330
43E
100
AcDbEntity
  8
0
  6
Continuous
 62
     7
370
     0
100
AcDbLine
 10
7.4196298634
 20
5.7009328247
 30
0.0
 11
7.4196298634
 21
5.5602899064
 31
0.0
  0
LINE
  5
444
330
43E
100
AcDbEntity
  8
0
  6
Continuous
 62
     7
370
     0
100
AcDbLine
 10
7.4196298634
 20
5.5602899064
 30
0.0
 11
7.4407310307
 21
5.5602899064
 31
0.0
  0
LINE
  5
445
330
43E
100
AcDbEntity
  8
0
  6
Continuous
 62
     7
370
     0
100
AcDbLine
 10
7.4196298634
 20
5.7009328247
 30
0.0
 11
7.4407310307
 21
5.7009328247
 31
0.0
  0
LINE
  5
446
330
43E
100
AcDbEntity
  8
0
  6
Continuous
 62
     7
370
     0
100
AcDbLine
 10
7.8502392019
 20
5.7009328247
 30
0.0
 11
7.8502392019
 21
5.5602899064
 31
0.0
  0
LINE
  5
447
330
43E
100
AcDbEntity
  8
0
  6
Continuous
 62
     7
370
     0
100
AcDbLine
 10
7.8502392019
 20
5.5602899064
 30
0.0
 11
7.8291380346
 21
5.5602899064
 31
0.0
  0
LINE
  5
448
330
43E
100
AcDbEntity
  8
0
  6
Continuous
 62
     7
370
     0
100
AcDbLine
 10
7.8502392019
 20
5.7009328247
 30
0.0
 11
7.8291380346
 21
5.7009328247
 31
0.0
  0
LINE
  5
449
330
43E
100
AcDbEntity
  8
0
  6
Continuous
 62
     7
370
     0
100
AcDbLine
 10
7.0249440466
 20
4.3571889837
 30
0.0
 11
7.0249440466
 21
5.6728802371
 31
0.0
  0
LINE
  5
44A
330
43E
100
AcDbEntity
  8
0
  6
Continuous
 62
     7
370
     0
100
AcDbLine
 10
8.2257014645
 20
4.3571889837
 30
0.0
 11
8.2257014645
 21
5.6728802371
 31
0.0
  0
LINE
  5
44B
330
43E
100
AcDbEntity
  8
0
  6
Continuous
 62
     7
370
     0
100
AcDbLine
 10
7.0249440466
 20
5.5478802371
 30
0.0
 11
7.2937899801
 21
5.5478802371
 31
0.0
  0
LINE
  5
44C
330
43E
100
AcDbEntity
  8
0
  6
Continuous
 62
     7
370
     0
100
AcDbLine
 10
8.2257014645
 20
5.5478802371
 30
0.0
 11
7.9760790852
 21
5.5478802371
 31
0.0
  0
MTEXT
  5
44D
330
43E
100
AcDbEntity
  8
0
  6
Continuous
 62
     7
370
     0
100
AcDbMText
 10
7.5003236377
 20
5.5154746187
 30
0.0
 40
0.1041666667
 41
0.0
 71
     1
 72
     1
  1
1.20
  7
SLDTEXTSTYLE0
 73
     1
 44
1.0
  0
MTEXT
  5
44E
330
43E
100
AcDbEntity
  8
0
  6
Continuous
 62
     7
370
     0
100
AcDbMText
 10
7.461832198
 20
5.6809368755
 30
0.0
 40
0.1041666667
 41
0.0
 71
     1
 72
     1
  1
30.50
  7
SLDTEXTSTYLE0
 73
     1
 44
1.0
  0
ENDBLK
  5
440
330
43E
100
AcDbEntity
  8
0
100
AcDbBlockEnd
  0
BLOCK
  5
450
330
44F
100
AcDbEntity
  8
0
100
AcDbBlockBegin
  2
SW_NOTE_5
 70
     0
 71
     0
 10
0.0
 20
0.0
 30
0.0
  3
SW_NOTE_5
  1

  0
MTEXT
  5
453
330
44F
100
AcDbEntity
  8
0
  6
Continuous
 62
     0
370
     0
100
AcDbMText
 10
0.0
 20
0.1463623047
 30
0.0
 40
0.1145833333
 41
0.0
 71
     1
 72
     1
  1
SECTION A-A 
  7
SLDTEXTSTYLE17
 73
     1
 44
1.0
  0
MTEXT
  5
455
330
44F
100
AcDbEntity
  8
0
  6
Continuous
 62
     0
370
     0
100
AcDbMText
 10
0.0925154213
 20
-0.0064154712
 30
0.0
 40
0.1145833333
 41
0.0
 71
     1
 72
     1
  1
SCALE 1 : 1
  7
SLDTEXTSTYLE18
 73
     1
 44
1.0
  0
ENDBLK
  5
451
330
44F
100
AcDbEntity
  8
0
100
AcDbBlockEnd
  0
BLOCK
  5
458
330
457
100
AcDbEntity
  8
0
100
AcDbBlockBegin
  2
SW_NOTE_6
 70
     0
 71
     0
 10
0.0
 20
0.0
 30
0.0
  3
SW_NOTE_6
  1

  0
MTEXT
  5
45B
330
457
100
AcDbEntity
  8
0
  6
Continuous
 62
     0
370
     0
100
AcDbMText
 10
-1.3413024327
 20
0.1665340561
 30
0.0
 40
0.09
 41
0.0
 71
     1
 72
     1
  1
INTERNAL  SM1 THREAD
  7
SLDTEXTSTYLE19
 73
     1
 44
1.0
  0
MTEXT
  5
45C
330
457
100
AcDbEntity
  8
0
  6
Continuous
 62
     0
370
     0
100
AcDbMText
 10
-0.9607399206
 20
0.0371639731
 30
0.0
 40
0.09
 41
0.0
 71
     1
 72
     1
  1
(1.035-40)
  7
SLDTEXTSTYLE0
 73
     1
 44
1.0
  0
ENDBLK
  5
459
330
457
100
AcDbEntity
  8
0
100
AcDbBlockEnd
  0
BLOCK
  5
462
330
461
100
AcDbEntity
  8
0
100
AcDbBlockBegin
  2
SW_NOTE_7
 70
     0
 71
     0
 10
0.0
 20
0.0
 30
0.0
  3
SW_NOTE_7
  1

  0
CIRCLE
  5
464
330
461
100
AcDbEntity
  8
0
  6
Continuous
 62
     0
370
     0
100
AcDbCircle
 10
0.1920084223
 20
0.0437733657
 30
0.0
 40
0.1969348668812025
  0
MTEXT
  5
465
330
461
100
AcDbEntity
  8
0
  6
Continuous
 62
     0
370
     0
100
AcDbMText
 10
0.124067698
 20
0.1146332759
 30
0.0
 40
0.1377952756
 41
0.0
 71
     1
 72
     1
  1
A
  7
SLDTEXTSTYLE0
 73
     1
 44
1.0
  0
ENDBLK
  5
463
330
461
100
AcDbEntity
  8
0
100
AcDbBlockEnd
  0
BLOCK
  5
469
330
468
100
AcDbEntity
  8
0
100
AcDbBlockBegin
  2
SW_NOTE_8
 70
     0
 71
     0
 10
0.0
 20
0.0
 30
0.0
  3
SW_NOTE_8
  1

  0
CIRCLE
  5
46B
330
468
100
AcDbEntity
  8
0
  6
Continuous
 62
     0
370
     0
100
AcDbCircle
 10
-0.1952182857
 20
0.0259453793
 30
0.0
 40
0.1969348668812025
  0
MTEXT
  5
46C
330
468
100
AcDbEntity
  8
0
  6
Continuous
 62
     0
370
     0
100
AcDbMText
 10
-0.2479441187
 20
0.0968052894
 30
0.0
 40
0.1377952756
 41
0.0
 71
     1
 72
     1
  1
B
  7
SLDTEXTSTYLE0
 73
     1
 44
1.0
  0
ENDBLK
  5
46A
330
468
100
AcDbEntity
  8
0
100
AcDbBlockEnd
  0
BLOCK
  5
470
330
46F
100
AcDbEntity
  8
0
100
AcDbBlockBegin
  2
SW_NOTE_9
 70
     0
 71
     0
 10
0.0
 20
0.0
 30
0.0
  3
SW_NOTE_9
  1

  0
CIRCLE
  5
472
330
46F
100
AcDbEntity
  8
0
  6
Continuous
 62
     0
370
     0
100
AcDbCircle
 10
0.1724657724
 20
-0.0950731253
 30
0.0
 40
0.1969348668812025
  0
MTEXT
  5
473
330
46F
100
AcDbEntity
  8
0
  6
Continuous
 62
     0
370
     0
100
AcDbMText
 10
0.0978266663
 20
-0.0242132151
 30
0.0
 40
0.1377952756
 41
0.0
 71
     1
 72
     1
  1
C
  7
SLDTEXTSTYLE0
 73
     1
 44
1.0
  0
ENDBLK
  5
471
330
46F
100
AcDbEntity
  8
0
100
AcDbBlockEnd
  0
BLOCK
  5
478
330
477
100
AcDbEntity
  8
0
100
AcDbBlockBegin
  2
SW_NOTE_10
 70
     0
 71
     0
 10
0.0
 20
0.0
 30
0.0
  3
SW_NOTE_10
  1

  0
CIRCLE
  5
47A
330
477
100
AcDbEntity
  8
0
  6
Continuous
 62
     0
370
     0
100
AcDbCircle
 10
0.1931154447
 20
0.0385974973
 30
0.0
 40
0.1969348668812025
  0
MTEXT
  5
47B
330
477
100
AcDbEntity
  8
0
  6
Continuous
 62
     0
370
     0
100
AcDbMText
 10
0.1247919523
 20
0.1094574075
 30
0.0
 40
0.1377952756
 41
0.0
 71
     1
 72
     1
  1
D
  7
SLDTEXTSTYLE0
 73
     1
 44
1.0
  0
ENDBLK
  5
479
330
477
100
AcDbEntity
  8
0
100
AcDbBlockEnd
  0
BLOCK
  5
47F
330
47E
100
AcDbEntity
  8
0
100
AcDbBlockBegin
  2
SW_NOTE_11
 70
     0
 71
     0
 10
0.0
 20
0.0
 30
0.0
  3
SW_NOTE_11
  1

  0
CIRCLE
  5
481
330
47E
100
AcDbEntity
  8
0
  6
Continuous
 62
     0
370
     0
100
AcDbCircle
 10
-0.1968077524
 20
0.0070746293
 30
0.0
 40
0.1969348668812025
  0
MTEXT
  5
482
330
47E
100
AcDbEntity
  8
0
  6
Continuous
 62
     0
370
     0
100
AcDbMText
 10
-0.2651312448
 20
0.0779345395
 30
0.0
 40
0.1377952756
 41
0.0
 71
     1
 72
     1
  1
D
  7
SLDTEXTSTYLE0
 73
     1
 44
1.0
  0
ENDBLK
  5
480
330
47E
100
AcDbEntity
  8
0
100
AcDbBlockEnd
  0
ENDSEC
  0
SECTION
  2
ENTITIES
  0
LINE
  5
30
330
1F
100
AcDbEntity
  8
0
  6
Continuous
 62
     7
370
     0
100
AcDbLine
 10
0.329927
 20
8.1920731707
 30
0.0
 11
10.629927
 21
8.1920731707
 31
0.0
  0
LINE
  5
31
330
1F
100
AcDbEntity
  8
0
  6
Continuous
 62
     7
370
     0
100
AcDbLine
 10
0.329927
 20
8.1920731707
 30
0.0
 11
0.329927
 21
0.3920731707
 31
0.0
  0
LINE
  5
32
330
1F
100
AcDbEntity
  8
0
  6
Continuous
 62
     7
370
     0
100
AcDbLine
 10
10.629927
 20
0.3920731707
 30
0.0
 11
0.329927
 21
0.3920731707
 31
0.0
  0
LINE
  5
33
330
1F
100
AcDbEntity
  8
0
  6
Continuous
 62
     7
370
     0
100
AcDbLine
 10
10.629927
 20
0.3920731707
 30
0.0
 11
10.629927
 21
8.1920731707
 31
0.0
  0
LINE
  5
34
330
1F
100
AcDbEntity
  8
0
  6
Continuous
 62
     7
370
     0
100
AcDbLine
 10
7.8832069922
 20
1.2010186622
 30
0.0
 11
6.3491817542
 21
1.2010186622
 31
0.0
  0
LINE
  5
35
330
1F
100
AcDbEntity
  8
0
  6
Continuous
 62
     7
370
     0
100
AcDbLine
 10
6.3491817542
 20
0.3920731707
 30
0.0
 11
6.3491817542
 21
1.6988536355
 31
0.0
  0
LINE
  5
36
330
1F
100
AcDbEntity
  8
0
  6
Continuous
 62
     7
370
     0
100
AcDbLine
 10
7.8832069922
 20
1.270166923
 30
0.0
 11
10.629927
 21
1.270166923
 31
0.0
  0
LINE
  5
37
330
1F
100
AcDbEntity
  8
0
  6
Continuous
 62
     7
370
     0
100
AcDbLine
 10
7.8832069922
 20
1.9437769943
 30
0.0
 11
7.8832069922
 21
0.3920731707
 31
0.0
  0
LINE
  5
38
330
1F
100
AcDbEntity
  8
0
  6
Continuous
 62
     7
370
     0
100
AcDbLine
 10
7.8832069922
 20
1.323339557
 30
0.0
 11
6.3491817542
 21
1.323339557
 31
0.0
  0
LINE
  5
39
330
1F
100
AcDbEntity
  8
0
  6
Continuous
 62
     7
370
     0
100
AcDbLine
 10
7.8832069922
 20
1.6988536355
 30
0.0
 11
6.3491817542
 21
1.6988536355
 31
0.0
  0
LINE
  5
3A
330
1F
100
AcDbEntity
  8
0
  6
Continuous
 62
     7
370
     0
100
AcDbLine
 10
7.8832069922
 20
0.7890359178
 30
0.0
 11
10.629927
 21
0.7890359178
 31
0.0
  0
LINE
  5
3B
330
1F
100
AcDbEntity
  8
0
  6
Continuous
 62
     7
370
     0
100
AcDbLine
 10
7.8832069922
 20
1.4456604517
 30
0.0
 11
6.3491817542
 21
1.4456604517
 31
0.0
  0
LINE
  5
3C
330
1F
100
AcDbEntity
  8
0
  6
Continuous
 62
     7
370
     0
100
AcDbLine
 10
7.8832069922
 20
1.5679813464
 30
0.0
 11
6.3491817542
 21
1.5679813464
 31
0.0
  0
LINE
  5
3D
330
1F
100
AcDbEntity
  8
0
  6
Continuous
 62
     7
370
     0
100
AcDbLine
 10
6.9294188505
 20
1.6988536355
 30
0.0
 11
6.9294188505
 21
1.2010186622
 31
0.0
  0
LINE
  5
3E
330
1F
100
AcDbEntity
  8
0
  6
Continuous
 62
     7
370
     0
100
AcDbLine
 10
7.2989435727
 20
1.6988536355
 30
0.0
 11
7.2989435727
 21
1.2010186622
 31
0.0
  0
LINE
  5
3F
330
1F
100
AcDbEntity
  8
0
  6
Continuous
 62
     7
370
     0
100
AcDbLine
 10
8.9000563418
 20
0.7890359178
 30
0.0
 11
8.9000563418
 21
0.3920731707
 31
0.0
  0
LINE
  5
40
330
1F
100
AcDbEntity
  8
0
  6
Continuous
 62
     7
370
     0
100
AcDbLine
 10
9.3113942988
 20
0.96139916
 30
0.0
 11
9.3113942988
 21
0.7890359178
 31
0.0
  0
LINE
  5
41
330
1F
100
AcDbEntity
  8
0
  6
Continuous
 62
     7
370
     0
100
AcDbLine
 10
10.0324602448
 20
1.270166923
 30
0.0
 11
10.0324602448
 21
0.96139916
 31
0.0
  0
LINE
  5
42
330
1F
100
AcDbEntity
  8
0
  6
Continuous
 62
     7
370
     0
100
AcDbLine
 10
6.3491817542
 20
1.0381709011
 30
0.0
 11
7.8832069922
 21
1.0381709011
 31
0.0
  0
LINE
  5
43
330
1F
100
AcDbEntity
  8
0
  6
Continuous
 62
     7
370
     0
100
AcDbLine
 10
7.8832069922
 20
1.9437769943
 30
0.0
 11
10.629927
 21
1.9437769943
 31
0.0
  0
LINE
  5
44
330
1F
100
AcDbEntity
  8
0
  6
Continuous
 62
     7
370
     0
100
AcDbLine
 10
10.315241862
 20
1.2693980507
 30
0.0
 11
10.315241862
 21
0.96139916
 31
0.0
  0
LINE
  5
45
330
1F
100
AcDbEntity
  8
0
  6
Continuous
 62
     7
370
     0
100
AcDbLine
 10
7.8832069922
 20
0.96139916
 30
0.0
 11
10.629927
 21
0.96139916
 31
0.0
  0
LINE
  5
46
330
1F
100
AcDbEntity
  8
0
  6
Continuous
 62
     7
370
     0
100
AcDbLine
 10
10.629927
 20
1.9437769943
 30
0.0
 11
10.629927
 21
1.9698084888
 31
0.0
  0
LINE
  5
47
330
1F
100
AcDbEntity
  8
0
  6
Continuous
 62
     7
370
     0
100
AcDbLine
 10
7.8832069922
 20
1.6268095213
 30
0.0
 11
10.629927
 21
1.6268095213
 31
0.0
  0
LINE
  5
48
330
1F
100
AcDbEntity
  8
0
  6
Continuous
 62
     7
370
     0
100
AcDbLine
 10
6.692177
 20
0.3920731707
 30
0.0
 11
6.692177
 21
0.3072739649
 31
0.0
  0
LINE
  5
49
330
1F
100
AcDbEntity
  8
0
  6
Continuous
 62
     7
370
     0
100
AcDbLine
 10
2.754677
 20
0.3920731707
 30
0.0
 11
2.754677
 21
0.3072739649
 31
0.0
  0
LINE
  5
4A
330
1F
100
AcDbEntity
  8
0
  6
Continuous
 62
     7
370
     0
100
AcDbLine
 10
2.754677
 20
0.3920731707
 30
0.0
 11
2.7672319738
 21
0.3575
 31
0.0
  0
LINE
  5
4B
330
1F
100
AcDbEntity
  8
0
  6
Continuous
 62
     7
370
     0
100
AcDbLine
 10
2.7672319738
 20
0.3575
 30
0.0
 11
2.7414258825
 21
0.3575
 31
0.0
  0
LINE
  5
4C
330
1F
100
AcDbEntity
  8
0
  6
Continuous
 62
     7
370
     0
100
AcDbLine
 10
2.7414258825
 20
0.3575
 30
0.0
 11
2.754677
 21
0.3920731707
 31
0.0
  0
MTEXT
  5
4E
330
1F
100
AcDbEntity
  8
0
  6
Continuous
 62
     7
370
     0
100
AcDbMText
 10
10.4043270877
 20
1.1203120088
 30
0.0
 40
0.1041666667
 41
0.0
 71
     1
 72
     1
  1
C
  7
SLDTEXTSTYLE0
 73
     1
 44
1.0
  0
MTEXT
  5
4F
330
1F
100
AcDbEntity
  8
0
  6
Continuous
 62
     7
370
     0
100
AcDbMText
 10
1.7387909509
 20
0.3094873007
 30
0.0
 40
0.09375
 41
0.0
 71
     1
 72
     1
  1
5
  7
SLDTEXTSTYLE0
 73
     1
 44
1.0
  0
MTEXT
  5
50
330
1F
100
AcDbEntity
  8
0
  6
Continuous
 62
     7
370
     0
100
AcDbMText
 10
3.723800327
 20
0.3126246278
 30
0.0
 40
0.09375
 41
0.0
 71
     1
 72
     1
  1
4
  7
SLDTEXTSTYLE0
 73
     1
 44
1.0
  0
MTEXT
  5
51
330
1F
100
AcDbEntity
  8
0
  6
Continuous
 62
     7
370
     0
100
AcDbMText
 10
5.6324457277
 20
0.3105200602
 30
0.0
 40
0.09375
 41
0.0
 71
     1
 72
     1
  1
3
  7
SLDTEXTSTYLE0
 73
     1
 44
1.0
  0
MTEXT
  5
52
330
1F
100
AcDbEntity
  8
0
  6
Continuous
 62
     7
370
     0
100
AcDbMText
 10
7.6059721724
 20
0.3113400111
 30
0.0
 40
0.09375
 41
0.0
 71
     1
 72
     1
  1
2
  7
SLDTEXTSTYLE0
 73
     1
 44
1.0
  0
MTEXT
  5
53
330
1F
100
AcDbEntity
  8
0
  6
Continuous
 62
     7
370
     0
100
AcDbMText
 10
9.6619921328
 20
0.300272888
 30
0.0
 40
0.09375
 41
0.0
 71
     1
 72
     1
  1
1
  7
SLDTEXTSTYLE0
 73
     1
 44
1.0
  0
MTEXT
  5
54
330
1F
100
AcDbEntity
  8
0
  6
Continuous
 62
     7
370
     0
100
AcDbMText
 10
9.3407679959
 20
0.5941666803
 30
0.0
 40
0.09375
 41
0.0
 71
     1
 72
     1
  1
MAP103040-A1
  7
SLDTEXTSTYLE0
 73
     1
 44
1.0
  0
MTEXT
  5
55
330
1F
100
AcDbEntity
  8
0
  6
Continuous
 62
     7
370
     0
100
AcDbMText
 10
7.9301743649
 20
1.2499730493
 30
0.0
 40
0.0833333333
 41
0.0
 71
     1
 72
     1
  1
MATERIAL:
  7
SLDTEXTSTYLE0
 73
     1
 44
1.0
  0
MTEXT
  5
57
330
1F
100
AcDbEntity
  8
0
  6
Continuous
 62
     7
370
     0
100
AcDbMText
 10
8.9438302275
 20
0.7457341193
 30
0.0
 40
0.0833333333
 41
0.0
 71
     1
 72
     1
  1
PART  NO.
  7
SLDTEXTSTYLE1
 73
     1
 44
1.0
  0
MTEXT
  5
59
330
1F
100
AcDbEntity
  8
0
  6
Continuous
 62
     7
370
     0
100
AcDbMText
 10
6.3927073562
 20
1.1440291591
 30
0.0
 40
0.06
 41
0.0
 71
     1
 72
     1
  1
PROPRIETARY AND CONFIDENTIAL
  7
SLDTEXTSTYLE2
 73
     1
 44
1.0
  0
MTEXT
  5
5A
330
1F
100
AcDbEntity
  8
0
  6
Continuous
 62
     7
370
     0
100
AcDbMText
 10
6.4985660702
 20
1.5406501707
 30
0.0
 40
0.065
 41
0.0
 71
     1
 72
     1
  1
DRAWN
  7
SLDTEXTSTYLE0
 73
     1
 44
1.0
  0
MTEXT
  5
5B
330
1F
100
AcDbEntity
  8
0
  6
Continuous
 62
     7
370
     0
100
AcDbMText
 10
6.4369653776
 20
1.4183941661
 30
0.0
 40
0.065
 41
0.0
 71
     1
 72
     1
  1
ENG APPR.
  7
SLDTEXTSTYLE0
 73
     1
 44
1.0
  0
MTEXT
  5
5C
330
1F
100
AcDbEntity
  8
0
  6
Continuous
 62
     7
370
     0
100
AcDbMText
 10
6.4273055419
 20
1.298296273
 30
0.0
 40
0.065
 41
0.0
 71
     1
 72
     1
  1
MFG APPR.
  7
SLDTEXTSTYLE0
 73
     1
 44
1.0
  0
MTEXT
  5
5D
330
1F
100
AcDbEntity
  8
0
  6
Continuous
 62
     7
370
     0
100
AcDbMText
 10
6.9752663896
 20
1.6608078346
 30
0.0
 40
0.065
 41
0.0
 71
     1
 72
     1
  1
NAME
  7
SLDTEXTSTYLE0
 73
     1
 44
1.0
  0
MTEXT
  5
5E
330
1F
100
AcDbEntity
  8
0
  6
Continuous
 62
     7
370
     0
100
AcDbMText
 10
7.9386050459
 20
1.5661804433
 30
0.0
 40
0.1
 41
0.0
 71
     1
 72
     1
  1
TITLE:
  7
SLDTEXTSTYLE0
 73
     1
 44
1.0
  0
MTEXT
  5
5F
330
1F
100
AcDbEntity
  8
0
  6
Continuous
 62
     7
370
     0
100
AcDbMText
 10
10.0657693915
 20
1.2262994671
 30
0.0
 40
0.0833333333
 41
0.0
 71
     1
 72
     1
  1
SIZE
  7
SLDTEXTSTYLE0
 73
     1
 44
1.0
  0
MTEXT
  5
60
330
1F
100
AcDbEntity
  8
0
  6
Continuous
 62
     7
370
     0
100
AcDbMText
 10
10.1162261111
 20
1.1164461388
 30
0.0
 40
0.1041666667
 41
0.0
 71
     1
 72
     1
  1
A
  7
SLDTEXTSTYLE0
 73
     1
 44
1.0
  0
MTEXT
  5
61
330
1F
100
AcDbEntity
  8
0
  6
Continuous
 62
     7
370
     0
100
AcDbMText
 10
10.335100974
 20
1.2278993505
 30
0.0
 40
0.0833333333
 41
0.0
 71
     1
 72
     1
  1
REV.
  7
SLDTEXTSTYLE0
 73
     1
 44
1.0
  0
MTEXT
  5
62
330
1F
100
AcDbEntity
  8
0
  6
Continuous
 62
     7
370
     0
100
AcDbMText
 10
8.3227727705
 20
0.9309786574
 30
0.0
 40
0.0833333333
 41
0.0
 71
     1
 72
     1
  1
SCALE: 1:1
  7
SLDTEXTSTYLE0
 73
     1
 44
1.0
  0
MTEXT
  5
64
330
1F
100
AcDbEntity
  8
0
  6
Continuous
 62
     7
370
     0
100
AcDbMText
 10
9.6378279873
 20
0.926579063
 30
0.0
 40
0.0833333333
 41
0.0
 71
     1
 72
     1
  1
SHEET 1 OF 1
  7
SLDTEXTSTYLE3
 73
     1
 44
1.0
  0
MTEXT
  5
65
330
1F
100
AcDbEntity
  8
0
  6
Continuous
 62
     7
370
     0
100
AcDbMText
 10
8.0628468344
 20
0.6044052155
 30
0.0
 40
0.1041666667
 41
0.0
 71
     1
 72
     1
  1
13318-E01
  7
SLDTEXTSTYLE0
 73
     1
 44
1.0
  0
INSERT
  5
75
330
1F
100
AcDbEntity
  8
0
  6
Continuous
 62
     7
370
     0
100
AcDbBlockReference
  2
SW_NOTE_0
 10
6.3891646717
 20
0.9312082413
 30
0.0
  0
MTEXT
  5
76
330
1F
100
AcDbEntity
  8
0
  6
Continuous
 62
     7
370
     0
100
AcDbMText
 10
7.9076399399
 20
0.7468305835
 30
0.0
 40
0.0833333333
 41
0.0
 71
     1
 72
     1
  1
DWG.  NO.
  7
SLDTEXTSTYLE1
 73
     1
 44
1.0
  0
MTEXT
  5
77
330
1F
100
AcDbEntity
  8
0
  6
Continuous
 62
     7
370
     0
100
AcDbMText
 10
7.0592138229
 20
1.5434434118
 30
0.0
 40
0.065
 41
0.0
 71
     1
 72
     1
  1
AP
  7
SLDTEXTSTYLE0
 73
     1
 44
1.0
  0
MTEXT
  5
78
330
1F
100
AcDbEntity
  8
0
  6
Continuous
 62
     7
370
     0
100
AcDbMText
 10
7.0628716471
 20
1.4267005168
 30
0.0
 40
0.065
 41
0.0
 71
     1
 72
     1
  1
TO
  7
SLDTEXTSTYLE0
 73
     1
 44
1.0
  0
MTEXT
  5
79
330
1F
100
AcDbEntity
  8
0
  6
Continuous
 62
     7
370
     0
100
AcDbMText
 10
7.0636219211
 20
1.3041261123
 30
0.0
 40
0.065
 41
0.0
 71
     1
 72
     1
  1
TO
  7
SLDTEXTSTYLE0
 73
     1
 44
1.0
  0
MTEXT
  5
7A
330
1F
100
AcDbEntity
  8
0
  6
Continuous
 62
     7
370
     0
100
AcDbMText
 10
7.3775562039
 20
1.5451308061
 30
0.0
 40
0.065
 41
0.0
 71
     1
 72
     1
  1
04/14/06
  7
SLDTEXTSTYLE0
 73
     1
 44
1.0
  0
MTEXT
  5
7B
330
1F
100
AcDbEntity
  8
0
  6
Continuous
 62
     7
370
     0
100
AcDbMText
 10
7.4731545031
 20
1.6582684693
 30
0.0
 40
0.065
 41
0.0
 71
     1
 72
     1
  1
DATE
  7
SLDTEXTSTYLE0
 73
     1
 44
1.0
  0
MTEXT
  5
7C
330
1F
100
AcDbEntity
  8
0
  6
Continuous
 62
     7
370
     0
100
AcDbMText
 10
7.3821011998
 20
1.4184142209
 30
0.0
 40
0.065
 41
0.0
 71
     1
 72
     1
  1
04/14/06
  7
SLDTEXTSTYLE0
 73
     1
 44
1.0
  0
MTEXT
  5
7D
330
1F
100
AcDbEntity
  8
0
  6
Continuous
 62
     7
370
     0
100
AcDbMText
 10
7.3821011998
 20
1.2979456571
 30
0.0
 40
0.065
 41
0.0
 71
     1
 72
     1
  1
04/14/06
  7
SLDTEXTSTYLE0
 73
     1
 44
1.0
  0
MTEXT
  5
7E
330
1F
100
AcDbEntity
  8
0
  6
Continuous
 62
     7
370
     0
100
AcDbMText
 10
7.9182509893
 20
1.8945248266
 30
0.0
 40
0.1875
 41
0.0
 71
     1
 72
     1
  1
THORLABS INC.
  7
SLDTEXTSTYLE0
 73
     1
 44
1.0
  0
INSERT
  5
85
330
1F
100
AcDbEntity
  8
0
  6
Continuous
 62
     7
370
     0
100
AcDbBlockReference
  2
SW_NOTE_1
 10
9.7899715108
 20
1.7786954532
 30
0.0
  0
INSERT
  5
8C
330
1F
100
AcDbEntity
  8
0
  6
Continuous
 62
     7
370
     0
100
AcDbBlockReference
  2
SW_NOTE_2
 10
8.426520352
 20
1.4095508248
 30
0.0
  0
MTEXT
  5
8D
330
1F
100
AcDbEntity
  8
0
  6
Continuous
 62
     7
370
     0
100
AcDbMText
 10
8.3691642187
 20
1.131481397
 30
0.0
 40
0.1041666667
 41
0.0
 71
     1
 72
     1
  1
SEE TABLE
  7
SLDTEXTSTYLE0
 73
     1
 44
1.0
  0
INSERT
  5
9D
330
1F
100
AcDbEntity
  8
0
  6
Continuous
 62
     7
370
     0
100
AcDbBlockReference
  2
SW_NOTE_3
 10
0.8248213909
 20
1.9975002886
 30
0.0
  0
MTEXT
  5
9E
330
1F
100
AcDbEntity
  8
0
  6
Continuous
 62
     7
370
     0
100
AcDbMText
 10
0.8438294462
 20
2.3038189847
 30
0.0
 40
0.09
 41
0.0
 71
     1
 72
     1
  1
SPECIFICATIONS:
  7
SLDTEXTSTYLE0
 73
     1
 44
1.0
  0
INSERT
  5
A5
330
1F
100
AcDbEntity
  8
0
  6
Continuous
 62
     7
370
     0
100
AcDbBlockReference
  2
SW_NOTE_4
 10
0.5182355893
 20
0.7375107603
 30
0.0
  0
INSERT
  5
C2
330
1F
100
AcDbEntity
  8
0
  6
Continuous
 62
     7
370
     0
100
AcDbBlockReference
  2
SW_TABLEANNOTATION_0
 10
0.3174104478
 20
8.1967910448
 30
0.0
  0
ARC
  5
C3
330
1F
100
AcDbEntity
  8
0
  6
Continuous
 62
     7
370
     0
100
AcDbCircle
 10
2.4870369065
 20
4.3071889837
 30
0.0
 40
0.5001794919243124
100
AcDbArc
 50
89.0525724535
 51
267.3342514995
  0
SPLINE
  5
C4
330
1F
100
AcDbEntity
  8
0
  6
Continuous
 62
     7
370
     0
100
AcDbSpline
210
0.0
220
0.0
230
1.0
 70
    24
 71
     1
 72
     4
 73
     2
 74
     0
 42
0.00000001
 43
0.00000001
 40
0.0
 40
0.0
 40
1.0
 40
1.0
 10
2.463773905472698
 20
3.807550775542739
 30
0.0
 10
2.463628904231098
 20
3.802953561983476
 30
0.0
  0
SPLINE
  5
C5
330
1F
100
AcDbEntity
  8
0
  6
Continuous
 62
     7
370
     0
100
AcDbSpline
210
0.0
220
0.0
230
1.0
 70
    24
 71
     1
 72
     4
 73
     2
 74
     0
 42
0.00000001
 43
0.00000001
 40
0.0
 40
0.0
 40
1.0
 40
1.0
 10
2.495479282074065
 20
4.812750696720806
 30
0.0
 10
2.495307362653843
 20
4.807300113019748
 30
0.0
  0
ARC
  5
C6
330
1F
100
AcDbEntity
  8
0
  6
Continuous
 62
     7
370
     0
100
AcDbCircle
 10
2.4870369065
 20
4.3071889837
 30
0.0
 40
0.5001794919243122
100
AcDbArc
 50
269.0525724535
 51
87.3342514995
  0
SPLINE
  5
C7
330
1F
100
AcDbEntity
  8
0
  6
Continuous
 62
     7
370
     0
100
AcDbSpline
210
0.0
220
0.0
230
1.0
 70
    24
 71
     1
 72
     4
 73
     2
 74
     0
 42
0.00000001
 43
0.00000001
 40
0.0
 40
0.0
 40
1.0
 40
1.0
 10
2.510299907583685
 20
4.806827191816307
 30
0.0
 10
2.510449597521121
 20
4.811573086991321
 30
0.0
  0
SPLINE
  5
C8
330
1F
100
AcDbEntity
  8
0
  6
Continuous
 62
     7
370
     0
100
AcDbSpline
210
0.0
220
0.0
230
1.0
 70
    24
 71
     1
 72
     4
 73
     2
 74
     0
 42
0.00000001
 43
0.00000001
 40
0.0
 40
0.0
 40
1.0
 40
1.0
 10
2.478624368710546
 20
3.802573259710094
 30
0.0
 10
2.47876645040254
 20
3.807077854339299
 30
0.0
  0
LINE
  5
C9
330
1F
100
AcDbEntity
  8
0
  6
Continuous
 62
     7
370
     0
100
AcDbLine
 10
2.4787664504
 20
3.8070778543
 30
0.0
 11
2.4803485908
 21
3.8572387049
 31
0.0
  0
LINE
  5
CA
330
1F
100
AcDbEntity
  8
0
  6
Continuous
 62
     7
370
     0
100
AcDbLine
 10
2.5102999076
 20
4.8068271918
 30
0.0
 11
2.5087177661
 21
4.7566663779
 31
0.0
  0
ARC
  5
CB
330
1F
100
AcDbEntity
  8
0
  6
Continuous
 62
     7
370
     0
100
AcDbCircle
 10
2.4870369065
 20
4.3071889837
 30
0.0
 40
0.4500000000000007
100
AcDbArc
 50
269.1483858503
 51
87.2384381027
  0
LINE
  5
CC
330
1F
100
AcDbEntity
  8
0
  6
Continuous
 62
     7
370
     0
100
AcDbLine
 10
2.4637739055
 20
3.8075507755
 30
0.0
 11
2.465356047
 21
3.8577115894
 31
0.0
  0
ARC
  5
CD
330
1F
100
AcDbEntity
  8
0
  6
Continuous
 62
     7
370
     0
100
AcDbCircle
 10
2.4870369065
 20
4.3071889837
 30
0.0
 40
0.450000000000001
100
AcDbArc
 50
89.1483858503
 51
267.2384381027
  0
LINE
  5
CE
330
1F
100
AcDbEntity
  8
0
  6
Continuous
 62
     7
370
     0
100
AcDbLine
 10
2.4953073627
 20
4.807300113
 30
0.0
 11
2.4937252223
 21
4.7571392625
 31
0.0
  0
ARC
  5
CF
330
1F
100
AcDbEntity
  8
0
  6
Continuous
 62
     7
370
     0
100
AcDbCircle
 10
2.4870369065
 20
4.3071889837
 30
0.0
 40
0.449999999999999
100
AcDbArc
 50
87.2384381027
 51
89.1483858503
  0
ARC
  5
D0
330
1F
100
AcDbEntity
  8
0
  6
Continuous
 62
     7
370
     0
100
AcDbCircle
 10
2.4870369065
 20
4.3071889837
 30
0.0
 40
0.450000000000001
100
AcDbArc
 50
267.2384381027
 51
269.1483858503
  0
CIRCLE
  5
D1
330
1F
100
AcDbEntity
  8
0
  6
Continuous
 62
     7
370
     0
100
AcDbCircle
 10
2.4870369065
 20
4.3071889837
 30
0.0
 40
0.5159999999999992
  0
CIRCLE
  5
D2
330
1F
100
AcDbEntity
  8
0
  6
Continuous
 62
     7
370
     0
100
AcDbCircle
 10
2.4870369065
 20
4.3071889837
 30
0.0
 40
0.5899999999999997
  0
CIRCLE
  5
D3
330
1F
100
AcDbEntity
  8
0
  6
Continuous
 62
     7
370
     0
100
AcDbCircle
 10
2.4870369065
 20
4.3071889837
 30
0.0
 40
0.5059999999999992
  0
CIRCLE
  5
D4
330
1F
100
AcDbEntity
  8
0
  6
Continuous
 62
     7
370
     0
100
AcDbCircle
 10
2.4870369065
 20
4.3071889837
 30
0.0
 40
0.5999999999999998
  0
DIMENSION
  5
D5
330
1F
100
AcDbEntity
  8
0
  6
Continuous
 62
     7
370
     0
100
AcDbDimension
  2
*D7
 10
2.1873934383
 20
3.7873680607
 30
0.0
 11
3.5868384435
 21
5.2262755393
 31
0.0
 70
   163
  1
<>
 71
     1
 42
-1.0
  3
SLDDIMSTYLE0
100
AcDbDiametricDimension
 15
2.7866803748
 25
4.8270099066
 35
0.0
 40
0.0
  0
LINE
  5
E6
330
1F
100
AcDbEntity
  8
0
  6
PHANTOM
 62
     7
370
    30
100
AcDbLine
 10
2.4870369065
 20
5.2333610905
 30
0.0
 11
2.4870369065
 21
3.3938803783
 31
0.0
  0
LINE
  5
E7
330
1F
100
AcDbEntity
  8
0
  6
Continuous
 62
     7
370
    30
100
AcDbLine
 10
2.4870369065
 20
5.2333610905
 30
0.0
 11
2.0170369065
 21
5.2333610905
 31
0.0
  0
SOLID
  5
E8
330
1F
100
AcDbEntity
  8
0
  6
Continuous
 62
     7
370
    30
100
AcDbTrace
 10
2.0170369065
 20
5.2333610905
 30
0.0
 11
2.2570369065
 21
5.1733610905
 31
0.0
 12
2.2570369065
 22
5.2933610905
 32
0.0
 13
2.2570369065
 23
5.2933610905
 33
0.0
  0
LINE
  5
E9
330
1F
100
AcDbEntity
  8
0
  6
Continuous
 62
     7
370
    30
100
AcDbLine
 10
2.4870369065
 20
3.3938803783
 30
0.0
 11
2.0170369065
 21
3.3938803783
 31
0.0
  0
SOLID
  5
EA
330
1F
100
AcDbEntity
  8
0
  6
Continuous
 62
     7
370
    30
100
AcDbTrace
 10
2.0170369065
 20
3.3938803783
 30
0.0
 11
2.2570369065
 21
3.3338803783
 31
0.0
 12
2.2570369065
 22
3.4538803783
 32
0.0
 13
2.2570369065
 23
3.4538803783
 33
0.0
  0
MTEXT
  5
EB
330
1F
100
AcDbEntity
  8
0
  6
Continuous
 62
     7
100
AcDbMText
 10
1.8293092801
 20
5.3491992228
 30
0.0
 40
0.1458333333
 41
0.0
 71
     1
 72
     1
  1
A
  7
SLDTEXTSTYLE0
 73
     1
 44
1.0
  0
MTEXT
  5
EC
330
1F
100
AcDbEntity
  8
0
  6
Continuous
 62
     7
100
AcDbMText
 10
1.8293092801
 20
3.5097185106
 30
0.0
 40
0.1458333333
 41
0.0
 71
     1
 72
     1
  1
A
  7
SLDTEXTSTYLE0
 73
     1
 44
1.0
  0
LINE
  5
ED
330
1F
100
AcDbEntity
  8
0
  6
Continuous
 62
     7
370
     0
100
AcDbLine
 10
6.8159310272
 20
6.9624697025
 30
0.0
 11
6.8159310272
 21
6.9543056213
 31
0.0
  0
LINE
  5
EE
330
1F
100
AcDbEntity
  8
0
  6
Continuous
 62
     7
370
     0
100
AcDbLine
 10
7.2330562225
 20
6.231745299
 30
0.0
 11
7.2401261411
 21
6.227662595
 31
0.0
  0
LINE
  5
EF
330
1F
100
AcDbEntity
  8
0
  6
Continuous
 62
     7
370
     0
100
AcDbLine
 10
8.0433060548
 20
7.8739749136
 30
0.0
 11
6.9402194761
 21
7.2371765863
 31
0.0
  0
LINE
  5
F0
330
1F
100
AcDbEntity
  8
0
  6
Continuous
 62
     7
370
     0
100
AcDbLine
 10
7.5401707157
 20
6.1979179515
 30
0.0
 11
8.6432572943
 21
6.8347162787
 31
0.0
  0
LINE
  5
F1
330
1F
100
AcDbEntity
  8
0
  6
Continuous
 62
     7
370
     0
100
AcDbLine
 10
8.7675457433
 20
7.1094231626
 30
0.0
 11
8.7675457433
 21
7.1175872437
 31
0.0
  0
LINE
  5
F2
330
1F
100
AcDbEntity
  8
0
  6
Continuous
 62
     7
370
     0
100
AcDbLine
 10
8.350420548
 20
7.840147566
 30
0.0
 11
8.3433506294
 21
7.84423027
 31
0.0
  0
LWPOLYLINE
  5
F3
330
1F
100
AcDbEntity
  8
0
  6
Continuous
 62
     7
370
     0
100
AcDbPolyline
 90
       74
 70
   128
 43
0.0
 10
7.6287563765
 20
6.3322014653
 10
7.6386720233
 20
6.3663172009
 10
7.6455851346
 20
6.403003099
 10
7.6494445282
 20
6.4419875501
 10
7.6502216305
 20
6.4829819269
 10
7.647910688
 20
6.5256827215
 10
7.6425288103
 20
6.569773792
 10
7.6341158428
 20
6.6149287037
 10
7.6227340721
 20
6.6608131453
 10
7.6084677651
 20
6.7070874045
 10
7.5914225443
 20
6.7534088829
 10
7.5717246067
 20
6.7994346324
 10
7.5495197888
 20
6.8448238946
 10
7.5249724874
 20
6.8892406232
 10
7.4982644422
 20
6.9323559722
 10
7.4695933901
 20
6.9738507307
 10
7.4391716015
 20
7.0134176861
 10
7.4072243088
 20
7.0507638984
 10
7.3739880386
 20
7.0856128694
 10
7.3397088605
 20
7.1177065895
 10
7.3046405656
 20
7.1468074479
 10
7.2690427872
 20
7.1726999922
 10
7.233179079
 20
7.195192523
 10
7.1973149632
 20
7.2141185134
 10
7.1617159651
 20
7.229337842
 10
7.1266456474
 20
7.2407378303
 10
7.0923636583
 20
7.2482340767
 10
7.0591238098
 20
7.2517710817
 10
7.027172198
 20
7.2513226585
 10
6.9967453815
 20
7.246892127
 10
6.9680686298
 20
7.2385122895
 10
6.9413542556
 20
7.2262451871
 10
6.9168000426
 20
7.2101816414
 10
6.8945877818
 20
7.1904405811
 10
6.8748819249
 20
7.1671681622
 10
6.8578283672
 20
7.1405366855
 10
6.8435533672
 20
7.1107433212
 10
6.8321626122
 20
7.0780086488
 10
6.8237404351
 20
7.0425750245
 10
6.818349191
 20
7.0047047865
 10
6.8160287947
 20
6.9646783126
 10
6.8167964255
 20
6.922791945
 10
6.8206464002
 20
6.8793557955
 10
6.827550215
 20
6.8346914504
 10
6.8374567564
 20
6.7891295887
 10
6.8502926798
 20
6.7430075346
 10
6.8659629526
 20
6.6966667596
 10
6.8843515575
 20
6.6504503545
 10
6.9053223518
 20
6.6047004896
 10
6.928720075
 20
6.5597558807
 10
6.9543714986
 20
6.515949282
 10
6.9820867084
 20
6.4736050223
 10
7.0116605107
 20
6.4330366037
 10
7.0428739513
 20
6.3945443804
 10
7.075495937
 20
6.3584133356
 10
7.1092849459
 20
6.3249109707
 10
7.1439908161
 20
6.2942853256
 10
7.1793565973
 20
6.2667631419
 10
7.2151204538
 20
6.2425481841
 10
7.2510176025
 20
6.2218197314
 10
7.2867822734
 20
6.2047312499
 10
7.3221496774
 20
6.1914092568
 10
7.3568579667
 20
6.1819523835
 10
7.3906501732
 20
6.1764306453
 10
7.4232761112
 20
6.1748849232
 10
7.4544942297
 20
6.1773266613
 10
7.4840734007
 20
6.1837377818
 10
7.5117946304
 20
6.194070819
 10
7.5374526804
 20
6.2082492706
 10
7.5608575875
 20
6.2261681645
 10
7.58183607
 20
6.2476948353
 10
7.6002328106
 20
6.2726699071
 10
7.6159116062
 20
6.3009084733
 10
7.6287563765
 20
6.3322014653
  0
LWPOLYLINE
  5
F4
330
1F
100
AcDbEntity
  8
0
  6
Continuous
 62
     7
370
     0
100
AcDbPolyline
 90
       16
 70
   128
 43
0.0
 10
7.6425330773
 20
6.3298214082
 10
7.6296665713
 20
6.2984078736
 10
7.6139939143
 20
6.2700142479
 10
7.5956280283
 20
6.2448451078
 10
7.5747012398
 20
6.2230817977
 10
7.551364327
 20
6.2048811226
 10
7.5257854327
 20
6.1903742189
 10
7.4981488534
 20
6.179665609
 10
7.4686537115
 20
6.1728324489
 10
7.4375125199
 20
6.1699239715
 10
7.4049496518
 20
6.1709611325
 10
7.3711997234
 20
6.1759364591
 10
7.3365059036
 20
6.1848141041
 10
7.3011181623
 20
6.1975301037
 10
7.2652914688
 20
6.2139928389
 10
7.2401261411
 20
6.227662595
  0
LWPOLYLINE
  5
F5
330
1F
100
AcDbEntity
  8
0
  6
Continuous
 62
     7
370
     0
100
AcDbPolyline
 90
       43
 70
   128
 43
0.0
 10
6.8159310272
 20
6.9624697025
 10
6.8169165874
 20
6.9952752874
 10
6.8208924826
 20
7.0343118022
 10
6.8278894628
 20
7.0710660212
 10
6.8378571145
 20
7.1052731296
 10
6.8507236205
 20
7.1366866643
 10
6.8663962775
 20
7.16508029
 10
6.8847621635
 20
7.19024943
 10
6.905688952
 20
7.2120127401
 10
6.9290258648
 20
7.2302134152
 10
6.9546047591
 20
7.244720319
 10
6.9822413384
 20
7.2554289288
 10
7.0117364803
 20
7.262262089
 10
7.0428776719
 20
7.2651705664
 10
7.0754405399
 20
7.2641334054
 10
7.1091904684
 20
7.2591580787
 10
7.1438842882
 20
7.2502804338
 10
7.1792720295
 20
7.2375644342
 10
7.215098723
 20
7.221101699
 10
7.2511062364
 20
7.2010108426
 10
7.2870351347
 20
7.17743662
 10
7.3226265496
 20
7.1505488842
 10
7.3576240439
 20
7.1205413618
 10
7.3917754599
 20
7.0876302577
 10
7.424834736
 20
7.0520526972
 10
7.4565636792
 20
7.0140650175
 10
7.4867336818
 20
6.9739409205
 10
7.5151273682
 20
6.9319695014
 10
7.5415401614
 20
6.8884531653
 10
7.5657817564
 20
6.8437054482
 10
7.5876774921
 20
6.7980487585
 10
7.6070696091
 20
6.7518120538
 10
7.6238183869
 20
6.7053284705
 10
7.6378031501
 20
6.658932924
 10
7.6489231381
 20
6.6129596951
 10
7.6570982312
 20
6.5677400221
 10
7.6622695277
 20
6.5235997138
 10
7.6643997682
 20
6.480856802
 10
7.6634736044
 20
6.4398192505
 10
7.6594977091
 20
6.4007827357
 10
7.652500729
 20
6.3640285166
 10
7.6425330773
 20
6.3298214082
 10
7.6425330773
 20
6.3298214082
  0
LINE
  5
F6
330
1F
100
AcDbEntity
  8
0
  6
Continuous
 62
     7
370
     0
100
AcDbLine
 10
8.4573702257
 20
7.641371805
 30
0.0
 11
8.4698593844
 21
7.6485816428
 31
0.0
  0
ARC
  5
F7
330
1F
100
AcDbEntity
  8
0
  6
Continuous
 62
     7
370
     0
100
AcDbCircle
 10
7.7306332903
 20
7.0099091415
 30
0.0
 40
0.9627521324678183
100
AcDbArc
 50
37.5519939364
 51
40.9874186711
  0
LINE
  5
F8
330
1F
100
AcDbEntity
  8
0
  6
Continuous
 62
     7
370
     0
100
AcDbLine
 10
8.5063929017
 20
7.6038982264
 30
0.0
 11
8.493903743
 21
7.5966883885
 31
0.0
  0
ARC
  5
F9
330
1F
100
AcDbEntity
  8
0
  6
Continuous
 62
     7
370
     0
100
AcDbCircle
 10
7.743122449
 20
7.0171189794
 30
0.0
 40
0.9627521324663185
100
AcDbArc
 50
37.5519939364
 51
40.9874186711
  0
ARC
  5
FA
330
1F
100
AcDbEntity
  8
0
  6
Continuous
 62
     7
370
     0
100
AcDbCircle
 10
8.4101196228
 20
7.6580988026
 30
0.0
 40
0.0105814756649332
100
AcDbArc
 50
33.9991450343
 51
107.7651188274
  0
SPLINE
  5
FB
330
1F
100
AcDbEntity
  8
0
  6
Continuous
 62
     7
370
     0
100
AcDbSpline
210
0.0
220
0.0
230
1.0
 70
    24
 71
     1
 72
     4
 73
     2
 74
     0
 42
0.00000001
 43
0.00000001
 40
0.0
 40
0.0
 40
1.0
 40
1.0
 10
8.420672159493336
 20
7.661890119817295
 30
0.0
 10
8.418892152007876
 20
7.664015757778856
 30
0.0
  0
SPLINE
  5
FC
330
1F
100
AcDbEntity
  8
0
  6
Continuous
 62
     7
370
     0
100
AcDbSpline
210
0.0
220
0.0
230
1.0
 70
    24
 71
     1
 72
     4
 73
     2
 74
     0
 42
0.00000001
 43
0.00000001
 40
0.0
 40
0.0
 40
1.0
 40
1.0
 10
8.433442218273484
 20
7.668030285176499
 30
0.0
 10
8.420672159493336
 20
7.661890119817295
 30
0.0
  0
SPLINE
  5
FD
330
1F
100
AcDbEntity
  8
0
  6
Continuous
 62
     7
370
     0
100
AcDbSpline
210
0.0
220
0.0
230
1.0
 70
    24
 71
     1
 72
     4
 73
     2
 74
     0
 42
0.00000001
 43
0.00000001
 40
0.0
 40
0.0
 40
1.0
 40
1.0
 10
8.427659812981753
 20
7.672742057411386
 30
0.0
 10
8.433442218273484
 20
7.668030285176499
 30
0.0
  0
SPLINE
  5
FE
330
1F
100
AcDbEntity
  8
0
  6
Continuous
 62
     7
370
     0
100
AcDbSpline
210
0.0
220
0.0
230
1.0
 70
     8
 71
     3
 72
    13
 73
     9
 74
     0
 42
0.00000001
 43
0.00000001
 40
0.0
 40
0.0
 40
0.0
 40
0.0
 40
0.2497052322948438
 40
0.3757637578560107
 40
0.4998603526083742
 40
0.6227837955542899
 40
0.7501230108901866
 40
1.0
 40
1.0
 40
1.0
 40
1.0
 10
8.427936344975477
 20
7.684716259584266
 30
0.0
 10
8.426960187746968
 20
7.684046626374759
 30
0.0
 10
8.42549123771708
 20
7.683038942679559
 30
0.0
 10
8.424468019746364
 20
7.681073081751503
 30
0.0
 10
8.42420733505807
 20
7.679428832047554
 30
0.0
 10
8.42445744995664
 20
7.677690578924317
 30
0.0
 10
8.42539990503873
 20
7.675364739611672
 30
0.0
 10
8.426759310475473
 20
7.673787114092487
 30
0.0
 10
8.427659812981753
 20
7.672742057411386
 30
0.0
  0
ARC
  5
FF
330
1F
100
AcDbEntity
  8
0
  6
Continuous
 62
     7
370
     0
100
AcDbCircle
 10
8.4336275314
 20
7.673893909
 30
0.0
 40
0.0122275457740504
100
AcDbArc
 50
39.6291368118
 51
117.7386886155
  0
ARC
  5
100
330
1F
100
AcDbEntity
  8
0
  6
Continuous
 62
     7
370
     0
100
AcDbCircle
 10
8.4382281084
 20
7.6753705404
 30
0.0
 40
0.0079482260637724
100
AcDbArc
 50
310.3923782952
 51
52.6962726389
  0
SPLINE
  5
101
330
1F
100
AcDbEntity
  8
0
  6
Continuous
 62
     7
370
     0
100
AcDbSpline
210
0.0
220
0.0
230
1.0
 70
    24
 71
     1
 72
     4
 73
     2
 74
     0
 42
0.00000001
 43
0.00000001
 40
0.0
 40
0.0
 40
1.0
 40
1.0
 10
8.459268998630916
 20
7.654932817610517
 30
0.0
 10
8.443378706705843
 20
7.669316976578672
 30
0.0
  0
SPLINE
  5
102
330
1F
100
AcDbEntity
  8
0
  6
Continuous
 62
     7
370
     0
100
AcDbSpline
210
0.0
220
0.0
230
1.0
 70
     8
 71
     3
 72
    12
 73
     8
 74
     0
 42
0.00000001
 43
0.00000001
 40
0.0
 40
0.0
 40
0.0
 40
0.0
 40
0.2504808463210732
 40
0.4996637882955084
 40
0.6228176769923366
 40
0.750018530384007
 40
1.0
 40
1.0
 40
1.0
 40
1.0
 10
8.453767032881604
 20
7.688365849781613
 30
0.0
 10
8.456169696146377
 20
7.685728793448832
 30
0.0
 10
8.460962572913235
 20
7.680468345089054
 30
0.0
 10
8.464471516079154
 20
7.672735278784691
 30
0.0
 10
8.464834550412396
 20
7.666636212198924
 30
0.0
 10
8.463636197942638
 20
7.660840241230955
 30
0.0
 10
8.461009722369898
 20
7.657287459979304
 30
0.0
 10
8.459268998630916
 20
7.654932817610517
 30
0.0
  0
ARC
  5
103
330
1F
100
AcDbEntity
  8
0
  6
Continuous
 62
     7
370
     0
100
AcDbCircle
 10
8.4266754687
 20
7.6677293889
 30
0.0
 40
0.0340560768082675
100
AcDbArc
 50
37.2976172959
 51
113.7130764712
  0
ARC
  5
104
330
1F
100
AcDbEntity
  8
0
  6
Continuous
 62
     7
370
     0
100
AcDbCircle
 10
8.4177978599
 20
7.6889003872
 30
0.0
 40
0.0111090453745456
100
AcDbArc
 50
115.7042001535
 51
190.6041016702
  0
SPLINE
  5
105
330
1F
100
AcDbEntity
  8
0
  6
Continuous
 62
     7
370
     0
100
AcDbSpline
210
0.0
220
0.0
230
1.0
 70
    24
 71
     1
 72
     4
 73
     2
 74
     0
 42
0.00000001
 43
0.00000001
 40
0.0
 40
0.0
 40
1.0
 40
1.0
 10
8.409543424046882
 20
7.681154200670879
 30
0.0
 10
8.406878532857165
 20
7.686856081608101
 30
0.0
  0
ARC
  5
106
330
1F
100
AcDbEntity
  8
0
  6
Continuous
 62
     7
370
     0
100
AcDbCircle
 10
8.3994612233
 20
7.6610727146
 30
0.0
 40
0.0224703550553965
100
AcDbArc
 50
63.3403983881
 51
112.3540574686
  0
SPLINE
  5
107
330
1F
100
AcDbEntity
  8
0
  6
Continuous
 62
     7
370
     0
100
AcDbSpline
210
0.0
220
0.0
230
1.0
 70
     8
 71
     3
 72
    13
 73
     9
 74
     0
 42
0.00000001
 43
0.00000001
 40
0.0
 40
0.0
 40
0.0
 40
0.0
 40
0.2504883842035436
 40
0.5001800141162589
 40
0.625158180352085
 40
0.750158653020053
 40
0.8750261463238788
 40
1.0
 40
1.0
 40
1.0
 40
1.0
 10
8.396771306215308
 20
7.653770507816681
 30
0.0
 10
8.394646828796223
 20
7.656101892922036
 30
0.0
 10
8.390404631502934
 20
7.660757247455204
 30
0.0
 10
8.38644463750459
 20
7.667180115178589
 30
0.0
 10
8.385370036789908
 20
7.672445067005227
 30
0.0
 10
8.385834775011913
 20
7.676200702812063
 30
0.0
 10
8.387586003311492
 20
7.679563710988073
 30
0.0
 10
8.38980508464512
 20
7.681090654715661
 30
0.0
 10
8.390915097656324
 20
7.681854451598322
 30
0.0
  0
ARC
  5
108
330
1F
100
AcDbEntity
  8
0
  6
Continuous
 62
     7
370
     0
100
AcDbCircle
 10
8.4251240343
 20
7.6755718378
 30
0.0
 40
0.0357655585497023
100
AcDbArc
 50
217.5578487158
 51
281.7533255873
  0
SPLINE
  5
109
330
1F
100
AcDbEntity
  8
0
  6
Continuous
 62
     7
370
     0
100
AcDbSpline
210
0.0
220
0.0
230
1.0
 70
    24
 71
     1
 72
     4
 73
     2
 74
     0
 42
0.00000001
 43
0.00000001
 40
0.0
 40
0.0
 40
1.0
 40
1.0
 10
8.420663583254077
 20
7.657317360332915
 30
0.0
 10
8.432409427670041
 20
7.640556152437766
 30
0.0
  0
ARC
  5
10A
330
1F
100
AcDbEntity
  8
0
  6
Continuous
 62
     7
370
     0
100
AcDbCircle
 10
8.4161399897
 20
7.6674690645
 30
0.0
 40
0.0111139549940294
100
AcDbArc
 50
221.3882377381
 51
294.0177256021
  0
SPLINE
  5
10B
330
1F
100
AcDbEntity
  8
0
  6
Continuous
 62
     7
370
     0
100
AcDbSpline
210
0.0
220
0.0
230
1.0
 70
     8
 71
     3
 72
    13
 73
     9
 74
     0
 42
0.00000001
 43
0.00000001
 40
0.0
 40
0.0
 40
0.0
 40
0.0
 40
0.1251991584232393
 40
0.2501552769129823
 40
0.3738193148020828
 40
0.5002363381767864
 40
0.7496760703870998
 40
1.0
 40
1.0
 40
1.0
 40
1.0
 10
8.406891049515957
 20
7.668175703975304
 30
0.0
 10
8.406567110237122
 20
7.667963800441787
 30
0.0
 10
8.405919860518987
 20
7.667540404727524
 30
0.0
 10
8.405305891105915
 20
7.666633496101445
 30
0.0
 10
8.405025360403089
 20
7.665581779754963
 30
0.0
 10
8.405151480116205
 20
7.664069690019691
 30
0.0
 10
8.406011758039815
 20
7.6621435216567
 30
0.0
 10
8.407204402875541
 20
7.660795959098661
 30
0.0
 10
8.407801780325558
 20
7.660120985744862
 30
0.0
  0
LINE
  5
10C
330
1F
100
AcDbEntity
  8
0
  6
Continuous
 62
     7
370
     0
100
AcDbLine
 10
8.336730649
 20
7.7614486177
 30
0.0
 11
8.3574387762
 21
7.7734031651
 31
0.0
  0
ARC
  5
10D
330
1F
100
AcDbEntity
  8
0
  6
Continuous
 62
     7
370
     0
100
AcDbCircle
 10
8.3290121339
 20
7.7722862254
 30
0.0
 40
0.0133052326604622
100
AcDbArc
 50
236.0813480318
 51
305.4583676442
  0
ARC
  5
10E
330
1F
100
AcDbEntity
  8
0
  6
Continuous
 62
     7
370
     0
100
AcDbCircle
 10
8.3232068325
 20
7.7646194863
 30
0.0
 40
0.0037427428695825
100
AcDbArc
 50
145.4312018259
 51
244.3654362276
  0
SPLINE
  5
10F
330
1F
100
AcDbEntity
  8
0
  6
Continuous
 62
     7
370
     0
100
AcDbSpline
210
0.0
220
0.0
230
1.0
 70
    24
 71
     1
 72
     4
 73
     2
 74
     0
 42
0.00000001
 43
0.00000001
 40
0.0
 40
0.0
 40
1.0
 40
1.0
 10
8.323444759757836
 20
7.769073540137499
 30
0.0
 10
8.320124887763306
 20
7.766743101379153
 30
0.0
  0
LINE
  5
110
330
1F
100
AcDbEntity
  8
0
  6
Continuous
 62
     7
370
     0
100
AcDbLine
 10
8.3457943848
 20
7.781975704
 30
0.0
 11
8.3234447598
 21
7.7690735401
 31
0.0
  0
ARC
  5
111
330
1F
100
AcDbEntity
  8
0
  6
Continuous
 62
     7
370
     0
100
AcDbCircle
 10
7.962441106
 20
7.2496129205
 30
0.0
 40
0.6560258148328918
100
AcDbArc
 50
54.2424218203
 51
55.8770886232
  0
LINE
  5
112
330
1F
100
AcDbEntity
  8
0
  6
Continuous
 62
     7
370
     0
100
AcDbLine
 10
8.3094568533
 20
7.7805745453
 30
0.0
 11
8.3304519556
 21
7.7926947599
 31
0.0
  0
ARC
  5
113
330
1F
100
AcDbEntity
  8
0
  6
Continuous
 62
     7
370
     0
100
AcDbCircle
 10
8.3016293933
 20
7.79168609
 30
0.0
 40
0.0135917458512371
100
AcDbArc
 50
238.8581098409
 51
305.1625478064
  0
ARC
  5
114
330
1F
100
AcDbEntity
  8
0
  6
Continuous
 62
     7
370
     0
100
AcDbCircle
 10
8.2964156828
 20
7.78345989
 30
0.0
 40
0.0038603249139029
100
AcDbArc
 50
172.4180423618
 51
241.9483223416
  0
SPLINE
  5
115
330
1F
100
AcDbEntity
  8
0
  6
Continuous
 62
     7
370
     0
100
AcDbSpline
210
0.0
220
0.0
230
1.0
 70
     8
 71
     3
 72
     9
 73
     5
 74
     0
 42
0.00000001
 43
0.00000001
 40
0.0
 40
0.0
 40
0.0
 40
0.0
 40
0.501577137328085
 40
1.0
 40
1.0
 40
1.0
 40
1.0
 10
8.295552748557688
 20
7.787068731723621
 30
0.0
 10
8.294833580302369
 20
7.786635711386362
 30
0.0
 10
8.293399766434472
 20
7.785772393852462
 30
0.0
 10
8.292858758775141
 20
7.784569024472873
 30
0.0
 10
8.292589108188851
 20
7.783969237661847
 30
0.0
  0
LINE
  5
116
330
1F
100
AcDbEntity
  8
0
  6
Continuous
 62
     7
370
     0
100
AcDbLine
 10
8.3187288621
 20
7.8004480173
 30
0.0
 11
8.2955527486
 21
7.7870687317
 31
0.0
  0
ARC
  5
117
330
1F
100
AcDbEntity
  8
0
  6
Continuous
 62
     7
370
     0
100
AcDbCircle
 10
7.993133268
 20
7.2960277424
 30
0.0
 40
0.6003768021671
100
AcDbArc
 50
57.1583741813
 51
58.8925575894
  0
LINE
  5
118
330
1F
100
AcDbEntity
  8
0
  6
Continuous
 62
     7
370
     0
100
AcDbLine
 10
8.2775902173
 20
7.7952199393
 30
0.0
 11
8.3033146702
 21
7.8100703499
 31
0.0
  0
SPLINE
  5
119
330
1F
100
AcDbEntity
  8
0
  6
Continuous
 62
     7
370
     0
100
AcDbSpline
210
0.0
220
0.0
230
1.0
 70
     8
 71
     3
 72
    13
 73
     9
 74
     0
 42
0.00000001
 43
0.00000001
 40
0.0
 40
0.0
 40
0.0
 40
0.0
 40
0.2493551011006027
 40
0.3758643206457633
 40
0.4994912623299731
 40
0.6184449072788225
 40
0.7497843925018219
 40
1.0
 40
1.0
 40
1.0
 40
1.0
 10
8.275546987984443
 20
7.7771145785431
 30
0.0
 10
8.273646909495506
 20
7.778511898419016
 30
0.0
 10
8.270782834498581
 20
7.780618142420314
 30
0.0
 10
8.269102009672155
 20
7.784010174422188
 30
0.0
 10
8.268962871766316
 20
7.786574180744887
 30
0.0
 10
8.27000273300735
 20
7.789066029728126
 30
0.0
 10
8.272645746906152
 20
7.792095917576766
 30
0.0
 10
8.275631937711728
 20
7.793982656568966
 30
0.0
 10
8.277590217291209
 20
7.795219939341832
 30
0.0
  0
ARC
  5
11A
330
1F
100
AcDbEntity
  8
0
  6
Continuous
 62
     7
370
     0
100
AcDbCircle
 10
8.2943581203
 20
7.8064437403
 30
0.0
 40
0.0348433412370241
100
AcDbArc
 50
237.3247070339
 51
274.2488618519
  0
SPLINE
  5
11B
330
1F
100
AcDbEntity
  8
0
  6
Continuous
 62
     7
370
     0
100
AcDbSpline
210
0.0
220
0.0
230
1.0
 70
     8
 71
     3
 72
    12
 73
     8
 74
     0
 42
0.00000001
 43
0.00000001
 40
0.0
 40
0.0
 40
0.0
 40
0.0
 40
0.2503533688407871
 40
0.4999961943216224
 40
0.7494886161542211
 40
0.8747044873187573
 40
1.0
 40
1.0
 40
1.0
 40
1.0
 10
8.302403444128172
 20
7.758889410787216
 30
0.0
 10
8.301186249687245
 20
7.759821500872467
 30
0.0
 10
8.298755315400113
 20
7.761683035620522
 30
0.0
 10
8.29620457076317
 20
7.764939214298343
 30
0.0
 10
8.29579060619383
 20
7.767855044103057
 30
0.0
 10
8.29621363025962
 20
7.770091550953332
 30
0.0
 10
8.29669757043434
 20
7.771161177323475
 30
0.0
 10
8.296939617447805
 20
7.771696160534088
 30
0.0
  0
ARC
  5
11C
330
1F
100
AcDbEntity
  8
0
  6
Continuous
 62
     7
370
     0
100
AcDbCircle
 10
8.3222566598
 20
7.7864423478
 30
0.0
 40
0.0339604845178856
100
AcDbArc
 50
234.2254369914
 51
272.3605045947
  0
LINE
  5
11D
330
1F
100
AcDbEntity
  8
0
  6
Continuous
 62
     7
370
     0
100
AcDbLine
 10
8.3173419342
 20
7.7488660011
 30
0.0
 11
8.3236553877
 21
7.7525106801
 31
0.0
  0
ARC
  5
11E
330
1F
100
AcDbEntity
  8
0
  6
Continuous
 62
     7
370
     0
100
AcDbCircle
 10
7.8876152211
 20
7.1801470047
 30
0.0
 40
0.7128157860234152
100
AcDbArc
 50
51.4843615224
 51
52.9251363781
  0
LINE
  5
11F
330
1F
100
AcDbEntity
  8
0
  6
Continuous
 62
     7
370
     0
100
AcDbLine
 10
8.3726464855
 20
7.7616313713
 30
0.0
 11
8.3315057273
 21
7.7378813172
 31
0.0
  0
ARC
  5
120
330
1F
100
AcDbEntity
  8
0
  6
Continuous
 62
     7
370
     0
100
AcDbCircle
 10
7.9294215241
 20
7.2047483873
 30
0.0
 40
0.7117352206915588
100
AcDbArc
 50
51.4836049224
 51
53.0318151613
  0
SPLINE
  5
121
330
1F
100
AcDbEntity
  8
0
  6
Continuous
 62
     7
370
     0
100
AcDbSpline
210
0.0
220
0.0
230
1.0
 70
    24
 71
     1
 72
     4
 73
     2
 74
     0
 42
0.00000001
 43
0.00000001
 40
0.0
 40
0.0
 40
1.0
 40
1.0
 10
7.957968013846131
 20
6.916080760067554
 30
0.0
 10
7.962234054661491
 20
6.906380152329342
 30
0.0
  0
SPLINE
  5
122
330
1F
100
AcDbEntity
  8
0
  6
Continuous
 62
     7
370
     0
100
AcDbSpline
210
0.0
220
0.0
230
1.0
 70
    24
 71
     1
 72
     4
 73
     2
 74
     0
 42
0.00000001
 43
0.00000001
 40
0.0
 40
0.0
 40
1.0
 40
1.0
 10
7.953050167226411
 20
6.923616662494453
 30
0.0
 10
7.957968013846131
 20
6.916080760067554
 30
0.0
  0
ARC
  5
123
330
1F
100
AcDbEntity
  8
0
  6
Continuous
 62
     7
370
     0
100
AcDbCircle
 10
7.9431165671
 20
6.9135159774
 30
0.0
 40
0.0141668715797679
100
AcDbArc
 50
45.4778329181
 51
120.5834541008
  0
ARC
  5
124
330
1F
100
AcDbEntity
  8
0
  6
Continuous
 62
     7
370
     0
100
AcDbCircle
 10
7.9474587505
 20
6.9082588717
 30
0.0
 40
0.0209289588624926
100
AcDbArc
 50
123.4957964941
 51
196.7140837878
  0
ARC
  5
125
330
1F
100
AcDbEntity
  8
0
  6
Continuous
 62
     7
370
     0
100
AcDbCircle
 10
7.9134289999
 20
6.8927186289
 30
0.0
 40
0.0169184144945324
100
AcDbArc
 50
34.2475088968
 51
64.1994285116
  0
SPLINE
  5
126
330
1F
100
AcDbEntity
  8
0
  6
Continuous
 62
     7
370
     0
100
AcDbSpline
210
0.0
220
0.0
230
1.0
 70
     8
 71
     3
 72
     9
 73
     5
 74
     0
 42
0.00000001
 43
0.00000001
 40
0.0
 40
0.0
 40
0.0
 40
0.0
 40
0.5001654445837108
 40
1.0
 40
1.0
 40
1.0
 40
1.0
 10
7.910667441096285
 20
6.907004702190258
 30
0.0
 10
7.912311797071116
 20
6.907770693044769
 30
0.0
 10
7.915599421181574
 20
6.909302168005316
 30
0.0
 10
7.919061903572795
 20
6.908400970978542
 30
0.0
 10
7.920792571919448
 20
6.907950521563324
 30
0.0
  0
SPLINE
  5
127
330
1F
100
AcDbEntity
  8
0
  6
Continuous
 62
     7
370
     0
100
AcDbSpline
210
0.0
220
0.0
230
1.0
 70
     8
 71
     3
 72
    14
 73
    10
 74
     0
 42
0.00000001
 43
0.00000001
 40
0.0
 40
0.0
 40
0.0
 40
0.0
 40
0.249900429008923
 40
0.3800976031660782
 40
0.4999571058494566
 40
0.6257216768207743
 40
0.7499966555365006
 40
0.8749516763669268
 40
1.0
 40
1.0
 40
1.0
 40
1.0
 10
7.90431559539869
 20
6.876895886869614
 30
0.0
 10
7.903497520946843
 20
6.879642952203733
 30
0.0
 10
7.902253232813399
 20
6.883821228140994
 30
0.0
 10
7.901847843812291
 20
6.889709606533727
 30
0.0
 10
7.902226482431089
 20
6.894106191496379
 30
0.0
 10
7.903347623684833
 20
6.898211574041158
 30
0.0
 10
7.905177741655808
 20
6.901913831757218
 30
0.0
 10
7.907634903537103
 20
6.904986883532287
 30
0.0
 10
7.90965634377187
 20
6.906331928644534
 30
0.0
 10
7.910667441096285
 20
6.907004702190258
 30
0.0
  0
ARC
  5
128
330
1F
100
AcDbEntity
  8
0
  6
Continuous
 62
     7
370
     0
100
AcDbCircle
 10
7.0456036595
 20
6.5837604411
 30
0.0
 40
0.9073668377970748
100
AcDbArc
 50
16.0442409238
 51
18.8481831223
  0
LINE
  5
129
330
1F
100
AcDbEntity
  8
0
  6
Continuous
 62
     7
370
     0
100
AcDbLine
 10
7.9744253896
 20
6.8673269029
 30
0.0
 11
7.917627267
 21
6.8345380446
 31
0.0
  0
ARC
  5
12A
330
1F
100
AcDbEntity
  8
0
  6
Continuous
 62
     7
370
     0
100
AcDbCircle
 10
7.104294921
 20
6.6171259684
 30
0.0
 40
0.9053880604797542
100
AcDbArc
 50
16.0422802762
 51
18.6315342623
  0
SPLINE
  5
12B
330
1F
100
AcDbEntity
  8
0
  6
Continuous
 62
     7
370
     0
100
AcDbSpline
210
0.0
220
0.0
230
1.0
 70
    24
 71
     1
 72
     4
 73
     2
 74
     0
 42
0.00000001
 43
0.00000001
 40
0.0
 40
0.0
 40
1.0
 40
1.0
 10
7.83345616328603
 20
7.036472088879254
 30
0.0
 10
7.875302110238174
 20
7.095470467720001
 30
0.0
  0
ARC
  5
12C
330
1F
100
AcDbEntity
  8
0
  6
Continuous
 62
     7
370
     0
100
AcDbCircle
 10
6.9264527367
 20
6.5363469376
 30
0.0
 40
1.035751120128865
100
AcDbArc
 50
27.3762922984
 51
28.8725097477
  0
SPLINE
  5
12D
330
1F
100
AcDbEntity
  8
0
  6
Continuous
 62
     7
370
     0
100
AcDbSpline
210
0.0
220
0.0
230
1.0
 70
    24
 71
     1
 72
     4
 73
     2
 74
     0
 42
0.00000001
 43
0.00000001
 40
0.0
 40
0.0
 40
1.0
 40
1.0
 10
7.916437540870197
 20
7.018509554687122
 30
0.0
 10
7.846205665599967
 20
7.012618847920802
 30
0.0
  0
ARC
  5
12E
330
1F
100
AcDbEntity
  8
0
  6
Continuous
 62
     7
370
     0
100
AcDbCircle
 10
6.9910643693
 20
6.5731485064
 30
0.0
 40
1.026967365610441
100
AcDbArc
 50
25.700453267
 51
27.1095697699
  0
SPLINE
  5
12F
330
1F
100
AcDbEntity
  8
0
  6
Continuous
 62
     7
370
     0
100
AcDbSpline
210
0.0
220
0.0
230
1.0
 70
    24
 71
     1
 72
     4
 73
     2
 74
     0
 42
0.00000001
 43
0.00000001
 40
0.0
 40
0.0
 40
1.0
 40
1.0
 10
7.894049653172901
 20
7.039173559774039
 30
0.0
 10
7.905205716533457
 20
7.041130949735595
 30
0.0
  0
ARC
  5
130
330
1F
100
AcDbEntity
  8
0
  6
Continuous
 62
     7
370
     0
100
AcDbCircle
 10
6.9739366472
 20
6.56375668
 30
0.0
 40
1.035678112794601
100
AcDbArc
 50
27.3251279053
 51
28.8877944164
  0
SPLINE
  5
131
330
1F
100
AcDbEntity
  8
0
  6
Continuous
 62
     7
370
     0
100
AcDbSpline
210
0.0
220
0.0
230
1.0
 70
    24
 71
     1
 72
     4
 73
     2
 74
     0
 42
0.00000001
 43
0.00000001
 40
0.0
 40
0.0
 40
1.0
 40
1.0
 10
7.888209399262323
 20
7.072951787641828
 30
0.0
 10
7.880742701433825
 20
7.064088503231146
 30
0.0
  0
ARC
  5
132
330
1F
100
AcDbEntity
  8
0
  6
Continuous
 62
     7
370
     0
100
AcDbCircle
 10
6.9803595099
 20
6.567547548
 30
0.0
 40
1.03904998295938
100
AcDbArc
 50
29.1048891871
 51
30.5361778571
  0
LINE
  5
133
330
1F
100
AcDbEntity
  8
0
  6
Continuous
 62
     7
370
     0
100
AcDbLine
 10
7.7571205395
 20
7.238901839
 30
0.0
 11
7.7677386202
 21
7.2450315265
 31
0.0
  0
ARC
  5
134
330
1F
100
AcDbEntity
  8
0
  6
Continuous
 62
     7
370
     0
100
AcDbCircle
 10
7.057613167
 20
6.628700273
 30
0.0
 40
0.9282545531233611
100
AcDbArc
 50
41.0991809892
 51
41.6984541309
  0
LINE
  5
135
330
1F
100
AcDbEntity
  8
0
  6
Continuous
 62
     7
370
     0
100
AcDbLine
 10
7.7384634989
 20
7.2391206282
 30
0.0
 11
7.7507001195
 21
7.2461846789
 31
0.0
  0
ARC
  5
136
330
1F
100
AcDbEntity
  8
0
  6
Continuous
 62
     7
370
     0
100
AcDbCircle
 10
7.0453765463
 20
6.6216362222
 30
0.0
 40
0.9282545531732854
100
AcDbArc
 50
41.0991809892
 51
41.6984541309
  0
LINE
  5
137
330
1F
100
AcDbEntity
  8
0
  6
Continuous
 62
     7
370
     0
100
AcDbLine
 10
7.7099762611
 20
7.2116860264
 30
0.0
 11
7.7448839189
 21
7.2318377883
 31
0.0
  0
ARC
  5
138
330
1F
100
AcDbEntity
  8
0
  6
Continuous
 62
     7
370
     0
100
AcDbCircle
 10
6.9992583345
 20
6.5917354635
 30
0.0
 40
0.9431111661216873
100
AcDbArc
 50
39.9538896689
 51
41.0977933417
  0
SPLINE
  5
139
330
1F
100
AcDbEntity
  8
0
  6
Continuous
 62
     7
370
     0
100
AcDbSpline
210
0.0
220
0.0
230
1.0
 70
    24
 71
     1
 72
     4
 73
     2
 74
     0
 42
0.00000001
 43
0.00000001
 40
0.0
 40
0.0
 40
1.0
 40
1.0
 10
7.781264001178757
 20
7.18613038618491
 30
0.0
 10
7.722211040601207
 20
7.197374016004138
 30
0.0
  0
LINE
  5
13A
330
1F
100
AcDbEntity
  8
0
  6
Continuous
 62
     7
370
     0
100
AcDbLine
 10
7.7942352782
 20
7.193618545
 30
0.0
 11
7.7812640012
 21
7.1861303862
 31
0.0
  0
ARC
  5
13B
330
1F
100
AcDbEntity
  8
0
  6
Continuous
 62
     7
370
     0
100
AcDbCircle
 10
7.0254492741
 20
6.6015136709
 30
0.0
 40
0.9703711156417807
100
AcDbArc
 50
37.6028044761
 51
39.9486566188
  0
LINE
  5
13C
330
1F
100
AcDbEntity
  8
0
  6
Continuous
 62
     7
370
     0
100
AcDbLine
 10
7.7799733997
 20
7.2307195162
 30
0.0
 11
7.769355319
 21
7.2245898286
 31
0.0
  0
ARC
  5
13D
330
1F
100
AcDbEntity
  8
0
  6
Continuous
 62
     7
370
     0
100
AcDbCircle
 10
7.0570206936
 20
6.6250809636
 30
0.0
 40
0.9431111661044858
100
AcDbArc
 50
39.9538896689
 51
41.0977933417
  0
ARC
  5
13E
330
1F
100
AcDbEntity
  8
0
  6
Continuous
 62
     7
370
     0
100
AcDbCircle
 10
7.6589051676
 20
7.2978586449
 30
0.0
 40
0.0409807946271
100
AcDbArc
 50
48.1916260958
 51
127.8328236631
  0
SPLINE
  5
13F
330
1F
100
AcDbEntity
  8
0
  6
Continuous
 62
     7
370
     0
100
AcDbSpline
210
0.0
220
0.0
230
1.0
 70
    24
 71
     1
 72
     4
 73
     2
 74
     0
 42
0.00000001
 43
0.00000001
 40
0.0
 40
0.0
 40
1.0
 40
1.0
 10
7.622087050451197
 20
7.321313790197417
 30
0.0
 10
7.633769203076986
 20
7.330225430618633
 30
0.0
  0
SPLINE
  5
140
330
1F
100
AcDbEntity
  8
0
  6
Continuous
 62
     7
370
     0
100
AcDbSpline
210
0.0
220
0.0
230
1.0
 70
     8
 71
     3
 72
    12
 73
     8
 74
     0
 42
0.00000001
 43
0.00000001
 40
0.0
 40
0.0
 40
0.0
 40
0.0
 40
0.2503262674180358
 40
0.4997345046006497
 40
0.6249000363599431
 40
0.7501600021982555
 40
0.9999999999999999
 40
0.9999999999999999
 40
0.9999999999999999
 40
0.9999999999999999
 10
7.627086518396917
 20
7.294861500722124
 30
0.0
 10
7.624834382641432
 20
7.296942229745886
 30
0.0
 10
7.620338370466327
 20
7.301096057063419
 30
0.0
 10
7.617265187617018
 20
7.307195220517435
 30
0.0
 10
7.617067358303195
 20
7.311950128991635
 30
0.0
 10
7.618002815824966
 20
7.316554346933088
 30
0.0
 10
7.62045424532911
 20
7.319411048545317
 30
0.0
 10
7.622087050451197
 20
7.321313790197417
 30
0.0
  0
ARC
  5
141
330
1F
100
AcDbEntity
  8
0
  6
Continuous
 62
     7
370
     0
100
AcDbCircle
 10
7.6552082194
 20
7.3237401608
 30
0.0
 40
0.0403088957729285
100
AcDbArc
 50
225.7608374475
 51
306.0107143541
  0
SPLINE
  5
142
330
1F
100
AcDbEntity
  8
0
  6
Continuous
 62
     7
370
     0
100
AcDbSpline
210
0.0
220
0.0
230
1.0
 70
     8
 71
     3
 72
     9
 73
     5
 74
     0
 42
0.00000001
 43
0.00000001
 40
0.0
 40
0.0
 40
0.0
 40
0.0
 40
0.4987092906772053
 40
0.9999999999999999
 40
0.9999999999999999
 40
0.9999999999999999
 40
0.9999999999999999
 10
7.695366489102354
 20
7.306901473719922
 30
0.0
 10
7.693391053158656
 20
7.303779687544758
 30
0.0
 10
7.689429956021254
 20
7.297519956207238
 30
0.0
 10
7.682420877598336
 20
7.293266319064015
 30
0.0
 10
7.678907291704014
 20
7.291134010283287
 30
0.0
  0
ARC
  5
143
330
1F
100
AcDbEntity
  8
0
  6
Continuous
 62
     7
370
     0
100
AcDbCircle
 10
7.6755871723
 20
7.3111875463
 30
0.0
 40
0.0202383742548269
100
AcDbArc
 50
347.7733447555
 51
58.2906880425
  0
SPLINE
  5
144
330
1F
100
AcDbEntity
  8
0
  6
Continuous
 62
     7
370
     0
100
AcDbSpline
210
0.0
220
0.0
230
1.0
 70
     8
 71
     3
 72
     9
 73
     5
 74
     0
 42
0.00000001
 43
0.00000001
 40
0.0
 40
0.0
 40
0.0
 40
0.0
 40
0.5000883479088521
 40
1.0
 40
1.0
 40
1.0
 40
1.0
 10
7.620289157970689
 20
7.378421487376717
 30
0.0
 10
7.610957862331658
 20
7.374761635883449
 30
0.0
 10
7.592298568072851
 20
7.367443226029325
 30
0.0
 10
7.569689811319309
 20
7.366160433548638
 30
0.0
 10
7.558387430378919
 20
7.365519150640327
 30
0.0
  0
ARC
  5
145
330
1F
100
AcDbEntity
  8
0
  6
Continuous
 62
     7
370
     0
100
AcDbCircle
 10
7.2629111569
 20
6.8582729391
 30
0.0
 40
0.6310891759207399
100
AcDbArc
 50
55.5082447006
 51
57.2181461928
  0
SPLINE
  5
146
330
1F
100
AcDbEntity
  8
0
  6
Continuous
 62
     7
370
     0
100
AcDbSpline
210
0.0
220
0.0
230
1.0
 70
    24
 71
     1
 72
     4
 73
     2
 74
     0
 42
0.00000001
 43
0.00000001
 40
0.0
 40
0.0
 40
1.0
 40
1.0
 10
7.584272929297664
 20
7.380782432996756
 30
0.0
 10
7.604609321380664
 20
7.388853670294033
 30
0.0
  0
SPLINE
  5
147
330
1F
100
AcDbEntity
  8
0
  6
Continuous
 62
     7
370
     0
100
AcDbSpline
210
0.0
220
0.0
230
1.0
 70
    24
 71
     1
 72
     4
 73
     2
 74
     0
 42
0.00000001
 43
0.00000001
 40
0.0
 40
0.0
 40
1.0
 40
1.0
 10
7.559484976070462
 20
7.375739417069534
 30
0.0
 10
7.584272929297664
 20
7.380782432996756
 30
0.0
  0
SPLINE
  5
148
330
1F
100
AcDbEntity
  8
0
  6
Continuous
 62
     7
370
     0
100
AcDbSpline
210
0.0
220
0.0
230
1.0
 70
    24
 71
     1
 72
     4
 73
     2
 74
     0
 42
0.00000001
 43
0.00000001
 40
0.0
 40
0.0
 40
1.0
 40
1.0
 10
7.537711629974805
 20
7.374987434349511
 30
0.0
 10
7.559484976070462
 20
7.375739417069534
 30
0.0
  0
LINE
  5
149
330
1F
100
AcDbEntity
  8
0
  6
Continuous
 62
     7
370
     0
100
AcDbLine
 10
7.5270591122
 20
7.3688378668
 30
0.0
 11
7.53771163
 21
7.3749874343
 31
0.0
  0
ARC
  5
14A
330
1F
100
AcDbEntity
  8
0
  6
Continuous
 62
     7
370
     0
100
AcDbCircle
 10
7.2127928446
 20
6.8350847514
 30
0.0
 40
0.6193994471924938
100
AcDbArc
 50
54.4396718948
 51
59.5110264473
  0
LINE
  5
14B
330
1F
100
AcDbEntity
  8
0
  6
Continuous
 62
     7
370
     0
100
AcDbLine
 10
7.5863378114
 20
7.3466620369
 30
0.0
 11
7.5730106852
 21
7.3389684507
 31
0.0
  0
ARC
  5
14C
330
1F
100
AcDbEntity
  8
0
  6
Continuous
 62
     7
370
     0
100
AcDbCircle
 10
7.2156594561
 20
6.8273782203
 30
0.0
 40
0.6380110698859177
100
AcDbArc
 50
54.4797623479
 51
57.5079987584
  0
ARC
  5
14D
330
1F
100
AcDbEntity
  8
0
  6
Continuous
 62
     7
370
     0
100
AcDbCircle
 10
7.4863686385
 20
7.3827247276
 30
0.0
 40
0.0606755046842421
100
AcDbArc
 50
74.433932905
 51
126.6514861341
  0
SPLINE
  5
14E
330
1F
100
AcDbEntity
  8
0
  6
Continuous
 62
     7
370
     0
100
AcDbSpline
210
0.0
220
0.0
230
1.0
 70
    24
 71
     1
 72
     4
 73
     2
 74
     0
 42
0.00000001
 43
0.00000001
 40
0.0
 40
0.0
 40
1.0
 40
1.0
 10
7.438452071673961
 20
7.423297704944216
 30
0.0
 10
7.450148635740019
 20
7.431403555346644
 30
0.0
  0
SPLINE
  5
14F
330
1F
100
AcDbEntity
  8
0
  6
Continuous
 62
     7
370
     0
100
AcDbSpline
210
0.0
220
0.0
230
1.0
 70
     8
 71
     3
 72
    12
 73
     8
 74
     0
 42
0.00000001
 43
0.00000001
 40
0.0
 40
0.0
 40
0.0
 40
0.0
 40
0.2503262674180372
 40
0.4997345046006477
 40
0.6249000363599442
 40
0.7501600021982598
 40
1.0
 40
1.0
 40
1.0
 40
1.0
 10
7.443506927777277
 20
7.407422535604907
 30
0.0
 10
7.441227480201607
 20
7.408311874588884
 30
0.0
 10
7.436676944547716
 20
7.410087291053019
 30
0.0
 10
7.433594136459173
 20
7.413341094153765
 30
0.0
 10
7.433403813994531
 20
7.416318657488562
 30
0.0
 10
7.434353487378084
 20
7.419428908078157
 30
0.0
 10
7.4368135298065
 20
7.421751028046996
 30
0.0
 10
7.438452071673961
 20
7.423297704944216
 30
0.0
  0
ARC
  5
150
330
1F
100
AcDbEntity
  8
0
  6
Continuous
 62
     7
370
     0
100
AcDbCircle
 10
7.4620193799
 20
7.4637037688
 30
0.0
 40
0.0592476842446389
100
AcDbArc
 50
251.7925365174
 51
304.9123620589
  0
SPLINE
  5
151
330
1F
100
AcDbEntity
  8
0
  6
Continuous
 62
     7
370
     0
100
AcDbSpline
210
0.0
220
0.0
230
1.0
 70
     8
 71
     3
 72
     9
 73
     5
 74
     0
 42
0.00000001
 43
0.00000001
 40
0.0
 40
0.0
 40
0.0
 40
0.0
 40
0.4987092906772084
 40
0.9999999999999999
 40
0.9999999999999999
 40
0.9999999999999999
 40
0.9999999999999999
 10
7.512234402478181
 20
7.428812839538214
 30
0.0
 10
7.510306608794465
 20
7.426347741365626
 30
0.0
 10
7.506441042782855
 20
7.421404785181192
 30
0.0
 10
7.4994384939762
 20
7.417217854046536
 30
0.0
 10
7.495928181317845
 20
7.415118984368158
 30
0.0
  0
SPLINE
  5
152
330
1F
100
AcDbEntity
  8
0
  6
Continuous
 62
     7
370
     0
100
AcDbSpline
210
0.0
220
0.0
230
1.0
 70
     8
 71
     3
 72
    11
 73
     7
 74
     0
 42
0.00000001
 43
0.00000001
 40
0.0
 40
0.0
 40
0.0
 40
0.0
 40
0.2504031889031623
 40
0.5003824607867569
 40
0.7500984159891405
 40
1.0
 40
1.0
 40
1.0
 40
1.0
 10
7.502650870665494
 20
7.441174755686752
 30
0.0
 10
7.504384992424783
 20
7.440485164366748
 30
0.0
 10
7.507850300183114
 20
7.439107149161941
 30
0.0
 10
7.511696228045047
 20
7.436265679062221
 30
0.0
 10
7.51337987287992
 20
7.432689280142379
 30
0.0
 10
7.512616320509307
 20
7.430105306424366
 30
0.0
 10
7.512234402478181
 20
7.428812839538214
 30
0.0
  0
LINE
  5
153
330
1F
100
AcDbEntity
  8
0
  6
Continuous
 62
     7
370
     0
100
AcDbLine
 10
7.3854507141
 20
7.4489696473
 30
0.0
 11
7.4064458165
 21
7.4610898618
 31
0.0
  0
ARC
  5
154
330
1F
100
AcDbEntity
  8
0
  6
Continuous
 62
     7
370
     0
100
AcDbCircle
 10
7.3695108661
 20
7.4727896298
 30
0.0
 40
0.0286613036391893
100
AcDbArc
 50
273.0214102197
 51
303.7896334793
  0
SPLINE
  5
155
330
1F
100
AcDbEntity
  8
0
  6
Continuous
 62
     7
370
     0
100
AcDbSpline
210
0.0
220
0.0
230
1.0
 70
     8
 71
     3
 72
    11
 73
     7
 74
     0
 42
0.00000001
 43
0.00000001
 40
0.0
 40
0.0
 40
0.0
 40
0.0
 40
0.2494767938013947
 40
0.5035301868956813
 40
0.7522417857985655
 40
1.0
 40
1.0
 40
1.0
 40
1.0
 10
7.370263181566051
 20
7.446285400372706
 30
0.0
 10
7.369962557387057
 20
7.446004773146505
 30
0.0
 10
7.369355794141756
 20
7.445438370646684
 30
0.0
 10
7.369229023354363
 20
7.444759613375162
 30
0.0
 10
7.369747477667037
 20
7.444290972567629
 30
0.0
 10
7.370597422045632
 20
7.444209050446637
 30
0.0
 10
7.371021578149091
 20
7.444168168044798
 30
0.0
  0
SPLINE
  5
156
330
1F
100
AcDbEntity
  8
0
  6
Continuous
 62
     7
370
     0
100
AcDbSpline
210
0.0
220
0.0
230
1.0
 70
    24
 71
     1
 72
     4
 73
     2
 74
     0
 42
0.00000001
 43
0.00000001
 40
0.0
 40
0.0
 40
1.0
 40
1.0
 10
7.373668580902179
 20
7.448418844674828
 30
0.0
 10
7.370263181566051
 20
7.446285400372706
 30
0.0
  0
LINE
  5
157
330
1F
100
AcDbEntity
  8
0
  6
Continuous
 62
     7
370
     0
100
AcDbLine
 10
7.3963281391
 20
7.4614999292
 30
0.0
 11
7.3736685809
 21
7.4484188447
 31
0.0
  0
ARC
  5
158
330
1F
100
AcDbEntity
  8
0
  6
Continuous
 62
     7
370
     0
100
AcDbCircle
 10
7.3905209724
 20
7.1999183001
 30
0.0
 40
0.2616460813483661
100
AcDbArc
 50
88.7282306447
 51
91.8193633733
  0
LINE
  5
159
330
1F
100
AcDbEntity
  8
0
  6
Continuous
 62
     7
370
     0
100
AcDbLine
 10
7.3609779285
 20
7.4491731074
 30
0.0
 11
7.38221409
 21
7.4614324824
 31
0.0
  0
ARC
  5
15A
330
1F
100
AcDbEntity
  8
0
  6
Continuous
 62
     7
370
     0
100
AcDbCircle
 10
7.3428078357
 20
7.4770390274
 30
0.0
 40
0.0332665262873562
100
AcDbArc
 50
277.298481886
 51
303.1065331847
  0
SPLINE
  5
15B
330
1F
100
AcDbEntity
  8
0
  6
Continuous
 62
     7
370
     0
100
AcDbSpline
210
0.0
220
0.0
230
1.0
 70
     8
 71
     3
 72
    10
 73
     6
 74
     0
 42
0.00000001
 43
0.00000001
 40
0.0
 40
0.0
 40
0.0
 40
0.0
 40
0.498859454299206
 40
0.7491987595266327
 40
1.0
 40
1.0
 40
1.0
 40
1.0
 10
7.345702756299625
 20
7.445063953785321
 30
0.0
 10
7.345581777426266
 20
7.444758540368388
 30
0.0
 10
7.345400088533599
 20
7.444299863378032
 30
0.0
 10
7.346091224915492
 20
7.444032812518122
 30
0.0
 10
7.346719521639656
 20
7.444038957544652
 30
0.0
 10
7.347033959573601
 20
7.44404203289006
 30
0.0
  0
SPLINE
  5
15C
330
1F
100
AcDbEntity
  8
0
  6
Continuous
 62
     7
370
     0
100
AcDbSpline
210
0.0
220
0.0
230
1.0
 70
     8
 71
     3
 72
     9
 73
     5
 74
     0
 42
0.00000001
 43
0.00000001
 40
0.0
 40
0.0
 40
0.0
 40
0.0
 40
0.5015784057012911
 40
1.0
 40
1.0
 40
1.0
 40
1.0
 10
7.348905349433725
 20
7.447390530716651
 30
0.0
 10
7.348182377302273
 20
7.446966701311029
 30
0.0
 10
7.346740983248555
 20
7.446121709978056
 30
0.0
 10
7.346048102851689
 20
7.445415796370858
 30
0.0
 10
7.345702756299625
 20
7.445063953785321
 30
0.0
  0
LINE
  5
15D
330
1F
100
AcDbEntity
  8
0
  6
Continuous
 62
     7
370
     0
100
AcDbLine
 10
7.3723454801
 20
7.4609222301
 30
0.0
 11
7.3489053494
 21
7.4473905307
 31
0.0
  0
ARC
  5
15E
330
1F
100
AcDbEntity
  8
0
  6
Continuous
 62
     7
370
     0
100
AcDbCircle
 10
7.3894007602
 20
7.2222131366
 30
0.0
 40
0.239317600488295
100
AcDbArc
 50
94.086722594
 51
97.367269067
  0
LINE
  5
15F
330
1F
100
AcDbEntity
  8
0
  6
Continuous
 62
     7
370
     0
100
AcDbLine
 10
7.3328740437
 20
7.4446383915
 30
0.0
 11
7.3587132866
 21
7.459555069
 31
0.0
  0
SPLINE
  5
160
330
1F
100
AcDbEntity
  8
0
  6
Continuous
 62
     7
370
     0
100
AcDbSpline
210
0.0
220
0.0
230
1.0
 70
     8
 71
     3
 72
    13
 73
     9
 74
     0
 42
0.00000001
 43
0.00000001
 40
0.0
 40
0.0
 40
0.0
 40
0.0
 40
0.2493026324883002
 40
0.3767800005170585
 40
0.4994269650593279
 40
0.6183515801750159
 40
0.7497380290330238
 40
1.0
 40
1.0
 40
1.0
 40
1.0
 10
7.328755622265136
 20
7.436521756478692
 30
0.0
 10
7.327129701545388
 20
7.436463302551157
 30
0.0
 10
7.324672389307997
 20
7.43637495903618
 30
0.0
 10
7.323535743653803
 20
7.4371906748337
 30
0.0
 10
7.323736316674696
 20
7.43818310298252
 30
0.0
 10
7.325044294068337
 20
7.43954763395824
 30
0.0
 10
7.327891766912885
 20
7.441675258643443
 30
0.0
 10
7.330900861391378
 20
7.443464871550439
 30
0.0
 10
7.332874043712843
 20
7.444638391549755
 30
0.0
  0
ARC
  5
161
330
1F
100
AcDbEntity
  8
0
  6
Continuous
 62
     7
370
     0
100
AcDbCircle
 10
7.322250278
 20
7.50695783
 30
0.0
 40
0.0707358463894345
100
AcDbArc
 50
275.2767616149
 51
291.5877740082
  0
SPLINE
  5
162
330
1F
100
AcDbEntity
  8
0
  6
Continuous
 62
     7
370
     0
100
AcDbSpline
210
0.0
220
0.0
230
1.0
 70
     8
 71
     3
 72
    12
 73
     8
 74
     0
 42
0.00000001
 43
0.00000001
 40
0.0
 40
0.0
 40
0.0
 40
0.0
 40
0.2503253654036831
 40
0.4999978777421022
 40
0.7494826629082514
 40
0.8746982187917954
 40
0.9999999999999999
 40
0.9999999999999999
 40
0.9999999999999999
 40
0.9999999999999999
 10
7.352480254137841
 20
7.437246238988616
 30
0.0
 10
7.351392470299721
 20
7.437286460385211
 30
0.0
 10
7.349219739583341
 20
7.43736679828027
 30
0.0
 10
7.347058576374723
 20
7.438003732749684
 30
0.0
 10
7.346860924562908
 20
7.439138186229265
 30
0.0
 10
7.347459459976723
 20
7.44025400476376
 30
0.0
 10
7.348003654378814
 20
7.440873762772107
 30
0.0
 10
7.348275845232735
 20
7.44118374843324
 30
0.0
  0
ARC
  5
163
330
1F
100
AcDbEntity
  8
0
  6
Continuous
 62
     7
370
     0
100
AcDbCircle
 10
7.3523826304
 20
7.4956360588
 30
0.0
 40
0.0583899013992935
100
AcDbArc
 50
270.0957945185
 51
289.9377435489
  0
LINE
  5
164
330
1F
100
AcDbEntity
  8
0
  6
Continuous
 62
     7
370
     0
100
AcDbLine
 10
7.3662900017
 20
7.4372800737
 30
0.0
 11
7.372293522
 21
7.4407458321
 31
0.0
  0
ARC
  5
165
330
1F
100
AcDbEntity
  8
0
  6
Continuous
 62
     7
370
     0
100
AcDbCircle
 10
7.3481907883
 20
7.148297182
 30
0.0
 40
0.2895491205505588
100
AcDbArc
 50
83.7242484185
 51
86.416203772
  0
LINE
  5
166
330
1F
100
AcDbEntity
  8
0
  6
Continuous
 62
     7
370
     0
100
AcDbLine
 10
7.4209832155
 20
7.4598611779
 30
0.0
 11
7.3798424573
 21
7.4361111237
 31
0.0
  0
ARC
  5
167
330
1F
100
AcDbEntity
  8
0
  6
Continuous
 62
     7
370
     0
100
AcDbCircle
 10
7.3893869805
 20
7.1726398329
 30
0.0
 40
0.2889540155516468
100
AcDbArc
 50
83.7223295749
 51
86.6154893112
  0
ARC
  5
168
330
1F
100
AcDbEntity
  8
0
  6
Continuous
 62
     7
370
     0
100
AcDbCircle
 10
7.800089029
 20
6.7269266913
 30
0.0
 40
0.0247461097237614
100
AcDbArc
 50
20.2181719165
 51
86.0992788694
  0
LINE
  5
169
330
1F
100
AcDbEntity
  8
0
  6
Continuous
 62
     7
370
     0
100
AcDbLine
 10
7.8362472091
 20
6.7429471225
 30
0.0
 11
7.8233103691
 21
6.7354788437
 31
0.0
  0
SPLINE
  5
16A
330
1F
100
AcDbEntity
  8
0
  6
Continuous
 62
     7
370
     0
100
AcDbSpline
210
0.0
220
0.0
230
1.0
 70
    24
 71
     1
 72
     4
 73
     2
 74
     0
 42
0.00000001
 43
0.00000001
 40
0.0
 40
0.0
 40
1.0
 40
1.0
 10
7.822683836577353
 20
6.759387657348124
 30
0.0
 10
7.836247209088874
 20
6.742947122479739
 30
0.0
  0
LINE
  5
16B
330
1F
100
AcDbEntity
  8
0
  6
Continuous
 62
     7
370
     0
100
AcDbLine
 10
7.86053012
 20
6.7812358517
 30
0.0
 11
7.8226838366
 21
6.7593876573
 31
0.0
  0
ARC
  5
16C
330
1F
100
AcDbEntity
  8
0
  6
Continuous
 62
     7
370
     0
100
AcDbCircle
 10
7.0184259933
 20
6.558201123
 30
0.0
 40
0.871139397813201
100
AcDbArc
 50
14.8344157253
 51
16.2347847196
  0
LINE
  5
16D
330
1F
100
AcDbEntity
  8
0
  6
Continuous
 62
     7
370
     0
100
AcDbLine
 10
7.7970655915
 20
6.768403598
 30
0.0
 11
7.8548279506
 21
6.8017490982
 31
0.0
  0
ARC
  5
16E
330
1F
100
AcDbEntity
  8
0
  6
Continuous
 62
     7
370
     0
100
AcDbCircle
 10
6.9582486108
 20
6.5241717889
 30
0.0
 40
0.8736493023693742
100
AcDbArc
 50
15.0900898544
 51
16.2335640773
  0
LINE
  5
16F
330
1F
100
AcDbEntity
  8
0
  6
Continuous
 62
     7
370
     0
100
AcDbLine
 10
7.799008841
 20
6.823834721
 30
0.0
 11
7.8148154325
 21
6.8329596721
 31
0.0
  0
ARC
  5
170
330
1F
100
AcDbEntity
  8
0
  6
Continuous
 62
     7
370
     0
100
AcDbCircle
 10
6.9235436305
 20
6.5180086834
 30
0.0
 40
0.9273450814178635
100
AcDbArc
 50
17.8382797459
 51
19.2558271712
  0
LINE
  5
171
330
1F
100
AcDbEntity
  8
0
  6
Continuous
 62
     7
370
     0
100
AcDbLine
 10
7.8221131357
 20
6.8112085159
 30
0.0
 11
7.8063065442
 21
6.8020835649
 31
0.0
  0
ARC
  5
172
330
1F
100
AcDbEntity
  8
0
  6
Continuous
 62
     7
370
     0
100
AcDbCircle
 10
6.939350222
 20
6.5271336345
 30
0.0
 40
0.9273450814368921
100
AcDbArc
 50
17.8382797459
 51
19.2558271712
  0
ARC
  5
173
330
1F
100
AcDbEntity
  8
0
  6
Continuous
 62
     7
370
     0
100
AcDbCircle
 10
7.7654073363
 20
6.8235490832
 30
0.0
 40
0.0304113042705511
100
AcDbArc
 50
27.436805646
 51
85.9703159972
  0
LINE
  5
174
330
1F
100
AcDbEntity
  8
0
  6
Continuous
 62
     7
370
     0
100
AcDbLine
 10
7.8053348042
 20
6.8450299788
 30
0.0
 11
7.7923979642
 21
6.8375617
 31
0.0
  0
SPLINE
  5
175
330
1F
100
AcDbEntity
  8
0
  6
Continuous
 62
     7
370
     0
100
AcDbSpline
210
0.0
220
0.0
230
1.0
 70
    24
 71
     1
 72
     4
 73
     2
 74
     0
 42
0.00000001
 43
0.00000001
 40
0.0
 40
0.0
 40
1.0
 40
1.0
 10
7.788945726641122
 20
6.861643194840346
 30
0.0
 10
7.805334804192579
 20
6.845029978751418
 30
0.0
  0
LINE
  5
176
330
1F
100
AcDbEntity
  8
0
  6
Continuous
 62
     7
370
     0
100
AcDbLine
 10
7.82679201
 20
6.8834913892
 30
0.0
 11
7.7889457266
 21
6.8616431948
 31
0.0
  0
ARC
  5
177
330
1F
100
AcDbEntity
  8
0
  6
Continuous
 62
     7
370
     0
100
AcDbCircle
 10
6.9114077514
 20
6.5220576988
 30
0.0
 40
0.9841558075681087
100
AcDbArc
 50
21.5462719178
 51
22.8372645568
  0
LINE
  5
178
330
1F
100
AcDbEntity
  8
0
  6
Continuous
 62
     7
370
     0
100
AcDbLine
 10
7.7606541321
 20
6.870677903
 30
0.0
 11
7.8184164913
 21
6.9040234032
 31
0.0
  0
ARC
  5
179
330
1F
100
AcDbEntity
  8
0
  6
Continuous
 62
     7
370
     0
100
AcDbCircle
 10
6.8521834498
 20
6.4881082603
 30
0.0
 40
0.9857375472846863
100
AcDbArc
 50
21.7815790267
 51
22.8366364761
  0
SPLINE
  5
17A
330
1F
100
AcDbEntity
  8
0
  6
Continuous
 62
     7
370
     0
100
AcDbSpline
210
0.0
220
0.0
230
1.0
 70
     8
 71
     3
 72
    13
 73
     9
 74
     0
 42
0.00000001
 43
0.00000001
 40
0.0
 40
0.0
 40
0.0
 40
0.0
 40
0.249793687956763
 40
0.4990979785576335
 40
0.626516715693233
 40
0.7495451078149986
 40
0.8746856402485295
 40
1.0
 40
1.0
 40
1.0
 40
1.0
 10
7.744061788326174
 20
6.96507652928635
 30
0.0
 10
7.743380237273174
 20
6.966177590182142
 30
0.0
 10
7.74201847046626
 20
6.968377554768334
 30
0.0
 10
7.739416958676317
 20
6.970141761013454
 30
0.0
 10
7.737249589810151
 20
6.970923552684249
 30
0.0
 10
7.735593449454662
 20
6.971132377153698
 30
0.0
 10
7.733986481409331
 20
6.970954312530573
 30
0.0
 10
7.733040381126233
 20
6.970485654307757
 30
0.0
 10
7.732567002665933
 20
6.970251162561071
 30
0.0
  0
SPLINE
  5
17B
330
1F
100
AcDbEntity
  8
0
  6
Continuous
 62
     7
370
     0
100
AcDbSpline
210
0.0
220
0.0
230
1.0
 70
    24
 71
     1
 72
     4
 73
     2
 74
     0
 42
0.00000001
 43
0.00000001
 40
0.0
 40
0.0
 40
1.0
 40
1.0
 10
7.745221952750674
 20
6.962398084355201
 30
0.0
 10
7.744061788326173
 20
6.96507652928635
 30
0.0
  0
SPLINE
  5
17C
330
1F
100
AcDbEntity
  8
0
  6
Continuous
 62
     7
370
     0
100
AcDbSpline
210
0.0
220
0.0
230
1.0
 70
    24
 71
     1
 72
     4
 73
     2
 74
     0
 42
0.00000001
 43
0.00000001
 40
0.0
 40
0.0
 40
1.0
 40
1.0
 10
7.757041321539648
 20
6.967893505274827
 30
0.0
 10
7.745221952750674
 20
6.962398084355201
 30
0.0
  0
SPLINE
  5
17D
330
1F
100
AcDbEntity
  8
0
  6
Continuous
 62
     7
370
     0
100
AcDbSpline
210
0.0
220
0.0
230
1.0
 70
    24
 71
     1
 72
     4
 73
     2
 74
     0
 42
0.00000001
 43
0.00000001
 40
0.0
 40
0.0
 40
1.0
 40
1.0
 10
7.752735763420765
 20
6.97373253642513
 30
0.0
 10
7.757041321539648
 20
6.967893505274827
 30
0.0
  0
ARC
  5
17E
330
1F
100
AcDbEntity
  8
0
  6
Continuous
 62
     7
370
     0
100
AcDbCircle
 10
7.7610112792
 20
6.979307893
 30
0.0
 40
0.0099784148283171
100
AcDbArc
 50
120.4920479689
 51
213.9688231143
  0
ARC
  5
17F
330
1F
100
AcDbEntity
  8
0
  6
Continuous
 62
     7
370
     0
100
AcDbCircle
 10
7.7608022561
 20
6.9798076513
 30
0.0
 40
0.0094419969187867
100
AcDbArc
 50
23.9084129715
 51
120.9378915226
  0
ARC
  5
180
330
1F
100
AcDbEntity
  8
0
  6
Continuous
 62
     7
370
     0
100
AcDbCircle
 10
7.7596194348
 20
6.9781030863
 30
0.0
 40
0.0112659282140614
100
AcDbArc
 50
305.5926253899
 51
29.4040375884
  0
SPLINE
  5
181
330
1F
100
AcDbEntity
  8
0
  6
Continuous
 62
     7
370
     0
100
AcDbSpline
210
0.0
220
0.0
230
1.0
 70
    24
 71
     1
 72
     4
 73
     2
 74
     0
 42
0.00000001
 43
0.00000001
 40
0.0
 40
0.0
 40
1.0
 40
1.0
 10
7.778319676391984
 20
6.950312301937854
 30
0.0
 10
7.766176411323181
 20
6.968941907421989
 30
0.0
  0
ARC
  5
182
330
1F
100
AcDbEntity
  8
0
  6
Continuous
 62
     7
370
     0
100
AcDbCircle
 10
7.7533377122
 20
6.9702859203
 30
0.0
 40
0.0319850584624444
100
AcDbArc
 50
321.3569114172
 51
37.296748662
  0
SPLINE
  5
183
330
1F
100
AcDbEntity
  8
0
  6
Continuous
 62
     7
370
     0
100
AcDbSpline
210
0.0
220
0.0
230
1.0
 70
     8
 71
     3
 72
    14
 73
    10
 74
     0
 42
0.00000001
 43
0.00000001
 40
0.0
 40
0.0
 40
0.0
 40
0.0
 40
0.1250074489866866
 40
0.2500472022552471
 40
0.3770802752224203
 40
0.5000124495055008
 40
0.6250114778245527
 40
0.7500633171179074
 40
0.9999999999999999
 40
0.9999999999999999
 40
0.9999999999999999
 40
0.9999999999999999
 10
7.744102553926687
 20
7.007003471649867
 30
0.0
 10
7.745565618149081
 20
7.007697190561033
 30
0.0
 10
7.748492124677252
 20
7.009084807653412
 30
0.0
 10
7.753521478262933
 20
7.009591295696231
 30
0.0
 10
7.758653980068094
 20
7.008991690261614
 30
0.0
 10
7.7637226644383
 20
7.007004879349335
 30
0.0
 10
7.768361786665669
 20
7.003798493728766
 30
0.0
 10
7.773789363123571
 20
6.998215805799429
 30
0.0
 10
7.776785258814913
 20
6.993086095969637
 30
0.0
 10
7.778782077882895
 20
6.989667050897089
 30
0.0
  0
ARC
  5
184
330
1F
100
AcDbEntity
  8
0
  6
Continuous
 62
     7
370
     0
100
AcDbCircle
 10
7.7510797219
 20
6.9945560284
 30
0.0
 40
0.0142695380767691
100
AcDbArc
 50
119.2719474231
 51
185.8948062453
  0
SPLINE
  5
185
330
1F
100
AcDbEntity
  8
0
  6
Continuous
 62
     7
370
     0
100
AcDbSpline
210
0.0
220
0.0
230
1.0
 70
    24
 71
     1
 72
     4
 73
     2
 74
     0
 42
0.00000001
 43
0.00000001
 40
0.0
 40
0.0
 40
1.0
 40
1.0
 10
7.738467130889323
 20
6.985795389298183
 30
0.0
 10
7.7368856392735
 20
6.993090513022686
 30
0.0
  0
ARC
  5
186
330
1F
100
AcDbEntity
  8
0
  6
Continuous
 62
     7
370
     0
100
AcDbCircle
 10
7.7271968946
 20
6.9731620353
 30
0.0
 40
0.0169298511355646
100
AcDbArc
 50
48.2637939079
 51
111.6179268077
  0
SPLINE
  5
187
330
1F
100
AcDbEntity
  8
0
  6
Continuous
 62
     7
370
     0
100
AcDbSpline
210
0.0
220
0.0
230
1.0
 70
     8
 71
     3
 72
    13
 73
     9
 74
     0
 42
0.00000001
 43
0.00000001
 40
0.0
 40
0.0
 40
0.0
 40
0.0
 40
0.2504706134920083
 40
0.5000297978665301
 40
0.6250199073750453
 40
0.750028168661162
 40
0.8749635130634438
 40
1.0
 40
1.0
 40
1.0
 40
1.0
 10
7.720758197292048
 20
6.954448900129684
 30
0.0
 10
7.719237999430614
 20
6.957485728898064
 30
0.0
 10
7.716203135504777
 20
6.963548335820438
 30
0.0
 10
7.713779036131237
 20
6.971839586262164
 30
0.0
 10
7.713982816940686
 20
6.978308906712137
 30
0.0
 10
7.715192446877741
 20
6.982759338097373
 30
0.0
 10
7.717514028074653
 20
6.986521477724994
 30
0.0
 10
7.719810816862786
 20
6.988107653369718
 30
0.0
 10
7.720959675915285
 20
6.988901062087885
 30
0.0
  0
ARC
  5
188
330
1F
100
AcDbEntity
  8
0
  6
Continuous
 62
     7
370
     0
100
AcDbCircle
 10
7.7471673965
 20
6.9627542703
 30
0.0
 40
0.0276843815045786
100
AcDbArc
 50
197.4577241101
 51
275.3217029251
  0
SPLINE
  5
189
330
1F
100
AcDbEntity
  8
0
  6
Continuous
 62
     7
370
     0
100
AcDbSpline
210
0.0
220
0.0
230
1.0
 70
    24
 71
     1
 72
     4
 73
     2
 74
     0
 42
0.00000001
 43
0.00000001
 40
0.0
 40
0.0
 40
1.0
 40
1.0
 10
7.74288550776754
 20
6.955496354995948
 30
0.0
 10
7.749735060602275
 20
6.935189218550477
 30
0.0
  0
ARC
  5
18A
330
1F
100
AcDbEntity
  8
0
  6
Continuous
 62
     7
370
     0
100
AcDbCircle
 10
7.7388270136
 20
6.9633470624
 30
0.0
 40
0.0088377023164676
100
AcDbArc
 50
204.2183384968
 51
297.3371116714
  0
ARC
  5
18B
330
1F
100
AcDbEntity
  8
0
  6
Continuous
 62
     7
370
     0
100
AcDbCircle
 10
7.7369774864
 20
6.9640786856
 30
0.0
 40
0.0075862928003756
100
AcDbArc
 50
125.5473361799
 51
215.0522198082
  0
SPLINE
  5
18C
330
1F
100
AcDbEntity
  8
0
  6
Continuous
 62
     7
370
     0
100
AcDbSpline
210
0.0
220
0.0
230
1.0
 70
     8
 71
     3
 72
    13
 73
     9
 74
     0
 42
0.00000001
 43
0.00000001
 40
0.0
 40
0.0
 40
0.0
 40
0.0
 40
0.2501705057671917
 40
0.384088018690476
 40
0.4999102936410755
 40
0.6140227116178809
 40
0.749821308406945
 40
0.9999999999999999
 40
0.9999999999999999
 40
0.9999999999999999
 40
0.9999999999999999
 10
7.623761657064199
 20
7.158060346589496
 30
0.0
 10
7.623048866079109
 20
7.157603176045065
 30
0.0
 10
7.621954514543289
 20
7.156901279840014
 30
0.0
 10
7.620978121243934
 20
7.155591541433931
 30
0.0
 10
7.620673152052368
 20
7.15441475429656
 30
0.0
 10
7.620931061740404
 20
7.153118489023865
 30
0.0
 10
7.621756379766611
 20
7.151395893776007
 30
0.0
 10
7.622734035462059
 20
7.150187346745632
 30
0.0
 10
7.6233677220288
 20
7.149404003466406
 30
0.0
  0
SPLINE
  5
18D
330
1F
100
AcDbEntity
  8
0
  6
Continuous
 62
     7
370
     0
100
AcDbSpline
210
0.0
220
0.0
230
1.0
 70
    24
 71
     1
 72
     4
 73
     2
 74
     0
 42
0.00000001
 43
0.00000001
 40
0.0
 40
0.0
 40
1.0
 40
1.0
 10
7.643264209624758
 20
7.142669882108468
 30
0.0
 10
7.623761657064199
 20
7.158060346589496
 30
0.0
  0
ARC
  5
18E
330
1F
100
AcDbEntity
  8
0
  6
Continuous
 62
     7
370
     0
100
AcDbCircle
 10
7.6669313626
 20
7.1659011327
 30
0.0
 40
0.0331636115922528
100
AcDbArc
 50
224.4674733002
 51
251.8308118832
  0
SPLINE
  5
18F
330
1F
100
AcDbEntity
  8
0
  6
Continuous
 62
     7
370
     0
100
AcDbSpline
210
0.0
220
0.0
230
1.0
 70
     8
 71
     3
 72
     9
 73
     5
 74
     0
 42
0.00000001
 43
0.00000001
 40
0.0
 40
0.0
 40
0.0
 40
0.0
 40
0.5006506955429274
 40
1.0
 40
1.0
 40
1.0
 40
1.0
 10
7.666679398938574
 20
7.135861439458814
 30
0.0
 10
7.665183123772174
 20
7.135138966483291
 30
0.0
 10
7.662194462856045
 20
7.133695898528018
 30
0.0
 10
7.658456634392183
 20
7.134159542492133
 30
0.0
 10
7.656590152348572
 20
7.134391062783129
 30
0.0
  0
SPLINE
  5
190
330
1F
100
AcDbEntity
  8
0
  6
Continuous
 62
     7
370
     0
100
AcDbSpline
210
0.0
220
0.0
230
1.0
 70
     8
 71
     3
 72
    14
 73
    10
 74
     0
 42
0.00000001
 43
0.00000001
 40
0.0
 40
0.0
 40
0.0
 40
0.0
 40
0.2500047170985952
 40
0.3799563988542834
 40
0.5001514804936286
 40
0.6248780927791846
 40
0.7508658106711885
 40
0.8742378331994832
 40
1.0
 40
1.0
 40
1.0
 40
1.0
 10
7.665447821013273
 20
7.158769119644671
 30
0.0
 10
7.666936531172411
 20
7.15681536682323
 30
0.0
 10
7.669199068285985
 20
7.153846059304149
 30
0.0
 10
7.671120576337727
 20
7.149542681231944
 30
0.0
 10
7.67186221125557
 20
7.146248170915584
 30
0.0
 10
7.671777208386499
 20
7.143074187662097
 30
0.0
 10
7.670937630888219
 20
7.140112057274517
 30
0.0
 10
7.66922063202111
 20
7.137594608943696
 30
0.0
 10
7.667531877159766
 20
7.136442845882984
 30
0.0
 10
7.666679398938574
 20
7.135861439458814
 30
0.0
  0
SPLINE
  5
191
330
1F
100
AcDbEntity
  8
0
  6
Continuous
 62
     7
370
     0
100
AcDbSpline
210
0.0
220
0.0
230
1.0
 70
    24
 71
     1
 72
     4
 73
     2
 74
     0
 42
0.00000001
 43
0.00000001
 40
0.0
 40
0.0
 40
1.0
 40
1.0
 10
7.655148021692526
 20
7.168000364283452
 30
0.0
 10
7.665447821013273
 20
7.158769119644671
 30
0.0
  0
SPLINE
  5
192
330
1F
100
AcDbEntity
  8
0
  6
Continuous
 62
     7
370
     0
100
AcDbSpline
210
0.0
220
0.0
230
1.0
 70
    24
 71
     1
 72
     4
 73
     2
 74
     0
 42
0.00000001
 43
0.00000001
 40
0.0
 40
0.0
 40
1.0
 40
1.0
 10
7.645400685579511
 20
7.17192108352249
 30
0.0
 10
7.655148021692526
 20
7.168000364283452
 30
0.0
  0
SPLINE
  5
193
330
1F
100
AcDbEntity
  8
0
  6
Continuous
 62
     7
370
     0
100
AcDbSpline
210
0.0
220
0.0
230
1.0
 70
     8
 71
     3
 72
     9
 73
     5
 74
     0
 42
0.00000001
 43
0.00000001
 40
0.0
 40
0.0
 40
0.0
 40
0.0
 40
0.4998463205888549
 40
1.0
 40
1.0
 40
1.0
 40
1.0
 10
7.648907104350268
 20
7.176591274324327
 30
0.0
 10
7.648509934074969
 20
7.175687352983347
 30
0.0
 10
7.64771534930173
 20
7.173878954474152
 30
0.0
 10
7.646172398233459
 20
7.172573840885769
 30
0.0
 10
7.645400685579511
 20
7.17192108352249
 30
0.0
  0
ARC
  5
194
330
1F
100
AcDbEntity
  8
0
  6
Continuous
 62
     7
370
     0
100
AcDbCircle
 10
6.9539048639
 20
6.5701756627
 30
0.0
 40
0.922370862614129
100
AcDbArc
 50
41.1059221249
 51
42.355096983
  0
SPLINE
  5
195
330
1F
100
AcDbEntity
  8
0
  6
Continuous
 62
     7
370
     0
100
AcDbSpline
210
0.0
220
0.0
230
1.0
 70
     8
 71
     3
 72
     9
 73
     5
 74
     0
 42
0.00000001
 43
0.00000001
 40
0.0
 40
0.0
 40
0.0
 40
0.0
 40
0.5000572978128814
 40
1.0
 40
1.0
 40
1.0
 40
1.0
 10
7.628561985662929
 20
7.184563813775802
 30
0.0
 10
7.630077721043042
 20
7.185463920860961
 30
0.0
 10
7.633108844449787
 20
7.187263928758248
 30
0.0
 10
7.634717526429329
 20
7.190153781041408
 30
0.0
 10
7.635521775245139
 20
7.191598541600773
 30
0.0
  0
LINE
  5
196
330
1F
100
AcDbEntity
  8
0
  6
Continuous
 62
     7
370
     0
100
AcDbLine
 10
7.6103907189
 20
7.1740737647
 30
0.0
 11
7.6285619857
 21
7.1845638138
 31
0.0
  0
ARC
  5
197
330
1F
100
AcDbEntity
  8
0
  6
Continuous
 62
     7
370
     0
100
AcDbCircle
 10
7.6162345171
 20
7.1624904563
 30
0.0
 40
0.0129739358377502
100
AcDbArc
 50
116.771019823
 51
176.3141002388
  0
ARC
  5
198
330
1F
100
AcDbEntity
  8
0
  6
Continuous
 62
     7
370
     0
100
AcDbCircle
 10
7.6407438861
 20
7.1707956423
 30
0.0
 40
0.0381943036246661
100
AcDbArc
 50
191.2802782585
 51
229.2741829704
  0
SPLINE
  5
199
330
1F
100
AcDbEntity
  8
0
  6
Continuous
 62
     7
370
     0
100
AcDbSpline
210
0.0
220
0.0
230
1.0
 70
     8
 71
     3
 72
     9
 73
     5
 74
     0
 42
0.00000001
 43
0.00000001
 40
0.0
 40
0.0
 40
0.0
 40
0.0
 40
0.498985037567408
 40
1.0
 40
1.0
 40
1.0
 40
1.0
 10
7.630791898454419
 20
7.128291959932054
 30
0.0
 10
7.627995860254803
 20
7.13027821918223
 30
0.0
 10
7.622392409271089
 20
7.1342588179991
 30
0.0
 10
7.618016694975718
 20
7.13931648698849
 30
0.0
 10
7.615824396642407
 20
7.141850454827205
 30
0.0
  0
ARC
  5
19A
330
1F
100
AcDbEntity
  8
0
  6
Continuous
 62
     7
370
     0
100
AcDbCircle
 10
7.6409524212
 20
7.1458145986
 30
0.0
 40
0.0202553471340731
100
AcDbArc
 50
239.8926475946
 51
287.6221596771
  0
SPLINE
  5
19B
330
1F
100
AcDbEntity
  8
0
  6
Continuous
 62
     7
370
     0
100
AcDbSpline
210
0.0
220
0.0
230
1.0
 70
    24
 71
     1
 72
     4
 73
     2
 74
     0
 42
0.00000001
 43
0.00000001
 40
0.0
 40
0.0
 40
1.0
 40
1.0
 10
7.635554426891438
 20
7.143560931835681
 30
0.0
 10
7.647084495064718
 20
7.126509760919582
 30
0.0
  0
SPLINE
  5
19C
330
1F
100
AcDbEntity
  8
0
  6
Continuous
 62
     7
370
     0
100
AcDbSpline
210
0.0
220
0.0
230
1.0
 70
     8
 71
     3
 72
     9
 73
     5
 74
     0
 42
0.00000001
 43
0.00000001
 40
0.0
 40
0.0
 40
0.0
 40
0.0
 40
0.4984185104768277
 40
1.0
 40
1.0
 40
1.0
 40
1.0
 10
7.629750349768608
 20
7.144033462546012
 30
0.0
 10
7.630745492069409
 20
7.143746695353236
 30
0.0
 10
7.63274209187436
 20
7.143171341134339
 30
0.0
 10
7.634615007221745
 20
7.143430794719816
 30
0.0
 10
7.635554426891438
 20
7.143560931835681
 30
0.0
  0
SPLINE
  5
19D
330
1F
100
AcDbEntity
  8
0
  6
Continuous
 62
     7
370
     0
100
AcDbSpline
210
0.0
220
0.0
230
1.0
 70
     8
 71
     3
 72
     9
 73
     5
 74
     0
 42
0.00000001
 43
0.00000001
 40
0.0
 40
0.0
 40
0.0
 40
0.0
 40
0.5011984280361725
 40
1.0
 40
1.0
 40
1.0
 40
1.0
 10
7.6233677220288
 20
7.149404003466406
 30
0.0
 10
7.624279191025436
 20
7.148355182520267
 30
0.0
 10
7.626097770146296
 20
7.146262556351728
 30
0.0
 10
7.628534770274022
 20
7.144775305572565
 30
0.0
 10
7.629750349768608
 20
7.144033462546012
 30
0.0
  0
ARC
  5
19E
330
1F
100
AcDbEntity
  8
0
  6
Continuous
 62
     7
370
     0
100
AcDbCircle
 10
7.5535002005
 20
7.2467551804
 30
0.0
 40
0.0162107275713676
100
AcDbArc
 50
229.2520537399
 51
304.3424881661
  0
SPLINE
  5
19F
330
1F
100
AcDbEntity
  8
0
  6
Continuous
 62
     7
370
     0
100
AcDbSpline
210
0.0
220
0.0
230
1.0
 70
     8
 71
     3
 72
    12
 73
     8
 74
     0
 42
0.00000001
 43
0.00000001
 40
0.0
 40
0.0
 40
0.0
 40
0.0
 40
0.2499205863330236
 40
0.3770821376025774
 40
0.5003335730962005
 40
0.7497132612425466
 40
1.0
 40
1.0
 40
1.0
 40
1.0
 10
7.541001233448458
 20
7.243940157041491
 30
0.0
 10
7.540465819036958
 20
7.243252391973802
 30
0.0
 10
7.539657981580454
 20
7.242214686654293
 30
0.0
 10
7.539343657769574
 20
7.240565433946831
 30
0.0
 10
7.539490690139426
 20
7.238853934732155
 30
0.0
 10
7.540621841669661
 20
7.236698814056077
 30
0.0
 10
7.542152307896214
 20
7.235216582631513
 30
0.0
 10
7.542918930146574
 20
7.234474121562763
 30
0.0
  0
SPLINE
  5
1A0
330
1F
100
AcDbEntity
  8
0
  6
Continuous
 62
     7
370
     0
100
AcDbSpline
210
0.0
220
0.0
230
1.0
 70
    24
 71
     1
 72
     4
 73
     2
 74
     0
 42
0.00000001
 43
0.00000001
 40
0.0
 40
0.0
 40
1.0
 40
1.0
 10
7.524600212701154
 20
7.255096229158027
 30
0.0
 10
7.541001233448458
 20
7.243940157041491
 30
0.0
  0
SPLINE
  5
1A1
330
1F
100
AcDbEntity
  8
0
  6
Continuous
 62
     7
370
     0
100
AcDbSpline
210
0.0
220
0.0
230
1.0
 70
     8
 71
     3
 72
    12
 73
     8
 74
     0
 42
0.00000001
 43
0.00000001
 40
0.0
 40
0.0
 40
0.0
 40
0.0
 40
0.2504931653223363
 40
0.5001218721704477
 40
0.6252456824059341
 40
0.750404088927232
 40
1.0
 40
1.0
 40
1.0
 40
1.0
 10
7.532559776389844
 20
7.227841752793871
 30
0.0
 10
7.530302734106632
 20
7.22997660972556
 30
0.0
 10
7.525796438652244
 20
7.234238956141755
 30
0.0
 10
7.521801635807069
 20
7.24025133166916
 30
0.0
 10
7.520765140235852
 20
7.245171369851064
 30
0.0
 10
7.521092269559492
 20
7.249985985942897
 30
0.0
 10
7.52319784552928
 20
7.253053311973857
 30
0.0
 10
7.524600212701154
 20
7.255096229158027
 30
0.0
  0
SPLINE
  5
1A2
330
1F
100
AcDbEntity
  8
0
  6
Continuous
 62
     7
370
     0
100
AcDbSpline
210
0.0
220
0.0
230
1.0
 70
    24
 71
     1
 72
     4
 73
     2
 74
     0
 42
0.00000001
 43
0.00000001
 40
0.0
 40
0.0
 40
1.0
 40
1.0
 10
7.545792438794277
 20
7.218568748542426
 30
0.0
 10
7.532559776389844
 20
7.227841752793871
 30
0.0
  0
SPLINE
  5
1A3
330
1F
100
AcDbEntity
  8
0
  6
Continuous
 62
     7
370
     0
100
AcDbSpline
210
0.0
220
0.0
230
1.0
 70
     8
 71
     3
 72
     9
 73
     5
 74
     0
 42
0.00000001
 43
0.00000001
 40
0.0
 40
0.0
 40
0.0
 40
0.0
 40
0.4972076013954855
 40
1.0
 40
1.0
 40
1.0
 40
1.0
 10
7.564532631944021
 20
7.214874833132757
 30
0.0
 10
7.561380644471271
 20
7.214908877892686
 30
0.0
 10
7.55504126537911
 20
7.214977349814342
 30
0.0
 10
7.548886838065383
 20
7.217367166752076
 30
0.0
 10
7.545792438794277
 20
7.218568748542426
 30
0.0
  0
SPLINE
  5
1A4
330
1F
100
AcDbEntity
  8
0
  6
Continuous
 62
     7
370
     0
100
AcDbSpline
210
0.0
220
0.0
230
1.0
 70
     8
 71
     3
 72
     9
 73
     5
 74
     0
 42
0.00000001
 43
0.00000001
 40
0.0
 40
0.0
 40
0.0
 40
0.0
 40
0.5005315226334606
 40
1.0
 40
1.0
 40
1.0
 40
1.0
 10
7.577172946627013
 20
7.218999840466238
 30
0.0
 10
7.575295397007578
 20
7.217990366708579
 30
0.0
 10
7.571544285370176
 20
7.21597356314674
 30
0.0
 10
7.566868192786709
 20
7.215240816823247
 30
0.0
 10
7.564532631944021
 20
7.214874833132757
 30
0.0
  0
SPLINE
  5
1A5
330
1F
100
AcDbEntity
  8
0
  6
Continuous
 62
     7
370
     0
100
AcDbSpline
210
0.0
220
0.0
230
1.0
 70
     8
 71
     3
 72
    14
 73
    10
 74
     0
 42
0.00000001
 43
0.00000001
 40
0.0
 40
0.0
 40
0.0
 40
0.0
 40
0.2500796953167271
 40
0.3795939076720579
 40
0.5000103126991222
 40
0.6249779831586378
 40
0.7499325412133608
 40
0.8625387534448756
 40
1.0
 40
1.0
 40
1.0
 40
1.0
 10
7.574509988098048
 20
7.253656166124675
 30
0.0
 10
7.57744799127712
 20
7.250866551822418
 30
0.0
 10
7.581907562079479
 20
7.246632219272747
 30
0.0
 10
7.585810780615451
 20
7.240172821644716
 30
0.0
 10
7.587197216908102
 20
7.235102982569783
 30
0.0
 10
7.586921180427012
 20
7.230212470090801
 30
0.0
 10
7.585306922847963
 20
7.225747274427541
 30
0.0
 10
7.581875347457403
 20
7.221966272836272
 30
0.0
 10
7.578840946625562
 20
7.220052070883716
 30
0.0
 10
7.577172946627013
 20
7.218999840466238
 30
0.0
  0
ARC
  5
1A6
330
1F
100
AcDbEntity
  8
0
  6
Continuous
 62
     7
370
     0
100
AcDbCircle
 10
7.5473607005
 20
7.2265309432
 30
0.0
 40
0.0383778782172117
100
AcDbArc
 50
44.9745957963
 51
105.1036383411
  0
SPLINE
  5
1A7
330
1F
100
AcDbEntity
  8
0
  6
Continuous
 62
     7
370
     0
100
AcDbSpline
210
0.0
220
0.0
230
1.0
 70
    24
 71
     1
 72
     4
 73
     2
 74
     0
 42
0.00000001
 43
0.00000001
 40
0.0
 40
0.0
 40
1.0
 40
1.0
 10
7.550239298705969
 20
7.250192343574779
 30
0.0
 10
7.537360737345636
 20
7.263583099280845
 30
0.0
  0
ARC
  5
1A8
330
1F
100
AcDbEntity
  8
0
  6
Continuous
 62
     7
370
     0
100
AcDbCircle
 10
7.5544236404
 20
7.2352704596
 30
0.0
 40
0.0154974622776901
100
AcDbArc
 50
47.9618795569
 51
105.6643699729
  0
ARC
  5
1A9
330
1F
100
AcDbEntity
  8
0
  6
Continuous
 62
     7
370
     0
100
AcDbCircle
 10
7.5603029313
 20
7.24062521
 30
0.0
 40
0.0076236692527524
100
AcDbArc
 50
287.8935194958
 51
53.8408437064
  0
ARC
  5
1AA
330
1F
100
AcDbEntity
  8
0
  6
Continuous
 62
     7
370
     0
100
AcDbCircle
 10
7.4533147451
 20
7.3423415979
 30
0.0
 40
0.0443521961485441
100
AcDbArc
 50
236.7090549026
 51
297.455630184
  0
SPLINE
  5
1AB
330
1F
100
AcDbEntity
  8
0
  6
Continuous
 62
     7
370
     0
100
AcDbSpline
210
0.0
220
0.0
230
1.0
 70
     8
 71
     3
 72
    13
 73
     9
 74
     0
 42
0.00000001
 43
0.00000001
 40
0.0
 40
0.0
 40
0.0
 40
0.0
 40
0.2502092620005219
 40
0.3753081960891697
 40
0.5003750810855416
 40
0.6255355602287
 40
0.7507183164374117
 40
1.0
 40
1.0
 40
1.0
 40
1.0
 10
7.471500068213491
 20
7.330375030053729
 30
0.0
 10
7.474424386381731
 20
7.328458643631302
 30
0.0
 10
7.478810797051496
 20
7.325584107631072
 30
0.0
 10
7.48253761449224
 20
7.320759198034501
 30
0.0
 10
7.483593782495674
 20
7.316815565961818
 30
0.0
 10
7.483059659410547
 20
7.312887900252854
 30
0.0
 10
7.480734334748013
 20
7.307827567036707
 30
0.0
 10
7.476549614604337
 20
7.304920266971098
 30
0.0
 10
7.473763838514913
 20
7.302984871836064
 30
0.0
  0
ARC
  5
1AC
330
1F
100
AcDbEntity
  8
0
  6
Continuous
 62
     7
370
     0
100
AcDbCircle
 10
7.4463377111
 20
7.2915819059
 30
0.0
 40
0.0462390602815908
100
AcDbArc
 50
57.031376202
 51
101.8137859067
  0
SPLINE
  5
1AD
330
1F
100
AcDbEntity
  8
0
  6
Continuous
 62
     7
370
     0
100
AcDbSpline
210
0.0
220
0.0
230
1.0
 70
    24
 71
     1
 72
     4
 73
     2
 74
     0
 42
0.00000001
 43
0.00000001
 40
0.0
 40
0.0
 40
1.0
 40
1.0
 10
7.45097630060402
 20
7.327303191157081
 30
0.0
 10
7.436871115644016
 20
7.336841537683889
 30
0.0
  0
SPLINE
  5
1AE
330
1F
100
AcDbEntity
  8
0
  6
Continuous
 62
     7
370
     0
100
AcDbSpline
210
0.0
220
0.0
230
1.0
 70
    24
 71
     1
 72
     4
 73
     2
 74
     0
 42
0.00000001
 43
0.00000001
 40
0.0
 40
0.0
 40
1.0
 40
1.0
 10
7.456313966433575
 20
7.327194900755705
 30
0.0
 10
7.45097630060402
 20
7.327303191157081
 30
0.0
  0
SPLINE
  5
1AF
330
1F
100
AcDbEntity
  8
0
  6
Continuous
 62
     7
370
     0
100
AcDbSpline
210
0.0
220
0.0
230
1.0
 70
     8
 71
     3
 72
     9
 73
     5
 74
     0
 42
0.00000001
 43
0.00000001
 40
0.0
 40
0.0
 40
0.0
 40
0.0
 40
0.4998133900792414
 40
1.0
 40
1.0
 40
1.0
 40
1.0
 10
7.461892216397939
 20
7.325234422075115
 30
0.0
 10
7.461068527032862
 20
7.325669338719381
 30
0.0
 10
7.459420533238722
 20
7.326539496768161
 30
0.0
 10
7.457349746321547
 20
7.32697637840889
 30
0.0
 10
7.456313966433575
 20
7.327194900755705
 30
0.0
  0
SPLINE
  5
1B0
330
1F
100
AcDbEntity
  8
0
  6
Continuous
 62
     7
370
     0
100
AcDbSpline
210
0.0
220
0.0
230
1.0
 70
     8
 71
     3
 72
    10
 73
     6
 74
     0
 42
0.00000001
 43
0.00000001
 40
0.0
 40
0.0
 40
0.0
 40
0.0
 40
0.2506462839715457
 40
0.5011586610055244
 40
1.0
 40
1.0
 40
1.0
 40
1.0
 10
7.465184354200935
 20
7.320055055105127
 30
0.0
 10
7.465201539189837
 20
7.320530408163212
 30
0.0
 10
7.465235899986621
 20
7.321480860323605
 30
0.0
 10
7.464453940213454
 20
7.323364992562341
 30
0.0
 10
7.462916009701016
 20
7.324487304292878
 30
0.0
 10
7.461892216397939
 20
7.325234422075115
 30
0.0
  0
SPLINE
  5
1B1
330
1F
100
AcDbEntity
  8
0
  6
Continuous
 62
     7
370
     0
100
AcDbSpline
210
0.0
220
0.0
230
1.0
 70
     8
 71
     3
 72
     9
 73
     5
 74
     0
 42
0.00000001
 43
0.00000001
 40
0.0
 40
0.0
 40
0.0
 40
0.0
 40
0.5011623542816205
 40
1.0
 40
1.0
 40
1.0
 40
1.0
 10
7.461590006022024
 20
7.315521254528051
 30
0.0
 10
7.46247598843841
 20
7.316193484293281
 30
0.0
 10
7.464243843523325
 20
7.317534825596129
 30
0.0
 10
7.464871336888132
 20
7.319216281567159
 30
0.0
 10
7.465184354200935
 20
7.320055055105127
 30
0.0
  0
ARC
  5
1B2
330
1F
100
AcDbEntity
  8
0
  6
Continuous
 62
     7
370
     0
100
AcDbCircle
 10
7.1612420472
 20
6.8340519074
 30
0.0
 40
0.5674694957202304
100
AcDbArc
 50
58.0434529855
 51
61.7330693648
  0
LINE
  5
1B3
330
1F
100
AcDbEntity
  8
0
  6
Continuous
 62
     7
370
     0
100
AcDbLine
 10
7.4281934952
 20
7.3328173767
 30
0.0
 11
7.4299842201
 21
7.3338511402
 31
0.0
  0
SPLINE
  5
1B4
330
1F
100
AcDbEntity
  8
0
  6
Continuous
 62
     7
370
     0
100
AcDbSpline
210
0.0
220
0.0
230
1.0
 70
     8
 71
     3
 72
    13
 73
     9
 74
     0
 42
0.00000001
 43
0.00000001
 40
0.0
 40
0.0
 40
0.0
 40
0.0
 40
0.2500649107443443
 40
0.3783596976302694
 40
0.5001025157053886
 40
0.6229520872430938
 40
0.7501470080801806
 40
1.0
 40
1.0
 40
1.0
 40
1.0
 10
7.42897023617563
 20
7.305267858008741
 30
0.0
 10
7.425825195655747
 20
7.3072919149239
 30
0.0
 10
7.421066604869876
 20
7.310354406019218
 30
0.0
 10
7.41724027676431
 20
7.315200391325237
 30
0.0
 10
7.416144043656342
 20
7.319077624350764
 30
0.0
 10
7.416928417839629
 20
7.322954031077489
 30
0.0
 10
7.420382975386658
 20
7.327854391309309
 30
0.0
 10
7.425080592111266
 20
7.330839365896622
 30
0.0
 10
7.428193495150442
 20
7.332817376664513
 30
0.0
  0
LINE
  5
1B5
330
1F
100
AcDbEntity
  8
0
  6
Continuous
 62
     7
370
     0
100
AcDbLine
 10
7.3750282042
 20
7.3389359883
 30
0.0
 11
7.3553417085
 21
7.3275712163
 31
0.0
  0
SPLINE
  5
1B6
330
1F
100
AcDbEntity
  8
0
  6
Continuous
 62
     7
370
     0
100
AcDbSpline
210
0.0
220
0.0
230
1.0
 70
     8
 71
     3
 72
    11
 73
     7
 74
     0
 42
0.00000001
 43
0.00000001
 40
0.0
 40
0.0
 40
0.0
 40
0.0
 40
0.4988199337615882
 40
0.7491888849042853
 40
0.8745696102450843
 40
1.0
 40
1.0
 40
1.0
 40
1.0
 10
7.382013052935833
 20
7.330595156698719
 30
0.0
 10
7.379972990491838
 20
7.331756338283666
 30
0.0
 10
7.376908974793775
 20
7.333500343039527
 30
0.0
 10
7.37539705936118
 20
7.336158116040033
 30
0.0
 10
7.375016653299731
 20
7.337731186578202
 30
0.0
 10
7.375024353360939
 20
7.338534334733139
 30
0.0
 10
7.375028204153908
 20
7.33893598832838
 30
0.0
  0
ARC
  5
1B7
330
1F
100
AcDbEntity
  8
0
  6
Continuous
 62
     7
370
     0
100
AcDbCircle
 10
7.3978586706
 20
7.3688115114
 30
0.0
 40
0.0413711658504319
100
AcDbArc
 50
247.4796748168
 51
303.0209702838
  0
SPLINE
  5
1B8
330
1F
100
AcDbEntity
  8
0
  6
Continuous
 62
     7
370
     0
100
AcDbSpline
210
0.0
220
0.0
230
1.0
 70
     8
 71
     3
 72
    13
 73
     9
 74
     0
 42
0.00000001
 43
0.00000001
 40
0.0
 40
0.0
 40
0.0
 40
0.0
 40
0.1251722017704566
 40
0.2501710903368914
 40
0.3751630043242047
 40
0.5002554073255663
 40
0.7499099807477186
 40
0.9999999999999999
 40
0.9999999999999999
 40
0.9999999999999999
 40
0.9999999999999999
 10
7.425093451335091
 20
7.355380694324312
 30
0.0
 10
7.426328145748157
 20
7.354717316089528
 30
0.0
 10
7.428795825018639
 20
7.353391478132264
 30
0.0
 10
7.431227084699987
 20
7.35079368813772
 30
0.0
 10
7.432133873520948
 20
7.347845563605773
 30
0.0
 10
7.4312364094703
 20
7.34381534294932
 30
0.0
 10
7.427780944025963
 20
7.338900741723206
 30
0.0
 10
7.422864222700834
 20
7.33571649301741
 30
0.0
 10
7.420403719978274
 20
7.33412298138805
 30
0.0
  0
ARC
  5
1B9
330
1F
100
AcDbEntity
  8
0
  6
Continuous
 62
     7
370
     0
100
AcDbCircle
 10
7.4133575276
 20
7.3301113186
 30
0.0
 40
0.0278616807453281
100
AcDbArc
 50
65.0883045674
 51
85.0720719222
  0
SPLINE
  5
1BA
330
1F
100
AcDbEntity
  8
0
  6
Continuous
 62
     7
370
     0
100
AcDbSpline
210
0.0
220
0.0
230
1.0
 70
    24
 71
     1
 72
     4
 73
     2
 74
     0
 42
0.00000001
 43
0.00000001
 40
0.0
 40
0.0
 40
1.0
 40
1.0
 10
7.404893228253618
 20
7.35736011611759
 30
0.0
 10
7.415750917532304
 20
7.357870009856806
 30
0.0
  0
LINE
  5
1BB
330
1F
100
AcDbEntity
  8
0
  6
Continuous
 62
     7
370
     0
100
AcDbLine
 10
7.4109771015
 20
7.3608722614
 30
0.0
 11
7.4048932283
 21
7.3573601161
 31
0.0
  0
ARC
  5
1BC
330
1F
100
AcDbEntity
  8
0
  6
Continuous
 62
     7
370
     0
100
AcDbCircle
 10
7.2280308112
 20
6.9442207503
 30
0.0
 40
0.4550470600092036
100
AcDbArc
 50
66.2943432743
 51
68.2889054004
  0
LINE
  5
1BD
330
1F
100
AcDbEntity
  8
0
  6
Continuous
 62
     7
370
     0
100
AcDbLine
 10
7.33956673
 20
7.3341983493
 30
0.0
 11
7.3963648526
 21
7.3669872075
 31
0.0
  0
ARC
  5
1BE
330
1F
100
AcDbEntity
  8
0
  6
Continuous
 62
     7
370
     0
100
AcDbCircle
 10
7.170833437
 20
6.9104633015
 30
0.0
 40
0.4560946337110712
100
AcDbArc
 50
66.13773017
 51
68.2873198444
  0
SPLINE
  5
1BF
330
1F
100
AcDbEntity
  8
0
  6
Continuous
 62
     7
370
     0
100
AcDbSpline
210
0.0
220
0.0
230
1.0
 70
     8
 71
     3
 72
    13
 73
     9
 74
     0
 42
0.00000001
 43
0.00000001
 40
0.0
 40
0.0
 40
0.0
 40
0.0
 40
0.2501705057671316
 40
0.3840880186883872
 40
0.4999102936411741
 40
0.6140227116179261
 40
0.7498213084069907
 40
1.0
 40
1.0
 40
1.0
 40
1.0
 10
7.253219148962679
 20
7.377009973868333
 30
0.0
 10
7.252506645863904
 20
7.376582385691251
 30
0.0
 10
7.251412736321377
 20
7.375925907441563
 30
0.0
 10
7.250441570012517
 20
7.375098762241641
 30
0.0
 10
7.250144287172608
 20
7.374568628374794
 30
0.0
 10
7.250414863897176
 20
7.374204660766892
 30
0.0
 10
7.251262146313917
 20
7.37389808290824
 30
0.0
 10
7.252262810851494
 20
7.373825992697865
 30
0.0
 10
7.252911411047075
 20
7.373779266024947
 30
0.0
  0
SPLINE
  5
1C0
330
1F
100
AcDbEntity
  8
0
  6
Continuous
 62
     7
370
     0
100
AcDbSpline
210
0.0
220
0.0
230
1.0
 70
    24
 71
     1
 72
     4
 73
     2
 74
     0
 42
0.00000001
 43
0.00000001
 40
0.0
 40
0.0
 40
1.0
 40
1.0
 10
7.273198146020038
 20
7.378573981221598
 30
0.0
 10
7.253219148962679
 20
7.377009973868333
 30
0.0
  0
ARC
  5
1C1
330
1F
100
AcDbEntity
  8
0
  6
Continuous
 62
     7
370
     0
100
AcDbCircle
 10
7.272839287
 20
7.4425165347
 30
0.0
 40
0.0639435604305612
100
AcDbArc
 50
270.3215525313
 51
282.8783500712
  0
SPLINE
  5
1C2
330
1F
100
AcDbEntity
  8
0
  6
Continuous
 62
     7
370
     0
100
AcDbSpline
210
0.0
220
0.0
230
1.0
 70
     8
 71
     3
 72
     9
 73
     5
 74
     0
 42
0.00000001
 43
0.00000001
 40
0.0
 40
0.0
 40
0.0
 40
0.0
 40
0.5006506955429262
 40
1.0
 40
1.0
 40
1.0
 40
1.0
 10
7.297370836995763
 20
7.384311846205457
 30
0.0
 10
7.295867701020897
 20
7.383503707459691
 30
0.0
 10
7.29286533632182
 20
7.381889530643479
 30
0.0
 10
7.289014202318586
 20
7.380750311788902
 30
0.0
 10
7.2870911412327
 20
7.380181443646245
 30
0.0
  0
SPLINE
  5
1C3
330
1F
100
AcDbEntity
  8
0
  6
Continuous
 62
     7
370
     0
100
AcDbSpline
210
0.0
220
0.0
230
1.0
 70
     8
 71
     3
 72
    14
 73
    10
 74
     0
 42
0.00000001
 43
0.00000001
 40
0.0
 40
0.0
 40
0.0
 40
0.0
 40
0.2500047170986068
 40
0.379956398858902
 40
0.5001514804938231
 40
0.6248780927845718
 40
0.7508658106720566
 40
0.8742378331947451
 40
1.0
 40
1.0
 40
1.0
 40
1.0
 10
7.295290808566472
 20
7.39260957687011
 30
0.0
 10
7.296858893517502
 20
7.392417175490833
 30
0.0
 10
7.29924206419529
 20
7.392124764467338
 30
0.0
 10
7.301354228590365
 20
7.391173215892504
 30
0.0
 10
7.302237641199794
 20
7.390173580890171
 30
0.0
 10
7.302280664477385
 20
7.388917181857708
 30
0.0
 10
7.301548272531774
 20
7.387469768973843
 30
0.0
 10
7.299899913805755
 20
7.385882920258424
 30
0.0
 10
7.298219237292106
 20
7.384838876340267
 30
0.0
 10
7.297370836995763
 20
7.384311846205457
 30
0.0
  0
SPLINE
  5
1C4
330
1F
100
AcDbEntity
  8
0
  6
Continuous
 62
     7
370
     0
100
AcDbSpline
210
0.0
220
0.0
230
1.0
 70
    24
 71
     1
 72
     4
 73
     2
 74
     0
 42
0.00000001
 43
0.00000001
 40
0.0
 40
0.0
 40
1.0
 40
1.0
 10
7.284688288007758
 20
7.392215560584036
 30
0.0
 10
7.295290808566472
 20
7.39260957687011
 30
0.0
  0
SPLINE
  5
1C5
330
1F
100
AcDbEntity
  8
0
  6
Continuous
 62
     7
370
     0
100
AcDbSpline
210
0.0
220
0.0
230
1.0
 70
    24
 71
     1
 72
     4
 73
     2
 74
     0
 42
0.00000001
 43
0.00000001
 40
0.0
 40
0.0
 40
1.0
 40
1.0
 10
7.274849888855872
 20
7.389984050403858
 30
0.0
 10
7.284688288007758
 20
7.392215560584036
 30
0.0
  0
SPLINE
  5
1C6
330
1F
100
AcDbEntity
  8
0
  6
Continuous
 62
     7
370
     0
100
AcDbSpline
210
0.0
220
0.0
230
1.0
 70
     8
 71
     3
 72
     9
 73
     5
 74
     0
 42
0.00000001
 43
0.00000001
 40
0.0
 40
0.0
 40
0.0
 40
0.0
 40
0.4998463205888412
 40
1.0
 40
1.0
 40
1.0
 40
1.0
 10
7.278344835813028
 20
7.392935811460218
 30
0.0
 10
7.277950262038147
 20
7.392470355743456
 30
0.0
 10
7.277160871862351
 20
7.391539158098122
 30
0.0
 10
7.275620374353199
 20
7.390502525841302
 30
0.0
 10
7.274849888855872
 20
7.389984050403858
 30
0.0
  0
ARC
  5
1C7
330
1F
100
AcDbEntity
  8
0
  6
Continuous
 62
     7
370
     0
100
AcDbCircle
 10
7.2717812615
 20
7.130133525
 30
0.0
 40
0.2628842373817694
100
AcDbArc
 50
88.5693163053
 51
91.453798876
  0
SPLINE
  5
1C8
330
1F
100
AcDbEntity
  8
0
  6
Continuous
 62
     7
370
     0
100
AcDbSpline
210
0.0
220
0.0
230
1.0
 70
     8
 71
     3
 72
     9
 73
     5
 74
     0
 42
0.00000001
 43
0.00000001
 40
0.0
 40
0.0
 40
0.0
 40
0.0
 40
0.5000572978128721
 40
1.0
 40
1.0
 40
1.0
 40
1.0
 10
7.258105516043718
 20
7.387915850353393
 30
0.0
 10
7.25962133378808
 20
7.388799474830381
 30
0.0
 10
7.262652621904444
 20
7.390566521288561
 30
0.0
 10
7.264292045741929
 20
7.392144328760155
 30
0.0
 10
7.265111663725272
 20
7.392933142091035
 30
0.0
  0
LINE
  5
1C9
330
1F
100
AcDbEntity
  8
0
  6
Continuous
 62
     7
370
     0
100
AcDbLine
 10
7.2399342492
 20
7.3774258013
 30
0.0
 11
7.258105516
 21
7.3879158504
 31
0.0
  0
ARC
  5
1CA
330
1F
100
AcDbEntity
  8
0
  6
Continuous
 62
     7
370
     0
100
AcDbCircle
 10
7.2440395636
 20
7.3655385046
 30
0.0
 40
0.0125762247997644
100
AcDbArc
 50
109.0525096802
 51
153.7812335673
  0
SPLINE
  5
1CB
330
1F
100
AcDbEntity
  8
0
  6
Continuous
 62
     7
370
     0
100
AcDbSpline
210
0.0
220
0.0
230
1.0
 70
     8
 71
     3
 72
    10
 73
     6
 74
     0
 42
0.00000001
 43
0.00000001
 40
0.0
 40
0.0
 40
0.0
 40
0.0
 40
0.5007671535077814
 40
0.7507047832249374
 40
1.0
 40
1.0
 40
1.0
 40
1.0
 10
7.245416531578035
 20
7.368269433671779
 30
0.0
 10
7.242542585182699
 20
7.368449056827354
 30
0.0
 10
7.238234224918656
 20
7.368718331601314
 30
0.0
 10
7.233560512605173
 20
7.369483988435511
 30
0.0
 10
7.233024780983559
 20
7.370558241638861
 30
0.0
 10
7.23275725986254
 20
7.3710946770659
 30
0.0
  0
SPLINE
  5
1CC
330
1F
100
AcDbEntity
  8
0
  6
Continuous
 62
     7
370
     0
100
AcDbSpline
210
0.0
220
0.0
230
1.0
 70
     8
 71
     3
 72
     9
 73
     5
 74
     0
 42
0.00000001
 43
0.00000001
 40
0.0
 40
0.0
 40
0.0
 40
0.0
 40
0.4989850375674066
 40
1.0
 40
1.0
 40
1.0
 40
1.0
 10
7.260954954407741
 20
7.368664163626021
 30
0.0
 10
7.258040887635223
 20
7.368412261409345
 30
0.0
 10
7.252200899352759
 20
7.36790743221065
 30
0.0
 10
7.247681045823964
 20
7.368148603331652
 30
0.0
 10
7.245416531578035
 20
7.368269433671779
 30
0.0
  0
ARC
  5
1CD
330
1F
100
AcDbEntity
  8
0
  6
Continuous
 62
     7
370
     0
100
AcDbCircle
 10
7.2527958449
 20
7.4254332099
 30
0.0
 40
0.057352381698907
100
AcDbArc
 50
278.1788050314
 51
295.7233703151
  0
SPLINE
  5
1CE
330
1F
100
AcDbEntity
  8
0
  6
Continuous
 62
     7
370
     0
100
AcDbSpline
210
0.0
220
0.0
230
1.0
 70
    24
 71
     1
 72
     4
 73
     2
 74
     0
 42
0.00000001
 43
0.00000001
 40
0.0
 40
0.0
 40
1.0
 40
1.0
 10
7.265345344907207
 20
7.376112940517224
 30
0.0
 10
7.277688303454554
 20
7.373764445728921
 30
0.0
  0
SPLINE
  5
1CF
330
1F
100
AcDbEntity
  8
0
  6
Continuous
 62
     7
370
     0
100
AcDbSpline
210
0.0
220
0.0
230
1.0
 70
     8
 71
     3
 72
     9
 73
     5
 74
     0
 42
0.00000001
 43
0.00000001
 40
0.0
 40
0.0
 40
0.0
 40
0.0
 40
0.4984185104768131
 40
1.0
 40
1.0
 40
1.0
 40
1.0
 10
7.259453418327624
 20
7.374172187752993
 30
0.0
 10
7.260467634816815
 20
7.374429766228688
 30
0.0
 10
7.262502504043926
 20
7.374946557780928
 30
0.0
 10
7.264395735202618
 20
7.375723327303217
 30
0.0
 10
7.265345344907207
 20
7.376112940517224
 30
0.0
  0
SPLINE
  5
1D0
330
1F
100
AcDbEntity
  8
0
  6
Continuous
 62
     7
370
     0
100
AcDbSpline
210
0.0
220
0.0
230
1.0
 70
     8
 71
     3
 72
     9
 73
     5
 74
     0
 42
0.00000001
 43
0.00000001
 40
0.0
 40
0.0
 40
0.0
 40
0.0
 40
0.5011984280361752
 40
1.0
 40
1.0
 40
1.0
 40
1.0
 10
7.252911411047075
 20
7.373779266024947
 30
0.0
 10
7.253846302525565
 20
7.373737110137916
 30
0.0
 10
7.255711614597974
 20
7.373652999963834
 30
0.0
 10
7.258208145025779
 20
7.373999401915147
 30
0.0
 10
7.259453418327624
 20
7.374172187752993
 30
0.0
  0
LINE
  5
1D1
330
1F
100
AcDbEntity
  8
0
  6
Continuous
 62
     7
370
     0
100
AcDbLine
 10
7.1875392128
 20
7.3587434136
 30
0.0
 11
7.1982720836
 21
7.364939368
 31
0.0
  0
ARC
  5
1D2
330
1F
100
AcDbEntity
  8
0
  6
Continuous
 62
     7
370
     0
100
AcDbCircle
 10
7.2142086407
 20
7.1170908638
 30
0.0
 40
0.2431197507405228
100
AcDbArc
 50
93.06101022
 51
96.297830427
  0
LINE
  5
1D3
330
1F
100
AcDbEntity
  8
0
  6
Continuous
 62
     7
370
     0
100
AcDbLine
 10
7.2119590879
 20
7.3660596954
 30
0.0
 11
7.2012262171
 21
7.359863741
 31
0.0
  0
ARC
  5
1D4
330
1F
100
AcDbEntity
  8
0
  6
Continuous
 62
     7
370
     0
100
AcDbCircle
 10
7.2249415115
 20
7.1232868183
 30
0.0
 40
0.243119750739086
100
AcDbArc
 50
93.06101022
 51
96.297830427
  0
LINE
  5
1D5
330
1F
100
AcDbEntity
  8
0
  6
Continuous
 62
     7
370
     0
100
AcDbLine
 10
7.6134240234
 20
6.9469902425
 30
0.0
 11
7.6366345739
 21
6.9603894081
 31
0.0
  0
ARC
  5
1D6
330
1F
100
AcDbEntity
  8
0
  6
Continuous
 62
     7
370
     0
100
AcDbCircle
 10
6.721574565
 20
6.4181962744
 30
0.0
 40
1.036830997368986
100
AcDbArc
 50
30.6644824207
 51
32.382848872
  0
LINE
  5
1D7
330
1F
100
AcDbEntity
  8
0
  6
Continuous
 62
     7
370
     0
100
AcDbLine
 10
7.5856986676
 20
6.9668759642
 30
0.0
 11
7.5971661948
 21
6.9734960267
 31
0.0
  0
ARC
  5
1D8
330
1F
100
AcDbEntity
  8
0
  6
Continuous
 62
     7
370
     0
100
AcDbCircle
 10
6.7101070378
 20
6.4115762118
 30
0.0
 40
1.036830997369381
100
AcDbArc
 50
30.6644824207
 51
32.382848872
  0
LINE
  5
1D9
330
1F
100
AcDbEntity
  8
0
  6
Continuous
 62
     7
370
     0
100
AcDbLine
 10
7.5920386349
 20
6.9346447205
 30
0.0
 11
7.6019564962
 21
6.9403701799
 31
0.0
  0
ARC
  5
1DA
330
1F
100
AcDbEntity
  8
0
  6
Continuous
 62
     7
370
     0
100
AcDbCircle
 10
6.7006108242
 20
6.4061069642
 30
0.0
 40
1.036337638705366
100
AcDbArc
 50
30.6641871376
 51
32.6762861344
  0
LINE
  5
1DB
330
1F
100
AcDbEntity
  8
0
  6
Continuous
 62
     7
370
     0
100
AcDbLine
 10
7.560729585
 20
6.958573179
 30
0.0
 11
7.5729317686
 21
6.9656173496
 31
0.0
  0
ARC
  5
1DC
330
1F
100
AcDbEntity
  8
0
  6
Continuous
 62
     7
370
     0
100
AcDbCircle
 10
6.6872280635
 20
6.3983308779
 30
0.0
 40
1.037726526638565
100
AcDbArc
 50
29.28903543
 51
32.6751097944
  0
LINE
  5
1DD
330
1F
100
AcDbEntity
  8
0
  6
Continuous
 62
     7
370
     0
100
AcDbLine
 10
7.6490927718
 20
6.9387916966
 30
0.0
 11
7.5922946492
 21
6.9060028384
 31
0.0
  0
ARC
  5
1DE
330
1F
100
AcDbEntity
  8
0
  6
Continuous
 62
     7
370
     0
100
AcDbCircle
 10
6.7428501921
 20
6.4304361919
 30
0.0
 40
1.039086585609246
100
AcDbArc
 50
29.2901849633
 51
30.6650514079
  0
LINE
  5
1DF
330
1F
100
AcDbEntity
  8
0
  6
Continuous
 62
     7
370
     0
100
AcDbLine
 10
7.5059966394
 20
7.0924219635
 30
0.0
 11
7.5185431931
 21
7.0996649348
 31
0.0
  0
ARC
  5
1E0
330
1F
100
AcDbEntity
  8
0
  6
Continuous
 62
     7
370
     0
100
AcDbCircle
 10
6.7793785241
 20
6.4607494282
 30
0.0
 40
0.962800123253907
100
AcDbArc
 50
37.5303964107
 51
41.0014840966
  0
LINE
  5
1E1
330
1F
100
AcDbEntity
  8
0
  6
Continuous
 62
     7
370
     0
100
AcDbLine
 10
7.5554547197
 20
7.0545131267
 30
0.0
 11
7.5429081659
 21
7.0472701554
 31
0.0
  0
ARC
  5
1E2
330
1F
100
AcDbEntity
  8
0
  6
Continuous
 62
     7
370
     0
100
AcDbCircle
 10
6.7919250779
 20
6.4679923995
 30
0.0
 40
0.9628001232538921
100
AcDbArc
 50
37.5303964107
 51
41.0014840966
  0
LINE
  5
1E3
330
1F
100
AcDbEntity
  8
0
  6
Continuous
 62
     7
370
     0
100
AcDbLine
 10
7.4753666376
 20
7.1490548591
 30
0.0
 11
7.4859847183
 21
7.1551845466
 31
0.0
  0
ARC
  5
1E4
330
1F
100
AcDbEntity
  8
0
  6
Continuous
 62
     7
370
     0
100
AcDbCircle
 10
6.8773509884
 20
6.5459544125
 30
0.0
 40
0.8493249467847795
100
AcDbArc
 50
45.24255415
 51
45.8784028762
  0
LINE
  5
1E5
330
1F
100
AcDbEntity
  8
0
  6
Continuous
 62
     7
370
     0
100
AcDbLine
 10
7.4564003296
 20
7.1485901049
 30
0.0
 11
7.4686369502
 21
7.1556541556
 31
0.0
  0
ARC
  5
1E6
330
1F
100
AcDbEntity
  8
0
  6
Continuous
 62
     7
370
     0
100
AcDbCircle
 10
6.8651143678
 20
6.5388903618
 30
0.0
 40
0.8493249468232565
100
AcDbArc
 50
45.24255415
 51
45.8784028762
  0
LINE
  5
1E7
330
1F
100
AcDbEntity
  8
0
  6
Continuous
 62
     7
370
     0
100
AcDbLine
 10
7.4282223591
 20
7.1218390465
 30
0.0
 11
7.463130017
 21
7.1419908084
 31
0.0
  0
ARC
  5
1E8
330
1F
100
AcDbEntity
  8
0
  6
Continuous
 62
     7
370
     0
100
AcDbCircle
 10
6.8172494215
 20
6.5057142162
 30
0.0
 40
0.8676968001711682
100
AcDbArc
 50
44.0312903674
 51
45.2405513085
  0
SPLINE
  5
1E9
330
1F
100
AcDbEntity
  8
0
  6
Continuous
 62
     7
370
     0
100
AcDbSpline
210
0.0
220
0.0
230
1.0
 70
    24
 71
     1
 72
     4
 73
     2
 74
     0
 42
0.00000001
 43
0.00000001
 40
0.0
 40
0.0
 40
1.0
 40
1.0
 10
7.501609866883265
 20
7.100075141675106
 30
0.0
 10
7.441088996111742
 20
7.108807842568176
 30
0.0
  0
LINE
  5
1EA
330
1F
100
AcDbEntity
  8
0
  6
Continuous
 62
     7
370
     0
100
AcDbLine
 10
7.5145811439
 20
7.1075633005
 30
0.0
 11
7.5016098669
 21
7.1000751417
 31
0.0
  0
ARC
  5
1EB
330
1F
100
AcDbEntity
  8
0
  6
Continuous
 62
     7
370
     0
100
AcDbCircle
 10
6.8389930538
 20
6.5085473744
 30
0.0
 40
0.902906056654139
100
AcDbArc
 50
41.5620732094
 51
44.0233844906
  0
LINE
  5
1EC
330
1F
100
AcDbEntity
  8
0
  6
Continuous
 62
     7
370
     0
100
AcDbLine
 10
7.4988513553
 20
7.1421533427
 30
0.0
 11
7.4882332745
 21
7.1360236552
 31
0.0
  0
ARC
  5
1ED
330
1F
100
AcDbEntity
  8
0
  6
Continuous
 62
     7
370
     0
100
AcDbCircle
 10
6.8750117807
 20
6.5390597163
 30
0.0
 40
0.86769680016594
100
AcDbArc
 50
44.0312903674
 51
45.2405513085
  0
LINE
  5
1EE
330
1F
100
AcDbEntity
  8
0
  6
Continuous
 62
     7
370
     0
100
AcDbLine
 10
7.3852715601
 20
7.2123338837
 30
0.0
 11
7.4062666624
 21
7.2244540982
 31
0.0
  0
ARC
  5
1EF
330
1F
100
AcDbEntity
  8
0
  6
Continuous
 62
     7
370
     0
100
AcDbCircle
 10
7.3774338061
 20
7.222930599
 30
0.0
 40
0.013180317326193
100
AcDbArc
 50
237.4551521798
 51
306.4881089972
  0
ARC
  5
1F0
330
1F
100
AcDbEntity
  8
0
  6
Continuous
 62
     7
370
     0
100
AcDbCircle
 10
7.3719202267
 20
7.2149641412
 30
0.0
 40
0.0035174376121257
100
AcDbArc
 50
141.2396035107
 51
243.3647584152
  0
SPLINE
  5
1F1
330
1F
100
AcDbEntity
  8
0
  6
Continuous
 62
     7
370
     0
100
AcDbSpline
210
0.0
220
0.0
230
1.0
 70
    24
 71
     1
 72
     4
 73
     2
 74
     0
 42
0.00000001
 43
0.00000001
 40
0.0
 40
0.0
 40
1.0
 40
1.0
 10
7.372554654094634
 20
7.219515398770808
 30
0.0
 10
7.369177431197961
 20
7.217166285653065
 30
0.0
  0
LINE
  5
1F2
330
1F
100
AcDbEntity
  8
0
  6
Continuous
 62
     7
370
     0
100
AcDbLine
 10
7.3952142123
 20
7.2325964833
 30
0.0
 11
7.3725546541
 21
7.2195153988
 31
0.0
  0
ARC
  5
1F3
330
1F
100
AcDbEntity
  8
0
  6
Continuous
 62
     7
370
     0
100
AcDbCircle
 10
7.0110402994
 20
6.7000857082
 30
0.0
 40
0.6566257084564602
100
AcDbArc
 50
54.1918591833
 51
55.8656422672
  0
LINE
  5
1F4
330
1F
100
AcDbEntity
  8
0
  6
Continuous
 62
     7
370
     0
100
AcDbLine
 10
7.3582600969
 20
7.231331188
 30
0.0
 11
7.3794962583
 21
7.2435905631
 31
0.0
  0
ARC
  5
1F5
330
1F
100
AcDbEntity
  8
0
  6
Continuous
 62
     7
370
     0
100
AcDbCircle
 10
7.3503415744
 20
7.2422581872
 30
0.0
 40
0.0134945288254807
100
AcDbArc
 50
240.0184219109
 51
305.9299021851
  0
ARC
  5
1F6
330
1F
100
AcDbEntity
  8
0
  6
Continuous
 62
     7
370
     0
100
AcDbCircle
 10
7.3452725966
 20
7.2337076065
 30
0.0
 40
0.0035570072993226
100
AcDbArc
 50
168.916120866
 51
241.9157745252
  0
SPLINE
  5
1F7
330
1F
100
AcDbEntity
  8
0
  6
Continuous
 62
     7
370
     0
100
AcDbSpline
210
0.0
220
0.0
230
1.0
 70
     8
 71
     3
 72
     9
 73
     5
 74
     0
 42
0.00000001
 43
0.00000001
 40
0.0
 40
0.0
 40
0.0
 40
0.0
 40
0.5015784057012487
 40
1.0
 40
1.0
 40
1.0
 40
1.0
 10
7.34484887788414
 20
7.237482048521469
 30
0.0
 10
7.344127849651747
 20
7.237047587157521
 30
0.0
 10
7.34269033116172
 20
7.236181398822837
 30
0.0
 10
7.342084098408946
 20
7.234986826848707
 30
0.0
 10
7.341781938913791
 20
7.234391426380856
 30
0.0
  0
LINE
  5
1F8
330
1F
100
AcDbEntity
  8
0
  6
Continuous
 62
     7
370
     0
100
AcDbLine
 10
7.3682890085
 20
7.2510137479
 30
0.0
 11
7.3448488779
 21
7.2374820485
 31
0.0
  0
ARC
  5
1F9
330
1F
100
AcDbEntity
  8
0
  6
Continuous
 62
     7
370
     0
100
AcDbCircle
 10
7.041613211
 20
6.7462510938
 30
0.0
 40
0.6012507078307882
100
AcDbArc
 50
57.0895831996
 51
58.8646246891
  0
LINE
  5
1FA
330
1F
100
AcDbEntity
  8
0
  6
Continuous
 62
     7
370
     0
100
AcDbLine
 10
7.3266578033
 20
7.2459737606
 30
0.0
 11
7.3524970462
 21
7.2608904381
 31
0.0
  0
SPLINE
  5
1FB
330
1F
100
AcDbEntity
  8
0
  6
Continuous
 62
     7
370
     0
100
AcDbSpline
210
0.0
220
0.0
230
1.0
 70
     8
 71
     3
 72
    13
 73
     9
 74
     0
 42
0.00000001
 43
0.00000001
 40
0.0
 40
0.0
 40
0.0
 40
0.0
 40
0.2493026324881469
 40
0.3767800005111117
 40
0.4994269650587647
 40
0.61835158018116
 40
0.7497380290331865
 40
1.0
 40
1.0
 40
1.0
 40
1.0
 10
7.324476600770663
 20
7.227849746063073
 30
0.0
 10
7.322581041175651
 20
7.229252046691805
 30
0.0
 10
7.319716214045469
 20
7.23137139387373
 30
0.0
 10
7.318075032133212
 20
7.234774428688611
 30
0.0
 10
7.31796277188671
 20
7.237341086784504
 30
0.0
 10
7.319045149943634
 20
7.239821911233528
 30
0.0
 10
7.321709332601591
 20
7.242847020854362
 30
0.0
 10
7.324698009546868
 20
7.24473544572376
 30
0.0
 10
7.326657803283899
 20
7.245973760636902
 30
0.0
  0
ARC
  5
1FC
330
1F
100
AcDbEntity
  8
0
  6
Continuous
 62
     7
370
     0
100
AcDbCircle
 10
7.3433616512
 20
7.2572725619
 30
0.0
 40
0.0349620826378296
100
AcDbArc
 50
237.3056013545
 51
273.8485046291
  0
SPLINE
  5
1FD
330
1F
100
AcDbEntity
  8
0
  6
Continuous
 62
     7
370
     0
100
AcDbSpline
210
0.0
220
0.0
230
1.0
 70
     8
 71
     3
 72
    12
 73
     8
 74
     0
 42
0.00000001
 43
0.00000001
 40
0.0
 40
0.0
 40
0.0
 40
0.0
 40
0.2503253654036804
 40
0.4999978777420996
 40
0.7494826629082681
 40
0.874698218791801
 40
1.0
 40
1.0
 40
1.0
 40
1.0
 10
7.35118387240817
 20
7.209717828695749
 30
0.0
 10
7.349975899818597
 20
7.210639216961804
 30
0.0
 10
7.347563105053743
 20
7.212479590496708
 30
0.0
 10
7.345027510326399
 20
7.215697314791481
 30
0.0
 10
7.344565441774831
 20
7.218585660243261
 30
0.0
 10
7.344994916927901
 20
7.220799516720952
 30
0.0
 10
7.345470422103837
 20
7.22185926306182
 30
0.0
 10
7.345708256523643
 20
7.2223893186088
 30
0.0
  0
ARC
  5
1FE
330
1F
100
AcDbEntity
  8
0
  6
Continuous
 62
     7
370
     0
100
AcDbCircle
 10
7.3709659119
 20
7.2372264802
 30
0.0
 40
0.0338829602434666
100
AcDbArc
 50
234.2793081722
 51
272.080650818
  0
LINE
  5
1FF
330
1F
100
AcDbEntity
  8
0
  6
Continuous
 62
     7
370
     0
100
AcDbLine
 10
7.366192554
 20
7.1999001002
 30
0.0
 11
7.3721960743
 21
7.2033658586
 31
0.0
  0
ARC
  5
200
330
1F
100
AcDbEntity
  8
0
  6
Continuous
 62
     7
370
     0
100
AcDbCircle
 10
6.9364514027
 20
6.6309744225
 30
0.0
 40
0.7129893995697081
100
AcDbArc
 50
51.458014603
 51
52.9342234792
  0
LINE
  5
201
330
1F
100
AcDbEntity
  8
0
  6
Continuous
 62
     7
370
     0
100
AcDbLine
 10
7.4218472655
 20
7.2123904035
 30
0.0
 11
7.3807065073
 21
7.1886403493
 31
0.0
  0
ARC
  5
202
330
1F
100
AcDbEntity
  8
0
  6
Continuous
 62
     7
370
     0
100
AcDbCircle
 10
6.9782724292
 20
6.6555941964
 30
0.0
 40
0.7118852797614043
100
AcDbArc
 50
51.4572227286
 51
53.0432236192
  0
LWPOLYLINE
  5
203
330
1F
100
AcDbEntity
  8
0
  6
Continuous
 62
     7
370
     0
100
AcDbPolyline
 90
       39
 70
   128
 43
0.0
 10
8.6432572943
 20
6.8347162787
 10
8.6544509056
 20
6.8416794498
 10
8.6777878185
 20
6.8598801249
 10
8.6987146069
 20
6.8816434351
 10
8.7170804929
 20
6.9068125751
 10
8.7327531499
 20
6.9352062008
 10
8.745619656
 20
6.9666197354
 10
8.7555873077
 20
7.0008268438
 10
8.7625842878
 20
7.0375810629
 10
8.766560183
 20
7.0766175777
 10
8.7674863469
 20
7.1176551292
 10
8.7653561063
 20
7.160398041
 10
8.7601848099
 20
7.2045383493
 10
8.7520097167
 20
7.2497580223
 10
8.7408897287
 20
7.2957312512
 10
8.7269049655
 20
7.3421267978
 10
8.7101561878
 20
7.388610381
 10
8.6907640707
 20
7.4348470858
 10
8.668868335
 20
7.4805037754
 10
8.64462674
 20
7.5252514925
 10
8.6182139469
 20
7.5687678287
 10
8.5898202604
 20
7.6107392477
 10
8.5596502578
 20
7.6508633447
 10
8.5279213146
 20
7.6888510244
 10
8.4948620386
 20
7.7244285849
 10
8.4607106225
 20
7.757339689
 10
8.4257131282
 20
7.7873472114
 10
8.3901217134
 20
7.8142349473
 10
8.354192815
 20
7.8378091698
 10
8.3181853016
 20
7.8579000262
 10
8.2823586082
 20
7.8743627614
 10
8.2469708668
 20
7.887078761
 10
8.212277047
 20
7.8959564059
 10
8.1785271186
 20
7.9009317326
 10
8.1459642505
 20
7.9019688936
 10
8.114823059
 20
7.8990604162
 10
8.085327917
 20
7.892227256
 10
8.0576913378
 20
7.8815186462
 10
8.0433060548
 20
7.8739749136
  0
LINE
  5
204
330
1F
100
AcDbEntity
  8
0
  6
Continuous
 62
     7
370
     0
100
AcDbLine
 10
7.3061721306
 20
7.2631932382
 30
0.0
 11
7.3271672329
 21
7.2753134528
 31
0.0
  0
ARC
  5
205
330
1F
100
AcDbEntity
  8
0
  6
Continuous
 62
     7
370
     0
100
AcDbCircle
 10
7.2970509808
 20
7.2757236557
 30
0.0
 40
0.0154986043367815
100
AcDbArc
 50
247.7665473758
 51
306.0516467536
  0
ARC
  5
206
330
1F
100
AcDbEntity
  8
0
  6
Continuous
 62
     7
370
     0
100
AcDbCircle
 10
7.2918412528
 20
7.2639029637
 30
0.0
 40
0.0026090550717455
100
AcDbArc
 50
135.2351702751
 51
255.4682690876
  0
SPLINE
  5
207
330
1F
100
AcDbEntity
  8
0
  6
Continuous
 62
     7
370
     0
100
AcDbSpline
210
0.0
220
0.0
230
1.0
 70
    24
 71
     1
 72
     4
 73
     2
 74
     0
 42
0.00000001
 43
0.00000001
 40
0.0
 40
0.0
 40
1.0
 40
1.0
 10
7.293364250642513
 20
7.268023599150337
 30
0.0
 10
7.289988815484921
 20
7.265740256439373
 30
0.0
  0
LINE
  5
208
330
1F
100
AcDbEntity
  8
0
  6
Continuous
 62
     7
370
     0
100
AcDbLine
 10
7.3160238089
 20
7.2811046837
 30
0.0
 11
7.2933642506
 21
7.2680235992
 31
0.0
  0
ARC
  5
209
330
1F
100
AcDbEntity
  8
0
  6
Continuous
 62
     7
370
     0
100
AcDbCircle
 10
7.0916087902
 20
6.8364410188
 30
0.0
 40
0.4980842051664004
100
AcDbArc
 50
63.2206133964
 51
65.2330077178
  0
LINE
  5
20A
330
1F
100
AcDbEntity
  8
0
  6
Continuous
 62
     7
370
     0
100
AcDbLine
 10
7.2790345708
 20
7.2764515514
 30
0.0
 11
7.3002707323
 21
7.2887109265
 31
0.0
  0
ARC
  5
20B
330
1F
100
AcDbEntity
  8
0
  6
Continuous
 62
     7
370
     0
100
AcDbCircle
 10
7.2696742922
 20
7.2895549317
 30
0.0
 40
0.0161032105581737
100
AcDbArc
 50
250.8388099438
 51
305.5397662582
  0
SPLINE
  5
20C
330
1F
100
AcDbEntity
  8
0
  6
Continuous
 62
     7
370
     0
100
AcDbSpline
210
0.0
220
0.0
230
1.0
 70
     8
 71
     3
 72
    10
 73
     6
 74
     0
 42
0.00000001
 43
0.00000001
 40
0.0
 40
0.0
 40
0.0
 40
0.0
 40
0.4988594542991645
 40
0.7491987595266411
 40
0.9999999999999999
 40
0.9999999999999999
 40
0.9999999999999999
 40
0.9999999999999999
 10
7.26259188672886
 20
7.277301065399282
 30
0.0
 10
7.262533747708869
 20
7.27673742682209
 30
0.0
 10
7.262446433173118
 20
7.275890941265459
 30
0.0
 10
7.263310370011619
 20
7.274904966031899
 30
0.0
 10
7.264029092832391
 20
7.274531007871591
 30
0.0
 10
7.264388785490574
 20
7.274343856440131
 30
0.0
  0
SPLINE
  5
20D
330
1F
100
AcDbEntity
  8
0
  6
Continuous
 62
     7
370
     0
100
AcDbSpline
210
0.0
220
0.0
230
1.0
 70
     8
 71
     3
 72
     9
 73
     5
 74
     0
 42
0.00000001
 43
0.00000001
 40
0.0
 40
0.0
 40
0.0
 40
0.0
 40
0.5015784057012738
 40
1.0
 40
1.0
 40
1.0
 40
1.0
 10
7.265665261407603
 20
7.280155408545744
 30
0.0
 10
7.264944123585405
 20
7.279724240226676
 30
0.0
 10
7.2635063866055
 20
7.278864617256138
 30
0.0
 10
7.262896077811153
 20
7.277821151343204
 30
0.0
 10
7.26259188672886
 20
7.277301065399282
 30
0.0
  0
LINE
  5
20E
330
1F
100
AcDbEntity
  8
0
  6
Continuous
 62
     7
370
     0
100
AcDbLine
 10
7.289105392
 20
7.2936871079
 30
0.0
 11
7.2656652614
 21
7.2801554085
 31
0.0
  0
ARC
  5
20F
330
1F
100
AcDbEntity
  8
0
  6
Continuous
 62
     7
370
     0
100
AcDbCircle
 10
7.1118058417
 20
6.8817409968
 30
0.0
 40
0.4484804667550241
100
AcDbArc
 50
66.7131972743
 51
68.8713767537
  0
LINE
  5
210
330
1F
100
AcDbEntity
  8
0
  6
Continuous
 62
     7
370
     0
100
AcDbLine
 10
7.2476271409
 20
7.2851550476
 30
0.0
 11
7.2734663838
 21
7.300071725
 31
0.0
  0
SPLINE
  5
211
330
1F
100
AcDbEntity
  8
0
  6
Continuous
 62
     7
370
     0
100
AcDbSpline
210
0.0
220
0.0
230
1.0
 70
     8
 71
     3
 72
    13
 73
     9
 74
     0
 42
0.00000001
 43
0.00000001
 40
0.0
 40
0.0
 40
0.0
 40
0.0
 40
0.249302632488295
 40
0.3767800005130683
 40
0.4994269650589342
 40
0.6183515801726202
 40
0.7497380290330324
 40
0.9999999999999999
 40
0.9999999999999999
 40
0.9999999999999999
 40
0.9999999999999999
 10
7.245304474679061
 20
7.27014045455403
 30
0.0
 10
7.243424884566919
 20
7.271090080401685
 30
0.0
 10
7.240584192688344
 20
7.272525283968515
 30
0.0
 10
7.238980898257967
 20
7.275124068579032
 30
0.0
 10
7.23889377591843
 20
7.27720085317666
 30
0.0
 10
7.239995322017479
 20
7.279333961721702
 30
0.0
 10
7.24267559661372
 20
7.282079337715781
 30
0.0
 10
7.245666129896841
 20
7.283936942553539
 30
0.0
 10
7.247627140908008
 20
7.285155047552337
 30
0.0
  0
ARC
  5
212
330
1F
100
AcDbEntity
  8
0
  6
Continuous
 62
     7
370
     0
100
AcDbCircle
 10
7.2599208442
 20
7.3054559999
 30
0.0
 40
0.0382207535521536
100
AcDbArc
 50
247.5163541502
 51
279.883761093
  0
SPLINE
  5
213
330
1F
100
AcDbEntity
  8
0
  6
Continuous
 62
     7
370
     0
100
AcDbSpline
210
0.0
220
0.0
230
1.0
 70
     8
 71
     3
 72
    12
 73
     8
 74
     0
 42
0.00000001
 43
0.00000001
 40
0.0
 40
0.0
 40
0.0
 40
0.0
 40
0.2503253654036804
 40
0.4999978777420999
 40
0.7494826629082424
 40
0.8746982187917995
 40
1.0
 40
1.0
 40
1.0
 40
1.0
 10
7.271983072544799
 20
7.257806440982018
 30
0.0
 10
7.270769601331301
 20
7.258458645228981
 30
0.0
 10
7.268345823659103
 20
7.259761352762478
 30
0.0
 10
7.265802113095675
 20
7.262188632942918
 30
0.0
 10
7.265338076394821
 20
7.264538886508619
 30
0.0
 10
7.265767573710693
 20
7.266415544533718
 30
0.0
 10
7.266243424893498
 20
7.267340087582178
 30
0.0
 10
7.266481432376284
 20
7.267802518215205
 30
0.0
  0
ARC
  5
214
330
1F
100
AcDbEntity
  8
0
  6
Continuous
 62
     7
370
     0
100
AcDbCircle
 10
7.2880145751
 20
7.290557047
 30
0.0
 40
0.0364638351064662
100
AcDbArc
 50
243.9181376379
 51
278.0301251405
  0
LINE
  5
215
330
1F
100
AcDbEntity
  8
0
  6
Continuous
 62
     7
370
     0
100
AcDbLine
 10
7.2871048247
 20
7.2509849902
 30
0.0
 11
7.2931083449
 21
7.2544507487
 31
0.0
  0
ARC
  5
216
330
1F
100
AcDbEntity
  8
0
  6
Continuous
 62
     7
370
     0
100
AcDbCircle
 10
7.0258418949
 20
6.7653918376
 30
0.0
 40
0.5514154770510514
100
AcDbArc
 50
59.9664063656
 51
61.7184845016
  0
LINE
  5
217
330
1F
100
AcDbEntity
  8
0
  6
Continuous
 62
     7
370
     0
100
AcDbLine
 10
7.3429703352
 20
7.266519968
 30
0.0
 11
7.301829577
 21
7.2427699138
 31
0.0
  0
ARC
  5
218
330
1F
100
AcDbEntity
  8
0
  6
Continuous
 62
     7
370
     0
100
AcDbCircle
 10
7.0675092145
 20
6.7900753426
 30
0.0
 40
0.5503438108195244
100
AcDbArc
 50
59.9652259562
 51
61.8481121556
  0
ARC
  5
219
330
1F
100
AcDbEntity
  8
0
  6
Continuous
 62
     7
370
     0
100
AcDbCircle
 10
7.4259342233
 20
7.1572025279
 30
0.0
 40
0.0406861501122247
100
AcDbArc
 50
47.6042183967
 51
127.8478316275
  0
SPLINE
  5
21A
330
1F
100
AcDbEntity
  8
0
  6
Continuous
 62
     7
370
     0
100
AcDbSpline
210
0.0
220
0.0
230
1.0
 70
    24
 71
     1
 72
     4
 73
     2
 74
     0
 42
0.00000001
 43
0.00000001
 40
0.0
 40
0.0
 40
1.0
 40
1.0
 10
7.389284793251152
 20
7.180400200959339
 30
0.0
 10
7.400970565551586
 20
7.189330064372856
 30
0.0
  0
SPLINE
  5
21B
330
1F
100
AcDbEntity
  8
0
  6
Continuous
 62
     7
370
     0
100
AcDbSpline
210
0.0
220
0.0
230
1.0
 70
     8
 71
     3
 72
    12
 73
     8
 74
     0
 42
0.00000001
 43
0.00000001
 40
0.0
 40
0.0
 40
0.0
 40
0.0
 40
0.2503262674180381
 40
0.4997345046006516
 40
0.6249000363599494
 40
0.7501600021982605
 40
1.0
 40
1.0
 40
1.0
 40
1.0
 10
7.39422984265392
 20
7.153710746124077
 30
0.0
 10
7.391984431525215
 20
7.15581801356494
 30
0.0
 10
7.387501843942209
 20
7.16002482039142
 30
0.0
 10
7.384443151336301
 20
7.166187827839313
 30
0.0
 10
7.384253991582751
 20
7.170982728856833
 30
0.0
 10
7.385196513172755
 20
7.175620628824965
 30
0.0
 10
7.387650370828488
 20
7.178489412139257
 30
0.0
 10
7.389284793251152
 20
7.180400200959339
 30
0.0
  0
ARC
  5
21C
330
1F
100
AcDbEntity
  8
0
  6
Continuous
 62
     7
370
     0
100
AcDbCircle
 10
7.422438583
 20
7.1820915503
 30
0.0
 40
0.0400150356920143
100
AcDbArc
 50
225.17421064
 51
306.0314107124
  0
SPLINE
  5
21D
330
1F
100
AcDbEntity
  8
0
  6
Continuous
 62
     7
370
     0
100
AcDbSpline
210
0.0
220
0.0
230
1.0
 70
     8
 71
     3
 72
     9
 73
     5
 74
     0
 42
0.00000001
 43
0.00000001
 40
0.0
 40
0.0
 40
0.0
 40
0.0
 40
0.4987092906772006
 40
1.0
 40
1.0
 40
1.0
 40
1.0
 10
7.462450453543917
 20
7.165544380794907
 30
0.0
 10
7.46047039087557
 20
7.162408238202485
 30
0.0
 10
7.456500016340023
 20
7.156119719718772
 30
0.0
 10
7.449490420214784
 20
7.151864638335399
 30
0.0
 10
7.445976574801097
 20
7.149731605570501
 30
0.0
  0
ARC
  5
21E
330
1F
100
AcDbEntity
  8
0
  6
Continuous
 62
     7
370
     0
100
AcDbCircle
 10
7.4424146828
 20
7.1699126328
 30
0.0
 40
0.020506431587037
100
AcDbArc
 50
347.7006891881
 51
57.718387808
  0
LINE
  5
21F
330
1F
100
AcDbEntity
  8
0
  6
Continuous
 62
     7
370
     0
100
AcDbLine
 10
7.4869300101
 20
7.0814150327
 30
0.0
 11
7.4995224799
 21
7.0886845108
 31
0.0
  0
ARC
  5
220
330
1F
100
AcDbEntity
  8
0
  6
Continuous
 62
     7
370
     0
100
AcDbCircle
 10
6.7603118948
 20
6.4497424974
 30
0.0
 40
0.9628001232542479
100
AcDbArc
 50
37.5303964107
 51
41.0014840966
  0
LINE
  5
221
330
1F
100
AcDbEntity
  8
0
  6
Continuous
 62
     7
370
     0
100
AcDbLine
 10
7.5364340064
 20
7.0435327027
 30
0.0
 11
7.5238415366
 21
7.0362632246
 31
0.0
  0
ARC
  5
222
330
1F
100
AcDbEntity
  8
0
  6
Continuous
 62
     7
370
     0
100
AcDbCircle
 10
6.7729043646
 20
6.4570119755
 30
0.0
 40
0.9628001232554578
100
AcDbArc
 50
37.5303964107
 51
41.0014840966
  0
SPLINE
  5
223
330
1F
100
AcDbEntity
  8
0
  6
Continuous
 62
     7
370
     0
100
AcDbSpline
210
0.0
220
0.0
230
1.0
 70
    24
 71
     1
 72
     4
 73
     2
 74
     0
 42
0.00000001
 43
0.00000001
 40
0.0
 40
0.0
 40
1.0
 40
1.0
 10
7.566131147386843
 20
7.024131327163844
 30
0.0
 10
7.582414505598647
 20
7.017172821842336
 30
0.0
  0
ARC
  5
224
330
1F
100
AcDbEntity
  8
0
  6
Continuous
 62
     7
370
     0
100
AcDbCircle
 10
7.5464477064
 20
6.9978913806
 30
0.0
 40
0.0328020220028695
100
AcDbArc
 50
53.1252380393
 51
111.9809776846
  0
SPLINE
  5
225
330
1F
100
AcDbEntity
  8
0
  6
Continuous
 62
     7
370
     0
100
AcDbSpline
210
0.0
220
0.0
230
1.0
 70
     8
 71
     3
 72
    13
 73
     9
 74
     0
 42
0.00000001
 43
0.00000001
 40
0.0
 40
0.0
 40
0.0
 40
0.0
 40
0.2505394783772785
 40
0.4996876272647528
 40
0.6251017812259638
 40
0.7498743002529902
 40
0.8749192415305377
 40
1.0
 40
1.0
 40
1.0
 40
1.0
 10
7.536430445554019
 20
6.992813996227106
 30
0.0
 10
7.534337873923004
 20
6.995903099343651
 30
0.0
 10
7.530164351410879
 20
7.002064150754313
 30
0.0
 10
7.526786485587569
 20
7.01062386271516
 30
0.0
 10
7.526649500025749
 20
7.017287170151402
 30
0.0
 10
7.527937648628737
 20
7.021814627895208
 30
0.0
 10
7.530382383024269
 20
7.025709883532437
 30
0.0
 10
7.532907307614436
 20
7.027442520922957
 30
0.0
 10
7.534169950690041
 20
7.028308963672254
 30
0.0
  0
ARC
  5
226
330
1F
100
AcDbEntity
  8
0
  6
Continuous
 62
     7
370
     0
100
AcDbCircle
 10
7.5633367331
 20
7.0044083836
 30
0.0
 40
0.0292980908344549
100
AcDbArc
 50
203.3120507749
 51
288.465022891
  0
SPLINE
  5
227
330
1F
100
AcDbEntity
  8
0
  6
Continuous
 62
     7
370
     0
100
AcDbSpline
210
0.0
220
0.0
230
1.0
 70
    24
 71
     1
 72
     4
 73
     2
 74
     0
 42
0.00000001
 43
0.00000001
 40
0.0
 40
0.0
 40
1.0
 40
1.0
 10
7.56151051707484
 20
6.995844678108787
 30
0.0
 10
7.572616190749317
 20
6.976618641071203
 30
0.0
  0
ARC
  5
228
330
1F
100
AcDbEntity
  8
0
  6
Continuous
 62
     7
370
     0
100
AcDbCircle
 10
7.5562386176
 20
7.0057608946
 30
0.0
 40
0.0112305063571492
100
AcDbArc
 50
213.6506393999
 51
297.9970885751
  0
SPLINE
  5
229
330
1F
100
AcDbEntity
  8
0
  6
Continuous
 62
     7
370
     0
100
AcDbSpline
210
0.0
220
0.0
230
1.0
 70
     8
 71
     3
 72
    12
 73
     8
 74
     0
 42
0.00000001
 43
0.00000001
 40
0.0
 40
0.0
 40
0.0
 40
0.0
 40
0.2494023648056439
 40
0.4991486310883306
 40
0.7488658669771174
 40
0.8743546734024621
 40
1.0
 40
1.0
 40
1.0
 40
1.0
 10
7.547697190568185
 20
7.010884681525424
 30
0.0
 10
7.546919314736944
 20
7.010275911970171
 30
0.0
 10
7.545362490459745
 20
7.009057533425969
 30
0.0
 10
7.544598570905678
 20
7.005974690006287
 30
0.0
 10
7.544971900949133
 20
7.003200007094543
 30
0.0
 10
7.545909079125052
 20
7.001045841370298
 30
0.0
 10
7.54656288174297
 20
7.000040664132968
 30
0.0
 10
7.546889986794243
 20
6.999537762274298
 30
0.0
  0
SPLINE
  5
22A
330
1F
100
AcDbEntity
  8
0
  6
Continuous
 62
     7
370
     0
100
AcDbSpline
210
0.0
220
0.0
230
1.0
 70
     8
 71
     3
 72
    12
 73
     8
 74
     0
 42
0.00000001
 43
0.00000001
 40
0.0
 40
0.0
 40
0.0
 40
0.0
 40
0.5004590000213394
 40
0.7499685526057042
 40
0.8749070349480843
 40
0.9374264460328708
 40
1.0
 40
1.0
 40
1.0
 40
1.0
 10
7.569335097845701
 20
7.005931300148623
 30
0.0
 10
7.565735220053872
 20
7.00759897135161
 30
0.0
 10
7.560340582057592
 20
7.010098079087255
 30
0.0
 10
7.553751492160044
 20
7.011880882984399
 30
0.0
 10
7.550541855165855
 20
7.011837439318228
 30
0.0
 10
7.548840780732992
 20
7.011430507051033
 30
0.0
 10
7.548078497267259
 20
7.011066675858572
 30
0.0
 10
7.547697190568185
 20
7.010884681525424
 30
0.0
  0
ARC
  5
22B
330
1F
100
AcDbEntity
  8
0
  6
Continuous
 62
     7
370
     0
100
AcDbCircle
 10
7.5993250851
 20
7.0473431178
 30
0.0
 40
0.0511305972363745
100
AcDbArc
 50
234.0883534696
 51
285.6945926166
  0
ARC
  5
22C
330
1F
100
AcDbEntity
  8
0
  6
Continuous
 62
     7
370
     0
100
AcDbCircle
 10
6.7626832511
 20
6.4433861652
 30
0.0
 40
1.015397895162842
100
AcDbArc
 50
33.1149453668
 51
36.8639693916
  0
LINE
  5
22D
330
1F
100
AcDbEntity
  8
0
  6
Continuous
 62
     7
370
     0
100
AcDbLine
 10
7.5621966334
 20
7.0451123319
 30
0.0
 11
7.5750645993
 21
7.0525408505
 31
0.0
  0
ARC
  5
22E
330
1F
100
AcDbEntity
  8
0
  6
Continuous
 62
     7
370
     0
100
AcDbCircle
 10
6.756621495
 20
6.4408889766
 30
0.0
 40
1.006994124458067
100
AcDbArc
 50
34.9094571805
 51
36.8718094807
  0
LINE
  5
22F
330
1F
100
AcDbEntity
  8
0
  6
Continuous
 62
     7
370
     0
100
AcDbLine
 10
7.2085387032
 20
7.3800547202
 30
0.0
 11
7.2223364687
 21
7.3880200006
 31
0.0
  0
ARC
  5
230
330
1F
100
AcDbEntity
  8
0
  6
Continuous
 62
     7
370
     0
100
AcDbCircle
 10
7.1157609661
 20
7.5363182217
 30
0.0
 40
0.1817305434658692
100
AcDbArc
 50
295.1681579184
 51
300.6987149177
  0
ARC
  5
231
330
1F
100
AcDbEntity
  8
0
  6
Continuous
 62
     7
370
     0
100
AcDbCircle
 10
7.1766085048
 20
7.4065938868
 30
0.0
 40
0.0384448818980902
100
AcDbArc
 50
284.9934784372
 51
295.3139209855
  0
SPLINE
  5
232
330
1F
100
AcDbEntity
  8
0
  6
Continuous
 62
     7
370
     0
100
AcDbSpline
210
0.0
220
0.0
230
1.0
 70
    24
 71
     1
 72
     4
 73
     2
 74
     0
 42
0.00000001
 43
0.00000001
 40
0.0
 40
0.0
 40
1.0
 40
1.0
 10
7.184119782837167
 20
7.369232391499755
 30
0.0
 10
7.186554545525551
 20
7.369457850186557
 30
0.0
  0
SPLINE
  5
233
330
1F
100
AcDbEntity
  8
0
  6
Continuous
 62
     7
370
     0
100
AcDbSpline
210
0.0
220
0.0
230
1.0
 70
    24
 71
     1
 72
     4
 73
     2
 74
     0
 42
0.00000001
 43
0.00000001
 40
0.0
 40
0.0
 40
1.0
 40
1.0
 10
7.168957103512009
 20
7.361695673572703
 30
0.0
 10
7.184119782837167
 20
7.369232391499755
 30
0.0
  0
ARC
  5
234
330
1F
100
AcDbEntity
  8
0
  6
Continuous
 62
     7
370
     0
100
AcDbCircle
 10
7.1702709769
 20
7.3693664643
 30
0.0
 40
0.0077824992324839
100
AcDbArc
 50
260.2805437457
 51
290.2226284759
  0
ARC
  5
235
330
1F
100
AcDbEntity
  8
0
  6
Continuous
 62
     7
370
     0
100
AcDbCircle
 10
7.1511192752
 20
7.4403966653
 30
0.0
 40
0.0813210914394426
100
AcDbArc
 50
285.5802617068
 51
297.6246096059
  0
LINE
  5
236
330
1F
100
AcDbEntity
  8
0
  6
Continuous
 62
     7
370
     0
100
AcDbLine
 10
7.1820877884
 20
7.3644559455
 30
0.0
 11
7.1888259651
 21
7.3683458121
 31
0.0
  0
ARC
  5
237
330
1F
100
AcDbEntity
  8
0
  6
Continuous
 62
     7
370
     0
100
AcDbCircle
 10
7.2276803314
 20
7.1433151317
 30
0.0
 40
0.2257918056652772
100
AcDbArc
 50
98.4645224345
 51
101.649429327
  0
LINE
  5
238
330
1F
100
AcDbEntity
  8
0
  6
Continuous
 62
     7
370
     0
100
AcDbLine
 10
7.2355852168
 20
7.390397486
 30
0.0
 11
7.1944444587
 21
7.3666474318
 31
0.0
  0
ARC
  5
239
330
1F
100
AcDbEntity
  8
0
  6
Continuous
 62
     7
370
     0
100
AcDbCircle
 10
7.2687690081
 20
7.1673742089
 30
0.0
 40
0.225478482565297
100
AcDbArc
 50
98.4629909349
 51
101.8838822782
  0
LINE
  5
23A
330
1F
100
AcDbEntity
  8
0
  6
Continuous
 62
     7
370
     0
100
AcDbLine
 10
7.2031965772
 20
7.3677822177
 30
0.0
 11
7.2443373354
 21
7.3915322719
 31
0.0
  0
ARC
  5
23B
330
1F
100
AcDbEntity
  8
0
  6
Continuous
 62
     7
370
     0
100
AcDbCircle
 10
7.2298660052
 20
7.1261296679
 30
0.0
 40
0.2431197507407562
100
AcDbArc
 50
93.06101022
 51
96.297830427
  0
LINE
  5
23C
330
1F
100
AcDbEntity
  8
0
  6
Continuous
 62
     7
370
     0
100
AcDbLine
 10
7.2580243397
 20
7.3926525992
 30
0.0
 11
7.2168835816
 21
7.3689025451
 31
0.0
  0
ARC
  5
23D
330
1F
100
AcDbEntity
  8
0
  6
Continuous
 62
     7
370
     0
100
AcDbCircle
 10
7.2710067633
 20
7.1498797221
 30
0.0
 40
0.2431197507414233
100
AcDbArc
 50
93.06101022
 51
96.297830427
  0
LINE
  5
23E
330
1F
100
AcDbEntity
  8
0
  6
Continuous
 62
     7
370
     0
100
AcDbLine
 10
7.3219956791
 20
7.371925921
 30
0.0
 11
7.3430711344
 21
7.3840925224
 31
0.0
  0
ARC
  5
23F
330
1F
100
AcDbEntity
  8
0
  6
Continuous
 62
     7
370
     0
100
AcDbCircle
 10
7.2403460567
 20
7.0342617268
 30
0.0
 40
0.3473956949434716
100
AcDbArc
 50
76.4064031346
 51
77.9617405153
  0
ARC
  5
240
330
1F
100
AcDbEntity
  8
0
  6
Continuous
 62
     7
370
     0
100
AcDbCircle
 10
7.3027456884
 20
7.3212255147
 30
0.0
 40
0.0537411766658407
100
AcDbArc
 50
79.2165060324
 51
121.4725764438
  0
SPLINE
  5
241
330
1F
100
AcDbEntity
  8
0
  6
Continuous
 62
     7
370
     0
100
AcDbSpline
210
0.0
220
0.0
230
1.0
 70
     8
 71
     3
 72
    13
 73
     9
 74
     0
 42
0.00000001
 43
0.00000001
 40
0.0
 40
0.0
 40
0.0
 40
0.0
 40
0.2501206955155225
 40
0.3808254451854563
 40
0.5003377339302684
 40
0.6236969560649499
 40
0.7504281227974295
 40
1.0
 40
1.0
 40
1.0
 40
1.0
 10
7.275229094394029
 20
7.3537841550503
 30
0.0
 10
7.273007967223566
 20
7.354326566981984
 30
0.0
 10
7.269626152928825
 20
7.355152425333814
 30
0.0
 10
7.266909084436486
 20
7.356911555623359
 30
0.0
 10
7.266025172740894
 20
7.358578066473637
 30
0.0
 10
7.266519421165676
 20
7.36053488985617
 30
0.0
 10
7.268879662568421
 20
7.363423593376552
 30
0.0
 10
7.272371847344148
 20
7.365610460202143
 30
0.0
 10
7.274687935731058
 20
7.36706083502013
 30
0.0
  0
ARC
  5
242
330
1F
100
AcDbEntity
  8
0
  6
Continuous
 62
     7
370
     0
100
AcDbCircle
 10
7.2021204179
 20
7.002623544
 30
0.0
 40
0.3586901912985382
100
AcDbArc
 50
73.6171468751
 51
78.2394962355
  0
LINE
  5
243
330
1F
100
AcDbEntity
  8
0
  6
Continuous
 62
     7
370
     0
100
AcDbLine
 10
7.3600886696
 20
7.3795392078
 30
0.0
 11
7.3032905469
 21
7.3467503496
 31
0.0
  0
ARC
  5
244
330
1F
100
AcDbEntity
  8
0
  6
Continuous
 62
     7
370
     0
100
AcDbCircle
 10
7.2566879125
 20
7.0271670156
 30
0.0
 40
0.3672300075315735
100
AcDbArc
 50
73.6461023212
 51
76.3948661313
  0
LINE
  5
245
330
1F
100
AcDbEntity
  8
0
  6
Continuous
 62
     7
370
     0
100
AcDbLine
 10
7.5093895479
 20
7.2784581802
 30
0.0
 11
7.5291449176
 21
7.2898627124
 31
0.0
  0
ARC
  5
246
330
1F
100
AcDbEntity
  8
0
  6
Continuous
 62
     7
370
     0
100
AcDbCircle
 10
7.5005573195
 20
7.2894827108
 30
0.0
 40
0.0141261648925069
100
AcDbArc
 50
238.0034867939
 51
308.6997275509
  0
SPLINE
  5
247
330
1F
100
AcDbEntity
  8
0
  6
Continuous
 62
     7
370
     0
100
AcDbSpline
210
0.0
220
0.0
230
1.0
 70
     8
 71
     3
 72
    13
 73
     9
 74
     0
 42
0.00000001
 43
0.00000001
 40
0.0
 40
0.0
 40
0.0
 40
0.0
 40
0.2556326815361054
 40
0.382769030865855
 40
0.5009930149491538
 40
0.6250249963082243
 40
0.7509663452181913
 40
1.0
 40
1.0
 40
1.0
 40
1.0
 10
7.494754789236772
 20
7.285593732654491
 30
0.0
 10
7.493913815797605
 20
7.285065741401406
 30
0.0
 10
7.492654592656182
 20
7.284275158996077
 30
0.0
 10
7.491368713753752
 20
7.283028020362989
 30
0.0
 10
7.490738349130623
 20
7.281974428833389
 30
0.0
 10
7.490612420817544
 20
7.280812711895007
 30
0.0
 10
7.491116729521904
 20
7.279202675022971
 30
0.0
 10
7.492291870524621
 20
7.278181070426228
 30
0.0
 10
7.493072321637121
 20
7.277502588063498
 30
0.0
  0
LINE
  5
248
330
1F
100
AcDbEntity
  8
0
  6
Continuous
 62
     7
370
     0
100
AcDbLine
 10
7.5173799104
 20
7.2986549371
 30
0.0
 11
7.4947547892
 21
7.2855937327
 31
0.0
  0
ARC
  5
249
330
1F
100
AcDbEntity
  8
0
  6
Continuous
 62
     7
370
     0
100
AcDbCircle
 10
7.1257112785
 20
6.7628553358
 30
0.0
 40
0.6636908391710316
100
AcDbArc
 50
53.8332573717
 51
55.4987608703
  0
LINE
  5
24A
330
1F
100
AcDbEntity
  8
0
  6
Continuous
 62
     7
370
     0
100
AcDbLine
 10
7.4754925622
 20
7.2947166094
 30
0.0
 11
7.5016417383
 21
7.3098122074
 31
0.0
  0
SPLINE
  5
24B
330
1F
100
AcDbEntity
  8
0
  6
Continuous
 62
     7
370
     0
100
AcDbSpline
210
0.0
220
0.0
230
1.0
 70
     8
 71
     3
 72
    13
 73
     9
 74
     0
 42
0.00000001
 43
0.00000001
 40
0.0
 40
0.0
 40
0.0
 40
0.0
 40
0.2492945499287981
 40
0.3757665645125726
 40
0.4994575090413143
 40
0.6241755381082708
 40
0.7497536491744332
 40
1.0
 40
1.0
 40
1.0
 40
1.0
 10
7.473317430090263
 20
7.275818313729513
 30
0.0
 10
7.471477735084372
 20
7.277353864076331
 30
0.0
 10
7.46870472672012
 20
7.279668429230783
 30
0.0
 10
7.467139725738118
 20
7.283290299378435
 30
0.0
 10
7.46705707151898
 20
7.286018212748042
 30
0.0
 10
7.468108412406998
 20
7.288583447556265
 30
0.0
 10
7.470682565942058
 20
7.291661390693742
 30
0.0
 10
7.473569961749208
 20
7.293495409946131
 30
0.0
 10
7.475492562158164
 20
7.294716609393726
 30
0.0
  0
ARC
  5
24C
330
1F
100
AcDbEntity
  8
0
  6
Continuous
 62
     7
370
     0
100
AcDbCircle
 10
7.4938118251
 20
7.3039786275
 30
0.0
 40
0.0348284868824503
100
AcDbArc
 50
233.953778575
 51
269.1135904659
  0
LINE
  5
24D
330
1F
100
AcDbEntity
  8
0
  6
Continuous
 62
     7
370
     0
100
AcDbLine
 10
7.472346795
 20
7.2570738541
 30
0.0
 11
7.4932730232
 21
7.2691543086
 31
0.0
  0
ARC
  5
24E
330
1F
100
AcDbEntity
  8
0
  6
Continuous
 62
     7
370
     0
100
AcDbCircle
 10
7.0349929119
 20
6.6846606567
 30
0.0
 40
0.7203716315941341
100
AcDbArc
 50
51.0481719888
 51
52.6182637408
  0
LINE
  5
24F
330
1F
100
AcDbEntity
  8
0
  6
Continuous
 62
     7
370
     0
100
AcDbLine
 10
7.5446647454
 20
7.2776643752
 30
0.0
 11
7.4878666228
 21
7.2448755169
 31
0.0
  0
ARC
  5
250
330
1F
100
AcDbEntity
  8
0
  6
Continuous
 62
     7
370
     0
100
AcDbCircle
 10
7.0917910345
 20
6.7174495149
 30
0.0
 40
0.7203716316018067
100
AcDbArc
 50
51.0481719888
 51
52.6182637408
  0
ARC
  5
251
330
1F
100
AcDbEntity
  8
0
  6
Continuous
 62
     7
370
     0
100
AcDbCircle
 10
6.9301436578
 20
6.5623087488
 30
0.0
 40
0.898826575414131
100
AcDbArc
 50
42.7716610463
 51
43.2705588966
  0
LINE
  5
252
330
1F
100
AcDbEntity
  8
0
  6
Continuous
 62
     7
370
     0
100
AcDbLine
 10
7.6014434998
 20
7.1793223255
 30
0.0
 11
7.5899415356
 21
7.1726823829
 31
0.0
  0
ARC
  5
253
330
1F
100
AcDbEntity
  8
0
  6
Continuous
 62
     7
370
     0
100
AcDbCircle
 10
6.941645622
 20
6.5689486915
 30
0.0
 40
0.8988265753847913
100
AcDbArc
 50
42.7716610463
 51
43.2705588966
  0
LINE
  5
254
330
1F
100
AcDbEntity
  8
0
  6
Continuous
 62
     7
370
     0
100
AcDbLine
 10
7.6105902868
 20
7.1934071266
 30
0.0
 11
7.596103781
 21
7.1850442448
 31
0.0
  0
SPLINE
  5
255
330
1F
100
AcDbEntity
  8
0
  6
Continuous
 62
     7
370
     0
100
AcDbSpline
210
0.0
220
0.0
230
1.0
 70
     8
 71
     3
 72
    13
 73
     9
 74
     0
 42
0.00000001
 43
0.00000001
 40
0.0
 40
0.0
 40
0.0
 40
0.0
 40
0.250097938148384
 40
0.3777541129321192
 40
0.4995112558104954
 40
0.6243482411509585
 40
0.7495213959043753
 40
1.0
 40
1.0
 40
1.0
 40
1.0
 10
7.613544586334407
 20
7.21634094471994
 30
0.0
 10
7.615469433066391
 20
7.214288362312208
 30
0.0
 10
7.618376769189009
 20
7.2111880910649
 30
0.0
 10
7.620560918578636
 20
7.206434923503803
 30
0.0
 10
7.620569635135653
 20
7.202870642189481
 30
0.0
 10
7.619119289220226
 20
7.199800692018137
 30
0.0
 10
7.61577117997038
 20
7.196554667523538
 30
0.0
 10
7.612662862987147
 20
7.194666275967272
 30
0.0
 10
7.610590286776051
 20
7.193407126582616
 30
0.0
  0
SPLINE
  5
256
330
1F
100
AcDbEntity
  8
0
  6
Continuous
 62
     7
370
     0
100
AcDbSpline
210
0.0
220
0.0
230
1.0
 70
    24
 71
     1
 72
     4
 73
     2
 74
     0
 42
0.00000001
 43
0.00000001
 40
0.0
 40
0.0
 40
1.0
 40
1.0
 10
7.602010435408577
 20
7.225871798623178
 30
0.0
 10
7.613544586334407
 20
7.21634094471994
 30
0.0
  0
SPLINE
  5
257
330
1F
100
AcDbEntity
  8
0
  6
Continuous
 62
     7
370
     0
100
AcDbSpline
210
0.0
220
0.0
230
1.0
 70
    24
 71
     1
 72
     4
 73
     2
 74
     0
 42
0.00000001
 43
0.00000001
 40
0.0
 40
0.0
 40
1.0
 40
1.0
 10
7.592209916628009
 20
7.218505742572923
 30
0.0
 10
7.602010435408577
 20
7.225871798623178
 30
0.0
  0
SPLINE
  5
258
330
1F
100
AcDbEntity
  8
0
  6
Continuous
 62
     7
370
     0
100
AcDbSpline
210
0.0
220
0.0
230
1.0
 70
    24
 71
     1
 72
     4
 73
     2
 74
     0
 42
0.00000001
 43
0.00000001
 40
0.0
 40
0.0
 40
1.0
 40
1.0
 10
7.597818630085129
 20
7.214513807460423
 30
0.0
 10
7.592209916628009
 20
7.218505742572923
 30
0.0
  0
ARC
  5
259
330
1F
100
AcDbEntity
  8
0
  6
Continuous
 62
     7
370
     0
100
AcDbCircle
 10
7.595908162
 20
7.211928848
 30
0.0
 40
0.0032143278588591
100
AcDbArc
 50
346.8153897259
 51
53.5329750484
  0
SPLINE
  5
25A
330
1F
100
AcDbEntity
  8
0
  6
Continuous
 62
     7
370
     0
100
AcDbSpline
210
0.0
220
0.0
230
1.0
 70
     8
 71
     3
 72
     9
 73
     5
 74
     0
 42
0.00000001
 43
0.00000001
 40
0.0
 40
0.0
 40
0.0
 40
0.0
 40
0.5014428105295804
 40
0.9999999999999999
 40
0.9999999999999999
 40
0.9999999999999999
 40
0.9999999999999999
 10
7.596020886866483
 20
7.208702946678006
 30
0.0
 10
7.596620451040772
 20
7.209043534030209
 30
0.0
 10
7.597816129115518
 20
7.209722748778234
 30
0.0
 10
7.598631334394698
 20
7.210705657718239
 30
0.0
 10
7.599037760847525
 20
7.211195694036874
 30
0.0
  0
LINE
  5
25B
330
1F
100
AcDbEntity
  8
0
  6
Continuous
 62
     7
370
     0
100
AcDbLine
 10
7.581419591
 20
7.200273798
 30
0.0
 11
7.5960208869
 21
7.2087029467
 31
0.0
  0
ARC
  5
25C
330
1F
100
AcDbEntity
  8
0
  6
Continuous
 62
     7
370
     0
100
AcDbCircle
 10
6.9696122962
 20
6.5959824098
 30
0.0
 40
0.859928048026031
100
AcDbArc
 50
44.6458969556
 51
45.4135965628
  0
LINE
  5
25D
330
1F
100
AcDbEntity
  8
0
  6
Continuous
 62
     7
370
     0
100
AcDbLine
 10
7.5617661197
 20
7.2017769027
 30
0.0
 11
7.5732680839
 21
7.2084168453
 31
0.0
  0
ARC
  5
25E
330
1F
100
AcDbEntity
  8
0
  6
Continuous
 62
     7
370
     0
100
AcDbCircle
 10
6.958110332
 20
6.5893424672
 30
0.0
 40
0.8599280480060508
100
AcDbArc
 50
44.6458969556
 51
45.4135965628
  0
LINE
  5
25F
330
1F
100
AcDbEntity
  8
0
  6
Continuous
 62
     7
370
     0
100
AcDbLine
 10
7.5542602624
 20
7.1845950513
 30
0.0
 11
7.5699176268
 21
7.1936338554
 31
0.0
  0
SPLINE
  5
260
330
1F
100
AcDbEntity
  8
0
  6
Continuous
 62
     7
370
     0
100
AcDbSpline
210
0.0
220
0.0
230
1.0
 70
    24
 71
     1
 72
     4
 73
     2
 74
     0
 42
0.00000001
 43
0.00000001
 40
0.0
 40
0.0
 40
1.0
 40
1.0
 10
7.577048630694443
 20
7.174043940683704
 30
0.0
 10
7.554260262354199
 20
7.184595051298047
 30
0.0
  0
LINE
  5
261
330
1F
100
AcDbEntity
  8
0
  6
Continuous
 62
     7
370
     0
100
AcDbLine
 10
7.5846018168
 20
7.1784043022
 30
0.0
 11
7.5770486307
 21
7.1740439407
 31
0.0
  0
LINE
  5
262
330
1F
100
AcDbEntity
  8
0
  6
Continuous
 62
     7
370
     0
100
AcDbLine
 10
7.6818061728
 20
7.0519172454
 30
0.0
 11
7.7251164632
 21
7.0769197438
 31
0.0
  0
SPLINE
  5
263
330
1F
100
AcDbEntity
  8
0
  6
Continuous
 62
     7
370
     0
100
AcDbSpline
210
0.0
220
0.0
230
1.0
 70
    24
 71
     1
 72
     4
 73
     2
 74
     0
 42
0.00000001
 43
0.00000001
 40
0.0
 40
0.0
 40
1.0
 40
1.0
 10
7.71634894009501
 20
7.089798526673277
 30
0.0
 10
7.681806172827748
 20
7.051917245386149
 30
0.0
  0
ARC
  5
264
330
1F
100
AcDbEntity
  8
0
  6
Continuous
 62
     7
370
     0
100
AcDbCircle
 10
6.8824754215
 20
6.5127787516
 30
0.0
 40
1.014049735424306
100
AcDbArc
 50
34.6822725342
 51
35.7103208639
  0
SPLINE
  5
265
330
1F
100
AcDbEntity
  8
0
  6
Continuous
 62
     7
370
     0
100
AcDbSpline
210
0.0
220
0.0
230
1.0
 70
    24
 71
     1
 72
     4
 73
     2
 74
     0
 42
0.00000001
 43
0.00000001
 40
0.0
 40
0.0
 40
1.0
 40
1.0
 10
7.653376437110468
 20
7.09222177807059
 30
0.0
 10
7.705861901777544
 20
7.104666891316469
 30
0.0
  0
LINE
  5
266
330
1F
100
AcDbEntity
  8
0
  6
Continuous
 62
     7
370
     0
100
AcDbLine
 10
7.6966867275
 20
7.1172242765
 30
0.0
 11
7.6533764371
 21
7.0922217781
 31
0.0
  0
ARC
  5
267
330
1F
100
AcDbEntity
  8
0
  6
Continuous
 62
     7
370
     0
100
AcDbCircle
 10
6.900014177
 20
6.5256258317
 30
0.0
 40
0.9923083555887119
100
AcDbArc
 50
36.5970886394
 51
37.7499358708
  0
LINE
  5
268
330
1F
100
AcDbEntity
  8
0
  6
Continuous
 62
     7
370
     0
100
AcDbLine
 10
7.627824605
 20
7.1003444177
 30
0.0
 11
7.6846227277
 21
7.1331332759
 31
0.0
  0
ARC
  5
269
330
1F
100
AcDbEntity
  8
0
  6
Continuous
 62
     7
370
     0
100
AcDbCircle
 10
6.839892033
 20
6.4903093187
 30
0.0
 40
0.9964840992293363
100
AcDbArc
 50
35.9024039434
 51
37.7478413112
  0
SPLINE
  5
26A
330
1F
100
AcDbEntity
  8
0
  6
Continuous
 62
     7
370
     0
100
AcDbSpline
210
0.0
220
0.0
230
1.0
 70
    24
 71
     1
 72
     4
 73
     2
 74
     0
 42
0.00000001
 43
0.00000001
 40
0.0
 40
0.0
 40
1.0
 40
1.0
 10
7.688853350696224
 20
7.084492042864187
 30
0.0
 10
7.647061130940041
 20
7.074653915119997
 30
0.0
  0
SPLINE
  5
26B
330
1F
100
AcDbEntity
  8
0
  6
Continuous
 62
     7
370
     0
100
AcDbSpline
210
0.0
220
0.0
230
1.0
 70
    24
 71
     1
 72
     4
 73
     2
 74
     0
 42
0.00000001
 43
0.00000001
 40
0.0
 40
0.0
 40
1.0
 40
1.0
 10
7.661437224491145
 20
7.054274111392427
 30
0.0
 10
7.688853350696224
 20
7.084492042864187
 30
0.0
  0
ARC
  5
26C
330
1F
100
AcDbEntity
  8
0
  6
Continuous
 62
     7
370
     0
100
AcDbCircle
 10
6.8150636011
 20
6.4726983595
 30
0.0
 40
1.02692680631399
100
AcDbArc
 50
32.679353633
 51
34.494449043
  0
LINE
  5
26D
330
1F
100
AcDbEntity
  8
0
  6
Continuous
 62
     7
370
     0
100
AcDbLine
 10
7.7362315634
 20
7.0599630475
 30
0.0
 11
7.6794334408
 21
7.0271741893
 31
0.0
  0
ARC
  5
26E
330
1F
100
AcDbEntity
  8
0
  6
Continuous
 62
     7
370
     0
100
AcDbCircle
 10
6.8699643261
 20
6.5042469156
 30
0.0
 40
1.029193541416357
100
AcDbArc
 50
32.6804388623
 51
33.8091768375
  0
LINE
  5
26F
330
1F
100
AcDbEntity
  8
0
  6
Continuous
 62
     7
370
     0
100
AcDbLine
 10
7.7821719343
 20
6.9402562093
 30
0.0
 11
7.7979785258
 21
6.9493811604
 31
0.0
  0
ARC
  5
270
330
1F
100
AcDbEntity
  8
0
  6
Continuous
 62
     7
370
     0
100
AcDbCircle
 10
6.8665283431
 20
6.5002868919
 30
0.0
 40
1.015862287038384
100
AcDbArc
 50
24.3304611424
 51
25.6644154235
  0
LINE
  5
271
330
1F
100
AcDbEntity
  8
0
  6
Continuous
 62
     7
370
     0
100
AcDbLine
 10
7.80797277
 20
6.9279459324
 30
0.0
 11
7.7921661785
 21
6.9188209813
 31
0.0
  0
ARC
  5
272
330
1F
100
AcDbEntity
  8
0
  6
Continuous
 62
     7
370
     0
100
AcDbCircle
 10
6.8823349347
 20
6.509411843
 30
0.0
 40
1.015862287037962
100
AcDbArc
 50
24.3304611424
 51
25.6644154235
  0
LINE
  5
273
330
1F
100
AcDbEntity
  8
0
  6
Continuous
 62
     7
370
     0
100
AcDbLine
 10
7.8243430077
 20
6.8384598241
 30
0.0
 11
7.8401495992
 21
6.8475847752
 31
0.0
  0
ARC
  5
274
330
1F
100
AcDbEntity
  8
0
  6
Continuous
 62
     7
370
     0
100
AcDbCircle
 10
6.9488777972
 20
6.5326337865
 30
0.0
 40
0.9273450814227571
100
AcDbArc
 50
17.8382797459
 51
19.2558271712
  0
LINE
  5
275
330
1F
100
AcDbEntity
  8
0
  6
Continuous
 62
     7
370
     0
100
AcDbLine
 10
7.8474473024
 20
6.825833619
 30
0.0
 11
7.8316407109
 21
6.816708668
 31
0.0
  0
ARC
  5
276
330
1F
100
AcDbEntity
  8
0
  6
Continuous
 62
     7
370
     0
100
AcDbCircle
 10
6.9646843887
 20
6.5417587376
 30
0.0
 40
0.9273450814292314
100
AcDbArc
 50
17.8382797459
 51
19.2558271712
  0
LINE
  5
277
330
1F
100
AcDbEntity
  8
0
  6
Continuous
 62
     7
370
     0
100
AcDbLine
 10
7.4363125968
 20
7.4425715033
 30
0.0
 11
7.4560679665
 21
7.4539760355
 31
0.0
  0
ARC
  5
278
330
1F
100
AcDbEntity
  8
0
  6
Continuous
 62
     7
370
     0
100
AcDbCircle
 10
7.4223191408
 20
7.461918985
 30
0.0
 40
0.0238776434973131
100
AcDbArc
 50
264.9477404712
 51
305.8770930973
  0
SPLINE
  5
279
330
1F
100
AcDbEntity
  8
0
  6
Continuous
 62
     7
370
     0
100
AcDbSpline
210
0.0
220
0.0
230
1.0
 70
     8
 71
     3
 72
    13
 73
     9
 74
     0
 42
0.00000001
 43
0.00000001
 40
0.0
 40
0.0
 40
0.0
 40
0.0
 40
0.2556326815381829
 40
0.382769030865817
 40
0.5009930149489464
 40
0.6250249963089105
 40
0.7509663452182427
 40
0.9999999999999999
 40
0.9999999999999999
 40
0.9999999999999999
 40
0.9999999999999999
 10
7.422121274844113
 20
7.44324907331489
 30
0.0
 10
7.421278865388704
 20
7.442738990710425
 30
0.0
 10
7.420017492042779
 20
7.441975223640432
 30
0.0
 10
7.418714749415393
 20
7.440940519803823
 30
0.0
 10
7.418061568408965
 20
7.440176871383196
 30
0.0
 10
7.417900310502379
 20
7.439472070441156
 30
0.0
 10
7.418344327748786
 20
7.438657903325623
 30
0.0
 10
7.419469263702045
 20
7.438343149726369
 30
0.0
 10
7.420216371933466
 20
7.438134111154714
 30
0.0
  0
LINE
  5
27A
330
1F
100
AcDbEntity
  8
0
  6
Continuous
 62
     7
370
     0
100
AcDbLine
 10
7.444746396
 20
7.4563102778
 30
0.0
 11
7.4221212748
 21
7.4432490733
 31
0.0
  0
ARC
  5
27B
330
1F
100
AcDbEntity
  8
0
  6
Continuous
 62
     7
370
     0
100
AcDbCircle
 10
7.38563098
 20
7.1426953572
 30
0.0
 40
0.319137824221881
100
AcDbArc
 50
79.3251806829
 51
82.0388013472
  0
LINE
  5
27C
330
1F
100
AcDbEntity
  8
0
  6
Continuous
 62
     7
370
     0
100
AcDbLine
 10
7.4036831739
 20
7.4436617621
 30
0.0
 11
7.42983235
 21
7.4587573601
 31
0.0
  0
SPLINE
  5
27D
330
1F
100
AcDbEntity
  8
0
  6
Continuous
 62
     7
370
     0
100
AcDbSpline
210
0.0
220
0.0
230
1.0
 70
     8
 71
     3
 72
    13
 73
     9
 74
     0
 42
0.00000001
 43
0.00000001
 40
0.0
 40
0.0
 40
0.0
 40
0.0
 40
0.249382799417483
 40
0.3744361297780016
 40
0.4994378368474299
 40
0.6245077693644107
 40
0.7497582852968295
 40
1.0
 40
1.0
 40
1.0
 40
1.0
 10
7.400882287895515
 20
7.432355926018973
 30
0.0
 10
7.399117716587837
 20
7.432783447410942
 30
0.0
 10
7.396468298694112
 20
7.433425349963084
 30
0.0
 10
7.395063317937765
 20
7.435089275073879
 30
0.0
 10
7.395033745998229
 20
7.436602642734807
 30
0.0
 10
7.396175193437872
 20
7.43832610052426
 30
0.0
 10
7.39883904228664
 20
7.440716803119156
 30
0.0
 10
7.401745922764024
 20
7.442484022599793
 30
0.0
 10
7.403683173912648
 20
7.443661762102799
 30
0.0
  0
ARC
  5
27E
330
1F
100
AcDbEntity
  8
0
  6
Continuous
 62
     7
370
     0
100
AcDbCircle
 10
7.4084915546
 20
7.4807066769
 30
0.0
 40
0.0489458481472868
100
AcDbArc
 50
261.0563523127
 51
286.8436324794
  0
LINE
  5
27F
330
1F
100
AcDbEntity
  8
0
  6
Continuous
 62
     7
370
     0
100
AcDbLine
 10
7.4159704002
 20
7.4299906625
 30
0.0
 11
7.4226741398
 21
7.433860649
 31
0.0
  0
ARC
  5
280
330
1F
100
AcDbEntity
  8
0
  6
Continuous
 62
     7
370
     0
100
AcDbCircle
 10
7.3366272111
 20
7.0810936255
 30
0.0
 40
0.3578050923153733
100
AcDbArc
 50
74.8578037926
 51
77.1881750673
  0
LINE
  5
281
330
1F
100
AcDbEntity
  8
0
  6
Continuous
 62
     7
370
     0
100
AcDbLine
 10
7.4712321955
 20
7.4502259643
 30
0.0
 11
7.4300914374
 21
7.4264759101
 31
0.0
  0
ARC
  5
282
330
1F
100
AcDbEntity
  8
0
  6
Continuous
 62
     7
370
     0
100
AcDbCircle
 10
7.3779646062
 20
7.1056131339
 30
0.0
 40
0.3570109887287967
100
AcDbArc
 50
74.8560089665
 51
77.3631896381
  0
ARC
  5
283
330
1F
100
AcDbEntity
  8
0
  6
Continuous
 62
     7
370
     0
100
AcDbCircle
 10
7.5339112962
 20
7.3703965356
 30
0.0
 40
0.0525022818941438
100
AcDbArc
 50
66.1893119647
 51
127.1994012694
  0
SPLINE
  5
284
330
1F
100
AcDbEntity
  8
0
  6
Continuous
 62
     7
370
     0
100
AcDbSpline
210
0.0
220
0.0
230
1.0
 70
    24
 71
     1
 72
     4
 73
     2
 74
     0
 42
0.00000001
 43
0.00000001
 40
0.0
 40
0.0
 40
1.0
 40
1.0
 10
7.490507283439794
 20
7.403864487679241
 30
0.0
 10
7.502168900095626
 20
7.412216505618908
 30
0.0
  0
SPLINE
  5
285
330
1F
100
AcDbEntity
  8
0
  6
Continuous
 62
     7
370
     0
100
AcDbSpline
210
0.0
220
0.0
230
1.0
 70
     8
 71
     3
 72
    12
 73
     8
 74
     0
 42
0.00000001
 43
0.00000001
 40
0.0
 40
0.0
 40
0.0
 40
0.0
 40
0.2503262674180359
 40
0.4997345046006524
 40
0.6249000363599448
 40
0.7501600021982638
 40
1.0
 40
1.0
 40
1.0
 40
1.0
 10
7.495956801994181
 20
7.384742256885216
 30
0.0
 10
7.493638421115427
 20
7.385998698454006
 30
0.0
 10
7.489010161636826
 20
7.388506973799681
 30
0.0
 10
7.485819803133147
 20
7.392633931642788
 30
0.0
 10
7.48555875778799
 20
7.396156036578102
 30
0.0
 10
7.486446913020337
 20
7.399723497953755
 30
0.0
 10
7.488884018807571
 20
7.402208992867346
 30
0.0
 10
7.490507283439794
 20
7.403864487679241
 30
0.0
  0
ARC
  5
286
330
1F
100
AcDbEntity
  8
0
  6
Continuous
 62
     7
370
     0
100
AcDbCircle
 10
7.518833558
 20
7.4309192388
 30
0.0
 40
0.051533092526896
100
AcDbArc
 50
243.6455083786
 51
305.3685820851
  0
SPLINE
  5
287
330
1F
100
AcDbEntity
  8
0
  6
Continuous
 62
     7
370
     0
100
AcDbSpline
210
0.0
220
0.0
230
1.0
 70
     8
 71
     3
 72
     9
 73
     5
 74
     0
 42
0.00000001
 43
0.00000001
 40
0.0
 40
0.0
 40
0.0
 40
0.0
 40
0.498709290677206
 40
0.9999999999999999
 40
0.9999999999999999
 40
0.9999999999999999
 40
0.9999999999999999
 10
7.56492875181679
 20
7.403236413548147
 30
0.0
 10
7.563013880300156
 20
7.400566869139435
 30
0.0
 10
7.559174225510422
 20
7.395213962228305
 30
0.0
 10
7.552172546535236
 20
7.391006154580726
 30
0.0
 10
7.548662669915315
 20
7.388896819700377
 30
0.0
  0
SPLINE
  5
288
330
1F
100
AcDbEntity
  8
0
  6
Continuous
 62
     7
370
     0
100
AcDbSpline
210
0.0
220
0.0
230
1.0
 70
     8
 71
     3
 72
    11
 73
     7
 74
     0
 42
0.00000001
 43
0.00000001
 40
0.0
 40
0.0
 40
0.0
 40
0.0
 40
0.2504031889031613
 40
0.5003824607867552
 40
0.7500984159891426
 40
1.0
 40
1.0
 40
1.0
 40
1.0
 10
7.555107305762419
 20
7.418430052926612
 30
0.0
 10
7.556868676327793
 20
7.417463920384536
 30
0.0
 10
7.560388435567758
 20
7.41553329090267
 30
0.0
 10
7.564303147043003
 20
7.411888024693983
 30
0.0
 10
7.566041035620621
 20
7.407603612923262
 30
0.0
 10
7.565299604908906
 20
7.404692507205687
 30
0.0
 10
7.56492875181679
 20
7.403236413548147
 30
0.0
  0
LINE
  5
289
330
1F
100
AcDbEntity
  8
0
  6
Continuous
 62
     7
370
     0
100
AcDbLine
 10
7.6082453806
 20
7.3524934057
 30
0.0
 11
7.6204590432
 21
7.359544203
 31
0.0
  0
ARC
  5
28A
330
1F
100
AcDbEntity
  8
0
  6
Continuous
 62
     7
370
     0
100
AcDbCircle
 10
7.1954593075
 20
6.7856452246
 30
0.0
 40
0.701219796222878
100
AcDbArc
 50
51.6128989572
 51
53.9374154264
  0
LINE
  5
28B
330
1F
100
AcDbEntity
  8
0
  6
Continuous
 62
     7
370
     0
100
AcDbLine
 10
7.6431103611
 20
7.342335432
 30
0.0
 11
7.6308966985
 21
7.3352846347
 31
0.0
  0
ARC
  5
28C
330
1F
100
AcDbEntity
  8
0
  6
Continuous
 62
     7
370
     0
100
AcDbCircle
 10
7.2076729701
 20
6.7926960219
 30
0.0
 40
0.7012197962300973
100
AcDbArc
 50
51.6128989572
 51
53.9374154263
  0
ARC
  5
28D
330
1F
100
AcDbEntity
  8
0
  6
Continuous
 62
     7
370
     0
100
AcDbCircle
 10
7.7082647131
 20
7.2552469462
 30
0.0
 40
0.0379637245699045
100
AcDbArc
 50
41.8933746539
 51
128.0157691013
  0
SPLINE
  5
28E
330
1F
100
AcDbEntity
  8
0
  6
Continuous
 62
     7
370
     0
100
AcDbSpline
210
0.0
220
0.0
230
1.0
 70
    24
 71
     1
 72
     4
 73
     2
 74
     0
 42
0.00000001
 43
0.00000001
 40
0.0
 40
0.0
 40
1.0
 40
1.0
 10
7.673150483757212
 20
7.276052288301475
 30
0.0
 10
7.684883677767592
 20
7.28515633554502
 30
0.0
  0
SPLINE
  5
28F
330
1F
100
AcDbEntity
  8
0
  6
Continuous
 62
     7
370
     0
100
AcDbSpline
210
0.0
220
0.0
230
1.0
 70
     8
 71
     3
 72
    12
 73
     8
 74
     0
 42
0.00000001
 43
0.00000001
 40
0.0
 40
0.0
 40
0.0
 40
0.0
 40
0.2503262674180394
 40
0.4997345046006484
 40
0.624900036359945
 40
0.7501600021982597
 40
1.0
 40
1.0
 40
1.0
 40
1.0
 10
7.677402586020704
 20
7.247102516597038
 30
0.0
 10
7.675241299660795
 20
7.249462134493766
 30
0.0
 10
7.670926653101692
 20
7.254172716778361
 30
0.0
 10
7.66805285085531
 20
7.260944336756998
 30
0.0
 10
7.667975286624772
 20
7.266120847844624
 30
0.0
 10
7.669009332951585
 20
7.271080357824448
 30
0.0
 10
7.671494924548312
 20
7.274064598001458
 30
0.0
 10
7.673150483757212
 20
7.276052288301475
 30
0.0
  0
ARC
  5
290
330
1F
100
AcDbEntity
  8
0
  6
Continuous
 62
     7
370
     0
100
AcDbCircle
 10
7.7061873002
 20
7.2707973828
 30
0.0
 40
0.0372827903742589
100
AcDbArc
 50
219.4603685071
 51
306.2731096416
  0
SPLINE
  5
291
330
1F
100
AcDbEntity
  8
0
  6
Continuous
 62
     7
370
     0
100
AcDbSpline
210
0.0
220
0.0
230
1.0
 70
     8
 71
     3
 72
     9
 73
     5
 74
     0
 42
0.00000001
 43
0.00000001
 40
0.0
 40
0.0
 40
0.0
 40
0.0
 40
0.4987092906772064
 40
1.0
 40
1.0
 40
1.0
 40
1.0
 10
7.744895779770335
 20
7.256980513646803
 30
0.0
 10
7.742859957510619
 20
7.253708753273217
 30
0.0
 10
7.738777775169579
 20
7.247148297242522
 30
0.0
 10
7.731762027991529
 20
7.242879620182191
 30
0.0
 10
7.728245099112216
 20
7.240739772030747
 30
0.0
  0
ARC
  5
292
330
1F
100
AcDbEntity
  8
0
  6
Continuous
 62
     7
370
     0
100
AcDbCircle
 10
7.7223551928
 20
7.2622825819
 30
0.0
 40
0.0231557765234511
100
AcDbArc
 50
346.7633320749
 51
52.2721408424
  0
ARC
  5
293
330
1F
100
AcDbEntity
  8
0
  6
Continuous
 62
     7
370
     0
100
AcDbCircle
 10
6.9619627513
 20
6.5571096032
 30
0.0
 40
1.033583561115287
100
AcDbArc
 50
32.3692388256
 51
32.4905076338
  0
ARC
  5
294
330
1F
100
AcDbEntity
  8
0
  6
Continuous
 62
     7
370
     0
100
AcDbCircle
 10
7.8438445113
 20
7.1189302966
 30
0.0
 40
0.012055240962339
100
AcDbArc
 50
183.5424116552
 51
213.314079796
  0
SPLINE
  5
295
330
1F
100
AcDbEntity
  8
0
  6
Continuous
 62
     7
370
     0
100
AcDbSpline
210
0.0
220
0.0
230
1.0
 70
    24
 71
     1
 72
     4
 73
     2
 74
     0
 42
0.00000001
 43
0.00000001
 40
0.0
 40
0.0
 40
1.0
 40
1.0
 10
7.833746323118015
 20
7.124473545138286
 30
0.0
 10
7.831812303836677
 20
7.118185435020844
 30
0.0
  0
SPLINE
  5
296
330
1F
100
AcDbEntity
  8
0
  6
Continuous
 62
     7
370
     0
100
AcDbSpline
210
0.0
220
0.0
230
1.0
 70
    24
 71
     1
 72
     4
 73
     2
 74
     0
 42
0.00000001
 43
0.00000001
 40
0.0
 40
0.0
 40
1.0
 40
1.0
 10
7.843828322060855
 20
7.145506504011752
 30
0.0
 10
7.833746323118015
 20
7.124473545138286
 30
0.0
  0
ARC
  5
297
330
1F
100
AcDbEntity
  8
0
  6
Continuous
 62
     7
370
     0
100
AcDbCircle
 10
6.9968625051
 20
6.5782788163
 30
0.0
 40
1.019361734064024
100
AcDbArc
 50
33.810905861
 51
35.3775124643
  0
SPLINE
  5
298
330
1F
100
AcDbEntity
  8
0
  6
Continuous
 62
     7
370
     0
100
AcDbSpline
210
0.0
220
0.0
230
1.0
 70
    24
 71
     1
 72
     4
 73
     2
 74
     0
 42
0.00000001
 43
0.00000001
 40
0.0
 40
0.0
 40
1.0
 40
1.0
 10
7.818379049543218
 20
7.149200310292449
 30
0.0
 10
7.828004283589688
 20
7.168449714309383
 30
0.0
  0
SPLINE
  5
299
330
1F
100
AcDbEntity
  8
0
  6
Continuous
 62
     7
370
     0
100
AcDbSpline
210
0.0
220
0.0
230
1.0
 70
    24
 71
     1
 72
     4
 73
     2
 74
     0
 42
0.00000001
 43
0.00000001
 40
0.0
 40
0.0
 40
1.0
 40
1.0
 10
7.816065071109588
 20
7.139339655830796
 30
0.0
 10
7.818379049543218
 20
7.149200310292449
 30
0.0
  0
SPLINE
  5
29A
330
1F
100
AcDbEntity
  8
0
  6
Continuous
 62
     7
370
     0
100
AcDbSpline
210
0.0
220
0.0
230
1.0
 70
    24
 71
     1
 72
     4
 73
     2
 74
     0
 42
0.00000001
 43
0.00000001
 40
0.0
 40
0.0
 40
1.0
 40
1.0
 10
7.817569286112006
 20
7.132804924193555
 30
0.0
 10
7.816065071109588
 20
7.139339655830796
 30
0.0
  0
SPLINE
  5
29B
330
1F
100
AcDbEntity
  8
0
  6
Continuous
 62
     7
370
     0
100
AcDbSpline
210
0.0
220
0.0
230
1.0
 70
    24
 71
     1
 72
     4
 73
     2
 74
     0
 42
0.00000001
 43
0.00000001
 40
0.0
 40
0.0
 40
1.0
 40
1.0
 10
7.810459925507225
 20
7.138686980438596
 30
0.0
 10
7.817569286112006
 20
7.132804924193555
 30
0.0
  0
ARC
  5
29C
330
1F
100
AcDbEntity
  8
0
  6
Continuous
 62
     7
370
     0
100
AcDbCircle
 10
7.7998921594
 20
7.1221528206
 30
0.0
 40
0.0196228469820578
100
AcDbArc
 50
57.4154238245
 51
117.9332384996
  0
SPLINE
  5
29D
330
1F
100
AcDbEntity
  8
0
  6
Continuous
 62
     7
370
     0
100
AcDbSpline
210
0.0
220
0.0
230
1.0
 70
     8
 71
     3
 72
    14
 73
    10
 74
     0
 42
0.00000001
 43
0.00000001
 40
0.0
 40
0.0
 40
0.0
 40
0.0
 40
0.2503817225611472
 40
0.3755492991303457
 40
0.5004182237810765
 40
0.6251583274702549
 40
0.749916726443653
 40
0.8736417210982277
 40
0.9999999999999999
 40
0.9999999999999999
 40
0.9999999999999999
 40
0.9999999999999999
 10
7.792302844368872
 20
7.104765521063337
 30
0.0
 10
7.790338748286215
 20
7.107844924974519
 30
0.0
 10
7.787392786816977
 20
7.112463744466429
 30
0.0
 10
7.784244232033357
 20
7.118940047122189
 30
0.0
 10
7.782766678450018
 20
7.124008413632482
 30
0.0
 10
7.78282973896434
 20
7.128971519983052
 30
0.0
 10
7.78428257062018
 20
7.133372337086327
 30
0.0
 10
7.786946989667146
 20
7.137017123523774
 30
0.0
 10
7.789440235789983
 20
7.138659602028977
 30
0.0
 10
7.790699985330526
 20
7.139489488626747
 30
0.0
  0
ARC
  5
29E
330
1F
100
AcDbEntity
  8
0
  6
Continuous
 62
     7
370
     0
100
AcDbCircle
 10
6.9273519547
 20
6.5370633759
 30
0.0
 40
1.034613825102806
100
AcDbArc
 50
30.9913130763
 51
33.2785050717
  0
LINE
  5
29F
330
1F
100
AcDbEntity
  8
0
  6
Continuous
 62
     7
370
     0
100
AcDbLine
 10
7.8710679975
 20
7.1025832826
 30
0.0
 11
7.8142698749
 21
7.0697944244
 31
0.0
  0
ARC
  5
2A0
330
1F
100
AcDbEntity
  8
0
  6
Continuous
 62
     7
370
     0
100
AcDbCircle
 10
6.9826256192
 20
6.5689141183
 30
0.0
 40
1.036403703492081
100
AcDbArc
 50
30.9923767065
 51
32.3687183147
  0
LINE
  5
2A1
330
1F
100
AcDbEntity
  8
0
  6
Continuous
 62
     7
370
     0
100
AcDbLine
 10
7.8349434275
 20
7.1104627607
 30
0.0
 11
7.8579932719
 21
7.1237691527
 31
0.0
  0
SPLINE
  5
2A2
330
1F
100
AcDbEntity
  8
0
  6
Continuous
 62
     7
370
     0
100
AcDbSpline
210
0.0
220
0.0
230
1.0
 70
    24
 71
     1
 72
     4
 73
     2
 74
     0
 42
0.00000001
 43
0.00000001
 40
0.0
 40
0.0
 40
1.0
 40
1.0
 10
7.926202393946649
 20
6.995441093496368
 30
0.0
 10
7.931453223165169
 20
6.985841303846976
 30
0.0
  0
SPLINE
  5
2A3
330
1F
100
AcDbEntity
  8
0
  6
Continuous
 62
     7
370
     0
100
AcDbSpline
210
0.0
220
0.0
230
1.0
 70
    24
 71
     1
 72
     4
 73
     2
 74
     0
 42
0.00000001
 43
0.00000001
 40
0.0
 40
0.0
 40
1.0
 40
1.0
 10
7.920457812795778
 20
7.002870117683886
 30
0.0
 10
7.926202393946649
 20
6.995441093496368
 30
0.0
  0
ARC
  5
2A4
330
1F
100
AcDbEntity
  8
0
  6
Continuous
 62
     7
370
     0
100
AcDbCircle
 10
7.910028834
 20
6.9909634778
 30
0.0
 40
0.0158281922916014
100
AcDbArc
 50
48.7850103541
 51
118.9153135517
  0
ARC
  5
2A5
330
1F
100
AcDbEntity
  8
0
  6
Continuous
 62
     7
370
     0
100
AcDbCircle
 10
7.9128756931
 20
6.9889531606
 30
0.0
 40
0.0190252083697014
100
AcDbArc
 50
123.4975901439
 51
202.8567942916
  0
ARC
  5
2A6
330
1F
100
AcDbEntity
  8
0
  6
Continuous
 62
     7
370
     0
100
AcDbCircle
 10
7.8802966405
 20
6.9694204666
 30
0.0
 40
0.0193359902748935
100
AcDbArc
 50
38.9017519534
 51
66.6290492593
  0
SPLINE
  5
2A7
330
1F
100
AcDbEntity
  8
0
  6
Continuous
 62
     7
370
     0
100
AcDbSpline
210
0.0
220
0.0
230
1.0
 70
     8
 71
     3
 72
     9
 73
     5
 74
     0
 42
0.00000001
 43
0.00000001
 40
0.0
 40
0.0
 40
0.0
 40
0.0
 40
0.5001654445837035
 40
0.9999999999999999
 40
0.9999999999999999
 40
0.9999999999999999
 40
0.9999999999999999
 10
7.877457147404531
 20
6.986164636351047
 30
0.0
 10
7.879115769441695
 20
6.986933048384463
 30
0.0
 10
7.88243191623897
 20
6.988469364101066
 30
0.0
 10
7.886122305852085
 20
6.987603060633181
 30
0.0
 10
7.887966890103669
 20
6.987170052224455
 30
0.0
  0
SPLINE
  5
2A8
330
1F
100
AcDbEntity
  8
0
  6
Continuous
 62
     7
370
     0
100
AcDbSpline
210
0.0
220
0.0
230
1.0
 70
     8
 71
     3
 72
    14
 73
    10
 74
     0
 42
0.00000001
 43
0.00000001
 40
0.0
 40
0.0
 40
0.0
 40
0.0
 40
0.2499004290089132
 40
0.3800976031660358
 40
0.499957105849436
 40
0.625721676821945
 40
0.7499966555365186
 40
0.8749516763669316
 40
1.0
 40
1.0
 40
1.0
 40
1.0
 10
7.87321299136842
 20
6.956327212195795
 30
0.0
 10
7.872134491104811
 20
6.959047242443986
 30
0.0
 10
7.870494096301017
 20
6.963184398118252
 30
0.0
 10
7.869600216097274
 20
6.969010685557104
 30
0.0
 10
7.869647342014626
 20
6.973362001009797
 30
0.0
 10
7.870495638112561
 20
6.97742747142014
 30
0.0
 10
7.872117908022138
 20
6.981097777150815
 30
0.0
 10
7.874445502465049
 20
6.984150195769706
 30
0.0
 10
7.87645301601919
 20
6.985492989110992
 30
0.0
 10
7.877457147404531
 20
6.986164636351047
 30
0.0
  0
ARC
  5
2A9
330
1F
100
AcDbEntity
  8
0
  6
Continuous
 62
     7
370
     0
100
AcDbCircle
 10
6.9691510497
 20
6.5561423672
 30
0.0
 40
0.9886738109948532
100
AcDbArc
 50
21.2286695561
 51
23.8766735468
  0
LINE
  5
2AA
330
1F
100
AcDbEntity
  8
0
  6
Continuous
 62
     7
370
     0
100
AcDbLine
 10
7.947534283
 20
6.9469211532
 30
0.0
 11
7.8907361604
 21
6.9141322949
 31
0.0
  0
ARC
  5
2AB
330
1F
100
AcDbEntity
  8
0
  6
Continuous
 62
     7
370
     0
100
AcDbCircle
 10
7.0271471676
 20
6.5894171172
 30
0.0
 40
0.9873811715087791
100
AcDbArc
 50
21.2275590698
 51
23.6713916242
  0
LINE
  5
2AC
330
1F
100
AcDbEntity
  8
0
  6
Continuous
 62
     7
370
     0
100
AcDbLine
 10
8.2576324398
 20
7.812331981
 30
0.0
 11
8.278340567
 21
7.8242865284
 31
0.0
  0
ARC
  5
2AD
330
1F
100
AcDbEntity
  8
0
  6
Continuous
 62
     7
370
     0
100
AcDbCircle
 10
8.2486314264
 20
7.8250484006
 30
0.0
 40
0.0155796523958439
100
AcDbArc
 50
246.5405718997
 51
305.2918555688
  0
SPLINE
  5
2AE
330
1F
100
AcDbEntity
  8
0
  6
Continuous
 62
     7
370
     0
100
AcDbSpline
210
0.0
220
0.0
230
1.0
 70
     8
 71
     3
 72
    11
 73
     7
 74
     0
 42
0.00000001
 43
0.00000001
 40
0.0
 40
0.0
 40
0.0
 40
0.0
 40
0.2500620333659173
 40
0.49991383769667
 40
0.7498401673007479
 40
1.0
 40
1.0
 40
1.0
 40
1.0
 10
8.2409335739729
 20
7.815217188391194
 30
0.0
 10
8.240669509116202
 20
7.814825094920701
 30
0.0
 10
8.240141601404124
 20
7.814041237615649
 30
0.0
 10
8.240202055248888
 20
7.812800013962431
 30
0.0
 10
8.240940884071035
 20
7.81164303966969
 30
0.0
 10
8.241932922446967
 20
7.811052123815163
 30
0.0
 10
8.242429173239053
 20
7.810756527930992
 30
0.0
  0
SPLINE
  5
2AF
330
1F
100
AcDbEntity
  8
0
  6
Continuous
 62
     7
370
     0
100
AcDbSpline
210
0.0
220
0.0
230
1.0
 70
    24
 71
     1
 72
     4
 73
     2
 74
     0
 42
0.00000001
 43
0.00000001
 40
0.0
 40
0.0
 40
1.0
 40
1.0
 10
8.244251659378156
 20
7.817479379554238
 30
0.0
 10
8.2409335739729
 20
7.815217188391194
 30
0.0
  0
LINE
  5
2B0
330
1F
100
AcDbEntity
  8
0
  6
Continuous
 62
     7
370
     0
100
AcDbLine
 10
8.2666012844
 20
7.8303815435
 30
0.0
 11
8.2442516594
 21
7.8174793796
 31
0.0
  0
ARC
  5
2B1
330
1F
100
AcDbEntity
  8
0
  6
Continuous
 62
     7
370
     0
100
AcDbCircle
 10
8.0429056692
 20
7.3859741115
 30
0.0
 40
0.4975316009148604
100
AcDbArc
 50
63.2812795724
 51
65.2469003747
  0
LINE
  5
2B2
330
1F
100
AcDbEntity
  8
0
  6
Continuous
 62
     7
370
     0
100
AcDbLine
 10
8.2302314594
 20
7.8256725548
 30
0.0
 11
8.2512265617
 21
7.8377927694
 31
0.0
  0
ARC
  5
2B3
330
1F
100
AcDbEntity
  8
0
  6
Continuous
 62
     7
370
     0
100
AcDbCircle
 10
8.2209656399
 20
7.838902723
 30
0.0
 40
0.0161521751279027
100
AcDbArc
 50
249.8161756905
 51
305.0056834153
  0
ARC
  5
2B4
330
1F
100
AcDbEntity
  8
0
  6
Continuous
 62
     7
370
     0
100
AcDbCircle
 10
8.2161158773
 20
7.8263840837
 30
0.0
 40
0.0027388645458248
100
AcDbArc
 50
172.2009660698
 51
254.6878117095
  0
SPLINE
  5
2B5
330
1F
100
AcDbEntity
  8
0
  6
Continuous
 62
     7
370
     0
100
AcDbSpline
210
0.0
220
0.0
230
1.0
 70
     8
 71
     3
 72
     9
 73
     5
 74
     0
 42
0.00000001
 43
0.00000001
 40
0.0
 40
0.0
 40
0.0
 40
0.0
 40
0.5015771373281235
 40
1.0
 40
1.0
 40
1.0
 40
1.0
 10
8.216373060824022
 20
7.829606232078695
 30
0.0
 10
8.215653778734518
 20
7.829176448307138
 30
0.0
 10
8.214219737914128
 20
7.82831958355081
 30
0.0
 10
8.213674237003643
 20
7.827275926860479
 30
0.0
 10
8.213402346878247
 20
7.826755744505237
 30
0.0
  0
LINE
  5
2B6
330
1F
100
AcDbEntity
  8
0
  6
Continuous
 62
     7
370
     0
100
AcDbLine
 10
8.2395491743
 20
7.8429855176
 30
0.0
 11
8.2163730608
 21
7.8296062321
 31
0.0
  0
ARC
  5
2B7
330
1F
100
AcDbEntity
  8
0
  6
Continuous
 62
     7
370
     0
100
AcDbCircle
 10
8.0631502979
 20
7.4314821755
 30
0.0
 40
0.4477181749513928
100
AcDbArc
 50
66.7966690335
 51
68.9055170727
  0
LINE
  5
2B8
330
1F
100
AcDbEntity
  8
0
  6
Continuous
 62
     7
370
     0
100
AcDbLine
 10
8.1985627374
 20
7.8343475368
 30
0.0
 11
8.2242871903
 21
7.8491979474
 31
0.0
  0
SPLINE
  5
2B9
330
1F
100
AcDbEntity
  8
0
  6
Continuous
 62
     7
370
     0
100
AcDbSpline
210
0.0
220
0.0
230
1.0
 70
     8
 71
     3
 72
    13
 73
     9
 74
     0
 42
0.00000001
 43
0.00000001
 40
0.0
 40
0.0
 40
0.0
 40
0.0
 40
0.2493551011004218
 40
0.3758643206396589
 40
0.4994912623304877
 40
0.6184449072823542
 40
0.7497843925020005
 40
1.0
 40
1.0
 40
1.0
 40
1.0
 10
8.196376149305168
 20
7.81936496620462
 30
0.0
 10
8.194492193240842
 20
7.820309783474176
 30
0.0
 10
8.191652420310161
 20
7.821733949651581
 30
0.0
 10
8.190009870932437
 20
7.82431909832538
 30
0.0
 10
8.189896185859808
 20
7.826390541700159
 30
0.0
 10
8.190955738940065
 20
7.82852777094774
 30
0.0
 10
8.193615171359447
 20
7.83127450878349
 30
0.0
 10
8.196603231784726
 20
7.833130450356002
 30
0.0
 10
8.198562737420534
 20
7.834347536844716
 30
0.0
  0
ARC
  5
2BA
330
1F
100
AcDbEntity
  8
0
  6
Continuous
 62
     7
370
     0
100
AcDbCircle
 10
8.210942719
 20
7.8546168564
 30
0.0
 40
0.0381428986139341
100
AcDbArc
 50
247.5489075827
 51
280.2238778137
  0
SPLINE
  5
2BB
330
1F
100
AcDbEntity
  8
0
  6
Continuous
 62
     7
370
     0
100
AcDbSpline
210
0.0
220
0.0
230
1.0
 70
     8
 71
     3
 72
    12
 73
     8
 74
     0
 42
0.00000001
 43
0.00000001
 40
0.0
 40
0.0
 40
0.0
 40
0.0
 40
0.2503533688407871
 40
0.4999961943216275
 40
0.7494886161542095
 40
0.8747044873187552
 40
1.0
 40
1.0
 40
1.0
 40
1.0
 10
8.223202478150732
 20
7.806970695409326
 30
0.0
 10
8.221979754697443
 20
7.807630899660518
 30
0.0
 10
8.219537778077823
 20
7.808949434396436
 30
0.0
 10
8.216979000088852
 20
7.811406947375948
 30
0.0
 10
8.216563190564502
 20
7.813784545252788
 30
0.0
 10
8.216986320886994
 20
7.815679201296714
 30
0.0
 10
8.217470647920175
 20
7.816612702360114
 30
0.0
 10
8.217712888424364
 20
7.817079601279164
 30
0.0
  0
ARC
  5
2BC
330
1F
100
AcDbEntity
  8
0
  6
Continuous
 62
     7
370
     0
100
AcDbCircle
 10
8.2393592987
 20
7.8401420947
 30
0.0
 40
0.0368969454370594
100
AcDbArc
 50
244.0306383379
 51
278.1165542192
  0
LINE
  5
2BD
330
1F
100
AcDbEntity
  8
0
  6
Continuous
 62
     7
370
     0
100
AcDbLine
 10
8.2382552242
 20
7.7999700704
 30
0.0
 11
8.2445686776
 21
7.8036147495
 31
0.0
  0
ARC
  5
2BE
330
1F
100
AcDbEntity
  8
0
  6
Continuous
 62
     7
370
     0
100
AcDbCircle
 10
7.9769816068
 20
7.3145753165
 30
0.0
 40
0.5512458346799193
100
AcDbArc
 50
59.9976408522
 51
61.7077357788
  0
LINE
  5
2BF
330
1F
100
AcDbEntity
  8
0
  6
Continuous
 62
     7
370
     0
100
AcDbLine
 10
8.2937649387
 20
7.8157069181
 30
0.0
 11
8.2526241805
 21
7.7919568639
 31
0.0
  0
ARC
  5
2C0
330
1F
100
AcDbEntity
  8
0
  6
Continuous
 62
     7
370
     0
100
AcDbCircle
 10
8.0186373651
 20
7.3392389505
 30
0.0
 40
0.5501971518724619
100
AcDbArc
 50
59.9965130543
 51
61.8346021217
  0
ARC
  5
2C1
330
1F
100
AcDbEntity
  8
0
  6
Continuous
 62
     7
370
     0
100
AcDbCircle
 10
8.376543123
 20
7.7064041952
 30
0.0
 40
0.0406152071129492
100
AcDbArc
 50
47.0688592206
 51
127.4201364555
  0
SPLINE
  5
2C2
330
1F
100
AcDbEntity
  8
0
  6
Continuous
 62
     7
370
     0
100
AcDbSpline
210
0.0
220
0.0
230
1.0
 70
    24
 71
     1
 72
     4
 73
     2
 74
     0
 42
0.00000001
 43
0.00000001
 40
0.0
 40
0.0
 40
1.0
 40
1.0
 10
8.340349473689686
 20
7.72981559670633
 30
0.0
 10
8.351863089459046
 20
7.738660837821416
 30
0.0
  0
SPLINE
  5
2C3
330
1F
100
AcDbEntity
  8
0
  6
Continuous
 62
     7
370
     0
100
AcDbSpline
210
0.0
220
0.0
230
1.0
 70
     8
 71
     3
 72
    12
 73
     8
 74
     0
 42
0.00000001
 43
0.00000001
 40
0.0
 40
0.0
 40
0.0
 40
0.0
 40
0.2503309494299792
 40
0.4997648043321496
 40
0.6249322238031063
 40
0.7501904501281058
 40
1.0
 40
1.0
 40
1.0
 40
1.0
 10
8.345758715337624
 20
7.703000451713415
 30
0.0
 10
8.34350318704906
 20
7.705111127657073
 30
0.0
 10
8.339000213460034
 20
7.709324915654098
 30
0.0
 10
8.335797408246059
 20
7.715480578558686
 30
0.0
 10
8.335510833526888
 20
7.720299850909574
 30
0.0
 10
8.336326828532927
 20
7.724978936635987
 30
0.0
 10
8.338741325763715
 20
7.727882026988484
 30
0.0
 10
8.340349473689686
 20
7.72981559670633
 30
0.0
  0
ARC
  5
2C4
330
1F
100
AcDbEntity
  8
0
  6
Continuous
 62
     7
370
     0
100
AcDbCircle
 10
8.3742177209
 20
7.7310312108
 30
0.0
 40
0.0399454434066242
100
AcDbArc
 50
224.5656514894
 51
305.5727614403
  0
SPLINE
  5
2C5
330
1F
100
AcDbEntity
  8
0
  6
Continuous
 62
     7
370
     0
100
AcDbSpline
210
0.0
220
0.0
230
1.0
 70
     8
 71
     3
 72
     9
 73
     5
 74
     0
 42
0.00000001
 43
0.00000001
 40
0.0
 40
0.0
 40
0.0
 40
0.0
 40
0.4986702672090054
 40
0.9999999999999999
 40
0.9999999999999999
 40
0.9999999999999999
 40
0.9999999999999999
 10
8.413634544657539
 20
7.714268725304955
 30
0.0
 10
8.411714630885857
 20
7.71114342481082
 30
0.0
 10
8.407864564222713
 20
7.704876156237487
 30
0.0
 10
8.400931292658871
 20
7.700656119358304
 30
0.0
 10
8.397455437478403
 20
7.698540489397296
 30
0.0
  0
SPLINE
  5
2C6
330
1F
100
AcDbEntity
  8
0
  6
Continuous
 62
     7
370
     0
100
AcDbSpline
210
0.0
220
0.0
230
1.0
 70
     8
 71
     3
 72
    10
 73
     6
 74
     0
 42
0.00000001
 43
0.00000001
 40
0.0
 40
0.0
 40
0.0
 40
0.0
 40
0.499206798160625
 40
0.7495375815251002
 40
1.0
 40
1.0
 40
1.0
 40
1.0
 10
8.40420690870906
 20
7.736141545643564
 30
0.0
 10
8.407571302702296
 20
7.732805301662595
 30
0.0
 10
8.412622795883639
 20
7.727796074516479
 30
0.0
 10
8.414777802282144
 20
7.719821856323914
 30
0.0
 10
8.414015697306326
 20
7.716120093318062
 30
0.0
 10
8.413634544657539
 20
7.714268725304955
 30
0.0
  0
LINE
  5
2C7
330
1F
100
AcDbEntity
  8
0
  6
Continuous
 62
     7
370
     0
100
AcDbLine
 10
8.4382691594
 20
7.6303449941
 30
0.0
 11
8.4507583181
 21
7.637554832
 31
0.0
  0
ARC
  5
2C8
330
1F
100
AcDbEntity
  8
0
  6
Continuous
 62
     7
370
     0
100
AcDbCircle
 10
7.711532224
 20
6.9988823307
 30
0.0
 40
0.9627521324677609
100
AcDbArc
 50
37.5519939364
 51
40.9874186711
  0
LINE
  5
2C9
330
1F
100
AcDbEntity
  8
0
  6
Continuous
 62
     7
370
     0
100
AcDbLine
 10
8.4872918354
 20
7.5928714155
 30
0.0
 11
8.4748026767
 21
7.5856615776
 31
0.0
  0
ARC
  5
2CA
330
1F
100
AcDbEntity
  8
0
  6
Continuous
 62
     7
370
     0
100
AcDbCircle
 10
7.7240213827
 20
7.0060921685
 30
0.0
 40
0.9627521324668878
100
AcDbArc
 50
37.5519939364
 51
40.9874186711
  0
ARC
  5
2CB
330
1F
100
AcDbEntity
  8
0
  6
Continuous
 62
     7
370
     0
100
AcDbCircle
 10
8.4865459184
 20
7.4990503954
 30
0.0
 40
0.0425977272199131
100
AcDbArc
 50
41.0397959057
 51
87.6408028435
  0
LINE
  5
2CC
330
1F
100
AcDbEntity
  8
0
  6
Continuous
 62
     7
370
     0
100
AcDbLine
 10
8.5318992277
 20
7.5346532879
 30
0.0
 11
8.5186754126
 21
7.5270193419
 31
0.0
  0
SPLINE
  5
2CD
330
1F
100
AcDbEntity
  8
0
  6
Continuous
 62
     7
370
     0
100
AcDbSpline
210
0.0
220
0.0
230
1.0
 70
    24
 71
     1
 72
     4
 73
     2
 74
     0
 42
0.00000001
 43
0.00000001
 40
0.0
 40
0.0
 40
1.0
 40
1.0
 10
8.510138245996615
 20
7.549472135951843
 30
0.0
 10
8.531899227711158
 20
7.534653287881445
 30
0.0
  0
LINE
  5
2CE
330
1F
100
AcDbEntity
  8
0
  6
Continuous
 62
     7
370
     0
100
AcDbLine
 10
8.5479615714
 20
7.5713070769
 30
0.0
 11
8.510138246
 21
7.549472136
 31
0.0
  0
ARC
  5
2CF
330
1F
100
AcDbEntity
  8
0
  6
Continuous
 62
     7
370
     0
100
AcDbCircle
 10
7.7163570064
 20
6.994367189
 30
0.0
 40
1.012139213123018
100
AcDbArc
 50
34.7516406604
 51
36.034211183
  0
LINE
  5
2D0
330
1F
100
AcDbEntity
  8
0
  6
Continuous
 62
     7
370
     0
100
AcDbLine
 10
8.47753626
 20
7.5566960793
 30
0.0
 11
8.5348394589
 21
7.5897765119
 31
0.0
  0
ARC
  5
2D1
330
1F
100
AcDbEntity
  8
0
  6
Continuous
 62
     7
370
     0
100
AcDbCircle
 10
7.6599677405
 20
6.9619421698
 30
0.0
 40
1.011014587941027
100
AcDbArc
 50
34.9844838531
 51
36.0346434317
  0
LINE
  5
2D2
330
1F
100
AcDbEntity
  8
0
  6
Continuous
 62
     7
370
     0
100
AcDbLine
 10
8.5649271246
 20
7.49626255
 30
0.0
 11
8.5877014729
 21
7.5094099014
 31
0.0
  0
ARC
  5
2D3
330
1F
100
AcDbEntity
  8
0
  6
Continuous
 62
     7
370
     0
100
AcDbCircle
 10
7.6730708633
 20
6.967483425
 30
0.0
 40
1.036829279052303
100
AcDbArc
 50
30.6635851455
 51
32.3846424805
  0
LINE
  5
2D4
330
1F
100
AcDbEntity
  8
0
  6
Continuous
 62
     7
370
     0
100
AcDbLine
 10
8.5368891559
 20
7.5160239369
 30
0.0
 11
8.5486436583
 21
7.5228096666
 31
0.0
  0
ARC
  5
2D5
330
1F
100
AcDbEntity
  8
0
  6
Continuous
 62
     7
370
     0
100
AcDbCircle
 10
7.661316361
 20
6.9606976953
 30
0.0
 40
1.036829279051396
100
AcDbArc
 50
30.6635851455
 51
32.3846424805
  0
LINE
  5
2D6
330
1F
100
AcDbEntity
  8
0
  6
Continuous
 62
     7
370
     0
100
AcDbLine
 10
8.5443567455
 20
7.4843875229
 30
0.0
 11
8.5531726223
 21
7.4894768202
 31
0.0
  0
ARC
  5
2D7
330
1F
100
AcDbEntity
  8
0
  6
Continuous
 62
     7
370
     0
100
AcDbCircle
 10
7.6529128426
 20
6.9558589546
 30
0.0
 40
1.036346795116285
100
AcDbArc
 50
30.6632964581
 51
32.6717972984
  0
LINE
  5
2D8
330
1F
100
AcDbEntity
  8
0
  6
Continuous
 62
     7
370
     0
100
AcDbLine
 10
8.5120615116
 20
7.5076719932
 30
0.0
 11
8.5252853267
 21
7.5153059392
 31
0.0
  0
ARC
  5
2D9
330
1F
100
AcDbEntity
  8
0
  6
Continuous
 62
     7
370
     0
100
AcDbCircle
 10
7.6385109889
 20
6.9474947584
 30
0.0
 40
1.037732648657732
100
AcDbArc
 50
29.2881464538
 51
32.6706252297
  0
LINE
  5
2DA
330
1F
100
AcDbEntity
  8
0
  6
Continuous
 62
     7
370
     0
100
AcDbLine
 10
8.6001593333
 20
7.4878119956
 30
0.0
 11
8.5435907908
 21
7.4551556711
 31
0.0
  0
ARC
  5
2DB
330
1F
100
AcDbEntity
  8
0
  6
Continuous
 62
     7
370
     0
100
AcDbCircle
 10
7.693908842
 20
6.9794706651
 30
0.0
 40
1.039086551389981
100
AcDbArc
 50
29.289289885
 51
30.6641563599
  0
LWPOLYLINE
  5
2DC
330
1F
100
AcDbEntity
  8
0
  6
Continuous
 62
     7
370
     0
100
AcDbPolyline
 90
       70
 70
   128
 43
0.0
 10
7.5791346921
 20
6.3800209882
 10
7.5671728295
 20
6.3511463854
 10
7.5524429332
 20
6.3252740708
 10
7.53506706
 20
6.3026184303
 10
7.5151891917
 20
6.2833671957
 10
7.4929740426
 20
6.267679889
 10
7.4686056945
 20
6.2556864999
 10
7.4422860711
 20
6.2474864096
 10
7.4142332652
 20
6.2431475665
 10
7.3846797311
 20
6.2427059236
 10
7.3538703587
 20
6.2461651407
 10
7.3220604442
 20
6.2534965534
 10
7.2895135745
 20
6.2646394114
 10
7.2564994433
 20
6.2795013815
 10
7.223291616
 20
6.2979593127
 10
7.1901652632
 20
6.3198602568
 10
7.1573948803
 20
6.3450227356
 10
7.1252520129
 20
6.373238245
 10
7.094003007
 20
6.4042729823
 10
7.0639068017
 20
6.4378697839
 10
7.0352127836
 20
6.4737502562
 10
7.0081587205
 20
6.5116170822
 10
6.9829687907
 20
6.5511564855
 10
6.959851726
 20
6.5920408302
 10
6.9389990817
 20
6.6339313357
 10
6.9205836493
 20
6.6764808841
 10
6.9047580249
 20
6.7193368964
 10
6.8916533446
 20
6.7621442542
 10
6.881378198
 20
6.8045482423
 10
6.874017728
 20
6.8461974878
 10
6.869632926
 20
6.8867468721
 10
6.8682601257
 20
6.92586039
 10
6.8699107027
 20
6.9632139348
 10
6.8745709796
 20
6.9984979831
 10
6.88220234
 20
7.0314201603
 10
6.8927415481
 20
7.0617076627
 10
6.9061012725
 20
7.0891095187
 10
6.9221708105
 20
7.1133986678
 10
6.9408170048
 20
7.1343738424
 10
6.9618853472
 20
7.1518612357
 10
6.9852012587
 20
7.1657159416
 10
7.0105715363
 20
7.1758231557
 10
7.037785954
 20
7.1820991264
 10
7.0666190045
 20
7.184491849
 10
7.096831768
 20
7.1829814967
 10
7.1281738921
 20
7.1775805847
 10
7.1603856662
 20
7.1683338667
 10
7.1932001731
 20
7.1553179639
 10
7.2263455018
 20
7.1386407302
 10
7.2595469994
 20
7.1184403584
 10
7.2925295479
 20
7.0948842351
 10
7.3250198437
 20
7.0681675538
 10
7.3567486617
 20
7.0385116973
 10
7.3874530871
 20
7.0061624034
 10
7.4168786933
 20
6.9713877286
 10
7.4447816505
 20
6.9344758266
 10
7.470930746
 20
6.8957325613
 10
7.4951093001
 20
6.8554789714
 10
7.5171169617
 20
6.8140486109
 10
7.5367713685
 20
6.7717847849
 10
7.5539096577
 20
6.7290377046
 10
7.5683898162
 20
6.6861615859
 10
7.5800918568
 20
6.6435117138
 10
7.5889188127
 20
6.6014414985
 10
7.5947975409
 20
6.5602995471
 10
7.5976793286
 20
6.5204267748
 10
7.5975402962
 20
6.4821535799
 10
7.5943815958
 20
6.4457971062
 10
7.5882294014
 20
6.4116586149
 10
7.5791346921
 20
6.3800209882
  0
LWPOLYLINE
  5
2DD
330
1F
100
AcDbEntity
  8
0
  6
Continuous
 62
     7
370
     0
100
AcDbPolyline
 90
       45
 70
   128
 43
0.0
 10
7.11042335
 20
7.1810948844
 10
7.1006862066
 20
7.181941977
 10
7.0711097706
 20
7.1819881745
 10
7.0430200741
 20
7.1780974207
 10
7.0166567683
 20
7.1703029102
 10
6.9922447758
 20
7.158671143
 10
6.9699923711
 20
7.1433013573
 10
6.9500894038
 20
7.1243246826
 10
6.9327056791
 20
7.1019030212
 10
6.9179895087
 20
7.0762276668
 10
6.9060664458
 20
7.0475176725
 10
6.8970382138
 20
7.0160179819
 10
6.8909818384
 20
6.9819973392
 10
6.8879489904
 20
6.9457459965
 10
6.8879655451
 20
6.9075732375
 10
6.8910313611
 20
6.8678047388
 10
6.8971202821
 20
6.8267797911
 10
6.9061803595
 20
6.7848484048
 10
6.9181342959
 20
6.7423683237
 10
6.9328801045
 20
6.699701973
 10
6.9502919794
 20
6.6572133668
 10
6.9702213684
 20
6.615265003
 10
6.9924982412
 20
6.5742147702
 10
7.0169325393
 20
6.5344128945
 10
7.0433157979
 20
6.4961989515
 10
7.0714229242
 20
6.4598989691
 10
7.1010141183
 20
6.425822646
 10
7.1318369184
 20
6.3942607093
 10
7.1636283554
 20
6.3654824343
 10
7.1961171959
 20
6.3397333471
 10
7.2290262565
 20
6.3172331299
 10
7.2620747688
 20
6.2981737465
 10
7.2949807745
 20
6.282717805
 10
7.3274635311
 20
6.2709971699
 10
7.3592459073
 20
6.2631118377
 10
7.390056747
 20
6.259129083
 10
7.419633183
 20
6.2590828855
 10
7.4477228795
 20
6.2629736393
 10
7.4740861853
 20
6.2707681498
 10
7.4984981778
 20
6.282399917
 10
7.5207505825
 20
6.2977697027
 10
7.5406535498
 20
6.3167463774
 10
7.5580372745
 20
6.3391680388
 10
7.5727534449
 20
6.3648433932
 10
7.5767209371
 20
6.373356252
  0
SPLINE
  5
2DE
330
1F
100
AcDbEntity
  8
0
  6
Continuous
 62
     7
370
     0
100
AcDbSpline
210
0.0
220
0.0
230
1.0
 70
    24
 71
     1
 72
     4
 73
     2
 74
     0
 42
0.00000001
 43
0.00000001
 40
0.0
 40
0.0
 40
1.0
 40
1.0
 10
7.458135320301061
 20
7.118648476058895
 30
0.0
 10
7.490014683031353
 20
7.11412322785807
 30
0.0
  0
ARC
  5
2DF
330
1F
100
AcDbEntity
  8
0
  6
Continuous
 62
     7
370
     0
100
AcDbCircle
 10
6.8346139639
 20
6.5089138176
 30
0.0
 40
0.8920922221914949
100
AcDbArc
 50
42.7199675326
 51
44.0309415495
  0
LINE
  5
2E0
330
1F
100
AcDbEntity
  8
0
  6
Continuous
 62
     7
370
     0
100
AcDbLine
 10
7.4759966539
 20
7.1289596045
 30
0.0
 11
7.4581353203
 21
7.1186484761
 31
0.0
  0
SPLINE
  5
2E1
330
1F
100
AcDbEntity
  8
0
  6
Continuous
 62
     7
370
     0
100
AcDbSpline
210
0.0
220
0.0
230
1.0
 70
     8
 71
     3
 72
    14
 73
    10
 74
     0
 42
0.00000001
 43
0.00000001
 40
0.0
 40
0.0
 40
0.0
 40
0.0
 40
0.5001598129720296
 40
0.6334839770212987
 40
0.7547008492865797
 40
0.8160823888821663
 40
0.8744466572159892
 40
0.9383930382673787
 40
0.9999999999999999
 40
0.9999999999999999
 40
0.9999999999999999
 40
0.9999999999999999
 10
7.431053909817677
 20
7.163684259202391
 30
0.0
 10
7.43474218083738
 20
7.165873706575931
 30
0.0
 10
7.439413608915556
 20
7.168646779889096
 30
0.0
 10
7.443598401528371
 20
7.172960104228422
 30
0.0
 10
7.444683036441126
 20
7.175114937067196
 30
0.0
 10
7.444917651385879
 20
7.176919858181781
 30
0.0
 10
7.444635170130135
 20
7.178345883390438
 30
0.0
 10
7.443907317853687
 20
7.179753097174265
 30
0.0
 10
7.44305972570984
 20
7.180585739277383
 30
0.0
 10
7.442643826175721
 20
7.180994303072232
 30
0.0
  0
SPLINE
  5
2E2
330
1F
100
AcDbEntity
  8
0
  6
Continuous
 62
     7
370
     0
100
AcDbSpline
210
0.0
220
0.0
230
1.0
 70
     8
 71
     3
 72
    14
 73
    10
 74
     0
 42
0.00000001
 43
0.00000001
 40
0.0
 40
0.0
 40
0.0
 40
0.0
 40
0.0625270621852552
 40
0.124975967649982
 40
0.1874784178561349
 40
0.2499337956407726
 40
0.3634906992465788
 40
0.4998436771422666
 40
0.9999999999999999
 40
0.9999999999999999
 40
0.9999999999999999
 40
0.9999999999999999
 10
7.442643826175721
 20
7.180994303072232
 30
0.0
 10
7.442174668415253
 20
7.181373628823981
 30
0.0
 10
7.441236939325706
 20
7.182131806183071
 30
0.0
 10
7.439480333897955
 20
7.182953962309637
 30
0.0
 10
7.437605901665965
 20
7.183506752377759
 30
0.0
 10
7.435150765759162
 20
7.183806123157275
 30
0.0
 10
7.432041690990806
 20
7.183547754049362
 30
0.0
 10
7.425294420923414
 20
7.181699799010051
 30
0.0
 10
7.420604708656804
 20
7.178974225076608
 30
0.0
 10
7.416919626223991
 20
7.176832523400585
 30
0.0
  0
SPLINE
  5
2E3
330
1F
100
AcDbEntity
  8
0
  6
Continuous
 62
     7
370
     0
100
AcDbSpline
210
0.0
220
0.0
230
1.0
 70
     8
 71
     3
 72
    14
 73
    10
 74
     0
 42
0.00000001
 43
0.00000001
 40
0.0
 40
0.0
 40
0.0
 40
0.0
 40
0.5003034315361092
 40
0.6254176539424876
 40
0.75014017386872
 40
0.8143424488283477
 40
0.8750383566947539
 40
0.9374874297319962
 40
1.0
 40
1.0
 40
1.0
 40
1.0
 10
7.416919626223991
 20
7.176832523400585
 30
0.0
 10
7.413148640566272
 20
7.17459659494325
 30
0.0
 10
7.408434619325481
 20
7.171801512914977
 30
0.0
 10
7.404093716566273
 20
7.167524728609755
 30
0.0
 10
7.402959486036793
 20
7.165367396419523
 30
0.0
 10
7.402790755668416
 20
7.163465447595938
 30
0.0
 10
7.403135623466855
 20
7.161995517418536
 30
0.0
 10
7.403931652243787
 20
7.160565835048941
 30
0.0
 10
7.40480565570796
 20
7.159725959288743
 30
0.0
 10
7.405242879495386
 20
7.159305808024027
 30
0.0
  0
SPLINE
  5
2E4
330
1F
100
AcDbEntity
  8
0
  6
Continuous
 62
     7
370
     0
100
AcDbSpline
210
0.0
220
0.0
230
1.0
 70
     8
 71
     3
 72
    14
 73
    10
 74
     0
 42
0.00000001
 43
0.00000001
 40
0.0
 40
0.0
 40
0.0
 40
0.0
 40
0.0625005409549711
 40
0.1249727346347116
 40
0.1854844482529001
 40
0.249874064727004
 40
0.3606505595103497
 40
0.4996888686474082
 40
1.0
 40
1.0
 40
1.0
 40
1.0
 10
7.405242879495386
 20
7.159305808024027
 30
0.0
 10
7.405713855626513
 20
7.158920625846039
 30
0.0
 10
7.406655594276375
 20
7.158150436190394
 30
0.0
 10
7.408392194151826
 20
7.157290268269849
 30
0.0
 10
7.410292967917989
 20
7.156733698394819
 30
0.0
 10
7.412739346959255
 20
7.156479298099228
 30
0.0
 10
7.415848895861135
 20
7.156818373153278
 30
0.0
 10
7.422502410333458
 20
7.158849840164073
 30
0.0
 10
7.427299800491252
 20
7.161561948649361
 30
0.0
 10
7.431053909817677
 20
7.163684259202391
 30
0.0
  0
SPLINE
  5
2E5
330
1F
100
AcDbEntity
  8
0
  6
Continuous
 62
     7
370
     0
100
AcDbSpline
210
0.0
220
0.0
230
1.0
 70
     8
 71
     3
 72
     9
 73
     5
 74
     0
 42
0.00000001
 43
0.00000001
 40
0.0
 40
0.0
 40
0.0
 40
0.0
 40
0.4999994477952434
 40
1.0
 40
1.0
 40
1.0
 40
1.0
 10
7.631705129346359
 20
7.162646015529278
 30
0.0
 10
7.633085362382522
 20
7.16170776007735
 30
0.0
 10
7.635845831503535
 20
7.159831247101054
 30
0.0
 10
7.638483936994366
 20
7.157799532535407
 30
0.0
 10
7.639802991196555
 20
7.156783674130661
 30
0.0
  0
ARC
  5
2E6
330
1F
100
AcDbEntity
  8
0
  6
Continuous
 62
     7
370
     0
100
AcDbCircle
 10
7.6629040649
 20
7.1849130965
 30
0.0
 40
0.0363995056053321
100
AcDbArc
 50
230.6057098497
 51
245.2997013183
  0
ARC
  5
2E7
330
1F
100
AcDbEntity
  8
0
  6
Continuous
 62
     7
370
     0
100
AcDbCircle
 10
7.6494068763
 20
7.1566044525
 30
0.0
 40
0.0050593916798304
100
AcDbArc
 50
250.2080540514
 51
297.7061595406
  0
SPLINE
  5
2E8
330
1F
100
AcDbEntity
  8
0
  6
Continuous
 62
     7
370
     0
100
AcDbSpline
210
0.0
220
0.0
230
1.0
 70
     8
 71
     3
 72
    13
 73
     9
 74
     0
 42
0.00000001
 43
0.00000001
 40
0.0
 40
0.0
 40
0.0
 40
0.0
 40
0.2485845284583228
 40
0.3735388535778146
 40
0.4967972082246059
 40
0.6212572301466254
 40
0.7502093099437039
 40
1.0
 40
1.0
 40
1.0
 40
1.0
 10
7.651759175826268
 20
7.152125152163145
 30
0.0
 10
7.652332846713719
 20
7.152555362863085
 30
0.0
 10
7.653194880915758
 20
7.153201824703045
 30
0.0
 10
7.653629123577541
 20
7.154547162514465
 30
0.0
 10
7.653683207606639
 20
7.155632267262328
 30
0.0
 10
7.653439425344451
 20
7.156769561106616
 30
0.0
 10
7.652793841016782
 20
7.15826530380012
 30
0.0
 10
7.651995509762633
 20
7.159285375520707
 30
0.0
 10
7.651468989573363
 20
7.15995813930466
 30
0.0
  0
ARC
  5
2E9
330
1F
100
AcDbEntity
  8
0
  6
Continuous
 62
     7
370
     0
100
AcDbCircle
 10
7.6405515205
 20
7.1524736528
 30
0.0
 40
0.0132366411826701
100
AcDbArc
 50
34.4326420382
 51
118.5813481083
  0
LINE
  5
2EA
330
1F
100
AcDbEntity
  8
0
  6
Continuous
 62
     7
370
     0
100
AcDbLine
 10
7.6342190317
 20
7.1640972605
 30
0.0
 11
7.6317051293
 21
7.1626460155
 31
0.0
  0
SPLINE
  5
2EB
330
1F
100
AcDbEntity
  8
0
  6
Continuous
 62
     7
370
     0
100
AcDbSpline
210
0.0
220
0.0
230
1.0
 70
    24
 71
     1
 72
     4
 73
     2
 74
     0
 42
0.00000001
 43
0.00000001
 40
0.0
 40
0.0
 40
1.0
 40
1.0
 10
7.854768973243343
 20
7.032840908593537
 30
0.0
 10
7.8792930064294
 20
7.036841174921226
 30
0.0
  0
ARC
  5
2EC
330
1F
100
AcDbEntity
  8
0
  6
Continuous
 62
     7
370
     0
100
AcDbCircle
 10
6.9615818389
 20
6.5566231481
 30
0.0
 40
1.035762106043694
100
AcDbArc
 50
27.6220710697
 51
28.5998213211
  0
SPLINE
  5
2ED
330
1F
100
AcDbEntity
  8
0
  6
Continuous
 62
     7
370
     0
100
AcDbSpline
210
0.0
220
0.0
230
1.0
 70
    24
 71
     1
 72
     4
 73
     2
 74
     0
 42
0.00000001
 43
0.00000001
 40
0.0
 40
0.0
 40
1.0
 40
1.0
 10
7.870964880774191
 20
7.052431199108638
 30
0.0
 10
7.854768973243343
 20
7.032840908593537
 30
0.0
  0
ARC
  5
2EE
330
1F
100
AcDbEntity
  8
0
  6
Continuous
 62
     7
370
     0
100
AcDbCircle
 10
6.9521667028
 20
6.5515101783
 30
0.0
 40
1.032472940480599
100
AcDbArc
 50
32.369111835
 51
32.94892074
  0
SPLINE
  5
2EF
330
1F
100
AcDbEntity
  8
0
  6
Continuous
 62
     7
370
     0
100
AcDbSpline
210
0.0
220
0.0
230
1.0
 70
    24
 71
     1
 72
     4
 73
     2
 74
     0
 42
0.00000001
 43
0.00000001
 40
0.0
 40
0.0
 40
1.0
 40
1.0
 10
7.818572339522116
 20
7.113063065862388
 30
0.0
 10
7.814209021835508
 20
7.118101807289842
 30
0.0
  0
ARC
  5
2F0
330
1F
100
AcDbEntity
  8
0
  6
Continuous
 62
     7
370
     0
100
AcDbCircle
 10
7.8090734379
 20
7.1138966922
 30
0.0
 40
0.0066375609063571
100
AcDbArc
 50
39.3112777649
 51
116.9342768976
  0
SPLINE
  5
2F1
330
1F
100
AcDbEntity
  8
0
  6
Continuous
 62
     7
370
     0
100
AcDbSpline
210
0.0
220
0.0
230
1.0
 70
     8
 71
     3
 72
    13
 73
     9
 74
     0
 42
0.00000001
 43
0.00000001
 40
0.0
 40
0.0
 40
0.0
 40
0.0
 40
0.1252323796024089
 40
0.2501692759914038
 40
0.376678442943622
 40
0.4998070571087888
 40
0.749473868510253
 40
1.0
 40
1.0
 40
1.0
 40
1.0
 10
7.806066834294606
 20
7.1198142550244
 30
0.0
 10
7.805603783790282
 20
7.119507613752114
 30
0.0
 10
7.804678775339735
 20
7.118895054721294
 30
0.0
 10
7.803664466289735
 20
7.117534212078969
 30
0.0
 10
7.803126062291915
 20
7.115851319103156
 30
0.0
 10
7.803298424230632
 20
7.113317598698044
 30
0.0
 10
7.804654336009737
 20
7.110208094612684
 30
0.0
 10
7.80607504609926
 20
7.107912944546089
 30
0.0
 10
7.806786621517817
 20
7.106763398005009
 30
0.0
  0
ARC
  5
2F2
330
1F
100
AcDbEntity
  8
0
  6
Continuous
 62
     7
370
     0
100
AcDbCircle
 10
6.9406711044
 20
6.5448771213
 30
0.0
 40
1.032410905086907
100
AcDbArc
 50
32.3690999865
 51
32.97320398
  0
LINE
  5
2F3
330
1F
100
AcDbEntity
  8
0
  6
Continuous
 62
     7
370
     0
100
AcDbLine
 10
7.8126626764
 20
7.0976003569
 30
0.0
 11
7.8242105567
 21
7.1042668063
 31
0.0
  0
ARC
  5
2F4
330
1F
100
AcDbEntity
  8
0
  6
Continuous
 62
     7
370
     0
100
AcDbCircle
 10
6.9864555907
 20
6.5668511269
 30
0.0
 40
0.9940954763118492
100
AcDbArc
 50
22.6557040517
 51
23.2687794002
  0
SPLINE
  5
2F5
330
1F
100
AcDbEntity
  8
0
  6
Continuous
 62
     7
370
     0
100
AcDbSpline
210
0.0
220
0.0
230
1.0
 70
     8
 71
     3
 72
    12
 73
     8
 74
     0
 42
0.00000001
 43
0.00000001
 40
0.0
 40
0.0
 40
0.0
 40
0.0
 40
0.2508758277601312
 40
0.5006089009255285
 40
0.6255741322428245
 40
0.750685252371334
 40
1.0
 40
1.0
 40
1.0
 40
1.0
 10
7.899693109048674
 20
6.959563554762017
 30
0.0
 10
7.899185216254315
 20
6.960670064711272
 30
0.0
 10
7.898171744148047
 20
6.962878044389925
 30
0.0
 10
7.896371276247415
 20
6.965340653495969
 30
0.0
 10
7.894472824003828
 20
6.966436747495496
 30
0.0
 10
7.892426711593473
 20
6.96681305785173
 30
0.0
 10
7.891033419679467
 20
6.966184446996894
 30
0.0
 10
7.89010568403985
 20
6.965765880946507
 30
0.0
  0
SPLINE
  5
2F6
330
1F
100
AcDbEntity
  8
0
  6
Continuous
 62
     7
370
     0
100
AcDbSpline
210
0.0
220
0.0
230
1.0
 70
     8
 71
     3
 72
    13
 73
     9
 74
     0
 42
0.00000001
 43
0.00000001
 40
0.0
 40
0.0
 40
0.0
 40
0.0
 40
0.1252642249999345
 40
0.2502628772393025
 40
0.376730719555082
 40
0.5001238771620133
 40
0.7494666677388514
 40
0.9999999999999999
 40
0.9999999999999999
 40
0.9999999999999999
 40
0.9999999999999999
 10
7.89010568403985
 20
6.965765880946507
 30
0.0
 10
7.889691031235754
 20
6.965492894642553
 30
0.0
 10
7.888862604733231
 20
6.96494750079308
 30
0.0
 10
7.887867839856209
 20
6.963707212911601
 30
0.0
 10
7.887202066408864
 20
6.962167545576566
 30
0.0
 10
7.886907239776909
 20
6.959816206722469
 30
0.0
 10
7.887535684251877
 20
6.956799968981127
 30
0.0
 10
7.888419540528893
 20
6.954598301377475
 30
0.0
 10
7.888862521195911
 20
6.953494845749023
 30
0.0
  0
ARC
  5
2F7
330
1F
100
AcDbEntity
  8
0
  6
Continuous
 62
     7
370
     0
100
AcDbCircle
 10
6.975636557
 20
6.5606134833
 30
0.0
 40
0.9941516114357997
100
AcDbArc
 50
22.6557156786
 51
23.2779867131
  0
LINE
  5
2F8
330
1F
100
AcDbEntity
  8
0
  6
Continuous
 62
     7
370
     0
100
AcDbLine
 10
7.8930755365
 20
6.9435536164
 30
0.0
 11
7.9038428443
 21
6.9497694509
 31
0.0
  0
ARC
  5
2F9
330
1F
100
AcDbEntity
  8
0
  6
Continuous
 62
     7
370
     0
100
AcDbCircle
 10
7.0081782393
 20
6.5794833834
 30
0.0
 40
0.9947386017984592
100
AcDbArc
 50
22.6558476092
 51
23.3746325754
  0
SPLINE
  5
2FA
330
1F
100
AcDbEntity
  8
0
  6
Continuous
 62
     7
370
     0
100
AcDbSpline
210
0.0
220
0.0
230
1.0
 70
     8
 71
     3
 72
    13
 73
     9
 74
     0
 42
0.00000001
 43
0.00000001
 40
0.0
 40
0.0
 40
0.0
 40
0.0
 40
0.2576868080789603
 40
0.4999433752796202
 40
0.6237499127152852
 40
0.7488287379013848
 40
0.8752064661222803
 40
1.0
 40
1.0
 40
1.0
 40
1.0
 10
7.921279013081724
 20
6.974137488656127
 30
0.0
 10
7.920693285947402
 20
6.975385953134241
 30
0.0
 10
7.919556904916842
 20
6.977808124256457
 30
0.0
 10
7.917579818081286
 20
6.980492033320555
 30
0.0
 10
7.915547537588219
 20
6.981765810542945
 30
0.0
 10
7.913874070310483
 20
6.982161429845672
 30
0.0
 10
7.912201434489011
 20
6.982019369047213
 30
0.0
 10
7.911203380497018
 20
6.981520439780621
 30
0.0
 10
7.910707500977916
 20
6.981272548577572
 30
0.0
  0
SPLINE
  5
2FB
330
1F
100
AcDbEntity
  8
0
  6
Continuous
 62
     7
370
     0
100
AcDbSpline
210
0.0
220
0.0
230
1.0
 70
     8
 71
     3
 72
    13
 73
     9
 74
     0
 42
0.00000001
 43
0.00000001
 40
0.0
 40
0.0
 40
0.0
 40
0.0
 40
0.1296897594721805
 40
0.2496082834020734
 40
0.3753937891334525
 40
0.4998958881041493
 40
0.7495309619034439
 40
1.0
 40
1.0
 40
1.0
 40
1.0
 10
7.910707500977916
 20
6.981272548577572
 30
0.0
 10
7.91023236498143
 20
6.980950373996349
 30
0.0
 10
7.909317891233092
 20
6.980330298483048
 30
0.0
 10
7.908306936824163
 20
6.978847170520539
 30
0.0
 10
7.907693509776683
 20
6.977081434231
 30
0.0
 10
7.907532120172202
 20
6.974429115267901
 30
0.0
 10
7.908303319562032
 20
6.971107347863208
 30
0.0
 10
7.909294551352962
 20
6.968658537296751
 30
0.0
 10
7.90979099372826
 20
6.967432090218089
 30
0.0
  0
ARC
  5
2FC
330
1F
100
AcDbEntity
  8
0
  6
Continuous
 62
     7
370
     0
100
AcDbCircle
 10
6.9966853212
 20
6.5728454821
 30
0.0
 40
0.9947163215752409
100
AcDbArc
 50
22.6558422558
 51
23.370951859
  0
LINE
  5
2FD
330
1F
100
AcDbEntity
  8
0
  6
Continuous
 62
     7
370
     0
100
AcDbLine
 10
7.9146445891
 20
6.9560051655
 30
0.0
 11
7.9261580323
 21
6.9626517348
 31
0.0
  0
ARC
  5
2FE
330
1F
100
AcDbEntity
  8
0
  6
Continuous
 62
     7
370
     0
100
AcDbCircle
 10
7.0601502157
 20
6.5940565604
 30
0.0
 40
0.9155146668958475
100
AcDbArc
 50
17.5555611649
 51
18.2032343305
  0
SPLINE
  5
2FF
330
1F
100
AcDbEntity
  8
0
  6
Continuous
 62
     7
370
     0
100
AcDbSpline
210
0.0
220
0.0
230
1.0
 70
     8
 71
     3
 72
    12
 73
     8
 74
     0
 42
0.00000001
 43
0.00000001
 40
0.0
 40
0.0
 40
0.0
 40
0.0
 40
0.25087582776011
 40
0.500608900925505
 40
0.6255741322428328
 40
0.7506852523713128
 40
1.0
 40
1.0
 40
1.0
 40
1.0
 10
7.929847418950078
 20
6.880052853943209
 30
0.0
 10
7.92945027966179
 20
6.881167428201801
 30
0.0
 10
7.928657810078731
 20
6.883391499765708
 30
0.0
 10
7.927132714141104
 20
6.885877590662876
 30
0.0
 10
7.92540615243565
 20
6.886989294510951
 30
0.0
 10
7.923481958367803
 20
6.887377106199262
 30
0.0
 10
7.922102393446312
 20
6.886749846450063
 30
0.0
 10
7.921183798045041
 20
6.886332180045214
 30
0.0
  0
SPLINE
  5
300
330
1F
100
AcDbEntity
  8
0
  6
Continuous
 62
     7
370
     0
100
AcDbSpline
210
0.0
220
0.0
230
1.0
 70
     8
 71
     3
 72
    13
 73
     9
 74
     0
 42
0.00000001
 43
0.00000001
 40
0.0
 40
0.0
 40
0.0
 40
0.0
 40
0.1252642249998715
 40
0.2502628772391377
 40
0.3767307195291716
 40
0.500123877162302
 40
0.7494666677389898
 40
1.0
 40
1.0
 40
1.0
 40
1.0
 10
7.921183798045041
 20
6.886332180045214
 30
0.0
 10
7.920766517536924
 20
6.886058939025525
 30
0.0
 10
7.919932841197355
 20
6.885513036284605
 30
0.0
 10
7.918885985596405
 20
6.884267745741203
 30
0.0
 10
7.918129760975819
 20
6.882719575210552
 30
0.0
 10
7.917663885362408
 20
6.880352730608863
 30
0.0
 10
7.918026616177322
 20
6.877313856396371
 30
0.0
 10
7.918695927911261
 20
6.875096491889184
 30
0.0
 10
7.919031380819218
 20
6.873985169116515
 30
0.0
  0
ARC
  5
301
330
1F
100
AcDbEntity
  8
0
  6
Continuous
 62
     7
370
     0
100
AcDbCircle
 10
7.0492994755
 20
6.5878139821
 30
0.0
 40
0.9156022801667028
100
AcDbArc
 50
17.5555819747
 51
18.2129525857
  0
LINE
  5
302
330
1F
100
AcDbEntity
  8
0
  6
Continuous
 62
     7
370
     0
100
AcDbLine
 10
7.9222573879
 20
6.863987874
 30
0.0
 11
7.9330246957
 21
6.8702037085
 31
0.0
  0
ARC
  5
303
330
1F
100
AcDbEntity
  8
0
  6
Continuous
 62
     7
370
     0
100
AcDbCircle
 10
7.0815078187
 20
6.6066315801
 30
0.0
 40
0.9165203325187523
100
AcDbArc
 50
17.5558185077
 51
18.314938604
  0
SPLINE
  5
304
330
1F
100
AcDbEntity
  8
0
  6
Continuous
 62
     7
370
     0
100
AcDbSpline
210
0.0
220
0.0
230
1.0
 70
     8
 71
     3
 72
    13
 73
     9
 74
     0
 42
0.00000001
 43
0.00000001
 40
0.0
 40
0.0
 40
0.0
 40
0.0
 40
0.2576868080752898
 40
0.4999433752795341
 40
0.6237499127143397
 40
0.7488287379032453
 40
0.87520646612282
 40
1.0
 40
1.0
 40
1.0
 40
1.0
 10
7.951600511244046
 20
6.894638917374457
 30
0.0
 10
7.951140003370729
 20
6.895897138929441
 30
0.0
 10
7.95024656275478
 20
6.898338239953382
 30
0.0
 10
7.948569310174984
 20
6.901049628951147
 30
0.0
 10
7.946728249378375
 20
6.902342098671896
 30
0.0
 10
7.945160987620315
 20
6.90274850986598
 30
0.0
 10
7.943552503182298
 20
6.902613129296838
 30
0.0
 10
7.942560462161021
 20
6.902114833194545
 30
0.0
 10
7.942067570164689
 20
6.901867256576888
 30
0.0
  0
SPLINE
  5
305
330
1F
100
AcDbEntity
  8
0
  6
Continuous
 62
     7
370
     0
100
AcDbSpline
210
0.0
220
0.0
230
1.0
 70
     8
 71
     3
 72
    13
 73
     9
 74
     0
 42
0.00000001
 43
0.00000001
 40
0.0
 40
0.0
 40
0.0
 40
0.0
 40
0.1296897594768226
 40
0.2496082834093754
 40
0.3753937891454025
 40
0.4998958881045663
 40
0.7495309619036463
 40
1.0
 40
1.0
 40
1.0
 40
1.0
 10
7.942067570164689
 20
6.901867256576888
 30
0.0
 10
7.941588706371837
 20
6.901544689170726
 30
0.0
 10
7.940667057894712
 20
6.900923857604219
 30
0.0
 10
7.939586027047968
 20
6.899433444475138
 30
0.0
 10
7.938862486972933
 20
6.897656547263831
 30
0.0
 10
7.938501067693222
 20
6.894984765134848
 30
0.0
 10
7.93897690191423
 20
6.891636126938193
 30
0.0
 10
7.939729669914116
 20
6.889168803213223
 30
0.0
 10
7.940106681565004
 20
6.887933084119204
 30
0.0
  0
ARC
  5
306
330
1F
100
AcDbEntity
  8
0
  6
Continuous
 62
     7
370
     0
100
AcDbCircle
 10
7.0700276134
 20
6.5999956875
 30
0.0
 40
0.9164854222932011
100
AcDbArc
 50
17.5558088961
 51
18.3110552802
  0
LINE
  5
307
330
1F
100
AcDbEntity
  8
0
  6
Continuous
 62
     7
370
     0
100
AcDbLine
 10
7.9438264405
 20
6.876439423
 30
0.0
 11
7.9553398838
 21
6.8830859923
 31
0.0
  0
SPLINE
  5
308
330
1F
100
AcDbEntity
  8
0
  6
Continuous
 62
     7
370
     0
100
AcDbSpline
210
0.0
220
0.0
230
1.0
 70
    24
 71
     1
 72
     4
 73
     2
 74
     0
 42
0.00000001
 43
0.00000001
 40
0.0
 40
0.0
 40
1.0
 40
1.0
 10
7.739257364790525
 20
7.207214649494857
 30
0.0
 10
7.770385694386608
 20
7.201334242998648
 30
0.0
  0
ARC
  5
309
330
1F
100
AcDbEntity
  8
0
  6
Continuous
 62
     7
370
     0
100
AcDbCircle
 10
7.0195211055
 20
6.5996230385
 30
0.0
 40
0.9622130764715442
100
AcDbArc
 50
38.7072139969
 51
39.9536951456
  0
LINE
  5
30A
330
1F
100
AcDbEntity
  8
0
  6
Continuous
 62
     7
370
     0
100
AcDbLine
 10
7.7571186984
 20
7.2175257779
 30
0.0
 11
7.7392573648
 21
7.2072146495
 31
0.0
  0
SPLINE
  5
30B
330
1F
100
AcDbEntity
  8
0
  6
Continuous
 62
     7
370
     0
100
AcDbSpline
210
0.0
220
0.0
230
1.0
 70
     8
 71
     3
 72
    14
 73
    10
 74
     0
 42
0.00000001
 43
0.00000001
 40
0.0
 40
0.0
 40
0.0
 40
0.0
 40
0.5001598129721059
 40
0.6334839770279858
 40
0.7547008492890719
 40
0.8160823888842713
 40
0.8744466572132005
 40
0.9383930382634637
 40
1.0
 40
1.0
 40
1.0
 40
1.0
 10
7.713937807888145
 20
7.256257917186703
 30
0.0
 10
7.717627683478256
 20
7.258451616313355
 30
0.0
 10
7.722301143846194
 20
7.261230074740266
 30
0.0
 10
7.726535345449339
 20
7.265679392852751
 30
0.0
 10
7.727659570319103
 20
7.26794419034916
 30
0.0
 10
7.727937114400812
 20
7.269869778730103
 30
0.0
 10
7.727695259718708
 20
7.271411102153492
 30
0.0
 10
7.727013834290824
 20
7.272951450197484
 30
0.0
 10
7.726199487765496
 20
7.273881038223889
 30
0.0
 10
7.725799901309949
 20
7.274337171789927
 30
0.0
  0
SPLINE
  5
30C
330
1F
100
AcDbEntity
  8
0
  6
Continuous
 62
     7
370
     0
100
AcDbSpline
210
0.0
220
0.0
230
1.0
 70
     8
 71
     3
 72
    14
 73
    10
 74
     0
 42
0.00000001
 43
0.00000001
 40
0.0
 40
0.0
 40
0.0
 40
0.0
 40
0.0625270621852684
 40
0.1249759676500143
 40
0.1874784178590396
 40
0.2499337956408319
 40
0.3634906992471041
 40
0.4998436771421554
 40
1.0
 40
1.0
 40
1.0
 40
1.0
 10
7.725799901309949
 20
7.274337171789927
 30
0.0
 10
7.725347017882441
 20
7.274764321286692
 30
0.0
 10
7.724441817116445
 20
7.275618086357746
 30
0.0
 10
7.722730706807047
 20
7.276576183226501
 30
0.0
 10
7.720896507660607
 20
7.277250519400758
 30
0.0
 10
7.718483336707092
 20
7.277678045571215
 30
0.0
 10
7.715411532406501
 20
7.277534917601185
 30
0.0
 10
7.708713603132682
 20
7.275841103178426
 30
0.0
 10
7.704023407277566
 20
7.273114235653084
 30
0.0
 10
7.700337944850539
 20
7.270971517498327
 30
0.0
  0
SPLINE
  5
30D
330
1F
100
AcDbEntity
  8
0
  6
Continuous
 62
     7
370
     0
100
AcDbSpline
210
0.0
220
0.0
230
1.0
 70
     8
 71
     3
 72
    14
 73
    10
 74
     0
 42
0.00000001
 43
0.00000001
 40
0.0
 40
0.0
 40
0.0
 40
0.0
 40
0.5003034315361234
 40
0.6254176539425021
 40
0.7501401738687314
 40
0.8143424488212174
 40
0.8750383566947506
 40
0.9374874297319956
 40
1.0
 40
1.0
 40
1.0
 40
1.0
 10
7.700337944850539
 20
7.270971517498327
 30
0.0
 10
7.696565572070185
 20
7.268731083174972
 30
0.0
 10
7.691849816819731
 20
7.265930368468653
 30
0.0
 10
7.687466233663926
 20
7.261520248836129
 30
0.0
 10
7.686295592891493
 20
7.259250148036777
 30
0.0
 10
7.686082762064095
 20
7.257213462842188
 30
0.0
 10
7.686386563771316
 20
7.255619434844919
 30
0.0
 10
7.687135787276695
 20
7.254049882724501
 30
0.0
 10
7.687976127197701
 20
7.253111136512151
 30
0.0
 10
7.688396510660749
 20
7.252641524901651
 30
0.0
  0
SPLINE
  5
30E
330
1F
100
AcDbEntity
  8
0
  6
Continuous
 62
     7
370
     0
100
AcDbSpline
210
0.0
220
0.0
230
1.0
 70
     8
 71
     3
 72
    14
 73
    10
 74
     0
 42
0.00000001
 43
0.00000001
 40
0.0
 40
0.0
 40
0.0
 40
0.0
 40
0.0625005409549676
 40
0.1249727346346989
 40
0.1854844482463691
 40
0.2498740647271399
 40
0.3606505595047057
 40
0.4996888686474727
 40
1.0
 40
1.0
 40
1.0
 40
1.0
 10
7.688396510660749
 20
7.252641524901651
 30
0.0
 10
7.688850955338592
 20
7.25220816864534
 30
0.0
 10
7.689759638579766
 20
7.251341652682524
 30
0.0
 10
7.69144889676312
 20
7.250345813428189
 30
0.0
 10
7.693307363598697
 20
7.249669292269121
 30
0.0
 10
7.695710842239418
 20
7.249294509961429
 30
0.0
 10
7.698782661168893
 20
7.249528887470579
 30
0.0
 10
7.705389042523322
 20
7.251430693178967
 30
0.0
 10
7.710184898840492
 20
7.254138765252995
 30
0.0
 10
7.713937807888145
 20
7.256257917186703
 30
0.0
  0
ARC
  5
30F
330
1F
100
AcDbEntity
  8
0
  6
Continuous
 62
     7
370
     0
100
AcDbCircle
 10
7.4451909199
 20
7.3242336694
 30
0.0
 40
0.015189179462582
100
AcDbArc
 50
240.2270657545
 51
275.4523393585
  0
ARC
  5
310
330
1F
100
AcDbEntity
  8
0
  6
Continuous
 62
     7
370
     0
100
AcDbCircle
 10
7.4445586106
 20
7.3305391717
 30
0.0
 40
0.0215262549671341
100
AcDbArc
 50
275.5330254394
 51
295.9876816078
  0
ARC
  5
311
330
1F
100
AcDbEntity
  8
0
  6
Continuous
 62
     7
370
     0
100
AcDbCircle
 10
7.145362784
 20
6.8158514712
 30
0.0
 40
0.5836189468266848
100
AcDbArc
 50
58.0743790141
 51
59.8534376468
  0
SPLINE
  5
312
330
1F
100
AcDbEntity
  8
0
  6
Continuous
 62
     7
370
     0
100
AcDbSpline
210
0.0
220
0.0
230
1.0
 70
     8
 71
     3
 72
    13
 73
     9
 74
     0
 42
0.00000001
 43
0.00000001
 40
0.0
 40
0.0
 40
0.0
 40
0.0
 40
0.2503831206488928
 40
0.4995031561262725
 40
0.623233893963333
 40
0.7495671229800938
 40
0.8746833959388451
 40
0.9999999999999999
 40
0.9999999999999999
 40
0.9999999999999999
 40
0.9999999999999999
 10
7.438464186010221
 20
7.32053220511835
 30
0.0
 10
7.437547072250895
 20
7.319832899420544
 30
0.0
 10
7.435717471213403
 20
7.318437815749387
 30
0.0
 10
7.43432289671698
 20
7.316330861321203
 30
0.0
 10
7.434368121755344
 20
7.31454784600682
 30
0.0
 10
7.434990257641007
 20
7.313252470246951
 30
0.0
 10
7.43610793418634
 20
7.312059454365807
 30
0.0
 10
7.437134717890135
 20
7.31138630412274
 30
0.0
 10
7.437648520424357
 20
7.311049459761535
 30
0.0
  0
SPLINE
  5
313
330
1F
100
AcDbEntity
  8
0
  6
Continuous
 62
     7
370
     0
100
AcDbSpline
210
0.0
220
0.0
230
1.0
 70
     8
 71
     3
 72
    14
 73
    10
 74
     0
 42
0.00000001
 43
0.00000001
 40
0.0
 40
0.0
 40
0.0
 40
0.0
 40
0.5001598129720577
 40
0.633483977025837
 40
0.7547008492902852
 40
0.8160823888853012
 40
0.8744466572135744
 40
0.9383930382638486
 40
0.9999999999999999
 40
0.9999999999999999
 40
0.9999999999999999
 40
0.9999999999999999
 10
7.663933933738705
 20
7.304921194415408
 30
0.0
 10
7.667622073487215
 20
7.307110192982492
 30
0.0
 10
7.672293335302174
 20
7.309882697853964
 30
0.0
 10
7.676474112889084
 20
7.31418168405106
 30
0.0
 10
7.677555536020403
 20
7.316324926291852
 30
0.0
 10
7.677786675936632
 20
7.318117133311014
 30
0.0
 10
7.677500911948949
 20
7.319531013637565
 30
0.0
 10
7.676769315627985
 20
7.320924208113141
 30
0.0
 10
7.67591905105172
 20
7.321746646626996
 30
0.0
 10
7.67550184019892
 20
7.322150203688313
 30
0.0
  0
SPLINE
  5
314
330
1F
100
AcDbEntity
  8
0
  6
Continuous
 62
     7
370
     0
100
AcDbSpline
210
0.0
220
0.0
230
1.0
 70
     8
 71
     3
 72
    14
 73
    10
 74
     0
 42
0.00000001
 43
0.00000001
 40
0.0
 40
0.0
 40
0.0
 40
0.0
 40
0.0625270621852669
 40
0.1249759676500105
 40
0.1874784178592457
 40
0.2499337956407586
 40
0.3634906992473686
 40
0.4998436771421778
 40
1.0
 40
1.0
 40
1.0
 40
1.0
 10
7.67550184019892
 20
7.322150203688313
 30
0.0
 10
7.675031376199951
 20
7.322524497099165
 30
0.0
 10
7.674091036266156
 20
7.323272616066716
 30
0.0
 10
7.672330791276656
 20
7.324080474412657
 30
0.0
 10
7.670453147555966
 20
7.324620484647828
 30
0.0
 10
7.667994669296255
 20
7.32490638473837
 30
0.0
 10
7.664882633690749
 20
7.324635906543771
 30
0.0
 10
7.658131452347592
 20
7.322771759568825
 30
0.0
 10
7.653441779578456
 20
7.320046322143244
 30
0.0
 10
7.649756728181966
 20
7.317904727732375
 30
0.0
  0
SPLINE
  5
315
330
1F
100
AcDbEntity
  8
0
  6
Continuous
 62
     7
370
     0
100
AcDbSpline
210
0.0
220
0.0
230
1.0
 70
     8
 71
     3
 72
    14
 73
    10
 74
     0
 42
0.00000001
 43
0.00000001
 40
0.0
 40
0.0
 40
0.0
 40
0.0
 40
0.5003034315360955
 40
0.6254176539424612
 40
0.7501401738686955
 40
0.8143424488202561
 40
0.875038356694755
 40
0.9374874297319993
 40
1.0
 40
1.0
 40
1.0
 40
1.0
 10
7.649756728181966
 20
7.317904727732375
 30
0.0
 10
7.645985851558364
 20
7.315669272107633
 30
0.0
 10
7.641271966618581
 20
7.312874781156358
 30
0.0
 10
7.636934447151679
 20
7.308612003258436
 30
0.0
 10
7.635803108118232
 20
7.30646651981047
 30
0.0
 10
7.635637889869482
 20
7.304578733243122
 30
0.0
 10
7.635986035460494
 20
7.303121851091893
 30
0.0
 10
7.636785808533822
 20
7.30170687969999
 30
0.0
 10
7.637662514244242
 20
7.300877407925336
 30
0.0
 10
7.63810108984134
 20
7.3004624612967
 30
0.0
  0
SPLINE
  5
316
330
1F
100
AcDbEntity
  8
0
  6
Continuous
 62
     7
370
     0
100
AcDbSpline
210
0.0
220
0.0
230
1.0
 70
     8
 71
     3
 72
    14
 73
    10
 74
     0
 42
0.00000001
 43
0.00000001
 40
0.0
 40
0.0
 40
0.0
 40
0.0
 40
0.0625005409549646
 40
0.1249727346347019
 40
0.1854844482492757
 40
0.249874064726904
 40
0.3606505595068285
 40
0.4996888686474637
 40
1.0
 40
1.0
 40
1.0
 40
1.0
 10
7.63810108984134
 20
7.3004624612967
 30
0.0
 10
7.63857339501906
 20
7.300082349555243
 30
0.0
 10
7.639517791159318
 20
7.29932229847295
 30
0.0
 10
7.641258209318445
 20
7.298476417288488
 30
0.0
 10
7.64316240221385
 20
7.297932482788555
 30
0.0
 10
7.645612255052776
 20
7.297690767181988
 30
0.0
 10
7.648724865382774
 20
7.298040877989002
 30
0.0
 10
7.655382210307346
 20
7.300086015716513
 30
0.0
 10
7.660179726099472
 20
7.302798550371298
 30
0.0
 10
7.663933933738705
 20
7.304921194415408
 30
0.0
  0
SPLINE
  5
317
330
1F
100
AcDbEntity
  8
0
  6
Continuous
 62
     7
370
     0
100
AcDbSpline
210
0.0
220
0.0
230
1.0
 70
     8
 71
     3
 72
    13
 73
     9
 74
     0
 42
0.00000001
 43
0.00000001
 40
0.0
 40
0.0
 40
0.0
 40
0.0
 40
0.2502837930807458
 40
0.4996335298264681
 40
0.6262055894872149
 40
0.7498197801866726
 40
0.8748231480903714
 40
1.0
 40
1.0
 40
1.0
 40
1.0
 10
7.391340652155562
 20
7.348469168506159
 30
0.0
 10
7.390255147813641
 20
7.347796475104152
 30
0.0
 10
7.388088190219942
 20
7.346453598784441
 30
0.0
 10
7.386295380310306
 20
7.344445459133949
 30
0.0
 10
7.385987680882678
 20
7.342785108901023
 30
0.0
 10
7.386388515606158
 20
7.341590936580195
 30
0.0
 10
7.387339531246615
 20
7.340505120724977
 30
0.0
 10
7.388401922813995
 20
7.33994812000913
 30
0.0
 10
7.388933486948039
 20
7.339669426528994
 30
0.0
  0
ARC
  5
318
330
1F
100
AcDbEntity
  8
0
  6
Continuous
 62
     7
370
     0
100
AcDbCircle
 10
7.3944673262
 20
7.3570725549
 30
0.0
 40
0.0182617703281409
100
AcDbArc
 50
252.3603992117
 51
306.4655341796
  0
SPLINE
  5
319
330
1F
100
AcDbEntity
  8
0
  6
Continuous
 62
     7
370
     0
100
AcDbSpline
210
0.0
220
0.0
230
1.0
 70
     8
 71
     3
 72
    13
 73
     9
 74
     0
 42
0.00000001
 43
0.00000001
 40
0.0
 40
0.0
 40
0.0
 40
0.0
 40
0.2503895108602445
 40
0.4999174635819406
 40
0.6260458464074979
 40
0.7500378636043622
 40
0.8749142295199949
 40
1.0
 40
1.0
 40
1.0
 40
1.0
 10
7.405321010792395
 20
7.342386173979323
 30
0.0
 10
7.406390684216958
 20
7.343039167784013
 30
0.0
 10
7.408526350457255
 20
7.344342908525605
 30
0.0
 10
7.410426005233272
 20
7.346289404752264
 30
0.0
 10
7.410957162307207
 20
7.347945706810806
 30
0.0
 10
7.410742126460821
 20
7.349161770937082
 30
0.0
 10
7.409949097105937
 20
7.350285512440585
 30
0.0
 10
7.408926207604526
 20
7.35083980103495
 30
0.0
 10
7.408414334393467
 20
7.351117177508418
 30
0.0
  0
ARC
  5
31A
330
1F
100
AcDbEntity
  8
0
  6
Continuous
 62
     7
370
     0
100
AcDbCircle
 10
7.4024588577
 20
7.3331491976
 30
0.0
 40
0.0189292367267291
100
AcDbArc
 50
71.6622518605
 51
125.9696235929
  0
ARC
  5
31B
330
1F
100
AcDbEntity
  8
0
  6
Continuous
 62
     7
370
     0
100
AcDbCircle
 10
7.2279822144
 20
7.0239520709
 30
0.0
 40
0.3511651806063731
100
AcDbArc
 50
76.4104447486
 51
77.1022810613
  0
ARC
  5
31C
330
1F
100
AcDbEntity
  8
0
  6
Continuous
 62
     7
370
     0
100
AcDbCircle
 10
7.3010189013
 20
7.3465814456
 30
0.0
 40
0.0203896218469248
100
AcDbArc
 50
74.7958813098
 51
118.3885869937
  0
SPLINE
  5
31D
330
1F
100
AcDbEntity
  8
0
  6
Continuous
 62
     7
370
     0
100
AcDbSpline
210
0.0
220
0.0
230
1.0
 70
     8
 71
     3
 72
    13
 73
     9
 74
     0
 42
0.00000001
 43
0.00000001
 40
0.0
 40
0.0
 40
0.0
 40
0.0
 40
0.1297148784705058
 40
0.2501166036159066
 40
0.3795473458314808
 40
0.5003189319527753
 40
0.7495371040294161
 40
1.0
 40
1.0
 40
1.0
 40
1.0
 10
7.291324676432096
 20
7.364519078742806
 30
0.0
 10
7.290829523102309
 20
7.36421040743485
 30
0.0
 10
7.289874767020541
 20
7.363615226526619
 30
0.0
 10
7.288920164795153
 20
7.362673669258951
 30
0.0
 10
7.288409394454703
 20
7.36178034574843
 30
0.0
 10
7.288549545608784
 20
7.360702463013016
 30
0.0
 10
7.290237990748958
 20
7.359798304767503
 30
0.0
 10
7.292093264584532
 20
7.359329344885637
 30
0.0
 10
7.293023212279953
 20
7.359094280846559
 30
0.0
  0
ARC
  5
31E
330
1F
100
AcDbEntity
  8
0
  6
Continuous
 62
     7
370
     0
100
AcDbCircle
 10
7.2154248418
 20
7.0171230725
 30
0.0
 40
0.3506648178366539
100
AcDbArc
 50
76.4100887988
 51
77.2152291942
  0
LINE
  5
31F
330
1F
100
AcDbEntity
  8
0
  6
Continuous
 62
     7
370
     0
100
AcDbLine
 10
7.297820892
 20
7.3579701135
 30
0.0
 11
7.3104937149
 21
7.3652859784
 31
0.0
  0
SPLINE
  5
320
330
1F
100
AcDbEntity
  8
0
  6
Continuous
 62
     7
370
     0
100
AcDbSpline
210
0.0
220
0.0
230
1.0
 70
     8
 71
     3
 72
    14
 73
    10
 74
     0
 42
0.00000001
 43
0.00000001
 40
0.0
 40
0.0
 40
0.0
 40
0.0
 40
0.5001598129721603
 40
0.6334839770319517
 40
0.7547008492922722
 40
0.81608238888699
 40
0.8744466572146495
 40
0.9383930382638161
 40
1.0
 40
1.0
 40
1.0
 40
1.0
 10
7.533057115861697
 20
7.397488402678117
 30
0.0
 10
7.536743696534512
 20
7.399663348942152
 30
0.0
 10
7.541412983681727
 20
7.402418055684751
 30
0.0
 10
7.545548422196412
 20
7.406269253017438
 30
0.0
 10
7.546594041165955
 20
7.408050730607151
 30
0.0
 10
7.546787108511714
 20
7.409446414175462
 30
0.0
 10
7.546465894624939
 20
7.410481758510516
 30
0.0
 10
7.545694510840019
 20
7.411438284393992
 30
0.0
 10
7.544816602585187
 20
7.411943241489928
 30
0.0
 10
7.544385827433659
 20
7.412191015637535
 30
0.0
  0
ARC
  5
321
330
1F
100
AcDbEntity
  8
0
  6
Continuous
 62
     7
370
     0
100
AcDbCircle
 10
7.537526995
 20
7.3855857774
 30
0.0
 40
0.027475121168874
100
AcDbArc
 50
75.5439119775
 51
134.0057393348
  0
SPLINE
  5
322
330
1F
100
AcDbEntity
  8
0
  6
Continuous
 62
     7
370
     0
100
AcDbSpline
210
0.0
220
0.0
230
1.0
 70
     8
 71
     3
 72
    14
 73
    10
 74
     0
 42
0.00000001
 43
0.00000001
 40
0.0
 40
0.0
 40
0.0
 40
0.0
 40
0.5003034315361891
 40
0.6254176539425803
 40
0.7501401738688349
 40
0.8143424488237065
 40
0.8750383566947341
 40
0.9374874297319854
 40
1.0
 40
1.0
 40
1.0
 40
1.0
 10
7.518439192386712
 20
7.405347813671786
 30
0.0
 10
7.51466922654369
 20
7.403126975322891
 30
0.0
 10
7.509956480149473
 20
7.400350757087318
 30
0.0
 10
7.505649777071062
 20
7.396521959158338
 30
0.0
 10
7.504545242220885
 20
7.394743789872723
 30
0.0
 10
7.504413463249392
 20
7.393295395726303
 30
0.0
 10
7.504793467271594
 20
7.392243605101407
 30
0.0
 10
7.505630378179368
 20
7.39128566557862
 30
0.0
 10
7.506534703567278
 20
7.390779765384374
 30
0.0
 10
7.506987096020368
 20
7.390526686754765
 30
0.0
  0
ARC
  5
323
330
1F
100
AcDbEntity
  8
0
  6
Continuous
 62
     7
370
     0
100
AcDbCircle
 10
7.5138577842
 20
7.4170915075
 30
0.0
 40
0.027438951432286
100
AcDbArc
 50
255.4988711867
 51
314.4038090992
  0
SPLINE
  5
324
330
1F
100
AcDbEntity
  8
0
  6
Continuous
 62
     7
370
     0
100
AcDbSpline
210
0.0
220
0.0
230
1.0
 70
     8
 71
     3
 72
    14
 73
    10
 74
     0
 42
0.00000001
 43
0.00000001
 40
0.0
 40
0.0
 40
0.0
 40
0.0
 40
0.5001598129720621
 40
0.6334839770234714
 40
0.7547008492848193
 40
0.8160823888806797
 40
0.8744466572128384
 40
0.9383930382641302
 40
1.0
 40
1.0
 40
1.0
 40
1.0
 10
7.480493243941012
 20
7.421369752263551
 30
0.0
 10
7.484180338612801
 20
7.42353838634194
 30
0.0
 10
7.488850276772101
 20
7.42628509830291
 30
0.0
 10
7.493003607216094
 20
7.429935696841536
 30
0.0
 10
7.49406396831658
 20
7.431555215879956
 30
0.0
 10
7.49427360247534
 20
7.432773526642368
 30
0.0
 10
7.493968515920963
 20
7.433639656621265
 30
0.0
 10
7.493216121720104
 20
7.43440112028587
 30
0.0
 10
7.492352467253181
 20
7.434764417716514
 30
0.0
 10
7.491928686201116
 20
7.434942681794647
 30
0.0
  0
ARC
  5
325
330
1F
100
AcDbEntity
  8
0
  6
Continuous
 62
     7
370
     0
100
AcDbCircle
 10
7.4876555875
 20
7.4030609199
 30
0.0
 40
0.0321668480614992
100
AcDbArc
 50
82.366165816
 51
132.0587288026
  0
SPLINE
  5
326
330
1F
100
AcDbEntity
  8
0
  6
Continuous
 62
     7
370
     0
100
AcDbSpline
210
0.0
220
0.0
230
1.0
 70
     8
 71
     3
 72
    14
 73
    10
 74
     0
 42
0.00000001
 43
0.00000001
 40
0.0
 40
0.0
 40
0.0
 40
0.0
 40
0.5003034315361712
 40
0.6254176539425627
 40
0.7501401738688118
 40
0.8143424488280497
 40
0.8750383566947325
 40
0.937487429731986
 40
1.0
 40
1.0
 40
1.0
 40
1.0
 10
7.466107273753816
 20
7.426943471878364
 30
0.0
 10
7.46233652552989
 20
7.424729110343468
 30
0.0
 10
7.457622801099549
 20
7.421960988622049
 30
0.0
 10
7.4532941850379
 20
7.418324957680367
 30
0.0
 10
7.452171354801983
 20
7.416710033984584
 30
0.0
 10
7.452018169507036
 20
7.415457091654243
 30
0.0
 10
7.452378796996754
 20
7.414585624124578
 30
0.0
 10
7.45319426313934
 20
7.41383127829604
 30
0.0
 10
7.454083868191276
 20
7.413469685682922
 30
0.0
 10
7.454528896736427
 20
7.413288797507654
 30
0.0
  0
ARC
  5
327
330
1F
100
AcDbEntity
  8
0
  6
Continuous
 62
     7
370
     0
100
AcDbCircle
 10
7.4588787054
 20
7.4450653195
 30
0.0
 40
0.032072857458491
100
AcDbArc
 50
262.2053688908
 51
312.3703344102
  0
SPLINE
  5
328
330
1F
100
AcDbEntity
  8
0
  6
Continuous
 62
     7
370
     0
100
AcDbSpline
210
0.0
220
0.0
230
1.0
 70
     8
 71
     3
 72
     9
 73
     5
 74
     0
 42
0.00000001
 43
0.00000001
 40
0.0
 40
0.0
 40
0.0
 40
0.0
 40
0.4999994477952386
 40
1.0
 40
1.0
 40
1.0
 40
1.0
 10
7.261162621244839
 20
7.381595642808117
 30
0.0
 10
7.262556263048831
 20
7.381778459832048
 30
0.0
 10
7.265343549735117
 20
7.38214409428372
 30
0.0
 10
7.268032942712583
 20
7.382385888087914
 30
0.0
 10
7.269377640686414
 20
7.382506785123531
 30
0.0
  0
ARC
  5
329
330
1F
100
AcDbEntity
  8
0
  6
Continuous
 62
     7
370
     0
100
AcDbCircle
 10
7.2642800358
 20
7.4510170662
 30
0.0
 40
0.0686996665547357
100
AcDbArc
 50
274.2553325459
 51
281.055617587
  0
ARC
  5
32A
330
1F
100
AcDbEntity
  8
0
  6
Continuous
 62
     7
370
     0
100
AcDbCircle
 10
7.2738042735
 20
7.3992292533
 30
0.0
 40
0.0160571762687833
100
AcDbArc
 50
283.1379310386
 51
298.9218065494
  0
SPLINE
  5
32B
330
1F
100
AcDbEntity
  8
0
  6
Continuous
 62
     7
370
     0
100
AcDbSpline
210
0.0
220
0.0
230
1.0
 70
     8
 71
     3
 72
    13
 73
     9
 74
     0
 42
0.00000001
 43
0.00000001
 40
0.0
 40
0.0
 40
0.0
 40
0.0
 40
0.2485845284638315
 40
0.3735388535812951
 40
0.4967972082245016
 40
0.6212572301467018
 40
0.750209309916258
 40
1.0
 40
1.0
 40
1.0
 40
1.0
 10
7.281569773529882
 20
7.385174719611533
 30
0.0
 10
7.282140907324708
 20
7.385542670452625
 30
0.0
 10
7.282999129130701
 20
7.386095576686192
 30
0.0
 10
7.283406481804644
 20
7.386751634509125
 30
0.0
 10
7.28343555547659
 20
7.387172274382126
 30
0.0
 10
7.283162722932182
 20
7.387502532083932
 30
0.0
 10
7.282476572672039
 20
7.387816554168089
 30
0.0
 10
7.281649729454717
 20
7.387896422500337
 30
0.0
 10
7.281104404885417
 20
7.38794909773909
 30
0.0
  0
ARC
  5
32C
330
1F
100
AcDbEntity
  8
0
  6
Continuous
 62
     7
370
     0
100
AcDbCircle
 10
7.2811502675
 20
7.3543559544
 30
0.0
 40
0.0335931746052638
100
AcDbArc
 50
90.078222299
 51
121.3428212422
  0
LINE
  5
32D
330
1F
100
AcDbEntity
  8
0
  6
Continuous
 62
     7
370
     0
100
AcDbLine
 10
7.2636765236
 20
7.3830468877
 30
0.0
 11
7.2611626212
 21
7.3815956428
 31
0.0
  0
ARC
  5
32E
330
1F
100
AcDbEntity
  8
0
  6
Continuous
 62
     7
370
     0
100
AcDbCircle
 10
7.8648560373
 20
7.0781563546
 30
0.0
 40
0.9035504968193528
100
AcDbArc
 50
2.5011786791
 51
57.4934447882
  0
SPLINE
  5
32F
330
1F
100
AcDbEntity
  8
0
  6
Continuous
 62
     7
370
     0
100
AcDbSpline
210
0.0
220
0.0
230
1.0
 70
     8
 71
     3
 72
    13
 73
     9
 74
     0
 42
0.00000001
 43
0.00000001
 40
0.0
 40
0.0
 40
0.0
 40
0.0
 40
0.5004639766924548
 40
0.6282475802581728
 40
0.7518824419761719
 40
0.8133314421026424
 40
0.8755414302538209
 40
1.0
 40
1.0
 40
1.0
 40
1.0
 10
8.382883594905385
 20
7.712393087243686
 30
0.0
 10
8.38651906377125
 20
7.714562634004991
 30
0.0
 10
8.39108277789345
 20
7.717286131732148
 30
0.0
 10
8.39494720560523
 20
7.721672432027788
 30
0.0
 10
8.395769714013312
 20
7.723875391358997
 30
0.0
 10
8.395757101348364
 20
7.725735451137687
 30
0.0
 10
8.395193735789928
 20
7.727649720650885
 30
0.0
 10
8.394003087595491
 20
7.728915995809224
 30
0.0
 10
8.393209240077626
 20
7.729760266514945
 30
0.0
  0
SPLINE
  5
330
330
1F
100
AcDbEntity
  8
0
  6
Continuous
 62
     7
370
     0
100
AcDbSpline
210
0.0
220
0.0
230
1.0
 70
     8
 71
     3
 72
    13
 73
     9
 74
     0
 42
0.00000001
 43
0.00000001
 40
0.0
 40
0.0
 40
0.0
 40
0.0
 40
0.1246091732983647
 40
0.1867338934541221
 40
0.2497493975586062
 40
0.3745255218345752
 40
0.4996502570872903
 40
1.0
 40
1.0
 40
1.0
 40
1.0
 10
8.393209240077626
 20
7.729760266514945
 30
0.0
 10
8.392242239896426
 20
7.730486443163939
 30
0.0
 10
8.390793135436246
 20
7.731574659941346
 30
0.0
 10
8.38835961884723
 20
7.732422316605284
 30
0.0
 10
8.385845011323283
 20
7.732926511535515
 30
0.0
 10
8.382699159779758
 20
7.732822949461248
 30
0.0
 10
8.375891578588762
 20
7.731237072682764
 30
0.0
 10
8.371331972640801
 20
7.728587509698754
 30
0.0
 10
8.367684505408347
 20
7.726467985714707
 30
0.0
  0
SPLINE
  5
331
330
1F
100
AcDbEntity
  8
0
  6
Continuous
 62
     7
370
     0
100
AcDbSpline
210
0.0
220
0.0
230
1.0
 70
     8
 71
     3
 72
    13
 73
     9
 74
     0
 42
0.00000001
 43
0.00000001
 40
0.0
 40
0.0
 40
0.0
 40
0.0
 40
0.5004231501093785
 40
0.6255784393531136
 40
0.7503815851610531
 40
0.8126552223393091
 40
0.8754890600875033
 40
1.0
 40
1.0
 40
1.0
 40
1.0
 10
8.367684505408347
 20
7.726467985714707
 30
0.0
 10
8.363966377847227
 20
7.724253922275865
 30
0.0
 10
8.359318350599702
 20
7.721486123962781
 30
0.0
 10
8.35528320134261
 20
7.717112395016953
 30
0.0
 10
8.354460759732092
 20
7.714884044092046
 30
0.0
 10
8.35456158550327
 20
7.712977232655522
 30
0.0
 10
8.355231478000874
 20
7.71103838683512
 30
0.0
 10
8.356473995169072
 20
7.709753964960279
 30
0.0
 10
8.357299782695158
 20
7.708900327208124
 30
0.0
  0
SPLINE
  5
332
330
1F
100
AcDbEntity
  8
0
  6
Continuous
 62
     7
370
     0
100
AcDbSpline
210
0.0
220
0.0
230
1.0
 70
     8
 71
     3
 72
    13
 73
     9
 74
     0
 42
0.00000001
 43
0.00000001
 40
0.0
 40
0.0
 40
0.0
 40
0.0
 40
0.1245513980942326
 40
0.1859899457677079
 40
0.2495609023916449
 40
0.3742835246961228
 40
0.4994689293691139
 40
0.9999999999999999
 40
0.9999999999999999
 40
0.9999999999999999
 40
0.9999999999999999
 10
8.357299782695158
 20
7.708900327208124
 30
0.0
 10
8.358267299415248
 20
7.708157541313383
 30
0.0
 10
8.3597120714937
 20
7.707048354982331
 30
0.0
 10
8.362166315608357
 20
7.706169010996814
 30
0.0
 10
8.364706668134897
 20
7.705693226402361
 30
0.0
 10
8.367856773181327
 20
7.705857107394599
 30
0.0
 10
8.374509816803382
 20
7.707717044906533
 30
0.0
 10
8.379162089687682
 20
7.710314943334934
 30
0.0
 10
8.382883594905385
 20
7.712393087243686
 30
0.0
  0
ARC
  5
333
330
1F
100
AcDbEntity
  8
0
  6
Continuous
 62
     7
370
     0
100
AcDbCircle
 10
7.490078203
 20
6.5946648053
 30
0.0
 40
0.2772999830516827
100
AcDbArc
 50
234.8304110692
 51
281.658057212
  0
SPLINE
  5
334
330
1F
100
AcDbEntity
  8
0
  6
Continuous
 62
     7
370
     0
100
AcDbSpline
210
0.0
220
0.0
230
1.0
 70
    24
 71
     1
 72
     4
 73
     2
 74
     0
 42
0.00000001
 43
0.00000001
 40
0.0
 40
0.0
 40
1.0
 40
1.0
 10
7.332600275812937
 20
6.364681557130355
 30
0.0
 10
7.330353824194831
 20
6.367985729511045
 30
0.0
  0
LWPOLYLINE
  5
335
330
1F
100
AcDbEntity
  8
0
  6
Continuous
 62
     7
370
     0
100
AcDbPolyline
 90
       11
 70
   128
 43
0.0
 10
7.3314725665
 20
6.4082982484
 10
7.3633439369
 20
6.391197899
 10
7.3949426677
 20
6.3779324309
 10
7.425951352
 20
6.3686350948
 10
7.4560585097
 20
6.3633992818
 10
7.4849617167
 20
6.3622775851
 10
7.5123706424
 20
6.3652812722
 10
7.538009966
 20
6.3723801713
 10
7.5616221426
 20
6.3835029744
 10
7.5829699893
 20
6.3985379537
 10
7.5854901172
 20
6.4007044446
  0
LINE
  5
336
330
1F
100
AcDbEntity
  8
0
  6
Continuous
 62
     7
370
     0
100
AcDbLine
 10
7.3303538242
 20
6.3679857295
 30
0.0
 11
7.3314725665
 21
6.4082982484
 31
0.0
  0
LINE
  5
337
330
1F
100
AcDbEntity
  8
0
  6
Continuous
 62
     7
370
     0
100
AcDbLine
 10
7.3314725665
 20
6.4082982484
 30
0.0
 11
7.349150236
 21
6.4185033498
 31
0.0
  0
ARC
  5
338
330
1F
100
AcDbEntity
  8
0
  6
Continuous
 62
     7
370
     0
100
AcDbCircle
 10
7.5762742248
 20
6.8004767622
 30
0.0
 40
0.4443973380230272
100
AcDbArc
 50
237.6602481358
 51
239.2639956092
  0
LINE
  5
339
330
1F
100
AcDbEntity
  8
0
  6
Continuous
 62
     7
370
     0
100
AcDbLine
 10
7.3208712369
 20
6.4148043959
 30
0.0
 11
7.3385489064
 21
6.4250094973
 31
0.0
  0
LWPOLYLINE
  5
33A
330
1F
100
AcDbEntity
  8
0
  6
Continuous
 62
     7
370
     0
100
AcDbPolyline
 90
       26
 70
   128
 43
0.0
 10
7.138491599
 20
7.175012487
 10
7.1343938736
 20
7.173561486
 10
7.1107816971
 20
7.1624386829
 10
7.0894338504
 20
7.1474037036
 10
7.0705647709
 20
7.1286075733
 10
7.0543639973
 20
7.1062390977
 10
7.0409942651
 20
7.0805229666
 10
7.0305898724
 20
7.0517174966
 10
7.0232553304
 20
7.0201120366
 10
7.0190643142
 20
6.9860240612
 10
7.0180589221
 20
6.9497959815
 10
7.0202492533
 20
6.911791706
 10
7.0256133061
 20
6.872392985
 10
7.034097199
 20
6.8319955755
 10
7.0456157117
 20
6.7910052668
 10
7.0600531419
 20
6.7498338035
 10
7.0772644664
 20
6.7088947499
 10
7.0970767987
 20
6.6685993359
 10
7.1192911256
 20
6.6293523259
 10
7.1436843056
 20
6.5915479533
 10
7.170011311
 20
6.5555659603
 10
7.198007689
 20
6.5217677835
 10
7.227392218
 20
6.4904929229
 10
7.2578697326
 20
6.4620555323
 10
7.2891340883
 20
6.4367412633
 10
7.3208712369
 20
6.4148043959
  0
LWPOLYLINE
  5
33B
330
1F
100
AcDbEntity
  8
0
  6
Continuous
 62
     7
370
     0
100
AcDbPolyline
 90
       31
 70
   128
 43
0.0
 10
7.1398877665
 20
7.1746360455
 10
7.133903113
 20
7.1687388833
 10
7.1170130962
 20
7.1481600903
 10
7.1027787737
 20
7.1242825179
 10
7.0913372295
 20
7.0973361201
 10
7.0827986522
 20
7.0675804055
 10
7.0772452729
 20
7.0353019379
 10
7.0747305737
 20
7.0008115765
 10
7.0752787724
 20
6.9644414825
 10
7.0788845897
 20
6.9265419196
 10
7.0855132995
 20
6.8874778815
 10
7.0951010637
 20
6.8476255761
 10
7.107555547
 20
6.8073688029
 10
7.1227568058
 20
6.7670952567
 10
7.1405584437
 20
6.7271927937
 10
7.1607890213
 20
6.6880456965
 10
7.1832537069
 20
6.6500309729
 10
7.2077361535
 20
6.6135147257
 10
7.2340005815
 20
6.5788486261
 10
7.2617940504
 20
6.5463665277
 10
7.2908488936
 20
6.5163812509
 10
7.3208852973
 20
6.4891815702
 10
7.3516139944
 20
6.4650294335
 10
7.3827390508
 20
6.444157439
 10
7.4139607152
 20
6.4267665955
 10
7.4449783059
 20
6.4130243862
 10
7.4754931065
 20
6.4030631562
 10
7.5052112428
 20
6.3969788375
 10
7.5338465129
 20
6.3948300255
 10
7.5611231436
 20
6.3966374145
 10
7.5858623242
 20
6.402101747
  0
LWPOLYLINE
  5
33C
330
1F
100
AcDbEntity
  8
0
  6
Continuous
 62
     7
370
     0
100
AcDbPolyline
 90
       24
 70
   128
 43
0.0
 10
7.0515829457
 20
7.1797280736
 10
7.0347050559
 20
7.160541309
 10
7.0186354018
 20
7.1360901614
 10
7.0053870732
 20
7.1084129877
 10
6.995077771
 20
7.0777556777
 10
6.9877990852
 20
7.0443905971
 10
6.983615681
 20
7.008614168
 10
6.9825647247
 20
6.9707442356
 10
6.9846555532
 20
6.931117244
 10
6.9898695911
 20
6.8900852475
 10
6.9981605159
 20
6.8480127826
 10
7.0094546693
 20
6.8052736298
 10
7.0236517117
 20
6.7622474923
 10
7.0406255137
 20
6.7193166231
 10
7.0602252767
 20
6.6768624288
 10
7.0822768723
 20
6.6352620811
 10
7.1065843897
 20
6.5948851659
 10
7.1329318759
 20
6.5560903999
 10
7.1610852546
 20
6.5192224438
 10
7.1907944053
 20
6.48460884
 10
7.221795386
 20
6.4525571027
 10
7.2538127776
 20
6.4233519862
 10
7.2865621311
 20
6.3972529546
 10
7.3197524946
 20
6.374491877
  0
SPLINE
  5
33D
330
1F
100
AcDbEntity
  8
0
  6
Continuous
 62
     7
370
     0
100
AcDbSpline
210
0.0
220
0.0
230
1.0
 70
    24
 71
     1
 72
     4
 73
     2
 74
     0
 42
0.00000001
 43
0.00000001
 40
0.0
 40
0.0
 40
1.0
 40
1.0
 10
7.319752494572584
 20
6.374491876958087
 30
0.0
 10
7.321998941708387
 20
6.371187699149147
 30
0.0
  0
LINE
  5
33E
330
1F
100
AcDbEntity
  8
0
  6
Continuous
 62
     7
370
     0
100
AcDbLine
 10
7.3197524946
 20
6.374491877
 30
0.0
 11
7.3208712369
 21
6.4148043959
 31
0.0
  0
LINE
  5
33F
330
1F
100
AcDbEntity
  8
0
  6
Continuous
 62
     7
370
     0
100
AcDbLine
 10
7.3381928034
 20
6.4121777586
 30
0.0
 11
7.3385489064
 21
6.4250094973
 31
0.0
  0
LINE
  5
340
330
1F
100
AcDbEntity
  8
0
  6
Continuous
 62
     7
370
     0
100
AcDbLine
 10
7.0249440466
 20
4.3071889837
 30
0.0
 11
5.6675274854
 21
4.3071889837
 31
0.0
  0
LINE
  5
341
330
1F
100
AcDbEntity
  8
0
  6
Continuous
 62
     7
370
     0
100
AcDbLine
 10
5.6675274854
 20
4.3071889837
 30
0.0
 11
7.0519026818
 21
4.656061648
 31
0.0
  0
LINE
  5
342
330
1F
100
AcDbEntity
  8
0
  6
Continuous
 62
     7
370
     0
100
AcDbLine
 10
5.6675274854
 20
4.3071889837
 30
0.0
 11
7.0519026818
 21
3.9583163194
 31
0.0
  0
LINE
  5
343
330
1F
100
AcDbEntity
  8
0
  6
Continuous
 62
     7
370
     0
100
AcDbLine
 10
8.2257014645
 20
4.3071889837
 30
0.0
 11
9.0799054382
 21
4.3071889837
 31
0.0
  0
LINE
  5
344
330
1F
100
AcDbEntity
  8
0
  6
Continuous
 62
     7
370
     0
100
AcDbLine
 10
9.0799054382
 20
4.3071889837
 30
0.0
 11
8.2062711531
 21
4.656061648
 31
0.0
  0
LINE
  5
345
330
1F
100
AcDbEntity
  8
0
  6
Continuous
 62
     7
370
     0
100
AcDbLine
 10
9.0799054382
 20
4.3071889837
 30
0.0
 11
8.2062711531
 21
3.9583163194
 31
0.0
  0
LINE
  5
346
330
1F
100
AcDbEntity
  8
0
  6
Continuous
 62
     7
370
     0
100
AcDbLine
 10
7.0806729389
 20
3.8071889837
 30
0.0
 11
7.3014570407
 21
3.8071889837
 31
0.0
  0
LINE
  5
347
330
1F
100
AcDbEntity
  8
0
  6
Continuous
 62
     7
370
     0
100
AcDbLine
 10
7.3014570407
 20
4.8071889837
 30
0.0
 11
7.0806729389
 21
4.8071889837
 31
0.0
  0
ARC
  5
348
330
1F
100
AcDbEntity
  8
0
  6
Continuous
 62
     7
370
     0
100
AcDbCircle
 10
9.2958101883
 20
4.3071889837
 30
0.0
 40
2.270866141732285
100
AcDbArc
 50
167.2803766009
 51
192.7196233991
  0
LINE
  5
349
330
1F
100
AcDbEntity
  8
0
  6
Continuous
 62
     7
370
     0
100
AcDbLine
 10
7.8439612245
 20
3.8071889837
 30
0.0
 11
7.9170595691
 21
3.8071889837
 31
0.0
  0
LINE
  5
34A
330
1F
100
AcDbEntity
  8
0
  6
Continuous
 62
     7
370
     0
100
AcDbLine
 10
7.9170595691
 20
4.8071889837
 30
0.0
 11
7.8439612245
 21
4.8071889837
 31
0.0
  0
ARC
  5
34B
330
1F
100
AcDbEntity
  8
0
  6
Continuous
 62
     7
370
     0
100
AcDbCircle
 10
8.496961307
 20
4.3071889837
 30
0.0
 40
0.8224409448818898
100
AcDbArc
 50
142.5588390421
 51
217.4411609579
  0
ARC
  5
34C
330
1F
100
AcDbEntity
  8
0
  6
Continuous
 62
     7
370
     0
100
AcDbCircle
 10
6.5855739678
 20
4.3071889837
 30
0.0
 40
0.9314960629921271
100
AcDbArc
 50
327.5359091707
 51
0.0
  0
ARC
  5
34D
330
1F
100
AcDbEntity
  8
0
  6
Continuous
 62
     7
370
     0
100
AcDbCircle
 10
6.5855739678
 20
4.3071889837
 30
0.0
 40
0.9314960629921271
100
AcDbArc
 50
0.0
 51
32.4640908293
  0
LINE
  5
34E
330
1F
100
AcDbEntity
  8
0
  6
Continuous
 62
     7
370
     0
100
AcDbLine
 10
7.3014570407
 20
3.8071889837
 30
0.0
 11
7.3715033001
 21
3.8071889837
 31
0.0
  0
LINE
  5
34F
330
1F
100
AcDbEntity
  8
0
  6
Continuous
 62
     7
370
     0
100
AcDbLine
 10
7.3715033001
 20
4.8071889837
 30
0.0
 11
7.3014570407
 21
4.8071889837
 31
0.0
  0
ARC
  5
350
330
1F
100
AcDbEntity
  8
0
  6
Continuous
 62
     7
370
     0
100
AcDbCircle
 10
5.083969181
 20
4.3071889837
 30
0.0
 40
3.141732283464568
100
AcDbArc
 50
350.8425609973
 51
0.0
  0
ARC
  5
351
330
1F
100
AcDbEntity
  8
0
  6
Continuous
 62
     7
370
     0
100
AcDbCircle
 10
5.083969181
 20
4.3071889837
 30
0.0
 40
3.141732283464568
100
AcDbArc
 50
0.0
 51
9.1574390027
  0
LINE
  5
352
330
1F
100
AcDbEntity
  8
0
  6
Continuous
 62
     7
370
     0
100
AcDbLine
 10
7.9170595691
 20
3.8071889837
 30
0.0
 11
8.1856593237
 21
3.8071889837
 31
0.0
  0
LINE
  5
353
330
1F
100
AcDbEntity
  8
0
  6
Continuous
 62
     7
370
     0
100
AcDbLine
 10
8.1856593237
 20
4.8071889837
 30
0.0
 11
7.9170595691
 21
4.8071889837
 31
0.0
  0
LINE
  5
354
330
1F
100
AcDbEntity
  8
0
  6
Continuous
 62
     7
370
     0
100
AcDbLine
 10
7.0806729389
 20
4.3071889837
 30
0.0
 11
7.0806729389
 21
4.8071889837
 31
0.0
  0
LINE
  5
355
330
1F
100
AcDbEntity
  8
0
  6
Continuous
 62
     7
370
     0
100
AcDbLine
 10
7.0806729389
 20
3.8071889837
 30
0.0
 11
7.0806729389
 21
4.3071889837
 31
0.0
  0
LINE
  5
356
330
1F
100
AcDbEntity
  8
0
  6
Continuous
 62
     7
370
     0
100
AcDbLine
 10
7.3014570407
 20
4.3071889837
 30
0.0
 11
7.3014570407
 21
4.8071889837
 31
0.0
  0
LINE
  5
357
330
1F
100
AcDbEntity
  8
0
  6
Continuous
 62
     7
370
     0
100
AcDbLine
 10
7.3014570407
 20
3.8071889837
 30
0.0
 11
7.3014570407
 21
4.3071889837
 31
0.0
  0
LINE
  5
358
330
1F
100
AcDbEntity
  8
0
  6
Continuous
 62
     7
370
     0
100
AcDbLine
 10
7.9170595691
 20
4.3071889837
 30
0.0
 11
7.9170595691
 21
4.8071889837
 31
0.0
  0
LINE
  5
359
330
1F
100
AcDbEntity
  8
0
  6
Continuous
 62
     7
370
     0
100
AcDbLine
 10
7.9170595691
 20
3.8071889837
 30
0.0
 11
7.9170595691
 21
4.3071889837
 31
0.0
  0
LINE
  5
35A
330
1F
100
AcDbEntity
  8
0
  6
Continuous
 62
     7
370
     0
100
AcDbLine
 10
7.8439612245
 20
4.3071889837
 30
0.0
 11
7.8439612245
 21
4.8071889837
 31
0.0
  0
LINE
  5
35B
330
1F
100
AcDbEntity
  8
0
  6
Continuous
 62
     7
370
     0
100
AcDbLine
 10
7.8439612245
 20
3.8071889837
 30
0.0
 11
7.8439612245
 21
4.3071889837
 31
0.0
  0
LINE
  5
35C
330
1F
100
AcDbEntity
  8
0
  6
Continuous
 62
     7
370
     0
100
AcDbLine
 10
7.3715033001
 20
4.3071889837
 30
0.0
 11
7.3715033001
 21
4.8071889837
 31
0.0
  0
LINE
  5
35D
330
1F
100
AcDbEntity
  8
0
  6
Continuous
 62
     7
370
     0
100
AcDbLine
 10
7.3715033001
 20
3.8071889837
 30
0.0
 11
7.3715033001
 21
4.3071889837
 31
0.0
  0
LINE
  5
35E
330
1F
100
AcDbEntity
  8
0
  6
Continuous
 62
     7
370
     0
100
AcDbLine
 10
7.3014570407
 20
4.3071889837
 30
0.0
 11
7.3014570407
 21
4.8071889837
 31
0.0
  0
LINE
  5
35F
330
1F
100
AcDbEntity
  8
0
  6
Continuous
 62
     7
370
     0
100
AcDbLine
 10
7.3014570407
 20
3.8071889837
 30
0.0
 11
7.3014570407
 21
4.3071889837
 31
0.0
  0
LINE
  5
360
330
1F
100
AcDbEntity
  8
0
  6
Continuous
 62
     7
370
     0
100
AcDbLine
 10
8.1856593237
 20
4.3071889837
 30
0.0
 11
8.1856593237
 21
4.8071889837
 31
0.0
  0
LINE
  5
361
330
1F
100
AcDbEntity
  8
0
  6
Continuous
 62
     7
370
     0
100
AcDbLine
 10
8.1856593237
 20
3.8071889837
 30
0.0
 11
8.1856593237
 21
4.3071889837
 31
0.0
  0
LINE
  5
362
330
1F
100
AcDbEntity
  8
0
  6
Continuous
 62
     7
370
     0
100
AcDbLine
 10
7.9170595691
 20
4.3071889837
 30
0.0
 11
7.9170595691
 21
4.8071889837
 31
0.0
  0
LINE
  5
363
330
1F
100
AcDbEntity
  8
0
  6
Continuous
 62
     7
370
     0
100
AcDbLine
 10
7.9170595691
 20
3.8071889837
 30
0.0
 11
7.9170595691
 21
4.3071889837
 31
0.0
  0
LINE
  5
364
330
1F
100
AcDbEntity
  8
0
  6
Continuous
 62
     7
370
     0
100
AcDbLine
 10
8.2097251915
 20
3.7896889837
 30
0.0
 11
8.2474046834
 21
3.7896889837
 31
0.0
  0
LINE
  5
365
330
1F
100
AcDbEntity
  8
0
  6
Continuous
 62
     7
370
     0
100
AcDbLine
 10
8.2474046834
 20
4.8246889837
 30
0.0
 11
8.2097251915
 21
4.8246889837
 31
0.0
  0
LINE
  5
366
330
1F
100
AcDbEntity
  8
0
  6
Continuous
 62
     7
370
     0
100
AcDbLine
 10
8.1924046834
 20
4.8146889837
 30
0.0
 11
8.2097251915
 21
4.8246889837
 31
0.0
  0
LINE
  5
367
330
1F
100
AcDbEntity
  8
0
  6
Continuous
 62
     7
370
     0
100
AcDbLine
 10
8.2097251915
 20
3.7896889837
 30
0.0
 11
8.1924046834
 21
3.7996889837
 31
0.0
  0
LINE
  5
368
330
1F
100
AcDbEntity
  8
0
  6
Continuous
 62
     7
370
     0
100
AcDbLine
 10
8.2724046834
 20
4.7571400374
 30
0.0
 11
8.2474046834
 21
4.7571400374
 31
0.0
  0
LINE
  5
369
330
1F
100
AcDbEntity
  8
0
  6
Continuous
 62
     7
370
     0
100
AcDbLine
 10
8.2724046834
 20
3.8572667015
 30
0.0
 11
8.2724046834
 21
4.7571400374
 31
0.0
  0
LINE
  5
36A
330
1F
100
AcDbEntity
  8
0
  6
Continuous
 62
     7
370
     0
100
AcDbLine
 10
8.2724046834
 20
3.8572667015
 30
0.0
 11
8.2474046834
 21
3.8572667015
 31
0.0
  0
LINE
  5
36B
330
1F
100
AcDbEntity
  8
0
  6
Continuous
 62
     7
370
     0
100
AcDbLine
 10
8.2474046834
 20
3.8571889837
 30
0.0
 11
8.2474046834
 21
3.8572667015
 31
0.0
  0
LINE
  5
36C
330
1F
100
AcDbEntity
  8
0
  6
Continuous
 62
     7
370
     0
100
AcDbLine
 10
8.193307011
 20
3.8571889837
 30
0.0
 11
8.2474046834
 21
3.8571889837
 31
0.0
  0
LINE
  5
36D
330
1F
100
AcDbEntity
  8
0
  6
Continuous
 62
     7
370
     0
100
AcDbLine
 10
8.2474046834
 20
4.7571889837
 30
0.0
 11
8.193307011
 21
4.7571889837
 31
0.0
  0
LINE
  5
36E
330
1F
100
AcDbEntity
  8
0
  6
Continuous
 62
     7
370
     0
100
AcDbLine
 10
8.2474046834
 20
4.7571400374
 30
0.0
 11
8.2474046834
 21
4.7571889837
 31
0.0
  0
LINE
  5
36F
330
1F
100
AcDbEntity
  8
0
  6
Continuous
 62
     7
370
     0
100
AcDbLine
 10
8.2474046834
 20
4.8246889837
 30
0.0
 11
8.2474046834
 21
4.7571889837
 31
0.0
  0
LINE
  5
370
330
1F
100
AcDbEntity
  8
0
  6
Continuous
 62
     7
370
     0
100
AcDbLine
 10
8.1924046834
 20
4.8146889837
 30
0.0
 11
8.1924046834
 21
4.7633802465
 31
0.0
  0
LINE
  5
371
330
1F
100
AcDbEntity
  8
0
  6
Continuous
 62
     7
370
     0
100
AcDbLine
 10
8.2474046834
 20
3.8571889837
 30
0.0
 11
8.2474046834
 21
3.7896889837
 31
0.0
  0
LINE
  5
372
330
1F
100
AcDbEntity
  8
0
  6
Continuous
 62
     7
370
     0
100
AcDbLine
 10
8.1924046834
 20
3.8509977209
 30
0.0
 11
8.1924046834
 21
3.7996889837
 31
0.0
  0
LINE
  5
373
330
1F
100
AcDbEntity
  8
0
  6
Continuous
 62
     7
370
     0
100
AcDbLine
 10
8.2724046834
 20
4.8073257084
 30
0.0
 11
8.2724046834
 21
4.7571400374
 31
0.0
  0
SPLINE
  5
374
330
1F
100
AcDbEntity
  8
0
  6
Continuous
 62
     7
370
     0
100
AcDbSpline
210
0.0
220
0.0
230
1.0
 70
    24
 71
     1
 72
     4
 73
     2
 74
     0
 42
0.00000001
 43
0.00000001
 40
0.0
 40
0.0
 40
1.0
 40
1.0
 10
8.27240468344904
 20
4.807325708390307
 30
0.0
 10
8.269044211544719
 20
4.813146852675921
 30
0.0
  0
LINE
  5
375
330
1F
100
AcDbEntity
  8
0
  6
Continuous
 62
     7
370
     0
100
AcDbLine
 10
8.2724046834
 20
3.8070810305
 30
0.0
 11
8.2724046834
 21
3.8572667015
 31
0.0
  0
SPLINE
  5
376
330
1F
100
AcDbEntity
  8
0
  6
Continuous
 62
     7
370
     0
100
AcDbSpline
210
0.0
220
0.0
230
1.0
 70
    24
 71
     1
 72
     4
 73
     2
 74
     0
 42
0.00000001
 43
0.00000001
 40
0.0
 40
0.0
 40
1.0
 40
1.0
 10
8.269044211544719
 20
3.801259886220687
 30
0.0
 10
8.272404683449038
 20
3.807081030506299
 30
0.0
  0
LINE
  5
377
330
1F
100
AcDbEntity
  8
0
  6
Continuous
 62
     7
370
     0
100
AcDbLine
 10
7.0707086851
 20
3.7996889837
 30
0.0
 11
7.0533881771
 21
3.7896889837
 31
0.0
  0
LINE
  5
378
330
1F
100
AcDbEntity
  8
0
  6
Continuous
 62
     7
370
     0
100
AcDbLine
 10
7.0533881771
 20
4.8246889837
 30
0.0
 11
7.0707086851
 21
4.8146889837
 31
0.0
  0
LINE
  5
379
330
1F
100
AcDbEntity
  8
0
  6
Continuous
 62
     7
370
     0
100
AcDbLine
 10
7.0533881771
 20
4.8246889837
 30
0.0
 11
7.0007086851
 21
4.8246889837
 31
0.0
  0
LINE
  5
37A
330
1F
100
AcDbEntity
  8
0
  6
Continuous
 62
     7
370
     0
100
AcDbLine
 10
7.0007086851
 20
3.7896889837
 30
0.0
 11
7.0533881771
 21
3.7896889837
 31
0.0
  0
LINE
  5
37B
330
1F
100
AcDbEntity
  8
0
  6
Continuous
 62
     7
370
     0
100
AcDbLine
 10
6.9907086851
 20
3.8572386904
 30
0.0
 11
7.0157086851
 21
3.8572386904
 31
0.0
  0
LINE
  5
37C
330
1F
100
AcDbEntity
  8
0
  6
Continuous
 62
     7
370
     0
100
AcDbLine
 10
7.0157086851
 20
3.8577115757
 30
0.0
 11
7.0157086851
 21
3.8572386904
 31
0.0
  0
LINE
  5
37D
330
1F
100
AcDbEntity
  8
0
  6
Continuous
 62
     7
370
     0
100
AcDbLine
 10
6.9907086851
 20
3.8577115757
 30
0.0
 11
7.0157086851
 21
3.8577115757
 31
0.0
  0
LINE
  5
37E
330
1F
100
AcDbEntity
  8
0
  6
Continuous
 62
     7
370
     0
100
AcDbLine
 10
6.9907086851
 20
4.7571889837
 30
0.0
 11
6.9907086851
 21
3.8577115757
 31
0.0
  0
LINE
  5
37F
330
1F
100
AcDbEntity
  8
0
  6
Continuous
 62
     7
370
     0
100
AcDbLine
 10
7.0699770783
 20
4.7571889837
 30
0.0
 11
6.9907086851
 21
4.7571889837
 31
0.0
  0
LINE
  5
380
330
1F
100
AcDbEntity
  8
0
  6
Continuous
 62
     7
370
     0
100
AcDbLine
 10
6.9907086851
 20
3.8571889837
 30
0.0
 11
7.0699770783
 21
3.8571889837
 31
0.0
  0
LINE
  5
381
330
1F
100
AcDbEntity
  8
0
  6
Continuous
 62
     7
370
     0
100
AcDbLine
 10
6.9907086851
 20
3.8572386904
 30
0.0
 11
6.9907086851
 21
3.8571889837
 31
0.0
  0
LINE
  5
382
330
1F
100
AcDbEntity
  8
0
  6
Continuous
 62
     7
370
     0
100
AcDbLine
 10
6.9907086851
 20
4.8073684756
 30
0.0
 11
7.0007086851
 21
4.8246889837
 31
0.0
  0
LINE
  5
383
330
1F
100
AcDbEntity
  8
0
  6
Continuous
 62
     7
370
     0
100
AcDbLine
 10
6.9907086851
 20
4.7571889837
 30
0.0
 11
6.9907086851
 21
4.8073684756
 31
0.0
  0
LINE
  5
384
330
1F
100
AcDbEntity
  8
0
  6
Continuous
 62
     7
370
     0
100
AcDbLine
 10
7.0707086851
 20
4.7607927031
 30
0.0
 11
7.0707086851
 21
4.8146889837
 31
0.0
  0
LINE
  5
385
330
1F
100
AcDbEntity
  8
0
  6
Continuous
 62
     7
370
     0
100
AcDbLine
 10
7.0007086851
 20
3.7896889837
 30
0.0
 11
6.9907086851
 21
3.8070094918
 31
0.0
  0
LINE
  5
386
330
1F
100
AcDbEntity
  8
0
  6
Continuous
 62
     7
370
     0
100
AcDbLine
 10
6.9907086851
 20
3.8070094918
 30
0.0
 11
6.9907086851
 21
3.8571889837
 31
0.0
  0
LINE
  5
387
330
1F
100
AcDbEntity
  8
0
  6
Continuous
 62
     7
370
     0
100
AcDbLine
 10
7.0707086851
 20
3.7996889837
 30
0.0
 11
7.0707086851
 21
3.8535852643
 31
0.0
  0
LINE
  5
388
330
1F
100
AcDbEntity
  8
0
  6
Continuous
 62
     7
370
     0
100
AcDbLine
 10
6.9907086851
 20
3.8572386904
 30
0.0
 11
6.9907086851
 21
3.8577115757
 31
0.0
  0
LINE
  5
389
330
1F
100
AcDbEntity
  8
0
  6
Continuous
 62
     7
370
     0
100
AcDbLine
 10
6.9968100386
 20
3.7071889837
 30
0.0
 11
7.1076927421
 21
3.7071889837
 31
0.0
  0
LINE
  5
38A
330
1F
100
AcDbEntity
  8
0
  6
Continuous
 62
     7
370
     0
100
AcDbLine
 10
7.1465488357
 20
3.7071889837
 30
0.0
 11
8.4149345326
 21
3.7071889837
 31
0.0
  0
LINE
  5
38B
330
1F
100
AcDbEntity
  8
0
  6
Continuous
 62
     7
370
     0
100
AcDbLine
 10
8.4149345326
 20
4.9071889837
 30
0.0
 11
7.1679939923
 21
4.9071889837
 31
0.0
  0
LINE
  5
38C
330
1F
100
AcDbEntity
  8
0
  6
Continuous
 62
     7
370
     0
100
AcDbLine
 10
7.1509712547
 20
4.9071889837
 30
0.0
 11
7.1443014158
 21
4.9071889837
 31
0.0
  0
LINE
  5
38D
330
1F
100
AcDbEntity
  8
0
  6
Continuous
 62
     7
370
     0
100
AcDbLine
 10
7.1098301936
 20
4.9071889837
 30
0.0
 11
6.9999345326
 21
4.9071889837
 31
0.0
  0
LINE
  5
38E
330
1F
100
AcDbEntity
  8
0
  6
Continuous
 62
     7
370
     0
100
AcDbLine
 10
6.9417527145
 20
4.9071889837
 30
0.0
 11
6.8549345326
 21
4.9071889837
 31
0.0
  0
LINE
  5
38F
330
1F
100
AcDbEntity
  8
0
  6
Continuous
 62
     7
370
     0
100
AcDbLine
 10
6.8549345326
 20
3.7071889837
 30
0.0
 11
6.9228899957
 21
3.7071889837
 31
0.0
  0
LINE
  5
390
330
1F
100
AcDbEntity
  8
0
  6
Continuous
 62
     7
370
     0
100
AcDbLine
 10
8.4249345326
 20
3.7171889837
 30
0.0
 11
8.4149345326
 21
3.7071889837
 31
0.0
  0
LINE
  5
391
330
1F
100
AcDbEntity
  8
0
  6
Continuous
 62
     7
370
     0
100
AcDbLine
 10
8.4149345326
 20
4.9071889837
 30
0.0
 11
8.4249345326
 21
4.8971889837
 31
0.0
  0
LINE
  5
392
330
1F
100
AcDbEntity
  8
0
  6
Continuous
 62
     7
370
     0
100
AcDbLine
 10
6.8449345326
 20
4.8971889837
 30
0.0
 11
6.8549345326
 21
4.9071889837
 31
0.0
  0
LINE
  5
393
330
1F
100
AcDbEntity
  8
0
  6
Continuous
 62
     7
370
     0
100
AcDbLine
 10
6.8549345326
 20
3.7071889837
 30
0.0
 11
6.8449345326
 21
3.7171889837
 31
0.0
  0
LINE
  5
394
330
1F
100
AcDbEntity
  8
0
  6
Continuous
 62
     7
370
     0
100
AcDbLine
 10
7.8099345326
 20
3.7821889837
 30
0.0
 11
7.8299345326
 21
3.7821889837
 31
0.0
  0
LINE
  5
395
330
1F
100
AcDbEntity
  8
0
  6
Continuous
 62
     7
370
     0
100
AcDbLine
 10
7.8299345326
 20
4.8321889837
 30
0.0
 11
7.8099345326
 21
4.8321889837
 31
0.0
  0
LINE
  5
396
330
1F
100
AcDbEntity
  8
0
  6
Continuous
 62
     7
370
     0
100
AcDbLine
 10
7.3799345326
 20
4.8321889837
 30
0.0
 11
7.3999345326
 21
4.8321889837
 31
0.0
  0
LINE
  5
397
330
1F
100
AcDbEntity
  8
0
  6
Continuous
 62
     7
370
     0
100
AcDbLine
 10
7.3999345326
 20
3.7821889837
 30
0.0
 11
7.3799345326
 21
3.7821889837
 31
0.0
  0
LINE
  5
398
330
1F
100
AcDbEntity
  8
0
  6
Continuous
 62
     7
370
     0
100
AcDbLine
 10
8.4249345326
 20
4.8231889837
 30
0.0
 11
8.4076140246
 21
4.8131889837
 31
0.0
  0
LINE
  5
399
330
1F
100
AcDbEntity
  8
0
  6
Continuous
 62
     7
370
     0
100
AcDbLine
 10
8.4076140246
 20
3.8011889837
 30
0.0
 11
8.4249345326
 21
3.7911889837
 31
0.0
  0
LINE
  5
39A
330
1F
100
AcDbEntity
  8
0
  6
Continuous
 62
     7
370
     0
100
AcDbLine
 10
8.4076140246
 20
3.8011889837
 30
0.0
 11
8.4076140246
 21
4.8131889837
 31
0.0
  0
LINE
  5
39B
330
1F
100
AcDbEntity
  8
0
  6
Continuous
 62
     7
370
     0
100
AcDbLine
 10
8.4249345326
 20
4.8231889837
 30
0.0
 11
8.4249345326
 21
3.7911889837
 31
0.0
  0
LINE
  5
39C
330
1F
100
AcDbEntity
  8
0
  6
Continuous
 62
     7
370
     0
100
AcDbLine
 10
6.8449345326
 20
3.7911889837
 30
0.0
 11
6.8622550407
 21
3.8011889837
 31
0.0
  0
LINE
  5
39D
330
1F
100
AcDbEntity
  8
0
  6
Continuous
 62
     7
370
     0
100
AcDbLine
 10
6.8622550407
 20
4.8131889837
 30
0.0
 11
6.8449345326
 21
4.8231889837
 31
0.0
  0
LINE
  5
39E
330
1F
100
AcDbEntity
  8
0
  6
Continuous
 62
     7
370
     0
100
AcDbLine
 10
6.8622550407
 20
4.8131889837
 30
0.0
 11
6.8622550407
 21
3.8011889837
 31
0.0
  0
LINE
  5
39F
330
1F
100
AcDbEntity
  8
0
  6
Continuous
 62
     7
370
     0
100
AcDbLine
 10
6.8449345326
 20
3.7911889837
 30
0.0
 11
6.8449345326
 21
4.8231889837
 31
0.0
  0
LINE
  5
3A0
330
1F
100
AcDbEntity
  8
0
  6
Continuous
 62
     7
370
     0
100
AcDbLine
 10
8.1239345326
 20
3.8011889837
 30
0.0
 11
8.1239345326
 21
3.8071889837
 31
0.0
  0
LINE
  5
3A1
330
1F
100
AcDbEntity
  8
0
  6
Continuous
 62
     7
370
     0
100
AcDbLine
 10
8.1239345326
 20
4.8071889837
 30
0.0
 11
8.1239345326
 21
4.8131889837
 31
0.0
  0
LINE
  5
3A2
330
1F
100
AcDbEntity
  8
0
  6
Continuous
 62
     7
370
     0
100
AcDbLine
 10
8.1239345326
 20
4.8131889837
 30
0.0
 11
8.4076140246
 21
4.8131889837
 31
0.0
  0
LINE
  5
3A3
330
1F
100
AcDbEntity
  8
0
  6
Continuous
 62
     7
370
     0
100
AcDbLine
 10
8.4076140246
 20
3.8011889837
 30
0.0
 11
8.1239345326
 21
3.8011889837
 31
0.0
  0
LINE
  5
3A4
330
1F
100
AcDbEntity
  8
0
  6
Continuous
 62
     7
370
     0
100
AcDbLine
 10
8.1227798321
 20
4.8111889837
 30
0.0
 11
8.1227798321
 21
4.8071889837
 31
0.0
  0
LINE
  5
3A5
330
1F
100
AcDbEntity
  8
0
  6
Continuous
 62
     7
370
     0
100
AcDbLine
 10
8.1227798321
 20
3.8071889837
 30
0.0
 11
8.1227798321
 21
3.8031889837
 31
0.0
  0
LINE
  5
3A6
330
1F
100
AcDbEntity
  8
0
  6
Continuous
 62
     7
370
     0
100
AcDbLine
 10
8.1227798321
 20
4.8111889837
 30
0.0
 11
8.1239345326
 21
4.8131889837
 31
0.0
  0
LINE
  5
3A7
330
1F
100
AcDbEntity
  8
0
  6
Continuous
 62
     7
370
     0
100
AcDbLine
 10
8.1239345326
 20
3.8011889837
 30
0.0
 11
8.1227798321
 21
3.8031889837
 31
0.0
  0
LINE
  5
3A8
330
1F
100
AcDbEntity
  8
0
  6
Continuous
 62
     7
370
     0
100
AcDbLine
 10
7.1470892332
 20
3.8031889837
 30
0.0
 11
7.1470892332
 21
3.8071889837
 31
0.0
  0
LINE
  5
3A9
330
1F
100
AcDbEntity
  8
0
  6
Continuous
 62
     7
370
     0
100
AcDbLine
 10
7.1470892332
 20
4.8071889837
 30
0.0
 11
7.1470892332
 21
4.8111889837
 31
0.0
  0
LINE
  5
3AA
330
1F
100
AcDbEntity
  8
0
  6
Continuous
 62
     7
370
     0
100
AcDbLine
 10
7.1470892332
 20
3.8031889837
 30
0.0
 11
7.1459345326
 21
3.8011889837
 31
0.0
  0
LINE
  5
3AB
330
1F
100
AcDbEntity
  8
0
  6
Continuous
 62
     7
370
     0
100
AcDbLine
 10
7.1459345326
 20
4.8131889837
 30
0.0
 11
7.1459345326
 21
4.8071889837
 31
0.0
  0
LINE
  5
3AC
330
1F
100
AcDbEntity
  8
0
  6
Continuous
 62
     7
370
     0
100
AcDbLine
 10
7.1459345326
 20
3.8071889837
 30
0.0
 11
7.1459345326
 21
3.8011889837
 31
0.0
  0
LINE
  5
3AD
330
1F
100
AcDbEntity
  8
0
  6
Continuous
 62
     7
370
     0
100
AcDbLine
 10
7.1459345326
 20
4.8131889837
 30
0.0
 11
7.1470892332
 21
4.8111889837
 31
0.0
  0
LINE
  5
3AE
330
1F
100
AcDbEntity
  8
0
  6
Continuous
 62
     7
370
     0
100
AcDbLine
 10
7.1459345326
 20
3.8011889837
 30
0.0
 11
6.8622550407
 21
3.8011889837
 31
0.0
  0
LINE
  5
3AF
330
1F
100
AcDbEntity
  8
0
  6
Continuous
 62
     7
370
     0
100
AcDbLine
 10
6.8622550407
 20
4.8131889837
 30
0.0
 11
7.1459345326
 21
4.8131889837
 31
0.0
  0
LINE
  5
3B0
330
1F
100
AcDbEntity
  8
0
  6
Continuous
 62
     7
370
     0
100
AcDbLine
 10
7.8299345326
 20
3.8031889837
 30
0.0
 11
8.1227798321
 21
3.8031889837
 31
0.0
  0
LINE
  5
3B1
330
1F
100
AcDbEntity
  8
0
  6
Continuous
 62
     7
370
     0
100
AcDbLine
 10
8.1227798321
 20
4.8111889837
 30
0.0
 11
7.8299345326
 21
4.8111889837
 31
0.0
  0
LINE
  5
3B2
330
1F
100
AcDbEntity
  8
0
  6
Continuous
 62
     7
370
     0
100
AcDbLine
 10
7.8299345326
 20
3.8031889837
 30
0.0
 11
7.8299345326
 21
3.8260607366
 31
0.0
  0
LINE
  5
3B3
330
1F
100
AcDbEntity
  8
0
  6
Continuous
 62
     7
370
     0
100
AcDbLine
 10
7.8299345326
 20
4.7883172307
 30
0.0
 11
7.8299345326
 21
4.8111889837
 31
0.0
  0
LINE
  5
3B4
330
1F
100
AcDbEntity
  8
0
  6
Continuous
 62
     7
370
     0
100
AcDbLine
 10
7.3799345326
 20
4.8111889837
 30
0.0
 11
7.1470892332
 21
4.8111889837
 31
0.0
  0
LINE
  5
3B5
330
1F
100
AcDbEntity
  8
0
  6
Continuous
 62
     7
370
     0
100
AcDbLine
 10
7.1470892332
 20
3.8031889837
 30
0.0
 11
7.3799345326
 21
3.8031889837
 31
0.0
  0
LINE
  5
3B6
330
1F
100
AcDbEntity
  8
0
  6
Continuous
 62
     7
370
     0
100
AcDbLine
 10
7.3799345326
 20
4.8111889837
 30
0.0
 11
7.3799345326
 21
4.7936827744
 31
0.0
  0
LINE
  5
3B7
330
1F
100
AcDbEntity
  8
0
  6
Continuous
 62
     7
370
     0
100
AcDbLine
 10
7.3799345326
 20
3.8206951929
 30
0.0
 11
7.3799345326
 21
3.8031889837
 31
0.0
  0
LINE
  5
3B8
330
1F
100
AcDbEntity
  8
0
  6
Continuous
 62
     7
370
     0
100
AcDbLine
 10
7.809205458
 20
4.7581889837
 30
0.0
 11
7.4006101114
 21
4.7581889837
 31
0.0
  0
LINE
  5
3B9
330
1F
100
AcDbEntity
  8
0
  6
Continuous
 62
     7
370
     0
100
AcDbLine
 10
7.4006101114
 20
3.8561889837
 30
0.0
 11
7.809205458
 21
3.8561889837
 31
0.0
  0
LINE
  5
3BA
330
1F
100
AcDbEntity
  8
0
  6
Continuous
 62
     7
370
     0
100
AcDbLine
 10
6.9999345326
 20
4.9071889837
 30
0.0
 11
6.9417527145
 21
4.9071889837
 31
0.0
  0
LINE
  5
3BB
330
1F
100
AcDbEntity
  8
0
  6
Continuous
 62
     7
370
     0
100
AcDbLine
 10
7.1443014158
 20
4.9071889837
 30
0.0
 11
7.1098301936
 21
4.9071889837
 31
0.0
  0
LINE
  5
3BC
330
1F
100
AcDbEntity
  8
0
  6
Continuous
 62
     7
370
     0
100
AcDbLine
 10
7.1679939923
 20
4.9071889837
 30
0.0
 11
7.1509712547
 21
4.9071889837
 31
0.0
  0
LINE
  5
3BD
330
1F
100
AcDbEntity
  8
0
  6
Continuous
 62
     7
370
     0
100
AcDbLine
 10
7.3799345326
 20
4.8111889837
 30
0.0
 11
7.3799345326
 21
4.8321889837
 31
0.0
  0
LINE
  5
3BE
330
1F
100
AcDbEntity
  8
0
  6
Continuous
 62
     7
370
     0
100
AcDbLine
 10
7.3999345326
 20
4.7594077204
 30
0.0
 11
7.3999345326
 21
4.8321889837
 31
0.0
  0
LINE
  5
3BF
330
1F
100
AcDbEntity
  8
0
  6
Continuous
 62
     7
370
     0
100
AcDbLine
 10
7.8099345326
 20
4.7592988366
 30
0.0
 11
7.8099345326
 21
4.8321889837
 31
0.0
  0
LINE
  5
3C0
330
1F
100
AcDbEntity
  8
0
  6
Continuous
 62
     7
370
     0
100
AcDbLine
 10
7.8299345326
 20
4.8321889837
 30
0.0
 11
7.8299345326
 21
4.8111889837
 31
0.0
  0
LINE
  5
3C1
330
1F
100
AcDbEntity
  8
0
  6
Continuous
 62
     7
370
     0
100
AcDbLine
 10
6.8449345326
 20
4.8231889837
 30
0.0
 11
6.8449345326
 21
4.8971889837
 31
0.0
  0
LINE
  5
3C2
330
1F
100
AcDbEntity
  8
0
  6
Continuous
 62
     7
370
     0
100
AcDbLine
 10
8.4249345326
 20
4.8971889837
 30
0.0
 11
8.4249345326
 21
4.8231889837
 31
0.0
  0
LINE
  5
3C3
330
1F
100
AcDbEntity
  8
0
  6
Continuous
 62
     7
370
     0
100
AcDbLine
 10
7.1076927421
 20
3.7071889837
 30
0.0
 11
7.1465488357
 21
3.7071889837
 31
0.0
  0
LINE
  5
3C4
330
1F
100
AcDbEntity
  8
0
  6
Continuous
 62
     7
370
     0
100
AcDbLine
 10
6.9527665261
 20
3.7071889837
 30
0.0
 11
6.9968100386
 21
3.7071889837
 31
0.0
  0
LINE
  5
3C5
330
1F
100
AcDbEntity
  8
0
  6
Continuous
 62
     7
370
     0
100
AcDbLine
 10
6.9428493549
 20
3.7071889837
 30
0.0
 11
6.9527665261
 21
3.7071889837
 31
0.0
  0
LINE
  5
3C6
330
1F
100
AcDbEntity
  8
0
  6
Continuous
 62
     7
370
     0
100
AcDbLine
 10
6.9228899957
 20
3.7071889837
 30
0.0
 11
6.9428493549
 21
3.7071889837
 31
0.0
  0
LINE
  5
3C7
330
1F
100
AcDbEntity
  8
0
  6
Continuous
 62
     7
370
     0
100
AcDbLine
 10
7.3799345326
 20
3.7821889837
 30
0.0
 11
7.3799345326
 21
3.8031889837
 31
0.0
  0
LINE
  5
3C8
330
1F
100
AcDbEntity
  8
0
  6
Continuous
 62
     7
370
     0
100
AcDbLine
 10
7.3999345326
 20
3.7821889837
 30
0.0
 11
7.3999345326
 21
3.8549702469
 31
0.0
  0
LINE
  5
3C9
330
1F
100
AcDbEntity
  8
0
  6
Continuous
 62
     7
370
     0
100
AcDbLine
 10
7.8099345326
 20
3.7821889837
 30
0.0
 11
7.8099345326
 21
3.8550791308
 31
0.0
  0
LINE
  5
3CA
330
1F
100
AcDbEntity
  8
0
  6
Continuous
 62
     7
370
     0
100
AcDbLine
 10
7.8299345326
 20
3.8031889837
 30
0.0
 11
7.8299345326
 21
3.7821889837
 31
0.0
  0
LINE
  5
3CB
330
1F
100
AcDbEntity
  8
0
  6
Continuous
 62
     7
370
     0
100
AcDbLine
 10
6.8449345326
 20
3.7171889837
 30
0.0
 11
6.8449345326
 21
3.7911889837
 31
0.0
  0
LINE
  5
3CC
330
1F
100
AcDbEntity
  8
0
  6
Continuous
 62
     7
370
     0
100
AcDbLine
 10
8.4249345326
 20
3.7911889837
 30
0.0
 11
8.4249345326
 21
3.7171889837
 31
0.0
  0
DIMENSION
  5
3CD
330
1F
100
AcDbEntity
  8
0
  6
Continuous
 62
     7
370
     0
100
AcDbDimension
  2
*D8
 10
6.8449345326
 20
3.1558584563
 30
0.0
 11
6.2292806519
 21
3.1558584563
 31
0.0
 70
   160
 71
     1
 42
-1.0
  3
SLDDIMSTYLE1
100
AcDbAlignedDimension
 13
5.6675274854
 23
4.3071889837
 33
0.0
 14
6.8449345326
 24
3.7171889837
 34
0.0
100
AcDbRotatedDimension
  0
DIMENSION
  5
3E0
330
1F
100
AcDbEntity
  8
0
  6
Continuous
 62
     7
370
     0
100
AcDbDimension
  2
*D9
 10
8.4249345326
 20
3.1541065099
 30
0.0
 11
9.5272967374
 21
3.1541065099
 31
0.0
 70
   160
 71
     1
 42
-1.0
  3
SLDDIMSTYLE2
100
AcDbAlignedDimension
 13
9.0799054382
 23
4.3071889837
 33
0.0
 14
8.4249345326
 24
3.7171889837
 34
0.0
100
AcDbRotatedDimension
  0
DIMENSION
  5
3F3
330
1F
100
AcDbEntity
  8
0
  6
Continuous
 62
     7
370
     0
100
AcDbDimension
  2
*D10
 10
7.0249440466
 20
5.2825603756
 30
0.0
 11
6.241136178
 21
5.2825603756
 31
0.0
 70
   160
 71
     1
 42
-1.0
  3
SLDDIMSTYLE1
100
AcDbAlignedDimension
 13
5.6675274854
 23
4.3071889837
 33
0.0
 14
7.0249440466
 24
4.3071889837
 34
0.0
100
AcDbRotatedDimension
  0
DIMENSION
  5
405
330
1F
100
AcDbEntity
  8
0
  6
Continuous
 62
     7
370
     0
100
AcDbDimension
  2
*D11
 10
8.2257014645
 20
5.2825603756
 30
0.0
 11
8.6545266635
 21
5.2825603756
 31
0.0
 70
   160
 71
     1
 42
-1.0
  3
SLDDIMSTYLE2
100
AcDbAlignedDimension
 13
9.0799054382
 23
4.3071889837
 33
0.0
 14
8.2257014645
 24
4.3071889837
 34
0.0
100
AcDbRotatedDimension
  0
DIMENSION
  5
417
330
1F
100
AcDbEntity
  8
0
  6
Continuous
 62
     7
370
     0
100
AcDbDimension
  2
*D12
 10
8.4249345326
 20
2.4454450926
 30
0.0
 11
7.6349345326
 21
2.4454450926
 31
0.0
 70
   160
 71
     1
 42
-1.0
  3
SLDDIMSTYLE3
100
AcDbAlignedDimension
 13
6.8449345326
 23
3.7171889837
 33
0.0
 14
8.4249345326
 24
3.7171889837
 34
0.0
100
AcDbRotatedDimension
  0
DIMENSION
  5
42A
330
1F
100
AcDbEntity
  8
0
  6
Continuous
 62
     7
370
     0
100
AcDbDimension
  2
*D13
 10
7.6745203621
 20
3.3120288628
 30
0.0
 11
8.1942340327
 21
3.3120288628
 31
0.0
 70
   160
 71
     1
 42
-1.0
  3
SLDDIMSTYLE2
100
AcDbAlignedDimension
 13
7.5170700308
 23
4.3071889837
 33
0.0
 14
7.6745203621
 24
4.3071889837
 34
0.0
100
AcDbRotatedDimension
  0
DIMENSION
  5
43C
330
1F
100
AcDbEntity
  8
0
  6
Continuous
 62
     7
370
     0
100
AcDbDimension
  2
*D14
 10
8.2257014645
 20
5.5478802371
 30
0.0
 11
7.6349345326
 21
5.5478802371
 31
0.0
 70
   160
 71
     1
 42
-1.0
  3
SLDDIMSTYLE4
100
AcDbAlignedDimension
 13
7.0249440466
 23
4.3071889837
 33
0.0
 14
8.2257014645
 24
4.3071889837
 34
0.0
100
AcDbRotatedDimension
  0
INSERT
  5
456
330
1F
100
AcDbEntity
  8
0
  6
Continuous
 62
     7
370
     0
100
AcDbBlockReference
  2
SW_NOTE_5
 10
7.1403164832
 20
2.9041797664
 30
0.0
  0
INSERT
  5
45D
102
{ACAD_REACTORS
330
45F
330
460
102
}
330
1F
100
AcDbEntity
  8
0
  6
Continuous
 62
     7
370
     0
100
AcDbBlockReference
  2
SW_NOTE_6
 10
5.3201698643
 20
3.4686383268
 30
0.0
  0
LEADER
  5
45F
330
1F
100
AcDbEntity
  8
0
  6
Continuous
 62
     7
370
     0
100
AcDbLeader
  3
SLDDIMSTYLE5
 73
     2
 76
     3
 10
6.899581133
 20
3.8011889837
 30
0.0
 10
5.5701698643
 20
3.4686383268
 30
0.0
 10
5.3201698643
 20
3.4686383268
 30
0.0
340
45D
  0
LEADER
  5
460
330
1F
100
AcDbEntity
  8
0
  6
Continuous
 62
     7
370
     0
100
AcDbLeader
  3
SLDDIMSTYLE5
 73
     2
 76
     3
 10
8.3281976682
 20
3.8011889837
 30
0.0
 10
5.5701698643
 20
3.4686383268
 30
0.0
 10
5.3201698643
 20
3.4686383268
 30
0.0
340
45D
  0
INSERT
  5
466
330
1F
100
AcDbEntity
  8
0
  6
Continuous
 62
     7
370
     0
100
AcDbBlockReference
  2
SW_NOTE_7
 10
8.6530359356
 20
4.7154120194
 30
0.0
  0
LEADER
  5
467
330
1F
100
AcDbEntity
  8
0
  6
Continuous
 62
     7
370
     0
100
AcDbLeader
  3
SLDDIMSTYLE5
 76
     2
 10
7.9170595691
 20
4.5476268657
 30
0.0
 10
8.6530359356
 20
4.7154120194
 30
0.0
  0
INSERT
  5
46D
102
{ACAD_REACTORS
330
46E
102
}
330
1F
100
AcDbEntity
  8
0
  6
Continuous
 62
     7
370
     0
100
AcDbBlockReference
  2
SW_NOTE_8
 10
6.4890587527
 20
4.7332400059
 30
0.0
  0
LEADER
  5
46E
330
1F
100
AcDbEntity
  8
0
  6
Continuous
 62
     7
370
     0
100
AcDbLeader
  3
SLDDIMSTYLE5
 73
     2
 76
     2
 10
7.3014570407
 20
4.6252686567
 30
0.0
 10
6.4890587527
 20
4.7332400059
 30
0.0
340
46D
  0
INSERT
  5
474
330
1F
100
AcDbEntity
  8
0
  6
Continuous
 62
     7
370
     0
100
AcDbBlockReference
  2
SW_NOTE_9
 10
8.679272749
 20
3.5769830241
 30
0.0
  0
LINE
  5
475
330
1F
100
AcDbEntity
  8
0
  6
Continuous
 62
     7
370
     0
100
AcDbLine
 10
8.679272749
 20
3.5769830241
 30
0.0
 11
8.4249345326
 21
3.7171889837
 31
0.0
  0
SOLID
  5
476
330
1F
100
AcDbEntity
  8
0
  6
Continuous
 62
     7
370
     0
100
AcDbTrace
 10
8.4249345326
 20
3.7171889837
 30
0.0
 11
8.5489997102
 21
3.6191082429
 31
0.0
 12
8.5741034544
 22
3.6646472595
 32
0.0
 13
8.5741034544
 23
3.6646472595
 33
0.0
  0
INSERT
  5
47C
330
1F
100
AcDbEntity
  8
0
  6
Continuous
 62
     7
370
     0
100
AcDbBlockReference
  2
SW_NOTE_10
 10
8.6522199638
 20
3.9380983937
 30
0.0
  0
LEADER
  5
47D
330
1F
100
AcDbEntity
  8
0
  6
Continuous
 62
     7
370
     0
100
AcDbLeader
  3
SLDDIMSTYLE5
 76
     2
 10
8.2474046834
 20
3.8571889837
 30
0.0
 10
8.6522199638
 20
3.9380983937
 30
0.0
  0
INSERT
  5
483
102
{ACAD_REACTORS
330
484
102
}
330
1F
100
AcDbEntity
  8
0
  6
Continuous
 62
     7
370
     0
100
AcDbBlockReference
  2
SW_NOTE_11
 10
6.2434007485
 20
3.8840523901
 30
0.0
  0
LEADER
  5
484
330
1F
100
AcDbEntity
  8
0
  6
Continuous
 62
     7
370
     0
100
AcDbLeader
  3
SLDDIMSTYLE5
 73
     2
 76
     2
 10
6.9907086851
 20
3.8571889837
 30
0.0
 10
6.2434007485
 20
3.8840523901
 30
0.0
340
483
  0
HATCH
  5
485
330
1F
100
AcDbEntity
  8
0
  6
Continuous
 62
     7
370
     0
100
AcDbHatch
 10
0.0
 20
0.0
 30
0.0
210
0.0
220
0.0
230
1.0
  2
ANSI31
 70
     0
 71
     0
 91
        1
 92
        0
 93
       26
 72
     1
 10
7.829934532640948
 20
4.811188983679523
 11
8.12277983210257
 21
4.811188983679523
 72
     1
 10
8.12277983210257
 20
4.811188983679523
 11
8.123934532640947
 21
4.813188983679523
 72
     1
 10
8.123934532640947
 20
4.813188983679523
 11
8.407614024565259
 21
4.813188983679523
 72
     1
 10
8.407614024565259
 20
4.813188983679523
 11
8.424934532640947
 21
4.823188983679522
 72
     1
 10
8.424934532640947
 20
4.823188983679522
 11
8.424934532640947
 21
4.897188983679523
 72
     1
 10
8.424934532640947
 20
4.897188983679523
 11
8.414934532640947
 21
4.907188983679523
 72
     1
 10
8.414934532640947
 20
4.907188983679523
 11
7.167993992258682
 21
4.907188983679523
 72
     1
 10
7.167993992258682
 20
4.907188983679523
 11
7.15097125472483
 21
4.907188983679523
 72
     1
 10
7.15097125472483
 20
4.907188983679523
 11
7.144301415757831
 21
4.907188983679523
 72
     1
 10
7.144301415757831
 20
4.907188983679523
 11
7.109830193576515
 21
4.907188983679523
 72
     1
 10
7.109830193576515
 20
4.907188983679523
 11
6.999934532640948
 21
4.907188983679523
 72
     1
 10
6.999934532640948
 20
4.907188983679523
 11
6.941752714459129
 21
4.907188983679523
 72
     1
 10
6.941752714459129
 20
4.907188983679523
 11
6.854934532640947
 21
4.907188983679522
 72
     1
 10
6.854934532640947
 20
4.907188983679522
 11
6.844934532640949
 21
4.897188983679523
 72
     1
 10
6.844934532640949
 20
4.897188983679523
 11
6.844934532640949
 21
4.823188983679522
 72
     1
 10
6.844934532640949
 20
4.823188983679522
 11
6.862255040716637
 21
4.813188983679523
 72
     1
 10
6.862255040716637
 20
4.813188983679523
 11
7.145934532640947
 21
4.813188983679523
 72
     1
 10
7.145934532640947
 20
4.813188983679523
 11
7.147089233179327
 21
4.811188983679522
 72
     1
 10
7.147089233179327
 20
4.811188983679522
 11
7.379934532640948
 21
4.811188983679523
 72
     1
 10
7.379934532640948
 20
4.811188983679523
 11
7.379934532640948
 21
4.832188983679523
 72
     1
 10
7.379934532640948
 20
4.832188983679523
 11
7.399934532640947
 21
4.832188983679523
 72
     1
 10
7.399934532640947
 20
4.832188983679523
 11
7.399934532640947
 21
4.758188983679523
 72
     1
 10
7.399934532640947
 20
4.758188983679523
 11
7.809934532640948
 21
4.758188983679523
 72
     1
 10
7.809934532640948
 20
4.758188983679523
 11
7.809934532640948
 21
4.832188983679523
 72
     1
 10
7.809934532640948
 20
4.832188983679523
 11
7.829934532640948
 21
4.832188983679523
 72
     1
 10
7.829934532640948
 20
4.832188983679523
 11
7.829934532640948
 21
4.811188983679523
 97
        0
 75
     0
 76
     1
 52
0.0
 41
1.0
 77
     0
 78
     1
 53
45.0
 43
0.0
 44
0.0
 45
-0.0883883476483184
 46
0.0883883476483184
 79
     0
 98
        1
 10
0.0
 20
0.0
  0
HATCH
  5
486
330
1F
100
AcDbEntity
  8
0
  6
Continuous
 62
     7
370
     0
100
AcDbHatch
 10
0.0
 20
0.0
 30
0.0
210
0.0
220
0.0
230
1.0
  2
ANSI31
 70
     0
 71
     0
 91
        1
 92
        0
 93
       26
 72
     1
 10
8.407614024565259
 20
3.801188983679524
 11
8.123934532640947
 21
3.801188983679524
 72
     1
 10
8.123934532640947
 20
3.801188983679524
 11
8.12277983210257
 21
3.803188983679523
 72
     1
 10
8.12277983210257
 20
3.803188983679523
 11
7.829934532640948
 21
3.803188983679523
 72
     1
 10
7.829934532640948
 20
3.803188983679523
 11
7.829934532640948
 21
3.782188983679523
 72
     1
 10
7.829934532640948
 20
3.782188983679523
 11
7.809934532640948
 21
3.782188983679523
 72
     1
 10
7.809934532640948
 20
3.782188983679523
 11
7.809934532640948
 21
3.856188983679523
 72
     1
 10
7.809934532640948
 20
3.856188983679523
 11
7.399934532640947
 21
3.856188983679523
 72
     1
 10
7.399934532640947
 20
3.856188983679523
 11
7.399934532640947
 21
3.782188983679523
 72
     1
 10
7.399934532640947
 20
3.782188983679523
 11
7.379934532640948
 21
3.782188983679523
 72
     1
 10
7.379934532640948
 20
3.782188983679523
 11
7.379934532640948
 21
3.803188983679523
 72
     1
 10
7.379934532640948
 20
3.803188983679523
 11
7.147089233179327
 21
3.803188983679523
 72
     1
 10
7.147089233179327
 20
3.803188983679523
 11
7.145934532640947
 21
3.801188983679524
 72
     1
 10
7.145934532640947
 20
3.801188983679524
 11
6.862255040716637
 21
3.801188983679524
 72
     1
 10
6.862255040716637
 20
3.801188983679524
 11
6.844934532640949
 21
3.791188983679524
 72
     1
 10
6.844934532640949
 20
3.791188983679524
 11
6.844934532640949
 21
3.717188983679523
 72
     1
 10
6.844934532640949
 20
3.717188983679523
 11
6.854934532640947
 21
3.707188983679523
 72
     1
 10
6.854934532640947
 20
3.707188983679523
 11
6.922889995729037
 21
3.707188983679523
 72
     1
 10
6.922889995729037
 20
3.707188983679523
 11
6.942849354907895
 21
3.707188983679523
 72
     1
 10
6.942849354907895
 20
3.707188983679523
 11
6.952766526094605
 21
3.707188983679523
 72
     1
 10
6.952766526094605
 20
3.707188983679523
 11
6.996810038569488
 21
3.707188983679523
 72
     1
 10
6.996810038569488
 20
3.707188983679523
 11
7.107692742080052
 21
3.707188983679523
 72
     1
 10
7.107692742080052
 20
3.707188983679523
 11
7.146548835678308
 21
3.707188983679523
 72
     1
 10
7.146548835678308
 20
3.707188983679523
 11
8.414934532640947
 21
3.707188983679523
 72
     1
 10
8.414934532640947
 20
3.707188983679523
 11
8.424934532640947
 21
3.717188983679523
 72
     1
 10
8.424934532640947
 20
3.717188983679523
 11
8.424934532640947
 21
3.791188983679524
 72
     1
 10
8.424934532640947
 20
3.791188983679524
 11
8.407614024565259
 21
3.801188983679524
 97
        0
 75
     0
 76
     1
 52
0.0
 41
1.0
 77
     0
 78
     1
 53
45.0
 43
0.0
 44
0.0
 45
-0.0883883476483184
 46
0.0883883476483184
 79
     0
 98
        1
 10
0.0
 20
0.0
  0
HATCH
  5
487
330
1F
100
AcDbEntity
  8
0
  6
Continuous
 62
     7
370
     0
100
AcDbHatch
 10
0.0
 20
0.0
 30
0.0
210
0.0
220
0.0
230
1.0
  2
ANSI31
 70
     0
 71
     0
 91
        1
 92
        0
 93
        5
 72
     1
 10
8.247404683449039
 20
3.789688983679523
 11
8.247404683449039
 21
3.857188983679523
 72
     1
 10
8.247404683449039
 20
3.857188983679523
 11
8.192404683449038
 21
3.857188983679523
 72
     1
 10
8.192404683449038
 20
3.857188983679523
 11
8.192404683449038
 21
3.799688983679522
 72
     1
 10
8.192404683449038
 20
3.799688983679522
 11
8.209725191524727
 21
3.789688983679523
 72
     1
 10
8.209725191524727
 20
3.789688983679523
 11
8.247404683449039
 21
3.789688983679523
 97
        0
 75
     0
 76
     1
 52
0.0
 41
1.0
 77
     0
 78
     1
 53
45.0
 43
0.0
 44
0.0
 45
-0.0883883476483184
 46
0.0883883476483184
 79
     0
 98
        1
 10
0.0
 20
0.0
  0
HATCH
  5
488
330
1F
100
AcDbEntity
  8
0
  6
Continuous
 62
     7
370
     0
100
AcDbHatch
 10
0.0
 20
0.0
 30
0.0
210
0.0
220
0.0
230
1.0
  2
ANSI31
 70
     0
 71
     0
 91
        1
 92
        0
 93
        5
 72
     1
 10
8.247404683449039
 20
4.757188983679524
 11
8.247404683449039
 21
4.824688983679524
 72
     1
 10
8.247404683449039
 20
4.824688983679524
 11
8.209725191524727
 21
4.824688983679524
 72
     1
 10
8.209725191524727
 20
4.824688983679524
 11
8.192404683449038
 21
4.814688983679524
 72
     1
 10
8.192404683449038
 20
4.814688983679524
 11
8.192404683449038
 21
4.757188983679524
 72
     1
 10
8.192404683449038
 20
4.757188983679524
 11
8.247404683449039
 21
4.757188983679524
 97
        0
 75
     0
 76
     1
 52
0.0
 41
1.0
 77
     0
 78
     1
 53
45.0
 43
0.0
 44
0.0
 45
-0.0883883476483184
 46
0.0883883476483184
 79
     0
 98
        1
 10
0.0
 20
0.0
  0
HATCH
  5
489
330
1F
100
AcDbEntity
  8
0
  6
Continuous
 62
     7
370
     0
100
AcDbHatch
 10
0.0
 20
0.0
 30
0.0
210
0.0
220
0.0
230
1.0
  2
ANSI31
 70
     0
 71
     0
 91
        1
 92
        0
 93
        6
 72
     1
 10
6.990708685136785
 20
4.757188983679523
 11
7.070708685136784
 21
4.757188983679523
 72
     1
 10
7.070708685136784
 20
4.757188983679523
 11
7.070708685136784
 21
4.814688983679523
 72
     1
 10
7.070708685136784
 20
4.814688983679523
 11
7.053388177061096
 21
4.824688983679523
 72
     1
 10
7.053388177061096
 20
4.824688983679523
 11
7.000708685136785
 21
4.824688983679523
 72
     1
 10
7.000708685136785
 20
4.824688983679523
 11
6.990708685136784
 21
4.807368475603834
 72
     1
 10
6.990708685136784
 20
4.807368475603834
 11
6.990708685136785
 21
4.757188983679523
 97
        0
 75
     0
 76
     1
 52
0.0
 41
1.0
 77
     0
 78
     1
 53
45.0
 43
0.0
 44
0.0
 45
-0.0883883476483184
 46
0.0883883476483184
 79
     0
 98
        1
 10
0.0
 20
0.0
  0
HATCH
  5
48A
330
1F
100
AcDbEntity
  8
0
  6
Continuous
 62
     7
370
     0
100
AcDbHatch
 10
0.0
 20
0.0
 30
0.0
210
0.0
220
0.0
230
1.0
  2
ANSI31
 70
     0
 71
     0
 91
        1
 92
        0
 93
        6
 72
     1
 10
6.990708685136784
 20
3.857188983679523
 11
6.990708685136784
 21
3.807009491755212
 72
     1
 10
6.990708685136784
 20
3.807009491755212
 11
7.000708685136785
 21
3.789688983679523
 72
     1
 10
7.000708685136785
 20
3.789688983679523
 11
7.053388177061096
 21
3.789688983679523
 72
     1
 10
7.053388177061096
 20
3.789688983679523
 11
7.070708685136784
 21
3.799688983679523
 72
     1
 10
7.070708685136784
 20
3.799688983679523
 11
7.070708685136784
 21
3.857188983679523
 72
     1
 10
7.070708685136784
 20
3.857188983679523
 11
6.990708685136784
 21
3.857188983679523
 97
        0
 75
     0
 76
     1
 52
0.0
 41
1.0
 77
     0
 78
     1
 53
45.0
 43
0.0
 44
0.0
 45
-0.0883883476483184
 46
0.0883883476483184
 79
     0
 98
        1
 10
0.0
 20
0.0
  0
ENDSEC
  0
SECTION
  2
OBJECTS
  0
DICTIONARY
  5
C
330
0
100
AcDbDictionary
281
     1
  3
ACAD_GROUP
350
D
  3
ACAD_LAYOUT
350
1A
  3
ACAD_MLINESTYLE
350
17
  3
ACAD_PLOTSETTINGS
350
19
  3
ACAD_PLOTSTYLENAME
350
E
  0
DICTIONARY
  5
D
102
{ACAD_REACTORS
330
C
102
}
330
C
100
AcDbDictionary
281
     1
  0
DICTIONARY
  5
1A
102
{ACAD_REACTORS
330
C
102
}
330
C
100
AcDbDictionary
281
     1
  3
Layout1
350
1E
  3
Layout2
350
26
  3
Model
350
22
  0
DICTIONARY
  5
17
102
{ACAD_REACTORS
330
C
102
}
330
C
100
AcDbDictionary
281
     1
  3
Standard
350
18
  0
DICTIONARY
  5
19
102
{ACAD_REACTORS
330
C
102
}
330
C
100
AcDbDictionary
281
     1
  0
ACDBDICTIONARYWDFLT
  5
E
102
{ACAD_REACTORS
330
C
102
}
330
C
100
AcDbDictionary
281
     1
  3
Normal
350
F
100
AcDbDictionaryWithDefault
340
F
  0
LAYOUT
  5
1E
102
{ACAD_REACTORS
330
1A
102
}
330
1A
100
AcDbPlotSettings
  1

  2
none_device
  4

  6

 40
0.0
 41
0.0
 42
0.0
 43
0.0
 44
0.0
 45
0.0
 46
0.0
 47
0.0
 48
0.0
 49
0.0
140
0.0
141
0.0
142
1.0
143
1.0
 70
   688
 72
     0
 73
     0
 74
     5
  7

 75
    16
147
1.0
148
0.0
149
0.0
100
AcDbLayout
  1
Layout1
 70
     1
 71
     1
 10
0.0
 20
0.0
 11
12.0
 21
9.0
 12
0.0
 22
0.0
 32
0.0
 14
1.0000000000E+20
 24
1.0000000000E+20
 34
1.0000000000E+20
 15
-1.0000000000E+20
 25
-1.0000000000E+20
 35
-1.0000000000E+20
146
0.0
 13
0.0
 23
0.0
 33
0.0
 16
1.0
 26
0.0
 36
0.0
 17
0.0
 27
1.0
 37
0.0
 76
     0
330
1B
  0
LAYOUT
  5
26
102
{ACAD_REACTORS
330
1A
102
}
330
1A
100
AcDbPlotSettings
  1

  2
none_device
  4

  6

 40
0.0
 41
0.0
 42
0.0
 43
0.0
 44
0.0
 45
0.0
 46
0.0
 47
0.0
 48
0.0
 49
0.0
140
0.0
141
0.0
142
1.0
143
1.0
 70
   688
 72
     0
 73
     0
 74
     5
  7

 75
    16
147
1.0
148
0.0
149
0.0
100
AcDbLayout
  1
Layout2
 70
     1
 71
     2
 10
0.0
 20
0.0
 11
0.0
 21
0.0
 12
0.0
 22
0.0
 32
0.0
 14
0.0
 24
0.0
 34
0.0
 15
0.0
 25
0.0
 35
0.0
146
0.0
 13
0.0
 23
0.0
 33
0.0
 16
1.0
 26
0.0
 36
0.0
 17
0.0
 27
1.0
 37
0.0
 76
     0
330
23
  0
LAYOUT
  5
22
102
{ACAD_REACTORS
330
1A
102
}
330
1A
100
AcDbPlotSettings
  1

  2
none_device
  4

  6

 40
0.0
 41
0.0
 42
0.0
 43
0.0
 44
0.0
 45
0.0
 46
0.0
 47
0.0
 48
0.0
 49
0.0
140
0.0
141
0.0
142
1.0
143
1.0
 70
  1712
 72
     0
 73
     0
 74
     0
  7

 75
     0
147
1.0
148
0.0
149
0.0
100
AcDbLayout
  1
Model
 70
     1
 71
     0
 10
0.0
 20
0.0
 11
0.0
 21
0.0
 12
0.0
 22
0.0
 32
0.0
 14
0.0
 24
0.0
 34
0.0
 15
11.0
 25
8.5
 35
0.0
146
0.0
 13
0.0
 23
0.0
 33
0.0
 16
1.0
 26
0.0
 36
0.0
 17
0.0
 27
1.0
 37
0.0
 76
     0
330
1F
  0
MLINESTYLE
  5
18
102
{ACAD_REACTORS
330
17
102
}
330
17
100
AcDbMlineStyle
  2
Standard
 70
     0
  3

 62
   256
 51
90.0
 52
90.0
 71
     2
 49
0.5
 62
   256
  6
BYLAYER
 49
-0.5
 62
   256
  6
BYLAYER
  0
ACDBPLACEHOLDER
  5
F
102
{ACAD_REACTORS
330
E
102
}
330
E
  0
ENDSEC
  0
EOF
