  0
SECTION
  2
HEADER
  9
$ACADVER
  1
AC1015
  9
$ACADMAINTVER
 70
     6
  9
$DWGCODEPAGE
  3
ANSI_1252
  9
$INSBASE
 10
0.0
 20
0.0
 30
0.0
  9
$EXTMIN
 10
0.0
 20
0.0
 30
0.0
  9
$EXTMAX
 10
279.4
 20
215.9
 30
0.0
  9
$LIMMIN
 10
0.0
 20
0.0
  9
$LIMMAX
 10
279.4
 20
215.9
  9
$ORTHOMODE
 70
     0
  9
$REGENMODE
 70
     1
  9
$FILLMODE
 70
     1
  9
$QTEXTMODE
 70
     0
  9
$MIRRTEXT
 70
     1
  9
$LTSCALE
 40
1.0
  9
$ATTMODE
 70
     1
  9
$TEXTSIZE
 40
2.8222222222
  9
$TRACEWID
 40
1.0
  9
$TEXTSTYLE
  7
Standard
  9
$CLAYER
  8
0
  9
$CELTYPE
  6
ByLayer
  9
$CECOLOR
 62
   256
  9
$CELTSCALE
 40
1.0
  9
$DISPSILH
 70
     0
  9
$DIMSCALE
 40
1.0
  9
$DIMASZ
 40
3.175
  9
$DIMEXO
 40
1.27
  9
$DIMDLI
 40
3.75
  9
$DIMRND
 40
0.0
  9
$DIMDLE
 40
0.0
  9
$DIMEXE
 40
1.778
  9
$DIMTP
 40
0.0
  9
$DIMTM
 40
0.0
  9
$DIMTXT
 40
2.8222222222
  9
$DIMCEN
 40
2.5
  9
$DIMTSZ
 40
0.0
  9
$DIMTOL
 70
     0
  9
$DIMLIM
 70
     0
  9
$DIMTIH
 70
     1
  9
$DIMTOH
 70
     1
  9
$DIMSE1
 70
     0
  9
$DIMSE2
 70
     0
  9
$DIMTAD
 70
     0
  9
$DIMZIN
 70
     1
  9
$DIMBLK
  1

  9
$DIMASO
 70
     1
  9
$DIMSHO
 70
     1
  9
$DIMPOST
  1

  9
$DIMAPOST
  1

  9
$DIMALT
 70
     0
  9
$DIMALTD
 70
     3
  9
$DIMALTF
 40
0.0393700787
  9
$DIMLFAC
 40
1.0
  9
$DIMTOFL
 70
     1
  9
$DIMTVP
 40
0.0
  9
$DIMTIX
 70
     0
  9
$DIMSOXD
 70
     0
  9
$DIMSAH
 70
     0
  9
$DIMBLK1
  1

  9
$DIMBLK2
  1

  9
$DIMSTYLE
  2
ISO-25
  9
$DIMCLRD
 70
     0
  9
$DIMCLRE
 70
     0
  9
$DIMCLRT
 70
     0
  9
$DIMTFAC
 40
1.0
  9
$DIMGAP
 40
2.54
  9
$DIMJUST
 70
     0
  9
$DIMSD1
 70
     0
  9
$DIMSD2
 70
     0
  9
$DIMTOLJ
 70
     0
  9
$DIMTZIN
 70
     1
  9
$DIMALTZ
 70
     0
  9
$DIMALTTZ
 70
     0
  9
$DIMUPT
 70
     0
  9
$DIMDEC
 70
     1
  9
$DIMTDEC
 70
     1
  9
$DIMALTU
 70
     2
  9
$DIMALTTD
 70
     3
  9
$DIMTXSTY
  7
Standard
  9
$DIMAUNIT
 70
     0
  9
$DIMADEC
 70
     0
  9
$DIMALTRND
 40
0.0
  9
$DIMAZIN
 70
     0
  9
$DIMDSEP
 70
    44
  9
$DIMATFIT
 70
     3
  9
$DIMFRAC
 70
     0
  9
$DIMLDRBLK
  1

  9
$DIMLUNIT
 70
     2
  9
$DIMLWD
 70
    -2
  9
$DIMLWE
 70
    -2
  9
$DIMTMOVE
 70
     0
  9
$LUNITS
 70
     2
  9
$LUPREC
 70
     1
  9
$SKETCHINC
 40
1.0
  9
$FILLETRAD
 40
10.0
  9
$AUNITS
 70
     0
  9
$AUPREC
 70
     0
  9
$MENU
  1
.
  9
$ELEVATION
 40
0.0
  9
$PELEVATION
 40
0.0
  9
$THICKNESS
 40
0.0
  9
$LIMCHECK
 70
     0
  9
$CHAMFERA
 40
10.0
  9
$CHAMFERB
 40
10.0
  9
$CHAMFERC
 40
20.0
  9
$CHAMFERD
 40
0.0
  9
$SKPOLY
 70
     0
  9
$TDCREATE
 40
2456477.595168669
  9
$TDUCREATE
 40
2456477.761835336
  9
$TDUPDATE
 40
2456477.595171424
  9
$TDUUPDATE
 40
2456477.76183809
  9
$TDINDWG
 40
0.0000000116
  9
$TDUSRTIMER
 40
0.0000000116
  9
$USRTIMER
 70
     1
  9
$ANGBASE
 50
0.0
  9
$ANGDIR
 70
     0
  9
$PDMODE
 70
     0
  9
$PDSIZE
 40
-1.0
  9
$PLINEWID
 40
0.0
  9
$SPLFRAME
 70
     0
  9
$SPLINETYPE
 70
     6
  9
$SPLINESEGS
 70
     8
  9
$HANDSEED
  5
22F
  9
$SURFTAB1
 70
     6
  9
$SURFTAB2
 70
     6
  9
$SURFTYPE
 70
     6
  9
$SURFU
 70
     6
  9
$SURFV
 70
     6
  9
$UCSBASE
  2

  9
$UCSNAME
  2

  9
$UCSORG
 10
0.0
 20
0.0
 30
0.0
  9
$UCSXDIR
 10
1.0
 20
0.0
 30
0.0
  9
$UCSYDIR
 10
0.0
 20
1.0
 30
0.0
  9
$UCSORTHOREF
  2

  9
$UCSORTHOVIEW
 70
     0
  9
$UCSORGTOP
 10
0.0
 20
0.0
 30
0.0
  9
$UCSORGBOTTOM
 10
0.0
 20
0.0
 30
0.0
  9
$UCSORGLEFT
 10
0.0
 20
0.0
 30
0.0
  9
$UCSORGRIGHT
 10
0.0
 20
0.0
 30
0.0
  9
$UCSORGFRONT
 10
0.0
 20
0.0
 30
0.0
  9
$UCSORGBACK
 10
0.0
 20
0.0
 30
0.0
  9
$PUCSBASE
  2

  9
$PUCSNAME
  2

  9
$PUCSORG
 10
0.0
 20
0.0
 30
0.0
  9
$PUCSXDIR
 10
1.0
 20
0.0
 30
0.0
  9
$PUCSYDIR
 10
0.0
 20
1.0
 30
0.0
  9
$PUCSORTHOREF
  2

  9
$PUCSORTHOVIEW
 70
     0
  9
$PUCSORGTOP
 10
0.0
 20
0.0
 30
0.0
  9
$PUCSORGBOTTOM
 10
0.0
 20
0.0
 30
0.0
  9
$PUCSORGLEFT
 10
0.0
 20
0.0
 30
0.0
  9
$PUCSORGRIGHT
 10
0.0
 20
0.0
 30
0.0
  9
$PUCSORGFRONT
 10
0.0
 20
0.0
 30
0.0
  9
$PUCSORGBACK
 10
0.0
 20
0.0
 30
0.0
  9
$USERI1
 70
     0
  9
$USERI2
 70
     0
  9
$USERI3
 70
     0
  9
$USERI4
 70
     0
  9
$USERI5
 70
     0
  9
$USERR1
 40
0.0
  9
$USERR2
 40
0.0
  9
$USERR3
 40
0.0
  9
$USERR4
 40
0.0
  9
$USERR5
 40
0.0
  9
$WORLDVIEW
 70
     1
  9
$SHADEDGE
 70
     3
  9
$SHADEDIF
 70
    70
  9
$TILEMODE
 70
     1
  9
$MAXACTVP
 70
    64
  9
$PINSBASE
 10
0.0
 20
0.0
 30
0.0
  9
$PLIMCHECK
 70
     0
  9
$PEXTMIN
 10
1.0000000000E+20
 20
1.0000000000E+20
 30
1.0000000000E+20
  9
$PEXTMAX
 10
-1.0000000000E+20
 20
-1.0000000000E+20
 30
-1.0000000000E+20
  9
$PLIMMIN
 10
0.0
 20
0.0
  9
$PLIMMAX
 10
420.0
 20
297.0
  9
$UNITMODE
 70
     0
  9
$VISRETAIN
 70
     1
  9
$PLINEGEN
 70
     0
  9
$PSLTSCALE
 70
     1
  9
$TREEDEPTH
 70
  3020
  9
$CMLSTYLE
  2
Standard
  9
$CMLJUST
 70
     0
  9
$CMLSCALE
 40
20.0
  9
$PROXYGRAPHICS
 70
     1
  9
$MEASUREMENT
 70
     1
  9
$CELWEIGHT
370
    -1
  9
$ENDCAPS
280
     0
  9
$JOINSTYLE
280
     0
  9
$LWDISPLAY
290
     1
  9
$INSUNITS
 70
     4
  9
$HYPERLINKBASE
  1

  9
$STYLESHEET
  1

  9
$XEDIT
290
     1
  9
$CEPSNTYPE
380
     0
  9
$PSTYLEMODE
290
     1
  9
$FINGERPRINTGUID
  2
{E53E9686-4DB5-497D-9A0B-F6DDD3F3DA02}
  9
$VERSIONGUID
  2
{FAEB1C32-E019-11D5-929B-00C0DF256EC4}
  9
$EXTNAMES
290
     1
  9
$PSVPSCALE
 40
0.0
  9
$OLESTARTUP
290
     0
  0
ENDSEC
  0
SECTION
  2
CLASSES
  0
CLASS
  1
ACDBDICTIONARYWDFLT
  2
AcDbDictionaryWithDefault
  3
ObjectDBX Classes
 90
        0
280
     0
281
     0
  0
CLASS
  1
VISUALSTYLE
  2
AcDbVisualStyle
  3
ObjectDBX Classes
 90
     4095
280
     0
281
     0
  0
CLASS
  1
MATERIAL
  2
AcDbMaterial
  3
ObjectDBX Classes
 90
     1153
280
     0
281
     0
  0
CLASS
  1
ACDBPLACEHOLDER
  2
AcDbPlaceHolder
  3
ObjectDBX Classes
 90
        0
280
     0
281
     0
  0
CLASS
  1
LAYOUT
  2
AcDbLayout
  3
ObjectDBX Classes
 90
        0
280
     0
281
     0
  0
ENDSEC
  0
SECTION
  2
TABLES
  0
TABLE
  2
VPORT
  5
8
330
0
100
AcDbSymbolTable
 70
     1
  0
VPORT
  5
29
330
8
100
AcDbSymbolTableRecord
100
AcDbViewportTableRecord
  2
*Active
 70
     0
 10
0.0
 20
0.0
 11
1.0
 21
1.0
 12
139.7
 22
107.95
 13
0.0
 23
0.0
 14
10.0
 24
10.0
 15
10.0
 25
10.0
 16
0.0
 26
0.0
 36
1.0
 17
0.0
 27
0.0
 37
0.0
 40
215.9
 41
1.2941176471
 42
50.0
 43
0.0
 44
0.0
 50
0.0
 51
0.0
 71
     0
 72
  2000
 73
     1
 74
     3
 75
     0
 76
     0
 77
     0
 78
     0
281
     0
 65
     1
110
0.0
120
0.0
130
0.0
111
1.0
121
0.0
131
0.0
112
0.0
122
1.0
132
0.0
 79
     0
146
0.0
  0
ENDTAB
  0
TABLE
  2
LTYPE
  5
5
330
0
100
AcDbSymbolTable
 70
     6
  0
LTYPE
  5
14
330
5
100
AcDbSymbolTableRecord
100
AcDbLinetypeTableRecord
  2
ByBlock
 70
     0
  3

 72
    65
 73
     0
 40
0.0
  0
LTYPE
  5
15
330
5
100
AcDbSymbolTableRecord
100
AcDbLinetypeTableRecord
  2
ByLayer
 70
     0
  3

 72
    65
 73
     0
 40
0.0
  0
LTYPE
  5
16
330
5
100
AcDbSymbolTableRecord
100
AcDbLinetypeTableRecord
  2
Continuous
 70
     0
  3
Solid line
 72
    65
 73
     0
 40
0.0
  0
LTYPE
  5
3F
330
5
100
AcDbSymbolTableRecord
100
AcDbLinetypeTableRecord
  2
HIDDEN
 70
     0
  3
Hidden __ __ __ __ __ __ __ __ __ __ __ __ __ __
 72
    65
 73
     2
 40
1.905
 49
1.27
 74
     0
 49
-0.635
 74
     0
  0
LTYPE
  5
40
330
5
100
AcDbSymbolTableRecord
100
AcDbLinetypeTableRecord
  2
PHANTOM
 70
     0
  3
Phantom ______  __  __  ______  __  __  ______
 72
    65
 73
     6
 40
12.7
 49
6.35
 74
     0
 49
-1.27
 74
     0
 49
1.27
 74
     0
 49
-1.27
 74
     0
 49
1.27
 74
     0
 49
-1.27
 74
     0
  0
LTYPE
  5
41
330
5
100
AcDbSymbolTableRecord
100
AcDbLinetypeTableRecord
  2
CENTER
 70
     0
  3
Center ____ _ ____ _ ____ _ ____ _ ____ _ ____
 72
    65
 73
     4
 40
10.16
 49
6.35
 74
     0
 49
-1.27
 74
     0
 49
1.27
 74
     0
 49
-1.27
 74
     0
  0
LTYPE
  5
42
330
5
100
AcDbSymbolTableRecord
100
AcDbLinetypeTableRecord
  2
CENTERX2
 70
     0
  3
Center (2x) ________  __  ________  __  _____
 72
    65
 73
     4
 40
20.32
 49
12.7
 74
     0
 49
-2.54
 74
     0
 49
2.54
 74
     0
 49
-2.54
 74
     0
  0
LTYPE
  5
43
330
5
100
AcDbSymbolTableRecord
100
AcDbLinetypeTableRecord
  2
DOT2
 70
     0
  3
Dot (.5x) ........................................
 72
    65
 73
     2
 40
0.635
 49
0.0
 74
     0
 49
-0.635
 74
     0
  0
ENDTAB
  0
TABLE
  2
LAYER
  5
2
330
0
100
AcDbSymbolTable
 70
     2
  0
LAYER
  5
10
330
2
100
AcDbSymbolTableRecord
100
AcDbLayerTableRecord
  2
0
 70
     0
 62
     7
  6
Continuous
370
    -3
390
F
  0
LAYER
  5
44
330
2
100
AcDbSymbolTableRecord
100
AcDbLayerTableRecord
  2
FORMAT
 70
     0
 62
     7
  6
Continuous
370
    -3
390
F
  0
ENDTAB
  0
TABLE
  2
STYLE
  5
3
330
0
100
AcDbSymbolTable
 70
     5
  0
STYLE
  5
11
330
3
100
AcDbSymbolTableRecord
100
AcDbTextStyleTableRecord
  2
Standard
 70
     0
 40
0.0
 41
1.0
 50
0.0
 71
     0
 42
2.8222222222
  3
txt
  4

  0
STYLE
  5
6B
330
3
100
AcDbSymbolTableRecord
100
AcDbTextStyleTableRecord
  2
SLDTEXTSTYLE0
 70
     0
 40
0.0
 41
0.75
 50
0.0
 71
     0
 42
0.2
  3
TXT
  4

  0
STYLE
  5
75
330
3
100
AcDbSymbolTableRecord
100
AcDbTextStyleTableRecord
  2
SLDTEXTSTYLE1
 70
     0
 40
0.0
 41
0.6
 50
0.0
 71
     0
 42
0.2
  3
TXT
  4

  0
STYLE
  5
9E
330
3
100
AcDbSymbolTableRecord
100
AcDbTextStyleTableRecord
  2
SLDTEXTSTYLE2
 70
     0
 40
0.0
 41
0.75
 50
0.0
 71
     0
 42
0.2
  3
TXT
  4
bigfont
  0
STYLE
  5
B3
330
3
100
AcDbSymbolTableRecord
100
AcDbTextStyleTableRecord
  2
SLDTEXTSTYLE3
 70
     0
 40
0.0
 41
0.7
 50
0.0
 71
     0
 42
0.2
  3
TXT
  4

  0
ENDTAB
  0
TABLE
  2
VIEW
  5
6
330
0
100
AcDbSymbolTable
 70
     0
  0
ENDTAB
  0
TABLE
  2
UCS
  5
7
330
0
100
AcDbSymbolTable
 70
     0
  0
ENDTAB
  0
TABLE
  2
APPID
  5
9
330
0
100
AcDbSymbolTable
 70
     1
  0
APPID
  5
12
330
9
100
AcDbSymbolTableRecord
100
AcDbRegAppTableRecord
  2
ACAD
 70
     0
  0
ENDTAB
  0
TABLE
  2
DIMSTYLE
  5
A
330
0
100
AcDbSymbolTable
 70
     5
100
AcDbDimStyleTable
  0
DIMSTYLE
105
27
330
A
100
AcDbSymbolTableRecord
100
AcDbDimStyleTableRecord
  2
ISO-25
 70
     0
 41
2.5
 42
0.625
 43
3.75
 44
1.25
 73
     0
 74
     0
 77
     1
 78
     8
140
2.5
141
2.5
143
0.0393700787
147
0.625
171
     3
172
     1
178
     0
271
     2
272
     2
274
     3
278
    44
283
     0
284
     8
340
11
  0
DIMSTYLE
105
C0
102
{ACAD_REACTORS
330
BF
102
}
330
A
100
AcDbSymbolTableRecord
100
AcDbDimStyleTableRecord
  2
SLDDIMSTYLE0
 70
     0
 41
3.175
 44
0.0
 45
0.000000001
 78
    12
 79
     3
140
2.1166666667
141
0.0
143
0.0393700787
147
0.5291666667
148
0.000000001
170
     1
173
     1
178
     0
271
     1
272
     1
276
     2
284
    12
340
6B
  0
DIMSTYLE
105
1F7
102
{ACAD_REACTORS
330
1F6
102
}
330
A
100
AcDbSymbolTableRecord
100
AcDbDimStyleTableRecord
  2
SLDDIMSTYLE1
 70
     0
 41
3.175
 44
0.0
 45
0.000000001
 78
     4
 79
     1
140
2.1166666667
143
0.0393700787
147
0.5291666667
148
0.000000001
170
     1
172
     1
173
     1
178
     0
271
     1
272
     1
276
     2
284
    12
289
     0
340
6B
  0
DIMSTYLE
105
20A
102
{ACAD_REACTORS
330
209
102
}
330
A
100
AcDbSymbolTableRecord
100
AcDbDimStyleTableRecord
  2
SLDDIMSTYLE2
 70
     0
 41
3.175
 44
0.0
 45
0.000000001
 78
    12
 79
     3
140
2.1166666667
143
0.0393700787
147
0.5291666667
148
0.000000001
170
     1
172
     1
173
     1
178
     0
271
     1
272
     1
276
     2
284
    12
289
     0
340
6B
  0
DIMSTYLE
105
21E
102
{ACAD_REACTORS
330
21D
102
}
330
A
100
AcDbSymbolTableRecord
100
AcDbDimStyleTableRecord
  2
SLDDIMSTYLE3
 70
     0
 41
3.175
 44
0.0
 45
0.000000001
 78
     4
 79
     1
140
2.1166666667
141
0.0
143
0.0393700787
147
0.5291666667
148
0.000000001
170
     1
173
     1
178
     0
271
     1
272
     1
276
     2
284
    12
340
6B
  0
ENDTAB
  0
TABLE
  2
BLOCK_RECORD
  5
1
330
0
100
AcDbSymbolTable
 70
    12
  0
BLOCK_RECORD
  5
1F
330
1
100
AcDbSymbolTableRecord
100
AcDbBlockTableRecord
  2
*Model_Space
340
22
  0
BLOCK_RECORD
  5
1B
330
1
100
AcDbSymbolTableRecord
100
AcDbBlockTableRecord
  2
*Paper_Space
340
1E
  0
BLOCK_RECORD
  5
23
330
1
100
AcDbSymbolTableRecord
100
AcDbBlockTableRecord
  2
*Paper_Space0
340
26
  0
BLOCK_RECORD
  5
45
330
1
100
AcDbSymbolTableRecord
100
AcDbBlockTableRecord
  2
Third Angle Projection Block
340
0
102
{BLKREFS
331
6A
102
}
  0
BLOCK_RECORD
  5
7B
330
1
100
AcDbSymbolTableRecord
100
AcDbBlockTableRecord
  2
SW_NOTE_0
340
0
102
{BLKREFS
331
80
102
}
  0
BLOCK_RECORD
  5
81
330
1
100
AcDbSymbolTableRecord
100
AcDbBlockTableRecord
  2
SW_NOTE_1
340
0
102
{BLKREFS
331
86
102
}
  0
BLOCK_RECORD
  5
88
330
1
100
AcDbSymbolTableRecord
100
AcDbBlockTableRecord
  2
SW_NOTE_2
340
0
102
{BLKREFS
331
8D
102
}
  0
BLOCK_RECORD
  5
8F
330
1
100
AcDbSymbolTableRecord
100
AcDbBlockTableRecord
  2
SW_NOTE_3
340
0
102
{BLKREFS
331
95
102
}
  0
BLOCK_RECORD
  5
96
330
1
100
AcDbSymbolTableRecord
100
AcDbBlockTableRecord
  2
SW_NOTE_4
340
0
102
{BLKREFS
331
BA
102
}
  0
BLOCK_RECORD
  5
C1
330
1
100
AcDbSymbolTableRecord
100
AcDbBlockTableRecord
  2
_D
340
0
  0
BLOCK_RECORD
  5
D0
330
1
100
AcDbSymbolTableRecord
100
AcDbBlockTableRecord
  2
SW_CENTERMARKSYMBOL_0
340
0
102
{BLKREFS
331
D7
102
}
  0
BLOCK_RECORD
  5
1F8
330
1
100
AcDbSymbolTableRecord
100
AcDbBlockTableRecord
  2
_D_1
340
0
  0
BLOCK_RECORD
  5
20B
330
1
100
AcDbSymbolTableRecord
100
AcDbBlockTableRecord
  2
_D_2
340
0
  0
BLOCK_RECORD
  5
21F
330
1
100
AcDbSymbolTableRecord
100
AcDbBlockTableRecord
  2
_D_3
340
0
  0
ENDTAB
  0
ENDSEC
  0
SECTION
  2
BLOCKS
  0
BLOCK
  5
20
330
1F
100
AcDbEntity
  8
0
100
AcDbBlockBegin
  2
*Model_Space
 70
     0
 10
0.0
 20
0.0
 30
0.0
  3
*Model_Space
  1

  0
ENDBLK
  5
21
330
1F
100
AcDbEntity
  8
0
100
AcDbBlockEnd
  0
BLOCK
  5
1C
330
1B
100
AcDbEntity
 67
     1
  8
0
100
AcDbBlockBegin
  2
*Paper_Space
 70
     0
 10
0.0
 20
0.0
 30
0.0
  3
*Paper_Space
  1

  0
ENDBLK
  5
1D
330
1B
100
AcDbEntity
 67
     1
  8
0
100
AcDbBlockEnd
  0
BLOCK
  5
24
330
23
100
AcDbEntity
  8
0
100
AcDbBlockBegin
  2
*Paper_Space0
 70
     0
 10
0.0
 20
0.0
 30
0.0
  3
*Paper_Space0
  1

  0
ENDBLK
  5
25
330
23
100
AcDbEntity
  8
0
100
AcDbBlockEnd
  0
BLOCK
  5
46
330
45
100
AcDbEntity
  8
0
100
AcDbBlockBegin
  2
Third Angle Projection Block
 70
     0
 10
0.0
 20
0.0
 30
0.0
  3
Third Angle Projection Block
  1

  0
CIRCLE
  5
48
330
45
100
AcDbEntity
  8
0
  6
Continuous
 62
     7
370
    30
100
AcDbCircle
 10
101.4766388944
 20
18.9404083667
 30
0.0
 40
1.768227153674871
  0
CIRCLE
  5
49
330
45
100
AcDbEntity
  8
0
  6
Continuous
 62
     7
370
    30
100
AcDbCircle
 10
101.4766388944
 20
18.9404083667
 30
0.0
 40
3.901228248531818
  0
LINE
  5
4A
330
45
100
AcDbEntity
  8
0
  6
CENTERX2
 62
     7
370
     0
100
AcDbLine
 10
110.1367822585
 20
18.9404083667
 30
0.0
 11
119.4527334874
 21
18.9404083667
 31
0.0
  0
LINE
  5
4B
330
45
100
AcDbEntity
  8
0
  6
Continuous
 62
     7
370
    30
100
AcDbLine
 10
111.0016388944
 20
20.7086355204
 30
0.0
 11
111.0016388944
 21
17.172181213
 31
0.0
  0
LINE
  5
4C
330
45
100
AcDbEntity
  8
0
  6
Continuous
 62
     7
370
    30
100
AcDbLine
 10
111.0016388944
 20
17.172181213
 30
0.0
 11
118.6216388944
 21
15.1304083667
 31
0.0
  0
LINE
  5
4D
330
45
100
AcDbEntity
  8
0
  6
Continuous
 62
     7
370
    30
100
AcDbLine
 10
118.6216388944
 20
15.1304083667
 30
0.0
 11
118.6216388944
 21
22.7504083667
 31
0.0
  0
LINE
  5
4E
330
45
100
AcDbEntity
  8
0
  6
Continuous
 62
     7
370
    30
100
AcDbLine
 10
118.6216388944
 20
22.7504083667
 30
0.0
 11
111.0016388944
 21
20.7086355204
 31
0.0
  0
LINE
  5
4F
330
45
100
AcDbEntity
  8
0
  6
CENTERX2
 62
     7
370
     0
100
AcDbLine
 10
96.6025854619
 20
18.9404083667
 30
0.0
 11
106.3506923269
 21
18.9404083667
 31
0.0
  0
LINE
  5
50
330
45
100
AcDbEntity
  8
0
  6
CENTERX2
 62
     7
370
     0
100
AcDbLine
 10
101.4766388944
 20
23.8144617992
 30
0.0
 11
101.4766388944
 21
14.0663549342
 31
0.0
  0
POINT
  5
51
330
45
100
AcDbEntity
  8
0
  6
Continuous
 62
     7
370
     0
100
AcDbPoint
 10
101.4766388944
 20
18.9404083667
 30
0.0
  0
ENDBLK
  5
47
330
45
100
AcDbEntity
  8
0
100
AcDbBlockEnd
  0
BLOCK
  5
7C
330
7B
100
AcDbEntity
  8
0
100
AcDbBlockBegin
  2
SW_NOTE_0
 70
     0
 10
0.0
 20
0.0
 30
0.0
  3
SW_NOTE_0
  1

  0
MTEXT
  5
7E
330
7B
100
AcDbEntity
  8
0
  6
Continuous
 62
     0
370
     0
100
AcDbMText
 10
19.90725
 20
1.9645392354
 30
0.0
 40
1.524
 41
0.0
 71
     2
 72
     1
  1
VALUES IN PARENTHESIS ARE CALCULATED
  7
SLDTEXTSTYLE0
 73
     1
 44
1.0
  0
MTEXT
  5
7F
330
7B
100
AcDbEntity
  8
0
  6
Continuous
 62
     0
370
     0
100
AcDbMText
 10
19.8778795174
 20
-0.5594606586
 30
0.0
 40
1.524
 41
0.0
 71
     2
 72
     1
  1
AND MAY CONTAIN ROUNDOFF ERRORS
  7
SLDTEXTSTYLE0
 73
     1
 44
1.0
  0
ENDBLK
  5
7D
330
7B
100
AcDbEntity
  8
0
100
AcDbBlockEnd
  0
BLOCK
  5
82
330
81
100
AcDbEntity
  8
0
100
AcDbBlockBegin
  2
SW_NOTE_1
 70
     0
 10
0.0
 20
0.0
 30
0.0
  3
SW_NOTE_1
  1

  0
MTEXT
  5
84
330
81
100
AcDbEntity
  8
0
  6
Continuous
 62
     0
370
     0
100
AcDbMText
 10
0.0
 20
2.7285267159
 30
0.0
 40
2.1166666667
 41
0.0
 71
     1
 72
     1
  1
DRAWING
  7
SLDTEXTSTYLE0
 73
     1
 44
1.0
  0
MTEXT
  5
85
330
81
100
AcDbEntity
  8
0
  6
Continuous
 62
     0
370
     0
100
AcDbMText
 10
0.0
 20
-0.0936954723
 30
0.0
 40
2.1166666667
 41
0.0
 71
     1
 72
     1
  1
PROJECTION
  7
SLDTEXTSTYLE0
 73
     1
 44
1.0
  0
ENDBLK
  5
83
330
81
100
AcDbEntity
  8
0
100
AcDbBlockEnd
  0
BLOCK
  5
89
330
88
100
AcDbEntity
  8
0
100
AcDbBlockBegin
  2
SW_NOTE_2
 70
     0
 10
0.0
 20
0.0
 30
0.0
  3
SW_NOTE_2
  1

  0
MTEXT
  5
8B
330
88
100
AcDbEntity
  8
0
  6
Continuous
 62
     0
370
     0
100
AcDbMText
 10
25.052734375
 20
4.0927900738
 30
0.0
 40
3.175
 41
0.0
 71
     2
 72
     1
  1
FOR INFORMATION ONLY
  7
SLDTEXTSTYLE0
 73
     1
 44
1.0
  0
MTEXT
  5
8C
330
88
100
AcDbEntity
  8
0
  6
Continuous
 62
     0
370
     0
100
AcDbMText
 10
25.3768468589
 20
-0.1405432084
 30
0.0
 40
3.175
 41
0.0
 71
     2
 72
     1
  1
NOT FOR MANUFACTURING PURPOSES
  7
SLDTEXTSTYLE0
 73
     1
 44
1.0
  0
ENDBLK
  5
8A
330
88
100
AcDbEntity
  8
0
100
AcDbBlockEnd
  0
BLOCK
  5
90
330
8F
100
AcDbEntity
  8
0
100
AcDbBlockBegin
  2
SW_NOTE_3
 70
     0
 10
0.0
 20
0.0
 30
0.0
  3
SW_NOTE_3
  1

  0
MTEXT
  5
92
330
8F
100
AcDbEntity
  8
0
  6
Continuous
 62
     0
370
     0
100
AcDbMText
 10
1.9016927083
 20
3.4106583948
 30
0.0
 40
2.6458333333
 41
0.0
 71
     2
 72
     1
  1
%%c
  7
SLDTEXTSTYLE0
 73
     1
 44
1.0
  0
MTEXT
  5
93
330
8F
100
AcDbEntity
  8
0
  6
Continuous
 62
     0
370
     0
100
AcDbMText
 10
30.4934129218
 20
3.4106583948
 30
0.0
 40
2.6458333333
 41
0.0
 71
     2
 72
     1
  1
50.8mm, f= 150.0mm CONCAVE
  7
SLDTEXTSTYLE0
 73
     1
 44
1.0
  0
MTEXT
  5
94
330
8F
100
AcDbEntity
  8
0
  6
Continuous
 62
     0
370
     0
100
AcDbMText
 10
28.888212204
 20
-0.1171193403
 30
0.0
 40
2.6458333333
 41
0.0
 71
     2
 72
     1
  1
PROTECTED SILVER MIRROR
  7
SLDTEXTSTYLE0
 73
     1
 44
1.0
  0
ENDBLK
  5
91
330
8F
100
AcDbEntity
  8
0
100
AcDbBlockEnd
  0
BLOCK
  5
97
330
96
100
AcDbEntity
  8
0
100
AcDbBlockBegin
  2
SW_NOTE_4
 70
     0
 10
0.0
 20
0.0
 30
0.0
  3
SW_NOTE_4
  1

  0
MTEXT
  5
99
330
96
100
AcDbEntity
  8
0
  6
Continuous
 62
     0
370
     0
100
AcDbMText
 10
0.0
 20
3.0695925553
 30
0.0
 40
2.38125
 41
0.0
 71
     1
 72
     1
  1
NOTES/SPECIFICATIONS:
  7
SLDTEXTSTYLE0
 73
     1
 44
1.0
  0
MTEXT
  5
9A
330
96
100
AcDbEntity
  8
0
  6
Continuous
 62
     0
370
     0
100
AcDbMText
 10
9.9999997765
 20
-3.2804073679
 30
0.0
 40
2.38125
 41
0.0
 71
     1
 72
     1
  1
CLEAR APERTURE: >90% DIAMETER
  7
SLDTEXTSTYLE0
 73
     1
 44
1.0
  0
MTEXT
  5
9B
330
96
100
AcDbEntity
  8
0
  6
Continuous
 62
     0
370
     0
100
AcDbMText
 10
0.0
 20
-3.2804073679
 30
0.0
 40
2.38125
 41
0.0
 71
     1
 72
     1
  1
1.
  7
SLDTEXTSTYLE0
 73
     1
 44
1.0
  0
MTEXT
  5
9C
330
96
100
AcDbEntity
  8
0
  6
Continuous
 62
     0
370
     0
100
AcDbMText
 10
9.9999997765
 20
-6.5976282029
 30
0.0
 40
2.38125
 41
0.0
 71
     1
 72
     1
  1
SURFACE ACCURACY
  7
SLDTEXTSTYLE0
 73
     1
 44
1.0
  0
MTEXT
  5
9D
330
96
100
AcDbEntity
  8
0
  6
Continuous
 62
     0
370
     0
100
AcDbMText
 10
42.9582651705
 20
-6.6891910621
 30
0.0
 40
2.286
 41
0.0
 71
     1
 72
     1
  1
:
  7
SLDTEXTSTYLE0
 73
     1
 44
1.0
  0
MTEXT
  5
9F
330
96
100
AcDbEntity
  8
0
  6
Continuous
 62
     0
370
     0
100
AcDbMText
 10
44.6957833081
 20
-6.5976282029
 30
0.0
 40
2.38125
 41
0.0
 71
     1
 72
     1
  1
\M+183C9/
  7
SLDTEXTSTYLE2
 73
     1
 44
1.0
  0
MTEXT
  5
A0
330
96
100
AcDbEntity
  8
0
  6
Continuous
 62
     0
370
     0
100
AcDbMText
 10
47.7715637535
 20
-6.6891910621
 30
0.0
 40
2.286
 41
0.0
 71
     1
 72
     1
  1
4
  7
SLDTEXTSTYLE0
 73
     1
 44
1.0
  0
MTEXT
  5
A1
330
96
100
AcDbEntity
  8
0
  6
Continuous
 62
     0
370
     0
100
AcDbMText
 10
50.3052156419
 20
-6.5976282029
 30
0.0
 40
2.38125
 41
0.0
 71
     1
 72
     1
  1
AT 632.8nm OVER CLEAR APERTURE
  7
SLDTEXTSTYLE0
 73
     1
 44
1.0
  0
MTEXT
  5
A2
330
96
100
AcDbEntity
  8
0
  6
Continuous
 62
     0
370
     0
100
AcDbMText
 10
0.0
 20
-6.5976282029
 30
0.0
 40
2.38125
 41
0.0
 71
     1
 72
     1
  1
2.
  7
SLDTEXTSTYLE0
 73
     1
 44
1.0
  0
MTEXT
  5
A3
330
96
100
AcDbEntity
  8
0
  6
Continuous
 62
     0
370
     0
100
AcDbMText
 10
9.9999997765
 20
-9.7726281646
 30
0.0
 40
2.38125
 41
0.0
 71
     1
 72
     1
  1
SURFACE QUALITY: 40-20 SCRATCH-DIG
  7
SLDTEXTSTYLE0
 73
     1
 44
1.0
  0
MTEXT
  5
A4
330
96
100
AcDbEntity
  8
0
  6
Continuous
 62
     0
370
     0
100
AcDbMText
 10
0.0
 20
-9.7726281646
 30
0.0
 40
2.38125
 41
0.0
 71
     1
 72
     1
  1
3.
  7
SLDTEXTSTYLE0
 73
     1
 44
1.0
  0
MTEXT
  5
A5
330
96
100
AcDbEntity
  8
0
  6
Continuous
 62
     0
370
     0
100
AcDbMText
 10
9.9999997765
 20
-12.9476281262
 30
0.0
 40
2.38125
 41
0.0
 71
     1
 72
     1
  1
BACK SURFACE: FINE GROUND
  7
SLDTEXTSTYLE0
 73
     1
 44
1.0
  0
MTEXT
  5
A6
330
96
100
AcDbEntity
  8
0
  6
Continuous
 62
     0
370
     0
100
AcDbMText
 10
0.0
 20
-12.9476281262
 30
0.0
 40
2.38125
 41
0.0
 71
     1
 72
     1
  1
4.
  7
SLDTEXTSTYLE0
 73
     1
 44
1.0
  0
MTEXT
  5
A7
330
96
100
AcDbEntity
  8
0
  6
Continuous
 62
     0
370
     0
100
AcDbMText
 10
9.9999997765
 20
-16.1226280878
 30
0.0
 40
2.38125
 41
0.0
 71
     1
 72
     1
  1
THICKNESS TOLERANCE:
  7
SLDTEXTSTYLE0
 73
     1
 44
1.0
  0
MTEXT
  5
A8
330
96
100
AcDbEntity
  8
0
  6
Continuous
 62
     0
370
     0
100
AcDbMText
 10
46.741804108
 20
-16.1226280878
 30
0.0
 40
2.38125
 41
0.0
 71
     1
 72
     1
  1
%%p
  7
SLDTEXTSTYLE0
 73
     1
 44
1.0
  0
MTEXT
  5
A9
330
96
100
AcDbEntity
  8
0
  6
Continuous
 62
     0
370
     0
100
AcDbMText
 10
49.0119289607
 20
-16.1226280878
 30
0.0
 40
2.38125
 41
0.0
 71
     1
 72
     1
  1
0.2 mm
  7
SLDTEXTSTYLE0
 73
     1
 44
1.0
  0
MTEXT
  5
AA
330
96
100
AcDbEntity
  8
0
  6
Continuous
 62
     0
370
     0
100
AcDbMText
 10
0.0
 20
-16.1226280878
 30
0.0
 40
2.38125
 41
0.0
 71
     1
 72
     1
  1
5.
  7
SLDTEXTSTYLE0
 73
     1
 44
1.0
  0
MTEXT
  5
AB
330
96
100
AcDbEntity
  8
0
  6
Continuous
 62
     0
370
     0
100
AcDbMText
 10
9.9999997765
 20
-19.2976280495
 30
0.0
 40
2.38125
 41
0.0
 71
     1
 72
     1
  1
DIAMETER TOLERANCE: + 0.0/-0.2 mm
  7
SLDTEXTSTYLE0
 73
     1
 44
1.0
  0
MTEXT
  5
AC
330
96
100
AcDbEntity
  8
0
  6
Continuous
 62
     0
370
     0
100
AcDbMText
 10
0.0
 20
-19.2976280495
 30
0.0
 40
2.38125
 41
0.0
 71
     1
 72
     1
  1
6.
  7
SLDTEXTSTYLE0
 73
     1
 44
1.0
  0
MTEXT
  5
AD
330
96
100
AcDbEntity
  8
0
  6
Continuous
 62
     0
370
     0
100
AcDbMText
 10
9.9999997765
 20
-22.4726280111
 30
0.0
 40
2.38125
 41
0.0
 71
     1
 72
     1
  1
COATING: PROTECTED SILVER
  7
SLDTEXTSTYLE0
 73
     1
 44
1.0
  0
MTEXT
  5
AE
330
96
100
AcDbEntity
  8
0
  6
Continuous
 62
     0
370
     0
100
AcDbMText
 10
0.0
 20
-22.4726280111
 30
0.0
 40
2.38125
 41
0.0
 71
     1
 72
     1
  1
7.
  7
SLDTEXTSTYLE0
 73
     1
 44
1.0
  0
MTEXT
  5
AF
330
96
100
AcDbEntity
  8
0
  6
Continuous
 62
     0
370
     0
100
AcDbMText
 10
10.0
 20
-25.6476279727
 30
0.0
 40
2.38125
 41
0.0
 71
     1
 72
     1
  1
Ravg: >97.5% FROM 450nm - 2µm
  7
SLDTEXTSTYLE0
 73
     1
 44
1.0
  0
MTEXT
  5
B0
330
96
100
AcDbEntity
  8
0
  6
Continuous
 62
     0
370
     0
100
AcDbMText
 10
10.0
 20
-28.8226279343
 30
0.0
 40
2.38125
 41
0.0
 71
     1
 72
     1
  1
Ravg: >96% FROM 2µm - 20µm
  7
SLDTEXTSTYLE0
 73
     1
 44
1.0
  0
MTEXT
  5
B1
330
96
100
AcDbEntity
  8
0
  6
Continuous
 62
     0
370
     0
100
AcDbMText
 10
10.0
 20
-31.997627896
 30
0.0
 40
2.38125
 41
0.0
 71
     1
 72
     1
  1
AOI: 0
  7
SLDTEXTSTYLE0
 73
     1
 44
1.0
  0
MTEXT
  5
B2
330
96
100
AcDbEntity
  8
0
  6
Continuous
 62
     0
370
     0
100
AcDbMText
 10
19.344201535
 20
-31.997627896
 30
0.0
 40
2.38125
 41
0.0
 71
     1
 72
     1
  1
%%d
  7
SLDTEXTSTYLE0
 73
     1
 44
1.0
  0
MTEXT
  5
B4
330
96
100
AcDbEntity
  8
0
  6
Continuous
 62
     0
370
     0
100
AcDbMText
 10
21.7505871639
 20
-31.997627896
 30
0.0
 40
2.38125
 41
0.0
 71
     1
 72
     1
  1
TO 45
  7
SLDTEXTSTYLE3
 73
     1
 44
1.0
  0
MTEXT
  5
B5
330
96
100
AcDbEntity
  8
0
  6
Continuous
 62
     0
370
     0
100
AcDbMText
 10
30.2459171414
 20
-31.997627896
 30
0.0
 40
2.38125
 41
0.0
 71
     1
 72
     1
  1
%%d
  7
SLDTEXTSTYLE0
 73
     1
 44
1.0
  0
MTEXT
  5
B6
330
96
100
AcDbEntity
  8
0
  6
Continuous
 62
     0
370
     0
100
AcDbMText
 10
9.9999997765
 20
-35.1726278576
 30
0.0
 40
2.38125
 41
0.0
 71
     1
 72
     1
  1
DAMAGE THRESHOLD: 3J/cm
  7
SLDTEXTSTYLE0
 73
     1
 44
1.0
  0
MTEXT
  5
B7
330
96
100
AcDbEntity
  8
0
  6
Continuous
 62
     0
370
     0
100
AcDbMText
 10
54.2956609279
 20
-35.1257800342
 30
0.0
 40
1.3229166667
 41
0.0
 71
     1
 72
     1
  1
2
  7
SLDTEXTSTYLE0
 73
     1
 44
1.0
  0
MTEXT
  5
B8
330
96
100
AcDbEntity
  8
0
  6
Continuous
 62
     0
370
     0
100
AcDbMText
 10
56.1661160499
 20
-35.1726278576
 30
0.0
 40
2.38125
 41
0.0
 71
     1
 72
     1
  1
10ns PULSE, 10Hz AT 1064nm
  7
SLDTEXTSTYLE0
 73
     1
 44
1.0
  0
MTEXT
  5
B9
330
96
100
AcDbEntity
  8
0
  6
Continuous
 62
     0
370
     0
100
AcDbMText
 10
0.0
 20
-35.1726278576
 30
0.0
 40
2.38125
 41
0.0
 71
     1
 72
     1
  1
8.
  7
SLDTEXTSTYLE0
 73
     1
 44
1.0
  0
ENDBLK
  5
98
330
96
100
AcDbEntity
  8
0
100
AcDbBlockEnd
  0
BLOCK
  5
C2
330
C1
100
AcDbEntity
  8
0
100
AcDbBlockBegin
  2
_D
 70
     0
 10
0.0
 20
0.0
 30
0.0
  3
_D
  1

  0
SOLID
  5
C4
330
C1
100
AcDbEntity
  8
0
  6
Continuous
 62
     7
370
     0
100
AcDbTrace
 10
76.053975384
 20
88.5613974214
 30
0.0
 11
77.9390324109
 21
85.9565463689
 31
0.0
 12
78.6576726381
 22
86.6747470539
 32
0.0
 13
78.6576726381
 23
86.6747470539
 33
0.0
  0
LINE
  5
C5
330
C1
100
AcDbEntity
  8
0
  6
Continuous
 62
     7
370
     0
100
AcDbLine
 10
91.3775525728
 20
77.7249076176
 30
0.0
 11
91.3775525728
 21
74.8671167779
 31
0.0
  0
LINE
  5
C6
330
C1
100
AcDbEntity
  8
0
  6
Continuous
 62
     7
370
     0
100
AcDbLine
 10
91.3775525728
 20
74.8671167779
 30
0.0
 11
91.8062211987
 21
74.8671167779
 31
0.0
  0
LINE
  5
C7
330
C1
100
AcDbEntity
  8
0
  6
Continuous
 62
     7
370
     0
100
AcDbLine
 10
91.3775525728
 20
77.7249076176
 30
0.0
 11
91.8062211987
 21
77.7249076176
 31
0.0
  0
LINE
  5
C8
330
C1
100
AcDbEntity
  8
0
  6
Continuous
 62
     7
370
     0
100
AcDbLine
 10
100.8474869239
 20
77.7249076176
 30
0.0
 11
100.8474869239
 21
74.8671167779
 31
0.0
  0
LINE
  5
C9
330
C1
100
AcDbEntity
  8
0
  6
Continuous
 62
     7
370
     0
100
AcDbLine
 10
100.8474869239
 20
74.8671167779
 30
0.0
 11
100.418818298
 21
74.8671167779
 31
0.0
  0
LINE
  5
CA
330
C1
100
AcDbEntity
  8
0
  6
Continuous
 62
     7
370
     0
100
AcDbLine
 10
100.8474869239
 20
77.7249076176
 30
0.0
 11
100.418818298
 21
77.7249076176
 31
0.0
  0
LINE
  5
CB
330
C1
100
AcDbEntity
  8
0
  6
Continuous
 62
     7
370
     0
100
AcDbLine
 10
76.053975384
 20
88.5613974214
 30
0.0
 11
84.9518082216
 21
79.658119068
 31
0.0
  0
LINE
  5
CC
330
C1
100
AcDbEntity
  8
0
  6
Continuous
 62
     7
370
     0
100
AcDbLine
 10
84.9518082216
 20
79.658119068
 30
0.0
 11
88.7618082216
 21
79.658119068
 31
0.0
  0
MTEXT
  5
CD
330
C1
100
AcDbEntity
  8
0
  6
Continuous
 62
     7
370
     0
100
AcDbMText
 10
90.5202153209
 20
80.7055922323
 30
0.0
 40
2.1166666667
 41
0.0
 71
     1
 72
     1
  1
%%c
  7
SLDTEXTSTYLE0
 73
     1
 44
1.0
  0
MTEXT
  5
CE
330
C1
100
AcDbEntity
  8
0
  6
Continuous
 62
     7
370
     0
100
AcDbMText
 10
93.5461115041
 20
80.7055922323
 30
0.0
 40
2.1166666667
 41
0.0
 71
     1
 72
     1
  1
50.8mm
  7
SLDTEXTSTYLE0
 73
     1
 44
1.0
  0
MTEXT
  5
CF
330
C1
100
AcDbEntity
  8
0
  6
Continuous
 62
     7
370
     0
100
AcDbMText
 10
92.2348898247
 20
77.3434853621
 30
0.0
 40
2.1166666667
 41
0.0
 71
     1
 72
     1
  1
2.00in
  7
SLDTEXTSTYLE0
 73
     1
 44
1.0
  0
ENDBLK
  5
C3
330
C1
100
AcDbEntity
  8
0
100
AcDbBlockEnd
  0
BLOCK
  5
D1
330
D0
100
AcDbEntity
  8
0
100
AcDbBlockBegin
  2
SW_CENTERMARKSYMBOL_0
 70
     0
 10
0.0
 20
0.0
 30
0.0
  3
SW_CENTERMARKSYMBOL_0
  1

  0
LINE
  5
D3
330
D0
100
AcDbEntity
  8
0
  6
Continuous
 62
     0
370
     0
100
AcDbLine
 10
0.0
 20
0.0
 30
0.0
 11
0.0
 21
2.0
 31
0.0
  0
LINE
  5
D4
330
D0
100
AcDbEntity
  8
0
  6
Continuous
 62
     0
370
     0
100
AcDbLine
 10
0.0
 20
0.0
 30
0.0
 11
-2.0
 21
0.0
 31
0.0
  0
LINE
  5
D5
330
D0
100
AcDbEntity
  8
0
  6
Continuous
 62
     0
370
     0
100
AcDbLine
 10
0.0
 20
0.0
 30
0.0
 11
0.0
 21
-2.0
 31
0.0
  0
LINE
  5
D6
330
D0
100
AcDbEntity
  8
0
  6
Continuous
 62
     0
370
     0
100
AcDbLine
 10
0.0
 20
0.0
 30
0.0
 11
2.0
 21
0.0
 31
0.0
  0
ENDBLK
  5
D2
330
D0
100
AcDbEntity
  8
0
100
AcDbBlockEnd
  0
BLOCK
  5
1F9
330
1F8
100
AcDbEntity
  8
0
100
AcDbBlockBegin
  2
_D_1
 70
     0
 10
0.0
 20
0.0
 30
0.0
  3
_D_1
  1

  0
SOLID
  5
1FB
330
1F8
100
AcDbEntity
  8
0
  6
Continuous
 62
     7
370
     0
100
AcDbTrace
 10
142.2392539375
 20
141.9274031008
 30
0.0
 11
145.4142539375
 21
141.4194031008
 31
0.0
 12
145.4142539375
 22
142.4354031008
 32
0.0
 13
145.4142539375
 23
142.4354031008
 33
0.0
  0
SOLID
  5
1FC
330
1F8
100
AcDbEntity
  8
0
  6
Continuous
 62
     7
370
     0
100
AcDbTrace
 10
133.2392539375
 20
141.9274031008
 30
0.0
 11
130.0642539375
 21
142.4354031008
 31
0.0
 12
130.0642539375
 22
141.4194031008
 32
0.0
 13
130.0642539375
 23
141.4194031008
 33
0.0
  0
LINE
  5
1FD
330
1F8
100
AcDbEntity
  8
0
  6
Continuous
 62
     7
370
     0
100
AcDbLine
 10
151.7467152701
 20
141.6752450855
 30
0.0
 11
151.7467152701
 21
138.8174542458
 31
0.0
  0
LINE
  5
1FE
330
1F8
100
AcDbEntity
  8
0
  6
Continuous
 62
     7
370
     0
100
AcDbLine
 10
151.7467152701
 20
138.8174542458
 30
0.0
 11
152.1753838961
 21
138.8174542458
 31
0.0
  0
LINE
  5
1FF
330
1F8
100
AcDbEntity
  8
0
  6
Continuous
 62
     7
370
     0
100
AcDbLine
 10
151.7467152701
 20
141.6752450855
 30
0.0
 11
152.1753838961
 21
141.6752450855
 31
0.0
  0
LINE
  5
200
330
1F8
100
AcDbEntity
  8
0
  6
Continuous
 62
     7
370
     0
100
AcDbLine
 10
161.2166496213
 20
141.6752450855
 30
0.0
 11
161.2166496213
 21
138.8174542458
 31
0.0
  0
LINE
  5
201
330
1F8
100
AcDbEntity
  8
0
  6
Continuous
 62
     7
370
     0
100
AcDbLine
 10
161.2166496213
 20
138.8174542458
 30
0.0
 11
160.7879809953
 21
138.8174542458
 31
0.0
  0
LINE
  5
202
330
1F8
100
AcDbEntity
  8
0
  6
Continuous
 62
     7
370
     0
100
AcDbLine
 10
161.2166496213
 20
141.6752450855
 30
0.0
 11
160.7879809953
 21
141.6752450855
 31
0.0
  0
LINE
  5
203
330
1F8
100
AcDbEntity
  8
0
  6
Continuous
 62
     7
370
     0
100
AcDbLine
 10
142.2392539375
 20
132.9974031008
 30
0.0
 11
142.2392539375
 21
143.7054031008
 31
0.0
  0
LINE
  5
204
330
1F8
100
AcDbEntity
  8
0
  6
Continuous
 62
     7
370
     0
100
AcDbLine
 10
133.2392539375
 20
107.7974031008
 30
0.0
 11
133.2392539375
 21
143.7054031008
 31
0.0
  0
LINE
  5
205
330
1F8
100
AcDbEntity
  8
0
  6
Continuous
 62
     7
370
     0
100
AcDbLine
 10
142.2392539375
 20
141.9274031008
 30
0.0
 11
148.8725089533
 21
141.9274031008
 31
0.0
  0
LINE
  5
206
330
1F8
100
AcDbEntity
  8
0
  6
Continuous
 62
     7
370
     0
100
AcDbLine
 10
133.2392539375
 20
141.9274031008
 30
0.0
 11
126.8892539375
 21
141.9274031008
 31
0.0
  0
MTEXT
  5
207
330
1F8
100
AcDbEntity
  8
0
  6
Continuous
 62
     7
370
     0
100
AcDbMText
 10
151.8826004228
 20
144.6559297002
 30
0.0
 40
2.1166666667
 41
0.0
 71
     1
 72
     1
  1
9.0mm
  7
SLDTEXTSTYLE0
 73
     1
 44
1.0
  0
MTEXT
  5
208
330
1F8
100
AcDbEntity
  8
0
  6
Continuous
 62
     7
370
     0
100
AcDbMText
 10
152.604052522
 20
141.29382283
 30
0.0
 40
2.1166666667
 41
0.0
 71
     1
 72
     1
  1
0.35in
  7
SLDTEXTSTYLE0
 73
     1
 44
1.0
  0
ENDBLK
  5
1FA
330
1F8
100
AcDbEntity
  8
0
100
AcDbBlockEnd
  0
BLOCK
  5
20C
330
20B
100
AcDbEntity
  8
0
100
AcDbBlockBegin
  2
_D_2
 70
     0
 10
0.0
 20
0.0
 30
0.0
  3
_D_2
  1

  0
SOLID
  5
20E
330
20B
100
AcDbEntity
  8
0
  6
Continuous
 62
     7
370
     0
100
AcDbTrace
 10
142.2392539375
 20
153.9274031008
 30
0.0
 11
145.4142539375
 21
153.4194031008
 31
0.0
 12
145.4142539375
 22
154.4354031008
 32
0.0
 13
145.4142539375
 23
154.4354031008
 33
0.0
  0
SOLID
  5
20F
330
20B
100
AcDbEntity
  8
0
  6
Continuous
 62
     7
370
     0
100
AcDbTrace
 10
132.1789253892
 20
153.9274031008
 30
0.0
 11
129.0039253892
 21
154.4354031008
 31
0.0
 12
129.0039253892
 22
153.4194031008
 32
0.0
 13
129.0039253892
 23
153.4194031008
 33
0.0
  0
LINE
  5
210
330
20B
100
AcDbEntity
  8
0
  6
Continuous
 62
     7
370
     0
100
AcDbLine
 10
150.8174030214
 20
153.6752450855
 30
0.0
 11
150.8174030214
 21
150.8174542458
 31
0.0
  0
LINE
  5
211
330
20B
100
AcDbEntity
  8
0
  6
Continuous
 62
     7
370
     0
100
AcDbLine
 10
150.8174030214
 20
150.8174542458
 30
0.0
 11
151.2460716474
 21
150.8174542458
 31
0.0
  0
LINE
  5
212
330
20B
100
AcDbEntity
  8
0
  6
Continuous
 62
     7
370
     0
100
AcDbLine
 10
150.8174030214
 20
153.6752450855
 30
0.0
 11
151.2460716474
 21
153.6752450855
 31
0.0
  0
LINE
  5
213
330
20B
100
AcDbEntity
  8
0
  6
Continuous
 62
     7
370
     0
100
AcDbLine
 10
160.2873373726
 20
153.6752450855
 30
0.0
 11
160.2873373726
 21
150.8174542458
 31
0.0
  0
LINE
  5
214
330
20B
100
AcDbEntity
  8
0
  6
Continuous
 62
     7
370
     0
100
AcDbLine
 10
160.2873373726
 20
150.8174542458
 30
0.0
 11
159.8586687466
 21
150.8174542458
 31
0.0
  0
LINE
  5
215
330
20B
100
AcDbEntity
  8
0
  6
Continuous
 62
     7
370
     0
100
AcDbLine
 10
160.2873373726
 20
153.6752450855
 30
0.0
 11
159.8586687466
 21
153.6752450855
 31
0.0
  0
LINE
  5
216
330
20B
100
AcDbEntity
  8
0
  6
Continuous
 62
     7
370
     0
100
AcDbLine
 10
142.2392539375
 20
132.9974031008
 30
0.0
 11
142.2392539375
 21
155.7054031008
 31
0.0
  0
LINE
  5
217
330
20B
100
AcDbEntity
  8
0
  6
Continuous
 62
     7
370
     0
100
AcDbLine
 10
132.1789253892
 20
132.998054527
 30
0.0
 11
132.1789253892
 21
155.7054031008
 31
0.0
  0
LINE
  5
218
330
20B
100
AcDbEntity
  8
0
  6
Continuous
 62
     7
370
     0
100
AcDbLine
 10
142.2392539375
 20
153.9274031008
 30
0.0
 11
147.9431967046
 21
153.9274031008
 31
0.0
  0
LINE
  5
219
330
20B
100
AcDbEntity
  8
0
  6
Continuous
 62
     7
370
     0
100
AcDbLine
 10
132.1789253892
 20
153.9274031008
 30
0.0
 11
125.8289253892
 21
153.9274031008
 31
0.0
  0
MTEXT
  5
21A
330
20B
100
AcDbEntity
  8
0
  6
Continuous
 62
     7
370
     0
100
AcDbMText
 10
150.1715983268
 20
156.6559297002
 30
0.0
 40
2.1166666667
 41
0.0
 71
     1
 72
     1
  1
10.1mm
  7
SLDTEXTSTYLE0
 73
     1
 44
1.0
  0
MTEXT
  5
21B
330
20B
100
AcDbEntity
  8
0
  6
Continuous
 62
     7
370
     0
100
AcDbMText
 10
161.9384246245
 20
156.6559297002
 30
0.0
 40
2.1166666667
 41
0.0
 71
     1
 72
     1
  1
REF
  7
SLDTEXTSTYLE0
 73
     1
 44
1.0
  0
MTEXT
  5
21C
330
20B
100
AcDbEntity
  8
0
  6
Continuous
 62
     7
370
     0
100
AcDbMText
 10
151.6747402733
 20
153.29382283
 30
0.0
 40
2.1166666667
 41
0.0
 71
     1
 72
     1
  1
0.40in
  7
SLDTEXTSTYLE0
 73
     1
 44
1.0
  0
ENDBLK
  5
20D
330
20B
100
AcDbEntity
  8
0
100
AcDbBlockEnd
  0
BLOCK
  5
220
330
21F
100
AcDbEntity
  8
0
100
AcDbBlockBegin
  2
_D_3
 70
     0
 10
0.0
 20
0.0
 30
0.0
  3
_D_3
  1

  0
SOLID
  5
222
330
21F
100
AcDbEntity
  8
0
  6
Continuous
 62
     7
370
     0
100
AcDbTrace
 10
132.7761748921
 20
89.8650807841
 30
0.0
 11
135.9180591065
 21
89.1815220201
 31
0.0
 12
135.974488838
 22
90.1959537258
 32
0.0
 13
135.974488838
 23
90.1959537258
 33
0.0
  0
LINE
  5
223
330
21F
100
AcDbEntity
  8
0
  6
Continuous
 62
     7
370
     0
100
AcDbLine
 10
154.3724087216
 20
87.3470878794
 30
0.0
 11
153.9431957619
 21
87.3470878794
 31
0.0
  0
LINE
  5
224
330
21F
100
AcDbEntity
  8
0
  6
Continuous
 62
     7
370
     0
100
AcDbLine
 10
153.9431957619
 20
87.3470878794
 30
0.0
 11
153.9431957619
 21
83.983939803
 31
0.0
  0
LINE
  5
225
330
21F
100
AcDbEntity
  8
0
  6
Continuous
 62
     7
370
     0
100
AcDbLine
 10
153.9431957619
 20
83.983939803
 30
0.0
 11
154.3724087216
 21
83.983939803
 31
0.0
  0
LINE
  5
226
330
21F
100
AcDbEntity
  8
0
  6
Continuous
 62
     7
370
     0
100
AcDbLine
 10
164.7666148175
 20
87.3470878794
 30
0.0
 11
165.1958277773
 21
87.3470878794
 31
0.0
  0
LINE
  5
227
330
21F
100
AcDbEntity
  8
0
  6
Continuous
 62
     7
370
     0
100
AcDbLine
 10
165.1958277773
 20
87.3470878794
 30
0.0
 11
165.1958277773
 21
83.983939803
 31
0.0
  0
LINE
  5
228
330
21F
100
AcDbEntity
  8
0
  6
Continuous
 62
     7
370
     0
100
AcDbLine
 10
165.1958277773
 20
83.983939803
 30
0.0
 11
164.7666148175
 21
83.983939803
 31
0.0
  0
LINE
  5
229
330
21F
100
AcDbEntity
  8
0
  6
Continuous
 62
     7
370
     0
100
AcDbLine
 10
132.7761748921
 20
89.8650807841
 30
0.0
 11
149.8112860348
 21
88.9174696794
 31
0.0
  0
LINE
  5
22A
330
21F
100
AcDbEntity
  8
0
  6
Continuous
 62
     7
370
     0
100
AcDbLine
 10
149.8112860348
 20
88.9174696794
 30
0.0
 11
153.6212860348
 21
88.9174696794
 31
0.0
  0
MTEXT
  5
22B
330
21F
100
AcDbEntity
  8
0
  6
Continuous
 62
     7
370
     0
100
AcDbMText
 10
153.6212860348
 20
90.5048275259
 30
12.7999999952
 40
2.1166666667
 41
0.0
 71
     1
 72
     1
  1
R300.0mm
  7
SLDTEXTSTYLE0
 73
     1
 44
1.0
  0
MTEXT
  5
22C
330
21F
100
AcDbEntity
  8
0
  6
Continuous
 62
     7
370
     0
100
AcDbMText
 10
154.9089249431
 20
86.7124664024
 30
12.7999999952
 40
2.1166666667
 41
0.0
 71
     1
 72
     1
  1
11.81in
  7
SLDTEXTSTYLE0
 73
     1
 44
1.0
  0
ENDBLK
  5
221
330
21F
100
AcDbEntity
  8
0
100
AcDbBlockEnd
  0
ENDSEC
  0
SECTION
  2
ENTITIES
  0
LINE
  5
52
330
1F
100
AcDbEntity
  8
0
  6
Continuous
 62
     7
370
     0
100
AcDbLine
 10
1.5793501011
 20
214.6453799966
 30
0.0
 11
277.9892068491
 21
214.6453799966
 31
0.0
  0
LINE
  5
53
330
1F
100
AcDbEntity
  8
0
  6
Continuous
 62
     7
370
     0
100
AcDbLine
 10
1.5793501011
 20
214.6453799966
 30
0.0
 11
1.5793501011
 21
0.9031642596
 31
0.0
  0
LINE
  5
54
330
1F
100
AcDbEntity
  8
0
  6
Continuous
 62
     7
370
     0
100
AcDbLine
 10
277.9892068491
 20
0.9031642596
 30
0.0
 11
1.5793501011
 21
0.9031642596
 31
0.0
  0
LINE
  5
55
330
1F
100
AcDbEntity
  8
0
  6
Continuous
 62
     7
370
     0
100
AcDbLine
 10
277.9892068491
 20
0.9031642596
 30
0.0
 11
277.9892068491
 21
214.6453799966
 31
0.0
  0
LINE
  5
56
330
1F
100
AcDbEntity
  8
0
  6
Continuous
 62
     7
370
     0
100
AcDbLine
 10
215.7427640041
 20
12.2958890132
 30
0.0
 11
171.6327596684
 21
12.2958890132
 31
0.0
  0
LINE
  5
57
330
1F
100
AcDbEntity
  8
0
  6
Continuous
 62
     7
370
     0
100
AcDbLine
 10
171.6327596684
 20
12.2958890132
 30
0.0
 11
171.6327596684
 21
26.1661402506
 31
0.0
  0
LINE
  5
58
330
1F
100
AcDbEntity
  8
0
  6
Continuous
 62
     7
370
     0
100
AcDbLine
 10
171.6327596684
 20
0.9031642596
 30
0.0
 11
171.6327596684
 21
26.1661402506
 31
0.0
  0
LINE
  5
59
330
1F
100
AcDbEntity
  8
0
  6
Continuous
 62
     7
370
     0
100
AcDbLine
 10
215.7427640041
 20
17.1604579552
 30
0.0
 11
277.9892068491
 21
17.1604579552
 31
0.0
  0
LINE
  5
5A
330
1F
100
AcDbEntity
  8
0
  6
Continuous
 62
     7
370
     0
100
AcDbLine
 10
215.7427640041
 20
35.2394508358
 30
0.0
 11
215.7427640041
 21
0.9031642596
 31
0.0
  0
LINE
  5
5B
330
1F
100
AcDbEntity
  8
0
  6
Continuous
 62
     7
370
     0
100
AcDbLine
 10
215.7427640041
 20
26.1661402506
 30
0.0
 11
171.6327596684
 21
26.1661402506
 31
0.0
  0
LINE
  5
5C
330
1F
100
AcDbEntity
  8
0
  6
Continuous
 62
     7
370
     0
100
AcDbLine
 10
215.7427640041
 20
9.1409200612
 30
0.0
 11
277.9892068491
 21
9.1409200612
 31
0.0
  0
LINE
  5
5D
330
1F
100
AcDbEntity
  8
0
  6
Continuous
 62
     7
370
     0
100
AcDbLine
 10
215.7427640041
 20
16.9216824031
 30
0.0
 11
171.6327596684
 21
16.9216824031
 31
0.0
  0
LINE
  5
5E
330
1F
100
AcDbEntity
  8
0
  6
Continuous
 62
     7
370
     0
100
AcDbLine
 10
215.7427640041
 20
21.4874005542
 30
0.0
 11
171.6327596684
 21
21.4874005542
 31
0.0
  0
LINE
  5
5F
330
1F
100
AcDbEntity
  8
0
  6
Continuous
 62
     7
370
     0
100
AcDbLine
 10
186.1338100705
 20
26.1661402506
 30
0.0
 11
186.1338100705
 21
12.2958890132
 31
0.0
  0
LINE
  5
60
330
1F
100
AcDbEntity
  8
0
  6
Continuous
 62
     7
370
     0
100
AcDbLine
 10
198.2145906188
 20
26.1661402506
 30
0.0
 11
198.2145906188
 21
12.2958890132
 31
0.0
  0
LINE
  5
61
330
1F
100
AcDbEntity
  8
0
  6
Continuous
 62
     7
370
     0
100
AcDbLine
 10
253.7490408369
 20
9.1409200612
 30
0.0
 11
253.7490408369
 21
0.9031642596
 31
0.0
  0
LINE
  5
62
330
1F
100
AcDbEntity
  8
0
  6
Continuous
 62
     7
370
     0
100
AcDbLine
 10
171.6327596684
 20
12.2958890132
 30
0.0
 11
171.6327596684
 21
7.5627342528
 31
0.0
  0
LINE
  5
63
330
1F
100
AcDbEntity
  8
0
  6
Continuous
 62
     7
370
     0
100
AcDbLine
 10
171.6327596684
 20
7.5627342528
 30
0.0
 11
215.7427640041
 21
7.5627342528
 31
0.0
  0
LINE
  5
64
330
1F
100
AcDbEntity
  8
0
  6
Continuous
 62
     7
370
     0
100
AcDbLine
 10
171.6327596684
 20
7.5627342528
 30
0.0
 11
171.6327596684
 21
35.2394508358
 31
0.0
  0
LINE
  5
65
330
1F
100
AcDbEntity
  8
0
  6
Continuous
 62
     7
370
     0
100
AcDbLine
 10
171.6327596684
 20
35.2394508358
 30
0.0
 11
215.7427640041
 21
35.2394508358
 31
0.0
  0
LINE
  5
66
330
1F
100
AcDbEntity
  8
0
  6
Continuous
 62
     7
370
     0
100
AcDbLine
 10
270.1683598194
 20
17.1604579552
 30
0.0
 11
270.1683598194
 21
9.1409200612
 31
0.0
  0
LINE
  5
67
330
1F
100
AcDbEntity
  8
0
  6
Continuous
 62
     7
370
     0
100
AcDbLine
 10
215.7427640041
 20
35.2394508358
 30
0.0
 11
277.9892068491
 21
35.2394508358
 31
0.0
  0
LINE
  5
68
330
1F
100
AcDbEntity
  8
0
  6
Continuous
 62
     7
370
     0
100
AcDbLine
 10
277.9892068491
 20
35.2394508358
 30
0.0
 11
277.9892068491
 21
50.0331356147
 31
0.0
  0
LINE
  5
69
330
1F
100
AcDbEntity
  8
0
  6
Continuous
 62
     7
370
     0
100
AcDbLine
 10
215.7427640041
 20
24.8927335446
 30
0.0
 11
277.9892068491
 21
24.8927335446
 31
0.0
  0
INSERT
  5
6A
330
1F
100
AcDbEntity
  8
0
  6
Continuous
 62
     7
100
AcDbBlockReference
  2
Third Angle Projection Block
 10
117.7262204235
 20
15.5162339489
 30
0.0
 41
0.8
 42
0.8
 43
0.8
  0
MTEXT
  5
6C
330
1F
100
AcDbEntity
  8
0
  6
Continuous
 62
     7
370
     0
100
AcDbMText
 10
273.8657318933
 20
13.1125292762
 30
0.0
 40
3.175
 41
0.0
 71
     2
 72
     1
  1
D
  7
SLDTEXTSTYLE0
 73
     1
 44
1.0
  0
MTEXT
  5
6D
330
1F
100
AcDbEntity
  8
0
  6
Continuous
 62
     7
370
     0
100
AcDbMText
 10
234.6656539059
 20
5.1306563898
 30
0.0
 40
3.175
 41
0.0
 71
     2
 72
     1
  1
CM508-150-P01
  7
SLDTEXTSTYLE0
 73
     1
 44
1.0
  0
MTEXT
  5
6E
330
1F
100
AcDbEntity
  8
0
  6
Continuous
 62
     7
370
     0
100
AcDbMText
 10
216.4199766059
 20
16.8243178599
 30
0.0
 40
2.1166666667
 41
0.0
 71
     1
 72
     1
  1
MATERIAL
  7
SLDTEXTSTYLE0
 73
     1
 44
1.0
  0
MTEXT
  5
6F
330
1F
100
AcDbEntity
  8
0
  6
Continuous
 62
     7
370
     0
100
AcDbMText
 10
174.230946566
 20
20.054553926
 30
0.0
 40
1.8520833333
 41
0.0
 71
     1
 72
     1
  1
DRAWN
  7
SLDTEXTSTYLE0
 73
     1
 44
1.0
  0
MTEXT
  5
70
330
1F
100
AcDbEntity
  8
0
  6
Continuous
 62
     7
370
     0
100
AcDbMText
 10
172.3960124543
 20
15.5787169747
 30
0.0
 40
1.8520833333
 41
0.0
 71
     1
 72
     1
  1
APPROVAL
  7
SLDTEXTSTYLE0
 73
     1
 44
1.0
  0
MTEXT
  5
71
330
1F
100
AcDbEntity
  8
0
  6
Continuous
 62
     7
370
     0
100
AcDbMText
 10
271.321689486
 20
16.0237652193
 30
0.0
 40
2.1166666667
 41
0.0
 71
     1
 72
     1
  1
REV
  7
SLDTEXTSTYLE0
 73
     1
 44
1.0
  0
MTEXT
  5
72
330
1F
100
AcDbEntity
  8
0
  6
Continuous
 62
     7
370
     0
100
AcDbMText
 10
190.2958696448
 20
20.3177146903
 30
0.0
 40
2.1166666667
 41
0.0
 71
     1
 72
     1
  1
BAG
  7
SLDTEXTSTYLE0
 73
     1
 44
1.0
  0
MTEXT
  5
73
330
1F
100
AcDbEntity
  8
0
  6
Continuous
 62
     7
370
     0
100
AcDbMText
 10
199.8662436873
 20
20.3177146903
 30
0.0
 40
2.1166666667
 41
0.0
 71
     1
 72
     1
  1
28/OCT/10
  7
SLDTEXTSTYLE0
 73
     1
 44
1.0
  0
MTEXT
  5
74
330
1F
100
AcDbEntity
  8
0
  6
Continuous
 62
     7
370
     0
100
AcDbMText
 10
203.6145073853
 20
24.8221395769
 30
0.0
 40
2.1166666667
 41
0.0
 71
     1
 72
     1
  1
DATE
  7
SLDTEXTSTYLE0
 73
     1
 44
1.0
  0
MTEXT
  5
76
330
1F
100
AcDbEntity
  8
0
  6
Continuous
 62
     7
370
     0
100
AcDbMText
 10
229.402906477
 20
27.7957480569
 30
0.0
 40
2.1166666667
 41
0.0
 71
     1
 72
     1
  1
w w w . t h o r  l a b s . c o m
  7
SLDTEXTSTYLE1
 73
     1
 44
1.0
  0
MTEXT
  5
77
330
1F
100
AcDbEntity
  8
0
  6
Continuous
 62
     7
370
     0
100
AcDbMText
 10
216.7004035316
 20
8.3494791871
 30
0.0
 40
2.1166666667
 41
0.0
 71
     1
 72
     1
  1
ITEM #
  7
SLDTEXTSTYLE0
 73
     1
 44
1.0
  0
MTEXT
  5
78
330
1F
100
AcDbEntity
  8
0
  6
Continuous
 62
     7
370
     0
100
AcDbMText
 10
254.5318000914
 20
8.3494791871
 30
0.0
 40
2.1166666667
 41
0.0
 71
     1
 72
     1
  1
APPROX WEIGHT
  7
SLDTEXTSTYLE0
 73
     1
 44
1.0
  0
MTEXT
  5
79
330
1F
100
AcDbEntity
  8
0
  6
Continuous
 62
     7
370
     0
100
AcDbMText
 10
243.7058359879
 20
13.1125292762
 30
0.0
 40
3.175
 41
0.0
 71
     2
 72
     1
  1
N-BK7
  7
SLDTEXTSTYLE0
 73
     1
 44
1.0
  0
MTEXT
  5
7A
330
1F
100
AcDbEntity
  8
0
  6
Continuous
 62
     7
370
     0
100
AcDbMText
 10
266.1678480997
 20
5.1306563898
 30
0.0
 40
3.175
 41
0.0
 71
     2
 72
     1
  1
0.05 kg
  7
SLDTEXTSTYLE0
 73
     1
 44
1.0
  0
INSERT
  5
80
330
1F
100
AcDbEntity
  8
0
  6
Continuous
 62
     7
370
     0
100
AcDbBlockReference
  2
SW_NOTE_0
 10
174.8430140051
 20
4.4558554801
 30
0.0
  0
INSERT
  5
86
330
1F
100
AcDbEntity
  8
0
  6
Continuous
 62
     7
370
     0
100
AcDbBlockReference
  2
SW_NOTE_1
 10
174.5483650337
 20
30.4835322715
 30
0.0
  0
MTEXT
  5
87
330
1F
100
AcDbEntity
  8
0
  6
Continuous
 62
     7
370
     0
100
AcDbMText
 10
187.9273588276
 20
24.8221395769
 30
0.0
 40
2.1166666667
 41
0.0
 71
     1
 72
     1
  1
NAME
  7
SLDTEXTSTYLE0
 73
     1
 44
1.0
  0
INSERT
  5
8D
330
1F
100
AcDbEntity
  8
0
  6
Continuous
 62
     7
370
     0
100
AcDbBlockReference
  2
SW_NOTE_2
 10
58.6204667508
 20
8.1776609732
 30
0.0
  0
MTEXT
  5
8E
330
1F
100
AcDbEntity
  8
0
  6
Continuous
 62
     7
370
     0
100
AcDbMText
 10
179.1174811218
 20
10.6680638482
 30
0.0
 40
1.5875
 41
0.0
 71
     1
 72
     1
  1
COPYRIGHT © 2010 BY THORLABS
  7
SLDTEXTSTYLE0
 73
     1
 44
1.0
  0
INSERT
  5
95
330
1F
100
AcDbEntity
  8
0
  6
Continuous
 62
     7
370
     0
100
AcDbBlockReference
  2
SW_NOTE_3
 10
218.0010743732
 20
20.5867261075
 30
0.0
  0
INSERT
  5
BA
330
1F
100
AcDbEntity
  8
0
  6
Continuous
 62
     7
370
     0
100
AcDbBlockReference
  2
SW_NOTE_4
 10
7.0257848731
 20
55.7535067465
 30
0.0
  0
MTEXT
  5
BB
330
1F
100
AcDbEntity
  8
0
  6
Continuous
 62
     7
370
     0
100
AcDbMText
 10
200.6158964269
 20
15.8006958103
 30
0.0
 40
2.1166666667
 41
0.0
 71
     1
 72
     1
  1
03/JUL/13
  7
SLDTEXTSTYLE0
 73
     1
 44
1.0
  0
MTEXT
  5
BC
330
1F
100
AcDbEntity
  8
0
  6
Continuous
 62
     7
370
     0
100
AcDbMText
 10
190.2139341205
 20
15.8006958103
 30
0.0
 40
2.1166666667
 41
0.0
 71
     1
 72
     1
  1
WD
  7
SLDTEXTSTYLE0
 73
     1
 44
1.0
  0
CIRCLE
  5
BD
330
1F
100
AcDbEntity
  8
0
  6
Continuous
 62
     7
370
     0
100
AcDbCircle
 10
58.0989582599
 20
106.5274031008
 30
0.0
 40
25.39999999999999
  0
CIRCLE
  5
BE
330
1F
100
AcDbEntity
  8
0
  6
Continuous
 62
     7
370
     0
100
AcDbCircle
 10
58.0989582599
 20
106.5274031008
 30
0.0
 40
25.20065142620113
  0
DIMENSION
  5
BF
330
1F
100
AcDbEntity
  8
0
  6
Continuous
 62
     7
370
     0
100
AcDbDimension
  2
_D
 10
40.1439411358
 20
124.4934087802
 30
0.0
 11
97.2416273056
 21
79.658119068
 31
0.0
 70
   163
  1
<>
 71
     1
 42
-1.0
  3
SLDDIMSTYLE0
100
AcDbDiametricDimension
 15
76.053975384
 25
88.5613974214
 35
0.0
 40
0.0
  0
INSERT
  5
D7
330
1F
100
AcDbEntity
  8
0
  6
Continuous
 62
     7
370
     0
100
AcDbBlockReference
  2
SW_CENTERMARKSYMBOL_0
 10
58.0989582599
 20
106.5274031008
 30
0.0
  0
LINE
  5
D8
330
1F
100
AcDbEntity
  8
0
  6
PHANTOM
 62
     7
370
    30
100
AcDbLine
 10
58.0989582599
 20
139.1195601209
 30
0.0
 11
58.0989582599
 21
74.3146722189
 31
0.0
  0
LINE
  5
D9
330
1F
100
AcDbEntity
  8
0
  6
Continuous
 62
     7
370
    30
100
AcDbLine
 10
58.0989582599
 20
139.1195601209
 30
0.0
 11
49.2089582599
 21
139.1195601209
 31
0.0
  0
SOLID
  5
DA
330
1F
100
AcDbEntity
  8
0
  6
Continuous
 62
     7
370
    30
100
AcDbTrace
 10
49.2089582599
 20
139.1195601209
 30
0.0
 11
53.0189582599
 21
138.4845601209
 31
0.0
 12
53.0189582599
 22
139.7545601209
 32
0.0
 13
53.0189582599
 23
139.7545601209
 33
0.0
  0
LINE
  5
DB
330
1F
100
AcDbEntity
  8
0
  6
Continuous
 62
     7
370
    30
100
AcDbLine
 10
58.0989582599
 20
74.3146722189
 30
0.0
 11
49.2089582599
 21
74.3146722189
 31
0.0
  0
SOLID
  5
DC
330
1F
100
AcDbEntity
  8
0
  6
Continuous
 62
     7
370
    30
100
AcDbTrace
 10
49.2089582599
 20
74.3146722189
 30
0.0
 11
53.0189582599
 21
73.6796722189
 31
0.0
 12
53.0189582599
 22
74.9496722189
 32
0.0
 13
53.0189582599
 23
74.9496722189
 33
0.0
  0
MTEXT
  5
DD
330
1F
100
AcDbEntity
  8
0
  6
Continuous
 62
     7
100
AcDbMText
 10
45.8034241759
 20
141.2208769148
 30
0.0
 40
2.6458333333
 41
0.0
 71
     1
 72
     1
  1
A
  7
SLDTEXTSTYLE0
 73
     1
 44
1.0
  0
MTEXT
  5
DE
330
1F
100
AcDbEntity
  8
0
  6
Continuous
 62
     7
100
AcDbMText
 10
45.8034241759
 20
76.4159890128
 30
0.0
 40
2.6458333333
 41
0.0
 71
     1
 72
     1
  1
A
  7
SLDTEXTSTYLE0
 73
     1
 44
1.0
  0
LINE
  5
DF
330
1F
100
AcDbEntity
  8
0
  6
Continuous
 62
     7
370
     0
100
AcDbLine
 10
219.6736158004
 20
184.0034584445
 30
0.0
 11
219.6844757054
 21
183.8628066266
 31
0.0
  0
LINE
  5
E0
330
1F
100
AcDbEntity
  8
0
  6
Continuous
 62
     7
370
     0
100
AcDbLine
 10
235.7683225173
 20
156.0017479636
 30
0.0
 11
235.8846931298
 21
155.9220061807
 31
0.0
  0
LINE
  5
E1
330
1F
100
AcDbEntity
  8
0
  6
Continuous
 62
     7
370
     0
100
AcDbLine
 10
231.7002752741
 20
201.5549464051
 30
0.0
 11
224.8574611056
 21
197.6046738696
 31
0.0
  0
LINE
  5
E2
330
1F
100
AcDbEntity
  8
0
  6
Continuous
 62
     7
370
     0
100
AcDbLine
 10
250.2553969146
 20
153.6093916606
 30
0.0
 11
257.0982110831
 21
157.5596641962
 31
0.0
  0
LINE
  5
E3
330
1F
100
AcDbEntity
  8
0
  6
Continuous
 62
     7
370
     0
100
AcDbLine
 10
262.3597554207
 20
169.1889222805
 30
0.0
 11
262.3597554207
 21
169.3522039029
 31
0.0
  0
LINE
  5
E4
330
1F
100
AcDbEntity
  8
0
  6
Continuous
 62
     7
370
     0
100
AcDbLine
 10
244.5435606382
 20
200.2141024147
 30
0.0
 11
244.4021622669
 21
200.2957564948
 31
0.0
  0
LWPOLYLINE
  5
E5
330
1F
100
AcDbEntity
  8
0
  6
Continuous
 62
     7
370
     0
100
AcDbPolyline
 90
       46
 70
   128
 43
0.0
 10
255.5169412522
 20
165.2386497449
 10
255.5042307039
 20
164.4658473919
 10
255.4661170493
 20
163.7088141409
 10
255.402654234
 20
162.9686214879
 10
255.3139320825
 20
162.2463170928
 10
255.2000761711
 20
161.5429232966
 10
255.0612476502
 20
160.8594356747
 10
254.897643016
 20
160.1968216273
 10
254.7094938325
 20
159.5560190106
 10
254.4970664038
 20
158.9379348089
 10
254.2606613973
 20
158.3434438514
 10
254.0006134178
 20
157.7733875735
 10
253.7172905342
 20
157.2285728261
 10
253.4110937582
 20
156.7097707336
 10
253.0824564772
 20
156.2177156024
 10
252.7318438405
 20
155.7531038814
 10
252.3597521011
 20
155.3165931766
 10
251.9667079132
 20
154.9088013201
 10
251.553267587
 20
154.5303054956
 10
251.120016301
 20
154.1816414216
 10
250.6675672738
 20
153.8633025933
 10
250.1965608966
 20
153.5757395835
 10
249.7076638262
 20
153.3193594056
 10
249.2015680417
 20
153.094524937
 10
248.6789898651
 20
152.9015544059
 10
248.1406689475
 20
152.7407209403
 10
247.5873672217
 20
152.6122521821
 10
247.0198678246
 20
152.5163299644
 10
246.4389739881
 20
152.4530900544
 10
245.8455079025
 20
152.4226219612
 10
245.2403095526
 20
152.4249688089
 10
244.6242355291
 20
152.4601272758
 10
243.9981578157
 20
152.5280475991
 10
243.3629625556
 20
152.628633645
 10
242.7195487966
 20
152.7617430454
 10
242.0688272189
 20
152.9271873987
 10
241.4117188461
 20
153.124732537
 10
240.7491537417
 20
153.3540988572
 10
240.0820696924
 20
153.6149617169
 10
239.4114108812
 20
153.9069518939
 10
238.7381265505
 20
154.2296561088
 10
238.0631696592
 20
154.5826176099
 10
237.3874955331
 20
154.9653368196
 10
236.7120605135
 20
155.3772720416
 10
236.037820603
 20
155.8178402278
 10
235.8846931298
 20
155.9220061807
  0
LWPOLYLINE
  5
E6
330
1F
100
AcDbEntity
  8
0
  6
Continuous
 62
     7
370
     0
100
AcDbPolyline
 90
       88
 70
   128
 43
0.0
 10
219.6736158004
 20
184.0034584445
 10
219.6245112849
 20
184.789043633
 10
219.5990946862
 20
185.583442183
 10
219.5990946862
 20
186.3637202412
 10
219.6245112849
 20
187.128773411
 10
219.6753085078
 20
187.8775188454
 10
219.7514144574
 20
188.6088967789
 10
219.8527214139
 20
189.3218720278
 10
219.9790859889
 20
190.0154354554
 10
220.1303293274
 20
190.6886054002
 10
220.3062373613
 20
191.3404290654
 10
220.5065611125
 20
191.9699838675
 10
220.7310170451
 20
192.5763787421
 10
220.9792874668
 20
193.1587554051
 10
221.2510209787
 20
193.7162895673
 10
221.5458329723
 20
194.2481921017
 10
221.8633061743
 20
194.7537101595
 10
222.2029912367
 20
195.2321282365
 10
222.5644073734
 20
195.6827691854
 10
222.9470430403
 20
196.1049951744
 10
223.3503566593
 20
196.4982085898
 10
223.7737773852
 20
196.8618528819
 10
224.2167059132
 20
197.195413353
 10
224.6785153275
 20
197.4984178854
 10
225.1585519886
 20
197.7704376102
 10
225.6561364582
 20
198.0110875138
 10
226.1705644613
 20
198.2200269833
 10
226.7011078823
 20
198.3969602881
 10
227.2470157965
 20
198.541636999
 10
227.8075155323
 20
198.6538523422
 10
228.381813765
 20
198.7334474895
 10
228.9690976395
 20
198.7803097829
 10
229.5685359214
 20
198.794372894
 10
230.1792801727
 20
198.775616918
 10
230.8004659532
 20
198.724068402
 10
231.431214044
 20
198.639800307
 10
232.0706316916
 20
198.5229319053
 10
232.7178138718
 20
198.3736286108
 10
233.3718445708
 20
198.1921017458
 10
234.031798081
 20
197.9786082412
 10
234.6967403122
 20
197.7334502732
 10
235.3657301129
 20
197.4569748355
 10
236.037820603
 20
197.1495732481
 10
236.7120605135
 20
196.8116806037
 10
237.3874955331
 20
196.4437751515
 10
238.0631696592
 20
196.0463776204
 10
238.7381265505
 20
195.6200504823
 10
239.4114108812
 20
195.1653971556
 10
240.0820696924
 20
194.6830611512
 10
240.7491537417
 20
194.1737251618
 10
241.4117188461
 20
193.6381100954
 10
242.0688272189
 20
193.0769740555
 10
242.7195487966
 20
192.4911112672
 10
243.3629625556
 20
191.8813509538
 10
243.9981578157
 20
191.2485561629
 10
244.6242355291
 20
190.5936225447
 10
245.2403095526
 20
189.9174770846
 10
245.8455079025
 20
189.2210767908
 10
246.4389739881
 20
188.50540734
 10
247.0198678246
 20
187.7714816824
 10
247.5873672217
 20
187.0203386076
 10
248.1406689475
 20
186.2530412747
 10
248.6789898651
 20
185.4706757072
 10
249.2015680417
 20
184.6743492562
 10
249.7076638262
 20
183.8651890325
 10
250.1965608966
 20
183.0443403122
 10
250.6675672738
 20
182.2129649147
 10
251.120016301
 20
181.3722395589
 10
251.553267587
 20
180.5233541976
 10
251.9667079132
 20
179.6675103331
 10
252.3597521011
 20
178.8059193166
 10
252.7318438405
 20
177.939800634
 10
253.0824564772
 20
177.0703801792
 10
253.4110937582
 20
176.1988885199
 10
253.7172905342
 20
175.3265591549
 10
254.0006134178
 20
174.454626769
 10
254.2606613973
 20
173.5843254848
 10
254.4970664038
 20
172.7168871167
 10
254.7094938325
 20
171.8535394265
 10
254.897643016
 20
170.9955043864
 10
255.0612476502
 20
170.143996449
 10
255.2000761711
 20
169.3002208287
 10
255.3139320825
 20
168.4653717954
 10
255.402654234
 20
167.6406309846
 10
255.4661170493
 20
166.8271657246
 10
255.5042307039
 20
166.0261273847
 10
255.5169412522
 20
165.2386497449
 10
255.5169412522
 20
165.2386497449
  0
LWPOLYLINE
  5
E7
330
1F
100
AcDbEntity
  8
0
  6
Continuous
 62
     7
370
     0
100
AcDbPolyline
 90
      167
 70
   128
 43
0.0
 10
255.2464895112
 20
165.2452710709
 10
255.2337263433
 20
166.0313167945
 10
255.1954551225
 20
166.8309725552
 10
255.1317306722
 20
167.6430928538
 10
255.0426442769
 20
168.4665143359
 10
254.928323552
 20
169.3000574581
 10
254.7889322609
 20
170.1425281779
 10
254.6246700803
 20
170.9927196641
 10
254.4357723141
 20
171.8494140256
 10
254.2225095566
 20
172.711384056
 10
253.9851873046
 20
173.5773949915
 10
253.72414552
 20
174.4462062798
 10
253.4397581426
 20
175.316573357
 10
253.1324325546
 20
176.1872494309
 10
252.8026089969
 20
177.0569872661
 10
252.4507599387
 20
177.9245409717
 10
252.0773894002
 20
178.7886677854
 10
251.6830322312
 20
179.6481298538
 10
251.2682533445
 20
180.5016960058
 10
250.833646907
 20
181.348143516
 10
250.379835488
 20
182.1862598567
 10
249.9074691682
 20
183.0148444341
 10
249.4172246077
 20
183.8327103089
 10
248.9098040771
 20
184.6386858961
 10
248.3859344515
 20
185.4316166434
 10
247.846366169
 20
186.2103666852
 10
247.291872156
 20
186.9738204695
 10
246.7232467199
 20
187.7208843561
 10
246.1413044111
 20
188.4504881833
 10
245.5468788563
 20
189.1615868005
 10
244.9408215645
 20
189.8531615658
 10
244.3240007068
 20
190.5242218051
 10
243.6972998733
 20
191.1738062311
 10
243.0616168067
 20
191.8009843202
 10
242.4178621171
 20
192.4048576459
 10
241.7669579767
 20
192.9845611656
 10
241.1098367995
 20
193.5392644594
 10
240.4474399052
 20
194.0681729203
 10
239.7807161711
 20
194.5705288919
 10
239.1106206724
 20
195.0456127543
 10
238.4381133145
 20
195.4927439543
 10
237.7641574576
 20
195.9112819808
 10
237.0897185372
 20
196.3006272822
 10
236.4157626804
 20
196.6602221249
 10
235.7432553224
 20
196.9895513929
 10
235.0731598237
 20
197.2881433252
 10
234.4064360896
 20
197.5555701917
 10
233.7440391953
 20
197.791448906
 10
233.0869180181
 20
197.995441574
 10
232.4360138778
 20
198.1672559784
 10
231.7922591881
 20
198.3066459965
 10
231.1565761215
 20
198.4134119536
 10
230.529875288
 20
198.4874009084
 10
229.9130544303
 20
198.5285068725
 10
229.3069971385
 20
198.5366709619
 10
228.7125715837
 20
198.5118814817
 10
228.1306292749
 20
198.4541739426
 10
227.5620038388
 20
198.3636310101
 10
227.0075098258
 20
198.240382386
 10
226.4679415433
 20
198.0846046229
 10
225.9440719177
 20
197.8965208708
 10
225.4366513871
 20
197.6764005579
 10
224.9464068266
 20
197.4245590045
 10
224.4740405068
 20
197.1413569711
 10
224.0202290879
 20
196.827200142
 10
223.5856226503
 20
196.4825385438
 10
223.1708437636
 20
196.1078659008
 10
222.7764865947
 20
195.7037189281
 10
222.4031160562
 20
195.2706765622
 10
222.0512669979
 20
194.8093591323
 10
221.7214434402
 20
194.320427471
 10
221.4141178522
 20
193.8045819684
 10
221.1297304748
 20
193.262561568
 10
220.8686886902
 20
192.6951427089
 10
220.6313664382
 20
192.1031382131
 10
220.4181036807
 20
191.4873961214
 10
220.2292059146
 20
190.8487984784
 10
220.0649437339
 20
190.1882600691
 10
219.9255524428
 20
189.5067271083
 10
219.811231718
 20
188.8051758856
 10
219.7221453227
 20
188.0846113661
 10
219.6584208723
 20
187.3460657518
 10
219.6201496516
 20
186.590597002
 10
219.6073864836
 20
185.8192873184
 10
219.6201496516
 20
185.0332415948
 10
219.6584208723
 20
184.2335858341
 10
219.7221453227
 20
183.4214655355
 10
219.811231718
 20
182.5980440534
 10
219.9255524428
 20
181.7645009312
 10
220.0649437339
 20
180.9220302114
 10
220.2292059146
 20
180.0718387252
 10
220.4181036807
 20
179.2151443637
 10
220.6313664382
 20
178.3531743333
 10
220.8686886902
 20
177.4871633978
 10
221.1297304748
 20
176.6183521095
 10
221.4141178522
 20
175.7479850323
 10
221.7214434402
 20
174.8773089584
 10
222.0512669979
 20
174.0075711232
 10
222.4031160562
 20
173.1400174176
 10
222.7764865947
 20
172.2758906039
 10
223.1708437636
 20
171.4164285355
 10
223.5856226503
 20
170.5628623835
 10
224.0202290879
 20
169.7164148733
 10
224.4740405068
 20
168.8782985326
 10
224.9464068266
 20
168.0497139552
 10
225.4366513871
 20
167.2318480804
 10
225.9440719177
 20
166.4258724932
 10
226.4679415433
 20
165.6329417459
 10
227.0075098258
 20
164.8541917041
 10
227.5620038388
 20
164.0907379198
 10
228.1306292749
 20
163.3436740332
 10
228.7125715837
 20
162.614070206
 10
229.3069971385
 20
161.9029715888
 10
229.9130544303
 20
161.2113968235
 10
230.529875288
 20
160.5403365842
 10
231.1565761215
 20
159.8907521582
 10
231.7922591881
 20
159.2635740691
 10
232.4360138778
 20
158.6597007434
 10
233.0869180181
 20
158.0799972237
 10
233.7440391953
 20
157.5252939299
 10
234.4064360896
 20
156.996385469
 10
235.0731598237
 20
156.4940294974
 10
235.7432553224
 20
156.018945635
 10
236.4157626804
 20
155.571814435
 10
237.0897185372
 20
155.1532764085
 10
237.7641574576
 20
154.7639311071
 10
238.4381133145
 20
154.4043362644
 10
239.1106206724
 20
154.0750069964
 10
239.7807161711
 20
153.7764150641
 10
240.4474399052
 20
153.5089881976
 10
241.1098367995
 20
153.2731094833
 10
241.7669579767
 20
153.0691168153
 10
242.4178621171
 20
152.8973024109
 10
243.0616168067
 20
152.7579123928
 10
243.6972998733
 20
152.6511464357
 10
244.3240007068
 20
152.5771574809
 10
244.9408215645
 20
152.5360515168
 10
245.5468788563
 20
152.5278874274
 10
246.1413044111
 20
152.5526769076
 10
246.7232467199
 20
152.6103844467
 10
247.291872156
 20
152.7009273792
 10
247.846366169
 20
152.8241760033
 10
248.3859344515
 20
152.9799537664
 10
248.9098040771
 20
153.1680375185
 10
249.4172246077
 20
153.3881578314
 10
249.9074691682
 20
153.6399993848
 10
250.379835488
 20
153.9232014182
 10
250.833646907
 20
154.2373582473
 10
251.2682533445
 20
154.5820198455
 10
251.6830322312
 20
154.9566924885
 10
252.0773894002
 20
155.3608394612
 10
252.4507599387
 20
155.7938818271
 10
252.8026089969
 20
156.255199257
 10
253.1324325546
 20
156.7441309183
 10
253.4397581426
 20
157.2599764209
 10
253.72414552
 20
157.8019968213
 10
253.9851873046
 20
158.3694156804
 10
254.2225095566
 20
158.9614201762
 10
254.4357723141
 20
159.5771622679
 10
254.6246700803
 20
160.2157599109
 10
254.7889322609
 20
160.8762983202
 10
254.928323552
 20
161.5578312809
 10
255.0426442769
 20
162.2593825037
 10
255.1317306722
 20
162.9799470232
 10
255.1954551225
 20
163.7184926375
 10
255.2337263433
 20
164.4739613873
 10
255.2464895112
 20
165.2452710709
  0
LWPOLYLINE
  5
E8
330
1F
100
AcDbEntity
  8
0
  6
Continuous
 62
     7
370
     0
100
AcDbPolyline
 90
       86
 70
   128
 43
0.0
 10
257.0982110831
 20
157.5596641962
 10
257.2771568612
 20
157.6659201803
 10
257.7389662755
 20
157.9689247128
 10
258.1818948035
 20
158.3024851838
 10
258.6053155294
 20
158.6661294759
 10
259.0086291484
 20
159.0593428913
 10
259.3912648153
 20
159.4815688803
 10
259.752680952
 20
159.9322098292
 10
260.0923660144
 20
160.4106279063
 10
260.4098392164
 20
160.9161459641
 10
260.70465121
 20
161.4480484984
 10
260.9763847218
 20
162.0055826607
 10
261.2246551436
 20
162.5879593236
 10
261.4491110762
 20
163.1943541982
 10
261.6494348274
 20
163.8239090003
 10
261.8253428613
 20
164.4757326655
 10
261.9765861998
 20
165.1489026103
 10
262.1029507747
 20
165.8424660379
 10
262.2042577313
 20
166.5554412868
 10
262.2803636808
 20
167.2868192203
 10
262.3311609038
 20
168.0355646547
 10
262.3565775025
 20
168.8006178246
 10
262.3565775025
 20
169.5808958827
 10
262.3311609038
 20
170.3752944328
 10
262.2803636808
 20
171.1826890925
 10
262.2042577313
 20
172.0019370849
 10
262.1029507747
 20
172.8318788562
 10
261.9765861998
 20
173.6713397165
 10
261.8253428613
 20
174.519131503
 10
261.6494348274
 20
175.374054261
 10
261.4491110762
 20
176.2348979431
 10
261.2246551436
 20
177.1004441213
 10
260.9763847218
 20
177.9694677118
 10
260.70465121
 20
178.8407387088
 10
260.4098392164
 20
179.7130239257
 10
260.0923660144
 20
180.5850887403
 10
259.752680952
 20
181.4556988424
 10
259.3912648153
 20
182.3236219806
 10
259.0086291484
 20
183.187629707
 10
258.6053155294
 20
184.0464991152
 10
258.1818948035
 20
184.8990145714
 10
257.7389662755
 20
185.7439694356
 10
257.2771568612
 20
186.5801677685
 10
256.7971202001
 20
187.4064260249
 10
256.2995357304
 20
188.2215747286
 10
255.7851077274
 20
189.0244601278
 10
255.2545643064
 20
189.813945828
 10
254.7086563921
 20
190.5889144005
 10
254.1481566564
 20
191.348268964
 10
253.5738584237
 20
192.0909347368
 10
252.9865745491
 20
192.8158605588
 10
252.3871362673
 20
193.5220203784
 10
251.776392016
 20
194.2084147055
 10
251.1552062354
 20
194.8740720255
 10
250.5244581447
 20
195.518050175
 10
249.8850404971
 20
196.1394376749
 10
249.2378583168
 20
196.7373550207
 10
248.5838276179
 20
197.3109559273
 10
247.9238741077
 20
197.8594285268
 10
247.2589318765
 20
198.3819965174
 10
246.5899420757
 20
198.8779202626
 10
245.9178515857
 20
199.3464978379
 10
245.2436116752
 20
199.7870660241
 10
244.5681766556
 20
200.1990012462
 10
243.8925025295
 20
200.5817204558
 10
243.2175456381
 20
200.9346819569
 10
242.5442613075
 20
201.2573861718
 10
241.8736024963
 20
201.5493763488
 10
241.206518447
 20
201.8102392086
 10
240.5439533426
 20
202.0396055287
 10
239.8868449698
 20
202.237150667
 10
239.2361233921
 20
202.4025950203
 10
238.592709633
 20
202.5357044207
 10
237.9575143729
 20
202.6362904667
 10
237.3314366596
 20
202.7042107899
 10
236.7153626361
 20
202.7393692568
 10
236.1101642862
 20
202.7417161045
 10
235.5166982006
 20
202.7112480113
 10
234.9358043641
 20
202.6480081013
 10
234.368304967
 20
202.5520858837
 10
233.8150032412
 20
202.4236171255
 10
233.2766823235
 20
202.2627836599
 10
232.754104147
 20
202.0698131287
 10
232.2480083625
 20
201.8449786601
 10
231.7591112921
 20
201.5885984822
 10
231.7002752741
 20
201.5549464051
  0
ARC
  5
E9
330
1F
100
AcDbEntity
  8
0
  6
Continuous
 62
     7
370
     0
100
AcDbCircle
 10
223.7502469839
 20
167.6368935306
 30
0.0
 40
38.64759282808935
100
AcDbArc
 50
2.5438153591
 51
57.4508081082
  0
SPLINE
  5
EA
330
1F
100
AcDbEntity
  8
0
  6
Continuous
 62
     7
370
     0
100
AcDbSpline
210
0.0
220
0.0
230
1.0
 70
     8
 71
     3
 72
    15
 73
    11
 74
     0
 42
0.00000001
 43
0.00000001
 12
1.0
 22
0.0
 32
0.0
 13
1.0
 23
0.0
 33
0.0
 40
0.0
 40
0.0
 40
0.0
 40
0.0
 40
0.0763829976036969
 40
0.1659855054655332
 40
0.2707148802617357
 40
0.3888240826834133
 40
0.5206018700426673
 40
0.6660294782576531
 40
0.8252434598020228
 40
1.0
 40
1.0
 40
1.0
 40
1.0
 10
223.4754275956002
 20
105.7158649261542
 30
0.0
 10
223.4695422809865
 20
105.7173040156194
 30
0.0
 10
223.4567530876892
 20
105.7204312559713
 30
0.0
 10
223.4355678891259
 20
105.7239807209085
 30
0.0
 10
223.4110153601735
 20
105.7273417489213
 30
0.0
 10
223.3829758195234
 20
105.7295716345715
 30
0.0
 10
223.3517049807725
 20
105.731786194754
 30
0.0
 10
223.3171072450605
 20
105.7328070518373
 30
0.0
 10
223.279103799646
 20
105.7336887812921
 30
0.0
 10
223.2526211652789
 20
105.733876590694
 30
0.0
 10
223.2387636142196
 20
105.7339748655989
 30
0.0
  0
SPLINE
  5
EB
330
1F
100
AcDbEntity
  8
0
  6
Continuous
 62
     7
370
     0
100
AcDbSpline
210
0.0
220
0.0
230
1.0
 70
     8
 71
     3
 72
    15
 73
    11
 74
     0
 42
0.00000001
 43
0.00000001
 12
1.0
 22
0.0
 32
0.0
 13
1.0
 23
0.0
 33
0.0
 40
0.0
 40
0.0
 40
0.0
 40
0.0
 40
0.1428946013811191
 40
0.2768798469236296
 40
0.4054067255101085
 40
0.5318333729300085
 40
0.6542249868698854
 40
0.7698109407908951
 40
0.8841096717431476
 40
0.9999999999999999
 40
0.9999999999999999
 40
0.9999999999999999
 40
0.9999999999999999
 10
223.6964511747331
 20
105.3721876662362
 30
0.0
 10
223.6958373868572
 20
105.3931035319447
 30
0.0
 10
223.694648080253
 20
105.4336311770737
 30
0.0
 10
223.6826655201043
 20
105.4919492103951
 30
0.0
 10
223.6638793972556
 20
105.5458361071902
 30
0.0
 10
223.6369831977487
 20
105.5942716187366
 30
0.0
 10
223.604430972955
 20
105.6367624628934
 30
0.0
 10
223.5661665226096
 20
105.6715269676027
 30
0.0
 10
223.5234166155372
 20
105.6993199079139
 30
0.0
 10
223.4914975017392
 20
105.7103245569085
 30
0.0
 10
223.4754275956002
 20
105.7158649261542
 30
0.0
  0
SPLINE
  5
EC
330
1F
100
AcDbEntity
  8
0
  6
Continuous
 62
     7
370
     0
100
AcDbSpline
210
0.0
220
0.0
230
1.0
 70
     8
 71
     3
 72
    23
 73
    19
 74
     0
 42
0.00000001
 43
0.00000001
 12
1.0
 22
0.0
 32
0.0
 13
1.0
 23
0.0
 33
0.0
 40
0.0
 40
0.0
 40
0.0
 40
0.0
 40
0.0877310226443747
 40
0.169005684660542
 40
0.2448021443962134
 40
0.3142317617715646
 40
0.3789415805204463
 40
0.439171854935432
 40
0.4957867026411701
 40
0.5494347689706728
 40
0.6020003354234685
 40
0.6542545252912737
 40
0.7069046930323722
 40
0.7612021463875933
 40
0.8168623067330519
 40
0.8746699957507752
 40
0.9360077445631972
 40
0.9999999999999999
 40
0.9999999999999999
 40
0.9999999999999999
 40
0.9999999999999999
 10
223.2437026886136
 20
104.996406422757
 30
0.0
 10
223.2634673213725
 20
104.9967368949262
 30
0.0
 10
223.3015420546971
 20
104.9973735189336
 30
0.0
 10
223.3565583078365
 20
105.0018162270696
 30
0.0
 10
223.407049652644
 20
105.0095063500747
 30
0.0
 10
223.4531561476177
 20
105.0202318202127
 30
0.0
 10
223.4949365013115
 20
105.0335632717374
 30
0.0
 10
223.5323159600404
 20
105.0504238884916
 30
0.0
 10
223.5651017696616
 20
105.0706491563556
 30
0.0
 10
223.5935111771441
 20
105.0940329780483
 30
0.0
 10
223.6178974473945
 20
105.1202285633171
 30
0.0
 10
223.639027570843
 20
105.1488065009992
 30
0.0
 10
223.6569808658845
 20
105.1799710128723
 30
0.0
 10
223.6710541276217
 20
105.2138524884484
 30
0.0
 10
223.6829761205961
 20
105.2497918670987
 30
0.0
 10
223.6904175965194
 20
105.2885338150834
 30
0.0
 10
223.6955916313467
 20
105.3295165172571
 30
0.0
 10
223.6961606430226
 20
105.3577645177391
 30
0.0
 10
223.6964511747331
 20
105.3721876662362
 30
0.0
  0
LINE
  5
ED
330
1F
100
AcDbEntity
  8
0
  6
Continuous
 62
     7
370
     0
100
AcDbLine
 10
222.7481488911
 20
104.9964064228
 30
0.0
 11
223.2437026886
 21
104.9964064228
 31
0.0
  0
LINE
  5
EE
330
1F
100
AcDbEntity
  8
0
  6
Continuous
 62
     7
370
     0
100
AcDbLine
 10
222.7481488911
 20
105.7339748656
 30
0.0
 11
222.7481488911
 21
104.9964064228
 31
0.0
  0
LINE
  5
EF
330
1F
100
AcDbEntity
  8
0
  6
Continuous
 62
     7
370
     0
100
AcDbLine
 10
223.2387636142
 20
105.7339748656
 30
0.0
 11
222.7481488911
 21
105.7339748656
 31
0.0
  0
SPLINE
  5
F0
330
1F
100
AcDbEntity
  8
0
  6
Continuous
 62
     7
370
     0
100
AcDbSpline
210
0.0
220
0.0
230
1.0
 70
     8
 71
     3
 72
    15
 73
    11
 74
     0
 42
0.00000001
 43
0.00000001
 12
1.0
 22
0.0
 32
0.0
 13
1.0
 23
0.0
 33
0.0
 40
0.0
 40
0.0
 40
0.0
 40
0.0
 40
0.1426572507006123
 40
0.2811689939054435
 40
0.416977192367973
 40
0.5508524927475571
 40
0.6783641702618121
 40
0.795032443007094
 40
0.9019981783473521
 40
1.0
 40
1.0
 40
1.0
 40
1.0
 10
226.0145234236647
 20
105.4573866995332
 30
0.0
 10
226.0474398195839
 20
105.4743387093317
 30
0.0
 10
226.1123160868478
 20
105.5077501168578
 30
0.0
 10
226.2039722237095
 20
105.5654562107254
 30
0.0
 10
226.289543087039
 20
105.6280119919925
 30
0.0
 10
226.3676121402709
 20
105.6954036107926
 30
0.0
 10
226.4375960718306
 20
105.7642899428158
 30
0.0
 10
226.496572547246
 20
105.8337989576463
 30
0.0
 10
226.5459203089657
 20
105.9013827550604
 30
0.0
 10
226.5706790158689
 20
105.9485149587584
 30
0.0
 10
226.5825169789782
 20
105.9710504365124
 30
0.0
  0
LINE
  5
F1
330
1F
100
AcDbEntity
  8
0
  6
Continuous
 62
     7
370
     0
100
AcDbLine
 10
226.0145234237
 20
105.2145488752
 30
0.0
 11
226.0145234237
 21
105.4573866995
 31
0.0
  0
SPLINE
  5
F2
330
1F
100
AcDbEntity
  8
0
  6
Continuous
 62
     7
370
     0
100
AcDbSpline
210
0.0
220
0.0
230
1.0
 70
     8
 71
     3
 72
    15
 73
    11
 74
     0
 42
0.00000001
 43
0.00000001
 12
1.0
 22
0.0
 32
0.0
 13
1.0
 23
0.0
 33
0.0
 40
0.0
 40
0.0
 40
0.0
 40
0.0
 40
0.111670300101588
 40
0.2320944808560198
 40
0.3627434591045547
 40
0.5025575097108851
 40
0.6415251033312812
 40
0.7710984952996689
 40
0.8901617573732539
 40
1.0
 40
1.0
 40
1.0
 40
1.0
 10
226.4886745654916
 20
105.5174787713273
 30
0.0
 10
226.4735069739934
 20
105.5028514954273
 30
0.0
 10
226.4419827972748
 20
105.4724503054667
 30
0.0
 10
226.3886945067918
 20
105.4294250302082
 30
0.0
 10
226.3292179644386
 20
105.3858170899589
 30
0.0
 10
226.2643255109631
 20
105.3438831802602
 30
0.0
 10
226.1981786323653
 20
105.3044069264839
 30
0.0
 10
226.1342561903774
 20
105.2689041053341
 30
0.0
 10
226.0736253973935
 20
105.2388601046499
 30
0.0
 10
226.0336875665838
 20
105.2224319262172
 30
0.0
 10
226.0145234236647
 20
105.2145488751601
 30
0.0
  0
LINE
  5
F3
330
1F
100
AcDbEntity
  8
0
  6
Continuous
 62
     7
370
     0
100
AcDbLine
 10
226.4886745655
 20
103.9163954886
 30
0.0
 11
226.4886745655
 21
105.5174787713
 31
0.0
  0
LINE
  5
F4
330
1F
100
AcDbEntity
  8
0
  6
Continuous
 62
     7
370
     0
100
AcDbLine
 10
226.7520918665
 20
103.9163954886
 30
0.0
 11
226.4886745655
 21
103.9163954886
 31
0.0
  0
LINE
  5
F5
330
1F
100
AcDbEntity
  8
0
  6
Continuous
 62
     7
370
     0
100
AcDbLine
 10
226.7520918665
 20
105.9710504365
 30
0.0
 11
226.7520918665
 21
103.9163954886
 31
0.0
  0
LINE
  5
F6
330
1F
100
AcDbEntity
  8
0
  6
Continuous
 62
     7
370
     0
100
AcDbLine
 10
226.582516979
 20
105.9710504365
 30
0.0
 11
226.7520918665
 21
105.9710504365
 31
0.0
  0
LINE
  5
F7
330
1F
100
AcDbEntity
  8
0
  6
Continuous
 62
     7
370
     0
100
AcDbLine
 10
223.2515228897
 20
104.7593308518
 30
0.0
 11
222.7481488911
 21
104.7593308518
 31
0.0
  0
SPLINE
  5
F8
330
1F
100
AcDbEntity
  8
0
  6
Continuous
 62
     7
370
     0
100
AcDbSpline
210
0.0
220
0.0
230
1.0
 70
     8
 71
     3
 72
    23
 73
    19
 74
     0
 42
0.00000001
 43
0.00000001
 12
1.0
 22
0.0
 32
0.0
 13
1.0
 23
0.0
 33
0.0
 40
0.0
 40
0.0
 40
0.0
 40
0.0
 40
0.058048068659147
 40
0.1142127550191541
 40
0.1688916471752764
 40
0.2226262701242397
 40
0.2756512298918107
 40
0.3287250271459033
 40
0.3816587912372605
 40
0.4359534350342106
 40
0.4912638558489658
 40
0.548992591180569
 40
0.6104165486580292
 40
0.6762479649809728
 40
0.7474094740183921
 40
0.8248664857445538
 40
0.9090259917114393
 40
1.0
 40
1.0
 40
1.0
 40
1.0
 10
223.9862102058495
 20
105.3804194568929
 30
0.0
 10
223.9857565014155
 20
105.3591305793935
 30
0.0
 10
223.984863813087
 20
105.3172435466869
 30
0.0
 10
223.9771984399844
 20
105.2557054505356
 30
0.0
 10
223.9651084894029
 20
105.1965032999684
 30
0.0
 10
223.9470746885989
 20
105.1400422244914
 30
0.0
 10
223.9250278826715
 20
105.0856621386633
 30
0.0
 10
223.8972438128351
 20
105.0342801755897
 30
0.0
 10
223.8647998582288
 20
104.9851986115671
 30
0.0
 10
223.8275765738231
 20
104.9385510018143
 30
0.0
 10
223.7837544300143
 20
104.8952839326125
 30
0.0
 10
223.7310310038007
 20
104.8585803306914
 30
0.0
 10
223.6704228078896
 20
104.8277596226363
 30
0.0
 10
223.6019157065823
 20
104.8028568238622
 30
0.0
 10
223.5256760023605
 20
104.7832623341211
 30
0.0
 10
223.4414538933059
 20
104.7689057301775
 30
0.0
 10
223.3490853124438
 20
104.7609796900293
 30
0.0
 10
223.2848764926988
 20
104.759894539098
 30
0.0
 10
223.2515228897375
 20
104.7593308518436
 30
0.0
  0
SPLINE
  5
F9
330
1F
100
AcDbEntity
  8
0
  6
Continuous
 62
     7
370
     0
100
AcDbSpline
210
0.0
220
0.0
230
1.0
 70
     8
 71
     3
 72
    19
 73
    15
 74
     0
 42
0.00000001
 43
0.00000001
 12
1.0
 22
0.0
 32
0.0
 13
1.0
 23
0.0
 33
0.0
 40
0.0
 40
0.0
 40
0.0
 40
0.0
 40
0.0892424937815279
 40
0.1729768290722685
 40
0.2526551372368087
 40
0.3289533944009836
 40
0.4046880824662921
 40
0.4814988935669583
 40
0.5618700905962241
 40
0.6456290048367237
 40
0.7322912491886802
 40
0.8191788448148045
 40
0.908074685965368
 40
0.9999999999999999
 40
0.9999999999999999
 40
0.9999999999999999
 40
0.9999999999999999
 10
223.5178213174823
 20
105.9517057284691
 30
0.0
 10
223.5415442071844
 20
105.9471402053149
 30
0.0
 10
223.5875257801238
 20
105.9382909488137
 30
0.0
 10
223.6526285604008
 20
105.9169573109691
 30
0.0
 10
223.7119409645938
 20
105.8904092272155
 30
0.0
 10
223.7653702987629
 20
105.857333054264
 30
0.0
 10
223.813804189245
 20
105.818476641527
 30
0.0
 10
223.8565523978348
 20
105.7719175377528
 30
0.0
 10
223.8944454583095
 20
105.7186953257079
 30
0.0
 10
223.9266661347705
 20
105.6588516486507
 30
0.0
 10
223.9534849110324
 20
105.5944598778023
 30
0.0
 10
223.9722688865206
 20
105.5258603611384
 30
0.0
 10
223.9843000566526
 20
105.4542449218775
 30
0.0
 10
223.9855664172598
 20
105.405301278725
 30
0.0
 10
223.9862102058495
 20
105.3804194568929
 30
0.0
  0
SPLINE
  5
FA
330
1F
100
AcDbEntity
  8
0
  6
Continuous
 62
     7
370
     0
100
AcDbSpline
210
0.0
220
0.0
230
1.0
 70
     8
 71
     3
 72
    11
 73
     7
 74
     0
 42
0.00000001
 43
0.00000001
 12
1.0
 22
0.0
 32
0.0
 13
1.0
 23
0.0
 33
0.0
 40
0.0
 40
0.0
 40
0.0
 40
0.0
 40
0.3071626301099397
 40
0.576852859909682
 40
0.8066330493509283
 40
1.0
 40
1.0
 40
1.0
 40
1.0
 10
223.2132450631838
 20
105.9710504365124
 30
0.0
 10
223.24453320294
 20
105.9708721854205
 30
0.0
 10
223.3032924761405
 20
105.9705374290339
 30
0.0
 10
223.385349046231
 20
105.9666170013176
 30
0.0
 10
223.4558123556029
 20
105.9617667833
 30
0.0
 10
223.4983724775423
 20
105.9548613343542
 30
0.0
 10
223.5178213174823
 20
105.9517057284691
 30
0.0
  0
LINE
  5
FB
330
1F
100
AcDbEntity
  8
0
  6
Continuous
 62
     7
370
     0
100
AcDbLine
 10
222.45838986
 20
105.9710504365
 30
0.0
 11
223.2132450632
 21
105.9710504365
 31
0.0
  0
LINE
  5
FC
330
1F
100
AcDbEntity
  8
0
  6
Continuous
 62
     7
370
     0
100
AcDbLine
 10
222.45838986
 20
103.9163954886
 30
0.0
 11
222.45838986
 21
105.9710504365
 31
0.0
  0
LINE
  5
FD
330
1F
100
AcDbEntity
  8
0
  6
Continuous
 62
     7
370
     0
100
AcDbLine
 10
222.7481488911
 20
103.9163954886
 30
0.0
 11
222.45838986
 21
103.9163954886
 31
0.0
  0
LINE
  5
FE
330
1F
100
AcDbEntity
  8
0
  6
Continuous
 62
     7
370
     0
100
AcDbLine
 10
222.7481488911
 20
104.7593308518
 30
0.0
 11
222.7481488911
 21
103.9163954886
 31
0.0
  0
SPLINE
  5
FF
330
1F
100
AcDbEntity
  8
0
  6
Continuous
 62
     7
370
     0
100
AcDbSpline
210
0.0
220
0.0
230
1.0
 70
     8
 71
     3
 72
    31
 73
    27
 74
     0
 42
0.00000001
 43
0.00000001
 12
1.0
 22
0.0
 32
0.0
 13
1.0
 23
0.0
 33
0.0
 40
0.0
 40
0.0
 40
0.0
 40
0.0
 40
0.0628739462114324
 40
0.1228366299919129
 40
0.1796565674430314
 40
0.233960012230862
 40
0.285595018695559
 40
0.3345131060783805
 40
0.3809048259061763
 40
0.4248945919393346
 40
0.4665290347654874
 40
0.5064882940692463
 40
0.5450315536447542
 40
0.5818311798231344
 40
0.617448279949443
 40
0.6520669127690458
 40
0.6858797142465107
 40
0.7191745547913923
 40
0.7521816462063928
 40
0.7852401639180908
 40
0.8186564497770833
 40
0.8525477406533113
 40
0.8876263422585189
 40
0.923635078068751
 40
0.9610218444769891
 40
1.0
 40
1.0
 40
1.0
 40
1.0
 10
221.141303354888
 20
104.9297289184376
 30
0.0
 10
221.141032990652
 20
104.9005039350947
 30
0.0
 10
221.1405047808987
 20
104.8434071775069
 30
0.0
 10
221.1373670646223
 20
104.7599350666282
 30
0.0
 10
221.1313988451454
 20
104.6806271973456
 30
0.0
 10
221.1240548420396
 20
104.6053018984051
 30
0.0
 10
221.1129449036231
 20
104.5341602529032
 30
0.0
 10
221.1009733430329
 20
104.4668999988095
 30
0.0
 10
221.0861674797076
 20
104.4038265569132
 30
0.0
 10
221.0688925132586
 20
104.3449122837503
 30
0.0
 10
221.0494369783186
 20
104.2898456618606
 30
0.0
 10
221.0281009736776
 20
104.2382105283273
 30
0.0
 10
221.0044692998741
 20
104.1900421660879
 30
0.0
 10
220.9778385890427
 20
104.1458103851879
 30
0.0
 10
220.9494273168437
 20
104.1049280827898
 30
0.0
 10
220.9190274009151
 20
104.067241900187
 30
0.0
 10
220.8859943274497
 20
104.0332942504783
 30
0.0
 10
220.8503614752771
 20
104.0032756780608
 30
0.0
 10
220.8128512049558
 20
103.9762351745065
 30
0.0
 10
220.7727173475905
 20
103.9530826934439
 30
0.0
 10
220.7301355628194
 20
103.933901265023
 30
0.0
 10
220.6853903559433
 20
103.9175020966847
 30
0.0
 10
220.6380277222862
 20
103.9054857479881
 30
0.0
 10
220.5884211591694
 20
103.8962874208295
 30
0.0
 10
220.5363878897912
 20
103.8908707796816
 30
0.0
 10
220.5008826657965
 20
103.8903298563721
 30
0.0
 10
220.4827601023506
 20
103.8900537584942
 30
0.0
  0
SPLINE
  5
100
330
1F
100
AcDbEntity
  8
0
  6
Continuous
 62
     7
370
     0
100
AcDbSpline
210
0.0
220
0.0
230
1.0
 70
     8
 71
     3
 72
    27
 73
    23
 74
     0
 42
0.00000001
 43
0.00000001
 12
1.0
 22
0.0
 32
0.0
 13
1.0
 23
0.0
 33
0.0
 40
0.0
 40
0.0
 40
0.0
 40
0.0
 40
0.0567243372181507
 40
0.1114372357370107
 40
0.1643678222229016
 40
0.2164353724620897
 40
0.2676414903219248
 40
0.317359779969028
 40
0.3674730633322805
 40
0.4182103970528082
 40
0.4714042826470201
 40
0.5279657201290493
 40
0.5880611158232137
 40
0.6521342629937144
 40
0.6863448363353055
 40
0.7232636803169652
 40
0.7626102507715419
 40
0.8047389366452182
 40
0.84943033879095
 40
0.8967112583864923
 40
0.9468896380534765
 40
1.0
 40
1.0
 40
1.0
 40
1.0
 10
220.4827601023506
 20
105.9710504365124
 30
0.0
 10
220.5091472914599
 20
105.9702746718276
 30
0.0
 10
220.5609859828828
 20
105.9687506509876
 30
0.0
 10
220.6366707400607
 20
105.9563210135622
 30
0.0
 10
220.7079987457059
 20
105.9350582030547
 30
0.0
 10
220.7749236585327
 20
105.906373754408
 30
0.0
 10
220.8363014075242
 20
105.8699389838301
 30
0.0
 10
220.8911143243574
 20
105.8256469691815
 30
0.0
 10
220.9387711631862
 20
105.7739627678692
 30
0.0
 10
220.9787518233585
 20
105.7142739390547
 30
0.0
 10
221.0136989110767
 20
105.6482270992422
 30
0.0
 10
221.0447451366519
 20
105.5755258058496
 30
0.0
 10
221.0728100228265
 20
105.496251528886
 30
0.0
 10
221.0927254770102
 20
105.4252899842107
 30
0.0
 10
221.106931154127
 20
105.3640334609155
 30
0.0
 10
221.1163341836933
 20
105.313510813335
 30
0.0
 10
221.1241405833476
 20
105.2589965921661
 30
0.0
 10
221.1301213404776
 20
105.2006226819846
 30
0.0
 10
221.1350284105893
 20
105.1384545543251
 30
0.0
 10
221.1388179159474
 20
105.0724535021219
 30
0.0
 10
221.1407414779216
 20
105.0024545669742
 30
0.0
 10
221.1411125514346
 20
104.9544252589451
 30
0.0
 10
221.141303354888
 20
104.9297289184376
 30
0.0
  0
SPLINE
  5
101
330
1F
100
AcDbEntity
  8
0
  6
Continuous
 62
     7
370
     0
100
AcDbSpline
210
0.0
220
0.0
230
1.0
 70
     8
 71
     3
 72
    31
 73
    27
 74
     0
 42
0.00000001
 43
0.00000001
 12
1.0
 22
0.0
 32
0.0
 13
1.0
 23
0.0
 33
0.0
 40
0.0
 40
0.0
 40
0.0
 40
0.0
 40
0.0631144583947934
 40
0.1236146457694899
 40
0.1809737111859575
 40
0.2352614550083221
 40
0.2871007018338719
 40
0.3360307363034435
 40
0.3823823485850661
 40
0.4263340836597072
 40
0.4682106947981602
 40
0.5082496012618051
 40
0.546628336606585
 40
0.5836495392304462
 40
0.6189943150301618
 40
0.653583018620596
 40
0.6871561361903314
 40
0.7204221919788074
 40
0.7532302188118172
 40
0.7862601560778999
 40
0.8195039834988841
 40
0.8535452747120185
 40
0.8883082803397299
 40
0.9239958607406952
 40
0.961350304754645
 40
1.0
 40
1.0
 40
1.0
 40
1.0
 10
219.8242168498132
 20
104.9297289184376
 30
0.0
 10
219.8244822428016
 20
104.9590918236398
 30
0.0
 10
219.8250020359057
 20
105.016601389873
 30
0.0
 10
219.8282261436711
 20
105.1007482165192
 30
0.0
 10
219.8338551745759
 20
105.1806589735586
 30
0.0
 10
219.8422577680786
 20
105.2562642622325
 30
0.0
 10
219.8522080130211
 20
105.3277347385349
 30
0.0
 10
219.8651433942197
 20
105.3949684067253
 30
0.0
 10
219.8796975785635
 20
105.4581161163698
 30
0.0
 10
219.8971599879868
 20
105.5171120462108
 30
0.0
 10
219.9163454593324
 20
105.572463453851
 30
0.0
 10
219.9381119886505
 20
105.6240815431363
 30
0.0
 10
219.9626022868445
 20
105.6719115867425
 30
0.0
 10
219.9886128079804
 20
105.7164496090481
 30
0.0
 10
220.0175127992138
 20
105.7570028605073
 30
0.0
 10
220.0475579150229
 20
105.7947094313704
 30
0.0
 10
220.0809316550332
 20
105.8281864745562
 30
0.0
 10
220.1162462675437
 20
105.8582953574194
 30
0.0
 10
220.1540217693795
 20
105.8848646918921
 30
0.0
 10
220.194058290632
 20
105.9077908228255
 30
0.0
 10
220.2362017816588
 20
105.9280329433758
 30
0.0
 10
220.2812554507938
 20
105.9432712064379
 30
0.0
 10
220.3282839925245
 20
105.9556936212003
 30
0.0
 10
220.3776494081772
 20
105.9648317001214
 30
0.0
 10
220.4294060976784
 20
105.9702189060386
 30
0.0
 10
220.464774519665
 20
105.9707701284046
 30
0.0
 10
220.4827601023506
 20
105.9710504365124
 30
0.0
  0
SPLINE
  5
102
330
1F
100
AcDbEntity
  8
0
  6
Continuous
 62
     7
370
     0
100
AcDbSpline
210
0.0
220
0.0
230
1.0
 70
     8
 71
     3
 72
    15
 73
    11
 74
     0
 42
0.00000001
 43
0.00000001
 12
1.0
 22
0.0
 32
0.0
 13
1.0
 23
0.0
 33
0.0
 40
0.0
 40
0.0
 40
0.0
 40
0.0
 40
0.0974206681772145
 40
0.2008855880393207
 40
0.3111719701726506
 40
0.429797945825373
 40
0.5577399263645872
 40
0.6947152693641585
 40
0.8421299102060552
 40
1.0
 40
1.0
 40
1.0
 40
1.0
 10
220.0238377732386
 20
104.0880283237883
 30
0.0
 10
220.00755401632
 20
104.1115178820363
 30
0.0
 10
219.9739762124997
 20
104.1599543566542
 30
0.0
 10
219.9346763044902
 20
104.242543038937
 30
0.0
 10
219.8996200907501
 20
104.3334615824366
 30
0.0
 10
219.8721073903382
 20
104.4344937981985
 30
0.0
 10
219.8505580875692
 20
104.544835583997
 30
0.0
 10
219.8349941107729
 20
104.6647034539199
 30
0.0
 10
219.8261864321642
 20
104.7940456210931
 30
0.0
 10
219.8248881979864
 20
104.8834801623188
 30
0.0
 10
219.8242168498132
 20
104.9297289184376
 30
0.0
  0
SPLINE
  5
103
330
1F
100
AcDbEntity
  8
0
  6
Continuous
 62
     7
370
     0
100
AcDbSpline
210
0.0
220
0.0
230
1.0
 70
     8
 71
     3
 72
    15
 73
    11
 74
     0
 42
0.00000001
 43
0.00000001
 12
1.0
 22
0.0
 32
0.0
 13
1.0
 23
0.0
 33
0.0
 40
0.0
 40
0.0
 40
0.0
 40
0.0
 40
0.1379032299933934
 40
0.2688733426002937
 40
0.3951781273461133
 40
0.5170892381308875
 40
0.6367430265135479
 40
0.756221816463797
 40
0.8766283594636795
 40
1.0
 40
1.0
 40
1.0
 40
1.0
 10
220.4827601023506
 20
103.8900537584942
 30
0.0
 10
220.4589993204129
 20
103.8907315360554
 30
0.0
 10
220.4126723354489
 20
103.8920530157511
 30
0.0
 10
220.3450151898633
 20
103.9010316563135
 30
0.0
 10
220.2815153499401
 20
103.9168344852663
 30
0.0
 10
220.2216372308937
 20
103.9380283071909
 30
0.0
 10
220.1660538791544
 20
103.9663762644716
 30
0.0
 10
220.1144999063194
 20
104.0008670900015
 30
0.0
 10
220.0659393724703
 20
104.0406983182956
 30
0.0
 10
220.0379849769845
 20
104.0721242431069
 30
0.0
 10
220.0238377732386
 20
104.0880283237883
 30
0.0
  0
SPLINE
  5
104
330
1F
100
AcDbEntity
  8
0
  6
Continuous
 62
     7
370
     0
100
AcDbSpline
210
0.0
220
0.0
230
1.0
 70
     8
 71
     3
 72
    15
 73
    11
 74
     0
 42
0.00000001
 43
0.00000001
 12
1.0
 22
0.0
 32
0.0
 13
1.0
 23
0.0
 33
0.0
 40
0.0
 40
0.0
 40
0.0
 40
0.0
 40
0.1426572507006138
 40
0.2811689939054436
 40
0.416977192367974
 40
0.5508524927475579
 40
0.678364170261812
 40
0.7950324430070947
 40
0.9019981783473519
 40
1.0
 40
1.0
 40
1.0
 40
1.0
 10
216.8476013483442
 20
105.4573866995332
 30
0.0
 10
216.8805177442634
 20
105.4743387093317
 30
0.0
 10
216.9453940115273
 20
105.5077501168578
 30
0.0
 10
217.0370501483889
 20
105.5654562107254
 30
0.0
 10
217.1226210117185
 20
105.6280119919925
 30
0.0
 10
217.2006900649504
 20
105.6954036107926
 30
0.0
 10
217.2706739965101
 20
105.7642899428158
 30
0.0
 10
217.3296504719255
 20
105.8337989576463
 30
0.0
 10
217.3789982336452
 20
105.9013827550604
 30
0.0
 10
217.4037569405484
 20
105.9485149587584
 30
0.0
 10
217.4155949036577
 20
105.9710504365124
 30
0.0
  0
LINE
  5
105
330
1F
100
AcDbEntity
  8
0
  6
Continuous
 62
     7
370
     0
100
AcDbLine
 10
216.8476013483
 20
105.2145488752
 30
0.0
 11
216.8476013483
 21
105.4573866995
 31
0.0
  0
SPLINE
  5
106
330
1F
100
AcDbEntity
  8
0
  6
Continuous
 62
     7
370
     0
100
AcDbSpline
210
0.0
220
0.0
230
1.0
 70
     8
 71
     3
 72
    15
 73
    11
 74
     0
 42
0.00000001
 43
0.00000001
 12
1.0
 22
0.0
 32
0.0
 13
1.0
 23
0.0
 33
0.0
 40
0.0
 40
0.0
 40
0.0
 40
0.0
 40
0.1116703001015866
 40
0.232094480856018
 40
0.3627434591045532
 40
0.5025575097108851
 40
0.6415251033312813
 40
0.7710984952996682
 40
0.8901617573732524
 40
1.0
 40
1.0
 40
1.0
 40
1.0
 10
217.3217524901711
 20
105.5174787713273
 30
0.0
 10
217.3065848986729
 20
105.5028514954273
 30
0.0
 10
217.2750607219544
 20
105.4724503054667
 30
0.0
 10
217.2217724314712
 20
105.4294250302082
 30
0.0
 10
217.1622958891181
 20
105.3858170899589
 30
0.0
 10
217.0974034356426
 20
105.3438831802602
 30
0.0
 10
217.0312565570447
 20
105.3044069264839
 30
0.0
 10
216.9673341150568
 20
105.2689041053341
 30
0.0
 10
216.906703322073
 20
105.2388601046499
 30
0.0
 10
216.8667654912632
 20
105.2224319262172
 30
0.0
 10
216.8476013483442
 20
105.2145488751601
 30
0.0
  0
LINE
  5
107
330
1F
100
AcDbEntity
  8
0
  6
Continuous
 62
     7
370
     0
100
AcDbLine
 10
217.3217524902
 20
103.9163954886
 30
0.0
 11
217.3217524902
 21
105.5174787713
 31
0.0
  0
LINE
  5
108
330
1F
100
AcDbEntity
  8
0
  6
Continuous
 62
     7
370
     0
100
AcDbLine
 10
217.5851697912
 20
103.9163954886
 30
0.0
 11
217.3217524902
 21
103.9163954886
 31
0.0
  0
LINE
  5
109
330
1F
100
AcDbEntity
  8
0
  6
Continuous
 62
     7
370
     0
100
AcDbLine
 10
217.5851697912
 20
105.9710504365
 30
0.0
 11
217.5851697912
 21
103.9163954886
 31
0.0
  0
LINE
  5
10A
330
1F
100
AcDbEntity
  8
0
  6
Continuous
 62
     7
370
     0
100
AcDbLine
 10
217.4155949037
 20
105.9710504365
 30
0.0
 11
217.5851697912
 21
105.9710504365
 31
0.0
  0
SPLINE
  5
10B
330
1F
100
AcDbEntity
  8
0
  6
Continuous
 62
     7
370
     0
100
AcDbSpline
210
0.0
220
0.0
230
1.0
 70
     8
 71
     3
 72
    23
 73
    19
 74
     0
 42
0.00000001
 43
0.00000001
 12
1.0
 22
0.0
 32
0.0
 13
1.0
 23
0.0
 33
0.0
 40
0.0
 40
0.0
 40
0.0
 40
0.0
 40
0.0635999003471699
 40
0.1252966507935535
 40
0.1855687201945882
 40
0.2446982110006627
 40
0.303716806189989
 40
0.3629196509481438
 40
0.4233003138688771
 40
0.4851773095450755
 40
0.5470834132243567
 40
0.608524799634247
 40
0.6699648532447271
 40
0.7322993779782991
 40
0.7956502934901157
 40
0.8610554709467161
 40
0.929122115173219
 40
1.0
 40
1.0
 40
1.0
 40
1.0
 10
215.4514896529649
 20
104.5144350798062
 30
0.0
 10
215.4509661673149
 20
104.492862813906
 30
0.0
 10
215.4499348606883
 20
104.4503638060055
 30
0.0
 10
215.4408734762644
 20
104.3879802498666
 30
0.0
 10
215.4271632005031
 20
104.3280523317698
 30
0.0
 10
215.4071720356528
 20
104.2708332094245
 30
0.0
 10
215.3816383513062
 20
104.2162824340547
 30
0.0
 10
215.3500528750739
 20
104.1644792193472
 30
0.0
 10
215.3127259448021
 20
104.1154768543172
 30
0.0
 10
215.2707586402358
 20
104.0691230241178
 30
0.0
 10
215.223839218794
 20
104.0272211692247
 30
0.0
 10
215.1730810959363
 20
103.990296389533
 30
0.0
 10
215.1182938206706
 20
103.9593671786077
 30
0.0
 10
215.0601421500011
 20
103.9337579031578
 30
0.0
 10
214.998347633702
 20
103.9139108096257
 30
0.0
 10
214.9329897043306
 20
103.900013636034
 30
0.0
 10
214.8640901108491
 20
103.8917384807395
 30
0.0
 10
214.8169787028883
 20
103.8906228566523
 30
0.0
 10
214.7929464004275
 20
103.8900537584942
 30
0.0
  0
SPLINE
  5
10C
330
1F
100
AcDbEntity
  8
0
  6
Continuous
 62
     7
370
     0
100
AcDbSpline
210
0.0
220
0.0
230
1.0
 70
     8
 71
     3
 72
    23
 73
    19
 74
     0
 42
0.00000001
 43
0.00000001
 12
1.0
 22
0.0
 32
0.0
 13
1.0
 23
0.0
 33
0.0
 40
0.0
 40
0.0
 40
0.0
 40
0.0
 40
0.0690130029109932
 40
0.1352355440560497
 40
0.1996111851157138
 40
0.2624185195032886
 40
0.3237234972102992
 40
0.3837653656042444
 40
0.4437730350956272
 40
0.5037949564977896
 40
0.5638225777168209
 40
0.6234843128834681
 40
0.6834691722744386
 40
0.7435907624559172
 40
0.8057272199738402
 40
0.8686162107352969
 40
0.933278202847215
 40
1.0
 40
1.0
 40
1.0
 40
1.0
 10
215.0678882083619
 20
105.0433276295003
 30
0.0
 10
215.0832271951927
 20
105.0381207702948
 30
0.0
 10
215.1132849544821
 20
105.0279175852748
 30
0.0
 10
215.1557776582239
 20
105.0080794491533
 30
0.0
 10
215.1957832615886
 20
104.9866892295216
 30
0.0
 10
215.2335273605881
 20
104.9635343037912
 30
0.0
 10
215.2676167275316
 20
104.9368926952964
 30
0.0
 10
215.2991886838433
 20
104.908339611954
 30
0.0
 10
215.3281104870669
 20
104.8774726846737
 30
0.0
 10
215.3539870960771
 20
104.8440293869874
 30
0.0
 10
215.3770896372813
 20
104.8087116365798
 30
0.0
 10
215.3968672463905
 20
104.7714333271775
 30
0.0
 10
215.4136639899984
 20
104.7327250667544
 30
0.0
 10
215.4280190655073
 20
104.6924073577601
 30
0.0
 10
215.4385043134491
 20
104.6501962070784
 30
0.0
 10
215.4458407009421
 20
104.6062855972506
 30
0.0
 10
215.4504954319684
 20
104.560906952581
 30
0.0
 10
215.4511548001581
 20
104.5300867680027
 30
0.0
 10
215.4514896529649
 20
104.5144350798062
 30
0.0
  0
SPLINE
  5
10D
330
1F
100
AcDbEntity
  8
0
  6
Continuous
 62
     7
370
     0
100
AcDbSpline
210
0.0
220
0.0
230
1.0
 70
     8
 71
     3
 72
    15
 73
    11
 74
     0
 42
0.00000001
 43
0.00000001
 12
1.0
 22
0.0
 32
0.0
 13
1.0
 23
0.0
 33
0.0
 40
0.0
 40
0.0
 40
0.0
 40
0.0
 40
0.1248350921668871
 40
0.2447781332833286
 40
0.3609889778410595
 40
0.4779641722472781
 40
0.5969221175582977
 40
0.7215907566966706
 40
0.8550978657574203
 40
1.0
 40
1.0
 40
1.0
 40
1.0
 10
215.3724644626604
 20
105.4462737821467
 30
0.0
 10
215.371711639428
 20
105.4236869800977
 30
0.0
 10
215.370235494681
 20
105.3793985100337
 30
0.0
 10
215.3551929195552
 20
105.315556312307
 30
0.0
 10
215.3317477794872
 20
105.2559564209448
 30
0.0
 10
215.297862477405
 20
105.2017347062801
 30
0.0
 10
215.2549480025754
 20
105.1523311794883
 30
0.0
 10
215.2016945618698
 20
105.1093841518868
 30
0.0
 10
215.1389109051528
 20
105.0719247390157
 30
0.0
 10
215.0921997220385
 20
105.0531165990904
 30
0.0
 10
215.0678882083619
 20
105.0433276295003
 30
0.0
  0
SPLINE
  5
10E
330
1F
100
AcDbEntity
  8
0
  6
Continuous
 62
     7
370
     0
100
AcDbSpline
210
0.0
220
0.0
230
1.0
 70
     8
 71
     3
 72
    23
 73
    19
 74
     0
 42
0.00000001
 43
0.00000001
 12
1.0
 22
0.0
 32
0.0
 13
1.0
 23
0.0
 33
0.0
 40
0.0
 40
0.0
 40
0.0
 40
0.0
 40
0.0732007449685416
 40
0.1425867913224124
 40
0.2096247814680876
 40
0.274882926768208
 40
0.3379306095315751
 40
0.4004618221882003
 40
0.4625006206857345
 40
0.5250054581372535
 40
0.5866888527108447
 40
0.6468127657705337
 40
0.7052153157505644
 40
0.7628810210075593
 40
0.8207275416930105
 40
0.8792954957245831
 40
0.9385111654136069
 40
0.9999999999999999
 40
0.9999999999999999
 40
0.9999999999999999
 40
0.9999999999999999
 10
214.7896536841648
 20
105.9710504365124
 30
0.0
 10
214.8110756506395
 20
105.9705677190908
 30
0.0
 10
214.8528032241054
 20
105.9696274400227
 30
0.0
 10
214.9138260977304
 20
105.9625476354909
 30
0.0
 10
214.9717120735454
 20
105.9506814420402
 30
0.0
 10
215.0264270713286
 20
105.9338463008414
 30
0.0
 10
215.0780573511161
 20
105.9123215591374
 30
0.0
 10
215.1262636507582
 20
105.8858648260487
 30
0.0
 10
215.1715422248446
 20
105.8549124572918
 30
0.0
 10
215.2127357686163
 20
105.8190953348614
 30
0.0
 10
215.2502169833299
 20
105.7802095874877
 30
0.0
 10
215.2826909155489
 20
105.7385497901108
 30
0.0
 10
215.310542773626
 20
105.6950880459254
 30
0.0
 10
215.3335581496615
 20
105.649560314829
 30
0.0
 10
215.3505850118744
 20
105.6014481578697
 30
0.0
 10
215.36356330292
 20
105.5516580303599
 30
0.0
 10
215.3710913133413
 20
105.4995983285409
 30
0.0
 10
215.3720010354469
 20
105.4642704017438
 30
0.0
 10
215.3724644626604
 20
105.4462737821467
 30
0.0
  0
SPLINE
  5
10F
330
1F
100
AcDbEntity
  8
0
  6
Continuous
 62
     7
370
     0
100
AcDbSpline
210
0.0
220
0.0
230
1.0
 70
     8
 71
     3
 72
    23
 73
    19
 74
     0
 42
0.00000001
 43
0.00000001
 12
1.0
 22
0.0
 32
0.0
 13
1.0
 23
0.0
 33
0.0
 40
0.0
 40
0.0
 40
0.0
 40
0.0
 40
0.0621313717366117
 40
0.1219658247853497
 40
0.1805702366487598
 40
0.2385759705888209
 40
0.2960002420906481
 40
0.3543589964435931
 40
0.4137812280524365
 40
0.4750979653520684
 40
0.5372798973856026
 40
0.5989179536770425
 40
0.6612351129787322
 40
0.7243219805737479
 40
0.7892171825086325
 40
0.8563966620881328
 40
0.9265077687361052
 40
1.0
 40
1.0
 40
1.0
 40
1.0
 10
214.2134283381946
 20
105.452859214672
 30
0.0
 10
214.2138803405121
 20
105.4708591427554
 30
0.0
 10
214.2147676351899
 20
105.5061935642143
 30
0.0
 10
214.2224340631319
 20
105.558040845709
 30
0.0
 10
214.2347129520067
 20
105.6077235126269
 30
0.0
 10
214.2521395682547
 20
105.6551013407061
 30
0.0
 10
214.273972262276
 20
105.7005642928786
 30
0.0
 10
214.3015214402495
 20
105.743279467664
 30
0.0
 10
214.3331875092095
 20
105.7844540823522
 30
0.0
 10
214.3702828042445
 20
105.8224237336962
 30
0.0
 10
214.4111611780808
 20
105.8572002594197
 30
0.0
 10
214.4554388363702
 20
105.8881479517292
 30
0.0
 10
214.5034545923535
 20
105.9134556404063
 30
0.0
 10
214.5544078866035
 20
105.9346150007351
 30
0.0
 10
214.6085506579972
 20
105.9511805425987
 30
0.0
 10
214.6660736265328
 20
105.962462599478
 30
0.0
 10
214.7267740111628
 20
105.9696388246355
 30
0.0
 10
214.7683673562697
 20
105.9705725709028
 30
0.0
 10
214.7896536841648
 20
105.9710504365124
 30
0.0
  0
SPLINE
  5
110
330
1F
100
AcDbEntity
  8
0
  6
Continuous
 62
     7
370
     0
100
AcDbSpline
210
0.0
220
0.0
230
1.0
 70
     8
 71
     3
 72
    15
 73
    11
 74
     0
 42
0.00000001
 43
0.00000001
 12
1.0
 22
0.0
 32
0.0
 13
1.0
 23
0.0
 33
0.0
 40
0.0
 40
0.0
 40
0.0
 40
0.0
 40
0.1453591950554989
 40
0.2787017789350165
 40
0.4036022344180536
 40
0.5216687911804251
 40
0.6375206936077398
 40
0.7537041507630958
 40
0.8732127703640606
 40
1.0
 40
1.0
 40
1.0
 40
1.0
 10
214.5245900250185
 20
105.0433276295003
 30
0.0
 10
214.4995963746037
 20
105.0531052870906
 30
0.0
 10
214.4516752587084
 20
105.0718522990232
 30
0.0
 10
214.3870420280187
 20
105.109370346828
 30
0.0
 10
214.3323403295086
 20
105.1525299199858
 30
0.0
 10
214.2882418277266
 20
105.2023717833712
 30
0.0
 10
214.254630752064
 20
105.2578655693755
 30
0.0
 10
214.2304294487504
 20
105.3183037342586
 30
0.0
 10
214.2162543209416
 20
105.3840229855577
 30
0.0
 10
214.2143887101433
 20
105.4294661548357
 30
0.0
 10
214.2134283381946
 20
105.452859214672
 30
0.0
  0
SPLINE
  5
111
330
1F
100
AcDbEntity
  8
0
  6
Continuous
 62
     7
370
     0
100
AcDbSpline
210
0.0
220
0.0
230
1.0
 70
     8
 71
     3
 72
    23
 73
    19
 74
     0
 42
0.00000001
 43
0.00000001
 12
1.0
 22
0.0
 32
0.0
 13
1.0
 23
0.0
 33
0.0
 40
0.0
 40
0.0
 40
0.0
 40
0.0
 40
0.0698340680322546
 40
0.1370265239564767
 40
0.2014822968650622
 40
0.2645399492437557
 40
0.3259725932884495
 40
0.3863863095292152
 40
0.4457607667910172
 40
0.5056119070745054
 40
0.5651144217391008
 40
0.6247503916637622
 40
0.6841789512645825
 40
0.7442191416569944
 40
0.8051791454666236
 40
0.8683948608225696
 40
0.9332039334133245
 40
1.0
 40
1.0
 40
1.0
 40
1.0
 10
214.1344031478901
 20
104.5214321018645
 30
0.0
 10
214.1347604589963
 20
104.5379026499796
 30
0.0
 10
214.1354615652074
 20
104.5702207150654
 30
0.0
 10
214.1397443855008
 20
104.61762252233
 30
0.0
 10
214.1482799640774
 20
104.6628014270589
 30
0.0
 10
214.159274332939
 20
104.7060236682613
 30
0.0
 10
214.1732337413225
 20
104.7473973763066
 30
0.0
 10
214.1904553285925
 20
104.7865976432517
 30
0.0
 10
214.2113495508177
 20
104.8235297262677
 30
0.0
 10
214.2350867573427
 20
104.8584339408727
 30
0.0
 10
214.2619664845249
 20
104.8910652465645
 30
0.0
 10
214.2915530741886
 20
104.921137884028
 30
0.0
 10
214.3239539983277
 20
104.948309797204
 30
0.0
 10
214.3584411506269
 20
104.9733745958298
 30
0.0
 10
214.3964601089107
 20
104.9945592682193
 30
0.0
 10
214.4365969601782
 20
105.0140001523275
 30
0.0
 10
214.4795417632485
 20
105.03057962174
 30
0.0
 10
214.5094235511999
 20
105.0390357363542
 30
0.0
 10
214.5245900250185
 20
105.0433276295003
 30
0.0
  0
SPLINE
  5
112
330
1F
100
AcDbEntity
  8
0
  6
Continuous
 62
     7
370
     0
100
AcDbSpline
210
0.0
220
0.0
230
1.0
 70
     8
 71
     3
 72
    23
 73
    19
 74
     0
 42
0.00000001
 43
0.00000001
 12
1.0
 22
0.0
 32
0.0
 13
1.0
 23
0.0
 33
0.0
 40
0.0
 40
0.0
 40
0.0
 40
0.0
 40
0.0704416310595481
 40
0.1380893247200281
 40
0.2031777335235315
 40
0.2661387238052539
 40
0.3279287813674604
 40
0.3891903607612971
 40
0.4502535751031184
 40
0.5123465781279282
 40
0.5738427205586503
 40
0.6339325568070916
 40
0.6934598075975581
 40
0.7524794354833053
 40
0.8123859308429278
 40
0.8730704652319968
 40
0.9351843065837714
 40
1.0
 40
1.0
 40
1.0
 40
1.0
 10
214.7929464004275
 20
103.8900537584942
 30
0.0
 10
214.7689165017811
 20
103.8906351213709
 30
0.0
 10
214.721809806106
 20
103.8917747884378
 30
0.0
 10
214.6528472623993
 20
103.899880770883
 30
0.0
 10
214.5875828439881
 20
103.9144079405019
 30
0.0
 10
214.5258686754256
 20
103.9342752083009
 30
0.0
 10
214.4673699783174
 20
103.959191109618
 30
0.0
 10
214.4129506519265
 20
103.9908172342746
 30
0.0
 10
214.3618609778518
 20
104.0276952328584
 30
0.0
 10
214.3149089320632
 20
104.0698562626816
 30
0.0
 10
214.2725930264752
 20
104.1162051483838
 30
0.0
 10
214.2357581475692
 20
104.1659312025364
 30
0.0
 10
214.2043601776093
 20
104.2182691566855
 30
0.0
 10
214.1785203296883
 20
104.2735140525467
 30
0.0
 10
214.1588244733256
 20
104.3316663934718
 30
0.0
 10
214.1450016877145
 20
104.3925078548669
 30
0.0
 10
214.1359239020539
 20
104.4559919446341
 30
0.0
 10
214.1349172088479
 20
104.4993113471092
 30
0.0
 10
214.1344031478901
 20
104.5214321018645
 30
0.0
  0
SPLINE
  5
113
330
1F
100
AcDbEntity
  8
0
  6
Continuous
 62
     7
370
     0
100
AcDbSpline
210
0.0
220
0.0
230
1.0
 70
     8
 71
     3
 72
    15
 73
    11
 74
     0
 42
0.00000001
 43
0.00000001
 12
1.0
 22
0.0
 32
0.0
 13
1.0
 23
0.0
 33
0.0
 40
0.0
 40
0.0
 40
0.0
 40
0.0
 40
0.132461622242638
 40
0.26164950103549
 40
0.3875466984163659
 40
0.5107816292933464
 40
0.6326753605997106
 40
0.7546603541381373
 40
0.8765227798028644
 40
1.0
 40
1.0
 40
1.0
 40
1.0
 10
212.2904820407854
 20
104.6210367688107
 30
0.0
 10
212.2900156351262
 20
104.5982427162238
 30
0.0
 10
212.2890943508632
 20
104.5532179582223
 30
0.0
 10
212.2815442357841
 20
104.4868656538929
 30
0.0
 10
212.2691072155453
 20
104.4229299860427
 30
0.0
 10
212.2524574772878
 20
104.3612216214957
 30
0.0
 10
212.2299614465199
 20
104.3020910160264
 30
0.0
 10
212.2026758668274
 20
104.245347172984
 30
0.0
 10
212.1712004201925
 20
104.1903979895814
 30
0.0
 10
212.1459587453964
 20
104.1565249893906
 30
0.0
 10
212.1332548392421
 20
104.1394770153928
 30
0.0
  0
SPLINE
  5
114
330
1F
100
AcDbEntity
  8
0
  6
Continuous
 62
     7
370
     0
100
AcDbSpline
210
0.0
220
0.0
230
1.0
 70
     8
 71
     3
 72
    23
 73
    19
 74
     0
 42
0.00000001
 43
0.00000001
 12
1.0
 22
0.0
 32
0.0
 13
1.0
 23
0.0
 33
0.0
 40
0.0
 40
0.0
 40
0.0
 40
0.0
 40
0.0619974190757221
 40
0.1220879540822937
 40
0.1813753107870036
 40
0.2395080083953663
 40
0.2978356978967516
 40
0.3568799706531185
 40
0.4172818251154289
 40
0.4796404090798165
 40
0.5425000674783568
 40
0.6049624196481908
 40
0.6669910330782646
 40
0.7302162430101637
 40
0.794172863251256
 40
0.8604581431502615
 40
0.9285781799847829
 40
1.0
 40
1.0
 40
1.0
 40
1.0
 10
211.6875033751809
 20
105.2861654538735
 30
0.0
 10
211.7082485952499
 20
105.285621912651
 30
0.0
 10
211.7491009647997
 20
105.2845515481615
 30
0.0
 10
211.8092983458779
 20
105.2757571561569
 30
0.0
 10
211.8668571684785
 20
105.2608280927226
 30
0.0
 10
211.9222289191916
 20
105.2407208208035
 30
0.0
 10
211.9746834568637
 20
105.214065197022
 30
0.0
 10
212.0247521082321
 20
105.1817908966198
 30
0.0
 10
212.0722327288287
 20
105.1436318915698
 30
0.0
 10
212.1168568970447
 20
105.1003081635476
 30
0.0
 10
212.1573327922941
 20
105.0522142708878
 30
0.0
 10
212.1935600395832
 20
105.000918730096
 30
0.0
 10
212.2231484763361
 20
104.9453947455965
 30
0.0
 10
212.2480343823975
 20
104.8870920581124
 30
0.0
 10
212.2668038656051
 20
104.8250536078538
 30
0.0
 10
212.281050558463
 20
104.7601598471347
 30
0.0
 10
212.2886677921672
 20
104.6915994557986
 30
0.0
 10
212.2898678263377
 20
104.6449257889716
 30
0.0
 10
212.2904820407854
 20
104.6210367688107
 30
0.0
  0
SPLINE
  5
115
330
1F
100
AcDbEntity
  8
0
  6
Continuous
 62
     7
370
     0
100
AcDbSpline
210
0.0
220
0.0
230
1.0
 70
     8
 71
     3
 72
    15
 73
    11
 74
     0
 42
0.00000001
 43
0.00000001
 12
1.0
 22
0.0
 32
0.0
 13
1.0
 23
0.0
 33
0.0
 40
0.0
 40
0.0
 40
0.0
 40
0.0
 40
0.1367294018595733
 40
0.2685149167908308
 40
0.3955294046848096
 40
0.5199999535658124
 40
0.640496476841269
 40
0.7612361017625323
 40
0.8801067171759528
 40
1.0
 40
1.0
 40
1.0
 40
1.0
 10
211.3211886909569
 20
105.1491061394392
 30
0.0
 10
211.3357233521773
 20
105.1600131529425
 30
0.0
 10
211.3642671276571
 20
105.1814328021435
 30
0.0
 10
211.4087903011054
 20
105.2094790093792
 30
0.0
 10
211.4539501092204
 20
105.2331200919334
 30
0.0
 10
211.4994836652583
 20
105.2524801505569
 30
0.0
 10
211.5457526618584
 20
105.2675616021682
 30
0.0
 10
211.5924778904771
 20
105.2780394983367
 30
0.0
 10
211.6398184426653
 20
105.2851210771047
 30
0.0
 10
211.671563075077
 20
105.285816335646
 30
0.0
 10
211.6875033751809
 20
105.2861654538735
 30
0.0
  0
LINE
  5
116
330
1F
100
AcDbEntity
  8
0
  6
Continuous
 62
     7
370
     0
100
AcDbLine
 10
211.4257324323
 20
105.6812914054
 30
0.0
 11
211.321188691
 21
105.1491061394
 31
0.0
  0
LINE
  5
117
330
1F
100
AcDbEntity
  8
0
  6
Continuous
 62
     7
370
     0
100
AcDbLine
 10
212.1851151204
 20
105.6812914054
 30
0.0
 11
211.4257324323
 21
105.6812914054
 31
0.0
  0
LINE
  5
118
330
1F
100
AcDbEntity
  8
0
  6
Continuous
 62
     7
370
     0
100
AcDbLine
 10
212.1851151204
 20
105.9447087064
 30
0.0
 11
212.1851151204
 21
105.6812914054
 31
0.0
  0
LINE
  5
119
330
1F
100
AcDbEntity
  8
0
  6
Continuous
 62
     7
370
     0
100
AcDbLine
 10
211.2104711066
 20
105.9447087064
 30
0.0
 11
212.1851151204
 21
105.9447087064
 31
0.0
  0
LINE
  5
11A
330
1F
100
AcDbEntity
  8
0
  6
Continuous
 62
     7
370
     0
100
AcDbLine
 10
210.9997372658
 20
104.8910395024
 30
0.0
 11
211.2104711066
 21
105.9447087064
 31
0.0
  0
LINE
  5
11B
330
1F
100
AcDbEntity
  8
0
  6
Continuous
 62
     7
370
     0
100
AcDbLine
 10
211.2631545668
 20
104.8646977722
 30
0.0
 11
210.9997372658
 21
104.8910395024
 31
0.0
  0
SPLINE
  5
11C
330
1F
100
AcDbEntity
  8
0
  6
Continuous
 62
     7
370
     0
100
AcDbSpline
210
0.0
220
0.0
230
1.0
 70
     8
 71
     3
 72
    15
 73
    11
 74
     0
 42
0.00000001
 43
0.00000001
 12
1.0
 22
0.0
 32
0.0
 13
1.0
 23
0.0
 33
0.0
 40
0.0
 40
0.0
 40
0.0
 40
0.0
 40
0.1478596367312514
 40
0.283561321939547
 40
0.4123693961385312
 40
0.5342363558879457
 40
0.6526916293119823
 40
0.7686630594981229
 40
0.8836524018604046
 40
1.0
 40
1.0
 40
1.0
 40
1.0
 10
211.6146520278689
 20
105.04908988296
 30
0.0
 10
211.5941672590035
 20
105.0484906634311
 30
0.0
 10
211.5548821081163
 20
105.0473414959805
 30
0.0
 10
211.4984333861856
 20
105.037673962272
 30
0.0
 10
211.4470460708857
 20
105.022057293092
 30
0.0
 10
211.401301967604
 20
104.9987825476084
 30
0.0
 10
211.3604318717282
 20
104.970977041119
 30
0.0
 10
211.3235867290068
 20
104.939513849114
 30
0.0
 10
211.2904627138168
 20
104.9044142434878
 30
0.0
 10
211.2722928429331
 20
104.8779883144555
 30
0.0
 10
211.2631545668271
 20
104.8646977722496
 30
0.0
  0
SPLINE
  5
11D
330
1F
100
AcDbEntity
  8
0
  6
Continuous
 62
     7
370
     0
100
AcDbSpline
210
0.0
220
0.0
230
1.0
 70
     8
 71
     3
 72
    23
 73
    19
 74
     0
 42
0.00000001
 43
0.00000001
 12
1.0
 22
0.0
 32
0.0
 13
1.0
 23
0.0
 33
0.0
 40
0.0
 40
0.0
 40
0.0
 40
0.0
 40
0.0728659334565351
 40
0.1418868719641256
 40
0.2074526264147115
 40
0.2704376800000974
 40
0.3316408722476697
 40
0.3901075774931577
 40
0.4480692869488358
 40
0.505502951924537
 40
0.5624881528337238
 40
0.6190843288847293
 40
0.6764155306922391
 40
0.7354523604507931
 40
0.7962407694486783
 40
0.8604056780892032
 40
0.9283049272851064
 40
1.0
 40
1.0
 40
1.0
 40
1.0
 10
212.0270647397705
 20
104.605396366563
 30
0.0
 10
212.0267623491805
 20
104.622145974917
 30
0.0
 10
212.0261735245696
 20
104.6547613470564
 30
0.0
 10
212.0212146606933
 20
104.7022547517571
 30
0.0
 10
212.0128484735329
 20
104.7469129250202
 30
0.0
 10
212.0020234106969
 20
104.7892280778628
 30
0.0
 10
211.9871024269409
 20
104.8285389839071
 30
0.0
 10
211.9694053000358
 20
104.8654156128557
 30
0.0
 10
211.9477255757936
 20
104.8990753340751
 30
0.0
 10
211.9236054519828
 20
104.9305661893862
 30
0.0
 10
211.8960572254338
 20
104.9587964722713
 30
0.0
 10
211.864708724235
 20
104.9826333705391
 30
0.0
 10
211.8307897315791
 20
105.003495470432
 30
0.0
 10
211.7936170842062
 20
105.0204133319926
 30
0.0
 10
211.7531688930582
 20
105.0329826674076
 30
0.0
 10
211.7098471016987
 20
105.0426536400055
 30
0.0
 10
211.6632021823718
 20
105.0477401755876
 30
0.0
 10
211.6311261479428
 20
105.0486318979846
 30
0.0
 10
211.6146520278689
 20
105.04908988296
 30
0.0
  0
SPLINE
  5
11E
330
1F
100
AcDbEntity
  8
0
  6
Continuous
 62
     7
370
     0
100
AcDbSpline
210
0.0
220
0.0
230
1.0
 70
     8
 71
     3
 72
    23
 73
    19
 74
     0
 42
0.00000001
 43
0.00000001
 12
1.0
 22
0.0
 32
0.0
 13
1.0
 23
0.0
 33
0.0
 40
0.0
 40
0.0
 40
0.0
 40
0.0
 40
0.0658010376094729
 40
0.1286767959489733
 40
0.1886758749524341
 40
0.2475984367338953
 40
0.304849420118827
 40
0.3617858992828986
 40
0.4195227063685901
 40
0.4786818154207406
 40
0.5387695030440189
 40
0.5987990560131542
 40
0.6601842815006784
 40
0.722951530610966
 40
0.7879926891048742
 40
0.8554037684344732
 40
0.9261530612840041
 40
1.0
 40
1.0
 40
1.0
 40
1.0
 10
211.6134172592704
 20
104.1271293294077
 30
0.0
 10
211.6290785383628
 20
104.1275077513727
 30
0.0
 10
211.6597048519786
 20
104.1282477720129
 30
0.0
 10
211.7042603367624
 20
104.1345065692705
 30
0.0
 10
211.7463466006321
 20
104.1448266008523
 30
0.0
 10
211.7857622672162
 20
104.1592687184124
 30
0.0
 10
211.8229694087871
 20
104.1772292004623
 30
0.0
 10
211.8567337011025
 20
104.2004847530166
 30
0.0
 10
211.8888961594643
 20
104.2266262919942
 30
0.0
 10
211.9173871223905
 20
104.2577920235864
 30
0.0
 10
211.9433219034151
 20
104.2917211282783
 30
0.0
 10
211.9657055692084
 20
104.3287561893253
 30
0.0
 10
211.9845494533047
 20
104.3683773903372
 30
0.0
 10
212.0004139440723
 20
104.4105771351988
 30
0.0
 10
212.0121287127871
 20
104.4555964964088
 30
0.0
 10
212.0207458714346
 20
104.5031959795502
 30
0.0
 10
212.026277743298
 20
104.5534059055391
 30
0.0
 10
212.0267986875968
 20
104.5878204616533
 30
0.0
 10
212.0270647397705
 20
104.605396366563
 30
0.0
  0
SPLINE
  5
11F
330
1F
100
AcDbEntity
  8
0
  6
Continuous
 62
     7
370
     0
100
AcDbSpline
210
0.0
220
0.0
230
1.0
 70
     8
 71
     3
 72
    23
 73
    19
 74
     0
 42
0.00000001
 43
0.00000001
 12
1.0
 22
0.0
 32
0.0
 13
1.0
 23
0.0
 33
0.0
 40
0.0
 40
0.0
 40
0.0
 40
0.0
 40
0.0773613371189759
 40
0.1504798322806804
 40
0.2199772368520742
 40
0.2866809968624409
 40
0.3496784941856623
 40
0.4106796250174851
 40
0.4694271135192905
 40
0.5267557014271295
 40
0.583141980834837
 40
0.6388244277786258
 40
0.6952634704038123
 40
0.7526958048985352
 40
0.8108491833348948
 40
0.8713563036360843
 40
0.934436430984128
 40
1.0
 40
1.0
 40
1.0
 40
1.0
 10
211.2368128367256
 20
104.4959135508286
 30
0.0
 10
211.2394210815557
 20
104.4810714316084
 30
0.0
 10
211.2444945233962
 20
104.4522012014117
 30
0.0
 10
211.2541625275474
 20
104.4104106868876
 30
0.0
 10
211.2667185128777
 20
104.3715861307975
 30
0.0
 10
211.28082654473
 20
104.3353912903106
 30
0.0
 10
211.2975963206649
 20
104.3022088805445
 30
0.0
 10
211.3157665118269
 20
104.2715149686073
 30
0.0
 10
211.3371945388631
 20
104.2443990926889
 30
0.0
 10
211.3597232322295
 20
104.2194430669044
 30
0.0
 10
211.3844501946224
 20
104.197452394663
 30
0.0
 10
211.4116140227155
 20
104.1789134993255
 30
0.0
 10
211.4404568278973
 20
104.1627394357472
 30
0.0
 10
211.4713299046622
 20
104.1494968310552
 30
0.0
 10
211.5042805695963
 20
104.1398039418407
 30
0.0
 10
211.5388894487946
 20
104.1321385304683
 30
0.0
 10
211.5756021941918
 20
104.1282759658304
 30
0.0
 10
211.6006510498072
 20
104.1275164291184
 30
0.0
 10
211.6134172592704
 20
104.1271293294077
 30
0.0
  0
LINE
  5
120
330
1F
100
AcDbEntity
  8
0
  6
Continuous
 62
     7
370
     0
100
AcDbLine
 10
210.9733955357
 20
104.4695718207
 30
0.0
 11
211.2368128367
 21
104.4959135508
 31
0.0
  0
SPLINE
  5
121
330
1F
100
AcDbEntity
  8
0
  6
Continuous
 62
     7
370
     0
100
AcDbSpline
210
0.0
220
0.0
230
1.0
 70
     8
 71
     3
 72
    23
 73
    19
 74
     0
 42
0.00000001
 43
0.00000001
 12
1.0
 22
0.0
 32
0.0
 13
1.0
 23
0.0
 33
0.0
 40
0.0
 40
0.0
 40
0.0
 40
0.0
 40
0.0692980234597528
 40
0.135560844101282
 40
0.1996709556470567
 40
0.2617162384956084
 40
0.3226619299471026
 40
0.3829069237782244
 40
0.4430320330728902
 40
0.503500787350163
 40
0.5637242810171083
 40
0.6239800220534739
 40
0.6836293869955233
 40
0.7438482724857305
 40
0.80519184622951
 40
0.8676487429597676
 40
0.9327780842312613
 40
1.0
 40
1.0
 40
1.0
 40
1.0
 10
211.6117709011391
 20
103.8900537584942
 30
0.0
 10
211.5896598882371
 20
103.8905022767866
 30
0.0
 10
211.5464063086501
 20
103.8913796685977
 30
0.0
 10
211.4830753723348
 20
103.8990072974294
 30
0.0
 10
211.4228401629312
 20
103.9111706758216
 30
0.0
 10
211.3656818097332
 20
103.9286167257912
 30
0.0
 10
211.3114281099608
 20
103.950661442601
 30
0.0
 10
211.2607096922256
 20
103.9786657919884
 30
0.0
 10
211.2126463930396
 20
104.0107010234506
 30
0.0
 10
211.1682954448059
 20
104.0477541365638
 30
0.0
 10
211.1278859563973
 20
104.089082602631
 30
0.0
 10
211.0916782341037
 20
104.1338107605278
 30
0.0
 10
211.0601622670561
 20
104.1819677762771
 30
0.0
 10
211.0333532663899
 20
104.2332654889734
 30
0.0
 10
211.0110092022996
 20
104.2876547026845
 30
0.0
 10
210.9939151098474
 20
104.345506644561
 30
0.0
 10
210.9803751660856
 20
104.4062536979492
 30
0.0
 10
210.9757464735574
 20
104.4482444776975
 30
0.0
 10
210.9733955357106
 20
104.4695718207271
 30
0.0
  0
SPLINE
  5
122
330
1F
100
AcDbEntity
  8
0
  6
Continuous
 62
     7
370
     0
100
AcDbSpline
210
0.0
220
0.0
230
1.0
 70
     8
 71
     3
 72
    15
 73
    11
 74
     0
 42
0.00000001
 43
0.00000001
 12
1.0
 22
0.0
 32
0.0
 13
1.0
 23
0.0
 33
0.0
 40
0.0
 40
0.0
 40
0.0
 40
0.0
 40
0.1278926194654212
 40
0.2515785135038573
 40
0.3727928197023035
 40
0.4927776986078535
 40
0.6135900692425712
 40
0.7378086492801463
 40
0.8661799015391671
 40
0.9999999999999999
 40
0.9999999999999999
 40
0.9999999999999999
 40
0.9999999999999999
 10
212.1332548392421
 20
104.1394770153928
 30
0.0
 10
212.1171148826533
 20
104.1195766644677
 30
0.0
 10
212.0853658551989
 20
104.0804305376243
 30
0.0
 10
212.0303927607304
 20
104.0296212079771
 30
0.0
 10
211.9712959047708
 20
103.9864402703793
 30
0.0
 10
211.9077235947522
 20
103.9513588879594
 30
0.0
 10
211.8401026121659
 20
103.923168026519
 30
0.0
 10
211.7676022517776
 20
103.904408066786
 30
0.0
 10
211.6910985557166
 20
103.8918100107339
 30
0.0
 10
211.638577284056
 20
103.8906472308499
 30
0.0
 10
211.6117709011391
 20
103.8900537584942
 30
0.0
  0
SPLINE
  5
123
330
1F
100
AcDbEntity
  8
0
  6
Continuous
 62
     7
370
     0
100
AcDbSpline
210
0.0
220
0.0
230
1.0
 70
     8
 71
     3
 72
    27
 73
    23
 74
     0
 42
0.00000001
 43
0.00000001
 12
1.0
 22
0.0
 32
0.0
 13
1.0
 23
0.0
 33
0.0
 40
0.0
 40
0.0
 40
0.0
 40
0.0
 40
0.0467628351215619
 40
0.091968696607212
 40
0.1358043853805056
 40
0.1782315801839235
 40
0.2194414332265379
 40
0.2601769432685921
 40
0.3002796061140319
 40
0.3405476414666171
 40
0.3803111902076692
 40
0.4196419535698123
 40
0.4590173240985177
 40
0.4981819588897615
 40
0.5376702145628715
 40
0.5779133315743612
 40
0.6186488416164155
 40
0.6607616027603175
 40
0.7452991770631804
 40
0.8297447416906314
 40
0.9146020866092538
 40
1.0
 40
1.0
 40
1.0
 40
1.0
 10
207.5069884901669
 20
105.7603165957004
 30
0.0
 10
207.4888629124714
 20
105.760053611571
 30
0.0
 10
207.4532152501433
 20
105.7595363993972
 30
0.0
 10
207.4008445458271
 20
105.7538755695321
 30
0.0
 10
207.3505504543525
 20
105.7455377195285
 30
0.0
 10
207.302707815863
 20
105.7330343966856
 30
0.0
 10
207.2570548320243
 20
105.7174460045185
 30
0.0
 10
207.2138624156583
 20
105.6980356981012
 30
0.0
 10
207.1727631528169
 20
105.6752845421551
 30
0.0
 10
207.134215732212
 20
105.6490559132211
 30
0.0
 10
207.0985441100587
 20
105.6195698865516
 30
0.0
 10
207.0647802617793
 20
105.5883985428784
 30
0.0
 10
207.0345452266869
 20
105.5540881219198
 30
0.0
 10
207.0066860523498
 20
105.5177699741504
 30
0.0
 10
206.982013996963
 20
105.4788023315984
 30
0.0
 10
206.959805014134
 20
105.4377159807288
 30
0.0
 10
206.9402006691947
 20
105.3941741866494
 30
0.0
 10
206.9188306019908
 20
105.3328924094312
 30
0.0
 10
206.8970409542389
 20
105.2539628976444
 30
0.0
 10
206.8781384079432
 20
105.1573787577006
 30
0.0
 10
206.8660979316082
 20
105.0592729412323
 30
0.0
 10
206.8647578220912
 20
104.9932851810723
 30
0.0
 10
206.8640856398773
 20
104.9601865438675
 30
0.0
  0
SPLINE
  5
124
330
1F
100
AcDbEntity
  8
0
  6
Continuous
 62
     7
370
     0
100
AcDbSpline
210
0.0
220
0.0
230
1.0
 70
     8
 71
     3
 72
    23
 73
    19
 74
     0
 42
0.00000001
 43
0.00000001
 12
1.0
 22
0.0
 32
0.0
 13
1.0
 23
0.0
 33
0.0
 40
0.0
 40
0.0
 40
0.0
 40
0.0
 40
0.0772311103286299
 40
0.1511651795217243
 40
0.2207847057253998
 40
0.2871495176777696
 40
0.3506324812950841
 40
0.4113067715078916
 40
0.4699644151376497
 40
0.5267072266832779
 40
0.5824983333641278
 40
0.6385087274080254
 40
0.6949179812139082
 40
0.7524203526591543
 40
0.8112509754155086
 40
0.8718561089908092
 40
0.9346441878526853
 40
1.0
 40
1.0
 40
1.0
 40
1.0
 10
208.0231217643431
 20
105.3380257350108
 30
0.0
 10
208.0174313492672
 20
105.3557973885829
 30
0.0
 10
208.0062934462532
 20
105.3905820134729
 30
0.0
 10
207.9865170099457
 20
105.4401562858195
 30
0.0
 10
207.9651591181139
 20
105.48617740736
 30
0.0
 10
207.9417110082214
 20
105.5283325472028
 30
0.0
 10
207.9161218633076
 20
105.5666318027517
 30
0.0
 10
207.888980933401
 20
105.6015406445254
 30
0.0
 10
207.8596379490187
 20
105.6324074936482
 30
0.0
 10
207.8286897709841
 20
105.6599440629068
 30
0.0
 10
207.7953372264805
 20
105.6834025847668
 30
0.0
 10
207.7603622439889
 20
105.7041906956428
 30
0.0
 10
207.7230273764218
 20
105.7213896873797
 30
0.0
 10
207.6838697133486
 20
105.7359364813982
 30
0.0
 10
207.6425232522491
 20
105.7470081591008
 30
0.0
 10
207.5991563614236
 20
105.7547975211171
 30
0.0
 10
207.5537309376978
 20
105.7593056222309
 30
0.0
 10
207.5227760628107
 20
105.7599751326848
 30
0.0
 10
207.5069884901669
 20
105.7603165957004
 30
0.0
  0
LINE
  5
125
330
1F
100
AcDbEntity
  8
0
  6
Continuous
 62
     7
370
     0
100
AcDbLine
 10
208.3128807955
 20
105.4001757545
 30
0.0
 11
208.0231217643
 21
105.338025735
 31
0.0
  0
SPLINE
  5
126
330
1F
100
AcDbEntity
  8
0
  6
Continuous
 62
     7
370
     0
100
AcDbSpline
210
0.0
220
0.0
230
1.0
 70
     8
 71
     3
 72
    23
 73
    19
 74
     0
 42
0.00000001
 43
0.00000001
 12
1.0
 22
0.0
 32
0.0
 13
1.0
 23
0.0
 33
0.0
 40
0.0
 40
0.0
 40
0.0
 40
0.0
 40
0.0686494919759957
 40
0.134937373785155
 40
0.1988418982006104
 40
0.2614093284183097
 40
0.3225167637069052
 40
0.3823768656987784
 40
0.4424709047536874
 40
0.5022278334792912
 40
0.5621014330908561
 40
0.62173160809488
 40
0.6818513124344153
 40
0.7420491672939588
 40
0.8039081304743815
 40
0.8671621602461707
 40
0.9323605979385298
 40
1.0
 40
1.0
 40
1.0
 40
1.0
 10
207.5209825342833
 20
105.9973921666139
 30
0.0
 10
207.5455584278928
 20
105.9969289231786
 30
0.0
 10
207.593864780156
 20
105.9960183723385
 30
0.0
 10
207.6647457455777
 20
105.9885289120651
 30
0.0
 10
207.7326312038354
 20
105.9759848865193
 30
0.0
 10
207.7978153148356
 20
105.9595283112728
 30
0.0
 10
207.8596203715608
 20
105.9369958340995
 30
0.0
 10
207.9187173745966
 20
105.9102073084412
 30
0.0
 10
207.9745184257913
 20
105.8780241398426
 30
0.0
 10
208.0274577049339
 20
105.8413307799807
 30
0.0
 10
208.0766734418427
 20
105.8000595577224
 30
0.0
 10
208.1228543584584
 20
105.7551964312762
 30
0.0
 10
208.1641174396003
 20
105.7056201497478
 30
0.0
 10
208.2020969541274
 20
105.6525305474889
 30
0.0
 10
208.2355979398635
 20
105.5951914528892
 30
0.0
 10
208.2658528641887
 20
105.5341028012853
 30
0.0
 10
208.2918712185487
 20
105.4688104683986
 30
0.0
 10
208.3057923339118
 20
105.4233325525615
 30
0.0
 10
208.3128807954596
 20
105.400175754469
 30
0.0
  0
SPLINE
  5
127
330
1F
100
AcDbEntity
  8
0
  6
Continuous
 62
     7
370
     0
100
AcDbSpline
210
0.0
220
0.0
230
1.0
 70
     8
 71
     3
 72
    31
 73
    27
 74
     0
 42
0.00000001
 43
0.00000001
 12
1.0
 22
0.0
 32
0.0
 13
1.0
 23
0.0
 33
0.0
 40
0.0
 40
0.0
 40
0.0
 40
0.0
 40
0.0494014326173349
 40
0.0976047534771127
 40
0.1442547055445423
 40
0.1894721438466749
 40
0.2339150059350921
 40
0.2772371111508619
 40
0.3198588355644323
 40
0.3619566544332702
 40
0.4034857542265475
 40
0.4439336363338552
 40
0.4836491750513743
 40
0.5228932833172718
 40
0.5618583840947368
 40
0.6007948668981946
 40
0.6401043361891355
 40
0.6796434268265384
 40
0.7193997691904886
 40
0.7588541926680972
 40
0.7983154646830742
 40
0.8378024081343659
 40
0.8774685864444087
 40
0.9176827969423332
 40
0.9583928898538524
 40
0.9999999999999999
 40
0.9999999999999999
 40
0.9999999999999999
 40
0.9999999999999999
 10
206.5743266087609
 20
104.958951775269
 30
0.0
 10
206.5747914671351
 20
104.9850263110429
 30
0.0
 10
206.5757099098728
 20
105.0365430080577
 30
0.0
 10
206.5808945042308
 20
105.1125573898898
 30
0.0
 10
206.5904167248025
 20
105.1859205675447
 30
0.0
 10
206.6036403194815
 20
105.2566807977483
 30
0.0
 10
206.6203734569319
 20
105.3248953861207
 30
0.0
 10
206.6410286394085
 20
105.3905975665158
 30
0.0
 10
206.6653445797238
 20
105.4537032736969
 30
0.0
 10
206.6932471468168
 20
105.5142820943517
 30
0.0
 10
206.724921720387
 20
105.5716578090935
 30
0.0
 10
206.7594229440101
 20
105.6259119821484
 30
0.0
 10
206.7975738043583
 20
105.6761537841289
 30
0.0
 10
206.8382431851707
 20
105.7233430984982
 30
0.0
 10
206.8824468314881
 20
105.7666941702079
 30
0.0
 10
206.9300497648041
 20
105.806305199587
 30
0.0
 10
206.9806412872744
 20
105.8425374894241
 30
0.0
 10
207.0342140144453
 20
105.8750546737448
 30
0.0
 10
207.0900676883885
 20
105.9035868016519
 30
0.0
 10
207.1473727022891
 20
105.9290006165984
 30
0.0
 10
207.2063569825498
 20
105.9498306925173
 30
0.0
 10
207.2665528851362
 20
105.9671500632898
 30
0.0
 10
207.3280900063641
 20
105.9809378913178
 30
0.0
 10
207.3911121343948
 20
105.9901578549215
 30
0.0
 10
207.4555610357604
 20
105.9961662975549
 30
0.0
 10
207.499017518504
 20
105.9969805858059
 30
0.0
 10
207.5209825342833
 20
105.9973921666139
 30
0.0
  0
SPLINE
  5
128
330
1F
100
AcDbEntity
  8
0
  6
Continuous
 62
     7
370
     0
100
AcDbSpline
210
0.0
220
0.0
230
1.0
 70
     8
 71
     3
 72
    31
 73
    27
 74
     0
 42
0.00000001
 43
0.00000001
 12
1.0
 22
0.0
 32
0.0
 13
1.0
 23
0.0
 33
0.0
 40
0.0
 40
0.0
 40
0.0
 40
0.0
 40
0.0491959188678573
 40
0.0962478839423339
 40
0.1413486305545651
 40
0.18465611934875
 40
0.226058682310063
 40
0.2661730836384061
 40
0.3052898413966903
 40
0.3432450951047079
 40
0.3808772760868657
 40
0.4184957931350257
 40
0.4563187508918002
 40
0.494236737091876
 40
0.533023528957667
 40
0.572473194333944
 40
0.613078809089891
 40
0.6549344546107934
 40
0.6973967795046183
 40
0.7398840686663996
 40
0.7821947798191174
 40
0.8250615348667028
 40
0.8679874655774052
 40
0.9114105439600777
 40
0.9553719455228146
 40
1.0
 40
1.0
 40
1.0
 40
1.0
 10
207.5267447877431
 20
103.8900537584942
 30
0.0
 10
207.5001173979056
 20
103.8904406066576
 30
0.0
 10
207.448023037525
 20
103.8911974441757
 30
0.0
 10
207.3717078029464
 20
103.8973533594649
 30
0.0
 10
207.2991245210731
 20
103.9080298365343
 30
0.0
 10
207.2304087395317
 20
103.9228632734367
 30
0.0
 10
207.1653291691786
 20
103.9412038960259
 30
0.0
 10
207.1041556772534
 20
103.9642780244307
 30
0.0
 10
207.0469954112335
 20
103.9919191702871
 30
0.0
 10
206.9933715785468
 20
104.0233542967409
 30
0.0
 10
206.9435119378971
 20
104.0590660159478
 30
0.0
 10
206.8962826636422
 20
104.0980905656666
 30
0.0
 10
206.8528303255263
 20
104.1415022486378
 30
0.0
 10
206.8120684507479
 20
104.1882760747676
 30
0.0
 10
206.7748848477661
 20
104.2390290558052
 30
0.0
 10
206.7399115236983
 20
104.293071691186
 30
0.0
 10
206.7088555063427
 20
104.3513562098707
 30
0.0
 10
206.6805658836908
 20
104.4128020153963
 30
0.0
 10
206.6557354772252
 20
104.4768142019729
 30
0.0
 10
206.6337692527061
 20
104.5421283520985
 30
0.0
 10
206.6158106632972
 20
104.6088746112642
 30
0.0
 10
206.6003494766939
 20
104.6764913213046
 30
0.0
 10
206.5891176737906
 20
104.7455474303514
 30
0.0
 10
206.5801999700313
 20
104.8155248062562
 30
0.0
 10
206.5752968372142
 20
104.8868524708715
 30
0.0
 10
206.5746516366653
 20
104.9347984063017
 30
0.0
 10
206.5743266087609
 20
104.958951775269
 30
0.0
  0
SPLINE
  5
129
330
1F
100
AcDbEntity
  8
0
  6
Continuous
 62
     7
370
     0
100
AcDbSpline
210
0.0
220
0.0
230
1.0
 70
     8
 71
     3
 72
    23
 73
    19
 74
     0
 42
0.00000001
 43
0.00000001
 12
1.0
 22
0.0
 32
0.0
 13
1.0
 23
0.0
 33
0.0
 40
0.0
 40
0.0
 40
0.0
 40
0.0
 40
0.0715783870982365
 40
0.140016209075356
 40
0.206197439946981
 40
0.2701561038056543
 40
0.3320010402688309
 40
0.3927550109285565
 40
0.4525790344906381
 40
0.512252798847904
 40
0.5715322524285594
 40
0.630151752872219
 40
0.6887691695485556
 40
0.7481639008503594
 40
0.8087033721996509
 40
0.8702562984804197
 40
0.9339000275070017
 40
1.0
 40
1.0
 40
1.0
 40
1.0
 10
208.3655642556626
 20
104.5741155620674
 30
0.0
 10
208.3583049830861
 20
104.5469572530171
 30
0.0
 10
208.3441049449461
 20
104.4938322297764
 30
0.0
 10
208.3160297446352
 20
104.4178044409236
 30
0.0
 10
208.2845187753787
 20
104.3464556040685
 30
0.0
 10
208.2488074383745
 20
104.2799736647122
 30
0.0
 10
208.2085048763259
 20
104.2187408527196
 30
0.0
 10
208.1646789443067
 20
104.161970208334
 30
0.0
 10
208.1155937588495
 20
104.1108522656828
 30
0.0
 10
208.0630503140477
 20
104.0642072493341
 30
0.0
 10
208.00663950183
 20
104.0230664693794
 30
0.0
 10
207.9470414433183
 20
103.9875406511526
 30
0.0
 10
207.8845442227127
 20
103.9573153912634
 30
0.0
 10
207.8188952457303
 20
103.9324599934393
 30
0.0
 10
207.7500519515668
 20
103.9137541755348
 30
0.0
 10
207.6783688154638
 20
103.9001202795558
 30
0.0
 10
207.6036368141338
 20
103.891722593702
 30
0.0
 10
207.5526969194879
 20
103.8906170136613
 30
0.0
 10
207.5267447877431
 20
103.8900537584942
 30
0.0
  0
LINE
  5
12A
330
1F
100
AcDbEntity
  8
0
  6
Continuous
 62
     7
370
     0
100
AcDbLine
 10
208.0758052245
 20
104.6416162455
 30
0.0
 11
208.3655642557
 21
104.5741155621
 31
0.0
  0
SPLINE
  5
12B
330
1F
100
AcDbEntity
  8
0
  6
Continuous
 62
     7
370
     0
100
AcDbSpline
210
0.0
220
0.0
230
1.0
 70
     8
 71
     3
 72
    23
 73
    19
 74
     0
 42
0.00000001
 43
0.00000001
 12
1.0
 22
0.0
 32
0.0
 13
1.0
 23
0.0
 33
0.0
 40
0.0
 40
0.0
 40
0.0
 40
0.0
 40
0.0633358805656859
 40
0.1251107589802128
 40
0.1846884118917139
 40
0.2432104439678636
 40
0.3008880404131166
 40
0.358370115531299
 40
0.4157614077031932
 40
0.4743866229897766
 40
0.533966264972407
 40
0.5940075641988068
 40
0.6550724073076795
 40
0.7186100426051375
 40
0.7843747830517759
 40
0.8529914722129185
 40
0.9249004292977553
 40
0.9999999999999999
 40
0.9999999999999999
 40
0.9999999999999999
 40
0.9999999999999999
 10
207.4995798785759
 20
104.1271293294077
 30
0.0
 10
207.5174359841099
 20
104.1275038094995
 30
0.0
 10
207.5527081062597
 20
104.1282435400928
 30
0.0
 10
207.6044215160428
 20
104.1347184435843
 30
0.0
 10
207.6542725301634
 20
104.1442600608024
 30
0.0
 10
207.7016572105534
 20
104.1589837396663
 30
0.0
 10
207.7472129347312
 20
104.1770111593695
 30
0.0
 10
207.7905664515735
 20
104.1992421206784
 30
0.0
 10
207.8315814209853
 20
104.2259794786335
 30
0.0
 10
207.8707402691578
 20
104.2563372371381
 30
0.0
 10
207.9073208723309
 20
104.2908791785986
 30
0.0
 10
207.9408450285751
 20
104.3293270163659
 30
0.0
 10
207.9709199844224
 20
104.3718560285024
 30
0.0
 10
207.998807036693
 20
104.4177836864473
 30
0.0
 10
208.0222372859721
 20
104.4684820189815
 30
0.0
 10
208.0439392291325
 20
104.5224399319828
 30
0.0
 10
208.0620228558842
 20
104.5805442716956
 30
0.0
 10
208.0711451064468
 20
104.6209664850778
 30
0.0
 10
208.0758052245461
 20
104.6416162454525
 30
0.0
  0
SPLINE
  5
12C
330
1F
100
AcDbEntity
  8
0
  6
Continuous
 62
     7
370
     0
100
AcDbSpline
210
0.0
220
0.0
230
1.0
 70
     8
 71
     3
 72
    27
 73
    23
 74
     0
 42
0.00000001
 43
0.00000001
 12
1.0
 22
0.0
 32
0.0
 13
1.0
 23
0.0
 33
0.0
 40
0.0
 40
0.0
 40
0.0
 40
0.0
 40
0.1053432609984026
 40
0.2043754661654296
 40
0.2980686612490644
 40
0.3870699389029766
 40
0.4297257277325169
 40
0.4709012389537418
 40
0.5111216710274202
 40
0.5501787824700682
 40
0.5883543698960263
 40
0.6266830105708967
 40
0.6644516852874769
 40
0.7025148539501567
 40
0.7404811716294024
 40
0.777618121594641
 40
0.8147160450669567
 40
0.8515265100150813
 40
0.8880984508373161
 40
0.9251116757437154
 40
0.9621036957071507
 40
1.0
 40
1.0
 40
1.0
 40
1.0
 10
206.8640856398773
 20
104.9601865438675
 30
0.0
 10
206.8648437660138
 20
104.918570546639
 30
0.0
 10
206.866314599374
 20
104.8378317432936
 30
0.0
 10
206.8808281094749
 20
104.720827880828
 30
0.0
 10
206.9029559458552
 20
104.611694771135
 30
0.0
 10
206.9296610563804
 20
104.526549200893
 30
0.0
 10
206.9564489654097
 20
104.4637442251431
 30
0.0
 10
206.9781136802676
 20
104.4197609948682
 30
0.0
 10
207.0028430879846
 20
104.379061047322
 30
0.0
 10
207.0300220780584
 20
104.3414132425485
 30
0.0
 10
207.0600007444078
 20
104.3069273980842
 30
0.0
 10
207.0923614235182
 20
104.2754203226998
 30
0.0
 10
207.1271113438829
 20
104.2465888441529
 30
0.0
 10
207.1646622597931
 20
104.2217826163491
 30
0.0
 10
207.2035687892881
 20
104.1997568491225
 30
0.0
 10
207.243339963314
 20
104.1801711162857
 30
0.0
 10
207.2840008222383
 20
104.1636063702996
 30
0.0
 10
207.3257154154538
 20
104.1507385392005
 30
0.0
 10
207.3678979584832
 20
104.1396189441638
 30
0.0
 10
207.4110130485656
 20
104.1323551028001
 30
0.0
 10
207.4550483909535
 20
104.1282556195891
 30
0.0
 10
207.4846170345495
 20
104.1275077695904
 30
0.0
 10
207.4995798785759
 20
104.1271293294077
 30
0.0
  0
SPLINE
  5
12D
330
1F
100
AcDbEntity
  8
0
  6
Continuous
 62
     7
370
     0
100
AcDbSpline
210
0.0
220
0.0
230
1.0
 70
     8
 71
     3
 72
    23
 73
    19
 74
     0
 42
0.00000001
 43
0.00000001
 12
1.0
 22
0.0
 32
0.0
 13
1.0
 23
0.0
 33
0.0
 40
0.0
 40
0.0
 40
0.0
 40
0.0
 40
0.0704642259291749
 40
0.137956965604269
 40
0.2035785636142838
 40
0.2676916802449431
 40
0.3301858648593746
 40
0.3915337640898202
 40
0.4526637734870348
 40
0.5131537880892133
 40
0.5734535531000283
 40
0.6329675593891928
 40
0.6923319074206212
 40
0.75147419157163
 40
0.8121874455294295
 40
0.872961717848316
 40
0.935420306759491
 40
1.0
 40
1.0
 40
1.0
 40
1.0
 10
222.1237675697672
 20
108.1574140349365
 30
0.0
 10
222.1389257544657
 20
108.1526688730739
 30
0.0
 10
222.1686029010956
 20
108.1433786534875
 30
0.0
 10
222.2112668823748
 20
108.1263788546864
 30
0.0
 10
222.2513153309689
 20
108.1070221508261
 30
0.0
 10
222.2888354212948
 20
108.0852767333681
 30
0.0
 10
222.3235736348477
 20
108.0609412290354
 30
0.0
 10
222.3554319533173
 20
108.0339777001091
 30
0.0
 10
222.384631268519
 20
108.0048034001732
 30
0.0
 10
222.4111194130132
 20
107.9734360756022
 30
0.0
 10
222.4343864689791
 20
107.9400775818237
 30
0.0
 10
222.4552541115451
 20
107.9054570037675
 30
0.0
 10
222.4724857030319
 20
107.8691574333814
 30
0.0
 10
222.4866098110729
 20
107.8312731134333
 30
0.0
 10
222.4976287151275
 20
107.7920381359648
 30
0.0
 10
222.5055414876699
 20
107.7513015962371
 30
0.0
 10
222.5100515659987
 20
107.7091583165255
 30
0.0
 10
222.5107289653601
 20
107.6805295282417
 30
0.0
 10
222.5110733201658
 20
107.6659761327305
 30
0.0
  0
SPLINE
  5
12E
330
1F
100
AcDbEntity
  8
0
  6
Continuous
 62
     7
370
     0
100
AcDbSpline
210
0.0
220
0.0
230
1.0
 70
     8
 71
     3
 72
    15
 73
    11
 74
     0
 42
0.00000001
 43
0.00000001
 12
1.0
 22
0.0
 32
0.0
 13
1.0
 23
0.0
 33
0.0
 40
0.0
 40
0.0
 40
0.0
 40
0.0
 40
0.1158426906010177
 40
0.2305685484828844
 40
0.3473546045205441
 40
0.4682527467344622
 40
0.5923025714800838
 40
0.7199701656206967
 40
0.8556003811349103
 40
1.0
 40
1.0
 40
1.0
 40
1.0
 10
222.4320481298613
 20
108.5994611932023
 30
0.0
 10
222.4310894331628
 20
108.5774278135498
 30
0.0
 10
222.4291812825057
 20
108.5335734767911
 30
0.0
 10
222.413994538147
 20
108.4689733714223
 30
0.0
 10
222.3900252093141
 20
108.4062470713413
 30
0.0
 10
222.3561318997594
 20
108.3461571394862
 30
0.0
 10
222.312812001744
 20
108.2898029074935
 30
0.0
 10
222.2591076987734
 20
108.2390910820691
 30
0.0
 10
222.195790716796
 20
108.1939129819766
 30
0.0
 10
222.1482713239269
 20
108.1698317265017
 30
0.0
 10
222.1237675697672
 20
108.1574140349365
 30
0.0
  0
SPLINE
  5
12F
330
1F
100
AcDbEntity
  8
0
  6
Continuous
 62
     7
370
     0
100
AcDbSpline
210
0.0
220
0.0
230
1.0
 70
     8
 71
     3
 72
    23
 73
    19
 74
     0
 42
0.00000001
 43
0.00000001
 12
1.0
 22
0.0
 32
0.0
 13
1.0
 23
0.0
 33
0.0
 40
0.0
 40
0.0
 40
0.0
 40
0.0
 40
0.0587320371008649
 40
0.1146029008469815
 40
0.1676568100446119
 40
0.2179667070908431
 40
0.2657752056293755
 40
0.3111706510536958
 40
0.3537918046646693
 40
0.3947449080003065
 40
0.472805951082463
 40
0.549192366561607
 40
0.6247801075795548
 40
0.7026247640242256
 40
0.7797414321940388
 40
0.8540634639886252
 40
0.92715526641035
 40
0.9999999999999999
 40
0.9999999999999999
 40
0.9999999999999999
 40
0.9999999999999999
 10
221.7525138111493
 20
109.1320580486919
 30
0.0
 10
221.7715902076186
 20
109.131984867034
 30
0.0
 10
221.8088136802071
 20
109.1318420688153
 30
0.0
 10
221.8631676473243
 20
109.1282708332231
 30
0.0
 10
221.9146449129514
 20
109.1233861235543
 30
0.0
 10
221.9633562956934
 20
109.1170895829932
 30
0.0
 10
222.0090910219191
 20
109.1079534304999
 30
0.0
 10
222.0518064720646
 20
109.0968855924796
 30
0.0
 10
222.0917249363862
 20
109.0841191988978
 30
0.0
 10
222.1405191760072
 20
109.064671846365
 30
0.0
 10
222.1967491876254
 20
109.0347382370484
 30
0.0
 10
222.2569768718924
 20
108.9900725685315
 30
0.0
 10
222.3093772972021
 20
108.9364451226901
 30
0.0
 10
222.3524951411957
 20
108.874958219354
 30
0.0
 10
222.3880195943252
 20
108.8092786103744
 30
0.0
 10
222.4132060157134
 20
108.7406575546649
 30
0.0
 10
222.4293090590666
 20
108.6705890998226
 30
0.0
 10
222.431136137337
 20
108.6231437205868
 30
0.0
 10
222.4320481298613
 20
108.5994611932023
 30
0.0
  0
LINE
  5
130
330
1F
100
AcDbEntity
  8
0
  6
Continuous
 62
     7
370
     0
100
AcDbLine
 10
220.9832529743
 20
109.1320580487
 30
0.0
 11
221.7525138111
 21
109.1320580487
 31
0.0
  0
LINE
  5
131
330
1F
100
AcDbEntity
  8
0
  6
Continuous
 62
     7
370
     0
100
AcDbLine
 10
220.9832529743
 20
107.0774031008
 30
0.0
 11
220.9832529743
 21
109.1320580487
 31
0.0
  0
LINE
  5
132
330
1F
100
AcDbEntity
  8
0
  6
Continuous
 62
     7
370
     0
100
AcDbLine
 10
221.7545717588
 20
107.0774031008
 30
0.0
 11
220.9832529743
 21
107.0774031008
 31
0.0
  0
SPLINE
  5
133
330
1F
100
AcDbEntity
  8
0
  6
Continuous
 62
     7
370
     0
100
AcDbSpline
210
0.0
220
0.0
230
1.0
 70
     8
 71
     3
 72
    23
 73
    19
 74
     0
 42
0.00000001
 43
0.00000001
 12
1.0
 22
0.0
 32
0.0
 13
1.0
 23
0.0
 33
0.0
 40
0.0
 40
0.0
 40
0.0
 40
0.0
 40
0.0642545754247028
 40
0.1273603868320974
 40
0.1894718420926419
 40
0.2517207629332009
 40
0.3120272840890018
 40
0.3686746571150508
 40
0.4226814918055488
 40
0.4740604252251504
 40
0.525773772273917
 40
0.5796221048577136
 40
0.6373752855308656
 40
0.698400381820801
 40
0.7643573310122576
 40
0.8363147679791493
 40
0.9146777942540475
 40
1.0
 40
1.0
 40
1.0
 40
1.0
 10
222.5110733201658
 20
107.6659761327305
 30
0.0
 10
222.5103635524056
 20
107.6426108598566
 30
0.0
 10
222.5089567063422
 20
107.5962980459909
 30
0.0
 10
222.4976581640767
 20
107.5281333723433
 30
0.0
 10
222.4785642267107
 20
107.4625647012774
 30
0.0
 10
222.4522830457857
 20
107.4006521989655
 30
0.0
 10
222.4209679608108
 20
107.3434049754502
 30
0.0
 10
222.3853772695772
 20
107.2923219496829
 30
0.0
 10
222.3464186083557
 20
107.2479287624772
 30
0.0
 10
222.3029949412916
 20
107.210586157125
 30
0.0
 10
222.2553863696673
 20
107.1788932130809
 30
0.0
 10
222.202248225979
 20
107.1522056815507
 30
0.0
 10
222.1439913647435
 20
107.1286698362814
 30
0.0
 10
222.079431747748
 20
107.1098685342617
 30
0.0
 10
222.0085987623811
 20
107.094932804444
 30
0.0
 10
221.930531140106
 20
107.0852290364614
 30
0.0
 10
221.845108941778
 20
107.078282439442
 30
0.0
 10
221.7855942544539
 20
107.0777044054885
 30
0.0
 10
221.7545717588134
 20
107.0774031007752
 30
0.0
  0
LINE
  5
134
330
1F
100
AcDbEntity
  8
0
  6
Continuous
 62
     7
370
     0
100
AcDbLine
 10
217.795903632
 20
107.3144786717
 30
0.0
 11
218.7705476458
 21
107.3144786717
 31
0.0
  0
LINE
  5
135
330
1F
100
AcDbEntity
  8
0
  6
Continuous
 62
     7
370
     0
100
AcDbLine
 10
217.795903632
 20
109.1320580487
 30
0.0
 11
217.795903632
 21
107.3144786717
 31
0.0
  0
LINE
  5
136
330
1F
100
AcDbEntity
  8
0
  6
Continuous
 62
     7
370
     0
100
AcDbLine
 10
217.5061446009
 20
109.1320580487
 30
0.0
 11
217.795903632
 21
109.1320580487
 31
0.0
  0
LINE
  5
137
330
1F
100
AcDbEntity
  8
0
  6
Continuous
 62
     7
370
     0
100
AcDbLine
 10
217.5061446009
 20
107.0774031008
 30
0.0
 11
217.5061446009
 21
109.1320580487
 31
0.0
  0
LINE
  5
138
330
1F
100
AcDbEntity
  8
0
  6
Continuous
 62
     7
370
     0
100
AcDbLine
 10
218.7705476458
 20
107.0774031008
 30
0.0
 11
217.5061446009
 21
107.0774031008
 31
0.0
  0
LINE
  5
139
330
1F
100
AcDbEntity
  8
0
  6
Continuous
 62
     7
370
     0
100
AcDbLine
 10
218.7705476458
 20
107.3144786717
 30
0.0
 11
218.7705476458
 21
107.0774031008
 31
0.0
  0
SPLINE
  5
13A
330
1F
100
AcDbEntity
  8
0
  6
Continuous
 62
     7
370
     0
100
AcDbSpline
210
0.0
220
0.0
230
1.0
 70
     8
 71
     3
 72
    31
 73
    27
 74
     0
 42
0.00000001
 43
0.00000001
 12
1.0
 22
0.0
 32
0.0
 13
1.0
 23
0.0
 33
0.0
 40
0.0
 40
0.0
 40
0.0
 40
0.0
 40
0.0430989705688968
 40
0.0855867603450731
 40
0.1269076657436391
 40
0.1679674856215208
 40
0.208449558601066
 40
0.2490254246415441
 40
0.289280534171679
 40
0.3300098489827308
 40
0.370597724099577
 40
0.4104659863326995
 40
0.4500332158929483
 40
0.4896882096042475
 40
0.5291164230741915
 40
0.5690368070925096
 40
0.6097030542359448
 40
0.6507589174942197
 40
0.6925092624061777
 40
0.7342191213706863
 40
0.7767069111468624
 40
0.8195518402403216
 40
0.8633507288313336
 40
0.9078385251300618
 40
0.9533337036124183
 40
1.0
 40
1.0
 40
1.0
 40
1.0
 10
214.1092961863871
 20
109.1583997787934
 30
0.0
 10
214.1324939113973
 20
109.1579947028432
 30
0.0
 10
214.178560397552
 20
109.1571902952711
 30
0.0
 10
214.2466655858724
 20
109.1510698279184
 30
0.0
 10
214.3130207103772
 20
109.1401458540039
 30
0.0
 10
214.377560427902
 20
109.1255065039528
 30
0.0
 10
214.4404604159509
 20
109.1063003133173
 30
0.0
 10
214.5017582372163
 20
109.0836279896956
 30
0.0
 10
214.5609172977658
 20
109.0555337882821
 30
0.0
 10
214.6183311670588
 20
109.0240795341322
 30
0.0
 10
214.6733221168922
 20
108.988896590804
 30
0.0
 10
214.7250024738518
 20
108.9500300647042
 30
0.0
 10
214.7732484471511
 20
108.9077739016495
 30
0.0
 10
214.818708111075
 20
108.8628226777869
 30
0.0
 10
214.8598645406296
 20
108.8136593520486
 30
0.0
 10
214.8984180125655
 20
108.7617815235657
 30
0.0
 10
214.9332606702271
 20
108.7062693143733
 30
0.0
 10
214.964516143029
 20
108.6475775530411
 30
0.0
 10
214.9924617118791
 20
108.5866127230865
 30
0.0
 10
215.0163465969054
 20
108.5231221501244
 30
0.0
 10
215.0368561118521
 20
108.4578674480032
 30
0.0
 10
215.0540243061742
 20
108.3904623785965
 30
0.0
 10
215.06634294881
 20
108.320929985584
 30
0.0
 10
215.0761524171277
 20
108.2495698771771
 30
0.0
 10
215.0813154113199
 20
108.176148824539
 30
0.0
 10
215.0822381828431
 20
108.1265515951127
 30
0.0
 10
215.082705431544
 20
108.1014378584709
 30
0.0
  0
SPLINE
  5
13B
330
1F
100
AcDbEntity
  8
0
  6
Continuous
 62
     7
370
     0
100
AcDbSpline
210
0.0
220
0.0
230
1.0
 70
     8
 71
     3
 72
    23
 73
    19
 74
     0
 42
0.00000001
 43
0.00000001
 12
1.0
 22
0.0
 32
0.0
 13
1.0
 23
0.0
 33
0.0
 40
0.0
 40
0.0
 40
0.0
 40
0.0
 40
0.0752263466908988
 40
0.1465747215268522
 40
0.2145002518264754
 40
0.2795299716530227
 40
0.3424029515883814
 40
0.4034960527288082
 40
0.4637616065030392
 40
0.5238643590795866
 40
0.5832517242549664
 40
0.6413020392831351
 40
0.6988977748564887
 40
0.7562952438113087
 40
0.814627804812969
 40
0.874324768339998
 40
0.9357832838625453
 40
1.0
 40
1.0
 40
1.0
 40
1.0
 10
213.1334174040333
 20
108.0775656655664
 30
0.0
 10
213.1341315230273
 20
108.118759726332
 30
0.0
 10
213.1355229476715
 20
108.1990242646339
 30
0.0
 10
213.1485237780058
 20
108.3158997747459
 30
0.0
 10
213.1696337894531
 20
108.4258643415835
 30
0.0
 10
213.1998124187502
 20
108.5289093981276
 30
0.0
 10
213.2380639181112
 20
108.6251964166789
 30
0.0
 10
213.2845659227512
 20
108.7149434244636
 30
0.0
 10
213.3407171822253
 20
108.7971345499653
 30
0.0
 10
213.4042385655038
 20
108.8725521993003
 30
0.0
 10
213.4751890330187
 20
108.9392269291338
 30
0.0
 10
213.5507311149232
 20
108.9984436418033
 30
0.0
 10
213.6318080948495
 20
109.0478373810676
 30
0.0
 10
213.7176708837225
 20
109.0886203258999
 30
0.0
 10
213.8086842754875
 20
109.1199322899873
 30
0.0
 10
213.904592732198
 20
109.1418535140121
 30
0.0
 10
214.0052936803943
 20
109.1559948337684
 30
0.0
 10
214.0741251352584
 20
109.1575864864248
 30
0.0
 10
214.1092961863871
 20
109.1583997787934
 30
0.0
  0
SPLINE
  5
13C
330
1F
100
AcDbEntity
  8
0
  6
Continuous
 62
     7
370
     0
100
AcDbSpline
210
0.0
220
0.0
230
1.0
 70
     8
 71
     3
 72
    31
 73
    27
 74
     0
 42
0.00000001
 43
0.00000001
 12
1.0
 22
0.0
 32
0.0
 13
1.0
 23
0.0
 33
0.0
 40
0.0
 40
0.0
 40
0.0
 40
0.0
 40
0.0446969998899171
 40
0.0885335629185875
 40
0.1314091332352275
 40
0.1738139421467784
 40
0.2157145332694449
 40
0.2572471603264208
 40
0.2988479641797117
 40
0.3406041827148143
 40
0.3820294481091344
 40
0.4229697500404858
 40
0.4636322295306197
 40
0.5040475437003945
 40
0.5445912057564576
 40
0.5849639251690937
 40
0.6262652162680831
 40
0.6679794005009905
 40
0.7099427472053506
 40
0.7513818550852256
 40
0.7926185649779642
 40
0.8339484357458206
 40
0.8750080506311037
 40
0.9164455302232757
 40
0.957906613728307
 40
1.0
 40
1.0
 40
1.0
 40
1.0
 10
214.1080614177886
 20
107.0510613706737
 30
0.0
 10
214.0844468597911
 20
107.0514107509853
 30
0.0
 10
214.0376723343996
 20
107.052102785884
 30
0.0
 10
213.9685383261261
 20
107.0590104738139
 30
0.0
 10
213.901124263321
 20
107.0695483923768
 30
0.0
 10
213.8356261306638
 20
107.0847619631384
 30
0.0
 10
213.772133428754
 20
107.1046091410945
 30
0.0
 10
213.7105710311942
 20
107.1286315373034
 30
0.0
 10
213.6507224165344
 20
107.1565080998894
 30
0.0
 10
213.5933302070382
 20
107.1890370261217
 30
0.0
 10
213.5385897423499
 20
107.2252056954992
 30
0.0
 10
213.4870315868198
 20
107.2648343151581
 30
0.0
 10
213.4386842502174
 20
107.3075576721969
 30
0.0
 10
213.3943235093775
 20
107.3540819327311
 30
0.0
 10
213.3525126595667
 20
107.4027205742668
 30
0.0
 10
213.314923486399
 20
107.4552814649583
 30
0.0
 10
213.2803283861374
 20
107.5105725788261
 30
0.0
 10
213.2497510844993
 20
107.5691268982611
 30
0.0
 10
213.2221290684212
 20
107.6292044108982
 30
0.0
 10
213.1988569232354
 20
107.6908243339141
 30
0.0
 10
213.1784052179108
 20
107.7530785534359
 30
0.0
 10
213.1621175048508
 20
107.8163507784414
 30
0.0
 10
213.1491381795974
 20
107.88049505432
 30
0.0
 10
213.1404105239113
 20
107.9454046472369
 30
0.0
 10
213.1341073446129
 20
108.0111762289867
 30
0.0
 10
213.1336485415651
 20
108.0553244886279
 30
0.0
 10
213.1334174040333
 20
108.0775656655664
 30
0.0
  0
SPLINE
  5
13D
330
1F
100
AcDbEntity
  8
0
  6
Continuous
 62
     7
370
     0
100
AcDbSpline
210
0.0
220
0.0
230
1.0
 70
     8
 71
     3
 72
    31
 73
    27
 74
     0
 42
0.00000001
 43
0.00000001
 12
1.0
 22
0.0
 32
0.0
 13
1.0
 23
0.0
 33
0.0
 40
0.0
 40
0.0
 40
0.0
 40
0.0
 40
0.0475595569054264
 40
0.0939621052432108
 40
0.1391115332408221
 40
0.1836263101269046
 40
0.2274570284004936
 40
0.2707025105518545
 40
0.3136105321155538
 40
0.3562604510849769
 40
0.3983661529550377
 40
0.4395565149792806
 40
0.4800453830214204
 40
0.5198884957050127
 40
0.5596577503171976
 40
0.5994212546627414
 40
0.6392077550883982
 40
0.6796683749857806
 40
0.7200198525128486
 40
0.7598588655624579
 40
0.7995598848323808
 40
0.8391991446364383
 40
0.8789560762302792
 40
0.918794269302466
 40
0.9590833628432752
 40
1.0
 40
1.0
 40
1.0
 40
1.0
 10
215.082705431544
 20
108.1014378584709
 30
0.0
 10
215.0822773299924
 20
108.0759099957508
 30
0.0
 10
215.0814315415607
 20
108.0254753012412
 30
0.0
 10
215.0757085909451
 20
107.9509678264671
 30
0.0
 10
215.0656456545607
 20
107.8785993067678
 30
0.0
 10
215.0522988827492
 20
107.8081539523063
 30
0.0
 10
215.0344146159925
 20
107.739778415657
 30
0.0
 10
215.0131619132577
 20
107.6732766599668
 30
0.0
 10
214.9874555685965
 20
107.6090447829708
 30
0.0
 10
214.9584231063452
 20
107.546927972548
 30
0.0
 10
214.9255728876186
 20
107.4877805504077
 30
0.0
 10
214.8893368673316
 20
107.4320161032317
 30
0.0
 10
214.8496893745923
 20
107.3801562633584
 30
0.0
 10
214.8072326502157
 20
107.331564842925
 30
0.0
 10
214.7609752172324
 20
107.287110747414
 30
0.0
 10
214.711486672695
 20
107.246378298412
 30
0.0
 10
214.6589572997808
 20
107.2089833426371
 30
0.0
 10
214.6032106265075
 20
107.1759386524339
 30
0.0
 10
214.5452471029632
 20
107.1469738011307
 30
0.0
 10
214.4862137358999
 20
107.121276759664
 30
0.0
 10
214.4260666740145
 20
107.0993613000992
 30
0.0
 10
214.3646003530672
 20
107.0816009983829
 30
0.0
 10
214.3019824471472
 20
107.0681800360632
 30
0.0
 10
214.2383891704856
 20
107.0581302779196
 30
0.0
 10
214.1736120555107
 20
107.0523435926702
 30
0.0
 10
214.1300239108699
 20
107.0514909743008
 30
0.0
 10
214.1080614177886
 20
107.0510613706737
 30
0.0
  0
LINE
  5
13E
330
1F
100
AcDbEntity
  8
0
  6
Continuous
 62
     7
370
     0
100
AcDbLine
 10
210.8680286153
 20
108.8949824778
 30
0.0
 11
210.2094853628
 21
108.8949824778
 31
0.0
  0
LINE
  5
13F
330
1F
100
AcDbEntity
  8
0
  6
Continuous
 62
     7
370
     0
100
AcDbLine
 10
210.8680286153
 20
109.1320580487
 30
0.0
 11
210.8680286153
 21
108.8949824778
 31
0.0
  0
LINE
  5
140
330
1F
100
AcDbEntity
  8
0
  6
Continuous
 62
     7
370
     0
100
AcDbLine
 10
209.2611830791
 20
109.1320580487
 30
0.0
 11
210.8680286153
 21
109.1320580487
 31
0.0
  0
LINE
  5
141
330
1F
100
AcDbEntity
  8
0
  6
Continuous
 62
     7
370
     0
100
AcDbLine
 10
209.2611830791
 20
108.8949824778
 30
0.0
 11
209.2611830791
 21
109.1320580487
 31
0.0
  0
LINE
  5
142
330
1F
100
AcDbEntity
  8
0
  6
Continuous
 62
     7
370
     0
100
AcDbLine
 10
209.9197263317
 20
108.8949824778
 30
0.0
 11
209.2611830791
 21
108.8949824778
 31
0.0
  0
LINE
  5
143
330
1F
100
AcDbEntity
  8
0
  6
Continuous
 62
     7
370
     0
100
AcDbLine
 10
209.9197263317
 20
107.0774031008
 30
0.0
 11
209.9197263317
 21
108.8949824778
 31
0.0
  0
LINE
  5
144
330
1F
100
AcDbEntity
  8
0
  6
Continuous
 62
     7
370
     0
100
AcDbLine
 10
210.2094853628
 20
107.0774031008
 30
0.0
 11
209.9197263317
 21
107.0774031008
 31
0.0
  0
LINE
  5
145
330
1F
100
AcDbEntity
  8
0
  6
Continuous
 62
     7
370
     0
100
AcDbLine
 10
210.2094853628
 20
108.8949824778
 30
0.0
 11
210.2094853628
 21
107.0774031008
 31
0.0
  0
CIRCLE
  5
146
330
1F
100
AcDbEntity
  8
0
  6
Continuous
 62
     7
370
     0
100
AcDbCircle
 10
216.8607722134
 20
106.5274031008
 30
0.0
 40
25.20000000000002
  0
LINE
  5
147
330
1F
100
AcDbEntity
  8
0
  6
Continuous
 62
     7
370
     0
100
AcDbLine
 10
212.4748741515
 20
108.0520471145
 30
0.0
 11
211.4738884076
 21
108.0520471145
 31
0.0
  0
LINE
  5
148
330
1F
100
AcDbEntity
  8
0
  6
Continuous
 62
     7
370
     0
100
AcDbLine
 10
212.4748741515
 20
107.0774031008
 30
0.0
 11
212.4748741515
 21
108.0520471145
 31
0.0
  0
LINE
  5
149
330
1F
100
AcDbEntity
  8
0
  6
Continuous
 62
     7
370
     0
100
AcDbLine
 10
212.7646331826
 20
107.0774031008
 30
0.0
 11
212.4748741515
 21
107.0774031008
 31
0.0
  0
LINE
  5
14A
330
1F
100
AcDbEntity
  8
0
  6
Continuous
 62
     7
370
     0
100
AcDbLine
 10
212.7646331826
 20
109.1320580487
 30
0.0
 11
212.7646331826
 21
107.0774031008
 31
0.0
  0
LINE
  5
14B
330
1F
100
AcDbEntity
  8
0
  6
Continuous
 62
     7
370
     0
100
AcDbLine
 10
212.4748741515
 20
109.1320580487
 30
0.0
 11
212.7646331826
 21
109.1320580487
 31
0.0
  0
LINE
  5
14C
330
1F
100
AcDbEntity
  8
0
  6
Continuous
 62
     7
370
     0
100
AcDbLine
 10
212.4748741515
 20
108.2891226854
 30
0.0
 11
212.4748741515
 21
109.1320580487
 31
0.0
  0
LINE
  5
14D
330
1F
100
AcDbEntity
  8
0
  6
Continuous
 62
     7
370
     0
100
AcDbLine
 10
211.4738884076
 20
108.2891226854
 30
0.0
 11
212.4748741515
 21
108.2891226854
 31
0.0
  0
LINE
  5
14E
330
1F
100
AcDbEntity
  8
0
  6
Continuous
 62
     7
370
     0
100
AcDbLine
 10
211.4738884076
 20
109.1320580487
 30
0.0
 11
211.4738884076
 21
108.2891226854
 31
0.0
  0
LINE
  5
14F
330
1F
100
AcDbEntity
  8
0
  6
Continuous
 62
     7
370
     0
100
AcDbLine
 10
211.1841293765
 20
109.1320580487
 30
0.0
 11
211.4738884076
 21
109.1320580487
 31
0.0
  0
LINE
  5
150
330
1F
100
AcDbEntity
  8
0
  6
Continuous
 62
     7
370
     0
100
AcDbLine
 10
211.1841293765
 20
107.0774031008
 30
0.0
 11
211.1841293765
 21
109.1320580487
 31
0.0
  0
LINE
  5
151
330
1F
100
AcDbEntity
  8
0
  6
Continuous
 62
     7
370
     0
100
AcDbLine
 10
211.4738884076
 20
107.0774031008
 30
0.0
 11
211.1841293765
 21
107.0774031008
 31
0.0
  0
LINE
  5
152
330
1F
100
AcDbEntity
  8
0
  6
Continuous
 62
     7
370
     0
100
AcDbLine
 10
211.4738884076
 20
108.0520471145
 30
0.0
 11
211.4738884076
 21
107.0774031008
 31
0.0
  0
LINE
  5
153
330
1F
100
AcDbEntity
  8
0
  6
Continuous
 62
     7
370
     0
100
AcDbLine
 10
216.0380047373
 20
107.9993636543
 30
0.0
 11
215.7412486841
 21
107.9993636543
 31
0.0
  0
SPLINE
  5
154
330
1F
100
AcDbEntity
  8
0
  6
Continuous
 62
     7
370
     0
100
AcDbSpline
210
0.0
220
0.0
230
1.0
 70
     8
 71
     3
 72
    11
 73
     7
 74
     0
 42
0.00000001
 43
0.00000001
 12
1.0
 22
0.0
 32
0.0
 13
1.0
 23
0.0
 33
0.0
 40
0.0
 40
0.0
 40
0.0
 40
0.0
 40
0.1774946570818496
 40
0.4052256231013751
 40
0.6783881083348569
 40
0.9999999999999999
 40
0.9999999999999999
 40
0.9999999999999999
 40
0.9999999999999999
 10
216.1808263051501
 20
107.9898970950723
 30
0.0
 10
216.1724747244982
 20
107.9914031689015
 30
0.0
 10
216.1534078155041
 20
107.9948415806031
 30
0.0
 10
216.121032251611
 20
107.9970872127673
 30
0.0
 10
216.0818052840658
 20
107.9994706508735
 30
0.0
 10
216.0533768321888
 20
107.9994012054812
 30
0.0
 10
216.038004737256
 20
107.9993636543276
 30
0.0
  0
SPLINE
  5
155
330
1F
100
AcDbEntity
  8
0
  6
Continuous
 62
     7
370
     0
100
AcDbSpline
210
0.0
220
0.0
230
1.0
 70
     8
 71
     3
 72
    21
 73
    17
 74
     0
 42
0.00000001
 43
0.00000001
 12
1.0
 22
0.0
 32
0.0
 13
1.0
 23
0.0
 33
0.0
 40
0.0
 40
0.0
 40
0.0
 40
0.0
 40
0.0807814705861227
 40
0.1565412257955895
 40
0.227934986843486
 40
0.2943103173046012
 40
0.3568678635548113
 40
0.4147585592592751
 40
0.4676413968340161
 40
0.5167484215300129
 40
0.604729741894053
 40
0.6815706529393896
 40
0.7481095416219826
 40
0.8049410995352804
 40
0.9054060495000024
 40
1.0
 40
1.0
 40
1.0
 40
1.0
 10
216.6121721355621
 20
107.5112184683842
 30
0.0
 10
216.6029673490113
 20
107.5264394019981
 30
0.0
 10
216.5851299840885
 20
107.5559350720867
 30
0.0
 10
216.5593645494939
 20
107.5990120783381
 30
0.0
 10
216.5341023879922
 20
107.638671326198
 30
0.0
 10
216.5106721653017
 20
107.676046298553
 30
0.0
 10
216.4881230437247
 20
107.7104584712125
 30
0.0
 10
216.4666729005504
 20
107.7420273853598
 30
0.0
 10
216.4469120532441
 20
107.7711671839077
 30
0.0
 10
216.4224356890879
 20
107.8050934927567
 30
0.0
 10
216.3939492664681
 20
107.8426332683183
 30
0.0
 10
216.3607075657958
 20
107.8812921483326
 30
0.0
 10
216.3290516109559
 20
107.9121143584045
 30
0.0
 10
216.2900667183588
 20
107.9423388140676
 30
0.0
 10
216.2417780309299
 20
107.9706087119095
 30
0.0
 10
216.2007317350884
 20
107.9835979533375
 30
0.0
 10
216.1808263051501
 20
107.9898970950723
 30
0.0
  0
LINE
  5
156
330
1F
100
AcDbEntity
  8
0
  6
Continuous
 62
     7
370
     0
100
AcDbLine
 10
216.868180825
 20
107.0774031008
 30
0.0
 11
216.6121721356
 21
107.5112184684
 31
0.0
  0
LINE
  5
157
330
1F
100
AcDbEntity
  8
0
  6
Continuous
 62
     7
370
     0
100
AcDbLine
 10
217.200333578
 20
107.0774031008
 30
0.0
 11
216.868180825
 21
107.0774031008
 31
0.0
  0
LINE
  5
158
330
1F
100
AcDbEntity
  8
0
  6
Continuous
 62
     7
370
     0
100
AcDbLine
 10
216.8632417506
 20
107.644573477
 30
0.0
 11
217.200333578
 21
107.0774031008
 31
0.0
  0
SPLINE
  5
159
330
1F
100
AcDbEntity
  8
0
  6
Continuous
 62
     7
370
     0
100
AcDbSpline
210
0.0
220
0.0
230
1.0
 70
     8
 71
     3
 72
    11
 73
     7
 74
     0
 42
0.00000001
 43
0.00000001
 12
1.0
 22
0.0
 32
0.0
 13
1.0
 23
0.0
 33
0.0
 40
0.0
 40
0.0
 40
0.0
 40
0.0
 40
0.2295275697008571
 40
0.4714659343032296
 40
0.7281863484998701
 40
1.0
 40
1.0
 40
1.0
 40
1.0
 10
216.6467456563203
 20
107.9244543593514
 30
0.0
 10
216.6661554661922
 20
107.9054270734727
 30
0.0
 10
216.7060245945844
 20
107.8663436765381
 30
0.0
 10
216.7609659852724
 20
107.7997732026163
 30
0.0
 10
216.8142335504411
 20
107.7256700500449
 30
0.0
 10
216.8465976126127
 20
107.6721154505473
 30
0.0
 10
216.863241750592
 20
107.644573477023
 30
0.0
  0
SPLINE
  5
15A
330
1F
100
AcDbEntity
  8
0
  6
Continuous
 62
     7
370
     0
100
AcDbSpline
210
0.0
220
0.0
230
1.0
 70
     8
 71
     3
 72
    11
 73
     7
 74
     0
 42
0.00000001
 43
0.00000001
 12
1.0
 22
0.0
 32
0.0
 13
1.0
 23
0.0
 33
0.0
 40
0.0
 40
0.0
 40
0.0
 40
0.0
 40
0.2930762433192213
 40
0.5565623371181898
 40
0.7919136092098108
 40
1.0
 40
1.0
 40
1.0
 40
1.0
 10
216.48704891758
 20
108.0257053844291
 30
0.0
 10
216.5035907645869
 20
108.0173488081939
 30
0.0
 10
216.535004327577
 20
108.0014793690779
 30
0.0
 10
216.5784967947947
 20
107.9765962263715
 30
0.0
 10
216.6153638537192
 20
107.9511717862523
 30
0.0
 10
216.6367228091162
 20
107.9329874793547
 30
0.0
 10
216.6467456563203
 20
107.9244543593514
 30
0.0
  0
SPLINE
  5
15B
330
1F
100
AcDbEntity
  8
0
  6
Continuous
 62
     7
370
     0
100
AcDbSpline
210
0.0
220
0.0
230
1.0
 70
     8
 71
     3
 72
    23
 73
    19
 74
     0
 42
0.00000001
 43
0.00000001
 12
1.0
 22
0.0
 32
0.0
 13
1.0
 23
0.0
 33
0.0
 40
0.0
 40
0.0
 40
0.0
 40
0.0
 40
0.0614130692946597
 40
0.1212950233845471
 40
0.1792240423087202
 40
0.2359380947348319
 40
0.2922168332673612
 40
0.3481966394342069
 40
0.4044447389633588
 40
0.4620255339229974
 40
0.5203342118681488
 40
0.5803829016508381
 40
0.641825904813988
 40
0.7063632097966277
 40
0.7738513938275595
 40
0.8452662573568828
 40
0.920154675768406
 40
1.0
 40
1.0
 40
1.0
 40
1.0
 10
217.0319934590547
 20
108.5780585374948
 30
0.0
 10
217.0315913987789
 20
108.5604826888695
 30
0.0
 10
217.0307973021621
 20
108.5257691825346
 30
0.0
 10
217.0247144421983
 20
108.4747310364673
 30
0.0
 10
217.0137079982194
 20
108.4259661402481
 30
0.0
 10
216.9995944032223
 20
108.3790474196583
 30
0.0
 10
216.9802771972941
 20
108.3346396379737
 30
0.0
 10
216.957899052685
 20
108.2918357527205
 30
0.0
 10
216.9301757131183
 20
108.2518117008258
 30
0.0
 10
216.8991363687701
 20
108.2135017059597
 30
0.0
 10
216.8635425644479
 20
108.1777262659319
 30
0.0
 10
216.8230811822148
 20
108.1457760706604
 30
0.0
 10
216.7781533064683
 20
108.1170368060577
 30
0.0
 10
216.7285473449494
 20
108.0923013996007
 30
0.0
 10
216.6748343121468
 20
108.0696920637706
 30
0.0
 10
216.6163402570465
 20
108.0514859371822
 30
0.0
 10
216.5533012567774
 20
108.0366192387621
 30
0.0
 10
216.5095996915037
 20
108.0294202096667
 30
0.0
 10
216.48704891758
 20
108.0257053844291
 30
0.0
  0
SPLINE
  5
15C
330
1F
100
AcDbEntity
  8
0
  6
Continuous
 62
     7
370
     0
100
AcDbSpline
210
0.0
220
0.0
230
1.0
 70
     8
 71
     3
 72
    27
 73
    23
 74
     0
 42
0.00000001
 43
0.00000001
 12
1.0
 22
0.0
 32
0.0
 13
1.0
 23
0.0
 33
0.0
 40
0.0
 40
0.0
 40
0.0
 40
0.0
 40
0.0621127506505295
 40
0.1202119588785538
 40
0.1743851213884739
 40
0.2254437557784867
 40
0.2723582126361769
 40
0.3163881629634409
 40
0.3568694790582284
 40
0.3939783235063669
 40
0.4295893718770922
 40
0.4646830409549871
 40
0.5000363461428401
 40
0.535482747753064
 40
0.5713634671484438
 40
0.6079085322052602
 40
0.645662298533116
 40
0.6845173397035776
 40
0.7625786223763463
 40
0.8404972886541806
 40
0.9190729926935233
 40
1.0
 40
1.0
 40
1.0
 40
1.0
 10
216.3429925810874
 20
109.1320580486919
 30
0.0
 10
216.363984745274
 20
109.1318935663986
 30
0.0
 10
216.4046126220229
 20
109.1315752301719
 30
0.0
 10
216.4635314320565
 20
109.1293217712184
 30
0.0
 10
216.5185262346524
 20
109.1244639048622
 30
0.0
 10
216.5696981468523
 20
109.1192107994412
 30
0.0
 10
216.6170380768745
 20
109.1111479842304
 30
0.0
 10
216.6604971854024
 20
109.1019001173272
 30
0.0
 10
216.700142571102
 20
109.090895015896
 30
0.0
 10
216.7361514728273
 20
109.0778971427218
 30
0.0
 10
216.7695598818501
 20
109.063191996434
 30
0.0
 10
216.8005269535033
 20
109.0450482200738
 30
0.0
 10
216.8303399490435
 20
109.0251665098608
 30
0.0
 10
216.8578924041988
 20
109.0018084674283
 30
0.0
 10
216.8839110176694
 20
108.9762335729687
 30
0.0
 10
216.9083716745866
 20
108.9480943179253
 30
0.0
 10
216.9309122543893
 20
108.9171465108329
 30
0.0
 10
216.9587133601736
 20
108.8728537808607
 30
0.0
 10
216.9885382785046
 20
108.8138651919045
 30
0.0
 10
217.013387120151
 20
108.7383725795365
 30
0.0
 10
217.0294092087233
 20
108.6594045514834
 30
0.0
 10
217.0311236179775
 20
108.6054390522885
 30
0.0
 10
217.0319934590547
 20
108.5780585374948
 30
0.0
  0
LINE
  5
15D
330
1F
100
AcDbEntity
  8
0
  6
Continuous
 62
     7
370
     0
100
AcDbLine
 10
215.451489653
 20
109.1320580487
 30
0.0
 11
216.3429925811
 21
109.1320580487
 31
0.0
  0
LINE
  5
15E
330
1F
100
AcDbEntity
  8
0
  6
Continuous
 62
     7
370
     0
100
AcDbLine
 10
215.451489653
 20
107.0774031008
 30
0.0
 11
215.451489653
 21
109.1320580487
 31
0.0
  0
LINE
  5
15F
330
1F
100
AcDbEntity
  8
0
  6
Continuous
 62
     7
370
     0
100
AcDbLine
 10
215.7412486841
 20
107.0774031008
 30
0.0
 11
215.451489653
 21
107.0774031008
 31
0.0
  0
LINE
  5
160
330
1F
100
AcDbEntity
  8
0
  6
Continuous
 62
     7
370
     0
100
AcDbLine
 10
215.7412486841
 20
107.9993636543
 30
0.0
 11
215.7412486841
 21
107.0774031008
 31
0.0
  0
LINE
  5
161
330
1F
100
AcDbEntity
  8
0
  6
Continuous
 62
     7
370
     0
100
AcDbLine
 10
220.2226355176
 20
107.7096046232
 30
0.0
 11
219.3467729917
 21
107.7096046232
 31
0.0
  0
LINE
  5
162
330
1F
100
AcDbEntity
  8
0
  6
Continuous
 62
     7
370
     0
100
AcDbLine
 10
220.4564183722
 20
107.0774031008
 30
0.0
 11
220.2226355176
 21
107.7096046232
 31
0.0
  0
LINE
  5
163
330
1F
100
AcDbEntity
  8
0
  6
Continuous
 62
     7
370
     0
100
AcDbLine
 10
220.7638757533
 20
107.0774031008
 30
0.0
 11
220.4564183722
 21
107.0774031008
 31
0.0
  0
LINE
  5
164
330
1F
100
AcDbEntity
  8
0
  6
Continuous
 62
     7
370
     0
100
AcDbLine
 10
219.9481052992
 20
109.1320580487
 30
0.0
 11
220.7638757533
 21
107.0774031008
 31
0.0
  0
LINE
  5
165
330
1F
100
AcDbEntity
  8
0
  6
Continuous
 62
     7
370
     0
100
AcDbLine
 10
219.6213032101
 20
109.1320580487
 30
0.0
 11
219.9481052992
 21
109.1320580487
 31
0.0
  0
LINE
  5
166
330
1F
100
AcDbEntity
  8
0
  6
Continuous
 62
     7
370
     0
100
AcDbLine
 10
218.805532756
 20
107.0774031008
 30
0.0
 11
219.6213032101
 21
109.1320580487
 31
0.0
  0
LINE
  5
167
330
1F
100
AcDbEntity
  8
0
  6
Continuous
 62
     7
370
     0
100
AcDbLine
 10
219.1129901371
 20
107.0774031008
 30
0.0
 11
218.805532756
 21
107.0774031008
 31
0.0
  0
LINE
  5
168
330
1F
100
AcDbEntity
  8
0
  6
Continuous
 62
     7
370
     0
100
AcDbLine
 10
219.3467729917
 20
107.7096046232
 30
0.0
 11
219.1129901371
 21
107.0774031008
 31
0.0
  0
SPLINE
  5
169
330
1F
100
AcDbEntity
  8
0
  6
Continuous
 62
     7
370
     0
100
AcDbSpline
210
0.0
220
0.0
230
1.0
 70
     8
 71
     3
 72
    23
 73
    19
 74
     0
 42
0.00000001
 43
0.00000001
 12
1.0
 22
0.0
 32
0.0
 13
1.0
 23
0.0
 33
0.0
 40
0.0
 40
0.0
 40
0.0
 40
0.0
 40
0.0749313059818448
 40
0.1470775964339469
 40
0.2163644561730687
 40
0.2825027309006237
 40
0.3466877108244162
 40
0.4088355551310375
 40
0.4692619872876909
 40
0.5284320432534628
 40
0.5870013379727417
 40
0.644416393832067
 40
0.7021887902662974
 40
0.7597671795443349
 40
0.8184897928274489
 40
0.8776328274167843
 40
0.9380195662701677
 40
1.0
 40
1.0
 40
1.0
 40
1.0
 10
224.0248996219361
 20
108.1574140349365
 30
0.0
 10
224.0396725179366
 20
108.1506027811995
 30
0.0
 10
224.0686692371003
 20
108.1372334315635
 30
0.0
 10
224.1097469726523
 20
108.1144072782601
 30
0.0
 10
224.1480769564627
 20
108.0907035468844
 30
0.0
 10
224.1833495078791
 20
108.0654840529439
 30
0.0
 10
224.2154505736973
 20
108.0386957478631
 30
0.0
 10
224.2447390813333
 20
108.0106455666832
 30
0.0
 10
224.2713919230945
 20
107.9814911559961
 30
0.0
 10
224.294333659354
 20
107.9502994049122
 30
0.0
 10
224.3149329847542
 20
107.91833122452
 30
0.0
 10
224.3329587661673
 20
107.8851398184148
 30
0.0
 10
224.347472779184
 20
107.8505299942969
 30
0.0
 10
224.3602024738909
 20
107.8149189414649
 30
0.0
 10
224.369358775696
 20
107.7779105614212
 30
0.0
 10
224.3765391631248
 20
107.7398786635219
 30
0.0
 10
224.38072736303
 20
107.7006444867914
 30
0.0
 10
224.3811314715715
 20
107.674080463647
 30
0.0
 10
224.381336157372
 20
107.6606254688036
 30
0.0
  0
SPLINE
  5
16A
330
1F
100
AcDbEntity
  8
0
  6
Continuous
 62
     7
370
     0
100
AcDbSpline
210
0.0
220
0.0
230
1.0
 70
     8
 71
     3
 72
    23
 73
    19
 74
     0
 42
0.00000001
 43
0.00000001
 12
1.0
 22
0.0
 32
0.0
 13
1.0
 23
0.0
 33
0.0
 40
0.0
 40
0.0
 40
0.0
 40
0.0
 40
0.0327432182311376
 40
0.0724096054938575
 40
0.1196114857927603
 40
0.1746729151985131
 40
0.2373450901947013
 40
0.3083524168429163
 40
0.3876300477623597
 40
0.4747836155862522
 40
0.5633323159904144
 40
0.6451362168299873
 40
0.7202025267224655
 40
0.7891341563324459
 40
0.8514970735699655
 40
0.9073306044315619
 40
0.9569686823424193
 40
1.0
 40
1.0
 40
1.0
 40
1.0
 10
223.2169493689793
 20
108.4331790219366
 30
0.0
 10
223.2240848459785
 20
108.4270972755886
 30
0.0
 10
223.2398645128052
 20
108.4136478690377
 30
0.0
 10
223.2692250154069
 20
108.3958491541895
 30
0.0
 10
223.3056276842455
 20
108.3778658211862
 30
0.0
 10
223.3493157559957
 20
108.3599889965706
 30
0.0
 10
223.4002140637636
 20
108.3420016575547
 30
0.0
 10
223.4582405075726
 20
108.32348148008
 30
0.0
 10
223.5236161033024
 20
108.3050874812896
 30
0.0
 10
223.5943485316496
 20
108.2873618200406
 30
0.0
 10
223.6658047773779
 20
108.2695649002712
 30
0.0
 10
223.7337122339349
 20
108.2518358097671
 30
0.0
 10
223.7960627737038
 20
108.2350335107449
 30
0.0
 10
223.8527574730275
 20
108.2186456203407
 30
0.0
 10
223.9038550126862
 20
108.202718477584
 30
0.0
 10
223.9491778100071
 20
108.186918388304
 30
0.0
 10
223.9890925435617
 20
108.172386313961
 30
0.0
 10
224.0135450333913
 20
108.1621618131865
 30
0.0
 10
224.0248996219361
 20
108.1574140349365
 30
0.0
  0
SPLINE
  5
16B
330
1F
100
AcDbEntity
  8
0
  6
Continuous
 62
     7
370
     0
100
AcDbSpline
210
0.0
220
0.0
230
1.0
 70
     8
 71
     3
 72
    11
 73
     7
 74
     0
 42
0.00000001
 43
0.00000001
 12
1.0
 22
0.0
 32
0.0
 13
1.0
 23
0.0
 33
0.0
 40
0.0
 40
0.0
 40
0.0
 40
0.0
 40
0.2627412305282691
 40
0.5099565029432329
 40
0.7533267184204503
 40
1.0
 40
1.0
 40
1.0
 40
1.0
 10
223.1432748426017
 20
108.6146900059172
 30
0.0
 10
223.1440236481424
 20
108.5970126578708
 30
0.0
 10
223.1454770106549
 20
108.562702555216
 30
0.0
 10
223.1603179668493
 20
108.5139582418355
 30
0.0
 10
223.1831434613111
 20
108.4695246418766
 30
0.0
 10
223.2056302102156
 20
108.4453485470535
 30
0.0
 10
223.2169493689793
 20
108.4331790219366
 30
0.0
  0
SPLINE
  5
16C
330
1F
100
AcDbEntity
  8
0
  6
Continuous
 62
     7
370
     0
100
AcDbSpline
210
0.0
220
0.0
230
1.0
 70
     8
 71
     3
 72
    23
 73
    19
 74
     0
 42
0.00000001
 43
0.00000001
 12
1.0
 22
0.0
 32
0.0
 13
1.0
 23
0.0
 33
0.0
 40
0.0
 40
0.0
 40
0.0
 40
0.0
 40
0.0915110363280375
 40
0.177142860314148
 40
0.257108485228235
 40
0.3311983993883849
 40
0.4005922945239581
 40
0.4656249598049642
 40
0.5269734913138602
 40
0.5854431157040231
 40
0.6413985080863308
 40
0.6950441672657243
 40
0.7467815514927477
 40
0.7969589345766993
 40
0.8475448623598797
 40
0.8974385414187385
 40
0.9476489188871287
 40
1.0
 40
1.0
 40
1.0
 40
1.0
 10
223.5783249788092
 20
108.9213242078799
 30
0.0
 10
223.5600652662089
 20
108.9211865747984
 30
0.0
 10
223.5247189533669
 20
108.9209201510018
 30
0.0
 10
223.4736218497562
 20
108.9160635780917
 30
0.0
 10
223.4262614395211
 20
108.9094001877902
 30
0.0
 10
223.3827190691939
 20
108.8995711204801
 30
0.0
 10
223.3431373778943
 20
108.8867048383693
 30
0.0
 10
223.3069289165864
 20
108.8718472349096
 30
0.0
 10
223.275107017471
 20
108.8530187708434
 30
0.0
 10
223.246929857176
 20
108.83204631073
 30
0.0
 10
223.2226234876404
 20
108.808841442147
 30
0.0
 10
223.2016749976823
 20
108.784389121056
 30
0.0
 10
223.1831476763184
 20
108.7594077742289
 30
0.0
 10
223.1687515389417
 20
108.7325319048754
 30
0.0
 10
223.1570309193314
 20
108.7047793429835
 30
0.0
 10
223.1494698318173
 20
108.6756284312853
 30
0.0
 10
223.1441164052282
 20
108.6456183859141
 30
0.0
 10
223.1435592399359
 20
108.625141930165
 30
0.0
 10
223.1432748426017
 20
108.6146900059172
 30
0.0
  0
SPLINE
  5
16D
330
1F
100
AcDbEntity
  8
0
  6
Continuous
 62
     7
370
     0
100
AcDbSpline
210
0.0
220
0.0
230
1.0
 70
     8
 71
     3
 72
    23
 73
    19
 74
     0
 42
0.00000001
 43
0.00000001
 12
1.0
 22
0.0
 32
0.0
 13
1.0
 23
0.0
 33
0.0
 40
0.0
 40
0.0
 40
0.0
 40
0.0
 40
0.0671554674490462
 40
0.1314033464826141
 40
0.1927317719102091
 40
0.2512526591565257
 40
0.3077037298841914
 40
0.3626989162982003
 40
0.417778332785431
 40
0.4723043857981144
 40
0.5278725997916964
 40
0.5852299868117375
 40
0.6450565760102912
 40
0.707952356429442
 40
0.7744342720454286
 40
0.84494043137526
 40
0.9204035944750272
 40
1.0
 40
1.0
 40
1.0
 40
1.0
 10
224.0388936660525
 20
108.552539986459
 30
0.0
 10
224.0370525798682
 20
108.5672525977106
 30
0.0
 10
224.0334501198604
 20
108.596040817455
 30
0.0
 10
224.024512894788
 20
108.6377160965246
 30
0.0
 10
224.011984703652
 20
108.6764222203896
 30
0.0
 10
223.9973103523572
 20
108.7125201498584
 30
0.0
 10
223.9795219664007
 20
108.7456344267373
 30
0.0
 10
223.9587858556625
 20
108.7760830205271
 30
0.0
 10
223.9348494983024
 20
108.8035071948391
 30
0.0
 10
223.9083288019778
 20
108.8286316014935
 30
0.0
 10
223.8784167467728
 20
108.8505079463215
 30
0.0
 10
223.8452670301271
 20
108.8694972852371
 30
0.0
 10
223.8088236942621
 20
108.8855389283679
 30
0.0
 10
223.7691188456893
 20
108.8986775572896
 30
0.0
 10
223.7261446236244
 20
108.9088647362339
 30
0.0
 10
223.6798032826994
 20
108.9163586195411
 30
0.0
 10
223.6301127345635
 20
108.9201965727068
 30
0.0
 10
223.5958916281271
 20
108.9209417087475
 30
0.0
 10
223.5783249788092
 20
108.9213242078799
 30
0.0
  0
LINE
  5
16E
330
1F
100
AcDbEntity
  8
0
  6
Continuous
 62
     7
370
     0
100
AcDbLine
 10
224.3286526972
 20
108.5525399865
 30
0.0
 11
224.0388936661
 21
108.5525399865
 31
0.0
  0
SPLINE
  5
16F
330
1F
100
AcDbEntity
  8
0
  6
Continuous
 62
     7
370
     0
100
AcDbSpline
210
0.0
220
0.0
230
1.0
 70
     8
 71
     3
 72
    23
 73
    19
 74
     0
 42
0.00000001
 43
0.00000001
 12
1.0
 22
0.0
 32
0.0
 13
1.0
 23
0.0
 33
0.0
 40
0.0
 40
0.0
 40
0.0
 40
0.0
 40
0.1004750608070148
 40
0.1956443031597846
 40
0.286083379069932
 40
0.3729828804699542
 40
0.4150256681909619
 40
0.4560516735090279
 40
0.4959387495188998
 40
0.5355660888033517
 40
0.5740871099085042
 40
0.6125192874870976
 40
0.651080960134445
 40
0.6895131377130386
 40
0.7662374603277348
 40
0.8423504388672227
 40
0.9199744947371038
 40
1.0
 40
1.0
 40
1.0
 40
1.0
 10
223.5668004718898
 20
109.1583997787934
 30
0.0
 10
223.6033342397077
 20
109.1575626632982
 30
0.0
 10
223.6744725250607
 20
109.1559326381316
 30
0.0
 10
223.7778384644171
 20
109.1423711256734
 30
0.0
 10
223.8742505884476
 20
109.1190824401823
 30
0.0
 10
223.9498602840626
 20
109.0930130933261
 30
0.0
 10
224.005757647825
 20
109.0666214167588
 30
0.0
 10
224.045468691479
 20
109.0460282595151
 30
0.0
 10
224.0823283926645
 20
109.022218818362
 30
0.0
 10
224.1166685630362
 20
108.9964532782332
 30
0.0
 10
224.1488081763044
 20
108.9687434061357
 30
0.0
 10
224.1779211722389
 20
108.9384300757914
 30
0.0
 10
224.2052717183226
 20
108.9065475231766
 30
0.0
 10
224.2374124212675
 20
108.8607741669475
 30
0.0
 10
224.272066912934
 20
108.8001933889408
 30
0.0
 10
224.3020304380945
 20
108.7217085847807
 30
0.0
 10
224.3226157293853
 20
108.638874318006
 30
0.0
 10
224.3266200422318
 20
108.5816088686449
 30
0.0
 10
224.328652697169
 20
108.552539986459
 30
0.0
  0
SPLINE
  5
170
330
1F
100
AcDbEntity
  8
0
  6
Continuous
 62
     7
370
     0
100
AcDbSpline
210
0.0
220
0.0
230
1.0
 70
     8
 71
     3
 72
    23
 73
    19
 74
     0
 42
0.00000001
 43
0.00000001
 12
1.0
 22
0.0
 32
0.0
 13
1.0
 23
0.0
 33
0.0
 40
0.0
 40
0.0
 40
0.0
 40
0.0
 40
0.0749954673898322
 40
0.1491654404266561
 40
0.2236642943382247
 40
0.3004120221906725
 40
0.3395704846106348
 40
0.3789205746932795
 40
0.4180957375990935
 40
0.4582296767501551
 40
0.4984267212184583
 40
0.5397075464534805
 40
0.5822159516458436
 40
0.6258238199943749
 40
0.7154812648736979
 40
0.8073840844133601
 40
0.9016341255073719
 40
1.0
 40
1.0
 40
1.0
 40
1.0
 10
222.8535158114852
 20
108.5957568874068
 30
0.0
 10
222.8544937160183
 20
108.6212293463326
 30
0.0
 10
222.8564387610384
 20
108.6718938822928
 30
0.0
 10
222.8736923763315
 20
108.7462409303675
 30
0.0
 10
222.90121222281
 20
108.8177825661982
 30
0.0
 10
222.9325381657715
 20
108.8745805202905
 30
0.0
 10
222.9630878827226
 20
108.9175308789928
 30
0.0
 10
222.9884138301198
 20
108.9484629421839
 30
0.0
 10
223.0168218334817
 20
108.977055476135
 30
0.0
 10
223.0474370250572
 20
109.0037076133336
 30
0.0
 10
223.0808066824182
 20
109.0280211400012
 30
0.0
 10
223.116102901037
 20
109.0509953115268
 30
0.0
 10
223.1546032068803
 20
109.0707421632727
 30
0.0
 10
223.208701862186
 20
109.0958754484258
 30
0.0
 10
223.281072827742
 20
109.1209733839627
 30
0.0
 10
223.3721788215084
 20
109.1428430512598
 30
0.0
 10
223.4680648884365
 20
109.1557216436477
 30
0.0
 10
223.5334230842282
 20
109.1574944399901
 30
0.0
 10
223.5668004718898
 20
109.1583997787934
 30
0.0
  0
SPLINE
  5
171
330
1F
100
AcDbEntity
  8
0
  6
Continuous
 62
     7
370
     0
100
AcDbSpline
210
0.0
220
0.0
230
1.0
 70
     8
 71
     3
 72
    15
 73
    11
 74
     0
 42
0.00000001
 43
0.00000001
 12
1.0
 22
0.0
 32
0.0
 13
1.0
 23
0.0
 33
0.0
 40
0.0
 40
0.0
 40
0.0
 40
0.0
 40
0.1448052410584837
 40
0.2795118010254855
 40
0.4063939211311608
 40
0.5275015404829168
 40
0.6453932904726503
 40
0.7618854106740865
 40
0.8789420729184871
 40
1.0
 40
1.0
 40
1.0
 40
1.0
 10
223.1568572971853
 20
108.1516517814768
 30
0.0
 10
223.1326747531873
 20
108.1647158883526
 30
0.0
 10
223.0859961497277
 20
108.1899330145764
 30
0.0
 10
223.0231719193338
 20
108.2350213068235
 30
0.0
 10
222.9702361274843
 20
108.2850551123213
 30
0.0
 10
222.9274120998816
 20
108.3399618799497
 30
0.0
 10
222.8938525851879
 20
108.3988130044449
 30
0.0
 10
222.8712101273634
 20
108.4617085332717
 30
0.0
 10
222.8557019128864
 20
108.5275067950803
 30
0.0
 10
222.8542526298439
 20
108.5727534160309
 30
0.0
 10
222.8535158114852
 20
108.5957568874068
 30
0.0
  0
SPLINE
  5
172
330
1F
100
AcDbEntity
  8
0
  6
Continuous
 62
     7
370
     0
100
AcDbSpline
210
0.0
220
0.0
230
1.0
 70
     8
 71
     3
 72
    23
 73
    19
 74
     0
 42
0.00000001
 43
0.00000001
 12
1.0
 22
0.0
 32
0.0
 13
1.0
 23
0.0
 33
0.0
 40
0.0
 40
0.0
 40
0.0
 40
0.0
 40
0.031200111153937
 40
0.0704867190162008
 40
0.1172148300204117
 40
0.1715755269954914
 40
0.2341219784876085
 40
0.3039626396728061
 40
0.3821556401561972
 40
0.4676462220680265
 40
0.5543353814021599
 40
0.6350744656665042
 40
0.7100366878785244
 40
0.7790924037748317
 40
0.8429656453505103
 40
0.9010012068505269
 40
0.953246256459026
 40
1.0
 40
1.0
 40
1.0
 40
1.0
 10
223.8726114947868
 20
107.9240427698186
 30
0.0
 10
223.8653728465129
 20
107.92701327219
 30
0.0
 10
223.8490194250643
 20
107.9337241766787
 30
0.0
 10
223.8209904280954
 20
107.9426082587553
 30
0.0
 10
223.787730473551
 20
107.9540962833922
 30
0.0
 10
223.7484405177528
 20
107.9659270790688
 30
0.0
 10
223.7033308971045
 20
107.9784424062694
 30
0.0
 10
223.652476714589
 20
107.9926078591846
 30
0.0
 10
223.5959063866933
 20
108.0076720429996
 30
0.0
 10
223.5352243456038
 20
108.0237062258045
 30
0.0
 10
223.4739539758214
 20
108.0400105308535
 30
0.0
 10
223.4154172954475
 20
108.056330104572
 30
0.0
 10
223.3615607666685
 20
108.0728965623562
 30
0.0
 10
223.3119432318068
 20
108.0888477740028
 30
0.0
 10
223.2668204918295
 20
108.1048647952053
 30
0.0
 10
223.2260644780487
 20
108.1205091143417
 30
0.0
 10
223.1896243775999
 20
108.1354633289367
 30
0.0
 10
223.1673681514666
 20
108.1464589335472
 30
0.0
 10
223.1568572971853
 20
108.1516517814768
 30
0.0
  0
SPLINE
  5
173
330
1F
100
AcDbEntity
  8
0
  6
Continuous
 62
     7
370
     0
100
AcDbSpline
210
0.0
220
0.0
230
1.0
 70
     8
 71
     3
 72
    15
 73
    11
 74
     0
 42
0.00000001
 43
0.00000001
 12
1.0
 22
0.0
 32
0.0
 13
1.0
 23
0.0
 33
0.0
 40
0.0
 40
0.0
 40
0.0
 40
0.0
 40
0.1177675192120368
 40
0.230176448544057
 40
0.3398429589695384
 40
0.4506252599208614
 40
0.5669428888721625
 40
0.6960213064547937
 40
0.8394383602270619
 40
1.0
 40
1.0
 40
1.0
 40
1.0
 10
224.0915771262555
 20
107.6466314246872
 30
0.0
 10
224.0908834311404
 20
107.6614839391157
 30
0.0
 10
224.0895276050259
 20
107.6905131574093
 30
0.0
 10
224.0806920617419
 20
107.7327760729968
 30
0.0
 10
224.0638988632011
 20
107.7714589166463
 30
0.0
 10
224.04210775822
 20
107.808140541722
 30
0.0
 10
224.0117926105507
 20
107.841677940693
 30
0.0
 10
223.9734928425991
 20
107.8725796623142
 30
0.0
 10
223.9263646143669
 20
107.9005954623878
 30
0.0
 10
223.8911904822367
 20
107.9159385475168
 30
0.0
 10
223.8726114947868
 20
107.9240427698186
 30
0.0
  0
SPLINE
  5
174
330
1F
100
AcDbEntity
  8
0
  6
Continuous
 62
     7
370
     0
100
AcDbSpline
210
0.0
220
0.0
230
1.0
 70
     8
 71
     3
 72
    19
 73
    15
 74
     0
 42
0.00000001
 43
0.00000001
 12
1.0
 22
0.0
 32
0.0
 13
1.0
 23
0.0
 33
0.0
 40
0.0
 40
0.0
 40
0.0
 40
0.0
 40
0.1055838864195047
 40
0.2058681332620123
 40
0.300946717742213
 40
0.3930019285950097
 40
0.4809485116065868
 40
0.5628738662802266
 40
0.6414613436333616
 40
0.7177416181792268
 40
0.7917717603087844
 40
0.8627163930302565
 40
0.9317768462002763
 40
1.0
 40
1.0
 40
1.0
 40
1.0
 10
223.6223650588226
 20
107.2881369415872
 30
0.0
 10
223.6455926407243
 20
107.2885668593889
 30
0.0
 10
223.6908819276454
 20
107.289405115853
 30
0.0
 10
223.7563979433946
 20
107.2994746527703
 30
0.0
 10
223.8180487045858
 20
107.3137580203767
 30
0.0
 10
223.8746868262616
 20
107.3353638500911
 30
0.0
 10
223.9261033761539
 20
107.3616001018847
 30
0.0
 10
223.9707528894692
 20
107.3933334636742
 30
0.0
 10
224.0088722688681
 20
107.4291199786681
 30
0.0
 10
224.0387225059875
 20
107.4699022438397
 30
0.0
 10
224.0621722562374
 20
107.5126352378279
 30
0.0
 10
224.0793750721865
 20
107.556560348395
 30
0.0
 10
224.0896224370855
 20
107.6014337710381
 30
0.0
 10
224.0909282178723
 20
107.6316269233037
 30
0.0
 10
224.0915771262555
 20
107.6466314246872
 30
0.0
  0
SPLINE
  5
175
330
1F
100
AcDbEntity
  8
0
  6
Continuous
 62
     7
370
     0
100
AcDbSpline
210
0.0
220
0.0
230
1.0
 70
     8
 71
     3
 72
    19
 73
    15
 74
     0
 42
0.00000001
 43
0.00000001
 12
1.0
 22
0.0
 32
0.0
 13
1.0
 23
0.0
 33
0.0
 40
0.0
 40
0.0
 40
0.0
 40
0.0
 40
0.0937964706969321
 40
0.1801880710186105
 40
0.2603631916661885
 40
0.3348466760639744
 40
0.4070930058327154
 40
0.4814483792884674
 40
0.5592709137563652
 40
0.6422698113109349
 40
0.7285859445716477
 40
0.8159775452756136
 40
0.9060351298875359
 40
1.0
 40
1.0
 40
1.0
 40
1.0
 10
223.0642496522972
 20
107.7886298135156
 30
0.0
 10
223.0674368335361
 20
107.7626134370112
 30
0.0
 10
223.0735595803213
 20
107.7126345768003
 30
0.0
 10
223.0906793918804
 20
107.6417970661119
 30
0.0
 10
223.1127136939805
 20
107.5781068741112
 30
0.0
 10
223.1401678269522
 20
107.5207187195109
 30
0.0
 10
223.1762826928232
 20
107.470320682826
 30
0.0
 10
223.2197948939284
 20
107.424862423377
 30
0.0
 10
223.2726380940278
 20
107.3854983233136
 30
0.0
 10
223.3322860209744
 20
107.3504668533225
 30
0.0
 10
223.3987171651004
 20
107.3229616087333
 30
0.0
 10
223.4696383362108
 20
107.3025715181692
 30
0.0
 10
223.5447113021449
 20
107.29049022704
 30
0.0
 10
223.5961166492441
 20
107.2889323957038
 30
0.0
 10
223.6223650588226
 20
107.2881369415872
 30
0.0
  0
LINE
  5
176
330
1F
100
AcDbEntity
  8
0
  6
Continuous
 62
     7
370
     0
100
AcDbLine
 10
222.7744906212
 20
107.7886298135
 30
0.0
 11
223.0642496523
 21
107.7886298135
 31
0.0
  0
SPLINE
  5
177
330
1F
100
AcDbEntity
  8
0
  6
Continuous
 62
     7
370
     0
100
AcDbSpline
210
0.0
220
0.0
230
1.0
 70
     8
 71
     3
 72
    31
 73
    27
 74
     0
 42
0.00000001
 43
0.00000001
 12
1.0
 22
0.0
 32
0.0
 13
1.0
 23
0.0
 33
0.0
 40
0.0
 40
0.0
 40
0.0
 40
0.0
 40
0.0524925849212958
 40
0.1028254751380329
 40
0.1513973394924577
 40
0.1980330772483325
 40
0.2428758954632244
 40
0.2859991683849086
 40
0.3278486614843784
 40
0.3683945968796912
 40
0.4078519911389193
 40
0.4468375528599374
 40
0.4851660451611074
 40
0.5233414044713737
 40
0.5616022144094732
 40
0.5999198855663566
 40
0.6384964264110082
 40
0.6777905770472508
 40
0.7172899891758322
 40
0.7566052415928194
 40
0.7960678905323556
 40
0.8358862309537681
 40
0.8757136832726162
 40
0.9162634539474125
 40
0.9577596754778293
 40
1.0
 40
1.0
 40
1.0
 40
1.0
 10
223.6351243343406
 20
107.0510613706737
 30
0.0
 10
223.6127535891109
 20
107.0512459842674
 30
0.0
 10
223.568932494934
 20
107.0516076159248
 30
0.0
 10
223.5045422912714
 20
107.0559870893932
 30
0.0
 10
223.4428359822487
 20
107.0623222129964
 30
0.0
 10
223.3838741240081
 20
107.0717584501275
 30
0.0
 10
223.3278416151176
 20
107.084138280856
 30
0.0
 10
223.2745373242914
 20
107.0990040649636
 30
0.0
 10
223.2238349052898
 20
107.1161250801857
 30
0.0
 10
223.1759115140088
 20
107.1362590973384
 30
0.0
 10
223.1308922505318
 20
107.1596526258936
 30
0.0
 10
223.0879676229944
 20
107.1848883242435
 30
0.0
 10
223.0478392629666
 20
107.2134941709838
 30
0.0
 10
223.0104226952507
 20
107.2450206688604
 30
0.0
 10
222.9747698636258
 20
107.2785570454471
 30
0.0
 10
222.9423584718635
 20
107.3154728988134
 30
0.0
 10
222.9120866154418
 20
107.3546886763923
 30
0.0
 10
222.8846459975252
 20
107.3965632959115
 30
0.0
 10
222.8601319829823
 20
107.4405488988189
 30
0.0
 10
222.8380868997928
 20
107.4859067942073
 30
0.0
 10
222.8195136087497
 20
107.5329660181848
 30
0.0
 10
222.8045453035022
 20
107.5814887344576
 30
0.0
 10
222.7918663911087
 20
107.6311502284053
 30
0.0
 10
222.7830738583916
 20
107.6823648386425
 30
0.0
 10
222.7766092921792
 20
107.7349717697854
 30
0.0
 10
222.7752010162725
 20
107.7706381522682
 30
0.0
 10
222.7744906211807
 20
107.7886298135156
 30
0.0
  0
SPLINE
  5
178
330
1F
100
AcDbEntity
  8
0
  6
Continuous
 62
     7
370
     0
100
AcDbSpline
210
0.0
220
0.0
230
1.0
 70
     8
 71
     3
 72
    23
 73
    19
 74
     0
 42
0.00000001
 43
0.00000001
 12
1.0
 22
0.0
 32
0.0
 13
1.0
 23
0.0
 33
0.0
 40
0.0
 40
0.0
 40
0.0
 40
0.0
 40
0.0748159666505558
 40
0.1485345605139197
 40
0.2238723272963846
 40
0.3012971209351247
 40
0.3408936290197579
 40
0.38034006206544
 40
0.4201265887284643
 40
0.4599499070829665
 40
0.5008311555562169
 40
0.5419071755971084
 40
0.5844387941530512
 40
0.6280801713306066
 40
0.7172666799070602
 40
0.8078600064218678
 40
0.9019246558363443
 40
1.0
 40
1.0
 40
1.0
 40
1.0
 10
224.381336157372
 20
107.6606254688036
 30
0.0
 10
224.3802638718719
 20
107.6337729560064
 30
0.0
 10
224.3781350287568
 20
107.5804617930875
 30
0.0
 10
224.3598049217607
 20
107.5018786733861
 30
0.0
 10
224.3310092931416
 20
107.4257320690249
 30
0.0
 10
224.2972392857663
 20
107.3653055438895
 30
0.0
 10
224.2653164217788
 20
107.3191484602706
 30
0.0
 10
224.2384997102088
 20
107.2859728580514
 30
0.0
 10
224.2087615188519
 20
107.2552969583446
 30
0.0
 10
224.176833971795
 20
107.2261597434199
 30
0.0
 10
224.1424691817448
 20
107.1991557076901
 30
0.0
 10
224.105377432204
 20
107.1742756557862
 30
0.0
 10
224.0659502090353
 20
107.1512605885964
 30
0.0
 10
224.0096491258273
 20
107.1232153814821
 30
0.0
 10
223.9348719340048
 20
107.0938774317329
 30
0.0
 10
223.8396208032621
 20
107.0694457807192
 30
0.0
 10
223.739237648578
 20
107.0535963645905
 30
0.0
 10
223.6703083780417
 20
107.0519180462815
 30
0.0
 10
223.6351243343406
 20
107.0510613706737
 30
0.0
  0
LINE
  5
179
330
1F
100
AcDbEntity
  8
0
  6
Continuous
 62
     7
370
     0
100
AcDbLine
 10
209.5163685895
 20
103.9163954886
 30
0.0
 11
208.971424048
 21
105.6549496753
 31
0.0
  0
LINE
  5
17A
330
1F
100
AcDbEntity
  8
0
  6
Continuous
 62
     7
370
     0
100
AcDbLine
 10
209.8192984856
 20
103.9163954886
 30
0.0
 11
209.5163685895
 21
103.9163954886
 31
0.0
  0
LINE
  5
17B
330
1F
100
AcDbEntity
  8
0
  6
Continuous
 62
     7
370
     0
100
AcDbLine
 10
210.3675357434
 20
105.6549496753
 30
0.0
 11
209.8192984856
 21
103.9163954886
 31
0.0
  0
LINE
  5
17C
330
1F
100
AcDbEntity
  8
0
  6
Continuous
 62
     7
370
     0
100
AcDbLine
 10
210.3675357434
 20
103.9163954886
 30
0.0
 11
210.3675357434
 21
105.6549496753
 31
0.0
  0
LINE
  5
17D
330
1F
100
AcDbEntity
  8
0
  6
Continuous
 62
     7
370
     0
100
AcDbLine
 10
210.6572947745
 20
103.9163954886
 30
0.0
 11
210.3675357434
 21
103.9163954886
 31
0.0
  0
LINE
  5
17E
330
1F
100
AcDbEntity
  8
0
  6
Continuous
 62
     7
370
     0
100
AcDbLine
 10
210.6572947745
 20
105.9710504365
 30
0.0
 11
210.6572947745
 21
103.9163954886
 31
0.0
  0
LINE
  5
17F
330
1F
100
AcDbEntity
  8
0
  6
Continuous
 62
     7
370
     0
100
AcDbLine
 10
210.225125765
 20
105.9710504365
 30
0.0
 11
210.6572947745
 21
105.9710504365
 31
0.0
  0
LINE
  5
180
330
1F
100
AcDbEntity
  8
0
  6
Continuous
 62
     7
370
     0
100
AcDbLine
 10
209.7703193312
 20
104.553947675
 30
0.0
 11
210.225125765
 21
105.9710504365
 31
0.0
  0
SPLINE
  5
181
330
1F
100
AcDbEntity
  8
0
  6
Continuous
 62
     7
370
     0
100
AcDbSpline
210
0.0
220
0.0
230
1.0
 70
     8
 71
     3
 72
    15
 73
    11
 74
     0
 42
0.00000001
 43
0.00000001
 12
1.0
 22
0.0
 32
0.0
 13
1.0
 23
0.0
 33
0.0
 40
0.0
 40
0.0
 40
0.0
 40
0.0
 40
0.0892047702332451
 40
0.1898334556643485
 40
0.2992325919749813
 40
0.4192609378429071
 40
0.5492073901909386
 40
0.6890743636843492
 40
0.8395791979483176
 40
1.0
 40
1.0
 40
1.0
 40
1.0
 10
209.6694798956866
 20
104.2275571754196
 30
0.0
 10
209.6723482332532
 20
104.2373019637915
 30
0.0
 10
209.6784522390238
 20
104.258039496622
 30
0.0
 10
209.6883478081318
 20
104.2906457121845
 30
0.0
 10
209.6988769754035
 20
104.3267281587363
 30
0.0
 10
209.7114771612075
 20
104.3656666378643
 30
0.0
 10
209.7246113636793
 20
104.4080719720831
 30
0.0
 10
209.7383974185314
 20
104.4539089451324
 30
0.0
 10
209.754299364342
 20
104.5027199298079
 30
0.0
 10
209.7648670020568
 20
104.5365125247263
 30
0.0
 10
209.7703193312314
 20
104.5539476749585
 30
0.0
  0
SPLINE
  5
182
330
1F
100
AcDbEntity
  8
0
  6
Continuous
 62
     7
370
     0
100
AcDbSpline
210
0.0
220
0.0
230
1.0
 70
     8
 71
     3
 72
    15
 73
    11
 74
     0
 42
0.00000001
 43
0.00000001
 12
1.0
 22
0.0
 32
0.0
 13
1.0
 23
0.0
 33
0.0
 40
0.0
 40
0.0
 40
0.0
 40
0.0
 40
0.1625255217041868
 40
0.3143148980392372
 40
0.4549784905465745
 40
0.5845192373661998
 40
0.7045671033090736
 40
0.8134949897289286
 40
0.9116812596826069
 40
0.9999999999999999
 40
0.9999999999999999
 40
0.9999999999999999
 40
0.9999999999999999
 10
209.5768722507985
 20
104.5292523029883
 30
0.0
 10
209.5819272401005
 20
104.5129192428146
 30
0.0
 10
209.5917032951493
 20
104.4813320552187
 30
0.0
 10
209.6062000249397
 20
104.435717249801
 30
0.0
 10
209.6193896187356
 20
104.3933285127556
 30
0.0
 10
209.6312689248649
 20
104.3540309184966
 30
0.0
 10
209.6424795795371
 20
104.318019577783
 30
0.0
 10
209.6521862400566
 20
104.2849989910035
 30
0.0
 10
209.6614661233064
 20
104.2553360902828
 30
0.0
 10
209.6669045495591
 20
104.2364843469718
 30
0.0
 10
209.6694798956866
 20
104.2275571754196
 30
0.0
  0
LINE
  5
183
330
1F
100
AcDbEntity
  8
0
  6
Continuous
 62
     7
370
     0
100
AcDbLine
 10
209.1175383322
 20
105.9710504365
 30
0.0
 11
209.5768722508
 21
104.529252303
 31
0.0
  0
LINE
  5
184
330
1F
100
AcDbEntity
  8
0
  6
Continuous
 62
     7
370
     0
100
AcDbLine
 10
208.6816650169
 20
105.9710504365
 30
0.0
 11
209.1175383322
 21
105.9710504365
 31
0.0
  0
LINE
  5
185
330
1F
100
AcDbEntity
  8
0
  6
Continuous
 62
     7
370
     0
100
AcDbLine
 10
208.6816650169
 20
103.9163954886
 30
0.0
 11
208.6816650169
 21
105.9710504365
 31
0.0
  0
LINE
  5
186
330
1F
100
AcDbEntity
  8
0
  6
Continuous
 62
     7
370
     0
100
AcDbLine
 10
208.971424048
 20
103.9163954886
 30
0.0
 11
208.6816650169
 21
103.9163954886
 31
0.0
  0
LINE
  5
187
330
1F
100
AcDbEntity
  8
0
  6
Continuous
 62
     7
370
     0
100
AcDbLine
 10
208.971424048
 20
105.6549496753
 30
0.0
 11
208.971424048
 21
103.9163954886
 31
0.0
  0
SPLINE
  5
188
330
1F
100
AcDbEntity
  8
0
  6
Continuous
 62
     7
370
     0
100
AcDbSpline
210
0.0
220
0.0
230
1.0
 70
     8
 71
     3
 72
    31
 73
    27
 74
     0
 42
0.00000001
 43
0.00000001
 12
1.0
 22
0.0
 32
0.0
 13
1.0
 23
0.0
 33
0.0
 40
0.0
 40
0.0
 40
0.0
 40
0.0
 40
0.0628739462114324
 40
0.1228366299919128
 40
0.1796565674430314
 40
0.233960012230862
 40
0.2855950186955586
 40
0.3345131060783809
 40
0.3809048259061764
 40
0.4248945919393347
 40
0.4665290347654873
 40
0.5064882940692464
 40
0.5450315536447543
 40
0.5818311798231344
 40
0.617448279949443
 40
0.652066912769046
 40
0.6858797142465105
 40
0.7191745547913924
 40
0.7521816462063929
 40
0.7852401639180909
 40
0.8186564497770833
 40
0.8525477406533113
 40
0.887626342258519
 40
0.923635078068751
 40
0.9610218444769891
 40
1.0
 40
1.0
 40
1.0
 40
1.0
 10
213.8709858468752
 20
104.9297289184376
 30
0.0
 10
213.8707154826392
 20
104.9005039350947
 30
0.0
 10
213.8701872728858
 20
104.8434071775069
 30
0.0
 10
213.8670495566095
 20
104.7599350666282
 30
0.0
 10
213.8610813371326
 20
104.6806271973456
 30
0.0
 10
213.8537373340268
 20
104.6053018984051
 30
0.0
 10
213.8426273956103
 20
104.5341602529032
 30
0.0
 10
213.8306558350201
 20
104.4668999988095
 30
0.0
 10
213.8158499716948
 20
104.4038265569132
 30
0.0
 10
213.7985750052457
 20
104.3449122837503
 30
0.0
 10
213.7791194703058
 20
104.2898456618606
 30
0.0
 10
213.7577834656648
 20
104.2382105283273
 30
0.0
 10
213.7341517918613
 20
104.1900421660879
 30
0.0
 10
213.7075210810299
 20
104.1458103851879
 30
0.0
 10
213.6791098088309
 20
104.1049280827898
 30
0.0
 10
213.6487098929023
 20
104.067241900187
 30
0.0
 10
213.6156768194368
 20
104.0332942504783
 30
0.0
 10
213.5800439672643
 20
104.0032756780608
 30
0.0
 10
213.542533696943
 20
103.9762351745065
 30
0.0
 10
213.5023998395777
 20
103.9530826934439
 30
0.0
 10
213.4598180548066
 20
103.933901265023
 30
0.0
 10
213.4150728479304
 20
103.9175020966847
 30
0.0
 10
213.3677102142733
 20
103.9054857479881
 30
0.0
 10
213.3181036511566
 20
103.8962874208295
 30
0.0
 10
213.2660703817783
 20
103.8908707796816
 30
0.0
 10
213.2305651577837
 20
103.8903298563721
 30
0.0
 10
213.2124425943378
 20
103.8900537584942
 30
0.0
  0
SPLINE
  5
189
330
1F
100
AcDbEntity
  8
0
  6
Continuous
 62
     7
370
     0
100
AcDbSpline
210
0.0
220
0.0
230
1.0
 70
     8
 71
     3
 72
    27
 73
    23
 74
     0
 42
0.00000001
 43
0.00000001
 12
1.0
 22
0.0
 32
0.0
 13
1.0
 23
0.0
 33
0.0
 40
0.0
 40
0.0
 40
0.0
 40
0.0
 40
0.0567243372181508
 40
0.1114372357370108
 40
0.1643678222229016
 40
0.21643537246209
 40
0.2676414903219249
 40
0.3173597799690281
 40
0.3674730633322806
 40
0.4182103970528083
 40
0.4714042826470201
 40
0.5279657201290494
 40
0.5880611158232139
 40
0.6521342629937146
 40
0.6863448363353056
 40
0.7232636803169652
 40
0.762610250771542
 40
0.8047389366452182
 40
0.8494303387909499
 40
0.8967112583864923
 40
0.9468896380534765
 40
1.0
 40
1.0
 40
1.0
 40
1.0
 10
213.2124425943378
 20
105.9710504365124
 30
0.0
 10
213.2388297834471
 20
105.9702746718276
 30
0.0
 10
213.2906684748699
 20
105.9687506509876
 30
0.0
 10
213.3663532320479
 20
105.9563210135622
 30
0.0
 10
213.4376812376931
 20
105.9350582030547
 30
0.0
 10
213.5046061505198
 20
105.906373754408
 30
0.0
 10
213.5659838995114
 20
105.8699389838301
 30
0.0
 10
213.6207968163446
 20
105.8256469691815
 30
0.0
 10
213.6684536551734
 20
105.7739627678692
 30
0.0
 10
213.7084343153457
 20
105.7142739390547
 30
0.0
 10
213.7433814030639
 20
105.6482270992422
 30
0.0
 10
213.7744276286391
 20
105.5755258058496
 30
0.0
 10
213.8024925148137
 20
105.496251528886
 30
0.0
 10
213.8224079689974
 20
105.4252899842107
 30
0.0
 10
213.8366136461142
 20
105.3640334609155
 30
0.0
 10
213.8460166756805
 20
105.313510813335
 30
0.0
 10
213.8538230753348
 20
105.2589965921661
 30
0.0
 10
213.8598038324648
 20
105.2006226819846
 30
0.0
 10
213.8647109025765
 20
105.1384545543251
 30
0.0
 10
213.8685004079346
 20
105.0724535021219
 30
0.0
 10
213.8704239699087
 20
105.0024545669742
 30
0.0
 10
213.8707950434219
 20
104.9544252589451
 30
0.0
 10
213.8709858468752
 20
104.9297289184376
 30
0.0
  0
SPLINE
  5
18A
330
1F
100
AcDbEntity
  8
0
  6
Continuous
 62
     7
370
     0
100
AcDbSpline
210
0.0
220
0.0
230
1.0
 70
     8
 71
     3
 72
    31
 73
    27
 74
     0
 42
0.00000001
 43
0.00000001
 12
1.0
 22
0.0
 32
0.0
 13
1.0
 23
0.0
 33
0.0
 40
0.0
 40
0.0
 40
0.0
 40
0.0
 40
0.0631144583947934
 40
0.12361464576949
 40
0.1809737111859576
 40
0.2352614550083222
 40
0.287100701833872
 40
0.3360307363034436
 40
0.3823823485850662
 40
0.4263340836597073
 40
0.4682106947981602
 40
0.5082496012618052
 40
0.5466283366065849
 40
0.5836495392304463
 40
0.6189943150301618
 40
0.6535830186205963
 40
0.6871561361903312
 40
0.7204221919788076
 40
0.7532302188118171
 40
0.7862601560778999
 40
0.8195039834988841
 40
0.8535452747120184
 40
0.8883082803397299
 40
0.9239958607406951
 40
0.961350304754645
 40
1.0
 40
1.0
 40
1.0
 40
1.0
 10
212.5538993418004
 20
104.9297289184376
 30
0.0
 10
212.5541647347887
 20
104.9590918236398
 30
0.0
 10
212.5546845278929
 20
105.016601389873
 30
0.0
 10
212.5579086356583
 20
105.1007482165192
 30
0.0
 10
212.5635376665631
 20
105.1806589735586
 30
0.0
 10
212.5719402600658
 20
105.2562642622325
 30
0.0
 10
212.5818905050083
 20
105.3277347385349
 30
0.0
 10
212.5948258862069
 20
105.3949684067253
 30
0.0
 10
212.6093800705507
 20
105.4581161163698
 30
0.0
 10
212.626842479974
 20
105.5171120462108
 30
0.0
 10
212.6460279513195
 20
105.572463453851
 30
0.0
 10
212.6677944806376
 20
105.6240815431363
 30
0.0
 10
212.6922847788317
 20
105.6719115867425
 30
0.0
 10
212.7182952999676
 20
105.7164496090481
 30
0.0
 10
212.7471952912009
 20
105.7570028605073
 30
0.0
 10
212.7772404070101
 20
105.7947094313704
 30
0.0
 10
212.8106141470204
 20
105.8281864745562
 30
0.0
 10
212.8459287595309
 20
105.8582953574194
 30
0.0
 10
212.8837042613666
 20
105.8848646918921
 30
0.0
 10
212.9237407826192
 20
105.9077908228255
 30
0.0
 10
212.965884273646
 20
105.9280329433758
 30
0.0
 10
213.010937942781
 20
105.9432712064379
 30
0.0
 10
213.0579664845117
 20
105.9556936212003
 30
0.0
 10
213.1073319001644
 20
105.9648317001214
 30
0.0
 10
213.1590885896656
 20
105.9702189060386
 30
0.0
 10
213.1944570116522
 20
105.9707701284046
 30
0.0
 10
213.2124425943378
 20
105.9710504365124
 30
0.0
  0
SPLINE
  5
18B
330
1F
100
AcDbEntity
  8
0
  6
Continuous
 62
     7
370
     0
100
AcDbSpline
210
0.0
220
0.0
230
1.0
 70
     8
 71
     3
 72
    15
 73
    11
 74
     0
 42
0.00000001
 43
0.00000001
 12
1.0
 22
0.0
 32
0.0
 13
1.0
 23
0.0
 33
0.0
 40
0.0
 40
0.0
 40
0.0
 40
0.0
 40
0.0974206681772145
 40
0.2008855880393207
 40
0.3111719701726504
 40
0.4297979458253723
 40
0.5577399263645877
 40
0.6947152693641585
 40
0.8421299102060552
 40
1.0
 40
1.0
 40
1.0
 40
1.0
 10
212.7535202652258
 20
104.0880283237883
 30
0.0
 10
212.7372365083071
 20
104.1115178820363
 30
0.0
 10
212.7036587044869
 20
104.1599543566542
 30
0.0
 10
212.6643587964774
 20
104.242543038937
 30
0.0
 10
212.6293025827374
 20
104.3334615824366
 30
0.0
 10
212.6017898823254
 20
104.4344937981985
 30
0.0
 10
212.5802405795564
 20
104.544835583997
 30
0.0
 10
212.5646766027601
 20
104.6647034539199
 30
0.0
 10
212.5558689241514
 20
104.7940456210931
 30
0.0
 10
212.5545706899736
 20
104.8834801623188
 30
0.0
 10
212.5538993418004
 20
104.9297289184376
 30
0.0
  0
SPLINE
  5
18C
330
1F
100
AcDbEntity
  8
0
  6
Continuous
 62
     7
370
     0
100
AcDbSpline
210
0.0
220
0.0
230
1.0
 70
     8
 71
     3
 72
    15
 73
    11
 74
     0
 42
0.00000001
 43
0.00000001
 12
1.0
 22
0.0
 32
0.0
 13
1.0
 23
0.0
 33
0.0
 40
0.0
 40
0.0
 40
0.0
 40
0.0
 40
0.1379032299933934
 40
0.2688733426002937
 40
0.3951781273461133
 40
0.5170892381308875
 40
0.6367430265135471
 40
0.7562218164637977
 40
0.87662835946368
 40
1.0
 40
1.0
 40
1.0
 40
1.0
 10
213.2124425943378
 20
103.8900537584942
 30
0.0
 10
213.1886818124001
 20
103.8907315360554
 30
0.0
 10
213.1423548274361
 20
103.8920530157511
 30
0.0
 10
213.0746976818505
 20
103.9010316563135
 30
0.0
 10
213.0111978419273
 20
103.9168344852663
 30
0.0
 10
212.9513197228809
 20
103.9380283071909
 30
0.0
 10
212.8957363711416
 20
103.9663762644716
 30
0.0
 10
212.8441823983066
 20
104.0008670900015
 30
0.0
 10
212.7956218644574
 20
104.0406983182956
 30
0.0
 10
212.7676674689717
 20
104.0721242431069
 30
0.0
 10
212.7535202652258
 20
104.0880283237883
 30
0.0
  0
LINE
  5
18D
330
1F
100
AcDbEntity
  8
0
  6
Continuous
 62
     7
370
     0
100
AcDbLine
 10
215.6622234938
 20
104.7593308518
 30
0.0
 11
216.4261336667
 21
104.7593308518
 31
0.0
  0
LINE
  5
18E
330
1F
100
AcDbEntity
  8
0
  6
Continuous
 62
     7
370
     0
100
AcDbLine
 10
215.6622234938
 20
104.5222552809
 30
0.0
 11
215.6622234938
 21
104.7593308518
 31
0.0
  0
LINE
  5
18F
330
1F
100
AcDbEntity
  8
0
  6
Continuous
 62
     7
370
     0
100
AcDbLine
 10
216.4261336667
 20
104.5222552809
 30
0.0
 11
215.6622234938
 21
104.5222552809
 31
0.0
  0
LINE
  5
190
330
1F
100
AcDbEntity
  8
0
  6
Continuous
 62
     7
370
     0
100
AcDbLine
 10
216.4261336667
 20
104.7593308518
 30
0.0
 11
216.4261336667
 21
104.5222552809
 31
0.0
  0
SPLINE
  5
191
330
1F
100
AcDbEntity
  8
0
  6
Continuous
 62
     7
370
     0
100
AcDbSpline
210
0.0
220
0.0
230
1.0
 70
     8
 71
     3
 72
    15
 73
    11
 74
     0
 42
0.00000001
 43
0.00000001
 12
1.0
 22
0.0
 32
0.0
 13
1.0
 23
0.0
 33
0.0
 40
0.0
 40
0.0
 40
0.0
 40
0.0
 40
0.1324616222426389
 40
0.2616495010354901
 40
0.3875466984163662
 40
0.5107816292933476
 40
0.6326753605997109
 40
0.7546603541381376
 40
0.8765227798028652
 40
1.0
 40
1.0
 40
1.0
 40
1.0
 10
219.5607995487983
 20
104.6210367688107
 30
0.0
 10
219.560333143139
 20
104.5982427162238
 30
0.0
 10
219.559411858876
 20
104.5532179582223
 30
0.0
 10
219.551861743797
 20
104.4868656538929
 30
0.0
 10
219.5394247235581
 20
104.4229299860427
 30
0.0
 10
219.5227749853006
 20
104.3612216214957
 30
0.0
 10
219.5002789545327
 20
104.3020910160264
 30
0.0
 10
219.4729933748402
 20
104.245347172984
 30
0.0
 10
219.4415179282053
 20
104.1903979895814
 30
0.0
 10
219.4162762534092
 20
104.1565249893906
 30
0.0
 10
219.403572347255
 20
104.1394770153928
 30
0.0
  0
SPLINE
  5
192
330
1F
100
AcDbEntity
  8
0
  6
Continuous
 62
     7
370
     0
100
AcDbSpline
210
0.0
220
0.0
230
1.0
 70
     8
 71
     3
 72
    23
 73
    19
 74
     0
 42
0.00000001
 43
0.00000001
 12
1.0
 22
0.0
 32
0.0
 13
1.0
 23
0.0
 33
0.0
 40
0.0
 40
0.0
 40
0.0
 40
0.0
 40
0.0619974190757218
 40
0.1220879540822929
 40
0.1813753107870036
 40
0.2395080083953656
 40
0.2978356978967513
 40
0.3568799706531183
 40
0.4172818251154284
 40
0.4796404090798159
 40
0.5425000674783568
 40
0.6049624196481905
 40
0.6669910330782646
 40
0.7302162430101639
 40
0.794172863251256
 40
0.8604581431502616
 40
0.9285781799847829
 40
1.0
 40
1.0
 40
1.0
 40
1.0
 10
218.9578208831937
 20
105.2861654538735
 30
0.0
 10
218.9785661032627
 20
105.285621912651
 30
0.0
 10
219.0194184728125
 20
105.2845515481615
 30
0.0
 10
219.0796158538907
 20
105.2757571561569
 30
0.0
 10
219.1371746764913
 20
105.2608280927226
 30
0.0
 10
219.1925464272044
 20
105.2407208208035
 30
0.0
 10
219.2450009648765
 20
105.214065197022
 30
0.0
 10
219.2950696162449
 20
105.1817908966198
 30
0.0
 10
219.3425502368415
 20
105.1436318915698
 30
0.0
 10
219.3871744050575
 20
105.1003081635476
 30
0.0
 10
219.4276503003069
 20
105.0522142708878
 30
0.0
 10
219.463877547596
 20
105.000918730096
 30
0.0
 10
219.4934659843489
 20
104.9453947455965
 30
0.0
 10
219.5183518904104
 20
104.8870920581124
 30
0.0
 10
219.5371213736179
 20
104.8250536078538
 30
0.0
 10
219.5513680664758
 20
104.7601598471347
 30
0.0
 10
219.55898530018
 20
104.6915994557986
 30
0.0
 10
219.5601853343505
 20
104.6449257889716
 30
0.0
 10
219.5607995487983
 20
104.6210367688107
 30
0.0
  0
SPLINE
  5
193
330
1F
100
AcDbEntity
  8
0
  6
Continuous
 62
     7
370
     0
100
AcDbSpline
210
0.0
220
0.0
230
1.0
 70
     8
 71
     3
 72
    15
 73
    11
 74
     0
 42
0.00000001
 43
0.00000001
 12
1.0
 22
0.0
 32
0.0
 13
1.0
 23
0.0
 33
0.0
 40
0.0
 40
0.0
 40
0.0
 40
0.0
 40
0.1367294018595732
 40
0.2685149167908296
 40
0.3955294046848086
 40
0.519999953565812
 40
0.6404964768412694
 40
0.7612361017625326
 40
0.880106717175953
 40
1.0
 40
1.0
 40
1.0
 40
1.0
 10
218.5915061989698
 20
105.1491061394392
 30
0.0
 10
218.6060408601901
 20
105.1600131529425
 30
0.0
 10
218.63458463567
 20
105.1814328021435
 30
0.0
 10
218.6791078091182
 20
105.2094790093792
 30
0.0
 10
218.7242676172332
 20
105.2331200919334
 30
0.0
 10
218.7698011732711
 20
105.2524801505569
 30
0.0
 10
218.8160701698712
 20
105.2675616021682
 30
0.0
 10
218.8627953984899
 20
105.2780394983367
 30
0.0
 10
218.9101359506781
 20
105.2851210771047
 30
0.0
 10
218.9418805830898
 20
105.285816335646
 30
0.0
 10
218.9578208831937
 20
105.2861654538735
 30
0.0
  0
LINE
  5
194
330
1F
100
AcDbEntity
  8
0
  6
Continuous
 62
     7
370
     0
100
AcDbLine
 10
218.6960499403
 20
105.6812914054
 30
0.0
 11
218.591506199
 21
105.1491061394
 31
0.0
  0
LINE
  5
195
330
1F
100
AcDbEntity
  8
0
  6
Continuous
 62
     7
370
     0
100
AcDbLine
 10
219.4554326284
 20
105.6812914054
 30
0.0
 11
218.6960499403
 21
105.6812914054
 31
0.0
  0
LINE
  5
196
330
1F
100
AcDbEntity
  8
0
  6
Continuous
 62
     7
370
     0
100
AcDbLine
 10
219.4554326284
 20
105.9447087064
 30
0.0
 11
219.4554326284
 21
105.6812914054
 31
0.0
  0
LINE
  5
197
330
1F
100
AcDbEntity
  8
0
  6
Continuous
 62
     7
370
     0
100
AcDbLine
 10
218.4807886146
 20
105.9447087064
 30
0.0
 11
219.4554326284
 21
105.9447087064
 31
0.0
  0
LINE
  5
198
330
1F
100
AcDbEntity
  8
0
  6
Continuous
 62
     7
370
     0
100
AcDbLine
 10
218.2700547738
 20
104.8910395024
 30
0.0
 11
218.4807886146
 21
105.9447087064
 31
0.0
  0
LINE
  5
199
330
1F
100
AcDbEntity
  8
0
  6
Continuous
 62
     7
370
     0
100
AcDbLine
 10
218.5334720748
 20
104.8646977722
 30
0.0
 11
218.2700547738
 21
104.8910395024
 31
0.0
  0
SPLINE
  5
19A
330
1F
100
AcDbEntity
  8
0
  6
Continuous
 62
     7
370
     0
100
AcDbSpline
210
0.0
220
0.0
230
1.0
 70
     8
 71
     3
 72
    15
 73
    11
 74
     0
 42
0.00000001
 43
0.00000001
 12
1.0
 22
0.0
 32
0.0
 13
1.0
 23
0.0
 33
0.0
 40
0.0
 40
0.0
 40
0.0
 40
0.0
 40
0.1478596367312524
 40
0.2835613219395479
 40
0.4123693961385312
 40
0.5342363558879448
 40
0.6526916293119828
 40
0.7686630594981232
 40
0.8836524018604038
 40
1.0
 40
1.0
 40
1.0
 40
1.0
 10
218.8849695358818
 20
105.04908988296
 30
0.0
 10
218.8644847670163
 20
105.0484906634311
 30
0.0
 10
218.8251996161291
 20
105.0473414959805
 30
0.0
 10
218.7687508941985
 20
105.037673962272
 30
0.0
 10
218.7173635788985
 20
105.022057293092
 30
0.0
 10
218.6716194756168
 20
104.9987825476084
 30
0.0
 10
218.6307493797411
 20
104.970977041119
 30
0.0
 10
218.5939042370196
 20
104.939513849114
 30
0.0
 10
218.5607802218296
 20
104.9044142434878
 30
0.0
 10
218.5426103509459
 20
104.8779883144555
 30
0.0
 10
218.5334720748399
 20
104.8646977722496
 30
0.0
  0
SPLINE
  5
19B
330
1F
100
AcDbEntity
  8
0
  6
Continuous
 62
     7
370
     0
100
AcDbSpline
210
0.0
220
0.0
230
1.0
 70
     8
 71
     3
 72
    23
 73
    19
 74
     0
 42
0.00000001
 43
0.00000001
 12
1.0
 22
0.0
 32
0.0
 13
1.0
 23
0.0
 33
0.0
 40
0.0
 40
0.0
 40
0.0
 40
0.0
 40
0.0728659334565351
 40
0.1418868719641257
 40
0.2074526264147114
 40
0.2704376800000974
 40
0.3316408722476697
 40
0.3901075774931579
 40
0.448069286948836
 40
0.5055029519245373
 40
0.5624881528337237
 40
0.6190843288847296
 40
0.6764155306922395
 40
0.7354523604507923
 40
0.7962407694486788
 40
0.8604056780892032
 40
0.9283049272851057
 40
1.0
 40
1.0
 40
1.0
 40
1.0
 10
219.2973822477833
 20
104.605396366563
 30
0.0
 10
219.2970798571934
 20
104.622145974917
 30
0.0
 10
219.2964910325824
 20
104.6547613470564
 30
0.0
 10
219.2915321687061
 20
104.7022547517571
 30
0.0
 10
219.2831659815457
 20
104.7469129250202
 30
0.0
 10
219.2723409187098
 20
104.7892280778628
 30
0.0
 10
219.2574199349537
 20
104.8285389839071
 30
0.0
 10
219.2397228080486
 20
104.8654156128557
 30
0.0
 10
219.2180430838064
 20
104.8990753340751
 30
0.0
 10
219.1939229599957
 20
104.9305661893862
 30
0.0
 10
219.1663747334466
 20
104.9587964722713
 30
0.0
 10
219.1350262322478
 20
104.9826333705391
 30
0.0
 10
219.101107239592
 20
105.003495470432
 30
0.0
 10
219.0639345922191
 20
105.0204133319926
 30
0.0
 10
219.023486401071
 20
105.0329826674076
 30
0.0
 10
218.9801646097115
 20
105.0426536400055
 30
0.0
 10
218.9335196903847
 20
105.0477401755876
 30
0.0
 10
218.9014436559557
 20
105.0486318979846
 30
0.0
 10
218.8849695358818
 20
105.04908988296
 30
0.0
  0
SPLINE
  5
19C
330
1F
100
AcDbEntity
  8
0
  6
Continuous
 62
     7
370
     0
100
AcDbSpline
210
0.0
220
0.0
230
1.0
 70
     8
 71
     3
 72
    23
 73
    19
 74
     0
 42
0.00000001
 43
0.00000001
 12
1.0
 22
0.0
 32
0.0
 13
1.0
 23
0.0
 33
0.0
 40
0.0
 40
0.0
 40
0.0
 40
0.0
 40
0.065801037609473
 40
0.1286767959489727
 40
0.188675874952433
 40
0.2475984367338943
 40
0.3048494201188272
 40
0.3617858992828988
 40
0.4195227063685889
 40
0.4786818154207403
 40
0.538769503044019
 40
0.5987990560131536
 40
0.6601842815006785
 40
0.7229515306109658
 40
0.7879926891048736
 40
0.8554037684344737
 40
0.9261530612840035
 40
1.0
 40
1.0
 40
1.0
 40
1.0
 10
218.8837347672833
 20
104.1271293294077
 30
0.0
 10
218.8993960463756
 20
104.1275077513727
 30
0.0
 10
218.9300223599914
 20
104.1282477720129
 30
0.0
 10
218.9745778447753
 20
104.1345065692705
 30
0.0
 10
219.0166641086449
 20
104.1448266008523
 30
0.0
 10
219.056079775229
 20
104.1592687184124
 30
0.0
 10
219.0932869167999
 20
104.1772292004623
 30
0.0
 10
219.1270512091154
 20
104.2004847530166
 30
0.0
 10
219.1592136674771
 20
104.2266262919942
 30
0.0
 10
219.1877046304033
 20
104.2577920235864
 30
0.0
 10
219.2136394114279
 20
104.2917211282783
 30
0.0
 10
219.2360230772212
 20
104.3287561893253
 30
0.0
 10
219.2548669613175
 20
104.3683773903372
 30
0.0
 10
219.2707314520851
 20
104.4105771351988
 30
0.0
 10
219.2824462207999
 20
104.4555964964088
 30
0.0
 10
219.2910633794474
 20
104.5031959795502
 30
0.0
 10
219.2965952513108
 20
104.5534059055391
 30
0.0
 10
219.2971161956096
 20
104.5878204616533
 30
0.0
 10
219.2973822477833
 20
104.605396366563
 30
0.0
  0
SPLINE
  5
19D
330
1F
100
AcDbEntity
  8
0
  6
Continuous
 62
     7
370
     0
100
AcDbSpline
210
0.0
220
0.0
230
1.0
 70
     8
 71
     3
 72
    23
 73
    19
 74
     0
 42
0.00000001
 43
0.00000001
 12
1.0
 22
0.0
 32
0.0
 13
1.0
 23
0.0
 33
0.0
 40
0.0
 40
0.0
 40
0.0
 40
0.0
 40
0.0773613371189766
 40
0.1504798322806808
 40
0.2199772368520749
 40
0.2866809968624412
 40
0.3496784941856629
 40
0.410679625017485
 40
0.469427113519291
 40
0.5267557014271297
 40
0.5831419808348368
 40
0.6388244277786262
 40
0.6952634704038116
 40
0.7526958048985345
 40
0.8108491833348943
 40
0.8713563036360842
 40
0.9344364309841282
 40
1.0
 40
1.0
 40
1.0
 40
1.0
 10
218.5071303447384
 20
104.4959135508286
 30
0.0
 10
218.5097385895685
 20
104.4810714316084
 30
0.0
 10
218.514812031409
 20
104.4522012014117
 30
0.0
 10
218.5244800355602
 20
104.4104106868876
 30
0.0
 10
218.5370360208905
 20
104.3715861307975
 30
0.0
 10
218.5511440527428
 20
104.3353912903106
 30
0.0
 10
218.5679138286777
 20
104.3022088805446
 30
0.0
 10
218.5860840198397
 20
104.2715149686073
 30
0.0
 10
218.607512046876
 20
104.2443990926889
 30
0.0
 10
218.6300407402423
 20
104.2194430669044
 30
0.0
 10
218.6547677026352
 20
104.197452394663
 30
0.0
 10
218.6819315307283
 20
104.1789134993255
 30
0.0
 10
218.7107743359102
 20
104.1627394357472
 30
0.0
 10
218.741647412675
 20
104.1494968310552
 30
0.0
 10
218.7745980776091
 20
104.1398039418407
 30
0.0
 10
218.8092069568074
 20
104.1321385304683
 30
0.0
 10
218.8459197022046
 20
104.1282759658304
 30
0.0
 10
218.87096855782
 20
104.1275164291184
 30
0.0
 10
218.8837347672833
 20
104.1271293294077
 30
0.0
  0
LINE
  5
19E
330
1F
100
AcDbEntity
  8
0
  6
Continuous
 62
     7
370
     0
100
AcDbLine
 10
218.2437130437
 20
104.4695718207
 30
0.0
 11
218.5071303447
 21
104.4959135508
 31
0.0
  0
SPLINE
  5
19F
330
1F
100
AcDbEntity
  8
0
  6
Continuous
 62
     7
370
     0
100
AcDbSpline
210
0.0
220
0.0
230
1.0
 70
     8
 71
     3
 72
    23
 73
    19
 74
     0
 42
0.00000001
 43
0.00000001
 12
1.0
 22
0.0
 32
0.0
 13
1.0
 23
0.0
 33
0.0
 40
0.0
 40
0.0
 40
0.0
 40
0.0
 40
0.0692980234597533
 40
0.135560844101282
 40
0.1996709556470566
 40
0.2617162384956088
 40
0.3226619299471025
 40
0.3829069237782243
 40
0.4430320330728903
 40
0.5035007873501627
 40
0.5637242810171079
 40
0.6239800220534739
 40
0.6836293869955231
 40
0.7438482724857304
 40
0.8051918462295101
 40
0.8676487429597673
 40
0.9327780842312611
 40
1.0
 40
1.0
 40
1.0
 40
1.0
 10
218.8820884091519
 20
103.8900537584942
 30
0.0
 10
218.8599773962499
 20
103.8905022767866
 30
0.0
 10
218.8167238166629
 20
103.8913796685977
 30
0.0
 10
218.7533928803477
 20
103.8990072974294
 30
0.0
 10
218.693157670944
 20
103.9111706758216
 30
0.0
 10
218.635999317746
 20
103.9286167257912
 30
0.0
 10
218.5817456179736
 20
103.950661442601
 30
0.0
 10
218.5310272002384
 20
103.9786657919884
 30
0.0
 10
218.4829639010524
 20
104.0107010234506
 30
0.0
 10
218.4386129528188
 20
104.0477541365638
 30
0.0
 10
218.3982034644102
 20
104.089082602631
 30
0.0
 10
218.3619957421165
 20
104.1338107605278
 30
0.0
 10
218.3304797750689
 20
104.1819677762771
 30
0.0
 10
218.3036707744027
 20
104.2332654889734
 30
0.0
 10
218.2813267103125
 20
104.2876547026845
 30
0.0
 10
218.2642326178602
 20
104.345506644561
 30
0.0
 10
218.2506926740984
 20
104.4062536979492
 30
0.0
 10
218.2460639815703
 20
104.4482444776975
 30
0.0
 10
218.2437130437235
 20
104.4695718207271
 30
0.0
  0
SPLINE
  5
1A0
330
1F
100
AcDbEntity
  8
0
  6
Continuous
 62
     7
370
     0
100
AcDbSpline
210
0.0
220
0.0
230
1.0
 70
     8
 71
     3
 72
    15
 73
    11
 74
     0
 42
0.00000001
 43
0.00000001
 12
1.0
 22
0.0
 32
0.0
 13
1.0
 23
0.0
 33
0.0
 40
0.0
 40
0.0
 40
0.0
 40
0.0
 40
0.1278926194654212
 40
0.2515785135038572
 40
0.3727928197023039
 40
0.4927776986078531
 40
0.6135900692425721
 40
0.7378086492801459
 40
0.866179901539168
 40
1.0
 40
1.0
 40
1.0
 40
1.0
 10
219.403572347255
 20
104.1394770153928
 30
0.0
 10
219.3874323906662
 20
104.1195766644677
 30
0.0
 10
219.3556833632117
 20
104.0804305376243
 30
0.0
 10
219.3007102687432
 20
104.0296212079771
 30
0.0
 10
219.2416134127836
 20
103.9864402703793
 30
0.0
 10
219.178041102765
 20
103.9513588879594
 30
0.0
 10
219.1104201201787
 20
103.923168026519
 30
0.0
 10
219.0379197597904
 20
103.904408066786
 30
0.0
 10
218.9614160637294
 20
103.8918100107339
 30
0.0
 10
218.9088947920688
 20
103.8906472308499
 30
0.0
 10
218.8820884091519
 20
103.8900537584942
 30
0.0
  0
LINE
  5
1A1
330
1F
100
AcDbEntity
  8
0
  6
Continuous
 62
     7
370
     0
100
AcDbLine
 10
221.3520371957
 20
104.7593308518
 30
0.0
 11
222.1159473686
 21
104.7593308518
 31
0.0
  0
LINE
  5
1A2
330
1F
100
AcDbEntity
  8
0
  6
Continuous
 62
     7
370
     0
100
AcDbLine
 10
221.3520371957
 20
104.5222552809
 30
0.0
 11
221.3520371957
 21
104.7593308518
 31
0.0
  0
LINE
  5
1A3
330
1F
100
AcDbEntity
  8
0
  6
Continuous
 62
     7
370
     0
100
AcDbLine
 10
222.1159473686
 20
104.5222552809
 30
0.0
 11
221.3520371957
 21
104.5222552809
 31
0.0
  0
LINE
  5
1A4
330
1F
100
AcDbEntity
  8
0
  6
Continuous
 62
     7
370
     0
100
AcDbLine
 10
222.1159473686
 20
104.7593308518
 30
0.0
 11
222.1159473686
 21
104.5222552809
 31
0.0
  0
SPLINE
  5
1A5
330
1F
100
AcDbEntity
  8
0
  6
Continuous
 62
     7
370
     0
100
AcDbSpline
210
0.0
220
0.0
230
1.0
 70
     8
 71
     3
 72
    31
 73
    27
 74
     0
 42
0.00000001
 43
0.00000001
 12
1.0
 22
0.0
 32
0.0
 13
1.0
 23
0.0
 33
0.0
 40
0.0
 40
0.0
 40
0.0
 40
0.0
 40
0.0628739462114324
 40
0.1228366299919129
 40
0.1796565674430315
 40
0.2339600122308621
 40
0.2855950186955591
 40
0.3345131060783806
 40
0.3809048259061764
 40
0.4248945919393348
 40
0.4665290347654876
 40
0.5064882940692463
 40
0.5450315536447548
 40
0.5818311798231349
 40
0.6174482799494435
 40
0.652066912769046
 40
0.685879714246511
 40
0.7191745547913925
 40
0.7521816462063932
 40
0.7852401639180917
 40
0.8186564497770835
 40
0.852547740653311
 40
0.8876263422585192
 40
0.9236350780687517
 40
0.9610218444769894
 40
1.0
 40
1.0
 40
1.0
 40
1.0
 10
225.5667140119393
 20
104.9297289184376
 30
0.0
 10
225.5664436477033
 20
104.9005039350947
 30
0.0
 10
225.5659154379499
 20
104.8434071775069
 30
0.0
 10
225.5627777216736
 20
104.7599350666282
 30
0.0
 10
225.5568095021967
 20
104.6806271973456
 30
0.0
 10
225.5494654990909
 20
104.6053018984051
 30
0.0
 10
225.5383555606744
 20
104.5341602529032
 30
0.0
 10
225.5263840000842
 20
104.4668999988095
 30
0.0
 10
225.5115781367589
 20
104.4038265569132
 30
0.0
 10
225.4943031703098
 20
104.3449122837503
 30
0.0
 10
225.4748476353699
 20
104.2898456618606
 30
0.0
 10
225.4535116307289
 20
104.2382105283273
 30
0.0
 10
225.4298799569254
 20
104.1900421660879
 30
0.0
 10
225.403249246094
 20
104.1458103851879
 30
0.0
 10
225.374837973895
 20
104.1049280827898
 30
0.0
 10
225.3444380579664
 20
104.067241900187
 30
0.0
 10
225.3114049845009
 20
104.0332942504783
 30
0.0
 10
225.2757721323284
 20
104.0032756780608
 30
0.0
 10
225.2382618620071
 20
103.9762351745065
 30
0.0
 10
225.1981280046418
 20
103.9530826934439
 30
0.0
 10
225.1555462198707
 20
103.933901265023
 30
0.0
 10
225.1108010129946
 20
103.9175020966847
 30
0.0
 10
225.0634383793374
 20
103.9054857479881
 30
0.0
 10
225.0138318162207
 20
103.8962874208295
 30
0.0
 10
224.9617985468425
 20
103.8908707796816
 30
0.0
 10
224.9262933228478
 20
103.8903298563721
 30
0.0
 10
224.9081707594019
 20
103.8900537584942
 30
0.0
  0
SPLINE
  5
1A6
330
1F
100
AcDbEntity
  8
0
  6
Continuous
 62
     7
370
     0
100
AcDbSpline
210
0.0
220
0.0
230
1.0
 70
     8
 71
     3
 72
    27
 73
    23
 74
     0
 42
0.00000001
 43
0.00000001
 12
1.0
 22
0.0
 32
0.0
 13
1.0
 23
0.0
 33
0.0
 40
0.0
 40
0.0
 40
0.0
 40
0.0
 40
0.0567243372181508
 40
0.1114372357370111
 40
0.1643678222229013
 40
0.2164353724620895
 40
0.2676414903219251
 40
0.3173597799690279
 40
0.3674730633322808
 40
0.4182103970528078
 40
0.4714042826470199
 40
0.5279657201290492
 40
0.5880611158232136
 40
0.6521342629937142
 40
0.6863448363353056
 40
0.7232636803169652
 40
0.7626102507715418
 40
0.8047389366452182
 40
0.8494303387909499
 40
0.8967112583864923
 40
0.9468896380534765
 40
1.0
 40
1.0
 40
1.0
 40
1.0
 10
224.9081707594019
 20
105.9710504365124
 30
0.0
 10
224.9345579485112
 20
105.9702746718276
 30
0.0
 10
224.986396639934
 20
105.9687506509876
 30
0.0
 10
225.062081397112
 20
105.9563210135622
 30
0.0
 10
225.1334094027572
 20
105.9350582030546
 30
0.0
 10
225.2003343155839
 20
105.906373754408
 30
0.0
 10
225.2617120645755
 20
105.8699389838301
 30
0.0
 10
225.3165249814087
 20
105.8256469691815
 30
0.0
 10
225.3641818202375
 20
105.7739627678692
 30
0.0
 10
225.4041624804098
 20
105.7142739390547
 30
0.0
 10
225.439109568128
 20
105.6482270992422
 30
0.0
 10
225.4701557937032
 20
105.5755258058496
 30
0.0
 10
225.4982206798778
 20
105.496251528886
 30
0.0
 10
225.5181361340615
 20
105.4252899842107
 30
0.0
 10
225.5323418111783
 20
105.3640334609155
 30
0.0
 10
225.5417448407446
 20
105.313510813335
 30
0.0
 10
225.5495512403989
 20
105.2589965921661
 30
0.0
 10
225.5555319975289
 20
105.2006226819846
 30
0.0
 10
225.5604390676406
 20
105.1384545543251
 30
0.0
 10
225.5642285729987
 20
105.0724535021219
 30
0.0
 10
225.5661521349728
 20
105.0024545669742
 30
0.0
 10
225.5665232084859
 20
104.9544252589451
 30
0.0
 10
225.5667140119393
 20
104.9297289184376
 30
0.0
  0
SPLINE
  5
1A7
330
1F
100
AcDbEntity
  8
0
  6
Continuous
 62
     7
370
     0
100
AcDbSpline
210
0.0
220
0.0
230
1.0
 70
     8
 71
     3
 72
    31
 73
    27
 74
     0
 42
0.00000001
 43
0.00000001
 12
1.0
 22
0.0
 32
0.0
 13
1.0
 23
0.0
 33
0.0
 40
0.0
 40
0.0
 40
0.0
 40
0.0
 40
0.0631144583947934
 40
0.1236146457694899
 40
0.1809737111859575
 40
0.235261455008322
 40
0.2871007018338719
 40
0.3360307363034434
 40
0.3823823485850662
 40
0.426334083659707
 40
0.4682106947981599
 40
0.5082496012618049
 40
0.5466283366065846
 40
0.5836495392304459
 40
0.6189943150301614
 40
0.6535830186205956
 40
0.687156136190331
 40
0.7204221919788075
 40
0.7532302188118168
 40
0.7862601560778997
 40
0.8195039834988835
 40
0.8535452747120178
 40
0.8883082803397293
 40
0.9239958607406945
 40
0.9613503047546453
 40
1.0
 40
1.0
 40
1.0
 40
1.0
 10
224.2496275068645
 20
104.9297289184376
 30
0.0
 10
224.2498928998529
 20
104.9590918236398
 30
0.0
 10
224.250412692957
 20
105.016601389873
 30
0.0
 10
224.2536368007223
 20
105.1007482165192
 30
0.0
 10
224.2592658316272
 20
105.1806589735586
 30
0.0
 10
224.2676684251299
 20
105.2562642622325
 30
0.0
 10
224.2776186700723
 20
105.3277347385349
 30
0.0
 10
224.290554051271
 20
105.3949684067253
 30
0.0
 10
224.3051082356148
 20
105.4581161163698
 30
0.0
 10
224.3225706450381
 20
105.5171120462108
 30
0.0
 10
224.3417561163837
 20
105.572463453851
 30
0.0
 10
224.3635226457017
 20
105.6240815431363
 30
0.0
 10
224.3880129438959
 20
105.6719115867425
 30
0.0
 10
224.4140234650317
 20
105.7164496090481
 30
0.0
 10
224.442923456265
 20
105.7570028605073
 30
0.0
 10
224.4729685720741
 20
105.7947094313704
 30
0.0
 10
224.5063423120845
 20
105.8281864745562
 30
0.0
 10
224.541656924595
 20
105.8582953574194
 30
0.0
 10
224.5794324264307
 20
105.8848646918921
 30
0.0
 10
224.6194689476833
 20
105.9077908228255
 30
0.0
 10
224.6616124387101
 20
105.9280329433758
 30
0.0
 10
224.7066661078451
 20
105.9432712064379
 30
0.0
 10
224.7536946495758
 20
105.9556936212003
 30
0.0
 10
224.8030600652285
 20
105.9648317001214
 30
0.0
 10
224.8548167547297
 20
105.9702189060386
 30
0.0
 10
224.8901851767163
 20
105.9707701284046
 30
0.0
 10
224.9081707594019
 20
105.9710504365124
 30
0.0
  0
SPLINE
  5
1A8
330
1F
100
AcDbEntity
  8
0
  6
Continuous
 62
     7
370
     0
100
AcDbSpline
210
0.0
220
0.0
230
1.0
 70
     8
 71
     3
 72
    15
 73
    11
 74
     0
 42
0.00000001
 43
0.00000001
 12
1.0
 22
0.0
 32
0.0
 13
1.0
 23
0.0
 33
0.0
 40
0.0
 40
0.0
 40
0.0
 40
0.0
 40
0.0974206681772145
 40
0.2008855880393207
 40
0.3111719701726504
 40
0.4297979458253728
 40
0.5577399263645871
 40
0.6947152693641585
 40
0.8421299102060552
 40
1.0
 40
1.0
 40
1.0
 40
1.0
 10
224.4492484302899
 20
104.0880283237883
 30
0.0
 10
224.4329646733713
 20
104.1115178820363
 30
0.0
 10
224.399386869551
 20
104.1599543566542
 30
0.0
 10
224.3600869615415
 20
104.242543038937
 30
0.0
 10
224.3250307478014
 20
104.3334615824366
 30
0.0
 10
224.2975180473895
 20
104.4344937981985
 30
0.0
 10
224.2759687446205
 20
104.544835583997
 30
0.0
 10
224.2604047678242
 20
104.6647034539199
 30
0.0
 10
224.2515970892155
 20
104.7940456210931
 30
0.0
 10
224.2502988550377
 20
104.8834801623188
 30
0.0
 10
224.2496275068645
 20
104.9297289184376
 30
0.0
  0
SPLINE
  5
1A9
330
1F
100
AcDbEntity
  8
0
  6
Continuous
 62
     7
370
     0
100
AcDbSpline
210
0.0
220
0.0
230
1.0
 70
     8
 71
     3
 72
    15
 73
    11
 74
     0
 42
0.00000001
 43
0.00000001
 12
1.0
 22
0.0
 32
0.0
 13
1.0
 23
0.0
 33
0.0
 40
0.0
 40
0.0
 40
0.0
 40
0.0
 40
0.1379032299933933
 40
0.2688733426002926
 40
0.3951781273461146
 40
0.5170892381308878
 40
0.6367430265135473
 40
0.7562218164637978
 40
0.87662835946368
 40
1.0
 40
1.0
 40
1.0
 40
1.0
 10
224.9081707594019
 20
103.8900537584942
 30
0.0
 10
224.8844099774642
 20
103.8907315360554
 30
0.0
 10
224.8380829925002
 20
103.8920530157511
 30
0.0
 10
224.7704258469146
 20
103.9010316563135
 30
0.0
 10
224.7069260069914
 20
103.9168344852663
 30
0.0
 10
224.647047887945
 20
103.9380283071909
 30
0.0
 10
224.5914645362057
 20
103.9663762644716
 30
0.0
 10
224.5399105633707
 20
104.0008670900015
 30
0.0
 10
224.4913500295216
 20
104.0406983182956
 30
0.0
 10
224.4633956340357
 20
104.0721242431069
 30
0.0
 10
224.4492484302899
 20
104.0880283237883
 30
0.0
  0
CIRCLE
  5
1AA
330
1F
100
AcDbEntity
  8
0
  6
Continuous
 62
     7
370
     0
100
AcDbCircle
 10
216.8607722134
 20
106.5274031008
 30
0.0
 40
25.40000000000001
  0
SPLINE
  5
1AB
330
1F
100
AcDbEntity
  8
0
  6
Continuous
 62
     7
370
     0
100
AcDbSpline
210
0.0
220
0.0
230
1.0
 70
     8
 71
     3
 72
    23
 73
    19
 74
     0
 42
0.00000001
 43
0.00000001
 12
1.0
 22
0.0
 32
0.0
 13
1.0
 23
0.0
 33
0.0
 40
0.0
 40
0.0
 40
0.0
 40
0.0
 40
0.1156291309254413
 40
0.2215410391198766
 40
0.3170478562190415
 40
0.4031508756396164
 40
0.4801812167162793
 40
0.5476493661481896
 40
0.6070358428421807
 40
0.6586524080635068
 40
0.7057228903536447
 40
0.7498040879796465
 40
0.7925868153452744
 40
0.8338739610102599
 40
0.8747683933034318
 40
0.9152226988916382
 40
0.9568807037304797
 40
1.0
 40
1.0
 40
1.0
 40
1.0
 10
225.3032967109243
 20
104.9305520975033
 30
0.0
 10
225.3030472593471
 20
104.9692485081197
 30
0.0
 10
225.302569319565
 20
105.043389366479
 30
0.0
 10
225.2971677242267
 20
105.1493822716775
 30
0.0
 10
225.2887029388841
 20
105.2452441784376
 30
0.0
 10
225.2771244572649
 20
105.3310634625482
 30
0.0
 10
225.26173665734
 20
105.4067469554113
 30
0.0
 10
225.2430733551031
 20
105.4724557768962
 30
0.0
 10
225.2208332398875
 20
105.5280497922663
 30
0.0
 10
225.1943898222597
 20
105.5740874445006
 30
0.0
 10
225.1649530074799
 20
105.6118508088337
 30
0.0
 10
225.1342034638637
 20
105.6445382865187
 30
0.0
 10
225.10137244972
 20
105.6723379213597
 30
0.0
 10
225.0658782982705
 20
105.6946391985217
 30
0.0
 10
225.0288650527723
 20
105.7126310394392
 30
0.0
 10
224.9894822429212
 20
105.7250134825261
 30
0.0
 10
224.9481169706153
 20
105.7326208682499
 30
0.0
 10
224.9197285208917
 20
105.7335183764191
 30
0.0
 10
224.905289632672
 20
105.7339748655989
 30
0.0
  0
SPLINE
  5
1AC
330
1F
100
AcDbEntity
  8
0
  6
Continuous
 62
     7
370
     0
100
AcDbSpline
210
0.0
220
0.0
230
1.0
 70
     8
 71
     3
 72
    23
 73
    19
 74
     0
 42
0.00000001
 43
0.00000001
 12
1.0
 22
0.0
 32
0.0
 13
1.0
 23
0.0
 33
0.0
 40
0.0
 40
0.0
 40
0.0
 40
0.0
 40
0.0407818458722593
 40
0.0808695887215865
 40
0.1202681657882668
 40
0.1601868504553523
 40
0.2004597376386395
 40
0.2422651778979076
 40
0.2864592615494688
 40
0.3329520837492632
 40
0.3844305340495304
 40
0.4433891253601054
 40
0.5116814722136832
 40
0.589020025549008
 40
0.6762451906507723
 40
0.7737051914728237
 40
0.881567767781983
 40
1.0
 40
1.0
 40
1.0
 40
1.0
 10
224.9081707594019
 20
104.1271293294077
 30
0.0
 10
224.9217764269788
 20
104.1276487574249
 30
0.0
 10
224.9487561950029
 20
104.1286787728452
 30
0.0
 10
224.9884728996308
 20
104.1355395425296
 30
0.0
 10
225.0263113170063
 20
104.1483576412462
 30
0.0
 10
225.0626126552463
 20
104.1651173597966
 30
0.0
 10
225.0971894904066
 20
104.1868252194545
 30
0.0
 10
225.1298599805674
 20
104.2135680847662
 30
0.0
 10
225.1611458408427
 20
104.2448941195846
 30
0.0
 10
225.1911547205247
 20
104.2817636292348
 30
0.0
 10
225.2184767728737
 20
104.3266812261806
 30
0.0
 10
225.2411423880169
 20
104.3820369861456
 30
0.0
 10
225.2605717730984
 20
104.4475557725847
 30
0.0
 10
225.2763769551801
 20
104.5237095506341
 30
0.0
 10
225.288330691794
 20
104.6103591236346
 30
0.0
 10
225.2972808180678
 20
104.7075870845181
 30
0.0
 10
225.3025466016401
 20
104.8155229995292
 30
0.0
 10
225.3030390081437
 20
104.891033431333
 30
0.0
 10
225.3032967109243
 20
104.9305520975033
 30
0.0
  0
SPLINE
  5
1AD
330
1F
100
AcDbEntity
  8
0
  6
Continuous
 62
     7
370
     0
100
AcDbSpline
210
0.0
220
0.0
230
1.0
 70
     8
 71
     3
 72
    23
 73
    19
 74
     0
 42
0.00000001
 43
0.00000001
 12
1.0
 22
0.0
 32
0.0
 13
1.0
 23
0.0
 33
0.0
 40
0.0
 40
0.0
 40
0.0
 40
0.0
 40
0.1184055081537694
 40
0.2266543328167019
 40
0.324092341928602
 40
0.4117048030053217
 40
0.4890259050064155
 40
0.5569093973430755
 40
0.6162333444927066
 40
0.6673492812770748
 40
0.7135123932013473
 40
0.7576965045209773
 40
0.7994925114422908
 40
0.8399760647439393
 40
0.8798857418167766
 40
0.919148659385742
 40
0.9592273564930833
 40
1.0
 40
1.0
 40
1.0
 40
1.0
 10
224.5130448078795
 20
104.9305520975033
 30
0.0
 10
224.5133063603124
 20
104.8910336096131
 30
0.0
 10
224.513807029522
 20
104.815386482665
 30
0.0
 10
224.5190378074554
 20
104.7073115104717
 30
0.0
 10
224.5280423763664
 20
104.6098131332419
 30
0.0
 10
224.5399470046158
 20
104.5230263438492
 30
0.0
 10
224.5556659338881
 20
104.446833745999
 30
0.0
 10
224.5754029087207
 20
104.3814295018867
 30
0.0
 10
224.5976511737309
 20
104.326028612309
 30
0.0
 10
224.6251829800897
 20
104.2813177286551
 30
0.0
 10
224.6553272671434
 20
104.2448718361228
 30
0.0
 10
224.6864491834129
 20
104.2135271898912
 30
0.0
 10
224.7192809200076
 20
104.1868849583066
 30
0.0
 10
224.753608253814
 20
104.1646707704888
 30
0.0
 10
224.7899637981187
 20
104.1478516469575
 30
0.0
 10
224.8279500110879
 20
104.1356611087696
 30
0.0
 10
224.867575158197
 20
104.1286456412157
 30
0.0
 10
224.8945616839565
 20
104.1276376505356
 30
0.0
 10
224.9081707594019
 20
104.1271293294077
 30
0.0
  0
SPLINE
  5
1AE
330
1F
100
AcDbEntity
  8
0
  6
Continuous
 62
     7
370
     0
100
AcDbSpline
210
0.0
220
0.0
230
1.0
 70
     8
 71
     3
 72
    15
 73
    11
 74
     0
 42
0.00000001
 43
0.00000001
 12
1.0
 22
0.0
 32
0.0
 13
1.0
 23
0.0
 33
0.0
 40
0.0
 40
0.0
 40
0.0
 40
0.0
 40
0.0838881132795455
 40
0.1771540327539698
 40
0.2825136355617228
 40
0.3993998606601629
 40
0.5294908061912204
 40
0.6728021776758327
 40
0.82953576161967
 40
1.0
 40
1.0
 40
1.0
 40
1.0
 10
224.631994182869
 20
105.5932112453691
 30
0.0
 10
224.6222037585443
 20
105.576842643928
 30
0.0
 10
224.601528443727
 20
105.5422756040643
 30
0.0
 10
224.5783939686262
 20
105.4821966645749
 30
0.0
 10
224.5579578878685
 20
105.4135378724687
 30
0.0
 10
224.5411322179185
 20
105.3352428623617
 30
0.0
 10
224.5289600260868
 20
105.2474459416885
 30
0.0
 10
224.5193505512999
 20
105.150249069975
 30
0.0
 10
224.5143587868307
 20
105.0435165487598
 30
0.0
 10
224.5134948852289
 20
104.9692458229608
 30
0.0
 10
224.5130448078795
 20
104.9305520975033
 30
0.0
  0
SPLINE
  5
1AF
330
1F
100
AcDbEntity
  8
0
  6
Continuous
 62
     7
370
     0
100
AcDbSpline
210
0.0
220
0.0
230
1.0
 70
     8
 71
     3
 72
    15
 73
    11
 74
     0
 42
0.00000001
 43
0.00000001
 12
1.0
 22
0.0
 32
0.0
 13
1.0
 23
0.0
 33
0.0
 40
0.0
 40
0.0
 40
0.0
 40
0.0
 40
0.1276647678962228
 40
0.2517385630080477
 40
0.3727533493873867
 40
0.4921467589723859
 40
0.6140696213092441
 40
0.737197324412108
 40
0.8656069906011162
 40
1.0
 40
1.0
 40
1.0
 40
1.0
 10
224.905289632672
 20
105.7339748655989
 30
0.0
 10
224.8916814119517
 20
105.7336177035205
 30
0.0
 10
224.8648477444827
 20
105.7329134256696
 30
0.0
 10
224.8255597410997
 20
105.7261911007148
 30
0.0
 10
224.7883269618368
 20
105.7149498750714
 30
0.0
 10
224.7527228393991
 20
105.6997225434408
 30
0.0
 10
224.7196362117124
 20
105.679229562742
 30
0.0
 10
224.687754945405
 20
105.6553025490793
 30
0.0
 10
224.6585722356397
 20
105.6261501535359
 30
0.0
 10
224.6409869907741
 20
105.6043562783142
 30
0.0
 10
224.631994182869
 20
105.5932112453691
 30
0.0
  0
SPLINE
  5
1B0
330
1F
100
AcDbEntity
  8
0
  6
Continuous
 62
     7
370
     0
100
AcDbSpline
210
0.0
220
0.0
230
1.0
 70
     8
 71
     3
 72
    15
 73
    11
 74
     0
 42
0.00000001
 43
0.00000001
 12
1.0
 22
0.0
 32
0.0
 13
1.0
 23
0.0
 33
0.0
 40
0.0
 40
0.0
 40
0.0
 40
0.0
 40
0.1323768784386572
 40
0.2551949197670689
 40
0.3737221416536693
 40
0.4900113154474169
 40
0.6078124214239345
 40
0.7311098159015433
 40
0.8599973777575841
 40
1.0
 40
1.0
 40
1.0
 40
1.0
 10
221.9434913543851
 20
108.2870647377798
 30
0.0
 10
221.9592255978141
 20
108.2925764444856
 30
0.0
 10
221.989557926517
 20
108.3032018616064
 30
0.0
 10
222.0302060842407
 20
108.327333252105
 30
0.0
 10
222.0648264996222
 20
108.3562908029308
 30
0.0
 10
222.0933263975405
 20
108.3905858331783
 30
0.0
 10
222.115227156897
 20
108.4300348101346
 30
0.0
 10
222.1314659377818
 20
108.4738196578257
 30
0.0
 10
222.1403570306272
 20
108.5225524478902
 30
0.0
 10
222.1416275693694
 20
108.5563469255271
 30
0.0
 10
222.1422890987448
 20
108.5739426421664
 30
0.0
  0
SPLINE
  5
1B1
330
1F
100
AcDbEntity
  8
0
  6
Continuous
 62
     7
370
     0
100
AcDbSpline
210
0.0
220
0.0
230
1.0
 70
     8
 71
     3
 72
    15
 73
    11
 74
     0
 42
0.00000001
 43
0.00000001
 12
1.0
 22
0.0
 32
0.0
 13
1.0
 23
0.0
 33
0.0
 40
0.0
 40
0.0
 40
0.0
 40
0.0
 40
0.1669801744060282
 40
0.3208066328848138
 40
0.4631345048703168
 40
0.5942480539785199
 40
0.7123671525397434
 40
0.8194549510427512
 40
0.9157522665813538
 40
1.0
 40
1.0
 40
1.0
 40
1.0
 10
221.6965376346836
 20
108.2627809553425
 30
0.0
 10
221.7103964478068
 20
108.2628357860435
 30
0.0
 10
221.7370223582759
 20
108.2629411282053
 30
0.0
 10
221.7754295997715
 20
108.2644099122908
 30
0.0
 10
221.8108776426879
 20
108.2656629954143
 30
0.0
 10
221.8432293692573
 20
108.2688081372279
 30
0.0
 10
221.8726450525475
 20
108.2718886639203
 30
0.0
 10
221.8990069745631
 20
108.2760355330447
 30
0.0
 10
221.9224442574469
 20
108.2807081139899
 30
0.0
 10
221.9367949097307
 20
108.2850422840646
 30
0.0
 10
221.9434913543851
 20
108.2870647377798
 30
0.0
  0
LINE
  5
1B2
330
1F
100
AcDbEntity
  8
0
  6
Continuous
 62
     7
370
     0
100
AcDbLine
 10
221.2730120054
 20
108.2627809553
 30
0.0
 11
221.6965376347
 21
108.2627809553
 31
0.0
  0
LINE
  5
1B3
330
1F
100
AcDbEntity
  8
0
  6
Continuous
 62
     7
370
     0
100
AcDbLine
 10
221.2730120054
 20
108.8949824778
 30
0.0
 11
221.2730120054
 21
108.2627809553
 31
0.0
  0
LINE
  5
1B4
330
1F
100
AcDbEntity
  8
0
  6
Continuous
 62
     7
370
     0
100
AcDbLine
 10
221.6644336511
 20
108.8949824778
 30
0.0
 11
221.2730120054
 21
108.8949824778
 31
0.0
  0
SPLINE
  5
1B5
330
1F
100
AcDbEntity
  8
0
  6
Continuous
 62
     7
370
     0
100
AcDbSpline
210
0.0
220
0.0
230
1.0
 70
     8
 71
     3
 72
    23
 73
    19
 74
     0
 42
0.00000001
 43
0.00000001
 12
1.0
 22
0.0
 32
0.0
 13
1.0
 23
0.0
 33
0.0
 40
0.0
 40
0.0
 40
0.0
 40
0.0
 40
0.076010519206233
 40
0.1481357362434483
 40
0.217788177833154
 40
0.2867678984972345
 40
0.3540434632439188
 40
0.4186108400234796
 40
0.4836364388553443
 40
0.5502295626461522
 40
0.5869278113138146
 40
0.6291578250269657
 40
0.6772382242876696
 40
0.7300426397437304
 40
0.7888625661169236
 40
0.8537504514610937
 40
0.9241097665384561
 40
0.9999999999999999
 40
0.9999999999999999
 40
0.9999999999999999
 40
0.9999999999999999
 10
222.1422890987448
 20
108.5739426421664
 30
0.0
 10
222.1417571843379
 20
108.5908532643291
 30
0.0
 10
222.1407205445001
 20
108.6238101167565
 30
0.0
 10
222.1320188799217
 20
108.6716691805364
 30
0.0
 10
222.1169609708274
 20
108.7161932511106
 30
0.0
 10
222.0965684384284
 20
108.7573725614865
 30
0.0
 10
222.0707460740482
 20
108.7940074725041
 30
0.0
 10
222.0399261814025
 20
108.8255049206089
 30
0.0
 10
222.0030061254284
 20
108.8493156046111
 30
0.0
 10
221.9684969320128
 20
108.8641687583557
 30
0.0
 10
221.9374586475085
 20
108.8734608074217
 30
0.0
 10
221.9097270303912
 20
108.8789585303658
 30
0.0
 10
221.8782711052761
 20
108.8838025710295
 30
0.0
 10
221.8429873593165
 20
108.8879208133321
 30
0.0
 10
221.8038624456735
 20
108.8911169487933
 30
0.0
 10
221.7607758136665
 20
108.8936560666096
 30
0.0
 10
221.7138300281759
 20
108.8947341143911
 30
0.0
 10
221.6813090732237
 20
108.8948976287015
 30
0.0
 10
221.6644336511224
 20
108.8949824777784
 30
0.0
  0
SPLINE
  5
1B6
330
1F
100
AcDbEntity
  8
0
  6
Continuous
 62
     7
370
     0
100
AcDbSpline
210
0.0
220
0.0
230
1.0
 70
     8
 71
     3
 72
    19
 73
    15
 74
     0
 42
0.00000001
 43
0.00000001
 12
1.0
 22
0.0
 32
0.0
 13
1.0
 23
0.0
 33
0.0
 40
0.0
 40
0.0
 40
0.0
 40
0.0
 40
0.0801399024652513
 40
0.1562809906190948
 40
0.229406049012902
 40
0.3017986969723052
 40
0.3727428627695777
 40
0.442667609902629
 40
0.5133209646126967
 40
0.586547692363208
 40
0.6683225082295051
 40
0.7636766255259053
 40
0.8740807567185483
 40
1.0
 40
1.0
 40
1.0
 40
1.0
 10
222.2213142890493
 20
107.6700920280589
 30
0.0
 10
222.2207473388087
 20
107.6888005478315
 30
0.0
 10
222.2196417279642
 20
107.7252840711842
 30
0.0
 10
222.2091325177378
 20
107.77800461092
 30
0.0
 10
222.1917730222905
 20
107.8269035670164
 30
0.0
 10
222.1673359109784
 20
107.8713037380675
 30
0.0
 10
222.1373625183429
 20
107.9112378692207
 30
0.0
 10
222.1010977398515
 20
107.9451129056254
 30
0.0
 10
222.0588127409582
 20
107.9719944222913
 30
0.0
 10
222.010377562568
 20
107.9930912103295
 30
0.0
 10
221.9537665411445
 20
108.0081012116694
 30
0.0
 10
221.8874167588329
 20
108.0182845883967
 30
0.0
 10
221.8102669300991
 20
108.0248556773053
 30
0.0
 10
221.7551357949093
 20
108.0254100175319
 30
0.0
 10
221.7257604915149
 20
108.0257053844291
 30
0.0
  0
SPLINE
  5
1B7
330
1F
100
AcDbEntity
  8
0
  6
Continuous
 62
     7
370
     0
100
AcDbSpline
210
0.0
220
0.0
230
1.0
 70
     8
 71
     3
 72
    19
 73
    15
 74
     0
 42
0.00000001
 43
0.00000001
 12
1.0
 22
0.0
 32
0.0
 13
1.0
 23
0.0
 33
0.0
 40
0.0
 40
0.0
 40
0.0
 40
0.0
 40
0.0889709576989538
 40
0.1722707767733128
 40
0.2503120304637083
 40
0.3246551996215513
 40
0.3978444501802943
 40
0.4733008807185318
 40
0.551825888744447
 40
0.6347494834982523
 40
0.7217660118923853
 40
0.8103926655611188
 40
0.903175236799419
 40
1.0
 40
1.0
 40
1.0
 40
1.0
 10
221.9348479741955
 20
107.3243568204767
 30
0.0
 10
221.9491899116548
 20
107.3273713504059
 30
0.0
 10
221.9769596105593
 20
107.3332082597294
 30
0.0
 10
222.0161082230691
 20
107.3462356323975
 30
0.0
 10
222.052002551475
 20
107.3611591821079
 30
0.0
 10
222.0840161145097
 20
107.3801253558606
 30
0.0
 10
222.1136599057983
 20
107.4019825718846
 30
0.0
 10
222.1394225666903
 20
107.4292832806905
 30
0.0
 10
222.1631512002714
 20
107.460301508429
 30
0.0
 10
222.1837099721851
 20
107.4957983416915
 30
0.0
 10
222.200334724493
 20
107.5350672968152
 30
0.0
 10
222.2130407382471
 20
107.5775016407759
 30
0.0
 10
222.2198088866513
 20
107.6229525898037
 30
0.0
 10
222.2208054067281
 20
107.6541571346441
 30
0.0
 10
222.2213142890493
 20
107.6700920280589
 30
0.0
  0
SPLINE
  5
1B8
330
1F
100
AcDbEntity
  8
0
  6
Continuous
 62
     7
370
     0
100
AcDbSpline
210
0.0
220
0.0
230
1.0
 70
     8
 71
     3
 72
    11
 73
     7
 74
     0
 42
0.00000001
 43
0.00000001
 12
1.0
 22
0.0
 32
0.0
 13
1.0
 23
0.0
 33
0.0
 40
0.0
 40
0.0
 40
0.0
 40
0.0
 40
0.3293954641291814
 40
0.6051903468527978
 40
0.8278865786947356
 40
1.0
 40
1.0
 40
1.0
 40
1.0
 10
221.7590992436747
 20
107.3144786716887
 30
0.0
 10
221.7784443944009
 20
107.3147009200864
 30
0.0
 10
221.8139867735557
 20
107.3151092517107
 30
0.0
 10
221.8626018042896
 20
107.3163902078889
 30
0.0
 10
221.9018977793403
 20
107.3195191046639
 30
0.0
 10
221.924844552171
 20
107.322888127708
 30
0.0
 10
221.9348479741955
 20
107.3243568204767
 30
0.0
  0
LINE
  5
1B9
330
1F
100
AcDbEntity
  8
0
  6
Continuous
 62
     7
370
     0
100
AcDbLine
 10
221.2730120054
 20
107.3144786717
 30
0.0
 11
221.7590992437
 21
107.3144786717
 31
0.0
  0
LINE
  5
1BA
330
1F
100
AcDbEntity
  8
0
  6
Continuous
 62
     7
370
     0
100
AcDbLine
 10
221.2730120054
 20
108.0257053844
 30
0.0
 11
221.2730120054
 21
107.3144786717
 31
0.0
  0
LINE
  5
1BB
330
1F
100
AcDbEntity
  8
0
  6
Continuous
 62
     7
370
     0
100
AcDbLine
 10
221.7257604915
 20
108.0257053844
 30
0.0
 11
221.2730120054
 21
108.0257053844
 31
0.0
  0
SPLINE
  5
1BC
330
1F
100
AcDbEntity
  8
0
  6
Continuous
 62
     7
370
     0
100
AcDbSpline
210
0.0
220
0.0
230
1.0
 70
     8
 71
     3
 72
    23
 73
    19
 74
     0
 42
0.00000001
 43
0.00000001
 12
1.0
 22
0.0
 32
0.0
 13
1.0
 23
0.0
 33
0.0
 40
0.0
 40
0.0
 40
0.0
 40
0.0
 40
0.1156291309254414
 40
0.2215410391198768
 40
0.3170478562190418
 40
0.4031508756396168
 40
0.4801812167162797
 40
0.5476493661481898
 40
0.6070358428421809
 40
0.6586524080635074
 40
0.705722890353646
 40
0.7498040879796471
 40
0.7925868153452743
 40
0.8338739610102607
 40
0.874768393303433
 40
0.9152226988916382
 40
0.9568807037304802
 40
1.0
 40
1.0
 40
1.0
 40
1.0
 10
220.877886053873
 20
104.9305520975033
 30
0.0
 10
220.8776366022958
 20
104.9692485081197
 30
0.0
 10
220.8771586625138
 20
105.043389366479
 30
0.0
 10
220.8717570671753
 20
105.1493822716775
 30
0.0
 10
220.8632922818328
 20
105.2452441784376
 30
0.0
 10
220.8517138002136
 20
105.3310634625482
 30
0.0
 10
220.8363260002888
 20
105.4067469554113
 30
0.0
 10
220.8176626980519
 20
105.4724557768962
 30
0.0
 10
220.7954225828362
 20
105.5280497922663
 30
0.0
 10
220.7689791652084
 20
105.5740874445006
 30
0.0
 10
220.7395423504286
 20
105.6118508088337
 30
0.0
 10
220.7087928068123
 20
105.6445382865187
 30
0.0
 10
220.6759617926687
 20
105.6723379213597
 30
0.0
 10
220.6404676412192
 20
105.6946391985217
 30
0.0
 10
220.603454395721
 20
105.7126310394392
 30
0.0
 10
220.5640715858699
 20
105.7250134825261
 30
0.0
 10
220.522706313564
 20
105.7326208682499
 30
0.0
 10
220.4943178638404
 20
105.7335183764191
 30
0.0
 10
220.4798789756207
 20
105.7339748655989
 30
0.0
  0
SPLINE
  5
1BD
330
1F
100
AcDbEntity
  8
0
  6
Continuous
 62
     7
370
     0
100
AcDbSpline
210
0.0
220
0.0
230
1.0
 70
     8
 71
     3
 72
    23
 73
    19
 74
     0
 42
0.00000001
 43
0.00000001
 12
1.0
 22
0.0
 32
0.0
 13
1.0
 23
0.0
 33
0.0
 40
0.0
 40
0.0
 40
0.0
 40
0.0
 40
0.0407818458722597
 40
0.0808695887215869
 40
0.1202681657882672
 40
0.1601868504553523
 40
0.2004597376386391
 40
0.2422651778979082
 40
0.2864592615494684
 40
0.3329520837492633
 40
0.3844305340495305
 40
0.4433891253601058
 40
0.5116814722136833
 40
0.5890200255490083
 40
0.6762451906507724
 40
0.7737051914728238
 40
0.881567767781983
 40
1.0
 40
1.0
 40
1.0
 40
1.0
 10
220.4827601023506
 20
104.1271293294077
 30
0.0
 10
220.4963657699275
 20
104.1276487574249
 30
0.0
 10
220.5233455379516
 20
104.1286787728452
 30
0.0
 10
220.5630622425795
 20
104.1355395425296
 30
0.0
 10
220.600900659955
 20
104.1483576412462
 30
0.0
 10
220.637201998195
 20
104.1651173597966
 30
0.0
 10
220.6717788333553
 20
104.1868252194545
 30
0.0
 10
220.7044493235161
 20
104.2135680847662
 30
0.0
 10
220.7357351837914
 20
104.2448941195846
 30
0.0
 10
220.7657440634734
 20
104.2817636292348
 30
0.0
 10
220.7930661158224
 20
104.3266812261806
 30
0.0
 10
220.8157317309656
 20
104.3820369861456
 30
0.0
 10
220.8351611160471
 20
104.4475557725847
 30
0.0
 10
220.8509662981288
 20
104.5237095506341
 30
0.0
 10
220.8629200347427
 20
104.6103591236346
 30
0.0
 10
220.8718701610165
 20
104.7075870845181
 30
0.0
 10
220.8771359445888
 20
104.8155229995292
 30
0.0
 10
220.8776283510925
 20
104.891033431333
 30
0.0
 10
220.877886053873
 20
104.9305520975033
 30
0.0
  0
SPLINE
  5
1BE
330
1F
100
AcDbEntity
  8
0
  6
Continuous
 62
     7
370
     0
100
AcDbSpline
210
0.0
220
0.0
230
1.0
 70
     8
 71
     3
 72
    23
 73
    19
 74
     0
 42
0.00000001
 43
0.00000001
 12
1.0
 22
0.0
 32
0.0
 13
1.0
 23
0.0
 33
0.0
 40
0.0
 40
0.0
 40
0.0
 40
0.0
 40
0.1184055081537694
 40
0.2266543328167019
 40
0.3240923419286019
 40
0.4117048030053216
 40
0.4890259050064157
 40
0.5569093973430758
 40
0.6162333444927067
 40
0.6673492812770749
 40
0.7135123932013474
 40
0.757696504520978
 40
0.7994925114422909
 40
0.8399760647439395
 40
0.879885741816776
 40
0.9191486593857414
 40
0.959227356493083
 40
1.0
 40
1.0
 40
1.0
 40
1.0
 10
220.0876341508282
 20
104.9305520975033
 30
0.0
 10
220.0878957032611
 20
104.8910336096131
 30
0.0
 10
220.0883963724707
 20
104.815386482665
 30
0.0
 10
220.0936271504041
 20
104.7073115104717
 30
0.0
 10
220.1026317193151
 20
104.6098131332419
 30
0.0
 10
220.1145363475645
 20
104.5230263438492
 30
0.0
 10
220.1302552768368
 20
104.446833745999
 30
0.0
 10
220.1499922516694
 20
104.3814295018867
 30
0.0
 10
220.1722405166796
 20
104.326028612309
 30
0.0
 10
220.1997723230384
 20
104.2813177286551
 30
0.0
 10
220.2299166100921
 20
104.2448718361228
 30
0.0
 10
220.2610385263616
 20
104.2135271898912
 30
0.0
 10
220.2938702629563
 20
104.1868849583066
 30
0.0
 10
220.3281975967627
 20
104.1646707704888
 30
0.0
 10
220.3645531410674
 20
104.1478516469575
 30
0.0
 10
220.4025393540366
 20
104.1356611087696
 30
0.0
 10
220.4421645011458
 20
104.1286456412157
 30
0.0
 10
220.4691510269052
 20
104.1276376505356
 30
0.0
 10
220.4827601023506
 20
104.1271293294077
 30
0.0
  0
SPLINE
  5
1BF
330
1F
100
AcDbEntity
  8
0
  6
Continuous
 62
     7
370
     0
100
AcDbSpline
210
0.0
220
0.0
230
1.0
 70
     8
 71
     3
 72
    15
 73
    11
 74
     0
 42
0.00000001
 43
0.00000001
 12
1.0
 22
0.0
 32
0.0
 13
1.0
 23
0.0
 33
0.0
 40
0.0
 40
0.0
 40
0.0
 40
0.0
 40
0.0838881132795455
 40
0.1771540327539696
 40
0.2825136355617228
 40
0.3993998606601629
 40
0.5294908061912204
 40
0.6728021776758328
 40
0.8295357616196702
 40
1.0
 40
1.0
 40
1.0
 40
1.0
 10
220.2065835258177
 20
105.5932112453691
 30
0.0
 10
220.1967931014931
 20
105.576842643928
 30
0.0
 10
220.1761177866757
 20
105.5422756040643
 30
0.0
 10
220.1529833115749
 20
105.4821966645749
 30
0.0
 10
220.1325472308172
 20
105.4135378724687
 30
0.0
 10
220.1157215608672
 20
105.3352428623617
 30
0.0
 10
220.1035493690356
 20
105.2474459416885
 30
0.0
 10
220.0939398942486
 20
105.150249069975
 30
0.0
 10
220.0889481297795
 20
105.0435165487598
 30
0.0
 10
220.0880842281775
 20
104.9692458229608
 30
0.0
 10
220.0876341508282
 20
104.9305520975033
 30
0.0
  0
SPLINE
  5
1C0
330
1F
100
AcDbEntity
  8
0
  6
Continuous
 62
     7
370
     0
100
AcDbSpline
210
0.0
220
0.0
230
1.0
 70
     8
 71
     3
 72
    15
 73
    11
 74
     0
 42
0.00000001
 43
0.00000001
 12
1.0
 22
0.0
 32
0.0
 13
1.0
 23
0.0
 33
0.0
 40
0.0
 40
0.0
 40
0.0
 40
0.0
 40
0.1276647678962251
 40
0.2517385630080496
 40
0.3727533493873896
 40
0.492146758972386
 40
0.614069621309245
 40
0.7371973244121095
 40
0.8656069906011175
 40
1.0
 40
1.0
 40
1.0
 40
1.0
 10
220.4798789756207
 20
105.7339748655989
 30
0.0
 10
220.4662707549004
 20
105.7336177035205
 30
0.0
 10
220.4394370874314
 20
105.7329134256696
 30
0.0
 10
220.4001490840484
 20
105.7261911007148
 30
0.0
 10
220.3629163047855
 20
105.7149498750714
 30
0.0
 10
220.3273121823478
 20
105.6997225434408
 30
0.0
 10
220.2942255546611
 20
105.679229562742
 30
0.0
 10
220.2623442883537
 20
105.6553025490793
 30
0.0
 10
220.2331615785884
 20
105.6261501535359
 30
0.0
 10
220.2155763337228
 20
105.6043562783142
 30
0.0
 10
220.2065835258177
 20
105.5932112453691
 30
0.0
  0
SPLINE
  5
1C1
330
1F
100
AcDbEntity
  8
0
  6
Continuous
 62
     7
370
     0
100
AcDbSpline
210
0.0
220
0.0
230
1.0
 70
     8
 71
     3
 72
    15
 73
    11
 74
     0
 42
0.00000001
 43
0.00000001
 12
1.0
 22
0.0
 32
0.0
 13
1.0
 23
0.0
 33
0.0
 40
0.0
 40
0.0
 40
0.0
 40
0.0
 40
0.1531481085926319
 40
0.2994334688329067
 40
0.4364263514567512
 40
0.5656705729563586
 40
0.6865083102878727
 40
0.7992685160630042
 40
0.9033947408013441
 40
1.0
 40
1.0
 40
1.0
 40
1.0
 10
219.9357576132117
 20
108.4866856612052
 30
0.0
 10
219.9281048597115
 20
108.5075507365463
 30
0.0
 10
219.9131422816703
 20
108.5483458984603
 30
0.0
 10
219.8908285699738
 20
108.607617824904
 30
0.0
 10
219.8704431225394
 20
108.6639048790305
 30
0.0
 10
219.8504535173205
 20
108.7163999851072
 30
0.0
 10
219.8324085436423
 20
108.7658656873138
 30
0.0
 10
219.8157760288728
 20
108.811967867237
 30
0.0
 10
219.7993266121061
 20
108.8543860926584
 30
0.0
 10
219.7894550857092
 20
108.8817926369747
 30
0.0
 10
219.784704254661
 20
108.8949824777784
 30
0.0
  0
LINE
  5
1C2
330
1F
100
AcDbEntity
  8
0
  6
Continuous
 62
     7
370
     0
100
AcDbLine
 10
220.1353785366
 20
107.9466801941
 30
0.0
 11
219.9357576132
 21
108.4866856612
 31
0.0
  0
LINE
  5
1C3
330
1F
100
AcDbEntity
  8
0
  6
Continuous
 62
     7
370
     0
100
AcDbLine
 10
219.4340299727
 20
107.9466801941
 30
0.0
 11
220.1353785366
 21
107.9466801941
 31
0.0
  0
LINE
  5
1C4
330
1F
100
AcDbEntity
  8
0
  6
Continuous
 62
     7
370
     0
100
AcDbLine
 10
219.644352224
 20
108.5154969285
 30
0.0
 11
219.4340299727
 21
107.9466801941
 31
0.0
  0
SPLINE
  5
1C5
330
1F
100
AcDbEntity
  8
0
  6
Continuous
 62
     7
370
     0
100
AcDbSpline
210
0.0
220
0.0
230
1.0
 70
     8
 71
     3
 72
    11
 73
     7
 74
     0
 42
0.00000001
 43
0.00000001
 12
1.0
 22
0.0
 32
0.0
 13
1.0
 23
0.0
 33
0.0
 40
0.0
 40
0.0
 40
0.0
 40
0.0
 40
0.247294050035337
 40
0.4956077709090489
 40
0.746359172773196
 40
1.0
 40
1.0
 40
1.0
 40
1.0
 10
219.784704254661
 20
108.8949824777784
 30
0.0
 10
219.7768454631128
 20
108.8624574919026
 30
0.0
 10
219.761095475757
 20
108.7972734094451
 30
0.0
 10
219.7281188368926
 20
108.7017699840756
 30
0.0
 10
219.6903947073561
 20
108.6071399806381
 30
0.0
 10
219.6597582190954
 20
108.5461610523954
 30
0.0
 10
219.6443522239639
 20
108.5154969285038
 30
0.0
  0
SPLINE
  5
1C6
330
1F
100
AcDbEntity
  8
0
  6
Continuous
 62
     7
370
     0
100
AcDbSpline
210
0.0
220
0.0
230
1.0
 70
     8
 71
     3
 72
    23
 73
    19
 74
     0
 42
0.00000001
 43
0.00000001
 12
1.0
 22
0.0
 32
0.0
 13
1.0
 23
0.0
 33
0.0
 40
0.0
 40
0.0
 40
0.0
 40
0.0
 40
0.0603255293380428
 40
0.1181599905079977
 40
0.1741866762963808
 40
0.2295388181457999
 40
0.2834498146386372
 40
0.337826511950592
 40
0.3926321025334832
 40
0.4484655764151909
 40
0.5059654091573053
 40
0.5650585322290048
 40
0.6266544786228438
 40
0.6922320330373639
 40
0.7611310781257618
 40
0.8353098773394203
 40
0.9153255598322017
 40
1.0
 40
1.0
 40
1.0
 40
1.0
 10
216.7422344279382
 20
108.5718846945023
 30
0.0
 10
216.7418520003273
 20
108.5834177719024
 30
0.0
 10
216.7411029369811
 20
108.6060076825269
 30
0.0
 10
216.7371760991805
 20
108.63916339949
 30
0.0
 10
216.7295413941857
 20
108.6706689942637
 30
0.0
 10
216.7194597849748
 20
108.7006910089634
 30
0.0
 10
216.7059887092655
 20
108.7290095537944
 30
0.0
 10
216.6899856208892
 20
108.7558440661728
 30
0.0
 10
216.6708889961132
 20
108.7810458183971
 30
0.0
 10
216.6490149112399
 20
108.8046915788671
 30
0.0
 10
216.6238994866678
 20
108.8262069100643
 30
0.0
 10
216.5952117673045
 20
108.8447699743289
 30
0.0
 10
216.5631780115073
 20
108.8605445742979
 30
0.0
 10
216.5277609852476
 20
108.8730643513474
 30
0.0
 10
216.4890722586291
 20
108.8830781350175
 30
0.0
 10
216.4468915852549
 20
108.8897399823097
 30
0.0
 10
216.4014118663519
 20
108.8945604728061
 30
0.0
 10
216.3698970585943
 20
108.8948391814159
 30
0.0
 10
216.3536939089412
 20
108.8949824777784
 30
0.0
  0
LINE
  5
1C7
330
1F
100
AcDbEntity
  8
0
  6
Continuous
 62
     7
370
     0
100
AcDbLine
 10
215.7412486841
 20
108.2364392252
 30
0.0
 11
216.2915438895
 21
108.2364392252
 31
0.0
  0
LINE
  5
1C8
330
1F
100
AcDbEntity
  8
0
  6
Continuous
 62
     7
370
     0
100
AcDbLine
 10
215.7412486841
 20
108.8949824778
 30
0.0
 11
215.7412486841
 21
108.2364392252
 31
0.0
  0
LINE
  5
1C9
330
1F
100
AcDbEntity
  8
0
  6
Continuous
 62
     7
370
     0
100
AcDbLine
 10
216.3536939089
 20
108.8949824778
 30
0.0
 11
215.7412486841
 21
108.8949824778
 31
0.0
  0
SPLINE
  5
1CA
330
1F
100
AcDbEntity
  8
0
  6
Continuous
 62
     7
370
     0
100
AcDbSpline
210
0.0
220
0.0
230
1.0
 70
     8
 71
     3
 72
    19
 73
    15
 74
     0
 42
0.00000001
 43
0.00000001
 12
1.0
 22
0.0
 32
0.0
 13
1.0
 23
0.0
 33
0.0
 40
0.0
 40
0.0
 40
0.0
 40
0.0
 40
0.1288602680417313
 40
0.2408921848092289
 40
0.3380442015575112
 40
0.4201204852136088
 40
0.494058456868551
 40
0.5660947835833202
 40
0.6368049543510104
 40
0.7091484493607203
 40
0.7819418055941268
 40
0.8542853006038366
 40
0.9261704072165587
 40
1.0
 40
1.0
 40
1.0
 40
1.0
 10
216.2915438894829
 20
108.236439225241
 30
0.0
 10
216.3191377755308
 20
108.2368709577578
 30
0.0
 10
216.3707219573617
 20
108.2376780412041
 30
0.0
 10
216.4428542750713
 20
108.2445696855276
 30
0.0
 10
216.504327059211
 20
108.2555208010194
 30
0.0
 10
216.5563555389664
 20
108.2714942855177
 30
0.0
 10
216.600067674468
 20
108.2936707864201
 30
0.0
 10
216.6380849492452
 20
108.3206969967808
 30
0.0
 10
216.6696777831393
 20
108.3545501387275
 30
0.0
 10
216.6959597574221
 20
108.3927462018922
 30
0.0
 10
216.7163892751912
 20
108.4347790627849
 30
0.0
 10
216.7311261549153
 20
108.4789284205446
 30
0.0
 10
216.7407716990086
 20
108.5248232283837
 30
0.0
 10
216.7417425332041
 20
108.5560585992536
 30
0.0
 10
216.7422344279382
 20
108.5718846945023
 30
0.0
  0
SPLINE
  5
1CB
330
1F
100
AcDbEntity
  8
0
  6
Continuous
 62
     7
370
     0
100
AcDbSpline
210
0.0
220
0.0
230
1.0
 70
     8
 71
     3
 72
    23
 73
    19
 74
     0
 42
0.00000001
 43
0.00000001
 12
1.0
 22
0.0
 32
0.0
 13
1.0
 23
0.0
 33
0.0
 40
0.0
 40
0.0
 40
0.0
 40
0.0
 40
0.0718367171319505
 40
0.1395582629178172
 40
0.2049233526537264
 40
0.2678265586039221
 40
0.3285473200936659
 40
0.3887551463289839
 40
0.4480299679797879
 40
0.5086005276974233
 40
0.5693212891871666
 40
0.6285118954019238
 40
0.687493275539241
 40
0.747078295388978
 40
0.8077025413165653
 40
0.8697098126206608
 40
0.933428331305089
 40
1.0
 40
1.0
 40
1.0
 40
1.0
 10
214.7950043480917
 20
104.1271293294077
 30
0.0
 10
214.8099774615765
 20
104.1273829629935
 30
0.0
 10
214.8390659526968
 20
104.1278757007475
 30
0.0
 10
214.8814678651408
 20
104.1335062866263
 30
0.0
 10
214.9214200530891
 20
104.1420497273082
 30
0.0
 10
214.9591055555275
 20
104.1537641848478
 30
0.0
 10
214.9939696838167
 20
104.1697903381985
 30
0.0
 10
215.0265801860938
 20
104.1885214303129
 30
0.0
 10
215.0566034988269
 20
104.2111593889712
 30
0.0
 10
215.0840311226143
 20
104.236995014054
 30
0.0
 10
215.1085837081442
 20
104.2655740572705
 30
0.0
 10
215.1296161024719
 20
104.2964046004327
 30
0.0
 10
215.1479629084682
 20
104.3286196099263
 30
0.0
 10
215.1629422367884
 20
104.36291433535
 30
0.0
 10
215.1737747054374
 20
104.3993594954071
 30
0.0
 10
215.1821334849899
 20
104.4372975404426
 30
0.0
 10
215.1871760894004
 20
104.4771197806224
 30
0.0
 10
215.1877692678751
 20
104.5042680160681
 30
0.0
 10
215.18807235195
 20
104.5181393856018
 30
0.0
  0
SPLINE
  5
1CC
330
1F
100
AcDbEntity
  8
0
  6
Continuous
 62
     7
370
     0
100
AcDbSpline
210
0.0
220
0.0
230
1.0
 70
     8
 71
     3
 72
    19
 73
    15
 74
     0
 42
0.00000001
 43
0.00000001
 12
1.0
 22
0.0
 32
0.0
 13
1.0
 23
0.0
 33
0.0
 40
0.0
 40
0.0
 40
0.0
 40
0.0
 40
0.079823271279787
 40
0.1598568116661127
 40
0.2397327021152788
 40
0.3213646023254474
 40
0.4025836963489389
 40
0.483265588546352
 40
0.5660170116609762
 40
0.6530713596602558
 40
0.7418556865073695
 40
0.8285909050739395
 40
0.9142807452008549
 40
1.0
 40
1.0
 40
1.0
 40
1.0
 10
214.3978204489051
 20
104.5263711762585
 30
0.0
 10
214.398275956845
 20
104.5094688796322
 30
0.0
 10
214.3991881726161
 20
104.4756197626368
 30
0.0
 10
214.407190268328
 20
104.4253466509382
 30
0.0
 10
214.4207681672435
 20
104.3760097164685
 30
0.0
 10
214.4381706084116
 20
104.3275623571039
 30
0.0
 10
214.4627178338423
 20
104.2819599930343
 30
0.0
 10
214.4952702155194
 20
104.2412565278581
 30
0.0
 10
214.5361173574894
 20
104.2070355085081
 30
0.0
 10
214.5827670271777
 20
104.1781242926435
 30
0.0
 10
214.6336738107985
 20
104.1553686792685
 30
0.0
 10
214.686720167869
 20
104.1394844879127
 30
0.0
 10
214.7405369993704
 20
104.1289890071262
 30
0.0
 10
214.7768464882203
 20
104.1277492928943
 30
0.0
 10
214.7950043480917
 20
104.1271293294077
 30
0.0
  0
SPLINE
  5
1CD
330
1F
100
AcDbEntity
  8
0
  6
Continuous
 62
     7
370
     0
100
AcDbSpline
210
0.0
220
0.0
230
1.0
 70
     8
 71
     3
 72
    23
 73
    19
 74
     0
 42
0.00000001
 43
0.00000001
 12
1.0
 22
0.0
 32
0.0
 13
1.0
 23
0.0
 33
0.0
 40
0.0
 40
0.0
 40
0.0
 40
0.0
 40
0.0709524654154269
 40
0.1390889271416602
 40
0.2035598239190671
 40
0.2664237811295191
 40
0.3275165661984789
 40
0.3878608717608968
 40
0.4478987850107178
 40
0.5088188285885856
 40
0.5694824568188307
 40
0.6290357116670982
 40
0.6883784585529115
 40
0.7480679615575835
 40
0.8086301697509072
 40
0.8702311456070247
 40
0.933682580472202
 40
1.0
 40
1.0
 40
1.0
 40
1.0
 10
214.7871841469678
 20
104.9173812324526
 30
0.0
 10
214.772485677749
 20
104.9171156410001
 30
0.0
 10
214.7436721009084
 20
104.9165949990468
 30
0.0
 10
214.7018139384004
 20
104.911054920861
 30
0.0
 10
214.6621871186719
 20
104.9025471982104
 30
0.0
 10
214.6251402801668
 20
104.8900950135786
 30
0.0
 10
214.5902102228188
 20
104.8745347433989
 30
0.0
 10
214.5580358055865
 20
104.8549688171337
 30
0.0
 10
214.5280430391339
 20
104.832258359635
 30
0.0
 10
214.5011480951304
 20
104.8058617726239
 30
0.0
 10
214.4768818858792
 20
104.7771879024491
 30
0.0
 10
214.4559011492165
 20
104.7464496017276
 30
0.0
 10
214.4373667947876
 20
104.7143599069797
 30
0.0
 10
214.4233014646995
 20
104.6798658382993
 30
0.0
 10
214.4113964219363
 20
104.6440825259107
 30
0.0
 10
214.4039538871058
 20
104.606315454465
 30
0.0
 10
214.3986631748527
 20
104.5669937240883
 30
0.0
 10
214.3981054632975
 20
104.5401099377376
 30
0.0
 10
214.3978204489051
 20
104.5263711762585
 30
0.0
  0
SPLINE
  5
1CE
330
1F
100
AcDbEntity
  8
0
  6
Continuous
 62
     7
370
     0
100
AcDbSpline
210
0.0
220
0.0
230
1.0
 70
     8
 71
     3
 72
    23
 73
    19
 74
     0
 42
0.00000001
 43
0.00000001
 12
1.0
 22
0.0
 32
0.0
 13
1.0
 23
0.0
 33
0.0
 40
0.0
 40
0.0
 40
0.0
 40
0.0
 40
0.0666161804351809
 40
0.130423869924064
 40
0.1926709575700171
 40
0.2529685047960665
 40
0.312880382805784
 40
0.3722002559180861
 40
0.4319271071459047
 40
0.4924217452545999
 40
0.5527712209075776
 40
0.6132624068156192
 40
0.6735564905563718
 40
0.7343197960333021
 40
0.7968580801403251
 40
0.8617690047507051
 40
0.9288631073150267
 40
0.9999999999999999
 40
0.9999999999999999
 40
0.9999999999999999
 40
0.9999999999999999
 10
215.18807235195
 20
104.5181393856018
 30
0.0
 10
215.1877596153029
 20
104.532283033793
 30
0.0
 10
215.1871473267641
 20
104.5599740439935
 30
0.0
 10
215.1822328712895
 20
104.6006702999881
 30
0.0
 10
215.1734053850358
 20
104.6392758085189
 30
0.0
 10
215.1620532009627
 20
104.6763737864177
 30
0.0
 10
215.1466677455515
 20
104.7113188350749
 30
0.0
 10
215.1281996604064
 20
104.7446120247521
 30
0.0
 10
215.1055837590988
 20
104.7753758209473
 30
0.0
 10
215.0807836192472
 20
104.8046546594361
 30
0.0
 10
215.0527181657528
 20
104.8311587760397
 30
0.0
 10
215.0217251207145
 20
104.8540142771882
 30
0.0
 10
214.9887867239904
 20
104.8741995554817
 30
0.0
 10
214.9529065592062
 20
104.8896833680589
 30
0.0
 10
214.914875115016
 20
104.9020862550015
 30
0.0
 10
214.8745117105003
 20
104.9110983811528
 30
0.0
 10
214.8316517721371
 20
104.916607254177
 30
0.0
 10
214.8022929046232
 20
104.9171182579818
 30
0.0
 10
214.7871841469678
 20
104.9173812324526
 30
0.0
  0
SPLINE
  5
1CF
330
1F
100
AcDbEntity
  8
0
  6
Continuous
 62
     7
370
     0
100
AcDbSpline
210
0.0
220
0.0
230
1.0
 70
     8
 71
     3
 72
    19
 73
    15
 74
     0
 42
0.00000001
 43
0.00000001
 12
1.0
 22
0.0
 32
0.0
 13
1.0
 23
0.0
 33
0.0
 40
0.0
 40
0.0
 40
0.0
 40
0.0
 40
0.0768426979287827
 40
0.1498390532852208
 40
0.2183793964454711
 40
0.2849970207005652
 40
0.3476576708142682
 40
0.4098471591145119
 40
0.4699357615076958
 40
0.5304196066566044
 40
0.6487517360264009
 40
0.7637748930771634
 40
0.8787494877784697
 40
0.9999999999999999
 40
0.9999999999999999
 40
0.9999999999999999
 40
0.9999999999999999
 10
214.7954159376245
 20
105.154456803366
 30
0.0
 10
214.8076420237494
 20
105.1546312210034
 30
0.0
 10
214.8314822222289
 20
105.1549713258457
 30
0.0
 10
214.8659682685919
 20
105.1594099053519
 30
0.0
 10
214.8985574622261
 20
105.1653380460413
 30
0.0
 10
214.9287682304656
 20
105.1743212321139
 30
0.0
 10
214.9569493550851
 20
105.1860019939006
 30
0.0
 10
214.9826424823113
 20
105.200401489822
 30
0.0
 10
215.006616473983
 20
105.2169506428283
 30
0.0
 10
215.0346454132127
 20
105.2426933305878
 30
0.0
 10
215.0647235669005
 20
105.2788754241511
 30
0.0
 10
215.0905019727518
 20
105.3282707656637
 30
0.0
 10
215.1065659780077
 20
105.3823122025338
 30
0.0
 10
215.1082055803714
 20
105.419955213633
 30
0.0
 10
215.1090471616455
 20
105.4392767600884
 30
0.0
  0
SPLINE
  5
1D0
330
1F
100
AcDbEntity
  8
0
  6
Continuous
 62
     7
370
     0
100
AcDbSpline
210
0.0
220
0.0
230
1.0
 70
     8
 71
     3
 72
    19
 73
    15
 74
     0
 42
0.00000001
 43
0.00000001
 12
1.0
 22
0.0
 32
0.0
 13
1.0
 23
0.0
 33
0.0
 40
0.0
 40
0.0
 40
0.0
 40
0.0
 40
0.1273939413394724
 40
0.2461816112928118
 40
0.3612680043537856
 40
0.477140268037225
 40
0.5363265834357714
 40
0.5956719150436505
 40
0.6566189532057533
 40
0.7188356214960797
 40
0.7835815527063736
 40
0.8515878166889451
 40
0.9239265274809916
 40
1.0
 40
1.0
 40
1.0
 40
1.0
 10
214.4768456392096
 20
105.4516244460735
 30
0.0
 10
214.4776274587631
 20
105.4306545821776
 30
0.0
 10
214.4791382809844
 20
105.39013150213
 30
0.0
 10
214.4955686344647
 20
105.3325714358929
 30
0.0
 10
214.5212609390765
 20
105.2808663545576
 30
0.0
 10
214.5513806573786
 20
105.2433710265853
 30
0.0
 10
214.5802579030277
 20
105.2178235203326
 30
0.0
 10
214.6043599413064
 20
105.2007663581755
 30
0.0
 10
214.6306988082566
 20
105.1862851718822
 30
0.0
 10
214.6594653168119
 20
105.1750294806248
 30
0.0
 10
214.6899627408528
 20
105.1650576389858
 30
0.0
 10
214.7232428931107
 20
105.1594841044472
 30
0.0
 10
214.7585235434189
 20
105.1549531520793
 30
0.0
 10
214.7829138803043
 20
105.1546250055171
 30
0.0
 10
214.7954159376245
 20
105.154456803366
 30
0.0
  0
SPLINE
  5
1D1
330
1F
100
AcDbEntity
  8
0
  6
Continuous
 62
     7
370
     0
100
AcDbSpline
210
0.0
220
0.0
230
1.0
 70
     8
 71
     3
 72
    19
 73
    15
 74
     0
 42
0.00000001
 43
0.00000001
 12
1.0
 22
0.0
 32
0.0
 13
1.0
 23
0.0
 33
0.0
 40
0.0
 40
0.0
 40
0.0
 40
0.0
 40
0.0762358674075237
 40
0.1486180999543649
 40
0.2182394281414515
 40
0.2842516902686069
 40
0.3482575207850561
 40
0.4106562042500674
 40
0.4728623729995132
 40
0.5341947480221281
 40
0.653476101422413
 40
0.7677667895221957
 40
0.8817126094674202
 40
1.0
 40
1.0
 40
1.0
 40
1.0
 10
214.7929464004275
 20
105.7339748655989
 30
0.0
 10
214.7808562789372
 20
105.7338063169585
 30
0.0
 10
214.7572871776045
 20
105.7334777396162
 30
0.0
 10
214.7229586870305
 20
105.7289262456354
 30
0.0
 10
214.6904649166377
 20
105.7232096617476
 30
0.0
 10
214.660105642395
 20
105.7140356024169
 30
0.0
 10
214.6320070579804
 20
105.7020472395836
 30
0.0
 10
214.6058756728914
 20
105.6874571448997
 30
0.0
 10
214.5815175181931
 20
105.670761544714
 30
0.0
 10
214.552792342105
 20
105.6450466653143
 30
0.0
 10
214.5227074527471
 20
105.6088637522492
 30
0.0
 10
214.4962035113154
 20
105.5602573129391
 30
0.0
 10
214.4798232179722
 20
105.5072598894837
 30
0.0
 10
214.4778504589574
 20
105.470399295264
 30
0.0
 10
214.4768456392096
 20
105.4516244460735
 30
0.0
  0
SPLINE
  5
1D2
330
1F
100
AcDbEntity
  8
0
  6
Continuous
 62
     7
370
     0
100
AcDbSpline
210
0.0
220
0.0
230
1.0
 70
     8
 71
     3
 72
    19
 73
    15
 74
     0
 42
0.00000001
 43
0.00000001
 12
1.0
 22
0.0
 32
0.0
 13
1.0
 23
0.0
 33
0.0
 40
0.0
 40
0.0
 40
0.0
 40
0.0
 40
0.1233861213626085
 40
0.2414346864233538
 40
0.3574485461509667
 40
0.4767139204528327
 40
0.5378895868739915
 40
0.5992703938301226
 40
0.6603520522565615
 40
0.7230069362990812
 40
0.7878755372012023
 40
0.855360105861051
 40
0.9253732137563339
 40
0.9999999999999999
 40
0.9999999999999999
 40
0.9999999999999999
 40
0.9999999999999999
 10
215.1090471616455
 20
105.4392767600884
 30
0.0
 10
215.108033174456
 20
105.4592737333159
 30
0.0
 10
215.1060490641166
 20
105.4984026313417
 30
0.0
 10
215.0900242981432
 20
105.5545739281631
 30
0.0
 10
215.0630452013688
 20
105.6054483475806
 30
0.0
 10
215.032225323473
 20
105.6426012155527
 30
0.0
 10
215.0037005536254
 20
105.6695162808996
 30
0.0
 10
214.9792961588369
 20
105.6866495225515
 30
0.0
 10
214.953061343139
 20
105.7012314269438
 30
0.0
 10
214.9248962572327
 20
105.7131395149787
 30
0.0
 10
214.8947601726246
 20
105.7227435119321
 30
0.0
 10
214.8625714543953
 20
105.7290441965532
 30
0.0
 10
214.8284653598704
 20
105.7334630881259
 30
0.0
 10
214.8050351764756
 20
105.7338006836027
 30
0.0
 10
214.7929464004275
 20
105.7339748655989
 30
0.0
  0
SPLINE
  5
1D3
330
1F
100
AcDbEntity
  8
0
  6
Continuous
 62
     7
370
     0
100
AcDbSpline
210
0.0
220
0.0
230
1.0
 70
     8
 71
     3
 72
    23
 73
    19
 74
     0
 42
0.00000001
 43
0.00000001
 12
1.0
 22
0.0
 32
0.0
 13
1.0
 23
0.0
 33
0.0
 40
0.0
 40
0.0
 40
0.0
 40
0.0
 40
0.0610549117432832
 40
0.1195453450847438
 40
0.1768063562451035
 40
0.2329564830316851
 40
0.2885834899465033
 40
0.3446666617213001
 40
0.4016615108374461
 40
0.4605400973082778
 40
0.5204770623221882
 40
0.5812128653554004
 40
0.6434307597220102
 40
0.7079608695212424
 40
0.7753707435336737
 40
0.8464136772813298
 40
0.9211518871893691
 40
1.0
 40
1.0
 40
1.0
 40
1.0
 10
214.1068266491901
 20
107.2881369415872
 30
0.0
 10
214.1312795692976
 20
107.2887489898884
 30
0.0
 10
214.1791583179373
 20
107.2899473787368
 30
0.0
 10
214.2494271759469
 20
107.2999786625538
 30
0.0
 10
214.3161904571401
 20
107.3170564956686
 30
0.0
 10
214.3801099049473
 20
107.3397909601441
 30
0.0
 10
214.4400299175907
 20
107.3705240805307
 30
0.0
 10
214.497351852993
 20
107.4065123963269
 30
0.0
 10
214.5505131078028
 20
107.45048908743
 30
0.0
 10
214.6008186404047
 20
107.499888125802
 30
0.0
 10
214.6459393144239
 20
107.5560392056867
 30
0.0
 10
214.685974413875
 20
107.6175591470836
 30
0.0
 10
214.7184961106784
 20
107.6853705927195
 30
0.0
 10
214.7465742064559
 20
107.7579797492801
 30
0.0
 10
214.7671346064162
 20
107.8367589574486
 30
0.0
 10
214.7823300019085
 20
107.9208126559722
 30
0.0
 10
214.7914870689355
 20
108.0104112191581
 30
0.0
 10
214.7924513553029
 20
108.0719189702924
 30
0.0
 10
214.7929464004275
 20
108.103495806135
 30
0.0
  0
SPLINE
  5
1D4
330
1F
100
AcDbEntity
  8
0
  6
Continuous
 62
     7
370
     0
100
AcDbSpline
210
0.0
220
0.0
230
1.0
 70
     8
 71
     3
 72
    23
 73
    19
 74
     0
 42
0.00000001
 43
0.00000001
 12
1.0
 22
0.0
 32
0.0
 13
1.0
 23
0.0
 33
0.0
 40
0.0
 40
0.0
 40
0.0
 40
0.0
 40
0.0759644026221998
 40
0.1481252239748712
 40
0.2172006111446031
 40
0.2832999093723612
 40
0.347201868136241
 40
0.4092995407059241
 40
0.4704256161074027
 40
0.5315880640528347
 40
0.5917391729173698
 40
0.6502577442905727
 40
0.7073030399522857
 40
0.7642084640229153
 40
0.8211475320101305
 40
0.8791188121552541
 40
0.9384228183936666
 40
1.0
 40
1.0
 40
1.0
 40
1.0
 10
213.4231764351497
 20
108.0742729493037
 30
0.0
 10
213.4236204771332
 20
108.0446095087487
 30
0.0
 10
213.424486327663
 20
107.9867678931446
 30
0.0
 10
213.4343921263796
 20
107.9024378934732
 30
0.0
 10
213.4494225938353
 20
107.8228682442344
 30
0.0
 10
213.4701405066346
 20
107.7478355742941
 30
0.0
 10
213.4979904550069
 20
107.6780819456737
 30
0.0
 10
213.5312886742183
 20
107.6129370937816
 30
0.0
 10
213.5711563231328
 20
107.5528340644153
 30
0.0
 10
213.6167138026214
 20
107.4979409894903
 30
0.0
 10
213.6668218073603
 20
107.4486291642116
 30
0.0
 10
213.7203672956293
 20
107.4055579079862
 30
0.0
 10
213.7773623041895
 20
107.3694887775385
 30
0.0
 10
213.837174941991
 20
107.3397060104772
 30
0.0
 10
213.9002348152668
 20
107.3164578450655
 30
0.0
 10
213.9663530590489
 20
107.3001335690459
 30
0.0
 10
214.0355782532864
 20
107.2899240595355
 30
0.0
 10
214.0827812988622
 20
107.288740069231
 30
0.0
 10
214.1068266491901
 20
107.2881369415872
 30
0.0
  0
SPLINE
  5
1D5
330
1F
100
AcDbEntity
  8
0
  6
Continuous
 62
     7
370
     0
100
AcDbSpline
210
0.0
220
0.0
230
1.0
 70
     8
 71
     3
 72
    23
 73
    19
 74
     0
 42
0.00000001
 43
0.00000001
 12
1.0
 22
0.0
 32
0.0
 13
1.0
 23
0.0
 33
0.0
 40
0.0
 40
0.0
 40
0.0
 40
0.0
 40
0.0559431333569187
 40
0.1103820356898407
 40
0.1640478588828499
 40
0.2167594775435861
 40
0.2696011346144475
 40
0.3230085051908687
 40
0.3775814436721363
 40
0.4334493367080539
 40
0.490921858049893
 40
0.5506247708713257
 40
0.6131168723098183
 40
0.6798607463518506
 40
0.7513577440202002
 40
0.8282611012589941
 40
0.9107950320656293
 40
1.0
 40
1.0
 40
1.0
 40
1.0
 10
214.1109425445185
 20
108.9213242078799
 30
0.0
 10
214.0878566247017
 20
108.9208657306218
 30
0.0
 10
214.0423055325079
 20
108.9199611039048
 30
0.0
 10
213.9752489021514
 20
108.9099047733745
 30
0.0
 10
213.9105990399147
 20
108.894879241526
 30
0.0
 10
213.8482556161165
 20
108.8738727473677
 30
0.0
 10
213.7887518444832
 20
108.8460568477758
 30
0.0
 10
213.731779441046
 20
108.8119444536728
 30
0.0
 10
213.6768326922405
 20
108.7724643916673
 30
0.0
 10
213.6247780299529
 20
108.7266547389963
 30
0.0
 10
213.5762516987687
 20
108.6740306307017
 30
0.0
 10
213.5352275540411
 20
108.6119884195923
 30
0.0
 10
213.5006512840499
 20
108.5420091835243
 30
0.0
 10
213.4717807355489
 20
108.4642703036093
 30
0.0
 10
213.4497677925326
 20
108.3781697436016
 30
0.0
 10
213.4345540954961
 20
108.2840780346399
 30
0.0
 10
213.4249484775881
 20
108.1818960272285
 30
0.0
 10
213.4237822167337
 20
108.1110644375943
 30
0.0
 10
213.4231764351497
 20
108.0742729493037
 30
0.0
  0
SPLINE
  5
1D6
330
1F
100
AcDbEntity
  8
0
  6
Continuous
 62
     7
370
     0
100
AcDbSpline
210
0.0
220
0.0
230
1.0
 70
     8
 71
     3
 72
    31
 73
    27
 74
     0
 42
0.00000001
 43
0.00000001
 12
1.0
 22
0.0
 32
0.0
 13
1.0
 23
0.0
 33
0.0
 40
0.0
 40
0.0
 40
0.0
 40
0.0
 40
0.0508516157922844
 40
0.0997524678094164
 40
0.1474376477769319
 40
0.1940857839327041
 40
0.239170927084144
 40
0.2833398222454342
 40
0.3265771497238441
 40
0.368936281499902
 40
0.4105718726814497
 40
0.4510505934949118
 40
0.4908768629924158
 40
0.5300443324843861
 40
0.5689366633103304
 40
0.6075778621311337
 40
0.646420096450513
 40
0.6856793513063945
 40
0.7247985849801968
 40
0.7635130084045112
 40
0.802172526378755
 40
0.8407403615726128
 40
0.8796493769005862
 40
0.9190706128663402
 40
0.9590978622172246
 40
1.0
 40
1.0
 40
1.0
 40
1.0
 10
214.7929464004275
 20
108.103495806135
 30
0.0
 10
214.7927714516712
 20
108.1238102870066
 30
0.0
 10
214.7924282655223
 20
108.1636599469954
 30
0.0
 10
214.7878833307049
 20
108.2223988017805
 30
0.0
 10
214.7820209479847
 20
108.2793105418593
 30
0.0
 10
214.7730953791539
 20
108.3343217307173
 30
0.0
 10
214.7607948128457
 20
108.3872045545127
 30
0.0
 10
214.7471678742266
 20
108.4383616112667
 30
0.0
 10
214.7301278640214
 20
108.4873520575935
 30
0.0
 10
214.7107935976751
 20
108.5343680153058
 30
0.0
 10
214.6891588810147
 20
108.5791681133958
 30
0.0
 10
214.6647577979867
 20
108.6213746692003
 30
0.0
 10
214.6378739392329
 20
108.6608235929838
 30
0.0
 10
214.6092326626092
 20
108.698262796369
 30
0.0
 10
214.5772479761738
 20
108.7322432288567
 30
0.0
 10
214.5434599615595
 20
108.7642002396841
 30
0.0
 10
214.5071011251742
 20
108.7934735899817
 30
0.0
 10
214.4685343148678
 20
108.8200709264283
 30
0.0
 10
214.4283066508526
 20
108.8440127209705
 30
0.0
 10
214.3865010621818
 20
108.864503790673
 30
0.0
 10
214.3437835713784
 20
108.8825026209521
 30
0.0
 10
214.299439148079
 20
108.8962994797719
 30
0.0
 10
214.2540801033068
 20
108.9074268489041
 30
0.0
 10
214.2075230716396
 20
108.9158791221215
 30
0.0
 10
214.1595952457418
 20
108.920256102548
 30
0.0
 10
214.1272765721054
 20
108.9209656160337
 30
0.0
 10
214.1109425445185
 20
108.9213242078799
 30
0.0
  0
SPLINE
  5
1D7
330
1F
100
AcDbEntity
  8
0
  6
Continuous
 62
     7
370
     0
100
AcDbSpline
210
0.0
220
0.0
230
1.0
 70
     8
 71
     3
 72
    23
 73
    19
 74
     0
 42
0.00000001
 43
0.00000001
 12
1.0
 22
0.0
 32
0.0
 13
1.0
 23
0.0
 33
0.0
 40
0.0
 40
0.0
 40
0.0
 40
0.0
 40
0.1156291309254414
 40
0.2215410391198768
 40
0.3170478562190417
 40
0.4031508756396167
 40
0.4801812167162795
 40
0.5476493661481898
 40
0.6070358428421809
 40
0.6586524080635072
 40
0.705722890353646
 40
0.749804087979647
 40
0.7925868153452743
 40
0.8338739610102607
 40
0.8747683933034329
 40
0.9152226988916381
 40
0.9568807037304801
 40
1.0
 40
1.0
 40
1.0
 40
1.0
 10
213.6075685458602
 20
104.9305520975033
 30
0.0
 10
213.607319094283
 20
104.9692485081197
 30
0.0
 10
213.606841154501
 20
105.043389366479
 30
0.0
 10
213.6014395591625
 20
105.1493822716775
 30
0.0
 10
213.59297477382
 20
105.2452441784376
 30
0.0
 10
213.5813962922008
 20
105.3310634625482
 30
0.0
 10
213.5660084922759
 20
105.4067469554113
 30
0.0
 10
213.547345190039
 20
105.4724557768962
 30
0.0
 10
213.5251050748234
 20
105.5280497922663
 30
0.0
 10
213.4986616571956
 20
105.5740874445006
 30
0.0
 10
213.4692248424158
 20
105.6118508088337
 30
0.0
 10
213.4384752987995
 20
105.6445382865187
 30
0.0
 10
213.4056442846559
 20
105.6723379213597
 30
0.0
 10
213.3701501332064
 20
105.6946391985217
 30
0.0
 10
213.3331368877082
 20
105.7126310394392
 30
0.0
 10
213.2937540778571
 20
105.7250134825261
 30
0.0
 10
213.2523888055512
 20
105.7326208682499
 30
0.0
 10
213.2240003558276
 20
105.7335183764191
 30
0.0
 10
213.209561467608
 20
105.7339748655989
 30
0.0
  0
SPLINE
  5
1D8
330
1F
100
AcDbEntity
  8
0
  6
Continuous
 62
     7
370
     0
100
AcDbSpline
210
0.0
220
0.0
230
1.0
 70
     8
 71
     3
 72
    23
 73
    19
 74
     0
 42
0.00000001
 43
0.00000001
 12
1.0
 22
0.0
 32
0.0
 13
1.0
 23
0.0
 33
0.0
 40
0.0
 40
0.0
 40
0.0
 40
0.0
 40
0.0407818458722597
 40
0.0808695887215869
 40
0.1202681657882671
 40
0.1601868504553522
 40
0.2004597376386391
 40
0.2422651778979079
 40
0.2864592615494684
 40
0.3329520837492633
 40
0.3844305340495303
 40
0.4433891253601058
 40
0.5116814722136833
 40
0.5890200255490083
 40
0.6762451906507723
 40
0.7737051914728237
 40
0.881567767781983
 40
1.0
 40
1.0
 40
1.0
 40
1.0
 10
213.2124425943378
 20
104.1271293294077
 30
0.0
 10
213.2260482619147
 20
104.1276487574249
 30
0.0
 10
213.2530280299388
 20
104.1286787728452
 30
0.0
 10
213.2927447345668
 20
104.1355395425296
 30
0.0
 10
213.3305831519422
 20
104.1483576412462
 30
0.0
 10
213.3668844901822
 20
104.1651173597966
 30
0.0
 10
213.4014613253425
 20
104.1868252194545
 30
0.0
 10
213.4341318155032
 20
104.2135680847662
 30
0.0
 10
213.4654176757786
 20
104.2448941195846
 30
0.0
 10
213.4954265554606
 20
104.2817636292348
 30
0.0
 10
213.5227486078096
 20
104.3266812261806
 30
0.0
 10
213.5454142229528
 20
104.3820369861456
 30
0.0
 10
213.5648436080344
 20
104.4475557725847
 30
0.0
 10
213.580648790116
 20
104.5237095506341
 30
0.0
 10
213.5926025267299
 20
104.6103591236346
 30
0.0
 10
213.6015526530037
 20
104.7075870845181
 30
0.0
 10
213.606818436576
 20
104.8155229995292
 30
0.0
 10
213.6073108430796
 20
104.891033431333
 30
0.0
 10
213.6075685458602
 20
104.9305520975033
 30
0.0
  0
SPLINE
  5
1D9
330
1F
100
AcDbEntity
  8
0
  6
Continuous
 62
     7
370
     0
100
AcDbSpline
210
0.0
220
0.0
230
1.0
 70
     8
 71
     3
 72
    23
 73
    19
 74
     0
 42
0.00000001
 43
0.00000001
 12
1.0
 22
0.0
 32
0.0
 13
1.0
 23
0.0
 33
0.0
 40
0.0
 40
0.0
 40
0.0
 40
0.0
 40
0.1184055081537695
 40
0.226654332816702
 40
0.3240923419286021
 40
0.4117048030053219
 40
0.4890259050064157
 40
0.5569093973430758
 40
0.6162333444927074
 40
0.6673492812770747
 40
0.7135123932013476
 40
0.7576965045209786
 40
0.7994925114422912
 40
0.8399760647439397
 40
0.8798857418167761
 40
0.9191486593857416
 40
0.9592273564930831
 40
1.0
 40
1.0
 40
1.0
 40
1.0
 10
212.8173166428153
 20
104.9305520975033
 30
0.0
 10
212.8175781952483
 20
104.8910336096131
 30
0.0
 10
212.8180788644579
 20
104.815386482665
 30
0.0
 10
212.8233096423913
 20
104.7073115104717
 30
0.0
 10
212.8323142113023
 20
104.6098131332419
 30
0.0
 10
212.8442188395517
 20
104.5230263438492
 30
0.0
 10
212.859937768824
 20
104.446833745999
 30
0.0
 10
212.8796747436566
 20
104.3814295018867
 30
0.0
 10
212.9019230086668
 20
104.326028612309
 30
0.0
 10
212.9294548150256
 20
104.2813177286551
 30
0.0
 10
212.9595991020793
 20
104.2448718361228
 30
0.0
 10
212.9907210183488
 20
104.2135271898912
 30
0.0
 10
213.0235527549435
 20
104.1868849583066
 30
0.0
 10
213.0578800887499
 20
104.1646707704888
 30
0.0
 10
213.0942356330546
 20
104.1478516469575
 30
0.0
 10
213.1322218460238
 20
104.1356611087696
 30
0.0
 10
213.171846993133
 20
104.1286456412157
 30
0.0
 10
213.1988335188924
 20
104.1276376505356
 30
0.0
 10
213.2124425943378
 20
104.1271293294077
 30
0.0
  0
SPLINE
  5
1DA
330
1F
100
AcDbEntity
  8
0
  6
Continuous
 62
     7
370
     0
100
AcDbSpline
210
0.0
220
0.0
230
1.0
 70
     8
 71
     3
 72
    15
 73
    11
 74
     0
 42
0.00000001
 43
0.00000001
 12
1.0
 22
0.0
 32
0.0
 13
1.0
 23
0.0
 33
0.0
 40
0.0
 40
0.0
 40
0.0
 40
0.0
 40
0.0838881132795455
 40
0.1771540327539698
 40
0.2825136355617228
 40
0.3993998606601629
 40
0.5294908061912204
 40
0.6728021776758327
 40
0.82953576161967
 40
1.0
 40
1.0
 40
1.0
 40
1.0
 10
212.9362660178049
 20
105.5932112453691
 30
0.0
 10
212.9264755934802
 20
105.576842643928
 30
0.0
 10
212.9058002786629
 20
105.5422756040643
 30
0.0
 10
212.8826658035621
 20
105.4821966645749
 30
0.0
 10
212.8622297228044
 20
105.4135378724687
 30
0.0
 10
212.8454040528543
 20
105.3352428623617
 30
0.0
 10
212.8332318610227
 20
105.2474459416885
 30
0.0
 10
212.8236223862358
 20
105.150249069975
 30
0.0
 10
212.8186306217666
 20
105.0435165487598
 30
0.0
 10
212.8177667201647
 20
104.9692458229608
 30
0.0
 10
212.8173166428153
 20
104.9305520975033
 30
0.0
  0
SPLINE
  5
1DB
330
1F
100
AcDbEntity
  8
0
  6
Continuous
 62
     7
370
     0
100
AcDbSpline
210
0.0
220
0.0
230
1.0
 70
     8
 71
     3
 72
    15
 73
    11
 74
     0
 42
0.00000001
 43
0.00000001
 12
1.0
 22
0.0
 32
0.0
 13
1.0
 23
0.0
 33
0.0
 40
0.0
 40
0.0
 40
0.0
 40
0.0
 40
0.1276647678962251
 40
0.2517385630080496
 40
0.3727533493873896
 40
0.492146758972386
 40
0.614069621309245
 40
0.7371973244121095
 40
0.8656069906011175
 40
1.0
 40
1.0
 40
1.0
 40
1.0
 10
213.209561467608
 20
105.7339748655989
 30
0.0
 10
213.1959532468876
 20
105.7336177035205
 30
0.0
 10
213.1691195794185
 20
105.7329134256696
 30
0.0
 10
213.1298315760356
 20
105.7261911007148
 30
0.0
 10
213.0925987967727
 20
105.7149498750714
 30
0.0
 10
213.056994674335
 20
105.6997225434408
 30
0.0
 10
213.0239080466483
 20
105.679229562742
 30
0.0
 10
212.9920267803409
 20
105.6553025490793
 30
0.0
 10
212.9628440705756
 20
105.6261501535359
 30
0.0
 10
212.94525882571
 20
105.6043562783142
 30
0.0
 10
212.9362660178049
 20
105.5932112453691
 30
0.0
  0
LINE
  5
1DC
330
1F
100
AcDbEntity
  8
0
  6
Continuous
 62
     7
370
     0
100
AcDbLine
 10
142.2389539375
 20
105.2199756538
 30
0.0
 11
142.2392539375
 21
105.2199756578
 31
0.0
  0
LINE
  5
1DD
330
1F
100
AcDbEntity
  8
0
  6
Continuous
 62
     7
370
     0
100
AcDbLine
 10
142.2392539375
 20
108.9985514553
 30
0.0
 11
142.2389539375
 21
108.9985514551
 31
0.0
  0
LINE
  5
1DE
330
1F
100
AcDbEntity
  8
0
  6
Continuous
 62
     7
370
     0
100
AcDbLine
 10
142.2389539375
 20
108.9985514551
 30
0.0
 11
142.2389539375
 21
108.1766279558
 31
0.0
  0
LINE
  5
1DF
330
1F
100
AcDbEntity
  8
0
  6
Continuous
 62
     7
370
     0
100
AcDbLine
 10
142.2389539375
 20
108.1766279558
 30
0.0
 11
142.2392539375
 21
108.1766279473
 31
0.0
  0
LINE
  5
1E0
330
1F
100
AcDbEntity
  8
0
  6
Continuous
 62
     7
370
     0
100
AcDbLine
 10
142.2392539375
 20
108.1766279473
 30
0.0
 11
142.2392539375
 21
107.6486596483
 31
0.0
  0
LINE
  5
1E1
330
1F
100
AcDbEntity
  8
0
  6
Continuous
 62
     7
370
     0
100
AcDbLine
 10
142.2392539375
 20
107.6486596483
 30
0.0
 11
142.2389539375
 21
107.6486596625
 31
0.0
  0
LINE
  5
1E2
330
1F
100
AcDbEntity
  8
0
  6
Continuous
 62
     7
370
     0
100
AcDbLine
 10
142.2389539375
 20
107.6486596625
 30
0.0
 11
142.2389539375
 21
107.0899572432
 31
0.0
  0
LINE
  5
1E3
330
1F
100
AcDbEntity
  8
0
  6
Continuous
 62
     7
370
     0
100
AcDbLine
 10
142.2389539375
 20
107.0899572432
 30
0.0
 11
142.2392539375
 21
107.0899572432
 31
0.0
  0
LINE
  5
1E4
330
1F
100
AcDbEntity
  8
0
  6
Continuous
 62
     7
370
     0
100
AcDbLine
 10
142.2392539375
 20
107.0899572432
 30
0.0
 11
142.2392539375
 21
105.464174049
 31
0.0
  0
LINE
  5
1E5
330
1F
100
AcDbEntity
  8
0
  6
Continuous
 62
     7
370
     0
100
AcDbLine
 10
142.2392539375
 20
105.464174049
 30
0.0
 11
142.2389539375
 21
105.464174044
 31
0.0
  0
LINE
  5
1E6
330
1F
100
AcDbEntity
  8
0
  6
Continuous
 62
     7
370
     0
100
AcDbLine
 10
142.2392539375
 20
105.2199756578
 30
0.0
 11
142.2392539375
 21
81.3274031008
 31
0.0
  0
LINE
  5
1E7
330
1F
100
AcDbEntity
  8
0
  6
Continuous
 62
     7
370
     0
100
AcDbLine
 10
142.2392539375
 20
81.3274031008
 30
0.0
 11
142.0392539375
 21
81.1274031008
 31
0.0
  0
LINE
  5
1E8
330
1F
100
AcDbEntity
  8
0
  6
Continuous
 62
     7
370
     0
100
AcDbLine
 10
142.0392539375
 20
81.1274031008
 30
0.0
 11
132.3620533356
 21
81.1274031008
 31
0.0
  0
LINE
  5
1E9
330
1F
100
AcDbEntity
  8
0
  6
Continuous
 62
     7
370
     0
100
AcDbLine
 10
132.3620533356
 20
81.1274031008
 30
0.0
 11
132.1789253892
 21
81.3267516746
 31
0.0
  0
ARC
  5
1EA
330
1F
100
AcDbEntity
  8
0
  6
Continuous
 62
     7
370
     0
100
AcDbCircle
 10
-166.7607460625
 20
106.5274031008
 30
0.0
 40
300.0
100
AcDbArc
 50
355.1813517129
 51
4.8186482871
  0
LINE
  5
1EB
330
1F
100
AcDbEntity
  8
0
  6
Continuous
 62
     7
370
     0
100
AcDbLine
 10
132.1789253892
 20
131.728054527
 30
0.0
 11
132.3620533356
 21
131.9274031008
 31
0.0
  0
LINE
  5
1EC
330
1F
100
AcDbEntity
  8
0
  6
Continuous
 62
     7
370
     0
100
AcDbLine
 10
132.3620533356
 20
131.9274031008
 30
0.0
 11
142.0392539375
 21
131.9274031008
 31
0.0
  0
LINE
  5
1ED
330
1F
100
AcDbEntity
  8
0
  6
Continuous
 62
     7
370
     0
100
AcDbLine
 10
142.0392539375
 20
131.9274031008
 30
0.0
 11
142.2392539375
 21
131.7274031008
 31
0.0
  0
LINE
  5
1EE
330
1F
100
AcDbEntity
  8
0
  6
Continuous
 62
     7
370
     0
100
AcDbLine
 10
142.2392539375
 20
131.7274031008
 30
0.0
 11
142.2392539375
 21
108.9985514553
 31
0.0
  0
LINE
  5
1EF
330
1F
100
AcDbEntity
  8
0
  6
Continuous
 62
     7
370
     0
100
AcDbLine
 10
142.2389539375
 20
105.464174044
 30
0.0
 11
142.2389539375
 21
105.2199756538
 31
0.0
  0
LINE
  5
1F0
330
1F
100
AcDbEntity
  8
0
  6
Continuous
 62
     7
370
     0
100
AcDbLine
 10
142.2389539375
 20
107.644573477
 30
0.0
 11
142.2392539375
 21
107.644573477
 31
0.0
  0
LINE
  5
1F1
330
1F
100
AcDbEntity
  8
0
  6
Continuous
 62
     7
370
     0
100
AcDbLine
 10
142.2392539375
 20
107.6486596483
 30
0.0
 11
142.2392539375
 21
107.644573477
 31
0.0
  0
LINE
  5
1F2
330
1F
100
AcDbEntity
  8
0
  6
Continuous
 62
     7
370
     0
100
AcDbLine
 10
142.2389539375
 20
108.5780585375
 30
0.0
 11
142.2392539375
 21
108.5780585375
 31
0.0
  0
LINE
  5
1F3
330
1F
100
AcDbEntity
  8
0
  6
Continuous
 62
     7
370
     0
100
AcDbLine
 10
132.1789253892
 20
131.728054527
 30
0.0
 11
132.1789253892
 21
81.3267516746
 31
0.0
  0
LINE
  5
1F4
330
1F
100
AcDbEntity
  8
0
  6
Continuous
 62
     7
370
     0
100
AcDbLine
 10
142.2392539375
 20
107.644573477
 30
0.0
 11
142.2392539375
 21
107.0899572432
 31
0.0
  0
HATCH
  5
1F5
330
1F
100
AcDbEntity
  8
0
  6
Continuous
 62
     7
370
     0
100
AcDbHatch
 10
0.0
 20
0.0
 30
0.0
210
0.0
220
0.0
230
1.0
  2
ANSI31
 70
     0
 71
     0
 91
        1
 92
        0
 93
       20
 72
     1
 10
142.2392539374563
 20
108.9985514552934
 11
142.2392539374563
 21
131.7274031007752
 72
     1
 10
142.2392539374563
 20
131.7274031007752
 11
142.0392539374563
 21
131.9274031007752
 72
     1
 10
142.0392539374563
 20
131.9274031007752
 11
132.3620533355618
 21
131.9274031007752
 72
     1
 10
132.3620533355618
 20
131.9274031007752
 11
132.1789253892312
 21
131.7280545269765
 72
     2
 10
-166.7607460625437
 20
106.5274031007752
 40
300.0
 50
355.1813517129222
 51
364.8186482870794
 73
     0
 72
     1
 10
132.1789253892312
 20
81.32675167457407
 11
132.3620533355618
 21
81.12740310077521
 72
     1
 10
132.3620533355618
 20
81.12740310077521
 11
142.0392539374563
 21
81.12740310077521
 72
     1
 10
142.0392539374563
 20
81.12740310077521
 11
142.2392539374563
 21
81.32740310077523
 72
     1
 10
142.2392539374563
 20
81.32740310077523
 11
142.2392539374563
 21
105.2199756577946
 72
     1
 10
142.2392539374563
 20
105.2199756577946
 11
142.2389539374563
 21
105.2199756538187
 72
     1
 10
142.2389539374563
 20
105.2199756538187
 11
142.2389539374563
 21
105.464174044046
 72
     1
 10
142.2389539374563
 20
105.464174044046
 11
142.2392539374563
 21
105.4641740490251
 72
     1
 10
142.2392539374563
 20
105.4641740490251
 11
142.2392539374563
 21
107.0899572432462
 72
     1
 10
142.2392539374563
 20
107.0899572432462
 11
142.2389539374563
 21
107.0899572432462
 72
     1
 10
142.2389539374563
 20
107.0899572432462
 11
142.2389539374556
 21
107.6486596624766
 72
     1
 10
142.2389539374556
 20
107.6486596624766
 11
142.2392539374563
 21
107.6486596483427
 72
     1
 10
142.2392539374563
 20
107.6486596483427
 11
142.2392539374563
 21
108.1766279473201
 72
     1
 10
142.2392539374563
 20
108.1766279473201
 11
142.2389539374563
 21
108.1766279557779
 72
     1
 10
142.2389539374563
 20
108.1766279557779
 11
142.2389539374563
 21
108.9985514550682
 72
     1
 10
142.2389539374563
 20
108.9985514550682
 11
142.2392539374563
 21
108.9985514552934
 97
        0
 75
     0
 76
     1
 52
0.0
 41
0.5
 77
     0
 78
     1
 53
45.0
 43
0.0
 44
0.0
 45
-1.122532015133644
 46
1.122532015133644
 79
     0
 98
        1
 10
0.0
 20
0.0
  0
DIMENSION
  5
1F6
330
1F
100
AcDbEntity
  8
0
  6
Continuous
 62
     7
370
     0
100
AcDbDimension
  2
_D_1
 10
133.2392539375
 20
141.9274031008
 30
0.0
 11
156.4816824457
 21
141.9274031008
 31
0.0
 70
   160
  1
<>
 71
     2
 42
-1.0
  3
SLDDIMSTYLE1
100
AcDbAlignedDimension
 13
142.2392539375
 23
131.7274031008
 33
0.0
 14
133.2392539375
 24
106.5274031008
 34
0.0
100
AcDbRotatedDimension
  0
DIMENSION
  5
209
330
1F
100
AcDbEntity
  8
0
  6
Continuous
 62
     7
370
     0
100
AcDbDimension
  2
_D_2
 10
132.1789253892
 20
153.9274031008
 30
0.0
 11
158.2392539375
 21
153.9274031008
 31
0.0
 70
   160
  1
<> REF
 71
     2
 42
-1.0
  3
SLDDIMSTYLE2
100
AcDbAlignedDimension
 13
142.2392539375
 23
131.7274031008
 33
0.0
 14
132.1789253892
 24
131.728054527
 34
0.0
100
AcDbRotatedDimension
  0
DIMENSION
  5
21D
330
1F
100
AcDbEntity
  8
0
  6
Continuous
 62
     7
370
     0
100
AcDbDimension
  2
_D_3
 10
-166.7607460625
 20
106.5274031008
 30
0.0
 11
161.4999900314
 21
88.9174696794
 31
0.0
 70
   164
  1
<>
 71
     1
 42
-1.0
  3
SLDDIMSTYLE3
100
AcDbRadialDimension
 15
132.7761748921
 25
89.8650807841
 35
0.0
 40
0.0
  0
MTEXT
  5
22D
330
1F
100
AcDbEntity
  8
0
  6
Continuous
 62
     7
370
     0
100
AcDbMText
 10
137.0280456133
 20
74.542596401
 30
0.0
 40
2.1166666667
 41
0.0
 71
     2
 72
     1
  1
SECTION A-A
  7
SLDTEXTSTYLE0
 73
     1
 44
1.0
  0
OLE2FRAME
  5
22E
330
1F
100
AcDbEntity
  8
0
100
AcDbOle2Frame
 70
     2
  3
Paintbrush Picture
 10
229.0524258301
 20
33.6996297921
 30
0.0
 11
265.1686469208
 21
28.555479607
 31
0.0
 71
     2
 72
     0
 73
     1
 90
     7296
310
80557333EF78ADA16C40002412788DD94040000000000000000041161DC7B292
310
7040002412788DD94040000000000000000041161DC7B2927040F6DD59E9338E
310
3C4000000000000000007333EF78ADA16C40F6DD59E9338E3C40000000000000
310
00000000000001000000000100000100000001000000000001000000001C0000
310
D0CF11E0A1B11AE1000000000000000000000000000000003E000300FEFF0900
310
0600000000000000000000000100000001000000000000000010000002000000
310
01000000FEFFFFFF0000000000000000FFFFFFFFFFFFFFFFFFFFFFFFFFFFFFFF
310
FFFFFFFFFFFFFFFFFFFFFFFFFFFFFFFFFFFFFFFFFFFFFFFFFFFFFFFFFFFFFFFF
310
FFFFFFFFFFFFFFFFFFFFFFFFFFFFFFFFFFFFFFFFFFFFFFFFFFFFFFFFFFFFFFFF
310
FFFFFFFFFFFFFFFFFFFFFFFFFFFFFFFFFFFFFFFFFFFFFFFFFFFFFFFFFFFFFFFF
310
FFFFFFFFFFFFFFFFFFFFFFFFFFFFFFFFFFFFFFFFFFFFFFFFFFFFFFFFFFFFFFFF
310
FFFFFFFFFFFFFFFFFFFFFFFFFFFFFFFFFFFFFFFFFFFFFFFFFFFFFFFFFFFFFFFF
310
FFFFFFFFFFFFFFFFFFFFFFFFFFFFFFFFFFFFFFFFFFFFFFFFFFFFFFFFFFFFFFFF
310
FFFFFFFFFFFFFFFFFFFFFFFFFFFFFFFFFFFFFFFFFFFFFFFFFFFFFFFFFFFFFFFF
310
FFFFFFFFFFFFFFFFFFFFFFFFFFFFFFFFFFFFFFFFFFFFFFFFFFFFFFFFFFFFFFFF
310
FFFFFFFFFFFFFFFFFFFFFFFFFFFFFFFFFFFFFFFFFFFFFFFFFFFFFFFFFFFFFFFF
310
FFFFFFFFFFFFFFFFFFFFFFFFFFFFFFFFFFFFFFFFFFFFFFFFFFFFFFFFFFFFFFFF
310
FFFFFFFFFFFFFFFFFFFFFFFFFFFFFFFFFFFFFFFFFFFFFFFFFFFFFFFFFFFFFFFF
310
FFFFFFFFFFFFFFFFFFFFFFFFFFFFFFFFFFFFFFFFFFFFFFFFFFFFFFFFFFFFFFFF
310
FFFFFFFFFFFFFFFFFFFFFFFFFFFFFFFFFFFFFFFFFFFFFFFFFFFFFFFFFFFFFFFF
310
FDFFFFFFFEFFFFFFFEFFFFFFFEFFFFFF05000000060000000700000008000000
310
090000000A0000000B0000000C000000FEFFFFFFFFFFFFFFFFFFFFFFFFFFFFFF
310
FFFFFFFFFFFFFFFFFFFFFFFFFFFFFFFFFFFFFFFFFFFFFFFFFFFFFFFFFFFFFFFF
310
FFFFFFFFFFFFFFFFFFFFFFFFFFFFFFFFFFFFFFFFFFFFFFFFFFFFFFFFFFFFFFFF
310
FFFFFFFFFFFFFFFFFFFFFFFFFFFFFFFFFFFFFFFFFFFFFFFFFFFFFFFFFFFFFFFF
310
FFFFFFFFFFFFFFFFFFFFFFFFFFFFFFFFFFFFFFFFFFFFFFFFFFFFFFFFFFFFFFFF
310
FFFFFFFFFFFFFFFFFFFFFFFFFFFFFFFFFFFFFFFFFFFFFFFFFFFFFFFFFFFFFFFF
310
FFFFFFFFFFFFFFFFFFFFFFFFFFFFFFFFFFFFFFFFFFFFFFFFFFFFFFFFFFFFFFFF
310
FFFFFFFFFFFFFFFFFFFFFFFFFFFFFFFFFFFFFFFFFFFFFFFFFFFFFFFFFFFFFFFF
310
FFFFFFFFFFFFFFFFFFFFFFFFFFFFFFFFFFFFFFFFFFFFFFFFFFFFFFFFFFFFFFFF
310
FFFFFFFFFFFFFFFFFFFFFFFFFFFFFFFFFFFFFFFFFFFFFFFFFFFFFFFFFFFFFFFF
310
FFFFFFFFFFFFFFFFFFFFFFFFFFFFFFFFFFFFFFFFFFFFFFFFFFFFFFFFFFFFFFFF
310
FFFFFFFFFFFFFFFFFFFFFFFFFFFFFFFFFFFFFFFFFFFFFFFFFFFFFFFFFFFFFFFF
310
FFFFFFFFFFFFFFFFFFFFFFFFFFFFFFFFFFFFFFFFFFFFFFFFFFFFFFFFFFFFFFFF
310
FFFFFFFFFFFFFFFFFFFFFFFFFFFFFFFFFFFFFFFFFFFFFFFFFFFFFFFFFFFFFFFF
310
FFFFFFFFFFFFFFFFFFFFFFFFFFFFFFFFFFFFFFFFFFFFFFFFFFFFFFFFFFFFFFFF
310
52006F006F007400200045006E00740072007900000000000000000000000000
310
0000000000000000000000000000000000000000000000000000000000000000
310
16000500FFFFFFFFFFFFFFFF020000000A00030000000000C000000000000046
310
00000000000000000000000090D437841978CE0103000000C000000000000000
310
01004F006C006500000000000000000000000000000000000000000000000000
310
0000000000000000000000000000000000000000000000000000000000000000
310
0A000200FFFFFFFFFFFFFFFFFFFFFFFF00000000000000000000000000000000
310
0000000000000000000000000000000000000000000000001400000000000000
310
010043006F006D0070004F0062006A0000000000000000000000000000000000
310
0000000000000000000000000000000000000000000000000000000000000000
310
120002010100000003000000FFFFFFFF00000000000000000000000000000000
310
0000000000000000000000000000000000000000010000004D00000000000000
310
01004F006C006500310030004E00610074006900760065000000000000000000
310
0000000000000000000000000000000000000000000000000000000000000000
310
1A000200FFFFFFFFFFFFFFFFFFFFFFFF00000000000000000000000000000000
310
000000000000000000000000000000000000000004000000E411000000000000
310
FEFFFFFF02000000FEFFFFFFFFFFFFFFFFFFFFFFFFFFFFFFFFFFFFFFFFFFFFFF
310
FFFFFFFFFFFFFFFFFFFFFFFFFFFFFFFFFFFFFFFFFFFFFFFFFFFFFFFFFFFFFFFF
310
FFFFFFFFFFFFFFFFFFFFFFFFFFFFFFFFFFFFFFFFFFFFFFFFFFFFFFFFFFFFFFFF
310
FFFFFFFFFFFFFFFFFFFFFFFFFFFFFFFFFFFFFFFFFFFFFFFFFFFFFFFFFFFFFFFF
310
FFFFFFFFFFFFFFFFFFFFFFFFFFFFFFFFFFFFFFFFFFFFFFFFFFFFFFFFFFFFFFFF
310
FFFFFFFFFFFFFFFFFFFFFFFFFFFFFFFFFFFFFFFFFFFFFFFFFFFFFFFFFFFFFFFF
310
FFFFFFFFFFFFFFFFFFFFFFFFFFFFFFFFFFFFFFFFFFFFFFFFFFFFFFFFFFFFFFFF
310
FFFFFFFFFFFFFFFFFFFFFFFFFFFFFFFFFFFFFFFFFFFFFFFFFFFFFFFFFFFFFFFF
310
FFFFFFFFFFFFFFFFFFFFFFFFFFFFFFFFFFFFFFFFFFFFFFFFFFFFFFFFFFFFFFFF
310
FFFFFFFFFFFFFFFFFFFFFFFFFFFFFFFFFFFFFFFFFFFFFFFFFFFFFFFFFFFFFFFF
310
FFFFFFFFFFFFFFFFFFFFFFFFFFFFFFFFFFFFFFFFFFFFFFFFFFFFFFFFFFFFFFFF
310
FFFFFFFFFFFFFFFFFFFFFFFFFFFFFFFFFFFFFFFFFFFFFFFFFFFFFFFFFFFFFFFF
310
FFFFFFFFFFFFFFFFFFFFFFFFFFFFFFFFFFFFFFFFFFFFFFFFFFFFFFFFFFFFFFFF
310
FFFFFFFFFFFFFFFFFFFFFFFFFFFFFFFFFFFFFFFFFFFFFFFFFFFFFFFFFFFFFFFF
310
FFFFFFFFFFFFFFFFFFFFFFFFFFFFFFFFFFFFFFFFFFFFFFFFFFFFFFFFFFFFFFFF
310
FFFFFFFFFFFFFFFFFFFFFFFFFFFFFFFFFFFFFFFFFFFFFFFFFFFFFFFFFFFFFFFF
310
0100000200000000000000000000000000000000000000000000000000000000
310
0000000000000000000000000000000000000000000000000000000000000000
310
0100FEFF030A0000FFFFFFFF0A00030000000000C00000000000004607000000
310
5042727573680007000000504272757368000700000050427275736800F439B2
310
7100000000000000000000000000000000000000000000000000000000000000
310
0000000000000000000000000000000000000000000000000000000000000000
310
0000000000000000000000000000000000000000000000000000000000000000
310
0000000000000000000000000000000000000000000000000000000000000000
310
0000000000000000000000000000000000000000000000000000000000000000
310
0000000000000000000000000000000000000000000000000000000000000000
310
0000000000000000000000000000000000000000000000000000000000000000
310
0000000000000000000000000000000000000000000000000000000000000000
310
0000000000000000000000000000000000000000000000000000000000000000
310
0000000000000000000000000000000000000000000000000000000000000000
310
0000000000000000000000000000000000000000000000000000000000000000
310
0000000000000000000000000000000000000000000000000000000000000000
310
E0110000424DDE11000000000000360400002800000096000000170000000100
310
08000000000000000000E7240000E72400000001000000010000000000FF0101
310
01FF020202FF030303FF040404FF050505FF060606FF070707FF080808FF0909
310
09FF0A0A0AFF0B0B0BFF0C0C0CFF0D0D0DFF0E0E0EFF0F0F0FFF101010FF1111
310
11FF121212FF131313FF141414FF151515FF161616FF171717FF181818FF1919
310
19FF1A1A1AFF1B1B1BFF1C1C1CFF1D1D1DFF1E1E1EFF1F1F1FFF202020FF2121
310
21FF222222FF232323FF242424FF252525FF262626FF272727FF282828FF2929
310
29FF2A2A2AFF2B2B2BFF2C2C2CFF2D2D2DFF2E2E2EFF2F2F2FFF303030FF3131
310
31FF323232FF333333FF343434FF353535FF363636FF373737FF383838FF3939
310
39FF3A3A3AFF3B3B3BFF3C3C3CFF3D3D3DFF3E3E3EFF3F3F3FFF404040FF4141
310
41FF424242FF434343FF444444FF454545FF464646FF474747FF484848FF4949
310
49FF4A4A4AFF4B4B4BFF4C4C4CFF4D4D4DFF4E4E4EFF4F4F4FFF505050FF5151
310
51FF525252FF535353FF545454FF555555FF565656FF575757FF585858FF5959
310
59FF5A5A5AFF5B5B5BFF5C5C5CFF5D5D5DFF5E5E5EFF5F5F5FFF606060FF6161
310
61FF626262FF636363FF646464FF656565FF666666FF676767FF686868FF6969
310
69FF6A6A6AFF6B6B6BFF6C6C6CFF6D6D6DFF6E6E6EFF6F6F6FFF707070FF7171
310
71FF727272FF737373FF747474FF757575FF767676FF777777FF787878FF7979
310
79FF7A7A7AFF7B7B7BFF7C7C7CFF7D7D7DFF7E7E7EFF7F7F7FFF808080FF8181
310
81FF828282FF838383FF848484FF858585FF868686FF878787FF888888FF8989
310
89FF8A8A8AFF8B8B8BFF8C8C8CFF8D8D8DFF8E8E8EFF8F8F8FFF909090FF9191
310
91FF929292FF939393FF949494FF959595FF969696FF979797FF989898FF9999
310
99FF9A9A9AFF9B9B9BFF9C9C9CFF9D9D9DFF9E9E9EFF9F9F9FFFA0A0A0FFA1A1
310
A1FFA2A2A2FFA3A3A3FFA4A4A4FFA5A5A5FFA6A6A6FFA7A7A7FFA8A8A8FFA9A9
310
A9FFAAAAAAFFABABABFFACACACFFADADADFFAEAEAEFFAFAFAFFFB0B0B0FFB1B1
310
B1FFB2B2B2FFB3B3B3FFB4B4B4FFB5B5B5FFB6B6B6FFB7B7B7FFB8B8B8FFB9B9
310
B9FFBABABAFFBBBBBBFFBCBCBCFFBDBDBDFFBEBEBEFFBFBFBFFFC0C0C0FFC1C1
310
C1FFC2C2C2FFC3C3C3FFC4C4C4FFC5C5C5FFC6C6C6FFC7C7C7FFC8C8C8FFC9C9
310
C9FFCACACAFFCBCBCBFFCCCCCCFFCDCDCDFFCECECEFFCFCFCFFFD0D0D0FFD1D1
310
D1FFD2D2D2FFD3D3D3FFD4D4D4FFD5D5D5FFD6D6D6FFD7D7D7FFD8D8D8FFD9D9
310
D9FFDADADAFFDBDBDBFFDCDCDCFFDDDDDDFFDEDEDEFFDFDFDFFFE0E0E0FFE1E1
310
E1FFE2E2E2FFE3E3E3FFE4E4E4FFE5E5E5FFE6E6E6FFE7E7E7FFE8E8E8FFE9E9
310
E9FFEAEAEAFFEBEBEBFFECECECFFEDEDEDFFEEEEEEFFEFEFEFFFF0F0F0FFF1F1
310
F1FFF2F2F2FFF3F3F3FFF4F4F4FFF5F5F5FFF6F6F6FFF7F7F7FFF8F8F8FFF9F9
310
F9FFFAFAFAFFFBFBFBFFFCFCFCFFFDFDFDFFFEFEFEFFFFFFFFFFFFFFFFFFFFFF
310
C94E4E4E4F4E4EFFFFFFFFFFC94E4E4E4E4E72FFFFFFFFFFFFFF734E4D4E4E4E
310
C9FFFFFFFFFFAA683516171616265B9BE9FFFFFFFFFF4E4E4E4D4E4EFFFFFFFF
310
FFFFFFFF4E4E4F4E4D4E4E4E4F4E4E4F4D4E4E4E4E4E4D4E4F4E4D4E4E4EAAFF
310
FFFFFFFFFFEA4E4F4F4E4E4E4E4E4D4D4F4F4E4E4E4E4E5B7FAAFFFFFFFFFFFF
310
C9744E1716171616164D8DEAFFFFFFFF0000FFFFFFFFFFFFBA161617161716FF
310
FFFFFFFFB917171616174FFFFFFFFFFFFFFF4E1716161616B9FFFFFFB9341717
310
1716171617171616268CFFFFFFFF161617161617FFFFFFFFFFFFFFB917161717
310
1617167F807F7F7F7F7F7F807F7F807F7F807F7F7F414EFFFFFFFFFFFF8C167F
310
7F807F7F7F7E7F7F807F807F7F807F4E3417258EFFFFEA4E162674AABAEAEBBA
310
AA74341680FFFFFF0000FFFFFFFFFFFFB9171717171617FFFFFFFFFFBB161616
310
16164EFFFFFFFFFFFFFF4E1717171717B9FFFF9C171617171716161616171616
310
171766FFFFFF161717161617FFFFFFFFFFFFFF8E16171717161616FFFFFFFFFF
310
FFFFFFFFFFFFFFFFFFFFFFFFFFAA16D9FFFFFFFFFF3467FFFFFFFFEAFFFFFFFF
310
FFFFFFFFFFFFFFFFFFCA671667EB26278DFFFFFFFFFFFFFFFFFFFF8C2541EAFF
310
0000FFFFFFFFFFFFB9171717171716FFFFFFFFFFBA16171617174EFFFFFFFFFF
310
FFFF4E1717161616BAFF9B1617161616171716171617161616161667FFFF1616
310
16161716FFFFFFFFFFFFFF7F16161617174017FFFFFFFFFFFFFFFFFFFFFFFFFF
310
FFFFFFFFFFFF344E7F7F7F7E7417DAFFFFFFFF80FFFFFFFFFFFFFFFFFFFFFFFF
310
FFFFFF9B163425CAFFFFFFFFFFFFFFFFFFFFFFFFCA2667FF0000FFFFFFFFFFFF
310
BA171717171617FFFFFFFFFFB916171716164EFFFFFFFFFFFFFF4F1716161717
310
B9C91716171616161716161617171616161617168DFF161716161717FFFFFFFF
310
FFFFFF7F17171716164F16FFFFFFFFFFFFFFFFFFFFFFFFFFFFFFFFFFFFFF9B16
310
17161617174EFFFFFFFFFF34FFFFFFFFD9BABABABABADAFFFFFFFFFF7F16AAFF
310
FFFFFFFFFFFFFFFFFFFFFFFFFF9C16BA0000FFFFFFFFFFFFB9161717161717FF
310
FFFFFFFFB917161716174DFFFFFFFFFFFFFF4E1616161616BA4E161617171716
310
419BEAEAAA4E16161617161726E9171717161616FFFFFFFFFFFFFF4F16161717
310
164E16FFFFFFFFFFBAB9B9B9B9B9BABABACAFFFFFFFFFFFFFFFFFFFFFFFFFFFF
310
FFFFBA16FFFFFFFF7F1617161617174DEAFFFFFFEA41FFFFFFFFFFAA4D16174E
310
9BFFFFFFFFFF34730000FFFFFFFFFFFFB9161617171617FFFFFFFFFFBA161616
310
16164EFFFFFFFFFFFFFF4F16161717169B1617161716175BFFFFFFFFFFFF7417
310
16171616168D171717161617FFFFFFFFFFFFEA2616171717167416FFFFFFFFFF
310
16171616171717171717EAFFFFFFFFFFFFFFFFFFFFFFFFFFFFFF6716FFFFFFFF
310
7F4EFFFFFFFFBA2573FFFFFFFFBAFFFFFFFFAA167FB9BB9B269BFFFFFFFF664F
310
0000FFFFFFFFFFFFB9171616161616FFFFFFFFFFBA16161717164EFFFFFFFFFF
310
FFFF4E16161616174E161617171626EAFFFFFFFFFFFFFF4E16161616164E1716
310
16161617FFFFFFFFFFFF671616161716347F16FFFFFFFFFF16B9FFFFFFFFFFFF
310
D9168DFFFFFFFFFFFFFFFFFFFFFFFFFFFFEA1716FFFFFFFF7F4EFFFFFFFFFF7F
310
4EFFFFFFFFFFFFFFFFFF5B66FFFFFFEA347FFFFFFFFF7F4D0000FFFFFFFFFFFF
310
B9171616171617FFFFFFFFFFBA17161716174EFFFFFFFFFFFFFF4D1716161617
310
17161716161673FFFFFFFFFFFFFFFF9B1617161717161616171616174F4E4E4E
310
4E341616171616167E7F16FFFFFFFFFF16BAFFFFFFFFFFFFFF5B41FFFFFFFF34
310
1616171616BAFFFFFF9B1716FFFFFFFF7F4EFFFFFFFFFF4E4EFFFFFFFF734E4E
310
4E4E267EDA9B67164EEAFFFFFFFF744D0000FFFFFFFFFFFFBA171717161617FF
310
FFFFFFFFBA1616171616347F7F7F7F80807F331616161717161717161716B9FF
310
FFFFFFFFFFFFFFE9161616161616171716161716171616161616171616171734
310
EA7F16FFFFFFFFFF16BAFFFFFFFFFFFFFFAA17C9FFFFFF7326BABA5B25FFFFFF
310
FF401716FFFFFFFF7F264F4E4E4E4217AAFFFFFFEA16677F73261616164173CA
310
FFFFFFFFFFFF417F0000FFFFFFFFFFFFBA171616171617FFFFFFFFFFBA161616
310
17171616161616161616161717161616161616161617EAFFFFFFFFFFFFFFFFFF
310
261717161716161617161616161617161617161616174EEAFF8016FFFFFFFFFF
310
17BAFFFFFFFFFFFFFFFF3467FFFFFFC916C9FF3467FFFFFFDA166716FFFFFFFF
310
9C4D4E4E4E4E67AAFFFFFFFF6834FF7F262567AAEAFFFFFFFFFFFFFFFF9B17D9
310
0000FFFFFFFFFFFFB9161616161616FFFFFFFFFFBA1617161717171616161616
310
1716171716161716161617171716FFFFFFFFFFFFFFFFFFFF4E17161716171616
310
1617171616161716171717161616169BFF7F17FFFFFFFFFF17B9FFFFFFFFFFFF
310
FFFF7326FFFFFFFF3473DA16AAFFFFFF7317AA16FFFFFFFFFFFFFFFFFFFFFFFF
310
FFFFEA6725BA4E167FEAFFFFFFFFFFFFFFFFFFFF9C167FFF0000FFFFFFFFFFFF
310
B9161717171716FFFFFFFFFFBA16161716171616171717161617161716161616
310
171617171617EAFFFFFFFFFFFFFFFFFF26161717161616161616161617171616
310
1616161616171616AA8016FFFFFFFFFF16BAFFFFFFFFFFFFFFFFDA179BFFFFFF
310
74348D26FFFFFFFF2566B917FFFFFFFFD8BAB9BAB9BADAFFFFEA41169B7425C9
310
FFFFFFFFFFFFFFFFFFFFAB4F1680FFFF0000FFFFFFFFFFFFBA161717171617FF
310
FFFFFFFFBA17161717161617171617161616161617171616171716171617BBFF
310
FFFFFFFFFFFFFFE9171616161617161617161716FFFFFFFFFFD9671616161617
310
348017FFFFFFFFFF16BAFFFFFFFFFFFFFFFFFF4E5AFFFFFFC916265AFFFFFFAA
310
16AABA16FFFFFFFF7F1617161616179BFFFFEB4127168DFFFFFFFFFFFFFFD99B
310
6734175AC9FFFFFF0000FFFFFFFFFFFFB9161617171617FFFFFFFFFFBB161616
310
1616347F807F7F7F7F8033171716171617171616161672FFFFFFFFFFFFFFFF9C
310
171617171617161716161617FFFFFFFFFFFFFF4117161616174E17FFFFFFFFFF
310
16BAFFFFFFFFFFFFFFFFFF9B16DAFFFFFF34169BFFFFFF5A26FFB917FFFFFFFF
310
7F4EFFFFFFEA5B26FFFFFFEA2616EAFFFFFFFFDA743416331617414E4E4E4ECA
310
0000FFFFFFFFFFFFBA161716161616FFFFFFFFFFBA17171616164EFFFFFFFFFF
310
FFFF4E16161717174E161717171626EBFFFFFFFFFFFFFF4E16161617165B1616
310
16171617FFFFFFFFFFFFFF6716161616161617FFFFFFFFFF16BAFFFFFFFFFFFF
310
FFFFFFEA268CFFFFFF7316EAFFFFEB1774FFB916FFFFFFFF7F4EFFFFFFFF7316
310
FFFFFFFF6826FFFFFFFFEB264D9CEABA257F807F7F6616BA0000FFFFFFFFFFFF
310
BA161716161616FFFFFFFFFFBA16171616164DFFFFFFFFFFFFFF4E1617161617
310
9B1617171717165BEBFFFFFFFFFF671616161617179B171616161616FFFFFFFF
310
FFFFFF3417161617171617FFFFFFFFFF17BAFFFFFFFFFFFFFFFFFFFF6734FFFF
310
FFEBCAFFFFFF8D17C9FFBA17FFFFFFFF7F357F808066174FFFFFFFFF7F16FFFF
310
FFFFD91673B99B415BFFFFFFFFBA16DA00009B7F7F7F807F671617161616167F
310
80807F7E6617161616164EFFFFFFFFFFFFFF4E1616161617B94E171716161616
310
349BC9D9AA4E16171616161634FF161617161717B9B9BAB9BA9B411716171716
310
163416FFFFFFFFFF16B9FFFFFFFFFFFFFFFFFFFFC917CAFFFFFFFFFFFFFF3342
310
FFFFBA17FFFFFFFF9B4E4E4F4E4E66EAFFFFFFFF5B16C9FFFFFFFFAA4E164E73
310
EAFFFFFFFF8D26FF00004E161716161616171617171616171717171617161616
310
17174EFFFFFFFFFFFFFF4E1717171616B9D92616171716171716171717171716
310
16171716AAFF161717171617161617171616161617161716166717FFFFFFFFFF
310
17B9FFFFFFFFFFFFFFFFFFFFFF3467FFFFFFFFFFFFCA168CFFFFBB17FFFFFFFF
310
FFFFFFFFFFFFFFFFFFFFFFEA26265BFFFFFFFFFFFFFFFFFFFFFFFFFFEA3467FF
310
00004D16161616161617161717161617161616171617171616164EFFFFFFFFFF
310
FFFF4D1617161616BAFF9B1616161616161716161616171717161766FFFF1616
310
16171617161617161716171616171717667F16FFFFFFFFFF17BAFFFFFFFFFFFF
310
FFFFFFFFFF8C26EAFFFFFFFFFF6617EAFFFFBA17FFFFFFFFFFFFFFFFFFFFFFFF
310
FFFFEA5A25BA269BFFFFFFFFFFFFFFFFFFFFFFFF6616DAFF00004E1616171616
310
1616161616161716161617171616171616174EFFFFFFFFFFFFFF4D1717171716
310
B9FFFF9C161616161616161716161717171667FFFFFF17161717171716161617
310
1716161616161641E97E16FFFFFFFFFF16B9FFFFFFFFFFFFFFFFFFFFFFEA169B
310
FFFFFFFFEA265BFFFFFFB916FFFFFFFFFFFFFFFFFFFFFFFFFF9B3416AAFF9B17
310
67EAFFFFFFFFFFFFFFFFEA5B169BFFFF00004D17161716161616161717171616
310
161717161716171716174EFFFFFFFFFFFFFF4D1616161616BAFFFFFFBB411616
310
161716161616171634ABFFFFFFFF161716161617171716171617171617267FFF
310
FF7F164E4E4E4E4F17BAFFFFFFFFFFFFFFFFFFFFFFFF66344D4E4E4F4117AAFF
310
FFFFBA174E4E4E4D4E4D4D4E4E4E4E4116174EBBFFFFFFCA342666ABEAFFFFEA
310
AA6725269CFFFFFF0000724F4E4D4D4D4E4D4D4E4E4E4D4E4E4E4E4E4E4E4E4D
310
4E4E74FFFFFFFFFFFFFF734E4E4E4D4ECAFFFFFFFFFFAA663416171717265B9B
310
FFFFFFFFFFFF7F8080807F80807F7F7F7F7F807FBAFFFFFFFF9B4E4E4F4D4D4E
310
4DC9FFFFFFFFFFFFFFFFFFFFFFFFBA4E4E4E4E4D4E4EFFFFFFFFC94E4E4E4F4E
310
4E4E4D4E4E5A807F9CD9FFFFFFFFFFFFFF9B5B2617171716174E8DEAFFFFFFFF
310
0000000000000000000000000000000000000000000000000000000000000000
  1
OLE
  0
ENDSEC
  0
SECTION
  2
OBJECTS
  0
DICTIONARY
  5
C
330
0
100
AcDbDictionary
281
     1
  3
ACAD_GROUP
350
D
  3
ACAD_LAYOUT
350
1A
  3
ACAD_MLINESTYLE
350
17
  3
ACAD_PLOTSETTINGS
350
19
  3
ACAD_PLOTSTYLENAME
350
E
  0
DICTIONARY
  5
D
102
{ACAD_REACTORS
330
C
102
}
330
C
100
AcDbDictionary
281
     1
  0
DICTIONARY
  5
1A
102
{ACAD_REACTORS
330
C
102
}
330
C
100
AcDbDictionary
281
     1
  3
Layout1
350
1E
  3
Layout2
350
26
  3
Model
350
22
  0
DICTIONARY
  5
17
102
{ACAD_REACTORS
330
C
102
}
330
C
100
AcDbDictionary
281
     1
  3
Standard
350
18
  0
DICTIONARY
  5
19
102
{ACAD_REACTORS
330
C
102
}
330
C
100
AcDbDictionary
281
     1
  0
ACDBDICTIONARYWDFLT
  5
E
102
{ACAD_REACTORS
330
C
102
}
330
C
100
AcDbDictionary
281
     1
  3
Normal
350
F
100
AcDbDictionaryWithDefault
340
F
  0
LAYOUT
  5
1E
102
{ACAD_REACTORS
330
1A
102
}
330
1A
100
AcDbPlotSettings
  1

  2
none_device
  4

  6

 40
0.0
 41
0.0
 42
0.0
 43
0.0
 44
0.0
 45
0.0
 46
0.0
 47
0.0
 48
0.0
 49
0.0
140
0.0
141
0.0
142
1.0
143
1.0
 70
   688
 72
     0
 73
     0
 74
     5
  7

 75
    16
147
1.0
148
0.0
149
0.0
100
AcDbLayout
  1
Layout1
 70
     1
 71
     1
 10
0.0
 20
0.0
 11
420.0
 21
297.0
 12
0.0
 22
0.0
 32
0.0
 14
1.0000000000E+20
 24
1.0000000000E+20
 34
1.0000000000E+20
 15
-1.0000000000E+20
 25
-1.0000000000E+20
 35
-1.0000000000E+20
146
0.0
 13
0.0
 23
0.0
 33
0.0
 16
1.0
 26
0.0
 36
0.0
 17
0.0
 27
1.0
 37
0.0
 76
     0
330
1B
  0
LAYOUT
  5
26
102
{ACAD_REACTORS
330
1A
102
}
330
1A
100
AcDbPlotSettings
  1

  2
none_device
  4

  6

 40
0.0
 41
0.0
 42
0.0
 43
0.0
 44
0.0
 45
0.0
 46
0.0
 47
0.0
 48
0.0
 49
0.0
140
0.0
141
0.0
142
1.0
143
1.0
 70
   688
 72
     0
 73
     0
 74
     5
  7

 75
    16
147
1.0
148
0.0
149
0.0
100
AcDbLayout
  1
Layout2
 70
     1
 71
     2
 10
0.0
 20
0.0
 11
0.0
 21
0.0
 12
0.0
 22
0.0
 32
0.0
 14
0.0
 24
0.0
 34
0.0
 15
0.0
 25
0.0
 35
0.0
146
0.0
 13
0.0
 23
0.0
 33
0.0
 16
1.0
 26
0.0
 36
0.0
 17
0.0
 27
1.0
 37
0.0
 76
     0
330
23
  0
LAYOUT
  5
22
102
{ACAD_REACTORS
330
1A
102
}
330
1A
100
AcDbPlotSettings
  1

  2
none_device
  4

  6

 40
0.0
 41
0.0
 42
0.0
 43
0.0
 44
0.0
 45
0.0
 46
0.0
 47
0.0
 48
0.0
 49
0.0
140
0.0
141
0.0
142
1.0
143
1.0
 70
  1712
 72
     0
 73
     0
 74
     0
  7

 75
     0
147
1.0
148
0.0
149
0.0
100
AcDbLayout
  1
Model
 70
     1
 71
     0
 10
0.0
 20
0.0
 11
279.4
 21
215.9
 12
0.0
 22
0.0
 32
0.0
 14
0.0
 24
0.0
 34
0.0
 15
279.4
 25
215.9
 35
0.0
146
0.0
 13
0.0
 23
0.0
 33
0.0
 16
1.0
 26
0.0
 36
0.0
 17
0.0
 27
1.0
 37
0.0
 76
     0
330
1F
331
29
  0
MLINESTYLE
  5
18
102
{ACAD_REACTORS
330
17
102
}
330
17
100
AcDbMlineStyle
  2
Standard
 70
     0
  3

 62
   256
 51
90.0
 52
90.0
 71
     2
 49
0.5
 62
   256
  6
BYLAYER
 49
-0.5
 62
   256
  6
BYLAYER
  0
ACDBPLACEHOLDER
  5
F
102
{ACAD_REACTORS
330
E
102
}
330
E
  0
ENDSEC
  0
EOF
