  0
SECTION
  2
HEADER
  9
$ACADVER
  1
AC1015
  9
$ACADMAINTVER
 70
     6
  9
$DWGCODEPAGE
  3
ANSI_1252
  9
$INSBASE
 10
0.0
 20
0.0
 30
0.0
  9
$EXTMIN
 10
0.0
 20
0.0
 30
0.0
  9
$EXTMAX
 10
279.4
 20
215.9
 30
0.0
  9
$LIMMIN
 10
0.0
 20
0.0
  9
$LIMMAX
 10
279.4
 20
215.9
  9
$ORTHOMODE
 70
     0
  9
$REGENMODE
 70
     1
  9
$FILLMODE
 70
     1
  9
$QTEXTMODE
 70
     0
  9
$MIRRTEXT
 70
     1
  9
$LTSCALE
 40
1.0
  9
$ATTMODE
 70
     1
  9
$TEXTSIZE
 40
2.8222222222
  9
$TRACEWID
 40
1.0
  9
$TEXTSTYLE
  7
Standard
  9
$CLAYER
  8
0
  9
$CELTYPE
  6
ByLayer
  9
$CECOLOR
 62
   256
  9
$CELTSCALE
 40
1.0
  9
$DISPSILH
 70
     0
  9
$DIMSCALE
 40
1.0
  9
$DIMASZ
 40
3.175
  9
$DIMEXO
 40
1.27
  9
$DIMDLI
 40
3.75
  9
$DIMRND
 40
0.0
  9
$DIMDLE
 40
0.0
  9
$DIMEXE
 40
1.778
  9
$DIMTP
 40
0.0
  9
$DIMTM
 40
0.0
  9
$DIMTXT
 40
2.8222222222
  9
$DIMCEN
 40
2.5
  9
$DIMTSZ
 40
0.0
  9
$DIMTOL
 70
     0
  9
$DIMLIM
 70
     0
  9
$DIMTIH
 70
     1
  9
$DIMTOH
 70
     1
  9
$DIMSE1
 70
     0
  9
$DIMSE2
 70
     0
  9
$DIMTAD
 70
     0
  9
$DIMZIN
 70
     1
  9
$DIMBLK
  1

  9
$DIMASO
 70
     1
  9
$DIMSHO
 70
     1
  9
$DIMPOST
  1

  9
$DIMAPOST
  1

  9
$DIMALT
 70
     0
  9
$DIMALTD
 70
     3
  9
$DIMALTF
 40
0.0393700787
  9
$DIMLFAC
 40
1.0
  9
$DIMTOFL
 70
     1
  9
$DIMTVP
 40
0.0
  9
$DIMTIX
 70
     0
  9
$DIMSOXD
 70
     0
  9
$DIMSAH
 70
     0
  9
$DIMBLK1
  1

  9
$DIMBLK2
  1

  9
$DIMSTYLE
  2
ISO-25
  9
$DIMCLRD
 70
     0
  9
$DIMCLRE
 70
     0
  9
$DIMCLRT
 70
     0
  9
$DIMTFAC
 40
1.0
  9
$DIMGAP
 40
2.54
  9
$DIMJUST
 70
     0
  9
$DIMSD1
 70
     0
  9
$DIMSD2
 70
     0
  9
$DIMTOLJ
 70
     0
  9
$DIMTZIN
 70
     1
  9
$DIMALTZ
 70
     0
  9
$DIMALTTZ
 70
     0
  9
$DIMUPT
 70
     0
  9
$DIMDEC
 70
     1
  9
$DIMTDEC
 70
     1
  9
$DIMALTU
 70
     2
  9
$DIMALTTD
 70
     3
  9
$DIMTXSTY
  7
Standard
  9
$DIMAUNIT
 70
     0
  9
$DIMADEC
 70
     0
  9
$DIMALTRND
 40
0.0
  9
$DIMAZIN
 70
     0
  9
$DIMDSEP
 70
    44
  9
$DIMATFIT
 70
     3
  9
$DIMFRAC
 70
     0
  9
$DIMLDRBLK
  1

  9
$DIMLUNIT
 70
     2
  9
$DIMLWD
 70
    -2
  9
$DIMLWE
 70
    -2
  9
$DIMTMOVE
 70
     0
  9
$LUNITS
 70
     2
  9
$LUPREC
 70
     1
  9
$SKETCHINC
 40
1.0
  9
$FILLETRAD
 40
10.0
  9
$AUNITS
 70
     0
  9
$AUPREC
 70
     0
  9
$MENU
  1
.
  9
$ELEVATION
 40
0.0
  9
$PELEVATION
 40
0.0
  9
$THICKNESS
 40
0.0
  9
$LIMCHECK
 70
     0
  9
$CHAMFERA
 40
0.0
  9
$CHAMFERB
 40
0.0
  9
$CHAMFERC
 40
0.0
  9
$CHAMFERD
 40
0.0
  9
$SKPOLY
 70
     0
  9
$TDCREATE
 40
2457303.598045093
  9
$TDUCREATE
 40
2457303.764711759
  9
$TDUPDATE
 40
2457303.598047431
  9
$TDUUPDATE
 40
2457303.764714097
  9
$TDINDWG
 40
0.0000000116
  9
$TDUSRTIMER
 40
0.0000000116
  9
$USRTIMER
 70
     1
  9
$ANGBASE
 50
0.0
  9
$ANGDIR
 70
     0
  9
$PDMODE
 70
     0
  9
$PDSIZE
 40
-1.0
  9
$PLINEWID
 40
0.0
  9
$SPLFRAME
 70
     0
  9
$SPLINETYPE
 70
     6
  9
$SPLINESEGS
 70
     8
  9
$HANDSEED
  5
1C3
  9
$SURFTAB1
 70
     6
  9
$SURFTAB2
 70
     6
  9
$SURFTYPE
 70
     6
  9
$SURFU
 70
     6
  9
$SURFV
 70
     6
  9
$UCSBASE
  2

  9
$UCSNAME
  2

  9
$UCSORG
 10
0.0
 20
0.0
 30
0.0
  9
$UCSXDIR
 10
1.0
 20
0.0
 30
0.0
  9
$UCSYDIR
 10
0.0
 20
1.0
 30
0.0
  9
$UCSORTHOREF
  2

  9
$UCSORTHOVIEW
 70
     0
  9
$UCSORGTOP
 10
0.0
 20
0.0
 30
0.0
  9
$UCSORGBOTTOM
 10
0.0
 20
0.0
 30
0.0
  9
$UCSORGLEFT
 10
0.0
 20
0.0
 30
0.0
  9
$UCSORGRIGHT
 10
0.0
 20
0.0
 30
0.0
  9
$UCSORGFRONT
 10
0.0
 20
0.0
 30
0.0
  9
$UCSORGBACK
 10
0.0
 20
0.0
 30
0.0
  9
$PUCSBASE
  2

  9
$PUCSNAME
  2

  9
$PUCSORG
 10
0.0
 20
0.0
 30
0.0
  9
$PUCSXDIR
 10
1.0
 20
0.0
 30
0.0
  9
$PUCSYDIR
 10
0.0
 20
1.0
 30
0.0
  9
$PUCSORTHOREF
  2

  9
$PUCSORTHOVIEW
 70
     0
  9
$PUCSORGTOP
 10
0.0
 20
0.0
 30
0.0
  9
$PUCSORGBOTTOM
 10
0.0
 20
0.0
 30
0.0
  9
$PUCSORGLEFT
 10
0.0
 20
0.0
 30
0.0
  9
$PUCSORGRIGHT
 10
0.0
 20
0.0
 30
0.0
  9
$PUCSORGFRONT
 10
0.0
 20
0.0
 30
0.0
  9
$PUCSORGBACK
 10
0.0
 20
0.0
 30
0.0
  9
$USERI1
 70
     0
  9
$USERI2
 70
     0
  9
$USERI3
 70
     0
  9
$USERI4
 70
     0
  9
$USERI5
 70
     0
  9
$USERR1
 40
0.0
  9
$USERR2
 40
0.0
  9
$USERR3
 40
0.0
  9
$USERR4
 40
0.0
  9
$USERR5
 40
0.0
  9
$WORLDVIEW
 70
     1
  9
$SHADEDGE
 70
     3
  9
$SHADEDIF
 70
    70
  9
$TILEMODE
 70
     1
  9
$MAXACTVP
 70
    64
  9
$PINSBASE
 10
0.0
 20
0.0
 30
0.0
  9
$PLIMCHECK
 70
     0
  9
$PEXTMIN
 10
1.0000000000E+20
 20
1.0000000000E+20
 30
1.0000000000E+20
  9
$PEXTMAX
 10
-1.0000000000E+20
 20
-1.0000000000E+20
 30
-1.0000000000E+20
  9
$PLIMMIN
 10
0.0
 20
0.0
  9
$PLIMMAX
 10
420.0
 20
297.0
  9
$UNITMODE
 70
     0
  9
$VISRETAIN
 70
     1
  9
$PLINEGEN
 70
     0
  9
$PSLTSCALE
 70
     1
  9
$TREEDEPTH
 70
  3020
  9
$CMLSTYLE
  2
Standard
  9
$CMLJUST
 70
     0
  9
$CMLSCALE
 40
20.0
  9
$PROXYGRAPHICS
 70
     1
  9
$MEASUREMENT
 70
     1
  9
$CELWEIGHT
370
    -1
  9
$ENDCAPS
280
     0
  9
$JOINSTYLE
280
     0
  9
$LWDISPLAY
290
     1
  9
$INSUNITS
 70
     4
  9
$HYPERLINKBASE
  1

  9
$STYLESHEET
  1

  9
$XEDIT
290
     1
  9
$CEPSNTYPE
380
     0
  9
$PSTYLEMODE
290
     1
  9
$FINGERPRINTGUID
  2
{0C56BEE6-811B-490A-8D7C-E31F6C98F19B}
  9
$VERSIONGUID
  2
{FAEB1C32-E019-11D5-929B-00C0DF256EC4}
  9
$EXTNAMES
290
     1
  9
$PSVPSCALE
 40
0.0
  9
$OLESTARTUP
290
     0
  0
ENDSEC
  0
SECTION
  2
CLASSES
  0
CLASS
  1
ACDBDICTIONARYWDFLT
  2
AcDbDictionaryWithDefault
  3
ObjectDBX Classes
 90
        0
280
     0
281
     0
  0
CLASS
  1
VISUALSTYLE
  2
AcDbVisualStyle
  3
ObjectDBX Classes
 90
     4095
280
     0
281
     0
  0
CLASS
  1
MATERIAL
  2
AcDbMaterial
  3
ObjectDBX Classes
 90
     1153
280
     0
281
     0
  0
CLASS
  1
SCALE
  2
AcDbScale
  3
ObjectDBX Classes
 90
     1153
280
     0
281
     0
  0
CLASS
  1
SUN
  2
AcDbSun
  3
SCENEOE
 90
     1153
280
     0
281
     0
  0
CLASS
  1
ACDBPLACEHOLDER
  2
AcDbPlaceHolder
  3
ObjectDBX Classes
 90
        0
280
     0
281
     0
  0
CLASS
  1
LAYOUT
  2
AcDbLayout
  3
ObjectDBX Classes
 90
        0
280
     0
281
     0
  0
ENDSEC
  0
SECTION
  2
TABLES
  0
TABLE
  2
VPORT
  5
8
330
0
100
AcDbSymbolTable
 70
     1
  0
VPORT
  5
29
330
8
100
AcDbSymbolTableRecord
100
AcDbViewportTableRecord
  2
*Active
 70
     0
 10
0.0
 20
0.0
 11
1.0
 21
1.0
 12
139.7
 22
107.95
 13
0.0
 23
0.0
 14
10.0
 24
10.0
 15
10.0
 25
10.0
 16
0.0
 26
0.0
 36
1.0
 17
0.0
 27
0.0
 37
0.0
 40
215.9
 41
1.2941176471
 42
50.0
 43
0.0
 44
0.0
 50
0.0
 51
0.0
 71
     0
 72
  2000
 73
     1
 74
     3
 75
     0
 76
     0
 77
     0
 78
     0
281
     0
 65
     1
110
0.0
120
0.0
130
0.0
111
1.0
121
0.0
131
0.0
112
0.0
122
1.0
132
0.0
 79
     0
146
0.0
  0
ENDTAB
  0
TABLE
  2
LTYPE
  5
5
330
0
100
AcDbSymbolTable
 70
     6
  0
LTYPE
  5
14
330
5
100
AcDbSymbolTableRecord
100
AcDbLinetypeTableRecord
  2
ByBlock
 70
     0
  3

 72
    65
 73
     0
 40
0.0
  0
LTYPE
  5
15
330
5
100
AcDbSymbolTableRecord
100
AcDbLinetypeTableRecord
  2
ByLayer
 70
     0
  3

 72
    65
 73
     0
 40
0.0
  0
LTYPE
  5
16
330
5
100
AcDbSymbolTableRecord
100
AcDbLinetypeTableRecord
  2
Continuous
 70
     0
  3
Solid line
 72
    65
 73
     0
 40
0.0
  0
LTYPE
  5
6A
330
5
100
AcDbSymbolTableRecord
100
AcDbLinetypeTableRecord
  2
HIDDEN
 70
     0
  3
Hidden __ __ __ __ __ __ __ __ __ __ __ __ __ __
 72
    65
 73
     2
 40
1.905
 49
1.27
 74
     0
 49
-0.635
 74
     0
  0
LTYPE
  5
6B
330
5
100
AcDbSymbolTableRecord
100
AcDbLinetypeTableRecord
  2
PHANTOM
 70
     0
  3
Phantom ______  __  __  ______  __  __  ______
 72
    65
 73
     6
 40
12.7
 49
6.35
 74
     0
 49
-1.27
 74
     0
 49
1.27
 74
     0
 49
-1.27
 74
     0
 49
1.27
 74
     0
 49
-1.27
 74
     0
  0
LTYPE
  5
6C
330
5
100
AcDbSymbolTableRecord
100
AcDbLinetypeTableRecord
  2
CENTER
 70
     0
  3
Center ____ _ ____ _ ____ _ ____ _ ____ _ ____
 72
    65
 73
     4
 40
10.16
 49
6.35
 74
     0
 49
-1.27
 74
     0
 49
1.27
 74
     0
 49
-1.27
 74
     0
  0
LTYPE
  5
6D
330
5
100
AcDbSymbolTableRecord
100
AcDbLinetypeTableRecord
  2
CENTERX2
 70
     0
  3
Center (2x) ________  __  ________  __  _____
 72
    65
 73
     4
 40
20.32
 49
12.7
 74
     0
 49
-2.54
 74
     0
 49
2.54
 74
     0
 49
-2.54
 74
     0
  0
LTYPE
  5
6E
330
5
100
AcDbSymbolTableRecord
100
AcDbLinetypeTableRecord
  2
DOT2
 70
     0
  3
Dot (.5x) ........................................
 72
    65
 73
     2
 40
0.635
 49
0.0
 74
     0
 49
-0.635
 74
     0
  0
ENDTAB
  0
TABLE
  2
LAYER
  5
2
330
0
100
AcDbSymbolTable
 70
     2
  0
LAYER
  5
10
330
2
100
AcDbSymbolTableRecord
100
AcDbLayerTableRecord
  2
0
 70
     0
 62
     7
  6
Continuous
370
    -3
390
F
  0
LAYER
  5
6F
330
2
100
AcDbSymbolTableRecord
100
AcDbLayerTableRecord
  2
FORMAT
 70
     0
 62
     7
  6
Continuous
370
    -3
390
F
  0
ENDTAB
  0
TABLE
  2
STYLE
  5
3
330
0
100
AcDbSymbolTable
 70
     4
  0
STYLE
  5
11
330
3
100
AcDbSymbolTableRecord
100
AcDbTextStyleTableRecord
  2
Standard
 70
     0
 40
0.0
 41
1.0
 50
0.0
 71
     0
 42
2.8222222222
  3
txt
  4

  0
STYLE
  5
96
330
3
100
AcDbSymbolTableRecord
100
AcDbTextStyleTableRecord
  2
SLDTEXTSTYLE0
 70
     0
 40
0.0
 41
0.75
 50
0.0
 71
     0
 42
2.8222222222
  3
TXT
  4

  0
STYLE
  5
A0
330
3
100
AcDbSymbolTableRecord
100
AcDbTextStyleTableRecord
  2
SLDTEXTSTYLE1
 70
     0
 40
0.0
 41
0.6
 50
0.0
 71
     0
 42
2.8222222222
  3
TXT
  4

  0
STYLE
  5
C8
330
3
100
AcDbSymbolTableRecord
100
AcDbTextStyleTableRecord
  2
SLDTEXTSTYLE2
 70
     0
 40
0.0
 41
0.75
 50
0.0
 71
     0
 42
2.8222222222
  3
TXT
  4
bigfont
  0
ENDTAB
  0
TABLE
  2
VIEW
  5
6
330
0
100
AcDbSymbolTable
 70
     0
  0
ENDTAB
  0
TABLE
  2
UCS
  5
7
330
0
100
AcDbSymbolTable
 70
     0
  0
ENDTAB
  0
TABLE
  2
APPID
  5
9
330
0
100
AcDbSymbolTable
 70
     1
  0
APPID
  5
12
330
9
100
AcDbSymbolTableRecord
100
AcDbRegAppTableRecord
  2
ACAD
 70
     0
  0
ENDTAB
  0
TABLE
  2
DIMSTYLE
  5
A
330
0
100
AcDbSymbolTable
 70
     4
100
AcDbDimStyleTable
  0
DIMSTYLE
105
27
330
A
100
AcDbSymbolTableRecord
100
AcDbDimStyleTableRecord
  2
ISO-25
 70
     0
 41
2.5
 42
0.625
 43
3.75
 44
1.25
 73
     0
 74
     0
 77
     1
 78
     8
140
2.5
141
2.5
143
0.0393700787
147
0.625
171
     3
172
     1
178
     0
271
     2
272
     2
274
     3
278
    44
283
     0
284
     8
340
11
  0
DIMSTYLE
105
DA
102
{ACAD_REACTORS
330
D9
102
}
330
A
100
AcDbSymbolTableRecord
100
AcDbDimStyleTableRecord
  2
SLDDIMSTYLE0
 70
     0
 41
3.175
 44
0.0
 45
0.000000001
 78
    12
 79
     3
140
2.1166666667
141
0.0
143
0.0393700787
147
0.5291666667
148
0.000000001
170
     1
173
     1
178
     0
271
     1
272
     1
276
     2
284
    12
340
96
  0
DIMSTYLE
105
105
102
{ACAD_REACTORS
330
104
102
}
330
A
100
AcDbSymbolTableRecord
100
AcDbDimStyleTableRecord
  2
SLDDIMSTYLE1
 70
     0
 41
3.175
 44
0.0
 45
0.000000001
 78
     4
 79
     1
140
2.1166666667
143
0.0393700787
147
0.5291666667
148
0.000000001
170
     1
173
     1
178
     0
271
     1
272
     1
276
     2
284
    12
340
96
  0
DIMSTYLE
105
11A
330
A
100
AcDbSymbolTableRecord
100
AcDbDimStyleTableRecord
  2
SLDDIMSTYLE2
 70
     0
 41
3.175
 44
0.0
 45
0.000000001
146
3.175
147
0.0
173
     1
178
     0
271
     0
272
     0
276
     2
340
11
  0
ENDTAB
  0
TABLE
  2
BLOCK_RECORD
  5
1
330
0
100
AcDbSymbolTable
 70
     9
  0
BLOCK_RECORD
  5
1F
330
1
100
AcDbSymbolTableRecord
100
AcDbBlockTableRecord
  2
*Model_Space
340
22
  0
BLOCK_RECORD
  5
1B
330
1
100
AcDbSymbolTableRecord
100
AcDbBlockTableRecord
  2
*Paper_Space
340
1E
  0
BLOCK_RECORD
  5
23
330
1
100
AcDbSymbolTableRecord
100
AcDbBlockTableRecord
  2
*Paper_Space0
340
26
  0
BLOCK_RECORD
  5
70
330
1
100
AcDbSymbolTableRecord
100
AcDbBlockTableRecord
  2
Third Angle Projection Block
340
0
102
{BLKREFS
331
95
102
}
  0
BLOCK_RECORD
  5
A6
330
1
100
AcDbSymbolTableRecord
100
AcDbBlockTableRecord
  2
SW_NOTE_0
340
0
102
{BLKREFS
331
AB
102
}
  0
BLOCK_RECORD
  5
AC
330
1
100
AcDbSymbolTableRecord
100
AcDbBlockTableRecord
  2
SW_NOTE_1
340
0
102
{BLKREFS
331
B1
102
}
  0
BLOCK_RECORD
  5
B3
330
1
100
AcDbSymbolTableRecord
100
AcDbBlockTableRecord
  2
SW_NOTE_2
340
0
102
{BLKREFS
331
B8
102
}
  0
BLOCK_RECORD
  5
BA
330
1
100
AcDbSymbolTableRecord
100
AcDbBlockTableRecord
  2
SW_NOTE_3
340
0
102
{BLKREFS
331
BF
102
}
  0
BLOCK_RECORD
  5
C0
330
1
100
AcDbSymbolTableRecord
100
AcDbBlockTableRecord
  2
SW_NOTE_4
340
0
102
{BLKREFS
331
D4
102
}
  0
BLOCK_RECORD
  5
DB
330
1
100
AcDbSymbolTableRecord
100
AcDbBlockTableRecord
  2
_D
340
0
  0
BLOCK_RECORD
  5
106
330
1
100
AcDbSymbolTableRecord
100
AcDbBlockTableRecord
  2
_D_1
340
0
  0
ENDTAB
  0
ENDSEC
  0
SECTION
  2
BLOCKS
  0
BLOCK
  5
20
330
1F
100
AcDbEntity
  8
0
100
AcDbBlockBegin
  2
*Model_Space
 70
     0
 10
0.0
 20
0.0
 30
0.0
  3
*Model_Space
  1
*Model_Space
  0
ENDBLK
  5
21
330
1F
100
AcDbEntity
  8
0
100
AcDbBlockEnd
  0
BLOCK
  5
1C
330
1B
100
AcDbEntity
 67
     1
  8
0
100
AcDbBlockBegin
  2
*Paper_Space
 70
     0
 10
0.0
 20
0.0
 30
0.0
  3
*Paper_Space
  1
*Paper_Space
  0
ENDBLK
  5
1D
330
1B
100
AcDbEntity
 67
     1
  8
0
100
AcDbBlockEnd
  0
BLOCK
  5
24
330
23
100
AcDbEntity
  8
0
100
AcDbBlockBegin
  2
*Paper_Space0
 70
     0
 10
0.0
 20
0.0
 30
0.0
  3
*Paper_Space0
  1
*Paper_Space0
  0
ENDBLK
  5
25
330
23
100
AcDbEntity
  8
0
100
AcDbBlockEnd
  0
BLOCK
  5
71
330
70
100
AcDbEntity
  8
0
100
AcDbBlockBegin
  2
Third Angle Projection Block
 70
     0
 10
0.0
 20
0.0
 30
0.0
  3
Third Angle Projection Block
  1
Third Angle Projection Block
  0
CIRCLE
  5
73
330
70
100
AcDbEntity
  8
0
  6
Continuous
 62
     7
370
    30
100
AcDbCircle
 10
101.4766388944
 20
18.9404083667
 30
0.0
 40
1.768227153674871
  0
CIRCLE
  5
74
330
70
100
AcDbEntity
  8
0
  6
Continuous
 62
     7
370
    30
100
AcDbCircle
 10
101.4766388944
 20
18.9404083667
 30
0.0
 40
3.901228248531818
  0
LINE
  5
75
330
70
100
AcDbEntity
  8
0
  6
CENTERX2
 62
     7
370
     0
100
AcDbLine
 10
110.1367822585
 20
18.9404083667
 30
0.0
 11
119.4527334874
 21
18.9404083667
 31
0.0
  0
LINE
  5
76
330
70
100
AcDbEntity
  8
0
  6
Continuous
 62
     7
370
    30
100
AcDbLine
 10
111.0016388944
 20
20.7086355204
 30
0.0
 11
111.0016388944
 21
17.172181213
 31
0.0
  0
LINE
  5
77
330
70
100
AcDbEntity
  8
0
  6
Continuous
 62
     7
370
    30
100
AcDbLine
 10
111.0016388944
 20
17.172181213
 30
0.0
 11
118.6216388944
 21
15.1304083667
 31
0.0
  0
LINE
  5
78
330
70
100
AcDbEntity
  8
0
  6
Continuous
 62
     7
370
    30
100
AcDbLine
 10
118.6216388944
 20
15.1304083667
 30
0.0
 11
118.6216388944
 21
22.7504083667
 31
0.0
  0
LINE
  5
79
330
70
100
AcDbEntity
  8
0
  6
Continuous
 62
     7
370
    30
100
AcDbLine
 10
118.6216388944
 20
22.7504083667
 30
0.0
 11
111.0016388944
 21
20.7086355204
 31
0.0
  0
LINE
  5
7A
330
70
100
AcDbEntity
  8
0
  6
CENTERX2
 62
     7
370
     0
100
AcDbLine
 10
96.6025854619
 20
18.9404083667
 30
0.0
 11
106.3506923269
 21
18.9404083667
 31
0.0
  0
LINE
  5
7B
330
70
100
AcDbEntity
  8
0
  6
CENTERX2
 62
     7
370
     0
100
AcDbLine
 10
101.4766388944
 20
23.8144617992
 30
0.0
 11
101.4766388944
 21
14.0663549342
 31
0.0
  0
POINT
  5
7C
330
70
100
AcDbEntity
  8
0
  6
Continuous
 62
     7
370
     0
100
AcDbPoint
 10
101.4766388944
 20
18.9404083667
 30
0.0
  0
ENDBLK
  5
72
330
70
100
AcDbEntity
  8
0
100
AcDbBlockEnd
  0
BLOCK
  5
A7
330
A6
100
AcDbEntity
  8
0
100
AcDbBlockBegin
  2
SW_NOTE_0
 70
     0
 10
0.0
 20
0.0
 30
0.0
  3
SW_NOTE_0
  1
SW_NOTE_0
  0
MTEXT
  5
A9
330
A6
100
AcDbEntity
  8
0
  6
Continuous
 62
     0
370
     0
100
AcDbMText
 10
19.90725
 20
1.9645392354
 30
0.0
 40
1.524
 41
0.0
 71
     2
 72
     1
  1
VALUES IN PARENTHESIS ARE CALCULATED
  7
SLDTEXTSTYLE0
 73
     1
 44
1.0
  0
MTEXT
  5
AA
330
A6
100
AcDbEntity
  8
0
  6
Continuous
 62
     0
370
     0
100
AcDbMText
 10
19.8778795174
 20
-0.5594606586
 30
0.0
 40
1.524
 41
0.0
 71
     2
 72
     1
  1
AND MAY CONTAIN ROUNDOFF ERRORS
  7
SLDTEXTSTYLE0
 73
     1
 44
1.0
  0
ENDBLK
  5
A8
330
A6
100
AcDbEntity
  8
0
100
AcDbBlockEnd
  0
BLOCK
  5
AD
330
AC
100
AcDbEntity
  8
0
100
AcDbBlockBegin
  2
SW_NOTE_1
 70
     0
 10
0.0
 20
0.0
 30
0.0
  3
SW_NOTE_1
  1
SW_NOTE_1
  0
MTEXT
  5
AF
330
AC
100
AcDbEntity
  8
0
  6
Continuous
 62
     0
370
     0
100
AcDbMText
 10
0.0
 20
2.7285267159
 30
0.0
 40
2.1166666667
 41
0.0
 71
     1
 72
     1
  1
DRAWING
  7
SLDTEXTSTYLE0
 73
     1
 44
1.0
  0
MTEXT
  5
B0
330
AC
100
AcDbEntity
  8
0
  6
Continuous
 62
     0
370
     0
100
AcDbMText
 10
0.0
 20
-0.0936954723
 30
0.0
 40
2.1166666667
 41
0.0
 71
     1
 72
     1
  1
PROJECTION
  7
SLDTEXTSTYLE0
 73
     1
 44
1.0
  0
ENDBLK
  5
AE
330
AC
100
AcDbEntity
  8
0
100
AcDbBlockEnd
  0
BLOCK
  5
B4
330
B3
100
AcDbEntity
  8
0
100
AcDbBlockBegin
  2
SW_NOTE_2
 70
     0
 10
0.0
 20
0.0
 30
0.0
  3
SW_NOTE_2
  1
SW_NOTE_2
  0
MTEXT
  5
B6
330
B3
100
AcDbEntity
  8
0
  6
Continuous
 62
     0
370
     0
100
AcDbMText
 10
25.052734375
 20
4.0927900738
 30
0.0
 40
3.175
 41
0.0
 71
     2
 72
     1
  1
FOR INFORMATION ONLY
  7
SLDTEXTSTYLE0
 73
     1
 44
1.0
  0
MTEXT
  5
B7
330
B3
100
AcDbEntity
  8
0
  6
Continuous
 62
     0
370
     0
100
AcDbMText
 10
25.3768468589
 20
-0.1405432084
 30
0.0
 40
3.175
 41
0.0
 71
     2
 72
     1
  1
NOT FOR MANUFACTURING PURPOSES
  7
SLDTEXTSTYLE0
 73
     1
 44
1.0
  0
ENDBLK
  5
B5
330
B3
100
AcDbEntity
  8
0
100
AcDbBlockEnd
  0
BLOCK
  5
BB
330
BA
100
AcDbEntity
  8
0
100
AcDbBlockBegin
  2
SW_NOTE_3
 70
     0
 10
0.0
 20
0.0
 30
0.0
  3
SW_NOTE_3
  1
SW_NOTE_3
  0
MTEXT
  5
BD
330
BA
100
AcDbEntity
  8
0
  6
Continuous
 62
     0
370
     0
100
AcDbMText
 10
1.9016927083
 20
3.4106583948
 30
0.0
 40
2.6458333333
 41
0.0
 71
     2
 72
     1
  1
%%c
  7
SLDTEXTSTYLE0
 73
     1
 44
1.0
  0
MTEXT
  5
BE
330
BA
100
AcDbEntity
  8
0
  6
Continuous
 62
     0
370
     0
100
AcDbMText
 10
31.8163295885
 20
3.4106583948
 30
0.0
 40
2.6458333333
 41
0.0
 71
     2
 72
     1
  1
50.8mm ZERODUR® OPTICAL FLAT
  7
SLDTEXTSTYLE0
 73
     1
 44
1.0
  0
ENDBLK
  5
BC
330
BA
100
AcDbEntity
  8
0
100
AcDbBlockEnd
  0
BLOCK
  5
C1
330
C0
100
AcDbEntity
  8
0
100
AcDbBlockBegin
  2
SW_NOTE_4
 70
     0
 10
0.0
 20
0.0
 30
0.0
  3
SW_NOTE_4
  1
SW_NOTE_4
  0
MTEXT
  5
C3
330
C0
100
AcDbEntity
  8
0
  6
Continuous
 62
     0
370
     0
100
AcDbMText
 10
0.0
 20
3.0695925553
 30
0.0
 40
2.38125
 41
0.0
 71
     1
 72
     1
  1
NOTES/SPECIFICATIONS:
  7
SLDTEXTSTYLE0
 73
     1
 44
1.0
  0
MTEXT
  5
C4
330
C0
100
AcDbEntity
  8
0
  6
Continuous
 62
     0
370
     0
100
AcDbMText
 10
9.9999997765
 20
-3.2804073679
 30
0.0
 40
2.38125
 41
0.0
 71
     1
 72
     1
  1
CLEAR APERTURE: >90% DIAMETER
  7
SLDTEXTSTYLE0
 73
     1
 44
1.0
  0
MTEXT
  5
C5
330
C0
100
AcDbEntity
  8
0
  6
Continuous
 62
     0
370
     0
100
AcDbMText
 10
0.0
 20
-3.2804073679
 30
0.0
 40
2.38125
 41
0.0
 71
     1
 72
     1
  1
1.
  7
SLDTEXTSTYLE0
 73
     1
 44
1.0
  0
MTEXT
  5
C6
330
C0
100
AcDbEntity
  8
0
  6
Continuous
 62
     0
370
     0
100
AcDbMText
 10
9.9999997765
 20
-6.4554073296
 30
0.0
 40
2.38125
 41
0.0
 71
     1
 72
     1
  1
SURFACE QUALITY: 10-5 SCRATCH-DIG
  7
SLDTEXTSTYLE0
 73
     1
 44
1.0
  0
MTEXT
  5
C7
330
C0
100
AcDbEntity
  8
0
  6
Continuous
 62
     0
370
     0
100
AcDbMText
 10
0.0
 20
-6.4554073296
 30
0.0
 40
2.38125
 41
0.0
 71
     1
 72
     1
  1
2.
  7
SLDTEXTSTYLE0
 73
     1
 44
1.0
  0
MTEXT
  5
C9
330
C0
100
AcDbEntity
  8
0
  6
Continuous
 62
     0
370
     0
100
AcDbMText
 10
9.9999997765
 20
-9.6304072912
 30
0.0
 40
2.38125
 41
0.0
 71
     1
 72
     1
  1
SURFACE FLATNESS (S1): \M+183C9/10 AT 632.8nm
  7
SLDTEXTSTYLE2
 73
     1
 44
1.0
  0
MTEXT
  5
CA
330
C0
100
AcDbEntity
  8
0
  6
Continuous
 62
     0
370
     0
100
AcDbMText
 10
0.0
 20
-9.6304072912
 30
0.0
 40
2.38125
 41
0.0
 71
     1
 72
     1
  1
3.
  7
SLDTEXTSTYLE0
 73
     1
 44
1.0
  0
MTEXT
  5
CB
330
C0
100
AcDbEntity
  8
0
  6
Continuous
 62
     0
370
     0
100
AcDbMText
 10
15.18046875
 20
-12.8054072528
 30
0.0
 40
2.38125
 41
0.0
 71
     1
 72
     1
  1
SURFACE FINISH (S2) : FINE GROUND
  7
SLDTEXTSTYLE0
 73
     1
 44
1.0
  0
MTEXT
  5
CC
330
C0
100
AcDbEntity
  8
0
  6
Continuous
 62
     0
370
     0
100
AcDbMText
 10
9.9999997765
 20
-15.9804072144
 30
0.0
 40
2.38125
 41
0.0
 71
     1
 72
     1
  1
PARALLELISM: \U+2264 3arcmin
  7
SLDTEXTSTYLE2
 73
     1
 44
1.0
  0
MTEXT
  5
CD
330
C0
100
AcDbEntity
  8
0
  6
Continuous
 62
     0
370
     0
100
AcDbMText
 10
0.0
 20
-15.9804072144
 30
0.0
 40
2.38125
 41
0.0
 71
     1
 72
     1
  1
4.
  7
SLDTEXTSTYLE0
 73
     1
 44
1.0
  0
MTEXT
  5
CE
330
C0
100
AcDbEntity
  8
0
  6
Continuous
 62
     0
370
     0
100
AcDbMText
 10
9.9999997765
 20
-19.1554071761
 30
0.0
 40
2.38125
 41
0.0
 71
     1
 72
     1
  1
DIAMETER TOLERANCE: + 0.0/-0.1mm
  7
SLDTEXTSTYLE0
 73
     1
 44
1.0
  0
MTEXT
  5
CF
330
C0
100
AcDbEntity
  8
0
  6
Continuous
 62
     0
370
     0
100
AcDbMText
 10
0.0
 20
-19.1554071761
 30
0.0
 40
2.38125
 41
0.0
 71
     1
 72
     1
  1
5.
  7
SLDTEXTSTYLE0
 73
     1
 44
1.0
  0
MTEXT
  5
D0
330
C0
100
AcDbEntity
  8
0
  6
Continuous
 62
     0
370
     0
100
AcDbMText
 10
9.9999997765
 20
-22.3304071377
 30
0.0
 40
2.38125
 41
0.0
 71
     1
 72
     1
  1
THICKNESS TOLERANCE:
  7
SLDTEXTSTYLE0
 73
     1
 44
1.0
  0
MTEXT
  5
D1
330
C0
100
AcDbEntity
  8
0
  6
Continuous
 62
     0
370
     0
100
AcDbMText
 10
46.741804108
 20
-22.3304071377
 30
0.0
 40
2.38125
 41
0.0
 71
     1
 72
     1
  1
%%p
  7
SLDTEXTSTYLE0
 73
     1
 44
1.0
  0
MTEXT
  5
D2
330
C0
100
AcDbEntity
  8
0
  6
Continuous
 62
     0
370
     0
100
AcDbMText
 10
49.0119289607
 20
-22.3304071377
 30
0.0
 40
2.38125
 41
0.0
 71
     1
 72
     1
  1
0.2mm
  7
SLDTEXTSTYLE0
 73
     1
 44
1.0
  0
MTEXT
  5
D3
330
C0
100
AcDbEntity
  8
0
  6
Continuous
 62
     0
370
     0
100
AcDbMText
 10
0.0
 20
-22.3304071377
 30
0.0
 40
2.38125
 41
0.0
 71
     1
 72
     1
  1
6.
  7
SLDTEXTSTYLE0
 73
     1
 44
1.0
  0
ENDBLK
  5
C2
330
C0
100
AcDbEntity
  8
0
100
AcDbBlockEnd
  0
BLOCK
  5
DC
330
DB
100
AcDbEntity
  8
0
100
AcDbBlockBegin
  2
_D
 70
     0
 10
0.0
 20
0.0
 30
0.0
  3
_D
  1
_D
  0
SOLID
  5
DE
330
DB
100
AcDbEntity
  8
0
  6
Continuous
 62
     7
370
     0
100
AcDbTrace
 10
62.7604946658
 20
134.7519680163
 30
0.0
 11
64.787935571
 21
137.2475986733
 31
0.0
 12
63.9080537607
 22
137.7555986733
 32
0.0
 13
63.9080537607
 23
137.7555986733
 33
0.0
  0
LINE
  5
DF
330
DB
100
AcDbEntity
  8
0
  6
Continuous
 62
     7
370
     0
100
AcDbLine
 10
73.2620723019
 20
143.3147400149
 30
0.0
 11
72.8328593422
 21
143.3147400149
 31
0.0
  0
LINE
  5
E0
330
DB
100
AcDbEntity
  8
0
  6
Continuous
 62
     7
370
     0
100
AcDbLine
 10
72.8328593422
 20
143.3147400149
 30
0.0
 11
72.8328593422
 21
139.9515919385
 31
0.0
  0
LINE
  5
E1
330
DB
100
AcDbEntity
  8
0
  6
Continuous
 62
     7
370
     0
100
AcDbLine
 10
72.8328593422
 20
139.9515919385
 30
0.0
 11
73.2620723019
 21
139.9515919385
 31
0.0
  0
LINE
  5
E2
330
DB
100
AcDbEntity
  8
0
  6
Continuous
 62
     7
370
     0
100
AcDbLine
 10
82.0922962911
 20
143.3147400149
 30
0.0
 11
82.5215092509
 21
143.3147400149
 31
0.0
  0
LINE
  5
E3
330
DB
100
AcDbEntity
  8
0
  6
Continuous
 62
     7
370
     0
100
AcDbLine
 10
82.5215092509
 20
143.3147400149
 30
0.0
 11
82.5215092509
 21
139.9515919385
 31
0.0
  0
LINE
  5
E4
330
DB
100
AcDbEntity
  8
0
  6
Continuous
 62
     7
370
     0
100
AcDbLine
 10
82.5215092509
 20
139.9515919385
 30
0.0
 11
82.0922962911
 21
139.9515919385
 31
0.0
  0
LINE
  5
E5
330
DB
100
AcDbEntity
  8
0
  6
Continuous
 62
     7
370
     0
100
AcDbLine
 10
62.7604946658
 20
134.7519680163
 30
0.0
 11
68.7009496151
 21
145.0411378086
 31
0.0
  0
LINE
  5
E6
330
DB
100
AcDbEntity
  8
0
  6
Continuous
 62
     7
370
     0
100
AcDbLine
 10
68.7009496151
 20
145.0411378086
 30
0.0
 11
72.5109496151
 21
145.0411378086
 31
0.0
  0
MTEXT
  5
E7
330
DB
100
AcDbEntity
  8
0
  6
Continuous
 62
     7
370
     0
100
AcDbMText
 10
72.5109496151
 20
146.4724796614
 30
0.0
 40
2.1166666667
 41
0.0
 71
     1
 72
     1
  1
%%c
  7
SLDTEXTSTYLE0
 73
     1
 44
1.0
  0
MTEXT
  5
E8
330
DB
100
AcDbEntity
  8
0
  6
Continuous
 62
     7
370
     0
100
AcDbMText
 10
75.7059404158
 20
146.4724796614
 30
0.0
 40
2.1166666667
 41
0.0
 71
     1
 72
     1
  1
50.8mm
  7
SLDTEXTSTYLE0
 73
     1
 44
1.0
  0
MTEXT
  5
E9
330
DB
100
AcDbEntity
  8
0
  6
Continuous
 62
     7
370
     0
100
AcDbMText
 10
73.7985885234
 20
142.6801185379
 30
0.0
 40
2.1166666667
 41
0.0
 71
     1
 72
     1
  1
2.00in
  7
SLDTEXTSTYLE0
 73
     1
 44
1.0
  0
ENDBLK
  5
DD
330
DB
100
AcDbEntity
  8
0
100
AcDbBlockEnd
  0
BLOCK
  5
107
330
106
100
AcDbEntity
  8
0
100
AcDbBlockBegin
  2
_D_1
 70
     0
 10
0.0
 20
0.0
 30
0.0
  3
_D_1
  1
_D_1
  0
SOLID
  5
109
330
106
100
AcDbEntity
  8
0
  6
Continuous
 62
     7
370
     0
100
AcDbTrace
 10
132.2058572697
 20
148.1549227602
 30
0.0
 11
135.3808572697
 21
147.6469227602
 31
0.0
 12
135.3808572697
 22
148.6629227602
 32
0.0
 13
135.3808572697
 23
148.6629227602
 33
0.0
  0
SOLID
  5
10A
330
106
100
AcDbEntity
  8
0
  6
Continuous
 62
     7
370
     0
100
AcDbTrace
 10
144.2058572697
 20
148.1549227602
 30
0.0
 11
141.0308572697
 21
148.6629227602
 31
0.0
 12
141.0308572697
 22
147.6469227602
 32
0.0
 13
141.0308572697
 23
147.6469227602
 33
0.0
  0
LINE
  5
10B
330
106
100
AcDbEntity
  8
0
  6
Continuous
 62
     7
370
     0
100
AcDbLine
 10
149.7907455079
 20
148.1549225273
 30
0.0
 11
149.3615325482
 21
148.1549225273
 31
0.0
  0
LINE
  5
10C
330
106
100
AcDbEntity
  8
0
  6
Continuous
 62
     7
370
     0
100
AcDbLine
 10
149.3615325482
 20
148.1549225273
 30
0.0
 11
149.3615325482
 21
144.7917744509
 31
0.0
  0
LINE
  5
10D
330
106
100
AcDbEntity
  8
0
  6
Continuous
 62
     7
370
     0
100
AcDbLine
 10
149.3615325482
 20
144.7917744509
 30
0.0
 11
149.7907455079
 21
144.7917744509
 31
0.0
  0
LINE
  5
10E
330
106
100
AcDbEntity
  8
0
  6
Continuous
 62
     7
370
     0
100
AcDbLine
 10
158.6209694971
 20
148.1549225273
 30
0.0
 11
159.0501824569
 21
148.1549225273
 31
0.0
  0
LINE
  5
10F
330
106
100
AcDbEntity
  8
0
  6
Continuous
 62
     7
370
     0
100
AcDbLine
 10
159.0501824569
 20
148.1549225273
 30
0.0
 11
159.0501824569
 21
144.7917744509
 31
0.0
  0
LINE
  5
110
330
106
100
AcDbEntity
  8
0
  6
Continuous
 62
     7
370
     0
100
AcDbLine
 10
159.0501824569
 20
144.7917744509
 30
0.0
 11
158.6209694971
 21
144.7917744509
 31
0.0
  0
LINE
  5
111
330
106
100
AcDbEntity
  8
0
  6
Continuous
 62
     7
370
     0
100
AcDbLine
 10
132.2058572697
 20
139.1749227602
 30
0.0
 11
132.2058572697
 21
149.9329227602
 31
0.0
  0
LINE
  5
112
330
106
100
AcDbEntity
  8
0
  6
Continuous
 62
     7
370
     0
100
AcDbLine
 10
144.2058572697
 20
114.3043227602
 30
0.0
 11
144.2058572697
 21
149.9329227602
 31
0.0
  0
LINE
  5
113
330
106
100
AcDbEntity
  8
0
  6
Continuous
 62
     7
370
     0
100
AcDbLine
 10
132.2058572697
 20
148.1549227602
 30
0.0
 11
144.2058572697
 21
148.1549227602
 31
0.0
  0
LINE
  5
114
330
106
100
AcDbEntity
  8
0
  6
Continuous
 62
     7
370
     0
100
AcDbLine
 10
144.2058572697
 20
148.1549227602
 30
0.0
 11
146.8343113457
 21
148.1549227602
 31
0.0
  0
MTEXT
  5
115
330
106
100
AcDbEntity
  8
0
  6
Continuous
 62
     7
370
     0
100
AcDbMText
 10
148.8514743763
 20
151.3126621738
 30
0.0
 40
2.1166666667
 41
0.0
 71
     1
 72
     1
  1

  7
SLDTEXTSTYLE0
 73
     1
 44
1.0
  0
MTEXT
  5
116
330
106
100
AcDbEntity
  8
0
  6
Continuous
 62
     7
370
     0
100
AcDbMText
 10
148.8240360806
 20
151.3126621738
 30
0.0
 40
2.1166666667
 41
0.0
 71
     1
 72
     1
  1
12.0mm
  7
SLDTEXTSTYLE0
 73
     1
 44
1.0
  0
MTEXT
  5
117
330
106
100
AcDbEntity
  8
0
  6
Continuous
 62
     7
370
     0
100
AcDbMText
 10
150.3272617294
 20
147.5203010503
 30
0.0
 40
2.1166666667
 41
0.0
 71
     1
 72
     1
  1
0.47in
  7
SLDTEXTSTYLE0
 73
     1
 44
1.0
  0
MTEXT
  5
118
330
106
100
AcDbEntity
  8
0
  6
Continuous
 62
     7
370
     0
100
AcDbMText
 10
161.1751779931
 20
151.3126621738
 30
0.0
 40
2.1166666667
 41
0.0
 71
     1
 72
     1
  1

  7
SLDTEXTSTYLE0
 73
     1
 44
1.0
  0
ENDBLK
  5
108
330
106
100
AcDbEntity
  8
0
100
AcDbBlockEnd
  0
ENDSEC
  0
SECTION
  2
ENTITIES
  0
LINE
  5
7D
330
1F
100
AcDbEntity
  8
0
  6
Continuous
 62
     7
370
     0
100
AcDbLine
 10
1.5793501011
 20
214.6453799966
 30
0.0
 11
277.9892068491
 21
214.6453799966
 31
0.0
  0
LINE
  5
7E
330
1F
100
AcDbEntity
  8
0
  6
Continuous
 62
     7
370
     0
100
AcDbLine
 10
1.5793501011
 20
214.6453799966
 30
0.0
 11
1.5793501011
 21
0.9031642596
 31
0.0
  0
LINE
  5
7F
330
1F
100
AcDbEntity
  8
0
  6
Continuous
 62
     7
370
     0
100
AcDbLine
 10
277.9892068491
 20
0.9031642596
 30
0.0
 11
1.5793501011
 21
0.9031642596
 31
0.0
  0
LINE
  5
80
330
1F
100
AcDbEntity
  8
0
  6
Continuous
 62
     7
370
     0
100
AcDbLine
 10
277.9892068491
 20
0.9031642596
 30
0.0
 11
277.9892068491
 21
214.6453799966
 31
0.0
  0
LINE
  5
81
330
1F
100
AcDbEntity
  8
0
  6
Continuous
 62
     7
370
     0
100
AcDbLine
 10
215.7427640041
 20
12.2958890132
 30
0.0
 11
171.6327596684
 21
12.2958890132
 31
0.0
  0
LINE
  5
82
330
1F
100
AcDbEntity
  8
0
  6
Continuous
 62
     7
370
     0
100
AcDbLine
 10
171.6327596684
 20
12.2958890132
 30
0.0
 11
171.6327596684
 21
26.1661402506
 31
0.0
  0
LINE
  5
83
330
1F
100
AcDbEntity
  8
0
  6
Continuous
 62
     7
370
     0
100
AcDbLine
 10
171.6327596684
 20
0.9031642596
 30
0.0
 11
171.6327596684
 21
26.1661402506
 31
0.0
  0
LINE
  5
84
330
1F
100
AcDbEntity
  8
0
  6
Continuous
 62
     7
370
     0
100
AcDbLine
 10
215.7427640041
 20
17.1604579552
 30
0.0
 11
277.9892068491
 21
17.1604579552
 31
0.0
  0
LINE
  5
85
330
1F
100
AcDbEntity
  8
0
  6
Continuous
 62
     7
370
     0
100
AcDbLine
 10
215.7427640041
 20
35.2394508358
 30
0.0
 11
215.7427640041
 21
0.9031642596
 31
0.0
  0
LINE
  5
86
330
1F
100
AcDbEntity
  8
0
  6
Continuous
 62
     7
370
     0
100
AcDbLine
 10
215.7427640041
 20
26.1661402506
 30
0.0
 11
171.6327596684
 21
26.1661402506
 31
0.0
  0
LINE
  5
87
330
1F
100
AcDbEntity
  8
0
  6
Continuous
 62
     7
370
     0
100
AcDbLine
 10
215.7427640041
 20
9.1409200612
 30
0.0
 11
277.9892068491
 21
9.1409200612
 31
0.0
  0
LINE
  5
88
330
1F
100
AcDbEntity
  8
0
  6
Continuous
 62
     7
370
     0
100
AcDbLine
 10
215.7427640041
 20
16.9216824031
 30
0.0
 11
171.6327596684
 21
16.9216824031
 31
0.0
  0
LINE
  5
89
330
1F
100
AcDbEntity
  8
0
  6
Continuous
 62
     7
370
     0
100
AcDbLine
 10
215.7427640041
 20
21.4874005542
 30
0.0
 11
171.6327596684
 21
21.4874005542
 31
0.0
  0
LINE
  5
8A
330
1F
100
AcDbEntity
  8
0
  6
Continuous
 62
     7
370
     0
100
AcDbLine
 10
186.1338100705
 20
26.1661402506
 30
0.0
 11
186.1338100705
 21
12.2958890132
 31
0.0
  0
LINE
  5
8B
330
1F
100
AcDbEntity
  8
0
  6
Continuous
 62
     7
370
     0
100
AcDbLine
 10
198.2145906188
 20
26.1661402506
 30
0.0
 11
198.2145906188
 21
12.2958890132
 31
0.0
  0
LINE
  5
8C
330
1F
100
AcDbEntity
  8
0
  6
Continuous
 62
     7
370
     0
100
AcDbLine
 10
253.7490408369
 20
9.1409200612
 30
0.0
 11
253.7490408369
 21
0.9031642596
 31
0.0
  0
LINE
  5
8D
330
1F
100
AcDbEntity
  8
0
  6
Continuous
 62
     7
370
     0
100
AcDbLine
 10
171.6327596684
 20
12.2958890132
 30
0.0
 11
171.6327596684
 21
7.5627342528
 31
0.0
  0
LINE
  5
8E
330
1F
100
AcDbEntity
  8
0
  6
Continuous
 62
     7
370
     0
100
AcDbLine
 10
171.6327596684
 20
7.5627342528
 30
0.0
 11
215.7427640041
 21
7.5627342528
 31
0.0
  0
LINE
  5
8F
330
1F
100
AcDbEntity
  8
0
  6
Continuous
 62
     7
370
     0
100
AcDbLine
 10
171.6327596684
 20
7.5627342528
 30
0.0
 11
171.6327596684
 21
35.2394508358
 31
0.0
  0
LINE
  5
90
330
1F
100
AcDbEntity
  8
0
  6
Continuous
 62
     7
370
     0
100
AcDbLine
 10
171.6327596684
 20
35.2394508358
 30
0.0
 11
215.7427640041
 21
35.2394508358
 31
0.0
  0
LINE
  5
91
330
1F
100
AcDbEntity
  8
0
  6
Continuous
 62
     7
370
     0
100
AcDbLine
 10
270.1683598194
 20
17.1604579552
 30
0.0
 11
270.1683598194
 21
9.1409200612
 31
0.0
  0
LINE
  5
92
330
1F
100
AcDbEntity
  8
0
  6
Continuous
 62
     7
370
     0
100
AcDbLine
 10
215.7427640041
 20
35.2394508358
 30
0.0
 11
277.9892068491
 21
35.2394508358
 31
0.0
  0
LINE
  5
93
330
1F
100
AcDbEntity
  8
0
  6
Continuous
 62
     7
370
     0
100
AcDbLine
 10
277.9892068491
 20
35.2394508358
 30
0.0
 11
277.9892068491
 21
50.0331356147
 31
0.0
  0
LINE
  5
94
330
1F
100
AcDbEntity
  8
0
  6
Continuous
 62
     7
370
     0
100
AcDbLine
 10
215.7427640041
 20
24.8927335446
 30
0.0
 11
277.9892068491
 21
24.8927335446
 31
0.0
  0
INSERT
  5
95
330
1F
100
AcDbEntity
  8
0
  6
Continuous
 62
     7
100
AcDbBlockReference
  2
Third Angle Projection Block
 10
117.7262204235
 20
15.5162339489
 30
0.0
 41
0.8
 42
0.8
 43
0.8
  0
MTEXT
  5
97
330
1F
100
AcDbEntity
  8
0
  6
Continuous
 62
     7
370
     0
100
AcDbMText
 10
273.7514466724
 20
13.1125292762
 30
0.0
 40
3.175
 41
0.0
 71
     2
 72
     1
  1
A
  7
SLDTEXTSTYLE0
 73
     1
 44
1.0
  0
MTEXT
  5
98
330
1F
100
AcDbEntity
  8
0
  6
Continuous
 62
     7
370
     0
100
AcDbMText
 10
234.7810401193
 20
5.1306563898
 30
0.0
 40
3.175
 41
0.0
 71
     2
 72
     1
  1
PF2011
  7
SLDTEXTSTYLE0
 73
     1
 44
1.0
  0
MTEXT
  5
99
330
1F
100
AcDbEntity
  8
0
  6
Continuous
 62
     7
370
     0
100
AcDbMText
 10
216.4199766059
 20
16.8243178599
 30
0.0
 40
2.1166666667
 41
0.0
 71
     1
 72
     1
  1
MATERIAL
  7
SLDTEXTSTYLE0
 73
     1
 44
1.0
  0
MTEXT
  5
9A
330
1F
100
AcDbEntity
  8
0
  6
Continuous
 62
     7
370
     0
100
AcDbMText
 10
174.230946566
 20
20.054553926
 30
0.0
 40
1.8520833333
 41
0.0
 71
     1
 72
     1
  1
DRAWN
  7
SLDTEXTSTYLE0
 73
     1
 44
1.0
  0
MTEXT
  5
9B
330
1F
100
AcDbEntity
  8
0
  6
Continuous
 62
     7
370
     0
100
AcDbMText
 10
172.3960124543
 20
15.5787169747
 30
0.0
 40
1.8520833333
 41
0.0
 71
     1
 72
     1
  1
APPROVAL
  7
SLDTEXTSTYLE0
 73
     1
 44
1.0
  0
MTEXT
  5
9C
330
1F
100
AcDbEntity
  8
0
  6
Continuous
 62
     7
370
     0
100
AcDbMText
 10
271.321689486
 20
16.0237652193
 30
0.0
 40
2.1166666667
 41
0.0
 71
     1
 72
     1
  1
REV
  7
SLDTEXTSTYLE0
 73
     1
 44
1.0
  0
MTEXT
  5
9D
330
1F
100
AcDbEntity
  8
0
  6
Continuous
 62
     7
370
     0
100
AcDbMText
 10
190.2958696448
 20
20.3177146903
 30
0.0
 40
2.1166666667
 41
0.0
 71
     1
 72
     1
  1
LM
  7
SLDTEXTSTYLE0
 73
     1
 44
1.0
  0
MTEXT
  5
9E
330
1F
100
AcDbEntity
  8
0
  6
Continuous
 62
     7
370
     0
100
AcDbMText
 10
199.8662436873
 20
20.3177146903
 30
0.0
 40
2.1166666667
 41
0.0
 71
     1
 72
     1
  1
23/JUL/15
  7
SLDTEXTSTYLE0
 73
     1
 44
1.0
  0
MTEXT
  5
9F
330
1F
100
AcDbEntity
  8
0
  6
Continuous
 62
     7
370
     0
100
AcDbMText
 10
203.6145073853
 20
24.8221395769
 30
0.0
 40
2.1166666667
 41
0.0
 71
     1
 72
     1
  1
DATE
  7
SLDTEXTSTYLE0
 73
     1
 44
1.0
  0
MTEXT
  5
A1
330
1F
100
AcDbEntity
  8
0
  6
Continuous
 62
     7
370
     0
100
AcDbMText
 10
229.402906477
 20
27.7957480569
 30
0.0
 40
2.1166666667
 41
0.0
 71
     1
 72
     1
  1
w w w . t h o r  l a b s . c o m
  7
SLDTEXTSTYLE1
 73
     1
 44
1.0
  0
MTEXT
  5
A2
330
1F
100
AcDbEntity
  8
0
  6
Continuous
 62
     7
370
     0
100
AcDbMText
 10
216.7004035316
 20
8.3494791871
 30
0.0
 40
2.1166666667
 41
0.0
 71
     1
 72
     1
  1
ITEM #
  7
SLDTEXTSTYLE0
 73
     1
 44
1.0
  0
MTEXT
  5
A3
330
1F
100
AcDbEntity
  8
0
  6
Continuous
 62
     7
370
     0
100
AcDbMText
 10
254.5318000914
 20
8.3494791871
 30
0.0
 40
2.1166666667
 41
0.0
 71
     1
 72
     1
  1
APPROX WEIGHT
  7
SLDTEXTSTYLE0
 73
     1
 44
1.0
  0
MTEXT
  5
A4
330
1F
100
AcDbEntity
  8
0
  6
Continuous
 62
     7
370
     0
100
AcDbMText
 10
243.618008602
 20
13.1125292762
 30
0.0
 40
3.175
 41
0.0
 71
     2
 72
     1
  1
ZERODUR®
  7
SLDTEXTSTYLE0
 73
     1
 44
1.0
  0
MTEXT
  5
A5
330
1F
100
AcDbEntity
  8
0
  6
Continuous
 62
     7
370
     0
100
AcDbMText
 10
266.1678480997
 20
5.1306563898
 30
0.0
 40
3.175
 41
0.0
 71
     2
 72
     1
  1
0.05 kg
  7
SLDTEXTSTYLE0
 73
     1
 44
1.0
  0
INSERT
  5
AB
330
1F
100
AcDbEntity
  8
0
  6
Continuous
 62
     7
370
     0
100
AcDbBlockReference
  2
SW_NOTE_0
 10
174.8430140051
 20
4.4558554801
 30
0.0
  0
INSERT
  5
B1
330
1F
100
AcDbEntity
  8
0
  6
Continuous
 62
     7
370
     0
100
AcDbBlockReference
  2
SW_NOTE_1
 10
174.5483650337
 20
30.4835322715
 30
0.0
  0
MTEXT
  5
B2
330
1F
100
AcDbEntity
  8
0
  6
Continuous
 62
     7
370
     0
100
AcDbMText
 10
187.9273588276
 20
24.8221395769
 30
0.0
 40
2.1166666667
 41
0.0
 71
     1
 72
     1
  1
NAME
  7
SLDTEXTSTYLE0
 73
     1
 44
1.0
  0
INSERT
  5
B8
330
1F
100
AcDbEntity
  8
0
  6
Continuous
 62
     7
370
     0
100
AcDbBlockReference
  2
SW_NOTE_2
 10
58.6204667508
 20
8.1776609732
 30
0.0
  0
MTEXT
  5
B9
330
1F
100
AcDbEntity
  8
0
  6
Continuous
 62
     7
370
     0
100
AcDbMText
 10
179.1174811218
 20
10.6680638482
 30
0.0
 40
1.5875
 41
0.0
 71
     1
 72
     1
  1
COPYRIGHT © 2015 BY THORLABS
  7
SLDTEXTSTYLE0
 73
     1
 44
1.0
  0
INSERT
  5
BF
330
1F
100
AcDbEntity
  8
0
  6
Continuous
 62
     7
370
     0
100
AcDbBlockReference
  2
SW_NOTE_3
 10
216.2592292125
 20
19.2296403933
 30
0.0
  0
INSERT
  5
D4
330
1F
100
AcDbEntity
  8
0
  6
Continuous
 62
     7
370
     0
100
AcDbBlockReference
  2
SW_NOTE_4
 10
7.8605225835
 20
46.0862815645
 30
0.0
  0
MTEXT
  5
D5
330
1F
100
AcDbEntity
  8
0
  6
Continuous
 62
     7
370
     0
100
AcDbMText
 10
199.9533127427
 20
15.6646265719
 30
0.0
 40
2.1166666667
 41
0.0
 71
     1
 72
     1
  1
04/AUG/15
  7
SLDTEXTSTYLE0
 73
     1
 44
1.0
  0
MTEXT
  5
D6
330
1F
100
AcDbEntity
  8
0
  6
Continuous
 62
     7
370
     0
100
AcDbMText
 10
190.3829387002
 20
15.6646265719
 30
0.0
 40
2.1166666667
 41
0.0
 71
     1
 72
     1
  1
CS
  7
SLDTEXTSTYLE0
 73
     1
 44
1.0
  0
CIRCLE
  5
D7
330
1F
100
AcDbEntity
  8
0
  6
Continuous
 62
     7
370
     0
100
AcDbCircle
 10
50.0604946658
 20
112.7549227602
 30
0.0
 40
25.15000000000001
  0
CIRCLE
  5
D8
330
1F
100
AcDbEntity
  8
0
  6
Continuous
 62
     7
370
     0
100
AcDbCircle
 10
50.0604946658
 20
112.7549227602
 30
0.0
 40
25.39999999999999
  0
DIMENSION
  5
D9
330
1F
100
AcDbEntity
  8
0
  6
Continuous
 62
     7
370
     0
100
AcDbDimension
  2
_D
 10
37.3604946658
 20
90.757877504
 30
0.0
 11
79.4902660882
 21
144.8853276582
 31
0.0
 70
   163
  1
<>
 71
     1
 42
-1.0
  3
SLDDIMSTYLE0
100
AcDbDiametricDimension
 15
62.7604946658
 25
134.7519680163
 35
0.0
 40
0.0
  0
LINE
  5
EA
330
1F
100
AcDbEntity
  8
0
  6
Continuous
 62
     7
370
     0
100
AcDbLine
 10
228.6920078116
 20
187.2877268062
 30
0.0
 11
228.6920078116
 21
187.0836247782
 31
0.0
  0
LINE
  5
EB
330
1F
100
AcDbEntity
  8
0
  6
Continuous
 62
     7
370
     0
100
AcDbLine
 10
246.4728530013
 20
156.282960192
 30
0.0
 11
246.6496009654
 21
156.1808925919
 31
0.0
  0
LINE
  5
EC
330
1F
100
AcDbEntity
  8
0
  6
Continuous
 62
     7
370
     0
100
AcDbLine
 10
242.0852801329
 20
203.6113315335
 30
0.0
 11
233.9535521492
 21
198.9169848905
 31
0.0
  0
LINE
  5
ED
330
1F
100
AcDbEntity
  8
0
  6
Continuous
 62
     7
370
     0
100
AcDbLine
 10
259.3514879582
 20
154.9217026815
 30
0.0
 11
267.4832159418
 21
159.6160493245
 31
0.0
  0
LINE
  5
EE
330
1F
100
AcDbEntity
  8
0
  6
Continuous
 62
     7
370
     0
100
AcDbLine
 10
272.7447602795
 20
171.2453074088
 30
0.0
 11
272.7447602795
 21
171.4494094368
 31
0.0
  0
LINE
  5
EF
330
1F
100
AcDbEntity
  8
0
  6
Continuous
 62
     7
370
     0
100
AcDbLine
 10
254.9639150898
 20
202.250074023
 30
0.0
 11
254.7871671257
 21
202.3521416231
 31
0.0
  0
LWPOLYLINE
  5
F0
330
1F
100
AcDbEntity
  8
0
  6
Continuous
 62
     7
370
     0
100
AcDbPolyline
 90
      165
 70
   128
 43
0.0
 10
264.2594789053
 20
166.5509607659
 10
264.2464288631
 20
167.3450793882
 10
264.2072978895
 20
168.1530997899
 10
264.1421434144
 20
168.9738360896
 10
264.0510610611
 20
169.8060837436
 10
263.9341845054
 20
170.6486213137
 10
263.7916852798
 20
171.5002122598
 10
263.6237725217
 20
172.3596067547
 10
263.430692666
 20
173.2255435186
 10
263.2127290842
 20
174.0967516698
 10
262.9702016679
 20
174.9719525902
 10
262.7034663594
 20
175.8498618018
 10
262.4129146296
 20
176.7291908518
 10
262.0989729033
 20
177.6086492035
 10
261.7621019332
 20
178.4869461305
 10
261.4027961239
 20
179.362792611
 10
261.0215828063
 20
180.2349032194
 10
260.6190214634
 20
181.1019980132
 10
260.1957029096
 20
181.9628044112
 10
259.7522484232
 20
182.8160590613
 10
259.2893088348
 20
183.6605096947
 10
258.8075635721
 20
184.4949169636
 10
258.3077196627
 20
185.3180562602
 10
257.7905106964
 20
186.1287195142
 10
257.2566957488
 20
186.9257169654
 10
256.7070582669
 20
187.7078789102
 10
256.1424049195
 20
188.474057418
 10
255.5635644132
 20
189.2231280162
 10
254.9713862763
 20
189.9539913405
 10
254.3667396119
 20
190.6655747481
 10
253.7505118224
 20
191.3568338923
 10
253.1236073069
 20
192.0267542548
 10
252.4869461344
 20
192.6743526353
 10
251.8414626929
 20
193.2986785938
 10
251.1881043183
 20
193.8988158458
 10
250.5278299042
 20
194.4738836072
 10
249.8616084943
 20
195.0230378868
 10
249.1904178604
 20
195.5454727248
 10
248.5152430673
 20
196.0404213762
 10
247.8370750272
 20
196.5071574355
 10
247.1569090451
 20
196.9449959032
 10
246.4757433584
 20
197.353294191
 10
245.7945776718
 20
197.7314530648
 10
245.1144116897
 20
198.0789175243
 10
244.4362436495
 20
198.3951776176
 10
243.7610688565
 20
198.6797691894
 10
243.0898782226
 20
198.9322745622
 10
242.4236568127
 20
199.1523231496
 10
241.7633823986
 20
199.3395919999
 10
241.110024024
 20
199.4938062703
 10
240.4645405824
 20
199.6147396302
 10
239.8278794099
 20
199.702214593
 10
239.2009748945
 20
199.7561027773
 10
238.5847471049
 20
199.7763250946
 10
237.9801004405
 20
199.7628518661
 10
237.3879223036
 20
199.7157028653
 10
236.8090817974
 20
199.6349472902
 10
236.2444284499
 20
199.5207036605
 10
235.694790968
 20
199.3731396445
 10
235.1609760204
 20
199.1924718129
 10
234.6437670542
 20
198.9789653205
 10
234.1439231447
 20
198.7329335176
 10
233.662177882
 20
198.4547374898
 10
233.1992382936
 20
198.144785528
 10
232.7557838072
 20
197.8035325297
 10
232.3324652534
 20
197.4314793305
 10
231.9299039106
 20
197.0291719698
 10
231.5486905929
 20
196.5972008893
 10
231.1893847837
 20
196.136200066
 10
230.8525138136
 20
195.6468460822
 10
230.5385720872
 20
195.1298571323
 10
230.2480203575
 20
194.585991969
 10
229.981285049
 20
194.0160487893
 10
229.7387576326
 20
193.4208640635
 10
229.5207940508
 20
192.8013113072
 10
229.3277141952
 20
192.1582997996
 10
229.159801437
 20
191.4927732486
 10
229.0173022115
 20
190.8057084063
 10
228.9004256558
 20
190.0981136351
 10
228.8093433025
 20
189.3710274278
 10
228.7441888274
 20
188.6255168838
 10
228.7050578537
 20
187.8626761426
 10
228.6920078116
 20
187.0836247782
 10
228.7050578537
 20
186.2895061558
 10
228.7441888274
 20
185.4814857541
 10
228.8093433025
 20
184.6607494544
 10
228.9004256558
 20
183.8285018004
 10
229.0173022115
 20
182.9859642304
 10
229.159801437
 20
182.1343732843
 10
229.3277141952
 20
181.2749787894
 10
229.5207940508
 20
180.4090420255
 10
229.7387576326
 20
179.5378338743
 10
229.981285049
 20
178.6626329538
 10
230.2480203575
 20
177.7847237422
 10
230.5385720872
 20
176.9053946922
 10
230.8525138136
 20
176.0259363406
 10
231.1893847837
 20
175.1476394136
 10
231.5486905929
 20
174.2717929331
 10
231.9299039106
 20
173.3996823247
 10
232.3324652534
 20
172.5325875309
 10
232.7557838072
 20
171.6717811329
 10
233.1992382936
 20
170.8185264827
 10
233.662177882
 20
169.9740758494
 10
234.1439231447
 20
169.1396685805
 10
234.6437670542
 20
168.3165292838
 10
235.1609760204
 20
167.5058660299
 10
235.694790968
 20
166.7088685787
 10
236.2444284499
 20
165.9267066339
 10
236.8090817974
 20
165.1605281261
 10
237.3879223036
 20
164.4114575278
 10
237.9801004405
 20
163.6805942036
 10
238.5847471049
 20
162.969010796
 10
239.2009748945
 20
162.2777516518
 10
239.8278794099
 20
161.6078312892
 10
240.4645405824
 20
160.9602329087
 10
241.110024024
 20
160.3359069503
 10
241.7633823986
 20
159.7357696982
 10
242.4236568127
 20
159.1607019368
 10
243.0898782226
 20
158.6115476573
 10
243.7610688565
 20
158.0891128193
 10
244.4362436495
 20
157.5941641679
 10
245.1144116897
 20
157.1274281086
 10
245.7945776718
 20
156.6895896409
 10
246.4757433584
 20
156.2812913531
 10
247.1569090451
 20
155.9031324793
 10
247.8370750272
 20
155.5556680197
 10
248.5152430673
 20
155.2394079264
 10
249.1904178604
 20
154.9548163547
 10
249.8616084943
 20
154.7023109819
 10
250.5278299042
 20
154.4822623945
 10
251.1881043183
 20
154.2949935442
 10
251.8414626929
 20
154.1407792737
 10
252.4869461344
 20
154.0198459139
 10
253.1236073069
 20
153.932370951
 10
253.7505118224
 20
153.8784827668
 10
254.3667396119
 20
153.8582604494
 10
254.9713862763
 20
153.871733678
 10
255.5635644132
 20
153.9188826787
 10
256.1424049195
 20
153.9996382539
 10
256.7070582669
 20
154.1138818836
 10
257.2566957488
 20
154.2614458995
 10
257.7905106964
 20
154.4421137312
 10
258.3077196627
 20
154.6556202236
 10
258.8075635721
 20
154.9016520265
 10
259.2893088348
 20
155.1798480543
 10
259.7522484232
 20
155.489800016
 10
260.1957029096
 20
155.8310530144
 10
260.6190214634
 20
156.2031062136
 10
261.0215828063
 20
156.6054135742
 10
261.4027961239
 20
157.0373846548
 10
261.7621019332
 20
157.4983854781
 10
262.0989729033
 20
157.9877394619
 10
262.4129146296
 20
158.5047284117
 10
262.7034663594
 20
159.0485935751
 10
262.9702016679
 20
159.6185367547
 10
263.2127290842
 20
160.2137214806
 10
263.430692666
 20
160.8332742368
 10
263.6237725217
 20
161.4762857445
 10
263.7916852798
 20
162.1418122955
 10
263.9341845054
 20
162.8288771378
 10
264.0510610611
 20
163.536471909
 10
264.1421434144
 20
164.2635581162
 10
264.2072978895
 20
165.0090686602
 10
264.2464288631
 20
165.7719094014
 10
264.2594789053
 20
166.5509607659
  0
LWPOLYLINE
  5
F1
330
1F
100
AcDbEntity
  8
0
  6
Continuous
 62
     7
370
     0
100
AcDbPolyline
 90
       43
 70
   128
 43
0.0
 10
264.6130322959
 20
166.5509607659
 10
264.600011783
 20
165.768885653
 10
264.5609691229
 20
165.0029776384
 10
264.4959609238
 20
164.2543472155
 10
264.4050814412
 20
163.5240798269
 10
264.2884624418
 20
162.8132342904
 10
264.146273012
 20
162.1228412641
 10
263.9787193127
 20
161.4539017519
 10
263.786044281
 20
160.8073856522
 10
263.5685272771
 20
160.1842303514
 10
263.3264836799
 20
159.5853393652
 10
263.0602644295
 20
159.0115810283
 10
262.7702555183
 20
158.4637872354
 10
262.4568774316
 20
157.9427522351
 10
262.1205845376
 20
157.4492314784
 10
261.7618644289
 20
156.9839405232
 10
261.3812372153
 20
156.5475539968
 10
260.9792547699
 20
156.1407046181
 10
260.5564999288
 20
155.7639822797
 10
260.1135856461
 20
155.417933193
 10
259.6511541052
 20
155.1030590962
 10
259.1698757876
 20
154.8198165265
 10
258.6704485008
 20
154.5686161585
 10
258.1535963668
 20
154.3498222089
 10
257.6200687715
 20
154.1637519079
 10
257.0706392792
 20
154.0106750397
 10
256.50610451
 20
153.890813551
 10
255.9272829853
 20
153.8043412297
 10
255.335013941
 20
153.7513834522
 10
254.7301561107
 20
153.7320170023
 10
254.1135864803
 20
153.7462699596
 10
253.4861990169
 20
153.7941216585
 10
252.8489033723
 20
153.8755027187
 10
252.2026235642
 20
153.9902951455
 10
251.5482966367
 20
154.1383325007
 10
250.8868713011
 20
154.3194001445
 10
250.2193065611
 20
154.5332355459
 10
249.5465703216
 20
154.7795286641
 10
248.8696379859
 20
155.0579223977
 10
248.1894910411
 20
155.3680131023
 10
247.5071156354
 20
155.7093511761
 10
246.8235011477
 20
156.0814417115
 10
246.6496009654
 20
156.1808925919
  0
LWPOLYLINE
  5
F2
330
1F
100
AcDbEntity
  8
0
  6
Continuous
 62
     7
370
     0
100
AcDbPolyline
 90
       85
 70
   128
 43
0.0
 10
228.6920078116
 20
187.2877268062
 10
228.6952632348
 20
187.6807149093
 10
228.7212995405
 20
188.4548467879
 10
228.7733344016
 20
189.2122532899
 10
228.8512923727
 20
189.9518362484
 10
228.9550604221
 20
190.6725233387
 10
229.0844880961
 20
191.3732696335
 10
229.2393877369
 20
192.0530591176
 10
229.4195347549
 20
192.7109061613
 10
229.624667954
 20
193.3458569492
 10
229.8544899108
 20
193.9569908635
 10
230.1086674054
 20
194.5434218183
 10
230.3868319048
 20
195.1042995448
 10
230.6885800969
 20
195.638810824
 10
231.0134744758
 20
196.1461806655
 10
231.3610439757
 20
196.6256734317
 10
231.730784654
 20
197.0765939039
 10
232.1221604222
 20
197.4982882904
 10
232.5346038226
 20
197.8901451747
 10
232.9675168519
 20
198.2515964019
 10
233.4202718276
 20
198.5821179022
 10
233.8922122982
 20
198.881230451
 10
234.3826539951
 20
199.1485003637
 10
234.8908858248
 20
199.3835401245
 10
235.4161708997
 20
199.5860089482
 10
235.9577476067
 20
199.7556132743
 10
236.5148307113
 20
199.8921071929
 10
237.0866124962
 20
199.9952928007
 10
237.6722639327
 20
200.0650204886
 10
238.2709358819
 20
200.101189158
 10
238.881760327
 20
200.1037463678
 10
239.5038516307
 20
200.0726884103
 10
240.1363078202
 20
200.0080603166
 10
240.7782118945
 20
199.9099557913
 10
241.4286331541
 20
199.7785170764
 10
242.0866285503
 20
199.6139347456
 10
242.7512440526
 20
199.4164474276
 10
243.4215160322
 20
199.18634146
 10
244.0964726587
 20
198.9239504746
 10
244.7751353096
 20
198.6296549131
 10
245.4565199888
 20
198.303881476
 10
246.1396387539
 20
197.9471025036
 10
246.8235011477
 20
197.5598352914
 10
247.5071156354
 20
197.1426413397
 10
248.1894910411
 20
196.69612554
 10
248.8696379859
 20
196.2209352974
 10
249.5465703216
 20
195.7177595923
 10
250.2193065611
 20
195.1873279815
 10
250.8868713011
 20
194.63040954
 10
251.5482966367
 20
194.0478117464
 10
252.2026235642
 20
193.4403793117
 10
252.8489033723
 20
192.8089929549
 10
253.4861990169
 20
192.154568126
 10
254.1135864803
 20
191.4780536782
 10
254.7301561107
 20
190.7804304929
 10
255.335013941
 20
190.062710057
 10
255.9272829853
 20
189.3259329966
 10
256.50610451
 20
188.5711675678
 10
257.0706392792
 20
187.7995081085
 10
257.6200687715
 20
187.0120734511
 10
258.1535963668
 20
186.2100053006
 10
258.6704485008
 20
185.394466579
 10
259.1698757876
 20
184.5666397397
 10
259.6511541052
 20
183.7277250523
 10
260.1135856461
 20
182.8789388629
 10
260.5564999288
 20
182.0215118304
 10
260.9792547699
 20
181.1566871421
 10
261.3812372153
 20
180.2857187109
 10
261.7618644289
 20
179.409869358
 10
262.1205845376
 20
178.530408981
 10
262.4568774316
 20
177.6486127136
 10
262.7702555183
 20
176.7657590759
 10
263.0602644295
 20
175.8831281214
 10
263.3264836799
 20
175.0019995805
 10
263.5685272771
 20
174.1236510054
 10
263.786044281
 20
173.2493559176
 10
263.9787193127
 20
172.3803819613
 10
264.146273012
 20
171.5179890658
 10
264.2884624418
 20
170.6634276182
 10
264.4050814412
 20
169.817936651
 10
264.4959609238
 20
168.9827420452
 10
264.5609691229
 20
168.1590547533
 10
264.600011783
 20
167.3480690429
 10
264.6130322959
 20
166.5509607659
 10
264.6130322959
 20
166.5509607659
  0
LWPOLYLINE
  5
F3
330
1F
100
AcDbEntity
  8
0
  6
Continuous
 62
     7
370
     0
100
AcDbPolyline
 90
       63
 70
   128
 43
0.0
 10
272.7447602795
 20
171.2453074088
 10
272.7317397666
 20
172.0424156859
 10
272.6926971066
 20
172.8534013962
 10
272.6276889074
 20
173.6770886882
 10
272.5368094249
 20
174.512283294
 10
272.4201904255
 20
175.3577742612
 10
272.2780009956
 20
176.2123357088
 10
272.1104472964
 20
177.0747286043
 10
271.9177722646
 20
177.9437025606
 10
271.7002552607
 20
178.8179976484
 10
271.4582116635
 20
179.6963462235
 10
271.1919924131
 20
180.5774747644
 10
270.901983502
 20
181.4601057189
 10
270.5886054152
 20
182.3429593566
 10
270.2523125213
 20
183.224755624
 10
269.8935924125
 20
184.1042160009
 10
269.5129651989
 20
184.9800653539
 10
269.1109827535
 20
185.851033785
 10
268.6882279124
 20
186.7158584734
 10
268.2453136297
 20
187.5732855059
 10
267.7828820888
 20
188.4220716952
 10
267.3016037712
 20
189.2609863826
 10
266.8021764845
 20
190.088813222
 10
266.2853243504
 20
190.9043519436
 10
265.7517967552
 20
191.7064200941
 10
265.2023672629
 20
192.4938547515
 10
264.6378324936
 20
193.2655142108
 10
264.0590109689
 20
194.0202796395
 10
263.4667419247
 20
194.7570567
 10
262.8618840943
 20
195.4747771359
 10
262.245314464
 20
196.1724003212
 10
261.6179270005
 20
196.8489147689
 10
260.9806313559
 20
197.5033395979
 10
260.3343515479
 20
198.1347259547
 10
259.6800246203
 20
198.7421583894
 10
259.0185992848
 20
199.324756183
 10
258.3510345447
 20
199.8816746245
 10
257.6782983052
 20
200.4121062353
 10
257.0013659695
 20
200.9152819403
 10
256.3212190248
 20
201.390472183
 10
255.638843619
 20
201.8369879827
 10
254.9552291314
 20
202.2541819344
 10
254.2713667375
 20
202.6414491466
 10
253.5882479725
 20
202.998228119
 10
252.9068632932
 20
203.3240015561
 10
252.2282006423
 20
203.6182971176
 10
251.5532440158
 20
203.880688103
 10
250.8829720362
 20
204.1107940706
 10
250.2183565339
 20
204.3082813886
 10
249.5603611378
 20
204.4728637194
 10
248.9099398782
 20
204.6043024342
 10
248.2680358039
 20
204.7024069596
 10
247.6355796143
 20
204.7670350533
 10
247.0134883106
 20
204.7980930108
 10
246.4026638656
 20
204.795535801
 10
245.8039919163
 20
204.7593671316
 10
245.2183404799
 20
204.6896394437
 10
244.6465586949
 20
204.5864538359
 10
244.0894755903
 20
204.4499599173
 10
243.5478988834
 20
204.2803555911
 10
243.0226138084
 20
204.0778867674
 10
242.5143819787
 20
203.8428470067
 10
242.0852801329
 20
203.6113315335
  0
LWPOLYLINE
  5
F4
330
1F
100
AcDbEntity
  8
0
  6
Continuous
 62
     7
370
     0
100
AcDbPolyline
 90
       22
 70
   128
 43
0.0
 10
267.4832159418
 20
159.6160493245
 10
267.7828820888
 20
159.7974057392
 10
268.2453136297
 20
160.112279836
 10
268.6882279124
 20
160.4583289227
 10
269.1109827535
 20
160.8350512611
 10
269.5129651989
 20
161.2419006398
 10
269.8935924125
 20
161.6782871661
 10
270.2523125213
 20
162.1435781214
 10
270.5886054152
 20
162.6370988781
 10
270.901983502
 20
163.1581338784
 10
271.1919924131
 20
163.7059276713
 10
271.4582116635
 20
164.2796860082
 10
271.7002552607
 20
164.8785769944
 10
271.9177722646
 20
165.5017322952
 10
272.1104472964
 20
166.1482483949
 10
272.2780009956
 20
166.8171879071
 10
272.4201904255
 20
167.5075809334
 10
272.5368094249
 20
168.2184264699
 10
272.6276889074
 20
168.9486938585
 10
272.6926971066
 20
169.6973242814
 10
272.7317397666
 20
170.463232296
 10
272.7447602795
 20
171.2453074088
  0
ARC
  5
F5
330
1F
100
AcDbEntity
  8
0
  6
Continuous
 62
     7
370
     0
100
AcDbCircle
 10
234.1651127711
 20
169.710517006
 30
0.0
 40
38.6188159937077
100
AcDbArc
 50
2.5807340673
 51
57.4138894
  0
LINE
  5
F6
330
1F
100
AcDbEntity
  8
0
  6
Continuous
 62
     7
370
     0
100
AcDbLine
 10
143.9558572697
 20
87.3549227602
 30
0.0
 11
144.2058572697
 21
87.6049227602
 31
0.0
  0
LINE
  5
F7
330
1F
100
AcDbEntity
  8
0
  6
Continuous
 62
     7
370
     0
100
AcDbLine
 10
144.2058572697
 20
137.9049227602
 30
0.0
 11
143.9558572697
 21
138.1549227602
 31
0.0
  0
LINE
  5
F8
330
1F
100
AcDbEntity
  8
0
  6
Continuous
 62
     7
370
     0
100
AcDbLine
 10
143.9558572697
 20
138.1549227602
 30
0.0
 11
132.4558572697
 21
138.1549227602
 31
0.0
  0
LINE
  5
F9
330
1F
100
AcDbEntity
  8
0
  6
Continuous
 62
     7
370
     0
100
AcDbLine
 10
132.4558572697
 20
87.3549227602
 30
0.0
 11
143.9558572697
 21
87.3549227602
 31
0.0
  0
LINE
  5
FA
330
1F
100
AcDbEntity
  8
0
  6
Continuous
 62
     7
370
     0
100
AcDbLine
 10
132.4558572697
 20
138.1549227602
 30
0.0
 11
132.2058572697
 21
137.9049227602
 31
0.0
  0
LINE
  5
FB
330
1F
100
AcDbEntity
  8
0
  6
Continuous
 62
     7
370
     0
100
AcDbLine
 10
132.2058572697
 20
87.6049227602
 30
0.0
 11
132.4558572697
 21
87.3549227602
 31
0.0
  0
LINE
  5
FC
330
1F
100
AcDbEntity
  8
0
  6
Continuous
 62
     7
370
     0
100
AcDbLine
 10
143.9558572697
 20
112.7549227602
 30
0.0
 11
143.9558572697
 21
138.1549227602
 31
0.0
  0
LINE
  5
FD
330
1F
100
AcDbEntity
  8
0
  6
Continuous
 62
     7
370
     0
100
AcDbLine
 10
143.9558572697
 20
87.3549227602
 30
0.0
 11
143.9558572697
 21
112.7549227602
 31
0.0
  0
LINE
  5
FE
330
1F
100
AcDbEntity
  8
0
  6
Continuous
 62
     7
370
     0
100
AcDbLine
 10
144.2058572697
 20
112.7549227602
 30
0.0
 11
144.2058572697
 21
87.6049227602
 31
0.0
  0
LINE
  5
FF
330
1F
100
AcDbEntity
  8
0
  6
Continuous
 62
     7
370
     0
100
AcDbLine
 10
144.2058572697
 20
137.9049227602
 30
0.0
 11
144.2058572697
 21
112.7549227602
 31
0.0
  0
LINE
  5
100
330
1F
100
AcDbEntity
  8
0
  6
Continuous
 62
     7
370
     0
100
AcDbLine
 10
132.4558572697
 20
112.7549227602
 30
0.0
 11
132.4558572697
 21
87.3549227602
 31
0.0
  0
LINE
  5
101
330
1F
100
AcDbEntity
  8
0
  6
Continuous
 62
     7
370
     0
100
AcDbLine
 10
132.4558572697
 20
138.1549227602
 30
0.0
 11
132.4558572697
 21
112.7549227602
 31
0.0
  0
LINE
  5
102
330
1F
100
AcDbEntity
  8
0
  6
Continuous
 62
     7
370
     0
100
AcDbLine
 10
132.2058572697
 20
112.7549227602
 30
0.0
 11
132.2058572697
 21
137.9049227602
 31
0.0
  0
LINE
  5
103
330
1F
100
AcDbEntity
  8
0
  6
Continuous
 62
     7
370
     0
100
AcDbLine
 10
132.2058572697
 20
87.6049227602
 30
0.0
 11
132.2058572697
 21
112.7549227602
 31
0.0
  0
DIMENSION
  5
104
330
1F
100
AcDbEntity
  8
0
  6
Continuous
 62
     7
370
     0
100
AcDbDimension
  2
_D_1
 10
144.2058572697
 20
148.1549227602
 30
0.0
 11
154.2058572697
 21
148.1549227602
 31
0.0
 70
   160
  1
<>
 71
     2
 42
-1.0
  3
SLDDIMSTYLE1
100
AcDbAlignedDimension
 13
132.2058572697
 23
137.9049227602
 33
0.0
 14
144.2058572697
 24
113.0343227602
 34
0.0
100
AcDbRotatedDimension
  0
MTEXT
  5
119
330
1F
100
AcDbEntity
  8
0
  6
Continuous
 62
     7
370
     0
100
AcDbMText
 10
113.0683401567
 20
119.4288576705
 30
0.0
 40
2.1166666667
 41
0.0
 71
     1
 72
     1
  1
S1
  7
SLDTEXTSTYLE0
 73
     1
 44
1.0
  0
LEADER
  5
11B
330
1F
100
AcDbEntity
  8
0
  6
Continuous
 62
     7
370
     0
100
AcDbLeader
  3
SLDDIMSTYLE2
 76
     3
 10
132.2058572697
 20
108.0857085714
 30
0.0
 10
122.8389242777
 20
118.3087932302
 30
0.0
 10
116.4889242777
 20
118.3087932302
 30
0.0
  0
MTEXT
  5
11C
330
1F
100
AcDbEntity
  8
0
  6
Continuous
 62
     7
370
     0
100
AcDbMText
 10
158.9370252823
 20
117.5909533533
 30
0.0
 40
2.1166666667
 41
0.0
 71
     1
 72
     1
  1
S2
  7
SLDTEXTSTYLE0
 73
     1
 44
1.0
  0
LEADER
  5
11D
330
1F
100
AcDbEntity
  8
0
  6
Continuous
 62
     7
370
     0
100
AcDbLeader
  3
SLDDIMSTYLE2
 76
     3
 10
144.2058572697
 20
106.0264189578
 30
0.0
 10
152.0849112426
 20
116.5336453013
 30
0.0
 10
158.4349112426
 20
116.5336453013
 30
0.0
  0
LINE
  5
11E
330
1F
100
AcDbEntity
  8
0
  6
Continuous
 62
     7
370
     0
100
AcDbLine
 10
223.3290324112
 20
114.8519021372
 30
0.0
 11
222.7165871863
 21
114.8519021372
 31
0.0
  0
SPLINE
  5
11F
330
1F
100
AcDbEntity
  8
0
  6
Continuous
 62
     7
370
     0
100
AcDbSpline
210
0.0
220
0.0
230
1.0
 70
     8
 71
     3
 72
    23
 73
    19
 74
     0
 42
0.000000001
 43
0.00000001
 40
0.0
 40
0.0
 40
0.0
 40
0.0
 40
0.0603255293380431
 40
0.1181599905079978
 40
0.1741866762963805
 40
0.2295388181457996
 40
0.2834498146386368
 40
0.3378265119505919
 40
0.3926321025334832
 40
0.4484655764151907
 40
0.5059654091573051
 40
0.5650585322290047
 40
0.6266544786228437
 40
0.6922320330373638
 40
0.7611310781257616
 40
0.8353098773394202
 40
0.9153255598322015
 40
0.9999999999999999
 40
0.9999999999999999
 40
0.9999999999999999
 40
0.9999999999999999
 10
223.7175729302065
 20
114.5288043538782
 30
0.0
 10
223.7171905025956
 20
114.5403374312783
 30
0.0
 10
223.7164414392494
 20
114.5629273419028
 30
0.0
 10
223.7125146014488
 20
114.5960830588659
 30
0.0
 10
223.704879896454
 20
114.6275886536397
 30
0.0
 10
223.6947982872431
 20
114.6576106683394
 30
0.0
 10
223.6813272115339
 20
114.6859292131703
 30
0.0
 10
223.6653241231574
 20
114.7127637255487
 30
0.0
 10
223.6462274983815
 20
114.7379654777731
 30
0.0
 10
223.6243534135082
 20
114.761611238243
 30
0.0
 10
223.5992379889361
 20
114.7831265694402
 30
0.0
 10
223.5705502695728
 20
114.8016896337048
 30
0.0
 10
223.5385165137756
 20
114.8174642336738
 30
0.0
 10
223.5030994875159
 20
114.8299840107234
 30
0.0
 10
223.4644107608974
 20
114.8399977943935
 30
0.0
 10
223.4222300875232
 20
114.8466596416856
 30
0.0
 10
223.3767503686202
 20
114.851480132182
 30
0.0
 10
223.3452355608626
 20
114.8517588407919
 30
0.0
 10
223.3290324112094
 20
114.8519021371544
 30
0.0
  0
SPLINE
  5
120
330
1F
100
AcDbEntity
  8
0
  6
Continuous
 62
     7
370
     0
100
AcDbSpline
210
0.0
220
0.0
230
1.0
 70
     8
 71
     3
 72
    19
 73
    15
 74
     0
 42
0.000000001
 43
0.00000001
 40
0.0
 40
0.0
 40
0.0
 40
0.0
 40
0.1288602680417313
 40
0.2408921848092289
 40
0.3380442015575112
 40
0.4201204852136088
 40
0.494058456868551
 40
0.5660947835833202
 40
0.6368049543510104
 40
0.7091484493607203
 40
0.7819418055941268
 40
0.8542853006038366
 40
0.9261704072165587
 40
1.0
 40
1.0
 40
1.0
 40
1.0
 10
223.2668823917512
 20
114.193358884617
 30
0.0
 10
223.2944762777991
 20
114.1937906171337
 30
0.0
 10
223.34606045963
 20
114.1945977005801
 30
0.0
 10
223.4181927773396
 20
114.2014893449035
 30
0.0
 10
223.4796655614793
 20
114.2124404603954
 30
0.0
 10
223.5316940412346
 20
114.2284139448936
 30
0.0
 10
223.5754061767363
 20
114.250590445796
 30
0.0
 10
223.6134234515135
 20
114.2776166561568
 30
0.0
 10
223.6450162854076
 20
114.3114697981035
 30
0.0
 10
223.6712982596904
 20
114.3496658612681
 30
0.0
 10
223.6917277774595
 20
114.3916987221608
 30
0.0
 10
223.7064646571835
 20
114.4358480799206
 30
0.0
 10
223.7161102012769
 20
114.4817428877596
 30
0.0
 10
223.7170810354724
 20
114.5129782586296
 30
0.0
 10
223.7175729302065
 20
114.5288043538782
 30
0.0
  0
LINE
  5
121
330
1F
100
AcDbEntity
  8
0
  6
Continuous
 62
     7
370
     0
100
AcDbLine
 10
222.7165871863
 20
114.1933588846
 30
0.0
 11
223.2668823918
 21
114.1933588846
 31
0.0
  0
LINE
  5
122
330
1F
100
AcDbEntity
  8
0
  6
Continuous
 62
     7
370
     0
100
AcDbLine
 10
222.7165871863
 20
114.8519021372
 30
0.0
 11
222.7165871863
 21
114.1933588846
 31
0.0
  0
LINE
  5
123
330
1F
100
AcDbEntity
  8
0
  6
Continuous
 62
     7
370
     0
100
AcDbLine
 10
228.7010989938
 20
113.9826250438
 30
0.0
 11
228.2483505077
 21
113.9826250438
 31
0.0
  0
SPLINE
  5
124
330
1F
100
AcDbEntity
  8
0
  6
Continuous
 62
     7
370
     0
100
AcDbSpline
210
0.0
220
0.0
230
1.0
 70
     8
 71
     3
 72
    19
 73
    15
 74
     0
 42
0.000000001
 43
0.00000001
 40
0.0
 40
0.0
 40
0.0
 40
0.0
 40
0.0801399024652515
 40
0.1562809906190946
 40
0.2294060490129018
 40
0.301798696972305
 40
0.3727428627695776
 40
0.4426676099026289
 40
0.5133209646126977
 40
0.586547692363209
 40
0.6683225082295049
 40
0.7636766255259052
 40
0.8740807567185483
 40
1.0
 40
1.0
 40
1.0
 40
1.0
 10
229.1966527913176
 20
113.6270116874348
 30
0.0
 10
229.196085841077
 20
113.6457202072074
 30
0.0
 10
229.1949802302325
 20
113.6822037305602
 30
0.0
 10
229.184471020006
 20
113.7349242702959
 30
0.0
 10
229.1671115245588
 20
113.7838232263923
 30
0.0
 10
229.1426744132467
 20
113.8282233974434
 30
0.0
 10
229.1127010206112
 20
113.8681575285966
 30
0.0
 10
229.0764362421198
 20
113.9020325650013
 30
0.0
 10
229.0341512432265
 20
113.9289140816673
 30
0.0
 10
228.9857160648363
 20
113.9500108697054
 30
0.0
 10
228.9291050434128
 20
113.9650208710453
 30
0.0
 10
228.8627552611012
 20
113.9752042477726
 30
0.0
 10
228.7856054323674
 20
113.9817753366812
 30
0.0
 10
228.7304742971776
 20
113.9823296769078
 30
0.0
 10
228.7010989937832
 20
113.982625043805
 30
0.0
  0
SPLINE
  5
125
330
1F
100
AcDbEntity
  8
0
  6
Continuous
 62
     7
370
     0
100
AcDbSpline
210
0.0
220
0.0
230
1.0
 70
     8
 71
     3
 72
    19
 73
    15
 74
     0
 42
0.000000001
 43
0.00000001
 40
0.0
 40
0.0
 40
0.0
 40
0.0
 40
0.0889709576989538
 40
0.1722707767733144
 40
0.2503120304637098
 40
0.3246551996215511
 40
0.3978444501802941
 40
0.4733008807185328
 40
0.551825888744448
 40
0.6347494834982532
 40
0.7217660118923857
 40
0.8103926655611191
 40
0.9031752367994194
 40
1.0
 40
1.0
 40
1.0
 40
1.0
 10
228.9101864764638
 20
113.2812764798527
 30
0.0
 10
228.9245284139231
 20
113.2842910097819
 30
0.0
 10
228.9522981128276
 20
113.2901279191053
 30
0.0
 10
228.9914467253374
 20
113.3031552917734
 30
0.0
 10
229.0273410537433
 20
113.3180788414839
 30
0.0
 10
229.059354616778
 20
113.3370450152365
 30
0.0
 10
229.0889984080666
 20
113.3589022312605
 30
0.0
 10
229.1147610689585
 20
113.3862029400664
 30
0.0
 10
229.1384897025397
 20
113.4172211678049
 30
0.0
 10
229.1590484744534
 20
113.4527180010674
 30
0.0
 10
229.1756732267613
 20
113.4919869561911
 30
0.0
 10
229.1883792405154
 20
113.5344213001518
 30
0.0
 10
229.1951473889196
 20
113.5798722491796
 30
0.0
 10
229.1961439089964
 20
113.61107679402
 30
0.0
 10
229.1966527913176
 20
113.6270116874348
 30
0.0
  0
SPLINE
  5
126
330
1F
100
AcDbEntity
  8
0
  6
Continuous
 62
     7
370
     0
100
AcDbSpline
210
0.0
220
0.0
230
1.0
 70
     8
 71
     3
 72
    11
 73
     7
 74
     0
 42
0.000000001
 43
0.00000001
 40
0.0
 40
0.0
 40
0.0
 40
0.0
 40
0.3293954641291864
 40
0.6051903468528028
 40
0.8278865786947356
 40
1.0
 40
1.0
 40
1.0
 40
1.0
 10
228.7344377459429
 20
113.2713983310646
 30
0.0
 10
228.7537828966692
 20
113.2716205794623
 30
0.0
 10
228.7893252758239
 20
113.2720289110866
 30
0.0
 10
228.8379403065579
 20
113.2733098672649
 30
0.0
 10
228.8772362816086
 20
113.2764387640398
 30
0.0
 10
228.9001830544393
 20
113.279807787084
 30
0.0
 10
228.9101864764638
 20
113.2812764798527
 30
0.0
  0
LINE
  5
127
330
1F
100
AcDbEntity
  8
0
  6
Continuous
 62
     7
370
     0
100
AcDbLine
 10
228.2483505077
 20
113.2713983311
 30
0.0
 11
228.7344377459
 21
113.2713983311
 31
0.0
  0
LINE
  5
128
330
1F
100
AcDbEntity
  8
0
  6
Continuous
 62
     7
370
     0
100
AcDbLine
 10
228.2483505077
 20
113.9826250438
 30
0.0
 11
228.2483505077
 21
113.2713983311
 31
0.0
  0
LINE
  5
129
330
1F
100
AcDbEntity
  8
0
  6
Continuous
 62
     7
370
     0
100
AcDbLine
 10
228.6397721534
 20
114.8519021372
 30
0.0
 11
228.2483505077
 21
114.8519021372
 31
0.0
  0
SPLINE
  5
12A
330
1F
100
AcDbEntity
  8
0
  6
Continuous
 62
     7
370
     0
100
AcDbSpline
210
0.0
220
0.0
230
1.0
 70
     8
 71
     3
 72
    23
 73
    19
 74
     0
 42
0.000000001
 43
0.00000001
 40
0.0
 40
0.0
 40
0.0
 40
0.0
 40
0.076010519206233
 40
0.1481357362434485
 40
0.2177881778331537
 40
0.2867678984972342
 40
0.3540434632439191
 40
0.418610840023479
 40
0.4836364388553436
 40
0.5502295626461514
 40
0.586927811313815
 40
0.6291578250269649
 40
0.67723822428767
 40
0.7300426397437307
 40
0.7888625661169238
 40
0.853750451461094
 40
0.9241097665384563
 40
1.0
 40
1.0
 40
1.0
 40
1.0
 10
229.1176276010131
 20
114.5308623015424
 30
0.0
 10
229.1170956866061
 20
114.5477729237051
 30
0.0
 10
229.1160590467684
 20
114.5807297761324
 30
0.0
 10
229.10735738219
 20
114.6285888399124
 30
0.0
 10
229.0922994730957
 20
114.6731129104865
 30
0.0
 10
229.0719069406967
 20
114.7142922208625
 30
0.0
 10
229.0460845763165
 20
114.7509271318801
 30
0.0
 10
229.0152646836708
 20
114.7824245799848
 30
0.0
 10
228.9783446276967
 20
114.806235263987
 30
0.0
 10
228.9438354342811
 20
114.8210884177316
 30
0.0
 10
228.9127971497767
 20
114.8303804667976
 30
0.0
 10
228.8850655326595
 20
114.8358781897417
 30
0.0
 10
228.8536096075444
 20
114.8407222304054
 30
0.0
 10
228.8183258615848
 20
114.844840472708
 30
0.0
 10
228.7792009479418
 20
114.8480366081692
 30
0.0
 10
228.7361143159347
 20
114.8505757259855
 30
0.0
 10
228.6891685304442
 20
114.8516537737671
 30
0.0
 10
228.6566475754919
 20
114.8518172880774
 30
0.0
 10
228.6397721533907
 20
114.8519021371544
 30
0.0
  0
SPLINE
  5
12B
330
1F
100
AcDbEntity
  8
0
  6
Continuous
 62
     7
370
     0
100
AcDbSpline
210
0.0
220
0.0
230
1.0
 70
     8
 71
     3
 72
    15
 73
    11
 74
     0
 42
0.000000001
 43
0.00000001
 40
0.0
 40
0.0
 40
0.0
 40
0.0
 40
0.1323768784386554
 40
0.2551949197670693
 40
0.3737221416536682
 40
0.4900113154474162
 40
0.6078124214239341
 40
0.7311098159015431
 40
0.8599973777575842
 40
1.0
 40
1.0
 40
1.0
 40
1.0
 10
228.9188298566534
 20
114.2439843971558
 30
0.0
 10
228.9345641000824
 20
114.2494961038615
 30
0.0
 10
228.9648964287853
 20
114.2601215209823
 30
0.0
 10
229.005544586509
 20
114.2842529114809
 30
0.0
 10
229.0401650018905
 20
114.3132104623067
 30
0.0
 10
229.0686648998088
 20
114.3475054925542
 30
0.0
 10
229.0905656591652
 20
114.3869544695105
 30
0.0
 10
229.1068044400501
 20
114.4307393172016
 30
0.0
 10
229.1156955328955
 20
114.4794721072661
 30
0.0
 10
229.1169660716376
 20
114.5132665849031
 30
0.0
 10
229.1176276010131
 20
114.5308623015424
 30
0.0
  0
SPLINE
  5
12C
330
1F
100
AcDbEntity
  8
0
  6
Continuous
 62
     7
370
     0
100
AcDbSpline
210
0.0
220
0.0
230
1.0
 70
     8
 71
     3
 72
    15
 73
    11
 74
     0
 42
0.000000001
 43
0.00000001
 40
0.0
 40
0.0
 40
0.0
 40
0.0
 40
0.1669801744060311
 40
0.3208066328848162
 40
0.4631345048703153
 40
0.5942480539785179
 40
0.7123671525397409
 40
0.8194549510427486
 40
0.9157522665813508
 40
1.0
 40
1.0
 40
1.0
 40
1.0
 10
228.6718761369519
 20
114.2197006147184
 30
0.0
 10
228.6857349500751
 20
114.2197554454194
 30
0.0
 10
228.7123608605442
 20
114.2198607875813
 30
0.0
 10
228.7507681020398
 20
114.2213295716668
 30
0.0
 10
228.7862161449562
 20
114.2225826547902
 30
0.0
 10
228.8185678715256
 20
114.2257277966039
 30
0.0
 10
228.8479835548157
 20
114.2288083232962
 30
0.0
 10
228.8743454768314
 20
114.2329551924206
 30
0.0
 10
228.8977827597152
 20
114.2376277733659
 30
0.0
 10
228.9121334119989
 20
114.2419619434405
 30
0.0
 10
228.9188298566534
 20
114.2439843971558
 30
0.0
  0
LINE
  5
12D
330
1F
100
AcDbEntity
  8
0
  6
Continuous
 62
     7
370
     0
100
AcDbLine
 10
228.2483505077
 20
114.2197006147
 30
0.0
 11
228.671876137
 21
114.2197006147
 31
0.0
  0
LINE
  5
12E
330
1F
100
AcDbEntity
  8
0
  6
Continuous
 62
     7
370
     0
100
AcDbLine
 10
228.2483505077
 20
114.8519021372
 30
0.0
 11
228.2483505077
 21
114.2197006147
 31
0.0
  0
LINE
  5
12F
330
1F
100
AcDbEntity
  8
0
  6
Continuous
 62
     7
370
     0
100
AcDbLine
 10
228.1182882153
 20
111.9279700959
 30
0.0
 11
228.2878631028
 21
111.9279700959
 31
0.0
  0
SPLINE
  5
130
330
1F
100
AcDbEntity
  8
0
  6
Continuous
 62
     7
370
     0
100
AcDbSpline
210
0.0
220
0.0
230
1.0
 70
     8
 71
     3
 72
    15
 73
    11
 74
     0
 42
0.000000001
 43
0.00000001
 40
0.0
 40
0.0
 40
0.0
 40
0.0
 40
0.1426572507006137
 40
0.2811689939054434
 40
0.4169771923679737
 40
0.5508524927475577
 40
0.6783641702618117
 40
0.7950324430070942
 40
0.9019981783473516
 40
1.0
 40
1.0
 40
1.0
 40
1.0
 10
227.5502946599742
 20
111.4143063589092
 30
0.0
 10
227.5832110558933
 20
111.4312583687076
 30
0.0
 10
227.6480873231573
 20
111.4646697762337
 30
0.0
 10
227.7397434600189
 20
111.5223758701013
 30
0.0
 10
227.8253143233484
 20
111.5849316513684
 30
0.0
 10
227.9033833765804
 20
111.6523232701685
 30
0.0
 10
227.97336730814
 20
111.7212096021918
 30
0.0
 10
228.0323437835554
 20
111.7907186170222
 30
0.0
 10
228.0816915452752
 20
111.8583024144363
 30
0.0
 10
228.1064502521784
 20
111.9054346181343
 30
0.0
 10
228.1182882152876
 20
111.9279700958883
 30
0.0
  0
LINE
  5
131
330
1F
100
AcDbEntity
  8
0
  6
Continuous
 62
     7
370
     0
100
AcDbLine
 10
227.55029466
 20
111.1714685345
 30
0.0
 11
227.55029466
 21
111.4143063589
 31
0.0
  0
SPLINE
  5
132
330
1F
100
AcDbEntity
  8
0
  6
Continuous
 62
     7
370
     0
100
AcDbSpline
210
0.0
220
0.0
230
1.0
 70
     8
 71
     3
 72
    15
 73
    11
 74
     0
 42
0.000000001
 43
0.00000001
 40
0.0
 40
0.0
 40
0.0
 40
0.0
 40
0.1116703001015867
 40
0.2320944808560184
 40
0.3627434591045531
 40
0.5025575097108858
 40
0.6415251033312818
 40
0.7710984952996686
 40
0.8901617573732526
 40
1.0
 40
1.0
 40
1.0
 40
1.0
 10
228.0244458018011
 20
111.4743984307032
 30
0.0
 10
228.0092782103029
 20
111.4597711548032
 30
0.0
 10
227.9777540335843
 20
111.4293699648426
 30
0.0
 10
227.9244657431012
 20
111.3863446895841
 30
0.0
 10
227.8649892007481
 20
111.3427367493348
 30
0.0
 10
227.8000967472726
 20
111.3008028396361
 30
0.0
 10
227.7339498686747
 20
111.2613265858598
 30
0.0
 10
227.6700274266868
 20
111.22582376471
 30
0.0
 10
227.6093966337029
 20
111.1957797640258
 30
0.0
 10
227.5694588028932
 20
111.1793515855931
 30
0.0
 10
227.5502946599742
 20
111.171468534536
 30
0.0
  0
LINE
  5
133
330
1F
100
AcDbEntity
  8
0
  6
Continuous
 62
     7
370
     0
100
AcDbLine
 10
228.0244458018
 20
109.873315148
 30
0.0
 11
228.0244458018
 21
111.4743984307
 31
0.0
  0
LINE
  5
134
330
1F
100
AcDbEntity
  8
0
  6
Continuous
 62
     7
370
     0
100
AcDbLine
 10
228.2878631028
 20
109.873315148
 30
0.0
 11
228.0244458018
 21
109.873315148
 31
0.0
  0
LINE
  5
135
330
1F
100
AcDbEntity
  8
0
  6
Continuous
 62
     7
370
     0
100
AcDbLine
 10
228.2878631028
 20
111.9279700959
 30
0.0
 11
228.2878631028
 21
109.873315148
 31
0.0
  0
SPLINE
  5
136
330
1F
100
AcDbEntity
  8
0
  6
Continuous
 62
     7
370
     0
100
AcDbSpline
210
0.0
220
0.0
230
1.0
 70
     8
 71
     3
 72
    15
 73
    11
 74
     0
 42
0.000000001
 43
0.00000001
 40
0.0
 40
0.0
 40
0.0
 40
0.0
 40
0.1379032299933934
 40
0.2688733426002934
 40
0.395178127346113
 40
0.5170892381308877
 40
0.6367430265135474
 40
0.7562218164637968
 40
0.8766283594636795
 40
1.0
 40
1.0
 40
1.0
 40
1.0
 10
224.8634381896216
 20
109.8469734178702
 30
0.0
 10
224.8396774076838
 20
109.8476511954313
 30
0.0
 10
224.7933504227199
 20
109.8489726751271
 30
0.0
 10
224.7256932771343
 20
109.8579513156894
 30
0.0
 10
224.662193437211
 20
109.8737541446422
 30
0.0
 10
224.6023153181647
 20
109.8949479665668
 30
0.0
 10
224.5467319664254
 20
109.9232959238475
 30
0.0
 10
224.4951779935903
 20
109.9577867493774
 30
0.0
 10
224.4466174597412
 20
109.9976179776716
 30
0.0
 10
224.4186630642554
 20
110.0290439024828
 30
0.0
 10
224.4045158605096
 20
110.0449479831642
 30
0.0
  0
SPLINE
  5
137
330
1F
100
AcDbEntity
  8
0
  6
Continuous
 62
     7
370
     0
100
AcDbSpline
210
0.0
220
0.0
230
1.0
 70
     8
 71
     3
 72
    31
 73
    27
 74
     0
 42
0.000000001
 43
0.00000001
 40
0.0
 40
0.0
 40
0.0
 40
0.0
 40
0.0628739462114324
 40
0.1228366299919128
 40
0.1796565674430314
 40
0.233960012230862
 40
0.285595018695559
 40
0.3345131060783806
 40
0.3809048259061762
 40
0.4248945919393347
 40
0.4665290347654872
 40
0.5064882940692462
 40
0.5450315536447543
 40
0.5818311798231344
 40
0.617448279949443
 40
0.6520669127690459
 40
0.6858797142465104
 40
0.7191745547913921
 40
0.7521816462063927
 40
0.785240163918091
 40
0.8186564497770833
 40
0.8525477406533112
 40
0.887626342258519
 40
0.923635078068751
 40
0.9610218444769892
 40
1.0
 40
1.0
 40
1.0
 40
1.0
 10
225.521981442159
 20
110.8866485778136
 30
0.0
 10
225.521711077923
 20
110.8574235944706
 30
0.0
 10
225.5211828681696
 20
110.8003268368829
 30
0.0
 10
225.5180451518933
 20
110.7168547260041
 30
0.0
 10
225.5120769324163
 20
110.6375468567215
 30
0.0
 10
225.5047329293106
 20
110.5622215577811
 30
0.0
 10
225.4936229908941
 20
110.4910799122791
 30
0.0
 10
225.4816514303039
 20
110.4238196581854
 30
0.0
 10
225.4668455669786
 20
110.3607462162891
 30
0.0
 10
225.4495706005295
 20
110.3018319431262
 30
0.0
 10
225.4301150655896
 20
110.2467653212365
 30
0.0
 10
225.4087790609486
 20
110.1951301877033
 30
0.0
 10
225.3851473871451
 20
110.1469618254638
 30
0.0
 10
225.3585166763137
 20
110.1027300445638
 30
0.0
 10
225.3301054041146
 20
110.0618477421657
 30
0.0
 10
225.2997054881861
 20
110.024161559563
 30
0.0
 10
225.2666724147206
 20
109.9902139098542
 30
0.0
 10
225.2310395625481
 20
109.9601953374367
 30
0.0
 10
225.1935292922268
 20
109.9331548338824
 30
0.0
 10
225.1533954348615
 20
109.9100023528198
 30
0.0
 10
225.1108136500904
 20
109.8908209243989
 30
0.0
 10
225.0660684432142
 20
109.8744217560607
 30
0.0
 10
225.0187058095571
 20
109.8624054073641
 30
0.0
 10
224.9690992464404
 20
109.8532070802055
 30
0.0
 10
224.9170659770622
 20
109.8477904390575
 30
0.0
 10
224.8815607530675
 20
109.847249515748
 30
0.0
 10
224.8634381896216
 20
109.8469734178702
 30
0.0
  0
SPLINE
  5
138
330
1F
100
AcDbEntity
  8
0
  6
Continuous
 62
     7
370
     0
100
AcDbSpline
210
0.0
220
0.0
230
1.0
 70
     8
 71
     3
 72
    27
 73
    23
 74
     0
 42
0.000000001
 43
0.00000001
 40
0.0
 40
0.0
 40
0.0
 40
0.0
 40
0.0567243372181508
 40
0.1114372357370108
 40
0.1643678222229014
 40
0.21643537246209
 40
0.267641490321925
 40
0.317359779969028
 40
0.3674730633322807
 40
0.4182103970528082
 40
0.4714042826470199
 40
0.5279657201290493
 40
0.5880611158232139
 40
0.6521342629937146
 40
0.6863448363353056
 40
0.7232636803169653
 40
0.762610250771542
 40
0.8047389366452182
 40
0.84943033879095
 40
0.8967112583864923
 40
0.9468896380534765
 40
1.0
 40
1.0
 40
1.0
 40
1.0
 10
224.8634381896216
 20
111.9279700958883
 30
0.0
 10
224.8898253787309
 20
111.9271943312035
 30
0.0
 10
224.9416640701537
 20
111.9256703103635
 30
0.0
 10
225.0173488273317
 20
111.9132406729381
 30
0.0
 10
225.0886768329769
 20
111.8919778624306
 30
0.0
 10
225.1556017458036
 20
111.8632934137839
 30
0.0
 10
225.2169794947952
 20
111.826858643206
 30
0.0
 10
225.2717924116284
 20
111.7825666285575
 30
0.0
 10
225.3194492504571
 20
111.7308824272451
 30
0.0
 10
225.3594299106295
 20
111.6711935984306
 30
0.0
 10
225.3943769983477
 20
111.6051467586181
 30
0.0
 10
225.4254232239229
 20
111.5324454652255
 30
0.0
 10
225.4534881100975
 20
111.453171188262
 30
0.0
 10
225.4734035642812
 20
111.3822096435866
 30
0.0
 10
225.487609241398
 20
111.3209531202914
 30
0.0
 10
225.4970122709642
 20
111.2704304727109
 30
0.0
 10
225.5048186706186
 20
111.215916251542
 30
0.0
 10
225.5107994277485
 20
111.1575423413605
 30
0.0
 10
225.5157064978603
 20
111.095374213701
 30
0.0
 10
225.5194960032184
 20
111.0293731614978
 30
0.0
 10
225.5214195651925
 20
110.9593742263502
 30
0.0
 10
225.5217906387056
 20
110.911344918321
 30
0.0
 10
225.521981442159
 20
110.8866485778136
 30
0.0
  0
SPLINE
  5
139
330
1F
100
AcDbEntity
  8
0
  6
Continuous
 62
     7
370
     0
100
AcDbSpline
210
0.0
220
0.0
230
1.0
 70
     8
 71
     3
 72
    31
 73
    27
 74
     0
 42
0.000000001
 43
0.00000001
 40
0.0
 40
0.0
 40
0.0
 40
0.0
 40
0.0631144583947934
 40
0.12361464576949
 40
0.1809737111859576
 40
0.2352614550083222
 40
0.287100701833872
 40
0.3360307363034437
 40
0.3823823485850664
 40
0.4263340836597074
 40
0.4682106947981604
 40
0.5082496012618052
 40
0.546628336606585
 40
0.5836495392304464
 40
0.6189943150301618
 40
0.6535830186205961
 40
0.6871561361903314
 40
0.7204221919788076
 40
0.7532302188118171
 40
0.7862601560779001
 40
0.8195039834988842
 40
0.8535452747120186
 40
0.8883082803397301
 40
0.9239958607406951
 40
0.9613503047546451
 40
1.0
 40
1.0
 40
1.0
 40
1.0
 10
224.2048949370842
 20
110.8866485778136
 30
0.0
 10
224.2051603300725
 20
110.9160114830157
 30
0.0
 10
224.2056801231767
 20
110.9735210492489
 30
0.0
 10
224.208904230942
 20
111.0576678758951
 30
0.0
 10
224.2145332618469
 20
111.1375786329345
 30
0.0
 10
224.2229358553496
 20
111.2131839216084
 30
0.0
 10
224.232886100292
 20
111.2846543979108
 30
0.0
 10
224.2458214814907
 20
111.3518880661012
 30
0.0
 10
224.2603756658345
 20
111.4150357757457
 30
0.0
 10
224.2778380752578
 20
111.4740317055867
 30
0.0
 10
224.2970235466033
 20
111.529383113227
 30
0.0
 10
224.3187900759214
 20
111.5810012025122
 30
0.0
 10
224.3432803741155
 20
111.6288312461184
 30
0.0
 10
224.3692908952514
 20
111.6733692684241
 30
0.0
 10
224.3981908864847
 20
111.7139225198832
 30
0.0
 10
224.4282360022938
 20
111.7516290907464
 30
0.0
 10
224.4616097423042
 20
111.7851061339321
 30
0.0
 10
224.4969243548147
 20
111.8152150167953
 30
0.0
 10
224.5346998566504
 20
111.841784351268
 30
0.0
 10
224.574736377903
 20
111.8647104822014
 30
0.0
 10
224.6168798689298
 20
111.8849526027517
 30
0.0
 10
224.6619335380648
 20
111.9001908658138
 30
0.0
 10
224.7089620797955
 20
111.9126132805762
 30
0.0
 10
224.7583274954482
 20
111.9217513594973
 30
0.0
 10
224.8100841849493
 20
111.9271385654145
 30
0.0
 10
224.845452606936
 20
111.9276897877806
 30
0.0
 10
224.8634381896216
 20
111.9279700958883
 30
0.0
  0
SPLINE
  5
13A
330
1F
100
AcDbEntity
  8
0
  6
Continuous
 62
     7
370
     0
100
AcDbSpline
210
0.0
220
0.0
230
1.0
 70
     8
 71
     3
 72
    15
 73
    11
 74
     0
 42
0.000000001
 43
0.00000001
 40
0.0
 40
0.0
 40
0.0
 40
0.0
 40
0.0974206681772145
 40
0.2008855880393206
 40
0.3111719701726505
 40
0.4297979458253729
 40
0.5577399263645872
 40
0.6947152693641585
 40
0.8421299102060551
 40
1.0
 40
1.0
 40
1.0
 40
1.0
 10
224.4045158605096
 20
110.0449479831642
 30
0.0
 10
224.3882321035909
 20
110.0684375414122
 30
0.0
 10
224.3546542997707
 20
110.1168740160301
 30
0.0
 10
224.3153543917612
 20
110.1994626983129
 30
0.0
 10
224.2802981780211
 20
110.2903812418126
 30
0.0
 10
224.2527854776092
 20
110.3914134575745
 30
0.0
 10
224.2312361748401
 20
110.5017552433729
 30
0.0
 10
224.2156721980439
 20
110.6216231132958
 30
0.0
 10
224.2068645194352
 20
110.7509652804691
 30
0.0
 10
224.2055662852574
 20
110.8403998216947
 30
0.0
 10
224.2048949370842
 20
110.8866485778136
 30
0.0
  0
LINE
  5
13B
330
1F
100
AcDbEntity
  8
0
  6
Continuous
 62
     7
370
     0
100
AcDbLine
 10
221.2809628958
 20
110.7952757015
 30
0.0
 11
221.2809628958
 21
109.873315148
 31
0.0
  0
LINE
  5
13C
330
1F
100
AcDbEntity
  8
0
  6
Continuous
 62
     7
370
     0
100
AcDbLine
 10
222.2029234494
 20
110.7952757015
 30
0.0
 11
221.2809628958
 21
110.7952757015
 31
0.0
  0
LINE
  5
13D
330
1F
100
AcDbEntity
  8
0
  6
Continuous
 62
     7
370
     0
100
AcDbLine
 10
222.2029234494
 20
111.0323512724
 30
0.0
 11
222.2029234494
 21
110.7952757015
 31
0.0
  0
LINE
  5
13E
330
1F
100
AcDbEntity
  8
0
  6
Continuous
 62
     7
370
     0
100
AcDbLine
 10
221.2809628958
 20
111.0323512724
 30
0.0
 11
222.2029234494
 21
111.0323512724
 31
0.0
  0
LINE
  5
13F
330
1F
100
AcDbEntity
  8
0
  6
Continuous
 62
     7
370
     0
100
AcDbLine
 10
221.2809628958
 20
111.690894525
 30
0.0
 11
221.2809628958
 21
111.0323512724
 31
0.0
  0
LINE
  5
140
330
1F
100
AcDbEntity
  8
0
  6
Continuous
 62
     7
370
     0
100
AcDbLine
 10
222.36097383
 20
111.690894525
 30
0.0
 11
221.2809628958
 21
111.690894525
 31
0.0
  0
LINE
  5
141
330
1F
100
AcDbEntity
  8
0
  6
Continuous
 62
     7
370
     0
100
AcDbLine
 10
222.36097383
 20
111.9279700959
 30
0.0
 11
222.36097383
 21
111.690894525
 31
0.0
  0
LINE
  5
142
330
1F
100
AcDbEntity
  8
0
  6
Continuous
 62
     7
370
     0
100
AcDbLine
 10
220.9912038647
 20
111.9279700959
 30
0.0
 11
222.36097383
 21
111.9279700959
 31
0.0
  0
LINE
  5
143
330
1F
100
AcDbEntity
  8
0
  6
Continuous
 62
     7
370
     0
100
AcDbLine
 10
220.9912038647
 20
109.873315148
 30
0.0
 11
220.9912038647
 21
111.9279700959
 31
0.0
  0
LINE
  5
144
330
1F
100
AcDbEntity
  8
0
  6
Continuous
 62
     7
370
     0
100
AcDbLine
 10
221.2809628958
 20
109.873315148
 30
0.0
 11
220.9912038647
 21
109.873315148
 31
0.0
  0
SPLINE
  5
145
330
1F
100
AcDbEntity
  8
0
  6
Continuous
 62
     7
370
     0
100
AcDbSpline
210
0.0
220
0.0
230
1.0
 70
     8
 71
     3
 72
    23
 73
    19
 74
     0
 42
0.000000001
 43
0.00000001
 40
0.0
 40
0.0
 40
0.0
 40
0.0
 40
0.0748159666505558
 40
0.1485345605139198
 40
0.2238723272963845
 40
0.3012971209351246
 40
0.3408936290197578
 40
0.3803400620654405
 40
0.4201265887284641
 40
0.4599499070829662
 40
0.5008311555562168
 40
0.5419071755971083
 40
0.5844387941530511
 40
0.6280801713306066
 40
0.7172666799070601
 40
0.8078600064218678
 40
0.9019246558363443
 40
1.0
 40
1.0
 40
1.0
 40
1.0
 10
231.3566746596402
 20
113.6175451281796
 30
0.0
 10
231.3556023741401
 20
113.5906926153823
 30
0.0
 10
231.353473531025
 20
113.5373814524634
 30
0.0
 10
231.335143424029
 20
113.458798332762
 30
0.0
 10
231.3063477954099
 20
113.3826517284009
 30
0.0
 10
231.2725777880346
 20
113.3222252032655
 30
0.0
 10
231.2406549240471
 20
113.2760681196466
 30
0.0
 10
231.2138382124771
 20
113.2428925174273
 30
0.0
 10
231.1841000211202
 20
113.2122166177205
 30
0.0
 10
231.1521724740633
 20
113.1830794027958
 30
0.0
 10
231.1178076840131
 20
113.1560753670661
 30
0.0
 10
231.0807159344722
 20
113.1311953151621
 30
0.0
 10
231.0412887113036
 20
113.1081802479723
 30
0.0
 10
230.9849876280956
 20
113.0801350408581
 30
0.0
 10
230.910210436273
 20
113.0507970911089
 30
0.0
 10
230.8149593055304
 20
113.0263654400951
 30
0.0
 10
230.7145761508463
 20
113.0105160239665
 30
0.0
 10
230.64564688031
 20
113.0088377056574
 30
0.0
 10
230.6104628366088
 20
113.0079810300496
 30
0.0
  0
SPLINE
  5
146
330
1F
100
AcDbEntity
  8
0
  6
Continuous
 62
     7
370
     0
100
AcDbSpline
210
0.0
220
0.0
230
1.0
 70
     8
 71
     3
 72
    23
 73
    19
 74
     0
 42
0.000000001
 43
0.00000001
 40
0.0
 40
0.0
 40
0.0
 40
0.0
 40
0.0749313059818448
 40
0.1470775964339468
 40
0.2163644561730687
 40
0.2825027309006236
 40
0.3466877108244161
 40
0.4088355551310383
 40
0.4692619872876918
 40
0.5284320432534629
 40
0.5870013379727416
 40
0.6444163938320668
 40
0.7021887902662972
 40
0.7597671795443348
 40
0.8184897928274487
 40
0.8776328274167842
 40
0.9380195662701677
 40
1.0
 40
1.0
 40
1.0
 40
1.0
 10
231.0002381242044
 20
114.1143336943125
 30
0.0
 10
231.0150110202049
 20
114.1075224405754
 30
0.0
 10
231.0440077393685
 20
114.0941530909394
 30
0.0
 10
231.0850854749205
 20
114.0713269376361
 30
0.0
 10
231.123415458731
 20
114.0476232062603
 30
0.0
 10
231.1586880101473
 20
114.0224037123199
 30
0.0
 10
231.1907890759656
 20
113.9956154072391
 30
0.0
 10
231.2200775836016
 20
113.9675652260592
 30
0.0
 10
231.2467304253627
 20
113.9384108153721
 30
0.0
 10
231.2696721616222
 20
113.9072190642882
 30
0.0
 10
231.2902714870225
 20
113.8752508838959
 30
0.0
 10
231.3082972684356
 20
113.8420594777907
 30
0.0
 10
231.3228112814523
 20
113.8074496536729
 30
0.0
 10
231.3355409761591
 20
113.7718386008408
 30
0.0
 10
231.3446972779643
 20
113.7348302207971
 30
0.0
 10
231.3518776653931
 20
113.6967983228979
 30
0.0
 10
231.3560658652983
 20
113.6575641461673
 30
0.0
 10
231.3564699738398
 20
113.6310001230229
 30
0.0
 10
231.3566746596402
 20
113.6175451281796
 30
0.0
  0
SPLINE
  5
147
330
1F
100
AcDbEntity
  8
0
  6
Continuous
 62
     7
370
     0
100
AcDbSpline
210
0.0
220
0.0
230
1.0
 70
     8
 71
     3
 72
    23
 73
    19
 74
     0
 42
0.000000001
 43
0.00000001
 40
0.0
 40
0.0
 40
0.0
 40
0.0
 40
0.0327432182311376
 40
0.0724096054938575
 40
0.1196114857927602
 40
0.174672915198513
 40
0.2373450901947012
 40
0.3083524168429162
 40
0.3876300477623597
 40
0.474783615586252
 40
0.5633323159904133
 40
0.6451362168299871
 40
0.7202025267224654
 40
0.7891341563324468
 40
0.8514970735699654
 40
0.9073306044315619
 40
0.9569686823424192
 40
0.9999999999999999
 40
0.9999999999999999
 40
0.9999999999999999
 40
0.9999999999999999
 10
230.1922878712476
 20
114.3900986813125
 30
0.0
 10
230.1994233482468
 20
114.3840169349645
 30
0.0
 10
230.2152030150735
 20
114.3705675284137
 30
0.0
 10
230.2445635176752
 20
114.3527688135655
 30
0.0
 10
230.2809661865138
 20
114.3347854805621
 30
0.0
 10
230.324654258264
 20
114.3169086559466
 30
0.0
 10
230.3755525660319
 20
114.2989213169307
 30
0.0
 10
230.4335790098409
 20
114.2804011394559
 30
0.0
 10
230.4989546055707
 20
114.2620071406655
 30
0.0
 10
230.5696870339179
 20
114.2442814794165
 30
0.0
 10
230.6411432796462
 20
114.2264845596471
 30
0.0
 10
230.7090507362032
 20
114.2087554691431
 30
0.0
 10
230.7714012759721
 20
114.1919531701208
 30
0.0
 10
230.8280959752958
 20
114.1755652797166
 30
0.0
 10
230.8791935149545
 20
114.15963813696
 30
0.0
 10
230.9245163122754
 20
114.1438380476799
 30
0.0
 10
230.9644310458299
 20
114.1293059733369
 30
0.0
 10
230.9888835356596
 20
114.1190814725624
 30
0.0
 10
231.0002381242044
 20
114.1143336943125
 30
0.0
  0
SPLINE
  5
148
330
1F
100
AcDbEntity
  8
0
  6
Continuous
 62
     7
370
     0
100
AcDbSpline
210
0.0
220
0.0
230
1.0
 70
     8
 71
     3
 72
    11
 73
     7
 74
     0
 42
0.000000001
 43
0.00000001
 40
0.0
 40
0.0
 40
0.0
 40
0.0
 40
0.2627412305282689
 40
0.5099565029432328
 40
0.7533267184204503
 40
1.0
 40
1.0
 40
1.0
 40
1.0
 10
230.11861334487
 20
114.5716096652931
 30
0.0
 10
230.1193621504107
 20
114.5539323172467
 30
0.0
 10
230.1208155129232
 20
114.519622214592
 30
0.0
 10
230.1356564691176
 20
114.4708779012115
 30
0.0
 10
230.1584819635794
 20
114.4264443012525
 30
0.0
 10
230.1809687124839
 20
114.4022682064294
 30
0.0
 10
230.1922878712476
 20
114.3900986813125
 30
0.0
  0
SPLINE
  5
149
330
1F
100
AcDbEntity
  8
0
  6
Continuous
 62
     7
370
     0
100
AcDbSpline
210
0.0
220
0.0
230
1.0
 70
     8
 71
     3
 72
    23
 73
    19
 74
     0
 42
0.000000001
 43
0.00000001
 40
0.0
 40
0.0
 40
0.0
 40
0.0
 40
0.0915110363280374
 40
0.1771428603141494
 40
0.257108485228235
 40
0.3311983993883849
 40
0.4005922945239579
 40
0.4656249598049641
 40
0.5269734913138601
 40
0.585443115704023
 40
0.6413985080863307
 40
0.695044167265724
 40
0.7467815514927484
 40
0.7969589345766992
 40
0.8475448623598799
 40
0.8974385414187387
 40
0.9476489188871285
 40
1.0
 40
1.0
 40
1.0
 40
1.0
 10
230.5536634810775
 20
114.8782438672558
 30
0.0
 10
230.5354037684772
 20
114.8781062341743
 30
0.0
 10
230.5000574556352
 20
114.8778398103777
 30
0.0
 10
230.4489603520244
 20
114.8729832374676
 30
0.0
 10
230.4015999417894
 20
114.8663198471662
 30
0.0
 10
230.3580575714622
 20
114.856490779856
 30
0.0
 10
230.3184758801625
 20
114.8436244977453
 30
0.0
 10
230.2822674188547
 20
114.8287668942856
 30
0.0
 10
230.2504455197393
 20
114.8099384302193
 30
0.0
 10
230.2222683594443
 20
114.7889659701059
 30
0.0
 10
230.1979619899087
 20
114.7657611015229
 30
0.0
 10
230.1770134999506
 20
114.7413087804319
 30
0.0
 10
230.1584861785867
 20
114.7163274336048
 30
0.0
 10
230.14409004121
 20
114.6894515642514
 30
0.0
 10
230.1323694215997
 20
114.6616990023594
 30
0.0
 10
230.1248083340855
 20
114.6325480906612
 30
0.0
 10
230.1194549074966
 20
114.6025380452901
 30
0.0
 10
230.1188977422042
 20
114.5820615895409
 30
0.0
 10
230.11861334487
 20
114.5716096652931
 30
0.0
  0
SPLINE
  5
14A
330
1F
100
AcDbEntity
  8
0
  6
Continuous
 62
     7
370
     0
100
AcDbSpline
210
0.0
220
0.0
230
1.0
 70
     8
 71
     3
 72
    23
 73
    19
 74
     0
 42
0.000000001
 43
0.00000001
 40
0.0
 40
0.0
 40
0.0
 40
0.0
 40
0.0671554674490457
 40
0.1314033464826145
 40
0.1927317719102095
 40
0.2512526591565258
 40
0.3077037298841911
 40
0.3626989162982004
 40
0.4177783327854311
 40
0.4723043857981145
 40
0.5278725997916965
 40
0.5852299868117377
 40
0.6450565760102913
 40
0.707952356429442
 40
0.7744342720454274
 40
0.8449404313752613
 40
0.9204035944750272
 40
1.0
 40
1.0
 40
1.0
 40
1.0
 10
231.0142321683208
 20
114.5094596458349
 30
0.0
 10
231.0123910821364
 20
114.5241722570865
 30
0.0
 10
231.0087886221287
 20
114.5529604768309
 30
0.0
 10
230.9998513970563
 20
114.5946357559006
 30
0.0
 10
230.9873232059202
 20
114.6333418797655
 30
0.0
 10
230.9726488546255
 20
114.6694398092343
 30
0.0
 10
230.954860468669
 20
114.7025540861132
 30
0.0
 10
230.9341243579307
 20
114.733002679903
 30
0.0
 10
230.9101880005707
 20
114.760426854215
 30
0.0
 10
230.883667304246
 20
114.7855512608695
 30
0.0
 10
230.853755249041
 20
114.8074276056974
 30
0.0
 10
230.8206055323953
 20
114.826416944613
 30
0.0
 10
230.7841621965303
 20
114.8424585877438
 30
0.0
 10
230.7444573479576
 20
114.8555972166655
 30
0.0
 10
230.7014831258927
 20
114.8657843956099
 30
0.0
 10
230.6551417849677
 20
114.873278278917
 30
0.0
 10
230.6054512368318
 20
114.8771162320828
 30
0.0
 10
230.5712301303954
 20
114.8778613681235
 30
0.0
 10
230.5536634810775
 20
114.8782438672558
 30
0.0
  0
LINE
  5
14B
330
1F
100
AcDbEntity
  8
0
  6
Continuous
 62
     7
370
     0
100
AcDbLine
 10
231.3039911994
 20
114.5094596458
 30
0.0
 11
231.0142321683
 21
114.5094596458
 31
0.0
  0
SPLINE
  5
14C
330
1F
100
AcDbEntity
  8
0
  6
Continuous
 62
     7
370
     0
100
AcDbSpline
210
0.0
220
0.0
230
1.0
 70
     8
 71
     3
 72
    23
 73
    19
 74
     0
 42
0.000000001
 43
0.00000001
 40
0.0
 40
0.0
 40
0.0
 40
0.0
 40
0.1004750608070147
 40
0.1956443031597846
 40
0.2860833790699328
 40
0.3729828804699541
 40
0.4150256681909618
 40
0.4560516735090278
 40
0.4959387495188997
 40
0.5355660888033515
 40
0.574087109908504
 40
0.6125192874870975
 40
0.6510809601344449
 40
0.6895131377130385
 40
0.7662374603277345
 40
0.8423504388672224
 40
0.9199744947371037
 40
1.0
 40
1.0
 40
1.0
 40
1.0
 10
230.5421389741581
 20
115.1153194381693
 30
0.0
 10
230.578672741976
 20
115.1144823226741
 30
0.0
 10
230.649811027329
 20
115.1128522975075
 30
0.0
 10
230.7531769666853
 20
115.0992907850494
 30
0.0
 10
230.8495890907159
 20
115.0760020995583
 30
0.0
 10
230.9251987863309
 20
115.049932752702
 30
0.0
 10
230.9810961500933
 20
115.0235410761348
 30
0.0
 10
231.0208071937472
 20
115.002947918891
 30
0.0
 10
231.0576668949328
 20
114.9791384777379
 30
0.0
 10
231.0920070653045
 20
114.9533729376091
 30
0.0
 10
231.1241466785727
 20
114.9256630655116
 30
0.0
 10
231.1532596745072
 20
114.8953497351674
 30
0.0
 10
231.1806102205909
 20
114.8634671825525
 30
0.0
 10
231.2127509235358
 20
114.8176938263234
 30
0.0
 10
231.2474054152022
 20
114.7571130483167
 30
0.0
 10
231.2773689403628
 20
114.6786282441567
 30
0.0
 10
231.2979542316536
 20
114.5957939773819
 30
0.0
 10
231.3019585445001
 20
114.5385285280208
 30
0.0
 10
231.3039911994373
 20
114.5094596458349
 30
0.0
  0
SPLINE
  5
14D
330
1F
100
AcDbEntity
  8
0
  6
Continuous
 62
     7
370
     0
100
AcDbSpline
210
0.0
220
0.0
230
1.0
 70
     8
 71
     3
 72
    23
 73
    19
 74
     0
 42
0.000000001
 43
0.00000001
 40
0.0
 40
0.0
 40
0.0
 40
0.0
 40
0.0749954673898322
 40
0.1491654404266558
 40
0.2236642943382247
 40
0.3004120221906725
 40
0.3395704846106348
 40
0.3789205746932795
 40
0.4180957375990935
 40
0.4582296767501551
 40
0.4984267212184583
 40
0.5397075464534797
 40
0.5822159516458436
 40
0.6258238199943749
 40
0.7154812648736979
 40
0.8073840844133601
 40
0.9016341255073719
 40
1.0
 40
1.0
 40
1.0
 40
1.0
 10
229.8288543137535
 20
114.5526765467827
 30
0.0
 10
229.8298322182866
 20
114.5781490057085
 30
0.0
 10
229.8317772633066
 20
114.6288135416688
 30
0.0
 10
229.8490308785998
 20
114.7031605897434
 30
0.0
 10
229.8765507250783
 20
114.7747022255742
 30
0.0
 10
229.9078766680398
 20
114.8315001796664
 30
0.0
 10
229.9384263849909
 20
114.8744505383687
 30
0.0
 10
229.9637523323881
 20
114.9053826015598
 30
0.0
 10
229.99216033575
 20
114.9339751355109
 30
0.0
 10
230.0227755273255
 20
114.9606272727096
 30
0.0
 10
230.0561451846865
 20
114.9849407993772
 30
0.0
 10
230.0914414033053
 20
115.0079149709028
 30
0.0
 10
230.1299417091486
 20
115.0276618226487
 30
0.0
 10
230.1840403644543
 20
115.0527951078017
 30
0.0
 10
230.2564113300103
 20
115.0778930433386
 30
0.0
 10
230.3475173237767
 20
115.0997627106358
 30
0.0
 10
230.4434033907048
 20
115.1126413030236
 30
0.0
 10
230.5087615864965
 20
115.114414099366
 30
0.0
 10
230.5421389741581
 20
115.1153194381693
 30
0.0
  0
SPLINE
  5
14E
330
1F
100
AcDbEntity
  8
0
  6
Continuous
 62
     7
370
     0
100
AcDbSpline
210
0.0
220
0.0
230
1.0
 70
     8
 71
     3
 72
    15
 73
    11
 74
     0
 42
0.000000001
 43
0.00000001
 40
0.0
 40
0.0
 40
0.0
 40
0.0
 40
0.1448052410584836
 40
0.2795118010254855
 40
0.4063939211311607
 40
0.5275015404829176
 40
0.6453932904726505
 40
0.7618854106740867
 40
0.8789420729184868
 40
1.0
 40
1.0
 40
1.0
 40
1.0
 10
230.1321957994535
 20
114.1085714408528
 30
0.0
 10
230.1080132554556
 20
114.1216355477285
 30
0.0
 10
230.061334651996
 20
114.1468526739523
 30
0.0
 10
229.9985104216021
 20
114.1919409661994
 30
0.0
 10
229.9455746297526
 20
114.2419747716972
 30
0.0
 10
229.9027506021498
 20
114.2968815393256
 30
0.0
 10
229.8691910874562
 20
114.3557326638209
 30
0.0
 10
229.8465486296316
 20
114.4186281926477
 30
0.0
 10
229.8310404151547
 20
114.4844264544563
 30
0.0
 10
229.8295911321122
 20
114.5296730754069
 30
0.0
 10
229.8288543137535
 20
114.5526765467827
 30
0.0
  0
SPLINE
  5
14F
330
1F
100
AcDbEntity
  8
0
  6
Continuous
 62
     7
370
     0
100
AcDbSpline
210
0.0
220
0.0
230
1.0
 70
     8
 71
     3
 72
    23
 73
    19
 74
     0
 42
0.000000001
 43
0.00000001
 40
0.0
 40
0.0
 40
0.0
 40
0.0
 40
0.031200111153937
 40
0.0704867190162008
 40
0.1172148300204118
 40
0.1715755269954925
 40
0.2341219784876085
 40
0.3039626396728072
 40
0.3821556401561973
 40
0.4676462220680265
 40
0.5543353814021611
 40
0.6350744656665043
 40
0.7100366878785244
 40
0.7790924037748317
 40
0.8429656453505103
 40
0.9010012068505269
 40
0.953246256459026
 40
1.0
 40
1.0
 40
1.0
 40
1.0
 10
230.8479499970551
 20
113.8809624291945
 30
0.0
 10
230.8407113487812
 20
113.883932931566
 30
0.0
 10
230.8243579273325
 20
113.8906438360547
 30
0.0
 10
230.7963289303637
 20
113.8995279181312
 30
0.0
 10
230.7630689758193
 20
113.9110159427682
 30
0.0
 10
230.7237790200211
 20
113.9228467384447
 30
0.0
 10
230.6786693993728
 20
113.9353620656454
 30
0.0
 10
230.6278152168572
 20
113.9495275185605
 30
0.0
 10
230.5712448889616
 20
113.9645917023756
 30
0.0
 10
230.5105628478721
 20
113.9806258851804
 30
0.0
 10
230.4492924780897
 20
113.9969301902294
 30
0.0
 10
230.3907557977158
 20
114.013249763948
 30
0.0
 10
230.3368992689368
 20
114.0298162217321
 30
0.0
 10
230.2872817340751
 20
114.0457674333787
 30
0.0
 10
230.2421589940978
 20
114.0617844545812
 30
0.0
 10
230.201402980317
 20
114.0774287737177
 30
0.0
 10
230.1649628798682
 20
114.0923829883126
 30
0.0
 10
230.1427066537349
 20
114.1033785929232
 30
0.0
 10
230.1321957994535
 20
114.1085714408528
 30
0.0
  0
SPLINE
  5
150
330
1F
100
AcDbEntity
  8
0
  6
Continuous
 62
     7
370
     0
100
AcDbSpline
210
0.0
220
0.0
230
1.0
 70
     8
 71
     3
 72
    15
 73
    11
 74
     0
 42
0.000000001
 43
0.00000001
 40
0.0
 40
0.0
 40
0.0
 40
0.0
 40
0.1177675192120365
 40
0.2301764485440569
 40
0.3398429589695383
 40
0.4506252599208613
 40
0.5669428888721608
 40
0.6960213064547938
 40
0.8394383602270619
 40
1.0
 40
1.0
 40
1.0
 40
1.0
 10
231.0669156285238
 20
113.6035510840632
 30
0.0
 10
231.0662219334087
 20
113.6184035984916
 30
0.0
 10
231.0648661072943
 20
113.6474328167852
 30
0.0
 10
231.0560305640102
 20
113.6896957323727
 30
0.0
 10
231.0392373654694
 20
113.7283785760223
 30
0.0
 10
231.0174462604883
 20
113.7650602010979
 30
0.0
 10
230.9871311128189
 20
113.798597600069
 30
0.0
 10
230.9488313448674
 20
113.8294993216901
 30
0.0
 10
230.9017031166351
 20
113.8575151217637
 30
0.0
 10
230.866528984505
 20
113.8728582068928
 30
0.0
 10
230.8479499970551
 20
113.8809624291945
 30
0.0
  0
SPLINE
  5
151
330
1F
100
AcDbEntity
  8
0
  6
Continuous
 62
     7
370
     0
100
AcDbSpline
210
0.0
220
0.0
230
1.0
 70
     8
 71
     3
 72
    19
 73
    15
 74
     0
 42
0.000000001
 43
0.00000001
 40
0.0
 40
0.0
 40
0.0
 40
0.0
 40
0.1055838864195047
 40
0.2058681332620123
 40
0.300946717742213
 40
0.3930019285950109
 40
0.4809485116065869
 40
0.5628738662802266
 40
0.6414613436333617
 40
0.7177416181792269
 40
0.7917717603087844
 40
0.8627163930302565
 40
0.9317768462002766
 40
1.0
 40
1.0
 40
1.0
 40
1.0
 10
230.5977035610909
 20
113.2450566009631
 30
0.0
 10
230.6209311429926
 20
113.2454865187648
 30
0.0
 10
230.6662204299137
 20
113.2463247752289
 30
0.0
 10
230.7317364456629
 20
113.2563943121463
 30
0.0
 10
230.7933872068541
 20
113.2706776797526
 30
0.0
 10
230.8500253285298
 20
113.292283509467
 30
0.0
 10
230.9014418784222
 20
113.3185197612606
 30
0.0
 10
230.9460913917374
 20
113.3502531230501
 30
0.0
 10
230.9842107711364
 20
113.3860396380441
 30
0.0
 10
231.0140610082558
 20
113.4268219032156
 30
0.0
 10
231.0375107585057
 20
113.4695548972038
 30
0.0
 10
231.0547135744548
 20
113.5134800077709
 30
0.0
 10
231.0649609393538
 20
113.558353430414
 30
0.0
 10
231.0662667201406
 20
113.5885465826796
 30
0.0
 10
231.0669156285238
 20
113.6035510840632
 30
0.0
  0
SPLINE
  5
152
330
1F
100
AcDbEntity
  8
0
  6
Continuous
 62
     7
370
     0
100
AcDbSpline
210
0.0
220
0.0
230
1.0
 70
     8
 71
     3
 72
    19
 73
    15
 74
     0
 42
0.000000001
 43
0.00000001
 40
0.0
 40
0.0
 40
0.0
 40
0.0
 40
0.0937964706969321
 40
0.1801880710186108
 40
0.2603631916661888
 40
0.3348466760639746
 40
0.4070930058327162
 40
0.4814483792884682
 40
0.5592709137563652
 40
0.6422698113109349
 40
0.7285859445716476
 40
0.8159775452756135
 40
0.9060351298875359
 40
1.0
 40
1.0
 40
1.0
 40
1.0
 10
230.0395881545655
 20
113.7455494728915
 30
0.0
 10
230.0427753358044
 20
113.7195330963871
 30
0.0
 10
230.0488980825896
 20
113.6695542361763
 30
0.0
 10
230.0660178941487
 20
113.5987167254878
 30
0.0
 10
230.0880521962488
 20
113.5350265334872
 30
0.0
 10
230.1155063292205
 20
113.4776383788868
 30
0.0
 10
230.1516211950915
 20
113.4272403422019
 30
0.0
 10
230.1951333961967
 20
113.381782082753
 30
0.0
 10
230.2479765962961
 20
113.3424179826896
 30
0.0
 10
230.3076245232427
 20
113.3073865126984
 30
0.0
 10
230.3740556673687
 20
113.2798812681092
 30
0.0
 10
230.4449768384791
 20
113.2594911775451
 30
0.0
 10
230.5200498044132
 20
113.247409886416
 30
0.0
 10
230.5714551515123
 20
113.2458520550797
 30
0.0
 10
230.5977035610909
 20
113.2450566009631
 30
0.0
  0
LINE
  5
153
330
1F
100
AcDbEntity
  8
0
  6
Continuous
 62
     7
370
     0
100
AcDbLine
 10
229.7498291234
 20
113.7455494729
 30
0.0
 11
230.0395881546
 21
113.7455494729
 31
0.0
  0
SPLINE
  5
154
330
1F
100
AcDbEntity
  8
0
  6
Continuous
 62
     7
370
     0
100
AcDbSpline
210
0.0
220
0.0
230
1.0
 70
     8
 71
     3
 72
    31
 73
    27
 74
     0
 42
0.000000001
 43
0.00000001
 40
0.0
 40
0.0
 40
0.0
 40
0.0
 40
0.0524925849212958
 40
0.1028254751380329
 40
0.1513973394924577
 40
0.1980330772483325
 40
0.2428758954632244
 40
0.2859991683849086
 40
0.3278486614843783
 40
0.3683945968796912
 40
0.4078519911389193
 40
0.4468375528599373
 40
0.4851660451611073
 40
0.5233414044713736
 40
0.5616022144094737
 40
0.5999198855663566
 40
0.6384964264110082
 40
0.6777905770472508
 40
0.7172899891758322
 40
0.7566052415928194
 40
0.7960678905323556
 40
0.8358862309537683
 40
0.8757136832726162
 40
0.9162634539474125
 40
0.9577596754778291
 40
1.0
 40
1.0
 40
1.0
 40
1.0
 10
230.6104628366088
 20
113.0079810300496
 30
0.0
 10
230.5880920913792
 20
113.0081656436433
 30
0.0
 10
230.5442709972023
 20
113.0085272753008
 30
0.0
 10
230.4798807935396
 20
113.0129067487691
 30
0.0
 10
230.4181744845169
 20
113.0192418723724
 30
0.0
 10
230.3592126262764
 20
113.0286781095035
 30
0.0
 10
230.3031801173859
 20
113.0410579402319
 30
0.0
 10
230.2498758265596
 20
113.0559237243395
 30
0.0
 10
230.1991734075581
 20
113.0730447395617
 30
0.0
 10
230.1512500162771
 20
113.0931787567144
 30
0.0
 10
230.1062307528001
 20
113.1165722852696
 30
0.0
 10
230.0633061252627
 20
113.1418079836194
 30
0.0
 10
230.0231777652349
 20
113.1704138303597
 30
0.0
 10
229.985761197519
 20
113.2019403282363
 30
0.0
 10
229.9501083658941
 20
113.235476704823
 30
0.0
 10
229.9176969741318
 20
113.2723925581893
 30
0.0
 10
229.8874251177101
 20
113.3116083357682
 30
0.0
 10
229.8599844997935
 20
113.3534829552875
 30
0.0
 10
229.8354704852506
 20
113.3974685581948
 30
0.0
 10
229.8134254020611
 20
113.4428264535833
 30
0.0
 10
229.794852111018
 20
113.4898856775607
 30
0.0
 10
229.7798838057705
 20
113.5384083938335
 30
0.0
 10
229.767204893377
 20
113.5880698877812
 30
0.0
 10
229.7584123606599
 20
113.6392844980185
 30
0.0
 10
229.7519477944475
 20
113.6918914291613
 30
0.0
 10
229.7505395185408
 20
113.7275578116441
 30
0.0
 10
229.749829123449
 20
113.7455494728915
 30
0.0
  0
LINE
  5
155
330
1F
100
AcDbEntity
  8
0
  6
Continuous
 62
     7
370
     0
100
AcDbLine
 10
226.322111494
 20
113.6665242826
 30
0.0
 11
226.0883286393
 21
113.0343227602
 31
0.0
  0
LINE
  5
156
330
1F
100
AcDbEntity
  8
0
  6
Continuous
 62
     7
370
     0
100
AcDbLine
 10
227.1979740199
 20
113.6665242826
 30
0.0
 11
226.322111494
 21
113.6665242826
 31
0.0
  0
LINE
  5
157
330
1F
100
AcDbEntity
  8
0
  6
Continuous
 62
     7
370
     0
100
AcDbLine
 10
227.4317568745
 20
113.0343227602
 30
0.0
 11
227.1979740199
 21
113.6665242826
 31
0.0
  0
LINE
  5
158
330
1F
100
AcDbEntity
  8
0
  6
Continuous
 62
     7
370
     0
100
AcDbLine
 10
227.7392142555
 20
113.0343227602
 30
0.0
 11
227.4317568745
 21
113.0343227602
 31
0.0
  0
LINE
  5
159
330
1F
100
AcDbEntity
  8
0
  6
Continuous
 62
     7
370
     0
100
AcDbLine
 10
226.9234438015
 20
115.0889777081
 30
0.0
 11
227.7392142555
 21
113.0343227602
 31
0.0
  0
LINE
  5
15A
330
1F
100
AcDbEntity
  8
0
  6
Continuous
 62
     7
370
     0
100
AcDbLine
 10
226.5966417124
 20
115.0889777081
 30
0.0
 11
226.9234438015
 21
115.0889777081
 31
0.0
  0
LINE
  5
15B
330
1F
100
AcDbEntity
  8
0
  6
Continuous
 62
     7
370
     0
100
AcDbLine
 10
225.7808712583
 20
113.0343227602
 30
0.0
 11
226.5966417124
 21
115.0889777081
 31
0.0
  0
LINE
  5
15C
330
1F
100
AcDbEntity
  8
0
  6
Continuous
 62
     7
370
     0
100
AcDbLine
 10
226.0883286393
 20
113.0343227602
 30
0.0
 11
225.7808712583
 21
113.0343227602
 31
0.0
  0
LINE
  5
15D
330
1F
100
AcDbEntity
  8
0
  6
Continuous
 62
     7
370
     0
100
AcDbLine
 10
222.7165871863
 20
113.9562833137
 30
0.0
 11
222.7165871863
 21
113.0343227602
 31
0.0
  0
LINE
  5
15E
330
1F
100
AcDbEntity
  8
0
  6
Continuous
 62
     7
370
     0
100
AcDbLine
 10
223.0133432395
 20
113.9562833137
 30
0.0
 11
222.7165871863
 21
113.9562833137
 31
0.0
  0
SPLINE
  5
15F
330
1F
100
AcDbEntity
  8
0
  6
Continuous
 62
     7
370
     0
100
AcDbSpline
210
0.0
220
0.0
230
1.0
 70
     8
 71
     3
 72
    11
 73
     7
 74
     0
 42
0.000000001
 43
0.00000001
 40
0.0
 40
0.0
 40
0.0
 40
0.0
 40
0.1774946570818496
 40
0.4052256231013751
 40
0.6783881083348569
 40
0.9999999999999999
 40
0.9999999999999999
 40
0.9999999999999999
 40
0.9999999999999999
 10
223.1561648074184
 20
113.9468167544483
 30
0.0
 10
223.1478132267665
 20
113.9483228282775
 30
0.0
 10
223.1287463177724
 20
113.951761239979
 30
0.0
 10
223.0963707538793
 20
113.9540068721432
 30
0.0
 10
223.0571437863341
 20
113.9563903102495
 30
0.0
 10
223.0287153344571
 20
113.9563208648571
 30
0.0
 10
223.0133432395243
 20
113.9562833137035
 30
0.0
  0
SPLINE
  5
160
330
1F
100
AcDbEntity
  8
0
  6
Continuous
 62
     7
370
     0
100
AcDbSpline
210
0.0
220
0.0
230
1.0
 70
     8
 71
     3
 72
    21
 73
    17
 74
     0
 42
0.000000001
 43
0.00000001
 40
0.0
 40
0.0
 40
0.0
 40
0.0
 40
0.0807814705861226
 40
0.1565412257955895
 40
0.227934986843486
 40
0.2943103173046012
 40
0.3568678635548111
 40
0.4147585592592752
 40
0.467641396834016
 40
0.5167484215300129
 40
0.604729741894053
 40
0.6815706529393896
 40
0.7481095416219826
 40
0.8049410995352804
 40
0.9054060495000024
 40
1.0
 40
1.0
 40
1.0
 40
1.0
 10
223.5875106378303
 20
113.4681381277601
 30
0.0
 10
223.5783058512796
 20
113.4833590613741
 30
0.0
 10
223.5604684863568
 20
113.5128547314626
 30
0.0
 10
223.5347030517622
 20
113.555931737714
 30
0.0
 10
223.5094408902605
 20
113.5955909855739
 30
0.0
 10
223.48601066757
 20
113.6329659579289
 30
0.0
 10
223.463461545993
 20
113.6673781305884
 30
0.0
 10
223.4420114028187
 20
113.6989470447357
 30
0.0
 10
223.4222505555123
 20
113.7280868432836
 30
0.0
 10
223.3977741913562
 20
113.7620131521326
 30
0.0
 10
223.3692877687364
 20
113.7995529276942
 30
0.0
 10
223.336046068064
 20
113.8382118077085
 30
0.0
 10
223.3043901132242
 20
113.8690340177804
 30
0.0
 10
223.2654052206271
 20
113.8992584734435
 30
0.0
 10
223.2171165331981
 20
113.9275283712854
 30
0.0
 10
223.1760702373566
 20
113.9405176127134
 30
0.0
 10
223.1561648074184
 20
113.9468167544483
 30
0.0
  0
LINE
  5
161
330
1F
100
AcDbEntity
  8
0
  6
Continuous
 62
     7
370
     0
100
AcDbLine
 10
223.8435193273
 20
113.0343227602
 30
0.0
 11
223.5875106378
 21
113.4681381278
 31
0.0
  0
LINE
  5
162
330
1F
100
AcDbEntity
  8
0
  6
Continuous
 62
     7
370
     0
100
AcDbLine
 10
224.1756720803
 20
113.0343227602
 30
0.0
 11
223.8435193273
 21
113.0343227602
 31
0.0
  0
LINE
  5
163
330
1F
100
AcDbEntity
  8
0
  6
Continuous
 62
     7
370
     0
100
AcDbLine
 10
223.8385802529
 20
113.6014931364
 30
0.0
 11
224.1756720803
 21
113.0343227602
 31
0.0
  0
SPLINE
  5
164
330
1F
100
AcDbEntity
  8
0
  6
Continuous
 62
     7
370
     0
100
AcDbSpline
210
0.0
220
0.0
230
1.0
 70
     8
 71
     3
 72
    11
 73
     7
 74
     0
 42
0.000000001
 43
0.00000001
 40
0.0
 40
0.0
 40
0.0
 40
0.0
 40
0.2295275697008571
 40
0.4714659343032296
 40
0.7281863484998697
 40
1.0
 40
1.0
 40
1.0
 40
1.0
 10
223.6220841585886
 20
113.8813740187274
 30
0.0
 10
223.6414939684605
 20
113.8623467328487
 30
0.0
 10
223.6813630968527
 20
113.823263335914
 30
0.0
 10
223.7363044875407
 20
113.7566928619923
 30
0.0
 10
223.7895720527094
 20
113.6825897094209
 30
0.0
 10
223.8219361148809
 20
113.6290351099232
 30
0.0
 10
223.8385802528603
 20
113.601493136399
 30
0.0
  0
SPLINE
  5
165
330
1F
100
AcDbEntity
  8
0
  6
Continuous
 62
     7
370
     0
100
AcDbSpline
210
0.0
220
0.0
230
1.0
 70
     8
 71
     3
 72
    11
 73
     7
 74
     0
 42
0.000000001
 43
0.00000001
 40
0.0
 40
0.0
 40
0.0
 40
0.0
 40
0.2930762433192213
 40
0.5565623371181898
 40
0.7919136092098108
 40
1.0
 40
1.0
 40
1.0
 40
1.0
 10
223.4623874198483
 20
113.982625043805
 30
0.0
 10
223.4789292668552
 20
113.9742684675699
 30
0.0
 10
223.5103428298453
 20
113.9583990284538
 30
0.0
 10
223.5538352970629
 20
113.9335158857474
 30
0.0
 10
223.5907023559875
 20
113.9080914456283
 30
0.0
 10
223.6120613113845
 20
113.8899071387306
 30
0.0
 10
223.6220841585886
 20
113.8813740187274
 30
0.0
  0
SPLINE
  5
166
330
1F
100
AcDbEntity
  8
0
  6
Continuous
 62
     7
370
     0
100
AcDbSpline
210
0.0
220
0.0
230
1.0
 70
     8
 71
     3
 72
    23
 73
    19
 74
     0
 42
0.000000001
 43
0.00000001
 40
0.0
 40
0.0
 40
0.0
 40
0.0
 40
0.0614130692946597
 40
0.1212950233845471
 40
0.1792240423087202
 40
0.2359380947348319
 40
0.2922168332673612
 40
0.3481966394342069
 40
0.4044447389633588
 40
0.4620255339229974
 40
0.5203342118681488
 40
0.5803829016508381
 40
0.641825904813988
 40
0.7063632097966277
 40
0.7738513938275595
 40
0.8452662573568828
 40
0.920154675768406
 40
1.0
 40
1.0
 40
1.0
 40
1.0
 10
224.0073319613229
 20
114.5349781968707
 30
0.0
 10
224.0069299010472
 20
114.5174023482454
 30
0.0
 10
224.0061358044304
 20
114.4826888419105
 30
0.0
 10
224.0000529444666
 20
114.4316506958432
 30
0.0
 10
223.9890465004877
 20
114.382885799624
 30
0.0
 10
223.9749329054906
 20
114.3359670790342
 30
0.0
 10
223.9556156995624
 20
114.2915592973496
 30
0.0
 10
223.9332375549533
 20
114.2487554120964
 30
0.0
 10
223.9055142153865
 20
114.2087313602017
 30
0.0
 10
223.8744748710384
 20
114.1704213653356
 30
0.0
 10
223.8388810667162
 20
114.1346459253078
 30
0.0
 10
223.7984196844831
 20
114.1026957300363
 30
0.0
 10
223.7534918087367
 20
114.0739564654337
 30
0.0
 10
223.7038858472177
 20
114.0492210589766
 30
0.0
 10
223.6501728144151
 20
114.0266117231465
 30
0.0
 10
223.5916787593148
 20
114.0084055965582
 30
0.0
 10
223.5286397590457
 20
113.993538898138
 30
0.0
 10
223.484938193772
 20
113.9863398690426
 30
0.0
 10
223.4623874198483
 20
113.982625043805
 30
0.0
  0
SPLINE
  5
167
330
1F
100
AcDbEntity
  8
0
  6
Continuous
 62
     7
370
     0
100
AcDbSpline
210
0.0
220
0.0
230
1.0
 70
     8
 71
     3
 72
    27
 73
    23
 74
     0
 42
0.000000001
 43
0.00000001
 40
0.0
 40
0.0
 40
0.0
 40
0.0
 40
0.0621127506505294
 40
0.1202119588785538
 40
0.1743851213884739
 40
0.2254437557784867
 40
0.2723582126361769
 40
0.3163881629634408
 40
0.3568694790582282
 40
0.3939783235063667
 40
0.4295893718770922
 40
0.464683040954987
 40
0.50003634614284
 40
0.5354827477530639
 40
0.5713634671484435
 40
0.6079085322052601
 40
0.6456622985331159
 40
0.6845173397035775
 40
0.7625786223763461
 40
0.8404972886541807
 40
0.9190729926935233
 40
1.0
 40
1.0
 40
1.0
 40
1.0
 10
223.3183310833557
 20
115.0889777080678
 30
0.0
 10
223.3393232475423
 20
115.0888132257746
 30
0.0
 10
223.3799511242912
 20
115.0884948895478
 30
0.0
 10
223.4388699343247
 20
115.0862414305943
 30
0.0
 10
223.4938647369207
 20
115.0813835642381
 30
0.0
 10
223.5450366491206
 20
115.0761304588171
 30
0.0
 10
223.5923765791428
 20
115.0680676436064
 30
0.0
 10
223.6358356876707
 20
115.0588197767031
 30
0.0
 10
223.6754810733703
 20
115.0478146752719
 30
0.0
 10
223.7114899750956
 20
115.0348168020977
 30
0.0
 10
223.7448983841184
 20
115.02011165581
 30
0.0
 10
223.7758654557716
 20
115.0019678794498
 30
0.0
 10
223.8056784513118
 20
114.9820861692368
 30
0.0
 10
223.8332309064671
 20
114.9587281268042
 30
0.0
 10
223.8592495199377
 20
114.9331532323446
 30
0.0
 10
223.8837101768549
 20
114.9050139773012
 30
0.0
 10
223.9062507566576
 20
114.8740661702088
 30
0.0
 10
223.9340518624419
 20
114.8297734402367
 30
0.0
 10
223.9638767807729
 20
114.7707848512804
 30
0.0
 10
223.9887256224193
 20
114.6952922389124
 30
0.0
 10
224.0047477109916
 20
114.6163242108593
 30
0.0
 10
224.0064621202458
 20
114.5623587116644
 30
0.0
 10
224.0073319613229
 20
114.5349781968707
 30
0.0
  0
LINE
  5
168
330
1F
100
AcDbEntity
  8
0
  6
Continuous
 62
     7
370
     0
100
AcDbLine
 10
222.4268281552
 20
115.0889777081
 30
0.0
 11
223.3183310834
 21
115.0889777081
 31
0.0
  0
LINE
  5
169
330
1F
100
AcDbEntity
  8
0
  6
Continuous
 62
     7
370
     0
100
AcDbLine
 10
222.4268281552
 20
113.0343227602
 30
0.0
 11
222.4268281552
 21
115.0889777081
 31
0.0
  0
LINE
  5
16A
330
1F
100
AcDbEntity
  8
0
  6
Continuous
 62
     7
370
     0
100
AcDbLine
 10
222.7165871863
 20
113.0343227602
 30
0.0
 11
222.4268281552
 21
113.0343227602
 31
0.0
  0
LINE
  5
16B
330
1F
100
AcDbEntity
  8
0
  6
Continuous
 62
     7
370
     0
100
AcDbLine
 10
218.4492269099
 20
114.0089667739
 30
0.0
 11
218.4492269099
 21
113.0343227602
 31
0.0
  0
LINE
  5
16C
330
1F
100
AcDbEntity
  8
0
  6
Continuous
 62
     7
370
     0
100
AcDbLine
 10
219.4502126538
 20
114.0089667739
 30
0.0
 11
218.4492269099
 21
114.0089667739
 31
0.0
  0
LINE
  5
16D
330
1F
100
AcDbEntity
  8
0
  6
Continuous
 62
     7
370
     0
100
AcDbLine
 10
219.4502126538
 20
113.0343227602
 30
0.0
 11
219.4502126538
 21
114.0089667739
 31
0.0
  0
LINE
  5
16E
330
1F
100
AcDbEntity
  8
0
  6
Continuous
 62
     7
370
     0
100
AcDbLine
 10
219.7399716849
 20
113.0343227602
 30
0.0
 11
219.4502126538
 21
113.0343227602
 31
0.0
  0
LINE
  5
16F
330
1F
100
AcDbEntity
  8
0
  6
Continuous
 62
     7
370
     0
100
AcDbLine
 10
219.7399716849
 20
115.0889777081
 30
0.0
 11
219.7399716849
 21
113.0343227602
 31
0.0
  0
LINE
  5
170
330
1F
100
AcDbEntity
  8
0
  6
Continuous
 62
     7
370
     0
100
AcDbLine
 10
219.4502126538
 20
115.0889777081
 30
0.0
 11
219.7399716849
 21
115.0889777081
 31
0.0
  0
LINE
  5
171
330
1F
100
AcDbEntity
  8
0
  6
Continuous
 62
     7
370
     0
100
AcDbLine
 10
219.4502126538
 20
114.2460423448
 30
0.0
 11
219.4502126538
 21
115.0889777081
 31
0.0
  0
LINE
  5
172
330
1F
100
AcDbEntity
  8
0
  6
Continuous
 62
     7
370
     0
100
AcDbLine
 10
218.4492269099
 20
114.2460423448
 30
0.0
 11
219.4502126538
 21
114.2460423448
 31
0.0
  0
LINE
  5
173
330
1F
100
AcDbEntity
  8
0
  6
Continuous
 62
     7
370
     0
100
AcDbLine
 10
218.4492269099
 20
115.0889777081
 30
0.0
 11
218.4492269099
 21
114.2460423448
 31
0.0
  0
LINE
  5
174
330
1F
100
AcDbEntity
  8
0
  6
Continuous
 62
     7
370
     0
100
AcDbLine
 10
218.1594678788
 20
115.0889777081
 30
0.0
 11
218.4492269099
 21
115.0889777081
 31
0.0
  0
LINE
  5
175
330
1F
100
AcDbEntity
  8
0
  6
Continuous
 62
     7
370
     0
100
AcDbLine
 10
218.1594678788
 20
113.0343227602
 30
0.0
 11
218.1594678788
 21
115.0889777081
 31
0.0
  0
LINE
  5
176
330
1F
100
AcDbEntity
  8
0
  6
Continuous
 62
     7
370
     0
100
AcDbLine
 10
218.4492269099
 20
113.0343227602
 30
0.0
 11
218.1594678788
 21
113.0343227602
 31
0.0
  0
CIRCLE
  5
177
330
1F
100
AcDbEntity
  8
0
  6
Continuous
 62
     7
370
     0
100
AcDbCircle
 10
223.8361107157
 20
112.7549227602
 30
0.0
 40
25.15000000000001
  0
LINE
  5
178
330
1F
100
AcDbEntity
  8
0
  6
Continuous
 62
     7
370
     0
100
AcDbLine
 10
217.184823865
 20
114.8519021372
 30
0.0
 11
217.184823865
 21
113.0343227602
 31
0.0
  0
LINE
  5
179
330
1F
100
AcDbEntity
  8
0
  6
Continuous
 62
     7
370
     0
100
AcDbLine
 10
217.8433671176
 20
114.8519021372
 30
0.0
 11
217.184823865
 21
114.8519021372
 31
0.0
  0
LINE
  5
17A
330
1F
100
AcDbEntity
  8
0
  6
Continuous
 62
     7
370
     0
100
AcDbLine
 10
217.8433671176
 20
115.0889777081
 30
0.0
 11
217.8433671176
 21
114.8519021372
 31
0.0
  0
LINE
  5
17B
330
1F
100
AcDbEntity
  8
0
  6
Continuous
 62
     7
370
     0
100
AcDbLine
 10
216.2365215814
 20
115.0889777081
 30
0.0
 11
217.8433671176
 21
115.0889777081
 31
0.0
  0
LINE
  5
17C
330
1F
100
AcDbEntity
  8
0
  6
Continuous
 62
     7
370
     0
100
AcDbLine
 10
216.2365215814
 20
114.8519021372
 30
0.0
 11
216.2365215814
 21
115.0889777081
 31
0.0
  0
LINE
  5
17D
330
1F
100
AcDbEntity
  8
0
  6
Continuous
 62
     7
370
     0
100
AcDbLine
 10
216.8950648339
 20
114.8519021372
 30
0.0
 11
216.2365215814
 21
114.8519021372
 31
0.0
  0
LINE
  5
17E
330
1F
100
AcDbEntity
  8
0
  6
Continuous
 62
     7
370
     0
100
AcDbLine
 10
216.8950648339
 20
113.0343227602
 30
0.0
 11
216.8950648339
 21
114.8519021372
 31
0.0
  0
LINE
  5
17F
330
1F
100
AcDbEntity
  8
0
  6
Continuous
 62
     7
370
     0
100
AcDbLine
 10
217.184823865
 20
113.0343227602
 30
0.0
 11
216.8950648339
 21
113.0343227602
 31
0.0
  0
SPLINE
  5
180
330
1F
100
AcDbEntity
  8
0
  6
Continuous
 62
     7
370
     0
100
AcDbSpline
210
0.0
220
0.0
230
1.0
 70
     8
 71
     3
 72
    31
 73
    27
 74
     0
 42
0.000000001
 43
0.00000001
 40
0.0
 40
0.0
 40
0.0
 40
0.0
 40
0.0475595569054264
 40
0.0939621052432108
 40
0.1391115332408222
 40
0.1836263101269047
 40
0.2274570284004935
 40
0.2707025105518545
 40
0.3136105321155538
 40
0.3562604510849769
 40
0.3983661529550377
 40
0.4395565149792806
 40
0.4800453830214204
 40
0.5198884957050127
 40
0.5596577503171976
 40
0.5994212546627414
 40
0.6392077550883982
 40
0.6796683749857806
 40
0.7200198525128486
 40
0.7598588655624579
 40
0.7995598848323808
 40
0.8391991446364383
 40
0.8789560762302792
 40
0.9187942693024661
 40
0.9590833628432752
 40
1.0
 40
1.0
 40
1.0
 40
1.0
 10
222.0580439338123
 20
114.0583575178468
 30
0.0
 10
222.0576158322607
 20
114.0328296551267
 30
0.0
 10
222.056770043829
 20
113.9823949606171
 30
0.0
 10
222.0510470932134
 20
113.907887485843
 30
0.0
 10
222.040984156829
 20
113.8355189661437
 30
0.0
 10
222.0276373850175
 20
113.7650736116822
 30
0.0
 10
222.0097531182608
 20
113.696698075033
 30
0.0
 10
221.9885004155259
 20
113.6301963193427
 30
0.0
 10
221.9627940708648
 20
113.5659644423467
 30
0.0
 10
221.9337616086135
 20
113.5038476319239
 30
0.0
 10
221.9009113898869
 20
113.4447002097836
 30
0.0
 10
221.8646753695999
 20
113.3889357626076
 30
0.0
 10
221.8250278768606
 20
113.3370759227343
 30
0.0
 10
221.782571152484
 20
113.2884845023009
 30
0.0
 10
221.7363137195007
 20
113.24403040679
 30
0.0
 10
221.6868251749633
 20
113.203297957788
 30
0.0
 10
221.6342958020491
 20
113.165903002013
 30
0.0
 10
221.5785491287758
 20
113.1328583118098
 30
0.0
 10
221.5205856052315
 20
113.1038934605067
 30
0.0
 10
221.4615522381682
 20
113.0781964190399
 30
0.0
 10
221.4014051762828
 20
113.0562809594751
 30
0.0
 10
221.3399388553355
 20
113.0385206577588
 30
0.0
 10
221.2773209494154
 20
113.0250996954391
 30
0.0
 10
221.2137276727539
 20
113.0150499372956
 30
0.0
 10
221.148950557779
 20
113.0092632520461
 30
0.0
 10
221.1053624131382
 20
113.0084106336768
 30
0.0
 10
221.0833999200569
 20
113.0079810300496
 30
0.0
  0
SPLINE
  5
181
330
1F
100
AcDbEntity
  8
0
  6
Continuous
 62
     7
370
     0
100
AcDbSpline
210
0.0
220
0.0
230
1.0
 70
     8
 71
     3
 72
    31
 73
    27
 74
     0
 42
0.000000001
 43
0.00000001
 40
0.0
 40
0.0
 40
0.0
 40
0.0
 40
0.0430989705688968
 40
0.0855867603450731
 40
0.1269076657436391
 40
0.1679674856215208
 40
0.208449558601066
 40
0.2490254246415441
 40
0.289280534171679
 40
0.3300098489827308
 40
0.370597724099577
 40
0.4104659863326995
 40
0.4500332158929483
 40
0.4896882096042475
 40
0.5291164230741915
 40
0.5690368070925096
 40
0.6097030542359448
 40
0.6507589174942194
 40
0.6925092624061778
 40
0.7342191213706865
 40
0.7767069111468624
 40
0.8195518402403216
 40
0.8633507288313336
 40
0.9078385251300618
 40
0.9533337036124183
 40
1.0
 40
1.0
 40
1.0
 40
1.0
 10
221.0846346886554
 20
115.1153194381693
 30
0.0
 10
221.1078324136656
 20
115.1149143622191
 30
0.0
 10
221.1538988998203
 20
115.1141099546471
 30
0.0
 10
221.2220040881407
 20
115.1079894872943
 30
0.0
 10
221.2883592126455
 20
115.0970655133799
 30
0.0
 10
221.3528989301703
 20
115.0824261633287
 30
0.0
 10
221.4157989182192
 20
115.0632199726932
 30
0.0
 10
221.4770967394846
 20
115.0405476490715
 30
0.0
 10
221.5362558000341
 20
115.012453447658
 30
0.0
 10
221.5936696693271
 20
114.9809991935082
 30
0.0
 10
221.6486606191605
 20
114.9458162501799
 30
0.0
 10
221.7003409761201
 20
114.9069497240801
 30
0.0
 10
221.7485869494194
 20
114.8646935610254
 30
0.0
 10
221.7940466133433
 20
114.8197423371628
 30
0.0
 10
221.8352030428979
 20
114.7705790114245
 30
0.0
 10
221.8737565148337
 20
114.7187011829416
 30
0.0
 10
221.9085991724954
 20
114.6631889737492
 30
0.0
 10
221.9398546452973
 20
114.6044972124171
 30
0.0
 10
221.9678002141474
 20
114.5435323824624
 30
0.0
 10
221.9916850991737
 20
114.4800418095003
 30
0.0
 10
222.0121946141204
 20
114.4147871073791
 30
0.0
 10
222.0293628084425
 20
114.3473820379724
 30
0.0
 10
222.0416814510783
 20
114.2778496449599
 30
0.0
 10
222.051490919396
 20
114.206489536553
 30
0.0
 10
222.0566539135882
 20
114.133068483915
 30
0.0
 10
222.0575766851115
 20
114.0834712544887
 30
0.0
 10
222.0580439338123
 20
114.0583575178468
 30
0.0
  0
SPLINE
  5
182
330
1F
100
AcDbEntity
  8
0
  6
Continuous
 62
     7
370
     0
100
AcDbSpline
210
0.0
220
0.0
230
1.0
 70
     8
 71
     3
 72
    23
 73
    19
 74
     0
 42
0.000000001
 43
0.00000001
 40
0.0
 40
0.0
 40
0.0
 40
0.0
 40
0.0752263466908988
 40
0.1465747215268522
 40
0.2145002518264754
 40
0.2795299716530228
 40
0.3424029515883814
 40
0.4034960527288083
 40
0.4637616065030392
 40
0.5238643590795867
 40
0.5832517242549665
 40
0.6413020392831351
 40
0.6988977748564887
 40
0.7562952438113087
 40
0.814627804812969
 40
0.874324768339998
 40
0.9357832838625453
 40
1.0
 40
1.0
 40
1.0
 40
1.0
 10
220.1087559063016
 20
114.0344853249423
 30
0.0
 10
220.1094700252956
 20
114.0756793857079
 30
0.0
 10
220.1108614499398
 20
114.1559439240098
 30
0.0
 10
220.1238622802741
 20
114.2728194341218
 30
0.0
 10
220.1449722917214
 20
114.3827840009595
 30
0.0
 10
220.1751509210185
 20
114.4858290575035
 30
0.0
 10
220.2134024203795
 20
114.5821160760549
 30
0.0
 10
220.2599044250194
 20
114.6718630838395
 30
0.0
 10
220.3160556844936
 20
114.7540542093412
 30
0.0
 10
220.3795770677721
 20
114.8294718586762
 30
0.0
 10
220.450527535287
 20
114.8961465885097
 30
0.0
 10
220.5260696171915
 20
114.9553633011792
 30
0.0
 10
220.6071465971178
 20
115.0047570404436
 30
0.0
 10
220.6930093859907
 20
115.0455399852759
 30
0.0
 10
220.7840227777558
 20
115.0768519493632
 30
0.0
 10
220.8799312344663
 20
115.098773173388
 30
0.0
 10
220.9806321826626
 20
115.1129144931443
 30
0.0
 10
221.0494636375267
 20
115.1145061458007
 30
0.0
 10
221.0846346886554
 20
115.1153194381693
 30
0.0
  0
SPLINE
  5
183
330
1F
100
AcDbEntity
  8
0
  6
Continuous
 62
     7
370
     0
100
AcDbSpline
210
0.0
220
0.0
230
1.0
 70
     8
 71
     3
 72
    31
 73
    27
 74
     0
 42
0.000000001
 43
0.00000001
 40
0.0
 40
0.0
 40
0.0
 40
0.0
 40
0.0446969998899171
 40
0.0885335629185875
 40
0.1314091332352275
 40
0.1738139421467784
 40
0.2157145332694449
 40
0.2572471603264208
 40
0.2988479641797117
 40
0.3406041827148143
 40
0.3820294481091344
 40
0.4229697500404858
 40
0.4636322295306197
 40
0.5040475437003945
 40
0.5445912057564576
 40
0.5849639251690937
 40
0.6262652162680831
 40
0.6679794005009905
 40
0.7099427472053506
 40
0.7513818550852255
 40
0.7926185649779642
 40
0.8339484357458206
 40
0.8750080506311037
 40
0.9164455302232757
 40
0.957906613728307
 40
1.0
 40
1.0
 40
1.0
 40
1.0
 10
221.0833999200569
 20
113.0079810300496
 30
0.0
 10
221.0597853620594
 20
113.0083304103612
 30
0.0
 10
221.0130108366679
 20
113.00902244526
 30
0.0
 10
220.9438768283944
 20
113.0159301331898
 30
0.0
 10
220.8764627655893
 20
113.0264680517527
 30
0.0
 10
220.8109646329321
 20
113.0416816225143
 30
0.0
 10
220.7474719310223
 20
113.0615288004705
 30
0.0
 10
220.6859095334624
 20
113.0855511966793
 30
0.0
 10
220.6260609188028
 20
113.1134277592654
 30
0.0
 10
220.5686687093065
 20
113.1459566854976
 30
0.0
 10
220.5139282446182
 20
113.1821253548752
 30
0.0
 10
220.4623700890881
 20
113.2217539745341
 30
0.0
 10
220.4140227524857
 20
113.2644773315728
 30
0.0
 10
220.3696620116458
 20
113.311001592107
 30
0.0
 10
220.327851161835
 20
113.3596402336427
 30
0.0
 10
220.2902619886673
 20
113.4122011243342
 30
0.0
 10
220.2556668884057
 20
113.4674922382021
 30
0.0
 10
220.2250895867676
 20
113.5260465576371
 30
0.0
 10
220.1974675706895
 20
113.5861240702741
 30
0.0
 10
220.1741954255036
 20
113.6477439932901
 30
0.0
 10
220.1537437201791
 20
113.7099982128118
 30
0.0
 10
220.1374560071191
 20
113.7732704378173
 30
0.0
 10
220.1244766818657
 20
113.8374147136959
 30
0.0
 10
220.1157490261796
 20
113.9023243066128
 30
0.0
 10
220.1094458468812
 20
113.9680958883626
 30
0.0
 10
220.1089870438334
 20
114.0122441480039
 30
0.0
 10
220.1087559063016
 20
114.0344853249423
 30
0.0
  0
LINE
  5
184
330
1F
100
AcDbEntity
  8
0
  6
Continuous
 62
     7
370
     0
100
AcDbLine
 10
225.745886148
 20
113.2713983311
 30
0.0
 11
225.745886148
 21
113.0343227602
 31
0.0
  0
LINE
  5
185
330
1F
100
AcDbEntity
  8
0
  6
Continuous
 62
     7
370
     0
100
AcDbLine
 10
224.7712421343
 20
113.2713983311
 30
0.0
 11
225.745886148
 21
113.2713983311
 31
0.0
  0
LINE
  5
186
330
1F
100
AcDbEntity
  8
0
  6
Continuous
 62
     7
370
     0
100
AcDbLine
 10
224.7712421343
 20
115.0889777081
 30
0.0
 11
224.7712421343
 21
113.2713983311
 31
0.0
  0
LINE
  5
187
330
1F
100
AcDbEntity
  8
0
  6
Continuous
 62
     7
370
     0
100
AcDbLine
 10
224.4814831031
 20
115.0889777081
 30
0.0
 11
224.7712421343
 21
115.0889777081
 31
0.0
  0
LINE
  5
188
330
1F
100
AcDbEntity
  8
0
  6
Continuous
 62
     7
370
     0
100
AcDbLine
 10
224.4814831031
 20
113.0343227602
 30
0.0
 11
224.4814831031
 21
115.0889777081
 31
0.0
  0
LINE
  5
189
330
1F
100
AcDbEntity
  8
0
  6
Continuous
 62
     7
370
     0
100
AcDbLine
 10
225.745886148
 20
113.0343227602
 30
0.0
 11
224.4814831031
 21
113.0343227602
 31
0.0
  0
SPLINE
  5
18A
330
1F
100
AcDbEntity
  8
0
  6
Continuous
 62
     7
370
     0
100
AcDbSpline
210
0.0
220
0.0
230
1.0
 70
     8
 71
     3
 72
    23
 73
    19
 74
     0
 42
0.000000001
 43
0.00000001
 40
0.0
 40
0.0
 40
0.0
 40
0.0
 40
0.0642545754247029
 40
0.1273603868320973
 40
0.1894718420926419
 40
0.2517207629332008
 40
0.3120272840890018
 40
0.3686746571150512
 40
0.4226814918055486
 40
0.4740604252251508
 40
0.5257737722739173
 40
0.5796221048577139
 40
0.6373752855308659
 40
0.6984003818208013
 40
0.7643573310122579
 40
0.8363147679791494
 40
0.9146777942540467
 40
1.0
 40
1.0
 40
1.0
 40
1.0
 10
229.4864118224341
 20
113.6228957921064
 30
0.0
 10
229.4857020546739
 20
113.5995305192325
 30
0.0
 10
229.4842952086105
 20
113.5532177053669
 30
0.0
 10
229.472996666345
 20
113.4850530317192
 30
0.0
 10
229.453902728979
 20
113.4194843606533
 30
0.0
 10
229.427621548054
 20
113.3575718583414
 30
0.0
 10
229.3963064630791
 20
113.3003246348261
 30
0.0
 10
229.3607157718455
 20
113.2492416090589
 30
0.0
 10
229.321757110624
 20
113.2048484218532
 30
0.0
 10
229.2783334435599
 20
113.167505816501
 30
0.0
 10
229.2307248719355
 20
113.1358128724568
 30
0.0
 10
229.1775867282473
 20
113.1091253409267
 30
0.0
 10
229.1193298670117
 20
113.0855894956574
 30
0.0
 10
229.0547702500163
 20
113.0667881936376
 30
0.0
 10
228.9839372646494
 20
113.0518524638199
 30
0.0
 10
228.9058696423743
 20
113.0421486958373
 30
0.0
 10
228.8204474440463
 20
113.035202098818
 30
0.0
 10
228.7609327567222
 20
113.0346240648645
 30
0.0
 10
228.7299102610817
 20
113.0343227601511
 30
0.0
  0
SPLINE
  5
18B
330
1F
100
AcDbEntity
  8
0
  6
Continuous
 62
     7
370
     0
100
AcDbSpline
210
0.0
220
0.0
230
1.0
 70
     8
 71
     3
 72
    23
 73
    19
 74
     0
 42
0.000000001
 43
0.00000001
 40
0.0
 40
0.0
 40
0.0
 40
0.0
 40
0.0704642259291749
 40
0.1379569656042689
 40
0.2035785636142837
 40
0.2676916802449441
 40
0.3301858648593755
 40
0.39153376408982
 40
0.4526637734870355
 40
0.513153788089214
 40
0.573453553100029
 40
0.6329675593891934
 40
0.6923319074206218
 40
0.7514741915716301
 40
0.8121874455294298
 40
0.8729617178483161
 40
0.9354203067594908
 40
0.9999999999999999
 40
0.9999999999999999
 40
0.9999999999999999
 40
0.9999999999999999
 10
229.0991060720355
 20
114.1143336943125
 30
0.0
 10
229.1142642567339
 20
114.1095885324498
 30
0.0
 10
229.1439414033639
 20
114.1002983128634
 30
0.0
 10
229.1866053846431
 20
114.0832985140624
 30
0.0
 10
229.2266538332372
 20
114.0639418102021
 30
0.0
 10
229.2641739235631
 20
114.0421963927441
 30
0.0
 10
229.298912137116
 20
114.0178608884114
 30
0.0
 10
229.3307704555857
 20
113.9908973594851
 30
0.0
 10
229.3599697707873
 20
113.9617230595491
 30
0.0
 10
229.3864579152815
 20
113.9303557349781
 30
0.0
 10
229.4097249712474
 20
113.8969972411996
 30
0.0
 10
229.4305926138134
 20
113.8623766631435
 30
0.0
 10
229.4478242053002
 20
113.8260770927574
 30
0.0
 10
229.4619483133412
 20
113.7881927728092
 30
0.0
 10
229.4729672173958
 20
113.7489577953407
 30
0.0
 10
229.4808799899382
 20
113.708221255613
 30
0.0
 10
229.485390068267
 20
113.6660779759015
 30
0.0
 10
229.4860674676284
 20
113.6374491876176
 30
0.0
 10
229.4864118224341
 20
113.6228957921064
 30
0.0
  0
SPLINE
  5
18C
330
1F
100
AcDbEntity
  8
0
  6
Continuous
 62
     7
370
     0
100
AcDbSpline
210
0.0
220
0.0
230
1.0
 70
     8
 71
     3
 72
    15
 73
    11
 74
     0
 42
0.000000001
 43
0.00000001
 40
0.0
 40
0.0
 40
0.0
 40
0.0
 40
0.1158426906010181
 40
0.2305685484828844
 40
0.3473546045205441
 40
0.4682527467344622
 40
0.5923025714800838
 40
0.7199701656206967
 40
0.8556003811349091
 40
1.0
 40
1.0
 40
1.0
 40
1.0
 10
229.4073866321296
 20
114.5563808525782
 30
0.0
 10
229.4064279354311
 20
114.5343474729257
 30
0.0
 10
229.404519784774
 20
114.4904931361671
 30
0.0
 10
229.3893330404153
 20
114.4258930307982
 30
0.0
 10
229.3653637115824
 20
114.3631667307172
 30
0.0
 10
229.3314704020277
 20
114.3030767988621
 30
0.0
 10
229.2881505040123
 20
114.2467225668695
 30
0.0
 10
229.2344462010417
 20
114.196010741445
 30
0.0
 10
229.1711292190642
 20
114.1508326413526
 30
0.0
 10
229.1236098261951
 20
114.1267513858777
 30
0.0
 10
229.0991060720355
 20
114.1143336943125
 30
0.0
  0
SPLINE
  5
18D
330
1F
100
AcDbEntity
  8
0
  6
Continuous
 62
     7
370
     0
100
AcDbSpline
210
0.0
220
0.0
230
1.0
 70
     8
 71
     3
 72
    23
 73
    19
 74
     0
 42
0.000000001
 43
0.00000001
 40
0.0
 40
0.0
 40
0.0
 40
0.0
 40
0.0587320371008649
 40
0.1146029008469823
 40
0.1676568100446118
 40
0.2179667070908439
 40
0.2657752056293754
 40
0.3111706510536957
 40
0.3537918046646691
 40
0.3947449080003072
 40
0.4728059510824636
 40
0.5491923665616075
 40
0.6247801075795553
 40
0.7026247640242256
 40
0.7797414321940387
 40
0.8540634639886254
 40
0.9271552664103496
 40
0.9999999999999999
 40
0.9999999999999999
 40
0.9999999999999999
 40
0.9999999999999999
 10
228.7278523134175
 20
115.0889777080678
 30
0.0
 10
228.7469287098869
 20
115.08890452641
 30
0.0
 10
228.7841521824754
 20
115.0887617281913
 30
0.0
 10
228.8385061495926
 20
115.0851904925991
 30
0.0
 10
228.8899834152196
 20
115.0803057829303
 30
0.0
 10
228.9386947979617
 20
115.0740092423691
 30
0.0
 10
228.9844295241874
 20
115.0648730898758
 30
0.0
 10
229.0271449743329
 20
115.0538052518555
 30
0.0
 10
229.0670634386545
 20
115.0410388582738
 30
0.0
 10
229.1158576782754
 20
115.0215915057409
 30
0.0
 10
229.1720876898937
 20
114.9916578964243
 30
0.0
 10
229.2323153741606
 20
114.9469922279075
 30
0.0
 10
229.2847157994703
 20
114.8933647820661
 30
0.0
 10
229.327833643464
 20
114.83187787873
 30
0.0
 10
229.3633580965935
 20
114.7661982697503
 30
0.0
 10
229.3885445179817
 20
114.6975772140408
 30
0.0
 10
229.4046475613348
 20
114.6275087591985
 30
0.0
 10
229.4064746396053
 20
114.5800633799627
 30
0.0
 10
229.4073866321296
 20
114.5563808525782
 30
0.0
  0
LINE
  5
18E
330
1F
100
AcDbEntity
  8
0
  6
Continuous
 62
     7
370
     0
100
AcDbLine
 10
227.9585914765
 20
115.0889777081
 30
0.0
 11
228.7278523134
 21
115.0889777081
 31
0.0
  0
LINE
  5
18F
330
1F
100
AcDbEntity
  8
0
  6
Continuous
 62
     7
370
     0
100
AcDbLine
 10
227.9585914765
 20
113.0343227602
 30
0.0
 11
227.9585914765
 21
115.0889777081
 31
0.0
  0
LINE
  5
190
330
1F
100
AcDbEntity
  8
0
  6
Continuous
 62
     7
370
     0
100
AcDbLine
 10
228.7299102611
 20
113.0343227602
 30
0.0
 11
227.9585914765
 21
113.0343227602
 31
0.0
  0
LINE
  5
191
330
1F
100
AcDbEntity
  8
0
  6
Continuous
 62
     7
370
     0
100
AcDbLine
 10
219.3843583285
 20
110.7162505112
 30
0.0
 11
219.3843583285
 21
109.873315148
 31
0.0
  0
LINE
  5
192
330
1F
100
AcDbEntity
  8
0
  6
Continuous
 62
     7
370
     0
100
AcDbLine
 10
219.8877323272
 20
110.7162505112
 30
0.0
 11
219.3843583285
 21
110.7162505112
 31
0.0
  0
SPLINE
  5
193
330
1F
100
AcDbEntity
  8
0
  6
Continuous
 62
     7
370
     0
100
AcDbSpline
210
0.0
220
0.0
230
1.0
 70
     8
 71
     3
 72
    23
 73
    19
 74
     0
 42
0.000000001
 43
0.00000001
 40
0.0
 40
0.0
 40
0.0
 40
0.0
 40
0.058048068659147
 40
0.1142127550191541
 40
0.1688916471752762
 40
0.2226262701242397
 40
0.2756512298918107
 40
0.3287250271459032
 40
0.3816587912372605
 40
0.4359534350342105
 40
0.4912638558489659
 40
0.5489925911805691
 40
0.6104165486580289
 40
0.676247964980973
 40
0.7474094740183924
 40
0.8248664857445537
 40
0.9090259917114393
 40
1.0
 40
1.0
 40
1.0
 40
1.0
 10
220.6224196432808
 20
111.3373391162689
 30
0.0
 10
220.6219659388467
 20
111.3160502387694
 30
0.0
 10
220.6210732505182
 20
111.2741632060629
 30
0.0
 10
220.6134078774157
 20
111.2126251099115
 30
0.0
 10
220.6013179268341
 20
111.1534229593443
 30
0.0
 10
220.5832841260301
 20
111.0969618838673
 30
0.0
 10
220.5612373201028
 20
111.0425817980392
 30
0.0
 10
220.5334532502662
 20
110.9911998349656
 30
0.0
 10
220.50100929566
 20
110.9421182709431
 30
0.0
 10
220.4637860112543
 20
110.8954706611903
 30
0.0
 10
220.4199638674455
 20
110.8522035919884
 30
0.0
 10
220.3672404412319
 20
110.8154999900673
 30
0.0
 10
220.3066322453208
 20
110.7846792820123
 30
0.0
 10
220.2381251440135
 20
110.7597764832381
 30
0.0
 10
220.1618854397917
 20
110.740181993497
 30
0.0
 10
220.0776633307371
 20
110.7258253895534
 30
0.0
 10
219.985294749875
 20
110.7178993494052
 30
0.0
 10
219.9210859301299
 20
110.716814198474
 30
0.0
 10
219.8877323271687
 20
110.7162505112195
 30
0.0
  0
SPLINE
  5
194
330
1F
100
AcDbEntity
  8
0
  6
Continuous
 62
     7
370
     0
100
AcDbSpline
210
0.0
220
0.0
230
1.0
 70
     8
 71
     3
 72
    19
 73
    15
 74
     0
 42
0.000000001
 43
0.00000001
 40
0.0
 40
0.0
 40
0.0
 40
0.0
 40
0.0892424937815284
 40
0.1729768290722686
 40
0.2526551372368088
 40
0.3289533944009837
 40
0.4046880824662921
 40
0.4814988935669584
 40
0.5618700905962242
 40
0.6456290048367238
 40
0.7322912491886804
 40
0.8191788448148046
 40
0.9080746859653681
 40
1.0
 40
1.0
 40
1.0
 40
1.0
 10
220.1540307549135
 20
111.908625387845
 30
0.0
 10
220.1777536446156
 20
111.9040598646908
 30
0.0
 10
220.223735217555
 20
111.8952106081896
 30
0.0
 10
220.288837997832
 20
111.873876970345
 30
0.0
 10
220.348150402025
 20
111.8473288865915
 30
0.0
 10
220.4015797361941
 20
111.8142527136399
 30
0.0
 10
220.4500136266762
 20
111.7753963009029
 30
0.0
 10
220.492761835266
 20
111.7288371971287
 30
0.0
 10
220.5306548957407
 20
111.6756149850838
 30
0.0
 10
220.5628755722017
 20
111.6157713080266
 30
0.0
 10
220.5896943484636
 20
111.5513795371782
 30
0.0
 10
220.6084783239518
 20
111.4827800205144
 30
0.0
 10
220.6205094940839
 20
111.4111645812534
 30
0.0
 10
220.621775854691
 20
111.3622209381009
 30
0.0
 10
220.6224196432808
 20
111.3373391162689
 30
0.0
  0
SPLINE
  5
195
330
1F
100
AcDbEntity
  8
0
  6
Continuous
 62
     7
370
     0
100
AcDbSpline
210
0.0
220
0.0
230
1.0
 70
     8
 71
     3
 72
    11
 73
     7
 74
     0
 42
0.000000001
 43
0.00000001
 40
0.0
 40
0.0
 40
0.0
 40
0.0
 40
0.3071626301099397
 40
0.576852859909682
 40
0.8066330493509283
 40
1.0
 40
1.0
 40
1.0
 40
1.0
 10
219.849454500615
 20
111.9279700958883
 30
0.0
 10
219.8807426403712
 20
111.9277918447964
 30
0.0
 10
219.9395019135717
 20
111.9274570884098
 30
0.0
 10
220.0215584836622
 20
111.9235366606935
 30
0.0
 10
220.0920217930342
 20
111.9186864426759
 30
0.0
 10
220.1345819149736
 20
111.9117809937301
 30
0.0
 10
220.1540307549135
 20
111.908625387845
 30
0.0
  0
LINE
  5
196
330
1F
100
AcDbEntity
  8
0
  6
Continuous
 62
     7
370
     0
100
AcDbLine
 10
219.0945992974
 20
111.9279700959
 30
0.0
 11
219.8494545006
 21
111.9279700959
 31
0.0
  0
LINE
  5
197
330
1F
100
AcDbEntity
  8
0
  6
Continuous
 62
     7
370
     0
100
AcDbLine
 10
219.0945992974
 20
109.873315148
 30
0.0
 11
219.0945992974
 21
111.9279700959
 31
0.0
  0
LINE
  5
198
330
1F
100
AcDbEntity
  8
0
  6
Continuous
 62
     7
370
     0
100
AcDbLine
 10
219.3843583285
 20
109.873315148
 30
0.0
 11
219.0945992974
 21
109.873315148
 31
0.0
  0
SPLINE
  5
199
330
1F
100
AcDbEntity
  8
0
  6
Continuous
 62
     7
370
     0
100
AcDbSpline
210
0.0
220
0.0
230
1.0
 70
     8
 71
     3
 72
    17
 73
    13
 74
     0
 42
0.000000001
 43
0.00000001
 40
0.0
 40
0.0
 40
0.0
 40
0.0
 40
0.1241996726524868
 40
0.236829658110027
 40
0.3394949853062824
 40
0.4312535100312249
 40
0.5114548721194181
 40
0.5812230366234583
 40
0.6404953748643701
 40
0.6883082049320183
 40
0.8503329734146885
 40
1.0
 40
1.0
 40
1.0
 40
1.0
 10
223.3187426728885
 20
110.5178643563926
 30
0.0
 10
223.3007462177032
 20
110.5032133234402
 30
0.0
 10
223.2664297477988
 20
110.4752760587843
 30
0.0
 10
223.2176079213238
 20
110.4347746577917
 30
0.0
 10
223.1738784143205
 20
110.3976359702715
 30
0.0
 10
223.1342186191531
 20
110.3650713901423
 30
0.0
 10
223.1000729195274
 20
110.3355058092587
 30
0.0
 10
223.0702385813873
 20
110.3102340709864
 30
0.0
 10
223.0457995024029
 20
110.2879855216716
 30
0.0
 10
223.0085831117645
 20
110.2541895263382
 30
0.0
 10
222.9614453777074
 20
110.2060167508049
 30
0.0
 10
222.9267122790897
 20
110.1592086106107
 30
0.0
 10
222.9100342667825
 20
110.1367324489866
 30
0.0
  0
SPLINE
  5
19A
330
1F
100
AcDbEntity
  8
0
  6
Continuous
 62
     7
370
     0
100
AcDbSpline
210
0.0
220
0.0
230
1.0
 70
     8
 71
     3
 72
    23
 73
    19
 74
     0
 42
0.000000001
 43
0.00000001
 40
0.0
 40
0.0
 40
0.0
 40
0.0
 40
0.0579448754623256
 40
0.1160176254256826
 40
0.1748257843638405
 40
0.2346830900793709
 40
0.2968270303289143
 40
0.3640613359637881
 40
0.436192424049739
 40
0.5142601195414407
 40
0.5569758971654883
 40
0.6048559283836539
 40
0.6576752010734876
 40
0.7157505846619323
 40
0.7788397991664556
 40
0.847501189473863
 40
0.9212282309463236
 40
1.0
 40
1.0
 40
1.0
 40
1.0
 10
223.8887941758662
 20
111.3607997196405
 30
0.0
 10
223.8882278623672
 20
111.340467264687
 30
0.0
 10
223.8870939856115
 20
111.2997574845044
 30
0.0
 10
223.8782439265052
 20
111.2389083690735
 30
0.0
 10
223.8631013765618
 20
111.1787196019066
 30
0.0
 10
223.8430263968525
 20
111.1184586497075
 30
0.0
 10
223.8155997963437
 20
111.0578863392789
 30
0.0
 10
223.7809509438441
 20
110.9961670740235
 30
0.0
 10
223.7379652562866
 20
110.9330728682495
 30
0.0
 10
223.6966250768526
 20
110.8794357835643
 30
0.0
 10
223.6581440793097
 20
110.8344743808363
 30
0.0
 10
223.6240343116636
 20
110.7974685194377
 30
0.0
 10
223.5845712845847
 20
110.7581522663273
 30
0.0
 10
223.5412354039869
 20
110.7151640087607
 30
0.0
 10
223.4922592242642
 20
110.6700294898756
 30
0.0
 10
223.4390499449929
 20
110.6213971303618
 30
0.0
 10
223.3804427898532
 20
110.5705467489643
 30
0.0
 10
223.3397580020885
 20
110.535808209296
 30
0.0
 10
223.3187426728885
 20
110.5178643563926
 30
0.0
  0
SPLINE
  5
19B
330
1F
100
AcDbEntity
  8
0
  6
Continuous
 62
     7
370
     0
100
AcDbSpline
210
0.0
220
0.0
230
1.0
 70
     8
 71
     3
 72
    23
 73
    19
 74
     0
 42
0.000000001
 43
0.00000001
 40
0.0
 40
0.0
 40
0.0
 40
0.0
 40
0.0747118903045011
 40
0.1455392023749086
 40
0.2133390572509725
 40
0.2786150735384709
 40
0.3420941969414983
 40
0.4038900759591959
 40
0.4650633525655206
 40
0.5265767363834861
 40
0.5873283340287676
 40
0.6463804557031434
 40
0.7043453083753259
 40
0.7616719489990784
 40
0.8194178590468651
 40
0.8780393997816818
 40
0.9377955090070548
 40
1.0
 40
1.0
 40
1.0
 40
1.0
 10
223.2565926534303
 20
111.9279700958883
 30
0.0
 10
223.2803517574585
 20
111.9275632481768
 30
0.0
 10
223.3266346320493
 20
111.9267707064382
 30
0.0
 10
223.3940762195449
 20
111.9186614131713
 30
0.0
 10
223.4577092212722
 20
111.9060312628026
 30
0.0
 10
223.5177669140757
 20
111.8884287000682
 30
0.0
 10
223.5738944687573
 20
111.8653464912419
 30
0.0
 10
223.6261350603382
 20
111.8371452440734
 30
0.0
 10
223.6747295593301
 20
111.8041000537323
 30
0.0
 10
223.7188660512863
 20
111.7658142341144
 30
0.0
 10
223.7586650798935
 20
111.7240188486268
 30
0.0
 10
223.7935430599325
 20
111.6794141623692
 30
0.0
 10
223.8227027301831
 20
111.6321907273958
 30
0.0
 10
223.8475303790414
 20
111.5829922318601
 30
0.0
 10
223.8659459625041
 20
111.5307791435244
 30
0.0
 10
223.8788961401142
 20
111.476261309329
 30
0.0
 10
223.8876961614065
 20
111.4193921421687
 30
0.0
 10
223.8884233051973
 20
111.3805901793603
 30
0.0
 10
223.8887941758662
 20
111.3607997196405
 30
0.0
  0
SPLINE
  5
19C
330
1F
100
AcDbEntity
  8
0
  6
Continuous
 62
     7
370
     0
100
AcDbSpline
210
0.0
220
0.0
230
1.0
 70
     8
 71
     3
 72
    23
 73
    19
 74
     0
 42
0.000000001
 43
0.00000001
 40
0.0
 40
0.0
 40
0.0
 40
0.0
 40
0.0706752902033302
 40
0.137492693844125
 40
0.2014728253723049
 40
0.2628693217722904
 40
0.322550086526156
 40
0.3807372513385548
 40
0.4382197368560124
 40
0.4954874370602861
 40
0.5534836796953478
 40
0.6113462062294291
 40
0.6706437388141557
 40
0.7315869484227134
 40
0.7941831937999382
 40
0.8594451119347497
 40
0.9282076353998099
 40
1.0
 40
1.0
 40
1.0
 40
1.0
 10
222.5980494008929
 20
111.3484520336554
 30
0.0
 10
222.6007445340963
 20
111.3714094950869
 30
0.0
 10
222.6059876837646
 20
111.4160712602803
 30
0.0
 10
222.619047654288
 20
111.4807563044297
 30
0.0
 10
222.6373826710189
 20
111.5409319372554
 30
0.0
 10
222.6593220659738
 20
111.5974371335324
 30
0.0
 10
222.6868251646828
 20
111.6493100046565
 30
0.0
 10
222.7179150503988
 20
111.6976234827501
 30
0.0
 10
222.754584136266
 20
111.7408452668653
 30
0.0
 10
222.795093747345
 20
111.7803377695931
 30
0.0
 10
222.8398877108603
 20
111.8151410560569
 30
0.0
 10
222.8885452568206
 20
111.8455465586999
 30
0.0
 10
222.9410441277117
 20
111.8709788843707
 30
0.0
 10
222.9970919232463
 20
111.8920357897067
 30
0.0
 10
223.0568173154705
 20
111.9080121937405
 30
0.0
 10
223.1201358125469
 20
111.9194687828976
 30
0.0
 10
223.1871492419638
 20
111.9265307554391
 30
0.0
 10
223.2331145690544
 20
111.927483470076
 30
0.0
 10
223.2565926534303
 20
111.9279700958883
 30
0.0
  0
LINE
  5
19D
330
1F
100
AcDbEntity
  8
0
  6
Continuous
 62
     7
370
     0
100
AcDbLine
 10
222.8614667019
 20
111.3221103036
 30
0.0
 11
222.5980494009
 21
111.3484520337
 31
0.0
  0
SPLINE
  5
19E
330
1F
100
AcDbEntity
  8
0
  6
Continuous
 62
     7
370
     0
100
AcDbSpline
210
0.0
220
0.0
230
1.0
 70
     8
 71
     3
 72
    23
 73
    19
 74
     0
 42
0.000000001
 43
0.00000001
 40
0.0
 40
0.0
 40
0.0
 40
0.0
 40
0.0706964833433765
 40
0.1383582132030687
 40
0.20336986825917
 40
0.2657002133402299
 40
0.3272558681973766
 40
0.3865123433292945
 40
0.4458582974819498
 40
0.5051731438069392
 40
0.5637797628070205
 40
0.6223430642934398
 40
0.6808235796100197
 40
0.7397951568104401
 40
0.8008011629883836
 40
0.864239461576908
 40
0.9306310981734532
 40
1.0
 40
1.0
 40
1.0
 40
1.0
 10
223.2508303999706
 20
111.6908945249749
 30
0.0
 10
223.2365484801126
 20
111.6905665297435
 30
0.0
 10
223.2085977134095
 20
111.6899246189721
 30
0.0
 10
223.1677411776863
 20
111.6852520378537
 30
0.0
 10
223.1289549790885
 20
111.6781129654792
 30
0.0
 10
223.0923316941379
 20
111.6671979347572
 30
0.0
 10
223.0579158980611
 20
111.6534476764221
 30
0.0
 10
223.0258477587949
 20
111.6361397632108
 30
0.0
 10
222.9956137319556
 20
111.6166022596731
 30
0.0
 10
222.9681660033366
 20
111.5934713293129
 30
0.0
 10
222.9433453823329
 20
111.5678238458971
 30
0.0
 10
222.9213104491731
 20
111.5399014945133
 30
0.0
 10
222.9032561322342
 20
111.5091654321611
 30
0.0
 10
222.8883461331454
 20
111.4762914756655
 30
0.0
 10
222.8763572456104
 20
111.441176281838
 30
0.0
 10
222.8676537209697
 20
111.403551402077
 30
0.0
 10
222.862908501009
 20
111.3635254728748
 30
0.0
 10
222.861954277071
 20
111.3361157276961
 30
0.0
 10
222.8614667019079
 20
111.3221103035539
 30
0.0
  0
SPLINE
  5
19F
330
1F
100
AcDbEntity
  8
0
  6
Continuous
 62
     7
370
     0
100
AcDbSpline
210
0.0
220
0.0
230
1.0
 70
     8
 71
     3
 72
    23
 73
    19
 74
     0
 42
0.000000001
 43
0.00000001
 40
0.0
 40
0.0
 40
0.0
 40
0.0
 40
0.061762156768071
 40
0.1211739926536296
 40
0.1794214068253156
 40
0.2368434346502754
 40
0.2943217954133984
 40
0.3531909627945248
 40
0.4127207064163249
 40
0.4745221507037176
 40
0.5370567441421369
 40
0.599591337580556
 40
0.6623669793543064
 40
0.7252456446794925
 40
0.7903164461250805
 40
0.8577243009540928
 40
0.927231952378493
 40
1.0
 40
1.0
 40
1.0
 40
1.0
 10
223.6253768748513
 20
111.3583301824435
 30
0.0
 10
223.6250908668123
 20
111.3698774770859
 30
0.0
 10
223.6245297345945
 20
111.3925326411765
 30
0.0
 10
223.6192057398788
 20
111.4256883321867
 30
0.0
 10
223.6117943122968
 20
111.4576180547786
 30
0.0
 10
223.5998122896235
 20
111.4877470041894
 30
0.0
 10
223.5855500755376
 20
111.5169674154618
 30
0.0
 10
223.5672553435479
 20
111.5443559609801
 30
0.0
 10
223.5460920995047
 20
111.5705952331322
 30
0.0
 10
223.5218619762152
 20
111.5949934260531
 30
0.0
 10
223.4953970073132
 20
111.6178828262193
 30
0.0
 10
223.4658261760175
 20
111.6369094781806
 30
0.0
 10
223.4350916864098
 20
111.6540391341193
 30
0.0
 10
223.4021332244317
 20
111.6678123600572
 30
0.0
 10
223.3670043458696
 20
111.6779262855705
 30
0.0
 10
223.329960772474
 20
111.6852663908202
 30
0.0
 10
223.2910083823483
 20
111.6899204109053
 30
0.0
 10
223.2644261142395
 20
111.6905648972591
 30
0.0
 10
223.2508303999706
 20
111.6908945249749
 30
0.0
  0
SPLINE
  5
1A0
330
1F
100
AcDbEntity
  8
0
  6
Continuous
 62
     7
370
     0
100
AcDbSpline
210
0.0
220
0.0
230
1.0
 70
     8
 71
     3
 72
    23
 73
    19
 74
     0
 42
0.000000001
 43
0.00000001
 40
0.0
 40
0.0
 40
0.0
 40
0.0
 40
0.1114096600426609
 40
0.2145263672558013
 40
0.3094172254458342
 40
0.3960871907990314
 40
0.4742842164262461
 40
0.5443738816396977
 40
0.6064195628105363
 40
0.6605816023749734
 40
0.7097938180647575
 40
0.7564506485918284
 40
0.8007673253039324
 40
0.8431682879413349
 40
0.8842948685500487
 40
0.9238845020552847
 40
0.9623587101392161
 40
1.0
 40
1.0
 40
1.0
 40
1.0
 10
223.0730237217855
 20
110.6417528057762
 30
0.0
 10
223.09946118453
 20
110.6640047889852
 30
0.0
 10
223.1503681960032
 20
110.7068523941232
 30
0.0
 10
223.2222568735632
 20
110.7704342690059
 30
0.0
 10
223.2879154789272
 20
110.8294736412309
 30
0.0
 10
223.3462984732967
 20
110.885005296525
 30
0.0
 10
223.3978833683097
 20
110.9364906137319
 30
0.0
 10
223.4427912862032
 20
110.9838129461142
 30
0.0
 10
223.4814086285645
 20
111.0268246102953
 30
0.0
 10
223.5132639533383
 20
111.06708244626
 30
0.0
 10
223.5401412683036
 20
111.1050970412038
 30
0.0
 10
223.5629174188694
 20
111.1421779310202
 30
0.0
 10
223.5818983184122
 20
111.1789728376452
 30
0.0
 10
223.5977068680384
 20
111.2153653318949
 30
0.0
 10
223.6102100875689
 20
111.2515110443281
 30
0.0
 10
223.6187328102916
 20
111.2875152839031
 30
0.0
 10
223.6245126259897
 20
111.3230208010494
 30
0.0
 10
223.6250909012181
 20
111.3466465661468
 30
0.0
 10
223.6253768748513
 20
111.3583301824435
 30
0.0
  0
SPLINE
  5
1A1
330
1F
100
AcDbEntity
  8
0
  6
Continuous
 62
     7
370
     0
100
AcDbSpline
210
0.0
220
0.0
230
1.0
 70
     8
 71
     3
 72
    19
 73
    15
 74
     0
 42
0.000000001
 43
0.00000001
 40
0.0
 40
0.0
 40
0.0
 40
0.0
 40
0.1003881431397112
 40
0.2044067930373089
 40
0.3106860830942075
 40
0.4221572938827998
 40
0.4806854607703734
 40
0.5432381544526688
 40
0.6094995045645644
 40
0.6795546087742242
 40
0.7538412220511751
 40
0.831640676489386
 40
0.9138127068095906
 40
0.9999999999999999
 40
0.9999999999999999
 40
0.9999999999999999
 40
0.9999999999999999
 10
222.5992841694914
 20
110.0560609005508
 30
0.0
 10
222.608001198802
 20
110.0801329381206
 30
0.0
 10
222.625750506145
 20
110.1291475712001
 30
0.0
 10
222.6617107887431
 20
110.1998688418596
 30
0.0
 10
222.7040085790519
 20
110.2701624042676
 30
0.0
 10
222.7451914318467
 20
110.327391288491
 30
0.0
 10
222.782906032
 20
110.3731131660802
 30
0.0
 10
222.8145346402576
 20
110.4088852438197
 30
0.0
 10
222.8495849361768
 20
110.4455021808628
 30
0.0
 10
222.8880288500559
 20
110.4829572885473
 30
0.0
 10
222.9294963822715
 20
110.5214931484332
 30
0.0
 10
222.9740441150702
 20
110.5612382761562
 30
0.0
 10
223.0221980871958
 20
110.60145197775
 30
0.0
 10
223.0558145994379
 20
110.6281072923299
 30
0.0
 10
223.0730237217855
 20
110.6417528057762
 30
0.0
  0
SPLINE
  5
1A2
330
1F
100
AcDbEntity
  8
0
  6
Continuous
 62
     7
370
     0
100
AcDbSpline
210
0.0
220
0.0
230
1.0
 70
     8
 71
     3
 72
    11
 73
     7
 74
     0
 42
0.000000001
 43
0.00000001
 40
0.0
 40
0.0
 40
0.0
 40
0.0
 40
0.2526433275832377
 40
0.5044398525799888
 40
0.7504068042814569
 40
1.0
 40
1.0
 40
1.0
 40
1.0
 10
222.5717076707914
 20
109.8733151479717
 30
0.0
 10
222.5716801672874
 20
109.8889707787196
 30
0.0
 10
222.5716252524646
 20
109.9202295661259
 30
0.0
 10
222.5769147428182
 20
109.9664593297898
 30
0.0
 10
222.5851991437241
 20
110.0120758167711
 30
0.0
 10
222.5945663129249
 20
110.0413278557009
 30
0.0
 10
222.5992841694914
 20
110.0560609005508
 30
0.0
  0
LINE
  5
1A3
330
1F
100
AcDbEntity
  8
0
  6
Continuous
 62
     7
370
     0
100
AcDbLine
 10
223.915135906
 20
109.873315148
 30
0.0
 11
222.5717076708
 21
109.873315148
 31
0.0
  0
LINE
  5
1A4
330
1F
100
AcDbEntity
  8
0
  6
Continuous
 62
     7
370
     0
100
AcDbLine
 10
223.915135906
 20
110.136732449
 30
0.0
 11
223.915135906
 21
109.873315148
 31
0.0
  0
LINE
  5
1A5
330
1F
100
AcDbEntity
  8
0
  6
Continuous
 62
     7
370
     0
100
AcDbLine
 10
222.9100342668
 20
110.136732449
 30
0.0
 11
223.915135906
 21
110.136732449
 31
0.0
  0
LINE
  5
1A6
330
1F
100
AcDbEntity
  8
0
  6
Continuous
 62
     7
370
     0
100
AcDbLine
 10
226.5377844092
 20
111.9279700959
 30
0.0
 11
226.7073592967
 21
111.9279700959
 31
0.0
  0
SPLINE
  5
1A7
330
1F
100
AcDbEntity
  8
0
  6
Continuous
 62
     7
370
     0
100
AcDbSpline
210
0.0
220
0.0
230
1.0
 70
     8
 71
     3
 72
    15
 73
    11
 74
     0
 42
0.000000001
 43
0.00000001
 40
0.0
 40
0.0
 40
0.0
 40
0.0
 40
0.1426572507006137
 40
0.2811689939054439
 40
0.4169771923679743
 40
0.5508524927475582
 40
0.6783641702618118
 40
0.7950324430070947
 40
0.9019981783473519
 40
1.0
 40
1.0
 40
1.0
 40
1.0
 10
225.9697908538844
 20
111.4143063589092
 30
0.0
 10
226.0027072498036
 20
111.4312583687076
 30
0.0
 10
226.0675835170675
 20
111.4646697762337
 30
0.0
 10
226.1592396539291
 20
111.5223758701013
 30
0.0
 10
226.2448105172587
 20
111.5849316513684
 30
0.0
 10
226.3228795704907
 20
111.6523232701685
 30
0.0
 10
226.3928635020503
 20
111.7212096021918
 30
0.0
 10
226.4518399774657
 20
111.7907186170222
 30
0.0
 10
226.5011877391854
 20
111.8583024144363
 30
0.0
 10
226.5259464460886
 20
111.9054346181343
 30
0.0
 10
226.5377844091979
 20
111.9279700958883
 30
0.0
  0
LINE
  5
1A8
330
1F
100
AcDbEntity
  8
0
  6
Continuous
 62
     7
370
     0
100
AcDbLine
 10
225.9697908539
 20
111.1714685345
 30
0.0
 11
225.9697908539
 21
111.4143063589
 31
0.0
  0
SPLINE
  5
1A9
330
1F
100
AcDbEntity
  8
0
  6
Continuous
 62
     7
370
     0
100
AcDbSpline
210
0.0
220
0.0
230
1.0
 70
     8
 71
     3
 72
    15
 73
    11
 74
     0
 42
0.000000001
 43
0.00000001
 40
0.0
 40
0.0
 40
0.0
 40
0.0
 40
0.1116703001015868
 40
0.2320944808560179
 40
0.3627434591045534
 40
0.5025575097108849
 40
0.6415251033312815
 40
0.7710984952996685
 40
0.8901617573732526
 40
1.0
 40
1.0
 40
1.0
 40
1.0
 10
226.4439419957113
 20
111.4743984307032
 30
0.0
 10
226.4287744042131
 20
111.4597711548032
 30
0.0
 10
226.3972502274945
 20
111.4293699648426
 30
0.0
 10
226.3439619370114
 20
111.3863446895841
 30
0.0
 10
226.2844853946583
 20
111.3427367493348
 30
0.0
 10
226.2195929411828
 20
111.3008028396361
 30
0.0
 10
226.1534460625849
 20
111.2613265858598
 30
0.0
 10
226.089523620597
 20
111.22582376471
 30
0.0
 10
226.0288928276132
 20
111.1957797640258
 30
0.0
 10
225.9889549968034
 20
111.1793515855931
 30
0.0
 10
225.9697908538844
 20
111.171468534536
 30
0.0
  0
LINE
  5
1AA
330
1F
100
AcDbEntity
  8
0
  6
Continuous
 62
     7
370
     0
100
AcDbLine
 10
226.4439419957
 20
109.873315148
 30
0.0
 11
226.4439419957
 21
111.4743984307
 31
0.0
  0
LINE
  5
1AB
330
1F
100
AcDbEntity
  8
0
  6
Continuous
 62
     7
370
     0
100
AcDbLine
 10
226.7073592967
 20
109.873315148
 30
0.0
 11
226.4439419957
 21
109.873315148
 31
0.0
  0
LINE
  5
1AC
330
1F
100
AcDbEntity
  8
0
  6
Continuous
 62
     7
370
     0
100
AcDbLine
 10
226.7073592967
 20
111.9279700959
 30
0.0
 11
226.7073592967
 21
109.873315148
 31
0.0
  0
CIRCLE
  5
1AD
330
1F
100
AcDbEntity
  8
0
  6
Continuous
 62
     7
370
     0
100
AcDbCircle
 10
223.8361107157
 20
112.7549227602
 30
0.0
 40
25.40000000000001
  0
SPLINE
  5
1AE
330
1F
100
AcDbEntity
  8
0
  6
Continuous
 62
     7
370
     0
100
AcDbSpline
210
0.0
220
0.0
230
1.0
 70
     8
 71
     3
 72
    11
 73
     7
 74
     0
 42
0.000000001
 43
0.00000001
 40
0.0
 40
0.0
 40
0.0
 40
0.0
 40
0.247294050035337
 40
0.4956077709090489
 40
0.746359172773196
 40
1.0
 40
1.0
 40
1.0
 40
1.0
 10
226.7600427569293
 20
114.8519021371544
 30
0.0
 10
226.7521839653811
 20
114.8193771512785
 30
0.0
 10
226.7364339780253
 20
114.7541930688211
 30
0.0
 10
226.7034573391609
 20
114.6586896434516
 30
0.0
 10
226.6657332096244
 20
114.564059640014
 30
0.0
 10
226.6350967213638
 20
114.5030807117714
 30
0.0
 10
226.6196907262322
 20
114.4724165878797
 30
0.0
  0
SPLINE
  5
1AF
330
1F
100
AcDbEntity
  8
0
  6
Continuous
 62
     7
370
     0
100
AcDbSpline
210
0.0
220
0.0
230
1.0
 70
     8
 71
     3
 72
    15
 73
    11
 74
     0
 42
0.000000001
 43
0.00000001
 40
0.0
 40
0.0
 40
0.0
 40
0.0
 40
0.1531481085926329
 40
0.2994334688329071
 40
0.4364263514567511
 40
0.5656705729563585
 40
0.686508310287873
 40
0.7992685160630044
 40
0.9033947408013442
 40
1.0
 40
1.0
 40
1.0
 40
1.0
 10
226.91109611548
 20
114.4436053205812
 30
0.0
 10
226.9034433619798
 20
114.4644703959223
 30
0.0
 10
226.8884807839386
 20
114.5052655578362
 30
0.0
 10
226.8661670722421
 20
114.5645374842799
 30
0.0
 10
226.8457816248077
 20
114.6208245384065
 30
0.0
 10
226.8257920195888
 20
114.6733196444832
 30
0.0
 10
226.8077470459106
 20
114.7227853466898
 30
0.0
 10
226.7911145311411
 20
114.7688875266129
 30
0.0
 10
226.7746651143744
 20
114.8113057520344
 30
0.0
 10
226.7647935879775
 20
114.8387122963507
 30
0.0
 10
226.7600427569293
 20
114.8519021371544
 30
0.0
  0
LINE
  5
1B0
330
1F
100
AcDbEntity
  8
0
  6
Continuous
 62
     7
370
     0
100
AcDbLine
 10
227.1107170389
 20
113.9035998535
 30
0.0
 11
226.9110961155
 21
114.4436053206
 31
0.0
  0
LINE
  5
1B1
330
1F
100
AcDbEntity
  8
0
  6
Continuous
 62
     7
370
     0
100
AcDbLine
 10
226.409368475
 20
113.9035998535
 30
0.0
 11
227.1107170389
 21
113.9035998535
 31
0.0
  0
LINE
  5
1B2
330
1F
100
AcDbEntity
  8
0
  6
Continuous
 62
     7
370
     0
100
AcDbLine
 10
226.6196907262
 20
114.4724165879
 30
0.0
 11
226.409368475
 21
113.9035998535
 31
0.0
  0
SPLINE
  5
1B3
330
1F
100
AcDbEntity
  8
0
  6
Continuous
 62
     7
370
     0
100
AcDbSpline
210
0.0
220
0.0
230
1.0
 70
     8
 71
     3
 72
    15
 73
    11
 74
     0
 42
0.000000001
 43
0.00000001
 40
0.0
 40
0.0
 40
0.0
 40
0.0
 40
0.1276647678962246
 40
0.2517385630080495
 40
0.3727533493873896
 40
0.4921467589723855
 40
0.6140696213092446
 40
0.7371973244121095
 40
0.8656069906011172
 40
1.0
 40
1.0
 40
1.0
 40
1.0
 10
224.8605570628917
 20
111.6908945249749
 30
0.0
 10
224.8469488421713
 20
111.6905373628965
 30
0.0
 10
224.8201151747024
 20
111.6898330850455
 30
0.0
 10
224.7808271713194
 20
111.6831107600907
 30
0.0
 10
224.7435943920565
 20
111.6718695344473
 30
0.0
 10
224.7079902696188
 20
111.6566422028167
 30
0.0
 10
224.6749036419321
 20
111.636149222118
 30
0.0
 10
224.6430223756247
 20
111.6122222084553
 30
0.0
 10
224.6138396658594
 20
111.5830698129118
 30
0.0
 10
224.5962544209938
 20
111.5612759376902
 30
0.0
 10
224.5872616130887
 20
111.550130904745
 30
0.0
  0
SPLINE
  5
1B4
330
1F
100
AcDbEntity
  8
0
  6
Continuous
 62
     7
370
     0
100
AcDbSpline
210
0.0
220
0.0
230
1.0
 70
     8
 71
     3
 72
    23
 73
    19
 74
     0
 42
0.000000001
 43
0.00000001
 40
0.0
 40
0.0
 40
0.0
 40
0.0
 40
0.1156291309254414
 40
0.2215410391198768
 40
0.3170478562190417
 40
0.4031508756396167
 40
0.4801812167162795
 40
0.5476493661481898
 40
0.6070358428421809
 40
0.6586524080635071
 40
0.7057228903536458
 40
0.7498040879796471
 40
0.7925868153452744
 40
0.8338739610102606
 40
0.8747683933034328
 40
0.9152226988916382
 40
0.95688070373048
 40
1.0
 40
1.0
 40
1.0
 40
1.0
 10
225.258564141144
 20
110.8874717568792
 30
0.0
 10
225.2583146895668
 20
110.9261681674956
 30
0.0
 10
225.2578367497847
 20
111.000309025855
 30
0.0
 10
225.2524351544463
 20
111.1063019310535
 30
0.0
 10
225.2439703691037
 20
111.2021638378135
 30
0.0
 10
225.2323918874846
 20
111.2879831219241
 30
0.0
 10
225.2170040875597
 20
111.3636666147872
 30
0.0
 10
225.1983407853228
 20
111.4293754362722
 30
0.0
 10
225.1761006701072
 20
111.4849694516422
 30
0.0
 10
225.1496572524794
 20
111.5310071038765
 30
0.0
 10
225.1202204376996
 20
111.5687704682096
 30
0.0
 10
225.0894708940833
 20
111.6014579458946
 30
0.0
 10
225.0566398799397
 20
111.6292575807357
 30
0.0
 10
225.0211457284902
 20
111.6515588578977
 30
0.0
 10
224.9841324829919
 20
111.6695506988151
 30
0.0
 10
224.9447496731409
 20
111.681933141902
 30
0.0
 10
224.903384400835
 20
111.6895405276258
 30
0.0
 10
224.8749959511113
 20
111.690438035795
 30
0.0
 10
224.8605570628917
 20
111.6908945249749
 30
0.0
  0
SPLINE
  5
1B5
330
1F
100
AcDbEntity
  8
0
  6
Continuous
 62
     7
370
     0
100
AcDbSpline
210
0.0
220
0.0
230
1.0
 70
     8
 71
     3
 72
    23
 73
    19
 74
     0
 42
0.000000001
 43
0.00000001
 40
0.0
 40
0.0
 40
0.0
 40
0.0
 40
0.1184055081537694
 40
0.2266543328167021
 40
0.3240923419286018
 40
0.4117048030053217
 40
0.4890259050064157
 40
0.5569093973430758
 40
0.6162333444927067
 40
0.667349281277075
 40
0.7135123932013475
 40
0.7576965045209779
 40
0.799492511442291
 40
0.8399760647439393
 40
0.8798857418167761
 40
0.9191486593857416
 40
0.959227356493083
 40
1.0
 40
1.0
 40
1.0
 40
1.0
 10
224.4683122380991
 20
110.8874717568792
 30
0.0
 10
224.468573790532
 20
110.8479532689891
 30
0.0
 10
224.4690744597416
 20
110.7723061420409
 30
0.0
 10
224.4743052376751
 20
110.6642311698477
 30
0.0
 10
224.4833098065861
 20
110.5667327926178
 30
0.0
 10
224.4952144348355
 20
110.4799460032251
 30
0.0
 10
224.5109333641078
 20
110.4037534053749
 30
0.0
 10
224.5306703389404
 20
110.3383491612627
 30
0.0
 10
224.5529186039506
 20
110.282948271685
 30
0.0
 10
224.5804504103094
 20
110.238237388031
 30
0.0
 10
224.6105946973631
 20
110.2017914954988
 30
0.0
 10
224.6417166136326
 20
110.1704468492671
 30
0.0
 10
224.6745483502272
 20
110.1438046176826
 30
0.0
 10
224.7088756840337
 20
110.1215904298648
 30
0.0
 10
224.7452312283384
 20
110.1047713063334
 30
0.0
 10
224.7832174413076
 20
110.0925807681455
 30
0.0
 10
224.8228425884168
 20
110.0855653005916
 30
0.0
 10
224.8498291141762
 20
110.0845573099116
 30
0.0
 10
224.8634381896216
 20
110.0840489887836
 30
0.0
  0
SPLINE
  5
1B6
330
1F
100
AcDbEntity
  8
0
  6
Continuous
 62
     7
370
     0
100
AcDbSpline
210
0.0
220
0.0
230
1.0
 70
     8
 71
     3
 72
    15
 73
    11
 74
     0
 42
0.000000001
 43
0.00000001
 40
0.0
 40
0.0
 40
0.0
 40
0.0
 40
0.0838881132795456
 40
0.1771540327539697
 40
0.2825136355617227
 40
0.3993998606601629
 40
0.5294908061912204
 40
0.6728021776758328
 40
0.82953576161967
 40
1.0
 40
1.0
 40
1.0
 40
1.0
 10
224.5872616130887
 20
111.550130904745
 30
0.0
 10
224.577471188764
 20
111.5337623033039
 30
0.0
 10
224.5567958739467
 20
111.4991952634402
 30
0.0
 10
224.5336613988459
 20
111.4391163239508
 30
0.0
 10
224.5132253180882
 20
111.3704575318446
 30
0.0
 10
224.4963996481382
 20
111.2921625217376
 30
0.0
 10
224.4842274563065
 20
111.2043656010645
 30
0.0
 10
224.4746179815196
 20
111.107168729351
 30
0.0
 10
224.4696262170504
 20
111.0004362081358
 30
0.0
 10
224.4687623154485
 20
110.9261654823367
 30
0.0
 10
224.4683122380991
 20
110.8874717568792
 30
0.0
  0
SPLINE
  5
1B7
330
1F
100
AcDbEntity
  8
0
  6
Continuous
 62
     7
370
     0
100
AcDbSpline
210
0.0
220
0.0
230
1.0
 70
     8
 71
     3
 72
    23
 73
    19
 74
     0
 42
0.000000001
 43
0.00000001
 40
0.0
 40
0.0
 40
0.0
 40
0.0
 40
0.0407818458722599
 40
0.0808695887215869
 40
0.1202681657882672
 40
0.1601868504553523
 40
0.2004597376386393
 40
0.2422651778979082
 40
0.2864592615494685
 40
0.3329520837492633
 40
0.3844305340495303
 40
0.4433891253601058
 40
0.5116814722136832
 40
0.5890200255490082
 40
0.6762451906507722
 40
0.7737051914728238
 40
0.8815677677819829
 40
1.0
 40
1.0
 40
1.0
 40
1.0
 10
224.8634381896216
 20
110.0840489887836
 30
0.0
 10
224.8770438571985
 20
110.0845684168008
 30
0.0
 10
224.9040236252226
 20
110.0855984322211
 30
0.0
 10
224.9437403298505
 20
110.0924592019055
 30
0.0
 10
224.981578747226
 20
110.1052773006222
 30
0.0
 10
225.017880085466
 20
110.1220370191725
 30
0.0
 10
225.0524569206262
 20
110.1437448788304
 30
0.0
 10
225.085127410787
 20
110.1704877441421
 30
0.0
 10
225.1164132710624
 20
110.2018137789606
 30
0.0
 10
225.1464221507443
 20
110.2386832886107
 30
0.0
 10
225.1737442030933
 20
110.2836008855565
 30
0.0
 10
225.1964098182366
 20
110.3389566455216
 30
0.0
 10
225.2158392033181
 20
110.4044754319606
 30
0.0
 10
225.2316443853998
 20
110.48062921001
 30
0.0
 10
225.2435981220137
 20
110.5672787830105
 30
0.0
 10
225.2525482482874
 20
110.664506743894
 30
0.0
 10
225.2578140318597
 20
110.7724426589052
 30
0.0
 10
225.2583064383634
 20
110.8479530907089
 30
0.0
 10
225.258564141144
 20
110.8874717568792
 30
0.0
  0
SPLINE
  5
1B8
330
1F
100
AcDbEntity
  8
0
  6
Continuous
 62
     7
370
     0
100
AcDbSpline
210
0.0
220
0.0
230
1.0
 70
     8
 71
     3
 72
    31
 73
    27
 74
     0
 42
0.000000001
 43
0.00000001
 40
0.0
 40
0.0
 40
0.0
 40
0.0
 40
0.0508516157922844
 40
0.0997524678094164
 40
0.1474376477769319
 40
0.1940857839327041
 40
0.239170927084144
 40
0.2833398222454342
 40
0.3265771497238441
 40
0.368936281499902
 40
0.4105718726814497
 40
0.451050593494912
 40
0.490876862992416
 40
0.530044332484386
 40
0.5689366633103307
 40
0.6075778621311337
 40
0.646420096450513
 40
0.6856793513063946
 40
0.7247985849801969
 40
0.7635130084045113
 40
0.8021725263787551
 40
0.8407403615726128
 40
0.8796493769005862
 40
0.9190706128663402
 40
0.9590978622172246
 40
1.0
 40
1.0
 40
1.0
 40
1.0
 10
221.7682849026958
 20
114.060415465511
 30
0.0
 10
221.7681099539394
 20
114.0807299463825
 30
0.0
 10
221.7677667677906
 20
114.1205796063713
 30
0.0
 10
221.7632218329732
 20
114.1793184611564
 30
0.0
 10
221.757359450253
 20
114.2362302012352
 30
0.0
 10
221.7484338814221
 20
114.2912413900932
 30
0.0
 10
221.736133315114
 20
114.3441242138886
 30
0.0
 10
221.7225063764949
 20
114.3952812706427
 30
0.0
 10
221.7054663662897
 20
114.4442717169695
 30
0.0
 10
221.6861320999434
 20
114.4912876746818
 30
0.0
 10
221.664497383283
 20
114.5360877727717
 30
0.0
 10
221.640096300255
 20
114.5782943285762
 30
0.0
 10
221.6132124415012
 20
114.6177432523597
 30
0.0
 10
221.5845711648775
 20
114.6551824557449
 30
0.0
 10
221.5525864784421
 20
114.6891628882326
 30
0.0
 10
221.5187984638279
 20
114.72111989906
 30
0.0
 10
221.4824396274425
 20
114.7503932493577
 30
0.0
 10
221.4438728171361
 20
114.7769905858042
 30
0.0
 10
221.4036451531209
 20
114.8009323803464
 30
0.0
 10
221.3618395644501
 20
114.821423450049
 30
0.0
 10
221.3191220736467
 20
114.839422280328
 30
0.0
 10
221.2747776503474
 20
114.8532191391479
 30
0.0
 10
221.2294186055751
 20
114.8643465082801
 30
0.0
 10
221.1828615739079
 20
114.8727987814974
 30
0.0
 10
221.1349337480101
 20
114.8771757619239
 30
0.0
 10
221.1026150743737
 20
114.8778852754096
 30
0.0
 10
221.0862810467868
 20
114.8782438672558
 30
0.0
  0
SPLINE
  5
1B9
330
1F
100
AcDbEntity
  8
0
  6
Continuous
 62
     7
370
     0
100
AcDbSpline
210
0.0
220
0.0
230
1.0
 70
     8
 71
     3
 72
    23
 73
    19
 74
     0
 42
0.000000001
 43
0.00000001
 40
0.0
 40
0.0
 40
0.0
 40
0.0
 40
0.0610549117432832
 40
0.1195453450847438
 40
0.1768063562451035
 40
0.2329564830316851
 40
0.2885834899465033
 40
0.3446666617213001
 40
0.4016615108374461
 40
0.4605400973082778
 40
0.5204770623221882
 40
0.5812128653554004
 40
0.6434307597220102
 40
0.7079608695212424
 40
0.7753707435336737
 40
0.8464136772813298
 40
0.9211518871893691
 40
1.0
 40
1.0
 40
1.0
 40
1.0
 10
221.0821651514584
 20
113.2450566009631
 30
0.0
 10
221.1066180715659
 20
113.2456686492643
 30
0.0
 10
221.1544968202055
 20
113.2468670381127
 30
0.0
 10
221.2247656782152
 20
113.2568983219297
 30
0.0
 10
221.2915289594083
 20
113.2739761550445
 30
0.0
 10
221.3554484072156
 20
113.29671061952
 30
0.0
 10
221.415368419859
 20
113.3274437399066
 30
0.0
 10
221.4726903552613
 20
113.3634320557028
 30
0.0
 10
221.5258516100711
 20
113.407408746806
 30
0.0
 10
221.5761571426729
 20
113.456807785178
 30
0.0
 10
221.6212778166922
 20
113.5129588650626
 30
0.0
 10
221.6613129161433
 20
113.5744788064595
 30
0.0
 10
221.6938346129466
 20
113.6422902520954
 30
0.0
 10
221.7219127087242
 20
113.714899408656
 30
0.0
 10
221.7424731086845
 20
113.7936786168245
 30
0.0
 10
221.7576685041768
 20
113.8777323153481
 30
0.0
 10
221.7668255712038
 20
113.9673308785341
 30
0.0
 10
221.7677898575712
 20
114.0288386296683
 30
0.0
 10
221.7682849026958
 20
114.060415465511
 30
0.0
  0
SPLINE
  5
1BA
330
1F
100
AcDbEntity
  8
0
  6
Continuous
 62
     7
370
     0
100
AcDbSpline
210
0.0
220
0.0
230
1.0
 70
     8
 71
     3
 72
    23
 73
    19
 74
     0
 42
0.000000001
 43
0.00000001
 40
0.0
 40
0.0
 40
0.0
 40
0.0
 40
0.0759644026221998
 40
0.1481252239748712
 40
0.2172006111446031
 40
0.2832999093723612
 40
0.3472018681362411
 40
0.4092995407059241
 40
0.4704256161074027
 40
0.5315880640528347
 40
0.5917391729173697
 40
0.6502577442905726
 40
0.7073030399522856
 40
0.7642084640229152
 40
0.8211475320101304
 40
0.8791188121552541
 40
0.9384228183936666
 40
1.0
 40
1.0
 40
1.0
 40
1.0
 10
220.398514937418
 20
114.0311926086796
 30
0.0
 10
220.3989589794015
 20
114.0015291681246
 30
0.0
 10
220.3998248299312
 20
113.9436875525205
 30
0.0
 10
220.4097306286478
 20
113.8593575528492
 30
0.0
 10
220.4247610961036
 20
113.7797879036103
 30
0.0
 10
220.4454790089029
 20
113.7047552336701
 30
0.0
 10
220.4733289572752
 20
113.6350016050497
 30
0.0
 10
220.5066271764866
 20
113.5698567531575
 30
0.0
 10
220.5464948254011
 20
113.5097537237912
 30
0.0
 10
220.5920523048897
 20
113.4548606488662
 30
0.0
 10
220.6421603096286
 20
113.4055488235875
 30
0.0
 10
220.6957057978976
 20
113.3624775673621
 30
0.0
 10
220.7527008064578
 20
113.3264084369144
 30
0.0
 10
220.8125134442593
 20
113.2966256698531
 30
0.0
 10
220.8755733175351
 20
113.2733775044415
 30
0.0
 10
220.9416915613171
 20
113.2570532284218
 30
0.0
 10
221.0109167555547
 20
113.2468437189115
 30
0.0
 10
221.0581198011304
 20
113.2456597286069
 30
0.0
 10
221.0821651514584
 20
113.2450566009631
 30
0.0
  0
SPLINE
  5
1BB
330
1F
100
AcDbEntity
  8
0
  6
Continuous
 62
     7
370
     0
100
AcDbSpline
210
0.0
220
0.0
230
1.0
 70
     8
 71
     3
 72
    23
 73
    19
 74
     0
 42
0.000000001
 43
0.00000001
 40
0.0
 40
0.0
 40
0.0
 40
0.0
 40
0.0559431333569187
 40
0.1103820356898407
 40
0.1640478588828499
 40
0.2167594775435861
 40
0.2696011346144475
 40
0.3230085051908687
 40
0.3775814436721363
 40
0.4334493367080539
 40
0.490921858049893
 40
0.5506247708713257
 40
0.6131168723098185
 40
0.6798607463518506
 40
0.7513577440202002
 40
0.8282611012589941
 40
0.9107950320656293
 40
1.0
 40
1.0
 40
1.0
 40
1.0
 10
221.0862810467868
 20
114.8782438672558
 30
0.0
 10
221.06319512697
 20
114.8777853899977
 30
0.0
 10
221.0176440347762
 20
114.8768807632807
 30
0.0
 10
220.9505874044197
 20
114.8668244327504
 30
0.0
 10
220.885937542183
 20
114.8517989009019
 30
0.0
 10
220.8235941183848
 20
114.8307924067436
 30
0.0
 10
220.7640903467515
 20
114.8029765071518
 30
0.0
 10
220.7071179433143
 20
114.7688641130488
 30
0.0
 10
220.6521711945087
 20
114.7293840510432
 30
0.0
 10
220.6001165322211
 20
114.6835743983722
 30
0.0
 10
220.551590201037
 20
114.6309502900777
 30
0.0
 10
220.5105660563094
 20
114.5689080789682
 30
0.0
 10
220.4759897863183
 20
114.4989288429002
 30
0.0
 10
220.4471192378172
 20
114.4211899629852
 30
0.0
 10
220.4251062948009
 20
114.3350894029775
 30
0.0
 10
220.4098925977644
 20
114.2409976940159
 30
0.0
 10
220.4002869798563
 20
114.1388156866044
 30
0.0
 10
220.399120719002
 20
114.0679840969702
 30
0.0
 10
220.398514937418
 20
114.0311926086796
 30
0.0
  0
LINE
  5
1BC
330
1F
100
AcDbEntity
  8
0
  6
Continuous
 62
     7
370
     0
100
AcDbLine
 10
219.8749730517
 20
111.690894525
 30
0.0
 11
219.3843583285
 21
111.690894525
 31
0.0
  0
SPLINE
  5
1BD
330
1F
100
AcDbEntity
  8
0
  6
Continuous
 62
     7
370
     0
100
AcDbSpline
210
0.0
220
0.0
230
1.0
 70
     8
 71
     3
 72
    15
 73
    11
 74
     0
 42
0.000000001
 43
0.00000001
 40
0.0
 40
0.0
 40
0.0
 40
0.0
 40
0.0763829976036969
 40
0.1659855054655314
 40
0.2707148802617357
 40
0.3888240826834115
 40
0.5206018700426673
 40
0.6660294782576531
 40
0.8252434598020228
 40
1.0
 40
1.0
 40
1.0
 40
1.0
 10
220.1116370330314
 20
111.6727845855301
 30
0.0
 10
220.1057517184177
 20
111.6742236749954
 30
0.0
 10
220.0929625251204
 20
111.6773509153473
 30
0.0
 10
220.0717773265571
 20
111.6809003802845
 30
0.0
 10
220.0472247976048
 20
111.6842614082972
 30
0.0
 10
220.0191852569547
 20
111.6864912939475
 30
0.0
 10
219.9879144182037
 20
111.6887058541299
 30
0.0
 10
219.9533166824917
 20
111.6897267112132
 30
0.0
 10
219.9153132370772
 20
111.690608440668
 30
0.0
 10
219.8888306027101
 20
111.6907962500699
 30
0.0
 10
219.8749730516508
 20
111.6908945249749
 30
0.0
  0
SPLINE
  5
1BE
330
1F
100
AcDbEntity
  8
0
  6
Continuous
 62
     7
370
     0
100
AcDbSpline
210
0.0
220
0.0
230
1.0
 70
     8
 71
     3
 72
    23
 73
    19
 74
     0
 42
0.000000001
 43
0.00000001
 40
0.0
 40
0.0
 40
0.0
 40
0.0
 40
0.0877310226443748
 40
0.169005684660542
 40
0.2448021443962134
 40
0.3142317617715646
 40
0.3789415805204464
 40
0.439171854935432
 40
0.4957867026411696
 40
0.5494347689706728
 40
0.6020003354234685
 40
0.6542545252912733
 40
0.7069046930323725
 40
0.7612021463875934
 40
0.816862306733052
 40
0.8746699957507753
 40
0.9360077445631972
 40
0.9999999999999999
 40
0.9999999999999999
 40
0.9999999999999999
 40
0.9999999999999999
 10
219.8799121260448
 20
110.953326082133
 30
0.0
 10
219.8996767588037
 20
110.9536565543021
 30
0.0
 10
219.9377514921283
 20
110.9542931783096
 30
0.0
 10
219.9927677452677
 20
110.9587358864455
 30
0.0
 10
220.0432590900752
 20
110.9664260094506
 30
0.0
 10
220.0893655850489
 20
110.9771514795886
 30
0.0
 10
220.1311459387427
 20
110.9904829311134
 30
0.0
 10
220.1685253974716
 20
111.0073435478675
 30
0.0
 10
220.2013112070928
 20
111.0275688157316
 30
0.0
 10
220.2297206145753
 20
111.0509526374242
 30
0.0
 10
220.2541068848257
 20
111.0771482226931
 30
0.0
 10
220.2752370082742
 20
111.1057261603751
 30
0.0
 10
220.2931903033157
 20
111.1368906722482
 30
0.0
 10
220.3072635650529
 20
111.1707721478244
 30
0.0
 10
220.3191855580273
 20
111.2067115264746
 30
0.0
 10
220.3266270339506
 20
111.2454534744593
 30
0.0
 10
220.3318010687779
 20
111.286436176633
 30
0.0
 10
220.3323700804538
 20
111.3146841771151
 30
0.0
 10
220.3326606121643
 20
111.3291073256121
 30
0.0
  0
LINE
  5
1BF
330
1F
100
AcDbEntity
  8
0
  6
Continuous
 62
     7
370
     0
100
AcDbLine
 10
219.3843583285
 20
110.9533260821
 30
0.0
 11
219.879912126
 21
110.9533260821
 31
0.0
  0
LINE
  5
1C0
330
1F
100
AcDbEntity
  8
0
  6
Continuous
 62
     7
370
     0
100
AcDbLine
 10
219.3843583285
 20
111.690894525
 30
0.0
 11
219.3843583285
 21
110.9533260821
 31
0.0
  0
SPLINE
  5
1C1
330
1F
100
AcDbEntity
  8
0
  6
Continuous
 62
     7
370
     0
100
AcDbSpline
210
0.0
220
0.0
230
1.0
 70
     8
 71
     3
 72
    15
 73
    11
 74
     0
 42
0.000000001
 43
0.00000001
 40
0.0
 40
0.0
 40
0.0
 40
0.0
 40
0.1428946013811192
 40
0.2768798469236295
 40
0.4054067255101084
 40
0.531833372930008
 40
0.6542249868698856
 40
0.769810940790896
 40
0.8841096717431477
 40
1.0
 40
1.0
 40
1.0
 40
1.0
 10
220.3326606121643
 20
111.3291073256121
 30
0.0
 10
220.3320468242884
 20
111.3500231913206
 30
0.0
 10
220.3308575176843
 20
111.3905508364496
 30
0.0
 10
220.3188749575355
 20
111.448868869771
 30
0.0
 10
220.3000888346868
 20
111.5027557665661
 30
0.0
 10
220.2731926351799
 20
111.5511912781126
 30
0.0
 10
220.2406404103862
 20
111.5936821222693
 30
0.0
 10
220.2023759600408
 20
111.6284466269787
 30
0.0
 10
220.1596260529684
 20
111.6562395672899
 30
0.0
 10
220.1277069391705
 20
111.6672442162844
 30
0.0
 10
220.1116370330314
 20
111.6727845855301
 30
0.0
  0
OLE2FRAME
  5
1C2
330
1F
100
AcDbEntity
  8
0
100
AcDbOle2Frame
 70
     2
  3
Paintbrush Picture
 10
229.0524258301
 20
33.6996297921
 30
0.0
 11
265.1686469208
 21
28.555479607
 31
0.0
 71
     2
 72
     0
 73
     1
 90
     7296
310
80557333EF78ADA16C40002412788DD94040000000000000000041161DC7B292
310
7040002412788DD94040000000000000000041161DC7B2927040F6DD59E9338E
310
3C4000000000000000007333EF78ADA16C40F6DD59E9338E3C40000000000000
310
00000000000001000000000100000100000001000000000001000000001C0000
310
D0CF11E0A1B11AE1000000000000000000000000000000003E000300FEFF0900
310
0600000000000000000000000100000001000000000000000010000002000000
310
01000000FEFFFFFF0000000000000000FFFFFFFFFFFFFFFFFFFFFFFFFFFFFFFF
310
FFFFFFFFFFFFFFFFFFFFFFFFFFFFFFFFFFFFFFFFFFFFFFFFFFFFFFFFFFFFFFFF
310
FFFFFFFFFFFFFFFFFFFFFFFFFFFFFFFFFFFFFFFFFFFFFFFFFFFFFFFFFFFFFFFF
310
FFFFFFFFFFFFFFFFFFFFFFFFFFFFFFFFFFFFFFFFFFFFFFFFFFFFFFFFFFFFFFFF
310
FFFFFFFFFFFFFFFFFFFFFFFFFFFFFFFFFFFFFFFFFFFFFFFFFFFFFFFFFFFFFFFF
310
FFFFFFFFFFFFFFFFFFFFFFFFFFFFFFFFFFFFFFFFFFFFFFFFFFFFFFFFFFFFFFFF
310
FFFFFFFFFFFFFFFFFFFFFFFFFFFFFFFFFFFFFFFFFFFFFFFFFFFFFFFFFFFFFFFF
310
FFFFFFFFFFFFFFFFFFFFFFFFFFFFFFFFFFFFFFFFFFFFFFFFFFFFFFFFFFFFFFFF
310
FFFFFFFFFFFFFFFFFFFFFFFFFFFFFFFFFFFFFFFFFFFFFFFFFFFFFFFFFFFFFFFF
310
FFFFFFFFFFFFFFFFFFFFFFFFFFFFFFFFFFFFFFFFFFFFFFFFFFFFFFFFFFFFFFFF
310
FFFFFFFFFFFFFFFFFFFFFFFFFFFFFFFFFFFFFFFFFFFFFFFFFFFFFFFFFFFFFFFF
310
FFFFFFFFFFFFFFFFFFFFFFFFFFFFFFFFFFFFFFFFFFFFFFFFFFFFFFFFFFFFFFFF
310
FFFFFFFFFFFFFFFFFFFFFFFFFFFFFFFFFFFFFFFFFFFFFFFFFFFFFFFFFFFFFFFF
310
FFFFFFFFFFFFFFFFFFFFFFFFFFFFFFFFFFFFFFFFFFFFFFFFFFFFFFFFFFFFFFFF
310
FDFFFFFFFEFFFFFFFEFFFFFFFEFFFFFF05000000060000000700000008000000
310
090000000A0000000B0000000C000000FEFFFFFFFFFFFFFFFFFFFFFFFFFFFFFF
310
FFFFFFFFFFFFFFFFFFFFFFFFFFFFFFFFFFFFFFFFFFFFFFFFFFFFFFFFFFFFFFFF
310
FFFFFFFFFFFFFFFFFFFFFFFFFFFFFFFFFFFFFFFFFFFFFFFFFFFFFFFFFFFFFFFF
310
FFFFFFFFFFFFFFFFFFFFFFFFFFFFFFFFFFFFFFFFFFFFFFFFFFFFFFFFFFFFFFFF
310
FFFFFFFFFFFFFFFFFFFFFFFFFFFFFFFFFFFFFFFFFFFFFFFFFFFFFFFFFFFFFFFF
310
FFFFFFFFFFFFFFFFFFFFFFFFFFFFFFFFFFFFFFFFFFFFFFFFFFFFFFFFFFFFFFFF
310
FFFFFFFFFFFFFFFFFFFFFFFFFFFFFFFFFFFFFFFFFFFFFFFFFFFFFFFFFFFFFFFF
310
FFFFFFFFFFFFFFFFFFFFFFFFFFFFFFFFFFFFFFFFFFFFFFFFFFFFFFFFFFFFFFFF
310
FFFFFFFFFFFFFFFFFFFFFFFFFFFFFFFFFFFFFFFFFFFFFFFFFFFFFFFFFFFFFFFF
310
FFFFFFFFFFFFFFFFFFFFFFFFFFFFFFFFFFFFFFFFFFFFFFFFFFFFFFFFFFFFFFFF
310
FFFFFFFFFFFFFFFFFFFFFFFFFFFFFFFFFFFFFFFFFFFFFFFFFFFFFFFFFFFFFFFF
310
FFFFFFFFFFFFFFFFFFFFFFFFFFFFFFFFFFFFFFFFFFFFFFFFFFFFFFFFFFFFFFFF
310
FFFFFFFFFFFFFFFFFFFFFFFFFFFFFFFFFFFFFFFFFFFFFFFFFFFFFFFFFFFFFFFF
310
FFFFFFFFFFFFFFFFFFFFFFFFFFFFFFFFFFFFFFFFFFFFFFFFFFFFFFFFFFFFFFFF
310
FFFFFFFFFFFFFFFFFFFFFFFFFFFFFFFFFFFFFFFFFFFFFFFFFFFFFFFFFFFFFFFF
310
52006F006F007400200045006E00740072007900000000000000000000000000
310
0000000000000000000000000000000000000000000000000000000000000000
310
16000500FFFFFFFFFFFFFFFF020000000A00030000000000C000000000000046
310
00000000000000000000000020BE89F12C01D10103000000C000000000000000
310
01004F006C006500000000000000000000000000000000000000000000000000
310
0000000000000000000000000000000000000000000000000000000000000000
310
0A000200FFFFFFFFFFFFFFFFFFFFFFFF00000000000000000000000000000000
310
0000000000000000000000000000000000000000000000001400000000000000
310
010043006F006D0070004F0062006A0000000000000000000000000000000000
310
0000000000000000000000000000000000000000000000000000000000000000
310
120002010100000003000000FFFFFFFF00000000000000000000000000000000
310
0000000000000000000000000000000000000000010000004D00000000000000
310
01004F006C006500310030004E00610074006900760065000000000000000000
310
0000000000000000000000000000000000000000000000000000000000000000
310
1A000200FFFFFFFFFFFFFFFFFFFFFFFF00000000000000000000000000000000
310
000000000000000000000000000000000000000004000000E411000000000000
310
FEFFFFFF02000000FEFFFFFFFFFFFFFFFFFFFFFFFFFFFFFFFFFFFFFFFFFFFFFF
310
FFFFFFFFFFFFFFFFFFFFFFFFFFFFFFFFFFFFFFFFFFFFFFFFFFFFFFFFFFFFFFFF
310
FFFFFFFFFFFFFFFFFFFFFFFFFFFFFFFFFFFFFFFFFFFFFFFFFFFFFFFFFFFFFFFF
310
FFFFFFFFFFFFFFFFFFFFFFFFFFFFFFFFFFFFFFFFFFFFFFFFFFFFFFFFFFFFFFFF
310
FFFFFFFFFFFFFFFFFFFFFFFFFFFFFFFFFFFFFFFFFFFFFFFFFFFFFFFFFFFFFFFF
310
FFFFFFFFFFFFFFFFFFFFFFFFFFFFFFFFFFFFFFFFFFFFFFFFFFFFFFFFFFFFFFFF
310
FFFFFFFFFFFFFFFFFFFFFFFFFFFFFFFFFFFFFFFFFFFFFFFFFFFFFFFFFFFFFFFF
310
FFFFFFFFFFFFFFFFFFFFFFFFFFFFFFFFFFFFFFFFFFFFFFFFFFFFFFFFFFFFFFFF
310
FFFFFFFFFFFFFFFFFFFFFFFFFFFFFFFFFFFFFFFFFFFFFFFFFFFFFFFFFFFFFFFF
310
FFFFFFFFFFFFFFFFFFFFFFFFFFFFFFFFFFFFFFFFFFFFFFFFFFFFFFFFFFFFFFFF
310
FFFFFFFFFFFFFFFFFFFFFFFFFFFFFFFFFFFFFFFFFFFFFFFFFFFFFFFFFFFFFFFF
310
FFFFFFFFFFFFFFFFFFFFFFFFFFFFFFFFFFFFFFFFFFFFFFFFFFFFFFFFFFFFFFFF
310
FFFFFFFFFFFFFFFFFFFFFFFFFFFFFFFFFFFFFFFFFFFFFFFFFFFFFFFFFFFFFFFF
310
FFFFFFFFFFFFFFFFFFFFFFFFFFFFFFFFFFFFFFFFFFFFFFFFFFFFFFFFFFFFFFFF
310
FFFFFFFFFFFFFFFFFFFFFFFFFFFFFFFFFFFFFFFFFFFFFFFFFFFFFFFFFFFFFFFF
310
FFFFFFFFFFFFFFFFFFFFFFFFFFFFFFFFFFFFFFFFFFFFFFFFFFFFFFFFFFFFFFFF
310
0100000200000000000000000000000000000000000000000000000000000000
310
0000000000000000000000000000000000000000000000000000000000000000
310
0100FEFF030A0000FFFFFFFF0A00030000000000C00000000000004607000000
310
5042727573680007000000504272757368000700000050427275736800F439B2
310
7100000000000000000000000000000000000000000000000000000000000000
310
0000000000000000000000000000000000000000000000000000000000000000
310
0000000000000000000000000000000000000000000000000000000000000000
310
0000000000000000000000000000000000000000000000000000000000000000
310
0000000000000000000000000000000000000000000000000000000000000000
310
0000000000000000000000000000000000000000000000000000000000000000
310
0000000000000000000000000000000000000000000000000000000000000000
310
0000000000000000000000000000000000000000000000000000000000000000
310
0000000000000000000000000000000000000000000000000000000000000000
310
0000000000000000000000000000000000000000000000000000000000000000
310
0000000000000000000000000000000000000000000000000000000000000000
310
0000000000000000000000000000000000000000000000000000000000000000
310
E0110000424DDE11000000000000360400002800000096000000170000000100
310
08000000000000000000E7240000E72400000001000000010000000000FF0101
310
01FF020202FF030303FF040404FF050505FF060606FF070707FF080808FF0909
310
09FF0A0A0AFF0B0B0BFF0C0C0CFF0D0D0DFF0E0E0EFF0F0F0FFF101010FF1111
310
11FF121212FF131313FF141414FF151515FF161616FF171717FF181818FF1919
310
19FF1A1A1AFF1B1B1BFF1C1C1CFF1D1D1DFF1E1E1EFF1F1F1FFF202020FF2121
310
21FF222222FF232323FF242424FF252525FF262626FF272727FF282828FF2929
310
29FF2A2A2AFF2B2B2BFF2C2C2CFF2D2D2DFF2E2E2EFF2F2F2FFF303030FF3131
310
31FF323232FF333333FF343434FF353535FF363636FF373737FF383838FF3939
310
39FF3A3A3AFF3B3B3BFF3C3C3CFF3D3D3DFF3E3E3EFF3F3F3FFF404040FF4141
310
41FF424242FF434343FF444444FF454545FF464646FF474747FF484848FF4949
310
49FF4A4A4AFF4B4B4BFF4C4C4CFF4D4D4DFF4E4E4EFF4F4F4FFF505050FF5151
310
51FF525252FF535353FF545454FF555555FF565656FF575757FF585858FF5959
310
59FF5A5A5AFF5B5B5BFF5C5C5CFF5D5D5DFF5E5E5EFF5F5F5FFF606060FF6161
310
61FF626262FF636363FF646464FF656565FF666666FF676767FF686868FF6969
310
69FF6A6A6AFF6B6B6BFF6C6C6CFF6D6D6DFF6E6E6EFF6F6F6FFF707070FF7171
310
71FF727272FF737373FF747474FF757575FF767676FF777777FF787878FF7979
310
79FF7A7A7AFF7B7B7BFF7C7C7CFF7D7D7DFF7E7E7EFF7F7F7FFF808080FF8181
310
81FF828282FF838383FF848484FF858585FF868686FF878787FF888888FF8989
310
89FF8A8A8AFF8B8B8BFF8C8C8CFF8D8D8DFF8E8E8EFF8F8F8FFF909090FF9191
310
91FF929292FF939393FF949494FF959595FF969696FF979797FF989898FF9999
310
99FF9A9A9AFF9B9B9BFF9C9C9CFF9D9D9DFF9E9E9EFF9F9F9FFFA0A0A0FFA1A1
310
A1FFA2A2A2FFA3A3A3FFA4A4A4FFA5A5A5FFA6A6A6FFA7A7A7FFA8A8A8FFA9A9
310
A9FFAAAAAAFFABABABFFACACACFFADADADFFAEAEAEFFAFAFAFFFB0B0B0FFB1B1
310
B1FFB2B2B2FFB3B3B3FFB4B4B4FFB5B5B5FFB6B6B6FFB7B7B7FFB8B8B8FFB9B9
310
B9FFBABABAFFBBBBBBFFBCBCBCFFBDBDBDFFBEBEBEFFBFBFBFFFC0C0C0FFC1C1
310
C1FFC2C2C2FFC3C3C3FFC4C4C4FFC5C5C5FFC6C6C6FFC7C7C7FFC8C8C8FFC9C9
310
C9FFCACACAFFCBCBCBFFCCCCCCFFCDCDCDFFCECECEFFCFCFCFFFD0D0D0FFD1D1
310
D1FFD2D2D2FFD3D3D3FFD4D4D4FFD5D5D5FFD6D6D6FFD7D7D7FFD8D8D8FFD9D9
310
D9FFDADADAFFDBDBDBFFDCDCDCFFDDDDDDFFDEDEDEFFDFDFDFFFE0E0E0FFE1E1
310
E1FFE2E2E2FFE3E3E3FFE4E4E4FFE5E5E5FFE6E6E6FFE7E7E7FFE8E8E8FFE9E9
310
E9FFEAEAEAFFEBEBEBFFECECECFFEDEDEDFFEEEEEEFFEFEFEFFFF0F0F0FFF1F1
310
F1FFF2F2F2FFF3F3F3FFF4F4F4FFF5F5F5FFF6F6F6FFF7F7F7FFF8F8F8FFF9F9
310
F9FFFAFAFAFFFBFBFBFFFCFCFCFFFDFDFDFFFEFEFEFFFFFFFFFFFFFFFFFFFFFF
310
C94E4E4E4F4E4EFFFFFFFFFFC94E4E4E4E4E72FFFFFFFFFFFFFF734E4D4E4E4E
310
C9FFFFFFFFFFAA683516171616265B9BE9FFFFFFFFFF4E4E4E4D4E4EFFFFFFFF
310
FFFFFFFF4E4E4F4E4D4E4E4E4F4E4E4F4D4E4E4E4E4E4D4E4F4E4D4E4E4EAAFF
310
FFFFFFFFFFEA4E4F4F4E4E4E4E4E4D4D4F4F4E4E4E4E4E5B7FAAFFFFFFFFFFFF
310
C9744E1716171616164D8DEAFFFFFFFF0000FFFFFFFFFFFFBA161617161716FF
310
FFFFFFFFB917171616174FFFFFFFFFFFFFFF4E1716161616B9FFFFFFB9341717
310
1716171617171616268CFFFFFFFF161617161617FFFFFFFFFFFFFFB917161717
310
1617167F807F7F7F7F7F7F807F7F807F7F807F7F7F414EFFFFFFFFFFFF8C167F
310
7F807F7F7F7E7F7F807F807F7F807F4E3417258EFFFFEA4E162674AABAEAEBBA
310
AA74341680FFFFFF0000FFFFFFFFFFFFB9171717171617FFFFFFFFFFBB161616
310
16164EFFFFFFFFFFFFFF4E1717171717B9FFFF9C171617171716161616171616
310
171766FFFFFF161717161617FFFFFFFFFFFFFF8E16171717161616FFFFFFFFFF
310
FFFFFFFFFFFFFFFFFFFFFFFFFFAA16D9FFFFFFFFFF3467FFFFFFFFEAFFFFFFFF
310
FFFFFFFFFFFFFFFFFFCA671667EB26278DFFFFFFFFFFFFFFFFFFFF8C2541EAFF
310
0000FFFFFFFFFFFFB9171717171716FFFFFFFFFFBA16171617174EFFFFFFFFFF
310
FFFF4E1717161616BAFF9B1617161616171716171617161616161667FFFF1616
310
16161716FFFFFFFFFFFFFF7F16161617174017FFFFFFFFFFFFFFFFFFFFFFFFFF
310
FFFFFFFFFFFF344E7F7F7F7E7417DAFFFFFFFF80FFFFFFFFFFFFFFFFFFFFFFFF
310
FFFFFF9B163425CAFFFFFFFFFFFFFFFFFFFFFFFFCA2667FF0000FFFFFFFFFFFF
310
BA171717171617FFFFFFFFFFB916171716164EFFFFFFFFFFFFFF4F1716161717
310
B9C91716171616161716161617171616161617168DFF161716161717FFFFFFFF
310
FFFFFF7F17171716164F16FFFFFFFFFFFFFFFFFFFFFFFFFFFFFFFFFFFFFF9B16
310
17161617174EFFFFFFFFFF34FFFFFFFFD9BABABABABADAFFFFFFFFFF7F16AAFF
310
FFFFFFFFFFFFFFFFFFFFFFFFFF9C16BA0000FFFFFFFFFFFFB9161717161717FF
310
FFFFFFFFB917161716174DFFFFFFFFFFFFFF4E1616161616BA4E161617171716
310
419BEAEAAA4E16161617161726E9171717161616FFFFFFFFFFFFFF4F16161717
310
164E16FFFFFFFFFFBAB9B9B9B9B9BABABACAFFFFFFFFFFFFFFFFFFFFFFFFFFFF
310
FFFFBA16FFFFFFFF7F1617161617174DEAFFFFFFEA41FFFFFFFFFFAA4D16174E
310
9BFFFFFFFFFF34730000FFFFFFFFFFFFB9161617171617FFFFFFFFFFBA161616
310
16164EFFFFFFFFFFFFFF4F16161717169B1617161716175BFFFFFFFFFFFF7417
310
16171616168D171717161617FFFFFFFFFFFFEA2616171717167416FFFFFFFFFF
310
16171616171717171717EAFFFFFFFFFFFFFFFFFFFFFFFFFFFFFF6716FFFFFFFF
310
7F4EFFFFFFFFBA2573FFFFFFFFBAFFFFFFFFAA167FB9BB9B269BFFFFFFFF664F
310
0000FFFFFFFFFFFFB9171616161616FFFFFFFFFFBA16161717164EFFFFFFFFFF
310
FFFF4E16161616174E161617171626EAFFFFFFFFFFFFFF4E16161616164E1716
310
16161617FFFFFFFFFFFF671616161716347F16FFFFFFFFFF16B9FFFFFFFFFFFF
310
D9168DFFFFFFFFFFFFFFFFFFFFFFFFFFFFEA1716FFFFFFFF7F4EFFFFFFFFFF7F
310
4EFFFFFFFFFFFFFFFFFF5B66FFFFFFEA347FFFFFFFFF7F4D0000FFFFFFFFFFFF
310
B9171616171617FFFFFFFFFFBA17161716174EFFFFFFFFFFFFFF4D1716161617
310
17161716161673FFFFFFFFFFFFFFFF9B1617161717161616171616174F4E4E4E
310
4E341616171616167E7F16FFFFFFFFFF16BAFFFFFFFFFFFFFF5B41FFFFFFFF34
310
1616171616BAFFFFFF9B1716FFFFFFFF7F4EFFFFFFFFFF4E4EFFFFFFFF734E4E
310
4E4E267EDA9B67164EEAFFFFFFFF744D0000FFFFFFFFFFFFBA171717161617FF
310
FFFFFFFFBA1616171616347F7F7F7F80807F331616161717161717161716B9FF
310
FFFFFFFFFFFFFFE9161616161616171716161716171616161616171616171734
310
EA7F16FFFFFFFFFF16BAFFFFFFFFFFFFFFAA17C9FFFFFF7326BABA5B25FFFFFF
310
FF401716FFFFFFFF7F264F4E4E4E4217AAFFFFFFEA16677F73261616164173CA
310
FFFFFFFFFFFF417F0000FFFFFFFFFFFFBA171616171617FFFFFFFFFFBA161616
310
17171616161616161616161717161616161616161617EAFFFFFFFFFFFFFFFFFF
310
261717161716161617161616161617161617161616174EEAFF8016FFFFFFFFFF
310
17BAFFFFFFFFFFFFFFFF3467FFFFFFC916C9FF3467FFFFFFDA166716FFFFFFFF
310
9C4D4E4E4E4E67AAFFFFFFFF6834FF7F262567AAEAFFFFFFFFFFFFFFFF9B17D9
310
0000FFFFFFFFFFFFB9161616161616FFFFFFFFFFBA1617161717171616161616
310
1716171716161716161617171716FFFFFFFFFFFFFFFFFFFF4E17161716171616
310
1617171616161716171717161616169BFF7F17FFFFFFFFFF17B9FFFFFFFFFFFF
310
FFFF7326FFFFFFFF3473DA16AAFFFFFF7317AA16FFFFFFFFFFFFFFFFFFFFFFFF
310
FFFFEA6725BA4E167FEAFFFFFFFFFFFFFFFFFFFF9C167FFF0000FFFFFFFFFFFF
310
B9161717171716FFFFFFFFFFBA16161716171616171717161617161716161616
310
171617171617EAFFFFFFFFFFFFFFFFFF26161717161616161616161617171616
310
1616161616171616AA8016FFFFFFFFFF16BAFFFFFFFFFFFFFFFFDA179BFFFFFF
310
74348D26FFFFFFFF2566B917FFFFFFFFD8BAB9BAB9BADAFFFFEA41169B7425C9
310
FFFFFFFFFFFFFFFFFFFFAB4F1680FFFF0000FFFFFFFFFFFFBA161717171617FF
310
FFFFFFFFBA17161717161617171617161616161617171616171716171617BBFF
310
FFFFFFFFFFFFFFE9171616161617161617161716FFFFFFFFFFD9671616161617
310
348017FFFFFFFFFF16BAFFFFFFFFFFFFFFFFFF4E5AFFFFFFC916265AFFFFFFAA
310
16AABA16FFFFFFFF7F1617161616179BFFFFEB4127168DFFFFFFFFFFFFFFD99B
310
6734175AC9FFFFFF0000FFFFFFFFFFFFB9161617171617FFFFFFFFFFBB161616
310
1616347F807F7F7F7F8033171716171617171616161672FFFFFFFFFFFFFFFF9C
310
171617171617161716161617FFFFFFFFFFFFFF4117161616174E17FFFFFFFFFF
310
16BAFFFFFFFFFFFFFFFFFF9B16DAFFFFFF34169BFFFFFF5A26FFB917FFFFFFFF
310
7F4EFFFFFFEA5B26FFFFFFEA2616EAFFFFFFFFDA743416331617414E4E4E4ECA
310
0000FFFFFFFFFFFFBA161716161616FFFFFFFFFFBA17171616164EFFFFFFFFFF
310
FFFF4E16161717174E161717171626EBFFFFFFFFFFFFFF4E16161617165B1616
310
16171617FFFFFFFFFFFFFF6716161616161617FFFFFFFFFF16BAFFFFFFFFFFFF
310
FFFFFFEA268CFFFFFF7316EAFFFFEB1774FFB916FFFFFFFF7F4EFFFFFFFF7316
310
FFFFFFFF6826FFFFFFFFEB264D9CEABA257F807F7F6616BA0000FFFFFFFFFFFF
310
BA161716161616FFFFFFFFFFBA16171616164DFFFFFFFFFFFFFF4E1617161617
310
9B1617171717165BEBFFFFFFFFFF671616161617179B171616161616FFFFFFFF
310
FFFFFF3417161617171617FFFFFFFFFF17BAFFFFFFFFFFFFFFFFFFFF6734FFFF
310
FFEBCAFFFFFF8D17C9FFBA17FFFFFFFF7F357F808066174FFFFFFFFF7F16FFFF
310
FFFFD91673B99B415BFFFFFFFFBA16DA00009B7F7F7F807F671617161616167F
310
80807F7E6617161616164EFFFFFFFFFFFFFF4E1616161617B94E171716161616
310
349BC9D9AA4E16171616161634FF161617161717B9B9BAB9BA9B411716171716
310
163416FFFFFFFFFF16B9FFFFFFFFFFFFFFFFFFFFC917CAFFFFFFFFFFFFFF3342
310
FFFFBA17FFFFFFFF9B4E4E4F4E4E66EAFFFFFFFF5B16C9FFFFFFFFAA4E164E73
310
EAFFFFFFFF8D26FF00004E161716161616171617171616171717171617161616
310
17174EFFFFFFFFFFFFFF4E1717171616B9D92616171716171716171717171716
310
16171716AAFF161717171617161617171616161617161716166717FFFFFFFFFF
310
17B9FFFFFFFFFFFFFFFFFFFFFF3467FFFFFFFFFFFFCA168CFFFFBB17FFFFFFFF
310
FFFFFFFFFFFFFFFFFFFFFFEA26265BFFFFFFFFFFFFFFFFFFFFFFFFFFEA3467FF
310
00004D16161616161617161717161617161616171617171616164EFFFFFFFFFF
310
FFFF4D1617161616BAFF9B1616161616161716161616171717161766FFFF1616
310
16171617161617161716171616171717667F16FFFFFFFFFF17BAFFFFFFFFFFFF
310
FFFFFFFFFF8C26EAFFFFFFFFFF6617EAFFFFBA17FFFFFFFFFFFFFFFFFFFFFFFF
310
FFFFEA5A25BA269BFFFFFFFFFFFFFFFFFFFFFFFF6616DAFF00004E1616171616
310
1616161616161716161617171616171616174EFFFFFFFFFFFFFF4D1717171716
310
B9FFFF9C161616161616161716161717171667FFFFFF17161717171716161617
310
1716161616161641E97E16FFFFFFFFFF16B9FFFFFFFFFFFFFFFFFFFFFFEA169B
310
FFFFFFFFEA265BFFFFFFB916FFFFFFFFFFFFFFFFFFFFFFFFFF9B3416AAFF9B17
310
67EAFFFFFFFFFFFFFFFFEA5B169BFFFF00004D17161716161616161717171616
310
161717161716171716174EFFFFFFFFFFFFFF4D1616161616BAFFFFFFBB411616
310
161716161616171634ABFFFFFFFF161716161617171716171617171617267FFF
310
FF7F164E4E4E4E4F17BAFFFFFFFFFFFFFFFFFFFFFFFF66344D4E4E4F4117AAFF
310
FFFFBA174E4E4E4D4E4D4D4E4E4E4E4116174EBBFFFFFFCA342666ABEAFFFFEA
310
AA6725269CFFFFFF0000724F4E4D4D4D4E4D4D4E4E4E4D4E4E4E4E4E4E4E4E4D
310
4E4E74FFFFFFFFFFFFFF734E4E4E4D4ECAFFFFFFFFFFAA663416171717265B9B
310
FFFFFFFFFFFF7F8080807F80807F7F7F7F7F807FBAFFFFFFFF9B4E4E4F4D4D4E
310
4DC9FFFFFFFFFFFFFFFFFFFFFFFFBA4E4E4E4E4D4E4EFFFFFFFFC94E4E4E4F4E
310
4E4E4D4E4E5A807F9CD9FFFFFFFFFFFFFF9B5B2617171716174E8DEAFFFFFFFF
310
0000000000000000000000000000000000000000000000000000000000000000
  1
OLE
  0
ENDSEC
  0
SECTION
  2
OBJECTS
  0
DICTIONARY
  5
C
330
0
100
AcDbDictionary
281
     1
  3
ACAD_GROUP
350
D
  3
ACAD_LAYOUT
350
1A
  3
ACAD_MLINESTYLE
350
17
  3
ACAD_PLOTSETTINGS
350
19
  3
ACAD_PLOTSTYLENAME
350
E
  3
ACAD_SCALELIST
350
47
  0
DICTIONARY
  5
D
102
{ACAD_REACTORS
330
C
102
}
330
C
100
AcDbDictionary
281
     1
  0
DICTIONARY
  5
1A
102
{ACAD_REACTORS
330
C
102
}
330
C
100
AcDbDictionary
281
     1
  3
Layout1
350
1E
  3
Layout2
350
26
  3
Model
350
22
  0
DICTIONARY
  5
17
102
{ACAD_REACTORS
330
C
102
}
330
C
100
AcDbDictionary
281
     1
  3
Standard
350
18
  0
DICTIONARY
  5
19
102
{ACAD_REACTORS
330
C
102
}
330
C
100
AcDbDictionary
281
     1
  0
ACDBDICTIONARYWDFLT
  5
E
102
{ACAD_REACTORS
330
C
102
}
330
C
100
AcDbDictionary
281
     1
  3
Normal
350
F
100
AcDbDictionaryWithDefault
340
F
  0
DICTIONARY
  5
47
102
{ACAD_REACTORS
330
C
102
}
330
C
100
AcDbDictionary
281
     1
  3
A0
350
48
  3
A1
350
49
  3
A2
350
4A
  3
A3
350
4B
  3
A4
350
4C
  3
A5
350
4D
  3
A6
350
4E
  3
A7
350
4F
  3
A8
350
50
  3
A9
350
51
  3
B0
350
52
  3
B1
350
53
  3
B2
350
54
  3
B3
350
55
  3
B4
350
56
  3
B5
350
57
  3
B6
350
58
  3
B7
350
59
  3
B8
350
5A
  3
B9
350
5B
  3
C0
350
5C
  3
C1
350
5D
  3
C2
350
5E
  3
C3
350
5F
  3
C4
350
60
  3
C5
350
61
  3
C6
350
62
  3
C7
350
63
  3
C8
350
64
  3
C9
350
65
  3
D0
350
66
  3
D1
350
67
  3
D2
350
68
  0
LAYOUT
  5
1E
102
{ACAD_REACTORS
330
1A
102
}
330
1A
100
AcDbPlotSettings
  1

  2
none_device
  4

  6

 40
0.0
 41
0.0
 42
0.0
 43
0.0
 44
0.0
 45
0.0
 46
0.0
 47
0.0
 48
0.0
 49
0.0
140
0.0
141
0.0
142
1.0
143
1.0
 70
   688
 72
     1
 73
     0
 74
     5
  7

 75
    16
147
1.0
148
0.0
149
0.0
100
AcDbLayout
  1
Layout1
 70
     1
 71
     1
 10
0.0
 20
0.0
 11
420.0
 21
297.0
 12
0.0
 22
0.0
 32
0.0
 14
1.0000000000E+20
 24
1.0000000000E+20
 34
1.0000000000E+20
 15
-1.0000000000E+20
 25
-1.0000000000E+20
 35
-1.0000000000E+20
146
0.0
 13
0.0
 23
0.0
 33
0.0
 16
1.0
 26
0.0
 36
0.0
 17
0.0
 27
1.0
 37
0.0
 76
     0
330
1B
  0
LAYOUT
  5
26
102
{ACAD_REACTORS
330
1A
102
}
330
1A
100
AcDbPlotSettings
  1

  2
none_device
  4

  6

 40
0.0
 41
0.0
 42
0.0
 43
0.0
 44
0.0
 45
0.0
 46
0.0
 47
0.0
 48
0.0
 49
0.0
140
0.0
141
0.0
142
1.0
143
1.0
 70
   688
 72
     1
 73
     0
 74
     5
  7

 75
    16
147
1.0
148
0.0
149
0.0
100
AcDbLayout
  1
Layout2
 70
     1
 71
     2
 10
0.0
 20
0.0
 11
0.0
 21
0.0
 12
0.0
 22
0.0
 32
0.0
 14
0.0
 24
0.0
 34
0.0
 15
0.0
 25
0.0
 35
0.0
146
0.0
 13
0.0
 23
0.0
 33
0.0
 16
1.0
 26
0.0
 36
0.0
 17
0.0
 27
1.0
 37
0.0
 76
     0
330
23
  0
LAYOUT
  5
22
102
{ACAD_REACTORS
330
1A
102
}
330
1A
100
AcDbPlotSettings
  1

  2
none_device
  4
Letter_(8.50_x_11.00_Inches)
  6

 40
6.35
 41
6.35
 42
6.35000508
 43
6.35000508
 44
215.9
 45
279.4
 46
0.0
 47
0.0
 48
0.0
 49
0.0
140
0.0
141
0.0
142
1.0
143
1.0
 70
  1712
 72
     1
 73
     0
 74
     0
  7

 75
     0
147
1.0
148
0.0
149
0.0
100
AcDbLayout
  1
Model
 70
     1
 71
     0
 10
0.0
 20
0.0
 11
279.4
 21
215.9
 12
0.0
 22
0.0
 32
0.0
 14
0.0
 24
0.0
 34
0.0
 15
279.4
 25
215.9
 35
0.0
146
0.0
 13
0.0
 23
0.0
 33
0.0
 16
1.0
 26
0.0
 36
0.0
 17
0.0
 27
1.0
 37
0.0
 76
     0
330
1F
331
29
  0
MLINESTYLE
  5
18
102
{ACAD_REACTORS
330
17
102
}
330
17
100
AcDbMlineStyle
  2
Standard
 70
     0
  3

 62
   256
 51
90.0
 52
90.0
 71
     2
 49
0.5
 62
   256
  6
BYLAYER
 49
-0.5
 62
   256
  6
BYLAYER
  0
ACDBPLACEHOLDER
  5
F
102
{ACAD_REACTORS
330
E
102
}
330
E
  0
SCALE
  5
48
102
{ACAD_REACTORS
330
47
102
}
330
47
100
AcDbScale
 70
     0
300
1:1
140
1.0
141
1.0
290
     1
  0
SCALE
  5
49
102
{ACAD_REACTORS
330
47
102
}
330
47
100
AcDbScale
 70
     0
300
1:2
140
1.0
141
2.0
290
     0
  0
SCALE
  5
4A
102
{ACAD_REACTORS
330
47
102
}
330
47
100
AcDbScale
 70
     0
300
1:4
140
1.0
141
4.0
290
     0
  0
SCALE
  5
4B
102
{ACAD_REACTORS
330
47
102
}
330
47
100
AcDbScale
 70
     0
300
1:5
140
1.0
141
5.0
290
     0
  0
SCALE
  5
4C
102
{ACAD_REACTORS
330
47
102
}
330
47
100
AcDbScale
 70
     0
300
1:8
140
1.0
141
8.0
290
     0
  0
SCALE
  5
4D
102
{ACAD_REACTORS
330
47
102
}
330
47
100
AcDbScale
 70
     0
300
1:10
140
1.0
141
10.0
290
     0
  0
SCALE
  5
4E
102
{ACAD_REACTORS
330
47
102
}
330
47
100
AcDbScale
 70
     0
300
1:16
140
1.0
141
16.0
290
     0
  0
SCALE
  5
4F
102
{ACAD_REACTORS
330
47
102
}
330
47
100
AcDbScale
 70
     0
300
1:20
140
1.0
141
20.0
290
     0
  0
SCALE
  5
50
102
{ACAD_REACTORS
330
47
102
}
330
47
100
AcDbScale
 70
     0
300
1:30
140
1.0
141
30.0
290
     0
  0
SCALE
  5
51
102
{ACAD_REACTORS
330
47
102
}
330
47
100
AcDbScale
 70
     0
300
1:40
140
1.0
141
40.0
290
     0
  0
SCALE
  5
52
102
{ACAD_REACTORS
330
47
102
}
330
47
100
AcDbScale
 70
     0
300
1:50
140
1.0
141
50.0
290
     0
  0
SCALE
  5
53
102
{ACAD_REACTORS
330
47
102
}
330
47
100
AcDbScale
 70
     0
300
1:100
140
1.0
141
100.0
290
     0
  0
SCALE
  5
54
102
{ACAD_REACTORS
330
47
102
}
330
47
100
AcDbScale
 70
     0
300
2:1
140
2.0
141
1.0
290
     0
  0
SCALE
  5
55
102
{ACAD_REACTORS
330
47
102
}
330
47
100
AcDbScale
 70
     0
300
4:1
140
4.0
141
1.0
290
     0
  0
SCALE
  5
56
102
{ACAD_REACTORS
330
47
102
}
330
47
100
AcDbScale
 70
     0
300
8:1
140
8.0
141
1.0
290
     0
  0
SCALE
  5
57
102
{ACAD_REACTORS
330
47
102
}
330
47
100
AcDbScale
 70
     0
300
10:1
140
10.0
141
1.0
290
     0
  0
SCALE
  5
58
102
{ACAD_REACTORS
330
47
102
}
330
47
100
AcDbScale
 70
     0
300
100:1
140
100.0
141
1.0
290
     0
  0
SCALE
  5
59
102
{ACAD_REACTORS
330
47
102
}
330
47
100
AcDbScale
 70
     0
300
1/128" = 1'-0"
140
0.0078125
141
12.0
290
     0
  0
SCALE
  5
5A
102
{ACAD_REACTORS
330
47
102
}
330
47
100
AcDbScale
 70
     0
300
1/64" = 1'-0"
140
0.015625
141
12.0
290
     0
  0
SCALE
  5
5B
102
{ACAD_REACTORS
330
47
102
}
330
47
100
AcDbScale
 70
     0
300
1/32" = 1'-0"
140
0.03125
141
12.0
290
     0
  0
SCALE
  5
5C
102
{ACAD_REACTORS
330
47
102
}
330
47
100
AcDbScale
 70
     0
300
1/16" = 1'-0"
140
0.0625
141
12.0
290
     0
  0
SCALE
  5
5D
102
{ACAD_REACTORS
330
47
102
}
330
47
100
AcDbScale
 70
     0
300
3/32" = 1'-0"
140
0.09375
141
12.0
290
     0
  0
SCALE
  5
5E
102
{ACAD_REACTORS
330
47
102
}
330
47
100
AcDbScale
 70
     0
300
1/8" = 1'-0"
140
0.125
141
12.0
290
     0
  0
SCALE
  5
5F
102
{ACAD_REACTORS
330
47
102
}
330
47
100
AcDbScale
 70
     0
300
3/16" = 1'-0"
140
0.1875
141
12.0
290
     0
  0
SCALE
  5
60
102
{ACAD_REACTORS
330
47
102
}
330
47
100
AcDbScale
 70
     0
300
1/4" = 1'-0"
140
0.25
141
12.0
290
     0
  0
SCALE
  5
61
102
{ACAD_REACTORS
330
47
102
}
330
47
100
AcDbScale
 70
     0
300
3/8" = 1'-0"
140
0.375
141
12.0
290
     0
  0
SCALE
  5
62
102
{ACAD_REACTORS
330
47
102
}
330
47
100
AcDbScale
 70
     0
300
1/2" = 1'-0"
140
0.5
141
12.0
290
     0
  0
SCALE
  5
63
102
{ACAD_REACTORS
330
47
102
}
330
47
100
AcDbScale
 70
     0
300
3/4" = 1'-0"
140
0.75
141
12.0
290
     0
  0
SCALE
  5
64
102
{ACAD_REACTORS
330
47
102
}
330
47
100
AcDbScale
 70
     0
300
1" = 1'-0"
140
1.0
141
12.0
290
     0
  0
SCALE
  5
65
102
{ACAD_REACTORS
330
47
102
}
330
47
100
AcDbScale
 70
     0
300
1-1/2" = 1'-0"
140
1.5
141
12.0
290
     0
  0
SCALE
  5
66
102
{ACAD_REACTORS
330
47
102
}
330
47
100
AcDbScale
 70
     0
300
3" = 1'-0"
140
3.0
141
12.0
290
     0
  0
SCALE
  5
67
102
{ACAD_REACTORS
330
47
102
}
330
47
100
AcDbScale
 70
     0
300
6" = 1'-0"
140
6.0
141
12.0
290
     0
  0
SCALE
  5
68
102
{ACAD_REACTORS
330
47
102
}
330
47
100
AcDbScale
 70
     0
300
1'-0" = 1'-0"
140
12.0
141
12.0
290
     0
  0
ENDSEC
  0
EOF
