  0
SECTION
  2
HEADER
  9
$ACADVER
  1
AC1015
  9
$ACADMAINTVER
 70
     6
  9
$DWGCODEPAGE
  3
ANSI_1252
  9
$INSBASE
 10
0.0
 20
0.0
 30
0.0
  9
$EXTMIN
 10
0.0
 20
0.0
 30
0.0
  9
$EXTMAX
 10
11.0
 20
8.5
 30
0.0
  9
$LIMMIN
 10
0.0
 20
0.0
  9
$LIMMAX
 10
11.0
 20
8.5
  9
$ORTHOMODE
 70
     0
  9
$REGENMODE
 70
     1
  9
$FILLMODE
 70
     1
  9
$QTEXTMODE
 70
     0
  9
$MIRRTEXT
 70
     1
  9
$LTSCALE
 40
1.0
  9
$ATTMODE
 70
     1
  9
$TEXTSIZE
 40
0.1111111111
  9
$TRACEWID
 40
0.05
  9
$TEXTSTYLE
  7
Standard
  9
$CLAYER
  8
0
  9
$CELTYPE
  6
ByLayer
  9
$CECOLOR
 62
   256
  9
$CELTSCALE
 40
1.0
  9
$DISPSILH
 70
     0
  9
$DIMSCALE
 40
1.0
  9
$DIMASZ
 40
0.125
  9
$DIMEXO
 40
0.05
  9
$DIMDLI
 40
0.38
  9
$DIMRND
 40
0.0
  9
$DIMDLE
 40
0.0
  9
$DIMEXE
 40
0.07
  9
$DIMTP
 40
0.0
  9
$DIMTM
 40
0.0
  9
$DIMTXT
 40
0.1111111111
  9
$DIMCEN
 40
0.09
  9
$DIMTSZ
 40
0.0
  9
$DIMTOL
 70
     0
  9
$DIMLIM
 70
     0
  9
$DIMTIH
 70
     1
  9
$DIMTOH
 70
     1
  9
$DIMSE1
 70
     0
  9
$DIMSE2
 70
     0
  9
$DIMTAD
 70
     0
  9
$DIMZIN
 70
     0
  9
$DIMBLK
  1

  9
$DIMASO
 70
     1
  9
$DIMSHO
 70
     1
  9
$DIMPOST
  1

  9
$DIMAPOST
  1

  9
$DIMALT
 70
     0
  9
$DIMALTD
 70
     2
  9
$DIMALTF
 40
25.4
  9
$DIMLFAC
 40
1.0
  9
$DIMTOFL
 70
     0
  9
$DIMTVP
 40
0.0
  9
$DIMTIX
 70
     0
  9
$DIMSOXD
 70
     0
  9
$DIMSAH
 70
     0
  9
$DIMBLK1
  1

  9
$DIMBLK2
  1

  9
$DIMSTYLE
  2
Standard
  9
$DIMCLRD
 70
     0
  9
$DIMCLRE
 70
     0
  9
$DIMCLRT
 70
     0
  9
$DIMTFAC
 40
1.0
  9
$DIMGAP
 40
0.1
  9
$DIMJUST
 70
     0
  9
$DIMSD1
 70
     0
  9
$DIMSD2
 70
     0
  9
$DIMTOLJ
 70
     1
  9
$DIMTZIN
 70
     0
  9
$DIMALTZ
 70
     0
  9
$DIMALTTZ
 70
     0
  9
$DIMUPT
 70
     0
  9
$DIMDEC
 70
     2
  9
$DIMTDEC
 70
     2
  9
$DIMALTU
 70
     2
  9
$DIMALTTD
 70
     2
  9
$DIMTXSTY
  7
Standard
  9
$DIMAUNIT
 70
     0
  9
$DIMADEC
 70
     2
  9
$DIMALTRND
 40
0.0
  9
$DIMAZIN
 70
     0
  9
$DIMDSEP
 70
    46
  9
$DIMATFIT
 70
     3
  9
$DIMFRAC
 70
     0
  9
$DIMLDRBLK
  1

  9
$DIMLUNIT
 70
     2
  9
$DIMLWD
 70
    -2
  9
$DIMLWE
 70
    -2
  9
$DIMTMOVE
 70
     0
  9
$LUNITS
 70
     2
  9
$LUPREC
 70
     2
  9
$SKETCHINC
 40
0.1
  9
$FILLETRAD
 40
0.5
  9
$AUNITS
 70
     0
  9
$AUPREC
 70
     2
  9
$MENU
  1
.
  9
$ELEVATION
 40
0.0
  9
$PELEVATION
 40
0.0
  9
$THICKNESS
 40
0.0
  9
$LIMCHECK
 70
     0
  9
$CHAMFERA
 40
0.5
  9
$CHAMFERB
 40
0.5
  9
$CHAMFERC
 40
1.0
  9
$CHAMFERD
 40
0.0
  9
$SKPOLY
 70
     0
  9
$TDCREATE
 40
2455993.628685093
  9
$TDUCREATE
 40
2455993.837018426
  9
$TDUPDATE
 40
2455993.628685104
  9
$TDUUPDATE
 40
2455993.837018438
  9
$TDINDWG
 40
0.0000000116
  9
$TDUSRTIMER
 40
0.0000000116
  9
$USRTIMER
 70
     1
  9
$ANGBASE
 50
0.0
  9
$ANGDIR
 70
     0
  9
$PDMODE
 70
     0
  9
$PDSIZE
 40
-1.0
  9
$PLINEWID
 40
0.0
  9
$SPLFRAME
 70
     0
  9
$SPLINETYPE
 70
     6
  9
$SPLINESEGS
 70
     8
  9
$HANDSEED
  5
3B2
  9
$SURFTAB1
 70
     6
  9
$SURFTAB2
 70
     6
  9
$SURFTYPE
 70
     6
  9
$SURFU
 70
     6
  9
$SURFV
 70
     6
  9
$UCSBASE
  2

  9
$UCSNAME
  2

  9
$UCSORG
 10
0.0
 20
0.0
 30
0.0
  9
$UCSXDIR
 10
1.0
 20
0.0
 30
0.0
  9
$UCSYDIR
 10
0.0
 20
1.0
 30
0.0
  9
$UCSORTHOREF
  2

  9
$UCSORTHOVIEW
 70
     0
  9
$UCSORGTOP
 10
0.0
 20
0.0
 30
0.0
  9
$UCSORGBOTTOM
 10
0.0
 20
0.0
 30
0.0
  9
$UCSORGLEFT
 10
0.0
 20
0.0
 30
0.0
  9
$UCSORGRIGHT
 10
0.0
 20
0.0
 30
0.0
  9
$UCSORGFRONT
 10
0.0
 20
0.0
 30
0.0
  9
$UCSORGBACK
 10
0.0
 20
0.0
 30
0.0
  9
$PUCSBASE
  2

  9
$PUCSNAME
  2

  9
$PUCSORG
 10
0.0
 20
0.0
 30
0.0
  9
$PUCSXDIR
 10
1.0
 20
0.0
 30
0.0
  9
$PUCSYDIR
 10
0.0
 20
1.0
 30
0.0
  9
$PUCSORTHOREF
  2

  9
$PUCSORTHOVIEW
 70
     0
  9
$PUCSORGTOP
 10
0.0
 20
0.0
 30
0.0
  9
$PUCSORGBOTTOM
 10
0.0
 20
0.0
 30
0.0
  9
$PUCSORGLEFT
 10
0.0
 20
0.0
 30
0.0
  9
$PUCSORGRIGHT
 10
0.0
 20
0.0
 30
0.0
  9
$PUCSORGFRONT
 10
0.0
 20
0.0
 30
0.0
  9
$PUCSORGBACK
 10
0.0
 20
0.0
 30
0.0
  9
$USERI1
 70
     0
  9
$USERI2
 70
     0
  9
$USERI3
 70
     0
  9
$USERI4
 70
     0
  9
$USERI5
 70
     0
  9
$USERR1
 40
0.0
  9
$USERR2
 40
0.0
  9
$USERR3
 40
0.0
  9
$USERR4
 40
0.0
  9
$USERR5
 40
0.0
  9
$WORLDVIEW
 70
     1
  9
$SHADEDGE
 70
     3
  9
$SHADEDIF
 70
    70
  9
$TILEMODE
 70
     1
  9
$MAXACTVP
 70
    64
  9
$PINSBASE
 10
0.0
 20
0.0
 30
0.0
  9
$PLIMCHECK
 70
     0
  9
$PEXTMIN
 10
1.0000000000E+20
 20
1.0000000000E+20
 30
1.0000000000E+20
  9
$PEXTMAX
 10
-1.0000000000E+20
 20
-1.0000000000E+20
 30
-1.0000000000E+20
  9
$PLIMMIN
 10
0.0
 20
0.0
  9
$PLIMMAX
 10
12.0
 20
9.0
  9
$UNITMODE
 70
     0
  9
$VISRETAIN
 70
     1
  9
$PLINEGEN
 70
     0
  9
$PSLTSCALE
 70
     1
  9
$TREEDEPTH
 70
  3020
  9
$CMLSTYLE
  2
Standard
  9
$CMLJUST
 70
     0
  9
$CMLSCALE
 40
1.0
  9
$PROXYGRAPHICS
 70
     1
  9
$MEASUREMENT
 70
     0
  9
$CELWEIGHT
370
    -1
  9
$ENDCAPS
280
     0
  9
$JOINSTYLE
280
     0
  9
$LWDISPLAY
290
     1
  9
$INSUNITS
 70
     1
  9
$HYPERLINKBASE
  1

  9
$STYLESHEET
  1

  9
$XEDIT
290
     1
  9
$CEPSNTYPE
380
     0
  9
$PSTYLEMODE
290
     1
  9
$FINGERPRINTGUID
  2
{2B81C783-20C4-4878-81B5-B1B0493532DB}
  9
$VERSIONGUID
  2
{FAEB1C32-E019-11D5-929B-00C0DF256EC4}
  9
$EXTNAMES
290
     1
  9
$PSVPSCALE
 40
0.0
  9
$OLESTARTUP
290
     0
  0
ENDSEC
  0
SECTION
  2
CLASSES
  0
CLASS
  1
ACDBDICTIONARYWDFLT
  2
AcDbDictionaryWithDefault
  3
ObjectDBX Classes
 90
        0
280
     0
281
     0
  0
CLASS
  1
VISUALSTYLE
  2
AcDbVisualStyle
  3
ObjectDBX Classes
 90
     4095
280
     0
281
     0
  0
CLASS
  1
MATERIAL
  2
AcDbMaterial
  3
ObjectDBX Classes
 90
     1153
280
     0
281
     0
  0
CLASS
  1
ACDBPLACEHOLDER
  2
AcDbPlaceHolder
  3
ObjectDBX Classes
 90
        0
280
     0
281
     0
  0
CLASS
  1
LAYOUT
  2
AcDbLayout
  3
ObjectDBX Classes
 90
        0
280
     0
281
     0
  0
ENDSEC
  0
SECTION
  2
TABLES
  0
TABLE
  2
VPORT
  5
8
330
0
100
AcDbSymbolTable
 70
     1
  0
VPORT
  5
29
330
8
100
AcDbSymbolTableRecord
100
AcDbViewportTableRecord
  2
*Active
 70
     0
 10
0.0
 20
0.0
 11
1.0
 21
1.0
 12
5.5
 22
4.25
 13
0.0
 23
0.0
 14
0.5
 24
0.5
 15
0.5
 25
0.5
 16
0.0
 26
0.0
 36
1.0
 17
0.0
 27
0.0
 37
0.0
 40
8.5
 41
1.2941176471
 42
50.0
 43
0.0
 44
0.0
 50
0.0
 51
0.0
 71
     0
 72
  2000
 73
     1
 74
     3
 75
     0
 76
     0
 77
     0
 78
     0
281
     0
 65
     1
110
0.0
120
0.0
130
0.0
111
1.0
121
0.0
131
0.0
112
0.0
122
1.0
132
0.0
 79
     0
146
0.0
  0
ENDTAB
  0
TABLE
  2
LTYPE
  5
5
330
0
100
AcDbSymbolTable
 70
     6
  0
LTYPE
  5
14
330
5
100
AcDbSymbolTableRecord
100
AcDbLinetypeTableRecord
  2
ByBlock
 70
     0
  3

 72
    65
 73
     0
 40
0.0
  0
LTYPE
  5
15
330
5
100
AcDbSymbolTableRecord
100
AcDbLinetypeTableRecord
  2
ByLayer
 70
     0
  3

 72
    65
 73
     0
 40
0.0
  0
LTYPE
  5
16
330
5
100
AcDbSymbolTableRecord
100
AcDbLinetypeTableRecord
  2
Continuous
 70
     0
  3
Solid line
 72
    65
 73
     0
 40
0.0
  0
LTYPE
  5
3F
330
5
100
AcDbSymbolTableRecord
100
AcDbLinetypeTableRecord
  2
HIDDEN
 70
     0
  3
Hidden __ __ __ __ __ __ __ __ __ __ __ __ __ __
 72
    65
 73
     2
 40
0.075
 49
0.05
 74
     0
 49
-0.025
 74
     0
  0
LTYPE
  5
40
330
5
100
AcDbSymbolTableRecord
100
AcDbLinetypeTableRecord
  2
PHANTOM
 70
     0
  3
Phantom ______  __  __  ______  __  __  ______
 72
    65
 73
     6
 40
0.5
 49
0.25
 74
     0
 49
-0.05
 74
     0
 49
0.05
 74
     0
 49
-0.05
 74
     0
 49
0.05
 74
     0
 49
-0.05
 74
     0
  0
LTYPE
  5
41
330
5
100
AcDbSymbolTableRecord
100
AcDbLinetypeTableRecord
  2
CENTER
 70
     0
  3
Center ____ _ ____ _ ____ _ ____ _ ____ _ ____
 72
    65
 73
     4
 40
0.4
 49
0.25
 74
     0
 49
-0.05
 74
     0
 49
0.05
 74
     0
 49
-0.05
 74
     0
  0
LTYPE
  5
42
330
5
100
AcDbSymbolTableRecord
100
AcDbLinetypeTableRecord
  2
CENTERX2
 70
     0
  3
Center (2x) ________  __  ________  __  _____
 72
    65
 73
     4
 40
0.8
 49
0.5
 74
     0
 49
-0.1
 74
     0
 49
0.1
 74
     0
 49
-0.1
 74
     0
  0
LTYPE
  5
43
330
5
100
AcDbSymbolTableRecord
100
AcDbLinetypeTableRecord
  2
DOT2
 70
     0
  3
Dot (.5x) ........................................
 72
    65
 73
     2
 40
0.025
 49
0.0
 74
     0
 49
-0.025
 74
     0
  0
ENDTAB
  0
TABLE
  2
LAYER
  5
2
330
0
100
AcDbSymbolTable
 70
     2
  0
LAYER
  5
10
330
2
100
AcDbSymbolTableRecord
100
AcDbLayerTableRecord
  2
0
 70
     0
 62
     7
  6
Continuous
370
    -3
390
F
  0
LAYER
  5
44
330
2
100
AcDbSymbolTableRecord
100
AcDbLayerTableRecord
  2
FORMAT
 70
     0
 62
     7
  6
Continuous
370
    -3
390
F
  0
ENDTAB
  0
TABLE
  2
STYLE
  5
3
330
0
100
AcDbSymbolTable
 70
     5
  0
STYLE
  5
11
330
3
100
AcDbSymbolTableRecord
100
AcDbTextStyleTableRecord
  2
Standard
 70
     0
 40
0.0
 41
1.0
 50
0.0
 71
     0
 42
0.2
  3
txt
  4

  0
STYLE
  5
6B
330
3
100
AcDbSymbolTableRecord
100
AcDbTextStyleTableRecord
  2
SLDTEXTSTYLE0
 70
     0
 40
0.0
 41
0.75
 50
0.0
 71
     0
 42
0.2
  3
TXT
  4

  0
STYLE
  5
74
330
3
100
AcDbSymbolTableRecord
100
AcDbTextStyleTableRecord
  2
SLDTEXTSTYLE1
 70
     0
 40
0.0
 41
0.6944444444
 50
0.0
 71
     0
 42
0.2
  3
TXT
  4

  0
STYLE
  5
78
330
3
100
AcDbSymbolTableRecord
100
AcDbTextStyleTableRecord
  2
SLDTEXTSTYLE2
 70
     0
 40
0.0
 41
0.6
 50
0.0
 71
     0
 42
0.2
  3
TXT
  4

  0
STYLE
  5
15E
330
3
100
AcDbSymbolTableRecord
100
AcDbTextStyleTableRecord
  2
SLDTEXTSTYLE3
 70
     0
 40
0.0
 41
0.6875
 50
0.0
 71
     0
 42
0.2
  3
TXT
  4

  0
ENDTAB
  0
TABLE
  2
VIEW
  5
6
330
0
100
AcDbSymbolTable
 70
     0
  0
ENDTAB
  0
TABLE
  2
UCS
  5
7
330
0
100
AcDbSymbolTable
 70
     0
  0
ENDTAB
  0
TABLE
  2
APPID
  5
9
330
0
100
AcDbSymbolTable
 70
     1
  0
APPID
  5
12
330
9
100
AcDbSymbolTableRecord
100
AcDbRegAppTableRecord
  2
ACAD
 70
     0
  0
ENDTAB
  0
TABLE
  2
DIMSTYLE
  5
A
330
0
100
AcDbSymbolTable
 70
     9
100
AcDbDimStyleTable
  0
DIMSTYLE
105
27
330
A
100
AcDbSymbolTableRecord
100
AcDbDimStyleTableRecord
  2
Standard
 70
     0
178
     0
340
11
  0
DIMSTYLE
105
C8
102
{ACAD_REACTORS
330
C7
330
1B6
330
1C6
102
}
330
A
100
AcDbSymbolTableRecord
100
AcDbDimStyleTableRecord
  2
SLDDIMSTYLE0
 70
     0
 41
0.125
 44
0.0
 45
0.000000001
 78
    12
 79
     3
140
0.0833333333
147
0.0208333333
172
     1
173
     1
178
     0
271
     2
272
     2
276
     2
284
    12
289
     0
340
6B
  0
DIMSTYLE
105
D7
102
{ACAD_REACTORS
330
D6
102
}
330
A
100
AcDbSymbolTableRecord
100
AcDbDimStyleTableRecord
  2
SLDDIMSTYLE1
 70
     0
 41
0.125
 44
0.0
 45
0.000000001
 78
     4
 79
     1
140
0.0833333333
147
0.0208333333
173
     1
178
     0
271
     2
272
     2
276
     2
284
    12
340
6B
  0
DIMSTYLE
105
E6
102
{ACAD_REACTORS
330
E5
330
11E
330
136
330
1A8
330
392
102
}
330
A
100
AcDbSymbolTableRecord
100
AcDbDimStyleTableRecord
  2
SLDDIMSTYLE2
 70
     0
 41
0.125
 44
0.0
 45
0.000000001
 78
    12
 79
     3
140
0.0833333333
147
0.0208333333
173
     1
178
     0
271
     2
272
     2
276
     2
284
    12
340
6B
  0
DIMSTYLE
105
12D
102
{ACAD_REACTORS
330
12C
330
3A0
102
}
330
A
100
AcDbSymbolTableRecord
100
AcDbDimStyleTableRecord
  2
SLDDIMSTYLE3
 70
     0
  3
<>
 41
0.125
 44
0.0
 45
0.000000001
 78
    12
 79
     3
140
0.0833333333
141
0.0
147
0.0208333333
173
     1
178
     0
271
     2
272
     2
276
     2
284
    12
340
6B
  0
DIMSTYLE
105
145
102
{ACAD_REACTORS
330
144
102
}
330
A
100
AcDbSymbolTableRecord
100
AcDbDimStyleTableRecord
  2
SLDDIMSTYLE4
 70
     0
 41
0.125
 44
0.0
 45
0.000000001
 78
    12
 79
     3
140
0.0833333333
141
0.0
147
0.0208333333
173
     1
178
     0
271
     2
272
     2
276
     2
284
    12
340
6B
  0
DIMSTYLE
105
153
102
{ACAD_REACTORS
330
152
102
}
330
A
100
AcDbSymbolTableRecord
100
AcDbDimStyleTableRecord
  2
SLDDIMSTYLE5
 70
     0
 41
0.125
 44
0.0
 45
0.000000001
 78
     4
 79
     1
140
0.0833333333
141
0.0
147
0.0208333333
173
     1
178
     0
271
     2
272
     2
276
     2
284
    12
340
6B
  0
DIMSTYLE
105
1D5
102
{ACAD_REACTORS
330
1D4
102
}
330
A
100
AcDbSymbolTableRecord
100
AcDbDimStyleTableRecord
  2
SLDDIMSTYLE6
 70
     0
  3
<>
 41
0.125
 44
0.0
 45
0.000000001
 78
    12
 79
     3
140
0.0833333333
141
0.0
147
0.0208333333
173
     1
178
     0
271
     2
272
     2
276
     2
284
    12
340
6B
  0
DIMSTYLE
105
1E6
330
A
100
AcDbSymbolTableRecord
100
AcDbDimStyleTableRecord
  2
SLDDIMSTYLE7
 70
     0
 41
0.04
 44
0.0
 45
0.000000001
140
0.0
146
0.04
147
0.0
173
     1
178
     0
271
     0
272
     0
276
     2
340
11
341
1E7
343
1E7
344
1E7
  0
ENDTAB
  0
TABLE
  2
BLOCK_RECORD
  5
1
330
0
100
AcDbSymbolTable
 70
    26
  0
BLOCK_RECORD
  5
1F
330
1
100
AcDbSymbolTableRecord
100
AcDbBlockTableRecord
  2
*Model_Space
340
22
  0
BLOCK_RECORD
  5
1B
330
1
100
AcDbSymbolTableRecord
100
AcDbBlockTableRecord
  2
*Paper_Space
340
1E
  0
BLOCK_RECORD
  5
23
330
1
100
AcDbSymbolTableRecord
100
AcDbBlockTableRecord
  2
*Paper_Space0
340
26
  0
BLOCK_RECORD
  5
45
330
1
100
AcDbSymbolTableRecord
100
AcDbBlockTableRecord
  2
Third Angle Projection Block
340
0
102
{BLKREFS
331
6A
102
}
  0
BLOCK_RECORD
  5
7E
330
1
100
AcDbSymbolTableRecord
100
AcDbBlockTableRecord
  2
SW_NOTE_0
340
0
102
{BLKREFS
331
83
102
}
  0
BLOCK_RECORD
  5
84
330
1
100
AcDbSymbolTableRecord
100
AcDbBlockTableRecord
  2
SW_NOTE_1
340
0
102
{BLKREFS
331
89
102
}
  0
BLOCK_RECORD
  5
8B
330
1
100
AcDbSymbolTableRecord
100
AcDbBlockTableRecord
  2
SW_NOTE_2
340
0
102
{BLKREFS
331
90
102
}
  0
BLOCK_RECORD
  5
92
330
1
100
AcDbSymbolTableRecord
100
AcDbBlockTableRecord
  2
SW_NOTE_3
340
0
102
{BLKREFS
331
97
102
}
  0
BLOCK_RECORD
  5
C9
330
1
100
AcDbSymbolTableRecord
100
AcDbBlockTableRecord
  2
*D6
340
0
  0
BLOCK_RECORD
  5
D8
330
1
100
AcDbSymbolTableRecord
100
AcDbBlockTableRecord
  2
*D7
340
0
  0
BLOCK_RECORD
  5
E7
330
1
100
AcDbSymbolTableRecord
100
AcDbBlockTableRecord
  2
*D8
340
0
  0
BLOCK_RECORD
  5
11F
330
1
100
AcDbSymbolTableRecord
100
AcDbBlockTableRecord
  2
*D9
340
0
  0
BLOCK_RECORD
  5
12E
330
1
100
AcDbSymbolTableRecord
100
AcDbBlockTableRecord
  2
*D10
340
0
  0
BLOCK_RECORD
  5
137
330
1
100
AcDbSymbolTableRecord
100
AcDbBlockTableRecord
  2
*D11
340
0
  0
BLOCK_RECORD
  5
146
330
1
100
AcDbSymbolTableRecord
100
AcDbBlockTableRecord
  2
*D12
340
0
  0
BLOCK_RECORD
  5
154
330
1
100
AcDbSymbolTableRecord
100
AcDbBlockTableRecord
  2
*D13
340
0
  0
BLOCK_RECORD
  5
161
330
1
100
AcDbSymbolTableRecord
100
AcDbBlockTableRecord
  2
SW_CENTERMARKSYMBOL_0
340
0
102
{BLKREFS
331
168
102
}
  0
BLOCK_RECORD
  5
169
330
1
100
AcDbSymbolTableRecord
100
AcDbBlockTableRecord
  2
SW_CENTERMARKSYMBOL_1
340
0
102
{BLKREFS
331
170
102
}
  0
BLOCK_RECORD
  5
1A9
330
1
100
AcDbSymbolTableRecord
100
AcDbBlockTableRecord
  2
*D16
340
0
  0
BLOCK_RECORD
  5
1B7
330
1
100
AcDbSymbolTableRecord
100
AcDbBlockTableRecord
  2
*D17
340
0
  0
BLOCK_RECORD
  5
1C7
330
1
100
AcDbSymbolTableRecord
100
AcDbBlockTableRecord
  2
*D18
340
0
  0
BLOCK_RECORD
  5
1D6
330
1
100
AcDbSymbolTableRecord
100
AcDbBlockTableRecord
  2
*D19
340
0
  0
BLOCK_RECORD
  5
1DE
330
1
100
AcDbSymbolTableRecord
100
AcDbBlockTableRecord
  2
SW_NOTE_4
340
0
102
{BLKREFS
331
1E5
102
}
  0
BLOCK_RECORD
  5
1E7
330
1
100
AcDbSymbolTableRecord
100
AcDbBlockTableRecord
  2
_DOT
340
0
  0
BLOCK_RECORD
  5
1F0
330
1
100
AcDbSymbolTableRecord
100
AcDbBlockTableRecord
  2
SW_CENTERMARKSYMBOL_2
340
0
102
{BLKREFS
331
1F7
102
}
  0
BLOCK_RECORD
  5
393
330
1
100
AcDbSymbolTableRecord
100
AcDbBlockTableRecord
  2
*D23
340
0
  0
BLOCK_RECORD
  5
3A1
330
1
100
AcDbSymbolTableRecord
100
AcDbBlockTableRecord
  2
*D24
340
0
  0
BLOCK_RECORD
  5
3A9
330
1
100
AcDbSymbolTableRecord
100
AcDbBlockTableRecord
  2
SW_CENTERMARKSYMBOL_3
340
0
102
{BLKREFS
331
3B0
102
}
  0
ENDTAB
  0
ENDSEC
  0
SECTION
  2
BLOCKS
  0
BLOCK
  5
20
330
1F
100
AcDbEntity
  8
0
100
AcDbBlockBegin
  2
*Model_Space
 70
     0
 10
0.0
 20
0.0
 30
0.0
  3
*Model_Space
  1

  0
ENDBLK
  5
21
330
1F
100
AcDbEntity
  8
0
100
AcDbBlockEnd
  0
BLOCK
  5
1C
330
1B
100
AcDbEntity
 67
     1
  8
0
100
AcDbBlockBegin
  2
*Paper_Space
 70
     0
 10
0.0
 20
0.0
 30
0.0
  3
*Paper_Space
  1

  0
ENDBLK
  5
1D
330
1B
100
AcDbEntity
 67
     1
  8
0
100
AcDbBlockEnd
  0
BLOCK
  5
24
330
23
100
AcDbEntity
  8
0
100
AcDbBlockBegin
  2
*Paper_Space0
 70
     0
 10
0.0
 20
0.0
 30
0.0
  3
*Paper_Space0
  1

  0
ENDBLK
  5
25
330
23
100
AcDbEntity
  8
0
100
AcDbBlockEnd
  0
BLOCK
  5
46
330
45
100
AcDbEntity
  8
0
100
AcDbBlockBegin
  2
Third Angle Projection Block
 70
     0
 10
0.0
 20
0.0
 30
0.0
  3
Third Angle Projection Block
  1

  0
CIRCLE
  5
48
330
45
100
AcDbEntity
  8
0
  6
Continuous
 62
     7
370
    30
100
AcDbCircle
 10
3.9951432636
 20
0.7456853688
 30
0.0
 40
0.0696152422706639
  0
CIRCLE
  5
49
330
45
100
AcDbEntity
  8
0
  6
Continuous
 62
     7
370
    30
100
AcDbCircle
 10
3.9951432636
 20
0.7456853688
 30
0.0
 40
0.1535916633280245
  0
LINE
  5
4A
330
45
100
AcDbEntity
  8
0
  6
CENTERX2
 62
     7
370
     0
100
AcDbLine
 10
4.3360937897
 20
0.7456853688
 30
0.0
 11
4.7028635231
 21
0.7456853688
 31
0.0
  0
LINE
  5
4B
330
45
100
AcDbEntity
  8
0
  6
Continuous
 62
     7
370
    30
100
AcDbLine
 10
4.3701432636
 20
0.815300611
 30
0.0
 11
4.3701432636
 21
0.6760701265
 31
0.0
  0
LINE
  5
4C
330
45
100
AcDbEntity
  8
0
  6
Continuous
 62
     7
370
    30
100
AcDbLine
 10
4.3701432636
 20
0.6760701265
 30
0.0
 11
4.6701432636
 21
0.5956853688
 31
0.0
  0
LINE
  5
4D
330
45
100
AcDbEntity
  8
0
  6
Continuous
 62
     7
370
    30
100
AcDbLine
 10
4.6701432636
 20
0.5956853688
 30
0.0
 11
4.6701432636
 21
0.8956853688
 31
0.0
  0
LINE
  5
4E
330
45
100
AcDbEntity
  8
0
  6
Continuous
 62
     7
370
    30
100
AcDbLine
 10
4.6701432636
 20
0.8956853688
 30
0.0
 11
4.3701432636
 21
0.815300611
 31
0.0
  0
LINE
  5
4F
330
45
100
AcDbEntity
  8
0
  6
CENTERX2
 62
     7
370
     0
100
AcDbLine
 10
3.8032513961
 20
0.7456853688
 30
0.0
 11
4.187035131
 21
0.7456853688
 31
0.0
  0
LINE
  5
50
330
45
100
AcDbEntity
  8
0
  6
CENTERX2
 62
     7
370
     0
100
AcDbLine
 10
3.9951432636
 20
0.9375772362
 30
0.0
 11
3.9951432636
 21
0.5537935013
 31
0.0
  0
POINT
  5
51
330
45
100
AcDbEntity
  8
0
  6
Continuous
 62
     7
370
     0
100
AcDbPoint
 10
3.9951432636
 20
0.7456853688
 30
0.0
  0
ENDBLK
  5
47
330
45
100
AcDbEntity
  8
0
100
AcDbBlockEnd
  0
BLOCK
  5
7F
330
7E
100
AcDbEntity
  8
0
100
AcDbBlockBegin
  2
SW_NOTE_0
 70
     0
 10
0.0
 20
0.0
 30
0.0
  3
SW_NOTE_0
  1

  0
MTEXT
  5
81
330
7E
100
AcDbEntity
  8
0
  6
Continuous
 62
     0
370
     0
100
AcDbMText
 10
0.78375
 20
0.0773440644
 30
0.0
 40
0.06
 41
0.0
 71
     2
 72
     1
  1
VALUES IN PARENTHESIS ARE CALCULATED
  7
SLDTEXTSTYLE0
 73
     1
 44
1.0
  0
MTEXT
  5
82
330
7E
100
AcDbEntity
  8
0
  6
Continuous
 62
     0
370
     0
100
AcDbMText
 10
0.7825936818
 20
-0.0220260102
 30
0.0
 40
0.06
 41
0.0
 71
     2
 72
     1
  1
AND MAY CONTAIN ROUNDOFF ERRORS
  7
SLDTEXTSTYLE0
 73
     1
 44
1.0
  0
ENDBLK
  5
80
330
7E
100
AcDbEntity
  8
0
100
AcDbBlockEnd
  0
BLOCK
  5
85
330
84
100
AcDbEntity
  8
0
100
AcDbBlockBegin
  2
SW_NOTE_1
 70
     0
 10
0.0
 20
0.0
 30
0.0
  3
SW_NOTE_1
  1

  0
MTEXT
  5
87
330
84
100
AcDbEntity
  8
0
  6
Continuous
 62
     0
370
     0
100
AcDbMText
 10
0.0
 20
0.1074223116
 30
0.0
 40
0.0833333333
 41
0.0
 71
     1
 72
     1
  1
DRAWING
  7
SLDTEXTSTYLE0
 73
     1
 44
1.0
  0
MTEXT
  5
88
330
84
100
AcDbEntity
  8
0
  6
Continuous
 62
     0
370
     0
100
AcDbMText
 10
0.0
 20
-0.0036887981
 30
0.0
 40
0.0833333333
 41
0.0
 71
     1
 72
     1
  1
PROJECTION
  7
SLDTEXTSTYLE0
 73
     1
 44
1.0
  0
ENDBLK
  5
86
330
84
100
AcDbEntity
  8
0
100
AcDbBlockEnd
  0
BLOCK
  5
8C
330
8B
100
AcDbEntity
  8
0
100
AcDbBlockBegin
  2
SW_NOTE_2
 70
     0
 10
0.0
 20
0.0
 30
0.0
  3
SW_NOTE_2
  1

  0
MTEXT
  5
8E
330
8B
100
AcDbEntity
  8
0
  6
Continuous
 62
     0
370
     0
100
AcDbMText
 10
0.986328125
 20
0.1611334675
 30
0.0
 40
0.125
 41
0.0
 71
     2
 72
     1
  1
FOR INFORMATION ONLY
  7
SLDTEXTSTYLE0
 73
     1
 44
1.0
  0
MTEXT
  5
8F
330
8B
100
AcDbEntity
  8
0
  6
Continuous
 62
     0
370
     0
100
AcDbMText
 10
0.999088459
 20
-0.0055331972
 30
0.0
 40
0.125
 41
0.0
 71
     2
 72
     1
  1
NOT FOR MANUFACTURING PURPOSES
  7
SLDTEXTSTYLE0
 73
     1
 44
1.0
  0
ENDBLK
  5
8D
330
8B
100
AcDbEntity
  8
0
100
AcDbBlockEnd
  0
BLOCK
  5
93
330
92
100
AcDbEntity
  8
0
100
AcDbBlockBegin
  2
SW_NOTE_3
 70
     0
 10
0.0
 20
0.0
 30
0.0
  3
SW_NOTE_3
  1

  0
MTEXT
  5
95
330
92
100
AcDbEntity
  8
0
  6
Continuous
 62
     0
370
     0
100
AcDbMText
 10
0.6119791667
 20
0.1342778896
 30
0.0
 40
0.1041666667
 41
0.0
 71
     2
 72
     1
  1
METRIC UNIVERSAL
  7
SLDTEXTSTYLE0
 73
     1
 44
1.0
  0
MTEXT
  5
96
330
92
100
AcDbEntity
  8
0
  6
Continuous
 62
     0
370
     0
100
AcDbMText
 10
0.6169343313
 20
-0.0046109977
 30
0.0
 40
0.1041666667
 41
0.0
 71
     2
 72
     1
  1
POST HOLDER 2"
  7
SLDTEXTSTYLE0
 73
     1
 44
1.0
  0
ENDBLK
  5
94
330
92
100
AcDbEntity
  8
0
100
AcDbBlockEnd
  0
BLOCK
  5
CA
330
C9
100
AcDbEntity
  8
0
100
AcDbBlockBegin
  2
*D6
 70
     1
 10
0.0
 20
0.0
 30
0.0
  3
*D6
  1

  0
SOLID
  5
CC
330
C9
100
AcDbEntity
  8
0
  6
Continuous
 62
     7
370
     0
100
AcDbTrace
 10
6.4963758147
 20
3.5131244127
 30
0.0
 11
6.4763758147
 21
3.3881244127
 31
0.0
 12
6.5163758147
 22
3.3881244127
 32
0.0
 13
6.5163758147
 23
3.3881244127
 33
0.0
  0
SOLID
  5
CD
330
C9
100
AcDbEntity
  8
0
  6
Continuous
 62
     7
370
     0
100
AcDbTrace
 10
6.4963758147
 20
3.9431244127
 30
0.0
 11
6.5163758147
 21
4.0681244127
 31
0.0
 12
6.4763758147
 22
4.0681244127
 32
0.0
 13
6.4763758147
 23
4.0681244127
 33
0.0
  0
LINE
  5
CE
330
C9
100
AcDbEntity
  8
0
  6
Continuous
 62
     7
370
     0
100
AcDbLine
 10
6.1526750273
 20
3.5131244127
 30
0.0
 11
6.5663758147
 21
3.5131244127
 31
0.0
  0
LINE
  5
CF
330
C9
100
AcDbEntity
  8
0
  6
Continuous
 62
     7
370
     0
100
AcDbLine
 10
6.1526750273
 20
3.9431244127
 30
0.0
 11
6.5663758147
 21
3.9431244127
 31
0.0
  0
LINE
  5
D0
330
C9
100
AcDbEntity
  8
0
  6
Continuous
 62
     7
370
     0
100
AcDbLine
 10
6.4963758147
 20
3.5131244127
 30
0.0
 11
6.4963758147
 21
3.2631244127
 31
0.0
  0
LINE
  5
D1
330
C9
100
AcDbEntity
  8
0
  6
Continuous
 62
     7
370
     0
100
AcDbLine
 10
6.4963758147
 20
3.9431244127
 30
0.0
 11
6.4963758147
 21
4.1931244127
 31
0.0
  0
MTEXT
  5
D2
330
C9
100
AcDbEntity
  8
0
  6
Continuous
 62
     7
370
     0
100
AcDbMText
 10
6.3304847618
 20
3.7032590294
 30
0.0
 40
0.0833333333
 41
0.0
 71
     1
 72
     1
  1
(
  7
SLDTEXTSTYLE0
 73
     1
 44
1.0
  0
MTEXT
  5
D3
330
C9
100
AcDbEntity
  8
0
  6
Continuous
 62
     7
370
     0
100
AcDbMText
 10
6.371528285
 20
3.7032590294
 30
0.0
 40
0.0833333333
 41
0.0
 71
     1
 72
     1
  1
0.43
  7
SLDTEXTSTYLE0
 73
     1
 44
1.0
  0
MTEXT
  5
D4
330
C9
100
AcDbEntity
  8
0
  6
Continuous
 62
     7
370
     0
100
AcDbMText
 10
6.5868841418
 20
3.7032590294
 30
0.0
 40
0.0833333333
 41
0.0
 71
     1
 72
     1
  1
")
  7
SLDTEXTSTYLE0
 73
     1
 44
1.0
  0
MTEXT
  5
D5
330
C9
100
AcDbEntity
  8
0
  6
Continuous
 62
     7
370
     0
100
AcDbMText
 10
6.2847897571
 20
3.8355467197
 30
0.0
 40
0.0833333333
 41
0.0
 71
     1
 72
     1
  1
10.9 mm
  7
SLDTEXTSTYLE0
 73
     1
 44
1.0
  0
ENDBLK
  5
CB
330
C9
100
AcDbEntity
  8
0
100
AcDbBlockEnd
  0
BLOCK
  5
D9
330
D8
100
AcDbEntity
  8
0
100
AcDbBlockBegin
  2
*D7
 70
     1
 10
0.0
 20
0.0
 30
0.0
  3
*D7
  1

  0
SOLID
  5
DB
330
D8
100
AcDbEntity
  8
0
  6
Continuous
 62
     7
370
     0
100
AcDbTrace
 10
6.9688167596
 20
3.5131244127
 30
0.0
 11
6.9888167596
 21
3.6381244127
 31
0.0
 12
6.9488167596
 22
3.6381244127
 32
0.0
 13
6.9488167596
 23
3.6381244127
 33
0.0
  0
SOLID
  5
DC
330
D8
100
AcDbEntity
  8
0
  6
Continuous
 62
     7
370
     0
100
AcDbTrace
 10
6.9688167596
 20
5.5171244127
 30
0.0
 11
6.9488167596
 21
5.3921244127
 31
0.0
 12
6.9888167596
 22
5.3921244127
 32
0.0
 13
6.9888167596
 23
5.3921244127
 33
0.0
  0
LINE
  5
DD
330
D8
100
AcDbEntity
  8
0
  6
Continuous
 62
     7
370
     0
100
AcDbLine
 10
6.1526750273
 20
3.5131244127
 30
0.0
 11
7.0388167596
 21
3.5131244127
 31
0.0
  0
LINE
  5
DE
330
D8
100
AcDbEntity
  8
0
  6
Continuous
 62
     7
370
     0
100
AcDbLine
 10
4.5895685499
 20
5.5171244127
 30
0.0
 11
7.0388167596
 21
5.5171244127
 31
0.0
  0
LINE
  5
DF
330
D8
100
AcDbEntity
  8
0
  6
Continuous
 62
     7
370
     0
100
AcDbLine
 10
6.9688167596
 20
3.5131244127
 30
0.0
 11
6.9688167596
 21
4.3828367224
 31
0.0
  0
LINE
  5
E0
330
D8
100
AcDbEntity
  8
0
  6
Continuous
 62
     7
370
     0
100
AcDbLine
 10
6.9688167596
 20
5.5171244127
 30
0.0
 11
6.9688167596
 21
4.647412103
 31
0.0
  0
MTEXT
  5
E1
330
D8
100
AcDbEntity
  8
0
  6
Continuous
 62
     7
370
     0
100
AcDbMText
 10
6.8029257067
 20
4.4902590294
 30
0.0
 40
0.0833333333
 41
0.0
 71
     1
 72
     1
  1
(
  7
SLDTEXTSTYLE0
 73
     1
 44
1.0
  0
MTEXT
  5
E2
330
D8
100
AcDbEntity
  8
0
  6
Continuous
 62
     7
370
     0
100
AcDbMText
 10
6.8439692299
 20
4.4902590294
 30
0.0
 40
0.0833333333
 41
0.0
 71
     1
 72
     1
  1
2.00
  7
SLDTEXTSTYLE0
 73
     1
 44
1.0
  0
MTEXT
  5
E3
330
D8
100
AcDbEntity
  8
0
  6
Continuous
 62
     7
370
     0
100
AcDbMText
 10
7.0593250867
 20
4.4902590294
 30
0.0
 40
0.0833333333
 41
0.0
 71
     1
 72
     1
  1
")
  7
SLDTEXTSTYLE0
 73
     1
 44
1.0
  0
MTEXT
  5
E4
330
D8
100
AcDbEntity
  8
0
  6
Continuous
 62
     7
370
     0
100
AcDbMText
 10
6.7572307019
 20
4.6225467197
 30
0.0
 40
0.0833333333
 41
0.0
 71
     1
 72
     1
  1
50.9 mm
  7
SLDTEXTSTYLE0
 73
     1
 44
1.0
  0
ENDBLK
  5
DA
330
D8
100
AcDbEntity
  8
0
100
AcDbBlockEnd
  0
BLOCK
  5
E8
330
E7
100
AcDbEntity
  8
0
100
AcDbBlockBegin
  2
*D8
 70
     1
 10
0.0
 20
0.0
 30
0.0
  3
*D8
  1

  0
SOLID
  5
EA
330
E7
100
AcDbEntity
  8
0
  6
Continuous
 62
     7
370
     0
100
AcDbTrace
 10
3.6421710903
 20
3.1214236253
 30
0.0
 11
3.7671710903
 21
3.1014236253
 31
0.0
 12
3.7671710903
 22
3.1414236253
 32
0.0
 13
3.7671710903
 23
3.1414236253
 33
0.0
  0
SOLID
  5
EB
330
E7
100
AcDbEntity
  8
0
  6
Continuous
 62
     7
370
     0
100
AcDbTrace
 10
6.1026750273
 20
3.1214236253
 30
0.0
 11
5.9776750273
 21
3.1414236253
 31
0.0
 12
5.9776750273
 22
3.1014236253
 32
0.0
 13
5.9776750273
 23
3.1014236253
 33
0.0
  0
LINE
  5
EC
330
E7
100
AcDbEntity
  8
0
  6
Continuous
 62
     7
370
     0
100
AcDbLine
 10
3.6421710903
 20
3.4630453509
 30
0.0
 11
3.6421710903
 21
3.0514236253
 31
0.0
  0
LINE
  5
ED
330
E7
100
AcDbEntity
  8
0
  6
Continuous
 62
     7
370
     0
100
AcDbLine
 10
6.1026750273
 20
3.4631244127
 30
0.0
 11
6.1026750273
 21
3.0514236253
 31
0.0
  0
LINE
  5
EE
330
E7
100
AcDbEntity
  8
0
  6
Continuous
 62
     7
370
     0
100
AcDbLine
 10
3.6421710903
 20
3.1214236253
 30
0.0
 11
4.5827120012
 21
3.1214236253
 31
0.0
  0
LINE
  5
EF
330
E7
100
AcDbEntity
  8
0
  6
Continuous
 62
     7
370
     0
100
AcDbLine
 10
6.1026750273
 20
3.1214236253
 30
0.0
 11
5.1621341165
 21
3.1214236253
 31
0.0
  0
MTEXT
  5
F0
330
E7
100
AcDbEntity
  8
0
  6
Continuous
 62
     7
370
     0
100
AcDbMText
 10
4.7065320059
 20
3.096558242
 30
0.0
 40
0.0833333333
 41
0.0
 71
     1
 72
     1
  1
(
  7
SLDTEXTSTYLE0
 73
     1
 44
1.0
  0
MTEXT
  5
F1
330
E7
100
AcDbEntity
  8
0
  6
Continuous
 62
     7
370
     0
100
AcDbMText
 10
4.7475755291
 20
3.096558242
 30
0.0
 40
0.0833333333
 41
0.0
 71
     1
 72
     1
  1
2.46
  7
SLDTEXTSTYLE0
 73
     1
 44
1.0
  0
MTEXT
  5
F2
330
E7
100
AcDbEntity
  8
0
  6
Continuous
 62
     7
370
     0
100
AcDbMText
 10
4.9629313859
 20
3.096558242
 30
0.0
 40
0.0833333333
 41
0.0
 71
     1
 72
     1
  1
")
  7
SLDTEXTSTYLE0
 73
     1
 44
1.0
  0
MTEXT
  5
F3
330
E7
100
AcDbEntity
  8
0
  6
Continuous
 62
     7
370
     0
100
AcDbMText
 10
4.6608370012
 20
3.2288459323
 30
0.0
 40
0.0833333333
 41
0.0
 71
     1
 72
     1
  1
62.5 mm
  7
SLDTEXTSTYLE0
 73
     1
 44
1.0
  0
ENDBLK
  5
E9
330
E7
100
AcDbEntity
  8
0
100
AcDbBlockEnd
  0
BLOCK
  5
120
330
11F
100
AcDbEntity
  8
0
100
AcDbBlockBegin
  2
*D9
 70
     1
 10
0.0
 20
0.0
 30
0.0
  3
*D9
  1

  0
SOLID
  5
122
330
11F
100
AcDbEntity
  8
0
  6
Continuous
 62
     7
370
     0
100
AcDbTrace
 10
6.1026750273
 20
7.5624403714
 30
0.0
 11
5.9776750273
 21
7.5824403714
 31
0.0
 12
5.9776750273
 22
7.5424403714
 32
0.0
 13
5.9776750273
 23
7.5424403714
 33
0.0
  0
SOLID
  5
123
330
11F
100
AcDbEntity
  8
0
  6
Continuous
 62
     7
370
     0
100
AcDbTrace
 10
4.8841710903
 20
7.5624403714
 30
0.0
 11
5.0091710903
 21
7.5424403714
 31
0.0
 12
5.0091710903
 22
7.5824403714
 32
0.0
 13
5.0091710903
 23
7.5824403714
 33
0.0
  0
LINE
  5
124
330
11F
100
AcDbEntity
  8
0
  6
Continuous
 62
     7
370
     0
100
AcDbLine
 10
6.1026750273
 20
7.215739584
 30
0.0
 11
6.1026750273
 21
7.6324403714
 31
0.0
  0
LINE
  5
125
330
11F
100
AcDbEntity
  8
0
  6
Continuous
 62
     7
370
     0
100
AcDbLine
 10
4.8841710903
 20
6.773739584
 30
0.0
 11
4.8841710903
 21
7.6324403714
 31
0.0
  0
LINE
  5
126
330
11F
100
AcDbEntity
  8
0
  6
Continuous
 62
     7
370
     0
100
AcDbLine
 10
6.1026750273
 20
7.5624403714
 30
0.0
 11
5.7831341165
 21
7.5624403714
 31
0.0
  0
LINE
  5
127
330
11F
100
AcDbEntity
  8
0
  6
Continuous
 62
     7
370
     0
100
AcDbLine
 10
4.8841710903
 20
7.5624403714
 30
0.0
 11
5.2037120012
 21
7.5624403714
 31
0.0
  0
MTEXT
  5
128
330
11F
100
AcDbEntity
  8
0
  6
Continuous
 62
     7
370
     0
100
AcDbMText
 10
5.3275320059
 20
7.5375749882
 30
0.0
 40
0.0833333333
 41
0.0
 71
     1
 72
     1
  1
(
  7
SLDTEXTSTYLE0
 73
     1
 44
1.0
  0
MTEXT
  5
129
330
11F
100
AcDbEntity
  8
0
  6
Continuous
 62
     7
370
     0
100
AcDbMText
 10
5.3685755291
 20
7.5375749882
 30
0.0
 40
0.0833333333
 41
0.0
 71
     1
 72
     1
  1
1.22
  7
SLDTEXTSTYLE0
 73
     1
 44
1.0
  0
MTEXT
  5
12A
330
11F
100
AcDbEntity
  8
0
  6
Continuous
 62
     7
370
     0
100
AcDbMText
 10
5.5839313859
 20
7.5375749882
 30
0.0
 40
0.0833333333
 41
0.0
 71
     1
 72
     1
  1
")
  7
SLDTEXTSTYLE0
 73
     1
 44
1.0
  0
MTEXT
  5
12B
330
11F
100
AcDbEntity
  8
0
  6
Continuous
 62
     7
370
     0
100
AcDbMText
 10
5.2818370012
 20
7.6698626784
 30
0.0
 40
0.0833333333
 41
0.0
 71
     1
 72
     1
  1
31.0 mm
  7
SLDTEXTSTYLE0
 73
     1
 44
1.0
  0
ENDBLK
  5
121
330
11F
100
AcDbEntity
  8
0
100
AcDbBlockEnd
  0
BLOCK
  5
12F
330
12E
100
AcDbEntity
  8
0
100
AcDbBlockBegin
  2
*D10
 70
     1
 10
0.0
 20
0.0
 30
0.0
  3
*D10
  1

  0
SOLID
  5
131
330
12E
100
AcDbEntity
  8
0
  6
Continuous
 62
     7
370
     0
100
AcDbTrace
 10
4.7904893274
 20
6.767441117
 30
0.0
 11
4.7162539334
 21
6.8699794332
 31
0.0
 12
4.6879666781
 22
6.8416981462
 32
0.0
 13
4.6879666781
 23
6.8416981462
 33
0.0
  0
LINE
  5
132
330
12E
100
AcDbEntity
  8
0
  6
Continuous
 62
     7
370
     0
100
AcDbLine
 10
4.7904893274
 20
6.767441117
 30
0.0
 11
3.8081819126
 21
7.7499558329
 31
0.0
  0
LINE
  5
133
330
12E
100
AcDbEntity
  8
0
  6
Continuous
 62
     7
370
     0
100
AcDbLine
 10
3.8081819126
 20
7.7499558329
 30
0.0
 11
3.6581819126
 21
7.7499558329
 31
0.0
  0
MTEXT
  5
134
330
12E
100
AcDbEntity
  8
0
  6
Continuous
 62
     7
370
     0
100
AcDbMText
 10
1.5212670312
 20
7.6589466045
 30
0.0
 40
0.0833333333
 41
0.0
 71
     1
 72
     1
  1
FOR USE WITH M6 (1/4"-20) CAP SCREW
  7
SLDTEXTSTYLE0
 73
     1
 44
1.0
  0
MTEXT
  5
135
330
12E
100
AcDbEntity
  8
0
  6
Continuous
 62
     7
370
     0
100
AcDbMText
 10
2.6490645589
 20
7.7912342948
 30
0.0
 40
0.0833333333
 41
0.0
 71
     1
 72
     1
  1
CLEARANCE SLOT
  7
SLDTEXTSTYLE0
 73
     1
 44
1.0
  0
ENDBLK
  5
130
330
12E
100
AcDbEntity
  8
0
100
AcDbBlockEnd
  0
BLOCK
  5
138
330
137
100
AcDbEntity
  8
0
100
AcDbBlockBegin
  2
*D11
 70
     1
 10
0.0
 20
0.0
 30
0.0
  3
*D11
  1

  0
SOLID
  5
13A
330
137
100
AcDbEntity
  8
0
  6
Continuous
 62
     7
370
     0
100
AcDbTrace
 10
6.7325962872
 20
7.165739584
 30
0.0
 11
6.7125962872
 21
7.040739584
 31
0.0
 12
6.7525962872
 22
7.040739584
 32
0.0
 13
6.7525962872
 23
7.040739584
 33
0.0
  0
SOLID
  5
13B
330
137
100
AcDbEntity
  8
0
  6
Continuous
 62
     7
370
     0
100
AcDbTrace
 10
6.7325962872
 20
6.181739584
 30
0.0
 11
6.7525962872
 21
6.306739584
 31
0.0
 12
6.7125962872
 22
6.306739584
 32
0.0
 13
6.7125962872
 23
6.306739584
 33
0.0
  0
LINE
  5
13C
330
137
100
AcDbEntity
  8
0
  6
Continuous
 62
     7
370
     0
100
AcDbLine
 10
6.1526750273
 20
7.165739584
 30
0.0
 11
6.8025962872
 21
7.165739584
 31
0.0
  0
LINE
  5
13D
330
137
100
AcDbEntity
  8
0
  6
Continuous
 62
     7
370
     0
100
AcDbLine
 10
6.1526750273
 20
6.181739584
 30
0.0
 11
6.8025962872
 21
6.181739584
 31
0.0
  0
LINE
  5
13E
330
137
100
AcDbEntity
  8
0
  6
Continuous
 62
     7
370
     0
100
AcDbLine
 10
6.7325962872
 20
7.165739584
 30
0.0
 11
6.7325962872
 21
6.8060272743
 31
0.0
  0
LINE
  5
13F
330
137
100
AcDbEntity
  8
0
  6
Continuous
 62
     7
370
     0
100
AcDbLine
 10
6.7325962872
 20
6.181739584
 30
0.0
 11
6.7325962872
 21
6.5414518937
 31
0.0
  0
MTEXT
  5
140
330
137
100
AcDbEntity
  8
0
  6
Continuous
 62
     7
370
     0
100
AcDbMText
 10
6.5667052343
 20
6.6488742008
 30
0.0
 40
0.0833333333
 41
0.0
 71
     1
 72
     1
  1
(
  7
SLDTEXTSTYLE0
 73
     1
 44
1.0
  0
MTEXT
  5
141
330
137
100
AcDbEntity
  8
0
  6
Continuous
 62
     7
370
     0
100
AcDbMText
 10
6.6077487575
 20
6.6488742008
 30
0.0
 40
0.0833333333
 41
0.0
 71
     1
 72
     1
  1
0.98
  7
SLDTEXTSTYLE0
 73
     1
 44
1.0
  0
MTEXT
  5
142
330
137
100
AcDbEntity
  8
0
  6
Continuous
 62
     7
370
     0
100
AcDbMText
 10
6.8231046142
 20
6.6488742008
 30
0.0
 40
0.0833333333
 41
0.0
 71
     1
 72
     1
  1
")
  7
SLDTEXTSTYLE0
 73
     1
 44
1.0
  0
MTEXT
  5
143
330
137
100
AcDbEntity
  8
0
  6
Continuous
 62
     7
370
     0
100
AcDbMText
 10
6.5210102295
 20
6.781161891
 30
0.0
 40
0.0833333333
 41
0.0
 71
     1
 72
     1
  1
25.0 mm
  7
SLDTEXTSTYLE0
 73
     1
 44
1.0
  0
ENDBLK
  5
139
330
137
100
AcDbEntity
  8
0
100
AcDbBlockEnd
  0
BLOCK
  5
147
330
146
100
AcDbEntity
  8
0
100
AcDbBlockBegin
  2
*D12
 70
     1
 10
0.0
 20
0.0
 30
0.0
  3
*D12
  1

  0
SOLID
  5
149
330
146
100
AcDbEntity
  8
0
  6
Continuous
 62
     7
370
     0
100
AcDbTrace
 10
3.7755291974
 20
6.3369310439
 30
0.0
 11
3.6707194263
 21
6.2659387072
 31
0.0
 12
3.6981022344
 22
6.2367808297
 32
0.0
 13
3.6981022344
 23
6.2367808297
 33
0.0
  0
LINE
  5
14A
330
146
100
AcDbEntity
  8
0
  6
Continuous
 62
     7
370
     0
100
AcDbLine
 10
3.7755291974
 20
6.3369310439
 30
0.0
 11
3.4601457742
 21
6.0407474902
 31
0.0
  0
LINE
  5
14B
330
146
100
AcDbEntity
  8
0
  6
Continuous
 62
     7
370
     0
100
AcDbLine
 10
3.4601457742
 20
6.0407474902
 30
0.0
 11
3.3101457742
 21
6.0407474902
 31
0.0
  0
MTEXT
  5
14C
330
146
100
AcDbEntity
  8
0
  6
Continuous
 62
     7
370
     0
100
AcDbMText
 10
2.7901167786
 20
5.9497382618
 30
0.0
 40
0.0833333333
 41
0.0
 71
     1
 72
     1
  1
(
  7
SLDTEXTSTYLE0
 73
     1
 44
1.0
  0
MTEXT
  5
14D
330
146
100
AcDbEntity
  8
0
  6
Continuous
 62
     7
370
     0
100
AcDbMText
 10
2.8311661594
 20
5.9497382618
 30
0.0
 40
0.0833333333
 41
0.0
 71
     1
 72
     1
  1
%%c
  7
SLDTEXTSTYLE0
 73
     1
 44
1.0
  0
MTEXT
  5
14E
330
146
100
AcDbEntity
  8
0
  6
Continuous
 62
     7
370
     0
100
AcDbMText
 10
2.9569071916
 20
5.9497382618
 30
0.0
 40
0.0833333333
 41
0.0
 71
     1
 72
     1
  1
0.98
  7
SLDTEXTSTYLE0
 73
     1
 44
1.0
  0
MTEXT
  5
14F
330
146
100
AcDbEntity
  8
0
  6
Continuous
 62
     7
370
     0
100
AcDbMText
 10
3.1722630484
 20
5.9497382618
 30
0.0
 40
0.0833333333
 41
0.0
 71
     1
 72
     1
  1
")
  7
SLDTEXTSTYLE0
 73
     1
 44
1.0
  0
MTEXT
  5
150
330
146
100
AcDbEntity
  8
0
  6
Continuous
 62
     7
370
     0
100
AcDbMText
 10
2.6674767691
 20
6.0820259521
 30
0.0
 40
0.0833333333
 41
0.0
 71
     1
 72
     1
  1
%%c
  7
SLDTEXTSTYLE0
 73
     1
 44
1.0
  0
MTEXT
  5
151
330
146
100
AcDbEntity
  8
0
  6
Continuous
 62
     7
370
     0
100
AcDbMText
 10
2.7932638085
 20
6.0820259521
 30
0.0
 40
0.0833333333
 41
0.0
 71
     1
 72
     1
  1
25.0 mm
  7
SLDTEXTSTYLE0
 73
     1
 44
1.0
  0
ENDBLK
  5
148
330
146
100
AcDbEntity
  8
0
100
AcDbBlockEnd
  0
BLOCK
  5
155
330
154
100
AcDbEntity
  8
0
100
AcDbBlockBegin
  2
*D13
 70
     1
 10
0.0
 20
0.0
 30
0.0
  3
*D13
  1

  0
SOLID
  5
157
330
154
100
AcDbEntity
  8
0
  6
Continuous
 62
     7
370
     0
100
AcDbTrace
 10
3.9563394865
 20
6.8515826909
 30
0.0
 11
3.8820965905
 21
6.9541155754
 31
0.0
 12
3.8538114045
 22
6.9258322189
 32
0.0
 13
3.8538114045
 23
6.9258322189
 33
0.0
  0
LINE
  5
158
330
154
100
AcDbEntity
  8
0
  6
Continuous
 62
     7
370
     0
100
AcDbLine
 10
3.9563394865
 20
6.8515826909
 30
0.0
 11
3.4192827493
 21
7.3886741677
 31
0.0
  0
LINE
  5
159
330
154
100
AcDbEntity
  8
0
  6
Continuous
 62
     7
370
     0
100
AcDbLine
 10
3.4192827493
 20
7.3886741677
 30
0.0
 11
3.2692827493
 21
7.3886741677
 31
0.0
  0
MTEXT
  5
15A
330
154
100
AcDbEntity
  8
0
  6
Continuous
 62
     7
370
     0
100
AcDbMText
 10
1.813428721
 20
7.4299526296
 30
0.0
 40
0.0833333333
 41
0.0
 71
     1
 72
     1
  1
%%c
  7
SLDTEXTSTYLE0
 73
     1
 44
1.0
  0
MTEXT
  5
15B
330
154
100
AcDbEntity
  8
0
  6
Continuous
 62
     7
370
     0
100
AcDbMText
 10
1.9392157604
 20
7.4299526296
 30
0.0
 40
0.0833333333
 41
0.0
 71
     1
 72
     1
  1
12.8 mm (
  7
SLDTEXTSTYLE1
 73
     1
 44
1.0
  0
MTEXT
  5
15C
330
154
100
AcDbEntity
  8
0
  6
Continuous
 62
     7
370
     0
100
AcDbMText
 10
2.4654503687
 20
7.4299526296
 30
0.0
 40
0.0833333333
 41
0.0
 71
     1
 72
     1
  1
%%c
  7
SLDTEXTSTYLE0
 73
     1
 44
1.0
  0
MTEXT
  5
15D
330
154
100
AcDbEntity
  8
0
  6
Continuous
 62
     7
370
     0
100
AcDbMText
 10
2.5911299014
 20
7.4299526296
 30
0.0
 40
0.0833333333
 41
0.0
 71
     1
 72
     1
  1
0.50
  7
SLDTEXTSTYLE0
 73
     1
 44
1.0
  0
MTEXT
  5
15F
330
154
100
AcDbEntity
  8
0
  6
Continuous
 62
     7
370
     0
100
AcDbMText
 10
2.8064857582
 20
7.4299526296
 30
0.0
 40
0.0833333333
 41
0.0
 71
     1
 72
     1
  1
" ) THRU
  7
SLDTEXTSTYLE3
 73
     1
 44
1.0
  0
MTEXT
  5
160
330
154
100
AcDbEntity
  8
0
  6
Continuous
 62
     7
370
     0
100
AcDbMText
 10
1.6348648671
 20
7.2976649393
 30
0.0
 40
0.0833333333
 41
0.0
 71
     1
 72
     1
  1
FOR USE WITH TR SERIES POSTS
  7
SLDTEXTSTYLE0
 73
     1
 44
1.0
  0
ENDBLK
  5
156
330
154
100
AcDbEntity
  8
0
100
AcDbBlockEnd
  0
BLOCK
  5
162
330
161
100
AcDbEntity
  8
0
100
AcDbBlockBegin
  2
SW_CENTERMARKSYMBOL_0
 70
     0
 10
0.0
 20
0.0
 30
0.0
  3
SW_CENTERMARKSYMBOL_0
  1

  0
LINE
  5
164
330
161
100
AcDbEntity
  8
0
  6
Continuous
 62
     0
370
     0
100
AcDbLine
 10
0.0
 20
0.0
 30
0.0
 11
0.0
 21
0.05
 31
0.0
  0
LINE
  5
165
330
161
100
AcDbEntity
  8
0
  6
Continuous
 62
     0
370
     0
100
AcDbLine
 10
0.0
 20
0.0
 30
0.0
 11
-0.05
 21
0.0
 31
0.0
  0
LINE
  5
166
330
161
100
AcDbEntity
  8
0
  6
Continuous
 62
     0
370
     0
100
AcDbLine
 10
0.0
 20
0.0
 30
0.0
 11
0.0
 21
-0.05
 31
0.0
  0
LINE
  5
167
330
161
100
AcDbEntity
  8
0
  6
Continuous
 62
     0
370
     0
100
AcDbLine
 10
0.0
 20
0.0
 30
0.0
 11
0.05
 21
0.0
 31
0.0
  0
ENDBLK
  5
163
330
161
100
AcDbEntity
  8
0
100
AcDbBlockEnd
  0
BLOCK
  5
16A
330
169
100
AcDbEntity
  8
0
100
AcDbBlockBegin
  2
SW_CENTERMARKSYMBOL_1
 70
     0
 10
0.0
 20
0.0
 30
0.0
  3
SW_CENTERMARKSYMBOL_1
  1

  0
LINE
  5
16C
330
169
100
AcDbEntity
  8
0
  6
Continuous
 62
     0
370
     0
100
AcDbLine
 10
0.0
 20
0.0
 30
0.0
 11
0.0
 21
0.05
 31
0.0
  0
LINE
  5
16D
330
169
100
AcDbEntity
  8
0
  6
Continuous
 62
     0
370
     0
100
AcDbLine
 10
0.0
 20
0.0
 30
0.0
 11
-0.05
 21
0.0
 31
0.0
  0
LINE
  5
16E
330
169
100
AcDbEntity
  8
0
  6
Continuous
 62
     0
370
     0
100
AcDbLine
 10
0.0
 20
0.0
 30
0.0
 11
0.0
 21
-0.05
 31
0.0
  0
LINE
  5
16F
330
169
100
AcDbEntity
  8
0
  6
Continuous
 62
     0
370
     0
100
AcDbLine
 10
0.0
 20
0.0
 30
0.0
 11
0.05
 21
0.0
 31
0.0
  0
ENDBLK
  5
16B
330
169
100
AcDbEntity
  8
0
100
AcDbBlockEnd
  0
BLOCK
  5
1AA
330
1A9
100
AcDbEntity
  8
0
100
AcDbBlockBegin
  2
*D16
 70
     1
 10
0.0
 20
0.0
 30
0.0
  3
*D16
  1

  0
SOLID
  5
1AC
330
1A9
100
AcDbEntity
  8
0
  6
Continuous
 62
     7
370
     0
100
AcDbTrace
 10
6.1026750273
 20
0.8752470148
 30
0.0
 11
5.9776750273
 21
0.8952470148
 31
0.0
 12
5.9776750273
 22
0.8552470148
 32
0.0
 13
5.9776750273
 23
0.8552470148
 33
0.0
  0
SOLID
  5
1AD
330
1A9
100
AcDbEntity
  8
0
  6
Continuous
 62
     7
370
     0
100
AcDbTrace
 10
4.1341710903
 20
0.8752470148
 30
0.0
 11
4.2591710903
 21
0.8552470148
 31
0.0
 12
4.2591710903
 22
0.8952470148
 32
0.0
 13
4.2591710903
 23
0.8952470148
 33
0.0
  0
LINE
  5
1AE
330
1A9
100
AcDbEntity
  8
0
  6
Continuous
 62
     7
370
     0
100
AcDbLine
 10
6.1026750273
 20
1.2189478022
 30
0.0
 11
6.1026750273
 21
0.8052470148
 31
0.0
  0
LINE
  5
1AF
330
1A9
100
AcDbEntity
  8
0
  6
Continuous
 62
     7
370
     0
100
AcDbLine
 10
4.1341710903
 20
1.6609478022
 30
0.0
 11
4.1341710903
 21
0.8052470148
 31
0.0
  0
LINE
  5
1B0
330
1A9
100
AcDbEntity
  8
0
  6
Continuous
 62
     7
370
     0
100
AcDbLine
 10
6.1026750273
 20
0.8752470148
 30
0.0
 11
5.4081341165
 21
0.8752470148
 31
0.0
  0
LINE
  5
1B1
330
1A9
100
AcDbEntity
  8
0
  6
Continuous
 62
     7
370
     0
100
AcDbLine
 10
4.1341710903
 20
0.8752470148
 30
0.0
 11
4.8287120012
 21
0.8752470148
 31
0.0
  0
MTEXT
  5
1B2
330
1A9
100
AcDbEntity
  8
0
  6
Continuous
 62
     7
370
     0
100
AcDbMText
 10
4.9525320059
 20
0.8503816316
 30
0.0
 40
0.0833333333
 41
0.0
 71
     1
 72
     1
  1
(
  7
SLDTEXTSTYLE0
 73
     1
 44
1.0
  0
MTEXT
  5
1B3
330
1A9
100
AcDbEntity
  8
0
  6
Continuous
 62
     7
370
     0
100
AcDbMText
 10
4.9935755291
 20
0.8503816316
 30
0.0
 40
0.0833333333
 41
0.0
 71
     1
 72
     1
  1
1.97
  7
SLDTEXTSTYLE0
 73
     1
 44
1.0
  0
MTEXT
  5
1B4
330
1A9
100
AcDbEntity
  8
0
  6
Continuous
 62
     7
370
     0
100
AcDbMText
 10
5.2089313859
 20
0.8503816316
 30
0.0
 40
0.0833333333
 41
0.0
 71
     1
 72
     1
  1
")
  7
SLDTEXTSTYLE0
 73
     1
 44
1.0
  0
MTEXT
  5
1B5
330
1A9
100
AcDbEntity
  8
0
  6
Continuous
 62
     7
370
     0
100
AcDbMText
 10
4.9068370012
 20
0.9826693219
 30
0.0
 40
0.0833333333
 41
0.0
 71
     1
 72
     1
  1
50.0 mm
  7
SLDTEXTSTYLE0
 73
     1
 44
1.0
  0
ENDBLK
  5
1AB
330
1A9
100
AcDbEntity
  8
0
100
AcDbBlockEnd
  0
BLOCK
  5
1B8
330
1B7
100
AcDbEntity
  8
0
100
AcDbBlockBegin
  2
*D17
 70
     1
 10
0.0
 20
0.0
 30
0.0
  3
*D17
  1

  0
SOLID
  5
1BA
330
1B7
100
AcDbEntity
  8
0
  6
Continuous
 62
     7
370
     0
100
AcDbTrace
 10
2.7331118672
 20
2.0459478022
 30
0.0
 11
2.7531118672
 21
2.1709478022
 31
0.0
 12
2.7131118672
 22
2.1709478022
 32
0.0
 13
2.7131118672
 23
2.1709478022
 33
0.0
  0
SOLID
  5
1BB
330
1B7
100
AcDbEntity
  8
0
  6
Continuous
 62
     7
370
     0
100
AcDbTrace
 10
2.7331118672
 20
1.4759478022
 30
0.0
 11
2.7131118672
 21
1.3509478022
 31
0.0
 12
2.7531118672
 22
1.3509478022
 32
0.0
 13
2.7531118672
 23
1.3509478022
 33
0.0
  0
LINE
  5
1BC
330
1B7
100
AcDbEntity
  8
0
  6
Continuous
 62
     7
370
     0
100
AcDbLine
 10
3.2021710903
 20
2.0459478022
 30
0.0
 11
2.6631118672
 21
2.0459478022
 31
0.0
  0
LINE
  5
1BD
330
1B7
100
AcDbEntity
  8
0
  6
Continuous
 62
     7
370
     0
100
AcDbLine
 10
3.2021710903
 20
1.4759478022
 30
0.0
 11
2.6631118672
 21
1.4759478022
 31
0.0
  0
LINE
  5
1BE
330
1B7
100
AcDbEntity
  8
0
  6
Continuous
 62
     7
370
     0
100
AcDbLine
 10
2.7331118672
 20
2.0459478022
 30
0.0
 11
2.7331118672
 21
2.2959478022
 31
0.0
  0
LINE
  5
1BF
330
1B7
100
AcDbEntity
  8
0
  6
Continuous
 62
     7
370
     0
100
AcDbLine
 10
2.7331118672
 20
1.4759478022
 30
0.0
 11
2.7331118672
 21
1.2259478022
 31
0.0
  0
MTEXT
  5
1C0
330
1B7
100
AcDbEntity
  8
0
  6
Continuous
 62
     7
370
     0
100
AcDbMText
 10
2.5043473694
 20
1.736082419
 30
0.0
 40
0.0833333333
 41
0.0
 71
     1
 72
     1
  1
(
  7
SLDTEXTSTYLE0
 73
     1
 44
1.0
  0
MTEXT
  5
1C1
330
1B7
100
AcDbEntity
  8
0
  6
Continuous
 62
     7
370
     0
100
AcDbMText
 10
2.5453967502
 20
1.736082419
 30
0.0
 40
0.0833333333
 41
0.0
 71
     1
 72
     1
  1
%%c
  7
SLDTEXTSTYLE0
 73
     1
 44
1.0
  0
MTEXT
  5
1C2
330
1B7
100
AcDbEntity
  8
0
  6
Continuous
 62
     7
370
     0
100
AcDbMText
 10
2.6711377824
 20
1.736082419
 30
0.0
 40
0.0833333333
 41
0.0
 71
     1
 72
     1
  1
0.57
  7
SLDTEXTSTYLE0
 73
     1
 44
1.0
  0
MTEXT
  5
1C3
330
1B7
100
AcDbEntity
  8
0
  6
Continuous
 62
     7
370
     0
100
AcDbMText
 10
2.8864936391
 20
1.736082419
 30
0.0
 40
0.0833333333
 41
0.0
 71
     1
 72
     1
  1
")
  7
SLDTEXTSTYLE0
 73
     1
 44
1.0
  0
MTEXT
  5
1C4
330
1B7
100
AcDbEntity
  8
0
  6
Continuous
 62
     7
370
     0
100
AcDbMText
 10
2.4586523646
 20
1.8683701093
 30
0.0
 40
0.0833333333
 41
0.0
 71
     1
 72
     1
  1
%%c
  7
SLDTEXTSTYLE0
 73
     1
 44
1.0
  0
MTEXT
  5
1C5
330
1B7
100
AcDbEntity
  8
0
  6
Continuous
 62
     7
370
     0
100
AcDbMText
 10
2.584439404
 20
1.8683701093
 30
0.0
 40
0.0833333333
 41
0.0
 71
     1
 72
     1
  1
14.5 mm
  7
SLDTEXTSTYLE0
 73
     1
 44
1.0
  0
ENDBLK
  5
1B9
330
1B7
100
AcDbEntity
  8
0
100
AcDbBlockEnd
  0
BLOCK
  5
1C8
330
1C7
100
AcDbEntity
  8
0
100
AcDbBlockBegin
  2
*D18
 70
     1
 10
0.0
 20
0.0
 30
0.0
  3
*D18
  1

  0
SOLID
  5
1CA
330
1C7
100
AcDbEntity
  8
0
  6
Continuous
 62
     7
370
     0
100
AcDbTrace
 10
3.2321710903
 20
2.6060450426
 30
0.0
 11
3.1071710903
 21
2.6260450426
 31
0.0
 12
3.1071710903
 22
2.5860450426
 32
0.0
 13
3.1071710903
 23
2.5860450426
 33
0.0
  0
SOLID
  5
1CB
330
1C7
100
AcDbEntity
  8
0
  6
Continuous
 62
     7
370
     0
100
AcDbTrace
 10
3.5421710903
 20
2.6060450426
 30
0.0
 11
3.6671710903
 21
2.5860450426
 31
0.0
 12
3.6671710903
 22
2.6260450426
 32
0.0
 13
3.6671710903
 23
2.6260450426
 33
0.0
  0
LINE
  5
1CC
330
1C7
100
AcDbEntity
  8
0
  6
Continuous
 62
     7
370
     0
100
AcDbLine
 10
3.2321710903
 20
2.0759478022
 30
0.0
 11
3.2321710903
 21
2.6760450426
 31
0.0
  0
LINE
  5
1CD
330
1C7
100
AcDbEntity
  8
0
  6
Continuous
 62
     7
370
     0
100
AcDbLine
 10
3.5421710903
 20
2.0759478022
 30
0.0
 11
3.5421710903
 21
2.6760450426
 31
0.0
  0
LINE
  5
1CE
330
1C7
100
AcDbEntity
  8
0
  6
Continuous
 62
     7
370
     0
100
AcDbLine
 10
3.2321710903
 20
2.6060450426
 30
0.0
 11
2.9821710903
 21
2.6060450426
 31
0.0
  0
LINE
  5
1CF
330
1C7
100
AcDbEntity
  8
0
  6
Continuous
 62
     7
370
     0
100
AcDbLine
 10
3.5421710903
 20
2.6060450426
 30
0.0
 11
3.8152958855
 21
2.6060450426
 31
0.0
  0
MTEXT
  5
1D0
330
1C7
100
AcDbEntity
  8
0
  6
Continuous
 62
     7
370
     0
100
AcDbMText
 10
3.8777958855
 20
2.5150358142
 30
0.0
 40
0.0833333333
 41
0.0
 71
     1
 72
     1
  1
(
  7
SLDTEXTSTYLE0
 73
     1
 44
1.0
  0
MTEXT
  5
1D1
330
1C7
100
AcDbEntity
  8
0
  6
Continuous
 62
     7
370
     0
100
AcDbMText
 10
3.9188394087
 20
2.5150358142
 30
0.0
 40
0.0833333333
 41
0.0
 71
     1
 72
     1
  1
0.31
  7
SLDTEXTSTYLE0
 73
     1
 44
1.0
  0
MTEXT
  5
1D2
330
1C7
100
AcDbEntity
  8
0
  6
Continuous
 62
     7
370
     0
100
AcDbMText
 10
4.1341952654
 20
2.5150358142
 30
0.0
 40
0.0833333333
 41
0.0
 71
     1
 72
     1
  1
")
  7
SLDTEXTSTYLE0
 73
     1
 44
1.0
  0
MTEXT
  5
1D3
330
1C7
100
AcDbEntity
  8
0
  6
Continuous
 62
     7
370
     0
100
AcDbMText
 10
3.8777958855
 20
2.6473235045
 30
0.0
 40
0.0833333333
 41
0.0
 71
     1
 72
     1
  1
7.9 mm
  7
SLDTEXTSTYLE0
 73
     1
 44
1.0
  0
ENDBLK
  5
1C9
330
1C7
100
AcDbEntity
  8
0
100
AcDbBlockEnd
  0
BLOCK
  5
1D7
330
1D6
100
AcDbEntity
  8
0
100
AcDbBlockBegin
  2
*D19
 70
     1
 10
0.0
 20
0.0
 30
0.0
  3
*D19
  1

  0
SOLID
  5
1D9
330
1D6
100
AcDbEntity
  8
0
  6
Continuous
 62
     7
370
     0
100
AcDbTrace
 10
3.7219780884
 20
1.6748911749
 30
0.0
 11
3.6540286719
 21
1.5680835122
 31
0.0
 12
3.6907461662
 22
1.552214498
 32
0.0
 13
3.6907461662
 23
1.552214498
 33
0.0
  0
LINE
  5
1DA
330
1D6
100
AcDbEntity
  8
0
  6
Continuous
 62
     7
370
     0
100
AcDbLine
 10
3.7219780884
 20
1.6748911749
 30
0.0
 11
3.4332292226
 21
1.0067882463
 31
0.0
  0
LINE
  5
1DB
330
1D6
100
AcDbEntity
  8
0
  6
Continuous
 62
     7
370
     0
100
AcDbLine
 10
3.4332292226
 20
1.0067882463
 30
0.0
 11
3.2832292226
 21
1.0067882463
 31
0.0
  0
MTEXT
  5
1DC
330
1D6
100
AcDbEntity
  8
0
  6
Continuous
 62
     7
370
     0
100
AcDbMText
 10
2.8127045248
 20
1.0479469939
 30
0.7128425529
 40
0.0833333333
 41
0.0
 71
     1
 72
     1
  1
MAGNET
  7
SLDTEXTSTYLE0
 73
     1
 44
1.0
  0
MTEXT
  5
1DD
330
1D6
100
AcDbEntity
  8
0
  6
Continuous
 62
     7
370
     0
100
AcDbMText
 10
2.7863156463
 20
0.9155395893
 30
0.7128425529
 40
0.0833333333
 41
0.0
 71
     1
 72
     1
  1
3 PLACES
  7
SLDTEXTSTYLE0
 73
     1
 44
1.0
  0
ENDBLK
  5
1D8
330
1D6
100
AcDbEntity
  8
0
100
AcDbBlockEnd
  0
BLOCK
  5
1DF
330
1DE
100
AcDbEntity
  8
0
100
AcDbBlockBegin
  2
SW_NOTE_4
 70
     0
 10
0.0
 20
0.0
 30
0.0
  3
SW_NOTE_4
  1

  0
MTEXT
  5
1E1
330
1DE
100
AcDbEntity
  8
0
  6
Continuous
 62
     0
370
     0
100
AcDbMText
 10
0.0197375522
 20
0.0395979483
 30
0.0
 40
0.0833333333
 41
0.0
 71
     1
 72
     1
  1
CLAMPING BASE
  7
SLDTEXTSTYLE0
 73
     1
 44
1.0
  0
MTEXT
  5
1E2
330
1DE
100
AcDbEntity
  8
0
  6
Continuous
 62
     0
370
     0
100
AcDbMText
 10
0.0197375522
 20
-0.0715131614
 30
0.0
 40
0.0833333333
 41
0.0
 71
     1
 72
     1
  1
PROVIDES 360
  7
SLDTEXTSTYLE0
 73
     1
 44
1.0
  0
MTEXT
  5
1E3
330
1DE
100
AcDbEntity
  8
0
  6
Continuous
 62
     0
370
     0
100
AcDbMText
 10
0.7658795394
 20
-0.0715131614
 30
0.0
 40
0.0833333333
 41
0.0
 71
     1
 72
     1
  1
%%d
  7
SLDTEXTSTYLE0
 73
     1
 44
1.0
  0
MTEXT
  5
1E4
330
1DE
100
AcDbEntity
  8
0
  6
Continuous
 62
     0
370
     0
100
AcDbMText
 10
0.8500924609
 20
-0.0715131614
 30
0.0
 40
0.0833333333
 41
0.0
 71
     1
 72
     1
  1
ROTATION
  7
SLDTEXTSTYLE0
 73
     1
 44
1.0
  0
ENDBLK
  5
1E0
330
1DE
100
AcDbEntity
  8
0
100
AcDbBlockEnd
  0
BLOCK
  5
1E8
330
1E7
100
AcDbEntity
  8
0
100
AcDbBlockBegin
  2
_DOT
 70
     0
 10
0.0
 20
0.0
 30
0.0
  3
_DOT
  1

  0
POLYLINE
  5
1EA
330
1E7
100
AcDbEntity
  8
0
  6
ByBlock
 62
     0
100
AcDb2dPolyline
 66
     1
 10
0.0
 20
0.0
 30
0.0
 70
     1
 40
0.5
 41
0.5
  0
VERTEX
  5
1EC
330
1EA
100
AcDbEntity
  8
0
  6
ByBlock
 62
     0
100
AcDbVertex
100
AcDb2dVertex
 10
-0.25
 20
0.0
 30
0.0
 42
1.0
  0
VERTEX
  5
1ED
330
1EA
100
AcDbEntity
  8
0
  6
ByBlock
 62
     0
100
AcDbVertex
100
AcDb2dVertex
 10
0.25
 20
0.0
 30
0.0
 42
1.0
  0
SEQEND
  5
1EE
330
1EA
100
AcDbEntity
  8
0
  6
ByBlock
 62
     0
  0
LINE
  5
1EB
330
1E7
100
AcDbEntity
  8
0
  6
ByBlock
 62
     0
370
    -2
100
AcDbLine
 10
-0.5
 20
0.0
 30
0.0
 11
-1.0
 21
0.0
 31
0.0
  0
ENDBLK
  5
1E9
330
1E7
100
AcDbEntity
  8
0
100
AcDbBlockEnd
  0
BLOCK
  5
1F1
330
1F0
100
AcDbEntity
  8
0
100
AcDbBlockBegin
  2
SW_CENTERMARKSYMBOL_2
 70
     0
 10
0.0
 20
0.0
 30
0.0
  3
SW_CENTERMARKSYMBOL_2
  1

  0
LINE
  5
1F3
330
1F0
100
AcDbEntity
  8
0
  6
Continuous
 62
     0
370
     0
100
AcDbLine
 10
0.0
 20
0.0
 30
0.0
 11
0.0
 21
0.05
 31
0.0
  0
LINE
  5
1F4
330
1F0
100
AcDbEntity
  8
0
  6
Continuous
 62
     0
370
     0
100
AcDbLine
 10
0.0
 20
0.0
 30
0.0
 11
-0.05
 21
0.0
 31
0.0
  0
LINE
  5
1F5
330
1F0
100
AcDbEntity
  8
0
  6
Continuous
 62
     0
370
     0
100
AcDbLine
 10
0.0
 20
0.0
 30
0.0
 11
0.0
 21
-0.05
 31
0.0
  0
LINE
  5
1F6
330
1F0
100
AcDbEntity
  8
0
  6
Continuous
 62
     0
370
     0
100
AcDbLine
 10
0.0
 20
0.0
 30
0.0
 11
0.05
 21
0.0
 31
0.0
  0
ENDBLK
  5
1F2
330
1F0
100
AcDbEntity
  8
0
100
AcDbBlockEnd
  0
BLOCK
  5
394
330
393
100
AcDbEntity
  8
0
100
AcDbBlockBegin
  2
*D23
 70
     1
 10
0.0
 20
0.0
 30
0.0
  3
*D23
  1

  0
SOLID
  5
396
330
393
100
AcDbEntity
  8
0
  6
Continuous
 62
     7
370
     0
100
AcDbTrace
 10
0.929689302
 20
3.5151244127
 30
0.0
 11
0.949689302
 21
3.6401244127
 31
0.0
 12
0.909689302
 22
3.6401244127
 32
0.0
 13
0.909689302
 23
3.6401244127
 33
0.0
  0
SOLID
  5
397
330
393
100
AcDbEntity
  8
0
  6
Continuous
 62
     7
370
     0
100
AcDbTrace
 10
0.929689302
 20
5.1971244127
 30
0.0
 11
0.909689302
 21
5.0721244127
 31
0.0
 12
0.949689302
 22
5.0721244127
 32
0.0
 13
0.949689302
 23
5.0721244127
 33
0.0
  0
LINE
  5
398
330
393
100
AcDbEntity
  8
0
  6
Continuous
 62
     7
370
     0
100
AcDbLine
 10
1.4534745881
 20
3.5151244127
 30
0.0
 11
0.859689302
 21
3.5151244127
 31
0.0
  0
LINE
  5
399
330
393
100
AcDbEntity
  8
0
  6
Continuous
 62
     7
370
     0
100
AcDbLine
 10
1.8954745881
 20
5.1971244127
 30
0.0
 11
0.859689302
 21
5.1971244127
 31
0.0
  0
LINE
  5
39A
330
393
100
AcDbEntity
  8
0
  6
Continuous
 62
     7
370
     0
100
AcDbLine
 10
0.929689302
 20
3.5151244127
 30
0.0
 11
0.929689302
 21
4.2238367224
 31
0.0
  0
LINE
  5
39B
330
393
100
AcDbEntity
  8
0
  6
Continuous
 62
     7
370
     0
100
AcDbLine
 10
0.929689302
 20
5.1971244127
 30
0.0
 11
0.929689302
 21
4.488412103
 31
0.0
  0
MTEXT
  5
39C
330
393
100
AcDbEntity
  8
0
  6
Continuous
 62
     7
370
     0
100
AcDbMText
 10
0.7637982491
 20
4.3312590294
 30
0.0
 40
0.0833333333
 41
0.0
 71
     1
 72
     1
  1
(
  7
SLDTEXTSTYLE0
 73
     1
 44
1.0
  0
MTEXT
  5
39D
330
393
100
AcDbEntity
  8
0
  6
Continuous
 62
     7
370
     0
100
AcDbMText
 10
0.8048417723
 20
4.3312590294
 30
0.0
 40
0.0833333333
 41
0.0
 71
     1
 72
     1
  1
1.68
  7
SLDTEXTSTYLE0
 73
     1
 44
1.0
  0
MTEXT
  5
39E
330
393
100
AcDbEntity
  8
0
  6
Continuous
 62
     7
370
     0
100
AcDbMText
 10
1.0201976291
 20
4.3312590294
 30
0.0
 40
0.0833333333
 41
0.0
 71
     1
 72
     1
  1
")
  7
SLDTEXTSTYLE0
 73
     1
 44
1.0
  0
MTEXT
  5
39F
330
393
100
AcDbEntity
  8
0
  6
Continuous
 62
     7
370
     0
100
AcDbMText
 10
0.7181032443
 20
4.4635467197
 30
0.0
 40
0.0833333333
 41
0.0
 71
     1
 72
     1
  1
42.7 mm
  7
SLDTEXTSTYLE0
 73
     1
 44
1.0
  0
ENDBLK
  5
395
330
393
100
AcDbEntity
  8
0
100
AcDbBlockEnd
  0
BLOCK
  5
3A2
330
3A1
100
AcDbEntity
  8
0
100
AcDbBlockBegin
  2
*D24
 70
     1
 10
0.0
 20
0.0
 30
0.0
  3
*D24
  1

  0
SOLID
  5
3A4
330
3A1
100
AcDbEntity
  8
0
  6
Continuous
 62
     7
370
     0
100
AcDbTrace
 10
2.1380780212
 20
5.4438819067
 30
0.0
 11
2.2179397019
 21
5.5421016193
 31
0.0
 12
2.1833070712
 22
5.5621161363
 32
0.0
 13
2.1833070712
 23
5.5621161363
 33
0.0
  0
LINE
  5
3A5
330
3A1
100
AcDbEntity
  8
0
  6
Continuous
 62
     7
370
     0
100
AcDbLine
 10
2.1380780212
 20
5.4438819067
 30
0.0
 11
2.4817042374
 21
6.0384843098
 31
0.0
  0
LINE
  5
3A6
330
3A1
100
AcDbEntity
  8
0
  6
Continuous
 62
     7
370
     0
100
AcDbLine
 10
2.4817042374
 20
6.0384843098
 30
0.0
 11
2.3317042374
 21
6.0384843098
 31
0.0
  0
MTEXT
  5
3A7
330
3A1
100
AcDbEntity
  8
0
  6
Continuous
 62
     7
370
     0
100
AcDbMText
 10
1.197003514
 20
5.9474750815
 30
0.0
 40
0.0833333333
 41
0.0
 71
     1
 72
     1
  1
5.0 mm HEX SOCKET
  7
SLDTEXTSTYLE0
 73
     1
 44
1.0
  0
MTEXT
  5
3A8
330
3A1
100
AcDbEntity
  8
0
  6
Continuous
 62
     7
370
     0
100
AcDbMText
 10
0.618469709
 20
6.0797627718
 30
0.0
 40
0.0833333333
 41
0.0
 71
     1
 72
     1
  1
SPRING LOADED THUMBSCREW
  7
SLDTEXTSTYLE0
 73
     1
 44
1.0
  0
ENDBLK
  5
3A3
330
3A1
100
AcDbEntity
  8
0
100
AcDbBlockEnd
  0
BLOCK
  5
3AA
330
3A9
100
AcDbEntity
  8
0
100
AcDbBlockBegin
  2
SW_CENTERMARKSYMBOL_3
 70
     0
 10
0.0
 20
0.0
 30
0.0
  3
SW_CENTERMARKSYMBOL_3
  1

  0
LINE
  5
3AC
330
3A9
100
AcDbEntity
  8
0
  6
Continuous
 62
     0
370
     0
100
AcDbLine
 10
0.0
 20
0.0
 30
0.0
 11
0.0
 21
0.05
 31
0.0
  0
LINE
  5
3AD
330
3A9
100
AcDbEntity
  8
0
  6
Continuous
 62
     0
370
     0
100
AcDbLine
 10
0.0
 20
0.0
 30
0.0
 11
-0.05
 21
0.0
 31
0.0
  0
LINE
  5
3AE
330
3A9
100
AcDbEntity
  8
0
  6
Continuous
 62
     0
370
     0
100
AcDbLine
 10
0.0
 20
0.0
 30
0.0
 11
0.0
 21
-0.05
 31
0.0
  0
LINE
  5
3AF
330
3A9
100
AcDbEntity
  8
0
  6
Continuous
 62
     0
370
     0
100
AcDbLine
 10
0.0
 20
0.0
 30
0.0
 11
0.05
 21
0.0
 31
0.0
  0
ENDBLK
  5
3AB
330
3A9
100
AcDbEntity
  8
0
100
AcDbBlockEnd
  0
ENDSEC
  0
SECTION
  2
ENTITIES
  0
LINE
  5
52
330
1F
100
AcDbEntity
  8
0
  6
Continuous
 62
     7
370
     0
100
AcDbLine
 10
0.0621791378
 20
8.4506055117
 30
0.0
 11
10.9444569626
 21
8.4506055117
 31
0.0
  0
LINE
  5
53
330
1F
100
AcDbEntity
  8
0
  6
Continuous
 62
     7
370
     0
100
AcDbLine
 10
0.0621791378
 20
8.4506055117
 30
0.0
 11
0.0621791378
 21
0.035557648
 31
0.0
  0
LINE
  5
54
330
1F
100
AcDbEntity
  8
0
  6
Continuous
 62
     7
370
     0
100
AcDbLine
 10
10.9444569626
 20
0.035557648
 30
0.0
 11
0.0621791378
 21
0.035557648
 31
0.0
  0
LINE
  5
55
330
1F
100
AcDbEntity
  8
0
  6
Continuous
 62
     7
370
     0
100
AcDbLine
 10
10.9444569626
 20
0.035557648
 30
0.0
 11
10.9444569626
 21
8.4506055117
 31
0.0
  0
LINE
  5
56
330
1F
100
AcDbEntity
  8
0
  6
Continuous
 62
     7
370
     0
100
AcDbLine
 10
8.4938096065
 20
0.4840901186
 30
0.0
 11
6.7571952625
 21
0.4840901186
 31
0.0
  0
LINE
  5
57
330
1F
100
AcDbEntity
  8
0
  6
Continuous
 62
     7
370
     0
100
AcDbLine
 10
6.7571952625
 20
0.4840901186
 30
0.0
 11
6.7571952625
 21
1.030163002
 31
0.0
  0
LINE
  5
58
330
1F
100
AcDbEntity
  8
0
  6
Continuous
 62
     7
370
     0
100
AcDbLine
 10
6.7571952625
 20
0.035557648
 30
0.0
 11
6.7571952625
 21
1.030163002
 31
0.0
  0
LINE
  5
59
330
1F
100
AcDbEntity
  8
0
  6
Continuous
 62
     7
370
     0
100
AcDbLine
 10
8.4938096065
 20
0.6756085809
 30
0.0
 11
10.9444569626
 21
0.6756085809
 31
0.0
  0
LINE
  5
5A
330
1F
100
AcDbEntity
  8
0
  6
Continuous
 62
     7
370
     0
100
AcDbLine
 10
8.4938096065
 20
1.3873799542
 30
0.0
 11
8.4938096065
 21
0.035557648
 31
0.0
  0
LINE
  5
5B
330
1F
100
AcDbEntity
  8
0
  6
Continuous
 62
     7
370
     0
100
AcDbLine
 10
8.4938096065
 20
1.030163002
 30
0.0
 11
6.7571952625
 21
1.030163002
 31
0.0
  0
LINE
  5
5C
330
1F
100
AcDbEntity
  8
0
  6
Continuous
 62
     7
370
     0
100
AcDbLine
 10
8.4938096065
 20
0.3598787426
 30
0.0
 11
10.9444569626
 21
0.3598787426
 31
0.0
  0
LINE
  5
5D
330
1F
100
AcDbEntity
  8
0
  6
Continuous
 62
     7
370
     0
100
AcDbLine
 10
8.4938096065
 20
0.6662079686
 30
0.0
 11
6.7571952625
 21
0.6662079686
 31
0.0
  0
LINE
  5
5E
330
1F
100
AcDbEntity
  8
0
  6
Continuous
 62
     7
370
     0
100
AcDbLine
 10
8.4938096065
 20
0.8459606517
 30
0.0
 11
6.7571952625
 21
0.8459606517
 31
0.0
  0
LINE
  5
5F
330
1F
100
AcDbEntity
  8
0
  6
Continuous
 62
     7
370
     0
100
AcDbLine
 10
7.3281027587
 20
1.030163002
 30
0.0
 11
7.3281027587
 21
0.4840901186
 31
0.0
  0
LINE
  5
60
330
1F
100
AcDbEntity
  8
0
  6
Continuous
 62
     7
370
     0
100
AcDbLine
 10
7.8037240401
 20
1.030163002
 30
0.0
 11
7.8037240401
 21
0.4840901186
 31
0.0
  0
LINE
  5
61
330
1F
100
AcDbEntity
  8
0
  6
Continuous
 62
     7
370
     0
100
AcDbLine
 10
9.990119718
 20
0.3598787426
 30
0.0
 11
9.990119718
 21
0.035557648
 31
0.0
  0
LINE
  5
62
330
1F
100
AcDbEntity
  8
0
  6
Continuous
 62
     7
370
     0
100
AcDbLine
 10
6.7571952625
 20
0.4840901186
 30
0.0
 11
6.7571952625
 21
0.297745443
 31
0.0
  0
LINE
  5
63
330
1F
100
AcDbEntity
  8
0
  6
Continuous
 62
     7
370
     0
100
AcDbLine
 10
6.7571952625
 20
0.297745443
 30
0.0
 11
8.4938096065
 21
0.297745443
 31
0.0
  0
LINE
  5
64
330
1F
100
AcDbEntity
  8
0
  6
Continuous
 62
     7
370
     0
100
AcDbLine
 10
6.7571952625
 20
0.297745443
 30
0.0
 11
6.7571952625
 21
1.3873799542
 31
0.0
  0
LINE
  5
65
330
1F
100
AcDbEntity
  8
0
  6
Continuous
 62
     7
370
     0
100
AcDbLine
 10
6.7571952625
 20
1.3873799542
 30
0.0
 11
8.4938096065
 21
1.3873799542
 31
0.0
  0
LINE
  5
66
330
1F
100
AcDbEntity
  8
0
  6
Continuous
 62
     7
370
     0
100
AcDbLine
 10
10.6365495992
 20
0.6756085809
 30
0.0
 11
10.6365495992
 21
0.3598787426
 31
0.0
  0
LINE
  5
67
330
1F
100
AcDbEntity
  8
0
  6
Continuous
 62
     7
370
     0
100
AcDbLine
 10
8.4938096065
 20
1.3873799542
 30
0.0
 11
10.9444569626
 21
1.3873799542
 31
0.0
  0
LINE
  5
68
330
1F
100
AcDbEntity
  8
0
  6
Continuous
 62
     7
370
     0
100
AcDbLine
 10
10.9444569626
 20
1.3873799542
 30
0.0
 11
10.9444569626
 21
1.9698084888
 31
0.0
  0
LINE
  5
69
330
1F
100
AcDbEntity
  8
0
  6
Continuous
 62
     7
370
     0
100
AcDbLine
 10
8.4938096065
 20
0.9800288797
 30
0.0
 11
10.9444569626
 21
0.9800288797
 31
0.0
  0
INSERT
  5
6A
330
1F
100
AcDbEntity
  8
0
  6
Continuous
 62
     7
100
AcDbBlockReference
  2
Third Angle Projection Block
 10
4.6348905679
 20
0.6108753523
 30
0.0
 41
0.8
 42
0.8
 43
0.8
  0
MTEXT
  5
6C
330
1F
100
AcDbEntity
  8
0
  6
Continuous
 62
     7
370
     0
100
AcDbMText
 10
10.7776160107
 20
0.5162413101
 30
0.0
 40
0.125
 41
0.0
 71
     2
 72
     1
  1
A
  7
SLDTEXTSTYLE0
 73
     1
 44
1.0
  0
MTEXT
  5
6D
330
1F
100
AcDbEntity
  8
0
  6
Continuous
 62
     7
370
     0
100
AcDbMText
 10
9.238486943
 20
0.2019943461
 30
0.0
 40
0.125
 41
0.0
 71
     2
 72
     1
  1
UPH2/M
  7
SLDTEXTSTYLE0
 73
     1
 44
1.0
  0
MTEXT
  5
6E
330
1F
100
AcDbEntity
  8
0
  6
Continuous
 62
     7
370
     0
100
AcDbMText
 10
8.5204715199
 20
0.6623747189
 30
0.0
 40
0.0833333333
 41
0.0
 71
     1
 72
     1
  1
MATERIAL
  7
SLDTEXTSTYLE0
 73
     1
 44
1.0
  0
MTEXT
  5
6F
330
1F
100
AcDbEntity
  8
0
  6
Continuous
 62
     7
370
     0
100
AcDbMText
 10
6.8055665782
 20
0.7895493672
 30
0.0
 40
0.0729166667
 41
0.0
 71
     1
 72
     1
  1
REDRAWN
  7
SLDTEXTSTYLE0
 73
     1
 44
1.0
  0
MTEXT
  5
70
330
1F
100
AcDbEntity
  8
0
  6
Continuous
 62
     7
370
     0
100
AcDbMText
 10
6.7872445848
 20
0.613335314
 30
0.0
 40
0.0729166667
 41
0.0
 71
     1
 72
     1
  1
APPROVAL
  7
SLDTEXTSTYLE0
 73
     1
 44
1.0
  0
MTEXT
  5
71
330
1F
100
AcDbEntity
  8
0
  6
Continuous
 62
     7
370
     0
100
AcDbMText
 10
10.681956279
 20
0.6308568984
 30
0.0
 40
0.0833333333
 41
0.0
 71
     1
 72
     1
  1
REV
  7
SLDTEXTSTYLE0
 73
     1
 44
1.0
  0
MTEXT
  5
72
330
1F
100
AcDbEntity
  8
0
  6
Continuous
 62
     7
370
     0
100
AcDbMText
 10
7.4919633718
 20
0.7999100272
 30
0.0
 40
0.0833333333
 41
0.0
 71
     1
 72
     1
  1
TLB
  7
SLDTEXTSTYLE0
 73
     1
 44
1.0
  0
MTEXT
  5
73
330
1F
100
AcDbEntity
  8
0
  6
Continuous
 62
     7
370
     0
100
AcDbMText
 10
7.4919633718
 20
0.623695974
 30
0.0
 40
0.0833333333
 41
0.0
 71
     1
 72
     1
  1
TLB
  7
SLDTEXTSTYLE0
 73
     1
 44
1.0
  0
MTEXT
  5
75
330
1F
100
AcDbEntity
  8
0
  6
Continuous
 62
     7
370
     0
100
AcDbMText
 10
7.8687497515
 20
0.7999100272
 30
0.0
 40
0.0833333333
 41
0.0
 71
     1
 72
     1
  1
05 MAR 12
  7
SLDTEXTSTYLE1
 73
     1
 44
1.0
  0
MTEXT
  5
76
330
1F
100
AcDbEntity
  8
0
  6
Continuous
 62
     7
370
     0
100
AcDbMText
 10
8.0163191884
 20
0.9772495896
 30
0.0
 40
0.0833333333
 41
0.0
 71
     1
 72
     1
  1
DATE
  7
SLDTEXTSTYLE0
 73
     1
 44
1.0
  0
MTEXT
  5
77
330
1F
100
AcDbEntity
  8
0
  6
Continuous
 62
     7
370
     0
100
AcDbMText
 10
7.8687497515
 20
0.623695974
 30
0.0
 40
0.0833333333
 41
0.0
 71
     1
 72
     1
  1
05 MAR 12
  7
SLDTEXTSTYLE1
 73
     1
 44
1.0
  0
MTEXT
  5
79
330
1F
100
AcDbEntity
  8
0
  6
Continuous
 62
     7
370
     0
100
AcDbMText
 10
9.0316104912
 20
1.0943207896
 30
0.0
 40
0.0833333333
 41
0.0
 71
     1
 72
     1
  1
w w w . t h o r  l a b s . c o m
  7
SLDTEXTSTYLE2
 73
     1
 44
1.0
  0
MTEXT
  5
7A
330
1F
100
AcDbEntity
  8
0
  6
Continuous
 62
     7
370
     0
100
AcDbMText
 10
8.5315119501
 20
0.328719653
 30
0.0
 40
0.0833333333
 41
0.0
 71
     1
 72
     1
  1
ITEM #
  7
SLDTEXTSTYLE0
 73
     1
 44
1.0
  0
MTEXT
  5
7B
330
1F
100
AcDbEntity
  8
0
  6
Continuous
 62
     7
370
     0
100
AcDbMText
 10
10.0209370115
 20
0.328719653
 30
0.0
 40
0.0833333333
 41
0.0
 71
     1
 72
     1
  1
APPROX WEIGHT
  7
SLDTEXTSTYLE0
 73
     1
 44
1.0
  0
MTEXT
  5
7C
330
1F
100
AcDbEntity
  8
0
  6
Continuous
 62
     7
370
     0
100
AcDbMText
 10
9.5853574294
 20
0.5162413101
 30
0.0
 40
0.125
 41
0.0
 71
     2
 72
     1
  1
ALUMINUM
  7
SLDTEXTSTYLE0
 73
     1
 44
1.0
  0
MTEXT
  5
7D
330
1F
100
AcDbEntity
  8
0
  6
Continuous
 62
     7
370
     0
100
AcDbMText
 10
10.4790491378
 20
0.2019943461
 30
0.0
 40
0.125
 41
0.0
 71
     2
 72
     1
  1
0.08 kg
  7
SLDTEXTSTYLE0
 73
     1
 44
1.0
  0
INSERT
  5
83
330
1F
100
AcDbEntity
  8
0
  6
Continuous
 62
     7
370
     0
100
AcDbBlockReference
  2
SW_NOTE_0
 10
6.8835832285
 20
0.1754273811
 30
0.0
  0
INSERT
  5
89
330
1F
100
AcDbEntity
  8
0
  6
Continuous
 62
     7
370
     0
100
AcDbBlockReference
  2
SW_NOTE_1
 10
6.8719828753
 20
1.2001390658
 30
0.0
  0
MTEXT
  5
8A
330
1F
100
AcDbEntity
  8
0
  6
Continuous
 62
     7
370
     0
100
AcDbMText
 10
7.3987149145
 20
0.9772495896
 30
0.0
 40
0.0833333333
 41
0.0
 71
     1
 72
     1
  1
NAME
  7
SLDTEXTSTYLE0
 73
     1
 44
1.0
  0
INSERT
  5
90
330
1F
100
AcDbEntity
  8
0
  6
Continuous
 62
     7
370
     0
100
AcDbBlockReference
  2
SW_NOTE_2
 10
2.3078923918
 20
0.3219551564
 30
0.0
  0
MTEXT
  5
91
330
1F
100
AcDbEntity
  8
0
  6
Continuous
 62
     7
370
     0
100
AcDbMText
 10
7.0518693355
 20
0.4200025137
 30
0.0
 40
0.0625
 41
0.0
 71
     1
 72
     1
  1
COPYRIGHT © 2012 BY THORLABS
  7
SLDTEXTSTYLE0
 73
     1
 44
1.0
  0
INSERT
  5
97
330
1F
100
AcDbEntity
  8
0
  6
Continuous
 62
     7
370
     0
100
AcDbBlockReference
  2
SW_NOTE_3
 10
9.1091566621
 20
0.8252423426
 30
0.0
  0
LINE
  5
98
330
1F
100
AcDbEntity
  8
0
  6
Continuous
 62
     7
370
     0
100
AcDbLine
 10
4.6261710961
 20
3.9721243875
 30
0.0
 11
4.6261710961
 21
5.367124459
 31
0.0
  0
LINE
  5
99
330
1F
100
AcDbEntity
  8
0
  6
Continuous
 62
     7
370
     0
100
AcDbLine
 10
3.6421710834
 20
5.0721244402
 30
0.0
 11
3.6421710834
 21
3.9721243875
 31
0.0
  0
LINE
  5
9A
330
1F
100
AcDbEntity
  8
0
  6
Continuous
 62
     7
370
     0
100
AcDbLine
 10
3.6421710834
 20
5.367124459
 30
0.0
 11
3.6421710834
 21
5.3221244188
 31
0.0
  0
LINE
  5
9B
330
1F
100
AcDbEntity
  8
0
  6
Continuous
 62
     7
370
     0
100
AcDbLine
 10
4.6261710961
 20
5.367124459
 30
0.0
 11
4.5395685832
 21
5.5171244462
 31
0.0
  0
LINE
  5
9C
330
1F
100
AcDbEntity
  8
0
  6
Continuous
 62
     7
370
     0
100
AcDbLine
 10
3.7287736329
 20
5.5171244462
 30
0.0
 11
3.6421710834
 21
5.367124459
 31
0.0
  0
LINE
  5
9D
330
1F
100
AcDbEntity
  8
0
  6
Continuous
 62
     7
370
     0
100
AcDbLine
 10
3.6421710834
 20
3.9721243875
 30
0.0
 11
3.6671710812
 21
3.9471243896
 31
0.0
  0
LINE
  5
9E
330
1F
100
AcDbEntity
  8
0
  6
Continuous
 62
     7
370
     0
100
AcDbLine
 10
4.6011710983
 20
3.9471243896
 30
0.0
 11
4.6261710961
 21
3.9721243875
 31
0.0
  0
LINE
  5
9F
330
1F
100
AcDbEntity
  8
0
  6
Continuous
 62
     7
370
     0
100
AcDbLine
 10
3.6421710834
 20
3.6651243873
 30
0.0
 11
3.6421710834
 21
3.5151244001
 31
0.0
  0
LINE
  5
A0
330
1F
100
AcDbEntity
  8
0
  6
Continuous
 62
     7
370
     0
100
AcDbLine
 10
4.6261710961
 20
3.5151244001
 30
0.0
 11
4.6261710961
 21
3.5931244257
 31
0.0
  0
LINE
  5
A1
330
1F
100
AcDbEntity
  8
0
  6
Continuous
 62
     7
370
     0
100
AcDbLine
 10
3.7394210883
 20
3.9471243896
 30
0.0
 11
3.7394210883
 21
3.9431243958
 31
0.0
  0
LINE
  5
A2
330
1F
100
AcDbEntity
  8
0
  6
Continuous
 62
     7
370
     0
100
AcDbLine
 10
4.5289210729
 20
3.9431243958
 30
0.0
 11
4.5289210729
 21
3.9471243896
 31
0.0
  0
LINE
  5
A3
330
1F
100
AcDbEntity
  8
0
  6
Continuous
 62
     7
370
     0
100
AcDbLine
 10
3.6421710834
 20
3.9431243958
 30
0.0
 11
3.6421710834
 21
3.6651243873
 31
0.0
  0
LINE
  5
A4
330
1F
100
AcDbEntity
  8
0
  6
Continuous
 62
     7
370
     0
100
AcDbLine
 10
3.5221710863
 20
4.9121243952
 30
0.0
 11
3.5421710919
 21
4.9321243641
 31
0.0
  0
LINE
  5
A5
330
1F
100
AcDbEntity
  8
0
  6
Continuous
 62
     7
370
     0
100
AcDbLine
 10
3.5421710919
 20
5.4621244949
 30
0.0
 11
3.5221710863
 21
5.4821243171
 31
0.0
  0
LINE
  5
A6
330
1F
100
AcDbEntity
  8
0
  6
Continuous
 62
     7
370
     0
100
AcDbLine
 10
3.252171102
 20
4.9121243952
 30
0.0
 11
3.5221710863
 21
4.9121243952
 31
0.0
  0
LINE
  5
A7
330
1F
100
AcDbEntity
  8
0
  6
Continuous
 62
     7
370
     0
100
AcDbLine
 10
3.5221710863
 20
5.4821243171
 30
0.0
 11
3.252171102
 21
5.4821243171
 31
0.0
  0
LINE
  5
A8
330
1F
100
AcDbEntity
  8
0
  6
Continuous
 62
     7
370
     0
100
AcDbLine
 10
3.252171102
 20
5.4821243171
 30
0.0
 11
3.2321710597
 21
5.4621244949
 31
0.0
  0
LINE
  5
A9
330
1F
100
AcDbEntity
  8
0
  6
Continuous
 62
     7
370
     0
100
AcDbLine
 10
3.2321710597
 20
4.9321243641
 30
0.0
 11
3.252171102
 21
4.9121243952
 31
0.0
  0
LINE
  5
AA
330
1F
100
AcDbEntity
  8
0
  6
Continuous
 62
     7
370
     0
100
AcDbLine
 10
3.2321085804
 20
5.0985506816
 30
0.0
 11
3.2321710597
 21
5.0985506816
 31
0.0
  0
ARC
  5
AB
330
1F
100
AcDbEntity
  8
0
  6
Continuous
 62
     7
370
     0
100
AcDbCircle
 10
3.5521710903
 20
5.0621244127
 30
0.0
 40
0.0100000000000002
100
AcDbArc
 50
90.0
 51
180.0
  0
ARC
  5
AC
330
1F
100
AcDbEntity
  8
0
  6
Continuous
 62
     7
370
     0
100
AcDbCircle
 10
3.5521710903
 20
5.3321244127
 30
0.0
 40
0.0100000000000002
100
AcDbArc
 50
180.0
 51
270.0
  0
LINE
  5
AD
330
1F
100
AcDbEntity
  8
0
  6
Continuous
 62
     7
370
     0
100
AcDbLine
 10
3.5521710764
 20
5.0721244402
 30
0.0
 11
3.6421710834
 21
5.0721244402
 31
0.0
  0
LINE
  5
AE
330
1F
100
AcDbEntity
  8
0
  6
Continuous
 62
     7
370
     0
100
AcDbLine
 10
3.6421710834
 20
5.3221244188
 30
0.0
 11
3.5521710764
 21
5.3221244188
 31
0.0
  0
LINE
  5
AF
330
1F
100
AcDbEntity
  8
0
  6
Continuous
 62
     7
370
     0
100
AcDbLine
 10
3.2321710597
 20
5.0206843411
 30
0.0
 11
3.2321085804
 21
5.0206843411
 31
0.0
  0
LINE
  5
B0
330
1F
100
AcDbEntity
  8
0
  6
Continuous
 62
     7
370
     0
100
AcDbLine
 10
3.6421710834
 20
3.9721243875
 30
0.0
 11
4.6261710961
 21
3.9721243875
 31
0.0
  0
LWPOLYLINE
  5
B1
330
1F
100
AcDbEntity
  8
0
  6
Continuous
 62
     7
370
     0
100
AcDbPolyline
 90
       19
 70
   128
 43
0.0
 10
3.6421740167
 20
5.3155312416
 10
3.6421711017
 20
5.3155425348
 10
3.6427744447
 20
5.313251628
 10
3.6445109947
 20
5.3063762674
 10
3.6471115113
 20
5.2954308072
 10
3.6501576694
 20
5.2808090428
 10
3.6532146625
 20
5.2629756088
 10
3.6558354372
 20
5.2424319528
 10
3.6576338431
 20
5.2200373848
 10
3.6582588742
 20
5.1970425171
 10
3.6576329448
 20
5.174081969
 10
3.655825134
 20
5.1516621747
 10
3.6532006376
 20
5.1311553316
 10
3.6501380347
 20
5.1133374441
 10
3.6470954698
 20
5.0987585058
 10
3.6444989315
 20
5.087833432
 10
3.6427684681
 20
5.0809761112
 10
3.6421710834
 20
5.0787061775
 10
3.6421710834
 20
5.0787061775
  0
LINE
  5
B2
330
1F
100
AcDbEntity
  8
0
  6
Continuous
 62
     7
370
     0
100
AcDbLine
 10
4.6261710961
 20
5.367124459
 30
0.0
 11
3.6421710834
 21
5.367124459
 31
0.0
  0
LINE
  5
B3
330
1F
100
AcDbEntity
  8
0
  6
Continuous
 62
     7
370
     0
100
AcDbLine
 10
3.7287736329
 20
5.5171244462
 30
0.0
 11
4.5395685832
 21
5.5171244462
 31
0.0
  0
LINE
  5
B4
330
1F
100
AcDbEntity
  8
0
  6
Continuous
 62
     7
370
     0
100
AcDbLine
 10
4.6011710983
 20
3.9471243896
 30
0.0
 11
3.6671710812
 21
3.9471243896
 31
0.0
  0
LINE
  5
B5
330
1F
100
AcDbEntity
  8
0
  6
Continuous
 62
     7
370
     0
100
AcDbLine
 10
4.3801710746
 20
3.5151244001
 30
0.0
 11
4.6261710961
 21
3.5151244001
 31
0.0
  0
LINE
  5
B6
330
1F
100
AcDbEntity
  8
0
  6
Continuous
 62
     7
370
     0
100
AcDbLine
 10
3.6421710834
 20
3.5151244001
 30
0.0
 11
4.3801710746
 21
3.5151244001
 31
0.0
  0
LINE
  5
B7
330
1F
100
AcDbEntity
  8
0
  6
Continuous
 62
     7
370
     0
100
AcDbLine
 10
3.6421710834
 20
3.6651243873
 30
0.0
 11
4.1341710897
 21
3.6651243873
 31
0.0
  0
LINE
  5
B8
330
1F
100
AcDbEntity
  8
0
  6
Continuous
 62
     7
370
     0
100
AcDbLine
 10
3.6421710834
 20
3.9431243958
 30
0.0
 11
4.1341710897
 21
3.9431243958
 31
0.0
  0
SPLINE
  5
B9
330
1F
100
AcDbEntity
  8
0
  6
Continuous
 62
     7
370
     0
100
AcDbSpline
210
0.0
220
0.0
230
1.0
 70
     8
 71
     3
 72
    17
 73
    13
 74
     0
 42
0.00000001
 43
0.00000001
 40
0.0
 40
0.0
 40
0.0
 40
0.0
 40
0.1072029824849283
 40
0.2143996372206845
 40
0.3217520917541208
 40
0.4292073620101335
 40
0.5364928322713629
 40
0.6436010138430767
 40
0.7508009618747761
 40
0.8582183980571463
 40
0.9656401625329483
 40
1.0
 40
1.0
 40
1.0
 40
1.0
 10
4.134171089745946
 20
3.770624388541919
 30
0.0
 10
4.130408934542993
 20
3.770993924275191
 30
0.0
 10
4.122884846201567
 20
3.771732973929569
 30
0.0
 10
4.112867727712633
 20
3.777492752657436
 30
0.0
 10
4.105241088409261
 20
3.785981892794759
 30
0.0
 10
4.100870501657595
 20
3.796594974964421
 30
0.0
 10
4.100255898475587
 20
3.808033231725819
 30
0.0
 10
4.103454706857874
 20
3.819022087249471
 30
0.0
 10
4.11010611907819
 20
3.828345302625829
 30
0.0
 10
4.119465092001678
 20
3.834916887654587
 30
0.0
 10
4.128018773420423
 20
3.837420278102772
 30
0.0
 10
4.132970959954235
 20
3.837584577641087
 30
0.0
 10
4.134171089745946
 20
3.837624394552132
 30
0.0
  0
LINE
  5
BA
330
1F
100
AcDbEntity
  8
0
  6
Continuous
 62
     7
370
     0
100
AcDbLine
 10
5.9026749632
 20
3.5131244032
 30
0.0
 11
6.1026750928
 21
3.5131244032
 31
0.0
  0
LINE
  5
BB
330
1F
100
AcDbEntity
  8
0
  6
Continuous
 62
     7
370
     0
100
AcDbLine
 10
4.1341710897
 20
3.6651243873
 30
0.0
 11
4.3341710727
 21
3.6651243873
 31
0.0
  0
LINE
  5
BC
330
1F
100
AcDbEntity
  8
0
  6
Continuous
 62
     7
370
     0
100
AcDbLine
 10
6.1026750928
 20
3.9431243958
 30
0.0
 11
6.1026750928
 21
3.5131244032
 31
0.0
  0
LINE
  5
BD
330
1F
100
AcDbEntity
  8
0
  6
Continuous
 62
     7
370
     0
100
AcDbLine
 10
4.3341710727
 20
3.6651243873
 30
0.0
 11
4.3341710727
 21
3.5931244257
 31
0.0
  0
ARC
  5
BE
330
1F
100
AcDbEntity
  8
0
  6
Continuous
 62
     7
370
     0
100
AcDbCircle
 10
4.1341710903
 20
3.8041244127
 30
0.0
 40
0.0335000000000001
100
AcDbArc
 50
270.0
 51
90.0
  0
LINE
  5
BF
330
1F
100
AcDbEntity
  8
0
  6
Continuous
 62
     7
370
     0
100
AcDbLine
 10
4.1341710897
 20
3.9431243958
 30
0.0
 11
6.1026750928
 21
3.9431243958
 31
0.0
  0
LINE
  5
C0
330
1F
100
AcDbEntity
  8
0
  6
Continuous
 62
     7
370
     0
100
AcDbLine
 10
4.3341710727
 20
3.5931244257
 30
0.0
 11
5.9026749632
 21
3.5931244257
 31
0.0
  0
LINE
  5
C1
330
1F
100
AcDbEntity
  8
0
  6
Continuous
 62
     7
370
     0
100
AcDbLine
 10
5.9026749632
 20
3.5931244257
 30
0.0
 11
5.9026749632
 21
3.5131244032
 31
0.0
  0
CIRCLE
  5
C2
330
1F
100
AcDbEntity
  8
0
  6
Continuous
 62
     7
370
     0
100
AcDbCircle
 10
4.1341710903
 20
3.8041244127
 30
0.0
 40
0.03125
  0
LINE
  5
C3
330
1F
100
AcDbEntity
  8
0
  6
Continuous
 62
     7
370
     0
100
AcDbLine
 10
3.5221710863
 20
4.9121243952
 30
0.0
 11
3.5221710863
 21
5.4821243171
 31
0.0
  0
LINE
  5
C4
330
1F
100
AcDbEntity
  8
0
  6
Continuous
 62
     7
370
     0
100
AcDbLine
 10
3.5421710919
 20
4.9321243641
 30
0.0
 11
3.5421710919
 21
5.4621244949
 31
0.0
  0
LINE
  5
C5
330
1F
100
AcDbEntity
  8
0
  6
Continuous
 62
     7
370
     0
100
AcDbLine
 10
3.252171102
 20
4.9121243952
 30
0.0
 11
3.252171102
 21
5.4821243171
 31
0.0
  0
LINE
  5
C6
330
1F
100
AcDbEntity
  8
0
  6
Continuous
 62
     7
370
     0
100
AcDbLine
 10
3.2321710597
 20
4.9321243641
 30
0.0
 11
3.2321710597
 21
5.4621244949
 31
0.0
  0
DIMENSION
  5
C7
330
1F
100
AcDbEntity
  8
0
  6
Continuous
 62
     7
370
     0
100
AcDbDimension
  2
*D6
 10
6.4963758147
 20
3.9431244127
 30
0.0
 11
6.4963758147
 21
3.7281244127
 31
0.0
 70
   160
  1
10.9 mm\P(<>")
 71
     2
 42
-1.0
  3
SLDDIMSTYLE0
100
AcDbAlignedDimension
 13
6.1026750273
 23
3.5131244127
 33
0.0
 14
6.1026750273
 24
3.9431244127
 34
0.0
 50
90.0
100
AcDbRotatedDimension
  0
DIMENSION
  5
D6
330
1F
100
AcDbEntity
  8
0
  6
Continuous
 62
     7
370
     0
100
AcDbDimension
  2
*D7
 10
6.9688167596
 20
5.5171244127
 30
0.0
 11
6.9688167596
 21
4.5151244127
 31
0.0
 70
   160
  1
50.9 mm\P(<>")
 71
     2
 42
-1.0
  3
SLDDIMSTYLE1
100
AcDbAlignedDimension
 13
6.1026750273
 23
3.5131244127
 33
0.0
 14
4.5395685499
 24
5.5171244127
 34
0.0
 50
90.0
100
AcDbRotatedDimension
  0
DIMENSION
  5
E5
330
1F
100
AcDbEntity
  8
0
  6
Continuous
 62
     7
370
     0
100
AcDbDimension
  2
*D8
 10
6.1026750273
 20
3.1214236253
 30
0.0
 11
4.8724230588
 21
3.1214236253
 31
0.0
 70
   160
  1
62.5 mm\P(<>")
 71
     2
 42
-1.0
  3
SLDDIMSTYLE2
100
AcDbAlignedDimension
 13
3.6421710903
 23
3.9721244127
 33
0.0
 14
6.1026750273
 24
3.5131244127
 34
0.0
100
AcDbRotatedDimension
  0
SPLINE
  5
F4
330
1F
100
AcDbEntity
  8
0
  6
Continuous
 62
     7
370
     0
100
AcDbSpline
210
0.0
220
0.0
230
1.0
 70
     8
 71
     3
 72
     9
 73
     5
 74
     0
 42
0.00000001
 43
0.00000001
 40
0.0
 40
0.0
 40
0.0
 40
0.0
 40
0.5927802906279547
 40
1.0
 40
1.0
 40
1.0
 40
1.0
 10
3.541210069682249
 20
6.673719432219189
 30
0.0
 10
3.541407758649846
 20
6.676166440627157
 30
0.0
 10
3.541741253151472
 20
6.680294459805015
 30
0.0
 10
3.542046705640118
 20
6.684205490781833
 30
0.0
 10
3.542171091913772
 20
6.685798139679558
 30
0.0
  0
ARC
  5
F5
330
1F
100
AcDbEntity
  8
0
  6
Continuous
 62
     7
370
     0
100
AcDbCircle
 10
3.8621710903
 20
6.673739584
 30
0.0
 40
0.0450000000000004
100
AcDbArc
 50
301.4066750694
 51
58.5933249306
  0
LINE
  5
F6
330
1F
100
AcDbEntity
  8
0
  6
Continuous
 62
     7
370
     0
100
AcDbLine
 10
3.252171102
 20
6.3887395863
 30
0.0
 11
3.5221710863
 21
6.3887395863
 31
0.0
  0
LINE
  5
F7
330
1F
100
AcDbEntity
  8
0
  6
Continuous
 62
     7
370
     0
100
AcDbLine
 10
3.5221710863
 20
6.9587395816
 30
0.0
 11
3.252171102
 21
6.9587395816
 31
0.0
  0
LINE
  5
F8
330
1F
100
AcDbEntity
  8
0
  6
Continuous
 62
     7
370
     0
100
AcDbLine
 10
3.5221710863
 20
6.3887395863
 30
0.0
 11
3.5421710919
 21
6.408739592
 31
0.0
  0
LINE
  5
F9
330
1F
100
AcDbEntity
  8
0
  6
Continuous
 62
     7
370
     0
100
AcDbLine
 10
3.5421710919
 20
6.938739576
 30
0.0
 11
3.5221710863
 21
6.9587395816
 31
0.0
  0
LINE
  5
FA
330
1F
100
AcDbEntity
  8
0
  6
Continuous
 62
     7
370
     0
100
AcDbLine
 10
3.252171102
 20
6.9587395816
 30
0.0
 11
3.2321710597
 21
6.938739576
 31
0.0
  0
LINE
  5
FB
330
1F
100
AcDbEntity
  8
0
  6
Continuous
 62
     7
370
     0
100
AcDbLine
 10
3.2321710597
 20
6.408739592
 30
0.0
 11
3.252171102
 21
6.3887395863
 31
0.0
  0
LINE
  5
FC
330
1F
100
AcDbEntity
  8
0
  6
Continuous
 62
     7
370
     0
100
AcDbLine
 10
3.2321085804
 20
6.6838238733
 30
0.0
 11
3.2321710597
 21
6.6838238733
 31
0.0
  0
ARC
  5
FD
330
1F
100
AcDbEntity
  8
0
  6
Continuous
 62
     7
370
     0
100
AcDbCircle
 10
3.5521710903
 20
6.538739584
 30
0.0
 40
0.0100000000000007
100
AcDbArc
 50
90.0
 51
180.0
  0
ARC
  5
FE
330
1F
100
AcDbEntity
  8
0
  6
Continuous
 62
     7
370
     0
100
AcDbCircle
 10
3.5521710903
 20
6.808739584
 30
0.0
 40
0.0100000000000002
100
AcDbArc
 50
180.0
 51
270.0
  0
LINE
  5
FF
330
1F
100
AcDbEntity
  8
0
  6
Continuous
 62
     7
370
     0
100
AcDbLine
 10
3.5521710764
 20
6.5487395855
 30
0.0
 11
3.6583150285
 21
6.5487395855
 31
0.0
  0
LINE
  5
100
330
1F
100
AcDbEntity
  8
0
  6
Continuous
 62
     7
370
     0
100
AcDbLine
 10
3.6583150285
 20
6.7987395825
 30
0.0
 11
3.5521710764
 21
6.7987395825
 31
0.0
  0
LINE
  5
101
330
1F
100
AcDbEntity
  8
0
  6
Continuous
 62
     7
370
     0
100
AcDbLine
 10
3.2321085804
 20
6.4881754126
 30
0.0
 11
3.2321710597
 21
6.4881754126
 31
0.0
  0
LINE
  5
102
330
1F
100
AcDbEntity
  8
0
  6
Continuous
 62
     7
370
     0
100
AcDbLine
 10
3.2321085804
 20
6.4515894319
 30
0.0
 11
3.2321710597
 21
6.4515894319
 31
0.0
  0
LINE
  5
103
330
1F
100
AcDbEntity
  8
0
  6
Continuous
 62
     7
370
     0
100
AcDbLine
 10
3.2321085804
 20
6.4617403713
 30
0.0
 11
3.2321710597
 21
6.4617403713
 31
0.0
  0
CIRCLE
  5
104
330
1F
100
AcDbEntity
  8
0
  6
Continuous
 62
     7
370
     0
100
AcDbCircle
 10
4.1341710903
 20
6.673739584
 30
0.0
 40
0.4053974596215557
  0
CIRCLE
  5
105
330
1F
100
AcDbEntity
  8
0
  6
Continuous
 62
     7
370
     0
100
AcDbCircle
 10
4.1341710903
 20
6.673739584
 30
0.0
 40
0.492
  0
LINE
  5
106
330
1F
100
AcDbEntity
  8
0
  6
Continuous
 62
     7
370
     0
100
AcDbLine
 10
4.3678230572
 20
6.8307395786
 30
0.0
 11
4.4291711085
 21
6.8307395786
 31
0.0
  0
ARC
  5
107
330
1F
100
AcDbEntity
  8
0
  6
Continuous
 62
     7
370
     0
100
AcDbCircle
 10
4.1341710903
 20
6.673739584
 30
0.0
 40
0.2814999999999997
100
AcDbArc
 50
33.8987130402
 51
326.1012869598
  0
LINE
  5
108
330
1F
100
AcDbEntity
  8
0
  6
Continuous
 62
     7
370
     0
100
AcDbLine
 10
4.4291711085
 20
6.5167395893
 30
0.0
 11
4.3678230572
 21
6.5167395893
 31
0.0
  0
LINE
  5
109
330
1F
100
AcDbEntity
  8
0
  6
Continuous
 62
     7
370
     0
100
AcDbLine
 10
4.4291711085
 20
6.8307395786
 30
0.0
 11
4.4291711085
 21
6.5167395893
 31
0.0
  0
ARC
  5
10A
330
1F
100
AcDbEntity
  8
0
  6
Continuous
 62
     7
370
     0
100
AcDbCircle
 10
4.1341710903
 20
6.673739584
 30
0.0
 40
0.2515000000000003
100
AcDbArc
 50
30.3293727942
 51
329.6706272058
  0
LINE
  5
10B
330
1F
100
AcDbEntity
  8
0
  6
Continuous
 62
     7
370
     0
100
AcDbLine
 10
4.3512499887
 20
6.5467395794
 30
0.0
 11
4.3678230572
 21
6.5167395893
 31
0.0
  0
LINE
  5
10C
330
1F
100
AcDbEntity
  8
0
  6
Continuous
 62
     7
370
     0
100
AcDbLine
 10
4.3512499887
 20
6.8007395885
 30
0.0
 11
4.3678230572
 21
6.8307395786
 31
0.0
  0
LINE
  5
10D
330
1F
100
AcDbEntity
  8
0
  6
Continuous
 62
     7
370
     0
100
AcDbLine
 10
4.3991710818
 20
6.8007395885
 30
0.0
 11
4.3512499887
 21
6.8007395885
 31
0.0
  0
LINE
  5
10E
330
1F
100
AcDbEntity
  8
0
  6
Continuous
 62
     7
370
     0
100
AcDbLine
 10
4.4291711085
 20
6.8307395786
 30
0.0
 11
4.3991710818
 21
6.8007395885
 31
0.0
  0
LINE
  5
10F
330
1F
100
AcDbEntity
  8
0
  6
Continuous
 62
     7
370
     0
100
AcDbLine
 10
4.4291711085
 20
6.5167395893
 30
0.0
 11
4.3991710818
 21
6.5467395794
 31
0.0
  0
LINE
  5
110
330
1F
100
AcDbEntity
  8
0
  6
Continuous
 62
     7
370
     0
100
AcDbLine
 10
4.3991710818
 20
6.5467395794
 30
0.0
 11
4.3991710818
 21
6.8007395885
 31
0.0
  0
LINE
  5
111
330
1F
100
AcDbEntity
  8
0
  6
Continuous
 62
     7
370
     0
100
AcDbLine
 10
4.3512499887
 20
6.5467395794
 30
0.0
 11
4.3991710818
 21
6.5467395794
 31
0.0
  0
ARC
  5
112
330
1F
100
AcDbEntity
  8
0
  6
Continuous
 62
     7
370
     0
100
AcDbCircle
 10
4.1341710903
 20
6.673739584
 30
0.0
 40
0.2550000000000003
100
AcDbArc
 50
330.1296398799
 51
29.8703601201
  0
LINE
  5
113
330
1F
100
AcDbEntity
  8
0
  6
Continuous
 62
     7
370
     0
100
AcDbLine
 10
4.1341710897
 20
7.1657395904
 30
0.0
 11
6.1026750928
 21
7.1657395904
 31
0.0
  0
LINE
  5
114
330
1F
100
AcDbEntity
  8
0
  6
Continuous
 62
     7
370
     0
100
AcDbLine
 10
6.1026750928
 20
6.80623958
 30
0.0
 11
4.8841710623
 21
6.80623958
 31
0.0
  0
ARC
  5
115
330
1F
100
AcDbEntity
  8
0
  6
Continuous
 62
     7
370
     0
100
AcDbCircle
 10
4.8841710903
 20
6.673739584
 30
0.0
 40
0.1325000000000003
100
AcDbArc
 50
90.0
 51
270.0
  0
LINE
  5
116
330
1F
100
AcDbEntity
  8
0
  6
Continuous
 62
     7
370
     0
100
AcDbLine
 10
6.1026750928
 20
6.541239588
 30
0.0
 11
4.8841710623
 21
6.541239588
 31
0.0
  0
LINE
  5
117
330
1F
100
AcDbEntity
  8
0
  6
Continuous
 62
     7
370
     0
100
AcDbLine
 10
6.1026750928
 20
6.1817395776
 30
0.0
 11
6.1026750928
 21
6.541239588
 31
0.0
  0
LINE
  5
118
330
1F
100
AcDbEntity
  8
0
  6
Continuous
 62
     7
370
     0
100
AcDbLine
 10
4.1341710897
 20
6.1817395776
 30
0.0
 11
6.1026750928
 21
6.1817395776
 31
0.0
  0
LINE
  5
119
330
1F
100
AcDbEntity
  8
0
  6
Continuous
 62
     7
370
     0
100
AcDbLine
 10
6.1026750928
 20
7.1657395904
 30
0.0
 11
6.1026750928
 21
6.80623958
 31
0.0
  0
LINE
  5
11A
330
1F
100
AcDbEntity
  8
0
  6
Continuous
 62
     7
370
     0
100
AcDbLine
 10
3.252171102
 20
6.3887395863
 30
0.0
 11
3.252171102
 21
6.9587395816
 31
0.0
  0
LINE
  5
11B
330
1F
100
AcDbEntity
  8
0
  6
Continuous
 62
     7
370
     0
100
AcDbLine
 10
3.5221710863
 20
6.3887395863
 30
0.0
 11
3.5221710863
 21
6.9587395816
 31
0.0
  0
LINE
  5
11C
330
1F
100
AcDbEntity
  8
0
  6
Continuous
 62
     7
370
     0
100
AcDbLine
 10
3.5421710919
 20
6.408739592
 30
0.0
 11
3.5421710919
 21
6.938739576
 31
0.0
  0
LINE
  5
11D
330
1F
100
AcDbEntity
  8
0
  6
Continuous
 62
     7
370
     0
100
AcDbLine
 10
3.2321710597
 20
6.408739592
 30
0.0
 11
3.2321710597
 21
6.938739576
 31
0.0
  0
DIMENSION
  5
11E
330
1F
100
AcDbEntity
  8
0
  6
Continuous
 62
     7
370
     0
100
AcDbDimension
  2
*D9
 10
4.8841710903
 20
7.5624403714
 30
0.0
 11
5.4934230588
 21
7.5624403714
 31
0.0
 70
   160
  1
31.0 mm\P(<>")
 71
     2
 42
-1.0
  3
SLDDIMSTYLE2
100
AcDbAlignedDimension
 13
6.1026750273
 23
7.165739584
 33
0.0
 14
4.8841710903
 24
6.723739584
 34
0.0
100
AcDbRotatedDimension
  0
DIMENSION
  5
12C
330
1F
100
AcDbEntity
  8
0
  6
Continuous
 62
     7
370
     0
100
AcDbDimension
  2
*D10
 10
4.9778528533
 20
6.5800380509
 30
0.0
 11
2.5584744719
 21
7.7499558329
 31
0.0
 70
   163
  1
CLEARANCE SLOT\PFOR USE WITH M6 (1/4"-20) CAP SCREW
 71
     1
 42
-1.0
  3
SLDDIMSTYLE3
100
AcDbDiametricDimension
 15
4.7904893274
 25
6.767441117
 35
0.0
 40
0.0
  0
DIMENSION
  5
136
330
1F
100
AcDbEntity
  8
0
  6
Continuous
 62
     7
370
     0
100
AcDbDimension
  2
*D11
 10
6.7325962872
 20
6.181739584
 30
0.0
 11
6.7325962872
 21
6.673739584
 31
0.0
 70
   160
  1
25.0 mm\P(<>")
 71
     2
 42
-1.0
  3
SLDDIMSTYLE2
100
AcDbAlignedDimension
 13
6.1026750273
 23
7.165739584
 33
0.0
 14
6.1026750273
 24
6.181739584
 34
0.0
 50
90.0
100
AcDbRotatedDimension
  0
DIMENSION
  5
144
330
1F
100
AcDbEntity
  8
0
  6
Continuous
 62
     7
370
     0
100
AcDbDimension
  2
*D12
 10
4.4928129832
 20
7.0105481241
 30
0.0
 11
2.9575612717
 21
6.0407474902
 31
0.0
 70
   163
  1
%%c25.0 mm\P(<>")
 71
     1
 42
-1.0
  3
SLDDIMSTYLE4
100
AcDbDiametricDimension
 15
3.7755291974
 25
6.3369310439
 35
0.0
 40
0.0
  0
DIMENSION
  5
152
330
1F
100
AcDbEntity
  8
0
  6
Continuous
 62
     7
370
     0
100
AcDbDimension
  2
*D13
 10
4.3120026942
 20
6.4958964771
 30
0.0
 11
2.4208238082
 21
7.3886741677
 31
0.0
 70
   163
  1
%%c12.8 mm (<>" ) THRU\PFOR USE WITH TR SERIES POSTS
 71
     1
 42
-1.0
  3
SLDDIMSTYLE5
100
AcDbDiametricDimension
 15
3.9563394865
 25
6.8515826909
 35
0.0
 40
0.0
  0
INSERT
  5
168
330
1F
100
AcDbEntity
  8
0
  6
Continuous
 62
     7
370
     0
100
AcDbBlockReference
  2
SW_CENTERMARKSYMBOL_0
 10
4.8841710903
 20
6.673739584
 30
0.0
  0
INSERT
  5
170
330
1F
100
AcDbEntity
  8
0
  6
Continuous
 62
     7
370
     0
100
AcDbBlockReference
  2
SW_CENTERMARKSYMBOL_1
 10
4.1341710903
 20
6.673739584
 30
0.0
  0
ARC
  5
171
330
1F
100
AcDbEntity
  8
0
  6
Continuous
 62
     7
370
     0
100
AcDbCircle
 10
3.8621710903
 20
1.7609478022
 30
0.0
 40
0.0450000000000001
100
AcDbArc
 50
301.4066750694
 51
58.5933249306
  0
LINE
  5
172
330
1F
100
AcDbEntity
  8
0
  6
Continuous
 62
     7
370
     0
100
AcDbLine
 10
3.5221710863
 20
1.4759478045
 30
0.0
 11
3.5421710919
 21
1.4959478102
 31
0.0
  0
LINE
  5
173
330
1F
100
AcDbEntity
  8
0
  6
Continuous
 62
     7
370
     0
100
AcDbLine
 10
3.5421710919
 20
2.0259477942
 30
0.0
 11
3.5221710863
 21
2.0459477999
 31
0.0
  0
LINE
  5
174
330
1F
100
AcDbEntity
  8
0
  6
Continuous
 62
     7
370
     0
100
AcDbLine
 10
3.252171102
 20
1.4759478045
 30
0.0
 11
3.5221710863
 21
1.4759478045
 31
0.0
  0
LINE
  5
175
330
1F
100
AcDbEntity
  8
0
  6
Continuous
 62
     7
370
     0
100
AcDbLine
 10
3.5221710863
 20
2.0459477999
 30
0.0
 11
3.252171102
 21
2.0459477999
 31
0.0
  0
LINE
  5
176
330
1F
100
AcDbEntity
  8
0
  6
Continuous
 62
     7
370
     0
100
AcDbLine
 10
3.252171102
 20
2.0459477999
 30
0.0
 11
3.2321710597
 21
2.0259477942
 31
0.0
  0
LINE
  5
177
330
1F
100
AcDbEntity
  8
0
  6
Continuous
 62
     7
370
     0
100
AcDbLine
 10
3.2321710597
 20
1.4959478102
 30
0.0
 11
3.252171102
 21
1.4759478045
 31
0.0
  0
ARC
  5
178
330
1F
100
AcDbEntity
  8
0
  6
Continuous
 62
     7
370
     0
100
AcDbCircle
 10
3.5521710903
 20
1.6259478022
 30
0.0
 40
0.0100000000000002
100
AcDbArc
 50
90.0
 51
180.0
  0
ARC
  5
179
330
1F
100
AcDbEntity
  8
0
  6
Continuous
 62
     7
370
     0
100
AcDbCircle
 10
3.5521710903
 20
1.8959478022
 30
0.0
 40
0.0100000000000002
100
AcDbArc
 50
180.0
 51
270.0
  0
LINE
  5
17A
330
1F
100
AcDbEntity
  8
0
  6
Continuous
 62
     7
370
     0
100
AcDbLine
 10
3.5521710764
 20
1.6359478037
 30
0.0
 11
3.6583150285
 21
1.6359478037
 31
0.0
  0
LINE
  5
17B
330
1F
100
AcDbEntity
  8
0
  6
Continuous
 62
     7
370
     0
100
AcDbLine
 10
3.6583150285
 20
1.8859478007
 30
0.0
 11
3.5521710764
 21
1.8859478007
 31
0.0
  0
LINE
  5
17C
330
1F
100
AcDbEntity
  8
0
  6
Continuous
 62
     7
370
     0
100
AcDbLine
 10
3.2321710597
 20
1.9830979542
 30
0.0
 11
3.2321085804
 21
1.9830979542
 31
0.0
  0
LINE
  5
17D
330
1F
100
AcDbEntity
  8
0
  6
Continuous
 62
     7
370
     0
100
AcDbLine
 10
3.2321710597
 20
1.9729470148
 30
0.0
 11
3.2321085804
 21
1.9729470148
 31
0.0
  0
LINE
  5
17E
330
1F
100
AcDbEntity
  8
0
  6
Continuous
 62
     7
370
     0
100
AcDbLine
 10
3.2321710597
 20
1.9465119735
 30
0.0
 11
3.2321085804
 21
1.9465119735
 31
0.0
  0
LINE
  5
17F
330
1F
100
AcDbEntity
  8
0
  6
Continuous
 62
     7
370
     0
100
AcDbLine
 10
3.2321710597
 20
1.7508635129
 30
0.0
 11
3.2321085804
 21
1.7508635129
 31
0.0
  0
LINE
  5
180
330
1F
100
AcDbEntity
  8
0
  6
Continuous
 62
     7
370
     0
100
AcDbLine
 10
4.3512499887
 20
1.6339477976
 30
0.0
 11
4.3552954853
 21
1.6339477976
 31
0.0
  0
LINE
  5
181
330
1F
100
AcDbEntity
  8
0
  6
Continuous
 62
     7
370
     0
100
AcDbLine
 10
4.3512499887
 20
1.8879478067
 30
0.0
 11
4.3552954853
 21
1.8879478067
 31
0.0
  0
ARC
  5
182
330
1F
100
AcDbEntity
  8
0
  6
Continuous
 62
     7
370
     0
100
AcDbCircle
 10
4.1341710903
 20
1.7609478022
 30
0.0
 40
0.2514999999999999
100
AcDbArc
 50
30.3293727942
 51
329.6706272058
  0
CIRCLE
  5
183
330
1F
100
AcDbEntity
  8
0
  6
Continuous
 62
     7
370
     0
100
AcDbCircle
 10
4.1341710903
 20
1.7609478022
 30
0.0
 40
0.2549999999999999
  0
CIRCLE
  5
184
330
1F
100
AcDbEntity
  8
0
  6
Continuous
 62
     7
370
     0
100
AcDbCircle
 10
4.1341710903
 20
1.7609478022
 30
0.0
 40
0.492
  0
CIRCLE
  5
185
330
1F
100
AcDbEntity
  8
0
  6
Continuous
 62
     7
370
     0
100
AcDbCircle
 10
4.3216710903
 20
2.0857073286
 30
0.0
 40
0.1050000000000004
  0
CIRCLE
  5
186
330
1F
100
AcDbEntity
  8
0
  6
Continuous
 62
     7
370
     0
100
AcDbCircle
 10
4.3216710903
 20
1.4361882758
 30
0.0
 40
0.1050000000000002
  0
CIRCLE
  5
187
330
1F
100
AcDbEntity
  8
0
  6
Continuous
 62
     7
370
     0
100
AcDbCircle
 10
3.7591710903
 20
1.7609478022
 30
0.0
 40
0.1049999999999998
  0
CIRCLE
  5
188
330
1F
100
AcDbEntity
  8
0
  6
Continuous
 62
     7
370
     0
100
AcDbCircle
 10
4.3216710903
 20
1.4361882758
 30
0.0
 40
0.095
  0
CIRCLE
  5
189
330
1F
100
AcDbEntity
  8
0
  6
Continuous
 62
     7
370
     0
100
AcDbCircle
 10
3.7591710903
 20
1.7609478022
 30
0.0
 40
0.0949999999999999
  0
CIRCLE
  5
18A
330
1F
100
AcDbEntity
  8
0
  6
Continuous
 62
     7
370
     0
100
AcDbCircle
 10
4.3216710903
 20
2.0857073286
 30
0.0
 40
0.0950000000000003
  0
LINE
  5
18B
330
1F
100
AcDbEntity
  8
0
  6
Continuous
 62
     7
370
     0
100
AcDbLine
 10
6.1026750928
 20
1.2689477958
 30
0.0
 11
6.1026750928
 21
1.6284478062
 31
0.0
  0
LINE
  5
18C
330
1F
100
AcDbEntity
  8
0
  6
Continuous
 62
     7
370
     0
100
AcDbLine
 10
5.9026749632
 20
1.2689477958
 30
0.0
 11
6.1026750928
 21
1.2689477958
 31
0.0
  0
LINE
  5
18D
330
1F
100
AcDbEntity
  8
0
  6
Continuous
 62
     7
370
     0
100
AcDbLine
 10
5.9026749632
 20
1.2689477958
 30
0.0
 11
5.9026749632
 21
1.6284478062
 31
0.0
  0
LINE
  5
18E
330
1F
100
AcDbEntity
  8
0
  6
Continuous
 62
     7
370
     0
100
AcDbLine
 10
6.1026750928
 20
1.6284478062
 30
0.0
 11
5.9026749632
 21
1.6284478062
 31
0.0
  0
LINE
  5
18F
330
1F
100
AcDbEntity
  8
0
  6
Continuous
 62
     7
370
     0
100
AcDbLine
 10
5.9026749632
 20
2.2529478086
 30
0.0
 11
6.1026750928
 21
2.2529478086
 31
0.0
  0
LINE
  5
190
330
1F
100
AcDbEntity
  8
0
  6
Continuous
 62
     7
370
     0
100
AcDbLine
 10
6.1026750928
 20
2.2529478086
 30
0.0
 11
6.1026750928
 21
1.8934477982
 31
0.0
  0
LINE
  5
191
330
1F
100
AcDbEntity
  8
0
  6
Continuous
 62
     7
370
     0
100
AcDbLine
 10
6.1026750928
 20
1.8934477982
 30
0.0
 11
5.9026749632
 21
1.8934477982
 31
0.0
  0
LINE
  5
192
330
1F
100
AcDbEntity
  8
0
  6
Continuous
 62
     7
370
     0
100
AcDbLine
 10
5.9026749632
 20
1.8934477982
 30
0.0
 11
5.9026749632
 21
2.2529478086
 31
0.0
  0
LINE
  5
193
330
1F
100
AcDbEntity
  8
0
  6
Continuous
 62
     7
370
     0
100
AcDbLine
 10
4.3341710727
 20
2.2300959759
 30
0.0
 11
4.3341710727
 21
2.2529478086
 31
0.0
  0
ARC
  5
194
330
1F
100
AcDbEntity
  8
0
  6
Continuous
 62
     7
370
     0
100
AcDbCircle
 10
4.8841710903
 20
1.7609478022
 30
0.0
 40
0.1325000000000003
100
AcDbArc
 50
90.0
 51
270.0
  0
ARC
  5
195
330
1F
100
AcDbEntity
  8
0
  6
Continuous
 62
     7
370
     0
100
AcDbCircle
 10
4.1341710903
 20
1.7609478022
 30
0.0
 40
0.5100000000000001
100
AcDbArc
 50
293.088772437
 51
66.911227563
  0
LINE
  5
196
330
1F
100
AcDbEntity
  8
0
  6
Continuous
 62
     7
370
     0
100
AcDbLine
 10
4.3341710727
 20
1.2689477958
 30
0.0
 11
4.3341710727
 21
1.2917996285
 31
0.0
  0
LINE
  5
197
330
1F
100
AcDbEntity
  8
0
  6
Continuous
 62
     7
370
     0
100
AcDbLine
 10
4.3341710727
 20
2.2529478086
 30
0.0
 11
5.9026749632
 21
2.2529478086
 31
0.0
  0
LINE
  5
198
330
1F
100
AcDbEntity
  8
0
  6
Continuous
 62
     7
370
     0
100
AcDbLine
 10
5.9026749632
 20
1.8934477982
 30
0.0
 11
4.8841710623
 21
1.8934477982
 31
0.0
  0
LINE
  5
199
330
1F
100
AcDbEntity
  8
0
  6
Continuous
 62
     7
370
     0
100
AcDbLine
 10
5.9026749632
 20
1.6284478062
 30
0.0
 11
4.8841710623
 21
1.6284478062
 31
0.0
  0
LINE
  5
19A
330
1F
100
AcDbEntity
  8
0
  6
Continuous
 62
     7
370
     0
100
AcDbLine
 10
4.3341710727
 20
1.2689477958
 30
0.0
 11
5.9026749632
 21
1.2689477958
 31
0.0
  0
LINE
  5
19B
330
1F
100
AcDbEntity
  8
0
  6
Continuous
 62
     7
370
     0
100
AcDbLine
 10
4.1341710897
 20
2.2529478086
 30
0.0
 11
4.3341710727
 21
2.2529478086
 31
0.0
  0
LINE
  5
19C
330
1F
100
AcDbEntity
  8
0
  6
Continuous
 62
     7
370
     0
100
AcDbLine
 10
4.1341710897
 20
1.2689477958
 30
0.0
 11
4.3341710727
 21
1.2689477958
 31
0.0
  0
CIRCLE
  5
19D
330
1F
100
AcDbEntity
  8
0
  6
Continuous
 62
     7
370
     0
100
AcDbCircle
 10
3.7591710903
 20
1.7609478022
 30
0.0
 40
0.0937500000000002
  0
CIRCLE
  5
19E
330
1F
100
AcDbEntity
  8
0
  6
Continuous
 62
     7
370
     0
100
AcDbCircle
 10
4.3216710903
 20
1.4361882758
 30
0.0
 40
0.0937499999999999
  0
CIRCLE
  5
19F
330
1F
100
AcDbEntity
  8
0
  6
Continuous
 62
     7
370
     0
100
AcDbCircle
 10
4.3216710903
 20
2.0857073286
 30
0.0
 40
0.0937500000000006
  0
LINE
  5
1A0
330
1F
100
AcDbEntity
  8
0
  6
Continuous
 62
     7
370
     0
100
AcDbLine
 10
3.5221710863
 20
1.7609478022
 30
0.0
 11
3.5221710863
 21
2.0459477999
 31
0.0
  0
LINE
  5
1A1
330
1F
100
AcDbEntity
  8
0
  6
Continuous
 62
     7
370
     0
100
AcDbLine
 10
3.5221710863
 20
1.4759478045
 30
0.0
 11
3.5221710863
 21
1.7609478022
 31
0.0
  0
LINE
  5
1A2
330
1F
100
AcDbEntity
  8
0
  6
Continuous
 62
     7
370
     0
100
AcDbLine
 10
3.5421710919
 20
1.7609478022
 30
0.0
 11
3.5421710919
 21
2.0259477942
 31
0.0
  0
LINE
  5
1A3
330
1F
100
AcDbEntity
  8
0
  6
Continuous
 62
     7
370
     0
100
AcDbLine
 10
3.5421710919
 20
1.4959478102
 30
0.0
 11
3.5421710919
 21
1.7609478022
 31
0.0
  0
LINE
  5
1A4
330
1F
100
AcDbEntity
  8
0
  6
Continuous
 62
     7
370
     0
100
AcDbLine
 10
3.252171102
 20
1.7609478022
 30
0.0
 11
3.252171102
 21
2.0459477999
 31
0.0
  0
LINE
  5
1A5
330
1F
100
AcDbEntity
  8
0
  6
Continuous
 62
     7
370
     0
100
AcDbLine
 10
3.252171102
 20
1.4759478045
 30
0.0
 11
3.252171102
 21
1.7609478022
 31
0.0
  0
LINE
  5
1A6
330
1F
100
AcDbEntity
  8
0
  6
Continuous
 62
     7
370
     0
100
AcDbLine
 10
3.2321710597
 20
1.7609478022
 30
0.0
 11
3.2321710597
 21
2.0259477942
 31
0.0
  0
LINE
  5
1A7
330
1F
100
AcDbEntity
  8
0
  6
Continuous
 62
     7
370
     0
100
AcDbLine
 10
3.2321710597
 20
1.4959478102
 30
0.0
 11
3.2321710597
 21
1.7609478022
 31
0.0
  0
DIMENSION
  5
1A8
330
1F
100
AcDbEntity
  8
0
  6
Continuous
 62
     7
370
     0
100
AcDbDimension
  2
*D16
 10
4.1341710903
 20
0.8752470148
 30
0.0
 11
5.1184230588
 21
0.8752470148
 31
0.0
 70
   160
  1
50.0 mm\P(<>")
 71
     2
 42
-1.0
  3
SLDDIMSTYLE2
100
AcDbAlignedDimension
 13
6.1026750273
 23
1.2689478022
 33
0.0
 14
4.1341710903
 24
1.7109478022
 34
0.0
 50
0.0
100
AcDbRotatedDimension
  0
DIMENSION
  5
1B6
330
1F
100
AcDbEntity
  8
0
  6
Continuous
 62
     7
370
     0
100
AcDbDimension
  2
*D17
 10
2.7331118672
 20
1.4759478022
 30
0.0
 11
2.7331118672
 21
1.7609478022
 31
0.0
 70
   160
  1
%%c14.5 mm\P(%%c<>")
 71
     2
 42
-1.0
  3
SLDDIMSTYLE0
100
AcDbAlignedDimension
 13
3.2521710903
 23
2.0459478022
 33
0.0
 14
3.2521710903
 24
1.4759478022
 34
0.0
 50
90.0
100
AcDbRotatedDimension
  0
DIMENSION
  5
1C6
330
1F
100
AcDbEntity
  8
0
  6
Continuous
 62
     7
370
     0
100
AcDbDimension
  2
*D18
 10
3.5421710903
 20
2.6060450426
 30
0.0
 11
4.0741834207
 21
2.6060450426
 31
0.0
 70
   160
  1
7.9 mm\P(<>")
 71
     1
 42
-1.0
  3
SLDDIMSTYLE0
100
AcDbAlignedDimension
 13
3.2321710903
 23
2.0259478022
 33
0.0
 14
3.5421710903
 24
2.0259478022
 34
0.0
100
AcDbRotatedDimension
  0
DIMENSION
  5
1D4
330
1F
100
AcDbEntity
  8
0
  6
Continuous
 62
     7
370
     0
100
AcDbDimension
  2
*D19
 10
3.7963640923
 20
1.8470044295
 30
0.0
 11
3.0347724344
 21
1.0067882463
 31
0.0
 70
   163
  1
MAGNET\P3 PLACES
 71
     1
 42
-1.0
  3
SLDDIMSTYLE6
100
AcDbDiametricDimension
 15
3.7219780884
 25
1.6748911749
 35
0.0
 40
0.0
  0
INSERT
  5
1E5
102
{ACAD_REACTORS
330
1EF
102
}
330
1F
100
AcDbEntity
  8
0
  6
Continuous
 62
     7
370
     0
100
AcDbBlockReference
  2
SW_NOTE_4
 10
5.8749517109
 20
2.5546245081
 30
0.0
  0
LEADER
  5
1EF
330
1F
100
AcDbEntity
  8
0
  6
Continuous
 62
     7
370
     0
100
AcDbLeader
  3
SLDDIMSTYLE7
 73
     2
 76
     3
 10
5.1952491086
 20
2.0744053379
 30
0.0
 10
5.6249517109
 20
2.5546245081
 30
0.0
 10
5.8749517109
 20
2.5546245081
 30
0.0
340
1E5
  0
INSERT
  5
1F7
330
1F
100
AcDbEntity
  8
0
  6
Continuous
 62
     7
370
     0
100
AcDbBlockReference
  2
SW_CENTERMARKSYMBOL_2
 10
4.1341710903
 20
1.7609478022
 30
0.0
  0
LINE
  5
1F8
330
1F
100
AcDbEntity
  8
0
  6
Continuous
 62
     7
370
     0
100
AcDbLine
 10
9.0918091447
 20
6.4802959529
 30
0.0
 11
9.0127496339
 21
6.5823701888
 31
0.0
  0
LINE
  5
1F9
330
1F
100
AcDbEntity
  8
0
  6
Continuous
 62
     7
370
     0
100
AcDbLine
 10
8.2725744678
 20
6.5823701888
 30
0.0
 11
8.193514957
 21
6.4802959529
 31
0.0
  0
LINE
  5
1FA
330
1F
100
AcDbEntity
  8
0
  6
Continuous
 62
     7
370
     0
100
AcDbLine
 10
9.1346620508
 20
5.2252874174
 30
0.0
 11
9.1346620508
 21
6.3643618499
 31
0.0
  0
LINE
  5
1FB
330
1F
100
AcDbEntity
  8
0
  6
Continuous
 62
     7
370
     0
100
AcDbLine
 10
8.1506620508
 20
6.3643618499
 30
0.0
 11
8.1506620508
 21
5.2252874174
 31
0.0
  0
LINE
  5
1FC
330
1F
100
AcDbEntity
  8
0
  6
Continuous
 62
     7
370
     0
100
AcDbLine
 10
8.2947089853
 20
5.0244836608
 30
0.0
 11
8.3123895273
 21
5.0142735834
 31
0.0
  0
LINE
  5
1FD
330
1F
100
AcDbEntity
  8
0
  6
Continuous
 62
     7
370
     0
100
AcDbLine
 10
8.9729345744
 20
5.0142735834
 30
0.0
 11
8.9906151164
 21
5.0244836608
 31
0.0
  0
LINE
  5
1FE
330
1F
100
AcDbEntity
  8
0
  6
Continuous
 62
     7
370
     0
100
AcDbLine
 10
8.1506620508
 20
4.9746093881
 30
0.0
 11
8.1506620508
 21
4.8521282663
 31
0.0
  0
LINE
  5
1FF
330
1F
100
AcDbEntity
  8
0
  6
Continuous
 62
     7
370
     0
100
AcDbLine
 10
8.1506620508
 20
5.2016077338
 30
0.0
 11
8.1506620508
 21
4.9746093881
 31
0.0
  0
ARC
  5
200
330
1F
100
AcDbEntity
  8
0
  6
Continuous
 62
     7
370
     0
100
AcDbCircle
 10
8.4503290064
 20
6.3365814151
 30
0.0
 40
0.0450000000000011
100
AcDbArc
 50
16.0146835306
 51
60.0026882663
  0
LINE
  5
201
330
1F
100
AcDbEntity
  8
0
  6
Continuous
 62
     7
370
     0
100
AcDbLine
 10
8.4728271778
 20
6.3755536139
 30
0.0
 11
8.4513224432
 21
6.387968033
 31
0.0
  0
LINE
  5
202
330
1F
100
AcDbEntity
  8
0
  6
Continuous
 62
     7
370
     0
100
AcDbLine
 10
7.8765054504
 20
6.3387619634
 30
0.0
 11
8.0674242814
 21
6.2285468683
 31
0.0
  0
LINE
  5
203
330
1F
100
AcDbEntity
  8
0
  6
Continuous
 62
     7
370
     0
100
AcDbLine
 10
8.3524011202
 20
6.7221947199
 30
0.0
 11
8.1614822892
 21
6.832409815
 31
0.0
  0
LINE
  5
204
330
1F
100
AcDbEntity
  8
0
  6
Continuous
 62
     7
370
     0
100
AcDbLine
 10
8.3215469128
 20
6.6360862412
 30
0.0
 11
8.314475845
 21
6.6401682817
 31
0.0
  0
LINE
  5
205
330
1F
100
AcDbEntity
  8
0
  6
Continuous
 62
     7
370
     0
100
AcDbLine
 10
8.1194916921
 20
6.3024092254
 30
0.0
 11
8.1265627599
 21
6.2983271848
 31
0.0
  0
LINE
  5
206
330
1F
100
AcDbEntity
  8
0
  6
Continuous
 62
     7
370
     0
100
AcDbLine
 10
8.0189611163
 20
6.8182811093
 30
0.0
 11
8.0048212792
 21
6.8101157013
 31
0.0
  0
LINE
  5
207
330
1F
100
AcDbEntity
  8
0
  6
Continuous
 62
     7
370
     0
100
AcDbLine
 10
7.8174684372
 20
6.4855758955
 30
0.0
 11
7.8174684372
 21
6.4692477333
 31
0.0
  0
LWPOLYLINE
  5
208
330
1F
100
AcDbEntity
  8
0
  6
Continuous
 62
     7
370
     0
100
AcDbPolyline
 90
       90
 70
   128
 43
0.0
 10
8.3560027581
 20
6.652327859
 10
8.336496171
 20
6.6402425086
 10
8.318514887
 20
6.6273929295
 10
8.3021484879
 20
6.6138431375
 10
8.2874785102
 20
6.5996606371
 10
8.274578039
 20
6.5849160847
 10
8.2635113439
 20
6.5696829371
 10
8.2543335585
 20
6.5540370849
 10
8.2470904061
 20
6.538056475
 10
8.2418179718
 20
6.521820722
 10
8.2385425225
 20
6.5054107116
 10
8.2372803763
 20
6.4889081977
 10
8.2380378213
 20
6.4723953949
 10
8.2408110838
 20
6.4559545692
 10
8.2455863477
 20
6.439667628
 10
8.2523398227
 20
6.423615712
 10
8.2610378634
 20
6.407878791
 10
8.2716371367
 20
6.3925352656
 10
8.2840848373
 20
6.3776615764
 10
8.2983189517
 20
6.3633318234
 10
8.314268566
 20
6.3496173968
 10
8.3318542202
 20
6.3365866211
 10
8.3509883033
 20
6.324304415
 10
8.3715754904
 20
6.3128319678
 10
8.393513217
 20
6.3022264346
 10
8.4166921907
 20
6.2925406518
 10
8.4409969348
 20
6.2838228733
 10
8.4663063643
 20
6.2761165308
 10
8.4924943891
 20
6.2694600167
 10
8.5194305416
 20
6.2638864937
 10
8.5469806272
 20
6.2594237286
 10
8.5750073929
 20
6.2560939547
 10
8.6033712107
 20
6.2539137608
 10
8.6319307735
 20
6.2528940085
 10
8.6605437989
 20
6.2530397782
 10
8.6890677384
 20
6.2543503437
 10
8.7173604871
 20
6.2568191757
 10
8.745281092
 20
6.2604339747
 10
8.7726904539
 20
6.2651767319
 10
8.7994520209
 20
6.2710238192
 10
8.8254324681
 20
6.2779461067
 10
8.8505023623
 20
6.2859091078
 10
8.8745368066
 20
6.2948731513
 10
8.8974160624
 20
6.3047935789
 10
8.9190261466
 20
6.3156209673
 10
8.9392593988
 20
6.3273013751
 10
8.9580150179
 20
6.3397766112
 10
8.9751995644
 20
6.3529845245
 10
8.9907274257
 20
6.3668593138
 10
9.0045212428
 20
6.3813318557
 10
9.0165122957
 20
6.3963300486
 10
9.0266408454
 20
6.4117791724
 10
9.0348564321
 20
6.4276022602
 10
9.0411181261
 20
6.4437204823
 10
9.0453947319
 20
6.4600535385
 10
9.0476649439
 20
6.4765200583
 10
9.0479174517
 20
6.4930380063
 10
9.0461509976
 20
6.5095250909
 10
9.0423743818
 20
6.5258991744
 10
9.0366064193
 20
6.5420786819
 10
9.0288758458
 20
6.5579830078
 10
9.0192211745
 20
6.5735329176
 10
9.0076905047
 20
6.5886509425
 10
8.9943412814
 20
6.6032617652
 10
8.9792400099
 20
6.6172925953
 10
8.962461924
 20
6.630673532
 10
8.9440906112
 20
6.643337912
 10
8.9242175964
 20
6.6552226421
 10
8.9029418861
 20
6.6662685132
 10
8.8803694748
 20
6.6764204952
 10
8.856612817
 20
6.6856280116
 10
8.8317902672
 20
6.6938451909
 10
8.8060254902
 20
6.7010310955
 10
8.7794468448
 20
6.7071499257
 10
8.7521867444
 20
6.7121711978
 10
8.7243809974
 20
6.7160698959
 10
8.6961681308
 20
6.718826597
 10
8.6676886996
 20
6.7204275674
 10
8.6390845869
 20
6.7208648311
 10
8.610498297
 20
6.7201362097
 10
8.5820722452
 20
6.718245333
 10
8.5539480488
 20
6.7152016215
 10
8.5262658211
 20
6.7110202386
 10
8.4991634736
 20
6.7057220159
 10
8.4727760287
 20
6.6993333488
 10
8.4472349475
 20
6.6918860653
 10
8.4226674743
 20
6.6834172674
 10
8.399196003
 20
6.6739691463
 10
8.3769374673
 20
6.663588772
 10
8.3560027581
 20
6.652327859
  0
LWPOLYLINE
  5
209
330
1F
100
AcDbEntity
  8
0
  6
Continuous
 62
     7
370
     0
100
AcDbPolyline
 90
       64
 70
   128
 43
0.0
 10
9.0918091447
 20
6.4802959529
 10
9.1016057582
 20
6.4667139576
 10
9.1120223478
 20
6.4495287359
 10
9.1205102351
 20
6.4319935452
 10
9.1270345419
 20
6.4141804414
 10
9.1315684581
 20
6.3961626223
 10
9.1340933531
 20
6.378014127
 10
9.1345988514
 20
6.3598095316
 10
9.1330828759
 20
6.3416236427
 10
9.129551656
 20
6.3235311899
 10
9.1240197023
 20
6.305606519
 10
9.1165097467
 20
6.2879232864
 10
9.1070526493
 20
6.2705541563
 10
9.0956872714
 20
6.2535705021
 10
9.0824603156
 20
6.2370421133
 10
9.0674261345
 20
6.2210369086
 10
9.0506465066
 20
6.2056206568
 10
9.0321903831
 20
6.1908567067
 10
9.012133604
 20
6.1768057264
 10
8.9905585872
 20
6.1635254544
 10
8.9675539888
 20
6.1510704623
 10
8.9432143398
 20
6.1394919302
 10
8.917639657
 20
6.1288374369
 10
8.8909350321
 20
6.1191507639
 10
8.8632102004
 20
6.1104717159
 10
8.834579089
 20
6.1028359568
 10
8.8051593493
 20
6.0962748638
 10
8.7750718734
 20
6.0908153977
 10
8.7444402971
 20
6.0864799926
 10
8.7133904922
 20
6.0832864637
 10
8.6820500489
 20
6.0812479339
 10
8.6505477519
 20
6.0803727799
 10
8.6190130508
 20
6.0806645978
 10
8.5875755286
 20
6.0821221887
 10
8.5563643687
 20
6.0847395628
 10
8.5255078245
 20
6.0885059649
 10
8.4951326921
 20
6.093405918
 10
8.4653637895
 20
6.0994192871
 10
8.4363234435
 20
6.1065213621
 10
8.4081309871
 20
6.1146829589
 10
8.3809022692
 20
6.1238705399
 10
8.3547491783
 20
6.1340463512
 10
8.3297791832
 20
6.1451685783
 10
8.3060948909
 20
6.1571915176
 10
8.2837936253
 20
6.1700657642
 10
8.262967027
 20
6.1837384151
 10
8.243700677
 20
6.1981532865
 10
8.2260737448
 20
6.2132511445
 10
8.2101586634
 20
6.2289699488
 10
8.1960208311
 20
6.2452451074
 10
8.1837183435
 20
6.2620097423
 10
8.1733017539
 20
6.279194964
 10
8.1648138665
 20
6.2967301546
 10
8.1582895598
 20
6.3145432585
 10
8.1537556436
 20
6.3325610775
 10
8.1512307486
 20
6.3507095728
 10
8.1507252503
 20
6.3689141682
 10
8.1522412258
 20
6.3871000572
 10
8.1557724457
 20
6.40519251
 10
8.1613043994
 20
6.4231171809
 10
8.168814355
 20
6.4408004134
 10
8.1782714523
 20
6.4581695436
 10
8.1896368303
 20
6.4751531978
 10
8.193514957
 20
6.4802959529
  0
LWPOLYLINE
  5
20A
330
1F
100
AcDbEntity
  8
0
  6
Continuous
 62
     7
370
     0
100
AcDbPolyline
 90
       51
 70
   128
 43
0.0
 10
8.1506620508
 20
5.2252874174
 10
8.1512307486
 20
5.2116351402
 10
8.1537556436
 20
5.193486645
 10
8.1582895598
 20
5.1754688259
 10
8.1648138665
 20
5.1576557221
 10
8.1733017539
 20
5.1401205314
 10
8.1837183435
 20
5.1229353097
 10
8.1960208311
 20
5.1061706748
 10
8.2101586634
 20
5.0898955162
 10
8.2260737448
 20
5.0741767119
 10
8.243700677
 20
5.0590788539
 10
8.262967027
 20
5.0446639826
 10
8.2837936253
 20
5.0309913316
 10
8.3060948909
 20
5.018117085
 10
8.3297791832
 20
5.0060941457
 10
8.3547491783
 20
4.9949719186
 10
8.3809022692
 20
4.9847961073
 10
8.4081309871
 20
4.9756085263
 10
8.4363234435
 20
4.9674469295
 10
8.4653637895
 20
4.9603448545
 10
8.4951326921
 20
4.9543314854
 10
8.5255078245
 20
4.9494315323
 10
8.5563643687
 20
4.9456651302
 10
8.5875755286
 20
4.9430477561
 10
8.6190130508
 20
4.9415901652
 10
8.6505477519
 20
4.9412983473
 10
8.6820500489
 20
4.9421735013
 10
8.7133904922
 20
4.9442120312
 10
8.7444402971
 20
4.9474055601
 10
8.7750718734
 20
4.9517409651
 10
8.8051593493
 20
4.9572004312
 10
8.834579089
 20
4.9637615243
 10
8.8632102004
 20
4.9713972833
 10
8.8909350321
 20
4.9800763313
 10
8.917639657
 20
4.9897630043
 10
8.9432143398
 20
5.0004174977
 10
8.9675539888
 20
5.0119960297
 10
8.9905585872
 20
5.0244510218
 10
9.012133604
 20
5.0377312938
 10
9.0321903831
 20
5.0517822741
 10
9.0506465066
 20
5.0665462242
 10
9.0674261345
 20
5.081962476
 10
9.0824603156
 20
5.0979676807
 10
9.0956872714
 20
5.1144960695
 10
9.1070526493
 20
5.1314797237
 10
9.1165097467
 20
5.1488488538
 10
9.1240197023
 20
5.1665320864
 10
9.129551656
 20
5.1844567573
 10
9.1330828759
 20
5.2025492101
 10
9.1345988514
 20
5.220735099
 10
9.1346620508
 20
5.2252874174
  0
LINE
  5
20B
330
1F
100
AcDbEntity
  8
0
  6
Continuous
 62
     7
370
     0
100
AcDbLine
 10
8.9188947184
 20
6.4555533206
 30
0.0
 11
8.9622743159
 21
6.430510812
 31
0.0
  0
LWPOLYLINE
  5
20C
330
1F
100
AcDbEntity
  8
0
  6
Continuous
 62
     7
370
     0
100
AcDbPolyline
 90
       61
 70
   128
 43
0.0
 10
8.6968631891
 20
6.3273772471
 10
8.6732164723
 20
6.3252965816
 10
8.6493491417
 20
6.3243823392
 10
8.6254335278
 20
6.324641121
 10
8.6016423101
 20
6.3260710584
 10
8.5781472697
 20
6.3286618269
 10
8.5551180491
 20
6.3323947201
 10
8.5327209278
 20
6.3372427852
 10
8.5111176208
 20
6.3431710174
 10
8.490464112
 20
6.3501366128
 10
8.470909527
 20
6.3580892772
 10
8.4525950569
 20
6.3669715896
 10
8.4356529389
 20
6.3767194165
 10
8.4202055011
 20
6.387262375
 10
8.4063642795
 20
6.3985243413
 10
8.3942292128
 20
6.4104239998
 10
8.3838879205
 20
6.4228754307
 10
8.3754150705
 20
6.4357887303
 10
8.3688718398
 20
6.4490706599
 10
8.3643054728
 20
6.4626253192
 10
8.3617489403
 20
6.4763548386
 10
8.3612207015
 20
6.4901600861
 10
8.3627245705
 20
6.5039413828
 10
8.3662496886
 20
6.5175992229
 10
8.3717706035
 20
6.5310349917
 10
8.3792474519
 20
6.5441516783
 10
8.3886262485
 20
6.5568545755
 10
8.3998392748
 20
6.5690519637
 10
8.4128055689
 20
6.5806557734
 10
8.4274315095
 20
6.5915822209
 10
8.4436114919
 20
6.6017524135
 10
8.461228691
 20
6.6110929185
 10
8.4801559041
 20
6.6195362943
 10
8.50025647
 20
6.6270215765
 10
8.5213852554
 20
6.6334947189
 10
8.5433897029
 20
6.6389089829
 10
8.5661109324
 20
6.6432252756
 10
8.5893848885
 20
6.6464124319
 10
8.6130435249
 20
6.6484474393
 10
8.6369160177
 20
6.6493156043
 10
8.6608299989
 20
6.6490106586
 10
8.684612801
 20
6.6475348038
 10
8.7080927036
 20
6.6448986963
 10
8.7311001733
 20
6.6411213695
 10
8.753469088
 20
6.6362300973
 10
8.7750379361
 20
6.6302601964
 10
8.7956509827
 20
6.6232547715
 10
8.8151593942
 20
6.6152644044
 10
8.8334223129
 20
6.6063467883
 10
8.8503078739
 20
6.5965663118
 10
8.8656941574
 20
6.5859935933
 10
8.8794700689
 20
6.5747049716
 10
8.8915361414
 20
6.5627819547
 10
8.9018052534
 20
6.5503106311
 10
8.9102032584
 20
6.5373810482
 10
8.9166695197
 20
6.5240865621
 10
8.9211573486
 20
6.510523164
 10
8.9236343413
 20
6.4967887863
 10
8.924082613
 20
6.4829825963
 10
8.9224989271
 20
6.4692042796
 10
8.9188947184
 20
6.4555533206
  0
LINE
  5
20D
330
1F
100
AcDbEntity
  8
0
  6
Continuous
 62
     7
370
     0
100
AcDbLine
 10
8.7402427866
 20
6.3023347384
 30
0.0
 11
8.6968631891
 21
6.3273772471
 31
0.0
  0
LINE
  5
20E
330
1F
100
AcDbEntity
  8
0
  6
Continuous
 62
     7
370
     0
100
AcDbLine
 10
8.9622743159
 20
6.430510812
 30
0.0
 11
8.7402427866
 21
6.3023347384
 31
0.0
  0
LWPOLYLINE
  5
20F
330
1F
100
AcDbEntity
  8
0
  6
Continuous
 62
     7
370
     0
100
AcDbPolyline
 90
       47
 70
   128
 43
0.0
 10
8.8859625762
 20
6.4255761739
 10
8.8907059421
 20
6.4383599185
 10
8.8934380548
 20
6.4513381592
 10
8.894136761
 20
6.4644056626
 10
8.8927963953
 20
6.4774564713
 10
8.889427826
 20
6.4903847636
 10
8.884058367
 20
6.5030857107
 10
8.8767315563
 20
6.5154563277
 10
8.8675068031
 20
6.527396308
 10
8.8564589058
 20
6.5388088367
 10
8.843677446
 20
6.5496013758
 10
8.8292660614
 20
6.5596864146
 10
8.8133416062
 20
6.5689821787
 10
8.7960332031
 20
6.5774132941
 10
8.7774811967
 20
6.5849113973
 10
8.7578360149
 20
6.5914156904
 10
8.7372569501
 20
6.5968734334
 10
8.7159108665
 20
6.6012403725
 10
8.6939708481
 20
6.6044810987
 10
8.6716147945
 20
6.6065693346
 10
8.6490239788
 20
6.6074881478
 10
8.6263815777
 20
6.6072300882
 10
8.6038711861
 20
6.6057972482
 10
8.5816753285
 20
6.603201246
 10
8.5599739792
 20
6.5994631312
 10
8.5389431026
 20
6.594613214
 10
8.5187532266
 20
6.5886908199
 10
8.49956806
 20
6.5817439702
 10
8.4815431649
 20
6.5738289933
 10
8.4648246954
 20
6.5650100674
 10
8.4495482124
 20
6.5553587004
 10
8.4358375847
 20
6.5449531499
 10
8.4238039843
 20
6.533877789
 10
8.4135449852
 20
6.5222224217
 10
8.4051437719
 20
6.510081555
 10
8.3986684655
 20
6.4975536327
 10
8.3941715705
 20
6.4847402369
 10
8.39168955
 20
6.4717452645
 10
8.3912425292
 20
6.4586740845
 10
8.3928341328
 20
6.4456326842
 10
8.3964514554
 20
6.4327268092
 10
8.402065166
 20
6.4200611061
 10
8.4096297461
 20
6.4077382744
 10
8.4190838587
 20
6.3958582331
 10
8.4303508455
 20
6.3845173111
 10
8.4433393485
 20
6.3738074658
 10
8.4547857087
 20
6.365826158
  0
LINE
  5
210
330
1F
100
AcDbEntity
  8
0
  6
Continuous
 62
     7
370
     0
100
AcDbLine
 10
8.8859625762
 20
6.4255761739
 30
0.0
 11
8.9188947184
 21
6.4555533206
 31
0.0
  0
LINE
  5
211
330
1F
100
AcDbEntity
  8
0
  6
Continuous
 62
     7
370
     0
100
AcDbLine
 10
8.8859625762
 20
6.4255761739
 30
0.0
 11
8.8859625762
 21
6.3864569824
 31
0.0
  0
SPLINE
  5
212
330
1F
100
AcDbEntity
  8
0
  6
Continuous
 62
     7
370
     0
100
AcDbSpline
210
0.0
220
0.0
230
1.0
 70
     8
 71
     3
 72
    20
 73
    16
 74
     0
 42
0.00000001
 43
0.00000001
 40
0.0
 40
0.0
 40
0.0
 40
0.0
 40
0.0769692610767138
 40
0.1563025918141787
 40
0.2332381337931248
 40
0.312202729407617
 40
0.3931092808434521
 40
0.4761819746746892
 40
0.5600590506901407
 40
0.6466069869541539
 40
0.726371684847317
 40
0.8087327647466616
 40
0.8841733974422037
 40
0.9617471369191802
 40
1.0
 40
1.0
 40
1.0
 40
1.0
 10
8.550704811367778
 20
6.360684711531645
 30
0.0
 10
8.550455805837828
 20
6.364967525803287
 30
0.0
 10
8.549950146706342
 20
6.373664698694805
 30
0.0
 10
8.545939218657832
 20
6.385487764994036
 30
0.0
 10
8.53977318967117
 20
6.396065957973132
 30
0.0
 10
8.531537210482023
 20
6.405001308075827
 30
0.0
 10
8.521426423317026
 20
6.412095507274834
 30
0.0
 10
8.509791299735253
 20
6.41689016722096
 30
0.0
 10
8.496998610774673
 20
6.418990193622864
 30
0.0
 10
8.483968337077137
 20
6.418024505299481
 30
0.0
 10
8.471163776240049
 20
6.414006703392205
 30
0.0
 10
8.459471206782052
 20
6.407395762008755
 30
0.0
 10
8.448875314273973
 20
6.398284774858514
 30
0.0
 10
8.440971777735717
 20
6.389413055282178
 30
0.0
 10
8.437008338762336
 20
6.382983327686627
 30
0.0
 10
8.435699374456814
 20
6.380859847554012
 30
0.0
  0
SPLINE
  5
213
330
1F
100
AcDbEntity
  8
0
  6
Continuous
 62
     7
370
     0
100
AcDbSpline
210
0.0
220
0.0
230
1.0
 70
     8
 71
     3
 72
    10
 73
     6
 74
     0
 42
0.00000001
 43
0.00000001
 40
0.0
 40
0.0
 40
0.0
 40
0.0
 40
0.2598279925973638
 40
0.7807029588350393
 40
0.9999999999999999
 40
0.9999999999999999
 40
0.9999999999999999
 40
0.9999999999999999
 10
8.545682637767564
 20
6.334740952199525
 30
0.0
 10
8.546536305487976
 20
6.337005532710136
 30
0.0
 10
8.549101313624806
 20
6.343809898504141
 30
0.0
 10
8.550472226152154
 20
6.352551399381544
 30
0.0
 10
8.550651651498073
 20
6.358825754963895
 30
0.0
 10
8.550704811367774
 20
6.360684711531648
 30
0.0
  0
LINE
  5
214
330
1F
100
AcDbEntity
  8
0
  6
Continuous
 62
     7
370
     0
100
AcDbLine
 10
8.919844461
 20
6.4060165781
 30
0.0
 11
8.8859625762
 21
6.4255761739
 31
0.0
  0
ARC
  5
215
330
1F
100
AcDbEntity
  8
0
  6
Continuous
 62
     7
370
     0
100
AcDbCircle
 10
8.6426620508
 20
5.64667621
 30
0.0
 40
0.7134514854105051
100
AcDbArc
 50
242.4241676149
 51
297.5758323851
  0
LINE
  5
216
330
1F
100
AcDbEntity
  8
0
  6
Continuous
 62
     7
370
     0
100
AcDbLine
 10
8.5153230806
 20
4.577780648
 30
0.0
 11
8.5379161714
 21
4.5746141677
 31
0.0
  0
LWPOLYLINE
  5
217
330
1F
100
AcDbEntity
  8
0
  6
Continuous
 62
     7
370
     0
100
AcDbPolyline
 90
       22
 70
   128
 43
0.0
 10
8.1506620508
 20
4.8521282663
 10
8.1508375982
 20
4.8445416467
 10
8.1526901045
 20
4.8263661474
 10
8.1565560107
 20
4.8082965102
 10
8.1624194308
 20
4.7904069871
 10
8.1702562709
 20
4.77277109
 10
8.1800343276
 20
4.7554612886
 10
8.1917134209
 20
4.7385487124
 10
8.2052455589
 20
4.7221028591
 10
8.220575135
 20
4.706191308
 10
8.2376391568
 20
4.6908794432
 10
8.2563675046
 20
4.6762301844
 10
8.2766832195
 20
4.6623037285
 10
8.29850282
 20
4.6491573024
 10
8.3217366445
 20
4.6368449275
 10
8.3462892204
 20
4.625417198
 10
8.3720596558
 20
4.6149210729
 10
8.3989420544
 20
4.6053996831
 10
8.4268259509
 20
4.5968921539
 10
8.4555967641
 20
4.5894334447
 10
8.4851362688
 20
4.5830542049
 10
8.5153230806
 20
4.577780648
  0
ARC
  5
218
330
1F
100
AcDbEntity
  8
0
  6
Continuous
 62
     7
370
     0
100
AcDbCircle
 10
8.3970554619
 20
4.9992842531
 30
0.0
 40
0.247625850746004
100
AcDbArc
 50
185.718771886
 51
245.6013690716
  0
LINE
  5
219
330
1F
100
AcDbEntity
  8
0
  6
Continuous
 62
     7
370
     0
100
AcDbLine
 10
8.2947655145
 20
5.0007713383
 30
0.0
 11
9.6867079971
 21
4.1972200471
 31
0.0
  0
LINE
  5
21A
330
1F
100
AcDbEntity
  8
0
  6
Continuous
 62
     7
370
     0
100
AcDbLine
 10
9.6867079971
 20
4.1972200471
 30
0.0
 11
9.6867079971
 21
3.846107498
 31
0.0
  0
LINE
  5
21B
330
1F
100
AcDbEntity
  8
0
  6
Continuous
 62
     7
370
     0
100
AcDbLine
 10
9.5452866409
 20
3.9277483092
 30
0.0
 11
9.6867079971
 21
3.846107498
 31
0.0
  0
LINE
  5
21C
330
1F
100
AcDbEntity
  8
0
  6
Continuous
 62
     7
370
     0
100
AcDbLine
 10
9.5452866409
 20
3.9930715742
 30
0.0
 11
9.5452866409
 21
3.9277483092
 31
0.0
  0
LINE
  5
21D
330
1F
100
AcDbEntity
  8
0
  6
Continuous
 62
     7
370
     0
100
AcDbLine
 10
8.4361868707
 20
4.633341243
 30
0.0
 11
9.5452866409
 21
3.9930715742
 31
0.0
  0
LINE
  5
21E
330
1F
100
AcDbEntity
  8
0
  6
Continuous
 62
     7
370
     0
100
AcDbLine
 10
8.4361868707
 20
4.6921321814
 30
0.0
 11
8.4361868707
 21
4.633341243
 31
0.0
  0
LINE
  5
21F
330
1F
100
AcDbEntity
  8
0
  6
Continuous
 62
     7
370
     0
100
AcDbLine
 10
8.2947655145
 20
4.7737729926
 30
0.0
 11
8.4361868707
 21
4.6921321814
 31
0.0
  0
LWPOLYLINE
  5
220
330
1F
100
AcDbEntity
  8
0
  6
Continuous
 62
     7
370
     0
100
AcDbPolyline
 90
       13
 70
   128
 43
0.0
 10
8.2947655145
 20
4.8599180482
 10
8.30089644
 20
4.8573108092
 10
8.3066095531
 20
4.8567453871
 10
8.3115155145
 20
4.8582603145
 10
8.3152799911
 20
4.8617523516
 10
8.31764644
 20
4.8669835218
 10
8.3184535917
 20
4.8735973296
 10
8.31764644
 20
4.8811430548
 10
8.3152799911
 20
4.8891064688
 10
8.3115155145
 20
4.896944878
 10
8.3066095531
 20
4.9041241079
 10
8.30089644
 20
4.9101549057
 10
8.2947655145
 20
4.9146262826
  0
ARC
  5
221
330
1F
100
AcDbEntity
  8
0
  6
Continuous
 62
     7
370
     0
100
AcDbCircle
 10
8.3929495563
 20
5.2219696744
 30
0.0
 40
0.2420099376907813
100
AcDbArc
 50
182.0180215186
 51
246.0648417978
  0
LINE
  5
222
330
1F
100
AcDbEntity
  8
0
  6
Continuous
 62
     7
370
     0
100
AcDbLine
 10
9.1346620508
 20
5.3192549705
 30
0.0
 11
10.3825010698
 21
4.5988928382
 31
0.0
  0
LINE
  5
223
330
1F
100
AcDbEntity
  8
0
  6
Continuous
 62
     7
370
     0
100
AcDbLine
 10
10.3825010698
 20
4.5988928382
 30
0.0
 11
10.128296182
 21
4.45214348
 31
0.0
  0
LINE
  5
224
330
1F
100
AcDbEntity
  8
0
  6
Continuous
 62
     7
370
     0
100
AcDbLine
 10
10.128296182
 20
4.45214348
 30
0.0
 11
9.2666837852
 21
4.9495417293
 31
0.0
  0
LWPOLYLINE
  5
225
330
1F
100
AcDbEntity
  8
0
  6
Continuous
 62
     7
370
     0
100
AcDbPolyline
 90
       26
 70
   128
 43
0.0
 10
9.2666837852
 20
4.9495417293
 10
9.2542023213
 20
4.9558941401
 10
9.2404401243
 20
4.9612933848
 10
9.2256142322
 20
4.9656543139
 10
9.2099584583
 20
4.968908153
 10
9.1937197033
 20
4.9710035872
 10
9.1771540623
 20
4.9719075702
 10
9.1605227852
 20
4.9716058456
 10
9.1440881572
 20
4.9701031719
 10
9.1281093623
 20
4.967423247
 10
9.1128383955
 20
4.963608335
 10
9.0985160892
 20
4.9587185993
 10
9.0853683146
 20
4.952831154
 10
9.07360242
 20
4.9460388477
 10
9.0634039606
 20
4.938448799
 10
9.0549337723
 20
4.9301807075
 10
9.0483254348
 20
4.921364966
 10
9.0436831658
 20
4.9121406041
 10
9.0410801764
 20
4.9026530953
 10
9.0405575175
 20
4.8930520634
 10
9.0421234316
 20
4.8834889224
 10
9.0457532234
 20
4.8741144887
 10
9.0513896488
 20
4.8650766028
 10
9.0589438181
 20
4.8565177974
 10
9.0682965976
 20
4.8485730502
 10
9.0793004882
 20
4.8413676545
  0
LINE
  5
226
330
1F
100
AcDbEntity
  8
0
  6
Continuous
 62
     7
370
     0
100
AcDbLine
 10
9.940912885
 20
4.3439694052
 30
0.0
 11
9.0793004882
 21
4.8413676545
 31
0.0
  0
LINE
  5
227
330
1F
100
AcDbEntity
  8
0
  6
Continuous
 62
     7
370
     0
100
AcDbLine
 10
9.6867079971
 20
4.1972200471
 30
0.0
 11
9.940912885
 21
4.3439694052
 31
0.0
  0
LINE
  5
228
330
1F
100
AcDbEntity
  8
0
  6
Continuous
 62
     7
370
     0
100
AcDbLine
 10
9.940912885
 20
4.3439694052
 30
0.0
 11
9.940912885
 21
3.9928568561
 31
0.0
  0
LINE
  5
229
330
1F
100
AcDbEntity
  8
0
  6
Continuous
 62
     7
370
     0
100
AcDbLine
 10
9.6867079971
 20
3.846107498
 30
0.0
 11
9.940912885
 21
3.9928568561
 31
0.0
  0
LINE
  5
22A
330
1F
100
AcDbEntity
  8
0
  6
Continuous
 62
     7
370
     0
100
AcDbLine
 10
10.128296182
 20
4.45214348
 30
0.0
 11
10.128296182
 21
4.1010309309
 31
0.0
  0
LINE
  5
22B
330
1F
100
AcDbEntity
  8
0
  6
Continuous
 62
     7
370
     0
100
AcDbLine
 10
10.3825010698
 20
4.5988928382
 30
0.0
 11
10.3825010698
 21
4.247780289
 31
0.0
  0
LINE
  5
22C
330
1F
100
AcDbEntity
  8
0
  6
Continuous
 62
     7
370
     0
100
AcDbLine
 10
10.3825010698
 20
4.247780289
 30
0.0
 11
10.128296182
 21
4.1010309309
 31
0.0
  0
LINE
  5
22D
330
1F
100
AcDbEntity
  8
0
  6
Continuous
 62
     7
370
     0
100
AcDbLine
 10
10.128296182
 20
4.1010309309
 30
0.0
 11
9.9868748258
 21
4.1826717421
 31
0.0
  0
LINE
  5
22E
330
1F
100
AcDbEntity
  8
0
  6
Continuous
 62
     7
370
     0
100
AcDbLine
 10
9.9868748258
 20
4.2479950071
 30
0.0
 11
9.9868748258
 21
4.1826717421
 31
0.0
  0
LINE
  5
22F
330
1F
100
AcDbEntity
  8
0
  6
Continuous
 62
     7
370
     0
100
AcDbLine
 10
9.9868748258
 20
4.2479950071
 30
0.0
 11
9.940912885
 21
4.2745282707
 31
0.0
  0
SPLINE
  5
230
330
1F
100
AcDbEntity
  8
0
  6
Continuous
 62
     7
370
     0
100
AcDbSpline
210
0.0
220
0.0
230
1.0
 70
     8
 71
     3
 72
    17
 73
    13
 74
     0
 42
0.00000001
 43
0.00000001
 40
0.0
 40
0.0
 40
0.0
 40
0.0
 40
0.1072028223541184
 40
0.2143996562184857
 40
0.3217520362771944
 40
0.4292072669282309
 40
0.5364929531126954
 40
0.6436012507253206
 40
0.750801142258701
 40
0.8582184677951123
 40
0.9656401968878034
 40
1.0
 40
1.0
 40
1.0
 40
1.0
 10
8.294765514493246
 20
4.859918048247141
 30
0.0
 10
8.292123566063959
 20
4.861766058748855
 30
0.0
 10
8.286839816788072
 20
4.865461976520001
 30
0.0
 10
8.280011139906367
 20
4.874401038819362
 30
0.0
 10
8.274901663368974
 20
4.884609582258722
 30
0.0
 10
8.272015425174303
 20
4.89517758723869
 30
0.0
 10
8.27161150055615
 20
4.904786006918454
 30
0.0
 10
8.273718904829037
 20
4.912363890119045
 30
0.0
 10
8.278149472198935
 20
4.917104151595231
 30
0.0
 10
8.284497334867936
 20
4.918493915921722
 30
0.0
 10
8.290424941944083
 20
4.916976579410618
 30
0.0
 10
8.293918801154126
 20
4.915084753870745
 30
0.0
 10
8.294765514493246
 20
4.914626282643487
 30
0.0
  0
ARC
  5
231
330
1F
100
AcDbEntity
  8
0
  6
Continuous
 62
     7
370
     0
100
AcDbCircle
 10
8.3959386176
 20
4.9984828987
 30
0.0
 40
0.2464356684671629
100
AcDbArc
 50
185.559260147
 51
245.7608808106
  0
LWPOLYLINE
  5
232
330
1F
100
AcDbEntity
  8
0
  6
Continuous
 62
     7
370
     0
100
AcDbPolyline
 90
       50
 70
   128
 43
0.0
 10
8.1506620508
 20
6.2187374658
 10
8.1436377075
 20
6.2173413282
 10
8.1279449228
 20
6.2154568655
 10
8.1128270832
 20
6.2153955122
 10
8.0983902294
 20
6.2171576987
 10
8.0847356256
 20
6.2207310646
 10
8.0719590491
 20
6.2260905452
 10
8.0601501183
 20
6.2331985477
 10
8.0493916644
 20
6.2420052145
 10
8.0397591503
 20
6.2524487731
 10
8.031320141
 20
6.2644559695
 10
8.0241338303
 20
6.2779425819
 10
8.0182506248
 20
6.2928140114
 10
8.0137117911
 20
6.3089659455
 10
8.0105491659
 20
6.3262850901
 10
8.0087849325
 20
6.3446499638
 10
8.008431466
 20
6.3639317501
 10
8.0094912455
 20
6.3839952013
 10
8.0119568376
 20
6.4046995866
 10
8.0158109478
 20
6.4258996797
 10
8.0210265423
 20
6.4474467771
 10
8.0275670375
 20
6.4691897414
 10
8.0353865566
 20
6.4909760614
 10
8.0444302511
 20
6.5126529216
 10
8.0546346861
 20
6.5340682744
 10
8.0659282849
 20
6.5550719067
 10
8.0782318308
 20
6.5755164929
 10
8.0914590235
 20
6.5952586289
 10
8.1055170836
 20
6.614159838
 10
8.1203074039
 20
6.6320875416
 10
8.135726241
 20
6.6489159898
 10
8.1516654428
 20
6.6645271432
 10
8.1680132073
 20
6.6788115007
 10
8.1846548666
 20
6.6916688678
 10
8.2014736915
 20
6.7030090594
 10
8.21835171
 20
6.712752532
 10
8.2351705349
 20
6.7208309424
 10
8.2518121942
 20
6.7271876261
 10
8.2681599587
 20
6.7317779957
 10
8.2840991605
 20
6.734569853
 10
8.2995179976
 20
6.7355436152
 10
8.3143083179
 20
6.7346924519
 10
8.328366378
 20
6.7320223336
 10
8.3415935707
 20
6.7275519891
 10
8.3538971166
 20
6.7213127747
 10
8.3651907154
 20
6.713348454
 10
8.3753951504
 20
6.703714891
 10
8.3844388449
 20
6.6924796583
 10
8.392258364
 20
6.6797215629
 10
8.3958315052
 20
6.6724944115
  0
LWPOLYLINE
  5
233
330
1F
100
AcDbEntity
  8
0
  6
Continuous
 62
     7
370
     0
100
AcDbPolyline
 90
       46
 70
   128
 43
0.0
 10
8.1506620508
 20
6.2257426066
 10
8.1448632331
 20
6.22538049
 10
8.1303631879
 20
6.2257262277
 10
8.1165761926
 20
6.2279097777
 10
8.1036071748
 20
6.2319145219
 10
8.0915548364
 20
6.2377099817
 10
8.080510903
 20
6.2452520502
 10
8.0705594256
 20
6.2544833277
 10
8.0617761409
 20
6.2653335586
 10
8.0542278951
 20
6.2777201661
 10
8.0479721349
 20
6.2915488807
 10
8.0430564704
 20
6.3067144574
 10
8.0395183127
 20
6.3231014771
 10
8.0373845894
 20
6.3405852247
 10
8.0366715394
 20
6.3590326382
 10
8.0373845894
 20
6.3783033218
 10
8.0395183127
 20
6.3982506138
 10
8.0430564704
 20
6.4187227034
 10
8.0479721349
 20
6.4395637856
 10
8.0542278951
 20
6.4606152472
 10
8.0617761409
 20
6.4817168738
 10
8.0705594256
 20
6.5027080693
 10
8.080510903
 20
6.523429078
 10
8.0915548364
 20
6.5437222006
 10
8.1036071748
 20
6.5634329942
 10
8.1165761926
 20
6.5824114476
 10
8.1303631879
 20
6.6005131235
 10
8.1448632331
 20
6.6176002571
 10
8.1599659743
 20
6.6335428049
 10
8.1755564704
 20
6.6482194347
 10
8.1915160683
 20
6.6615184484
 10
8.2077233059
 20
6.6733386325
 10
8.2240548364
 20
6.6835900282
 10
8.2403863668
 20
6.6921946162
 10
8.2565936044
 20
6.6990869104
 10
8.2725532024
 20
6.7042144562
 10
8.2881436985
 20
6.7075382301
 10
8.3032464396
 20
6.709032936
 10
8.3177464849
 20
6.7086871983
 10
8.3315334801
 20
6.7065036483
 10
8.344502498
 20
6.7024989041
 10
8.3565548364
 20
6.6967034443
 10
8.3675987698
 20
6.6891613758
 10
8.3775502472
 20
6.6799300983
 10
8.3863335318
 20
6.6690798674
 10
8.3868193047
 20
6.66838283
  0
LWPOLYLINE
  5
234
330
1F
100
AcDbEntity
  8
0
  6
Continuous
 62
     7
370
     0
100
AcDbPolyline
 90
       15
 70
   128
 43
0.0
 10
8.4371302261
 20
6.3786720468
 10
8.4413922625
 20
6.3826538434
 10
8.4496668612
 20
6.3890690713
 10
8.4580622194
 20
6.3939156084
 10
8.466336818
 20
6.3970540287
 10
8.4742526119
 20
6.3983940456
 10
8.4815818781
 20
6.3978971093
 10
8.4881137669
 20
6.3955775156
 10
8.4936603679
 20
6.3915019951
 10
8.4980621153
 20
6.385787793
 10
8.501192379
 20
6.3785992966
 10
8.5029611069
 20
6.3701433058
 10
8.503317416
 20
6.3606630841
 10
8.502251056
 20
6.3504313602
 10
8.5014468863
 20
6.3462636023
  0
LWPOLYLINE
  5
235
330
1F
100
AcDbEntity
  8
0
  6
Continuous
 62
     7
370
     0
100
AcDbPolyline
 90
       39
 70
   128
 43
0.0
 10
7.8765054504
 20
6.3387619634
 10
7.8692312874
 20
6.3434136428
 10
7.8584728335
 20
6.3522203096
 10
7.8488403194
 20
6.3626638682
 10
7.8404013101
 20
6.3746710646
 10
7.8332149994
 20
6.388157677
 10
7.8273317939
 20
6.4030291065
 10
7.8227929602
 20
6.4191810406
 10
7.8196303349
 20
6.4365001852
 10
7.8178661016
 20
6.4548650589
 10
7.817512635
 20
6.4741468452
 10
7.8185724146
 20
6.4942102964
 10
7.8210380067
 20
6.5149146817
 10
7.8248921169
 20
6.5361147748
 10
7.8301077114
 20
6.5576618722
 10
7.8366482066
 20
6.5794048365
 10
7.8444677257
 20
6.6011911564
 10
7.8535114202
 20
6.6228680167
 10
7.8637158552
 20
6.6442833695
 10
7.875009454
 20
6.6652870018
 10
7.8873129999
 20
6.6857315879
 10
7.9005401926
 20
6.705473724
 10
7.9145982526
 20
6.7243749331
 10
7.929388573
 20
6.7423026367
 10
7.9448074101
 20
6.7591310849
 10
7.9607466119
 20
6.7747422383
 10
7.9770943764
 20
6.7890265958
 10
7.9937360357
 20
6.8018839629
 10
8.0105548606
 20
6.8132241544
 10
8.0274328791
 20
6.8229676271
 10
8.0442517039
 20
6.8310460374
 10
8.0608933633
 20
6.8374027212
 10
8.0772411278
 20
6.8419930908
 10
8.0931803296
 20
6.8447849481
 10
8.1085991667
 20
6.8457587103
 10
8.123389487
 20
6.844907547
 10
8.1374475471
 20
6.8422374287
 10
8.1506747397
 20
6.8377670842
 10
8.1614822892
 20
6.832409815
  0
LWPOLYLINE
  5
236
330
1F
100
AcDbEntity
  8
0
  6
Continuous
 62
     7
370
     0
100
AcDbPolyline
 90
       27
 70
   128
 43
0.0
 10
8.2240548364
 20
6.6305148754
 10
8.2097474751
 20
6.6214175301
 10
8.1955869267
 20
6.6107377732
 10
8.1817184975
 20
6.5985851934
 10
8.1682844965
 20
6.5850844926
 10
8.1554227746
 20
6.5703742063
 10
8.1432653106
 20
6.5546052819
 10
8.1319368565
 20
6.5379395298
 10
8.1215536574
 20
6.5205479634
 10
8.1122222592
 20
6.5026090436
 10
8.1040384145
 20
6.4843068479
 10
8.0970861008
 20
6.4658291817
 10
8.091436658
 20
6.4473656509
 10
8.0871480573
 20
6.4291057162
 10
8.0842643054
 20
6.4112367493
 10
8.0828149934
 20
6.3939421099
 10
8.0828149934
 20
6.3773992645
 10
8.0842643054
 20
6.3617779651
 10
8.0871480573
 20
6.3472385073
 10
8.091436658
 20
6.3339300856
 10
8.0970861008
 20
6.3219892625
 10
8.1040384145
 20
6.3115385669
 10
8.1122222592
 20
6.3026852372
 10
8.1215536574
 20
6.2955201204
 10
8.1319368565
 20
6.2901167404
 10
8.1432653106
 20
6.2865305432
 10
8.1506620508
 20
6.2852429152
  0
ARC
  5
237
330
1F
100
AcDbEntity
  8
0
  6
Continuous
 62
     7
370
     0
100
AcDbCircle
 10
8.2815327588
 20
6.5533083553
 30
0.0
 40
0.096252575594482
100
AcDbArc
 50
59.4130163188
 51
126.6665701529
  0
ARC
  5
238
330
1F
100
AcDbEntity
  8
0
  6
Continuous
 62
     7
370
     0
100
AcDbCircle
 10
8.4545449615
 20
6.3686862107
 30
0.0
 40
0.019744932549079
100
AcDbArc
 50
19.8274235494
 51
115.0361696538
  0
ARC
  5
239
330
1F
100
AcDbEntity
  8
0
  6
Continuous
 62
     7
370
     0
100
AcDbCircle
 10
8.1526745618
 20
6.3619193656
 30
0.0
 40
0.0731814752586138
100
AcDbArc
 50
243.9965320649
 51
268.4241513987
  0
LWPOLYLINE
  5
23A
330
1F
100
AcDbEntity
  8
0
  6
Continuous
 62
     7
370
     0
100
AcDbPolyline
 90
        3
 70
   128
 43
0.0
 10
8.3293262385
 20
6.6353392465
 10
8.3288163458
 20
6.6358102294
 10
8.3204486714
 20
6.6423492334
  0
LWPOLYLINE
  5
23B
330
1F
100
AcDbEntity
  8
0
  6
Continuous
 62
     7
370
     0
100
AcDbPolyline
 90
       27
 70
   128
 43
0.0
 10
8.2240548364
 20
6.6264321713
 10
8.2101051591
 20
6.6175622597
 10
8.1962986244
 20
6.6071494967
 10
8.182776906
 20
6.5953007314
 10
8.169678755
 20
6.5821375481
 10
8.1571385762
 20
6.567795019
 10
8.1452850488
 20
6.5524203176
 10
8.134239806
 20
6.5361712094
 10
8.1241161869
 20
6.5192144322
 10
8.1150180736
 20
6.5017239853
 10
8.1070388251
 20
6.4838793445
 10
8.1002603191
 20
6.46586362
 10
8.0947521125
 20
6.4478616774
 10
8.0905707268
 20
6.4300582411
 10
8.0877590686
 20
6.4126359984
 10
8.0863459895
 20
6.395773725
 10
8.0863459895
 20
6.3796444507
 10
8.0877590686
 20
6.3644136838
 10
8.0905707268
 20
6.3502377124
 10
8.0947521125
 20
6.3372620013
 10
8.1002603191
 20
6.3256196988
 10
8.1070388251
 20
6.3154302706
 10
8.1150180736
 20
6.3067982741
 10
8.1241161869
 20
6.2998122852
 10
8.134239806
 20
6.2945439897
 10
8.1452850488
 20
6.2910474474
 10
8.1506620508
 20
6.2900419393
  0
ARC
  5
23C
330
1F
100
AcDbEntity
  8
0
  6
Continuous
 62
     7
370
     0
100
AcDbCircle
 10
8.2803259808
 20
6.5504856066
 30
0.0
 40
0.0945215445713454
100
AcDbArc
 50
60.9575287276
 51
126.5358839891
  0
ARC
  5
23D
330
1F
100
AcDbEntity
  8
0
  6
Continuous
 62
     7
370
     0
100
AcDbCircle
 10
8.1552475561
 20
6.3631785194
 30
0.0
 40
0.0705080768820974
100
AcDbArc
 50
208.5204276607
 51
239.5279969384
  0
ARC
  5
23E
330
1F
100
AcDbEntity
  8
0
  6
Continuous
 62
     7
370
     0
100
AcDbCircle
 10
8.2794791619
 20
6.577803102
 30
0.0
 40
0.0715135194963264
100
AcDbArc
 50
60.7007151291
 51
91.261613346
  0
ARC
  5
23F
330
1F
100
AcDbEntity
  8
0
  6
Continuous
 62
     7
370
     0
100
AcDbCircle
 10
8.2227571431
 20
6.4679558554
 30
0.0
 40
0.4056715432069829
100
AcDbArc
 50
122.4947590104
 51
177.5106175223
  0
LINE
  5
240
330
1F
100
AcDbEntity
  8
0
  6
Continuous
 62
     7
370
     0
100
AcDbLine
 10
2.4874745881
 20
3.9721244127
 30
0.0
 11
2.4874745881
 21
5.3671244127
 31
0.0
  0
LINE
  5
241
330
1F
100
AcDbEntity
  8
0
  6
Continuous
 62
     7
370
     0
100
AcDbLine
 10
1.5034745881
 20
5.3671244127
 30
0.0
 11
1.5034745881
 21
3.9721244127
 31
0.0
  0
LINE
  5
242
330
1F
100
AcDbEntity
  8
0
  6
Continuous
 62
     7
370
     0
100
AcDbLine
 10
1.5034745881
 20
3.9721244127
 30
0.0
 11
1.5284745881
 21
3.9471244127
 31
0.0
  0
LINE
  5
243
330
1F
100
AcDbEntity
  8
0
  6
Continuous
 62
     7
370
     0
100
AcDbLine
 10
2.4624745881
 20
3.9471244127
 30
0.0
 11
2.4874745881
 21
3.9721244127
 31
0.0
  0
LINE
  5
244
330
1F
100
AcDbEntity
  8
0
  6
Continuous
 62
     7
370
     0
100
AcDbLine
 10
2.4874745881
 20
5.3671244127
 30
0.0
 11
2.4008720477
 21
5.5171244127
 31
0.0
  0
LINE
  5
245
330
1F
100
AcDbEntity
  8
0
  6
Continuous
 62
     7
370
     0
100
AcDbLine
 10
1.5900771285
 20
5.5171244127
 30
0.0
 11
1.5034745881
 21
5.3671244127
 31
0.0
  0
LINE
  5
246
330
1F
100
AcDbEntity
  8
0
  6
Continuous
 62
     7
370
     0
100
AcDbLine
 10
1.5034745881
 20
3.6651244127
 30
0.0
 11
1.5034745881
 21
3.5151244127
 31
0.0
  0
LINE
  5
247
330
1F
100
AcDbEntity
  8
0
  6
Continuous
 62
     7
370
     0
100
AcDbLine
 10
2.4874745881
 20
3.5151244127
 30
0.0
 11
2.4874745881
 21
3.6651244127
 31
0.0
  0
LINE
  5
248
330
1F
100
AcDbEntity
  8
0
  6
Continuous
 62
     7
370
     0
100
AcDbLine
 10
1.6007245881
 20
3.9471244127
 30
0.0
 11
1.6007245881
 21
3.9431244127
 31
0.0
  0
LINE
  5
249
330
1F
100
AcDbEntity
  8
0
  6
Continuous
 62
     7
370
     0
100
AcDbLine
 10
2.3902245881
 20
3.9431244127
 30
0.0
 11
2.3902245881
 21
3.9471244127
 31
0.0
  0
LINE
  5
24A
330
1F
100
AcDbEntity
  8
0
  6
Continuous
 62
     7
370
     0
100
AcDbLine
 10
1.9954745881
 20
3.9721244127
 30
0.0
 11
2.4874745881
 21
3.9721244127
 31
0.0
  0
LINE
  5
24B
330
1F
100
AcDbEntity
  8
0
  6
Continuous
 62
     7
370
     0
100
AcDbLine
 10
1.5034745881
 20
3.9721244127
 30
0.0
 11
1.9954745881
 21
3.9721244127
 31
0.0
  0
LINE
  5
24C
330
1F
100
AcDbEntity
  8
0
  6
Continuous
 62
     7
370
     0
100
AcDbLine
 10
1.7667280034
 20
5.3671244127
 30
0.0
 11
1.5034745881
 21
5.3671244127
 31
0.0
  0
LINE
  5
24D
330
1F
100
AcDbEntity
  8
0
  6
Continuous
 62
     7
370
     0
100
AcDbLine
 10
2.4874745881
 20
5.3671244127
 30
0.0
 11
2.2242211728
 21
5.3671244127
 31
0.0
  0
LINE
  5
24E
330
1F
100
AcDbEntity
  8
0
  6
Continuous
 62
     7
370
     0
100
AcDbLine
 10
1.9954745881
 20
3.9471244127
 30
0.0
 11
1.5284745881
 21
3.9471244127
 31
0.0
  0
LINE
  5
24F
330
1F
100
AcDbEntity
  8
0
  6
Continuous
 62
     7
370
     0
100
AcDbLine
 10
2.4624745881
 20
3.9471244127
 30
0.0
 11
1.9954745881
 21
3.9471244127
 31
0.0
  0
LINE
  5
250
330
1F
100
AcDbEntity
  8
0
  6
Continuous
 62
     7
370
     0
100
AcDbLine
 10
1.9954745881
 20
5.5171244127
 30
0.0
 11
2.4008720477
 21
5.5171244127
 31
0.0
  0
LINE
  5
251
330
1F
100
AcDbEntity
  8
0
  6
Continuous
 62
     7
370
     0
100
AcDbLine
 10
1.5900771285
 20
5.5171244127
 30
0.0
 11
1.9954745881
 21
5.5171244127
 31
0.0
  0
LINE
  5
252
330
1F
100
AcDbEntity
  8
0
  6
Continuous
 62
     7
370
     0
100
AcDbLine
 10
1.5034745881
 20
3.5151244127
 30
0.0
 11
2.4874745881
 21
3.5151244127
 31
0.0
  0
LINE
  5
253
330
1F
100
AcDbEntity
  8
0
  6
Continuous
 62
     7
370
     0
100
AcDbLine
 10
1.5034745881
 20
3.6651244127
 30
0.0
 11
2.4874745881
 21
3.6651244127
 31
0.0
  0
LINE
  5
254
330
1F
100
AcDbEntity
  8
0
  6
Continuous
 62
     7
370
     0
100
AcDbLine
 10
1.5034745881
 20
3.9431244127
 30
0.0
 11
1.5034745881
 21
3.6651244127
 31
0.0
  0
LINE
  5
255
330
1F
100
AcDbEntity
  8
0
  6
Continuous
 62
     7
370
     0
100
AcDbLine
 10
2.4874745881
 20
3.9431244127
 30
0.0
 11
2.4874745881
 21
3.8376244127
 31
0.0
  0
SPLINE
  5
256
330
1F
100
AcDbEntity
  8
0
  6
Continuous
 62
     7
370
     0
100
AcDbSpline
210
0.0
220
0.0
230
1.0
 70
     8
 71
     3
 72
    17
 73
    13
 74
     0
 42
0.00000001
 43
0.00000001
 40
0.0
 40
0.0
 40
0.0
 40
0.0
 40
0.1072028223541184
 40
0.2143996562184857
 40
0.3217520362771944
 40
0.4292072669282309
 40
0.5364929531126954
 40
0.6436012507253206
 40
0.750801142258701
 40
0.8582184677951123
 40
0.9656401968878034
 40
1.0
 40
1.0
 40
1.0
 40
1.0
 10
2.487474588077555
 20
3.770624412673971
 30
0.0
 10
2.487448712120765
 20
3.770993923655058
 30
0.0
 10
2.487396961652649
 20
3.771732924975865
 30
0.0
 10
2.487037067641087
 20
3.777492748106387
 30
0.0
 10
2.486636312537428
 20
3.785981883738988
 30
0.0
 10
2.48634749743376
 20
3.796594977434288
 30
0.0
 10
2.486304105222026
 20
3.8080332461301
 30
0.0
 10
2.486522615771723
 20
3.819022109695039
 30
0.0
 10
2.486908232824087
 20
3.828345335619805
 30
0.0
 10
2.487289986818428
 20
3.834916929375933
 30
0.0
 10
2.487460775750405
 20
3.837420211092842
 30
0.0
 10
2.487471893713733
 20
3.837584579172595
 30
0.0
 10
2.487474588077555
 20
3.837624412673971
 30
0.0
  0
LINE
  5
257
330
1F
100
AcDbEntity
  8
0
  6
Continuous
 62
     7
370
     0
100
AcDbLine
 10
2.4874745881
 20
3.7706244127
 30
0.0
 11
2.4874745881
 21
3.6651244127
 31
0.0
  0
LINE
  5
258
330
1F
100
AcDbEntity
  8
0
  6
Continuous
 62
     7
370
     0
100
AcDbLine
 10
1.5034745881
 20
3.9431244127
 30
0.0
 11
2.4874745881
 21
3.9431244127
 31
0.0
  0
LINE
  5
259
330
1F
100
AcDbEntity
  8
0
  6
Continuous
 62
     7
370
     0
100
AcDbLine
 10
1.5034745881
 20
3.6651244127
 30
0.0
 11
1.5034745881
 21
3.5931244127
 31
0.0
  0
LINE
  5
25A
330
1F
100
AcDbEntity
  8
0
  6
Continuous
 62
     7
370
     0
100
AcDbLine
 10
2.4874745881
 20
3.6651244127
 30
0.0
 11
2.4874745881
 21
3.5931244127
 31
0.0
  0
LINE
  5
25B
330
1F
100
AcDbEntity
  8
0
  6
Continuous
 62
     7
370
     0
100
AcDbLine
 10
1.5034745881
 20
3.5131244127
 30
0.0
 11
1.8629745881
 21
3.5131244127
 31
0.0
  0
LINE
  5
25C
330
1F
100
AcDbEntity
  8
0
  6
Continuous
 62
     7
370
     0
100
AcDbLine
 10
1.8629745881
 20
3.5151244127
 30
0.0
 11
1.8629745881
 21
3.5131244127
 31
0.0
  0
LINE
  5
25D
330
1F
100
AcDbEntity
  8
0
  6
Continuous
 62
     7
370
     0
100
AcDbLine
 10
1.5034745881
 20
3.5931244127
 30
0.0
 11
1.5034745881
 21
3.5131244127
 31
0.0
  0
LINE
  5
25E
330
1F
100
AcDbEntity
  8
0
  6
Continuous
 62
     7
370
     0
100
AcDbLine
 10
2.1279745881
 20
3.5131244127
 30
0.0
 11
2.4874745881
 21
3.5131244127
 31
0.0
  0
LINE
  5
25F
330
1F
100
AcDbEntity
  8
0
  6
Continuous
 62
     7
370
     0
100
AcDbLine
 10
2.1279745881
 20
3.5151244127
 30
0.0
 11
2.1279745881
 21
3.5131244127
 31
0.0
  0
LINE
  5
260
330
1F
100
AcDbEntity
  8
0
  6
Continuous
 62
     7
370
     0
100
AcDbLine
 10
2.4874745881
 20
3.5931244127
 30
0.0
 11
2.4874745881
 21
3.5131244127
 31
0.0
  0
CIRCLE
  5
261
330
1F
100
AcDbEntity
  8
0
  6
Continuous
 62
     7
370
     0
100
AcDbCircle
 10
1.9954745881
 20
5.1971244127
 30
0.0
 40
0.0541000000000006
  0
LINE
  5
262
330
1F
100
AcDbEntity
  8
0
  6
Continuous
 62
     7
370
     0
100
AcDbLine
 10
1.9999909861
 20
5.2329250479
 30
0.0
 11
1.9667285275
 21
5.2189360457
 31
0.0
  0
LINE
  5
263
330
1F
100
AcDbEntity
  8
0
  6
Continuous
 62
     7
370
     0
100
AcDbLine
 10
1.9622121295
 20
5.1831354105
 30
0.0
 11
1.9667285275
 21
5.2189360457
 31
0.0
  0
LINE
  5
264
330
1F
100
AcDbEntity
  8
0
  6
Continuous
 62
     7
370
     0
100
AcDbLine
 10
1.9909581901
 20
5.1613237775
 30
0.0
 11
1.9622121295
 21
5.1831354105
 31
0.0
  0
LINE
  5
265
330
1F
100
AcDbEntity
  8
0
  6
Continuous
 62
     7
370
     0
100
AcDbLine
 10
1.9909581901
 20
5.1613237775
 30
0.0
 11
2.0242206487
 21
5.1753127797
 31
0.0
  0
LINE
  5
266
330
1F
100
AcDbEntity
  8
0
  6
Continuous
 62
     7
370
     0
100
AcDbLine
 10
2.0287370467
 20
5.2111134149
 30
0.0
 11
2.0242206487
 21
5.1753127797
 31
0.0
  0
LINE
  5
267
330
1F
100
AcDbEntity
  8
0
  6
Continuous
 62
     7
370
     0
100
AcDbLine
 10
2.0287370467
 20
5.2111134149
 30
0.0
 11
1.9999909861
 21
5.2329250479
 31
0.0
  0
SPLINE
  5
268
330
1F
100
AcDbEntity
  8
0
  6
Continuous
 62
     7
370
     0
100
AcDbSpline
210
0.0
220
0.0
230
1.0
 70
    24
 71
     3
 72
    13
 73
     9
 74
     0
 42
0.00000001
 43
0.00000001
 40
0.0
 40
0.0
 40
0.0
 40
0.0
 40
0.1383531952652874
 40
0.3091502397468048
 40
0.4850426048801498
 40
0.6480759479697056
 40
0.8167772014586039
 40
1.0
 40
1.0
 40
1.0
 40
1.0
 10
1.938648774180929
 20
5.295549609524362
 30
0.0
 10
1.943598745544873
 20
5.295549609524363
 30
0.0
 10
1.954659457449422
 20
5.295549609524363
 30
0.0
 10
1.973044811778837
 20
5.295549609524362
 30
0.0
 10
1.99317620603832
 20
5.295549609524363
 30
0.0
 10
2.013300020418188
 20
5.295549609524362
 30
0.0
 10
2.033080390103191
 20
5.295549609524363
 30
0.0
 10
2.04571988232944
 20
5.295549609524362
 30
0.0
 10
2.052300401974162
 20
5.295549609524362
 30
0.0
  0
SPLINE
  5
269
330
1F
100
AcDbEntity
  8
0
  6
Continuous
 62
     7
370
     0
100
AcDbSpline
210
0.0
220
0.0
230
1.0
 70
    24
 71
     3
 72
    15
 73
    11
 74
     0
 42
0.00000001
 43
0.00000001
 40
0.0
 40
0.0
 40
0.0
 40
0.0
 40
0.1077864249424405
 40
0.2161691032193852
 40
0.327313380342581
 40
0.4399575567902569
 40
0.5934881890594599
 40
0.7521499596953914
 40
0.87550728571562
 40
1.0
 40
1.0
 40
1.0
 40
1.0
 10
1.881822960284313
 20
5.197124412673968
 30
0.0
 10
1.88374677153216
 20
5.200456551499411
 30
0.0
 10
1.887605036173857
 20
5.207139261887881
 30
0.0
 10
1.893687927118607
 20
5.217675138061085
 30
0.0
 10
1.900047937681303
 20
5.228690999492351
 30
0.0
 10
1.907457793457001
 20
5.241525246172618
 30
0.0
 10
1.915911029034101
 20
5.256166679680502
 30
0.0
 10
1.924382688869007
 20
5.270840024939002
 30
0.0
 10
1.93199329781817
 20
5.28402198631549
 30
0.0
 10
1.936423517191116
 20
5.291695351358109
 30
0.0
 10
1.938648774180929
 20
5.295549609524362
 30
0.0
  0
SPLINE
  5
26A
330
1F
100
AcDbEntity
  8
0
  6
Continuous
 62
     7
370
     0
100
AcDbSpline
210
0.0
220
0.0
230
1.0
 70
    24
 71
     3
 72
    15
 73
    11
 74
     0
 42
0.00000001
 43
0.00000001
 40
0.0
 40
0.0
 40
0.0
 40
0.0
 40
0.1077864249424417
 40
0.2161691032193883
 40
0.3273133803425831
 40
0.4399575567902597
 40
0.5934881890594632
 40
0.7521499596953926
 40
0.8755072857156201
 40
1.0
 40
1.0
 40
1.0
 40
1.0
 10
1.938648774180929
 20
5.098699215823575
 30
0.0
 10
1.936724962933082
 20
5.102031354649018
 30
0.0
 10
1.932866698291383
 20
5.108714065037486
 30
0.0
 10
1.926783807346634
 20
5.119249941210692
 30
0.0
 10
1.920423796783938
 20
5.130265802641957
 30
0.0
 10
1.913013941008241
 20
5.143100049322225
 30
0.0
 10
1.90456070543114
 20
5.15774148283011
 30
0.0
 10
1.896089045596234
 20
5.172414828088608
 30
0.0
 10
1.888478436647071
 20
5.185596789465097
 30
0.0
 10
1.884048217274125
 20
5.193270154507714
 30
0.0
 10
1.881822960284313
 20
5.197124412673968
 30
0.0
  0
SPLINE
  5
26B
330
1F
100
AcDbEntity
  8
0
  6
Continuous
 62
     7
370
     0
100
AcDbSpline
210
0.0
220
0.0
230
1.0
 70
    24
 71
     3
 72
    13
 73
     9
 74
     0
 42
0.00000001
 43
0.00000001
 40
0.0
 40
0.0
 40
0.0
 40
0.0
 40
0.1832225058207785
 40
0.3465962878707584
 40
0.5149510811252561
 40
0.6853051769887044
 40
0.8616470257715423
 40
1.0
 40
1.0
 40
1.0
 40
1.0
 10
2.052300401974162
 20
5.098699215823575
 30
0.0
 10
2.045719683397163
 20
5.098699215823575
 30
0.0
 10
2.033271143737188
 20
5.098699215823574
 30
0.0
 10
2.013513057245933
 20
5.098699215823575
 30
0.0
 10
1.993605066100706
 20
5.098699215823574
 30
0.0
 10
1.973264444542595
 20
5.098699215823574
 30
0.0
 10
1.954857376646369
 20
5.098699215823575
 30
0.0
 10
1.943598601490196
 20
5.098699215823575
 30
0.0
 10
1.938648774180929
 20
5.098699215823575
 30
0.0
  0
SPLINE
  5
26C
330
1F
100
AcDbEntity
  8
0
  6
Continuous
 62
     7
370
     0
100
AcDbSpline
210
0.0
220
0.0
230
1.0
 70
    24
 71
     3
 72
    15
 73
    11
 74
     0
 42
0.00000001
 43
0.00000001
 40
0.0
 40
0.0
 40
0.0
 40
0.0
 40
0.1077864249424396
 40
0.2161691032193866
 40
0.3273133803425821
 40
0.4399575567902594
 40
0.5934881890594612
 40
0.7521499596953921
 40
0.8755072857156219
 40
0.9999999999999999
 40
0.9999999999999999
 40
0.9999999999999999
 40
0.9999999999999999
 10
2.109126215870779
 20
5.197124412673968
 30
0.0
 10
2.107202404622932
 20
5.193792273848524
 30
0.0
 10
2.103344139981234
 20
5.187109563460058
 30
0.0
 10
2.097261249036484
 20
5.176573687286851
 30
0.0
 10
2.090901238473788
 20
5.165557825855586
 30
0.0
 10
2.08349138269809
 20
5.152723579175319
 30
0.0
 10
2.07503814712099
 20
5.138082145667433
 30
0.0
 10
2.066566487286083
 20
5.123408800408935
 30
0.0
 10
2.058955878336921
 20
5.110226839032447
 30
0.0
 10
2.054525658963975
 20
5.102553473989829
 30
0.0
 10
2.052300401974162
 20
5.098699215823575
 30
0.0
  0
SPLINE
  5
26D
330
1F
100
AcDbEntity
  8
0
  6
Continuous
 62
     7
370
     0
100
AcDbSpline
210
0.0
220
0.0
230
1.0
 70
    24
 71
     3
 72
    15
 73
    11
 74
     0
 42
0.00000001
 43
0.00000001
 40
0.0
 40
0.0
 40
0.0
 40
0.0
 40
0.107786424942439
 40
0.2161691032193852
 40
0.32731338034258
 40
0.4399575567902574
 40
0.5934881890594598
 40
0.7521499596953898
 40
0.8755072857156195
 40
1.0
 40
1.0
 40
1.0
 40
1.0
 10
2.052300401974162
 20
5.295549609524362
 30
0.0
 10
2.054224213222009
 20
5.292217470698919
 30
0.0
 10
2.058082477863707
 20
5.285534760310449
 30
0.0
 10
2.064165368808456
 20
5.274998884137244
 30
0.0
 10
2.070525379371153
 20
5.263983022705979
 30
0.0
 10
2.077935235146851
 20
5.251148776025713
 30
0.0
 10
2.086388470723951
 20
5.236507342517827
 30
0.0
 10
2.094860130558858
 20
5.22183399725933
 30
0.0
 10
2.10247073950802
 20
5.20865203588284
 30
0.0
 10
2.106900958880966
 20
5.200978670840223
 30
0.0
 10
2.109126215870779
 20
5.197124412673969
 30
0.0
  0
CIRCLE
  5
26E
330
1F
100
AcDbEntity
  8
0
  6
Continuous
 62
     7
370
     0
100
AcDbCircle
 10
1.9954745881
 20
5.1971244127
 30
0.0
 40
0.1200000000000001
  0
LINE
  5
26F
330
1F
100
AcDbEntity
  8
0
  6
Continuous
 62
     7
370
     0
100
AcDbLine
 10
2.082440482
 20
5.0573287267
 30
0.0
 11
2.1027243032
 21
5.0497812583
 31
0.0
  0
LINE
  5
270
330
1F
100
AcDbEntity
  8
0
  6
Continuous
 62
     7
370
     0
100
AcDbLine
 10
2.0769578871
 20
5.0532701823
 30
0.0
 11
2.082440482
 21
5.0573287267
 31
0.0
  0
LINE
  5
271
330
1F
100
AcDbEntity
  8
0
  6
Continuous
 62
     7
370
     0
100
AcDbLine
 10
2.1022703871
 20
5.0442185605
 30
0.0
 11
2.0769578871
 21
5.0532701823
 31
0.0
  0
LINE
  5
272
330
1F
100
AcDbEntity
  8
0
  6
Continuous
 62
     7
370
     0
100
AcDbLine
 10
2.1029468111
 20
5.0169657915
 30
0.0
 11
2.1022703871
 21
5.0442185605
 31
0.0
  0
LINE
  5
273
330
1F
100
AcDbEntity
  8
0
  6
Continuous
 62
     7
370
     0
100
AcDbLine
 10
2.1085184092
 20
5.021086638
 30
0.0
 11
2.1029468111
 21
5.0169657915
 31
0.0
  0
LINE
  5
274
330
1F
100
AcDbEntity
  8
0
  6
Continuous
 62
     7
370
     0
100
AcDbLine
 10
2.1073435674
 20
5.0430882203
 30
0.0
 11
2.1085184092
 21
5.021086638
 31
0.0
  0
LINE
  5
275
330
1F
100
AcDbEntity
  8
0
  6
Continuous
 62
     7
370
     0
100
AcDbLine
 10
2.1281792083
 20
5.0356386555
 30
0.0
 11
2.1073435674
 21
5.0430882203
 31
0.0
  0
LINE
  5
276
330
1F
100
AcDbEntity
  8
0
  6
Continuous
 62
     7
370
     0
100
AcDbLine
 10
2.1337063048
 20
5.039732801
 30
0.0
 11
2.1281792083
 21
5.0356386555
 31
0.0
  0
LINE
  5
277
330
1F
100
AcDbEntity
  8
0
  6
Continuous
 62
     7
370
     0
100
AcDbLine
 10
2.1078063839
 20
5.0486509181
 30
0.0
 11
2.1337063048
 21
5.039732801
 31
0.0
  0
LINE
  5
278
330
1F
100
AcDbEntity
  8
0
  6
Continuous
 62
     7
370
     0
100
AcDbLine
 10
2.1071477605
 20
5.075618877
 30
0.0
 11
2.1078063839
 21
5.0486509181
 31
0.0
  0
LINE
  5
279
330
1F
100
AcDbEntity
  8
0
  6
Continuous
 62
     7
370
     0
100
AcDbLine
 10
2.1015850627
 20
5.0714980305
 30
0.0
 11
2.1071477605
 21
5.075618877
 31
0.0
  0
LINE
  5
27A
330
1F
100
AcDbEntity
  8
0
  6
Continuous
 62
     7
370
     0
100
AcDbLine
 10
2.1027243032
 20
5.0497812583
 30
0.0
 11
2.1015850627
 21
5.0714980305
 31
0.0
  0
LINE
  5
27B
330
1F
100
AcDbEntity
  8
0
  6
Continuous
 62
     7
370
     0
100
AcDbLine
 10
2.0416958481
 20
5.021644172
 30
0.0
 11
2.0381891234
 21
5.0387327796
 31
0.0
  0
LINE
  5
27C
330
1F
100
AcDbEntity
  8
0
  6
Continuous
 62
     7
370
     0
100
AcDbLine
 10
2.018911038
 20
5.0169715058
 30
0.0
 11
2.0416958481
 21
5.021644172
 31
0.0
  0
LINE
  5
27D
330
1F
100
AcDbEntity
  8
0
  6
Continuous
 62
     7
370
     0
100
AcDbLine
 10
2.0154043133
 20
5.0340601134
 30
0.0
 11
2.018911038
 21
5.0169715058
 31
0.0
  0
LINE
  5
27E
330
1F
100
AcDbEntity
  8
0
  6
Continuous
 62
     7
370
     0
100
AcDbLine
 10
2.0097081108
 20
5.0328852717
 30
0.0
 11
2.0154043133
 21
5.0340601134
 31
0.0
  0
LINE
  5
27F
330
1F
100
AcDbEntity
  8
0
  6
Continuous
 62
     7
370
     0
100
AcDbLine
 10
2.018715231
 20
4.9890245122
 30
0.0
 11
2.0097081108
 21
5.0328852717
 31
0.0
  0
LINE
  5
280
330
1F
100
AcDbEntity
  8
0
  6
Continuous
 62
     7
370
     0
100
AcDbLine
 10
2.0244114335
 20
4.9901993539
 30
0.0
 11
2.018715231
 21
4.9890245122
 31
0.0
  0
LINE
  5
281
330
1F
100
AcDbEntity
  8
0
  6
Continuous
 62
     7
370
     0
100
AcDbLine
 10
2.0199701756
 20
5.0118449236
 30
0.0
 11
2.0244114335
 21
4.9901993539
 31
0.0
  0
LINE
  5
282
330
1F
100
AcDbEntity
  8
0
  6
Continuous
 62
     7
370
     0
100
AcDbLine
 10
2.0427549858
 20
5.0165175897
 30
0.0
 11
2.0199701756
 21
5.0118449236
 31
0.0
  0
LINE
  5
283
330
1F
100
AcDbEntity
  8
0
  6
Continuous
 62
     7
370
     0
100
AcDbLine
 10
2.0471962437
 20
4.9948720201
 30
0.0
 11
2.0427549858
 21
5.0165175897
 31
0.0
  0
LINE
  5
284
330
1F
100
AcDbEntity
  8
0
  6
Continuous
 62
     7
370
     0
100
AcDbLine
 10
2.0528924462
 20
4.9960468619
 30
0.0
 11
2.0471962437
 21
4.9948720201
 31
0.0
  0
LINE
  5
285
330
1F
100
AcDbEntity
  8
0
  6
Continuous
 62
     7
370
     0
100
AcDbLine
 10
2.043885326
 20
5.0399076213
 30
0.0
 11
2.0528924462
 21
4.9960468619
 31
0.0
  0
LINE
  5
286
330
1F
100
AcDbEntity
  8
0
  6
Continuous
 62
     7
370
     0
100
AcDbLine
 10
2.0381891234
 20
5.0387327796
 30
0.0
 11
2.043885326
 21
5.0399076213
 31
0.0
  0
SPLINE
  5
287
330
1F
100
AcDbEntity
  8
0
  6
Continuous
 62
     7
370
     0
100
AcDbSpline
210
0.0
220
0.0
230
1.0
 70
     8
 71
     3
 72
     9
 73
     5
 74
     0
 42
0.00000001
 43
0.00000001
 40
0.0
 40
0.0
 40
0.0
 40
0.0
 40
0.5607292063909637
 40
1.0
 40
1.0
 40
1.0
 40
1.0
 10
1.910226975763117
 20
5.039615268310124
 30
0.0
 10
1.912772981123787
 20
5.039999413689558
 30
0.0
 10
1.917313506802942
 20
5.040684495499201
 30
0.0
 10
1.921529625624111
 20
5.038933623611475
 30
0.0
 10
1.923381643484636
 20
5.038164516727846
 30
0.0
  0
SPLINE
  5
288
330
1F
100
AcDbEntity
  8
0
  6
Continuous
 62
     7
370
     0
100
AcDbSpline
210
0.0
220
0.0
230
1.0
 70
     8
 71
     3
 72
    10
 73
     6
 74
     0
 42
0.00000001
 43
0.00000001
 40
0.0
 40
0.0
 40
0.0
 40
0.0
 40
0.2815201925109299
 40
0.5625297880447832
 40
1.0
 40
1.0
 40
1.0
 40
1.0
 10
1.904584175130206
 20
5.048586787297467
 30
0.0
 10
1.905467593840495
 20
5.048029892634174
 30
0.0
 10
1.907232828992621
 20
5.046917113354964
 30
0.0
 10
1.909730179940212
 20
5.043988842390315
 30
0.0
 10
1.910038962985498
 20
5.041270450928472
 30
0.0
 10
1.910226975763117
 20
5.039615268310124
 30
0.0
  0
SPLINE
  5
289
330
1F
100
AcDbEntity
  8
0
  6
Continuous
 62
     7
370
     0
100
AcDbSpline
210
0.0
220
0.0
230
1.0
 70
     8
 71
     3
 72
     9
 73
     5
 74
     0
 42
0.00000001
 43
0.00000001
 40
0.0
 40
0.0
 40
0.0
 40
0.0
 40
0.5606379252688954
 40
1.0
 40
1.0
 40
1.0
 40
1.0
 10
1.893049365003623
 20
5.050019738246833
 30
0.0
 10
1.895285211702314
 20
5.050300922495694
 30
0.0
 10
1.89927325210757
 20
5.050802465891505
 30
0.0
 10
1.90296302767959
 20
5.049263118264569
 30
0.0
 10
1.904584175130206
 20
5.048586787297467
 30
0.0
  0
LINE
  5
28A
330
1F
100
AcDbEntity
  8
0
  6
Continuous
 62
     7
370
     0
100
AcDbLine
 10
1.8948294283
 20
5.0532416528
 30
0.0
 11
1.893049365
 21
5.0500197382
 31
0.0
  0
LINE
  5
28B
330
1F
100
AcDbEntity
  8
0
  6
Continuous
 62
     7
370
     0
100
AcDbLine
 10
1.889702846
 20
5.0560897541
 30
0.0
 11
1.8948294283
 21
5.0532416528
 31
0.0
  0
LINE
  5
28C
330
1F
100
AcDbEntity
  8
0
  6
Continuous
 62
     7
370
     0
100
AcDbLine
 10
1.8736021735
 20
5.0270391212
 30
0.0
 11
1.889702846
 21
5.0560897541
 31
0.0
  0
LINE
  5
28D
330
1F
100
AcDbEntity
  8
0
  6
Continuous
 62
     7
370
     0
100
AcDbLine
 10
1.8787287558
 20
5.0241910199
 30
0.0
 11
1.8736021735
 21
5.0270391212
 31
0.0
  0
LINE
  5
28E
330
1F
100
AcDbEntity
  8
0
  6
Continuous
 62
     7
370
     0
100
AcDbLine
 10
1.8906907811
 20
5.045765387
 30
0.0
 11
1.8787287558
 21
5.0241910199
 31
0.0
  0
SPLINE
  5
28F
330
1F
100
AcDbEntity
  8
0
  6
Continuous
 62
     7
370
     0
100
AcDbSpline
210
0.0
220
0.0
230
1.0
 70
     8
 71
     3
 72
     9
 73
     5
 74
     0
 42
0.00000001
 43
0.00000001
 40
0.0
 40
0.0
 40
0.0
 40
0.0
 40
0.5575478592690601
 40
1.0
 40
1.0
 40
1.0
 40
1.0
 10
1.900543431459319
 20
5.044866455018985
 30
0.0
 10
1.898741799982052
 20
5.045433369879309
 30
0.0
 10
1.895510451412928
 20
5.046450170232678
 30
0.0
 10
1.892169147993584
 20
5.04597543472338
 30
0.0
 10
1.890690781142863
 20
5.04576538698101
 30
0.0
  0
SPLINE
  5
290
330
1F
100
AcDbEntity
  8
0
  6
Continuous
 62
     7
370
     0
100
AcDbSpline
210
0.0
220
0.0
230
1.0
 70
     8
 71
     3
 72
    10
 73
     6
 74
     0
 42
0.00000001
 43
0.00000001
 40
0.0
 40
0.0
 40
0.0
 40
0.0
 40
0.2796815014044359
 40
0.5592360114418379
 40
1.0
 40
1.0
 40
1.0
 40
1.0
 10
1.904183660889699
 20
5.039935679702529
 30
0.0
 10
1.904134852783271
 20
5.040546618039401
 30
0.0
 10
1.904037258732081
 20
5.041768217312264
 30
0.0
 10
1.902701589698548
 20
5.043578137370586
 30
0.0
 10
1.901362700067697
 20
5.044377390691928
 30
0.0
 10
1.900543431459319
 20
5.044866455018985
 30
0.0
  0
SPLINE
  5
291
330
1F
100
AcDbEntity
  8
0
  6
Continuous
 62
     7
370
     0
100
AcDbSpline
210
0.0
220
0.0
230
1.0
 70
     8
 71
     3
 72
     9
 73
     5
 74
     0
 42
0.00000001
 43
0.00000001
 40
0.0
 40
0.0
 40
0.0
 40
0.0
 40
0.5613033928974633
 40
1.0
 40
1.0
 40
1.0
 40
1.0
 10
1.90151356595299
 20
5.033064635398732
 30
0.0
 10
1.902204950488478
 20
5.034278459365622
 30
0.0
 10
1.903436698851728
 20
5.036440968950008
 30
0.0
 10
1.903955892428945
 20
5.038870050060834
 30
0.0
 10
1.904183660889699
 20
5.039935679702529
 30
0.0
  0
LINE
  5
292
330
1F
100
AcDbEntity
  8
0
  6
Continuous
 62
     7
370
     0
100
AcDbLine
 10
1.8923996419
 20
5.0166168506
 30
0.0
 11
1.901513566
 21
5.0330646354
 31
0.0
  0
LINE
  5
293
330
1F
100
AcDbEntity
  8
0
  6
Continuous
 62
     7
370
     0
100
AcDbLine
 10
1.8975262242
 20
5.0137776496
 30
0.0
 11
1.8923996419
 21
5.0166168506
 31
0.0
  0
LINE
  5
294
330
1F
100
AcDbEntity
  8
0
  6
Continuous
 62
     7
370
     0
100
AcDbLine
 10
1.9077793887
 20
5.0322725072
 30
0.0
 11
1.8975262242
 21
5.0137776496
 31
0.0
  0
SPLINE
  5
295
330
1F
100
AcDbEntity
  8
0
  6
Continuous
 62
     7
370
     0
100
AcDbSpline
210
0.0
220
0.0
230
1.0
 70
     8
 71
     3
 72
     9
 73
     5
 74
     0
 42
0.00000001
 43
0.00000001
 40
0.0
 40
0.0
 40
0.0
 40
0.0
 40
0.5600087654518017
 40
0.9999999999999999
 40
0.9999999999999999
 40
0.9999999999999999
 40
0.9999999999999999
 10
1.909221240003623
 20
5.035316415462023
 30
0.0
 10
1.908977050738329
 20
5.034736274678822
 30
0.0
 10
1.908541005304115
 20
5.03370032520983
 30
0.0
 10
1.908012101691342
 20
5.032708778913298
 30
0.0
 10
1.907779388737801
 20
5.032272507234175
 30
0.0
  0
SPLINE
  5
296
330
1F
100
AcDbEntity
  8
0
  6
Continuous
 62
     7
370
     0
100
AcDbSpline
210
0.0
220
0.0
230
1.0
 70
     8
 71
     3
 72
     9
 73
     5
 74
     0
 42
0.00000001
 43
0.00000001
 40
0.0
 40
0.0
 40
0.0
 40
0.0
 40
0.5574887717256999
 40
1.0
 40
1.0
 40
1.0
 40
1.0
 10
1.91934089981375
 20
5.03445308476582
 30
0.0
 10
1.917488327751697
 20
5.035026297423203
 30
0.0
 10
1.914165261609363
 20
5.036054502270462
 30
0.0
 10
1.910737890294095
 20
5.035542834288978
 30
0.0
 10
1.909221240003623
 20
5.035316415462023
 30
0.0
  0
SPLINE
  5
297
330
1F
100
AcDbEntity
  8
0
  6
Continuous
 62
     7
370
     0
100
AcDbSpline
210
0.0
220
0.0
230
1.0
 70
     8
 71
     3
 72
    10
 73
     6
 74
     0
 42
0.00000001
 43
0.00000001
 40
0.0
 40
0.0
 40
0.0
 40
0.0
 40
0.2796589837244264
 40
0.5592246942656252
 40
1.0
 40
1.0
 40
1.0
 40
1.0
 10
1.922972228927674
 20
5.029495608499998
 30
0.0
 10
1.922917169914357
 20
5.030105452716814
 30
0.0
 10
1.922807070251265
 20
5.03132493775233
 30
0.0
 10
1.921504066834476
 20
5.033157459994556
 30
0.0
 10
1.920162066984378
 20
5.033961248251385
 30
0.0
 10
1.91934089981375
 20
5.03445308476582
 30
0.0
  0
SPLINE
  5
298
330
1F
100
AcDbEntity
  8
0
  6
Continuous
 62
     7
370
     0
100
AcDbSpline
210
0.0
220
0.0
230
1.0
 70
     8
 71
     3
 72
     9
 73
     5
 74
     0
 42
0.00000001
 43
0.00000001
 40
0.0
 40
0.0
 40
0.0
 40
0.0
 40
0.5612996773080573
 40
0.9999999999999999
 40
0.9999999999999999
 40
0.9999999999999999
 40
0.9999999999999999
 10
1.920311034307421
 20
5.022642364829112
 30
0.0
 10
1.92099983988843
 20
5.023853239013405
 30
0.0
 10
1.922227001792945
 20
5.02601050764057
 30
0.0
 10
1.922744988147
 20
5.02843290291251
 30
0.0
 10
1.922972228927674
 20
5.029495608499998
 30
0.0
  0
LINE
  5
299
330
1F
100
AcDbEntity
  8
0
  6
Continuous
 62
     7
370
     0
100
AcDbLine
 10
1.9111971103
 20
5.00619458
 30
0.0
 11
1.9203110343
 21
5.0226423648
 31
0.0
  0
LINE
  5
29A
330
1F
100
AcDbEntity
  8
0
  6
Continuous
 62
     7
370
     0
100
AcDbLine
 10
1.9163236925
 20
5.0033553791
 30
0.0
 11
1.9111971103
 21
5.00619458
 31
0.0
  0
LINE
  5
29B
330
1F
100
AcDbEntity
  8
0
  6
Continuous
 62
     7
370
     0
100
AcDbLine
 10
1.9266925612
 20
5.0220638443
 30
0.0
 11
1.9163236925
 21
5.0033553791
 31
0.0
  0
SPLINE
  5
29C
330
1F
100
AcDbEntity
  8
0
  6
Continuous
 62
     7
370
     0
100
AcDbSpline
210
0.0
220
0.0
230
1.0
 70
     8
 71
     3
 72
    11
 73
     7
 74
     0
 42
0.00000001
 43
0.00000001
 40
0.0
 40
0.0
 40
0.0
 40
0.0
 40
0.2801485780538379
 40
0.5578027760920494
 40
0.778596540906768
 40
1.0
 40
1.0
 40
1.0
 40
1.0
 10
1.923381643484636
 20
5.038164516727846
 30
0.0
 10
1.924880054427918
 20
5.037191021091327
 30
0.0
 10
1.927863534799998
 20
5.035252697604779
 30
0.0
 10
1.929377557527152
 20
5.030235230070423
 30
0.0
 10
1.928529087519218
 20
5.025769786309334
 30
0.0
 10
1.927305299090313
 20
5.023300293241618
 30
0.0
 10
1.926692561206155
 20
5.022063844259491
 30
0.0
  0
LINE
  5
29D
330
1F
100
AcDbEntity
  8
0
  6
Continuous
 62
     7
370
     0
100
AcDbLine
 10
1.8039575867
 20
5.2493706312
 30
0.0
 11
1.768641131
 21
5.2545862167
 31
0.0
  0
LINE
  5
29E
330
1F
100
AcDbEntity
  8
0
  6
Continuous
 62
     7
370
     0
100
AcDbLine
 10
1.7972289475
 20
5.203801011
 30
0.0
 11
1.8039575867
 21
5.2493706312
 31
0.0
  0
LINE
  5
29F
330
1F
100
AcDbEntity
  8
0
  6
Continuous
 62
     7
370
     0
100
AcDbLine
 10
1.7619124918
 20
5.2090165964
 30
0.0
 11
1.7972289475
 21
5.203801011
 31
0.0
  0
LINE
  5
2A0
330
1F
100
AcDbEntity
  8
0
  6
Continuous
 62
     7
370
     0
100
AcDbLine
 10
1.7602392323
 20
5.1976241913
 30
0.0
 11
1.7619124918
 21
5.2090165964
 31
0.0
  0
LINE
  5
2A1
330
1F
100
AcDbEntity
  8
0
  6
Continuous
 62
     7
370
     0
100
AcDbLine
 10
1.8490999918
 20
5.1845051249
 30
0.0
 11
1.7602392323
 21
5.1976241913
 31
0.0
  0
LINE
  5
2A2
330
1F
100
AcDbEntity
  8
0
  6
Continuous
 62
     7
370
     0
100
AcDbLine
 10
1.8507732513
 20
5.1958975299
 30
0.0
 11
1.8490999918
 21
5.1845051249
 31
0.0
  0
LINE
  5
2A3
330
1F
100
AcDbEntity
  8
0
  6
Continuous
 62
     7
370
     0
100
AcDbLine
 10
1.8074821121
 20
5.2022879572
 30
0.0
 11
1.8507732513
 21
5.1958975299
 31
0.0
  0
LINE
  5
2A4
330
1F
100
AcDbEntity
  8
0
  6
Continuous
 62
     7
370
     0
100
AcDbLine
 10
1.8142107513
 20
5.2478575774
 30
0.0
 11
1.8074821121
 21
5.2022879572
 31
0.0
  0
LINE
  5
2A5
330
1F
100
AcDbEntity
  8
0
  6
Continuous
 62
     7
370
     0
100
AcDbLine
 10
1.8575018905
 20
5.2414671502
 30
0.0
 11
1.8142107513
 21
5.2478575774
 31
0.0
  0
LINE
  5
2A6
330
1F
100
AcDbEntity
  8
0
  6
Continuous
 62
     7
370
     0
100
AcDbLine
 10
1.8591929507
 20
5.2528595553
 30
0.0
 11
1.8575018905
 21
5.2414671502
 31
0.0
  0
LINE
  5
2A7
330
1F
100
AcDbEntity
  8
0
  6
Continuous
 62
     7
370
     0
100
AcDbLine
 10
1.7703321912
 20
5.2659786217
 30
0.0
 11
1.8591929507
 21
5.2528595553
 31
0.0
  0
LINE
  5
2A8
330
1F
100
AcDbEntity
  8
0
  6
Continuous
 62
     7
370
     0
100
AcDbLine
 10
1.768641131
 20
5.2545862167
 30
0.0
 11
1.7703321912
 21
5.2659786217
 31
0.0
  0
SPLINE
  5
2A9
330
1F
100
AcDbEntity
  8
0
  6
Continuous
 62
     7
370
     0
100
AcDbSpline
210
0.0
220
0.0
230
1.0
 70
     8
 71
     3
 72
    11
 73
     7
 74
     0
 42
0.00000001
 43
0.00000001
 40
0.0
 40
0.0
 40
0.0
 40
0.0
 40
0.2798950578101054
 40
0.559614842707596
 40
0.7797461634356244
 40
0.9999999999999999
 40
0.9999999999999999
 40
0.9999999999999999
 40
0.9999999999999999
 10
1.971005320021355
 20
5.425065975612525
 30
0.0
 10
1.97296188250358
 20
5.424152751490212
 30
0.0
 10
1.976873782250238
 20
5.422326875115102
 30
0.0
 10
1.981164698701873
 20
5.417948178834657
 30
0.0
 10
1.983694689896355
 20
5.412968115603803
 30
0.0
 10
1.984443901261926
 20
5.409664991035008
 30
0.0
 10
1.984818611160596
 20
5.40801296928341
 30
0.0
  0
SPLINE
  5
2AA
330
1F
100
AcDbEntity
  8
0
  6
Continuous
 62
     7
370
     0
100
AcDbSpline
210
0.0
220
0.0
230
1.0
 70
     8
 71
     3
 72
    10
 73
     6
 74
     0
 42
0.00000001
 43
0.00000001
 40
0.0
 40
0.0
 40
0.0
 40
0.0
 40
0.5599495596910908
 40
0.7800085905937705
 40
1.0
 40
1.0
 40
1.0
 40
1.0
 10
1.947081269388444
 20
5.42538638700493
 30
0.0
 10
1.951553958040218
 20
5.42612503978061
 30
0.0
 10
1.957784404177832
 20
5.427153981585325
 30
0.0
 10
1.965910030920403
 20
5.426680115995591
 30
0.0
 10
1.969307064325698
 20
5.425603967283817
 30
0.0
 10
1.971005320021355
 20
5.425065975612525
 30
0.0
  0
LINE
  5
2AB
330
1F
100
AcDbEntity
  8
0
  6
Continuous
 62
     7
370
     0
100
AcDbLine
 10
1.9222493865
 20
5.4206870199
 30
0.0
 11
1.9470812694
 21
5.425386387
 31
0.0
  0
LINE
  5
2AC
330
1F
100
AcDbEntity
  8
0
  6
Continuous
 62
     7
370
     0
100
AcDbLine
 10
1.9388395764
 20
5.3329655009
 30
0.0
 11
1.9222493865
 21
5.4206870199
 31
0.0
  0
LINE
  5
2AD
330
1F
100
AcDbEntity
  8
0
  6
Continuous
 62
     7
370
     0
100
AcDbLine
 10
1.9502319814
 20
5.3351193775
 30
0.0
 11
1.9388395764
 21
5.3329655009
 31
0.0
  0
LINE
  5
2AE
330
1F
100
AcDbEntity
  8
0
  6
Continuous
 62
     7
370
     0
100
AcDbLine
 10
1.9435567441
 20
5.3704358332
 30
0.0
 11
1.9502319814
 21
5.3351193775
 31
0.0
  0
LINE
  5
2AF
330
1F
100
AcDbEntity
  8
0
  6
Continuous
 62
     7
370
     0
100
AcDbLine
 10
1.9619447979
 20
5.3739069566
 30
0.0
 11
1.9435567441
 21
5.3704358332
 31
0.0
  0
LINE
  5
2B0
330
1F
100
AcDbEntity
  8
0
  6
Continuous
 62
     7
370
     0
100
AcDbLine
 10
1.9983648928
 20
5.3442155009
 30
0.0
 11
1.9619447979
 21
5.3739069566
 31
0.0
  0
LINE
  5
2B1
330
1F
100
AcDbEntity
  8
0
  6
Continuous
 62
     7
370
     0
100
AcDbLine
 10
2.0117509688
 20
5.3467609914
 30
0.0
 11
1.9983648928
 21
5.3442155009
 31
0.0
  0
LINE
  5
2B2
330
1F
100
AcDbEntity
  8
0
  6
Continuous
 62
     7
370
     0
100
AcDbLine
 10
1.9710943232
 20
5.3792293459
 30
0.0
 11
2.0117509688
 21
5.3467609914
 31
0.0
  0
SPLINE
  5
2B3
330
1F
100
AcDbEntity
  8
0
  6
Continuous
 62
     7
370
     0
100
AcDbSpline
210
0.0
220
0.0
230
1.0
 70
     8
 71
     3
 72
    11
 73
     7
 74
     0
 42
0.00000001
 43
0.00000001
 40
0.0
 40
0.0
 40
0.0
 40
0.0
 40
0.2799509332426939
 40
0.5592003780462913
 40
0.779506517146452
 40
1.0
 40
1.0
 40
1.0
 40
1.0
 10
1.984818611160596
 20
5.40801296928341
 30
0.0
 10
1.9851885324698
 20
5.404813589336135
 30
0.0
 10
1.985927448156053
 20
5.398422846303747
 30
0.0
 10
1.982576015577969
 20
5.389870908527267
 30
0.0
 10
1.977344326944816
 20
5.383459754940048
 30
0.0
 10
1.973178247979064
 20
5.380639881714196
 30
0.0
 10
1.971094323185912
 20
5.379229345865689
 30
0.0
  0
LINE
  5
2B4
330
1F
100
AcDbEntity
  8
0
  6
Continuous
 62
     7
370
     0
100
AcDbLine
 10
2.0754973905
 20
5.3235019245
 30
0.0
 11
2.1635037197
 21
5.358925184
 31
0.0
  0
LINE
  5
2B5
330
1F
100
AcDbEntity
  8
0
  6
Continuous
 62
     7
370
     0
100
AcDbLine
 10
2.0842553019
 20
5.3138005795
 30
0.0
 11
2.0754973905
 21
5.3235019245
 31
0.0
  0
LINE
  5
2B6
330
1F
100
AcDbEntity
  8
0
  6
Continuous
 62
     7
370
     0
100
AcDbLine
 10
2.1083217576
 20
5.3238045352
 30
0.0
 11
2.0842553019
 21
5.3138005795
 31
0.0
  0
LINE
  5
2B7
330
1F
100
AcDbEntity
  8
0
  6
Continuous
 62
     7
370
     0
100
AcDbLine
 10
2.1336520583
 20
5.295786339
 30
0.0
 11
2.1083217576
 21
5.3238045352
 31
0.0
  0
LINE
  5
2B8
330
1F
100
AcDbEntity
  8
0
  6
Continuous
 62
     7
370
     0
100
AcDbLine
 10
2.1212806184
 20
5.2728413232
 30
0.0
 11
2.1336520583
 21
5.295786339
 31
0.0
  0
LINE
  5
2B9
330
1F
100
AcDbEntity
  8
0
  6
Continuous
 62
     7
370
     0
100
AcDbLine
 10
2.1300563304
 20
5.2631221776
 30
0.0
 11
2.1212806184
 21
5.2728413232
 31
0.0
  0
LINE
  5
2BA
330
1F
100
AcDbEntity
  8
0
  6
Continuous
 62
     7
370
     0
100
AcDbLine
 10
2.1741840994
 20
5.3471055637
 30
0.0
 11
2.1300563304
 21
5.2631221776
 31
0.0
  0
LINE
  5
2BB
330
1F
100
AcDbEntity
  8
0
  6
Continuous
 62
     7
370
     0
100
AcDbLine
 10
2.1635037197
 20
5.358925184
 30
0.0
 11
2.1741840994
 21
5.3471055637
 31
0.0
  0
SPLINE
  5
2BC
330
1F
100
AcDbEntity
  8
0
  6
Continuous
 62
     7
370
     0
100
AcDbSpline
210
0.0
220
0.0
230
1.0
 70
     8
 71
     3
 72
    11
 73
     7
 74
     0
 42
0.00000001
 43
0.00000001
 40
0.0
 40
0.0
 40
0.0
 40
0.0
 40
0.2803164478087816
 40
0.5583113862632766
 40
0.7789222137432988
 40
1.0
 40
1.0
 40
1.0
 40
1.0
 10
2.198969615205932
 20
5.136098884283093
 30
0.0
 10
2.197091111873904
 20
5.136737005669147
 30
0.0
 10
2.193349662495521
 20
5.138007963682623
 30
0.0
 10
2.187771894490042
 20
5.136484871581948
 30
0.0
 10
2.183988820089333
 20
5.133109677409615
 30
0.0
 10
2.18210959047456
 20
5.130676915256918
 30
0.0
 10
2.18116898229454
 20
5.129459248207143
 30
0.0
  0
SPLINE
  5
2BD
330
1F
100
AcDbEntity
  8
0
  6
Continuous
 62
     7
370
     0
100
AcDbSpline
210
0.0
220
0.0
230
1.0
 70
     8
 71
     3
 72
    11
 73
     7
 74
     0
 42
0.00000001
 43
0.00000001
 40
0.0
 40
0.0
 40
0.0
 40
0.0
 40
0.280979995668369
 40
0.5609401515004389
 40
0.780650917309507
 40
1.0
 40
1.0
 40
1.0
 40
1.0
 10
2.20507523229454
 20
5.111053393776763
 30
0.0
 10
2.205969347215212
 20
5.113602591225648
 30
0.0
 10
2.207754331793447
 20
5.118691733603133
 30
0.0
 10
2.207448583825201
 20
5.126296863617262
 30
0.0
 10
2.204563578045185
 20
5.132912258075397
 30
0.0
 10
2.200833245177015
 20
5.135037259049255
 30
0.0
 10
2.198969615205932
 20
5.136098884283093
 30
0.0
  0
SPLINE
  5
2BE
330
1F
100
AcDbEntity
  8
0
  6
Continuous
 62
     7
370
     0
100
AcDbSpline
210
0.0
220
0.0
230
1.0
 70
     8
 71
     3
 72
    11
 73
     7
 74
     0
 42
0.00000001
 43
0.00000001
 40
0.0
 40
0.0
 40
0.0
 40
0.0
 40
0.2796590316000636
 40
0.5597354471173153
 40
0.7798992367480442
 40
1.0
 40
1.0
 40
1.0
 40
1.0
 10
2.183429662674287
 20
5.087467555169169
 30
0.0
 10
2.186090890935187
 20
5.088977495160237
 30
0.0
 10
2.19141731927177
 20
5.091999628689002
 30
0.0
 10
2.197367037871853
 20
5.098180531013361
 30
0.0
 10
2.202047597786958
 20
5.104510774361713
 30
0.0
 10
2.204066117112859
 20
5.108872728784622
 30
0.0
 10
2.20507523229454
 20
5.111053393776763
 30
0.0
  0
LINE
  5
2BF
330
1F
100
AcDbEntity
  8
0
  6
Continuous
 62
     7
370
     0
100
AcDbLine
 10
2.1831270519
 20
5.086702128
 30
0.0
 11
2.1834296627
 21
5.0874675552
 31
0.0
  0
LINE
  5
2C0
330
1F
100
AcDbEntity
  8
0
  6
Continuous
 62
     7
370
     0
100
AcDbLine
 10
2.1965309285
 20
5.0812017324
 30
0.0
 11
2.1831270519
 21
5.086702128
 31
0.0
  0
SPLINE
  5
2C1
330
1F
100
AcDbEntity
  8
0
  6
Continuous
 62
     7
370
     0
100
AcDbSpline
210
0.0
220
0.0
230
1.0
 70
     8
 71
     3
 72
    10
 73
     6
 74
     0
 42
0.00000001
 43
0.00000001
 40
0.0
 40
0.0
 40
0.0
 40
0.0
 40
0.2801202439649386
 40
0.5602022777115833
 40
1.0
 40
1.0
 40
1.0
 40
1.0
 10
2.214189156345173
 20
5.107315260865372
 30
0.0
 10
2.212991670592819
 20
5.104602681642878
 30
0.0
 10
2.210596862432934
 20
5.099177893211293
 30
0.0
 10
2.204929448783247
 20
5.090181301535647
 30
0.0
 10
2.199715995174225
 20
5.084607156852528
 30
0.0
 10
2.196530928497072
 20
5.081201732384359
 30
0.0
  0
SPLINE
  5
2C2
330
1F
100
AcDbEntity
  8
0
  6
Continuous
 62
     7
370
     0
100
AcDbSpline
210
0.0
220
0.0
230
1.0
 70
     8
 71
     3
 72
    12
 73
     8
 74
     0
 42
0.00000001
 43
0.00000001
 40
0.0
 40
0.0
 40
0.0
 40
0.0
 40
0.1863558885048049
 40
0.3726698693064227
 40
0.5594669031794747
 40
0.7795467939387579
 40
1.0
 40
1.0
 40
1.0
 40
1.0
 10
2.202547542421122
 20
5.14793630516917
 30
0.0
 10
2.205168635765582
 20
5.146559907793693
 30
0.0
 10
2.21041023302316
 20
5.143807422566913
 30
0.0
 10
2.215445853046492
 20
5.136222871177706
 30
0.0
 10
2.217849720936682
 20
5.127161005169005
 30
0.0
 10
2.217623097098365
 20
5.117135348270188
 30
0.0
 10
2.215334449742578
 20
5.110590472080422
 30
0.0
 10
2.214189156345173
 20
5.107315260865372
 30
0.0
  0
SPLINE
  5
2C3
330
1F
100
AcDbEntity
  8
0
  6
Continuous
 62
     7
370
     0
100
AcDbSpline
210
0.0
220
0.0
230
1.0
 70
     8
 71
     3
 72
    12
 73
     8
 74
     0
 42
0.00000001
 43
0.00000001
 40
0.0
 40
0.0
 40
0.0
 40
0.0
 40
0.1871320511097588
 40
0.3740416152583949
 40
0.5606500212684032
 40
0.7800094527395813
 40
1.0
 40
1.0
 40
1.0
 40
1.0
 10
2.170595406345173
 20
5.13606328301727
 30
0.0
 10
2.1719865912682
 20
5.137935244184931
 30
0.0
 10
2.174767307092379
 20
5.141676940888945
 30
0.0
 10
2.180010267714461
 20
5.146379582899266
 30
0.0
 10
2.186670502251741
 20
5.149789959654647
 30
0.0
 10
2.194704135685063
 20
5.150550780321103
 30
0.0
 10
2.199930570959136
 20
5.148808631071793
 30
0.0
 10
2.202547542421122
 20
5.14793630516917
 30
0.0
  0
SPLINE
  5
2C4
330
1F
100
AcDbEntity
  8
0
  6
Continuous
 62
     7
370
     0
100
AcDbSpline
210
0.0
220
0.0
230
1.0
 70
     8
 71
     3
 72
     9
 73
     5
 74
     0
 42
0.00000001
 43
0.00000001
 40
0.0
 40
0.0
 40
0.0
 40
0.0
 40
0.5599164338166542
 40
1.0
 40
1.0
 40
1.0
 40
1.0
 10
2.158989393686945
 20
5.118494058333726
 30
0.0
 10
2.161186089642313
 20
5.121753001655375
 30
0.0
 10
2.165109346440464
 20
5.127573411853798
 30
0.0
 10
2.168918889187521
 20
5.133468813594944
 30
0.0
 10
2.170595406345173
 20
5.13606328301727
 30
0.0
  0
SPLINE
  5
2C5
330
1F
100
AcDbEntity
  8
0
  6
Continuous
 62
     7
370
     0
100
AcDbSpline
210
0.0
220
0.0
230
1.0
 70
     8
 71
     3
 72
    11
 73
     7
 74
     0
 42
0.00000001
 43
0.00000001
 40
0.0
 40
0.0
 40
0.0
 40
0.0
 40
0.28047867066893
 40
0.5580056706031428
 40
0.7788503692392115
 40
1.0
 40
1.0
 40
1.0
 40
1.0
 10
2.142132194319857
 20
5.112815656434992
 30
0.0
 10
2.143874503204402
 20
5.11218686376251
 30
0.0
 10
2.147340785453956
 20
5.110935895637046
 30
0.0
 10
2.152571976771357
 20
5.112185194372111
 30
0.0
 10
2.156249668068102
 20
5.115164983016137
 30
0.0
 10
2.158075731879863
 20
5.117383856293909
 30
0.0
 10
2.158989393686945
 20
5.118494058333726
 30
0.0
  0
SPLINE
  5
2C6
330
1F
100
AcDbEntity
  8
0
  6
Continuous
 62
     7
370
     0
100
AcDbSpline
210
0.0
220
0.0
230
1.0
 70
     8
 71
     3
 72
    13
 73
     9
 74
     0
 42
0.00000001
 43
0.00000001
 40
0.0
 40
0.0
 40
0.0
 40
0.0
 40
0.2502797123294286
 40
0.499880767136523
 40
0.6249966674132238
 40
0.7499455431723475
 40
0.8749231628230363
 40
1.0
 40
1.0
 40
1.0
 40
1.0
 10
2.135830770269224
 20
5.140139627953976
 30
0.0
 10
2.134928549937718
 20
5.137673127119069
 30
0.0
 10
2.133126555731951
 20
5.132746813603598
 30
0.0
 10
2.132707171564489
 20
5.126058268941059
 30
0.0
 10
2.133953704609815
 20
5.120936676565332
 30
0.0
 10
2.13577793673669
 20
5.117411791370893
 30
0.0
 10
2.138575523118463
 20
5.114536266128016
 30
0.0
 10
2.140946323687738
 20
5.113389344692567
 30
0.0
 10
2.142132194319857
 20
5.112815656434992
 30
0.0
  0
SPLINE
  5
2C7
330
1F
100
AcDbEntity
  8
0
  6
Continuous
 62
     7
370
     0
100
AcDbSpline
210
0.0
220
0.0
230
1.0
 70
     8
 71
     3
 72
    11
 73
     7
 74
     0
 42
0.00000001
 43
0.00000001
 40
0.0
 40
0.0
 40
0.0
 40
0.0
 40
0.2799208809158742
 40
0.5598752793059358
 40
0.7799982559586042
 40
0.9999999999999999
 40
0.9999999999999999
 40
0.9999999999999999
 40
0.9999999999999999
 10
2.159256403180616
 20
5.164793504536258
 30
0.0
 10
2.156424928342721
 20
5.163200312737
 30
0.0
 10
2.150761639628686
 20
5.160013738371132
 30
0.0
 10
2.144344849747335
 20
5.153577510765778
 30
0.0
 10
2.139138840369125
 20
5.147039797748586
 30
0.0
 10
2.136933257792855
 20
5.14243926214544
 30
0.0
 10
2.135830770269224
 20
5.140139627953976
 30
0.0
  0
LINE
  5
2C8
330
1F
100
AcDbEntity
  8
0
  6
Continuous
 62
     7
370
     0
100
AcDbLine
 10
2.1595590139
 20
5.1655589318
 30
0.0
 11
2.1592564032
 21
5.1647935045
 31
0.0
  0
LINE
  5
2C9
330
1F
100
AcDbEntity
  8
0
  6
Continuous
 62
     7
370
     0
100
AcDbLine
 10
2.1457101215
 20
5.1712373337
 30
0.0
 11
2.1595590139
 21
5.1655589318
 31
0.0
  0
SPLINE
  5
2CA
330
1F
100
AcDbEntity
  8
0
  6
Continuous
 62
     7
370
     0
100
AcDbSpline
210
0.0
220
0.0
230
1.0
 70
     8
 71
     3
 72
    10
 73
     6
 74
     0
 42
0.00000001
 43
0.00000001
 40
0.0
 40
0.0
 40
0.0
 40
0.0
 40
0.2801116169066827
 40
0.5601417324768168
 40
0.9999999999999999
 40
0.9999999999999999
 40
0.9999999999999999
 40
0.9999999999999999
 10
2.126734646851502
 20
5.14389556149828
 30
0.0
 10
2.127996202164805
 20
5.146764464271406
 30
0.0
 10
2.130518945729004
 20
5.152501435081088
 30
0.0
 10
2.136598523098592
 20
5.161963866061408
 30
0.0
 10
2.142254356519044
 20
5.167720176359524
 30
0.0
 10
2.145710121535047
 20
5.171237333650182
 30
0.0
  0
SPLINE
  5
2CB
330
1F
100
AcDbEntity
  8
0
  6
Continuous
 62
     7
370
     0
100
AcDbSpline
210
0.0
220
0.0
230
1.0
 70
     8
 71
     3
 72
    10
 73
     6
 74
     0
 42
0.00000001
 43
0.00000001
 40
0.0
 40
0.0
 40
0.0
 40
0.0
 40
0.2800295597535697
 40
0.5601079928220334
 40
0.9999999999999999
 40
0.9999999999999999
 40
0.9999999999999999
 40
0.9999999999999999
 10
2.12452736837049
 20
5.116553789346384
 30
0.0
 10
2.123931154767184
 20
5.119102430437592
 30
0.0
 10
2.122738623503932
 20
5.124200157432112
 30
0.0
 10
2.123077330132007
 20
5.133656310232809
 30
0.0
 10
2.125347564791731
 20
5.140012200328023
 30
0.0
 10
2.126734646851502
 20
5.14389556149828
 30
0.0
  0
SPLINE
  5
2CC
330
1F
100
AcDbEntity
  8
0
  6
Continuous
 62
     7
370
     0
100
AcDbSpline
210
0.0
220
0.0
230
1.0
 70
     8
 71
     3
 72
    11
 73
     7
 74
     0
 42
0.00000001
 43
0.00000001
 40
0.0
 40
0.0
 40
0.0
 40
0.0
 40
0.2798500159921189
 40
0.5597945227381182
 40
0.7799254199541379
 40
1.0
 40
1.0
 40
1.0
 40
1.0
 10
2.139070485459097
 20
5.100764627953978
 30
0.0
 10
2.137217498238409
 20
5.101692668852474
 30
0.0
 10
2.133510898139896
 20
5.103549064000471
 30
0.0
 10
2.129367720423166
 20
5.107639718516679
 30
0.0
 10
2.126293414071205
 20
5.112004435691474
 30
0.0
 10
2.125116000060369
 20
5.115037467470533
 30
0.0
 10
2.12452736837049
 20
5.116553789346384
 30
0.0
  0
SPLINE
  5
2CD
330
1F
100
AcDbEntity
  8
0
  6
Continuous
 62
     7
370
     0
100
AcDbSpline
210
0.0
220
0.0
230
1.0
 70
     8
 71
     3
 72
    12
 73
     8
 74
     0
 42
0.00000001
 43
0.00000001
 40
0.0
 40
0.0
 40
0.0
 40
0.0
 40
0.1870563071935047
 40
0.3739681309169144
 40
0.5605496043376946
 40
0.7798748984764577
 40
1.0
 40
1.0
 40
1.0
 40
1.0
 10
2.168316925332515
 20
5.110216764029929
 30
0.0
 10
2.166981798979017
 20
5.108602626918963
 30
0.0
 10
2.164312577532027
 20
5.105375599466705
 30
0.0
 10
2.159388623904986
 20
5.101422676437354
 30
0.0
 10
2.15329681312837
 20
5.098559847323499
 30
0.0
 10
2.146063069151781
 20
5.098320799494584
 30
0.0
 10
2.141404173114007
 20
5.099949030664471
 30
0.0
 10
2.139070485459097
 20
5.100764627953978
 30
0.0
  0
SPLINE
  5
2CE
330
1F
100
AcDbEntity
  8
0
  6
Continuous
 62
     7
370
     0
100
AcDbSpline
210
0.0
220
0.0
230
1.0
 70
     8
 71
     3
 72
     9
 73
     5
 74
     0
 42
0.00000001
 43
0.00000001
 40
0.0
 40
0.0
 40
0.0
 40
0.0
 40
0.5600360284689848
 40
1.0
 40
1.0
 40
1.0
 40
1.0
 10
2.18116898229454
 20
5.129459248207143
 30
0.0
 10
2.178830218927932
 20
5.125826594913984
 30
0.0
 10
2.174654124448793
 20
5.11934013135004
 30
0.0
 10
2.170253181618577
 20
5.113004301078946
 30
0.0
 10
2.168316925332515
 20
5.110216764029929
 30
0.0
  0
CIRCLE
  5
2CF
330
1F
100
AcDbEntity
  8
0
  6
Continuous
 62
     7
370
     0
100
AcDbCircle
 10
1.9954745881
 20
5.1971244127
 30
0.0
 40
0.2649999999999997
  0
SPLINE
  5
2D0
330
1F
100
AcDbEntity
  8
0
  6
Continuous
 62
     7
370
     0
100
AcDbSpline
210
0.0
220
0.0
230
1.0
 70
     8
 71
     3
 72
    11
 73
     7
 74
     0
 42
0.00000001
 43
0.00000001
 40
0.0
 40
0.0
 40
0.0
 40
0.0
 40
0.2798341310252641
 40
0.5592418476283618
 40
0.7795950109293079
 40
1.0
 40
1.0
 40
1.0
 40
1.0
 10
2.210605295863912
 20
5.204203078110571
 30
0.0
 10
2.20845537073088
 20
5.203990128532083
 30
0.0
 10
2.204158796545113
 20
5.203564553870088
 30
0.0
 10
2.19844365370002
 20
5.205807795720217
 30
0.0
 10
2.193996411778643
 20
5.209091956258598
 30
0.0
 10
2.191837281997176
 20
5.211683077285993
 30
0.0
 10
2.190757590167709
 20
5.212978790135887
 30
0.0
  0
SPLINE
  5
2D1
330
1F
100
AcDbEntity
  8
0
  6
Continuous
 62
     7
370
     0
100
AcDbSpline
210
0.0
220
0.0
230
1.0
 70
     8
 71
     3
 72
    10
 73
     6
 74
     0
 42
0.00000001
 43
0.00000001
 40
0.0
 40
0.0
 40
0.0
 40
0.0
 40
0.2807044613854776
 40
0.5606984042449122
 40
1.0
 40
1.0
 40
1.0
 40
1.0
 10
2.22502380852214
 20
5.216271907224495
 30
0.0
 10
2.224344735705532
 20
5.214534564402203
 30
0.0
 10
2.222988308939962
 20
5.211064276316018
 30
0.0
 10
2.218145528002811
 20
5.20618843236256
 30
0.0
 10
2.213464301736376
 20
5.204955858576848
 30
0.0
 10
2.210605295863912
 20
5.204203078110571
 30
0.0
  0
SPLINE
  5
2D2
330
1F
100
AcDbEntity
  8
0
  6
Continuous
 62
     7
370
     0
100
AcDbSpline
210
0.0
220
0.0
230
1.0
 70
     8
 71
     3
 72
    10
 73
     6
 74
     0
 42
0.00000001
 43
0.00000001
 40
0.0
 40
0.0
 40
0.0
 40
0.0
 40
0.5601398940524498
 40
0.7800811456118123
 40
1.0
 40
1.0
 40
1.0
 40
1.0
 10
2.224543191433533
 20
5.240640973680192
 30
0.0
 10
2.225338132624461
 20
5.236107830499197
 30
0.0
 10
2.226445210769579
 20
5.229794729855233
 30
0.0
 10
2.226362753048933
 20
5.221533687861344
 30
0.0
 10
2.225470108213588
 20
5.218025774563807
 30
0.0
 10
2.22502380852214
 20
5.216271907224495
 30
0.0
  0
LINE
  5
2D3
330
1F
100
AcDbEntity
  8
0
  6
Continuous
 62
     7
370
     0
100
AcDbLine
 10
2.2199684288
 20
5.2668791066
 30
0.0
 11
2.2245431914
 21
5.2406409737
 31
0.0
  0
LINE
  5
2D4
330
1F
100
AcDbEntity
  8
0
  6
Continuous
 62
     7
370
     0
100
AcDbLine
 10
2.1322469098
 20
5.2515705623
 30
0.0
 11
2.2199684288
 21
5.2668791066
 31
0.0
  0
LINE
  5
2D5
330
1F
100
AcDbEntity
  8
0
  6
Continuous
 62
     7
370
     0
100
AcDbLine
 10
2.1377473054
 20
5.2199744389
 30
0.0
 11
2.1322469098
 21
5.2515705623
 31
0.0
  0
SPLINE
  5
2D6
330
1F
100
AcDbEntity
  8
0
  6
Continuous
 62
     7
370
     0
100
AcDbSpline
210
0.0
220
0.0
230
1.0
 70
     8
 71
     3
 72
    10
 73
     6
 74
     0
 42
0.00000001
 43
0.00000001
 40
0.0
 40
0.0
 40
0.0
 40
0.0
 40
0.2798560618643964
 40
0.5597527391957781
 40
1.0
 40
1.0
 40
1.0
 40
1.0
 10
2.149531324344925
 20
5.194875546464998
 30
0.0
 10
2.147698072233584
 20
5.19678782228971
 30
0.0
 10
2.144031301951306
 20
5.200612651467424
 30
0.0
 10
2.139937498915857
 20
5.209250894624951
 30
0.0
 10
2.138578255054153
 20
5.21590597386935
 30
0.0
 10
2.137747305357583
 20
5.219974438870064
 30
0.0
  0
SPLINE
  5
2D7
330
1F
100
AcDbEntity
  8
0
  6
Continuous
 62
     7
370
     0
100
AcDbSpline
210
0.0
220
0.0
230
1.0
 70
     8
 71
     3
 72
    11
 73
     7
 74
     0
 42
0.00000001
 43
0.00000001
 40
0.0
 40
0.0
 40
0.0
 40
0.0
 40
0.2800631052443454
 40
0.55986623611824
 40
0.7799570470651066
 40
0.9999999999999999
 40
0.9999999999999999
 40
0.9999999999999999
 40
0.9999999999999999
 10
2.170892083838596
 20
5.189054739502976
 30
0.0
 10
2.168756010302315
 20
5.188795454071119
 30
0.0
 10
2.164485846084197
 20
5.188277123894474
 30
0.0
 10
2.158548160599431
 20
5.189449200495554
 30
0.0
 10
2.153456515503485
 20
5.191670956247952
 30
0.0
 10
2.150839626548505
 20
5.19380742716248
 30
0.0
 10
2.149531324344925
 20
5.194875546464998
 30
0.0
  0
SPLINE
  5
2D8
330
1F
100
AcDbEntity
  8
0
  6
Continuous
 62
     7
370
     0
100
AcDbSpline
210
0.0
220
0.0
230
1.0
 70
     8
 71
     3
 72
    11
 73
     7
 74
     0
 42
0.00000001
 43
0.00000001
 40
0.0
 40
0.0
 40
0.0
 40
0.0
 40
0.2802165796391171
 40
0.5596828193595684
 40
0.7796369501997007
 40
0.9999999999999999
 40
0.9999999999999999
 40
0.9999999999999999
 40
0.9999999999999999
 10
2.190294773712013
 20
5.21288978697133
 30
0.0
 10
2.189992279657648
 20
5.209746273355819
 30
0.0
 10
2.189388101541546
 20
5.203467663555891
 30
0.0
 10
2.184704428839408
 20
5.195757584348788
 30
0.0
 10
2.178124356621268
 20
5.190798121068017
 30
0.0
 10
2.173304333538143
 20
5.189636226372019
 30
0.0
 10
2.170892083838596
 20
5.189054739502976
 30
0.0
  0
LINE
  5
2D9
330
1F
100
AcDbEntity
  8
0
  6
Continuous
 62
     7
370
     0
100
AcDbLine
 10
2.1907575902
 20
5.2129787901
 30
0.0
 11
2.1902947737
 21
5.212889787
 31
0.0
  0
LINE
  5
2DA
330
1F
100
AcDbEntity
  8
0
  6
Continuous
 62
     7
370
     0
100
AcDbLine
 10
2.0615764683
 20
5.4229903358
 30
0.0
 11
2.0365131772
 21
5.3489397029
 31
0.0
  0
LINE
  5
2DB
330
1F
100
AcDbEntity
  8
0
  6
Continuous
 62
     7
370
     0
100
AcDbLine
 10
2.0501840633
 20
5.4268352725
 30
0.0
 11
2.0615764683
 21
5.4229903358
 31
0.0
  0
LINE
  5
2DC
330
1F
100
AcDbEntity
  8
0
  6
Continuous
 62
     7
370
     0
100
AcDbLine
 10
2.0216496487
 20
5.342531475
 30
0.0
 11
2.0501840633
 21
5.4268352725
 31
0.0
  0
LINE
  5
2DD
330
1F
100
AcDbEntity
  8
0
  6
Continuous
 62
     7
370
     0
100
AcDbLine
 10
2.0751939525
 20
5.3244104307
 30
0.0
 11
2.0216496487
 21
5.342531475
 31
0.0
  0
LINE
  5
2DE
330
1F
100
AcDbEntity
  8
0
  6
Continuous
 62
     7
370
     0
100
AcDbLine
 10
2.0786650759
 20
5.3346635953
 30
0.0
 11
2.0751939525
 21
5.3244104307
 31
0.0
  0
LINE
  5
2DF
330
1F
100
AcDbEntity
  8
0
  6
Continuous
 62
     7
370
     0
100
AcDbLine
 10
2.0365131772
 20
5.3489397029
 30
0.0
 11
2.0786650759
 21
5.3346635953
 31
0.0
  0
SPLINE
  5
2E0
330
1F
100
AcDbEntity
  8
0
  6
Continuous
 62
     7
370
     0
100
AcDbSpline
210
0.0
220
0.0
230
1.0
 70
     8
 71
     3
 72
    11
 73
     7
 74
     0
 42
0.00000001
 43
0.00000001
 40
0.0
 40
0.0
 40
0.0
 40
0.0
 40
0.2801107257773432
 40
0.5600641369853084
 40
0.7800787798861203
 40
1.0
 40
1.0
 40
1.0
 40
1.0
 10
1.833300763165626
 20
5.29884904322481
 30
0.0
 10
1.830923022658678
 20
5.301362866092409
 30
0.0
 10
1.826168877021081
 20
5.306389100025326
 30
0.0
 10
1.821107416634602
 20
5.314643675410209
 30
0.0
 10
1.817847543973044
 20
5.322978991023744
 30
0.0
 10
1.817208189148398
 20
5.328384039223326
 30
0.0
 10
1.816888579621322
 20
5.331085989427341
 30
0.0
  0
SPLINE
  5
2E1
330
1F
100
AcDbEntity
  8
0
  6
Continuous
 62
     7
370
     0
100
AcDbSpline
210
0.0
220
0.0
230
1.0
 70
     8
 71
     3
 72
    10
 73
     6
 74
     0
 42
0.00000001
 43
0.00000001
 40
0.0
 40
0.0
 40
0.0
 40
0.0
 40
0.2799338299629427
 40
0.5600654907875889
 40
1.0
 40
1.0
 40
1.0
 40
1.0
 10
1.86569791506436
 20
5.283077682465317
 30
0.0
 10
1.862269529876051
 20
5.283470593255412
 30
0.0
 10
1.85541033663973
 20
5.284256692507939
 30
0.0
 10
1.844050887961114
 20
5.289428774904287
 30
0.0
 10
1.837377787395418
 20
5.295276371937306
 30
0.0
 10
1.833300763165626
 20
5.29884904322481
 30
0.0
  0
SPLINE
  5
2E2
330
1F
100
AcDbEntity
  8
0
  6
Continuous
 62
     7
370
     0
100
AcDbSpline
210
0.0
220
0.0
230
1.0
 70
     8
 71
     3
 72
    11
 73
     7
 74
     0
 42
0.00000001
 43
0.00000001
 40
0.0
 40
0.0
 40
0.0
 40
0.0
 40
0.2800975005928554
 40
0.5600479415246293
 40
0.7800610806787996
 40
1.0
 40
1.0
 40
1.0
 40
1.0
 10
1.895958991013727
 20
5.296570562212152
 30
0.0
 10
1.893622293892068
 20
5.294399268580789
 30
0.0
 10
1.888950126485428
 20
5.290057821312906
 30
0.0
 10
1.881086983871082
 20
5.285798425500824
 30
0.0
 10
1.873214366205046
 20
5.28333833782837
 30
0.0
 10
1.868203116978975
 20
5.283164557814116
 30
0.0
 10
1.86569791506436
 20
5.283077682465317
 30
0.0
  0
SPLINE
  5
2E3
330
1F
100
AcDbEntity
  8
0
  6
Continuous
 62
     7
370
     0
100
AcDbSpline
210
0.0
220
0.0
230
1.0
 70
     8
 71
     3
 72
    11
 73
     7
 74
     0
 42
0.00000001
 43
0.00000001
 40
0.0
 40
0.0
 40
0.0
 40
0.0
 40
0.2797869210767756
 40
0.5595531805661655
 40
0.7797397064138184
 40
0.9999999999999999
 40
0.9999999999999999
 40
0.9999999999999999
 40
0.9999999999999999
 10
1.90891785177322
 20
5.327080847022279
 30
0.0
 10
1.90882506415919
 20
5.323882898651009
 30
0.0
 10
1.908639495783268
 20
5.317487238069222
 30
0.0
 10
1.905397633542838
 20
5.309081246858407
 30
0.0
 10
1.901051695509681
 20
5.302108336823031
 30
0.0
 10
1.897656748711989
 20
5.298416693179368
 30
0.0
 10
1.895958991013727
 20
5.296570562212152
 30
0.0
  0
SPLINE
  5
2E4
330
1F
100
AcDbEntity
  8
0
  6
Continuous
 62
     7
370
     0
100
AcDbSpline
210
0.0
220
0.0
230
1.0
 70
     8
 71
     3
 72
    11
 73
     7
 74
     0
 42
0.00000001
 43
0.00000001
 40
0.0
 40
0.0
 40
0.0
 40
0.0
 40
0.2801246362106525
 40
0.5600773453847241
 40
0.7801016060622836
 40
1.0
 40
1.0
 40
1.0
 40
1.0
 10
1.892612472026385
 20
5.359228790060253
 30
0.0
 10
1.894984945477251
 20
5.356723810932485
 30
0.0
 10
1.89972843626882
 20
5.351715390112729
 30
0.0
 10
1.904721971858003
 20
5.343461534139594
 30
0.0
 10
1.908029045738641
 20
5.335173384152231
 30
0.0
 10
1.908621639610915
 20
5.329777844824426
 30
0.0
 10
1.90891785177322
 20
5.327080847022279
 30
0.0
  0
SPLINE
  5
2E5
330
1F
100
AcDbEntity
  8
0
  6
Continuous
 62
     7
370
     0
100
AcDbSpline
210
0.0
220
0.0
230
1.0
 70
     8
 71
     3
 72
    11
 73
     7
 74
     0
 42
0.00000001
 43
0.00000001
 40
0.0
 40
0.0
 40
0.0
 40
0.0
 40
0.2796750151035803
 40
0.5596025493532587
 40
0.7797879916378662
 40
1.0
 40
1.0
 40
1.0
 40
1.0
 10
1.860090715697271
 20
5.375053552718483
 30
0.0
 10
1.863536578351868
 20
5.374663705662242
 30
0.0
 10
1.870431414937538
 20
5.373883659556051
 30
0.0
 10
1.879249627150518
 20
5.369730685723923
 30
0.0
 10
1.886645451009435
 20
5.364788130965527
 30
0.0
 10
1.890623385033818
 20
5.361081978217379
 30
0.0
 10
1.892612472026385
 20
5.359228790060253
 30
0.0
  0
SPLINE
  5
2E6
330
1F
100
AcDbEntity
  8
0
  6
Continuous
 62
     7
370
     0
100
AcDbSpline
210
0.0
220
0.0
230
1.0
 70
     8
 71
     3
 72
    11
 73
     7
 74
     0
 42
0.00000001
 43
0.00000001
 40
0.0
 40
0.0
 40
0.0
 40
0.0
 40
0.2801006522962095
 40
0.5600324108246005
 40
0.7800533069372584
 40
1.0
 40
1.0
 40
1.0
 40
1.0
 10
1.829883041646638
 20
5.36148947044
 30
0.0
 10
1.832211983054596
 20
5.36366595207258
 30
0.0
 10
1.836868461576426
 20
5.368017602973132
 30
0.0
 10
1.844725745110479
 20
5.372272679761426
 30
0.0
 10
1.852581340955841
 20
5.374758432484586
 30
0.0
 10
1.857587872243505
 20
5.374955190368632
 30
0.0
 10
1.860090715697271
 20
5.375053552718483
 30
0.0
  0
SPLINE
  5
2E7
330
1F
100
AcDbEntity
  8
0
  6
Continuous
 62
     7
370
     0
100
AcDbSpline
210
0.0
220
0.0
230
1.0
 70
     8
 71
     3
 72
    11
 73
     7
 74
     0
 42
0.00000001
 43
0.00000001
 40
0.0
 40
0.0
 40
0.0
 40
0.0
 40
0.2797126289213187
 40
0.5595903795940629
 40
0.7797750585413771
 40
0.9999999999999999
 40
0.9999999999999999
 40
0.9999999999999999
 40
0.9999999999999999
 10
1.816888579621322
 20
5.331085989427341
 30
0.0
 10
1.817006878390831
 20
5.334270958021744
 30
0.0
 10
1.817243545764738
 20
5.340642775381617
 30
0.0
 10
1.820583934006279
 20
5.348962353448818
 30
0.0
 10
1.824830710424123
 20
5.355953375567811
 30
0.0
 10
1.828198828600673
 20
5.359643993016451
 30
0.0
 10
1.829883041646638
 20
5.36148947044
 30
0.0
  0
LINE
  5
2E8
330
1F
100
AcDbEntity
  8
0
  6
Continuous
 62
     7
370
     0
100
AcDbLine
 10
1.8061131908
 20
5.0723471828
 30
0.0
 11
1.7958600262
 21
5.067825822
 31
0.0
  0
LINE
  5
2E9
330
1F
100
AcDbEntity
  8
0
  6
Continuous
 62
     7
370
     0
100
AcDbLine
 10
1.7930475262
 20
5.1019674359
 30
0.0
 11
1.8061131908
 21
5.0723471828
 31
0.0
  0
LINE
  5
2EA
330
1F
100
AcDbEntity
  8
0
  6
Continuous
 62
     7
370
     0
100
AcDbLine
 10
1.8648196781
 20
5.1336169612
 30
0.0
 11
1.7930475262
 21
5.1019674359
 31
0.0
  0
LINE
  5
2EB
330
1F
100
AcDbEntity
  8
0
  6
Continuous
 62
     7
370
     0
100
AcDbLine
 10
1.8597998996
 20
5.1450093663
 30
0.0
 11
1.8648196781
 21
5.1336169612
 31
0.0
  0
LINE
  5
2EC
330
1F
100
AcDbEntity
  8
0
  6
Continuous
 62
     7
370
     0
100
AcDbLine
 10
1.7880277477
 20
5.113359841
 30
0.0
 11
1.8597998996
 21
5.1450093663
 31
0.0
  0
LINE
  5
2ED
330
1F
100
AcDbEntity
  8
0
  6
Continuous
 62
     7
370
     0
100
AcDbLine
 10
1.7749620832
 20
5.1429800942
 30
0.0
 11
1.7880277477
 21
5.113359841
 31
0.0
  0
LINE
  5
2EE
330
1F
100
AcDbEntity
  8
0
  6
Continuous
 62
     7
370
     0
100
AcDbLine
 10
1.7647089186
 20
5.1384587334
 30
0.0
 11
1.7749620832
 21
5.1429800942
 31
0.0
  0
LINE
  5
2EF
330
1F
100
AcDbEntity
  8
0
  6
Continuous
 62
     7
370
     0
100
AcDbLine
 10
1.7958600262
 20
5.067825822
 30
0.0
 11
1.7647089186
 21
5.1384587334
 31
0.0
  0
SPLINE
  5
2F0
330
1F
100
AcDbEntity
  8
0
  6
Continuous
 62
     7
370
     0
100
AcDbSpline
210
0.0
220
0.0
230
1.0
 70
     8
 71
     3
 72
     9
 73
     5
 74
     0
 42
0.00000001
 43
0.00000001
 40
0.0
 40
0.0
 40
0.0
 40
0.0
 40
0.559987073647892
 40
1.0
 40
1.0
 40
1.0
 40
1.0
 10
1.864976083223329
 20
5.071364118277108
 30
0.0
 10
1.86572024979028
 20
5.070769195130516
 30
0.0
 10
1.867049149334519
 20
5.069706807845903
 30
0.0
 10
1.868304326861343
 20
5.068558479757972
 30
0.0
 10
1.868856621198012
 20
5.06805320055559
 30
0.0
  0
LINE
  5
2F1
330
1F
100
AcDbEntity
  8
0
  6
Continuous
 62
     7
370
     0
100
AcDbLine
 10
1.8737072937
 20
5.0806560487
 30
0.0
 11
1.8649760832
 21
5.0713641183
 31
0.0
  0
LINE
  5
2F2
330
1F
100
AcDbEntity
  8
0
  6
Continuous
 62
     7
370
     0
100
AcDbLine
 10
1.8896566608
 20
5.0656768161
 30
0.0
 11
1.8737072937
 21
5.0806560487
 31
0.0
  0
LINE
  5
2F3
330
1F
100
AcDbEntity
  8
0
  6
Continuous
 62
     7
370
     0
100
AcDbLine
 10
1.8928607747
 20
5.0690945376
 30
0.0
 11
1.8896566608
 21
5.0656768161
 31
0.0
  0
LINE
  5
2F4
330
1F
100
AcDbEntity
  8
0
  6
Continuous
 62
     7
370
     0
100
AcDbLine
 10
1.8729240658
 20
5.0878119031
 30
0.0
 11
1.8928607747
 21
5.0690945376
 31
0.0
  0
LINE
  5
2F5
330
1F
100
AcDbEntity
  8
0
  6
Continuous
 62
     7
370
     0
100
AcDbLine
 10
1.8574197146
 20
5.0712929157
 30
0.0
 11
1.8729240658
 21
5.0878119031
 31
0.0
  0
SPLINE
  5
2F6
330
1F
100
AcDbEntity
  8
0
  6
Continuous
 62
     7
370
     0
100
AcDbSpline
210
0.0
220
0.0
230
1.0
 70
     8
 71
     3
 72
     9
 73
     5
 74
     0
 42
0.00000001
 43
0.00000001
 40
0.0
 40
0.0
 40
0.0
 40
0.0
 40
0.5599114912017478
 40
1.0
 40
1.0
 40
1.0
 40
1.0
 10
1.864735774679025
 20
5.065498809732805
 30
0.0
 10
1.863425594499414
 20
5.066650607713779
 30
0.0
 10
1.861085617199076
 20
5.068707714951392
 30
0.0
 10
1.858540007936703
 20
5.070502882941607
 30
0.0
 10
1.857419714552443
 20
5.071292915745463
 30
0.0
  0
SPLINE
  5
2F7
330
1F
100
AcDbEntity
  8
0
  6
Continuous
 62
     7
370
     0
100
AcDbSpline
210
0.0
220
0.0
230
1.0
 70
     8
 71
     3
 72
     9
 73
     5
 74
     0
 42
0.00000001
 43
0.00000001
 40
0.0
 40
0.0
 40
0.0
 40
0.0
 40
0.5577421486153149
 40
1.0
 40
1.0
 40
1.0
 40
1.0
 10
1.869648749362569
 20
5.057889039163185
 30
0.0
 10
1.869039244604045
 20
5.05950757229485
 30
0.0
 10
1.867946437183919
 20
5.062409510288389
 30
0.0
 10
1.865720300919997
 20
5.064551498589198
 30
0.0
 10
1.864735774679025
 20
5.065498809732805
 30
0.0
  0
SPLINE
  5
2F8
330
1F
100
AcDbEntity
  8
0
  6
Continuous
 62
     7
370
     0
100
AcDbSpline
210
0.0
220
0.0
230
1.0
 70
     8
 71
     3
 72
     9
 73
     5
 74
     0
 42
0.00000001
 43
0.00000001
 40
0.0
 40
0.0
 40
0.0
 40
0.0
 40
0.5604449163640778
 40
1.0
 40
1.0
 40
1.0
 40
1.0
 10
1.86716556107143
 20
5.050857789163184
 30
0.0
 10
1.868117320285421
 20
5.052015799151119
 30
0.0
 10
1.869815541085006
 20
5.054082032520578
 30
0.0
 10
1.869699677701706
 20
5.056726604226019
 30
0.0
 10
1.869648749362569
 20
5.057889039163185
 30
0.0
  0
SPLINE
  5
2F9
330
1F
100
AcDbEntity
  8
0
  6
Continuous
 62
     7
370
     0
100
AcDbSpline
210
0.0
220
0.0
230
1.0
 70
     8
 71
     3
 72
     9
 73
     5
 74
     0
 42
0.00000001
 43
0.00000001
 40
0.0
 40
0.0
 40
0.0
 40
0.0
 40
0.5579443468708882
 40
1.0
 40
1.0
 40
1.0
 40
1.0
 10
1.860000806324594
 20
5.047066254353058
 30
0.0
 10
1.861536817655259
 20
5.04740673705107
 30
0.0
 10
1.864289800706848
 20
5.048016981961553
 30
0.0
 10
1.866284009708659
 20
5.049986952534788
 30
0.0
 10
1.86716556107143
 20
5.050857789163184
 30
0.0
  0
SPLINE
  5
2FA
330
1F
100
AcDbEntity
  8
0
  6
Continuous
 62
     7
370
     0
100
AcDbSpline
210
0.0
220
0.0
230
1.0
 70
     8
 71
     3
 72
     9
 73
     5
 74
     0
 42
0.00000001
 43
0.00000001
 40
0.0
 40
0.0
 40
0.0
 40
0.0
 40
0.5604530300981732
 40
1.0
 40
1.0
 40
1.0
 40
1.0
 10
1.85252454050181
 20
5.050163564479639
 30
0.0
 10
1.853753907129196
 20
5.04914943407817
 30
0.0
 10
1.855947430156756
 20
5.047339950772686
 30
0.0
 10
1.858763160558463
 20
5.047149823999923
 30
0.0
 10
1.860000806324594
 20
5.047066254353058
 30
0.0
  0
SPLINE
  5
2FB
330
1F
100
AcDbEntity
  8
0
  6
Continuous
 62
     7
370
     0
100
AcDbSpline
210
0.0
220
0.0
230
1.0
 70
     8
 71
     3
 72
     9
 73
     5
 74
     0
 42
0.00000001
 43
0.00000001
 40
0.0
 40
0.0
 40
0.0
 40
0.0
 40
0.5603160630007484
 40
1.0
 40
1.0
 40
1.0
 40
1.0
 10
1.846952942400544
 20
5.061822979036602
 30
0.0
 10
1.847484450407926
 20
5.059389551317424
 30
0.0
 10
1.848433036469399
 20
5.055046595832358
 30
0.0
 10
1.85127498248773
 20
5.051654857390868
 30
0.0
 10
1.85252454050181
 20
5.050163564479639
 30
0.0
  0
LINE
  5
2FC
330
1F
100
AcDbEntity
  8
0
  6
Continuous
 62
     7
370
     0
100
AcDbLine
 10
1.8466503316
 20
5.0621077892
 30
0.0
 11
1.8469529424
 21
5.061822979
 31
0.0
  0
LINE
  5
2FD
330
1F
100
AcDbEntity
  8
0
  6
Continuous
 62
     7
370
     0
100
AcDbLine
 10
1.8421022699
 20
5.057266017
 30
0.0
 11
1.8466503316
 21
5.0621077892
 31
0.0
  0
SPLINE
  5
2FE
330
1F
100
AcDbEntity
  8
0
  6
Continuous
 62
     7
370
     0
100
AcDbSpline
210
0.0
220
0.0
230
1.0
 70
     8
 71
     3
 72
     9
 73
     5
 74
     0
 42
0.00000001
 43
0.00000001
 40
0.0
 40
0.0
 40
0.0
 40
0.0
 40
0.5598758874753585
 40
1.0
 40
1.0
 40
1.0
 40
1.0
 10
1.849489532590417
 20
5.04658563726445
 30
0.0
 10
1.847803479924809
 20
5.048371974101473
 30
0.0
 10
1.844792004161473
 20
5.051562568440294
 30
0.0
 10
1.842924294145446
 20
5.055522955271812
 30
0.0
 10
1.842102269932189
 20
5.057266017011287
 30
0.0
  0
SPLINE
  5
2FF
330
1F
100
AcDbEntity
  8
0
  6
Continuous
 62
     7
370
     0
100
AcDbSpline
210
0.0
220
0.0
230
1.0
 70
     8
 71
     3
 72
     9
 73
     5
 74
     0
 42
0.00000001
 43
0.00000001
 40
0.0
 40
0.0
 40
0.0
 40
0.0
 40
0.5583285070597471
 40
1.0
 40
1.0
 40
1.0
 40
1.0
 10
1.861220149679025
 20
5.041583659416349
 30
0.0
 10
1.858754479225944
 20
5.041892636941496
 30
0.0
 10
1.854338314867678
 20
5.042446034307454
 30
0.0
 10
1.850975008940492
 20
5.045317425589912
 30
0.0
 10
1.849489532590417
 20
5.046585637264451
 30
0.0
  0
SPLINE
  5
300
330
1F
100
AcDbEntity
  8
0
  6
Continuous
 62
     7
370
     0
100
AcDbSpline
210
0.0
220
0.0
230
1.0
 70
     8
 71
     3
 72
     9
 73
     5
 74
     0
 42
0.00000001
 43
0.00000001
 40
0.0
 40
0.0
 40
0.0
 40
0.0
 40
0.5596682810460089
 40
1.0
 40
1.0
 40
1.0
 40
1.0
 10
1.871731423413202
 20
5.04658563726445
 30
0.0
 10
1.870018267988568
 20
5.045099145273162
 30
0.0
 10
1.866957248662206
 20
5.042443121979307
 30
0.0
 10
1.862974069712743
 20
5.041846410435954
 30
0.0
 10
1.861220149679025
 20
5.041583659416349
 30
0.0
  0
SPLINE
  5
301
330
1F
100
AcDbEntity
  8
0
  6
Continuous
 62
     7
370
     0
100
AcDbSpline
210
0.0
220
0.0
230
1.0
 70
     8
 71
     3
 72
    10
 73
     6
 74
     0
 42
0.00000001
 43
0.00000001
 40
0.0
 40
0.0
 40
0.0
 40
0.0
 40
0.2801850633350176
 40
0.5602878244968804
 40
0.9999999999999999
 40
0.9999999999999999
 40
0.9999999999999999
 40
0.9999999999999999
 10
1.87541615442586
 20
5.058040344542932
 30
0.0
 10
1.875575378813921
 20
5.056874559738847
 30
0.0
 10
1.875893780819124
 20
5.054543332570858
 30
0.0
 10
1.874846862276504
 20
5.050367370580435
 30
0.0
 10
1.872912850208534
 20
5.048019734118326
 30
0.0
 10
1.871731423413202
 20
5.04658563726445
 30
0.0
  0
SPLINE
  5
302
330
1F
100
AcDbEntity
  8
0
  6
Continuous
 62
     7
370
     0
100
AcDbSpline
210
0.0
220
0.0
230
1.0
 70
     8
 71
     3
 72
     9
 73
     5
 74
     0
 42
0.00000001
 43
0.00000001
 40
0.0
 40
0.0
 40
0.0
 40
0.0
 40
0.560749126199559
 40
0.9999999999999999
 40
0.9999999999999999
 40
0.9999999999999999
 40
0.9999999999999999
 10
1.868856621198012
 20
5.06805320055559
 30
0.0
 10
1.870516903627901
 20
5.06645422663559
 30
0.0
 10
1.873477732904874
 20
5.063602730582734
 30
0.0
 10
1.874824559616097
 20
5.059737951939165
 30
0.0
 10
1.87541615442586
 20
5.058040344542932
 30
0.0
  0
SPLINE
  5
303
330
1F
100
AcDbEntity
  8
0
  6
Continuous
 62
     7
370
     0
100
AcDbSpline
210
0.0
220
0.0
230
1.0
 70
     8
 71
     3
 72
     9
 73
     5
 74
     0
 42
0.00000001
 43
0.00000001
 40
0.0
 40
0.0
 40
0.0
 40
0.0
 40
0.5611422669756455
 40
1.0
 40
1.0
 40
1.0
 40
1.0
 10
1.961087080438197
 20
5.022069737077653
 30
0.0
 10
1.963370835799359
 20
5.023380367422646
 30
0.0
 10
1.967440668880142
 20
5.025716014587593
 30
0.0
 10
1.972093161846235
 20
5.025433455505666
 30
0.0
 10
1.974134944362247
 20
5.025309452267527
 30
0.0
  0
SPLINE
  5
304
330
1F
100
AcDbEntity
  8
0
  6
Continuous
 62
     7
370
     0
100
AcDbSpline
210
0.0
220
0.0
230
1.0
 70
     8
 71
     3
 72
    10
 73
     6
 74
     0
 42
0.00000001
 43
0.00000001
 40
0.0
 40
0.0
 40
0.0
 40
0.0
 40
0.2813665217406444
 40
0.5622252353978114
 40
1.0
 40
1.0
 40
1.0
 40
1.0
 10
1.953058994995158
 20
5.029412498153603
 30
0.0
 10
1.954104054505372
 20
5.029140511438547
 30
0.0
 10
1.956192287410621
 20
5.028597028887915
 30
0.0
 10
1.959461766988695
 20
5.026311918238392
 30
0.0
 10
1.960471794947841
 20
5.023675675007019
 30
0.0
 10
1.961087080438197
 20
5.022069737077653
 30
0.0
  0
SPLINE
  5
305
330
1F
100
AcDbEntity
  8
0
  6
Continuous
 62
     7
370
     0
100
AcDbSpline
210
0.0
220
0.0
230
1.0
 70
     8
 71
     3
 72
     9
 73
     5
 74
     0
 42
0.00000001
 43
0.00000001
 40
0.0
 40
0.0
 40
0.0
 40
0.0
 40
0.5610012218462673
 40
1.0
 40
1.0
 40
1.0
 40
1.0
 10
1.941550885817943
 20
5.026653400052338
 30
0.0
 10
1.94357349317853
 20
5.027771457158861
 30
0.0
 10
1.947178846040207
 20
5.029764424487609
 30
0.0
 10
1.951265123974713
 20
5.029519861156945
 30
0.0
 10
1.953058994995158
 20
5.029412498153603
 30
0.0
  0
LINE
  5
306
330
1F
100
AcDbEntity
  8
0
  6
Continuous
 62
     7
370
     0
100
AcDbLine
 10
1.9422629111
 20
5.0303203304
 30
0.0
 11
1.9415508858
 21
5.0266534001
 31
0.0
  0
LINE
  5
307
330
1F
100
AcDbEntity
  8
0
  6
Continuous
 62
     7
370
     0
100
AcDbLine
 10
1.9365667086
 20
5.03143287
 30
0.0
 11
1.9422629111
 21
5.0303203304
 31
0.0
  0
LINE
  5
308
330
1F
100
AcDbEntity
  8
0
  6
Continuous
 62
     7
370
     0
100
AcDbLine
 10
1.9301495804
 20
4.9983948953
 30
0.0
 11
1.9365667086
 21
5.03143287
 31
0.0
  0
LINE
  5
309
330
1F
100
AcDbEntity
  8
0
  6
Continuous
 62
     7
370
     0
100
AcDbLine
 10
1.935845783
 20
4.9972823557
 30
0.0
 11
1.9301495804
 21
4.9983948953
 31
0.0
  0
LINE
  5
30A
330
1F
100
AcDbEntity
  8
0
  6
Continuous
 62
     7
370
     0
100
AcDbLine
 10
1.9407053558
 20
5.0222833447
 30
0.0
 11
1.935845783
 21
4.9972823557
 31
0.0
  0
SPLINE
  5
30B
330
1F
100
AcDbEntity
  8
0
  6
Continuous
 62
     7
370
     0
100
AcDbSpline
210
0.0
220
0.0
230
1.0
 70
     8
 71
     3
 72
     9
 73
     5
 74
     0
 42
0.00000001
 43
0.00000001
 40
0.0
 40
0.0
 40
0.0
 40
0.0
 40
0.5574548194838427
 40
1.0
 40
1.0
 40
1.0
 40
1.0
 10
1.950406700691361
 20
5.024606327267527
 30
0.0
 10
1.948500638599815
 20
5.024574866719949
 30
0.0
 10
1.94508141604594
 20
5.024518430670822
 30
0.0
 10
1.942047847080203
 20
5.022969026167989
 30
0.0
 10
1.940705355754652
 20
5.022283344672591
 30
0.0
  0
SPLINE
  5
30C
330
1F
100
AcDbEntity
  8
0
  6
Continuous
 62
     7
370
     0
100
AcDbSpline
210
0.0
220
0.0
230
1.0
 70
     8
 71
     3
 72
    10
 73
     6
 74
     0
 42
0.00000001
 43
0.00000001
 40
0.0
 40
0.0
 40
0.0
 40
0.0
 40
0.2797977254859538
 40
0.5591903932082418
 40
1.0
 40
1.0
 40
1.0
 40
1.0
 10
1.955390877906551
 20
5.020957197520691
 30
0.0
 10
1.955157938462335
 20
5.021528916315318
 30
0.0
 10
1.954692396795837
 20
5.022671526238314
 30
0.0
 10
1.952883072036355
 20
5.024039120849547
 30
0.0
 10
1.951346922145107
 20
5.024390971988132
 30
0.0
 10
1.950406700691361
 20
5.024606327267527
 30
0.0
  0
SPLINE
  5
30D
330
1F
100
AcDbEntity
  8
0
  6
Continuous
 62
     7
370
     0
100
AcDbSpline
210
0.0
220
0.0
230
1.0
 70
     8
 71
     3
 72
     9
 73
     5
 74
     0
 42
0.00000001
 43
0.00000001
 40
0.0
 40
0.0
 40
0.0
 40
0.0
 40
0.5612333225589181
 40
0.9999999999999999
 40
0.9999999999999999
 40
0.9999999999999999
 40
0.9999999999999999
 10
1.954928061450855
 20
5.013365227583983
 30
0.0
 10
1.955222309804029
 20
5.014775447446931
 30
0.0
 10
1.955746598618229
 20
5.017288163293023
 30
0.0
 10
1.955499358591576
 20
5.019838287844277
 30
0.0
 10
1.955390877906551
 20
5.020957197520691
 30
0.0
  0
LINE
  5
30E
330
1F
100
AcDbEntity
  8
0
  6
Continuous
 62
     7
370
     0
100
AcDbLine
 10
1.9512255298
 20
4.9943007497
 30
0.0
 11
1.9549280615
 21
5.0133652276
 31
0.0
  0
LINE
  5
30F
330
1F
100
AcDbEntity
  8
0
  6
Continuous
 62
     7
370
     0
100
AcDbLine
 10
1.9569217323
 20
4.9931882102
 30
0.0
 11
1.9512255298
 21
4.9943007497
 31
0.0
  0
LINE
  5
310
330
1F
100
AcDbEntity
  8
0
  6
Continuous
 62
     7
370
     0
100
AcDbLine
 10
1.9610870804
 20
5.0146201722
 30
0.0
 11
1.9569217323
 21
4.9931882102
 31
0.0
  0
SPLINE
  5
311
330
1F
100
AcDbEntity
  8
0
  6
Continuous
 62
     7
370
     0
100
AcDbSpline
210
0.0
220
0.0
230
1.0
 70
     8
 71
     3
 72
     9
 73
     5
 74
     0
 42
0.00000001
 43
0.00000001
 40
0.0
 40
0.0
 40
0.0
 40
0.0
 40
0.5599823189896056
 40
1.0
 40
1.0
 40
1.0
 40
1.0
 10
1.961540996577437
 20
5.018082395305502
 30
0.0
 10
1.961484529362035
 20
5.017432324051169
 30
0.0
 10
1.961383691865052
 20
5.016271445872899
 30
0.0
 10
1.961177714236605
 20
5.015124742127217
 30
0.0
 10
1.961087080438197
 20
5.014620172204236
 30
0.0
  0
SPLINE
  5
312
330
1F
100
AcDbEntity
  8
0
  6
Continuous
 62
     7
370
     0
100
AcDbSpline
210
0.0
220
0.0
230
1.0
 70
     8
 71
     3
 72
     9
 73
     5
 74
     0
 42
0.00000001
 43
0.00000001
 40
0.0
 40
0.0
 40
0.0
 40
0.0
 40
0.557228436297663
 40
1.0
 40
1.0
 40
1.0
 40
1.0
 10
1.971482650058449
 20
5.020512181697907
 30
0.0
 10
1.969527955806143
 20
5.020471488093854
 30
0.0
 10
1.966020069049153
 20
5.020398459509162
 30
0.0
 10
1.962915577260985
 20
5.01879317128341
 30
0.0
 10
1.961540996577437
 20
5.018082395305502
 30
0.0
  0
SPLINE
  5
313
330
1F
100
AcDbEntity
  8
0
  6
Continuous
 62
     7
370
     0
100
AcDbSpline
210
0.0
220
0.0
230
1.0
 70
     8
 71
     3
 72
    10
 73
     6
 74
     0
 42
0.00000001
 43
0.00000001
 40
0.0
 40
0.0
 40
0.0
 40
0.0
 40
0.2798374850656393
 40
0.5592745891417032
 40
1.0
 40
1.0
 40
1.0
 40
1.0
 10
1.976457926957184
 20
5.016836351001705
 30
0.0
 10
1.976224845121586
 20
5.017408353237135
 30
0.0
 10
1.975759014935148
 20
5.018551539308628
 30
0.0
 10
1.973964666355496
 20
5.019942333979983
 30
0.0
 10
1.972424935379856
 20
5.020295841804943
 30
0.0
 10
1.971482650058449
 20
5.020512181697907
 30
0.0
  0
SPLINE
  5
314
330
1F
100
AcDbEntity
  8
0
  6
Continuous
 62
     7
370
     0
100
AcDbSpline
210
0.0
220
0.0
230
1.0
 70
     8
 71
     3
 72
     9
 73
     5
 74
     0
 42
0.00000001
 43
0.00000001
 40
0.0
 40
0.0
 40
0.0
 40
0.0
 40
0.5612366806881215
 40
1.0
 40
1.0
 40
1.0
 40
1.0
 10
1.976004010817943
 20
5.009271082014362
 30
0.0
 10
1.976291075319026
 20
5.010676718737306
 30
0.0
 10
1.976802560955942
 20
5.013181253403894
 30
0.0
 10
1.976563026076138
 20
5.015721697373205
 30
0.0
 10
1.976457926957184
 20
5.016836351001705
 30
0.0
  0
LINE
  5
315
330
1F
100
AcDbEntity
  8
0
  6
Continuous
 62
     7
370
     0
100
AcDbLine
 10
1.9723014792
 20
4.9902066042
 30
0.0
 11
1.9760040108
 21
5.009271082
 31
0.0
  0
LINE
  5
316
330
1F
100
AcDbEntity
  8
0
  6
Continuous
 62
     7
370
     0
100
AcDbLine
 10
1.9779976817
 20
4.9890940646
 30
0.0
 11
1.9723014792
 21
4.9902066042
 31
0.0
  0
LINE
  5
317
330
1F
100
AcDbEntity
  8
0
  6
Continuous
 62
     7
370
     0
100
AcDbLine
 10
1.9821897308
 20
5.010677332
 30
0.0
 11
1.9779976817
 21
4.9890940646
 31
0.0
  0
SPLINE
  5
318
330
1F
100
AcDbEntity
  8
0
  6
Continuous
 62
     7
370
     0
100
AcDbSpline
210
0.0
220
0.0
230
1.0
 70
     8
 71
     3
 72
    11
 73
     7
 74
     0
 42
0.00000001
 43
0.00000001
 40
0.0
 40
0.0
 40
0.0
 40
0.0
 40
0.2800041766315739
 40
0.5576381702101244
 40
0.7785279338349406
 40
1.0
 40
1.0
 40
1.0
 40
1.0
 10
1.974134944362247
 20
5.025309452267527
 30
0.0
 10
1.975888271570148
 20
5.02482864264922
 30
0.0
 10
1.979380084398639
 20
5.023871093376219
 30
0.0
 10
1.982277083263248
 20
5.019401034748864
 30
0.0
 10
1.982811455342339
 20
5.01483180287169
 30
0.0
 10
1.982397154072231
 20
5.012063370374563
 30
0.0
 10
1.982189730754652
 20
5.010677332014362
 30
0.0
  0
LINE
  5
319
330
1F
100
AcDbEntity
  8
0
  6
Continuous
 62
     7
370
     0
100
AcDbLine
 10
2.0640510732
 20
5.0228419136
 30
0.0
 11
2.0710022204
 21
5.0074621668
 31
0.0
  0
LINE
  5
31A
330
1F
100
AcDbEntity
  8
0
  6
Continuous
 62
     7
370
     0
100
AcDbLine
 10
2.0856966428
 20
5.0326144611
 30
0.0
 11
2.0640510732
 21
5.0228419136
 31
0.0
  0
LINE
  5
31B
330
1F
100
AcDbEntity
  8
0
  6
Continuous
 62
     7
370
     0
100
AcDbLine
 10
2.0836406697
 20
5.0371714231
 30
0.0
 11
2.0856966428
 21
5.0326144611
 31
0.0
  0
LINE
  5
31C
330
1F
100
AcDbEntity
  8
0
  6
Continuous
 62
     7
370
     0
100
AcDbLine
 10
2.0619951001
 20
5.0273988756
 30
0.0
 11
2.0836406697
 21
5.0371714231
 31
0.0
  0
LINE
  5
31D
330
1F
100
AcDbEntity
  8
0
  6
Continuous
 62
     7
370
     0
100
AcDbLine
 10
2.0568507172
 20
5.0387912807
 30
0.0
 11
2.0619951001
 21
5.0273988756
 31
0.0
  0
LINE
  5
31E
330
1F
100
AcDbEntity
  8
0
  6
Continuous
 62
     7
370
     0
100
AcDbLine
 10
2.0784962868
 20
5.0485638281
 30
0.0
 11
2.0568507172
 21
5.0387912807
 31
0.0
  0
LINE
  5
31F
330
1F
100
AcDbEntity
  8
0
  6
Continuous
 62
     7
370
     0
100
AcDbLine
 10
2.0764403137
 20
5.0531207902
 30
0.0
 11
2.0784962868
 21
5.0485638281
 31
0.0
  0
LINE
  5
320
330
1F
100
AcDbEntity
  8
0
  6
Continuous
 62
     7
370
     0
100
AcDbLine
 10
2.0496681618
 20
5.0410341604
 30
0.0
 11
2.0764403137
 21
5.0531207902
 31
0.0
  0
LINE
  5
321
330
1F
100
AcDbEntity
  8
0
  6
Continuous
 62
     7
370
     0
100
AcDbLine
 10
2.0679316112
 20
5.0005911224
 30
0.0
 11
2.0496681618
 21
5.0410341604
 31
0.0
  0
LINE
  5
322
330
1F
100
AcDbEntity
  8
0
  6
Continuous
 62
     7
370
     0
100
AcDbLine
 10
2.0947037631
 20
5.0126777522
 30
0.0
 11
2.0679316112
 21
5.0005911224
 31
0.0
  0
LINE
  5
323
330
1F
100
AcDbEntity
  8
0
  6
Continuous
 62
     7
370
     0
100
AcDbLine
 10
2.09264779
 20
5.0172347142
 30
0.0
 11
2.0947037631
 21
5.0126777522
 31
0.0
  0
LINE
  5
324
330
1F
100
AcDbEntity
  8
0
  6
Continuous
 62
     7
370
     0
100
AcDbLine
 10
2.0710022204
 20
5.0074621668
 30
0.0
 11
2.09264779
 21
5.0172347142
 31
0.0
  0
CIRCLE
  5
325
330
1F
100
AcDbEntity
  8
0
  6
Continuous
 62
     7
370
     0
100
AcDbCircle
 10
1.9954745881
 20
5.1971244127
 30
0.0
 40
0.2849999999999993
  0
SPLINE
  5
326
330
1F
100
AcDbEntity
  8
0
  6
Continuous
 62
     7
370
     0
100
AcDbSpline
210
0.0
220
0.0
230
1.0
 70
     8
 71
     3
 72
    12
 73
     8
 74
     0
 42
0.00000001
 43
0.00000001
 40
0.0
 40
0.0
 40
0.0
 40
0.0
 40
0.1866996430089
 40
0.3729852302505758
 40
0.5594630584438988
 40
0.7794656982284609
 40
1.0
 40
1.0
 40
1.0
 40
1.0
 10
1.836754085950436
 20
5.354814233098227
 30
0.0
 10
1.834583445225006
 20
5.352271069281309
 30
0.0
 10
1.830246977743239
 20
5.347190381784904
 30
0.0
 10
1.827631521006063
 20
5.337243764022651
 30
0.0
 10
1.829020234869309
 20
5.326624610281092
 30
0.0
 10
1.834229484199296
 20
5.316545863047731
 30
0.0
 10
1.839577331063558
 20
5.310826233444444
 30
0.0
 10
1.842254481520056
 20
5.307962967275443
 30
0.0
  0
SPLINE
  5
327
330
1F
100
AcDbEntity
  8
0
  6
Continuous
 62
     7
370
     0
100
AcDbSpline
210
0.0
220
0.0
230
1.0
 70
     8
 71
     3
 72
    12
 73
     8
 74
     0
 42
0.00000001
 43
0.00000001
 40
0.0
 40
0.0
 40
0.0
 40
0.0
 40
0.1866367610939045
 40
0.372902883229549
 40
0.5594166568566261
 40
0.779447778718552
 40
1.0
 40
1.0
 40
1.0
 40
1.0
 10
1.889159149241575
 20
5.30331700208557
 30
0.0
 10
1.891312054006069
 20
5.305865546727176
 30
0.0
 10
1.895613588115924
 20
5.310957574896355
 30
0.0
 10
1.898198410027286
 20
5.320880781055153
 30
0.0
 10
1.896877837836884
 20
5.331486571802483
 30
0.0
 10
1.891682871887716
 20
5.341559943499782
 30
0.0
 10
1.886335567916323
 20
5.34726097754262
 30
0.0
 10
1.883658753671955
 20
5.35011486600962
 30
0.0
  0
SPLINE
  5
328
330
1F
100
AcDbEntity
  8
0
  6
Continuous
 62
     7
370
     0
100
AcDbSpline
210
0.0
220
0.0
230
1.0
 70
     8
 71
     3
 72
    13
 73
     9
 74
     0
 42
0.00000001
 43
0.00000001
 40
0.0
 40
0.0
 40
0.0
 40
0.0
 40
0.1869963221313411
 40
0.3737405268780521
 40
0.5600804945389757
 40
0.7066587239386298
 40
0.85323387357041
 40
1.0
 40
1.0
 40
1.0
 40
1.0
 10
1.842254481520056
 20
5.307962967275443
 30
0.0
 10
1.84470623163689
 20
5.305723047998331
 30
0.0
 10
1.849606426303795
 20
5.301246229410401
 30
0.0
 10
1.858299550987789
 20
5.296225336415026
 30
0.0
 10
1.867448500722756
 20
5.294068625444923
 30
0.0
 10
1.876019072209744
 20
5.294948211152812
 30
0.0
 10
1.883354107687813
 20
5.2980384627438
 30
0.0
 10
1.887223295725396
 20
5.301556725462152
 30
0.0
 10
1.889159149241575
 20
5.30331700208557
 30
0.0
  0
SPLINE
  5
329
330
1F
100
AcDbEntity
  8
0
  6
Continuous
 62
     7
370
     0
100
AcDbSpline
210
0.0
220
0.0
230
1.0
 70
     8
 71
     3
 72
    13
 73
     9
 74
     0
 42
0.00000001
 43
0.00000001
 40
0.0
 40
0.0
 40
0.0
 40
0.0
 40
0.1870071950849894
 40
0.3737733832546896
 40
0.5601573318136409
 40
0.7067152210264002
 40
0.8532447245366872
 40
1.0
 40
1.0
 40
1.0
 40
1.0
 10
1.883658753671955
 20
5.35011486600962
 30
0.0
 10
1.88120674089966
 20
5.352356424210987
 30
0.0
 10
1.876305875404791
 20
5.356836651788897
 30
0.0
 10
1.867592349525717
 20
5.361822752325475
 30
0.0
 10
1.858465924492688
 20
5.364035316168191
 30
0.0
 10
1.849878548818964
 20
5.363222848142351
 30
0.0
 10
1.842561664474967
 20
5.3600839838359
 30
0.0
 10
1.8386909386927
 20
5.356571717930193
 30
0.0
 10
1.836754085950436
 20
5.354814233098227
 30
0.0
  0
LINE
  5
32A
330
1F
100
AcDbEntity
  8
0
  6
Continuous
 62
     7
370
     0
100
AcDbLine
 10
1.9416164751
 20
5.3806889978
 30
0.0
 11
1.953596301
 21
5.3829496781
 31
0.0
  0
LINE
  5
32B
330
1F
100
AcDbEntity
  8
0
  6
Continuous
 62
     7
370
     0
100
AcDbLine
 10
1.9355820605
 20
5.4125877319
 30
0.0
 11
1.9416164751
 21
5.3806889978
 31
0.0
  0
LINE
  5
32C
330
1F
100
AcDbEntity
  8
0
  6
Continuous
 62
     7
370
     0
100
AcDbLine
 10
1.9495199561
 20
5.4152222256
 30
0.0
 11
1.9355820605
 21
5.4125877319
 31
0.0
  0
SPLINE
  5
32D
330
1F
100
AcDbEntity
  8
0
  6
Continuous
 62
     7
370
     0
100
AcDbSpline
210
0.0
220
0.0
230
1.0
 70
     8
 71
     3
 72
     9
 73
     5
 74
     0
 42
0.00000001
 43
0.00000001
 40
0.0
 40
0.0
 40
0.0
 40
0.0
 40
0.5580880948140325
 40
1.0
 40
1.0
 40
1.0
 40
1.0
 10
1.964508089008697
 20
5.414990817384677
 30
0.0
 10
1.961720032835453
 20
5.415556462818297
 30
0.0
 10
1.956724305101514
 20
5.416570004298353
 30
0.0
 10
1.951727918721529
 20
5.415635287911742
 30
0.0
 10
1.949519956097305
 20
5.415222225612526
 30
0.0
  0
SPLINE
  5
32E
330
1F
100
AcDbEntity
  8
0
  6
Continuous
 62
     7
370
     0
100
AcDbSpline
210
0.0
220
0.0
230
1.0
 70
     8
 71
     3
 72
     9
 73
     5
 74
     0
 42
0.00000001
 43
0.00000001
 40
0.0
 40
0.0
 40
0.0
 40
0.0
 40
0.5598594958482542
 40
1.0
 40
1.0
 40
1.0
 40
1.0
 10
1.972429370654267
 20
5.404915659156829
 30
0.0
 10
1.971707074150042
 20
5.407433484312805
 30
0.0
 10
1.970416935267731
 20
5.411930729022679
 30
0.0
 10
1.966313970145926
 20
5.414055583058224
 30
0.0
 10
1.964508089008697
 20
5.414990817384677
 30
0.0
  0
SPLINE
  5
32F
330
1F
100
AcDbEntity
  8
0
  6
Continuous
 62
     7
370
     0
100
AcDbSpline
210
0.0
220
0.0
230
1.0
 70
     8
 71
     3
 72
    10
 73
     6
 74
     0
 42
0.00000001
 43
0.00000001
 40
0.0
 40
0.0
 40
0.0
 40
0.0
 40
0.2801907741799032
 40
0.5600980828705658
 40
1.0
 40
1.0
 40
1.0
 40
1.0
 10
1.969688073185912
 20
5.390586149663158
 30
0.0
 10
1.970472918700007
 20
5.391761442203266
 30
0.0
 10
1.972041815709843
 20
5.394110838254771
 30
0.0
 10
1.973252952026047
 20
5.399106689091549
 30
0.0
 10
1.97274177174359
 20
5.402712199197166
 30
0.0
 10
1.972429370654267
 20
5.404915659156829
 30
0.0
  0
SPLINE
  5
330
330
1F
100
AcDbEntity
  8
0
  6
Continuous
 62
     7
370
     0
100
AcDbSpline
210
0.0
220
0.0
230
1.0
 70
     8
 71
     3
 72
    10
 73
     6
 74
     0
 42
0.00000001
 43
0.00000001
 40
0.0
 40
0.0
 40
0.0
 40
0.0
 40
0.5600879827705254
 40
0.7801283787024192
 40
1.0
 40
1.0
 40
1.0
 40
1.0
 10
1.953596301034013
 20
5.382949678144171
 30
0.0
 10
1.956925176144551
 20
5.383681903067085
 30
0.0
 10
1.961561858278028
 20
5.384701795404595
 30
0.0
 10
1.966953447587744
 20
5.387642111477504
 30
0.0
 10
1.968776764495
 20
5.389605054632542
 30
0.0
 10
1.969688073185912
 20
5.390586149663158
 30
0.0
  0
LINE
  5
331
330
1F
100
AcDbEntity
  8
0
  6
Continuous
 62
     7
370
     0
100
AcDbLine
 10
2.1389922481
 20
5.3059148992
 30
0.0
 11
2.1597477861
 21
5.3448092821
 31
0.0
  0
LINE
  5
332
330
1F
100
AcDbEntity
  8
0
  6
Continuous
 62
     7
370
     0
100
AcDbLine
 10
2.1189309348
 20
5.3281122884
 30
0.0
 11
2.1389922481
 21
5.3059148992
 31
0.0
  0
LINE
  5
333
330
1F
100
AcDbEntity
  8
0
  6
Continuous
 62
     7
370
     0
100
AcDbLine
 10
2.1597477861
 20
5.3448092821
 30
0.0
 11
2.1189309348
 21
5.3281122884
 31
0.0
  0
LINE
  5
334
330
1F
100
AcDbEntity
  8
0
  6
Continuous
 62
     7
370
     0
100
AcDbLine
 10
2.1796499952
 20
5.2288035528
 30
0.0
 11
2.1763746788
 21
5.2475298186
 31
0.0
  0
SPLINE
  5
335
330
1F
100
AcDbEntity
  8
0
  6
Continuous
 62
     7
370
     0
100
AcDbSpline
210
0.0
220
0.0
230
1.0
 70
     8
 71
     3
 72
     9
 73
     5
 74
     0
 42
0.00000001
 43
0.00000001
 40
0.0
 40
0.0
 40
0.0
 40
0.0
 40
0.5584123557144304
 40
1.0
 40
1.0
 40
1.0
 40
1.0
 10
2.180326419281633
 20
5.211376733173862
 30
0.0
 10
2.18063563664342
 20
5.214642148197983
 30
0.0
 10
2.181189380411124
 20
5.220489825081753
 30
0.0
 10
2.180121540251544
 20
5.226256888739185
 30
0.0
 10
2.179649995231001
 20
5.228803552794115
 30
0.0
  0
LINE
  5
336
330
1F
100
AcDbEntity
  8
0
  6
Continuous
 62
     7
370
     0
100
AcDbLine
 10
2.1444759446
 20
5.2419760211
 30
0.0
 11
2.1472350427
 21
5.2262046604
 31
0.0
  0
SPLINE
  5
337
330
1F
100
AcDbEntity
  8
0
  6
Continuous
 62
     7
370
     0
100
AcDbSpline
210
0.0
220
0.0
230
1.0
 70
     8
 71
     3
 72
    10
 73
     6
 74
     0
 42
0.00000001
 43
0.00000001
 40
0.0
 40
0.0
 40
0.0
 40
0.0
 40
0.2806813719182228
 40
0.5606218894487756
 40
1.0
 40
1.0
 40
1.0
 40
1.0
 10
2.154533302193026
 20
5.205805135072596
 30
0.0
 10
2.155560989874873
 20
5.204843136378384
 30
0.0
 10
2.157613652671919
 20
5.202921678171485
 30
0.0
 10
2.162348904112614
 20
5.200839371039316
 30
0.0
 10
2.165994913592378
 20
5.201247864012128
 30
0.0
 10
2.168221988901887
 20
5.201497381908039
 30
0.0
  0
SPLINE
  5
338
330
1F
100
AcDbEntity
  8
0
  6
Continuous
 62
     7
370
     0
100
AcDbSpline
210
0.0
220
0.0
230
1.0
 70
     8
 71
     3
 72
    11
 73
     7
 74
     0
 42
0.00000001
 43
0.00000001
 40
0.0
 40
0.0
 40
0.0
 40
0.0
 40
0.2804362479381253
 40
0.5596729420112712
 40
0.7796025430872308
 40
1.0
 40
1.0
 40
1.0
 40
1.0
 10
2.168221988901887
 20
5.201497381908039
 30
0.0
 10
2.169744817764265
 20
5.201825585424835
 30
0.0
 10
2.172783961654733
 20
5.202480588582147
 30
0.0
 10
2.176698700666335
 20
5.204608396639528
 30
0.0
 10
2.179130406241388
 20
5.207899079588368
 30
0.0
 10
2.1799274659712
 20
5.210216694475463
 30
0.0
 10
2.180326419281633
 20
5.211376733173862
 30
0.0
  0
SPLINE
  5
339
330
1F
100
AcDbEntity
  8
0
  6
Continuous
 62
     7
370
     0
100
AcDbSpline
210
0.0
220
0.0
230
1.0
 70
     8
 71
     3
 72
    10
 73
     6
 74
     0
 42
0.00000001
 43
0.00000001
 40
0.0
 40
0.0
 40
0.0
 40
0.0
 40
0.5602852136550245
 40
0.7803322306575745
 40
1.0
 40
1.0
 40
1.0
 40
1.0
 10
2.147235042699355
 20
5.226204660389052
 30
0.0
 10
2.147998566806782
 20
5.222183515887662
 30
0.0
 10
2.14906195819279
 20
5.216583102772888
 30
0.0
 10
2.151606610052736
 20
5.209662477404357
 30
0.0
 10
2.153558299247521
 20
5.207090176325658
 30
0.0
 10
2.154533302193026
 20
5.205805135072596
 30
0.0
  0
LINE
  5
33A
330
1F
100
AcDbEntity
  8
0
  6
Continuous
 62
     7
370
     0
100
AcDbLine
 10
2.1763746788
 20
5.2475298186
 30
0.0
 11
2.1444759446
 21
5.2419760211
 31
0.0
  0
LINE
  5
33B
330
1F
100
AcDbEntity
  8
0
  6
Continuous
 62
     7
370
     0
100
AcDbLine
 10
2.2141476218
 20
5.239608537
 30
0.0
 11
2.2116911345
 21
5.2536888376
 31
0.0
  0
SPLINE
  5
33C
330
1F
100
AcDbEntity
  8
0
  6
Continuous
 62
     7
370
     0
100
AcDbSpline
210
0.0
220
0.0
230
1.0
 70
     8
 71
     3
 72
    10
 73
     6
 74
     0
 42
0.00000001
 43
0.00000001
 40
0.0
 40
0.0
 40
0.0
 40
0.0
 40
0.2793465162590625
 40
0.5594972049701687
 40
0.9999999999999999
 40
0.9999999999999999
 40
0.9999999999999999
 40
0.9999999999999999
 10
2.214735042699355
 20
5.222519929376393
 30
0.0
 10
2.215101955973263
 20
5.224096268396067
 30
0.0
 10
2.215836838777483
 20
5.227253484342065
 30
0.0
 10
2.215196236340515
 20
5.233030765367304
 30
0.0
 10
2.214545430134693
 20
5.237113156435897
 30
0.0
 10
2.214147621813279
 20
5.239608536971329
 30
0.0
  0
SPLINE
  5
33D
330
1F
100
AcDbEntity
  8
0
  6
Continuous
 62
     7
370
     0
100
AcDbSpline
210
0.0
220
0.0
230
1.0
 70
     8
 71
     3
 72
     9
 73
     5
 74
     0
 42
0.00000001
 43
0.00000001
 40
0.0
 40
0.0
 40
0.0
 40
0.0
 40
0.5603126358926022
 40
1.0
 40
1.0
 40
1.0
 40
1.0
 10
2.20674255852214
 20
5.216432112920697
 30
0.0
 10
2.208753622550674
 20
5.216937843372609
 30
0.0
 10
2.2123428045532
 20
5.217840429570946
 30
0.0
 10
2.214004441798755
 20
5.221090787893253
 30
0.0
 10
2.214735042699355
 20
5.222519929376393
 30
0.0
  0
LINE
  5
33E
330
1F
100
AcDbEntity
  8
0
  6
Continuous
 62
     7
370
     0
100
AcDbLine
 10
2.1866278433
 20
5.2493276825
 30
0.0
 11
2.1892979383
 21
5.2340547395
 31
0.0
  0
LINE
  5
33F
330
1F
100
AcDbEntity
  8
0
  6
Continuous
 62
     7
370
     0
100
AcDbLine
 10
2.2116911345
 20
5.2536888376
 30
0.0
 11
2.1866278433
 21
5.2493276825
 31
0.0
  0
SPLINE
  5
340
330
1F
100
AcDbEntity
  8
0
  6
Continuous
 62
     7
370
     0
100
AcDbSpline
210
0.0
220
0.0
230
1.0
 70
     8
 71
     3
 72
     9
 73
     5
 74
     0
 42
0.00000001
 43
0.00000001
 40
0.0
 40
0.0
 40
0.0
 40
0.0
 40
0.5613775866034583
 40
1.0
 40
1.0
 40
1.0
 40
1.0
 10
2.189297938268976
 20
5.234054739502975
 30
0.0
 10
2.189749950120196
 20
5.231130570799532
 30
0.0
 10
2.190555133408606
 20
5.22592165478075
 30
0.0
 10
2.193467501860703
 20
5.22155259457602
 30
0.0
 10
2.194744931939862
 20
5.219636226844748
 30
0.0
  0
SPLINE
  5
341
330
1F
100
AcDbEntity
  8
0
  6
Continuous
 62
     7
370
     0
100
AcDbSpline
210
0.0
220
0.0
230
1.0
 70
     8
 71
     3
 72
    10
 73
     6
 74
     0
 42
0.00000001
 43
0.00000001
 40
0.0
 40
0.0
 40
0.0
 40
0.0
 40
0.2800098553163181
 40
0.5598108846823155
 40
1.0
 40
1.0
 40
1.0
 40
1.0
 10
2.194744931939862
 20
5.219636226844748
 30
0.0
 10
2.195637722942569
 20
5.218797715564435
 30
0.0
 10
2.197422639121671
 20
5.21712131834935
 30
0.0
 10
2.201721660827195
 20
5.215865984022453
 30
0.0
 10
2.204837555915529
 20
5.216217315270484
 30
0.0
 10
2.20674255852214
 20
5.216432112920697
 30
0.0
  0
SPLINE
  5
342
330
1F
100
AcDbEntity
  8
0
  6
Continuous
 62
     7
370
     0
100
AcDbSpline
210
0.0
220
0.0
230
1.0
 70
     8
 71
     3
 72
    11
 73
     7
 74
     0
 42
0.00000001
 43
0.00000001
 40
0.0
 40
0.0
 40
0.0
 40
0.0
 40
0.2796750151035803
 40
0.5596025493532587
 40
0.7797879916378662
 40
1.0
 40
1.0
 40
1.0
 40
1.0
 10
1.860090715697271
 20
5.375053552718483
 30
0.0
 10
1.863536578351868
 20
5.374663705662242
 30
0.0
 10
1.870431414937538
 20
5.373883659556051
 30
0.0
 10
1.879249627150518
 20
5.369730685723923
 30
0.0
 10
1.886645451009435
 20
5.364788130965527
 30
0.0
 10
1.890623385033818
 20
5.361081978217379
 30
0.0
 10
1.892612472026385
 20
5.359228790060253
 30
0.0
  0
SPLINE
  5
343
330
1F
100
AcDbEntity
  8
0
  6
Continuous
 62
     7
370
     0
100
AcDbSpline
210
0.0
220
0.0
230
1.0
 70
     8
 71
     3
 72
    12
 73
     8
 74
     0
 42
0.00000001
 43
0.00000001
 40
0.0
 40
0.0
 40
0.0
 40
0.0
 40
0.1866367610939045
 40
0.372902883229549
 40
0.5594166568566261
 40
0.779447778718552
 40
1.0
 40
1.0
 40
1.0
 40
1.0
 10
1.889159149241575
 20
5.30331700208557
 30
0.0
 10
1.891312054006069
 20
5.305865546727176
 30
0.0
 10
1.895613588115924
 20
5.310957574896355
 30
0.0
 10
1.898198410027286
 20
5.320880781055153
 30
0.0
 10
1.896877837836884
 20
5.331486571802483
 30
0.0
 10
1.891682871887716
 20
5.341559943499782
 30
0.0
 10
1.886335567916323
 20
5.34726097754262
 30
0.0
 10
1.883658753671955
 20
5.35011486600962
 30
0.0
  0
SPLINE
  5
344
330
1F
100
AcDbEntity
  8
0
  6
Continuous
 62
     7
370
     0
100
AcDbSpline
210
0.0
220
0.0
230
1.0
 70
     8
 71
     3
 72
    11
 73
     7
 74
     0
 42
0.00000001
 43
0.00000001
 40
0.0
 40
0.0
 40
0.0
 40
0.0
 40
0.2801246362106525
 40
0.5600773453847241
 40
0.7801016060622836
 40
1.0
 40
1.0
 40
1.0
 40
1.0
 10
1.892612472026385
 20
5.359228790060253
 30
0.0
 10
1.894984945477251
 20
5.356723810932485
 30
0.0
 10
1.89972843626882
 20
5.351715390112729
 30
0.0
 10
1.904721971858003
 20
5.343461534139594
 30
0.0
 10
1.908029045738641
 20
5.335173384152231
 30
0.0
 10
1.908621639610915
 20
5.329777844824426
 30
0.0
 10
1.90891785177322
 20
5.327080847022279
 30
0.0
  0
SPLINE
  5
345
330
1F
100
AcDbEntity
  8
0
  6
Continuous
 62
     7
370
     0
100
AcDbSpline
210
0.0
220
0.0
230
1.0
 70
     8
 71
     3
 72
    13
 73
     9
 74
     0
 42
0.00000001
 43
0.00000001
 40
0.0
 40
0.0
 40
0.0
 40
0.0
 40
0.1869963221313411
 40
0.3737405268780521
 40
0.5600804945389795
 40
0.7066587239386326
 40
0.85323387357041
 40
1.0
 40
1.0
 40
1.0
 40
1.0
 10
1.842254481520056
 20
5.307962967275443
 30
0.0
 10
1.84470623163689
 20
5.305723047998331
 30
0.0
 10
1.849606426303795
 20
5.301246229410401
 30
0.0
 10
1.858299550987789
 20
5.296225336415028
 30
0.0
 10
1.867448500722757
 20
5.294068625444921
 30
0.0
 10
1.876019072209744
 20
5.294948211152812
 30
0.0
 10
1.883354107687813
 20
5.2980384627438
 30
0.0
 10
1.887223295725396
 20
5.301556725462151
 30
0.0
 10
1.889159149241575
 20
5.30331700208557
 30
0.0
  0
SPLINE
  5
346
330
1F
100
AcDbEntity
  8
0
  6
Continuous
 62
     7
370
     0
100
AcDbSpline
210
0.0
220
0.0
230
1.0
 70
     8
 71
     3
 72
    12
 73
     8
 74
     0
 42
0.00000001
 43
0.00000001
 40
0.0
 40
0.0
 40
0.0
 40
0.0
 40
0.1866996430089002
 40
0.3729852302505756
 40
0.5594630584438984
 40
0.7794656982284608
 40
1.0
 40
1.0
 40
1.0
 40
1.0
 10
1.836754085950436
 20
5.354814233098227
 30
0.0
 10
1.834583445225006
 20
5.352271069281307
 30
0.0
 10
1.830246977743239
 20
5.347190381784904
 30
0.0
 10
1.827631521006063
 20
5.337243764022651
 30
0.0
 10
1.829020234869308
 20
5.326624610281091
 30
0.0
 10
1.834229484199296
 20
5.316545863047732
 30
0.0
 10
1.839577331063558
 20
5.310826233444443
 30
0.0
 10
1.842254481520056
 20
5.307962967275443
 30
0.0
  0
SPLINE
  5
347
330
1F
100
AcDbEntity
  8
0
  6
Continuous
 62
     7
370
     0
100
AcDbSpline
210
0.0
220
0.0
230
1.0
 70
     8
 71
     3
 72
    11
 73
     7
 74
     0
 42
0.00000001
 43
0.00000001
 40
0.0
 40
0.0
 40
0.0
 40
0.0
 40
0.2801006522962095
 40
0.5600324108246005
 40
0.7800533069372584
 40
1.0
 40
1.0
 40
1.0
 40
1.0
 10
1.829883041646638
 20
5.36148947044
 30
0.0
 10
1.832211983054596
 20
5.36366595207258
 30
0.0
 10
1.836868461576426
 20
5.368017602973132
 30
0.0
 10
1.844725745110479
 20
5.372272679761426
 30
0.0
 10
1.852581340955841
 20
5.374758432484586
 30
0.0
 10
1.857587872243505
 20
5.374955190368632
 30
0.0
 10
1.860090715697271
 20
5.375053552718483
 30
0.0
  0
SPLINE
  5
348
330
1F
100
AcDbEntity
  8
0
  6
Continuous
 62
     7
370
     0
100
AcDbSpline
210
0.0
220
0.0
230
1.0
 70
     8
 71
     3
 72
    11
 73
     7
 74
     0
 42
0.00000001
 43
0.00000001
 40
0.0
 40
0.0
 40
0.0
 40
0.0
 40
0.2800975005928519
 40
0.5600479415246297
 40
0.7800610806787998
 40
1.0
 40
1.0
 40
1.0
 40
1.0
 10
1.895958991013727
 20
5.296570562212152
 30
0.0
 10
1.893622293892068
 20
5.294399268580789
 30
0.0
 10
1.888950126485428
 20
5.290057821312905
 30
0.0
 10
1.881086983871082
 20
5.285798425500824
 30
0.0
 10
1.873214366205046
 20
5.283338337828369
 30
0.0
 10
1.868203116978975
 20
5.283164557814114
 30
0.0
 10
1.86569791506436
 20
5.283077682465317
 30
0.0
  0
SPLINE
  5
349
330
1F
100
AcDbEntity
  8
0
  6
Continuous
 62
     7
370
     0
100
AcDbSpline
210
0.0
220
0.0
230
1.0
 70
     8
 71
     3
 72
    13
 73
     9
 74
     0
 42
0.00000001
 43
0.00000001
 40
0.0
 40
0.0
 40
0.0
 40
0.0
 40
0.1870071950849894
 40
0.3737733832546896
 40
0.5601573318136409
 40
0.7067152210264002
 40
0.8532447245366872
 40
1.0
 40
1.0
 40
1.0
 40
1.0
 10
1.883658753671955
 20
5.35011486600962
 30
0.0
 10
1.88120674089966
 20
5.352356424210987
 30
0.0
 10
1.876305875404791
 20
5.356836651788897
 30
0.0
 10
1.867592349525717
 20
5.361822752325475
 30
0.0
 10
1.858465924492688
 20
5.364035316168191
 30
0.0
 10
1.849878548818964
 20
5.363222848142351
 30
0.0
 10
1.842561664474967
 20
5.3600839838359
 30
0.0
 10
1.8386909386927
 20
5.356571717930193
 30
0.0
 10
1.836754085950436
 20
5.354814233098227
 30
0.0
  0
SPLINE
  5
34A
330
1F
100
AcDbEntity
  8
0
  6
Continuous
 62
     7
370
     0
100
AcDbSpline
210
0.0
220
0.0
230
1.0
 70
     8
 71
     3
 72
    10
 73
     6
 74
     0
 42
0.00000001
 43
0.00000001
 40
0.0
 40
0.0
 40
0.0
 40
0.0
 40
0.2799338299629427
 40
0.5600654907875889
 40
1.0
 40
1.0
 40
1.0
 40
1.0
 10
1.86569791506436
 20
5.283077682465317
 30
0.0
 10
1.862269529876051
 20
5.283470593255412
 30
0.0
 10
1.85541033663973
 20
5.284256692507939
 30
0.0
 10
1.844050887961114
 20
5.289428774904287
 30
0.0
 10
1.837377787395418
 20
5.295276371937306
 30
0.0
 10
1.833300763165626
 20
5.29884904322481
 30
0.0
  0
SPLINE
  5
34B
330
1F
100
AcDbEntity
  8
0
  6
Continuous
 62
     7
370
     0
100
AcDbSpline
210
0.0
220
0.0
230
1.0
 70
     8
 71
     3
 72
    11
 73
     7
 74
     0
 42
0.00000001
 43
0.00000001
 40
0.0
 40
0.0
 40
0.0
 40
0.0
 40
0.2797126289213187
 40
0.5595903795940629
 40
0.7797750585413771
 40
0.9999999999999999
 40
0.9999999999999999
 40
0.9999999999999999
 40
0.9999999999999999
 10
1.816888579621322
 20
5.331085989427341
 30
0.0
 10
1.817006878390831
 20
5.334270958021744
 30
0.0
 10
1.817243545764738
 20
5.340642775381617
 30
0.0
 10
1.820583934006279
 20
5.348962353448818
 30
0.0
 10
1.824830710424123
 20
5.355953375567811
 30
0.0
 10
1.828198828600673
 20
5.359643993016451
 30
0.0
 10
1.829883041646638
 20
5.36148947044
 30
0.0
  0
SPLINE
  5
34C
330
1F
100
AcDbEntity
  8
0
  6
Continuous
 62
     7
370
     0
100
AcDbSpline
210
0.0
220
0.0
230
1.0
 70
     8
 71
     3
 72
    11
 73
     7
 74
     0
 42
0.00000001
 43
0.00000001
 40
0.0
 40
0.0
 40
0.0
 40
0.0
 40
0.2801107257773432
 40
0.5600641369853084
 40
0.7800787798861203
 40
1.0
 40
1.0
 40
1.0
 40
1.0
 10
1.833300763165626
 20
5.29884904322481
 30
0.0
 10
1.830923022658678
 20
5.301362866092409
 30
0.0
 10
1.826168877021081
 20
5.306389100025326
 30
0.0
 10
1.821107416634602
 20
5.314643675410209
 30
0.0
 10
1.817847543973044
 20
5.322978991023744
 30
0.0
 10
1.817208189148398
 20
5.328384039223326
 30
0.0
 10
1.816888579621322
 20
5.331085989427341
 30
0.0
  0
SPLINE
  5
34D
330
1F
100
AcDbEntity
  8
0
  6
Continuous
 62
     7
370
     0
100
AcDbSpline
210
0.0
220
0.0
230
1.0
 70
     8
 71
     3
 72
    11
 73
     7
 74
     0
 42
0.00000001
 43
0.00000001
 40
0.0
 40
0.0
 40
0.0
 40
0.0
 40
0.2797869210767756
 40
0.5595531805661655
 40
0.7797397064138184
 40
0.9999999999999999
 40
0.9999999999999999
 40
0.9999999999999999
 40
0.9999999999999999
 10
1.90891785177322
 20
5.327080847022279
 30
0.0
 10
1.90882506415919
 20
5.323882898651009
 30
0.0
 10
1.908639495783268
 20
5.317487238069222
 30
0.0
 10
1.905397633542838
 20
5.309081246858407
 30
0.0
 10
1.901051695509681
 20
5.302108336823031
 30
0.0
 10
1.897656748711989
 20
5.298416693179368
 30
0.0
 10
1.895958991013727
 20
5.296570562212152
 30
0.0
  0
SPLINE
  5
34E
330
1F
100
AcDbEntity
  8
0
  6
Continuous
 62
     7
370
     0
100
AcDbSpline
210
0.0
220
0.0
230
1.0
 70
     8
 71
     3
 72
     9
 73
     5
 74
     0
 42
0.00000001
 43
0.00000001
 40
0.0
 40
0.0
 40
0.0
 40
0.0
 40
0.5604449163640778
 40
1.0
 40
1.0
 40
1.0
 40
1.0
 10
1.86716556107143
 20
5.050857789163184
 30
0.0
 10
1.868117320285421
 20
5.052015799151119
 30
0.0
 10
1.869815541085006
 20
5.054082032520578
 30
0.0
 10
1.869699677701706
 20
5.056726604226019
 30
0.0
 10
1.869648749362569
 20
5.057889039163185
 30
0.0
  0
SPLINE
  5
34F
330
1F
100
AcDbEntity
  8
0
  6
Continuous
 62
     7
370
     0
100
AcDbSpline
210
0.0
220
0.0
230
1.0
 70
     8
 71
     3
 72
    10
 73
     6
 74
     0
 42
0.00000001
 43
0.00000001
 40
0.0
 40
0.0
 40
0.0
 40
0.0
 40
0.2801850633350176
 40
0.5602878244968804
 40
0.9999999999999999
 40
0.9999999999999999
 40
0.9999999999999999
 40
0.9999999999999999
 10
1.87541615442586
 20
5.058040344542932
 30
0.0
 10
1.875575378813921
 20
5.056874559738847
 30
0.0
 10
1.875893780819124
 20
5.054543332570858
 30
0.0
 10
1.874846862276504
 20
5.050367370580435
 30
0.0
 10
1.872912850208534
 20
5.048019734118326
 30
0.0
 10
1.871731423413202
 20
5.04658563726445
 30
0.0
  0
SPLINE
  5
350
330
1F
100
AcDbEntity
  8
0
  6
Continuous
 62
     7
370
     0
100
AcDbSpline
210
0.0
220
0.0
230
1.0
 70
     8
 71
     3
 72
     9
 73
     5
 74
     0
 42
0.00000001
 43
0.00000001
 40
0.0
 40
0.0
 40
0.0
 40
0.0
 40
0.560749126199559
 40
0.9999999999999999
 40
0.9999999999999999
 40
0.9999999999999999
 40
0.9999999999999999
 10
1.868856621198012
 20
5.06805320055559
 30
0.0
 10
1.870516903627901
 20
5.06645422663559
 30
0.0
 10
1.873477732904874
 20
5.063602730582734
 30
0.0
 10
1.874824559616097
 20
5.059737951939165
 30
0.0
 10
1.87541615442586
 20
5.058040344542932
 30
0.0
  0
SPLINE
  5
351
330
1F
100
AcDbEntity
  8
0
  6
Continuous
 62
     7
370
     0
100
AcDbSpline
210
0.0
220
0.0
230
1.0
 70
     8
 71
     3
 72
     9
 73
     5
 74
     0
 42
0.00000001
 43
0.00000001
 40
0.0
 40
0.0
 40
0.0
 40
0.0
 40
0.5577421486153149
 40
1.0
 40
1.0
 40
1.0
 40
1.0
 10
1.869648749362569
 20
5.057889039163185
 30
0.0
 10
1.869039244604045
 20
5.05950757229485
 30
0.0
 10
1.867946437183919
 20
5.062409510288389
 30
0.0
 10
1.865720300919997
 20
5.064551498589198
 30
0.0
 10
1.864735774679025
 20
5.065498809732805
 30
0.0
  0
SPLINE
  5
352
330
1F
100
AcDbEntity
  8
0
  6
Continuous
 62
     7
370
     0
100
AcDbSpline
210
0.0
220
0.0
230
1.0
 70
     8
 71
     3
 72
     9
 73
     5
 74
     0
 42
0.00000001
 43
0.00000001
 40
0.0
 40
0.0
 40
0.0
 40
0.0
 40
0.5579443468708882
 40
1.0
 40
1.0
 40
1.0
 40
1.0
 10
1.860000806324594
 20
5.047066254353058
 30
0.0
 10
1.861536817655259
 20
5.04740673705107
 30
0.0
 10
1.864289800706848
 20
5.048016981961553
 30
0.0
 10
1.866284009708659
 20
5.049986952534788
 30
0.0
 10
1.86716556107143
 20
5.050857789163184
 30
0.0
  0
SPLINE
  5
353
330
1F
100
AcDbEntity
  8
0
  6
Continuous
 62
     7
370
     0
100
AcDbSpline
210
0.0
220
0.0
230
1.0
 70
     8
 71
     3
 72
     9
 73
     5
 74
     0
 42
0.00000001
 43
0.00000001
 40
0.0
 40
0.0
 40
0.0
 40
0.0
 40
0.5596682810460089
 40
1.0
 40
1.0
 40
1.0
 40
1.0
 10
1.871731423413202
 20
5.04658563726445
 30
0.0
 10
1.870018267988568
 20
5.045099145273162
 30
0.0
 10
1.866957248662206
 20
5.042443121979307
 30
0.0
 10
1.862974069712743
 20
5.041846410435954
 30
0.0
 10
1.861220149679025
 20
5.041583659416349
 30
0.0
  0
SPLINE
  5
354
330
1F
100
AcDbEntity
  8
0
  6
Continuous
 62
     7
370
     0
100
AcDbSpline
210
0.0
220
0.0
230
1.0
 70
     8
 71
     3
 72
     9
 73
     5
 74
     0
 42
0.00000001
 43
0.00000001
 40
0.0
 40
0.0
 40
0.0
 40
0.0
 40
0.5603160630007484
 40
1.0
 40
1.0
 40
1.0
 40
1.0
 10
1.846952942400544
 20
5.061822979036602
 30
0.0
 10
1.847484450407926
 20
5.059389551317424
 30
0.0
 10
1.848433036469399
 20
5.055046595832358
 30
0.0
 10
1.85127498248773
 20
5.051654857390868
 30
0.0
 10
1.85252454050181
 20
5.050163564479639
 30
0.0
  0
SPLINE
  5
355
330
1F
100
AcDbEntity
  8
0
  6
Continuous
 62
     7
370
     0
100
AcDbSpline
210
0.0
220
0.0
230
1.0
 70
     8
 71
     3
 72
     9
 73
     5
 74
     0
 42
0.00000001
 43
0.00000001
 40
0.0
 40
0.0
 40
0.0
 40
0.0
 40
0.5583285070597471
 40
1.0
 40
1.0
 40
1.0
 40
1.0
 10
1.861220149679025
 20
5.041583659416349
 30
0.0
 10
1.858754479225944
 20
5.041892636941496
 30
0.0
 10
1.854338314867678
 20
5.042446034307454
 30
0.0
 10
1.850975008940492
 20
5.045317425589912
 30
0.0
 10
1.849489532590417
 20
5.046585637264451
 30
0.0
  0
SPLINE
  5
356
330
1F
100
AcDbEntity
  8
0
  6
Continuous
 62
     7
370
     0
100
AcDbSpline
210
0.0
220
0.0
230
1.0
 70
     8
 71
     3
 72
     9
 73
     5
 74
     0
 42
0.00000001
 43
0.00000001
 40
0.0
 40
0.0
 40
0.0
 40
0.0
 40
0.5599114912017478
 40
1.0
 40
1.0
 40
1.0
 40
1.0
 10
1.864735774679025
 20
5.065498809732805
 30
0.0
 10
1.863425594499414
 20
5.066650607713779
 30
0.0
 10
1.861085617199076
 20
5.068707714951392
 30
0.0
 10
1.858540007936703
 20
5.070502882941607
 30
0.0
 10
1.857419714552443
 20
5.071292915745463
 30
0.0
  0
SPLINE
  5
357
330
1F
100
AcDbEntity
  8
0
  6
Continuous
 62
     7
370
     0
100
AcDbSpline
210
0.0
220
0.0
230
1.0
 70
     8
 71
     3
 72
     9
 73
     5
 74
     0
 42
0.00000001
 43
0.00000001
 40
0.0
 40
0.0
 40
0.0
 40
0.0
 40
0.5604530300981732
 40
1.0
 40
1.0
 40
1.0
 40
1.0
 10
1.85252454050181
 20
5.050163564479639
 30
0.0
 10
1.853753907129196
 20
5.04914943407817
 30
0.0
 10
1.855947430156756
 20
5.047339950772686
 30
0.0
 10
1.858763160558463
 20
5.047149823999923
 30
0.0
 10
1.860000806324594
 20
5.047066254353058
 30
0.0
  0
SPLINE
  5
358
330
1F
100
AcDbEntity
  8
0
  6
Continuous
 62
     7
370
     0
100
AcDbSpline
210
0.0
220
0.0
230
1.0
 70
     8
 71
     3
 72
     9
 73
     5
 74
     0
 42
0.00000001
 43
0.00000001
 40
0.0
 40
0.0
 40
0.0
 40
0.0
 40
0.5598758874753585
 40
1.0
 40
1.0
 40
1.0
 40
1.0
 10
1.849489532590417
 20
5.04658563726445
 30
0.0
 10
1.847803479924809
 20
5.048371974101473
 30
0.0
 10
1.844792004161473
 20
5.051562568440294
 30
0.0
 10
1.842924294145446
 20
5.055522955271812
 30
0.0
 10
1.842102269932189
 20
5.057266017011287
 30
0.0
  0
SPLINE
  5
359
330
1F
100
AcDbEntity
  8
0
  6
Continuous
 62
     7
370
     0
100
AcDbSpline
210
0.0
220
0.0
230
1.0
 70
     8
 71
     3
 72
     9
 73
     5
 74
     0
 42
0.00000001
 43
0.00000001
 40
0.0
 40
0.0
 40
0.0
 40
0.0
 40
0.5612996773080573
 40
0.9999999999999999
 40
0.9999999999999999
 40
0.9999999999999999
 40
0.9999999999999999
 10
1.920311034307421
 20
5.022642364829112
 30
0.0
 10
1.92099983988843
 20
5.023853239013405
 30
0.0
 10
1.922227001792945
 20
5.02601050764057
 30
0.0
 10
1.922744988147
 20
5.02843290291251
 30
0.0
 10
1.922972228927674
 20
5.029495608499998
 30
0.0
  0
SPLINE
  5
35A
330
1F
100
AcDbEntity
  8
0
  6
Continuous
 62
     7
370
     0
100
AcDbSpline
210
0.0
220
0.0
230
1.0
 70
     8
 71
     3
 72
    10
 73
     6
 74
     0
 42
0.00000001
 43
0.00000001
 40
0.0
 40
0.0
 40
0.0
 40
0.0
 40
0.2796589837244264
 40
0.5592246942656252
 40
1.0
 40
1.0
 40
1.0
 40
1.0
 10
1.922972228927674
 20
5.029495608499998
 30
0.0
 10
1.922917169914357
 20
5.030105452716814
 30
0.0
 10
1.922807070251265
 20
5.03132493775233
 30
0.0
 10
1.921504066834476
 20
5.033157459994556
 30
0.0
 10
1.920162066984378
 20
5.033961248251385
 30
0.0
 10
1.91934089981375
 20
5.03445308476582
 30
0.0
  0
SPLINE
  5
35B
330
1F
100
AcDbEntity
  8
0
  6
Continuous
 62
     7
370
     0
100
AcDbSpline
210
0.0
220
0.0
230
1.0
 70
     8
 71
     3
 72
    11
 73
     7
 74
     0
 42
0.00000001
 43
0.00000001
 40
0.0
 40
0.0
 40
0.0
 40
0.0
 40
0.2801485780538379
 40
0.5578027760920494
 40
0.778596540906768
 40
1.0
 40
1.0
 40
1.0
 40
1.0
 10
1.923381643484636
 20
5.038164516727846
 30
0.0
 10
1.924880054427918
 20
5.037191021091327
 30
0.0
 10
1.927863534799998
 20
5.035252697604779
 30
0.0
 10
1.929377557527152
 20
5.030235230070423
 30
0.0
 10
1.928529087519218
 20
5.025769786309334
 30
0.0
 10
1.927305299090313
 20
5.023300293241618
 30
0.0
 10
1.926692561206155
 20
5.022063844259491
 30
0.0
  0
SPLINE
  5
35C
330
1F
100
AcDbEntity
  8
0
  6
Continuous
 62
     7
370
     0
100
AcDbSpline
210
0.0
220
0.0
230
1.0
 70
     8
 71
     3
 72
     9
 73
     5
 74
     0
 42
0.00000001
 43
0.00000001
 40
0.0
 40
0.0
 40
0.0
 40
0.0
 40
0.5607292063909637
 40
1.0
 40
1.0
 40
1.0
 40
1.0
 10
1.910226975763117
 20
5.039615268310124
 30
0.0
 10
1.912772981123787
 20
5.039999413689558
 30
0.0
 10
1.917313506802942
 20
5.040684495499201
 30
0.0
 10
1.921529625624111
 20
5.038933623611475
 30
0.0
 10
1.923381643484636
 20
5.038164516727846
 30
0.0
  0
SPLINE
  5
35D
330
1F
100
AcDbEntity
  8
0
  6
Continuous
 62
     7
370
     0
100
AcDbSpline
210
0.0
220
0.0
230
1.0
 70
     8
 71
     3
 72
    10
 73
     6
 74
     0
 42
0.00000001
 43
0.00000001
 40
0.0
 40
0.0
 40
0.0
 40
0.0
 40
0.2796815014044359
 40
0.5592360114418379
 40
1.0
 40
1.0
 40
1.0
 40
1.0
 10
1.904183660889699
 20
5.039935679702529
 30
0.0
 10
1.904134852783271
 20
5.040546618039401
 30
0.0
 10
1.904037258732081
 20
5.041768217312264
 30
0.0
 10
1.902701589698548
 20
5.043578137370586
 30
0.0
 10
1.901362700067697
 20
5.044377390691928
 30
0.0
 10
1.900543431459319
 20
5.044866455018985
 30
0.0
  0
SPLINE
  5
35E
330
1F
100
AcDbEntity
  8
0
  6
Continuous
 62
     7
370
     0
100
AcDbSpline
210
0.0
220
0.0
230
1.0
 70
     8
 71
     3
 72
     9
 73
     5
 74
     0
 42
0.00000001
 43
0.00000001
 40
0.0
 40
0.0
 40
0.0
 40
0.0
 40
0.5613033928974633
 40
1.0
 40
1.0
 40
1.0
 40
1.0
 10
1.90151356595299
 20
5.033064635398732
 30
0.0
 10
1.902204950488478
 20
5.034278459365622
 30
0.0
 10
1.903436698851728
 20
5.036440968950008
 30
0.0
 10
1.903955892428945
 20
5.038870050060834
 30
0.0
 10
1.904183660889699
 20
5.039935679702529
 30
0.0
  0
SPLINE
  5
35F
330
1F
100
AcDbEntity
  8
0
  6
Continuous
 62
     7
370
     0
100
AcDbSpline
210
0.0
220
0.0
230
1.0
 70
     8
 71
     3
 72
     9
 73
     5
 74
     0
 42
0.00000001
 43
0.00000001
 40
0.0
 40
0.0
 40
0.0
 40
0.0
 40
0.5606379252688954
 40
1.0
 40
1.0
 40
1.0
 40
1.0
 10
1.893049365003623
 20
5.050019738246833
 30
0.0
 10
1.895285211702314
 20
5.050300922495694
 30
0.0
 10
1.89927325210757
 20
5.050802465891505
 30
0.0
 10
1.90296302767959
 20
5.049263118264569
 30
0.0
 10
1.904584175130206
 20
5.048586787297467
 30
0.0
  0
SPLINE
  5
360
330
1F
100
AcDbEntity
  8
0
  6
Continuous
 62
     7
370
     0
100
AcDbSpline
210
0.0
220
0.0
230
1.0
 70
     8
 71
     3
 72
     9
 73
     5
 74
     0
 42
0.00000001
 43
0.00000001
 40
0.0
 40
0.0
 40
0.0
 40
0.0
 40
0.5575478592690601
 40
1.0
 40
1.0
 40
1.0
 40
1.0
 10
1.900543431459319
 20
5.044866455018985
 30
0.0
 10
1.898741799982052
 20
5.045433369879309
 30
0.0
 10
1.895510451412928
 20
5.046450170232678
 30
0.0
 10
1.892169147993584
 20
5.04597543472338
 30
0.0
 10
1.890690781142863
 20
5.04576538698101
 30
0.0
  0
SPLINE
  5
361
330
1F
100
AcDbEntity
  8
0
  6
Continuous
 62
     7
370
     0
100
AcDbSpline
210
0.0
220
0.0
230
1.0
 70
     8
 71
     3
 72
     9
 73
     5
 74
     0
 42
0.00000001
 43
0.00000001
 40
0.0
 40
0.0
 40
0.0
 40
0.0
 40
0.5574887717256999
 40
1.0
 40
1.0
 40
1.0
 40
1.0
 10
1.91934089981375
 20
5.03445308476582
 30
0.0
 10
1.917488327751697
 20
5.035026297423203
 30
0.0
 10
1.914165261609363
 20
5.036054502270462
 30
0.0
 10
1.910737890294095
 20
5.035542834288978
 30
0.0
 10
1.909221240003623
 20
5.035316415462023
 30
0.0
  0
SPLINE
  5
362
330
1F
100
AcDbEntity
  8
0
  6
Continuous
 62
     7
370
     0
100
AcDbSpline
210
0.0
220
0.0
230
1.0
 70
     8
 71
     3
 72
    10
 73
     6
 74
     0
 42
0.00000001
 43
0.00000001
 40
0.0
 40
0.0
 40
0.0
 40
0.0
 40
0.2815201925109299
 40
0.5625297880447832
 40
1.0
 40
1.0
 40
1.0
 40
1.0
 10
1.904584175130206
 20
5.048586787297467
 30
0.0
 10
1.905467593840495
 20
5.048029892634174
 30
0.0
 10
1.907232828992621
 20
5.046917113354964
 30
0.0
 10
1.909730179940212
 20
5.043988842390315
 30
0.0
 10
1.910038962985498
 20
5.041270450928472
 30
0.0
 10
1.910226975763117
 20
5.039615268310124
 30
0.0
  0
SPLINE
  5
363
330
1F
100
AcDbEntity
  8
0
  6
Continuous
 62
     7
370
     0
100
AcDbSpline
210
0.0
220
0.0
230
1.0
 70
     8
 71
     3
 72
     9
 73
     5
 74
     0
 42
0.00000001
 43
0.00000001
 40
0.0
 40
0.0
 40
0.0
 40
0.0
 40
0.5612366806881215
 40
1.0
 40
1.0
 40
1.0
 40
1.0
 10
1.976004010817943
 20
5.009271082014362
 30
0.0
 10
1.976291075319026
 20
5.010676718737306
 30
0.0
 10
1.976802560955942
 20
5.013181253403894
 30
0.0
 10
1.976563026076138
 20
5.015721697373205
 30
0.0
 10
1.976457926957184
 20
5.016836351001705
 30
0.0
  0
SPLINE
  5
364
330
1F
100
AcDbEntity
  8
0
  6
Continuous
 62
     7
370
     0
100
AcDbSpline
210
0.0
220
0.0
230
1.0
 70
     8
 71
     3
 72
     9
 73
     5
 74
     0
 42
0.00000001
 43
0.00000001
 40
0.0
 40
0.0
 40
0.0
 40
0.0
 40
0.5610012218462673
 40
1.0
 40
1.0
 40
1.0
 40
1.0
 10
1.941550885817943
 20
5.026653400052338
 30
0.0
 10
1.94357349317853
 20
5.027771457158861
 30
0.0
 10
1.947178846040207
 20
5.029764424487609
 30
0.0
 10
1.951265123974713
 20
5.029519861156945
 30
0.0
 10
1.953058994995158
 20
5.029412498153603
 30
0.0
  0
SPLINE
  5
365
330
1F
100
AcDbEntity
  8
0
  6
Continuous
 62
     7
370
     0
100
AcDbSpline
210
0.0
220
0.0
230
1.0
 70
     8
 71
     3
 72
     9
 73
     5
 74
     0
 42
0.00000001
 43
0.00000001
 40
0.0
 40
0.0
 40
0.0
 40
0.0
 40
0.5574548194838427
 40
1.0
 40
1.0
 40
1.0
 40
1.0
 10
1.950406700691361
 20
5.024606327267527
 30
0.0
 10
1.948500638599815
 20
5.024574866719949
 30
0.0
 10
1.94508141604594
 20
5.024518430670822
 30
0.0
 10
1.942047847080203
 20
5.022969026167989
 30
0.0
 10
1.940705355754652
 20
5.022283344672591
 30
0.0
  0
SPLINE
  5
366
330
1F
100
AcDbEntity
  8
0
  6
Continuous
 62
     7
370
     0
100
AcDbSpline
210
0.0
220
0.0
230
1.0
 70
     8
 71
     3
 72
    10
 73
     6
 74
     0
 42
0.00000001
 43
0.00000001
 40
0.0
 40
0.0
 40
0.0
 40
0.0
 40
0.2798374850656393
 40
0.5592745891417032
 40
1.0
 40
1.0
 40
1.0
 40
1.0
 10
1.976457926957184
 20
5.016836351001705
 30
0.0
 10
1.976224845121586
 20
5.017408353237135
 30
0.0
 10
1.975759014935148
 20
5.018551539308628
 30
0.0
 10
1.973964666355496
 20
5.019942333979983
 30
0.0
 10
1.972424935379856
 20
5.020295841804943
 30
0.0
 10
1.971482650058449
 20
5.020512181697907
 30
0.0
  0
SPLINE
  5
367
330
1F
100
AcDbEntity
  8
0
  6
Continuous
 62
     7
370
     0
100
AcDbSpline
210
0.0
220
0.0
230
1.0
 70
     8
 71
     3
 72
    10
 73
     6
 74
     0
 42
0.00000001
 43
0.00000001
 40
0.0
 40
0.0
 40
0.0
 40
0.0
 40
0.2813665217406444
 40
0.5622252353978114
 40
1.0
 40
1.0
 40
1.0
 40
1.0
 10
1.953058994995158
 20
5.029412498153603
 30
0.0
 10
1.954104054505372
 20
5.029140511438547
 30
0.0
 10
1.956192287410621
 20
5.028597028887915
 30
0.0
 10
1.959461766988695
 20
5.026311918238392
 30
0.0
 10
1.960471794947841
 20
5.023675675007019
 30
0.0
 10
1.961087080438197
 20
5.022069737077653
 30
0.0
  0
SPLINE
  5
368
330
1F
100
AcDbEntity
  8
0
  6
Continuous
 62
     7
370
     0
100
AcDbSpline
210
0.0
220
0.0
230
1.0
 70
     8
 71
     3
 72
     9
 73
     5
 74
     0
 42
0.00000001
 43
0.00000001
 40
0.0
 40
0.0
 40
0.0
 40
0.0
 40
0.557228436297663
 40
1.0
 40
1.0
 40
1.0
 40
1.0
 10
1.971482650058449
 20
5.020512181697907
 30
0.0
 10
1.969527955806143
 20
5.020471488093854
 30
0.0
 10
1.966020069049153
 20
5.020398459509162
 30
0.0
 10
1.962915577260985
 20
5.01879317128341
 30
0.0
 10
1.961540996577437
 20
5.018082395305502
 30
0.0
  0
SPLINE
  5
369
330
1F
100
AcDbEntity
  8
0
  6
Continuous
 62
     7
370
     0
100
AcDbSpline
210
0.0
220
0.0
230
1.0
 70
     8
 71
     3
 72
     9
 73
     5
 74
     0
 42
0.00000001
 43
0.00000001
 40
0.0
 40
0.0
 40
0.0
 40
0.0
 40
0.5612333225589181
 40
0.9999999999999999
 40
0.9999999999999999
 40
0.9999999999999999
 40
0.9999999999999999
 10
1.954928061450855
 20
5.013365227583983
 30
0.0
 10
1.955222309804029
 20
5.014775447446931
 30
0.0
 10
1.955746598618229
 20
5.017288163293023
 30
0.0
 10
1.955499358591576
 20
5.019838287844277
 30
0.0
 10
1.955390877906551
 20
5.020957197520691
 30
0.0
  0
SPLINE
  5
36A
330
1F
100
AcDbEntity
  8
0
  6
Continuous
 62
     7
370
     0
100
AcDbSpline
210
0.0
220
0.0
230
1.0
 70
     8
 71
     3
 72
     9
 73
     5
 74
     0
 42
0.00000001
 43
0.00000001
 40
0.0
 40
0.0
 40
0.0
 40
0.0
 40
0.5611422669756455
 40
1.0
 40
1.0
 40
1.0
 40
1.0
 10
1.961087080438197
 20
5.022069737077653
 30
0.0
 10
1.963370835799359
 20
5.023380367422646
 30
0.0
 10
1.967440668880142
 20
5.025716014587593
 30
0.0
 10
1.972093161846235
 20
5.025433455505666
 30
0.0
 10
1.974134944362247
 20
5.025309452267527
 30
0.0
  0
SPLINE
  5
36B
330
1F
100
AcDbEntity
  8
0
  6
Continuous
 62
     7
370
     0
100
AcDbSpline
210
0.0
220
0.0
230
1.0
 70
     8
 71
     3
 72
    11
 73
     7
 74
     0
 42
0.00000001
 43
0.00000001
 40
0.0
 40
0.0
 40
0.0
 40
0.0
 40
0.2800041766315739
 40
0.5576381702101244
 40
0.7785279338349406
 40
1.0
 40
1.0
 40
1.0
 40
1.0
 10
1.974134944362247
 20
5.025309452267527
 30
0.0
 10
1.975888271570148
 20
5.02482864264922
 30
0.0
 10
1.979380084398639
 20
5.023871093376219
 30
0.0
 10
1.982277083263248
 20
5.019401034748864
 30
0.0
 10
1.982811455342339
 20
5.01483180287169
 30
0.0
 10
1.982397154072231
 20
5.012063370374563
 30
0.0
 10
1.982189730754652
 20
5.010677332014362
 30
0.0
  0
SPLINE
  5
36C
330
1F
100
AcDbEntity
  8
0
  6
Continuous
 62
     7
370
     0
100
AcDbSpline
210
0.0
220
0.0
230
1.0
 70
     8
 71
     3
 72
    10
 73
     6
 74
     0
 42
0.00000001
 43
0.00000001
 40
0.0
 40
0.0
 40
0.0
 40
0.0
 40
0.2797977254859538
 40
0.5591903932082418
 40
1.0
 40
1.0
 40
1.0
 40
1.0
 10
1.955390877906551
 20
5.020957197520691
 30
0.0
 10
1.955157938462335
 20
5.021528916315318
 30
0.0
 10
1.954692396795837
 20
5.022671526238314
 30
0.0
 10
1.952883072036355
 20
5.024039120849547
 30
0.0
 10
1.951346922145107
 20
5.024390971988132
 30
0.0
 10
1.950406700691361
 20
5.024606327267527
 30
0.0
  0
SPLINE
  5
36D
330
1F
100
AcDbEntity
  8
0
  6
Continuous
 62
     7
370
     0
100
AcDbSpline
210
0.0
220
0.0
230
1.0
 70
     8
 71
     3
 72
     9
 73
     5
 74
     0
 42
0.00000001
 43
0.00000001
 40
0.0
 40
0.0
 40
0.0
 40
0.0
 40
0.5598594958482542
 40
1.0
 40
1.0
 40
1.0
 40
1.0
 10
1.972429370654267
 20
5.404915659156829
 30
0.0
 10
1.971707074150042
 20
5.407433484312805
 30
0.0
 10
1.970416935267731
 20
5.411930729022679
 30
0.0
 10
1.966313970145926
 20
5.414055583058224
 30
0.0
 10
1.964508089008697
 20
5.414990817384677
 30
0.0
  0
SPLINE
  5
36E
330
1F
100
AcDbEntity
  8
0
  6
Continuous
 62
     7
370
     0
100
AcDbSpline
210
0.0
220
0.0
230
1.0
 70
     8
 71
     3
 72
    10
 73
     6
 74
     0
 42
0.00000001
 43
0.00000001
 40
0.0
 40
0.0
 40
0.0
 40
0.0
 40
0.5599495596910892
 40
0.7800085905937695
 40
0.9999999999999999
 40
0.9999999999999999
 40
0.9999999999999999
 40
0.9999999999999999
 10
1.947081269388444
 20
5.42538638700493
 30
0.0
 10
1.951553958040218
 20
5.42612503978061
 30
0.0
 10
1.957784404177832
 20
5.427153981585325
 30
0.0
 10
1.965910030920403
 20
5.426680115995591
 30
0.0
 10
1.969307064325698
 20
5.425603967283815
 30
0.0
 10
1.971005320021355
 20
5.425065975612525
 30
0.0
  0
SPLINE
  5
36F
330
1F
100
AcDbEntity
  8
0
  6
Continuous
 62
     7
370
     0
100
AcDbSpline
210
0.0
220
0.0
230
1.0
 70
     8
 71
     3
 72
     9
 73
     5
 74
     0
 42
0.00000001
 43
0.00000001
 40
0.0
 40
0.0
 40
0.0
 40
0.0
 40
0.5580880948140325
 40
1.0
 40
1.0
 40
1.0
 40
1.0
 10
1.964508089008697
 20
5.414990817384677
 30
0.0
 10
1.961720032835453
 20
5.415556462818297
 30
0.0
 10
1.956724305101514
 20
5.416570004298353
 30
0.0
 10
1.951727918721529
 20
5.415635287911742
 30
0.0
 10
1.949519956097305
 20
5.415222225612526
 30
0.0
  0
SPLINE
  5
370
330
1F
100
AcDbEntity
  8
0
  6
Continuous
 62
     7
370
     0
100
AcDbSpline
210
0.0
220
0.0
230
1.0
 70
     8
 71
     3
 72
    11
 73
     7
 74
     0
 42
0.00000001
 43
0.00000001
 40
0.0
 40
0.0
 40
0.0
 40
0.0
 40
0.2798950578101054
 40
0.559614842707596
 40
0.7797461634356244
 40
0.9999999999999999
 40
0.9999999999999999
 40
0.9999999999999999
 40
0.9999999999999999
 10
1.971005320021355
 20
5.425065975612525
 30
0.0
 10
1.97296188250358
 20
5.424152751490212
 30
0.0
 10
1.976873782250238
 20
5.422326875115102
 30
0.0
 10
1.981164698701873
 20
5.417948178834657
 30
0.0
 10
1.983694689896355
 20
5.412968115603803
 30
0.0
 10
1.984443901261926
 20
5.409664991035008
 30
0.0
 10
1.984818611160596
 20
5.40801296928341
 30
0.0
  0
SPLINE
  5
371
330
1F
100
AcDbEntity
  8
0
  6
Continuous
 62
     7
370
     0
100
AcDbSpline
210
0.0
220
0.0
230
1.0
 70
     8
 71
     3
 72
    11
 73
     7
 74
     0
 42
0.00000001
 43
0.00000001
 40
0.0
 40
0.0
 40
0.0
 40
0.0
 40
0.2799509332426938
 40
0.5592003780462909
 40
0.7795065171464521
 40
1.0
 40
1.0
 40
1.0
 40
1.0
 10
1.984818611160596
 20
5.40801296928341
 30
0.0
 10
1.9851885324698
 20
5.404813589336135
 30
0.0
 10
1.985927448156053
 20
5.39842284630375
 30
0.0
 10
1.982576015577969
 20
5.389870908527266
 30
0.0
 10
1.977344326944816
 20
5.383459754940049
 30
0.0
 10
1.973178247979064
 20
5.380639881714196
 30
0.0
 10
1.971094323185912
 20
5.379229345865689
 30
0.0
  0
SPLINE
  5
372
330
1F
100
AcDbEntity
  8
0
  6
Continuous
 62
     7
370
     0
100
AcDbSpline
210
0.0
220
0.0
230
1.0
 70
     8
 71
     3
 72
    10
 73
     6
 74
     0
 42
0.00000001
 43
0.00000001
 40
0.0
 40
0.0
 40
0.0
 40
0.0
 40
0.2801907741799032
 40
0.5600980828705658
 40
1.0
 40
1.0
 40
1.0
 40
1.0
 10
1.969688073185912
 20
5.390586149663158
 30
0.0
 10
1.970472918700007
 20
5.391761442203266
 30
0.0
 10
1.972041815709843
 20
5.394110838254771
 30
0.0
 10
1.973252952026047
 20
5.399106689091549
 30
0.0
 10
1.97274177174359
 20
5.402712199197166
 30
0.0
 10
1.972429370654267
 20
5.404915659156829
 30
0.0
  0
SPLINE
  5
373
330
1F
100
AcDbEntity
  8
0
  6
Continuous
 62
     7
370
     0
100
AcDbSpline
210
0.0
220
0.0
230
1.0
 70
     8
 71
     3
 72
    10
 73
     6
 74
     0
 42
0.00000001
 43
0.00000001
 40
0.0
 40
0.0
 40
0.0
 40
0.0
 40
0.5600879827705254
 40
0.7801283787024192
 40
1.0
 40
1.0
 40
1.0
 40
1.0
 10
1.953596301034013
 20
5.382949678144171
 30
0.0
 10
1.956925176144551
 20
5.383681903067085
 30
0.0
 10
1.961561858278028
 20
5.384701795404595
 30
0.0
 10
1.966953447587744
 20
5.387642111477504
 30
0.0
 10
1.968776764495
 20
5.389605054632542
 30
0.0
 10
1.969688073185912
 20
5.390586149663158
 30
0.0
  0
SPLINE
  5
374
330
1F
100
AcDbEntity
  8
0
  6
Continuous
 62
     7
370
     0
100
AcDbSpline
210
0.0
220
0.0
230
1.0
 70
     8
 71
     3
 72
    10
 73
     6
 74
     0
 42
0.00000001
 43
0.00000001
 40
0.0
 40
0.0
 40
0.0
 40
0.0
 40
0.2801202439649386
 40
0.5602022777115833
 40
1.0
 40
1.0
 40
1.0
 40
1.0
 10
2.214189156345173
 20
5.107315260865372
 30
0.0
 10
2.212991670592819
 20
5.104602681642878
 30
0.0
 10
2.210596862432934
 20
5.099177893211293
 30
0.0
 10
2.204929448783247
 20
5.090181301535647
 30
0.0
 10
2.199715995174225
 20
5.084607156852528
 30
0.0
 10
2.196530928497072
 20
5.081201732384359
 30
0.0
  0
SPLINE
  5
375
330
1F
100
AcDbEntity
  8
0
  6
Continuous
 62
     7
370
     0
100
AcDbSpline
210
0.0
220
0.0
230
1.0
 70
     8
 71
     3
 72
    12
 73
     8
 74
     0
 42
0.00000001
 43
0.00000001
 40
0.0
 40
0.0
 40
0.0
 40
0.0
 40
0.1863558885048049
 40
0.3726698693064227
 40
0.5594669031794747
 40
0.7795467939387579
 40
1.0
 40
1.0
 40
1.0
 40
1.0
 10
2.202547542421122
 20
5.14793630516917
 30
0.0
 10
2.205168635765582
 20
5.146559907793693
 30
0.0
 10
2.21041023302316
 20
5.143807422566913
 30
0.0
 10
2.215445853046492
 20
5.136222871177706
 30
0.0
 10
2.217849720936682
 20
5.127161005169005
 30
0.0
 10
2.217623097098365
 20
5.117135348270188
 30
0.0
 10
2.215334449742578
 20
5.110590472080422
 30
0.0
 10
2.214189156345173
 20
5.107315260865372
 30
0.0
  0
SPLINE
  5
376
330
1F
100
AcDbEntity
  8
0
  6
Continuous
 62
     7
370
     0
100
AcDbSpline
210
0.0
220
0.0
230
1.0
 70
     8
 71
     3
 72
    11
 73
     7
 74
     0
 42
0.00000001
 43
0.00000001
 40
0.0
 40
0.0
 40
0.0
 40
0.0
 40
0.280979995668369
 40
0.5609401515004389
 40
0.780650917309507
 40
1.0
 40
1.0
 40
1.0
 40
1.0
 10
2.20507523229454
 20
5.111053393776763
 30
0.0
 10
2.205969347215212
 20
5.113602591225648
 30
0.0
 10
2.207754331793447
 20
5.118691733603133
 30
0.0
 10
2.207448583825201
 20
5.126296863617262
 30
0.0
 10
2.204563578045185
 20
5.132912258075397
 30
0.0
 10
2.200833245177015
 20
5.135037259049255
 30
0.0
 10
2.198969615205932
 20
5.136098884283093
 30
0.0
  0
SPLINE
  5
377
330
1F
100
AcDbEntity
  8
0
  6
Continuous
 62
     7
370
     0
100
AcDbSpline
210
0.0
220
0.0
230
1.0
 70
     8
 71
     3
 72
    11
 73
     7
 74
     0
 42
0.00000001
 43
0.00000001
 40
0.0
 40
0.0
 40
0.0
 40
0.0
 40
0.2803164478087816
 40
0.5583113862632766
 40
0.7789222137432988
 40
1.0
 40
1.0
 40
1.0
 40
1.0
 10
2.198969615205932
 20
5.136098884283093
 30
0.0
 10
2.197091111873904
 20
5.136737005669147
 30
0.0
 10
2.193349662495521
 20
5.138007963682623
 30
0.0
 10
2.187771894490042
 20
5.136484871581948
 30
0.0
 10
2.183988820089333
 20
5.133109677409615
 30
0.0
 10
2.18210959047456
 20
5.130676915256918
 30
0.0
 10
2.18116898229454
 20
5.129459248207143
 30
0.0
  0
SPLINE
  5
378
330
1F
100
AcDbEntity
  8
0
  6
Continuous
 62
     7
370
     0
100
AcDbSpline
210
0.0
220
0.0
230
1.0
 70
     8
 71
     3
 72
    11
 73
     7
 74
     0
 42
0.00000001
 43
0.00000001
 40
0.0
 40
0.0
 40
0.0
 40
0.0
 40
0.2796590316000636
 40
0.5597354471173153
 40
0.7798992367480442
 40
1.0
 40
1.0
 40
1.0
 40
1.0
 10
2.183429662674287
 20
5.087467555169169
 30
0.0
 10
2.186090890935187
 20
5.088977495160237
 30
0.0
 10
2.19141731927177
 20
5.091999628689002
 30
0.0
 10
2.197367037871853
 20
5.098180531013361
 30
0.0
 10
2.202047597786958
 20
5.104510774361713
 30
0.0
 10
2.204066117112859
 20
5.108872728784622
 30
0.0
 10
2.20507523229454
 20
5.111053393776763
 30
0.0
  0
SPLINE
  5
379
330
1F
100
AcDbEntity
  8
0
  6
Continuous
 62
     7
370
     0
100
AcDbSpline
210
0.0
220
0.0
230
1.0
 70
     8
 71
     3
 72
    11
 73
     7
 74
     0
 42
0.00000001
 43
0.00000001
 40
0.0
 40
0.0
 40
0.0
 40
0.0
 40
0.2799208809158742
 40
0.5598752793059358
 40
0.7799982559586042
 40
0.9999999999999999
 40
0.9999999999999999
 40
0.9999999999999999
 40
0.9999999999999999
 10
2.159256403180616
 20
5.164793504536258
 30
0.0
 10
2.156424928342721
 20
5.163200312737
 30
0.0
 10
2.150761639628686
 20
5.160013738371132
 30
0.0
 10
2.144344849747335
 20
5.153577510765778
 30
0.0
 10
2.139138840369125
 20
5.147039797748586
 30
0.0
 10
2.136933257792855
 20
5.14243926214544
 30
0.0
 10
2.135830770269224
 20
5.140139627953976
 30
0.0
  0
SPLINE
  5
37A
330
1F
100
AcDbEntity
  8
0
  6
Continuous
 62
     7
370
     0
100
AcDbSpline
210
0.0
220
0.0
230
1.0
 70
     8
 71
     3
 72
     9
 73
     5
 74
     0
 42
0.00000001
 43
0.00000001
 40
0.0
 40
0.0
 40
0.0
 40
0.0
 40
0.5599164338166542
 40
1.0
 40
1.0
 40
1.0
 40
1.0
 10
2.158989393686945
 20
5.118494058333726
 30
0.0
 10
2.161186089642313
 20
5.121753001655375
 30
0.0
 10
2.165109346440464
 20
5.127573411853798
 30
0.0
 10
2.168918889187521
 20
5.133468813594944
 30
0.0
 10
2.170595406345173
 20
5.13606328301727
 30
0.0
  0
SPLINE
  5
37B
330
1F
100
AcDbEntity
  8
0
  6
Continuous
 62
     7
370
     0
100
AcDbSpline
210
0.0
220
0.0
230
1.0
 70
     8
 71
     3
 72
    13
 73
     9
 74
     0
 42
0.00000001
 43
0.00000001
 40
0.0
 40
0.0
 40
0.0
 40
0.0
 40
0.2502797123294286
 40
0.499880767136523
 40
0.6249966674132238
 40
0.7499455431723475
 40
0.8749231628230363
 40
1.0
 40
1.0
 40
1.0
 40
1.0
 10
2.135830770269224
 20
5.140139627953976
 30
0.0
 10
2.134928549937718
 20
5.137673127119069
 30
0.0
 10
2.133126555731951
 20
5.132746813603598
 30
0.0
 10
2.132707171564489
 20
5.126058268941059
 30
0.0
 10
2.133953704609815
 20
5.120936676565332
 30
0.0
 10
2.13577793673669
 20
5.117411791370893
 30
0.0
 10
2.138575523118463
 20
5.114536266128016
 30
0.0
 10
2.140946323687738
 20
5.113389344692567
 30
0.0
 10
2.142132194319857
 20
5.112815656434992
 30
0.0
  0
SPLINE
  5
37C
330
1F
100
AcDbEntity
  8
0
  6
Continuous
 62
     7
370
     0
100
AcDbSpline
210
0.0
220
0.0
230
1.0
 70
     8
 71
     3
 72
    12
 73
     8
 74
     0
 42
0.00000001
 43
0.00000001
 40
0.0
 40
0.0
 40
0.0
 40
0.0
 40
0.1871320511097588
 40
0.3740416152583949
 40
0.5606500212684032
 40
0.7800094527395813
 40
1.0
 40
1.0
 40
1.0
 40
1.0
 10
2.170595406345173
 20
5.13606328301727
 30
0.0
 10
2.1719865912682
 20
5.137935244184931
 30
0.0
 10
2.174767307092379
 20
5.141676940888945
 30
0.0
 10
2.180010267714461
 20
5.146379582899266
 30
0.0
 10
2.186670502251741
 20
5.149789959654647
 30
0.0
 10
2.194704135685063
 20
5.150550780321103
 30
0.0
 10
2.199930570959136
 20
5.148808631071793
 30
0.0
 10
2.202547542421122
 20
5.14793630516917
 30
0.0
  0
SPLINE
  5
37D
330
1F
100
AcDbEntity
  8
0
  6
Continuous
 62
     7
370
     0
100
AcDbSpline
210
0.0
220
0.0
230
1.0
 70
     8
 71
     3
 72
    11
 73
     7
 74
     0
 42
0.00000001
 43
0.00000001
 40
0.0
 40
0.0
 40
0.0
 40
0.0
 40
0.28047867066893
 40
0.5580056706031428
 40
0.7788503692392115
 40
1.0
 40
1.0
 40
1.0
 40
1.0
 10
2.142132194319857
 20
5.112815656434992
 30
0.0
 10
2.143874503204402
 20
5.11218686376251
 30
0.0
 10
2.147340785453956
 20
5.110935895637046
 30
0.0
 10
2.152571976771357
 20
5.112185194372111
 30
0.0
 10
2.156249668068102
 20
5.115164983016137
 30
0.0
 10
2.158075731879863
 20
5.117383856293909
 30
0.0
 10
2.158989393686945
 20
5.118494058333726
 30
0.0
  0
SPLINE
  5
37E
330
1F
100
AcDbEntity
  8
0
  6
Continuous
 62
     7
370
     0
100
AcDbSpline
210
0.0
220
0.0
230
1.0
 70
     8
 71
     3
 72
     9
 73
     5
 74
     0
 42
0.00000001
 43
0.00000001
 40
0.0
 40
0.0
 40
0.0
 40
0.0
 40
0.5600360284689848
 40
1.0
 40
1.0
 40
1.0
 40
1.0
 10
2.18116898229454
 20
5.129459248207143
 30
0.0
 10
2.178830218927932
 20
5.125826594913984
 30
0.0
 10
2.174654124448793
 20
5.11934013135004
 30
0.0
 10
2.170253181618577
 20
5.113004301078946
 30
0.0
 10
2.168316925332515
 20
5.110216764029929
 30
0.0
  0
SPLINE
  5
37F
330
1F
100
AcDbEntity
  8
0
  6
Continuous
 62
     7
370
     0
100
AcDbSpline
210
0.0
220
0.0
230
1.0
 70
     8
 71
     3
 72
    10
 73
     6
 74
     0
 42
0.00000001
 43
0.00000001
 40
0.0
 40
0.0
 40
0.0
 40
0.0
 40
0.2800295597535697
 40
0.5601079928220334
 40
0.9999999999999999
 40
0.9999999999999999
 40
0.9999999999999999
 40
0.9999999999999999
 10
2.12452736837049
 20
5.116553789346384
 30
0.0
 10
2.123931154767184
 20
5.119102430437592
 30
0.0
 10
2.122738623503932
 20
5.124200157432112
 30
0.0
 10
2.123077330132007
 20
5.133656310232809
 30
0.0
 10
2.125347564791731
 20
5.140012200328023
 30
0.0
 10
2.126734646851502
 20
5.14389556149828
 30
0.0
  0
SPLINE
  5
380
330
1F
100
AcDbEntity
  8
0
  6
Continuous
 62
     7
370
     0
100
AcDbSpline
210
0.0
220
0.0
230
1.0
 70
     8
 71
     3
 72
    10
 73
     6
 74
     0
 42
0.00000001
 43
0.00000001
 40
0.0
 40
0.0
 40
0.0
 40
0.0
 40
0.2801116169066827
 40
0.5601417324768168
 40
0.9999999999999999
 40
0.9999999999999999
 40
0.9999999999999999
 40
0.9999999999999999
 10
2.126734646851502
 20
5.14389556149828
 30
0.0
 10
2.127996202164805
 20
5.146764464271406
 30
0.0
 10
2.130518945729004
 20
5.152501435081088
 30
0.0
 10
2.136598523098592
 20
5.161963866061408
 30
0.0
 10
2.142254356519044
 20
5.167720176359524
 30
0.0
 10
2.145710121535047
 20
5.171237333650182
 30
0.0
  0
SPLINE
  5
381
330
1F
100
AcDbEntity
  8
0
  6
Continuous
 62
     7
370
     0
100
AcDbSpline
210
0.0
220
0.0
230
1.0
 70
     8
 71
     3
 72
    12
 73
     8
 74
     0
 42
0.00000001
 43
0.00000001
 40
0.0
 40
0.0
 40
0.0
 40
0.0
 40
0.1870563071935047
 40
0.3739681309169144
 40
0.5605496043376946
 40
0.7798748984764577
 40
1.0
 40
1.0
 40
1.0
 40
1.0
 10
2.168316925332515
 20
5.110216764029929
 30
0.0
 10
2.166981798979017
 20
5.108602626918963
 30
0.0
 10
2.164312577532027
 20
5.105375599466705
 30
0.0
 10
2.159388623904986
 20
5.101422676437354
 30
0.0
 10
2.15329681312837
 20
5.098559847323499
 30
0.0
 10
2.146063069151781
 20
5.098320799494584
 30
0.0
 10
2.141404173114007
 20
5.099949030664471
 30
0.0
 10
2.139070485459097
 20
5.100764627953978
 30
0.0
  0
SPLINE
  5
382
330
1F
100
AcDbEntity
  8
0
  6
Continuous
 62
     7
370
     0
100
AcDbSpline
210
0.0
220
0.0
230
1.0
 70
     8
 71
     3
 72
    11
 73
     7
 74
     0
 42
0.00000001
 43
0.00000001
 40
0.0
 40
0.0
 40
0.0
 40
0.0
 40
0.2798500159921189
 40
0.5597945227381182
 40
0.7799254199541379
 40
1.0
 40
1.0
 40
1.0
 40
1.0
 10
2.139070485459097
 20
5.100764627953978
 30
0.0
 10
2.137217498238409
 20
5.101692668852474
 30
0.0
 10
2.133510898139896
 20
5.103549064000471
 30
0.0
 10
2.129367720423166
 20
5.107639718516679
 30
0.0
 10
2.126293414071205
 20
5.112004435691474
 30
0.0
 10
2.125116000060369
 20
5.115037467470533
 30
0.0
 10
2.12452736837049
 20
5.116553789346384
 30
0.0
  0
SPLINE
  5
383
330
1F
100
AcDbEntity
  8
0
  6
Continuous
 62
     7
370
     0
100
AcDbSpline
210
0.0
220
0.0
230
1.0
 70
     8
 71
     3
 72
    10
 73
     6
 74
     0
 42
0.00000001
 43
0.00000001
 40
0.0
 40
0.0
 40
0.0
 40
0.0
 40
0.5601398940524498
 40
0.7800811456118123
 40
1.0
 40
1.0
 40
1.0
 40
1.0
 10
2.224543191433533
 20
5.240640973680192
 30
0.0
 10
2.225338132624461
 20
5.236107830499197
 30
0.0
 10
2.226445210769579
 20
5.229794729855233
 30
0.0
 10
2.226362753048933
 20
5.221533687861344
 30
0.0
 10
2.225470108213588
 20
5.218025774563807
 30
0.0
 10
2.22502380852214
 20
5.216271907224495
 30
0.0
  0
SPLINE
  5
384
330
1F
100
AcDbEntity
  8
0
  6
Continuous
 62
     7
370
     0
100
AcDbSpline
210
0.0
220
0.0
230
1.0
 70
     8
 71
     3
 72
    10
 73
     6
 74
     0
 42
0.00000001
 43
0.00000001
 40
0.0
 40
0.0
 40
0.0
 40
0.0
 40
0.2793465162590625
 40
0.5594972049701687
 40
0.9999999999999999
 40
0.9999999999999999
 40
0.9999999999999999
 40
0.9999999999999999
 10
2.214735042699355
 20
5.222519929376393
 30
0.0
 10
2.215101955973263
 20
5.224096268396067
 30
0.0
 10
2.215836838777483
 20
5.227253484342065
 30
0.0
 10
2.215196236340515
 20
5.233030765367304
 30
0.0
 10
2.214545430134693
 20
5.237113156435897
 30
0.0
 10
2.214147621813279
 20
5.239608536971329
 30
0.0
  0
SPLINE
  5
385
330
1F
100
AcDbEntity
  8
0
  6
Continuous
 62
     7
370
     0
100
AcDbSpline
210
0.0
220
0.0
230
1.0
 70
     8
 71
     3
 72
    10
 73
     6
 74
     0
 42
0.00000001
 43
0.00000001
 40
0.0
 40
0.0
 40
0.0
 40
0.0
 40
0.2807044613854776
 40
0.5606984042449122
 40
1.0
 40
1.0
 40
1.0
 40
1.0
 10
2.22502380852214
 20
5.216271907224495
 30
0.0
 10
2.224344735705532
 20
5.214534564402203
 30
0.0
 10
2.222988308939962
 20
5.211064276316018
 30
0.0
 10
2.218145528002811
 20
5.20618843236256
 30
0.0
 10
2.213464301736376
 20
5.204955858576848
 30
0.0
 10
2.210605295863912
 20
5.204203078110571
 30
0.0
  0
SPLINE
  5
386
330
1F
100
AcDbEntity
  8
0
  6
Continuous
 62
     7
370
     0
100
AcDbSpline
210
0.0
220
0.0
230
1.0
 70
     8
 71
     3
 72
     9
 73
     5
 74
     0
 42
0.00000001
 43
0.00000001
 40
0.0
 40
0.0
 40
0.0
 40
0.0
 40
0.5603126358926022
 40
1.0
 40
1.0
 40
1.0
 40
1.0
 10
2.20674255852214
 20
5.216432112920697
 30
0.0
 10
2.208753622550674
 20
5.216937843372609
 30
0.0
 10
2.2123428045532
 20
5.217840429570946
 30
0.0
 10
2.214004441798755
 20
5.221090787893253
 30
0.0
 10
2.214735042699355
 20
5.222519929376393
 30
0.0
  0
SPLINE
  5
387
330
1F
100
AcDbEntity
  8
0
  6
Continuous
 62
     7
370
     0
100
AcDbSpline
210
0.0
220
0.0
230
1.0
 70
     8
 71
     3
 72
    11
 73
     7
 74
     0
 42
0.00000001
 43
0.00000001
 40
0.0
 40
0.0
 40
0.0
 40
0.0
 40
0.2798341310252641
 40
0.5592418476283618
 40
0.7795950109293079
 40
1.0
 40
1.0
 40
1.0
 40
1.0
 10
2.210605295863912
 20
5.204203078110571
 30
0.0
 10
2.20845537073088
 20
5.203990128532083
 30
0.0
 10
2.204158796545113
 20
5.203564553870088
 30
0.0
 10
2.19844365370002
 20
5.205807795720217
 30
0.0
 10
2.193996411778643
 20
5.209091956258598
 30
0.0
 10
2.191837281997176
 20
5.211683077285993
 30
0.0
 10
2.190757590167709
 20
5.212978790135887
 30
0.0
  0
SPLINE
  5
388
330
1F
100
AcDbEntity
  8
0
  6
Continuous
 62
     7
370
     0
100
AcDbSpline
210
0.0
220
0.0
230
1.0
 70
     8
 71
     3
 72
     9
 73
     5
 74
     0
 42
0.00000001
 43
0.00000001
 40
0.0
 40
0.0
 40
0.0
 40
0.0
 40
0.5584123557144304
 40
1.0
 40
1.0
 40
1.0
 40
1.0
 10
2.180326419281633
 20
5.211376733173862
 30
0.0
 10
2.18063563664342
 20
5.214642148197983
 30
0.0
 10
2.181189380411124
 20
5.220489825081753
 30
0.0
 10
2.180121540251544
 20
5.226256888739185
 30
0.0
 10
2.179649995231001
 20
5.228803552794115
 30
0.0
  0
SPLINE
  5
389
330
1F
100
AcDbEntity
  8
0
  6
Continuous
 62
     7
370
     0
100
AcDbSpline
210
0.0
220
0.0
230
1.0
 70
     8
 71
     3
 72
     9
 73
     5
 74
     0
 42
0.00000001
 43
0.00000001
 40
0.0
 40
0.0
 40
0.0
 40
0.0
 40
0.5613775866034583
 40
1.0
 40
1.0
 40
1.0
 40
1.0
 10
2.189297938268976
 20
5.234054739502975
 30
0.0
 10
2.189749950120196
 20
5.231130570799532
 30
0.0
 10
2.190555133408606
 20
5.22592165478075
 30
0.0
 10
2.193467501860703
 20
5.22155259457602
 30
0.0
 10
2.194744931939862
 20
5.219636226844748
 30
0.0
  0
SPLINE
  5
38A
330
1F
100
AcDbEntity
  8
0
  6
Continuous
 62
     7
370
     0
100
AcDbSpline
210
0.0
220
0.0
230
1.0
 70
     8
 71
     3
 72
    10
 73
     6
 74
     0
 42
0.00000001
 43
0.00000001
 40
0.0
 40
0.0
 40
0.0
 40
0.0
 40
0.2800098553163181
 40
0.5598108846823155
 40
1.0
 40
1.0
 40
1.0
 40
1.0
 10
2.194744931939862
 20
5.219636226844748
 30
0.0
 10
2.195637722942569
 20
5.218797715564435
 30
0.0
 10
2.197422639121671
 20
5.21712131834935
 30
0.0
 10
2.201721660827195
 20
5.215865984022453
 30
0.0
 10
2.204837555915529
 20
5.216217315270484
 30
0.0
 10
2.20674255852214
 20
5.216432112920697
 30
0.0
  0
SPLINE
  5
38B
330
1F
100
AcDbEntity
  8
0
  6
Continuous
 62
     7
370
     0
100
AcDbSpline
210
0.0
220
0.0
230
1.0
 70
     8
 71
     3
 72
    10
 73
     6
 74
     0
 42
0.00000001
 43
0.00000001
 40
0.0
 40
0.0
 40
0.0
 40
0.0
 40
0.2806813719182228
 40
0.5606218894487756
 40
1.0
 40
1.0
 40
1.0
 40
1.0
 10
2.154533302193026
 20
5.205805135072596
 30
0.0
 10
2.155560989874873
 20
5.204843136378384
 30
0.0
 10
2.157613652671919
 20
5.202921678171485
 30
0.0
 10
2.162348904112614
 20
5.200839371039316
 30
0.0
 10
2.165994913592378
 20
5.201247864012128
 30
0.0
 10
2.168221988901887
 20
5.201497381908039
 30
0.0
  0
SPLINE
  5
38C
330
1F
100
AcDbEntity
  8
0
  6
Continuous
 62
     7
370
     0
100
AcDbSpline
210
0.0
220
0.0
230
1.0
 70
     8
 71
     3
 72
    11
 73
     7
 74
     0
 42
0.00000001
 43
0.00000001
 40
0.0
 40
0.0
 40
0.0
 40
0.0
 40
0.2804362479381253
 40
0.5596729420112712
 40
0.7796025430872308
 40
1.0
 40
1.0
 40
1.0
 40
1.0
 10
2.168221988901887
 20
5.201497381908039
 30
0.0
 10
2.169744817764265
 20
5.201825585424835
 30
0.0
 10
2.172783961654733
 20
5.202480588582147
 30
0.0
 10
2.176698700666335
 20
5.204608396639528
 30
0.0
 10
2.179130406241388
 20
5.207899079588368
 30
0.0
 10
2.1799274659712
 20
5.210216694475463
 30
0.0
 10
2.180326419281633
 20
5.211376733173862
 30
0.0
  0
SPLINE
  5
38D
330
1F
100
AcDbEntity
  8
0
  6
Continuous
 62
     7
370
     0
100
AcDbSpline
210
0.0
220
0.0
230
1.0
 70
     8
 71
     3
 72
    10
 73
     6
 74
     0
 42
0.00000001
 43
0.00000001
 40
0.0
 40
0.0
 40
0.0
 40
0.0
 40
0.5602852136550245
 40
0.7803322306575745
 40
1.0
 40
1.0
 40
1.0
 40
1.0
 10
2.147235042699355
 20
5.226204660389052
 30
0.0
 10
2.147998566806782
 20
5.222183515887662
 30
0.0
 10
2.14906195819279
 20
5.216583102772888
 30
0.0
 10
2.151606610052736
 20
5.209662477404357
 30
0.0
 10
2.153558299247521
 20
5.207090176325658
 30
0.0
 10
2.154533302193026
 20
5.205805135072596
 30
0.0
  0
SPLINE
  5
38E
330
1F
100
AcDbEntity
  8
0
  6
Continuous
 62
     7
370
     0
100
AcDbSpline
210
0.0
220
0.0
230
1.0
 70
     8
 71
     3
 72
    11
 73
     7
 74
     0
 42
0.00000001
 43
0.00000001
 40
0.0
 40
0.0
 40
0.0
 40
0.0
 40
0.2802165796391171
 40
0.5596828193595684
 40
0.7796369501997007
 40
0.9999999999999999
 40
0.9999999999999999
 40
0.9999999999999999
 40
0.9999999999999999
 10
2.190294773712013
 20
5.21288978697133
 30
0.0
 10
2.189992279657648
 20
5.209746273355819
 30
0.0
 10
2.189388101541546
 20
5.203467663555891
 30
0.0
 10
2.184704428839408
 20
5.195757584348788
 30
0.0
 10
2.178124356621268
 20
5.190798121068017
 30
0.0
 10
2.173304333538143
 20
5.189636226372019
 30
0.0
 10
2.170892083838596
 20
5.189054739502976
 30
0.0
  0
SPLINE
  5
38F
330
1F
100
AcDbEntity
  8
0
  6
Continuous
 62
     7
370
     0
100
AcDbSpline
210
0.0
220
0.0
230
1.0
 70
     8
 71
     3
 72
    11
 73
     7
 74
     0
 42
0.00000001
 43
0.00000001
 40
0.0
 40
0.0
 40
0.0
 40
0.0
 40
0.2800631052443454
 40
0.55986623611824
 40
0.7799570470651066
 40
0.9999999999999999
 40
0.9999999999999999
 40
0.9999999999999999
 40
0.9999999999999999
 10
2.170892083838596
 20
5.189054739502976
 30
0.0
 10
2.168756010302315
 20
5.188795454071119
 30
0.0
 10
2.164485846084197
 20
5.188277123894474
 30
0.0
 10
2.158548160599431
 20
5.189449200495554
 30
0.0
 10
2.153456515503485
 20
5.191670956247952
 30
0.0
 10
2.150839626548505
 20
5.19380742716248
 30
0.0
 10
2.149531324344925
 20
5.194875546464998
 30
0.0
  0
SPLINE
  5
390
330
1F
100
AcDbEntity
  8
0
  6
Continuous
 62
     7
370
     0
100
AcDbSpline
210
0.0
220
0.0
230
1.0
 70
     8
 71
     3
 72
    10
 73
     6
 74
     0
 42
0.00000001
 43
0.00000001
 40
0.0
 40
0.0
 40
0.0
 40
0.0
 40
0.2798560618643964
 40
0.5597527391957781
 40
1.0
 40
1.0
 40
1.0
 40
1.0
 10
2.149531324344925
 20
5.194875546464998
 30
0.0
 10
2.147698072233584
 20
5.19678782228971
 30
0.0
 10
2.144031301951306
 20
5.200612651467424
 30
0.0
 10
2.139937498915857
 20
5.209250894624951
 30
0.0
 10
2.138578255054153
 20
5.21590597386935
 30
0.0
 10
2.137747305357583
 20
5.219974438870064
 30
0.0
  0
CIRCLE
  5
391
330
1F
100
AcDbEntity
  8
0
  6
Continuous
 62
     7
370
     0
100
AcDbCircle
 10
1.9954745881
 20
5.1971244127
 30
0.0
 40
0.0690000000000008
  0
DIMENSION
  5
392
330
1F
100
AcDbEntity
  8
0
  6
Continuous
 62
     7
370
     0
100
AcDbDimension
  2
*D23
 10
0.929689302
 20
5.1971244127
 30
0.0
 11
0.929689302
 21
4.3561244127
 31
0.0
 70
   160
  1
42.7 mm\P(<>")
 71
     2
 42
-1.0
  3
SLDDIMSTYLE2
100
AcDbAlignedDimension
 13
1.5034745881
 23
3.5151244127
 33
0.0
 14
1.9454745881
 24
5.1971244127
 34
0.0
 50
90.0
100
AcDbRotatedDimension
  0
DIMENSION
  5
3A0
330
1F
100
AcDbEntity
  8
0
  6
Continuous
 62
     7
370
     0
100
AcDbDimension
  2
*D24
 10
1.852871155
 20
4.9503669186
 30
0.0
 11
1.4438369732
 21
6.0384843098
 31
0.0
 70
   163
  1
SPRING LOADED THUMBSCREW\P5.0 mm HEX SOCKET
 71
     1
 42
-1.0
  3
SLDDIMSTYLE3
100
AcDbDiametricDimension
 15
2.1380780212
 25
5.4438819067
 35
0.0
 40
0.0
  0
INSERT
  5
3B0
330
1F
100
AcDbEntity
  8
0
  6
Continuous
 62
     7
370
     0
100
AcDbBlockReference
  2
SW_CENTERMARKSYMBOL_3
 10
1.9954745881
 20
5.1971244127
 30
0.0
  0
OLE2FRAME
  5
3B1
330
1F
100
AcDbEntity
  8
0
100
AcDbOle2Frame
 70
     2
  3
Bitmap Image
 10
9.0178120406
 20
1.3267570784
 30
0.0
 11
10.4397105087
 21
1.1242314806
 31
0.0
 71
     2
 72
     0
 73
     1
 90
     7296
310
8055C64EE7A81E092240C05F59A1653AF53F0000000000000000FD155DBC21E1
310
2440C05F59A1653AF53F0000000000000000FD155DBC21E12440A1732426DAFC
310
F13F0000000000000000C64EE7A81E092240A1732426DAFCF13F000000000000
310
00000000000001000000000100000100000001000000000001000000001C0000
310
D0CF11E0A1B11AE1000000000000000000000000000000003E000300FEFF0900
310
0600000000000000000000000100000001000000000000000010000002000000
310
01000000FEFFFFFF0000000000000000FFFFFFFFFFFFFFFFFFFFFFFFFFFFFFFF
310
FFFFFFFFFFFFFFFFFFFFFFFFFFFFFFFFFFFFFFFFFFFFFFFFFFFFFFFFFFFFFFFF
310
FFFFFFFFFFFFFFFFFFFFFFFFFFFFFFFFFFFFFFFFFFFFFFFFFFFFFFFFFFFFFFFF
310
FFFFFFFFFFFFFFFFFFFFFFFFFFFFFFFFFFFFFFFFFFFFFFFFFFFFFFFFFFFFFFFF
310
FFFFFFFFFFFFFFFFFFFFFFFFFFFFFFFFFFFFFFFFFFFFFFFFFFFFFFFFFFFFFFFF
310
FFFFFFFFFFFFFFFFFFFFFFFFFFFFFFFFFFFFFFFFFFFFFFFFFFFFFFFFFFFFFFFF
310
FFFFFFFFFFFFFFFFFFFFFFFFFFFFFFFFFFFFFFFFFFFFFFFFFFFFFFFFFFFFFFFF
310
FFFFFFFFFFFFFFFFFFFFFFFFFFFFFFFFFFFFFFFFFFFFFFFFFFFFFFFFFFFFFFFF
310
FFFFFFFFFFFFFFFFFFFFFFFFFFFFFFFFFFFFFFFFFFFFFFFFFFFFFFFFFFFFFFFF
310
FFFFFFFFFFFFFFFFFFFFFFFFFFFFFFFFFFFFFFFFFFFFFFFFFFFFFFFFFFFFFFFF
310
FFFFFFFFFFFFFFFFFFFFFFFFFFFFFFFFFFFFFFFFFFFFFFFFFFFFFFFFFFFFFFFF
310
FFFFFFFFFFFFFFFFFFFFFFFFFFFFFFFFFFFFFFFFFFFFFFFFFFFFFFFFFFFFFFFF
310
FFFFFFFFFFFFFFFFFFFFFFFFFFFFFFFFFFFFFFFFFFFFFFFFFFFFFFFFFFFFFFFF
310
FFFFFFFFFFFFFFFFFFFFFFFFFFFFFFFFFFFFFFFFFFFFFFFFFFFFFFFFFFFFFFFF
310
FDFFFFFFFEFFFFFFFEFFFFFFFEFFFFFF05000000060000000700000008000000
310
090000000A0000000B0000000C000000FEFFFFFFFFFFFFFFFFFFFFFFFFFFFFFF
310
FFFFFFFFFFFFFFFFFFFFFFFFFFFFFFFFFFFFFFFFFFFFFFFFFFFFFFFFFFFFFFFF
310
FFFFFFFFFFFFFFFFFFFFFFFFFFFFFFFFFFFFFFFFFFFFFFFFFFFFFFFFFFFFFFFF
310
FFFFFFFFFFFFFFFFFFFFFFFFFFFFFFFFFFFFFFFFFFFFFFFFFFFFFFFFFFFFFFFF
310
FFFFFFFFFFFFFFFFFFFFFFFFFFFFFFFFFFFFFFFFFFFFFFFFFFFFFFFFFFFFFFFF
310
FFFFFFFFFFFFFFFFFFFFFFFFFFFFFFFFFFFFFFFFFFFFFFFFFFFFFFFFFFFFFFFF
310
FFFFFFFFFFFFFFFFFFFFFFFFFFFFFFFFFFFFFFFFFFFFFFFFFFFFFFFFFFFFFFFF
310
FFFFFFFFFFFFFFFFFFFFFFFFFFFFFFFFFFFFFFFFFFFFFFFFFFFFFFFFFFFFFFFF
310
FFFFFFFFFFFFFFFFFFFFFFFFFFFFFFFFFFFFFFFFFFFFFFFFFFFFFFFFFFFFFFFF
310
FFFFFFFFFFFFFFFFFFFFFFFFFFFFFFFFFFFFFFFFFFFFFFFFFFFFFFFFFFFFFFFF
310
FFFFFFFFFFFFFFFFFFFFFFFFFFFFFFFFFFFFFFFFFFFFFFFFFFFFFFFFFFFFFFFF
310
FFFFFFFFFFFFFFFFFFFFFFFFFFFFFFFFFFFFFFFFFFFFFFFFFFFFFFFFFFFFFFFF
310
FFFFFFFFFFFFFFFFFFFFFFFFFFFFFFFFFFFFFFFFFFFFFFFFFFFFFFFFFFFFFFFF
310
FFFFFFFFFFFFFFFFFFFFFFFFFFFFFFFFFFFFFFFFFFFFFFFFFFFFFFFFFFFFFFFF
310
FFFFFFFFFFFFFFFFFFFFFFFFFFFFFFFFFFFFFFFFFFFFFFFFFFFFFFFFFFFFFFFF
310
52006F006F007400200045006E00740072007900000000000000000000000000
310
0000000000000000000000000000000000000000000000000000000000000000
310
16000500FFFFFFFFFFFFFFFF020000000A00030000000000C000000000000046
310
00000000000000000000000080C6BE74D4FBCC0103000000C000000000000000
310
01004F006C006500000000000000000000000000000000000000000000000000
310
0000000000000000000000000000000000000000000000000000000000000000
310
0A000200FFFFFFFFFFFFFFFFFFFFFFFF00000000000000000000000000000000
310
0000000000000000000000000000000000000000000000001400000000000000
310
010043006F006D0070004F0062006A0000000000000000000000000000000000
310
0000000000000000000000000000000000000000000000000000000000000000
310
120002010100000003000000FFFFFFFF00000000000000000000000000000000
310
0000000000000000000000000000000000000000010000004D00000000000000
310
01004F006C006500310030004E00610074006900760065000000000000000000
310
0000000000000000000000000000000000000000000000000000000000000000
310
1A000200FFFFFFFFFFFFFFFFFFFFFFFF00000000000000000000000000000000
310
000000000000000000000000000000000000000004000000E411000000000000
310
FEFFFFFF02000000FEFFFFFFFFFFFFFFFFFFFFFFFFFFFFFFFFFFFFFFFFFFFFFF
310
FFFFFFFFFFFFFFFFFFFFFFFFFFFFFFFFFFFFFFFFFFFFFFFFFFFFFFFFFFFFFFFF
310
FFFFFFFFFFFFFFFFFFFFFFFFFFFFFFFFFFFFFFFFFFFFFFFFFFFFFFFFFFFFFFFF
310
FFFFFFFFFFFFFFFFFFFFFFFFFFFFFFFFFFFFFFFFFFFFFFFFFFFFFFFFFFFFFFFF
310
FFFFFFFFFFFFFFFFFFFFFFFFFFFFFFFFFFFFFFFFFFFFFFFFFFFFFFFFFFFFFFFF
310
FFFFFFFFFFFFFFFFFFFFFFFFFFFFFFFFFFFFFFFFFFFFFFFFFFFFFFFFFFFFFFFF
310
FFFFFFFFFFFFFFFFFFFFFFFFFFFFFFFFFFFFFFFFFFFFFFFFFFFFFFFFFFFFFFFF
310
FFFFFFFFFFFFFFFFFFFFFFFFFFFFFFFFFFFFFFFFFFFFFFFFFFFFFFFFFFFFFFFF
310
FFFFFFFFFFFFFFFFFFFFFFFFFFFFFFFFFFFFFFFFFFFFFFFFFFFFFFFFFFFFFFFF
310
FFFFFFFFFFFFFFFFFFFFFFFFFFFFFFFFFFFFFFFFFFFFFFFFFFFFFFFFFFFFFFFF
310
FFFFFFFFFFFFFFFFFFFFFFFFFFFFFFFFFFFFFFFFFFFFFFFFFFFFFFFFFFFFFFFF
310
FFFFFFFFFFFFFFFFFFFFFFFFFFFFFFFFFFFFFFFFFFFFFFFFFFFFFFFFFFFFFFFF
310
FFFFFFFFFFFFFFFFFFFFFFFFFFFFFFFFFFFFFFFFFFFFFFFFFFFFFFFFFFFFFFFF
310
FFFFFFFFFFFFFFFFFFFFFFFFFFFFFFFFFFFFFFFFFFFFFFFFFFFFFFFFFFFFFFFF
310
FFFFFFFFFFFFFFFFFFFFFFFFFFFFFFFFFFFFFFFFFFFFFFFFFFFFFFFFFFFFFFFF
310
FFFFFFFFFFFFFFFFFFFFFFFFFFFFFFFFFFFFFFFFFFFFFFFFFFFFFFFFFFFFFFFF
310
0100000200000000000000000000000000000000F8995C160000000000000000
310
0000000000000000000000000000000000000000000000000000000000000000
310
0100FEFF030A0000FFFFFFFF0A00030000000000C00000000000004607000000
310
5042727573680007000000504272757368000700000050427275736800F439B2
310
7100000000000000000000000000000000000000000000000000000000000000
310
0000000000000000000000000000000000000000000000000000000000000000
310
0000000000000000000000000000000000000000000000000000000000000000
310
0000000000000000000000000000000000000000000000000000000000000000
310
0000000000000000000000000000000000000000000000000000000000000000
310
0000000000000000000000000000000000000000000000000000000000000000
310
0000000000000000000000000000000000000000000000000000000000000000
310
0000000000000000000000000000000000000000000000000000000000000000
310
0000000000000000000000000000000000000000000000000000000000000000
310
0000000000000000000000000000000000000000000000000000000000000000
310
0000000000000000000000000000000000000000000000000000000000000000
310
0000000000000000000000000000000000000000000000000000000000000000
310
E0110000424DDE11000000000000360400002800000096000000170000000100
310
08000000000000000000E7240000E72400000001000000010000000000FF0101
310
01FF020202FF030303FF040404FF050505FF060606FF070707FF080808FF0909
310
09FF0A0A0AFF0B0B0BFF0C0C0CFF0D0D0DFF0E0E0EFF0F0F0FFF101010FF1111
310
11FF121212FF131313FF141414FF151515FF161616FF171717FF181818FF1919
310
19FF1A1A1AFF1B1B1BFF1C1C1CFF1D1D1DFF1E1E1EFF1F1F1FFF202020FF2121
310
21FF222222FF232323FF242424FF252525FF262626FF272727FF282828FF2929
310
29FF2A2A2AFF2B2B2BFF2C2C2CFF2D2D2DFF2E2E2EFF2F2F2FFF303030FF3131
310
31FF323232FF333333FF343434FF353535FF363636FF373737FF383838FF3939
310
39FF3A3A3AFF3B3B3BFF3C3C3CFF3D3D3DFF3E3E3EFF3F3F3FFF404040FF4141
310
41FF424242FF434343FF444444FF454545FF464646FF474747FF484848FF4949
310
49FF4A4A4AFF4B4B4BFF4C4C4CFF4D4D4DFF4E4E4EFF4F4F4FFF505050FF5151
310
51FF525252FF535353FF545454FF555555FF565656FF575757FF585858FF5959
310
59FF5A5A5AFF5B5B5BFF5C5C5CFF5D5D5DFF5E5E5EFF5F5F5FFF606060FF6161
310
61FF626262FF636363FF646464FF656565FF666666FF676767FF686868FF6969
310
69FF6A6A6AFF6B6B6BFF6C6C6CFF6D6D6DFF6E6E6EFF6F6F6FFF707070FF7171
310
71FF727272FF737373FF747474FF757575FF767676FF777777FF787878FF7979
310
79FF7A7A7AFF7B7B7BFF7C7C7CFF7D7D7DFF7E7E7EFF7F7F7FFF808080FF8181
310
81FF828282FF838383FF848484FF858585FF868686FF878787FF888888FF8989
310
89FF8A8A8AFF8B8B8BFF8C8C8CFF8D8D8DFF8E8E8EFF8F8F8FFF909090FF9191
310
91FF929292FF939393FF949494FF959595FF969696FF979797FF989898FF9999
310
99FF9A9A9AFF9B9B9BFF9C9C9CFF9D9D9DFF9E9E9EFF9F9F9FFFA0A0A0FFA1A1
310
A1FFA2A2A2FFA3A3A3FFA4A4A4FFA5A5A5FFA6A6A6FFA7A7A7FFA8A8A8FFA9A9
310
A9FFAAAAAAFFABABABFFACACACFFADADADFFAEAEAEFFAFAFAFFFB0B0B0FFB1B1
310
B1FFB2B2B2FFB3B3B3FFB4B4B4FFB5B5B5FFB6B6B6FFB7B7B7FFB8B8B8FFB9B9
310
B9FFBABABAFFBBBBBBFFBCBCBCFFBDBDBDFFBEBEBEFFBFBFBFFFC0C0C0FFC1C1
310
C1FFC2C2C2FFC3C3C3FFC4C4C4FFC5C5C5FFC6C6C6FFC7C7C7FFC8C8C8FFC9C9
310
C9FFCACACAFFCBCBCBFFCCCCCCFFCDCDCDFFCECECEFFCFCFCFFFD0D0D0FFD1D1
310
D1FFD2D2D2FFD3D3D3FFD4D4D4FFD5D5D5FFD6D6D6FFD7D7D7FFD8D8D8FFD9D9
310
D9FFDADADAFFDBDBDBFFDCDCDCFFDDDDDDFFDEDEDEFFDFDFDFFFE0E0E0FFE1E1
310
E1FFE2E2E2FFE3E3E3FFE4E4E4FFE5E5E5FFE6E6E6FFE7E7E7FFE8E8E8FFE9E9
310
E9FFEAEAEAFFEBEBEBFFECECECFFEDEDEDFFEEEEEEFFEFEFEFFFF0F0F0FFF1F1
310
F1FFF2F2F2FFF3F3F3FFF4F4F4FFF5F5F5FFF6F6F6FFF7F7F7FFF8F8F8FFF9F9
310
F9FFFAFAFAFFFBFBFBFFFCFCFCFFFDFDFDFFFEFEFEFFFFFFFFFFFFFFFFFFFFFF
310
C94E4E4E4F4E4EFFFFFFFFFFC94E4E4E4E4E72FFFFFFFFFFFFFF734E4D4E4E4E
310
C9FFFFFFFFFFAA683516171616265B9BE9FFFFFFFFFF4E4E4E4D4E4EFFFFFFFF
310
FFFFFFFF4E4E4F4E4D4E4E4E4F4E4E4F4D4E4E4E4E4E4D4E4F4E4D4E4E4EAAFF
310
FFFFFFFFFFEA4E4F4F4E4E4E4E4E4D4D4F4F4E4E4E4E4E5B7FAAFFFFFFFFFFFF
310
C9744E1716171616164D8DEAFFFFFFFF0000FFFFFFFFFFFFBA161617161716FF
310
FFFFFFFFB917171616174FFFFFFFFFFFFFFF4E1716161616B9FFFFFFB9341717
310
1716171617171616268CFFFFFFFF161617161617FFFFFFFFFFFFFFB917161717
310
1617167F807F7F7F7F7F7F807F7F807F7F807F7F7F414EFFFFFFFFFFFF8C167F
310
7F807F7F7F7E7F7F807F807F7F807F4E3417258EFFFFEA4E162674AABAEAEBBA
310
AA74341680FFFFFF0000FFFFFFFFFFFFB9171717171617FFFFFFFFFFBB161616
310
16164EFFFFFFFFFFFFFF4E1717171717B9FFFF9C171617171716161616171616
310
171766FFFFFF161717161617FFFFFFFFFFFFFF8E16171717161616FFFFFFFFFF
310
FFFFFFFFFFFFFFFFFFFFFFFFFFAA16D9FFFFFFFFFF3467FFFFFFFFEAFFFFFFFF
310
FFFFFFFFFFFFFFFFFFCA671667EB26278DFFFFFFFFFFFFFFFFFFFF8C2541EAFF
310
0000FFFFFFFFFFFFB9171717171716FFFFFFFFFFBA16171617174EFFFFFFFFFF
310
FFFF4E1717161616BAFF9B1617161616171716171617161616161667FFFF1616
310
16161716FFFFFFFFFFFFFF7F16161617174017FFFFFFFFFFFFFFFFFFFFFFFFFF
310
FFFFFFFFFFFF344E7F7F7F7E7417DAFFFFFFFF80FFFFFFFFFFFFFFFFFFFFFFFF
310
FFFFFF9B163425CAFFFFFFFFFFFFFFFFFFFFFFFFCA2667FF0000FFFFFFFFFFFF
310
BA171717171617FFFFFFFFFFB916171716164EFFFFFFFFFFFFFF4F1716161717
310
B9C91716171616161716161617171616161617168DFF161716161717FFFFFFFF
310
FFFFFF7F17171716164F16FFFFFFFFFFFFFFFFFFFFFFFFFFFFFFFFFFFFFF9B16
310
17161617174EFFFFFFFFFF34FFFFFFFFD9BABABABABADAFFFFFFFFFF7F16AAFF
310
FFFFFFFFFFFFFFFFFFFFFFFFFF9C16BA0000FFFFFFFFFFFFB9161717161717FF
310
FFFFFFFFB917161716174DFFFFFFFFFFFFFF4E1616161616BA4E161617171716
310
419BEAEAAA4E16161617161726E9171717161616FFFFFFFFFFFFFF4F16161717
310
164E16FFFFFFFFFFBAB9B9B9B9B9BABABACAFFFFFFFFFFFFFFFFFFFFFFFFFFFF
310
FFFFBA16FFFFFFFF7F1617161617174DEAFFFFFFEA41FFFFFFFFFFAA4D16174E
310
9BFFFFFFFFFF34730000FFFFFFFFFFFFB9161617171617FFFFFFFFFFBA161616
310
16164EFFFFFFFFFFFFFF4F16161717169B1617161716175BFFFFFFFFFFFF7417
310
16171616168D171717161617FFFFFFFFFFFFEA2616171717167416FFFFFFFFFF
310
16171616171717171717EAFFFFFFFFFFFFFFFFFFFFFFFFFFFFFF6716FFFFFFFF
310
7F4EFFFFFFFFBA2573FFFFFFFFBAFFFFFFFFAA167FB9BB9B269BFFFFFFFF664F
310
0000FFFFFFFFFFFFB9171616161616FFFFFFFFFFBA16161717164EFFFFFFFFFF
310
FFFF4E16161616174E161617171626EAFFFFFFFFFFFFFF4E16161616164E1716
310
16161617FFFFFFFFFFFF671616161716347F16FFFFFFFFFF16B9FFFFFFFFFFFF
310
D9168DFFFFFFFFFFFFFFFFFFFFFFFFFFFFEA1716FFFFFFFF7F4EFFFFFFFFFF7F
310
4EFFFFFFFFFFFFFFFFFF5B66FFFFFFEA347FFFFFFFFF7F4D0000FFFFFFFFFFFF
310
B9171616171617FFFFFFFFFFBA17161716174EFFFFFFFFFFFFFF4D1716161617
310
17161716161673FFFFFFFFFFFFFFFF9B1617161717161616171616174F4E4E4E
310
4E341616171616167E7F16FFFFFFFFFF16BAFFFFFFFFFFFFFF5B41FFFFFFFF34
310
1616171616BAFFFFFF9B1716FFFFFFFF7F4EFFFFFFFFFF4E4EFFFFFFFF734E4E
310
4E4E267EDA9B67164EEAFFFFFFFF744D0000FFFFFFFFFFFFBA171717161617FF
310
FFFFFFFFBA1616171616347F7F7F7F80807F331616161717161717161716B9FF
310
FFFFFFFFFFFFFFE9161616161616171716161716171616161616171616171734
310
EA7F16FFFFFFFFFF16BAFFFFFFFFFFFFFFAA17C9FFFFFF7326BABA5B25FFFFFF
310
FF401716FFFFFFFF7F264F4E4E4E4217AAFFFFFFEA16677F73261616164173CA
310
FFFFFFFFFFFF417F0000FFFFFFFFFFFFBA171616171617FFFFFFFFFFBA161616
310
17171616161616161616161717161616161616161617EAFFFFFFFFFFFFFFFFFF
310
261717161716161617161616161617161617161616174EEAFF8016FFFFFFFFFF
310
17BAFFFFFFFFFFFFFFFF3467FFFFFFC916C9FF3467FFFFFFDA166716FFFFFFFF
310
9C4D4E4E4E4E67AAFFFFFFFF6834FF7F262567AAEAFFFFFFFFFFFFFFFF9B17D9
310
0000FFFFFFFFFFFFB9161616161616FFFFFFFFFFBA1617161717171616161616
310
1716171716161716161617171716FFFFFFFFFFFFFFFFFFFF4E17161716171616
310
1617171616161716171717161616169BFF7F17FFFFFFFFFF17B9FFFFFFFFFFFF
310
FFFF7326FFFFFFFF3473DA16AAFFFFFF7317AA16FFFFFFFFFFFFFFFFFFFFFFFF
310
FFFFEA6725BA4E167FEAFFFFFFFFFFFFFFFFFFFF9C167FFF0000FFFFFFFFFFFF
310
B9161717171716FFFFFFFFFFBA16161716171616171717161617161716161616
310
171617171617EAFFFFFFFFFFFFFFFFFF26161717161616161616161617171616
310
1616161616171616AA8016FFFFFFFFFF16BAFFFFFFFFFFFFFFFFDA179BFFFFFF
310
74348D26FFFFFFFF2566B917FFFFFFFFD8BAB9BAB9BADAFFFFEA41169B7425C9
310
FFFFFFFFFFFFFFFFFFFFAB4F1680FFFF0000FFFFFFFFFFFFBA161717171617FF
310
FFFFFFFFBA17161717161617171617161616161617171616171716171617BBFF
310
FFFFFFFFFFFFFFE9171616161617161617161716FFFFFFFFFFD9671616161617
310
348017FFFFFFFFFF16BAFFFFFFFFFFFFFFFFFF4E5AFFFFFFC916265AFFFFFFAA
310
16AABA16FFFFFFFF7F1617161616179BFFFFEB4127168DFFFFFFFFFFFFFFD99B
310
6734175AC9FFFFFF0000FFFFFFFFFFFFB9161617171617FFFFFFFFFFBB161616
310
1616347F807F7F7F7F8033171716171617171616161672FFFFFFFFFFFFFFFF9C
310
171617171617161716161617FFFFFFFFFFFFFF4117161616174E17FFFFFFFFFF
310
16BAFFFFFFFFFFFFFFFFFF9B16DAFFFFFF34169BFFFFFF5A26FFB917FFFFFFFF
310
7F4EFFFFFFEA5B26FFFFFFEA2616EAFFFFFFFFDA743416331617414E4E4E4ECA
310
0000FFFFFFFFFFFFBA161716161616FFFFFFFFFFBA17171616164EFFFFFFFFFF
310
FFFF4E16161717174E161717171626EBFFFFFFFFFFFFFF4E16161617165B1616
310
16171617FFFFFFFFFFFFFF6716161616161617FFFFFFFFFF16BAFFFFFFFFFFFF
310
FFFFFFEA268CFFFFFF7316EAFFFFEB1774FFB916FFFFFFFF7F4EFFFFFFFF7316
310
FFFFFFFF6826FFFFFFFFEB264D9CEABA257F807F7F6616BA0000FFFFFFFFFFFF
310
BA161716161616FFFFFFFFFFBA16171616164DFFFFFFFFFFFFFF4E1617161617
310
9B1617171717165BEBFFFFFFFFFF671616161617179B171616161616FFFFFFFF
310
FFFFFF3417161617171617FFFFFFFFFF17BAFFFFFFFFFFFFFFFFFFFF6734FFFF
310
FFEBCAFFFFFF8D17C9FFBA17FFFFFFFF7F357F808066174FFFFFFFFF7F16FFFF
310
FFFFD91673B99B415BFFFFFFFFBA16DA00009B7F7F7F807F671617161616167F
310
80807F7E6617161616164EFFFFFFFFFFFFFF4E1616161617B94E171716161616
310
349BC9D9AA4E16171616161634FF161617161717B9B9BAB9BA9B411716171716
310
163416FFFFFFFFFF16B9FFFFFFFFFFFFFFFFFFFFC917CAFFFFFFFFFFFFFF3342
310
FFFFBA17FFFFFFFF9B4E4E4F4E4E66EAFFFFFFFF5B16C9FFFFFFFFAA4E164E73
310
EAFFFFFFFF8D26FF00004E161716161616171617171616171717171617161616
310
17174EFFFFFFFFFFFFFF4E1717171616B9D92616171716171716171717171716
310
16171716AAFF161717171617161617171616161617161716166717FFFFFFFFFF
310
17B9FFFFFFFFFFFFFFFFFFFFFF3467FFFFFFFFFFFFCA168CFFFFBB17FFFFFFFF
310
FFFFFFFFFFFFFFFFFFFFFFEA26265BFFFFFFFFFFFFFFFFFFFFFFFFFFEA3467FF
310
00004D16161616161617161717161617161616171617171616164EFFFFFFFFFF
310
FFFF4D1617161616BAFF9B1616161616161716161616171717161766FFFF1616
310
16171617161617161716171616171717667F16FFFFFFFFFF17BAFFFFFFFFFFFF
310
FFFFFFFFFF8C26EAFFFFFFFFFF6617EAFFFFBA17FFFFFFFFFFFFFFFFFFFFFFFF
310
FFFFEA5A25BA269BFFFFFFFFFFFFFFFFFFFFFFFF6616DAFF00004E1616171616
310
1616161616161716161617171616171616174EFFFFFFFFFFFFFF4D1717171716
310
B9FFFF9C161616161616161716161717171667FFFFFF17161717171716161617
310
1716161616161641E97E16FFFFFFFFFF16B9FFFFFFFFFFFFFFFFFFFFFFEA169B
310
FFFFFFFFEA265BFFFFFFB916FFFFFFFFFFFFFFFFFFFFFFFFFF9B3416AAFF9B17
310
67EAFFFFFFFFFFFFFFFFEA5B169BFFFF00004D17161716161616161717171616
310
161717161716171716174EFFFFFFFFFFFFFF4D1616161616BAFFFFFFBB411616
310
161716161616171634ABFFFFFFFF161716161617171716171617171617267FFF
310
FF7F164E4E4E4E4F17BAFFFFFFFFFFFFFFFFFFFFFFFF66344D4E4E4F4117AAFF
310
FFFFBA174E4E4E4D4E4D4D4E4E4E4E4116174EBBFFFFFFCA342666ABEAFFFFEA
310
AA6725269CFFFFFF0000724F4E4D4D4D4E4D4D4E4E4E4D4E4E4E4E4E4E4E4E4D
310
4E4E74FFFFFFFFFFFFFF734E4E4E4D4ECAFFFFFFFFFFAA663416171717265B9B
310
FFFFFFFFFFFF7F8080807F80807F7F7F7F7F807FBAFFFFFFFF9B4E4E4F4D4D4E
310
4DC9FFFFFFFFFFFFFFFFFFFFFFFFBA4E4E4E4E4D4E4EFFFFFFFFC94E4E4E4F4E
310
4E4E4D4E4E5A807F9CD9FFFFFFFFFFFFFF9B5B2617171716174E8DEAFFFFFFFF
310
0000000000000000000000000000000000000000000000000000000000000000
  1
OLE
  0
ENDSEC
  0
SECTION
  2
OBJECTS
  0
DICTIONARY
  5
C
330
0
100
AcDbDictionary
281
     1
  3
ACAD_GROUP
350
D
  3
ACAD_LAYOUT
350
1A
  3
ACAD_MLINESTYLE
350
17
  3
ACAD_PLOTSETTINGS
350
19
  3
ACAD_PLOTSTYLENAME
350
E
  0
DICTIONARY
  5
D
102
{ACAD_REACTORS
330
C
102
}
330
C
100
AcDbDictionary
281
     1
  0
DICTIONARY
  5
1A
102
{ACAD_REACTORS
330
C
102
}
330
C
100
AcDbDictionary
281
     1
  3
Layout1
350
1E
  3
Layout2
350
26
  3
Model
350
22
  0
DICTIONARY
  5
17
102
{ACAD_REACTORS
330
C
102
}
330
C
100
AcDbDictionary
281
     1
  3
Standard
350
18
  0
DICTIONARY
  5
19
102
{ACAD_REACTORS
330
C
102
}
330
C
100
AcDbDictionary
281
     1
  0
ACDBDICTIONARYWDFLT
  5
E
102
{ACAD_REACTORS
330
C
102
}
330
C
100
AcDbDictionary
281
     1
  3
Normal
350
F
100
AcDbDictionaryWithDefault
340
F
  0
LAYOUT
  5
1E
102
{ACAD_REACTORS
330
1A
102
}
330
1A
100
AcDbPlotSettings
  1

  2
none_device
  4

  6

 40
0.0
 41
0.0
 42
0.0
 43
0.0
 44
0.0
 45
0.0
 46
0.0
 47
0.0
 48
0.0
 49
0.0
140
0.0
141
0.0
142
1.0
143
1.0
 70
   688
 72
     0
 73
     0
 74
     5
  7

 75
    16
147
1.0
148
0.0
149
0.0
100
AcDbLayout
  1
Layout1
 70
     1
 71
     1
 10
0.0
 20
0.0
 11
12.0
 21
9.0
 12
0.0
 22
0.0
 32
0.0
 14
1.0000000000E+20
 24
1.0000000000E+20
 34
1.0000000000E+20
 15
-1.0000000000E+20
 25
-1.0000000000E+20
 35
-1.0000000000E+20
146
0.0
 13
0.0
 23
0.0
 33
0.0
 16
1.0
 26
0.0
 36
0.0
 17
0.0
 27
1.0
 37
0.0
 76
     0
330
1B
  0
LAYOUT
  5
26
102
{ACAD_REACTORS
330
1A
102
}
330
1A
100
AcDbPlotSettings
  1

  2
none_device
  4

  6

 40
0.0
 41
0.0
 42
0.0
 43
0.0
 44
0.0
 45
0.0
 46
0.0
 47
0.0
 48
0.0
 49
0.0
140
0.0
141
0.0
142
1.0
143
1.0
 70
   688
 72
     0
 73
     0
 74
     5
  7

 75
    16
147
1.0
148
0.0
149
0.0
100
AcDbLayout
  1
Layout2
 70
     1
 71
     2
 10
0.0
 20
0.0
 11
0.0
 21
0.0
 12
0.0
 22
0.0
 32
0.0
 14
0.0
 24
0.0
 34
0.0
 15
0.0
 25
0.0
 35
0.0
146
0.0
 13
0.0
 23
0.0
 33
0.0
 16
1.0
 26
0.0
 36
0.0
 17
0.0
 27
1.0
 37
0.0
 76
     0
330
23
  0
LAYOUT
  5
22
102
{ACAD_REACTORS
330
1A
102
}
330
1A
100
AcDbPlotSettings
  1

  2
none_device
  4

  6

 40
0.0
 41
0.0
 42
0.0
 43
0.0
 44
0.0
 45
0.0
 46
0.0
 47
0.0
 48
0.0
 49
0.0
140
0.0
141
0.0
142
1.0
143
1.0
 70
  1712
 72
     0
 73
     0
 74
     0
  7

 75
     0
147
1.0
148
0.0
149
0.0
100
AcDbLayout
  1
Model
 70
     1
 71
     0
 10
0.0
 20
0.0
 11
11.0
 21
8.5
 12
0.0
 22
0.0
 32
0.0
 14
0.0
 24
0.0
 34
0.0
 15
11.0
 25
8.5
 35
0.0
146
0.0
 13
0.0
 23
0.0
 33
0.0
 16
1.0
 26
0.0
 36
0.0
 17
0.0
 27
1.0
 37
0.0
 76
     0
330
1F
331
29
  0
MLINESTYLE
  5
18
102
{ACAD_REACTORS
330
17
102
}
330
17
100
AcDbMlineStyle
  2
Standard
 70
     0
  3

 62
   256
 51
90.0
 52
90.0
 71
     2
 49
0.5
 62
   256
  6
BYLAYER
 49
-0.5
 62
   256
  6
BYLAYER
  0
ACDBPLACEHOLDER
  5
F
102
{ACAD_REACTORS
330
E
102
}
330
E
  0
ENDSEC
  0
EOF
