  0
SECTION
  2
HEADER
  9
$ACADVER
  1
AC1015
  9
$ACADMAINTVER
 70
     6
  9
$DWGCODEPAGE
  3
ANSI_1252
  9
$INSBASE
 10
0.0
 20
0.0
 30
0.0
  9
$EXTMIN
 10
0.0
 20
0.0
 30
0.0
  9
$EXTMAX
 10
11.0
 20
8.5
 30
0.0
  9
$LIMMIN
 10
0.0
 20
0.0
  9
$LIMMAX
 10
11.0
 20
8.5
  9
$ORTHOMODE
 70
     0
  9
$REGENMODE
 70
     1
  9
$FILLMODE
 70
     1
  9
$QTEXTMODE
 70
     0
  9
$MIRRTEXT
 70
     1
  9
$LTSCALE
 40
1.0
  9
$ATTMODE
 70
     1
  9
$TEXTSIZE
 40
0.1111111111
  9
$TRACEWID
 40
0.05
  9
$TEXTSTYLE
  7
Standard
  9
$CLAYER
  8
0
  9
$CELTYPE
  6
ByLayer
  9
$CECOLOR
 62
   256
  9
$CELTSCALE
 40
1.0
  9
$DISPSILH
 70
     0
  9
$DIMSCALE
 40
1.0
  9
$DIMASZ
 40
0.125
  9
$DIMEXO
 40
0.05
  9
$DIMDLI
 40
0.38
  9
$DIMRND
 40
0.0
  9
$DIMDLE
 40
0.0
  9
$DIMEXE
 40
0.07
  9
$DIMTP
 40
0.0
  9
$DIMTM
 40
0.0
  9
$DIMTXT
 40
0.1111111111
  9
$DIMCEN
 40
0.09
  9
$DIMTSZ
 40
0.0
  9
$DIMTOL
 70
     0
  9
$DIMLIM
 70
     0
  9
$DIMTIH
 70
     1
  9
$DIMTOH
 70
     1
  9
$DIMSE1
 70
     0
  9
$DIMSE2
 70
     0
  9
$DIMTAD
 70
     0
  9
$DIMZIN
 70
     1
  9
$DIMBLK
  1

  9
$DIMASO
 70
     1
  9
$DIMSHO
 70
     1
  9
$DIMPOST
  1

  9
$DIMAPOST
  1

  9
$DIMALT
 70
     0
  9
$DIMALTD
 70
     2
  9
$DIMALTF
 40
25.4
  9
$DIMLFAC
 40
1.0
  9
$DIMTOFL
 70
     0
  9
$DIMTVP
 40
0.0
  9
$DIMTIX
 70
     0
  9
$DIMSOXD
 70
     0
  9
$DIMSAH
 70
     0
  9
$DIMBLK1
  1

  9
$DIMBLK2
  1

  9
$DIMSTYLE
  2
Standard
  9
$DIMCLRD
 70
     0
  9
$DIMCLRE
 70
     0
  9
$DIMCLRT
 70
     0
  9
$DIMTFAC
 40
1.0
  9
$DIMGAP
 40
0.1
  9
$DIMJUST
 70
     0
  9
$DIMSD1
 70
     0
  9
$DIMSD2
 70
     0
  9
$DIMTOLJ
 70
     1
  9
$DIMTZIN
 70
     1
  9
$DIMALTZ
 70
     0
  9
$DIMALTTZ
 70
     0
  9
$DIMUPT
 70
     0
  9
$DIMDEC
 70
     2
  9
$DIMTDEC
 70
     2
  9
$DIMALTU
 70
     2
  9
$DIMALTTD
 70
     2
  9
$DIMTXSTY
  7
Standard
  9
$DIMAUNIT
 70
     0
  9
$DIMADEC
 70
     0
  9
$DIMALTRND
 40
0.0
  9
$DIMAZIN
 70
     0
  9
$DIMDSEP
 70
    46
  9
$DIMATFIT
 70
     3
  9
$DIMFRAC
 70
     0
  9
$DIMLDRBLK
  1

  9
$DIMLUNIT
 70
     2
  9
$DIMLWD
 70
    -2
  9
$DIMLWE
 70
    -2
  9
$DIMTMOVE
 70
     0
  9
$LUNITS
 70
     2
  9
$LUPREC
 70
     2
  9
$SKETCHINC
 40
0.1
  9
$FILLETRAD
 40
0.5
  9
$AUNITS
 70
     0
  9
$AUPREC
 70
     0
  9
$MENU
  1
.
  9
$ELEVATION
 40
0.0
  9
$PELEVATION
 40
0.0
  9
$THICKNESS
 40
0.0
  9
$LIMCHECK
 70
     0
  9
$CHAMFERA
 40
0.0
  9
$CHAMFERB
 40
0.0
  9
$CHAMFERC
 40
0.0
  9
$CHAMFERD
 40
0.0
  9
$SKPOLY
 70
     0
  9
$TDCREATE
 40
2457427.491391597
  9
$TDUCREATE
 40
2457427.69972493
  9
$TDUPDATE
 40
2457427.491394306
  9
$TDUUPDATE
 40
2457427.699727639
  9
$TDINDWG
 40
0.0000000116
  9
$TDUSRTIMER
 40
0.0000000116
  9
$USRTIMER
 70
     1
  9
$ANGBASE
 50
0.0
  9
$ANGDIR
 70
     0
  9
$PDMODE
 70
     0
  9
$PDSIZE
 40
-1.0
  9
$PLINEWID
 40
0.0
  9
$SPLFRAME
 70
     0
  9
$SPLINETYPE
 70
     6
  9
$SPLINESEGS
 70
     8
  9
$HANDSEED
  5
212
  9
$SURFTAB1
 70
     6
  9
$SURFTAB2
 70
     6
  9
$SURFTYPE
 70
     6
  9
$SURFU
 70
     6
  9
$SURFV
 70
     6
  9
$UCSBASE
  2

  9
$UCSNAME
  2

  9
$UCSORG
 10
0.0
 20
0.0
 30
0.0
  9
$UCSXDIR
 10
1.0
 20
0.0
 30
0.0
  9
$UCSYDIR
 10
0.0
 20
1.0
 30
0.0
  9
$UCSORTHOREF
  2

  9
$UCSORTHOVIEW
 70
     0
  9
$UCSORGTOP
 10
0.0
 20
0.0
 30
0.0
  9
$UCSORGBOTTOM
 10
0.0
 20
0.0
 30
0.0
  9
$UCSORGLEFT
 10
0.0
 20
0.0
 30
0.0
  9
$UCSORGRIGHT
 10
0.0
 20
0.0
 30
0.0
  9
$UCSORGFRONT
 10
0.0
 20
0.0
 30
0.0
  9
$UCSORGBACK
 10
0.0
 20
0.0
 30
0.0
  9
$PUCSBASE
  2

  9
$PUCSNAME
  2

  9
$PUCSORG
 10
0.0
 20
0.0
 30
0.0
  9
$PUCSXDIR
 10
1.0
 20
0.0
 30
0.0
  9
$PUCSYDIR
 10
0.0
 20
1.0
 30
0.0
  9
$PUCSORTHOREF
  2

  9
$PUCSORTHOVIEW
 70
     0
  9
$PUCSORGTOP
 10
0.0
 20
0.0
 30
0.0
  9
$PUCSORGBOTTOM
 10
0.0
 20
0.0
 30
0.0
  9
$PUCSORGLEFT
 10
0.0
 20
0.0
 30
0.0
  9
$PUCSORGRIGHT
 10
0.0
 20
0.0
 30
0.0
  9
$PUCSORGFRONT
 10
0.0
 20
0.0
 30
0.0
  9
$PUCSORGBACK
 10
0.0
 20
0.0
 30
0.0
  9
$USERI1
 70
     0
  9
$USERI2
 70
     0
  9
$USERI3
 70
     0
  9
$USERI4
 70
     0
  9
$USERI5
 70
     0
  9
$USERR1
 40
0.0
  9
$USERR2
 40
0.0
  9
$USERR3
 40
0.0
  9
$USERR4
 40
0.0
  9
$USERR5
 40
0.0
  9
$WORLDVIEW
 70
     1
  9
$SHADEDGE
 70
     3
  9
$SHADEDIF
 70
    70
  9
$TILEMODE
 70
     1
  9
$MAXACTVP
 70
    64
  9
$PINSBASE
 10
0.0
 20
0.0
 30
0.0
  9
$PLIMCHECK
 70
     0
  9
$PEXTMIN
 10
1.0000000000E+20
 20
1.0000000000E+20
 30
1.0000000000E+20
  9
$PEXTMAX
 10
-1.0000000000E+20
 20
-1.0000000000E+20
 30
-1.0000000000E+20
  9
$PLIMMIN
 10
0.0
 20
0.0
  9
$PLIMMAX
 10
12.0
 20
9.0
  9
$UNITMODE
 70
     0
  9
$VISRETAIN
 70
     1
  9
$PLINEGEN
 70
     0
  9
$PSLTSCALE
 70
     1
  9
$TREEDEPTH
 70
  3020
  9
$CMLSTYLE
  2
Standard
  9
$CMLJUST
 70
     0
  9
$CMLSCALE
 40
1.0
  9
$PROXYGRAPHICS
 70
     1
  9
$MEASUREMENT
 70
     0
  9
$CELWEIGHT
370
    -1
  9
$ENDCAPS
280
     0
  9
$JOINSTYLE
280
     0
  9
$LWDISPLAY
290
     1
  9
$INSUNITS
 70
     1
  9
$HYPERLINKBASE
  1

  9
$STYLESHEET
  1

  9
$XEDIT
290
     1
  9
$CEPSNTYPE
380
     0
  9
$PSTYLEMODE
290
     1
  9
$FINGERPRINTGUID
  2
{2DA14674-B1EF-41AA-AE57-F6393698A484}
  9
$VERSIONGUID
  2
{FAEB1C32-E019-11D5-929B-00C0DF256EC4}
  9
$EXTNAMES
290
     1
  9
$PSVPSCALE
 40
0.0
  9
$OLESTARTUP
290
     0
  0
ENDSEC
  0
SECTION
  2
CLASSES
  0
CLASS
  1
ACDBDICTIONARYWDFLT
  2
AcDbDictionaryWithDefault
  3
ObjectDBX Classes
 90
        0
280
     0
281
     0
  0
CLASS
  1
VISUALSTYLE
  2
AcDbVisualStyle
  3
ObjectDBX Classes
 90
     4095
280
     0
281
     0
  0
CLASS
  1
MATERIAL
  2
AcDbMaterial
  3
ObjectDBX Classes
 90
     1153
280
     0
281
     0
  0
CLASS
  1
SCALE
  2
AcDbScale
  3
ObjectDBX Classes
 90
     1153
280
     0
281
     0
  0
CLASS
  1
SUN
  2
AcDbSun
  3
SCENEOE
 90
     1153
280
     0
281
     0
  0
CLASS
  1
ACDBPLACEHOLDER
  2
AcDbPlaceHolder
  3
ObjectDBX Classes
 90
        0
280
     0
281
     0
  0
CLASS
  1
LAYOUT
  2
AcDbLayout
  3
ObjectDBX Classes
 90
        0
280
     0
281
     0
  0
ENDSEC
  0
SECTION
  2
TABLES
  0
TABLE
  2
VPORT
  5
8
330
0
100
AcDbSymbolTable
 70
     1
  0
VPORT
  5
29
330
8
100
AcDbSymbolTableRecord
100
AcDbViewportTableRecord
  2
*Active
 70
     0
 10
0.0
 20
0.0
 11
1.0
 21
1.0
 12
5.5
 22
4.25
 13
0.0
 23
0.0
 14
0.5
 24
0.5
 15
0.5
 25
0.5
 16
0.0
 26
0.0
 36
1.0
 17
0.0
 27
0.0
 37
0.0
 40
8.5
 41
1.2941176471
 42
50.0
 43
0.0
 44
0.0
 50
0.0
 51
0.0
 71
     0
 72
  2000
 73
     1
 74
     3
 75
     0
 76
     0
 77
     0
 78
     0
281
     0
 65
     1
110
0.0
120
0.0
130
0.0
111
1.0
121
0.0
131
0.0
112
0.0
122
1.0
132
0.0
 79
     0
146
0.0
  0
ENDTAB
  0
TABLE
  2
LTYPE
  5
5
330
0
100
AcDbSymbolTable
 70
     6
  0
LTYPE
  5
14
330
5
100
AcDbSymbolTableRecord
100
AcDbLinetypeTableRecord
  2
ByBlock
 70
     0
  3

 72
    65
 73
     0
 40
0.0
  0
LTYPE
  5
15
330
5
100
AcDbSymbolTableRecord
100
AcDbLinetypeTableRecord
  2
ByLayer
 70
     0
  3

 72
    65
 73
     0
 40
0.0
  0
LTYPE
  5
16
330
5
100
AcDbSymbolTableRecord
100
AcDbLinetypeTableRecord
  2
Continuous
 70
     0
  3
Solid line
 72
    65
 73
     0
 40
0.0
  0
LTYPE
  5
6A
330
5
100
AcDbSymbolTableRecord
100
AcDbLinetypeTableRecord
  2
HIDDEN
 70
     0
  3
Hidden __ __ __ __ __ __ __ __ __ __ __ __ __ __
 72
    65
 73
     2
 40
0.075
 49
0.05
 74
     0
 49
-0.025
 74
     0
  0
LTYPE
  5
6B
330
5
100
AcDbSymbolTableRecord
100
AcDbLinetypeTableRecord
  2
PHANTOM
 70
     0
  3
Phantom ______  __  __  ______  __  __  ______
 72
    65
 73
     6
 40
0.5
 49
0.25
 74
     0
 49
-0.05
 74
     0
 49
0.05
 74
     0
 49
-0.05
 74
     0
 49
0.05
 74
     0
 49
-0.05
 74
     0
  0
LTYPE
  5
6C
330
5
100
AcDbSymbolTableRecord
100
AcDbLinetypeTableRecord
  2
CENTER
 70
     0
  3
Center ____ _ ____ _ ____ _ ____ _ ____ _ ____
 72
    65
 73
     4
 40
0.4
 49
0.25
 74
     0
 49
-0.05
 74
     0
 49
0.05
 74
     0
 49
-0.05
 74
     0
  0
LTYPE
  5
6D
330
5
100
AcDbSymbolTableRecord
100
AcDbLinetypeTableRecord
  2
CENTERX2
 70
     0
  3
Center (2x) ________  __  ________  __  _____
 72
    65
 73
     4
 40
0.8
 49
0.5
 74
     0
 49
-0.1
 74
     0
 49
0.1
 74
     0
 49
-0.1
 74
     0
  0
LTYPE
  5
6E
330
5
100
AcDbSymbolTableRecord
100
AcDbLinetypeTableRecord
  2
DOT2
 70
     0
  3
Dot (.5x) ........................................
 72
    65
 73
     2
 40
0.025
 49
0.0
 74
     0
 49
-0.025
 74
     0
  0
ENDTAB
  0
TABLE
  2
LAYER
  5
2
330
0
100
AcDbSymbolTable
 70
     2
  0
LAYER
  5
10
330
2
100
AcDbSymbolTableRecord
100
AcDbLayerTableRecord
  2
0
 70
     0
 62
     7
  6
Continuous
370
    -3
390
F
  0
LAYER
  5
6F
330
2
100
AcDbSymbolTableRecord
100
AcDbLayerTableRecord
  2
FORMAT
 70
     0
 62
     7
  6
Continuous
370
    -3
390
F
  0
ENDTAB
  0
TABLE
  2
STYLE
  5
3
330
0
100
AcDbSymbolTable
 70
     5
  0
STYLE
  5
11
330
3
100
AcDbSymbolTableRecord
100
AcDbTextStyleTableRecord
  2
Standard
 70
     0
 40
0.0
 41
1.0
 50
0.0
 71
     0
 42
0.1111111111
  3
txt
  4

  0
STYLE
  5
96
330
3
100
AcDbSymbolTableRecord
100
AcDbTextStyleTableRecord
  2
SLDTEXTSTYLE0
 70
     0
 40
0.0
 41
0.75
 50
0.0
 71
     0
 42
0.1111111111
  3
TXT
  4

  0
STYLE
  5
A2
330
3
100
AcDbSymbolTableRecord
100
AcDbTextStyleTableRecord
  2
SLDTEXTSTYLE1
 70
     0
 40
0.0
 41
0.6
 50
0.0
 71
     0
 42
0.1111111111
  3
TXT
  4

  0
STYLE
  5
A7
330
3
100
AcDbSymbolTableRecord
100
AcDbTextStyleTableRecord
  2
SLDTEXTSTYLE2
 70
     0
 40
0.0
 41
0.6875
 50
0.0
 71
     0
 42
0.1111111111
  3
TXT
  4

  0
STYLE
  5
1FC
330
3
100
AcDbSymbolTableRecord
100
AcDbTextStyleTableRecord
  2
SLDTEXTSTYLE3
 70
     0
 40
0.0
 41
0.7
 50
0.0
 71
     0
 42
0.1111111111
  3
TXT
  4

  0
ENDTAB
  0
TABLE
  2
VIEW
  5
6
330
0
100
AcDbSymbolTable
 70
     0
  0
ENDTAB
  0
TABLE
  2
UCS
  5
7
330
0
100
AcDbSymbolTable
 70
     0
  0
ENDTAB
  0
TABLE
  2
APPID
  5
9
330
0
100
AcDbSymbolTable
 70
     1
  0
APPID
  5
12
330
9
100
AcDbSymbolTableRecord
100
AcDbRegAppTableRecord
  2
ACAD
 70
     0
  0
ENDTAB
  0
TABLE
  2
DIMSTYLE
  5
A
330
0
100
AcDbSymbolTable
 70
     5
100
AcDbDimStyleTable
  0
DIMSTYLE
105
27
330
A
100
AcDbSymbolTableRecord
100
AcDbDimStyleTableRecord
  2
Standard
 70
     0
178
     0
340
11
  0
DIMSTYLE
105
11A
102
{ACAD_REACTORS
330
119
102
}
330
A
100
AcDbSymbolTableRecord
100
AcDbDimStyleTableRecord
  2
SLDDIMSTYLE0
 70
     0
 41
0.125
 44
0.0
 45
0.000000001
 78
     4
 79
     1
140
0.0833333333
141
0.0
147
0.0208333333
148
0.000000001
170
     1
171
     1
173
     1
178
     0
271
     2
272
     2
274
     1
276
     2
284
    12
340
96
  0
DIMSTYLE
105
1AE
102
{ACAD_REACTORS
330
1AD
330
1C2
102
}
330
A
100
AcDbSymbolTableRecord
100
AcDbDimStyleTableRecord
  2
SLDDIMSTYLE1
 70
     0
 41
0.125
 44
0.0
 45
0.000000001
 78
     8
 79
     2
140
0.0833333333
147
0.0208333333
148
0.000000001
170
     1
171
     1
172
     1
173
     1
178
     0
271
     2
272
     2
274
     1
276
     2
284
    12
289
     0
340
96
  0
DIMSTYLE
105
1D7
102
{ACAD_REACTORS
330
1D6
102
}
330
A
100
AcDbSymbolTableRecord
100
AcDbDimStyleTableRecord
  2
SLDDIMSTYLE2
 70
     0
 41
0.125
 44
0.0
 45
0.000000001
 78
     4
 79
     1
140
0.0833333333
147
0.0208333333
148
0.000000001
170
     1
171
     1
173
     1
178
     0
271
     2
272
     2
274
     1
276
     2
284
    12
340
96
  0
DIMSTYLE
105
1F0
330
A
100
AcDbSymbolTableRecord
100
AcDbDimStyleTableRecord
  2
SLDDIMSTYLE3
 70
     0
 41
0.125
 44
0.0
 45
0.000000001
146
0.125
147
0.0
173
     1
178
     0
271
     0
272
     0
276
     2
340
11
  0
ENDTAB
  0
TABLE
  2
BLOCK_RECORD
  5
1
330
0
100
AcDbSymbolTable
 70
    20
  0
BLOCK_RECORD
  5
1F
330
1
100
AcDbSymbolTableRecord
100
AcDbBlockTableRecord
  2
*Model_Space
340
22
  0
BLOCK_RECORD
  5
1B
330
1
100
AcDbSymbolTableRecord
100
AcDbBlockTableRecord
  2
*Paper_Space
340
1E
  0
BLOCK_RECORD
  5
23
330
1
100
AcDbSymbolTableRecord
100
AcDbBlockTableRecord
  2
*Paper_Space0
340
26
  0
BLOCK_RECORD
  5
70
330
1
100
AcDbSymbolTableRecord
100
AcDbBlockTableRecord
  2
Third Angle Projection Block
340
0
102
{BLKREFS
331
95
102
}
  0
BLOCK_RECORD
  5
A9
330
1
100
AcDbSymbolTableRecord
100
AcDbBlockTableRecord
  2
SW_NOTE_0
340
0
102
{BLKREFS
331
AE
102
}
  0
BLOCK_RECORD
  5
AF
330
1
100
AcDbSymbolTableRecord
100
AcDbBlockTableRecord
  2
SW_NOTE_1
340
0
102
{BLKREFS
331
B4
102
}
  0
BLOCK_RECORD
  5
B6
330
1
100
AcDbSymbolTableRecord
100
AcDbBlockTableRecord
  2
SW_NOTE_2
340
0
102
{BLKREFS
331
BC
102
}
  0
BLOCK_RECORD
  5
BE
330
1
100
AcDbSymbolTableRecord
100
AcDbBlockTableRecord
  2
SW_NOTE_3
340
0
102
{BLKREFS
331
C3
102
}
  0
BLOCK_RECORD
  5
C4
330
1
100
AcDbSymbolTableRecord
100
AcDbBlockTableRecord
  2
SW_NOTE_4
340
0
102
{BLKREFS
331
D6
102
}
  0
BLOCK_RECORD
  5
D7
330
1
100
AcDbSymbolTableRecord
100
AcDbBlockTableRecord
  2
SW_TABLEANNOTATION_0
340
0
102
{BLKREFS
331
100
102
}
  0
BLOCK_RECORD
  5
E5
330
1
100
AcDbSymbolTableRecord
100
AcDbBlockTableRecord
  2
SW_SYMBOL_C#_1
340
0
102
{BLKREFS
331
EA
102
}
  0
BLOCK_RECORD
  5
EE
330
1
100
AcDbSymbolTableRecord
100
AcDbBlockTableRecord
  2
SW_SYMBOL_C#_2
340
0
102
{BLKREFS
331
F3
102
}
  0
BLOCK_RECORD
  5
F6
330
1
100
AcDbSymbolTableRecord
100
AcDbBlockTableRecord
  2
SW_SYMBOL_C#_3
340
0
102
{BLKREFS
331
FB
102
}
  0
BLOCK_RECORD
  5
11B
330
1
100
AcDbSymbolTableRecord
100
AcDbBlockTableRecord
  2
_D
340
0
  0
BLOCK_RECORD
  5
1AF
330
1
100
AcDbSymbolTableRecord
100
AcDbBlockTableRecord
  2
_D_1
340
0
  0
BLOCK_RECORD
  5
1C3
330
1
100
AcDbSymbolTableRecord
100
AcDbBlockTableRecord
  2
_D_2
340
0
  0
BLOCK_RECORD
  5
1D8
330
1
100
AcDbSymbolTableRecord
100
AcDbBlockTableRecord
  2
_D_3
340
0
  0
BLOCK_RECORD
  5
1EA
330
1
100
AcDbSymbolTableRecord
100
AcDbBlockTableRecord
  2
SW_NOTE_5
340
0
102
{BLKREFS
331
1EF
102
}
  0
BLOCK_RECORD
  5
1F2
330
1
100
AcDbSymbolTableRecord
100
AcDbBlockTableRecord
  2
SW_NOTE_6
340
0
102
{BLKREFS
331
1F7
102
}
  0
BLOCK_RECORD
  5
1F9
330
1
100
AcDbSymbolTableRecord
100
AcDbBlockTableRecord
  2
SW_NOTE_7
340
0
102
{BLKREFS
331
200
102
}
  0
BLOCK_RECORD
  5
202
330
1
100
AcDbSymbolTableRecord
100
AcDbBlockTableRecord
  2
SW_NOTE_8
340
0
102
{BLKREFS
331
207
102
}
  0
BLOCK_RECORD
  5
209
330
1
100
AcDbSymbolTableRecord
100
AcDbBlockTableRecord
  2
SW_NOTE_9
340
0
102
{BLKREFS
331
20F
102
}
  0
ENDTAB
  0
ENDSEC
  0
SECTION
  2
BLOCKS
  0
BLOCK
  5
20
330
1F
100
AcDbEntity
  8
0
100
AcDbBlockBegin
  2
*Model_Space
 70
     0
 10
0.0
 20
0.0
 30
0.0
  3
*Model_Space
  1
*Model_Space
  0
ENDBLK
  5
21
330
1F
100
AcDbEntity
  8
0
100
AcDbBlockEnd
  0
BLOCK
  5
1C
330
1B
100
AcDbEntity
 67
     1
  8
0
100
AcDbBlockBegin
  2
*Paper_Space
 70
     0
 10
0.0
 20
0.0
 30
0.0
  3
*Paper_Space
  1
*Paper_Space
  0
ENDBLK
  5
1D
330
1B
100
AcDbEntity
 67
     1
  8
0
100
AcDbBlockEnd
  0
BLOCK
  5
24
330
23
100
AcDbEntity
  8
0
100
AcDbBlockBegin
  2
*Paper_Space0
 70
     0
 10
0.0
 20
0.0
 30
0.0
  3
*Paper_Space0
  1
*Paper_Space0
  0
ENDBLK
  5
25
330
23
100
AcDbEntity
  8
0
100
AcDbBlockEnd
  0
BLOCK
  5
71
330
70
100
AcDbEntity
  8
0
100
AcDbBlockBegin
  2
Third Angle Projection Block
 70
     0
 10
0.0
 20
0.0
 30
0.0
  3
Third Angle Projection Block
  1
Third Angle Projection Block
  0
CIRCLE
  5
73
330
70
100
AcDbEntity
  8
0
  6
Continuous
 62
     7
370
    30
100
AcDbCircle
 10
3.9951432636
 20
0.7456853688
 30
0.0
 40
0.0696152422706639
  0
CIRCLE
  5
74
330
70
100
AcDbEntity
  8
0
  6
Continuous
 62
     7
370
    30
100
AcDbCircle
 10
3.9951432636
 20
0.7456853688
 30
0.0
 40
0.1535916633280245
  0
LINE
  5
75
330
70
100
AcDbEntity
  8
0
  6
CENTERX2
 62
     7
370
     0
100
AcDbLine
 10
4.3360937897
 20
0.7456853688
 30
0.0
 11
4.7028635231
 21
0.7456853688
 31
0.0
  0
LINE
  5
76
330
70
100
AcDbEntity
  8
0
  6
Continuous
 62
     7
370
    30
100
AcDbLine
 10
4.3701432636
 20
0.815300611
 30
0.0
 11
4.3701432636
 21
0.6760701265
 31
0.0
  0
LINE
  5
77
330
70
100
AcDbEntity
  8
0
  6
Continuous
 62
     7
370
    30
100
AcDbLine
 10
4.3701432636
 20
0.6760701265
 30
0.0
 11
4.6701432636
 21
0.5956853688
 31
0.0
  0
LINE
  5
78
330
70
100
AcDbEntity
  8
0
  6
Continuous
 62
     7
370
    30
100
AcDbLine
 10
4.6701432636
 20
0.5956853688
 30
0.0
 11
4.6701432636
 21
0.8956853688
 31
0.0
  0
LINE
  5
79
330
70
100
AcDbEntity
  8
0
  6
Continuous
 62
     7
370
    30
100
AcDbLine
 10
4.6701432636
 20
0.8956853688
 30
0.0
 11
4.3701432636
 21
0.815300611
 31
0.0
  0
LINE
  5
7A
330
70
100
AcDbEntity
  8
0
  6
CENTERX2
 62
     7
370
     0
100
AcDbLine
 10
3.8032513961
 20
0.7456853688
 30
0.0
 11
4.187035131
 21
0.7456853688
 31
0.0
  0
LINE
  5
7B
330
70
100
AcDbEntity
  8
0
  6
CENTERX2
 62
     7
370
     0
100
AcDbLine
 10
3.9951432636
 20
0.9375772362
 30
0.0
 11
3.9951432636
 21
0.5537935013
 31
0.0
  0
POINT
  5
7C
330
70
100
AcDbEntity
  8
0
  6
Continuous
 62
     7
370
     0
100
AcDbPoint
 10
3.9951432636
 20
0.7456853688
 30
0.0
  0
ENDBLK
  5
72
330
70
100
AcDbEntity
  8
0
100
AcDbBlockEnd
  0
BLOCK
  5
AA
330
A9
100
AcDbEntity
  8
0
100
AcDbBlockBegin
  2
SW_NOTE_0
 70
     0
 10
0.0
 20
0.0
 30
0.0
  3
SW_NOTE_0
  1
SW_NOTE_0
  0
MTEXT
  5
AC
330
A9
100
AcDbEntity
  8
0
  6
Continuous
 62
     0
370
     0
100
AcDbMText
 10
0.78375
 20
0.0773440644
 30
0.0
 40
0.06
 41
0.0
 71
     2
 72
     1
  1
VALUES IN PARENTHESIS ARE CALCULATED
  7
SLDTEXTSTYLE0
 73
     1
 44
1.0
  0
MTEXT
  5
AD
330
A9
100
AcDbEntity
  8
0
  6
Continuous
 62
     0
370
     0
100
AcDbMText
 10
0.7825936818
 20
-0.0220260102
 30
0.0
 40
0.06
 41
0.0
 71
     2
 72
     1
  1
AND MAY CONTAIN ROUNDOFF ERRORS
  7
SLDTEXTSTYLE0
 73
     1
 44
1.0
  0
ENDBLK
  5
AB
330
A9
100
AcDbEntity
  8
0
100
AcDbBlockEnd
  0
BLOCK
  5
B0
330
AF
100
AcDbEntity
  8
0
100
AcDbBlockBegin
  2
SW_NOTE_1
 70
     0
 10
0.0
 20
0.0
 30
0.0
  3
SW_NOTE_1
  1
SW_NOTE_1
  0
MTEXT
  5
B2
330
AF
100
AcDbEntity
  8
0
  6
Continuous
 62
     0
370
     0
100
AcDbMText
 10
0.0
 20
0.1074223116
 30
0.0
 40
0.0833333333
 41
0.0
 71
     1
 72
     1
  1
DRAWING
  7
SLDTEXTSTYLE0
 73
     1
 44
1.0
  0
MTEXT
  5
B3
330
AF
100
AcDbEntity
  8
0
  6
Continuous
 62
     0
370
     0
100
AcDbMText
 10
0.0
 20
-0.0036887981
 30
0.0
 40
0.0833333333
 41
0.0
 71
     1
 72
     1
  1
PROJECTION
  7
SLDTEXTSTYLE0
 73
     1
 44
1.0
  0
ENDBLK
  5
B1
330
AF
100
AcDbEntity
  8
0
100
AcDbBlockEnd
  0
BLOCK
  5
B7
330
B6
100
AcDbEntity
  8
0
100
AcDbBlockBegin
  2
SW_NOTE_2
 70
     0
 10
0.0
 20
0.0
 30
0.0
  3
SW_NOTE_2
  1
SW_NOTE_2
  0
MTEXT
  5
B9
330
B6
100
AcDbEntity
  8
0
  6
Continuous
 62
     0
370
     0
100
AcDbMText
 10
0.0823567708
 20
0.1477056785
 30
0.0
 40
0.1145833333
 41
0.0
 71
     2
 72
     1
  1
%%c
  7
SLDTEXTSTYLE0
 73
     1
 44
1.0
  0
MTEXT
  5
BA
330
B6
100
AcDbEntity
  8
0
  6
Continuous
 62
     0
370
     0
100
AcDbMText
 10
1.2471759303
 20
0.1477056785
 30
0.0
 40
0.1145833333
 41
0.0
 71
     2
 72
     1
  1
2" MOUNTED PLANO-CONVEX
  7
SLDTEXTSTYLE0
 73
     1
 44
1.0
  0
MTEXT
  5
BB
330
B6
100
AcDbEntity
  8
0
  6
Continuous
 62
     0
370
     0
100
AcDbMText
 10
1.1879905698
 20
-0.0050720974
 30
0.0
 40
0.1145833333
 41
0.0
 71
     2
 72
     1
  1
LENS, f=300mm
  7
SLDTEXTSTYLE0
 73
     1
 44
1.0
  0
ENDBLK
  5
B8
330
B6
100
AcDbEntity
  8
0
100
AcDbBlockEnd
  0
BLOCK
  5
BF
330
BE
100
AcDbEntity
  8
0
100
AcDbBlockBegin
  2
SW_NOTE_3
 70
     0
 10
0.0
 20
0.0
 30
0.0
  3
SW_NOTE_3
  1
SW_NOTE_3
  0
MTEXT
  5
C1
330
BE
100
AcDbEntity
  8
0
  6
Continuous
 62
     0
370
     0
100
AcDbMText
 10
0.986328125
 20
0.1611334675
 30
0.0
 40
0.125
 41
0.0
 71
     2
 72
     1
  1
FOR INFORMATION ONLY
  7
SLDTEXTSTYLE0
 73
     1
 44
1.0
  0
MTEXT
  5
C2
330
BE
100
AcDbEntity
  8
0
  6
Continuous
 62
     0
370
     0
100
AcDbMText
 10
0.999088459
 20
-0.0055331972
 30
0.0
 40
0.125
 41
0.0
 71
     2
 72
     1
  1
NOT FOR MANUFACTURING PURPOSES
  7
SLDTEXTSTYLE0
 73
     1
 44
1.0
  0
ENDBLK
  5
C0
330
BE
100
AcDbEntity
  8
0
100
AcDbBlockEnd
  0
BLOCK
  5
C5
330
C4
100
AcDbEntity
  8
0
100
AcDbBlockBegin
  2
SW_NOTE_4
 70
     0
 10
0.0
 20
0.0
 30
0.0
  3
SW_NOTE_4
  1
SW_NOTE_4
  0
MTEXT
  5
C7
330
C4
100
AcDbEntity
  8
0
  6
Continuous
 62
     0
370
     0
100
AcDbMText
 10
0.0
 20
0.1074223116
 30
0.0
 40
0.0833333333
 41
0.0
 71
     1
 72
     1
  1
NOTES/SPECIFICATIONS:
  7
SLDTEXTSTYLE0
 73
     1
 44
1.0
  0
MTEXT
  5
C8
330
C4
100
AcDbEntity
  8
0
  6
Continuous
 62
     0
370
     0
100
AcDbMText
 10
0.4183921567
 20
-0.1147999079
 30
0.0
 40
0.0833333333
 41
0.0
 71
     1
 72
     1
  1
DESIGN WAVELENGTH: 546nm
  7
SLDTEXTSTYLE0
 73
     1
 44
1.0
  0
MTEXT
  5
C9
330
C4
100
AcDbEntity
  8
0
  6
Continuous
 62
     0
370
     0
100
AcDbMText
 10
0.0
 20
-0.1147999079
 30
0.0
 40
0.0833333333
 41
0.0
 71
     1
 72
     1
  1
1.
  7
SLDTEXTSTYLE0
 73
     1
 44
1.0
  0
MTEXT
  5
CA
330
C4
100
AcDbEntity
  8
0
  6
Continuous
 62
     0
370
     0
100
AcDbMText
 10
0.4183921567
 20
-0.2259110177
 30
0.0
 40
0.0833333333
 41
0.0
 71
     1
 72
     1
  1
FOCAL LENGTH: f=300.0mm
  7
SLDTEXTSTYLE0
 73
     1
 44
1.0
  0
MTEXT
  5
CB
330
C4
100
AcDbEntity
  8
0
  6
Continuous
 62
     0
370
     0
100
AcDbMText
 10
1.8858304981
 20
-0.2259110177
 30
0.0
 40
0.0833333333
 41
0.0
 71
     1
 72
     1
  1
%%p
  7
SLDTEXTSTYLE0
 73
     1
 44
1.0
  0
MTEXT
  5
CC
330
C4
100
AcDbEntity
  8
0
  6
Continuous
 62
     0
370
     0
100
AcDbMText
 10
1.9652749536
 20
-0.2259110177
 30
0.0
 40
0.0833333333
 41
0.0
 71
     1
 72
     1
  1
1%
  7
SLDTEXTSTYLE0
 73
     1
 44
1.0
  0
MTEXT
  5
CD
330
C4
100
AcDbEntity
  8
0
  6
Continuous
 62
     0
370
     0
100
AcDbMText
 10
0.0
 20
-0.2259110177
 30
0.0
 40
0.0833333333
 41
0.0
 71
     1
 72
     1
  1
2.
  7
SLDTEXTSTYLE0
 73
     1
 44
1.0
  0
MTEXT
  5
CE
330
C4
100
AcDbEntity
  8
0
  6
Continuous
 62
     0
370
     0
100
AcDbMText
 10
0.4183921567
 20
-0.3370221274
 30
0.0
 40
0.0833333333
 41
0.0
 71
     1
 72
     1
  1
WORKING DISTANCE (REF): 292.5mm
  7
SLDTEXTSTYLE0
 73
     1
 44
1.0
  0
MTEXT
  5
CF
330
C4
100
AcDbEntity
  8
0
  6
Continuous
 62
     0
370
     0
100
AcDbMText
 10
0.0
 20
-0.3370221274
 30
0.0
 40
0.0833333333
 41
0.0
 71
     1
 72
     1
  1
3.
  7
SLDTEXTSTYLE0
 73
     1
 44
1.0
  0
MTEXT
  5
D0
330
C4
100
AcDbEntity
  8
0
  6
Continuous
 62
     0
370
     0
100
AcDbMText
 10
0.4183921567
 20
-0.4481332372
 30
0.0
 40
0.0833333333
 41
0.0
 71
     1
 72
     1
  1
CLEAR APERTURE: >
  7
SLDTEXTSTYLE0
 73
     1
 44
1.0
  0
MTEXT
  5
D1
330
C4
100
AcDbEntity
  8
0
  6
Continuous
 62
     0
370
     0
100
AcDbMText
 10
1.4507996036
 20
-0.4481332372
 30
0.0
 40
0.0833333333
 41
0.0
 71
     1
 72
     1
  1
%%c
  7
SLDTEXTSTYLE0
 73
     1
 44
1.0
  0
MTEXT
  5
D2
330
C4
100
AcDbEntity
  8
0
  6
Continuous
 62
     0
370
     0
100
AcDbMText
 10
1.5765865971
 20
-0.4481332372
 30
0.0
 40
0.0833333333
 41
0.0
 71
     1
 72
     1
  1
45.72mm
  7
SLDTEXTSTYLE0
 73
     1
 44
1.0
  0
MTEXT
  5
D3
330
C4
100
AcDbEntity
  8
0
  6
Continuous
 62
     0
370
     0
100
AcDbMText
 10
0.0
 20
-0.4481332372
 30
0.0
 40
0.0833333333
 41
0.0
 71
     1
 72
     1
  1
4.
  7
SLDTEXTSTYLE0
 73
     1
 44
1.0
  0
MTEXT
  5
D4
330
C4
100
AcDbEntity
  8
0
  6
Continuous
 62
     0
370
     0
100
AcDbMText
 10
0.4183921567
 20
-0.559244347
 30
0.0
 40
0.0833333333
 41
0.0
 71
     1
 72
     1
  1
SURFACE QUALITY: 40-20 SCRATCH-DIG
  7
SLDTEXTSTYLE0
 73
     1
 44
1.0
  0
MTEXT
  5
D5
330
C4
100
AcDbEntity
  8
0
  6
Continuous
 62
     0
370
     0
100
AcDbMText
 10
0.0
 20
-0.559244347
 30
0.0
 40
0.0833333333
 41
0.0
 71
     1
 72
     1
  1
5.
  7
SLDTEXTSTYLE0
 73
     1
 44
1.0
  0
ENDBLK
  5
C6
330
C4
100
AcDbEntity
  8
0
100
AcDbBlockEnd
  0
BLOCK
  5
D8
330
D7
100
AcDbEntity
  8
0
100
AcDbBlockBegin
  2
SW_TABLEANNOTATION_0
 70
     0
 10
0.0
 20
0.0
 30
0.0
  3
SW_TABLEANNOTATION_0
  1
SW_TABLEANNOTATION_0
  0
LINE
  5
DA
330
D7
100
AcDbEntity
  8
0
  6
Continuous
 62
     0
370
     0
100
AcDbLine
 10
0.0
 20
0.0
 30
0.0
 11
0.0
 21
-1.2444444391
 31
0.0
  0
LINE
  5
DB
330
D7
100
AcDbEntity
  8
0
  6
Continuous
 62
     0
370
     0
100
AcDbLine
 10
0.0
 20
-1.2444444391
 30
0.0
 11
3.3
 21
-1.2444444391
 31
0.0
  0
LINE
  5
DC
330
D7
100
AcDbEntity
  8
0
  6
Continuous
 62
     0
370
     0
100
AcDbLine
 10
3.3
 20
-1.2444444391
 30
0.0
 11
3.3
 21
0.0
 31
0.0
  0
LINE
  5
DD
330
D7
100
AcDbEntity
  8
0
  6
Continuous
 62
     0
370
     0
100
AcDbLine
 10
3.3
 20
0.0
 30
0.0
 11
0.0
 21
0.0
 31
0.0
  0
LINE
  5
DE
330
D7
100
AcDbEntity
  8
0
  6
Continuous
 62
     0
370
     0
100
AcDbLine
 10
1.1
 20
0.0
 30
0.0
 11
1.1
 21
-1.2444444391
 31
0.0
  0
LINE
  5
DF
330
D7
100
AcDbEntity
  8
0
  6
Continuous
 62
     0
370
     0
100
AcDbLine
 10
2.2
 20
0.0
 30
0.0
 11
2.2
 21
-1.2444444391
 31
0.0
  0
LINE
  5
E0
330
D7
100
AcDbEntity
  8
0
  6
Continuous
 62
     0
370
     0
100
AcDbLine
 10
0.0
 20
-0.3111111098
 30
0.0
 11
3.3
 21
-0.3111111098
 31
0.0
  0
LINE
  5
E1
330
D7
100
AcDbEntity
  8
0
  6
Continuous
 62
     0
370
     0
100
AcDbLine
 10
0.0
 20
-0.6222222195
 30
0.0
 11
3.3
 21
-0.6222222195
 31
0.0
  0
LINE
  5
E2
330
D7
100
AcDbEntity
  8
0
  6
Continuous
 62
     0
370
     0
100
AcDbLine
 10
0.0
 20
-0.9333333293
 30
0.0
 11
3.3
 21
-0.9333333293
 31
0.0
  0
MTEXT
  5
E3
330
D7
100
AcDbEntity
  8
0
  6
Continuous
 62
     0
370
     0
100
AcDbMText
 10
1.1543981952
 20
-0.1141206209
 30
0.0
 40
0.0833333333
 41
0.0
 71
     1
 72
     1
  1
PART DESCRIPTION
  7
SLDTEXTSTYLE0
 73
     1
 44
1.0
  0
MTEXT
  5
E4
330
D7
100
AcDbEntity
  8
0
  6
Continuous
 62
     0
370
     0
100
AcDbMText
 10
2.491203698
 20
-0.1141206209
 30
0.0
 40
0.0833333333
 41
0.0
 71
     1
 72
     1
  1
MATERIAL
  7
SLDTEXTSTYLE0
 73
     1
 44
1.0
  0
INSERT
  5
EA
330
D7
100
AcDbEntity
  8
0
  6
Continuous
 62
     0
370
     0
100
AcDbBlockReference
  2
SW_SYMBOL_C#_1
 10
0.4374537001
 20
-0.5210980527
 30
0.0
 41
0.0027037109
 42
0.0027037109
 43
0.0027037109
  0
MTEXT
  5
EB
330
D7
100
AcDbEntity
  8
0
  6
Continuous
 62
     0
370
     0
100
AcDbMText
 10
1.4729938215
 20
-0.4252317307
 30
0.0
 40
0.0833333333
 41
0.0
 71
     1
 72
     1
  1
SM2RR
  7
SLDTEXTSTYLE0
 73
     1
 44
1.0
  0
MTEXT
  5
EC
330
D7
100
AcDbEntity
  8
0
  6
Continuous
 62
     0
370
     0
100
AcDbMText
 10
2.4676697448
 20
-0.3696761758
 30
0.0
 40
0.0833333333
 41
0.0
 71
     1
 72
     1
  1
ANODIZED
  7
SLDTEXTSTYLE0
 73
     1
 44
1.0
  0
MTEXT
  5
ED
330
D7
100
AcDbEntity
  8
0
  6
Continuous
 62
     0
370
     0
100
AcDbMText
 10
2.4546296155
 20
-0.4807872855
 30
0.0
 40
0.0833333333
 41
0.0
 71
     1
 72
     1
  1
ALUMINUM
  7
SLDTEXTSTYLE0
 73
     1
 44
1.0
  0
INSERT
  5
F3
330
D7
100
AcDbEntity
  8
0
  6
Continuous
 62
     0
370
     0
100
AcDbBlockReference
  2
SW_SYMBOL_C#_2
 10
0.4374537001
 20
-0.8322091625
 30
0.0
 41
0.0027037109
 42
0.0027037109
 43
0.0027037109
  0
MTEXT
  5
F4
330
D7
100
AcDbEntity
  8
0
  6
Continuous
 62
     0
370
     0
100
AcDbMText
 10
1.4600308562
 20
-0.7363428404
 30
0.0
 40
0.0833333333
 41
0.0
 71
     1
 72
     1
  1
LA4855
  7
SLDTEXTSTYLE0
 73
     1
 44
1.0
  0
MTEXT
  5
F5
330
D7
100
AcDbEntity
  8
0
  6
Continuous
 62
     0
370
     0
100
AcDbMText
 10
2.3169753357
 20
-0.7363428404
 30
0.0
 40
0.0833333333
 41
0.0
 71
     1
 72
     1
  1
UV FUSED SILICA
  7
SLDTEXTSTYLE0
 73
     1
 44
1.0
  0
INSERT
  5
FB
330
D7
100
AcDbEntity
  8
0
  6
Continuous
 62
     0
370
     0
100
AcDbBlockReference
  2
SW_SYMBOL_C#_3
 10
0.4374537001
 20
-1.1433202723
 30
0.0
 41
0.0027037109
 42
0.0027037109
 43
0.0027037109
  0
MTEXT
  5
FC
330
D7
100
AcDbEntity
  8
0
  6
Continuous
 62
     0
370
     0
100
AcDbMText
 10
1.3456018548
 20
-0.9918983953
 30
0.0
 40
0.0833333333
 41
0.0
 71
     1
 72
     1
  1
ENGRAVED
  7
SLDTEXTSTYLE0
 73
     1
 44
1.0
  0
MTEXT
  5
FD
330
D7
100
AcDbEntity
  8
0
  6
Continuous
 62
     0
370
     0
100
AcDbMText
 10
1.3975308615
 20
-1.1030095051
 30
0.0
 40
0.0833333333
 41
0.0
 71
     1
 72
     1
  1
HOUSING
  7
SLDTEXTSTYLE0
 73
     1
 44
1.0
  0
MTEXT
  5
FE
330
D7
100
AcDbEntity
  8
0
  6
Continuous
 62
     0
370
     0
100
AcDbMText
 10
2.4676697448
 20
-0.9918983953
 30
0.0
 40
0.0833333333
 41
0.0
 71
     1
 72
     1
  1
ANODIZED
  7
SLDTEXTSTYLE0
 73
     1
 44
1.0
  0
MTEXT
  5
FF
330
D7
100
AcDbEntity
  8
0
  6
Continuous
 62
     0
370
     0
100
AcDbMText
 10
2.4546296155
 20
-1.1030095051
 30
0.0
 40
0.0833333333
 41
0.0
 71
     1
 72
     1
  1
ALUMINUM
  7
SLDTEXTSTYLE0
 73
     1
 44
1.0
  0
ENDBLK
  5
D9
330
D7
100
AcDbEntity
  8
0
100
AcDbBlockEnd
  0
BLOCK
  5
E6
330
E5
100
AcDbEntity
  8
0
100
AcDbBlockBegin
  2
SW_SYMBOL_C#_1
 70
     0
 10
0.0
 20
0.0
 30
0.0
  3
SW_SYMBOL_C#_1
  1
SW_SYMBOL_C#_1
  0
CIRCLE
  5
E8
330
E5
100
AcDbEntity
  8
0
  6
Continuous
 62
     0
370
     0
100
AcDbCircle
 10
31.4960629921
 20
19.6850393701
 30
0.0
 40
31.49606299212599
  0
MTEXT
  5
E9
330
E5
100
AcDbEntity
  8
0
  6
Continuous
 62
     0
370
     0
100
AcDbMText
 10
31.4960629921
 20
19.6850393701
 30
0.0
 40
30.821835344
 41
0.0
 71
     5
 72
     1
  1
1
  7
SLDTEXTSTYLE0
 73
     1
 44
1.0
  0
ENDBLK
  5
E7
330
E5
100
AcDbEntity
  8
0
100
AcDbBlockEnd
  0
BLOCK
  5
EF
330
EE
100
AcDbEntity
  8
0
100
AcDbBlockBegin
  2
SW_SYMBOL_C#_2
 70
     0
 10
0.0
 20
0.0
 30
0.0
  3
SW_SYMBOL_C#_2
  1
SW_SYMBOL_C#_2
  0
CIRCLE
  5
F1
330
EE
100
AcDbEntity
  8
0
  6
Continuous
 62
     0
370
     0
100
AcDbCircle
 10
31.4960629921
 20
19.6850393701
 30
0.0
 40
31.49606299212599
  0
MTEXT
  5
F2
330
EE
100
AcDbEntity
  8
0
  6
Continuous
 62
     0
370
     0
100
AcDbMText
 10
31.4960629921
 20
19.6850393701
 30
0.0
 40
30.821835344
 41
0.0
 71
     5
 72
     1
  1
2
  7
SLDTEXTSTYLE0
 73
     1
 44
1.0
  0
ENDBLK
  5
F0
330
EE
100
AcDbEntity
  8
0
100
AcDbBlockEnd
  0
BLOCK
  5
F7
330
F6
100
AcDbEntity
  8
0
100
AcDbBlockBegin
  2
SW_SYMBOL_C#_3
 70
     0
 10
0.0
 20
0.0
 30
0.0
  3
SW_SYMBOL_C#_3
  1
SW_SYMBOL_C#_3
  0
CIRCLE
  5
F9
330
F6
100
AcDbEntity
  8
0
  6
Continuous
 62
     0
370
     0
100
AcDbCircle
 10
31.4960629921
 20
19.6850393701
 30
0.0
 40
31.49606299212599
  0
MTEXT
  5
FA
330
F6
100
AcDbEntity
  8
0
  6
Continuous
 62
     0
370
     0
100
AcDbMText
 10
31.4960629921
 20
19.6850393701
 30
0.0
 40
30.821835344
 41
0.0
 71
     5
 72
     1
  1
3
  7
SLDTEXTSTYLE0
 73
     1
 44
1.0
  0
ENDBLK
  5
F8
330
F6
100
AcDbEntity
  8
0
100
AcDbBlockEnd
  0
BLOCK
  5
11C
330
11B
100
AcDbEntity
  8
0
100
AcDbBlockBegin
  2
_D
 70
     0
 10
0.0
 20
0.0
 30
0.0
  3
_D
  1
_D
  0
SOLID
  5
11E
330
11B
100
AcDbEntity
  8
0
  6
Continuous
 62
     7
370
     0
100
AcDbTrace
 10
3.8177862118
 20
4.8756758999
 30
0.0
 11
3.8976067199
 21
4.9739290754
 31
0.0
 12
3.8629657037
 22
4.9939290754
 32
0.0
 13
3.8629657037
 23
4.9939290754
 33
0.0
  0
LINE
  5
11F
330
11B
100
AcDbEntity
  8
0
  6
Continuous
 62
     7
370
     0
100
AcDbLine
 10
4.2849499017
 20
5.3058582789
 30
0.0
 11
4.2680517536
 21
5.3058582789
 31
0.0
  0
LINE
  5
120
330
11B
100
AcDbEntity
  8
0
  6
Continuous
 62
     7
370
     0
100
AcDbLine
 10
4.2680517536
 20
5.3058582789
 30
0.0
 11
4.2680517536
 21
5.1734508743
 31
0.0
  0
LINE
  5
121
330
11B
100
AcDbEntity
  8
0
  6
Continuous
 62
     7
370
     0
100
AcDbLine
 10
4.2680517536
 20
5.1734508743
 30
0.0
 11
4.2849499017
 21
5.1734508743
 31
0.0
  0
LINE
  5
122
330
11B
100
AcDbEntity
  8
0
  6
Continuous
 62
     7
370
     0
100
AcDbLine
 10
4.7509607214
 20
5.3058582789
 30
0.0
 11
4.7678588694
 21
5.3058582789
 31
0.0
  0
LINE
  5
123
330
11B
100
AcDbEntity
  8
0
  6
Continuous
 62
     7
370
     0
100
AcDbLine
 10
4.7678588694
 20
5.3058582789
 30
0.0
 11
4.7678588694
 21
5.1734508743
 31
0.0
  0
LINE
  5
124
330
11B
100
AcDbEntity
  8
0
  6
Continuous
 62
     7
370
     0
100
AcDbLine
 10
4.7678588694
 20
5.1734508743
 30
0.0
 11
4.7509607214
 21
5.1734508743
 31
0.0
  0
LINE
  5
125
330
11B
100
AcDbEntity
  8
0
  6
Continuous
 62
     7
370
     0
100
AcDbLine
 10
3.8177862118
 20
4.8756758999
 30
0.0
 11
4.1053781423
 21
5.3737997355
 31
0.0
  0
LINE
  5
126
330
11B
100
AcDbEntity
  8
0
  6
Continuous
 62
     7
370
     0
100
AcDbLine
 10
4.1053781423
 20
5.3737997355
 30
0.0
 11
4.2553781423
 21
5.3737997355
 31
0.0
  0
MTEXT
  5
127
330
11B
100
AcDbEntity
  8
0
  6
Continuous
 62
     7
370
     0
100
AcDbMText
 10
4.2553781423
 20
5.4301787374
 30
0.0
 40
0.0833333333
 41
0.0
 71
     1
 72
     1
  1
%%c
  7
SLDTEXTSTYLE0
 73
     1
 44
1.0
  0
MTEXT
  5
128
330
11B
100
AcDbEntity
  8
0
  6
Continuous
 62
     7
370
     0
100
AcDbMText
 10
4.3811651817
 20
5.4301787374
 30
0.0
 40
0.0833333333
 41
0.0
 71
     1
 72
     1
  1
2.20in
  7
SLDTEXTSTYLE0
 73
     1
 44
1.0
  0
MTEXT
  5
129
330
11B
100
AcDbEntity
  8
0
  6
Continuous
 62
     7
370
     0
100
AcDbMText
 10
4.3060725875
 20
5.2808731813
 30
0.0
 40
0.0833333333
 41
0.0
 71
     1
 72
     1
  1
55.9mm
  7
SLDTEXTSTYLE0
 73
     1
 44
1.0
  0
ENDBLK
  5
11D
330
11B
100
AcDbEntity
  8
0
100
AcDbBlockEnd
  0
BLOCK
  5
1B0
330
1AF
100
AcDbEntity
  8
0
100
AcDbBlockBegin
  2
_D_1
 70
     0
 10
0.0
 20
0.0
 30
0.0
  3
_D_1
  1
_D_1
  0
SOLID
  5
1B2
330
1AF
100
AcDbEntity
  8
0
  6
Continuous
 62
     7
370
     0
100
AcDbTrace
 10
7.0051160685
 20
5.5982900809
 30
0.0
 11
6.8801160685
 21
5.6182900809
 31
0.0
 12
6.8801160685
 22
5.5782900809
 32
0.0
 13
6.8801160685
 23
5.5782900809
 33
0.0
  0
SOLID
  5
1B3
330
1AF
100
AcDbEntity
  8
0
  6
Continuous
 62
     7
370
     0
100
AcDbTrace
 10
7.5151160685
 20
5.5982900809
 30
0.0
 11
7.6401160685
 21
5.5782900809
 31
0.0
 12
7.6401160685
 22
5.6182900809
 32
0.0
 13
7.6401160685
 23
5.6182900809
 33
0.0
  0
LINE
  5
1B4
330
1AF
100
AcDbEntity
  8
0
  6
Continuous
 62
     7
370
     0
100
AcDbLine
 10
7.0271106494
 20
5.5982900718
 30
0.0
 11
7.0102125014
 21
5.5982900718
 31
0.0
  0
LINE
  5
1B5
330
1AF
100
AcDbEntity
  8
0
  6
Continuous
 62
     7
370
     0
100
AcDbLine
 10
7.0102125014
 20
5.5982900718
 30
0.0
 11
7.0102125014
 21
5.4658826672
 31
0.0
  0
LINE
  5
1B6
330
1AF
100
AcDbEntity
  8
0
  6
Continuous
 62
     7
370
     0
100
AcDbLine
 10
7.0102125014
 20
5.4658826672
 30
0.0
 11
7.0271106494
 21
5.4658826672
 31
0.0
  0
LINE
  5
1B7
330
1AF
100
AcDbEntity
  8
0
  6
Continuous
 62
     7
370
     0
100
AcDbLine
 10
7.4931214691
 20
5.5982900718
 30
0.0
 11
7.5100196172
 21
5.5982900718
 31
0.0
  0
LINE
  5
1B8
330
1AF
100
AcDbEntity
  8
0
  6
Continuous
 62
     7
370
     0
100
AcDbLine
 10
7.5100196172
 20
5.5982900718
 30
0.0
 11
7.5100196172
 21
5.4658826672
 31
0.0
  0
LINE
  5
1B9
330
1AF
100
AcDbEntity
  8
0
  6
Continuous
 62
     7
370
     0
100
AcDbLine
 10
7.5100196172
 20
5.4658826672
 30
0.0
 11
7.4931214691
 21
5.4658826672
 31
0.0
  0
LINE
  5
1BA
330
1AF
100
AcDbEntity
  8
0
  6
Continuous
 62
     7
370
     0
100
AcDbLine
 10
7.0051160685
 20
5.0630479558
 30
0.0
 11
7.0051160685
 21
5.6682900809
 31
0.0
  0
LINE
  5
1BB
330
1AF
100
AcDbEntity
  8
0
  6
Continuous
 62
     7
370
     0
100
AcDbLine
 10
7.5151160685
 20
4.9732274477
 30
0.0
 11
7.5151160685
 21
5.6682900809
 31
0.0
  0
LINE
  5
1BC
330
1AF
100
AcDbEntity
  8
0
  6
Continuous
 62
     7
370
     0
100
AcDbLine
 10
7.0051160685
 20
5.5982900809
 30
0.0
 11
6.7551160685
 21
5.5982900809
 31
0.0
  0
LINE
  5
1BD
330
1AF
100
AcDbEntity
  8
0
  6
Continuous
 62
     7
370
     0
100
AcDbLine
 10
7.5151160685
 20
5.5982900809
 30
0.0
 11
7.7651160685
 21
5.5982900809
 31
0.0
  0
MTEXT
  5
1BE
330
1AF
100
AcDbEntity
  8
0
  6
Continuous
 62
     7
370
     0
100
AcDbMText
 10
6.998619138
 20
5.7226105303
 30
0.0
 40
0.0833333333
 41
0.0
 71
     1
 72
     1
  1

  7
SLDTEXTSTYLE0
 73
     1
 44
1.0
  0
MTEXT
  5
1BF
330
1AF
100
AcDbEntity
  8
0
  6
Continuous
 62
     7
370
     0
100
AcDbMText
 10
7.1074154291
 20
5.7226105303
 30
0.0
 40
0.0833333333
 41
0.0
 71
     1
 72
     1
  1
0.51in
  7
SLDTEXTSTYLE0
 73
     1
 44
1.0
  0
MTEXT
  5
1C0
330
1AF
100
AcDbEntity
  8
0
  6
Continuous
 62
     7
370
     0
100
AcDbMText
 10
7.0482333353
 20
5.5733049742
 30
0.0
 40
0.0833333333
 41
0.0
 71
     1
 72
     1
  1
13.0mm
  7
SLDTEXTSTYLE0
 73
     1
 44
1.0
  0
MTEXT
  5
1C1
330
1AF
100
AcDbEntity
  8
0
  6
Continuous
 62
     7
370
     0
100
AcDbMText
 10
7.5851932285
 20
5.7226105303
 30
0.0
 40
0.0833333333
 41
0.0
 71
     1
 72
     1
  1

  7
SLDTEXTSTYLE0
 73
     1
 44
1.0
  0
ENDBLK
  5
1B1
330
1AF
100
AcDbEntity
  8
0
100
AcDbBlockEnd
  0
BLOCK
  5
1C4
330
1C3
100
AcDbEntity
  8
0
100
AcDbBlockBegin
  2
_D_2
 70
     0
 10
0.0
 20
0.0
 30
0.0
  3
_D_2
  1
_D_2
  0
SOLID
  5
1C6
330
1C3
100
AcDbEntity
  8
0
  6
Continuous
 62
     7
370
     0
100
AcDbTrace
 10
7.3951160685
 20
5.1266435649
 30
0.0
 11
7.2701160685
 21
5.1466435649
 31
0.0
 12
7.2701160685
 22
5.1066435649
 32
0.0
 13
7.2701160685
 23
5.1066435649
 33
0.0
  0
SOLID
  5
1C7
330
1C3
100
AcDbEntity
  8
0
  6
Continuous
 62
     7
370
     0
100
AcDbTrace
 10
7.5151160685
 20
5.1266435649
 30
0.0
 11
7.6401160685
 21
5.1066435649
 31
0.0
 12
7.6401160685
 22
5.1466435649
 32
0.0
 13
7.6401160685
 23
5.1466435649
 33
0.0
  0
LINE
  5
1C8
330
1C3
100
AcDbEntity
  8
0
  6
Continuous
 62
     7
370
     0
100
AcDbLine
 10
8.0250563376
 20
5.1266435557
 30
0.0
 11
8.0081581896
 21
5.1266435557
 31
0.0
  0
LINE
  5
1C9
330
1C3
100
AcDbEntity
  8
0
  6
Continuous
 62
     7
370
     0
100
AcDbLine
 10
8.0081581896
 20
5.1266435557
 30
0.0
 11
8.0081581896
 21
4.9942361511
 31
0.0
  0
LINE
  5
1CA
330
1C3
100
AcDbEntity
  8
0
  6
Continuous
 62
     7
370
     0
100
AcDbLine
 10
8.0081581896
 20
4.9942361511
 30
0.0
 11
8.0250563376
 21
4.9942361511
 31
0.0
  0
LINE
  5
1CB
330
1C3
100
AcDbEntity
  8
0
  6
Continuous
 62
     7
370
     0
100
AcDbLine
 10
8.4294930586
 20
5.1266435557
 30
0.0
 11
8.4463912066
 21
5.1266435557
 31
0.0
  0
LINE
  5
1CC
330
1C3
100
AcDbEntity
  8
0
  6
Continuous
 62
     7
370
     0
100
AcDbLine
 10
8.4463912066
 20
5.1266435557
 30
0.0
 11
8.4463912066
 21
4.9942361511
 31
0.0
  0
LINE
  5
1CD
330
1C3
100
AcDbEntity
  8
0
  6
Continuous
 62
     7
370
     0
100
AcDbLine
 10
8.4463912066
 20
4.9942361511
 30
0.0
 11
8.4294930586
 21
4.9942361511
 31
0.0
  0
LINE
  5
1CE
330
1C3
100
AcDbEntity
  8
0
  6
Continuous
 62
     7
370
     0
100
AcDbLine
 10
7.3951160685
 20
5.0630479558
 30
0.0
 11
7.3951160685
 21
5.1966435649
 31
0.0
  0
LINE
  5
1CF
330
1C3
100
AcDbEntity
  8
0
  6
Continuous
 62
     7
370
     0
100
AcDbLine
 10
7.5151160685
 20
4.9732274477
 30
0.0
 11
7.5151160685
 21
5.1966435649
 31
0.0
  0
LINE
  5
1D0
330
1C3
100
AcDbEntity
  8
0
  6
Continuous
 62
     7
370
     0
100
AcDbLine
 10
7.3951160685
 20
5.1266435649
 30
0.0
 11
7.1451160685
 21
5.1266435649
 31
0.0
  0
LINE
  5
1D1
330
1C3
100
AcDbEntity
  8
0
  6
Continuous
 62
     7
370
     0
100
AcDbLine
 10
7.5151160685
 20
5.1266435649
 30
0.0
 11
7.917143525
 21
5.1266435649
 31
0.0
  0
MTEXT
  5
1D2
330
1C3
100
AcDbEntity
  8
0
  6
Continuous
 62
     7
370
     0
100
AcDbMText
 10
7.9965648261
 20
5.2509640142
 30
0.0
 40
0.0833333333
 41
0.0
 71
     1
 72
     1
  1

  7
SLDTEXTSTYLE0
 73
     1
 44
1.0
  0
MTEXT
  5
1D3
330
1C3
100
AcDbEntity
  8
0
  6
Continuous
 62
     7
370
     0
100
AcDbMText
 10
8.0745740679
 20
5.2509640142
 30
0.0
 40
0.0833333333
 41
0.0
 71
     1
 72
     1
  1
0.12in
  7
SLDTEXTSTYLE0
 73
     1
 44
1.0
  0
MTEXT
  5
1D4
330
1C3
100
AcDbEntity
  8
0
  6
Continuous
 62
     7
370
     0
100
AcDbMText
 10
8.0461790235
 20
5.1016584582
 30
0.0
 40
0.0833333333
 41
0.0
 71
     1
 72
     1
  1
3.0mm
  7
SLDTEXTSTYLE0
 73
     1
 44
1.0
  0
MTEXT
  5
1D5
330
1C3
100
AcDbEntity
  8
0
  6
Continuous
 62
     7
370
     0
100
AcDbMText
 10
8.5215647813
 20
5.2509640142
 30
0.0
 40
0.0833333333
 41
0.0
 71
     1
 72
     1
  1

  7
SLDTEXTSTYLE0
 73
     1
 44
1.0
  0
ENDBLK
  5
1C5
330
1C3
100
AcDbEntity
  8
0
100
AcDbBlockEnd
  0
BLOCK
  5
1D9
330
1D8
100
AcDbEntity
  8
0
100
AcDbBlockBegin
  2
_D_3
 70
     0
 10
0.0
 20
0.0
 30
0.0
  3
_D_3
  1
_D_3
  0
SOLID
  5
1DB
330
1D8
100
AcDbEntity
  8
0
  6
Continuous
 62
     7
370
     0
100
AcDbTrace
 10
8.2272746889
 20
4.8730479558
 30
0.0
 11
8.2072746889
 21
4.7480479558
 31
0.0
 12
8.2472746889
 22
4.7480479558
 32
0.0
 13
8.2472746889
 23
4.7480479558
 33
0.0
  0
SOLID
  5
1DC
330
1D8
100
AcDbEntity
  8
0
  6
Continuous
 62
     7
370
     0
100
AcDbTrace
 10
8.2272746889
 20
2.9730479558
 30
0.0
 11
8.2472746889
 21
3.0980479558
 31
0.0
 12
8.2072746889
 22
3.0980479558
 32
0.0
 13
8.2072746889
 23
3.0980479558
 33
0.0
  0
LINE
  5
1DD
330
1D8
100
AcDbEntity
  8
0
  6
Continuous
 62
     7
370
     0
100
AcDbLine
 10
7.9942692882
 20
3.9336960986
 30
0.0
 11
7.9773711402
 21
3.9336960986
 31
0.0
  0
LINE
  5
1DE
330
1D8
100
AcDbEntity
  8
0
  6
Continuous
 62
     7
370
     0
100
AcDbLine
 10
7.9773711402
 20
3.9336960986
 30
0.0
 11
7.9773711402
 21
3.801288694
 31
0.0
  0
LINE
  5
1DF
330
1D8
100
AcDbEntity
  8
0
  6
Continuous
 62
     7
370
     0
100
AcDbLine
 10
7.9773711402
 20
3.801288694
 30
0.0
 11
7.9942692882
 21
3.801288694
 31
0.0
  0
LINE
  5
1E0
330
1D8
100
AcDbEntity
  8
0
  6
Continuous
 62
     7
370
     0
100
AcDbLine
 10
8.460280108
 20
3.9336960986
 30
0.0
 11
8.477178256
 21
3.9336960986
 31
0.0
  0
LINE
  5
1E1
330
1D8
100
AcDbEntity
  8
0
  6
Continuous
 62
     7
370
     0
100
AcDbLine
 10
8.477178256
 20
3.9336960986
 30
0.0
 11
8.477178256
 21
3.801288694
 31
0.0
  0
LINE
  5
1E2
330
1D8
100
AcDbEntity
  8
0
  6
Continuous
 62
     7
370
     0
100
AcDbLine
 10
8.477178256
 20
3.801288694
 30
0.0
 11
8.460280108
 21
3.801288694
 31
0.0
  0
LINE
  5
1E3
330
1D8
100
AcDbEntity
  8
0
  6
Continuous
 62
     7
370
     0
100
AcDbLine
 10
7.5651160685
 20
4.8730479558
 30
0.0
 11
8.2972746889
 21
4.8730479558
 31
0.0
  0
LINE
  5
1E4
330
1D8
100
AcDbEntity
  8
0
  6
Continuous
 62
     7
370
     0
100
AcDbLine
 10
7.5651160685
 20
2.9730479558
 30
0.0
 11
8.2972746889
 21
2.9730479558
 31
0.0
  0
LINE
  5
1E5
330
1D8
100
AcDbEntity
  8
0
  6
Continuous
 62
     7
370
     0
100
AcDbLine
 10
8.2272746889
 20
4.8730479558
 30
0.0
 11
8.2272746889
 21
4.0617053598
 31
0.0
  0
LINE
  5
1E6
330
1D8
100
AcDbEntity
  8
0
  6
Continuous
 62
     7
370
     0
100
AcDbLine
 10
8.2272746889
 20
2.9730479558
 30
0.0
 11
8.2272746889
 21
3.7843905517
 31
0.0
  0
MTEXT
  5
1E7
330
1D8
100
AcDbEntity
  8
0
  6
Continuous
 62
     7
370
     0
100
AcDbMText
 10
8.0116805528
 20
4.0580165571
 30
0.0
 40
0.0833333333
 41
0.0
 71
     1
 72
     1
  1
%%c
  7
SLDTEXTSTYLE0
 73
     1
 44
1.0
  0
MTEXT
  5
1E8
330
1D8
100
AcDbEntity
  8
0
  6
Continuous
 62
     7
370
     0
100
AcDbMText
 10
8.1374675922
 20
4.0580165571
 30
0.0
 40
0.0833333333
 41
0.0
 71
     1
 72
     1
  1
1.90in
  7
SLDTEXTSTYLE0
 73
     1
 44
1.0
  0
MTEXT
  5
1E9
330
1D8
100
AcDbEntity
  8
0
  6
Continuous
 62
     7
370
     0
100
AcDbMText
 10
8.0153919741
 20
3.9087110011
 30
0.0
 40
0.0833333333
 41
0.0
 71
     1
 72
     1
  1
48.3mm
  7
SLDTEXTSTYLE0
 73
     1
 44
1.0
  0
ENDBLK
  5
1DA
330
1D8
100
AcDbEntity
  8
0
100
AcDbBlockEnd
  0
BLOCK
  5
1EB
330
1EA
100
AcDbEntity
  8
0
100
AcDbBlockBegin
  2
SW_NOTE_5
 70
     0
 10
0.0
 20
0.0
 30
0.0
  3
SW_NOTE_5
  1
SW_NOTE_5
  0
CIRCLE
  5
1ED
330
1EA
100
AcDbEntity
  8
0
  6
Continuous
 62
     0
370
     0
100
AcDbCircle
 10
-0.1778468128
 20
0.0
 30
0.0
 40
0.1778468128131543
  0
MTEXT
  5
1EE
330
1EA
100
AcDbEntity
  8
0
  6
Continuous
 62
     0
370
     0
100
AcDbMText
 10
-0.1791054935
 20
0.0644701083
 30
0.0
 40
0.125
 41
0.0
 71
     2
 72
     1
  1
1
  7
SLDTEXTSTYLE0
 73
     1
 44
1.0
  0
ENDBLK
  5
1EC
330
1EA
100
AcDbEntity
  8
0
100
AcDbBlockEnd
  0
BLOCK
  5
1F3
330
1F2
100
AcDbEntity
  8
0
100
AcDbBlockBegin
  2
SW_NOTE_6
 70
     0
 10
0.0
 20
0.0
 30
0.0
  3
SW_NOTE_6
  1
SW_NOTE_6
  0
CIRCLE
  5
1F5
330
1F2
100
AcDbEntity
  8
0
  6
Continuous
 62
     0
370
     0
100
AcDbCircle
 10
-0.1778468128
 20
0.0
 30
0.0
 40
0.1778468128131543
  0
MTEXT
  5
1F6
330
1F2
100
AcDbEntity
  8
0
  6
Continuous
 62
     0
370
     0
100
AcDbMText
 10
-0.1791054935
 20
0.0644701083
 30
0.0
 40
0.125
 41
0.0
 71
     2
 72
     1
  1
3
  7
SLDTEXTSTYLE0
 73
     1
 44
1.0
  0
ENDBLK
  5
1F4
330
1F2
100
AcDbEntity
  8
0
100
AcDbBlockEnd
  0
BLOCK
  5
1FA
330
1F9
100
AcDbEntity
  8
0
100
AcDbBlockBegin
  2
SW_NOTE_7
 70
     0
 10
0.0
 20
0.0
 30
0.0
  3
SW_NOTE_7
  1
SW_NOTE_7
  0
MTEXT
  5
1FD
330
1F9
100
AcDbEntity
  8
0
  6
Continuous
 62
     0
370
     0
100
AcDbMText
 10
0.023286055
 20
0.0387963582
 30
0.0
 40
0.0833333333
 41
0.0
 71
     1
 72
     1
  1
SM2 (
  7
SLDTEXTSTYLE3
 73
     1
 44
1.0
  0
MTEXT
  5
1FE
330
1F9
100
AcDbEntity
  8
0
  6
Continuous
 62
     0
370
     0
100
AcDbMText
 10
0.3448909898
 20
0.0387963582
 30
0.0
 40
0.0833333333
 41
0.0
 71
     1
 72
     1
  1
%%c
  7
SLDTEXTSTYLE0
 73
     1
 44
1.0
  0
MTEXT
  5
1FF
330
1F9
100
AcDbEntity
  8
0
  6
Continuous
 62
     0
370
     0
100
AcDbMText
 10
0.4706780201
 20
0.0387963582
 30
0.0
 40
0.0833333333
 41
0.0
 71
     1
 72
     1
  1
2.035-40) SERIES EXTERNAL THREAD
  7
SLDTEXTSTYLE0
 73
     1
 44
1.0
  0
ENDBLK
  5
1FB
330
1F9
100
AcDbEntity
  8
0
100
AcDbBlockEnd
  0
BLOCK
  5
203
330
202
100
AcDbEntity
  8
0
100
AcDbBlockBegin
  2
SW_NOTE_8
 70
     0
 10
0.0
 20
0.0
 30
0.0
  3
SW_NOTE_8
  1
SW_NOTE_8
  0
CIRCLE
  5
205
330
202
100
AcDbEntity
  8
0
  6
Continuous
 62
     0
370
     0
100
AcDbCircle
 10
0.1778468128
 20
0.0
 30
0.0
 40
0.1778468128131533
  0
MTEXT
  5
206
330
202
100
AcDbEntity
  8
0
  6
Continuous
 62
     0
370
     0
100
AcDbMText
 10
0.1765881321
 20
0.0644701083
 30
0.0
 40
0.125
 41
0.0
 71
     2
 72
     1
  1
2
  7
SLDTEXTSTYLE0
 73
     1
 44
1.0
  0
ENDBLK
  5
204
330
202
100
AcDbEntity
  8
0
100
AcDbBlockEnd
  0
BLOCK
  5
20A
330
209
100
AcDbEntity
  8
0
100
AcDbBlockBegin
  2
SW_NOTE_9
 70
     0
 10
0.0
 20
0.0
 30
0.0
  3
SW_NOTE_9
  1
SW_NOTE_9
  0
MTEXT
  5
20C
330
209
100
AcDbEntity
  8
0
  6
Continuous
 62
     0
370
     0
100
AcDbMText
 10
-2.2722248882
 20
0.0374810821
 30
0.0
 40
0.0833333333
 41
0.0
 71
     1
 72
     1
  1
SM2 (
  7
SLDTEXTSTYLE3
 73
     1
 44
1.0
  0
MTEXT
  5
20D
330
209
100
AcDbEntity
  8
0
  6
Continuous
 62
     0
370
     0
100
AcDbMText
 10
-1.9506199534
 20
0.0374810821
 30
0.0
 40
0.0833333333
 41
0.0
 71
     1
 72
     1
  1
%%c
  7
SLDTEXTSTYLE0
 73
     1
 44
1.0
  0
MTEXT
  5
20E
330
209
100
AcDbEntity
  8
0
  6
Continuous
 62
     0
370
     0
100
AcDbMText
 10
-1.8248329232
 20
0.0374810821
 30
0.0
 40
0.0833333333
 41
0.0
 71
     1
 72
     1
  1
2.035-40) SERIES INTERNAL THREAD
  7
SLDTEXTSTYLE0
 73
     1
 44
1.0
  0
ENDBLK
  5
20B
330
209
100
AcDbEntity
  8
0
100
AcDbBlockEnd
  0
ENDSEC
  0
SECTION
  2
ENTITIES
  0
LINE
  5
7D
330
1F
100
AcDbEntity
  8
0
  6
Continuous
 62
     7
370
     0
100
AcDbLine
 10
0.0621791378
 20
8.4506055117
 30
0.0
 11
10.9444569626
 21
8.4506055117
 31
0.0
  0
LINE
  5
7E
330
1F
100
AcDbEntity
  8
0
  6
Continuous
 62
     7
370
     0
100
AcDbLine
 10
0.0621791378
 20
8.4506055117
 30
0.0
 11
0.0621791378
 21
0.035557648
 31
0.0
  0
LINE
  5
7F
330
1F
100
AcDbEntity
  8
0
  6
Continuous
 62
     7
370
     0
100
AcDbLine
 10
10.9444569626
 20
0.035557648
 30
0.0
 11
0.0621791378
 21
0.035557648
 31
0.0
  0
LINE
  5
80
330
1F
100
AcDbEntity
  8
0
  6
Continuous
 62
     7
370
     0
100
AcDbLine
 10
10.9444569626
 20
0.035557648
 30
0.0
 11
10.9444569626
 21
8.4506055117
 31
0.0
  0
LINE
  5
81
330
1F
100
AcDbEntity
  8
0
  6
Continuous
 62
     7
370
     0
100
AcDbLine
 10
8.4938096065
 20
0.4840901186
 30
0.0
 11
6.7571952625
 21
0.4840901186
 31
0.0
  0
LINE
  5
82
330
1F
100
AcDbEntity
  8
0
  6
Continuous
 62
     7
370
     0
100
AcDbLine
 10
6.7571952625
 20
0.4840901186
 30
0.0
 11
6.7571952625
 21
1.030163002
 31
0.0
  0
LINE
  5
83
330
1F
100
AcDbEntity
  8
0
  6
Continuous
 62
     7
370
     0
100
AcDbLine
 10
6.7571952625
 20
0.035557648
 30
0.0
 11
6.7571952625
 21
1.030163002
 31
0.0
  0
LINE
  5
84
330
1F
100
AcDbEntity
  8
0
  6
Continuous
 62
     7
370
     0
100
AcDbLine
 10
8.4938096065
 20
0.6756085809
 30
0.0
 11
10.9444569626
 21
0.6756085809
 31
0.0
  0
LINE
  5
85
330
1F
100
AcDbEntity
  8
0
  6
Continuous
 62
     7
370
     0
100
AcDbLine
 10
8.4938096065
 20
1.3873799542
 30
0.0
 11
8.4938096065
 21
0.035557648
 31
0.0
  0
LINE
  5
86
330
1F
100
AcDbEntity
  8
0
  6
Continuous
 62
     7
370
     0
100
AcDbLine
 10
8.4938096065
 20
1.030163002
 30
0.0
 11
6.7571952625
 21
1.030163002
 31
0.0
  0
LINE
  5
87
330
1F
100
AcDbEntity
  8
0
  6
Continuous
 62
     7
370
     0
100
AcDbLine
 10
8.4938096065
 20
0.3598787426
 30
0.0
 11
10.9444569626
 21
0.3598787426
 31
0.0
  0
LINE
  5
88
330
1F
100
AcDbEntity
  8
0
  6
Continuous
 62
     7
370
     0
100
AcDbLine
 10
8.4938096065
 20
0.6662079686
 30
0.0
 11
6.7571952625
 21
0.6662079686
 31
0.0
  0
LINE
  5
89
330
1F
100
AcDbEntity
  8
0
  6
Continuous
 62
     7
370
     0
100
AcDbLine
 10
8.4938096065
 20
0.8459606517
 30
0.0
 11
6.7571952625
 21
0.8459606517
 31
0.0
  0
LINE
  5
8A
330
1F
100
AcDbEntity
  8
0
  6
Continuous
 62
     7
370
     0
100
AcDbLine
 10
7.3281027587
 20
1.030163002
 30
0.0
 11
7.3281027587
 21
0.4840901186
 31
0.0
  0
LINE
  5
8B
330
1F
100
AcDbEntity
  8
0
  6
Continuous
 62
     7
370
     0
100
AcDbLine
 10
7.8037240401
 20
1.030163002
 30
0.0
 11
7.8037240401
 21
0.4840901186
 31
0.0
  0
LINE
  5
8C
330
1F
100
AcDbEntity
  8
0
  6
Continuous
 62
     7
370
     0
100
AcDbLine
 10
9.990119718
 20
0.3598787426
 30
0.0
 11
9.990119718
 21
0.035557648
 31
0.0
  0
LINE
  5
8D
330
1F
100
AcDbEntity
  8
0
  6
Continuous
 62
     7
370
     0
100
AcDbLine
 10
6.7571952625
 20
0.4840901186
 30
0.0
 11
6.7571952625
 21
0.297745443
 31
0.0
  0
LINE
  5
8E
330
1F
100
AcDbEntity
  8
0
  6
Continuous
 62
     7
370
     0
100
AcDbLine
 10
6.7571952625
 20
0.297745443
 30
0.0
 11
8.4938096065
 21
0.297745443
 31
0.0
  0
LINE
  5
8F
330
1F
100
AcDbEntity
  8
0
  6
Continuous
 62
     7
370
     0
100
AcDbLine
 10
6.7571952625
 20
0.297745443
 30
0.0
 11
6.7571952625
 21
1.3873799542
 31
0.0
  0
LINE
  5
90
330
1F
100
AcDbEntity
  8
0
  6
Continuous
 62
     7
370
     0
100
AcDbLine
 10
6.7571952625
 20
1.3873799542
 30
0.0
 11
8.4938096065
 21
1.3873799542
 31
0.0
  0
LINE
  5
91
330
1F
100
AcDbEntity
  8
0
  6
Continuous
 62
     7
370
     0
100
AcDbLine
 10
10.6365495992
 20
0.6756085809
 30
0.0
 11
10.6365495992
 21
0.3598787426
 31
0.0
  0
LINE
  5
92
330
1F
100
AcDbEntity
  8
0
  6
Continuous
 62
     7
370
     0
100
AcDbLine
 10
8.4938096065
 20
1.3873799542
 30
0.0
 11
10.9444569626
 21
1.3873799542
 31
0.0
  0
LINE
  5
93
330
1F
100
AcDbEntity
  8
0
  6
Continuous
 62
     7
370
     0
100
AcDbLine
 10
10.9444569626
 20
1.3873799542
 30
0.0
 11
10.9444569626
 21
1.9698084888
 31
0.0
  0
LINE
  5
94
330
1F
100
AcDbEntity
  8
0
  6
Continuous
 62
     7
370
     0
100
AcDbLine
 10
8.4938096065
 20
0.9800288797
 30
0.0
 11
10.9444569626
 21
0.9800288797
 31
0.0
  0
INSERT
  5
95
330
1F
100
AcDbEntity
  8
0
  6
Continuous
 62
     7
100
AcDbBlockReference
  2
Third Angle Projection Block
 10
4.6348905679
 20
0.6108753523
 30
0.0
 41
0.8
 42
0.8
 43
0.8
  0
MTEXT
  5
97
330
1F
100
AcDbEntity
  8
0
  6
Continuous
 62
     7
370
     0
100
AcDbMText
 10
10.7943805235
 20
0.5227176726
 30
0.0
 40
0.125
 41
0.0
 71
     2
 72
     1
  1
B
  7
SLDTEXTSTYLE0
 73
     1
 44
1.0
  0
MTEXT
  5
98
330
1F
100
AcDbEntity
  8
0
  6
Continuous
 62
     7
370
     0
100
AcDbMText
 10
9.2284464437
 20
0.2019943461
 30
0.0
 40
0.125
 41
0.0
 71
     2
 72
     1
  1
LA4855-ML
  7
SLDTEXTSTYLE0
 73
     1
 44
1.0
  0
MTEXT
  5
99
330
1F
100
AcDbEntity
  8
0
  6
Continuous
 62
     7
370
     0
100
AcDbMText
 10
8.5204715199
 20
0.6623747189
 30
0.0
 40
0.0833333333
 41
0.0
 71
     1
 72
     1
  1
MATERIAL
  7
SLDTEXTSTYLE0
 73
     1
 44
1.0
  0
MTEXT
  5
9A
330
1F
100
AcDbEntity
  8
0
  6
Continuous
 62
     7
370
     0
100
AcDbMText
 10
6.8594860853
 20
0.7895493672
 30
0.0
 40
0.0729166667
 41
0.0
 71
     1
 72
     1
  1
DRAWN
  7
SLDTEXTSTYLE0
 73
     1
 44
1.0
  0
MTEXT
  5
9B
330
1F
100
AcDbEntity
  8
0
  6
Continuous
 62
     7
370
     0
100
AcDbMText
 10
6.7872445848
 20
0.613335314
 30
0.0
 40
0.0729166667
 41
0.0
 71
     1
 72
     1
  1
APPROVAL
  7
SLDTEXTSTYLE0
 73
     1
 44
1.0
  0
MTEXT
  5
9C
330
1F
100
AcDbEntity
  8
0
  6
Continuous
 62
     7
370
     0
100
AcDbMText
 10
10.6936137314
 20
0.6373332609
 30
0.0
 40
0.0833333333
 41
0.0
 71
     1
 72
     1
  1
REV
  7
SLDTEXTSTYLE0
 73
     1
 44
1.0
  0
MTEXT
  5
9D
330
1F
100
AcDbEntity
  8
0
  6
Continuous
 62
     7
370
     0
100
AcDbMText
 10
7.4919633718
 20
0.7999100272
 30
0.0
 40
0.0833333333
 41
0.0
 71
     1
 72
     1
  1
GG
  7
SLDTEXTSTYLE0
 73
     1
 44
1.0
  0
MTEXT
  5
9E
330
1F
100
AcDbEntity
  8
0
  6
Continuous
 62
     7
370
     0
100
AcDbMText
 10
7.4919633718
 20
0.623695974
 30
0.0
 40
0.0833333333
 41
0.0
 71
     1
 72
     1
  1
DD
  7
SLDTEXTSTYLE0
 73
     1
 44
1.0
  0
MTEXT
  5
9F
330
1F
100
AcDbEntity
  8
0
  6
Continuous
 62
     7
370
     0
100
AcDbMText
 10
7.8687497515
 20
0.7999100272
 30
0.0
 40
0.0833333333
 41
0.0
 71
     1
 72
     1
  1
08/FEB/16
  7
SLDTEXTSTYLE0
 73
     1
 44
1.0
  0
MTEXT
  5
A0
330
1F
100
AcDbEntity
  8
0
  6
Continuous
 62
     7
370
     0
100
AcDbMText
 10
8.0163191884
 20
0.9772495896
 30
0.0
 40
0.0833333333
 41
0.0
 71
     1
 72
     1
  1
DATE
  7
SLDTEXTSTYLE0
 73
     1
 44
1.0
  0
MTEXT
  5
A1
330
1F
100
AcDbEntity
  8
0
  6
Continuous
 62
     7
370
     0
100
AcDbMText
 10
7.8687497515
 20
0.623695974
 30
0.0
 40
0.0833333333
 41
0.0
 71
     1
 72
     1
  1
08/FEB/16
  7
SLDTEXTSTYLE0
 73
     1
 44
1.0
  0
MTEXT
  5
A3
330
1F
100
AcDbEntity
  8
0
  6
Continuous
 62
     7
370
     0
100
AcDbMText
 10
9.0316104912
 20
1.0943207896
 30
0.0
 40
0.0833333333
 41
0.0
 71
     1
 72
     1
  1
w w w . t h o r  l a b s . c o m
  7
SLDTEXTSTYLE1
 73
     1
 44
1.0
  0
MTEXT
  5
A4
330
1F
100
AcDbEntity
  8
0
  6
Continuous
 62
     7
370
     0
100
AcDbMText
 10
8.5315119501
 20
0.328719653
 30
0.0
 40
0.0833333333
 41
0.0
 71
     1
 72
     1
  1
ITEM #
  7
SLDTEXTSTYLE0
 73
     1
 44
1.0
  0
MTEXT
  5
A5
330
1F
100
AcDbEntity
  8
0
  6
Continuous
 62
     7
370
     0
100
AcDbMText
 10
10.0209370115
 20
0.328719653
 30
0.0
 40
0.0833333333
 41
0.0
 71
     1
 72
     1
  1
APPROX WEIGHT
  7
SLDTEXTSTYLE0
 73
     1
 44
1.0
  0
MTEXT
  5
A6
330
1F
100
AcDbEntity
  8
0
  6
Continuous
 62
     7
370
     0
100
AcDbMText
 10
9.5949135982
 20
0.5414715262
 30
0.0
 40
0.125
 41
0.0
 71
     2
 72
     1
  1
SEE TABLE
  7
SLDTEXTSTYLE0
 73
     1
 44
1.0
  0
MTEXT
  5
A8
330
1F
100
AcDbEntity
  8
0
  6
Continuous
 62
     7
370
     0
100
AcDbMText
 10
10.4826226539
 20
0.2019943461
 30
0.0
 40
0.125
 41
0.0
 71
     2
 72
     1
  1
32 g
  7
SLDTEXTSTYLE2
 73
     1
 44
1.0
  0
INSERT
  5
AE
330
1F
100
AcDbEntity
  8
0
  6
Continuous
 62
     7
370
     0
100
AcDbBlockReference
  2
SW_NOTE_0
 10
6.8835832285
 20
0.1754273811
 30
0.0
  0
INSERT
  5
B4
330
1F
100
AcDbEntity
  8
0
  6
Continuous
 62
     7
370
     0
100
AcDbBlockReference
  2
SW_NOTE_1
 10
6.8719828753
 20
1.2001390658
 30
0.0
  0
MTEXT
  5
B5
330
1F
100
AcDbEntity
  8
0
  6
Continuous
 62
     7
370
     0
100
AcDbMText
 10
7.3987149145
 20
0.9772495896
 30
0.0
 40
0.0833333333
 41
0.0
 71
     1
 72
     1
  1
NAME
  7
SLDTEXTSTYLE0
 73
     1
 44
1.0
  0
INSERT
  5
BC
330
1F
100
AcDbEntity
  8
0
  6
Continuous
 62
     7
370
     0
100
AcDbBlockReference
  2
SW_NOTE_2
 10
8.5544172856
 20
0.8160048101
 30
0.0
  0
MTEXT
  5
BD
330
1F
100
AcDbEntity
  8
0
  6
Continuous
 62
     7
370
     0
100
AcDbMText
 10
7.0281258754
 20
0.4200025137
 30
0.0
 40
0.0625
 41
0.0
 71
     1
 72
     1
  1
COPYRIGHT © 2016 BY THORLABS
  7
SLDTEXTSTYLE0
 73
     1
 44
1.0
  0
INSERT
  5
C3
330
1F
100
AcDbEntity
  8
0
  6
Continuous
 62
     7
370
     0
100
AcDbBlockReference
  2
SW_NOTE_3
 10
2.1096529316
 20
0.3219551564
 30
0.0
  0
INSERT
  5
D6
330
1F
100
AcDbEntity
  8
0
  6
Continuous
 62
     7
370
     0
100
AcDbBlockReference
  2
SW_NOTE_4
 10
0.2229009106
 20
1.7636814979
 30
0.0
  0
INSERT
  5
100
330
1F
100
AcDbEntity
  8
0
  6
Continuous
 62
     7
370
     0
100
AcDbBlockReference
  2
SW_TABLEANNOTATION_0
 10
0.0612779343
 20
8.4504327236
 30
0.0
  0
ARC
  5
101
330
1F
100
AcDbEntity
  8
0
  6
Continuous
 62
     7
370
     0
100
AcDbCircle
 10
3.2677862118
 20
3.9230479558
 30
0.0
 40
0.9500000000000001
100
AcDbArc
 50
180.9047077972
 51
359.0952922028
  0
LINE
  5
102
330
1F
100
AcDbEntity
  8
0
  6
Continuous
 62
     7
370
     0
100
AcDbLine
 10
4.217667772
 20
3.9080479561
 30
0.0
 11
4.2276690031
 21
3.9080479561
 31
0.0
  0
ARC
  5
103
330
1F
100
AcDbEntity
  8
0
  6
Continuous
 62
     7
370
     0
100
AcDbCircle
 10
3.2677862118
 20
3.9230479558
 30
0.0
 40
0.9600000000000013
100
AcDbArc
 50
180.8952829866
 51
359.1047170134
  0
LINE
  5
104
330
1F
100
AcDbEntity
  8
0
  6
Continuous
 62
     7
370
     0
100
AcDbLine
 10
2.3079034204
 20
3.9080479561
 30
0.0
 11
2.3179046516
 21
3.9080479561
 31
0.0
  0
ARC
  5
105
330
1F
100
AcDbEntity
  8
0
  6
Continuous
 62
     7
370
     0
100
AcDbCircle
 10
3.2677862118
 20
3.9230479558
 30
0.0
 40
1.000179491924312
100
AcDbArc
 50
0.8593146732
 51
179.1406853268
  0
LINE
  5
106
330
1F
100
AcDbEntity
  8
0
  6
Continuous
 62
     7
370
     0
100
AcDbLine
 10
2.267719198
 20
3.9380479554
 30
0.0
 11
2.2503968181
 21
3.9380479554
 31
0.0
  0
LINE
  5
107
330
1F
100
AcDbEntity
  8
0
  6
Continuous
 62
     7
370
     0
100
AcDbLine
 10
4.2851756055
 20
3.9380479554
 30
0.0
 11
4.2678532256
 21
3.9380479554
 31
0.0
  0
ARC
  5
108
330
1F
100
AcDbEntity
  8
0
  6
Continuous
 62
     7
370
     0
100
AcDbCircle
 10
3.2677862118
 20
3.9230479558
 30
0.0
 40
0.9500000000000001
100
AcDbArc
 50
0.9047077972
 51
179.0952922028
  0
LINE
  5
109
330
1F
100
AcDbEntity
  8
0
  6
Continuous
 62
     7
370
     0
100
AcDbLine
 10
2.3179046516
 20
3.9380479554
 30
0.0
 11
2.3079034204
 21
3.9380479554
 31
0.0
  0
ARC
  5
10A
330
1F
100
AcDbEntity
  8
0
  6
Continuous
 62
     7
370
     0
100
AcDbCircle
 10
3.2677862118
 20
3.9230479558
 30
0.0
 40
0.9600000000000013
100
AcDbArc
 50
0.8952829866
 51
179.1047170134
  0
LINE
  5
10B
330
1F
100
AcDbEntity
  8
0
  6
Continuous
 62
     7
370
     0
100
AcDbLine
 10
4.2276690031
 20
3.9380479554
 30
0.0
 11
4.217667772
 21
3.9380479554
 31
0.0
  0
ARC
  5
10C
330
1F
100
AcDbEntity
  8
0
  6
Continuous
 62
     7
370
     0
100
AcDbCircle
 10
3.2677862118
 20
3.9230479558
 30
0.0
 40
1.000179491924312
100
AcDbArc
 50
180.8593146732
 51
359.1406853268
  0
LINE
  5
10D
330
1F
100
AcDbEntity
  8
0
  6
Continuous
 62
     7
370
     0
100
AcDbLine
 10
2.267719198
 20
3.9080479561
 30
0.0
 11
2.3079034204
 21
3.9080479561
 31
0.0
  0
LINE
  5
10E
330
1F
100
AcDbEntity
  8
0
  6
Continuous
 62
     7
370
     0
100
AcDbLine
 10
4.2276690031
 20
3.9080479561
 30
0.0
 11
4.2678532256
 21
3.9080479561
 31
0.0
  0
LINE
  5
10F
330
1F
100
AcDbEntity
  8
0
  6
Continuous
 62
     7
370
     0
100
AcDbLine
 10
4.2678532256
 20
3.9080479561
 30
0.0
 11
4.2851756055
 21
3.9080479561
 31
0.0
  0
LINE
  5
110
330
1F
100
AcDbEntity
  8
0
  6
Continuous
 62
     7
370
     0
100
AcDbLine
 10
2.2503968181
 20
3.9080479561
 30
0.0
 11
2.267719198
 21
3.9080479561
 31
0.0
  0
LINE
  5
111
330
1F
100
AcDbEntity
  8
0
  6
Continuous
 62
     7
370
     0
100
AcDbLine
 10
4.2678532256
 20
3.9380479554
 30
0.0
 11
4.2276690031
 21
3.9380479554
 31
0.0
  0
LINE
  5
112
330
1F
100
AcDbEntity
  8
0
  6
Continuous
 62
     7
370
     0
100
AcDbLine
 10
2.3079034204
 20
3.9380479554
 30
0.0
 11
2.267719198
 21
3.9380479554
 31
0.0
  0
ARC
  5
113
330
1F
100
AcDbEntity
  8
0
  6
Continuous
 62
     7
370
     0
100
AcDbCircle
 10
3.2677862118
 20
3.9230479558
 30
0.0
 40
0.9500000000000001
100
AcDbArc
 50
179.0952922028
 51
180.9047077972
  0
ARC
  5
114
330
1F
100
AcDbEntity
  8
0
  6
Continuous
 62
     7
370
     0
100
AcDbCircle
 10
3.2677862118
 20
3.9230479558
 30
0.0
 40
0.9499999999999997
100
AcDbArc
 50
359.0952922028
 51
0.9047077972
  0
CIRCLE
  5
115
330
1F
100
AcDbEntity
  8
0
  6
Continuous
 62
     7
370
     0
100
AcDbCircle
 10
3.2677862118
 20
3.9230479558
 30
0.0
 40
1.1
  0
CIRCLE
  5
116
330
1F
100
AcDbEntity
  8
0
  6
Continuous
 62
     7
370
     0
100
AcDbCircle
 10
3.2677862118
 20
3.9230479558
 30
0.0
 40
1.090000000000001
  0
CIRCLE
  5
117
330
1F
100
AcDbEntity
  8
0
  6
Continuous
 62
     7
370
     0
100
AcDbCircle
 10
3.2677862118
 20
3.9230479558
 30
0.0
 40
1.034820508075689
  0
CIRCLE
  5
118
330
1F
100
AcDbEntity
  8
0
  6
Continuous
 62
     7
370
     0
100
AcDbCircle
 10
3.2677862118
 20
3.9230479558
 30
0.0
 40
1.0175
  0
DIMENSION
  5
119
330
1F
100
AcDbEntity
  8
0
  6
Continuous
 62
     7
370
     0
100
AcDbDimension
  2
_D
 10
2.7177862118
 20
2.9704200116
 30
0.0
 11
4.5179553024
 21
5.3676654776
 31
0.0
 70
   163
  1
<>
 71
     1
 42
-1.0
  3
SLDDIMSTYLE0
100
AcDbDiametricDimension
 15
3.8177862118
 25
4.8756758999
 35
0.0
 40
0.0
  0
LINE
  5
12A
330
1F
100
AcDbEntity
  8
0
  6
PHANTOM
 62
     7
370
    30
100
AcDbLine
 10
3.2677862118
 20
5.2870479558
 30
0.0
 11
3.2677862118
 21
2.5590479558
 31
0.0
  0
LINE
  5
12B
330
1F
100
AcDbEntity
  8
0
  6
Continuous
 62
     7
370
    30
100
AcDbLine
 10
3.2677862118
 20
5.2870479558
 30
0.0
 11
2.9177862118
 21
5.2870479558
 31
0.0
  0
SOLID
  5
12C
330
1F
100
AcDbEntity
  8
0
  6
Continuous
 62
     7
370
    30
100
AcDbTrace
 10
2.9177862118
 20
5.2870479558
 30
0.0
 11
3.0677862118
 21
5.2620479558
 31
0.0
 12
3.0677862118
 22
5.3120479558
 32
0.0
 13
3.0677862118
 23
5.3120479558
 33
0.0
  0
LINE
  5
12D
330
1F
100
AcDbEntity
  8
0
  6
Continuous
 62
     7
370
    30
100
AcDbLine
 10
3.2677862118
 20
2.5590479558
 30
0.0
 11
2.9177862118
 21
2.5590479558
 31
0.0
  0
SOLID
  5
12E
330
1F
100
AcDbEntity
  8
0
  6
Continuous
 62
     7
370
    30
100
AcDbTrace
 10
2.9177862118
 20
2.5590479558
 30
0.0
 11
3.0677862118
 21
2.5340479558
 31
0.0
 12
3.0677862118
 22
2.5840479558
 32
0.0
 13
3.0677862118
 23
2.5840479558
 33
0.0
  0
MTEXT
  5
12F
330
1F
100
AcDbEntity
  8
0
  6
Continuous
 62
     7
100
AcDbMText
 10
2.7837191702
 20
5.3697443542
 30
0.0
 40
0.1041666667
 41
0.0
 71
     1
 72
     1
  1
A
  7
SLDTEXTSTYLE0
 73
     1
 44
1.0
  0
MTEXT
  5
130
330
1F
100
AcDbEntity
  8
0
  6
Continuous
 62
     7
100
AcDbMText
 10
2.7837191702
 20
2.6417443542
 30
0.0
 40
0.1041666667
 41
0.0
 71
     1
 72
     1
  1
A
  7
SLDTEXTSTYLE0
 73
     1
 44
1.0
  0
LINE
  5
131
330
1F
100
AcDbEntity
  8
0
  6
Continuous
 62
     7
370
     0
100
AcDbLine
 10
8.4844914398
 20
7.4520673654
 30
0.0
 11
8.4844914398
 21
7.4439032843
 31
0.0
  0
LINE
  5
132
330
1F
100
AcDbEntity
  8
0
  6
Continuous
 62
     7
370
     0
100
AcDbLine
 10
9.2551125634
 20
6.1090037058
 30
0.0
 11
9.2621824819
 21
6.1049210018
 31
0.0
  0
LINE
  5
133
330
1F
100
AcDbEntity
  8
0
  6
Continuous
 62
     7
370
     0
100
AcDbLine
 10
8.9739831052
 20
8.1067321532
 30
0.0
 11
8.7123535962
 21
7.9556966525
 31
0.0
  0
LINE
  5
134
330
1F
100
AcDbEntity
  8
0
  6
Continuous
 62
     7
370
     0
100
AcDbLine
 10
9.8122642021
 20
6.0503891553
 30
0.0
 11
10.0738937111
 21
6.201424656
 31
0.0
  0
LINE
  5
135
330
1F
100
AcDbEntity
  8
0
  6
Continuous
 62
     7
370
     0
100
AcDbLine
 10
10.3017558675
 20
6.7050539431
 30
0.0
 11
10.3017558675
 21
6.7132180242
 31
0.0
  0
LINE
  5
136
330
1F
100
AcDbEntity
  8
0
  6
Continuous
 62
     7
370
     0
100
AcDbLine
 10
9.531134744
 20
8.0481176027
 30
0.0
 11
9.5240648254
 21
8.0522003067
 31
0.0
  0
LWPOLYLINE
  5
137
330
1F
100
AcDbEntity
  8
0
  6
Continuous
 62
     7
370
     0
100
AcDbPolyline
 90
       21
 70
   128
 43
0.0
 10
8.8558717753
 20
7.9232396937
 10
8.8450375911
 20
7.9169431852
 10
8.8257457468
 20
7.9043104771
 10
8.807290176
 20
7.8903254449
 10
8.7897002447
 20
7.8750103413
 10
8.7730039418
 20
7.8583895353
 10
8.7572278341
 20
7.8404894739
 10
8.7423970243
 20
7.8213386391
 10
8.7285351109
 20
7.8009675035
 10
8.7156641507
 20
7.7794084812
 10
8.7038046238
 20
7.7566958766
 10
8.6929754008
 20
7.7328658296
 10
8.683193713
 20
7.7079562581
 10
8.6744751249
 20
7.6820067977
 10
8.6668335092
 20
7.6550587388
 10
8.6602810253
 20
7.6271549607
 10
8.6548280992
 20
7.5983398633
 10
8.6504834077
 20
7.5686592967
 10
8.6472538638
 20
7.5381604881
 10
8.6451446065
 20
7.5068919666
 10
8.6441589918
 20
7.4749034862
  0
LINE
  5
138
330
1F
100
AcDbEntity
  8
0
  6
Continuous
 62
     7
370
     0
100
AcDbLine
 10
8.6441589918
 20
7.4749034862
 30
0.0
 11
8.6389812568
 21
7.4860566101
 31
0.0
  0
ARC
  5
139
330
1F
100
AcDbEntity
  8
0
  6
Continuous
 62
     7
370
     0
100
AcDbCircle
 10
9.1766808738
 20
7.5191255634
 30
0.0
 40
0.5387155407141596
100
AcDbArc
 50
133.7855952249
 51
183.5193033095
  0
LWPOLYLINE
  5
13A
330
1F
100
AcDbEntity
  8
0
  6
Continuous
 62
     7
370
     0
100
AcDbPolyline
 90
        3
 70
   128
 43
0.0
 10
8.6495443928
 20
7.4717945604
 10
8.6495536526
 20
7.4707650757
 10
8.6495878585
 20
7.4676834466
  0
LINE
  5
13B
330
1F
100
AcDbEntity
  8
0
  6
Continuous
 62
     7
370
     0
100
AcDbLine
 10
8.6389812568
 20
7.4615603858
 30
0.0
 11
8.6495878585
 21
7.4676834466
 31
0.0
  0
LWPOLYLINE
  5
13C
330
1F
100
AcDbEntity
  8
0
  6
Continuous
 62
     7
370
     0
100
AcDbPolyline
 90
       58
 70
   128
 43
0.0
 10
9.8167827644
 20
6.1535061648
 10
9.8098259452
 20
6.150965606
 10
9.7871202294
 20
6.1437941333
 10
9.7637320927
 20
6.1380786115
 10
9.7396987621
 20
6.1338281379
 10
9.7150584915
 20
6.1310494779
 10
9.6898505009
 20
6.1297470545
 10
9.6641149141
 20
6.1299229406
 10
9.6378926944
 20
6.1315768563
 10
9.6112255799
 20
6.1347061692
 10
9.5841560167
 20
6.1393058981
 10
9.5567270916
 20
6.1453687218
 10
9.5289824633
 20
6.1528849899
 10
9.500966293
 20
6.1618427389
 10
9.4727231743
 20
6.1722277106
 10
9.4442980617
 20
6.1840233753
 10
9.4157361998
 20
6.1972109577
 10
9.3870830504
 20
6.211769467
 10
9.358384221
 20
6.2276757306
 10
9.3296853916
 20
6.2449044302
 10
9.3010322423
 20
6.2634281429
 10
9.2724703803
 20
6.2832173844
 10
9.2440452678
 20
6.3042406561
 10
9.215802149
 20
6.3264644952
 10
9.1877859788
 20
6.3498535278
 10
9.1600413505
 20
6.3743705256
 10
9.1326124254
 20
6.3999764648
 10
9.1055428622
 20
6.4266305883
 10
9.0788757477
 20
6.4542904705
 10
9.052653528
 20
6.4829120852
 10
9.0269179411
 20
6.5124498752
 10
9.0017099506
 20
6.542856825
 10
8.97706968
 20
6.5740845358
 10
8.9530363493
 20
6.6060833024
 10
8.9296482126
 20
6.6388021921
 10
8.9069424969
 20
6.6721891261
 10
8.8849553428
 20
6.7061909624
 10
8.8637217475
 20
6.74075358
 10
8.8432755086
 20
6.7758219655
 10
8.8236491704
 20
6.8113403004
 10
8.8048739722
 20
6.84725205
 10
8.7869797987
 20
6.8835000534
 10
8.769995132
 20
6.9200266145
 10
8.7539470067
 20
6.9567735939
 10
8.7388609667
 20
6.9936825012
 10
8.7247610245
 20
7.0306945884
 10
8.7116696231
 20
7.0677509431
 10
8.6996076
 20
7.1047925825
 10
8.6885941545
 20
7.1417605475
 10
8.6786468166
 20
7.1785959958
 10
8.6697814197
 20
7.2152402964
 10
8.6620120748
 20
7.2516351224
 10
8.6553511484
 20
7.2877225439
 10
8.6498092427
 20
7.3234451205
 10
8.6453951789
 20
7.3587459924
 10
8.6421159827
 20
7.393568971
 10
8.6399768737
 20
7.4278586285
 10
8.6389812568
 20
7.4615603858
  0
LWPOLYLINE
  5
13D
330
1F
100
AcDbEntity
  8
0
  6
Continuous
 62
     7
370
     0
100
AcDbPolyline
 90
       26
 70
   128
 43
0.0
 10
8.6725735124
 20
7.4585001326
 10
8.6735758034
 20
7.489979079
 10
8.6757130785
 20
7.5207286158
 10
8.6789817583
 20
7.5506972479
 10
8.6833763689
 20
7.5798347878
 10
8.6888895508
 20
7.6080924399
 10
8.6955120713
 20
7.6354228819
 10
8.7032328398
 20
7.6617803445
 10
8.7120389267
 20
7.6871206878
 10
8.7219155847
 20
7.7114014752
 10
8.7328462736
 20
7.7345820443
 10
8.7448126883
 20
7.7566235756
 10
8.757794789
 20
7.7774891567
 10
8.7717708349
 20
7.7971438449
 10
8.7867174209
 20
7.815554725
 10
8.8026095164
 20
7.8326909649
 10
8.8194205075
 20
7.8485238673
 10
8.8371222413
 20
7.8630269172
 10
8.8556850734
 20
7.8761758269
 10
8.8750779172
 20
7.8879485763
 10
8.8952682962
 20
7.89832545
 10
8.9162223982
 20
7.9072890703
 10
8.937905132
 20
7.914824426
 10
8.9602801864
 20
7.9209188979
 10
8.9833100906
 20
7.9255622798
 10
9.0005976559
 20
7.928041187
  0
LINE
  5
13E
330
1F
100
AcDbEntity
  8
0
  6
Continuous
 62
     7
370
     0
100
AcDbLine
 10
8.6725735124
 20
7.4585001326
 30
0.0
 11
8.6441589918
 21
7.4749034862
 31
0.0
  0
LWPOLYLINE
  5
13F
330
1F
100
AcDbEntity
  8
0
  6
Continuous
 62
     7
370
     0
100
AcDbPolyline
 90
       26
 70
   128
 43
0.0
 10
9.0156764307
 20
7.9259121347
 10
8.9994251141
 20
7.9235639595
 10
8.9766365502
 20
7.9189716407
 10
8.954495818
 20
7.9129436371
 10
8.933039988
 20
7.9054900414
 10
8.9123049839
 20
7.8966233332
 10
8.8923255226
 20
7.8863583582
 10
8.873135056
 20
7.8747123031
 10
8.8547657148
 20
7.8617046672
 10
8.8372482552
 20
7.8473572292
 10
8.8206120067
 20
7.8316940112
 10
8.8048848238
 20
7.8147412384
 10
8.7900930385
 20
7.796527295
 10
8.776261417
 20
7.7770826768
 10
8.7634131177
 20
7.7564399401
 10
8.7515696527
 20
7.7346336474
 10
8.7407508516
 20
7.7117003092
 10
8.7309748285
 20
7.6876783231
 10
8.7222579514
 20
7.6626079094
 10
8.7146148153
 20
7.6365310437
 10
8.708058217
 20
7.6094913869
 10
8.7025991344
 20
7.5815342119
 10
8.6982467077
 20
7.5527063276
 10
8.6950082241
 20
7.5230560009
 10
8.692889106
 20
7.4926328758
 10
8.6918929014
 20
7.4614878901
  0
LINE
  5
140
330
1F
100
AcDbEntity
  8
0
  6
Continuous
 62
     7
370
     0
100
AcDbLine
 10
8.6918929014
 20
7.4614878901
 30
0.0
 11
8.6725735124
 21
7.4585001326
 31
0.0
  0
LWPOLYLINE
  5
141
330
1F
100
AcDbEntity
  8
0
  6
Continuous
 62
     7
370
     0
100
AcDbPolyline
 90
       65
 70
   128
 43
0.0
 10
8.6918929014
 20
7.4369916657
 10
8.692889106
 20
7.4046964866
 10
8.6950082241
 20
7.3718266797
 10
8.6982467077
 20
7.3384372796
 10
8.7025991344
 20
7.3045841903
 10
8.708058217
 20
7.2703240926
 10
8.7146148153
 20
7.2357143486
 10
8.7222579514
 20
7.2008129058
 10
8.7309748285
 20
7.1656782001
 10
8.7407508516
 20
7.1303690579
 10
8.7515696527
 20
7.0949445979
 10
8.7634131177
 20
7.0594641315
 10
8.776261417
 20
7.0239870643
 10
8.7900930385
 20
6.9885727958
 10
8.8048848238
 20
6.9532806206
 10
8.8206120067
 20
6.9181696288
 10
8.8372482552
 20
6.8832986073
 10
8.8547657148
 20
6.8487259409
 10
8.873135056
 20
6.8145095151
 10
8.8923255226
 20
6.7807066189
 10
8.9123049839
 20
6.7473738489
 10
8.933039988
 20
6.7145670146
 10
8.954495818
 20
6.6823410448
 10
8.9766365502
 20
6.6507498959
 10
8.9994251141
 20
6.6198464613
 10
9.0228233544
 20
6.5896824831
 10
9.0467920953
 20
6.5603084651
 10
9.0712912056
 20
6.5317735886
 10
9.0962796661
 20
6.5041256299
 10
9.1217156384
 20
6.4774108804
 10
9.1475565346
 20
6.4516740688
 10
9.1737590891
 20
6.4269582866
 10
9.2002794306
 20
6.4033049158
 10
9.2270731558
 20
6.3807535595
 10
9.2540954035
 20
6.3593419756
 10
9.2813009302
 20
6.339106014
 10
9.3086441852
 20
6.3200795558
 10
9.3360793875
 20
6.3022944574
 10
9.3635606019
 20
6.2857804964
 10
9.3910418163
 20
6.2705653226
 10
9.4184770186
 20
6.2566744107
 10
9.4458202737
 20
6.2441310186
 10
9.4730258003
 20
6.2329561478
 10
9.5000480481
 20
6.2231685084
 10
9.5268417732
 20
6.2147844882
 10
9.5533621147
 20
6.2078181245
 10
9.5795646692
 20
6.2022810812
 10
9.6054055655
 20
6.198182629
 10
9.6308415377
 20
6.1955296301
 10
9.6558299982
 20
6.1943265264
 10
9.6803291085
 20
6.1945753322
 10
9.7042978494
 20
6.196275631
 10
9.7276960898
 20
6.199424576
 10
9.7504846537
 20
6.2040168948
 10
9.7726253859
 20
6.2100448984
 10
9.7940812159
 20
6.2174984941
 10
9.81481622
 20
6.2263652023
 10
9.8347956813
 20
6.2366301773
 10
9.8539861479
 20
6.2482762323
 10
9.872355489
 20
6.2612838683
 10
9.8898729487
 20
6.2756313063
 10
9.9065091971
 20
6.2912945242
 10
9.9222363801
 20
6.308247297
 10
9.9370281653
 20
6.3264612405
 10
9.9381575171
 20
6.327954882
  0
LINE
  5
142
330
1F
100
AcDbEntity
  8
0
  6
Continuous
 62
     7
370
     0
100
AcDbLine
 10
8.6973231222
 20
7.4401264655
 30
0.0
 11
8.6918929014
 21
7.4369916657
 31
0.0
  0
ARC
  5
143
330
1F
100
AcDbEntity
  8
0
  6
Continuous
 62
     7
370
     0
100
AcDbCircle
 10
9.592977094
 20
7.4523745776
 30
0.0
 40
0.8957377147146717
100
AcDbArc
 50
179.2165262291
 51
180.7834737709
  0
LINE
  5
144
330
1F
100
AcDbEntity
  8
0
  6
Continuous
 62
     7
370
     0
100
AcDbLine
 10
8.6918929014
 20
7.4614878901
 30
0.0
 11
8.6973231222
 21
7.4646226898
 31
0.0
  0
LWPOLYLINE
  5
145
330
1F
100
AcDbEntity
  8
0
  6
Continuous
 62
     7
370
     0
100
AcDbPolyline
 90
       58
 70
   128
 43
0.0
 10
9.4149527635
 20
6.3154485598
 10
9.387552972
 20
6.3319116723
 10
9.3601987848
 20
6.3496384825
 10
9.3329357301
 20
6.3685994861
 10
9.3058091847
 20
6.3887631241
 10
9.278864298
 20
6.4100958364
 10
9.2521459171
 20
6.4325621165
 10
9.2256985122
 20
6.4561245718
 10
9.1995661023
 20
6.4807439847
 10
9.1737921822
 20
6.5063793788
 10
9.1484196501
 20
6.5329880863
 10
9.1234907361
 20
6.5605258198
 10
9.0990469318
 20
6.5889467454
 10
9.0751289216
 20
6.6182035592
 10
9.0517765147
 20
6.6482475663
 10
9.0290285788
 20
6.6790287613
 10
9.0069229757
 20
6.7104959119
 10
8.9854964978
 20
6.7425966443
 10
8.9647848075
 20
6.7752775298
 10
8.9448223774
 20
6.8084841744
 10
8.9256424328
 20
6.8421613088
 10
8.9072768971
 20
6.876252881
 10
8.8897563377
 20
6.9107021486
 10
8.8731099159
 20
6.9454517745
 10
8.8573653381
 20
6.9804439212
 10
8.8425488095
 20
7.0156203477
 10
8.8286849908
 20
7.0509225065
 10
8.815796957
 20
7.0862916404
 10
8.8039061588
 20
7.1216688811
 10
8.7930323875
 20
7.1569953467
 10
8.7831937412
 20
7.1922122398
 10
8.7744065955
 20
7.2272609452
 10
8.7666855756
 20
7.2620831279
 10
8.7600435325
 20
7.2966208298
 10
8.7544915212
 20
7.3308165664
 10
8.7500387825
 20
7.3646134221
 10
8.7466927274
 20
7.3979551454
 10
8.7444589253
 20
7.4307862424
 10
8.7433410939
 20
7.4630520689
 10
8.7433410939
 20
7.4946989216
 10
8.7444589253
 20
7.5256741275
 10
8.7466927274
 20
7.5559261315
 10
8.7500387825
 20
7.5854045819
 10
8.7544915212
 20
7.6140604149
 10
8.7600435325
 20
7.6418459356
 10
8.7666855756
 20
7.6687148978
 10
8.7744065955
 20
7.6946225807
 10
8.7831937412
 20
7.7195258637
 10
8.7930323875
 20
7.7433832975
 10
8.8039061588
 20
7.7661551739
 10
8.815796957
 20
7.7878035913
 10
8.8286849908
 20
7.8082925182
 10
8.8425488095
 20
7.8275878525
 10
8.8573653381
 20
7.8456574793
 10
8.8731099159
 20
7.8624713234
 10
8.8897563377
 20
7.8780013998
 10
8.9072768971
 20
7.8922218602
 10
8.9149906649
 20
7.8978701543
  0
LWPOLYLINE
  5
146
330
1F
100
AcDbEntity
  8
0
  6
Continuous
 62
     7
370
     0
100
AcDbPolyline
 90
       19
 70
   128
 43
0.0
 10
9.8635227005
 20
6.2547864446
 10
9.8444090293
 20
6.2467569941
 10
9.8229825514
 20
6.2393947465
 10
9.8008769482
 20
6.2334501821
 10
9.7781290123
 20
6.2289331948
 10
9.7547766054
 20
6.2258513029
 10
9.7308585952
 20
6.2242096357
 10
9.706414791
 20
6.2240109258
 10
9.681485877
 20
6.2252555038
 10
9.6561133449
 20
6.2279412983
 10
9.6303394248
 20
6.2320638389
 10
9.6042070149
 20
6.2376162643
 10
9.5777596099
 20
6.2445893328
 10
9.5510412291
 20
6.2529714385
 10
9.5240963424
 20
6.2627486303
 10
9.496969797
 20
6.2739046349
 10
9.4697067423
 20
6.2864208843
 10
9.442352555
 20
6.3002765464
 10
9.4149527635
 20
6.3154485598
  0
LWPOLYLINE
  5
147
330
1F
100
AcDbEntity
  8
0
  6
Continuous
 62
     7
370
     0
100
AcDbPolyline
 90
       60
 70
   128
 43
0.0
 10
8.6441589918
 20
7.4504072619
 10
8.6451446065
 20
7.417280815
 10
8.6472538638
 20
7.3835769968
 10
8.6504834077
 20
7.3493494362
 10
8.6548280992
 20
7.3146525955
 10
8.6602810253
 20
7.2795416837
 10
8.6668335092
 20
7.2440725687
 10
8.6744751249
 20
7.2083016881
 10
8.683193713
 20
7.1722859602
 10
8.6929754008
 20
7.1360826923
 10
8.7038046238
 20
7.0997494905
 10
8.7156641507
 20
7.0633441676
 10
8.7285351109
 20
7.026924651
 10
8.7423970243
 20
6.9905488909
 10
8.7572278341
 20
6.9542747676
 10
8.7730039418
 20
6.9181599999
 10
8.7897002447
 20
6.882262053
 10
8.807290176
 20
6.846638047
 10
8.8257457468
 20
6.8113446662
 10
8.8450375911
 20
6.7764380689
 10
8.8651350119
 20
6.7419737977
 10
8.8860060307
 20
6.7080066916
 10
8.9076174378
 20
6.6745907985
 10
8.9299348455
 20
6.641779289
 10
8.9529227428
 20
6.6096243724
 10
8.9765445518
 20
6.5781772128
 10
9.0007626858
 20
6.5474878486
 10
9.0255386094
 20
6.5176051119
 10
9.0508328997
 20
6.4885765518
 10
9.0766053087
 20
6.4604483579
 10
9.1028148279
 20
6.4332652873
 10
9.1294197531
 20
6.4070705933
 10
9.1563777512
 20
6.3819059563
 10
9.1836459269
 20
6.3578114178
 10
9.2111808918
 20
6.3348253168
 10
9.2389388325
 20
6.3129842281
 10
9.2668755813
 20
6.2923229051
 10
9.2949466856
 20
6.2728742235
 10
9.3231074792
 20
6.2546691299
 10
9.3513131532
 20
6.2377365917
 10
9.3795188272
 20
6.2221035519
 10
9.4076796208
 20
6.2077948853
 10
9.4357507251
 20
6.1948333597
 10
9.4636874739
 20
6.1832395992
 10
9.4914454147
 20
6.1730320516
 10
9.5189803795
 20
6.1642269589
 10
9.5462485553
 20
6.1568383318
 10
9.5732065533
 20
6.1508779268
 10
9.5998114786
 20
6.146355228
 10
9.6260209978
 20
6.1432774318
 10
9.6517934068
 20
6.1416494356
 10
9.677087697
 20
6.1414738299
 10
9.7018636206
 20
6.142750894
 10
9.7260817547
 20
6.1454785958
 10
9.7497035636
 20
6.1496525953
 10
9.7726914609
 20
6.1552662506
 10
9.7950088687
 20
6.1623106296
 10
9.8166202757
 20
6.1707745233
 10
9.8374912945
 20
6.180644464
 10
9.8559279266
 20
6.190903927
  0
LINE
  5
148
330
1F
100
AcDbEntity
  8
0
  6
Continuous
 62
     7
370
     0
100
AcDbLine
 10
8.6389812568
 20
7.4615603858
 30
0.0
 11
8.6441589918
 21
7.4504072619
 31
0.0
  0
LINE
  5
149
330
1F
100
AcDbEntity
  8
0
  6
Continuous
 62
     7
370
     0
100
AcDbLine
 10
8.6441589918
 20
7.4504072619
 30
0.0
 11
8.6725735124
 21
7.4340039083
 31
0.0
  0
LWPOLYLINE
  5
14A
330
1F
100
AcDbEntity
  8
0
  6
Continuous
 62
     7
370
     0
100
AcDbPolyline
 90
       65
 70
   128
 43
0.0
 10
9.9324606179
 20
6.3138322884
 10
9.9308554715
 20
6.3117040873
 10
9.9159088855
 20
6.2932932072
 10
9.90001679
 20
6.2761569673
 10
9.8832057989
 20
6.2603240649
 10
9.8655040651
 20
6.245821015
 10
9.846941233
 20
6.2326721053
 10
9.8275483892
 20
6.2208993559
 10
9.8073580102
 20
6.2105224822
 10
9.7864039083
 20
6.2015588619
 10
9.7647211744
 20
6.1940235062
 10
9.74234612
 20
6.1879290343
 10
9.7193162158
 20
6.1832856524
 10
9.6956700293
 20
6.1801011365
 10
9.6714471598
 20
6.1783808197
 10
9.6466881727
 20
6.178127583
 10
9.6214345309
 20
6.1793418504
 10
9.595728526
 20
6.1820215885
 10
9.5696132068
 20
6.1861623095
 10
9.5431323078
 20
6.1917570792
 10
9.5163301758
 20
6.1987965282
 10
9.4892516952
 20
6.2072688677
 10
9.4619422137
 20
6.2171599094
 10
9.4344474653
 20
6.2284530892
 10
9.4068134947
 20
6.2411294946
 10
9.3790865796
 20
6.255167897
 10
9.3513131532
 20
6.2705447867
 10
9.3235397268
 20
6.2872344125
 10
9.2958128117
 20
6.305208825
 10
9.2681788411
 20
6.3244379228
 10
9.2406840928
 20
6.3448895038
 10
9.2133746112
 20
6.3665293184
 10
9.1862961307
 20
6.389321127
 10
9.1594939986
 20
6.413226761
 10
9.1330130997
 20
6.4382061865
 10
9.1068977805
 20
6.4642175712
 10
9.0811917755
 20
6.4912173547
 10
9.0559381338
 20
6.5191603214
 10
9.0311791466
 20
6.5479996762
 10
9.0069562772
 20
6.5776871227
 10
8.9833100906
 20
6.6081729445
 10
8.9602801864
 20
6.6394060878
 10
8.937905132
 20
6.6713342476
 10
8.9162223982
 20
6.703903955
 10
8.8952682962
 20
6.7370606664
 10
8.8750779172
 20
6.7707488555
 10
8.8556850734
 20
6.8049121058
 10
8.8371222413
 20
6.8394932052
 10
8.8194205075
 20
6.874434242
 10
8.8026095164
 20
6.9096767015
 10
8.7867174209
 20
6.9451615643
 10
8.7717708349
 20
6.9808294053
 10
8.757794789
 20
7.0166204926
 10
8.7448126883
 20
7.0524748881
 10
8.7328462736
 20
7.0883325477
 10
8.7219155847
 20
7.1241334217
 10
8.7120389267
 20
7.1598175556
 10
8.7032328398
 20
7.1953251904
 10
8.6955120713
 20
7.2305968627
 10
8.6888895508
 20
7.2655735041
 10
8.6833763689
 20
7.3001965405
 10
8.6789817583
 20
7.3344079898
 10
8.6757130785
 20
7.3681505592
 10
8.6735758034
 20
7.4013677413
 10
8.6725735124
 20
7.4340039083
  0
LINE
  5
14B
330
1F
100
AcDbEntity
  8
0
  6
Continuous
 62
     7
370
     0
100
AcDbLine
 10
8.6725735124
 20
7.4340039083
 30
0.0
 11
8.6918929014
 21
7.4369916657
 31
0.0
  0
LINE
  5
14C
330
1F
100
AcDbEntity
  8
0
  6
Continuous
 62
     7
370
     0
100
AcDbLine
 10
8.6495878585
 20
7.4676834466
 30
0.0
 11
8.6973231222
 21
7.4401264655
 31
0.0
  0
LWPOLYLINE
  5
14D
330
1F
100
AcDbEntity
  8
0
  6
Continuous
 62
     7
370
     0
100
AcDbPolyline
 90
      125
 70
   128
 43
0.0
 10
8.4844914398
 20
7.4520673654
 10
8.4850553203
 20
7.48593676
 10
8.4867461442
 20
7.5191060048
 10
8.4895614599
 20
7.5515270073
 10
8.4934971855
 20
7.5831527604
 10
8.4985476146
 20
7.6139374096
 10
8.5047054246
 20
7.6438363202
 10
8.5119616871
 20
7.6728061416
 10
8.5203058814
 20
7.7008048703
 10
8.5297259092
 20
7.7277919109
 10
8.5402081122
 20
7.7537281347
 10
8.5517372923
 20
7.7785759367
 10
8.5642967334
 20
7.8022992899
 10
8.5778682253
 20
7.8248637978
 10
8.5924320908
 20
7.846236744
 10
8.6079672136
 20
7.8663871397
 10
8.6244510693
 20
7.8852857688
 10
8.6418597579
 20
7.9029052301
 10
8.6601680384
 20
7.919219977
 10
8.6793493656
 20
7.9342063548
 10
8.6993759284
 20
7.9478426346
 10
8.7202186902
 20
7.9601090451
 10
8.741847431
 20
7.9709878011
 10
8.7642307911
 20
7.9804631297
 10
8.7873363169
 20
7.9885212923
 10
8.8111305075
 20
7.9951506055
 10
8.8355788636
 20
8.0003414574
 10
8.8606459375
 20
8.0040863217
 10
8.8862953843
 20
8.0063797687
 10
8.9124900148
 20
8.0072184733
 10
8.9391918492
 20
8.0066012192
 10
8.9663621724
 20
8.0045289015
 10
8.9939615901
 20
8.0010045249
 10
9.0219500857
 20
7.9960331993
 10
9.0502870786
 20
7.9896221328
 10
9.0789314829
 20
7.9817806207
 10
9.1078417669
 20
7.9725200324
 10
9.1369760135
 20
7.961853795
 10
9.1662919808
 20
7.9497973735
 10
9.1957471635
 20
7.9363682485
 10
9.2252988543
 20
7.9215858909
 10
9.2549042061
 20
7.9054717339
 10
9.284520294
 20
7.8880491413
 10
9.3141041775
 20
7.8693433743
 10
9.3436129629
 20
7.8493815544
 10
9.3730038651
 20
7.8281926244
 10
9.4022342702
 20
7.8058073062
 10
9.4312617968
 20
7.7822580564
 10
9.460044358
 20
7.757579019
 10
9.4885402216
 20
7.7318059765
 10
9.5167080714
 20
7.7049762971
 10
9.5445070667
 20
7.6771288814
 10
9.5718969017
 20
7.6483041056
 10
9.5988378637
 20
7.6185437626
 10
9.6252908908
 20
7.5878910023
 10
9.6512176288
 20
7.5563902681
 10
9.6765804863
 20
7.5240872331
 10
9.7013426896
 20
7.4910287337
 10
9.7254683358
 20
7.4572627015
 10
9.7489224452
 20
7.422838094
 10
9.7716710114
 20
7.3878048236
 10
9.7936810513
 20
7.3522136852
 10
9.8149206523
 20
7.3161162826
 10
9.8353590192
 20
7.2795649534
 10
9.8549665181
 20
7.2426126938
 10
9.8737147202
 20
7.2053130808
 10
9.8915764422
 20
7.1677201955
 10
9.9085257865
 20
7.1298885438
 10
9.9245381781
 20
7.091872978
 10
9.9395904005
 20
7.0537286172
 10
9.9536606296
 20
7.0155107669
 10
9.9667284646
 20
6.9772748394
 10
9.9787749587
 20
6.9390762731
 10
9.9897826455
 20
6.9009704523
 10
9.9997355649
 20
6.8630126268
 10
10.0086192861
 20
6.8252578319
 10
10.0164209286
 20
6.7877608083
 10
10.0231291808
 20
6.7505759231
 10
10.0287343163
 20
6.7137570909
 10
10.0332282082
 20
6.6773576955
 10
10.0366043408
 20
6.6414305126
 10
10.038857819
 20
6.606027633
 10
10.0399853755
 20
6.5712003876
 10
10.0399853755
 20
6.5369992726
 10
10.038857819
 20
6.5034738763
 10
10.0366043408
 20
6.4706728073
 10
10.0332282082
 20
6.438643624
 10
10.0287343163
 20
6.4074327658
 10
10.0231291808
 20
6.3770854853
 10
10.0164209286
 20
6.3476457832
 10
10.0086192861
 20
6.3191563443
 10
9.9997355649
 20
6.2916584756
 10
9.9897826455
 20
6.2651920462
 10
9.9787749587
 20
6.2397954301
 10
9.9667284646
 20
6.2155054498
 10
9.9536606296
 20
6.1923573235
 10
9.9395904005
 20
6.1703846138
 10
9.9245381781
 20
6.1496191791
 10
9.9085257865
 20
6.1300911271
 10
9.8915764422
 20
6.1118287718
 10
9.8737147202
 20
6.0948585918
 10
9.8549665181
 20
6.0792051922
 10
9.8353590192
 20
6.0648912689
 10
9.8149206523
 20
6.0519375759
 10
9.7936810513
 20
6.0403628946
 10
9.7716710114
 20
6.0301840073
 10
9.7489224452
 20
6.0214156725
 10
9.7254683358
 20
6.0140706032
 10
9.7013426896
 20
6.0081594493
 10
9.6765804863
 20
6.0036907812
 10
9.6512176288
 20
6.0006710782
 10
9.6252908908
 20
5.9991047185
 10
9.5988378637
 20
5.9989939732
 10
9.5718969017
 20
6.0003390028
 10
9.5445070667
 20
6.0031378573
 10
9.5167080714
 20
6.0073864785
 10
9.4885402216
 20
6.0130787063
 10
9.460044358
 20
6.0202062875
 10
9.4312617968
 20
6.0287588879
 10
9.4022342702
 20
6.038724107
 10
9.3730038651
 20
6.0500874961
 10
9.3436129629
 20
6.0628325795
 10
9.3141041775
 20
6.0769408779
 10
9.284520294
 20
6.0923919358
 10
9.2621824819
 20
6.1049210018
  0
LWPOLYLINE
  5
14E
330
1F
100
AcDbEntity
  8
0
  6
Continuous
 62
     7
370
     0
100
AcDbPolyline
 90
      165
 70
   128
 43
0.0
 10
8.4844914398
 20
7.4439032843
 10
8.4850570281
 20
7.4094862148
 10
8.486752963
 20
7.3744666427
 10
8.4895767553
 20
7.3388959641
 10
8.4935242609
 20
7.3028263838
 10
8.4985896862
 20
7.2663108391
 10
8.504765597
 20
7.2294029213
 10
8.5120429292
 20
7.1921567981
 10
8.5204110025
 20
7.1546271332
 10
8.5298575355
 20
7.1168690065
 10
8.540368664
 20
7.0789378334
 10
8.5519289617
 20
7.0408892831
 10
8.5645214621
 20
7.0027791971
 10
8.5781276841
 20
6.9646635071
 10
8.5927276585
 20
6.9265981532
 10
8.608299958
 20
6.8886390015
 10
8.624821728
 20
6.8508417624
 10
8.6422687206
 20
6.8132619085
 10
8.6606153299
 20
6.7759545935
 10
8.6798346297
 20
6.7389745709
 10
8.6998984131
 20
6.702376114
 10
8.7207772336
 20
6.6662129361
 10
8.7424404488
 20
6.6305381118
 10
8.7648562648
 20
6.5954039986
 10
8.7879917834
 20
6.5608621607
 10
8.81181305
 20
6.5269632931
 10
8.8362851036
 20
6.4937571471
 10
8.8613720282
 20
6.4612924571
 10
8.8870370051
 20
6.4296168697
 10
8.9132423675
 20
6.3987768731
 10
8.9399496554
 20
6.3688177293
 10
8.9671196721
 20
6.3397834074
 10
8.994712542
 20
6.3117165194
 10
9.0226877687
 20
6.2846582571
 10
9.0510042947
 20
6.2586483325
 10
9.0796205616
 20
6.2337249186
 10
9.108494571
 20
6.2099245939
 10
9.1375839464
 20
6.1872822888
 10
9.166845995
 20
6.165831234
 10
9.1962377709
 20
6.1456029117
 10
9.2257161376
 20
6.1266270099
 10
9.2552378313
 20
6.1089313784
 10
9.2847595251
 20
6.0925419878
 10
9.3142378917
 20
6.077482892
 10
9.3436296676
 20
6.0637761921
 10
9.3728917163
 20
6.0514420047
 10
9.4019810917
 20
6.0404984319
 10
9.4308551011
 20
6.0309615348
 10
9.459471368
 20
6.0228453103
 10
9.4877878939
 20
6.01616167
 10
9.5157631206
 20
6.010920423
 10
9.5433559905
 20
6.0071292615
 10
9.5705260073
 20
6.0047937498
 10
9.5972332952
 20
6.0039173154
 10
9.6234386576
 20
6.0045012445
 10
9.6491036345
 20
6.0065446804
 10
9.674190559
 20
6.0100446238
 10
9.6986626127
 20
6.0149959381
 10
9.7224838793
 20
6.0213913567
 10
9.7456193979
 20
6.0292214934
 10
9.7680352139
 20
6.0384748563
 10
9.7896984291
 20
6.0491378648
 10
9.8105772496
 20
6.0611948696
 10
9.8306410329
 20
6.0746281753
 10
9.8498603328
 20
6.0894180667
 10
9.868206942
 20
6.1055428375
 10
9.8856539346
 20
6.1229788226
 10
9.9021757047
 20
6.141700432
 10
9.9177480042
 20
6.1616801894
 10
9.9323479786
 20
6.1828887716
 10
9.9459542005
 20
6.2052950521
 10
9.958546701
 20
6.2288661466
 10
9.9701069986
 20
6.2535674614
 10
9.9806181272
 20
6.2793627437
 10
9.9900646602
 20
6.3062141356
 10
9.9984327334
 20
6.3340822287
 10
10.0057100657
 20
6.362926123
 10
10.0118859765
 20
6.3927034859
 10
10.0169514017
 20
6.4233706152
 10
10.0208989073
 20
6.4548825025
 10
10.0237226997
 20
6.4871928998
 10
10.0254186345
 20
6.5202543872
 10
10.0259842228
 20
6.5540184424
 10
10.0254186345
 20
6.5884355119
 10
10.0237226997
 20
6.623455084
 10
10.0208989073
 20
6.6590257626
 10
10.0169514017
 20
6.6950953428
 10
10.0118859765
 20
6.7316108876
 10
10.0057100657
 20
6.7685188053
 10
9.9984327334
 20
6.8057649286
 10
9.9900646602
 20
6.8432945935
 10
9.9806181272
 20
6.8810527201
 10
9.9701069986
 20
6.9189838932
 10
9.958546701
 20
6.9570324435
 10
9.9459542005
 20
6.9951425296
 10
9.9323479786
 20
7.0332582196
 10
9.9177480042
 20
7.0713235735
 10
9.9021757047
 20
7.1092827251
 10
9.8856539346
 20
7.1470799642
 10
9.868206942
 20
7.1846598181
 10
9.8498603328
 20
7.2219671332
 10
9.8306410329
 20
7.2589471558
 10
9.8105772496
 20
7.2955456127
 10
9.7896984291
 20
7.3317087905
 10
9.7680352139
 20
7.3673836149
 10
9.7456193979
 20
7.4025177281
 10
9.7224838793
 20
7.4370595659
 10
9.6986626127
 20
7.4709584335
 10
9.674190559
 20
7.5041645796
 10
9.6491036345
 20
7.5366292695
 10
9.6234386576
 20
7.568304857
 10
9.5972332952
 20
7.5991448535
 10
9.5705260073
 20
7.6291039974
 10
9.5433559905
 20
7.6581383192
 10
9.5157631206
 20
7.6862052073
 10
9.4877878939
 20
7.7132634695
 10
9.459471368
 20
7.7392733942
 10
9.4308551011
 20
7.7641968081
 10
9.4019810917
 20
7.7879971327
 10
9.3728917163
 20
7.8106394378
 10
9.3436296676
 20
7.8320904927
 10
9.3142378917
 20
7.8523188149
 10
9.2847595251
 20
7.8712947167
 10
9.2552378313
 20
7.8889903483
 10
9.2257161376
 20
7.9053797388
 10
9.1962377709
 20
7.9204388347
 10
9.166845995
 20
7.9341455346
 10
9.1375839464
 20
7.946479722
 10
9.108494571
 20
7.9574232948
 10
9.0796205616
 20
7.9669601918
 10
9.0510042947
 20
7.9750764163
 10
9.0226877687
 20
7.9817600567
 10
8.994712542
 20
7.9870013037
 10
8.9671196721
 20
7.9907924651
 10
8.9399496554
 20
7.9931279769
 10
8.9132423675
 20
7.9940044113
 10
8.8870370051
 20
7.9934204821
 10
8.8613720282
 20
7.9913770463
 10
8.8362851036
 20
7.9878771029
 10
8.81181305
 20
7.9829257885
 10
8.7879917834
 20
7.9765303699
 10
8.7648562648
 20
7.9687002333
 10
8.7424404488
 20
7.9594468704
 10
8.7207772336
 20
7.9487838618
 10
8.6998984131
 20
7.9367268571
 10
8.6798346297
 20
7.9232935514
 10
8.6606153299
 20
7.90850366
 10
8.6422687206
 20
7.8923788891
 10
8.624821728
 20
7.8749429041
 10
8.608299958
 20
7.8562212947
 10
8.5927276585
 20
7.8362415373
 10
8.5781276841
 20
7.8150329551
 10
8.5645214621
 20
7.7926266746
 10
8.5519289617
 20
7.76905558
 10
8.540368664
 20
7.7443542653
 10
8.5298575355
 20
7.7185589829
 10
8.5204110025
 20
7.6917075911
 10
8.5120429292
 20
7.6638394979
 10
8.504765597
 20
7.6349956037
 10
8.4985896862
 20
7.6052182407
 10
8.4935242609
 20
7.5745511115
 10
8.4895767553
 20
7.5430392242
 10
8.486752963
 20
7.5107288268
 10
8.4850570281
 20
7.4776673394
 10
8.4844914398
 20
7.4439032843
  0
LWPOLYLINE
  5
14F
330
1F
100
AcDbEntity
  8
0
  6
Continuous
 62
     7
370
     0
100
AcDbPolyline
 90
       63
 70
   128
 43
0.0
 10
10.3017558675
 20
6.7050539431
 10
10.301191987
 20
6.7395743803
 10
10.2995011631
 20
6.7746958087
 10
10.2966858474
 20
6.8103673056
 10
10.2927501218
 20
6.8465371507
 10
10.2876996927
 20
6.8831529012
 10
10.2815418827
 20
6.9201614679
 10
10.2742856202
 20
6.9575091917
 10
10.2659414259
 20
6.9951419221
 10
10.2565213982
 20
7.0330050952
 10
10.2460391951
 20
7.071043813
 10
10.234510015
 20
7.109202923
 10
10.221950574
 20
7.1474270982
 10
10.208379082
 20
7.1856609172
 10
10.1938152165
 20
7.2238489445
 10
10.1782800937
 20
7.2619358112
 10
10.161796238
 20
7.299866295
 10
10.1443875494
 20
7.3375854003
 10
10.1260792689
 20
7.375038438
 10
10.1068979417
 20
7.4121711048
 10
10.0868713789
 20
7.4489295618
 10
10.0660286171
 20
7.4852605128
 10
10.0443998764
 20
7.5211112814
 10
10.0220165162
 20
7.5564298875
 10
9.9989109904
 20
7.5911651224
 10
9.9751167998
 20
7.6252666233
 10
9.9506684437
 20
7.6586849463
 10
9.9256013698
 20
7.6913716381
 10
9.899951923
 20
7.7232793061
 10
9.8737572925
 20
7.7543616872
 10
9.8470554581
 20
7.7845737149
 10
9.8198851349
 20
7.8138715847
 10
9.7922857173
 20
7.8422128174
 10
9.7642972216
 20
7.869556321
 10
9.7359602287
 20
7.8958624501
 10
9.7073158244
 20
7.9210930632
 10
9.6784055404
 20
7.9452115784
 10
9.6492712938
 20
7.9681830261
 10
9.6199553265
 20
7.9899741
 10
9.5905001439
 20
8.0105532049
 10
9.5609484531
 20
8.0298905034
 10
9.5313431012
 20
8.047957958
 10
9.5017270133
 20
8.0647293727
 10
9.4721431298
 20
8.0801804305
 10
9.4426343445
 20
8.094288729
 10
9.4132434423
 20
8.1070338124
 10
9.3840130372
 20
8.1183972015
 10
9.3549855105
 20
8.1283624206
 10
9.3262029494
 20
8.1369150209
 10
9.2977070858
 20
8.1440426022
 10
9.2695392359
 20
8.14973483
 10
9.2417402406
 20
8.1539834512
 10
9.2143504056
 20
8.1567823056
 10
9.1874094436
 20
8.1581273353
 10
9.1609564165
 20
8.15801659
 10
9.1350296785
 20
8.1564502303
 10
9.109666821
 20
8.1534305273
 10
9.0849046178
 20
8.1489618592
 10
9.0607789715
 20
8.1430507053
 10
9.0373248621
 20
8.135705636
 10
9.0145762959
 20
8.1269373011
 10
8.992566256
 20
8.1167584138
 10
8.9739831052
 20
8.1067321532
  0
LWPOLYLINE
  5
150
330
1F
100
AcDbEntity
  8
0
  6
Continuous
 62
     7
370
     0
100
AcDbPolyline
 90
       22
 70
   128
 43
0.0
 10
10.0738937111
 20
6.201424656
 10
10.0868713789
 20
6.2092786739
 10
10.1068979417
 20
6.2229149537
 10
10.1260792689
 20
6.2379013315
 10
10.1443875494
 20
6.2542160784
 10
10.161796238
 20
6.2718355397
 10
10.1782800937
 20
6.2907341688
 10
10.1938152165
 20
6.3108845645
 10
10.208379082
 20
6.3322575106
 10
10.221950574
 20
6.3548220185
 10
10.234510015
 20
6.3785453718
 10
10.2460391951
 20
6.4033931738
 10
10.2565213982
 20
6.4293293976
 10
10.2659414259
 20
6.4563164382
 10
10.2742856202
 20
6.4843151669
 10
10.2815418827
 20
6.5132849883
 10
10.2876996927
 20
6.5431838989
 10
10.2927501218
 20
6.5739685481
 10
10.2966858474
 20
6.6055943011
 10
10.2995011631
 20
6.6380153037
 10
10.301191987
 20
6.6711845484
 10
10.3017558675
 20
6.7050539431
  0
LWPOLYLINE
  5
151
330
1F
100
AcDbEntity
  8
0
  6
Continuous
 62
     7
370
     0
100
AcDbPolyline
 90
      161
 70
   128
 43
0.0
 10
8.5235092328
 20
7.4213787919
 10
8.524073369
 20
7.4542266142
 10
8.5257649078
 20
7.4863724498
 10
8.528581241
 20
7.5177667321
 10
8.532518026
 20
7.5483610533
 10
8.5375691926
 20
7.5781082392
 10
8.5437269522
 20
7.6069624218
 10
8.55098181
 20
7.6348791101
 10
8.5593225795
 20
7.6618152586
 10
8.5687363999
 20
7.6877293336
 10
8.5792087558
 20
7.7125813776
 10
8.5907234994
 20
7.7363330705
 10
8.6032628761
 20
7.7589477889
 10
8.6168075508
 20
7.7803906625
 10
8.6313366388
 20
7.800628628
 10
8.6468277372
 20
7.8196304799
 10
8.6632569598
 20
7.8373669188
 10
8.6805989741
 20
7.8538105962
 10
8.6988270398
 20
7.8689361574
 10
8.7179130506
 20
7.8827202797
 10
8.7378275773
 20
7.8951417091
 10
8.7585399131
 20
7.9061812925
 10
8.7800181211
 20
7.9158220078
 10
8.8022290834
 20
7.9240489897
 10
8.8251385524
 20
7.9308495527
 10
8.8487112033
 20
7.9362132109
 10
8.8729106888
 20
7.9401316939
 10
8.8976996951
 20
7.9425989597
 10
8.9230399992
 20
7.943611204
 10
8.9488925283
 20
7.9431668659
 10
8.9752174197
 20
7.9412666306
 10
9.0019740822
 20
7.9379134281
 10
9.0291212591
 20
7.9331124288
 10
9.0566170914
 20
7.9268710355
 10
9.0844191824
 20
7.919198872
 10
9.1124846634
 20
7.9101077682
 10
9.1407702595
 20
7.8996117419
 10
9.1692323562
 20
7.8877269772
 10
9.1978270672
 20
7.8744717995
 10
9.2265103014
 20
7.8598666475
 10
9.2552378313
 20
7.8439340412
 10
9.2839653613
 20
7.8266985474
 10
9.3126485955
 20
7.8081867421
 10
9.3412433064
 20
7.7884271692
 10
9.3697054032
 20
7.7674502965
 10
9.3979909993
 20
7.7452884688
 10
9.4260564803
 20
7.721975858
 10
9.4538585713
 20
7.6975484104
 10
9.4813544036
 20
7.6720437915
 10
9.5085015804
 20
7.6455013276
 10
9.535258243
 20
7.6179619451
 10
9.5615831344
 20
7.5894681077
 10
9.5874356635
 20
7.5600637511
 10
9.6127759676
 20
7.5297942144
 10
9.6375649738
 20
7.4987061712
 10
9.6617644593
 20
7.4668475569
 10
9.6853371102
 20
7.4342674953
 10
9.7082465792
 20
7.4010162224
 10
9.7304575416
 20
7.3671450092
 10
9.7519357496
 20
7.3327060829
 10
9.7726480854
 20
7.2977525455
 10
9.7925626121
 20
7.2623382931
 10
9.8116486229
 20
7.2265179317
 10
9.8298766886
 20
7.1903466939
 10
9.8472187028
 20
7.1538803529
 10
9.8636479255
 20
7.1171751374
 10
9.8791390239
 20
7.080287644
 10
9.8936681118
 20
7.0432747505
 10
9.9072127866
 20
7.0061935283
 10
9.9197521632
 20
6.9691011539
 10
9.9312669069
 20
6.9320548209
 10
9.9417392628
 20
6.8951116523
 10
9.9511530832
 20
6.8583286115
 10
9.9594938527
 20
6.8217624156
 10
9.9667487105
 20
6.7854694467
 10
9.9729064701
 20
6.7495056662
 10
9.9779576366
 20
6.7139265275
 10
9.9818944216
 20
6.6787868911
 10
9.9847107548
 20
6.6441409397
 10
9.9864022937
 20
6.610042095
 10
9.9869664299
 20
6.5765429348
 10
9.9864022937
 20
6.5436951124
 10
9.9847107548
 20
6.5115492768
 10
9.9818944216
 20
6.4801549946
 10
9.9779576366
 20
6.4495606734
 10
9.9729064701
 20
6.4198134875
 10
9.9667487105
 20
6.3909593048
 10
9.9594938527
 20
6.3630426165
 10
9.9511530832
 20
6.3361064681
 10
9.9417392628
 20
6.310192393
 10
9.9312669069
 20
6.285340349
 10
9.9197521632
 20
6.2615886562
 10
9.9072127866
 20
6.2389739378
 10
9.8936681118
 20
6.2175310642
 10
9.8791390239
 20
6.1972930987
 10
9.8636479255
 20
6.1782912468
 10
9.8472187028
 20
6.1605548079
 10
9.8298766886
 20
6.1441111304
 10
9.8116486229
 20
6.1289855693
 10
9.7925626121
 20
6.115201447
 10
9.7726480854
 20
6.1027800176
 10
9.7519357496
 20
6.0917404342
 10
9.7304575416
 20
6.0820997189
 10
9.7082465792
 20
6.073872737
 10
9.6853371102
 20
6.067072174
 10
9.6617644593
 20
6.0617085158
 10
9.6375649738
 20
6.0577900327
 10
9.6127759676
 20
6.0553227669
 10
9.5874356635
 20
6.0543105227
 10
9.5615831344
 20
6.0547548607
 10
9.535258243
 20
6.056655096
 10
9.5085015804
 20
6.0600082985
 10
9.4813544036
 20
6.0648092978
 10
9.4538585713
 20
6.0710506911
 10
9.4260564803
 20
6.0787228546
 10
9.3979909993
 20
6.0878139585
 10
9.3697054032
 20
6.0983099848
 10
9.3412433064
 20
6.1101947495
 10
9.3126485955
 20
6.1234499271
 10
9.2839653613
 20
6.1380550792
 10
9.2552378313
 20
6.1539876855
 10
9.2265103014
 20
6.1712231793
 10
9.1978270672
 20
6.1897349845
 10
9.1692323562
 20
6.2094945574
 10
9.1407702595
 20
6.2304714302
 10
9.1124846634
 20
6.2526332579
 10
9.0844191824
 20
6.2759458687
 10
9.0566170914
 20
6.3003733162
 10
9.0291212591
 20
6.3258779351
 10
9.0019740822
 20
6.3524203991
 10
8.9752174197
 20
6.3799597816
 10
8.9488925283
 20
6.4084536189
 10
8.9230399992
 20
6.4378579756
 10
8.8976996951
 20
6.4681275123
 10
8.8729106888
 20
6.4992155555
 10
8.8487112033
 20
6.5310741698
 10
8.8251385524
 20
6.5636542314
 10
8.8022290834
 20
6.5969055043
 10
8.7800181211
 20
6.6307767174
 10
8.7585399131
 20
6.6652156438
 10
8.7378275773
 20
6.7001691811
 10
8.7179130506
 20
6.7355834336
 10
8.6988270398
 20
6.7714037949
 10
8.6805989741
 20
6.8075750328
 10
8.6632569598
 20
6.8440413737
 10
8.6468277372
 20
6.8807465893
 10
8.6313366388
 20
6.9176340827
 10
8.6168075508
 20
6.9546469761
 10
8.6032628761
 20
6.9917281983
 10
8.5907234994
 20
7.0288205728
 10
8.5792087558
 20
7.0658669057
 10
8.5687363999
 20
7.1028100744
 10
8.5593225795
 20
7.1395931151
 10
8.55098181
 20
7.1761593111
 10
8.5437269522
 20
7.2124522799
 10
8.5375691926
 20
7.2484160605
 10
8.532518026
 20
7.2839951992
 10
8.528581241
 20
7.3191348356
 10
8.5257649078
 20
7.3537807869
 10
8.524073369
 20
7.3878796317
 10
8.5235092328
 20
7.4213787919
  0
LWPOLYLINE
  5
152
330
1F
100
AcDbEntity
  8
0
  6
Continuous
 62
     7
370
     0
100
AcDbPolyline
 90
      160
 70
   128
 43
0.0
 10
8.5428277493
 20
7.4183905308
 10
8.5433894415
 20
7.3852429895
 10
8.5450736411
 20
7.3514986881
 10
8.5478777184
 20
7.3172103144
 10
8.5517972952
 20
7.2824314056
 10
8.5568262515
 20
7.2472162648
 10
8.5629567352
 20
7.2116198763
 10
8.5701791743
 20
7.1756978196
 10
8.5784822919
 20
7.1395061827
 10
8.5878531234
 20
7.1031014746
 10
8.5982770377
 20
7.066540537
 10
8.6097377588
 20
7.0298804553
 10
8.6222173923
 20
6.99317847
 10
8.6356964528
 20
6.9564918868
 10
8.6501538941
 20
6.9198779875
 10
8.6655671429
 20
6.8833939404
 10
8.681912133
 20
6.8470967109
 10
8.6991633439
 20
6.8110429729
 10
8.7172938396
 20
6.77528902
 10
8.7362753117
 20
6.7398906777
 10
8.7560781227
 20
6.7049032164
 10
8.7766713531
 20
6.6703812648
 10
8.7980228488
 20
6.6363787249
 10
8.8200992721
 20
6.6029486876
 10
8.8428661532
 20
6.5701433499
 10
8.8662879443
 20
6.5380139335
 10
8.8903280752
 20
6.5066106046
 10
8.91494901
 20
6.4759823958
 10
8.940112306
 20
6.4461771294
 10
8.9657786737
 20
6.4172413428
 10
8.9919080382
 20
6.3892202158
 10
9.0184596015
 20
6.3621575001
 10
9.0453919066
 20
6.3360954509
 10
9.0726629018
 20
6.3110747609
 10
9.1002300067
 20
6.2871344971
 10
9.1280501786
 20
6.2643120393
 10
9.1560799795
 20
6.242643022
 10
9.1842756443
 20
6.2221612788
 10
9.2125931487
 20
6.2028987896
 10
9.2409882784
 20
6.1848856305
 10
9.2694166977
 20
6.1681499268
 10
9.297834019
 20
6.1527178094
 10
9.326195872
 20
6.1386133737
 10
9.3544579731
 20
6.1258586421
 10
9.3825761944
 20
6.1144735296
 10
9.4105066326
 20
6.1044758127
 10
9.4382056776
 20
6.0958811017
 10
9.4656300807
 20
6.0887028161
 10
9.4927370219
 20
6.082952164
 10
9.5194841769
 20
6.0786381244
 10
9.5458297832
 20
6.0757674331
 10
9.5717327054
 20
6.0743445724
 10
9.597152499
 20
6.0743717639
 10
9.6220494741
 20
6.0758489651
 10
9.6463847569
 20
6.0787738696
 10
9.6701203509
 20
6.0831419105
 10
9.6932191958
 20
6.0889462676
 10
9.7156452254
 20
6.0961778781
 10
9.7373634241
 20
6.1048254506
 10
9.7583398815
 20
6.1148754831
 10
9.7785418455
 20
6.1263122836
 10
9.797937773
 20
6.1391179949
 10
9.8164973796
 20
6.1532726224
 10
9.8341916866
 20
6.1687540652
 10
9.8509930666
 20
6.1855381511
 10
9.8668752861
 20
6.2035986736
 10
9.881813547
 20
6.2229074334
 10
9.8957845249
 20
6.2434342821
 10
9.9087664059
 20
6.2651471695
 10
9.9207389201
 20
6.2880121935
 10
9.9316833741
 20
6.311993653
 10
9.9415826792
 20
6.3370541039
 10
9.950421379
 20
6.3631544173
 10
9.9581856729
 20
6.3902538406
 10
9.9648634377
 20
6.4183100613
 10
9.9704442471
 20
6.4472792729
 10
9.9749193872
 20
6.4771162434
 10
9.9782818705
 20
6.507774386
 10
9.9805264471
 20
6.5392058316
 10
9.9816496122
 20
6.5713615037
 10
9.9816496122
 20
6.6041911951
 10
9.9805264471
 20
6.6376436461
 10
9.9782818705
 20
6.6716666246
 10
9.9749193872
 20
6.7062070079
 10
9.9704442471
 20
6.7412108651
 10
9.9648634377
 20
6.7766235421
 10
9.9581856729
 20
6.8123897459
 10
9.950421379
 20
6.8484536321
 10
9.9415826792
 20
6.884758891
 10
9.9316833741
 20
6.9212488364
 10
9.9207389201
 20
6.9578664936
 10
9.9087664059
 20
6.9945546883
 10
9.8957845249
 20
7.0312561364
 10
9.881813547
 20
7.0679135328
 10
9.8668752861
 20
7.1044696415
 10
9.8509930666
 20
7.1408673843
 10
9.8341916866
 20
7.1770499306
 10
9.8164973796
 20
7.2129607856
 10
9.797937773
 20
7.2485438787
 10
9.7785418455
 20
7.2837436512
 10
9.7583398815
 20
7.3185051428
 10
9.7373634241
 20
7.3527740775
 10
9.7156452254
 20
7.3864969486
 10
9.6932191958
 20
7.4196211017
 10
9.6701203509
 20
7.4520948173
 10
9.6463847569
 20
7.4838673917
 10
9.6220494741
 20
7.5148892158
 10
9.597152499
 20
7.5451118526
 10
9.5717327054
 20
7.574488113
 10
9.5458297832
 20
7.6029721297
 10
9.5194841769
 20
7.630519428
 10
9.4927370219
 20
7.6570869962
 10
9.4656300807
 20
7.6826333523
 10
9.4382056776
 20
7.7071186085
 10
9.4105066326
 20
7.7305045341
 10
9.3825761944
 20
7.7527546147
 10
9.3544579731
 20
7.7738341094
 10
9.326195872
 20
7.7937101052
 10
9.297834019
 20
7.812351568
 10
9.2694166977
 20
7.8297293915
 10
9.2409882784
 20
7.845816442
 10
9.2125931487
 20
7.8605876018
 10
9.1842756443
 20
7.8740198073
 10
9.1560799795
 20
7.8860920858
 10
9.1280501786
 20
7.8967855878
 10
9.1002300067
 20
7.9060836166
 10
9.0726629018
 20
7.9139716546
 10
9.0453919066
 20
7.9204373855
 10
9.0184596015
 20
7.9254707139
 10
8.9919080382
 20
7.9290637806
 10
8.9657786737
 20
7.9312109757
 10
8.940112306
 20
7.9319089466
 10
8.91494901
 20
7.9311566034
 10
8.8903280752
 20
7.9289551208
 10
8.8662879443
 20
7.9253079362
 10
8.8428661532
 20
7.9202207442
 10
8.8200992721
 20
7.913701488
 10
8.7980228488
 20
7.9057603464
 10
8.7766713531
 20
7.8964097187
 10
8.7560781227
 20
7.8856642048
 10
8.7362753117
 20
7.8735405825
 10
8.7172938396
 20
7.8600577814
 10
8.6991633439
 20
7.8452368533
 10
8.681912133
 20
7.8291009393
 10
8.6655671429
 20
7.8116752337
 10
8.6501538941
 20
7.7929869448
 10
8.6356964528
 20
7.773065252
 10
8.6222173923
 20
7.7519412608
 10
8.6097377588
 20
7.7296479536
 10
8.5982770377
 20
7.7062201389
 10
8.5878531234
 20
7.6816943964
 10
8.5784822919
 20
7.6561090202
 10
8.5701791743
 20
7.6295039588
 10
8.5629567352
 20
7.6019207528
 10
8.5568262515
 20
7.5734024701
 10
8.5517972952
 20
7.5439936387
 10
8.5478777184
 20
7.5137401769
 10
8.5450736411
 20
7.482689322
 10
8.5433894415
 20
7.4508895561
 10
8.5428277493
 20
7.4183905308
  0
ARC
  5
153
330
1F
100
AcDbEntity
  8
0
  6
Continuous
 62
     7
370
     0
100
AcDbCircle
 10
8.6297154785
 20
6.6378544954
 30
0.0
 40
1.673737949627861
100
AcDbArc
 50
2.5807340673
 51
57.4138894
  0
LWPOLYLINE
  5
154
330
1F
100
AcDbEntity
  8
0
  6
Continuous
 62
     7
370
     0
100
AcDbPolyline
 90
       50
 70
   128
 43
0.0
 10
10.3282723718
 20
6.7877152644
 10
10.3277106796
 20
6.8208628057
 10
10.32602648
 20
6.8546071071
 10
10.3232224027
 20
6.8888954808
 10
10.3193028259
 20
6.9236743896
 10
10.3142738696
 20
6.9588895304
 10
10.3081433858
 20
6.9944859189
 10
10.3009209467
 20
7.0304079756
 10
10.2926178292
 20
7.0665996125
 10
10.2832469976
 20
7.1030043205
 10
10.2728230834
 20
7.1395652582
 10
10.2613623622
 20
7.1762253399
 10
10.2488827287
 20
7.2129273252
 10
10.2354036683
 20
7.2496139083
 10
10.2209462269
 20
7.2862278076
 10
10.2055329782
 20
7.3227118548
 10
10.189187988
 20
7.3590090843
 10
10.1719367772
 20
7.3950628223
 10
10.1538062815
 20
7.4308167752
 10
10.1348248094
 20
7.4662151175
 10
10.1150219983
 20
7.5012025788
 10
10.094428768
 20
7.5357245304
 10
10.0730772723
 20
7.5697270703
 10
10.051000849
 20
7.6031571076
 10
10.0282339679
 20
7.6359624453
 10
10.0048121767
 20
7.6680918617
 10
9.9807720459
 20
7.6994951906
 10
9.9561511111
 20
7.7301233994
 10
9.9309878151
 20
7.7599286658
 10
9.9053214473
 20
7.7888644524
 10
9.8791920828
 20
7.8168855793
 10
9.8526405195
 20
7.843948295
 10
9.8257082145
 20
7.8700103443
 10
9.7984372193
 20
7.8950310342
 10
9.7708701143
 20
7.9189712981
 10
9.7430499425
 20
7.9417937559
 10
9.7150201416
 20
7.9634627732
 10
9.6868244768
 20
7.9839445164
 10
9.6585069724
 20
8.0032070055
 10
9.6301118427
 20
8.0212201647
 10
9.6016834234
 20
8.0379558683
 10
9.5732661021
 20
8.0533879857
 10
9.5449042491
 20
8.0674924214
 10
9.5166421479
 20
8.080247153
 10
9.4885239266
 20
8.0916322655
 10
9.4605934885
 20
8.1016299824
 10
9.4328944435
 20
8.1102246935
 10
9.4054700404
 20
8.1174029791
 10
9.3783630992
 20
8.1231536312
 10
9.3626798382
 20
8.1258506152
  0
ARC
  5
155
330
1F
100
AcDbEntity
  8
0
  6
Continuous
 62
     7
370
     0
100
AcDbCircle
 10
9.6036946597
 20
6.7758694801
 30
0.0
 40
0.7246745362101578
100
AcDbArc
 50
340.0379154229
 51
0.9366186332
  0
LINE
  5
156
330
1F
100
AcDbEntity
  8
0
  6
Continuous
 62
     7
370
     0
100
AcDbLine
 10
7.2470058322
 20
2.9230479558
 30
0.0
 11
7.3651160685
 21
2.9230479558
 31
0.0
  0
ARC
  5
157
330
1F
100
AcDbEntity
  8
0
  6
Continuous
 62
     7
370
     0
100
AcDbCircle
 10
12.5879506851
 20
3.9236096742
 30
0.0
 40
5.433858267716535
100
AcDbArc
 50
180.0059228809
 51
190.6106861717
  0
ARC
  5
158
330
1F
100
AcDbEntity
  8
0
  6
Continuous
 62
     7
370
     0
100
AcDbCircle
 10
12.5879506851
 20
3.9224862374
 30
0.0
 40
5.433858267716535
100
AcDbArc
 50
169.3893138283
 51
179.9940771191
  0
LINE
  5
159
330
1F
100
AcDbEntity
  8
0
  6
Continuous
 62
     7
370
     0
100
AcDbLine
 10
7.3651160685
 20
4.9230479558
 30
0.0
 11
7.2470058322
 21
4.9230479558
 31
0.0
  0
LINE
  5
15A
330
1F
100
AcDbEntity
  8
0
  6
Continuous
 62
     7
370
     0
100
AcDbLine
 10
7.3651160685
 20
2.9230479558
 30
0.0
 11
7.3651160685
 21
4.9230479558
 31
0.0
  0
LINE
  5
15B
330
1F
100
AcDbEntity
  8
0
  6
Continuous
 62
     7
370
     0
100
AcDbLine
 10
7.2409870917
 20
4.8903684639
 30
0.0
 11
7.2309870917
 21
4.8730479558
 31
0.0
  0
LINE
  5
15C
330
1F
100
AcDbEntity
  8
0
  6
Continuous
 62
     7
370
     0
100
AcDbLine
 10
7.2309870917
 20
2.9730479558
 30
0.0
 11
7.2409870917
 21
2.9557274477
 31
0.0
  0
LINE
  5
15D
330
1F
100
AcDbEntity
  8
0
  6
Continuous
 62
     7
370
     0
100
AcDbLine
 10
7.2309870917
 20
2.9730479558
 30
0.0
 11
7.2309870917
 21
3.0126998365
 31
0.0
  0
LINE
  5
15E
330
1F
100
AcDbEntity
  8
0
  6
Continuous
 62
     7
370
     0
100
AcDbLine
 10
7.2309870917
 20
4.8333960751
 30
0.0
 11
7.2309870917
 21
4.8730479558
 31
0.0
  0
LINE
  5
15F
330
1F
100
AcDbEntity
  8
0
  6
Continuous
 62
     7
370
     0
100
AcDbLine
 10
7.2409870917
 20
2.9155479558
 30
0.0
 11
7.2236665836
 21
2.9055479558
 31
0.0
  0
LINE
  5
160
330
1F
100
AcDbEntity
  8
0
  6
Continuous
 62
     7
370
     0
100
AcDbLine
 10
7.2236665836
 20
4.9405479558
 30
0.0
 11
7.2409870917
 21
4.9305479558
 31
0.0
  0
LINE
  5
161
330
1F
100
AcDbEntity
  8
0
  6
Continuous
 62
     7
370
     0
100
AcDbLine
 10
7.2309870917
 20
2.9730479558
 30
0.0
 11
7.1583075998
 21
2.9730479558
 31
0.0
  0
LINE
  5
162
330
1F
100
AcDbEntity
  8
0
  6
Continuous
 62
     7
370
     0
100
AcDbLine
 10
7.1583075998
 20
3.7096198625
 30
0.0
 11
7.1583075998
 21
2.9730479558
 31
0.0
  0
LINE
  5
163
330
1F
100
AcDbEntity
  8
0
  6
Continuous
 62
     7
370
     0
100
AcDbLine
 10
7.1583075998
 20
4.8730479558
 30
0.0
 11
7.1583075998
 21
4.1364760491
 31
0.0
  0
LINE
  5
164
330
1F
100
AcDbEntity
  8
0
  6
Continuous
 62
     7
370
     0
100
AcDbLine
 10
7.1583075998
 20
4.8730479558
 30
0.0
 11
7.2309870917
 21
4.8730479558
 31
0.0
  0
LINE
  5
165
330
1F
100
AcDbEntity
  8
0
  6
Continuous
 62
     7
370
     0
100
AcDbLine
 10
7.1509870917
 20
2.9055479558
 30
0.0
 11
7.2236665836
 21
2.9055479558
 31
0.0
  0
LINE
  5
166
330
1F
100
AcDbEntity
  8
0
  6
Continuous
 62
     7
370
     0
100
AcDbLine
 10
7.2236665836
 20
4.9405479558
 30
0.0
 11
7.1509870917
 21
4.9405479558
 31
0.0
  0
LINE
  5
167
330
1F
100
AcDbEntity
  8
0
  6
Continuous
 62
     7
370
     0
100
AcDbLine
 10
7.1509870917
 20
2.9055479558
 30
0.0
 11
7.1409870917
 21
2.9228684639
 31
0.0
  0
LINE
  5
168
330
1F
100
AcDbEntity
  8
0
  6
Continuous
 62
     7
370
     0
100
AcDbLine
 10
7.1409870917
 20
2.9630479558
 30
0.0
 11
7.1409870917
 21
2.9228684639
 31
0.0
  0
LINE
  5
169
330
1F
100
AcDbEntity
  8
0
  6
Continuous
 62
     7
370
     0
100
AcDbLine
 10
7.1409870917
 20
2.9630479558
 30
0.0
 11
7.1583075998
 21
2.9730479558
 31
0.0
  0
LINE
  5
16A
330
1F
100
AcDbEntity
  8
0
  6
Continuous
 62
     7
370
     0
100
AcDbLine
 10
7.2409870917
 20
2.9155479558
 30
0.0
 11
7.2409870917
 21
2.9557274477
 31
0.0
  0
LINE
  5
16B
330
1F
100
AcDbEntity
  8
0
  6
Continuous
 62
     7
370
     0
100
AcDbLine
 10
7.1583075998
 20
4.8730479558
 30
0.0
 11
7.1409870917
 21
4.8830479558
 31
0.0
  0
LINE
  5
16C
330
1F
100
AcDbEntity
  8
0
  6
Continuous
 62
     7
370
     0
100
AcDbLine
 10
7.1409870917
 20
4.9232274477
 30
0.0
 11
7.1409870917
 21
4.8830479558
 31
0.0
  0
LINE
  5
16D
330
1F
100
AcDbEntity
  8
0
  6
Continuous
 62
     7
370
     0
100
AcDbLine
 10
7.1409870917
 20
4.9232274477
 30
0.0
 11
7.1509870917
 21
4.9405479558
 31
0.0
  0
LINE
  5
16E
330
1F
100
AcDbEntity
  8
0
  6
Continuous
 62
     7
370
     0
100
AcDbLine
 10
7.2409870917
 20
4.8903684639
 30
0.0
 11
7.2409870917
 21
4.9305479558
 31
0.0
  0
LINE
  5
16F
330
1F
100
AcDbEntity
  8
0
  6
Continuous
 62
     7
370
     0
100
AcDbLine
 10
7.1541421615
 20
3.9380479558
 30
0.0
 11
7.1409870917
 21
3.9380479558
 31
0.0
  0
LINE
  5
170
330
1F
100
AcDbEntity
  8
0
  6
Continuous
 62
     7
370
     0
100
AcDbLine
 10
7.1409870917
 20
3.9380479558
 30
0.0
 11
7.1409870917
 21
4.8830479558
 31
0.0
  0
LINE
  5
171
330
1F
100
AcDbEntity
  8
0
  6
Continuous
 62
     7
370
     0
100
AcDbLine
 10
7.1409870917
 20
3.9080479558
 30
0.0
 11
7.1542854356
 21
3.9080479558
 31
0.0
  0
LINE
  5
172
330
1F
100
AcDbEntity
  8
0
  6
Continuous
 62
     7
370
     0
100
AcDbLine
 10
7.1409870917
 20
2.9630479558
 30
0.0
 11
7.1409870917
 21
3.9080479558
 31
0.0
  0
LINE
  5
173
330
1F
100
AcDbEntity
  8
0
  6
Continuous
 62
     7
370
     0
100
AcDbLine
 10
7.1816943674
 20
5.0230479558
 30
0.0
 11
7.1462142056
 21
5.0230479558
 31
0.0
  0
LINE
  5
174
330
1F
100
AcDbEntity
  8
0
  6
Continuous
 62
     7
370
     0
100
AcDbLine
 10
7.1910156059
 20
5.0230479558
 30
0.0
 11
7.1816943674
 21
5.0230479558
 31
0.0
  0
LINE
  5
175
330
1F
100
AcDbEntity
  8
0
  6
Continuous
 62
     7
370
     0
100
AcDbLine
 10
7.2101160685
 20
5.0230479558
 30
0.0
 11
7.1910156059
 21
5.0230479558
 31
0.0
  0
LINE
  5
176
330
1F
100
AcDbEntity
  8
0
  6
Continuous
 62
     7
370
     0
100
AcDbLine
 10
7.2193468377
 20
5.0230479558
 30
0.0
 11
7.2101160685
 21
5.0230479558
 31
0.0
  0
LINE
  5
177
330
1F
100
AcDbEntity
  8
0
  6
Continuous
 62
     7
370
     0
100
AcDbLine
 10
7.2439622223
 20
5.0230479558
 30
0.0
 11
7.2193468377
 21
5.0230479558
 31
0.0
  0
LINE
  5
178
330
1F
100
AcDbEntity
  8
0
  6
Continuous
 62
     7
370
     0
100
AcDbLine
 10
7.2531929915
 20
5.0230479558
 30
0.0
 11
7.2439622223
 21
5.0230479558
 31
0.0
  0
LINE
  5
179
330
1F
100
AcDbEntity
  8
0
  6
Continuous
 62
     7
370
     0
100
AcDbLine
 10
7.2808852992
 20
5.0230479558
 30
0.0
 11
7.2531929915
 21
5.0230479558
 31
0.0
  0
LINE
  5
17A
330
1F
100
AcDbEntity
  8
0
  6
Continuous
 62
     7
370
     0
100
AcDbLine
 10
7.2901160685
 20
5.0230479558
 30
0.0
 11
7.2808852992
 21
5.0230479558
 31
0.0
  0
LINE
  5
17B
330
1F
100
AcDbEntity
  8
0
  6
Continuous
 62
     7
370
     0
100
AcDbLine
 10
7.3851160685
 20
5.0230479558
 30
0.0
 11
7.2901160685
 21
5.0230479558
 31
0.0
  0
LINE
  5
17C
330
1F
100
AcDbEntity
  8
0
  6
Continuous
 62
     7
370
     0
100
AcDbLine
 10
7.3851160685
 20
5.0230479558
 30
0.0
 11
7.3951160685
 21
5.0130479558
 31
0.0
  0
LINE
  5
17D
330
1F
100
AcDbEntity
  8
0
  6
Continuous
 62
     7
370
     0
100
AcDbLine
 10
7.3951160685
 20
4.9305479558
 30
0.0
 11
7.3951160685
 21
5.0130479558
 31
0.0
  0
LINE
  5
17E
330
1F
100
AcDbEntity
  8
0
  6
Continuous
 62
     7
370
     0
100
AcDbLine
 10
7.4051160685
 20
4.9305479558
 30
0.0
 11
7.3951160685
 21
4.9305479558
 31
0.0
  0
LINE
  5
17F
330
1F
100
AcDbEntity
  8
0
  6
Continuous
 62
     7
370
     0
100
AcDbLine
 10
7.4051160685
 20
4.9405479558
 30
0.0
 11
7.4051160685
 21
4.9305479558
 31
0.0
  0
LINE
  5
180
330
1F
100
AcDbEntity
  8
0
  6
Continuous
 62
     7
370
     0
100
AcDbLine
 10
7.5051160685
 20
4.9405479558
 30
0.0
 11
7.4051160685
 21
4.9405479558
 31
0.0
  0
LINE
  5
181
330
1F
100
AcDbEntity
  8
0
  6
Continuous
 62
     7
370
     0
100
AcDbLine
 10
7.5051160685
 20
4.9405479558
 30
0.0
 11
7.5151160685
 21
4.9232274477
 31
0.0
  0
LINE
  5
182
330
1F
100
AcDbEntity
  8
0
  6
Continuous
 62
     7
370
     0
100
AcDbLine
 10
7.5151160685
 20
4.8730479558
 30
0.0
 11
7.5151160685
 21
4.9232274477
 31
0.0
  0
LINE
  5
183
330
1F
100
AcDbEntity
  8
0
  6
Continuous
 62
     7
370
     0
100
AcDbLine
 10
7.3651160685
 20
4.8730479558
 30
0.0
 11
7.5151160685
 21
4.8730479558
 31
0.0
  0
LINE
  5
184
330
1F
100
AcDbEntity
  8
0
  6
Continuous
 62
     7
370
     0
100
AcDbLine
 10
7.3651160685
 20
4.9505479558
 30
0.0
 11
7.3651160685
 21
4.8730479558
 31
0.0
  0
LINE
  5
185
330
1F
100
AcDbEntity
  8
0
  6
Continuous
 62
     7
370
     0
100
AcDbLine
 10
7.3551160685
 20
4.9505479558
 30
0.0
 11
7.3651160685
 21
4.9505479558
 31
0.0
  0
LINE
  5
186
330
1F
100
AcDbEntity
  8
0
  6
Continuous
 62
     7
370
     0
100
AcDbLine
 10
7.3551160685
 20
4.9405479558
 30
0.0
 11
7.3551160685
 21
4.9505479558
 31
0.0
  0
LINE
  5
187
330
1F
100
AcDbEntity
  8
0
  6
Continuous
 62
     7
370
     0
100
AcDbLine
 10
7.0151160685
 20
4.9405479558
 30
0.0
 11
7.3551160685
 21
4.9405479558
 31
0.0
  0
LINE
  5
188
330
1F
100
AcDbEntity
  8
0
  6
Continuous
 62
     7
370
     0
100
AcDbLine
 10
7.0151160685
 20
4.9405479558
 30
0.0
 11
7.0051160685
 21
4.9578684639
 31
0.0
  0
LINE
  5
189
330
1F
100
AcDbEntity
  8
0
  6
Continuous
 62
     7
370
     0
100
AcDbLine
 10
7.0051160685
 20
5.0130479558
 30
0.0
 11
7.0051160685
 21
4.9578684639
 31
0.0
  0
LINE
  5
18A
330
1F
100
AcDbEntity
  8
0
  6
Continuous
 62
     7
370
     0
100
AcDbLine
 10
7.0051160685
 20
5.0130479558
 30
0.0
 11
7.0151160685
 21
5.0230479558
 31
0.0
  0
LINE
  5
18B
330
1F
100
AcDbEntity
  8
0
  6
Continuous
 62
     7
370
     0
100
AcDbLine
 10
7.1111417095
 20
5.0230479558
 30
0.0
 11
7.0151160685
 21
5.0230479558
 31
0.0
  0
LINE
  5
18C
330
1F
100
AcDbEntity
  8
0
  6
Continuous
 62
     7
370
     0
100
AcDbLine
 10
7.1213981197
 20
5.0230479558
 30
0.0
 11
7.1111417095
 21
5.0230479558
 31
0.0
  0
LINE
  5
18D
330
1F
100
AcDbEntity
  8
0
  6
Continuous
 62
     7
370
     0
100
AcDbLine
 10
7.1376029228
 20
5.0230479558
 30
0.0
 11
7.1213981197
 21
5.0230479558
 31
0.0
  0
LINE
  5
18E
330
1F
100
AcDbEntity
  8
0
  6
Continuous
 62
     7
370
     0
100
AcDbLine
 10
7.1462142056
 20
5.0230479558
 30
0.0
 11
7.1376029228
 21
5.0230479558
 31
0.0
  0
LINE
  5
18F
330
1F
100
AcDbEntity
  8
0
  6
Continuous
 62
     7
370
     0
100
AcDbLine
 10
7.5151160685
 20
2.9228684639
 30
0.0
 11
7.5051160685
 21
2.9055479558
 31
0.0
  0
LINE
  5
190
330
1F
100
AcDbEntity
  8
0
  6
Continuous
 62
     7
370
     0
100
AcDbLine
 10
7.5151160685
 20
2.9730479558
 30
0.0
 11
7.5151160685
 21
4.8730479558
 31
0.0
  0
LINE
  5
191
330
1F
100
AcDbEntity
  8
0
  6
Continuous
 62
     7
370
     0
100
AcDbLine
 10
7.5151160685
 20
2.9730479558
 30
0.0
 11
7.3651160685
 21
2.9730479558
 31
0.0
  0
LINE
  5
192
330
1F
100
AcDbEntity
  8
0
  6
Continuous
 62
     7
370
     0
100
AcDbLine
 10
7.3551160685
 20
2.9055479558
 30
0.0
 11
7.0151160685
 21
2.9055479558
 31
0.0
  0
LINE
  5
193
330
1F
100
AcDbEntity
  8
0
  6
Continuous
 62
     7
370
     0
100
AcDbLine
 10
7.3551160685
 20
2.8955479558
 30
0.0
 11
7.3551160685
 21
2.9055479558
 31
0.0
  0
LINE
  5
194
330
1F
100
AcDbEntity
  8
0
  6
Continuous
 62
     7
370
     0
100
AcDbLine
 10
7.3651160685
 20
2.8955479558
 30
0.0
 11
7.3551160685
 21
2.8955479558
 31
0.0
  0
LINE
  5
195
330
1F
100
AcDbEntity
  8
0
  6
Continuous
 62
     7
370
     0
100
AcDbLine
 10
7.3651160685
 20
2.9730479558
 30
0.0
 11
7.3651160685
 21
2.8955479558
 31
0.0
  0
LINE
  5
196
330
1F
100
AcDbEntity
  8
0
  6
Continuous
 62
     7
370
     0
100
AcDbLine
 10
7.5151160685
 20
2.9228684639
 30
0.0
 11
7.5151160685
 21
2.9730479558
 31
0.0
  0
LINE
  5
197
330
1F
100
AcDbEntity
  8
0
  6
Continuous
 62
     7
370
     0
100
AcDbLine
 10
7.4051160685
 20
2.9055479558
 30
0.0
 11
7.5051160685
 21
2.9055479558
 31
0.0
  0
LINE
  5
198
330
1F
100
AcDbEntity
  8
0
  6
Continuous
 62
     7
370
     0
100
AcDbLine
 10
7.4051160685
 20
2.9155479558
 30
0.0
 11
7.4051160685
 21
2.9055479558
 31
0.0
  0
LINE
  5
199
330
1F
100
AcDbEntity
  8
0
  6
Continuous
 62
     7
370
     0
100
AcDbLine
 10
7.3951160685
 20
2.9155479558
 30
0.0
 11
7.4051160685
 21
2.9155479558
 31
0.0
  0
LINE
  5
19A
330
1F
100
AcDbEntity
  8
0
  6
Continuous
 62
     7
370
     0
100
AcDbLine
 10
7.3951160685
 20
2.8330479558
 30
0.0
 11
7.3951160685
 21
2.9155479558
 31
0.0
  0
LINE
  5
19B
330
1F
100
AcDbEntity
  8
0
  6
Continuous
 62
     7
370
     0
100
AcDbLine
 10
7.3951160685
 20
2.8330479558
 30
0.0
 11
7.3851160685
 21
2.8230479558
 31
0.0
  0
LINE
  5
19C
330
1F
100
AcDbEntity
  8
0
  6
Continuous
 62
     7
370
     0
100
AcDbLine
 10
7.2401160685
 20
2.8230479558
 30
0.0
 11
7.3851160685
 21
2.8230479558
 31
0.0
  0
LINE
  5
19D
330
1F
100
AcDbEntity
  8
0
  6
Continuous
 62
     7
370
     0
100
AcDbLine
 10
7.2195966342
 20
2.8230479558
 30
0.0
 11
7.2401160685
 21
2.8230479558
 31
0.0
  0
LINE
  5
19E
330
1F
100
AcDbEntity
  8
0
  6
Continuous
 62
     7
370
     0
100
AcDbLine
 10
7.1963299477
 20
2.8230479558
 30
0.0
 11
7.2195966342
 21
2.8230479558
 31
0.0
  0
LINE
  5
19F
330
1F
100
AcDbEntity
  8
0
  6
Continuous
 62
     7
370
     0
100
AcDbLine
 10
7.1663182157
 20
2.8230479558
 30
0.0
 11
7.1963299477
 21
2.8230479558
 31
0.0
  0
LINE
  5
1A0
330
1F
100
AcDbEntity
  8
0
  6
Continuous
 62
     7
370
     0
100
AcDbLine
 10
7.0151160685
 20
2.8230479558
 30
0.0
 11
7.1663182157
 21
2.8230479558
 31
0.0
  0
LINE
  5
1A1
330
1F
100
AcDbEntity
  8
0
  6
Continuous
 62
     7
370
     0
100
AcDbLine
 10
7.0151160685
 20
2.8230479558
 30
0.0
 11
7.0051160685
 21
2.8330479558
 31
0.0
  0
LINE
  5
1A2
330
1F
100
AcDbEntity
  8
0
  6
Continuous
 62
     7
370
     0
100
AcDbLine
 10
7.0051160685
 20
2.8882274477
 30
0.0
 11
7.0051160685
 21
2.8330479558
 31
0.0
  0
LINE
  5
1A3
330
1F
100
AcDbEntity
  8
0
  6
Continuous
 62
     7
370
     0
100
AcDbLine
 10
7.0051160685
 20
2.8882274477
 30
0.0
 11
7.0151160685
 21
2.9055479558
 31
0.0
  0
LINE
  5
1A4
330
1F
100
AcDbEntity
  8
0
  6
Continuous
 62
     7
370
     0
100
AcDbLine
 10
7.0151160685
 20
4.9405479558
 30
0.0
 11
7.0151160685
 21
2.9055479558
 31
0.0
  0
LINE
  5
1A5
330
1F
100
AcDbEntity
  8
0
  6
Continuous
 62
     7
370
     0
100
AcDbLine
 10
7.3551160685
 20
2.9055479558
 30
0.0
 11
7.3551160685
 21
2.9230479558
 31
0.0
  0
LINE
  5
1A6
330
1F
100
AcDbEntity
  8
0
  6
Continuous
 62
     7
370
     0
100
AcDbLine
 10
7.3551160685
 20
4.9230479558
 30
0.0
 11
7.3551160685
 21
4.9405479558
 31
0.0
  0
LINE
  5
1A7
330
1F
100
AcDbEntity
  8
0
  6
Continuous
 62
     7
370
     0
100
AcDbLine
 10
7.0051160685
 20
2.8882274477
 30
0.0
 11
7.0051160685
 21
4.9578684639
 31
0.0
  0
HATCH
  5
1A8
330
1F
100
AcDbEntity
  8
0
  6
Continuous
 62
     7
370
     0
100
AcDbHatch
 10
0.0
 20
0.0
 30
0.0
210
0.0
220
0.0
230
1.0
  2
ANSI31
 70
     0
 71
     0
 91
        1
 92
        0
 93
       20
 72
     1
 10
7.015116068451808
 20
2.905547955778017
 11
7.005116068451808
 21
2.888227447702329
 72
     1
 10
7.005116068451808
 20
2.888227447702329
 11
7.005116068451808
 21
2.833047955778017
 72
     1
 10
7.005116068451808
 20
2.833047955778017
 11
7.015116068451807
 21
2.823047955778017
 72
     1
 10
7.015116068451807
 20
2.823047955778017
 11
7.166318215676346
 21
2.823047955778017
 72
     1
 10
7.166318215676346
 20
2.823047955778017
 11
7.196329947743787
 21
2.823047955778017
 72
     1
 10
7.196329947743787
 20
2.823047955778017
 11
7.219596634182399
 21
2.823047955778017
 72
     1
 10
7.219596634182399
 20
2.823047955778017
 11
7.240116068451807
 21
2.823047955778017
 72
     1
 10
7.240116068451807
 20
2.823047955778017
 11
7.385116068451809
 21
2.823047955778017
 72
     1
 10
7.385116068451809
 20
2.823047955778017
 11
7.395116068451808
 21
2.833047955778017
 72
     1
 10
7.395116068451808
 20
2.833047955778017
 11
7.395116068451808
 21
2.915547955778018
 72
     1
 10
7.395116068451808
 20
2.915547955778018
 11
7.405116068451807
 21
2.915547955778018
 72
     1
 10
7.405116068451807
 20
2.915547955778018
 11
7.405116068451807
 21
2.905547955778017
 72
     1
 10
7.405116068451807
 20
2.905547955778017
 11
7.505116068451808
 21
2.905547955778017
 72
     1
 10
7.505116068451808
 20
2.905547955778017
 11
7.515116068451809
 21
2.922868463853707
 72
     1
 10
7.515116068451809
 20
2.922868463853707
 11
7.515116068451809
 21
2.973047955778018
 72
     1
 10
7.515116068451809
 20
2.973047955778018
 11
7.365116068451808
 21
2.973047955778018
 72
     1
 10
7.365116068451808
 20
2.973047955778018
 11
7.365116068451808
 21
2.895547955778018
 72
     1
 10
7.365116068451808
 20
2.895547955778018
 11
7.355116068451808
 21
2.895547955778018
 72
     1
 10
7.355116068451808
 20
2.895547955778018
 11
7.355116068451808
 21
2.905547955778017
 72
     1
 10
7.355116068451808
 20
2.905547955778017
 11
7.015116068451808
 21
2.905547955778017
 97
        0
 75
     0
 76
     1
 52
0.0
 41
1.0
 77
     0
 78
     1
 53
45.0
 43
0.0
 44
0.0
 45
-0.0883883476483184
 46
0.0883883476483184
 79
     0
 98
        1
 10
0.0
 20
0.0
  0
HATCH
  5
1A9
330
1F
100
AcDbEntity
  8
0
  6
Continuous
 62
     7
370
     0
100
AcDbHatch
 10
0.0
 20
0.0
 30
0.0
210
0.0
220
0.0
230
1.0
  2
ANSI31
 70
     0
 71
     0
 91
        1
 92
        0
 93
       28
 72
     1
 10
7.14621420557148
 20
5.023047955778019
 11
7.13760292279953
 21
5.023047955778019
 72
     1
 10
7.13760292279953
 20
5.023047955778019
 11
7.121398119733859
 21
5.023047955778019
 72
     1
 10
7.121398119733859
 20
5.023047955778019
 11
7.111141709477448
 21
5.023047955778019
 72
     1
 10
7.111141709477448
 20
5.023047955778019
 11
7.015116068451807
 21
5.023047955778019
 72
     1
 10
7.015116068451807
 20
5.023047955778019
 11
7.005116068451808
 21
5.013047955778019
 72
     1
 10
7.005116068451808
 20
5.013047955778019
 11
7.005116068451808
 21
4.957868463853707
 72
     1
 10
7.005116068451808
 20
4.957868463853707
 11
7.015116068451808
 21
4.940547955778018
 72
     1
 10
7.015116068451808
 20
4.940547955778018
 11
7.355116068451808
 21
4.940547955778018
 72
     1
 10
7.355116068451808
 20
4.940547955778018
 11
7.355116068451808
 21
4.950547955778019
 72
     1
 10
7.355116068451808
 20
4.950547955778019
 11
7.365116068451808
 21
4.950547955778019
 72
     1
 10
7.365116068451808
 20
4.950547955778019
 11
7.365116068451808
 21
4.873047955778018
 72
     1
 10
7.365116068451808
 20
4.873047955778018
 11
7.515116068451809
 21
4.873047955778018
 72
     1
 10
7.515116068451809
 20
4.873047955778018
 11
7.515116068451809
 21
4.923227447702329
 72
     1
 10
7.515116068451809
 20
4.923227447702329
 11
7.505116068451808
 21
4.940547955778018
 72
     1
 10
7.505116068451808
 20
4.940547955778018
 11
7.405116068451807
 21
4.940547955778018
 72
     1
 10
7.405116068451807
 20
4.940547955778018
 11
7.405116068451807
 21
4.930547955778018
 72
     1
 10
7.405116068451807
 20
4.930547955778018
 11
7.395116068451808
 21
4.930547955778018
 72
     1
 10
7.395116068451808
 20
4.930547955778018
 11
7.395116068451808
 21
5.013047955778018
 72
     1
 10
7.395116068451808
 20
5.013047955778018
 11
7.385116068451809
 21
5.023047955778019
 72
     1
 10
7.385116068451809
 20
5.023047955778019
 11
7.290116068451807
 21
5.023047955778019
 72
     1
 10
7.290116068451807
 20
5.023047955778019
 11
7.280885299221038
 21
5.023047955778019
 72
     1
 10
7.280885299221038
 20
5.023047955778019
 11
7.253192991528731
 21
5.023047955778019
 72
     1
 10
7.253192991528731
 20
5.023047955778019
 11
7.243962222297961
 21
5.023047955778019
 72
     1
 10
7.243962222297961
 20
5.023047955778019
 11
7.219346837682576
 21
5.023047955778019
 72
     1
 10
7.219346837682576
 20
5.023047955778019
 11
7.210116068451807
 21
5.023047955778019
 72
     1
 10
7.210116068451807
 20
5.023047955778019
 11
7.191015605930588
 21
5.023047955778019
 72
     1
 10
7.191015605930588
 20
5.023047955778019
 11
7.181694367368129
 21
5.023047955778019
 72
     1
 10
7.181694367368129
 20
5.023047955778019
 11
7.14621420557148
 21
5.023047955778019
 97
        0
 75
     0
 76
     1
 52
0.0
 41
1.0
 77
     0
 78
     1
 53
45.0
 43
0.0
 44
0.0
 45
-0.0883883476483184
 46
0.0883883476483184
 79
     0
 98
        1
 10
0.0
 20
0.0
  0
HATCH
  5
1AA
330
1F
100
AcDbEntity
  8
0
  6
Continuous
 62
     7
370
     0
100
AcDbHatch
 10
0.0
 20
0.0
 30
0.0
210
0.0
220
0.0
230
1.0
  2
ANSI31
 70
     0
 71
     0
 91
        1
 92
        0
 93
        8
 72
     1
 10
7.240987091677455
 20
2.955727447702329
 11
7.230987091677456
 21
2.973047955778018
 72
     1
 10
7.230987091677456
 20
2.973047955778018
 11
7.158307599753146
 21
2.973047955778018
 72
     1
 10
7.158307599753146
 20
2.973047955778018
 11
7.140987091677455
 21
2.963047955778017
 72
     1
 10
7.140987091677455
 20
2.963047955778017
 11
7.140987091677455
 21
2.922868463853706
 72
     1
 10
7.140987091677455
 20
2.922868463853706
 11
7.150987091677454
 21
2.905547955778017
 72
     1
 10
7.150987091677454
 20
2.905547955778017
 11
7.223666583601764
 21
2.905547955778017
 72
     1
 10
7.223666583601764
 20
2.905547955778017
 11
7.240987091677455
 21
2.915547955778018
 72
     1
 10
7.240987091677455
 20
2.915547955778018
 11
7.240987091677455
 21
2.955727447702329
 97
        0
 75
     0
 76
     1
 52
90.0
 41
0.25
 77
     0
 78
     1
 53
135.0000000000002
 43
0.0
 44
0.0
 45
-0.0220970869120795
 46
-0.0220970869120797
 79
     0
 98
        1
 10
0.0
 20
0.0
  0
HATCH
  5
1AB
330
1F
100
AcDbEntity
  8
0
  6
Continuous
 62
     7
370
     0
100
AcDbHatch
 10
0.0
 20
0.0
 30
0.0
210
0.0
220
0.0
230
1.0
  2
ANSI31
 70
     0
 71
     0
 91
        1
 92
        0
 93
        8
 72
     1
 10
7.230987091677456
 20
4.873047955778018
 11
7.240987091677455
 21
4.890368463853706
 72
     1
 10
7.240987091677455
 20
4.890368463853706
 11
7.240987091677455
 21
4.930547955778017
 72
     1
 10
7.240987091677455
 20
4.930547955778017
 11
7.223666583601764
 21
4.940547955778017
 72
     1
 10
7.223666583601764
 20
4.940547955778017
 11
7.150987091677454
 21
4.940547955778017
 72
     1
 10
7.150987091677454
 20
4.940547955778017
 11
7.140987091677455
 21
4.92322744770233
 72
     1
 10
7.140987091677455
 20
4.92322744770233
 11
7.140987091677455
 21
4.883047955778019
 72
     1
 10
7.140987091677455
 20
4.883047955778019
 11
7.158307599753146
 21
4.873047955778017
 72
     1
 10
7.158307599753146
 20
4.873047955778017
 11
7.230987091677456
 21
4.873047955778018
 97
        0
 75
     0
 76
     1
 52
90.0
 41
0.25
 77
     0
 78
     1
 53
135.0000000000002
 43
0.0
 44
0.0
 45
-0.0220970869120795
 46
-0.0220970869120797
 79
     0
 98
        1
 10
0.0
 20
0.0
  0
HATCH
  5
1AC
330
1F
100
AcDbEntity
  8
0
  6
Continuous
 62
     7
370
     0
100
AcDbHatch
 10
0.0
 20
0.0
 30
0.0
210
0.0
220
0.0
230
1.0
  2
ANSI31
 70
     0
 71
     0
 91
        1
 92
        0
 93
        5
 72
     1
 10
7.365116068451808
 20
2.923047955778018
 11
7.365116068451808
 21
4.923047955778018
 72
     1
 10
7.365116068451808
 20
4.923047955778018
 11
7.247005832231336
 21
4.923047955778018
 72
     2
 10
12.58795068508762
 20
3.922486237352174
 40
5.433858267716536
 50
169.3893138283142
 51
179.9940771191395
 73
     1
 72
     2
 10
12.58795068508762
 20
3.923609674203862
 40
5.433858267716536
 50
180.0059228808614
 51
190.6106861716866
 73
     1
 72
     1
 10
7.247005832231336
 20
2.923047955778018
 11
7.365116068451808
 21
2.923047955778018
 97
        0
 75
     0
 76
     1
 52
0.0
 41
1.0
 77
     0
 78
     1
 53
45.0
 43
0.0
 44
0.0
 45
-0.0883883476483184
 46
0.0883883476483184
 79
     0
 98
        1
 10
0.0
 20
0.0
  0
DIMENSION
  5
1AD
330
1F
100
AcDbEntity
  8
0
  6
Continuous
 62
     7
370
     0
100
AcDbDimension
  2
_D_1
 10
7.5151160685
 20
5.5982900809
 30
0.0
 11
7.2601160685
 21
5.5982900809
 31
0.0
 70
   160
  1
<>
 71
     2
 42
-1.0
  3
SLDDIMSTYLE1
100
AcDbAlignedDimension
 13
7.0051160685
 23
5.0130479558
 33
0.0
 14
7.5151160685
 24
4.9232274477
 34
0.0
100
AcDbRotatedDimension
  0
DIMENSION
  5
1C2
330
1F
100
AcDbEntity
  8
0
  6
Continuous
 62
     7
370
     0
100
AcDbDimension
  2
_D_2
 10
7.5151160685
 20
5.1266435649
 30
0.0
 11
8.2272746889
 21
5.1266435649
 31
0.0
 70
   160
  1
<>
 71
     2
 42
-1.0
  3
SLDDIMSTYLE1
100
AcDbAlignedDimension
 13
7.3951160685
 23
5.0130479558
 33
0.0
 14
7.5151160685
 24
4.9232274477
 34
0.0
100
AcDbRotatedDimension
  0
DIMENSION
  5
1D6
330
1F
100
AcDbEntity
  8
0
  6
Continuous
 62
     7
370
     0
100
AcDbDimension
  2
_D_3
 10
8.2272746889
 20
2.9730479558
 30
0.0
 11
8.2272746889
 21
3.9230479558
 31
0.0
 70
   160
  1
%%c<>
 71
     2
 42
-1.0
  3
SLDDIMSTYLE2
100
AcDbAlignedDimension
 13
7.5151160685
 23
4.8730479558
 33
0.0
 14
7.5151160685
 24
2.9730479558
 34
0.0
 50
90.0
100
AcDbRotatedDimension
  0
INSERT
  5
1EF
102
{ACAD_REACTORS
330
1F1
102
}
330
1F
100
AcDbEntity
  8
0
  6
Continuous
 62
     7
370
     0
100
AcDbBlockReference
  2
SW_NOTE_5
 10
6.5128503919
 20
3.5737811183
 30
0.0
  0
LEADER
  5
1F1
330
1F
100
AcDbEntity
  8
0
  6
Continuous
 62
     7
370
     0
100
AcDbLeader
  3
SLDDIMSTYLE3
 73
     2
 76
     3
 10
7.1409870917
 20
3.0611834061
 30
0.0
 10
6.758913384
 20
3.5737811183
 30
0.0
 10
6.5128503919
 20
3.5737811183
 30
0.0
340
1EF
  0
INSERT
  5
1F7
102
{ACAD_REACTORS
330
1F8
102
}
330
1F
100
AcDbEntity
  8
0
  6
Continuous
 62
     7
370
     0
100
AcDbBlockReference
  2
SW_NOTE_6
 10
6.317988386
 20
2.4125626342
 30
0.0
  0
LEADER
  5
1F8
330
1F
100
AcDbEntity
  8
0
  6
Continuous
 62
     7
370
     0
100
AcDbLeader
  3
SLDDIMSTYLE3
 73
     2
 76
     3
 10
7.1232259972
 20
2.8230479558
 30
0.0
 10
6.5640513782
 20
2.4125626342
 30
0.0
 10
6.317988386
 20
2.4125626342
 30
0.0
340
1F7
  0
INSERT
  5
200
102
{ACAD_REACTORS
330
201
102
}
330
1F
100
AcDbEntity
  8
0
  6
Continuous
 62
     7
370
     0
100
AcDbBlockReference
  2
SW_NOTE_7
 10
8.0889604709
 20
2.386522871
 30
0.0
  0
LEADER
  5
201
330
1F
100
AcDbEntity
  8
0
  6
Continuous
 62
     7
370
     0
100
AcDbLeader
  3
SLDDIMSTYLE3
 73
     2
 76
     3
 10
7.4534946709
 20
2.9055479558
 30
0.0
 10
7.8389604709
 20
2.386522871
 30
0.0
 10
8.0889604709
 20
2.386522871
 30
0.0
340
200
  0
INSERT
  5
207
102
{ACAD_REACTORS
330
208
102
}
330
1F
100
AcDbEntity
  8
0
  6
Continuous
 62
     7
370
     0
100
AcDbBlockReference
  2
SW_NOTE_8
 10
8.0540787419
 20
2.726727909
 30
0.0
  0
LEADER
  5
208
330
1F
100
AcDbEntity
  8
0
  6
Continuous
 62
     7
370
     0
100
AcDbLeader
  3
SLDDIMSTYLE3
 73
     2
 76
     3
 10
7.3651160685
 20
3.2596819305
 30
0.0
 10
7.8080157498
 20
2.726727909
 30
0.0
 10
8.0540787419
 20
2.726727909
 30
0.0
340
207
  0
INSERT
  5
20F
102
{ACAD_REACTORS
330
210
102
}
330
1F
100
AcDbEntity
  8
0
  6
Continuous
 62
     7
370
     0
100
AcDbBlockReference
  2
SW_NOTE_9
 10
6.5756583367
 20
3.1858547727
 30
0.0
  0
LEADER
  5
210
330
1F
100
AcDbEntity
  8
0
  6
Continuous
 62
     7
370
     0
100
AcDbLeader
  3
SLDDIMSTYLE3
 73
     2
 76
     3
 10
7.0621155049
 20
2.9055479558
 30
0.0
 10
6.8256583367
 20
3.1858547727
 30
0.0
 10
6.5756583367
 20
3.1858547727
 30
0.0
340
20F
  0
OLE2FRAME
  5
211
330
1F
100
AcDbEntity
  8
0
100
AcDbOle2Frame
 70
     2
  3
Paintbrush Picture
 10
9.0178120406
 20
1.3267570784
 30
0.0
 11
10.4397105087
 21
1.1242314806
 31
0.0
 71
     2
 72
     0
 73
     1
 90
     7296
310
8055C64EE7A81E092240C05F59A1653AF53F0000000000000000FD155DBC21E1
310
2440C05F59A1653AF53F0000000000000000FD155DBC21E12440A1732426DAFC
310
F13F0000000000000000C64EE7A81E092240A1732426DAFCF13F000000000000
310
00000000000001000000000100000100000001000000000001000000001C0000
310
D0CF11E0A1B11AE1000000000000000000000000000000003E000300FEFF0900
310
0600000000000000000000000100000001000000000000000010000002000000
310
01000000FEFFFFFF0000000000000000FFFFFFFFFFFFFFFFFFFFFFFFFFFFFFFF
310
FFFFFFFFFFFFFFFFFFFFFFFFFFFFFFFFFFFFFFFFFFFFFFFFFFFFFFFFFFFFFFFF
310
FFFFFFFFFFFFFFFFFFFFFFFFFFFFFFFFFFFFFFFFFFFFFFFFFFFFFFFFFFFFFFFF
310
FFFFFFFFFFFFFFFFFFFFFFFFFFFFFFFFFFFFFFFFFFFFFFFFFFFFFFFFFFFFFFFF
310
FFFFFFFFFFFFFFFFFFFFFFFFFFFFFFFFFFFFFFFFFFFFFFFFFFFFFFFFFFFFFFFF
310
FFFFFFFFFFFFFFFFFFFFFFFFFFFFFFFFFFFFFFFFFFFFFFFFFFFFFFFFFFFFFFFF
310
FFFFFFFFFFFFFFFFFFFFFFFFFFFFFFFFFFFFFFFFFFFFFFFFFFFFFFFFFFFFFFFF
310
FFFFFFFFFFFFFFFFFFFFFFFFFFFFFFFFFFFFFFFFFFFFFFFFFFFFFFFFFFFFFFFF
310
FFFFFFFFFFFFFFFFFFFFFFFFFFFFFFFFFFFFFFFFFFFFFFFFFFFFFFFFFFFFFFFF
310
FFFFFFFFFFFFFFFFFFFFFFFFFFFFFFFFFFFFFFFFFFFFFFFFFFFFFFFFFFFFFFFF
310
FFFFFFFFFFFFFFFFFFFFFFFFFFFFFFFFFFFFFFFFFFFFFFFFFFFFFFFFFFFFFFFF
310
FFFFFFFFFFFFFFFFFFFFFFFFFFFFFFFFFFFFFFFFFFFFFFFFFFFFFFFFFFFFFFFF
310
FFFFFFFFFFFFFFFFFFFFFFFFFFFFFFFFFFFFFFFFFFFFFFFFFFFFFFFFFFFFFFFF
310
FFFFFFFFFFFFFFFFFFFFFFFFFFFFFFFFFFFFFFFFFFFFFFFFFFFFFFFFFFFFFFFF
310
FDFFFFFFFEFFFFFFFEFFFFFFFEFFFFFF05000000060000000700000008000000
310
090000000A0000000B0000000C000000FEFFFFFFFFFFFFFFFFFFFFFFFFFFFFFF
310
FFFFFFFFFFFFFFFFFFFFFFFFFFFFFFFFFFFFFFFFFFFFFFFFFFFFFFFFFFFFFFFF
310
FFFFFFFFFFFFFFFFFFFFFFFFFFFFFFFFFFFFFFFFFFFFFFFFFFFFFFFFFFFFFFFF
310
FFFFFFFFFFFFFFFFFFFFFFFFFFFFFFFFFFFFFFFFFFFFFFFFFFFFFFFFFFFFFFFF
310
FFFFFFFFFFFFFFFFFFFFFFFFFFFFFFFFFFFFFFFFFFFFFFFFFFFFFFFFFFFFFFFF
310
FFFFFFFFFFFFFFFFFFFFFFFFFFFFFFFFFFFFFFFFFFFFFFFFFFFFFFFFFFFFFFFF
310
FFFFFFFFFFFFFFFFFFFFFFFFFFFFFFFFFFFFFFFFFFFFFFFFFFFFFFFFFFFFFFFF
310
FFFFFFFFFFFFFFFFFFFFFFFFFFFFFFFFFFFFFFFFFFFFFFFFFFFFFFFFFFFFFFFF
310
FFFFFFFFFFFFFFFFFFFFFFFFFFFFFFFFFFFFFFFFFFFFFFFFFFFFFFFFFFFFFFFF
310
FFFFFFFFFFFFFFFFFFFFFFFFFFFFFFFFFFFFFFFFFFFFFFFFFFFFFFFFFFFFFFFF
310
FFFFFFFFFFFFFFFFFFFFFFFFFFFFFFFFFFFFFFFFFFFFFFFFFFFFFFFFFFFFFFFF
310
FFFFFFFFFFFFFFFFFFFFFFFFFFFFFFFFFFFFFFFFFFFFFFFFFFFFFFFFFFFFFFFF
310
FFFFFFFFFFFFFFFFFFFFFFFFFFFFFFFFFFFFFFFFFFFFFFFFFFFFFFFFFFFFFFFF
310
FFFFFFFFFFFFFFFFFFFFFFFFFFFFFFFFFFFFFFFFFFFFFFFFFFFFFFFFFFFFFFFF
310
FFFFFFFFFFFFFFFFFFFFFFFFFFFFFFFFFFFFFFFFFFFFFFFFFFFFFFFFFFFFFFFF
310
52006F006F007400200045006E00740072007900000000000000000000000000
310
0000000000000000000000000000000000000000000000000000000000000000
310
16000500FFFFFFFFFFFFFFFF020000000A00030000000000C000000000000046
310
000000000000000000000000403C0D6A9062D10103000000C000000000000000
310
01004F006C006500000000000000000000000000000000000000000000000000
310
0000000000000000000000000000000000000000000000000000000000000000
310
0A000200FFFFFFFFFFFFFFFFFFFFFFFF00000000000000000000000000000000
310
0000000000000000000000000000000000000000000000001400000000000000
310
010043006F006D0070004F0062006A0000000000000000000000000000000000
310
0000000000000000000000000000000000000000000000000000000000000000
310
120002010100000003000000FFFFFFFF00000000000000000000000000000000
310
0000000000000000000000000000000000000000010000004D00000000000000
310
01004F006C006500310030004E00610074006900760065000000000000000000
310
0000000000000000000000000000000000000000000000000000000000000000
310
1A000200FFFFFFFFFFFFFFFFFFFFFFFF00000000000000000000000000000000
310
000000000000000000000000000000000000000004000000E411000000000000
310
FEFFFFFF02000000FEFFFFFFFFFFFFFFFFFFFFFFFFFFFFFFFFFFFFFFFFFFFFFF
310
FFFFFFFFFFFFFFFFFFFFFFFFFFFFFFFFFFFFFFFFFFFFFFFFFFFFFFFFFFFFFFFF
310
FFFFFFFFFFFFFFFFFFFFFFFFFFFFFFFFFFFFFFFFFFFFFFFFFFFFFFFFFFFFFFFF
310
FFFFFFFFFFFFFFFFFFFFFFFFFFFFFFFFFFFFFFFFFFFFFFFFFFFFFFFFFFFFFFFF
310
FFFFFFFFFFFFFFFFFFFFFFFFFFFFFFFFFFFFFFFFFFFFFFFFFFFFFFFFFFFFFFFF
310
FFFFFFFFFFFFFFFFFFFFFFFFFFFFFFFFFFFFFFFFFFFFFFFFFFFFFFFFFFFFFFFF
310
FFFFFFFFFFFFFFFFFFFFFFFFFFFFFFFFFFFFFFFFFFFFFFFFFFFFFFFFFFFFFFFF
310
FFFFFFFFFFFFFFFFFFFFFFFFFFFFFFFFFFFFFFFFFFFFFFFFFFFFFFFFFFFFFFFF
310
FFFFFFFFFFFFFFFFFFFFFFFFFFFFFFFFFFFFFFFFFFFFFFFFFFFFFFFFFFFFFFFF
310
FFFFFFFFFFFFFFFFFFFFFFFFFFFFFFFFFFFFFFFFFFFFFFFFFFFFFFFFFFFFFFFF
310
FFFFFFFFFFFFFFFFFFFFFFFFFFFFFFFFFFFFFFFFFFFFFFFFFFFFFFFFFFFFFFFF
310
FFFFFFFFFFFFFFFFFFFFFFFFFFFFFFFFFFFFFFFFFFFFFFFFFFFFFFFFFFFFFFFF
310
FFFFFFFFFFFFFFFFFFFFFFFFFFFFFFFFFFFFFFFFFFFFFFFFFFFFFFFFFFFFFFFF
310
FFFFFFFFFFFFFFFFFFFFFFFFFFFFFFFFFFFFFFFFFFFFFFFFFFFFFFFFFFFFFFFF
310
FFFFFFFFFFFFFFFFFFFFFFFFFFFFFFFFFFFFFFFFFFFFFFFFFFFFFFFFFFFFFFFF
310
FFFFFFFFFFFFFFFFFFFFFFFFFFFFFFFFFFFFFFFFFFFFFFFFFFFFFFFFFFFFFFFF
310
0100000200000000000000000000000000000000000000000000000000000000
310
0000000000000000000000000000000000000000000000000000000000000000
310
0100FEFF030A0000FFFFFFFF0A00030000000000C00000000000004607000000
310
5042727573680007000000504272757368000700000050427275736800F439B2
310
7100000000000000000000000000000000000000000000000000000000000000
310
0000000000000000000000000000000000000000000000000000000000000000
310
0000000000000000000000000000000000000000000000000000000000000000
310
0000000000000000000000000000000000000000000000000000000000000000
310
0000000000000000000000000000000000000000000000000000000000000000
310
0000000000000000000000000000000000000000000000000000000000000000
310
0000000000000000000000000000000000000000000000000000000000000000
310
0000000000000000000000000000000000000000000000000000000000000000
310
0000000000000000000000000000000000000000000000000000000000000000
310
0000000000000000000000000000000000000000000000000000000000000000
310
0000000000000000000000000000000000000000000000000000000000000000
310
0000000000000000000000000000000000000000000000000000000000000000
310
E0110000424DDE11000000000000360400002800000096000000170000000100
310
08000000000000000000E7240000E72400000001000000010000000000FF0101
310
01FF020202FF030303FF040404FF050505FF060606FF070707FF080808FF0909
310
09FF0A0A0AFF0B0B0BFF0C0C0CFF0D0D0DFF0E0E0EFF0F0F0FFF101010FF1111
310
11FF121212FF131313FF141414FF151515FF161616FF171717FF181818FF1919
310
19FF1A1A1AFF1B1B1BFF1C1C1CFF1D1D1DFF1E1E1EFF1F1F1FFF202020FF2121
310
21FF222222FF232323FF242424FF252525FF262626FF272727FF282828FF2929
310
29FF2A2A2AFF2B2B2BFF2C2C2CFF2D2D2DFF2E2E2EFF2F2F2FFF303030FF3131
310
31FF323232FF333333FF343434FF353535FF363636FF373737FF383838FF3939
310
39FF3A3A3AFF3B3B3BFF3C3C3CFF3D3D3DFF3E3E3EFF3F3F3FFF404040FF4141
310
41FF424242FF434343FF444444FF454545FF464646FF474747FF484848FF4949
310
49FF4A4A4AFF4B4B4BFF4C4C4CFF4D4D4DFF4E4E4EFF4F4F4FFF505050FF5151
310
51FF525252FF535353FF545454FF555555FF565656FF575757FF585858FF5959
310
59FF5A5A5AFF5B5B5BFF5C5C5CFF5D5D5DFF5E5E5EFF5F5F5FFF606060FF6161
310
61FF626262FF636363FF646464FF656565FF666666FF676767FF686868FF6969
310
69FF6A6A6AFF6B6B6BFF6C6C6CFF6D6D6DFF6E6E6EFF6F6F6FFF707070FF7171
310
71FF727272FF737373FF747474FF757575FF767676FF777777FF787878FF7979
310
79FF7A7A7AFF7B7B7BFF7C7C7CFF7D7D7DFF7E7E7EFF7F7F7FFF808080FF8181
310
81FF828282FF838383FF848484FF858585FF868686FF878787FF888888FF8989
310
89FF8A8A8AFF8B8B8BFF8C8C8CFF8D8D8DFF8E8E8EFF8F8F8FFF909090FF9191
310
91FF929292FF939393FF949494FF959595FF969696FF979797FF989898FF9999
310
99FF9A9A9AFF9B9B9BFF9C9C9CFF9D9D9DFF9E9E9EFF9F9F9FFFA0A0A0FFA1A1
310
A1FFA2A2A2FFA3A3A3FFA4A4A4FFA5A5A5FFA6A6A6FFA7A7A7FFA8A8A8FFA9A9
310
A9FFAAAAAAFFABABABFFACACACFFADADADFFAEAEAEFFAFAFAFFFB0B0B0FFB1B1
310
B1FFB2B2B2FFB3B3B3FFB4B4B4FFB5B5B5FFB6B6B6FFB7B7B7FFB8B8B8FFB9B9
310
B9FFBABABAFFBBBBBBFFBCBCBCFFBDBDBDFFBEBEBEFFBFBFBFFFC0C0C0FFC1C1
310
C1FFC2C2C2FFC3C3C3FFC4C4C4FFC5C5C5FFC6C6C6FFC7C7C7FFC8C8C8FFC9C9
310
C9FFCACACAFFCBCBCBFFCCCCCCFFCDCDCDFFCECECEFFCFCFCFFFD0D0D0FFD1D1
310
D1FFD2D2D2FFD3D3D3FFD4D4D4FFD5D5D5FFD6D6D6FFD7D7D7FFD8D8D8FFD9D9
310
D9FFDADADAFFDBDBDBFFDCDCDCFFDDDDDDFFDEDEDEFFDFDFDFFFE0E0E0FFE1E1
310
E1FFE2E2E2FFE3E3E3FFE4E4E4FFE5E5E5FFE6E6E6FFE7E7E7FFE8E8E8FFE9E9
310
E9FFEAEAEAFFEBEBEBFFECECECFFEDEDEDFFEEEEEEFFEFEFEFFFF0F0F0FFF1F1
310
F1FFF2F2F2FFF3F3F3FFF4F4F4FFF5F5F5FFF6F6F6FFF7F7F7FFF8F8F8FFF9F9
310
F9FFFAFAFAFFFBFBFBFFFCFCFCFFFDFDFDFFFEFEFEFFFFFFFFFFFFFFFFFFFFFF
310
C94E4E4E4F4E4EFFFFFFFFFFC94E4E4E4E4E72FFFFFFFFFFFFFF734E4D4E4E4E
310
C9FFFFFFFFFFAA683516171616265B9BE9FFFFFFFFFF4E4E4E4D4E4EFFFFFFFF
310
FFFFFFFF4E4E4F4E4D4E4E4E4F4E4E4F4D4E4E4E4E4E4D4E4F4E4D4E4E4EAAFF
310
FFFFFFFFFFEA4E4F4F4E4E4E4E4E4D4D4F4F4E4E4E4E4E5B7FAAFFFFFFFFFFFF
310
C9744E1716171616164D8DEAFFFFFFFF0000FFFFFFFFFFFFBA161617161716FF
310
FFFFFFFFB917171616174FFFFFFFFFFFFFFF4E1716161616B9FFFFFFB9341717
310
1716171617171616268CFFFFFFFF161617161617FFFFFFFFFFFFFFB917161717
310
1617167F807F7F7F7F7F7F807F7F807F7F807F7F7F414EFFFFFFFFFFFF8C167F
310
7F807F7F7F7E7F7F807F807F7F807F4E3417258EFFFFEA4E162674AABAEAEBBA
310
AA74341680FFFFFF0000FFFFFFFFFFFFB9171717171617FFFFFFFFFFBB161616
310
16164EFFFFFFFFFFFFFF4E1717171717B9FFFF9C171617171716161616171616
310
171766FFFFFF161717161617FFFFFFFFFFFFFF8E16171717161616FFFFFFFFFF
310
FFFFFFFFFFFFFFFFFFFFFFFFFFAA16D9FFFFFFFFFF3467FFFFFFFFEAFFFFFFFF
310
FFFFFFFFFFFFFFFFFFCA671667EB26278DFFFFFFFFFFFFFFFFFFFF8C2541EAFF
310
0000FFFFFFFFFFFFB9171717171716FFFFFFFFFFBA16171617174EFFFFFFFFFF
310
FFFF4E1717161616BAFF9B1617161616171716171617161616161667FFFF1616
310
16161716FFFFFFFFFFFFFF7F16161617174017FFFFFFFFFFFFFFFFFFFFFFFFFF
310
FFFFFFFFFFFF344E7F7F7F7E7417DAFFFFFFFF80FFFFFFFFFFFFFFFFFFFFFFFF
310
FFFFFF9B163425CAFFFFFFFFFFFFFFFFFFFFFFFFCA2667FF0000FFFFFFFFFFFF
310
BA171717171617FFFFFFFFFFB916171716164EFFFFFFFFFFFFFF4F1716161717
310
B9C91716171616161716161617171616161617168DFF161716161717FFFFFFFF
310
FFFFFF7F17171716164F16FFFFFFFFFFFFFFFFFFFFFFFFFFFFFFFFFFFFFF9B16
310
17161617174EFFFFFFFFFF34FFFFFFFFD9BABABABABADAFFFFFFFFFF7F16AAFF
310
FFFFFFFFFFFFFFFFFFFFFFFFFF9C16BA0000FFFFFFFFFFFFB9161717161717FF
310
FFFFFFFFB917161716174DFFFFFFFFFFFFFF4E1616161616BA4E161617171716
310
419BEAEAAA4E16161617161726E9171717161616FFFFFFFFFFFFFF4F16161717
310
164E16FFFFFFFFFFBAB9B9B9B9B9BABABACAFFFFFFFFFFFFFFFFFFFFFFFFFFFF
310
FFFFBA16FFFFFFFF7F1617161617174DEAFFFFFFEA41FFFFFFFFFFAA4D16174E
310
9BFFFFFFFFFF34730000FFFFFFFFFFFFB9161617171617FFFFFFFFFFBA161616
310
16164EFFFFFFFFFFFFFF4F16161717169B1617161716175BFFFFFFFFFFFF7417
310
16171616168D171717161617FFFFFFFFFFFFEA2616171717167416FFFFFFFFFF
310
16171616171717171717EAFFFFFFFFFFFFFFFFFFFFFFFFFFFFFF6716FFFFFFFF
310
7F4EFFFFFFFFBA2573FFFFFFFFBAFFFFFFFFAA167FB9BB9B269BFFFFFFFF664F
310
0000FFFFFFFFFFFFB9171616161616FFFFFFFFFFBA16161717164EFFFFFFFFFF
310
FFFF4E16161616174E161617171626EAFFFFFFFFFFFFFF4E16161616164E1716
310
16161617FFFFFFFFFFFF671616161716347F16FFFFFFFFFF16B9FFFFFFFFFFFF
310
D9168DFFFFFFFFFFFFFFFFFFFFFFFFFFFFEA1716FFFFFFFF7F4EFFFFFFFFFF7F
310
4EFFFFFFFFFFFFFFFFFF5B66FFFFFFEA347FFFFFFFFF7F4D0000FFFFFFFFFFFF
310
B9171616171617FFFFFFFFFFBA17161716174EFFFFFFFFFFFFFF4D1716161617
310
17161716161673FFFFFFFFFFFFFFFF9B1617161717161616171616174F4E4E4E
310
4E341616171616167E7F16FFFFFFFFFF16BAFFFFFFFFFFFFFF5B41FFFFFFFF34
310
1616171616BAFFFFFF9B1716FFFFFFFF7F4EFFFFFFFFFF4E4EFFFFFFFF734E4E
310
4E4E267EDA9B67164EEAFFFFFFFF744D0000FFFFFFFFFFFFBA171717161617FF
310
FFFFFFFFBA1616171616347F7F7F7F80807F331616161717161717161716B9FF
310
FFFFFFFFFFFFFFE9161616161616171716161716171616161616171616171734
310
EA7F16FFFFFFFFFF16BAFFFFFFFFFFFFFFAA17C9FFFFFF7326BABA5B25FFFFFF
310
FF401716FFFFFFFF7F264F4E4E4E4217AAFFFFFFEA16677F73261616164173CA
310
FFFFFFFFFFFF417F0000FFFFFFFFFFFFBA171616171617FFFFFFFFFFBA161616
310
17171616161616161616161717161616161616161617EAFFFFFFFFFFFFFFFFFF
310
261717161716161617161616161617161617161616174EEAFF8016FFFFFFFFFF
310
17BAFFFFFFFFFFFFFFFF3467FFFFFFC916C9FF3467FFFFFFDA166716FFFFFFFF
310
9C4D4E4E4E4E67AAFFFFFFFF6834FF7F262567AAEAFFFFFFFFFFFFFFFF9B17D9
310
0000FFFFFFFFFFFFB9161616161616FFFFFFFFFFBA1617161717171616161616
310
1716171716161716161617171716FFFFFFFFFFFFFFFFFFFF4E17161716171616
310
1617171616161716171717161616169BFF7F17FFFFFFFFFF17B9FFFFFFFFFFFF
310
FFFF7326FFFFFFFF3473DA16AAFFFFFF7317AA16FFFFFFFFFFFFFFFFFFFFFFFF
310
FFFFEA6725BA4E167FEAFFFFFFFFFFFFFFFFFFFF9C167FFF0000FFFFFFFFFFFF
310
B9161717171716FFFFFFFFFFBA16161716171616171717161617161716161616
310
171617171617EAFFFFFFFFFFFFFFFFFF26161717161616161616161617171616
310
1616161616171616AA8016FFFFFFFFFF16BAFFFFFFFFFFFFFFFFDA179BFFFFFF
310
74348D26FFFFFFFF2566B917FFFFFFFFD8BAB9BAB9BADAFFFFEA41169B7425C9
310
FFFFFFFFFFFFFFFFFFFFAB4F1680FFFF0000FFFFFFFFFFFFBA161717171617FF
310
FFFFFFFFBA17161717161617171617161616161617171616171716171617BBFF
310
FFFFFFFFFFFFFFE9171616161617161617161716FFFFFFFFFFD9671616161617
310
348017FFFFFFFFFF16BAFFFFFFFFFFFFFFFFFF4E5AFFFFFFC916265AFFFFFFAA
310
16AABA16FFFFFFFF7F1617161616179BFFFFEB4127168DFFFFFFFFFFFFFFD99B
310
6734175AC9FFFFFF0000FFFFFFFFFFFFB9161617171617FFFFFFFFFFBB161616
310
1616347F807F7F7F7F8033171716171617171616161672FFFFFFFFFFFFFFFF9C
310
171617171617161716161617FFFFFFFFFFFFFF4117161616174E17FFFFFFFFFF
310
16BAFFFFFFFFFFFFFFFFFF9B16DAFFFFFF34169BFFFFFF5A26FFB917FFFFFFFF
310
7F4EFFFFFFEA5B26FFFFFFEA2616EAFFFFFFFFDA743416331617414E4E4E4ECA
310
0000FFFFFFFFFFFFBA161716161616FFFFFFFFFFBA17171616164EFFFFFFFFFF
310
FFFF4E16161717174E161717171626EBFFFFFFFFFFFFFF4E16161617165B1616
310
16171617FFFFFFFFFFFFFF6716161616161617FFFFFFFFFF16BAFFFFFFFFFFFF
310
FFFFFFEA268CFFFFFF7316EAFFFFEB1774FFB916FFFFFFFF7F4EFFFFFFFF7316
310
FFFFFFFF6826FFFFFFFFEB264D9CEABA257F807F7F6616BA0000FFFFFFFFFFFF
310
BA161716161616FFFFFFFFFFBA16171616164DFFFFFFFFFFFFFF4E1617161617
310
9B1617171717165BEBFFFFFFFFFF671616161617179B171616161616FFFFFFFF
310
FFFFFF3417161617171617FFFFFFFFFF17BAFFFFFFFFFFFFFFFFFFFF6734FFFF
310
FFEBCAFFFFFF8D17C9FFBA17FFFFFFFF7F357F808066174FFFFFFFFF7F16FFFF
310
FFFFD91673B99B415BFFFFFFFFBA16DA00009B7F7F7F807F671617161616167F
310
80807F7E6617161616164EFFFFFFFFFFFFFF4E1616161617B94E171716161616
310
349BC9D9AA4E16171616161634FF161617161717B9B9BAB9BA9B411716171716
310
163416FFFFFFFFFF16B9FFFFFFFFFFFFFFFFFFFFC917CAFFFFFFFFFFFFFF3342
310
FFFFBA17FFFFFFFF9B4E4E4F4E4E66EAFFFFFFFF5B16C9FFFFFFFFAA4E164E73
310
EAFFFFFFFF8D26FF00004E161716161616171617171616171717171617161616
310
17174EFFFFFFFFFFFFFF4E1717171616B9D92616171716171716171717171716
310
16171716AAFF161717171617161617171616161617161716166717FFFFFFFFFF
310
17B9FFFFFFFFFFFFFFFFFFFFFF3467FFFFFFFFFFFFCA168CFFFFBB17FFFFFFFF
310
FFFFFFFFFFFFFFFFFFFFFFEA26265BFFFFFFFFFFFFFFFFFFFFFFFFFFEA3467FF
310
00004D16161616161617161717161617161616171617171616164EFFFFFFFFFF
310
FFFF4D1617161616BAFF9B1616161616161716161616171717161766FFFF1616
310
16171617161617161716171616171717667F16FFFFFFFFFF17BAFFFFFFFFFFFF
310
FFFFFFFFFF8C26EAFFFFFFFFFF6617EAFFFFBA17FFFFFFFFFFFFFFFFFFFFFFFF
310
FFFFEA5A25BA269BFFFFFFFFFFFFFFFFFFFFFFFF6616DAFF00004E1616171616
310
1616161616161716161617171616171616174EFFFFFFFFFFFFFF4D1717171716
310
B9FFFF9C161616161616161716161717171667FFFFFF17161717171716161617
310
1716161616161641E97E16FFFFFFFFFF16B9FFFFFFFFFFFFFFFFFFFFFFEA169B
310
FFFFFFFFEA265BFFFFFFB916FFFFFFFFFFFFFFFFFFFFFFFFFF9B3416AAFF9B17
310
67EAFFFFFFFFFFFFFFFFEA5B169BFFFF00004D17161716161616161717171616
310
161717161716171716174EFFFFFFFFFFFFFF4D1616161616BAFFFFFFBB411616
310
161716161616171634ABFFFFFFFF161716161617171716171617171617267FFF
310
FF7F164E4E4E4E4F17BAFFFFFFFFFFFFFFFFFFFFFFFF66344D4E4E4F4117AAFF
310
FFFFBA174E4E4E4D4E4D4D4E4E4E4E4116174EBBFFFFFFCA342666ABEAFFFFEA
310
AA6725269CFFFFFF0000724F4E4D4D4D4E4D4D4E4E4E4D4E4E4E4E4E4E4E4E4D
310
4E4E74FFFFFFFFFFFFFF734E4E4E4D4ECAFFFFFFFFFFAA663416171717265B9B
310
FFFFFFFFFFFF7F8080807F80807F7F7F7F7F807FBAFFFFFFFF9B4E4E4F4D4D4E
310
4DC9FFFFFFFFFFFFFFFFFFFFFFFFBA4E4E4E4E4D4E4EFFFFFFFFC94E4E4E4F4E
310
4E4E4D4E4E5A807F9CD9FFFFFFFFFFFFFF9B5B2617171716174E8DEAFFFFFFFF
310
0000000000000000000000000000000000000000000000000000000000000000
  1
OLE
  0
ENDSEC
  0
SECTION
  2
OBJECTS
  0
DICTIONARY
  5
C
330
0
100
AcDbDictionary
281
     1
  3
ACAD_GROUP
350
D
  3
ACAD_LAYOUT
350
1A
  3
ACAD_MLINESTYLE
350
17
  3
ACAD_PLOTSETTINGS
350
19
  3
ACAD_PLOTSTYLENAME
350
E
  3
ACAD_SCALELIST
350
47
  0
DICTIONARY
  5
D
102
{ACAD_REACTORS
330
C
102
}
330
C
100
AcDbDictionary
281
     1
  0
DICTIONARY
  5
1A
102
{ACAD_REACTORS
330
C
102
}
330
C
100
AcDbDictionary
281
     1
  3
Layout1
350
1E
  3
Layout2
350
26
  3
Model
350
22
  0
DICTIONARY
  5
17
102
{ACAD_REACTORS
330
C
102
}
330
C
100
AcDbDictionary
281
     1
  3
Standard
350
18
  0
DICTIONARY
  5
19
102
{ACAD_REACTORS
330
C
102
}
330
C
100
AcDbDictionary
281
     1
  0
ACDBDICTIONARYWDFLT
  5
E
102
{ACAD_REACTORS
330
C
102
}
330
C
100
AcDbDictionary
281
     1
  3
Normal
350
F
100
AcDbDictionaryWithDefault
340
F
  0
DICTIONARY
  5
47
102
{ACAD_REACTORS
330
C
102
}
330
C
100
AcDbDictionary
281
     1
  3
A0
350
48
  3
A1
350
49
  3
A2
350
4A
  3
A3
350
4B
  3
A4
350
4C
  3
A5
350
4D
  3
A6
350
4E
  3
A7
350
4F
  3
A8
350
50
  3
A9
350
51
  3
B0
350
52
  3
B1
350
53
  3
B2
350
54
  3
B3
350
55
  3
B4
350
56
  3
B5
350
57
  3
B6
350
58
  3
B7
350
59
  3
B8
350
5A
  3
B9
350
5B
  3
C0
350
5C
  3
C1
350
5D
  3
C2
350
5E
  3
C3
350
5F
  3
C4
350
60
  3
C5
350
61
  3
C6
350
62
  3
C7
350
63
  3
C8
350
64
  3
C9
350
65
  3
D0
350
66
  3
D1
350
67
  3
D2
350
68
  0
LAYOUT
  5
1E
102
{ACAD_REACTORS
330
1A
102
}
330
1A
100
AcDbPlotSettings
  1

  2
none_device
  4

  6

 40
0.0
 41
0.0
 42
0.0
 43
0.0
 44
0.0
 45
0.0
 46
0.0
 47
0.0
 48
0.0
 49
0.0
140
0.0
141
0.0
142
1.0
143
1.0
 70
   688
 72
     0
 73
     0
 74
     5
  7

 75
    16
147
1.0
148
0.0
149
0.0
100
AcDbLayout
  1
Layout1
 70
     1
 71
     1
 10
0.0
 20
0.0
 11
12.0
 21
9.0
 12
0.0
 22
0.0
 32
0.0
 14
1.0000000000E+20
 24
1.0000000000E+20
 34
1.0000000000E+20
 15
-1.0000000000E+20
 25
-1.0000000000E+20
 35
-1.0000000000E+20
146
0.0
 13
0.0
 23
0.0
 33
0.0
 16
1.0
 26
0.0
 36
0.0
 17
0.0
 27
1.0
 37
0.0
 76
     0
330
1B
  0
LAYOUT
  5
26
102
{ACAD_REACTORS
330
1A
102
}
330
1A
100
AcDbPlotSettings
  1

  2
none_device
  4

  6

 40
0.0
 41
0.0
 42
0.0
 43
0.0
 44
0.0
 45
0.0
 46
0.0
 47
0.0
 48
0.0
 49
0.0
140
0.0
141
0.0
142
1.0
143
1.0
 70
   688
 72
     0
 73
     0
 74
     5
  7

 75
    16
147
1.0
148
0.0
149
0.0
100
AcDbLayout
  1
Layout2
 70
     1
 71
     2
 10
0.0
 20
0.0
 11
0.0
 21
0.0
 12
0.0
 22
0.0
 32
0.0
 14
0.0
 24
0.0
 34
0.0
 15
0.0
 25
0.0
 35
0.0
146
0.0
 13
0.0
 23
0.0
 33
0.0
 16
1.0
 26
0.0
 36
0.0
 17
0.0
 27
1.0
 37
0.0
 76
     0
330
23
  0
LAYOUT
  5
22
102
{ACAD_REACTORS
330
1A
102
}
330
1A
100
AcDbPlotSettings
  1

  2
none_device
  4
Letter_(8.50_x_11.00_Inches)
  6

 40
6.35
 41
6.35
 42
6.35000508
 43
6.35000508
 44
215.9
 45
279.4
 46
0.0
 47
0.0
 48
0.0
 49
0.0
140
0.0
141
0.0
142
1.0
143
1.0
 70
  1712
 72
     0
 73
     0
 74
     0
  7

 75
     0
147
1.0
148
0.0
149
0.0
100
AcDbLayout
  1
Model
 70
     1
 71
     0
 10
0.0
 20
0.0
 11
11.0
 21
8.5
 12
0.0
 22
0.0
 32
0.0
 14
0.0
 24
0.0
 34
0.0
 15
11.0
 25
8.5
 35
0.0
146
0.0
 13
0.0
 23
0.0
 33
0.0
 16
1.0
 26
0.0
 36
0.0
 17
0.0
 27
1.0
 37
0.0
 76
     0
330
1F
331
29
  0
MLINESTYLE
  5
18
102
{ACAD_REACTORS
330
17
102
}
330
17
100
AcDbMlineStyle
  2
Standard
 70
     0
  3

 62
   256
 51
90.0
 52
90.0
 71
     2
 49
0.5
 62
   256
  6
BYLAYER
 49
-0.5
 62
   256
  6
BYLAYER
  0
ACDBPLACEHOLDER
  5
F
102
{ACAD_REACTORS
330
E
102
}
330
E
  0
SCALE
  5
48
102
{ACAD_REACTORS
330
47
102
}
330
47
100
AcDbScale
 70
     0
300
1:1
140
1.0
141
1.0
290
     1
  0
SCALE
  5
49
102
{ACAD_REACTORS
330
47
102
}
330
47
100
AcDbScale
 70
     0
300
1:2
140
1.0
141
2.0
290
     0
  0
SCALE
  5
4A
102
{ACAD_REACTORS
330
47
102
}
330
47
100
AcDbScale
 70
     0
300
1:4
140
1.0
141
4.0
290
     0
  0
SCALE
  5
4B
102
{ACAD_REACTORS
330
47
102
}
330
47
100
AcDbScale
 70
     0
300
1:5
140
1.0
141
5.0
290
     0
  0
SCALE
  5
4C
102
{ACAD_REACTORS
330
47
102
}
330
47
100
AcDbScale
 70
     0
300
1:8
140
1.0
141
8.0
290
     0
  0
SCALE
  5
4D
102
{ACAD_REACTORS
330
47
102
}
330
47
100
AcDbScale
 70
     0
300
1:10
140
1.0
141
10.0
290
     0
  0
SCALE
  5
4E
102
{ACAD_REACTORS
330
47
102
}
330
47
100
AcDbScale
 70
     0
300
1:16
140
1.0
141
16.0
290
     0
  0
SCALE
  5
4F
102
{ACAD_REACTORS
330
47
102
}
330
47
100
AcDbScale
 70
     0
300
1:20
140
1.0
141
20.0
290
     0
  0
SCALE
  5
50
102
{ACAD_REACTORS
330
47
102
}
330
47
100
AcDbScale
 70
     0
300
1:30
140
1.0
141
30.0
290
     0
  0
SCALE
  5
51
102
{ACAD_REACTORS
330
47
102
}
330
47
100
AcDbScale
 70
     0
300
1:40
140
1.0
141
40.0
290
     0
  0
SCALE
  5
52
102
{ACAD_REACTORS
330
47
102
}
330
47
100
AcDbScale
 70
     0
300
1:50
140
1.0
141
50.0
290
     0
  0
SCALE
  5
53
102
{ACAD_REACTORS
330
47
102
}
330
47
100
AcDbScale
 70
     0
300
1:100
140
1.0
141
100.0
290
     0
  0
SCALE
  5
54
102
{ACAD_REACTORS
330
47
102
}
330
47
100
AcDbScale
 70
     0
300
2:1
140
2.0
141
1.0
290
     0
  0
SCALE
  5
55
102
{ACAD_REACTORS
330
47
102
}
330
47
100
AcDbScale
 70
     0
300
4:1
140
4.0
141
1.0
290
     0
  0
SCALE
  5
56
102
{ACAD_REACTORS
330
47
102
}
330
47
100
AcDbScale
 70
     0
300
8:1
140
8.0
141
1.0
290
     0
  0
SCALE
  5
57
102
{ACAD_REACTORS
330
47
102
}
330
47
100
AcDbScale
 70
     0
300
10:1
140
10.0
141
1.0
290
     0
  0
SCALE
  5
58
102
{ACAD_REACTORS
330
47
102
}
330
47
100
AcDbScale
 70
     0
300
100:1
140
100.0
141
1.0
290
     0
  0
SCALE
  5
59
102
{ACAD_REACTORS
330
47
102
}
330
47
100
AcDbScale
 70
     0
300
1/128" = 1'-0"
140
0.0078125
141
12.0
290
     0
  0
SCALE
  5
5A
102
{ACAD_REACTORS
330
47
102
}
330
47
100
AcDbScale
 70
     0
300
1/64" = 1'-0"
140
0.015625
141
12.0
290
     0
  0
SCALE
  5
5B
102
{ACAD_REACTORS
330
47
102
}
330
47
100
AcDbScale
 70
     0
300
1/32" = 1'-0"
140
0.03125
141
12.0
290
     0
  0
SCALE
  5
5C
102
{ACAD_REACTORS
330
47
102
}
330
47
100
AcDbScale
 70
     0
300
1/16" = 1'-0"
140
0.0625
141
12.0
290
     0
  0
SCALE
  5
5D
102
{ACAD_REACTORS
330
47
102
}
330
47
100
AcDbScale
 70
     0
300
3/32" = 1'-0"
140
0.09375
141
12.0
290
     0
  0
SCALE
  5
5E
102
{ACAD_REACTORS
330
47
102
}
330
47
100
AcDbScale
 70
     0
300
1/8" = 1'-0"
140
0.125
141
12.0
290
     0
  0
SCALE
  5
5F
102
{ACAD_REACTORS
330
47
102
}
330
47
100
AcDbScale
 70
     0
300
3/16" = 1'-0"
140
0.1875
141
12.0
290
     0
  0
SCALE
  5
60
102
{ACAD_REACTORS
330
47
102
}
330
47
100
AcDbScale
 70
     0
300
1/4" = 1'-0"
140
0.25
141
12.0
290
     0
  0
SCALE
  5
61
102
{ACAD_REACTORS
330
47
102
}
330
47
100
AcDbScale
 70
     0
300
3/8" = 1'-0"
140
0.375
141
12.0
290
     0
  0
SCALE
  5
62
102
{ACAD_REACTORS
330
47
102
}
330
47
100
AcDbScale
 70
     0
300
1/2" = 1'-0"
140
0.5
141
12.0
290
     0
  0
SCALE
  5
63
102
{ACAD_REACTORS
330
47
102
}
330
47
100
AcDbScale
 70
     0
300
3/4" = 1'-0"
140
0.75
141
12.0
290
     0
  0
SCALE
  5
64
102
{ACAD_REACTORS
330
47
102
}
330
47
100
AcDbScale
 70
     0
300
1" = 1'-0"
140
1.0
141
12.0
290
     0
  0
SCALE
  5
65
102
{ACAD_REACTORS
330
47
102
}
330
47
100
AcDbScale
 70
     0
300
1-1/2" = 1'-0"
140
1.5
141
12.0
290
     0
  0
SCALE
  5
66
102
{ACAD_REACTORS
330
47
102
}
330
47
100
AcDbScale
 70
     0
300
3" = 1'-0"
140
3.0
141
12.0
290
     0
  0
SCALE
  5
67
102
{ACAD_REACTORS
330
47
102
}
330
47
100
AcDbScale
 70
     0
300
6" = 1'-0"
140
6.0
141
12.0
290
     0
  0
SCALE
  5
68
102
{ACAD_REACTORS
330
47
102
}
330
47
100
AcDbScale
 70
     0
300
1'-0" = 1'-0"
140
12.0
141
12.0
290
     0
  0
ENDSEC
  0
EOF
