  0
SECTION
  2
HEADER
  9
$ACADVER
  1
AC1015
  9
$ACADMAINTVER
 70
     6
  9
$DWGCODEPAGE
  3
ANSI_1252
  9
$INSBASE
 10
0.0
 20
0.0
 30
0.0
  9
$EXTMIN
 10
0.0
 20
0.0
 30
0.0
  9
$EXTMAX
 10
279.4
 20
215.9
 30
0.0
  9
$LIMMIN
 10
0.0
 20
0.0
  9
$LIMMAX
 10
279.4
 20
215.9
  9
$ORTHOMODE
 70
     0
  9
$REGENMODE
 70
     1
  9
$FILLMODE
 70
     1
  9
$QTEXTMODE
 70
     0
  9
$MIRRTEXT
 70
     1
  9
$LTSCALE
 40
1.0
  9
$ATTMODE
 70
     1
  9
$TEXTSIZE
 40
2.286
  9
$TRACEWID
 40
1.0
  9
$TEXTSTYLE
  7
Standard
  9
$CLAYER
  8
0
  9
$CELTYPE
  6
ByLayer
  9
$CECOLOR
 62
   256
  9
$CELTSCALE
 40
1.0
  9
$DISPSILH
 70
     0
  9
$DIMSCALE
 40
1.0
  9
$DIMASZ
 40
4.064
  9
$DIMEXO
 40
1.27
  9
$DIMDLI
 40
3.75
  9
$DIMRND
 40
0.0
  9
$DIMDLE
 40
0.0
  9
$DIMEXE
 40
3.175
  9
$DIMTP
 40
0.0
  9
$DIMTM
 40
0.0
  9
$DIMTXT
 40
2.286
  9
$DIMCEN
 40
2.5
  9
$DIMTSZ
 40
0.0
  9
$DIMTOL
 70
     0
  9
$DIMLIM
 70
     0
  9
$DIMTIH
 70
     1
  9
$DIMTOH
 70
     1
  9
$DIMSE1
 70
     0
  9
$DIMSE2
 70
     0
  9
$DIMTAD
 70
     0
  9
$DIMZIN
 70
     1
  9
$DIMBLK
  1

  9
$DIMASO
 70
     1
  9
$DIMSHO
 70
     1
  9
$DIMPOST
  1

  9
$DIMAPOST
  1

  9
$DIMALT
 70
     0
  9
$DIMALTD
 70
     3
  9
$DIMALTF
 40
0.0393700787
  9
$DIMLFAC
 40
1.0
  9
$DIMTOFL
 70
     1
  9
$DIMTVP
 40
0.0
  9
$DIMTIX
 70
     0
  9
$DIMSOXD
 70
     0
  9
$DIMSAH
 70
     0
  9
$DIMBLK1
  1

  9
$DIMBLK2
  1

  9
$DIMSTYLE
  2
ISO-25
  9
$DIMCLRD
 70
     0
  9
$DIMCLRE
 70
     0
  9
$DIMCLRT
 70
     0
  9
$DIMTFAC
 40
1.0
  9
$DIMGAP
 40
2.54
  9
$DIMJUST
 70
     0
  9
$DIMSD1
 70
     0
  9
$DIMSD2
 70
     0
  9
$DIMTOLJ
 70
     0
  9
$DIMTZIN
 70
     1
  9
$DIMALTZ
 70
     0
  9
$DIMALTTZ
 70
     0
  9
$DIMUPT
 70
     0
  9
$DIMDEC
 70
     1
  9
$DIMTDEC
 70
     1
  9
$DIMALTU
 70
     2
  9
$DIMALTTD
 70
     3
  9
$DIMTXSTY
  7
Standard
  9
$DIMAUNIT
 70
     0
  9
$DIMADEC
 70
     2
  9
$DIMALTRND
 40
0.0
  9
$DIMAZIN
 70
     0
  9
$DIMDSEP
 70
    44
  9
$DIMATFIT
 70
     3
  9
$DIMFRAC
 70
     0
  9
$DIMLDRBLK
  1

  9
$DIMLUNIT
 70
     2
  9
$DIMLWD
 70
    -2
  9
$DIMLWE
 70
    -2
  9
$DIMTMOVE
 70
     0
  9
$LUNITS
 70
     2
  9
$LUPREC
 70
     1
  9
$SKETCHINC
 40
1.0
  9
$FILLETRAD
 40
10.0
  9
$AUNITS
 70
     0
  9
$AUPREC
 70
     2
  9
$MENU
  1
.
  9
$ELEVATION
 40
0.0
  9
$PELEVATION
 40
0.0
  9
$THICKNESS
 40
0.0
  9
$LIMCHECK
 70
     0
  9
$CHAMFERA
 40
10.0
  9
$CHAMFERB
 40
10.0
  9
$CHAMFERC
 40
20.0
  9
$CHAMFERD
 40
0.0
  9
$SKPOLY
 70
     0
  9
$TDCREATE
 40
2455723.596028507
  9
$TDUCREATE
 40
2455723.762695174
  9
$TDUPDATE
 40
2455723.596028518
  9
$TDUUPDATE
 40
2455723.762695185
  9
$TDINDWG
 40
0.0000000116
  9
$TDUSRTIMER
 40
0.0000000116
  9
$USRTIMER
 70
     1
  9
$ANGBASE
 50
0.0
  9
$ANGDIR
 70
     0
  9
$PDMODE
 70
     0
  9
$PDSIZE
 40
-1.0
  9
$PLINEWID
 40
0.0
  9
$SPLFRAME
 70
     0
  9
$SPLINETYPE
 70
     6
  9
$SPLINESEGS
 70
     8
  9
$HANDSEED
  5
183
  9
$SURFTAB1
 70
     6
  9
$SURFTAB2
 70
     6
  9
$SURFTYPE
 70
     6
  9
$SURFU
 70
     6
  9
$SURFV
 70
     6
  9
$UCSBASE
  2

  9
$UCSNAME
  2

  9
$UCSORG
 10
0.0
 20
0.0
 30
0.0
  9
$UCSXDIR
 10
1.0
 20
0.0
 30
0.0
  9
$UCSYDIR
 10
0.0
 20
1.0
 30
0.0
  9
$UCSORTHOREF
  2

  9
$UCSORTHOVIEW
 70
     0
  9
$UCSORGTOP
 10
0.0
 20
0.0
 30
0.0
  9
$UCSORGBOTTOM
 10
0.0
 20
0.0
 30
0.0
  9
$UCSORGLEFT
 10
0.0
 20
0.0
 30
0.0
  9
$UCSORGRIGHT
 10
0.0
 20
0.0
 30
0.0
  9
$UCSORGFRONT
 10
0.0
 20
0.0
 30
0.0
  9
$UCSORGBACK
 10
0.0
 20
0.0
 30
0.0
  9
$PUCSBASE
  2

  9
$PUCSNAME
  2

  9
$PUCSORG
 10
0.0
 20
0.0
 30
0.0
  9
$PUCSXDIR
 10
1.0
 20
0.0
 30
0.0
  9
$PUCSYDIR
 10
0.0
 20
1.0
 30
0.0
  9
$PUCSORTHOREF
  2

  9
$PUCSORTHOVIEW
 70
     0
  9
$PUCSORGTOP
 10
0.0
 20
0.0
 30
0.0
  9
$PUCSORGBOTTOM
 10
0.0
 20
0.0
 30
0.0
  9
$PUCSORGLEFT
 10
0.0
 20
0.0
 30
0.0
  9
$PUCSORGRIGHT
 10
0.0
 20
0.0
 30
0.0
  9
$PUCSORGFRONT
 10
0.0
 20
0.0
 30
0.0
  9
$PUCSORGBACK
 10
0.0
 20
0.0
 30
0.0
  9
$USERI1
 70
     0
  9
$USERI2
 70
     0
  9
$USERI3
 70
     0
  9
$USERI4
 70
     0
  9
$USERI5
 70
     0
  9
$USERR1
 40
0.0
  9
$USERR2
 40
0.0
  9
$USERR3
 40
0.0
  9
$USERR4
 40
0.0
  9
$USERR5
 40
0.0
  9
$WORLDVIEW
 70
     1
  9
$SHADEDGE
 70
     3
  9
$SHADEDIF
 70
    70
  9
$TILEMODE
 70
     1
  9
$MAXACTVP
 70
    64
  9
$PINSBASE
 10
0.0
 20
0.0
 30
0.0
  9
$PLIMCHECK
 70
     0
  9
$PEXTMIN
 10
1.0000000000E+20
 20
1.0000000000E+20
 30
1.0000000000E+20
  9
$PEXTMAX
 10
-1.0000000000E+20
 20
-1.0000000000E+20
 30
-1.0000000000E+20
  9
$PLIMMIN
 10
0.0
 20
0.0
  9
$PLIMMAX
 10
420.0
 20
297.0
  9
$UNITMODE
 70
     0
  9
$VISRETAIN
 70
     1
  9
$PLINEGEN
 70
     0
  9
$PSLTSCALE
 70
     1
  9
$TREEDEPTH
 70
  3020
  9
$CMLSTYLE
  2
Standard
  9
$CMLJUST
 70
     0
  9
$CMLSCALE
 40
20.0
  9
$PROXYGRAPHICS
 70
     1
  9
$MEASUREMENT
 70
     1
  9
$CELWEIGHT
370
    -1
  9
$ENDCAPS
280
     0
  9
$JOINSTYLE
280
     0
  9
$LWDISPLAY
290
     1
  9
$INSUNITS
 70
     4
  9
$HYPERLINKBASE
  1

  9
$STYLESHEET
  1

  9
$XEDIT
290
     1
  9
$CEPSNTYPE
380
     0
  9
$PSTYLEMODE
290
     1
  9
$FINGERPRINTGUID
  2
{F71183C2-E260-4FB0-96A1-DE880E8B29A2}
  9
$VERSIONGUID
  2
{FAEB1C32-E019-11D5-929B-00C0DF256EC4}
  9
$EXTNAMES
290
     1
  9
$PSVPSCALE
 40
0.0
  9
$OLESTARTUP
290
     0
  0
ENDSEC
  0
SECTION
  2
CLASSES
  0
CLASS
  1
ACDBDICTIONARYWDFLT
  2
AcDbDictionaryWithDefault
  3
ObjectDBX Classes
 90
        0
280
     0
281
     0
  0
CLASS
  1
VISUALSTYLE
  2
AcDbVisualStyle
  3
ObjectDBX Classes
 90
     4095
280
     0
281
     0
  0
CLASS
  1
MATERIAL
  2
AcDbMaterial
  3
ObjectDBX Classes
 90
     1153
280
     0
281
     0
  0
CLASS
  1
ACDBPLACEHOLDER
  2
AcDbPlaceHolder
  3
ObjectDBX Classes
 90
        0
280
     0
281
     0
  0
CLASS
  1
LAYOUT
  2
AcDbLayout
  3
ObjectDBX Classes
 90
        0
280
     0
281
     0
  0
ENDSEC
  0
SECTION
  2
TABLES
  0
TABLE
  2
VPORT
  5
8
330
0
100
AcDbSymbolTable
 70
     1
  0
VPORT
  5
29
330
8
100
AcDbSymbolTableRecord
100
AcDbViewportTableRecord
  2
*Active
 70
     0
 10
0.0
 20
0.0
 11
1.0
 21
1.0
 12
139.7
 22
107.95
 13
0.0
 23
0.0
 14
10.0
 24
10.0
 15
10.0
 25
10.0
 16
0.0
 26
0.0
 36
1.0
 17
0.0
 27
0.0
 37
0.0
 40
215.9
 41
1.2941176471
 42
50.0
 43
0.0
 44
0.0
 50
0.0
 51
0.0
 71
     0
 72
  2000
 73
     1
 74
     3
 75
     0
 76
     0
 77
     0
 78
     0
281
     0
 65
     1
110
0.0
120
0.0
130
0.0
111
1.0
121
0.0
131
0.0
112
0.0
122
1.0
132
0.0
 79
     0
146
0.0
  0
ENDTAB
  0
TABLE
  2
LTYPE
  5
5
330
0
100
AcDbSymbolTable
 70
     6
  0
LTYPE
  5
14
330
5
100
AcDbSymbolTableRecord
100
AcDbLinetypeTableRecord
  2
ByBlock
 70
     0
  3

 72
    65
 73
     0
 40
0.0
  0
LTYPE
  5
15
330
5
100
AcDbSymbolTableRecord
100
AcDbLinetypeTableRecord
  2
ByLayer
 70
     0
  3

 72
    65
 73
     0
 40
0.0
  0
LTYPE
  5
16
330
5
100
AcDbSymbolTableRecord
100
AcDbLinetypeTableRecord
  2
Continuous
 70
     0
  3
Solid line
 72
    65
 73
     0
 40
0.0
  0
LTYPE
  5
3F
330
5
100
AcDbSymbolTableRecord
100
AcDbLinetypeTableRecord
  2
HIDDEN
 70
     0
  3
Hidden __ __ __ __ __ __ __ __ __ __ __ __ __ __
 72
    65
 73
     2
 40
1.905
 49
1.27
 74
     0
 49
-0.635
 74
     0
  0
LTYPE
  5
40
330
5
100
AcDbSymbolTableRecord
100
AcDbLinetypeTableRecord
  2
PHANTOM
 70
     0
  3
Phantom ______  __  __  ______  __  __  ______
 72
    65
 73
     6
 40
12.7
 49
6.35
 74
     0
 49
-1.27
 74
     0
 49
1.27
 74
     0
 49
-1.27
 74
     0
 49
1.27
 74
     0
 49
-1.27
 74
     0
  0
LTYPE
  5
41
330
5
100
AcDbSymbolTableRecord
100
AcDbLinetypeTableRecord
  2
CENTER
 70
     0
  3
Center ____ _ ____ _ ____ _ ____ _ ____ _ ____
 72
    65
 73
     4
 40
10.16
 49
6.35
 74
     0
 49
-1.27
 74
     0
 49
1.27
 74
     0
 49
-1.27
 74
     0
  0
LTYPE
  5
42
330
5
100
AcDbSymbolTableRecord
100
AcDbLinetypeTableRecord
  2
CENTERX2
 70
     0
  3
Center (2x) ________  __  ________  __  _____
 72
    65
 73
     4
 40
20.32
 49
12.7
 74
     0
 49
-2.54
 74
     0
 49
2.54
 74
     0
 49
-2.54
 74
     0
  0
LTYPE
  5
43
330
5
100
AcDbSymbolTableRecord
100
AcDbLinetypeTableRecord
  2
DOT2
 70
     0
  3
Dot (.5x) ........................................
 72
    65
 73
     2
 40
0.635
 49
0.0
 74
     0
 49
-0.635
 74
     0
  0
ENDTAB
  0
TABLE
  2
LAYER
  5
2
330
0
100
AcDbSymbolTable
 70
     2
  0
LAYER
  5
10
330
2
100
AcDbSymbolTableRecord
100
AcDbLayerTableRecord
  2
0
 70
     0
 62
     7
  6
Continuous
370
    -3
390
F
  0
LAYER
  5
44
330
2
100
AcDbSymbolTableRecord
100
AcDbLayerTableRecord
  2
FORMAT
 70
     0
 62
     7
  6
Continuous
370
    -3
390
F
  0
ENDTAB
  0
TABLE
  2
STYLE
  5
3
330
0
100
AcDbSymbolTable
 70
     4
  0
STYLE
  5
11
330
3
100
AcDbSymbolTableRecord
100
AcDbTextStyleTableRecord
  2
Standard
 70
     0
 40
0.0
 41
1.0
 50
0.0
 71
     0
 42
2.5
  3
txt
  4

  0
STYLE
  5
6E
330
3
100
AcDbSymbolTableRecord
100
AcDbTextStyleTableRecord
  2
SLDTEXTSTYLE0
 70
     0
 40
0.0
 41
0.75
 50
0.0
 71
     0
 42
0.2
  3
TXT
  4

  0
STYLE
  5
A7
330
3
100
AcDbSymbolTableRecord
100
AcDbTextStyleTableRecord
  2
SLDTEXTSTYLE1
 70
     0
 40
0.0
 41
0.6
 50
0.0
 71
     0
 42
0.2
  3
TXT
  4

  0
STYLE
  5
C5
330
3
100
AcDbSymbolTableRecord
100
AcDbTextStyleTableRecord
  2
SLDTEXTSTYLE2
 70
     0
 40
0.0
 41
0.6982758621
 50
0.0
 71
     0
 42
0.2
  3
TXT
  4

  0
ENDTAB
  0
TABLE
  2
VIEW
  5
6
330
0
100
AcDbSymbolTable
 70
     0
  0
ENDTAB
  0
TABLE
  2
UCS
  5
7
330
0
100
AcDbSymbolTable
 70
     0
  0
ENDTAB
  0
TABLE
  2
APPID
  5
9
330
0
100
AcDbSymbolTable
 70
     1
  0
APPID
  5
12
330
9
100
AcDbSymbolTableRecord
100
AcDbRegAppTableRecord
  2
ACAD
 70
     0
  0
ENDTAB
  0
TABLE
  2
DIMSTYLE
  5
A
330
0
100
AcDbSymbolTable
 70
     6
100
AcDbDimStyleTable
  0
DIMSTYLE
105
27
330
A
100
AcDbSymbolTableRecord
100
AcDbDimStyleTableRecord
  2
ISO-25
 70
     0
 41
2.5
 42
0.625
 43
3.75
 44
1.25
 73
     0
 74
     0
 77
     1
 78
     8
140
2.5
141
2.5
143
0.0393700787
147
0.625
171
     3
172
     1
178
     0
271
     2
272
     2
274
     3
278
    44
283
     0
284
     8
340
11
  0
DIMSTYLE
105
10C
102
{ACAD_REACTORS
330
10B
102
}
330
A
100
AcDbSymbolTableRecord
100
AcDbDimStyleTableRecord
  2
SLDDIMSTYLE0
 70
     0
 41
4.064
 44
0.0
 45
0.000000001
 78
     4
 79
     1
140
2.286
143
0.0393700787
147
0.5715
148
0.000000001
170
     1
172
     1
173
     1
178
     0
271
     2
272
     2
276
     2
284
    12
289
     0
340
6E
  0
DIMSTYLE
105
11F
102
{ACAD_REACTORS
330
11E
102
}
330
A
100
AcDbSymbolTableRecord
100
AcDbDimStyleTableRecord
  2
SLDDIMSTYLE1
 70
     0
 41
4.064
 44
0.0
 45
0.000000001
 78
     4
 79
     1
140
2.286
143
0.0393700787
147
0.5715
148
0.000000001
170
     1
172
     1
173
     1
178
     0
271
     1
272
     1
276
     2
284
    12
289
     0
340
6E
  0
DIMSTYLE
105
133
102
{ACAD_REACTORS
330
132
330
158
330
16A
102
}
330
A
100
AcDbSymbolTableRecord
100
AcDbDimStyleTableRecord
  2
SLDDIMSTYLE2
 70
     0
 41
4.064
 44
0.0
 45
0.000000001
 78
    12
 79
     3
140
2.286
143
0.0393700787
147
0.5715
148
0.000000001
170
     1
173
     1
178
     0
271
     1
272
     1
276
     2
284
    12
340
6E
  0
DIMSTYLE
105
146
102
{ACAD_REACTORS
330
145
102
}
330
A
100
AcDbSymbolTableRecord
100
AcDbDimStyleTableRecord
  2
SLDDIMSTYLE3
 70
     0
 41
4.064
 44
0.0
 45
0.000000001
 78
     4
 79
     1
140
2.286
143
0.0393700787
147
0.5715
148
0.000000001
170
     1
172
     1
173
     1
178
     0
271
     1
272
     1
276
     2
284
    12
289
     0
340
6E
  0
DIMSTYLE
105
17E
330
A
100
AcDbSymbolTableRecord
100
AcDbDimStyleTableRecord
  2
SLDDIMSTYLE4
 70
     0
 41
4.064
 44
0.0
 45
0.000000001
140
0.0
146
4.064
147
0.0
173
     1
178
     0
271
     0
272
     0
276
     2
340
11
  0
ENDTAB
  0
TABLE
  2
BLOCK_RECORD
  5
1
330
0
100
AcDbSymbolTable
 70
    14
  0
BLOCK_RECORD
  5
1F
330
1
100
AcDbSymbolTableRecord
100
AcDbBlockTableRecord
  2
*Model_Space
340
22
  0
BLOCK_RECORD
  5
1B
330
1
100
AcDbSymbolTableRecord
100
AcDbBlockTableRecord
  2
*Paper_Space
340
1E
  0
BLOCK_RECORD
  5
23
330
1
100
AcDbSymbolTableRecord
100
AcDbBlockTableRecord
  2
*Paper_Space0
340
26
  0
BLOCK_RECORD
  5
45
330
1
100
AcDbSymbolTableRecord
100
AcDbBlockTableRecord
  2
Third Angle Projection Block
340
0
102
{BLKREFS
331
6A
102
}
  0
BLOCK_RECORD
  5
6B
330
1
100
AcDbSymbolTableRecord
100
AcDbBlockTableRecord
  2
SW_NOTE_0
340
0
102
{BLKREFS
331
71
102
}
  0
BLOCK_RECORD
  5
72
330
1
100
AcDbSymbolTableRecord
100
AcDbBlockTableRecord
  2
SW_NOTE_1
340
0
102
{BLKREFS
331
9C
102
}
  0
BLOCK_RECORD
  5
AD
330
1
100
AcDbSymbolTableRecord
100
AcDbBlockTableRecord
  2
SW_NOTE_2
340
0
102
{BLKREFS
331
B2
102
}
  0
BLOCK_RECORD
  5
B3
330
1
100
AcDbSymbolTableRecord
100
AcDbBlockTableRecord
  2
SW_NOTE_3
340
0
102
{BLKREFS
331
B8
102
}
  0
BLOCK_RECORD
  5
BA
330
1
100
AcDbSymbolTableRecord
100
AcDbBlockTableRecord
  2
SW_NOTE_4
340
0
102
{BLKREFS
331
BF
102
}
  0
BLOCK_RECORD
  5
C1
330
1
100
AcDbSymbolTableRecord
100
AcDbBlockTableRecord
  2
SW_NOTE_5
340
0
102
{BLKREFS
331
C7
102
}
  0
BLOCK_RECORD
  5
10D
330
1
100
AcDbSymbolTableRecord
100
AcDbBlockTableRecord
  2
*D8
340
0
  0
BLOCK_RECORD
  5
120
330
1
100
AcDbSymbolTableRecord
100
AcDbBlockTableRecord
  2
*D9
340
0
  0
BLOCK_RECORD
  5
134
330
1
100
AcDbSymbolTableRecord
100
AcDbBlockTableRecord
  2
*D10
340
0
  0
BLOCK_RECORD
  5
147
330
1
100
AcDbSymbolTableRecord
100
AcDbBlockTableRecord
  2
*D11
340
0
  0
BLOCK_RECORD
  5
159
330
1
100
AcDbSymbolTableRecord
100
AcDbBlockTableRecord
  2
*D12
340
0
  0
BLOCK_RECORD
  5
16B
330
1
100
AcDbSymbolTableRecord
100
AcDbBlockTableRecord
  2
*D13
340
0
  0
ENDTAB
  0
ENDSEC
  0
SECTION
  2
BLOCKS
  0
BLOCK
  5
20
330
1F
100
AcDbEntity
  8
0
100
AcDbBlockBegin
  2
*Model_Space
 70
     0
 10
0.0
 20
0.0
 30
0.0
  3
*Model_Space
  1

  0
ENDBLK
  5
21
330
1F
100
AcDbEntity
  8
0
100
AcDbBlockEnd
  0
BLOCK
  5
1C
330
1B
100
AcDbEntity
 67
     1
  8
0
100
AcDbBlockBegin
  2
*Paper_Space
 70
     0
 10
0.0
 20
0.0
 30
0.0
  3
*Paper_Space
  1

  0
ENDBLK
  5
1D
330
1B
100
AcDbEntity
 67
     1
  8
0
100
AcDbBlockEnd
  0
BLOCK
  5
24
330
23
100
AcDbEntity
  8
0
100
AcDbBlockBegin
  2
*Paper_Space0
 70
     0
 10
0.0
 20
0.0
 30
0.0
  3
*Paper_Space0
  1

  0
ENDBLK
  5
25
330
23
100
AcDbEntity
  8
0
100
AcDbBlockEnd
  0
BLOCK
  5
46
330
45
100
AcDbEntity
  8
0
100
AcDbBlockBegin
  2
Third Angle Projection Block
 70
     0
 10
0.0
 20
0.0
 30
0.0
  3
Third Angle Projection Block
  1

  0
CIRCLE
  5
48
330
45
100
AcDbEntity
  8
0
  6
Continuous
 62
     7
370
    30
100
AcDbCircle
 10
101.4766388944
 20
18.9404083667
 30
0.0
 40
1.768227153674871
  0
CIRCLE
  5
49
330
45
100
AcDbEntity
  8
0
  6
Continuous
 62
     7
370
    30
100
AcDbCircle
 10
101.4766388944
 20
18.9404083667
 30
0.0
 40
3.901228248531818
  0
LINE
  5
4A
330
45
100
AcDbEntity
  8
0
  6
CENTERX2
 62
     7
370
     0
100
AcDbLine
 10
110.1367822585
 20
18.9404083667
 30
0.0
 11
119.4527334874
 21
18.9404083667
 31
0.0
  0
LINE
  5
4B
330
45
100
AcDbEntity
  8
0
  6
Continuous
 62
     7
370
    30
100
AcDbLine
 10
111.0016388944
 20
20.7086355204
 30
0.0
 11
111.0016388944
 21
17.172181213
 31
0.0
  0
LINE
  5
4C
330
45
100
AcDbEntity
  8
0
  6
Continuous
 62
     7
370
    30
100
AcDbLine
 10
111.0016388944
 20
17.172181213
 30
0.0
 11
118.6216388944
 21
15.1304083667
 31
0.0
  0
LINE
  5
4D
330
45
100
AcDbEntity
  8
0
  6
Continuous
 62
     7
370
    30
100
AcDbLine
 10
118.6216388944
 20
15.1304083667
 30
0.0
 11
118.6216388944
 21
22.7504083667
 31
0.0
  0
LINE
  5
4E
330
45
100
AcDbEntity
  8
0
  6
Continuous
 62
     7
370
    30
100
AcDbLine
 10
118.6216388944
 20
22.7504083667
 30
0.0
 11
111.0016388944
 21
20.7086355204
 31
0.0
  0
LINE
  5
4F
330
45
100
AcDbEntity
  8
0
  6
CENTERX2
 62
     7
370
     0
100
AcDbLine
 10
96.6025854619
 20
18.9404083667
 30
0.0
 11
106.3506923269
 21
18.9404083667
 31
0.0
  0
LINE
  5
50
330
45
100
AcDbEntity
  8
0
  6
CENTERX2
 62
     7
370
     0
100
AcDbLine
 10
101.4766388944
 20
23.8144617992
 30
0.0
 11
101.4766388944
 21
14.0663549342
 31
0.0
  0
POINT
  5
51
330
45
100
AcDbEntity
  8
0
  6
Continuous
 62
     7
370
     0
100
AcDbPoint
 10
101.4766388944
 20
18.9404083667
 30
0.0
  0
ENDBLK
  5
47
330
45
100
AcDbEntity
  8
0
100
AcDbBlockEnd
  0
BLOCK
  5
6C
330
6B
100
AcDbEntity
  8
0
100
AcDbBlockBegin
  2
SW_NOTE_0
 70
     0
 10
0.0
 20
0.0
 30
0.0
  3
SW_NOTE_0
  1

  0
MTEXT
  5
6F
330
6B
100
AcDbEntity
  8
0
  6
Continuous
 62
     0
370
     0
100
AcDbMText
 10
11.89434375
 20
2.9468088531
 30
0.0
 40
2.286
 41
0.0
 71
     2
 72
     1
  1
ISOMETRIC VIEW
  7
SLDTEXTSTYLE0
 73
     1
 44
1.0
  0
MTEXT
  5
70
330
6B
100
AcDbEntity
  8
0
  6
Continuous
 62
     0
370
     0
100
AcDbMText
 10
11.7070191319
 20
-0.3391912552
 30
0.0
 40
2.286
 41
0.0
 71
     2
 72
     1
  1
SCALE 1:1
  7
SLDTEXTSTYLE0
 73
     1
 44
1.0
  0
ENDBLK
  5
6D
330
6B
100
AcDbEntity
  8
0
100
AcDbBlockEnd
  0
BLOCK
  5
73
330
72
100
AcDbEntity
  8
0
100
AcDbBlockBegin
  2
SW_NOTE_1
 70
     0
 10
0.0
 20
0.0
 30
0.0
  3
SW_NOTE_1
  1

  0
MTEXT
  5
75
330
72
100
AcDbEntity
  8
0
  6
Continuous
 62
     0
370
     0
100
AcDbMText
 10
0.0
 20
2.9468088531
 30
0.0
 40
2.286
 41
0.0
 71
     1
 72
     1
  1
NOTES/SPECIFICATIONS:
  7
SLDTEXTSTYLE0
 73
     1
 44
1.0
  0
MTEXT
  5
76
330
72
100
AcDbEntity
  8
0
  6
Continuous
 62
     0
370
     0
100
AcDbMText
 10
9.9999997765
 20
-0.3391912552
 30
0.0
 40
2.286
 41
0.0
 71
     1
 72
     1
  1
BODY THICKNESS: 1.5mm
  7
SLDTEXTSTYLE0
 73
     1
 44
1.0
  0
MTEXT
  5
77
330
72
100
AcDbEntity
  8
0
  6
Continuous
 62
     0
370
     0
100
AcDbMText
 10
0.0
 20
-0.3391912552
 30
0.0
 40
2.286
 41
0.0
 71
     1
 72
     1
  1
1.
  7
SLDTEXTSTYLE0
 73
     1
 44
1.0
  0
MTEXT
  5
78
330
72
100
AcDbEntity
  8
0
  6
Continuous
 62
     0
370
     0
100
AcDbMText
 10
9.9999997765
 20
-3.6251913636
 30
0.0
 40
2.286
 41
0.0
 71
     1
 72
     1
  1
DIAMETER TOLERANCE:
  7
SLDTEXTSTYLE0
 73
     1
 44
1.0
  0
MTEXT
  5
79
330
72
100
AcDbEntity
  8
0
  6
Continuous
 62
     0
370
     0
100
AcDbMText
 10
44.4233510643
 20
-3.6251913636
 30
0.0
 40
2.286
 41
0.0
 71
     1
 72
     1
  1
%%p
  7
SLDTEXTSTYLE0
 73
     1
 44
1.0
  0
MTEXT
  5
7A
330
72
100
AcDbEntity
  8
0
  6
Continuous
 62
     0
370
     0
100
AcDbMText
 10
46.6007646173
 20
-3.6251913636
 30
0.0
 40
2.286
 41
0.0
 71
     1
 72
     1
  1
1.6mm
  7
SLDTEXTSTYLE0
 73
     1
 44
1.0
  0
MTEXT
  5
7B
330
72
100
AcDbEntity
  8
0
  6
Continuous
 62
     0
370
     0
100
AcDbMText
 10
0.0
 20
-3.6251913636
 30
0.0
 40
2.286
 41
0.0
 71
     1
 72
     1
  1
2.
  7
SLDTEXTSTYLE0
 73
     1
 44
1.0
  0
MTEXT
  5
7C
330
72
100
AcDbEntity
  8
0
  6
Continuous
 62
     0
370
     0
100
AcDbMText
 10
9.9999997765
 20
-6.9111914719
 30
0.0
 40
2.286
 41
0.0
 71
     1
 72
     1
  1
DIMENSIONAL TOLERANCE:
  7
SLDTEXTSTYLE0
 73
     1
 44
1.0
  0
MTEXT
  5
7D
330
72
100
AcDbEntity
  8
0
  6
Continuous
 62
     0
370
     0
100
AcDbMText
 10
50.4082236439
 20
-6.9111914719
 30
0.0
 40
2.286
 41
0.0
 71
     1
 72
     1
  1
%%p
  7
SLDTEXTSTYLE0
 73
     1
 44
1.0
  0
MTEXT
  5
7E
330
72
100
AcDbEntity
  8
0
  6
Continuous
 62
     0
370
     0
100
AcDbMText
 10
52.5856409222
 20
-6.9111914719
 30
0.0
 40
2.286
 41
0.0
 71
     1
 72
     1
  1
0.8mm
  7
SLDTEXTSTYLE0
 73
     1
 44
1.0
  0
MTEXT
  5
7F
330
72
100
AcDbEntity
  8
0
  6
Continuous
 62
     0
370
     0
100
AcDbMText
 10
0.0
 20
-6.9111914719
 30
0.0
 40
2.286
 41
0.0
 71
     1
 72
     1
  1
3.
  7
SLDTEXTSTYLE0
 73
     1
 44
1.0
  0
MTEXT
  5
80
330
72
100
AcDbEntity
  8
0
  6
Continuous
 62
     0
370
     0
100
AcDbMText
 10
9.9999997765
 20
-10.9898316088
 30
0.0
 40
2.286
 41
0.0
 71
     1
 72
     1
  1
PRESSURE @ 25
  7
SLDTEXTSTYLE0
 73
     1
 44
1.0
  0
MTEXT
  5
81
330
72
100
AcDbEntity
  8
0
  6
Continuous
 62
     0
370
     0
100
AcDbMText
 10
31.5201506019
 20
-10.9898316088
 30
0.0
 40
2.286
 41
0.0
 71
     1
 72
     1
  1
%%d
  7
SLDTEXTSTYLE0
 73
     1
 44
1.0
  0
MTEXT
  5
82
330
72
100
AcDbEntity
  8
0
  6
Continuous
 62
     0
370
     0
100
AcDbMText
 10
32.9717602581
 20
-10.9898316088
 30
0.0
 40
2.286
 41
0.0
 71
     1
 72
     1
  1
C: >10
  7
SLDTEXTSTYLE0
 73
     1
 44
1.0
  0
MTEXT
  5
83
330
72
100
AcDbEntity
  8
0
  6
Continuous
 62
     0
370
     0
100
AcDbMText
 10
42.3634108156
 20
-9.9282718128
 30
0.0
 40
1.5875
 41
0.0
 71
     1
 72
     1
  1
-7
  7
SLDTEXTSTYLE0
 73
     1
 44
1.0
  0
MTEXT
  5
84
330
72
100
AcDbEntity
  8
0
  6
Continuous
 62
     0
370
     0
100
AcDbMText
 10
44.8240358382
 20
-10.8982687497
 30
0.0
 40
2.38125
 41
0.0
 71
     1
 72
     1
  1
TORR
  7
SLDTEXTSTYLE0
 73
     1
 44
1.0
  0
MTEXT
  5
85
330
72
100
AcDbEntity
  8
0
  6
Continuous
 62
     0
370
     0
100
AcDbMText
 10
0.0
 20
-10.8982687497
 30
0.0
 40
2.38125
 41
0.0
 71
     1
 72
     1
  1
4.
  7
SLDTEXTSTYLE0
 73
     1
 44
1.0
  0
MTEXT
  5
86
330
72
100
AcDbEntity
  8
0
  6
Continuous
 62
     0
370
     0
100
AcDbMText
 10
9.9999997765
 20
-15.3653859972
 30
0.0
 40
2.286
 41
0.0
 71
     1
 72
     1
  1
STEM HEIGHT: <10mm
  7
SLDTEXTSTYLE0
 73
     1
 44
1.0
  0
MTEXT
  5
87
330
72
100
AcDbEntity
  8
0
  6
Continuous
 62
     0
370
     0
100
AcDbMText
 10
0.0
 20
-15.3653859972
 30
0.0
 40
2.286
 41
0.0
 71
     1
 72
     1
  1
5.
  7
SLDTEXTSTYLE0
 73
     1
 44
1.0
  0
MTEXT
  5
88
330
72
100
AcDbEntity
  8
0
  6
Continuous
 62
     0
370
     0
100
AcDbMText
 10
9.9999997765
 20
-18.6513861055
 30
0.0
 40
2.286
 41
0.0
 71
     1
 72
     1
  1
WINDOW ANGLE: 0
  7
SLDTEXTSTYLE0
 73
     1
 44
1.0
  0
MTEXT
  5
89
330
72
100
AcDbEntity
  8
0
  6
Continuous
 62
     0
370
     0
100
AcDbMText
 10
38.1432007998
 20
-18.6513861055
 30
0.0
 40
2.286
 41
0.0
 71
     1
 72
     1
  1
%%d
  7
SLDTEXTSTYLE0
 73
     1
 44
1.0
  0
MTEXT
  5
8A
330
72
100
AcDbEntity
  8
0
  6
Continuous
 62
     0
370
     0
100
AcDbMText
 10
0.0
 20
-18.6513861055
 30
0.0
 40
2.286
 41
0.0
 71
     1
 72
     1
  1
6.
  7
SLDTEXTSTYLE0
 73
     1
 44
1.0
  0
MTEXT
  5
8B
330
72
100
AcDbEntity
  8
0
  6
Continuous
 62
     0
370
     0
100
AcDbMText
 10
9.9999997765
 20
-21.9373862139
 30
0.0
 40
2.286
 41
0.0
 71
     1
 72
     1
  1
WINDOW TYPE: FLAT
  7
SLDTEXTSTYLE0
 73
     1
 44
1.0
  0
MTEXT
  5
8C
330
72
100
AcDbEntity
  8
0
  6
Continuous
 62
     0
370
     0
100
AcDbMText
 10
0.0
 20
-21.9373862139
 30
0.0
 40
2.286
 41
0.0
 71
     1
 72
     1
  1
7.
  7
SLDTEXTSTYLE0
 73
     1
 44
1.0
  0
MTEXT
  5
8D
330
72
100
AcDbEntity
  8
0
  6
Continuous
 62
     0
370
     0
100
AcDbMText
 10
9.9999997765
 20
-25.2233863222
 30
0.0
 40
2.286
 41
0.0
 71
     1
 72
     1
  1
WINDOW THICKNESS: 1.6mm
  7
SLDTEXTSTYLE0
 73
     1
 44
1.0
  0
MTEXT
  5
8E
330
72
100
AcDbEntity
  8
0
  6
Continuous
 62
     0
370
     0
100
AcDbMText
 10
0.0
 20
-25.2233863222
 30
0.0
 40
2.286
 41
0.0
 71
     1
 72
     1
  1
8.
  7
SLDTEXTSTYLE0
 73
     1
 44
1.0
  0
MTEXT
  5
8F
330
72
100
AcDbEntity
  8
0
  6
Continuous
 62
     0
370
     0
100
AcDbMText
 10
9.9999997765
 20
-28.5093864306
 30
0.0
 40
2.286
 41
0.0
 71
     1
 72
     1
  1
WINDOW SURFACE QUALITY: 60-40 SCRATCH-DIG
  7
SLDTEXTSTYLE0
 73
     1
 44
1.0
  0
MTEXT
  5
90
330
72
100
AcDbEntity
  8
0
  6
Continuous
 62
     0
370
     0
100
AcDbMText
 10
0.0
 20
-28.5093864306
 30
0.0
 40
2.286
 41
0.0
 71
     1
 72
     1
  1
9.
  7
SLDTEXTSTYLE0
 73
     1
 44
1.0
  0
MTEXT
  5
91
330
72
100
AcDbEntity
  8
0
  6
Continuous
 62
     0
370
     0
100
AcDbMText
 10
9.9999997765
 20
-31.7953865389
 30
0.0
 40
2.286
 41
0.0
 71
     1
 72
     1
  1
MINIMUM TRANSMISSION: >84%
  7
SLDTEXTSTYLE0
 73
     1
 44
1.0
  0
MTEXT
  5
92
330
72
100
AcDbEntity
  8
0
  6
Continuous
 62
     0
370
     0
100
AcDbMText
 10
0.0
 20
-31.7953865389
 30
0.0
 40
2.286
 41
0.0
 71
     1
 72
     1
  1
10.
  7
SLDTEXTSTYLE0
 73
     1
 44
1.0
  0
MTEXT
  5
93
330
72
100
AcDbEntity
  8
0
  6
Continuous
 62
     0
370
     0
100
AcDbMText
 10
9.9999997765
 20
-35.0813866473
 30
0.0
 40
2.286
 41
0.0
 71
     1
 72
     1
  1
GAS: CESIUM Cs
  7
SLDTEXTSTYLE0
 73
     1
 44
1.0
  0
MTEXT
  5
94
330
72
100
AcDbEntity
  8
0
  6
Continuous
 62
     0
370
     0
100
AcDbMText
 10
0.0
 20
-35.0813866473
 30
0.0
 40
2.286
 41
0.0
 71
     1
 72
     1
  1
11.
  7
SLDTEXTSTYLE0
 73
     1
 44
1.0
  0
MTEXT
  5
95
330
72
100
AcDbEntity
  8
0
  6
Continuous
 62
     0
370
     0
100
AcDbMText
 10
9.9999997765
 20
-38.3673867556
 30
0.0
 40
2.286
 41
0.0
 71
     1
 72
     1
  1
WAVELENGTH: 852nm
  7
SLDTEXTSTYLE0
 73
     1
 44
1.0
  0
MTEXT
  5
96
330
72
100
AcDbEntity
  8
0
  6
Continuous
 62
     0
370
     0
100
AcDbMText
 10
0.0
 20
-38.3673867556
 30
0.0
 40
2.286
 41
0.0
 71
     1
 72
     1
  1
12.
  7
SLDTEXTSTYLE0
 73
     1
 44
1.0
  0
MTEXT
  5
97
330
72
100
AcDbEntity
  8
0
  6
Continuous
 62
     0
370
     0
100
AcDbMText
 10
0.0
 20
-41.6533868639
 30
0.0
 40
2.286
 41
0.0
 71
     1
 72
     1
  1
13.
  7
SLDTEXTSTYLE0
 73
     1
 44
1.0
  0
MTEXT
  5
98
330
72
100
AcDbEntity
  8
0
  6
Continuous
 62
     0
370
     0
100
AcDbMText
 10
9.9999997765
 20
-47.5872746548
 30
0.0
 40
2.286
 41
0.0
 71
     1
 72
     1
  1
ALL DIMENSIONS ARE IN
  7
SLDTEXTSTYLE0
 73
     1
 44
1.0
  0
MTEXT
  5
99
330
72
100
AcDbEntity
  8
0
  6
Continuous
 62
     0
370
     0
100
AcDbMText
 10
45.9552884568
 20
-44.939387438
 30
0.0
 40
2.286
 41
0.0
 71
     1
 72
     1
  1
[in]
  7
SLDTEXTSTYLE0
 73
     1
 44
1.0
  0
MTEXT
  5
9A
330
72
100
AcDbEntity
  8
0
  6
Continuous
 62
     0
370
     0
100
AcDbMText
 10
45.4012509435
 20
-49.5652375622
 30
0.0
 40
2.286
 41
0.0
 71
     1
 72
     1
  1
mm
  7
SLDTEXTSTYLE0
 73
     1
 44
1.0
  0
MTEXT
  5
9B
330
72
100
AcDbEntity
  8
0
  6
Continuous
 62
     0
370
     0
100
AcDbMText
 10
0.0
 20
-47.5872746548
 30
0.0
 40
2.286
 41
0.0
 71
     1
 72
     1
  1
14.
  7
SLDTEXTSTYLE0
 73
     1
 44
1.0
  0
ENDBLK
  5
74
330
72
100
AcDbEntity
  8
0
100
AcDbBlockEnd
  0
BLOCK
  5
AE
330
AD
100
AcDbEntity
  8
0
100
AcDbBlockBegin
  2
SW_NOTE_2
 70
     0
 10
0.0
 20
0.0
 30
0.0
  3
SW_NOTE_2
  1

  0
MTEXT
  5
B0
330
AD
100
AcDbEntity
  8
0
  6
Continuous
 62
     0
370
     0
100
AcDbMText
 10
19.90725
 20
1.9645392354
 30
0.0
 40
1.524
 41
0.0
 71
     2
 72
     1
  1
VALUES IN PARENTHESIS ARE CALCULATED
  7
SLDTEXTSTYLE0
 73
     1
 44
1.0
  0
MTEXT
  5
B1
330
AD
100
AcDbEntity
  8
0
  6
Continuous
 62
     0
370
     0
100
AcDbMText
 10
19.8778795174
 20
-0.5594606586
 30
0.0
 40
1.524
 41
0.0
 71
     2
 72
     1
  1
AND MAY CONTAIN ROUNDOFF ERRORS
  7
SLDTEXTSTYLE0
 73
     1
 44
1.0
  0
ENDBLK
  5
AF
330
AD
100
AcDbEntity
  8
0
100
AcDbBlockEnd
  0
BLOCK
  5
B4
330
B3
100
AcDbEntity
  8
0
100
AcDbBlockBegin
  2
SW_NOTE_3
 70
     0
 10
0.0
 20
0.0
 30
0.0
  3
SW_NOTE_3
  1

  0
MTEXT
  5
B6
330
B3
100
AcDbEntity
  8
0
  6
Continuous
 62
     0
370
     0
100
AcDbMText
 10
0.0
 20
2.7285267159
 30
0.0
 40
2.1166666667
 41
0.0
 71
     1
 72
     1
  1
DRAWING
  7
SLDTEXTSTYLE0
 73
     1
 44
1.0
  0
MTEXT
  5
B7
330
B3
100
AcDbEntity
  8
0
  6
Continuous
 62
     0
370
     0
100
AcDbMText
 10
0.0
 20
-0.0936954723
 30
0.0
 40
2.1166666667
 41
0.0
 71
     1
 72
     1
  1
PROJECTION
  7
SLDTEXTSTYLE0
 73
     1
 44
1.0
  0
ENDBLK
  5
B5
330
B3
100
AcDbEntity
  8
0
100
AcDbBlockEnd
  0
BLOCK
  5
BB
330
BA
100
AcDbEntity
  8
0
100
AcDbBlockBegin
  2
SW_NOTE_4
 70
     0
 10
0.0
 20
0.0
 30
0.0
  3
SW_NOTE_4
  1

  0
MTEXT
  5
BD
330
BA
100
AcDbEntity
  8
0
  6
Continuous
 62
     0
370
     0
100
AcDbMText
 10
25.052734375
 20
4.0927900738
 30
0.0
 40
3.175
 41
0.0
 71
     2
 72
     1
  1
FOR INFORMATION ONLY
  7
SLDTEXTSTYLE0
 73
     1
 44
1.0
  0
MTEXT
  5
BE
330
BA
100
AcDbEntity
  8
0
  6
Continuous
 62
     0
370
     0
100
AcDbMText
 10
25.3768468589
 20
-0.1405432084
 30
0.0
 40
3.175
 41
0.0
 71
     2
 72
     1
  1
NOT FOR MANUFACTURING PURPOSES
  7
SLDTEXTSTYLE0
 73
     1
 44
1.0
  0
ENDBLK
  5
BC
330
BA
100
AcDbEntity
  8
0
100
AcDbBlockEnd
  0
BLOCK
  5
C2
330
C1
100
AcDbEntity
  8
0
100
AcDbBlockBegin
  2
SW_NOTE_5
 70
     0
 10
0.0
 20
0.0
 30
0.0
  3
SW_NOTE_5
  1

  0
MTEXT
  5
C4
330
C1
100
AcDbEntity
  8
0
  6
Continuous
 62
     0
370
     0
100
AcDbMText
 10
13.3118489583
 20
3.4106583948
 30
0.0
 40
2.6458333333
 41
0.0
 71
     2
 72
     1
  1
PYREX REF. CELL
  7
SLDTEXTSTYLE0
 73
     1
 44
1.0
  0
MTEXT
  5
C6
330
C1
100
AcDbEntity
  8
0
  6
Continuous
 62
     0
370
     0
100
AcDbMText
 10
12.9952074041
 20
-0.1171193403
 30
0.0
 40
2.6458333333
 41
0.0
 71
     2
 72
     1
  1
Ø25 mm x 71.8 mm, Cesium [Cs]
  7
SLDTEXTSTYLE2
 73
     1
 44
1.0
  0
ENDBLK
  5
C3
330
C1
100
AcDbEntity
  8
0
100
AcDbBlockEnd
  0
BLOCK
  5
10E
330
10D
100
AcDbEntity
  8
0
100
AcDbBlockBegin
  2
*D8
 70
     1
 10
0.0
 20
0.0
 30
0.0
  3
*D8
  1

  0
SOLID
  5
110
330
10D
100
AcDbEntity
  8
0
  6
Continuous
 62
     7
370
     0
100
AcDbTrace
 10
130.4082914041
 20
141.2429003188
 30
0.0
 11
134.4722914041
 21
140.5825003188
 31
0.0
 12
134.4722914041
 22
141.9033003188
 32
0.0
 13
134.4722914041
 23
141.9033003188
 33
0.0
  0
SOLID
  5
111
330
10D
100
AcDbEntity
  8
0
  6
Continuous
 62
     7
370
     0
100
AcDbTrace
 10
128.8082914041
 20
141.2429003188
 30
0.0
 11
124.7442914041
 21
141.9033003188
 31
0.0
 12
124.7442914041
 22
140.5825003188
 32
0.0
 13
124.7442914041
 23
140.5825003188
 33
0.0
  0
LINE
  5
112
330
10D
100
AcDbEntity
  8
0
  6
Continuous
 62
     7
370
     0
100
AcDbLine
 10
117.7562917549
 20
144.598736583
 30
0.0
 11
117.7562917549
 21
141.514995151
 31
0.0
  0
LINE
  5
113
330
10D
100
AcDbEntity
  8
0
  6
Continuous
 62
     7
370
     0
100
AcDbLine
 10
117.7562917549
 20
141.514995151
 30
0.0
 11
118.2202509253
 21
141.514995151
 31
0.0
  0
LINE
  5
114
330
10D
100
AcDbEntity
  8
0
  6
Continuous
 62
     7
370
     0
100
AcDbLine
 10
117.7562917549
 20
144.598736583
 30
0.0
 11
118.2202509253
 21
144.598736583
 31
0.0
  0
LINE
  5
115
330
10D
100
AcDbEntity
  8
0
  6
Continuous
 62
     7
370
     0
100
AcDbLine
 10
125.5227116374
 20
144.598736583
 30
0.0
 11
125.5227116374
 21
141.514995151
 31
0.0
  0
LINE
  5
116
330
10D
100
AcDbEntity
  8
0
  6
Continuous
 62
     7
370
     0
100
AcDbLine
 10
125.5227116374
 20
141.514995151
 30
0.0
 11
125.058752467
 21
141.514995151
 31
0.0
  0
LINE
  5
117
330
10D
100
AcDbEntity
  8
0
  6
Continuous
 62
     7
370
     0
100
AcDbLine
 10
125.5227116374
 20
144.598736583
 30
0.0
 11
125.058752467
 21
144.598736583
 31
0.0
  0
LINE
  5
118
330
10D
100
AcDbEntity
  8
0
  6
Continuous
 62
     7
370
     0
100
AcDbLine
 10
130.4082914041
 20
132.7098927507
 30
0.0
 11
130.4082914041
 21
144.4179003188
 31
0.0
  0
LINE
  5
119
330
10D
100
AcDbEntity
  8
0
  6
Continuous
 62
     7
370
     0
100
AcDbLine
 10
128.8082914041
 20
132.7098927507
 30
0.0
 11
128.8082914041
 21
144.4179003188
 31
0.0
  0
LINE
  5
11A
330
10D
100
AcDbEntity
  8
0
  6
Continuous
 62
     7
370
     0
100
AcDbLine
 10
130.4082914041
 20
141.2429003188
 30
0.0
 11
139.2982914041
 21
141.2429003188
 31
0.0
  0
LINE
  5
11B
330
10D
100
AcDbEntity
  8
0
  6
Continuous
 62
     7
370
     0
100
AcDbLine
 10
128.8082914041
 20
141.2429003188
 30
0.0
 11
128.5020891485
 21
141.2429003188
 31
0.0
  0
MTEXT
  5
11C
330
10D
100
AcDbEntity
  8
0
  6
Continuous
 62
     7
370
     0
100
AcDbMText
 10
118.6842100957
 20
140.5617782502
 30
0.0
 40
2.286
 41
0.0
 71
     1
 72
     1
  1
1.60
  7
SLDTEXTSTYLE0
 73
     1
 44
1.0
  0
MTEXT
  5
11D
330
10D
100
AcDbEntity
  8
0
  6
Continuous
 62
     7
370
     0
100
AcDbMText
 10
118.6842100957
 20
144.1897093466
 30
0.0
 40
2.286
 41
0.0
 71
     1
 72
     1
  1
0.06
  7
SLDTEXTSTYLE0
 73
     1
 44
1.0
  0
ENDBLK
  5
10F
330
10D
100
AcDbEntity
  8
0
100
AcDbBlockEnd
  0
BLOCK
  5
121
330
120
100
AcDbEntity
  8
0
100
AcDbBlockBegin
  2
*D9
 70
     1
 10
0.0
 20
0.0
 30
0.0
  3
*D9
  1

  0
SOLID
  5
123
330
120
100
AcDbEntity
  8
0
  6
Continuous
 62
     7
370
     0
100
AcDbTrace
 10
149.2961351566
 20
131.4398927507
 30
0.0
 11
148.6357351566
 21
127.3758927507
 31
0.0
 12
149.9565351566
 22
127.3758927507
 32
0.0
 13
149.9565351566
 23
127.3758927507
 33
0.0
  0
SOLID
  5
124
330
120
100
AcDbEntity
  8
0
  6
Continuous
 62
     7
370
     0
100
AcDbTrace
 10
149.2961351566
 20
141.4398927507
 30
0.0
 11
149.9565351566
 21
145.5038927507
 31
0.0
 12
148.6357351566
 22
145.5038927507
 32
0.0
 13
148.6357351566
 23
145.5038927507
 33
0.0
  0
LINE
  5
125
330
120
100
AcDbEntity
  8
0
  6
Continuous
 62
     7
370
     0
100
AcDbLine
 10
141.5364686828
 20
139.7957290149
 30
0.0
 11
141.5364686828
 21
136.711987583
 31
0.0
  0
LINE
  5
126
330
120
100
AcDbEntity
  8
0
  6
Continuous
 62
     7
370
     0
100
AcDbLine
 10
141.5364686828
 20
136.711987583
 30
0.0
 11
142.0004278531
 21
136.711987583
 31
0.0
  0
LINE
  5
127
330
120
100
AcDbEntity
  8
0
  6
Continuous
 62
     7
370
     0
100
AcDbLine
 10
141.5364686828
 20
139.7957290149
 30
0.0
 11
142.0004278531
 21
139.7957290149
 31
0.0
  0
LINE
  5
128
330
120
100
AcDbEntity
  8
0
  6
Continuous
 62
     7
370
     0
100
AcDbLine
 10
157.0558016305
 20
139.7957290149
 30
0.0
 11
157.0558016305
 21
136.711987583
 31
0.0
  0
LINE
  5
129
330
120
100
AcDbEntity
  8
0
  6
Continuous
 62
     7
370
     0
100
AcDbLine
 10
157.0558016305
 20
136.711987583
 30
0.0
 11
156.5918424602
 21
136.711987583
 31
0.0
  0
LINE
  5
12A
330
120
100
AcDbEntity
  8
0
  6
Continuous
 62
     7
370
     0
100
AcDbLine
 10
157.0558016305
 20
139.7957290149
 30
0.0
 11
156.5918424602
 21
139.7957290149
 31
0.0
  0
LINE
  5
12B
330
120
100
AcDbEntity
  8
0
  6
Continuous
 62
     7
370
     0
100
AcDbLine
 10
163.4582914041
 20
141.4398927507
 30
0.0
 11
146.1211351566
 21
141.4398927507
 31
0.0
  0
LINE
  5
12C
330
120
100
AcDbEntity
  8
0
  6
Continuous
 62
     7
370
     0
100
AcDbLine
 10
149.2961351566
 20
131.4398927507
 30
0.0
 11
149.2961351566
 21
122.5498927507
 31
0.0
  0
LINE
  5
12D
330
120
100
AcDbEntity
  8
0
  6
Continuous
 62
     7
370
     0
100
AcDbLine
 10
149.2961351566
 20
141.4398927507
 30
0.0
 11
149.2961351566
 21
150.3298927507
 31
0.0
  0
MTEXT
  5
12E
330
120
100
AcDbEntity
  8
0
  6
Continuous
 62
     7
370
     0
100
AcDbMText
 10
142.4643870235
 20
135.7587706821
 30
0.0
 40
2.286
 41
0.0
 71
     1
 72
     1
  1
10.0
  7
SLDTEXTSTYLE0
 73
     1
 44
1.0
  0
MTEXT
  5
12F
330
120
100
AcDbEntity
  8
0
  6
Continuous
 62
     7
370
     0
100
AcDbMText
 10
149.217795617
 20
135.7587706821
 30
0.0
 40
2.286
 41
0.0
 71
     1
 72
     1
  1
MAX
  7
SLDTEXTSTYLE0
 73
     1
 44
1.0
  0
MTEXT
  5
130
330
120
100
AcDbEntity
  8
0
  6
Continuous
 62
     7
370
     0
100
AcDbMText
 10
142.4643870235
 20
139.3867017785
 30
0.0
 40
2.286
 41
0.0
 71
     1
 72
     1
  1
0.39
  7
SLDTEXTSTYLE0
 73
     1
 44
1.0
  0
MTEXT
  5
131
330
120
100
AcDbEntity
  8
0
  6
Continuous
 62
     7
370
     0
100
AcDbMText
 10
149.217795617
 20
139.3867017785
 30
0.0
 40
2.286
 41
0.0
 71
     1
 72
     1
  1
MAX
  7
SLDTEXTSTYLE0
 73
     1
 44
1.0
  0
ENDBLK
  5
122
330
120
100
AcDbEntity
  8
0
100
AcDbBlockEnd
  0
BLOCK
  5
135
330
134
100
AcDbEntity
  8
0
100
AcDbBlockBegin
  2
*D10
 70
     1
 10
0.0
 20
0.0
 30
0.0
  3
*D10
  1

  0
SOLID
  5
137
330
134
100
AcDbEntity
  8
0
  6
Continuous
 62
     7
370
     0
100
AcDbTrace
 10
214.0736472748
 20
130.6898927507
 30
0.0
 11
213.4132472748
 21
126.6258927507
 31
0.0
 12
214.7340472748
 22
126.6258927507
 32
0.0
 13
214.7340472748
 23
126.6258927507
 33
0.0
  0
SOLID
  5
138
330
134
100
AcDbEntity
  8
0
  6
Continuous
 62
     7
370
     0
100
AcDbTrace
 10
214.0736472748
 20
107.1898927507
 30
0.0
 11
214.7340472748
 21
111.2538927507
 31
0.0
 12
213.4132472748
 22
111.2538927507
 32
0.0
 13
213.4132472748
 23
111.2538927507
 33
0.0
  0
LINE
  5
139
330
134
100
AcDbEntity
  8
0
  6
Continuous
 62
     7
370
     0
100
AcDbLine
 10
210.1904373335
 20
122.2957290149
 30
0.0
 11
210.1904373335
 21
119.211987583
 31
0.0
  0
LINE
  5
13A
330
134
100
AcDbEntity
  8
0
  6
Continuous
 62
     7
370
     0
100
AcDbLine
 10
210.1904373335
 20
119.211987583
 30
0.0
 11
210.6543965039
 21
119.211987583
 31
0.0
  0
LINE
  5
13B
330
134
100
AcDbEntity
  8
0
  6
Continuous
 62
     7
370
     0
100
AcDbLine
 10
210.1904373335
 20
122.2957290149
 30
0.0
 11
210.6543965039
 21
122.2957290149
 31
0.0
  0
LINE
  5
13C
330
134
100
AcDbEntity
  8
0
  6
Continuous
 62
     7
370
     0
100
AcDbLine
 10
217.956857216
 20
122.2957290149
 30
0.0
 11
217.956857216
 21
119.211987583
 31
0.0
  0
LINE
  5
13D
330
134
100
AcDbEntity
  8
0
  6
Continuous
 62
     7
370
     0
100
AcDbLine
 10
217.956857216
 20
119.211987583
 30
0.0
 11
217.4928980456
 21
119.211987583
 31
0.0
  0
LINE
  5
13E
330
134
100
AcDbEntity
  8
0
  6
Continuous
 62
     7
370
     0
100
AcDbLine
 10
217.956857216
 20
122.2957290149
 30
0.0
 11
217.4928980456
 21
122.2957290149
 31
0.0
  0
LINE
  5
13F
330
134
100
AcDbEntity
  8
0
  6
Continuous
 62
     7
370
     0
100
AcDbLine
 10
200.3182914041
 20
130.6898927507
 30
0.0
 11
217.2486472748
 21
130.6898927507
 31
0.0
  0
LINE
  5
140
330
134
100
AcDbEntity
  8
0
  6
Continuous
 62
     7
370
     0
100
AcDbLine
 10
200.3182914041
 20
107.1898927507
 30
0.0
 11
217.2486472748
 21
107.1898927507
 31
0.0
  0
LINE
  5
141
330
134
100
AcDbEntity
  8
0
  6
Continuous
 62
     7
370
     0
100
AcDbLine
 10
214.0736472748
 20
130.6898927507
 30
0.0
 11
214.0736472748
 21
122.5678238471
 31
0.0
  0
LINE
  5
142
330
134
100
AcDbEntity
  8
0
  6
Continuous
 62
     7
370
     0
100
AcDbLine
 10
214.0736472748
 20
107.1898927507
 30
0.0
 11
214.0736472748
 21
115.3119616543
 31
0.0
  0
MTEXT
  5
143
330
134
100
AcDbEntity
  8
0
  6
Continuous
 62
     7
370
     0
100
AcDbMText
 10
211.1183556743
 20
118.2587706821
 30
0.0
 40
2.286
 41
0.0
 71
     1
 72
     1
  1
23.5
  7
SLDTEXTSTYLE0
 73
     1
 44
1.0
  0
MTEXT
  5
144
330
134
100
AcDbEntity
  8
0
  6
Continuous
 62
     7
370
     0
100
AcDbMText
 10
211.1183556743
 20
121.8867017785
 30
0.0
 40
2.286
 41
0.0
 71
     1
 72
     1
  1
0.93
  7
SLDTEXTSTYLE0
 73
     1
 44
1.0
  0
ENDBLK
  5
136
330
134
100
AcDbEntity
  8
0
100
AcDbBlockEnd
  0
BLOCK
  5
148
330
147
100
AcDbEntity
  8
0
100
AcDbBlockBegin
  2
*D11
 70
     1
 10
0.0
 20
0.0
 30
0.0
  3
*D11
  1

  0
SOLID
  5
14A
330
147
100
AcDbEntity
  8
0
  6
Continuous
 62
     7
370
     0
100
AcDbTrace
 10
227.3016198539
 20
106.4398927507
 30
0.0
 11
226.6412198539
 21
102.3758927507
 31
0.0
 12
227.9620198539
 22
102.3758927507
 32
0.0
 13
227.9620198539
 23
102.3758927507
 33
0.0
  0
SOLID
  5
14B
330
147
100
AcDbEntity
  8
0
  6
Continuous
 62
     7
370
     0
100
AcDbTrace
 10
227.3016198539
 20
131.4398927507
 30
0.0
 11
227.9620198539
 21
135.5038927507
 31
0.0
 12
226.6412198539
 22
135.5038927507
 32
0.0
 13
226.6412198539
 23
135.5038927507
 33
0.0
  0
LINE
  5
14C
330
147
100
AcDbEntity
  8
0
  6
Continuous
 62
     7
370
     0
100
AcDbLine
 10
223.4184099127
 20
122.2957290149
 30
0.0
 11
223.4184099127
 21
119.211987583
 31
0.0
  0
LINE
  5
14D
330
147
100
AcDbEntity
  8
0
  6
Continuous
 62
     7
370
     0
100
AcDbLine
 10
223.4184099127
 20
119.211987583
 30
0.0
 11
223.8823690831
 21
119.211987583
 31
0.0
  0
LINE
  5
14E
330
147
100
AcDbEntity
  8
0
  6
Continuous
 62
     7
370
     0
100
AcDbLine
 10
223.4184099127
 20
122.2957290149
 30
0.0
 11
223.8823690831
 21
122.2957290149
 31
0.0
  0
LINE
  5
14F
330
147
100
AcDbEntity
  8
0
  6
Continuous
 62
     7
370
     0
100
AcDbLine
 10
231.1848297952
 20
122.2957290149
 30
0.0
 11
231.1848297952
 21
119.211987583
 31
0.0
  0
LINE
  5
150
330
147
100
AcDbEntity
  8
0
  6
Continuous
 62
     7
370
     0
100
AcDbLine
 10
231.1848297952
 20
119.211987583
 30
0.0
 11
230.7208706248
 21
119.211987583
 31
0.0
  0
LINE
  5
151
330
147
100
AcDbEntity
  8
0
  6
Continuous
 62
     7
370
     0
100
AcDbLine
 10
231.1848297952
 20
122.2957290149
 30
0.0
 11
230.7208706248
 21
122.2957290149
 31
0.0
  0
LINE
  5
152
330
147
100
AcDbEntity
  8
0
  6
Continuous
 62
     7
370
     0
100
AcDbLine
 10
200.3182914041
 20
106.4398927507
 30
0.0
 11
230.4766198539
 21
106.4398927507
 31
0.0
  0
LINE
  5
153
330
147
100
AcDbEntity
  8
0
  6
Continuous
 62
     7
370
     0
100
AcDbLine
 10
200.3182914041
 20
131.4398927507
 30
0.0
 11
230.4766198539
 21
131.4398927507
 31
0.0
  0
LINE
  5
154
330
147
100
AcDbEntity
  8
0
  6
Continuous
 62
     7
370
     0
100
AcDbLine
 10
227.3016198539
 20
106.4398927507
 30
0.0
 11
227.3016198539
 21
97.5498927507
 31
0.0
  0
LINE
  5
155
330
147
100
AcDbEntity
  8
0
  6
Continuous
 62
     7
370
     0
100
AcDbLine
 10
227.3016198539
 20
131.4398927507
 30
0.0
 11
227.3016198539
 21
140.3298927507
 31
0.0
  0
MTEXT
  5
156
330
147
100
AcDbEntity
  8
0
  6
Continuous
 62
     7
370
     0
100
AcDbMText
 10
224.3463282535
 20
118.2587706821
 30
0.0
 40
2.286
 41
0.0
 71
     1
 72
     1
  1
25.0
  7
SLDTEXTSTYLE0
 73
     1
 44
1.0
  0
MTEXT
  5
157
330
147
100
AcDbEntity
  8
0
  6
Continuous
 62
     7
370
     0
100
AcDbMText
 10
224.3463282535
 20
121.8867017785
 30
0.0
 40
2.286
 41
0.0
 71
     1
 72
     1
  1
0.98
  7
SLDTEXTSTYLE0
 73
     1
 44
1.0
  0
ENDBLK
  5
149
330
147
100
AcDbEntity
  8
0
100
AcDbBlockEnd
  0
BLOCK
  5
15A
330
159
100
AcDbEntity
  8
0
100
AcDbBlockBegin
  2
*D12
 70
     1
 10
0.0
 20
0.0
 30
0.0
  3
*D12
  1

  0
SOLID
  5
15C
330
159
100
AcDbEntity
  8
0
  6
Continuous
 62
     7
370
     0
100
AcDbTrace
 10
164.7282914041
 20
156.6439904295
 30
0.0
 11
160.6642914041
 21
157.3043904295
 31
0.0
 12
160.6642914041
 22
155.9835904295
 32
0.0
 13
160.6642914041
 23
155.9835904295
 33
0.0
  0
SOLID
  5
15D
330
159
100
AcDbEntity
  8
0
  6
Continuous
 62
     7
370
     0
100
AcDbTrace
 10
128.8082914041
 20
156.6439904295
 30
0.0
 11
132.8722914041
 21
155.9835904295
 31
0.0
 12
132.8722914041
 22
157.3043904295
 32
0.0
 13
132.8722914041
 23
157.3043904295
 33
0.0
  0
LINE
  5
15E
330
159
100
AcDbEntity
  8
0
  6
Continuous
 62
     7
370
     0
100
AcDbLine
 10
142.297209955
 20
159.9998266937
 30
0.0
 11
142.297209955
 21
156.9160852618
 31
0.0
  0
LINE
  5
15F
330
159
100
AcDbEntity
  8
0
  6
Continuous
 62
     7
370
     0
100
AcDbLine
 10
142.297209955
 20
156.9160852618
 30
0.0
 11
142.7611691254
 21
156.9160852618
 31
0.0
  0
LINE
  5
160
330
159
100
AcDbEntity
  8
0
  6
Continuous
 62
     7
370
     0
100
AcDbLine
 10
142.297209955
 20
159.9998266937
 30
0.0
 11
142.7611691254
 21
159.9998266937
 31
0.0
  0
LINE
  5
161
330
159
100
AcDbEntity
  8
0
  6
Continuous
 62
     7
370
     0
100
AcDbLine
 10
150.0636298375
 20
159.9998266937
 30
0.0
 11
150.0636298375
 21
156.9160852618
 31
0.0
  0
LINE
  5
162
330
159
100
AcDbEntity
  8
0
  6
Continuous
 62
     7
370
     0
100
AcDbLine
 10
150.0636298375
 20
156.9160852618
 30
0.0
 11
149.5996706671
 21
156.9160852618
 31
0.0
  0
LINE
  5
163
330
159
100
AcDbEntity
  8
0
  6
Continuous
 62
     7
370
     0
100
AcDbLine
 10
150.0636298375
 20
159.9998266937
 30
0.0
 11
149.5996706671
 21
159.9998266937
 31
0.0
  0
LINE
  5
164
330
159
100
AcDbEntity
  8
0
  6
Continuous
 62
     7
370
     0
100
AcDbLine
 10
164.7282914041
 20
142.7098927507
 30
0.0
 11
164.7282914041
 21
159.8189904295
 31
0.0
  0
LINE
  5
165
330
159
100
AcDbEntity
  8
0
  6
Continuous
 62
     7
370
     0
100
AcDbLine
 10
128.8082914041
 20
132.7098927507
 30
0.0
 11
128.8082914041
 21
159.8189904295
 31
0.0
  0
LINE
  5
166
330
159
100
AcDbEntity
  8
0
  6
Continuous
 62
     7
370
     0
100
AcDbLine
 10
164.7282914041
 20
156.6439904295
 30
0.0
 11
153.0430073486
 21
156.6439904295
 31
0.0
  0
LINE
  5
167
330
159
100
AcDbEntity
  8
0
  6
Continuous
 62
     7
370
     0
100
AcDbLine
 10
128.8082914041
 20
156.6439904295
 30
0.0
 11
139.3178324439
 21
156.6439904295
 31
0.0
  0
MTEXT
  5
168
330
159
100
AcDbEntity
  8
0
  6
Continuous
 62
     7
370
     0
100
AcDbMText
 10
143.2251282958
 20
155.9628683609
 30
0.0
 40
2.286
 41
0.0
 71
     1
 72
     1
  1
35.9
  7
SLDTEXTSTYLE0
 73
     1
 44
1.0
  0
MTEXT
  5
169
330
159
100
AcDbEntity
  8
0
  6
Continuous
 62
     7
370
     0
100
AcDbMText
 10
143.2251282958
 20
159.5907994573
 30
0.0
 40
2.286
 41
0.0
 71
     1
 72
     1
  1
1.41
  7
SLDTEXTSTYLE0
 73
     1
 44
1.0
  0
ENDBLK
  5
15B
330
159
100
AcDbEntity
  8
0
100
AcDbBlockEnd
  0
BLOCK
  5
16C
330
16B
100
AcDbEntity
  8
0
100
AcDbBlockBegin
  2
*D13
 70
     1
 10
0.0
 20
0.0
 30
0.0
  3
*D13
  1

  0
SOLID
  5
16E
330
16B
100
AcDbEntity
  8
0
  6
Continuous
 62
     7
370
     0
100
AcDbTrace
 10
200.6482914041
 20
95.0465827682
 30
0.0
 11
196.5842914041
 21
95.7069827682
 31
0.0
 12
196.5842914041
 22
94.3861827682
 32
0.0
 13
196.5842914041
 23
94.3861827682
 33
0.0
  0
SOLID
  5
16F
330
16B
100
AcDbEntity
  8
0
  6
Continuous
 62
     7
370
     0
100
AcDbTrace
 10
128.8082914041
 20
95.0465827682
 30
0.0
 11
132.8722914041
 21
94.3861827682
 31
0.0
 12
132.8722914041
 22
95.7069827682
 32
0.0
 13
132.8722914041
 23
95.7069827682
 33
0.0
  0
LINE
  5
170
330
16B
100
AcDbEntity
  8
0
  6
Continuous
 62
     7
370
     0
100
AcDbLine
 10
160.8450814629
 20
98.4024190324
 30
0.0
 11
160.8450814629
 21
95.3186776005
 31
0.0
  0
LINE
  5
171
330
16B
100
AcDbEntity
  8
0
  6
Continuous
 62
     7
370
     0
100
AcDbLine
 10
160.8450814629
 20
95.3186776005
 30
0.0
 11
161.3090406332
 21
95.3186776005
 31
0.0
  0
LINE
  5
172
330
16B
100
AcDbEntity
  8
0
  6
Continuous
 62
     7
370
     0
100
AcDbLine
 10
160.8450814629
 20
98.4024190324
 30
0.0
 11
161.3090406332
 21
98.4024190324
 31
0.0
  0
LINE
  5
173
330
16B
100
AcDbEntity
  8
0
  6
Continuous
 62
     7
370
     0
100
AcDbLine
 10
168.6115013453
 20
98.4024190324
 30
0.0
 11
168.6115013453
 21
95.3186776005
 31
0.0
  0
LINE
  5
174
330
16B
100
AcDbEntity
  8
0
  6
Continuous
 62
     7
370
     0
100
AcDbLine
 10
168.6115013453
 20
95.3186776005
 30
0.0
 11
168.147542175
 21
95.3186776005
 31
0.0
  0
LINE
  5
175
330
16B
100
AcDbEntity
  8
0
  6
Continuous
 62
     7
370
     0
100
AcDbLine
 10
168.6115013453
 20
98.4024190324
 30
0.0
 11
168.147542175
 21
98.4024190324
 31
0.0
  0
LINE
  5
176
330
16B
100
AcDbEntity
  8
0
  6
Continuous
 62
     7
370
     0
100
AcDbLine
 10
200.6482914041
 20
105.1698927507
 30
0.0
 11
200.6482914041
 21
91.8715827682
 31
0.0
  0
LINE
  5
177
330
16B
100
AcDbEntity
  8
0
  6
Continuous
 62
     7
370
     0
100
AcDbLine
 10
128.8082914041
 20
105.1698927507
 30
0.0
 11
128.8082914041
 21
91.8715827682
 31
0.0
  0
LINE
  5
178
330
16B
100
AcDbEntity
  8
0
  6
Continuous
 62
     7
370
     0
100
AcDbLine
 10
200.6482914041
 20
95.0465827682
 30
0.0
 11
171.5908788564
 21
95.0465827682
 31
0.0
  0
LINE
  5
179
330
16B
100
AcDbEntity
  8
0
  6
Continuous
 62
     7
370
     0
100
AcDbLine
 10
128.8082914041
 20
95.0465827682
 30
0.0
 11
157.8657039517
 21
95.0465827682
 31
0.0
  0
MTEXT
  5
17A
330
16B
100
AcDbEntity
  8
0
  6
Continuous
 62
     7
370
     0
100
AcDbMText
 10
161.7729998036
 20
94.3654606996
 30
0.0
 40
2.286
 41
0.0
 71
     1
 72
     1
  1
71.8
  7
SLDTEXTSTYLE0
 73
     1
 44
1.0
  0
MTEXT
  5
17B
330
16B
100
AcDbEntity
  8
0
  6
Continuous
 62
     7
370
     0
100
AcDbMText
 10
161.7729998036
 20
97.993391796
 30
0.0
 40
2.286
 41
0.0
 71
     1
 72
     1
  1
2.83
  7
SLDTEXTSTYLE0
 73
     1
 44
1.0
  0
ENDBLK
  5
16D
330
16B
100
AcDbEntity
  8
0
100
AcDbBlockEnd
  0
ENDSEC
  0
SECTION
  2
ENTITIES
  0
LINE
  5
52
330
1F
100
AcDbEntity
  8
0
  6
Continuous
 62
     7
370
     0
100
AcDbLine
 10
1.5793501011
 20
214.6453799966
 30
0.0
 11
277.9892068491
 21
214.6453799966
 31
0.0
  0
LINE
  5
53
330
1F
100
AcDbEntity
  8
0
  6
Continuous
 62
     7
370
     0
100
AcDbLine
 10
1.5793501011
 20
214.6453799966
 30
0.0
 11
1.5793501011
 21
0.9031642596
 31
0.0
  0
LINE
  5
54
330
1F
100
AcDbEntity
  8
0
  6
Continuous
 62
     7
370
     0
100
AcDbLine
 10
277.9892068491
 20
0.9031642596
 30
0.0
 11
1.5793501011
 21
0.9031642596
 31
0.0
  0
LINE
  5
55
330
1F
100
AcDbEntity
  8
0
  6
Continuous
 62
     7
370
     0
100
AcDbLine
 10
277.9892068491
 20
0.9031642596
 30
0.0
 11
277.9892068491
 21
214.6453799966
 31
0.0
  0
LINE
  5
56
330
1F
100
AcDbEntity
  8
0
  6
Continuous
 62
     7
370
     0
100
AcDbLine
 10
215.7427640041
 20
12.2958890132
 30
0.0
 11
171.6327596684
 21
12.2958890132
 31
0.0
  0
LINE
  5
57
330
1F
100
AcDbEntity
  8
0
  6
Continuous
 62
     7
370
     0
100
AcDbLine
 10
171.6327596684
 20
12.2958890132
 30
0.0
 11
171.6327596684
 21
26.1661402506
 31
0.0
  0
LINE
  5
58
330
1F
100
AcDbEntity
  8
0
  6
Continuous
 62
     7
370
     0
100
AcDbLine
 10
171.6327596684
 20
0.9031642596
 30
0.0
 11
171.6327596684
 21
26.1661402506
 31
0.0
  0
LINE
  5
59
330
1F
100
AcDbEntity
  8
0
  6
Continuous
 62
     7
370
     0
100
AcDbLine
 10
215.7427640041
 20
17.1604579552
 30
0.0
 11
277.9892068491
 21
17.1604579552
 31
0.0
  0
LINE
  5
5A
330
1F
100
AcDbEntity
  8
0
  6
Continuous
 62
     7
370
     0
100
AcDbLine
 10
215.7427640041
 20
35.2394508358
 30
0.0
 11
215.7427640041
 21
0.9031642596
 31
0.0
  0
LINE
  5
5B
330
1F
100
AcDbEntity
  8
0
  6
Continuous
 62
     7
370
     0
100
AcDbLine
 10
215.7427640041
 20
26.1661402506
 30
0.0
 11
171.6327596684
 21
26.1661402506
 31
0.0
  0
LINE
  5
5C
330
1F
100
AcDbEntity
  8
0
  6
Continuous
 62
     7
370
     0
100
AcDbLine
 10
215.7427640041
 20
9.1409200612
 30
0.0
 11
277.9892068491
 21
9.1409200612
 31
0.0
  0
LINE
  5
5D
330
1F
100
AcDbEntity
  8
0
  6
Continuous
 62
     7
370
     0
100
AcDbLine
 10
215.7427640041
 20
16.9216824031
 30
0.0
 11
171.6327596684
 21
16.9216824031
 31
0.0
  0
LINE
  5
5E
330
1F
100
AcDbEntity
  8
0
  6
Continuous
 62
     7
370
     0
100
AcDbLine
 10
215.7427640041
 20
21.4874005542
 30
0.0
 11
171.6327596684
 21
21.4874005542
 31
0.0
  0
LINE
  5
5F
330
1F
100
AcDbEntity
  8
0
  6
Continuous
 62
     7
370
     0
100
AcDbLine
 10
186.1338100705
 20
26.1661402506
 30
0.0
 11
186.1338100705
 21
12.2958890132
 31
0.0
  0
LINE
  5
60
330
1F
100
AcDbEntity
  8
0
  6
Continuous
 62
     7
370
     0
100
AcDbLine
 10
198.2145906188
 20
26.1661402506
 30
0.0
 11
198.2145906188
 21
12.2958890132
 31
0.0
  0
LINE
  5
61
330
1F
100
AcDbEntity
  8
0
  6
Continuous
 62
     7
370
     0
100
AcDbLine
 10
253.7490408369
 20
9.1409200612
 30
0.0
 11
253.7490408369
 21
0.9031642596
 31
0.0
  0
LINE
  5
62
330
1F
100
AcDbEntity
  8
0
  6
Continuous
 62
     7
370
     0
100
AcDbLine
 10
171.6327596684
 20
12.2958890132
 30
0.0
 11
171.6327596684
 21
7.5627342528
 31
0.0
  0
LINE
  5
63
330
1F
100
AcDbEntity
  8
0
  6
Continuous
 62
     7
370
     0
100
AcDbLine
 10
171.6327596684
 20
7.5627342528
 30
0.0
 11
215.7427640041
 21
7.5627342528
 31
0.0
  0
LINE
  5
64
330
1F
100
AcDbEntity
  8
0
  6
Continuous
 62
     7
370
     0
100
AcDbLine
 10
171.6327596684
 20
7.5627342528
 30
0.0
 11
171.6327596684
 21
35.2394508358
 31
0.0
  0
LINE
  5
65
330
1F
100
AcDbEntity
  8
0
  6
Continuous
 62
     7
370
     0
100
AcDbLine
 10
171.6327596684
 20
35.2394508358
 30
0.0
 11
215.7427640041
 21
35.2394508358
 31
0.0
  0
LINE
  5
66
330
1F
100
AcDbEntity
  8
0
  6
Continuous
 62
     7
370
     0
100
AcDbLine
 10
270.1683598194
 20
17.1604579552
 30
0.0
 11
270.1683598194
 21
9.1409200612
 31
0.0
  0
LINE
  5
67
330
1F
100
AcDbEntity
  8
0
  6
Continuous
 62
     7
370
     0
100
AcDbLine
 10
215.7427640041
 20
35.2394508358
 30
0.0
 11
277.9892068491
 21
35.2394508358
 31
0.0
  0
LINE
  5
68
330
1F
100
AcDbEntity
  8
0
  6
Continuous
 62
     7
370
     0
100
AcDbLine
 10
277.9892068491
 20
35.2394508358
 30
0.0
 11
277.9892068491
 21
50.0331356147
 31
0.0
  0
LINE
  5
69
330
1F
100
AcDbEntity
  8
0
  6
Continuous
 62
     7
370
     0
100
AcDbLine
 10
215.7427640041
 20
24.8927335446
 30
0.0
 11
277.9892068491
 21
24.8927335446
 31
0.0
  0
INSERT
  5
6A
330
1F
100
AcDbEntity
  8
0
  6
Continuous
 62
     7
100
AcDbBlockReference
  2
Third Angle Projection Block
 10
117.7262204235
 20
15.5162339489
 30
0.0
 41
0.8
 42
0.8
 43
0.8
  0
INSERT
  5
71
330
1F
100
AcDbEntity
  8
0
  6
Continuous
 62
     7
370
     0
100
AcDbBlockReference
  2
SW_NOTE_0
 10
222.3037839482
 20
148.6715808251
 30
0.0
  0
INSERT
  5
9C
330
1F
100
AcDbEntity
  8
0
  6
Continuous
 62
     7
370
     0
100
AcDbBlockReference
  2
SW_NOTE_1
 10
10.9339110157
 20
68.474612522
 30
0.0
  0
MTEXT
  5
9D
330
1F
100
AcDbEntity
  8
0
  6
Continuous
 62
     7
370
     0
100
AcDbMText
 10
273.8638944939
 20
13.1125292762
 30
0.0
 40
3.175
 41
0.0
 71
     2
 72
     1
  1
C
  7
SLDTEXTSTYLE0
 73
     1
 44
1.0
  0
MTEXT
  5
9E
330
1F
100
AcDbEntity
  8
0
  6
Continuous
 62
     7
370
     0
100
AcDbMText
 10
234.6380297474
 20
5.1540801997
 30
0.0
 40
2.6458333333
 41
0.0
 71
     2
 72
     1
  1
CP25075-CS
  7
SLDTEXTSTYLE0
 73
     1
 44
1.0
  0
MTEXT
  5
9F
330
1F
100
AcDbEntity
  8
0
  6
Continuous
 62
     7
370
     0
100
AcDbMText
 10
216.4199766059
 20
16.8243178599
 30
0.0
 40
2.1166666667
 41
0.0
 71
     1
 72
     1
  1
MATERIAL
  7
SLDTEXTSTYLE0
 73
     1
 44
1.0
  0
MTEXT
  5
A0
330
1F
100
AcDbEntity
  8
0
  6
Continuous
 62
     7
370
     0
100
AcDbMText
 10
174.230946566
 20
20.054553926
 30
0.0
 40
1.8520833333
 41
0.0
 71
     1
 72
     1
  1
DRAWN
  7
SLDTEXTSTYLE0
 73
     1
 44
1.0
  0
MTEXT
  5
A1
330
1F
100
AcDbEntity
  8
0
  6
Continuous
 62
     7
370
     0
100
AcDbMText
 10
172.3960124543
 20
15.5787169747
 30
0.0
 40
1.8520833333
 41
0.0
 71
     1
 72
     1
  1
APPROVAL
  7
SLDTEXTSTYLE0
 73
     1
 44
1.0
  0
MTEXT
  5
A2
330
1F
100
AcDbEntity
  8
0
  6
Continuous
 62
     7
370
     0
100
AcDbMText
 10
271.321689486
 20
16.0237652193
 30
0.0
 40
2.1166666667
 41
0.0
 71
     1
 72
     1
  1
REV
  7
SLDTEXTSTYLE0
 73
     1
 44
1.0
  0
MTEXT
  5
A3
330
1F
100
AcDbEntity
  8
0
  6
Continuous
 62
     7
370
     0
100
AcDbMText
 10
190.2958696448
 20
20.3177146903
 30
0.0
 40
2.1166666667
 41
0.0
 71
     1
 72
     1
  1
MG
  7
SLDTEXTSTYLE0
 73
     1
 44
1.0
  0
MTEXT
  5
A4
330
1F
100
AcDbEntity
  8
0
  6
Continuous
 62
     7
370
     0
100
AcDbMText
 10
190.2958696448
 20
15.841877739
 30
0.0
 40
2.1166666667
 41
0.0
 71
     1
 72
     1
  1
WD
  7
SLDTEXTSTYLE0
 73
     1
 44
1.0
  0
MTEXT
  5
A5
330
1F
100
AcDbEntity
  8
0
  6
Continuous
 62
     7
370
     0
100
AcDbMText
 10
199.8662436873
 20
20.3177146903
 30
0.0
 40
2.1166666667
 41
0.0
 71
     1
 72
     1
  1
22/MAR/11
  7
SLDTEXTSTYLE0
 73
     1
 44
1.0
  0
MTEXT
  5
A6
330
1F
100
AcDbEntity
  8
0
  6
Continuous
 62
     7
370
     0
100
AcDbMText
 10
203.6145073853
 20
24.8221395769
 30
0.0
 40
2.1166666667
 41
0.0
 71
     1
 72
     1
  1
DATE
  7
SLDTEXTSTYLE0
 73
     1
 44
1.0
  0
MTEXT
  5
A8
330
1F
100
AcDbEntity
  8
0
  6
Continuous
 62
     7
370
     0
100
AcDbMText
 10
229.402906477
 20
27.7957480569
 30
0.0
 40
2.1166666667
 41
0.0
 71
     1
 72
     1
  1
w w w . t h o r  l a b s . c o m
  7
SLDTEXTSTYLE1
 73
     1
 44
1.0
  0
MTEXT
  5
A9
330
1F
100
AcDbEntity
  8
0
  6
Continuous
 62
     7
370
     0
100
AcDbMText
 10
216.7004035316
 20
8.3494791871
 30
0.0
 40
2.1166666667
 41
0.0
 71
     1
 72
     1
  1
ITEM #
  7
SLDTEXTSTYLE0
 73
     1
 44
1.0
  0
MTEXT
  5
AA
330
1F
100
AcDbEntity
  8
0
  6
Continuous
 62
     7
370
     0
100
AcDbMText
 10
254.5318000914
 20
8.3494791871
 30
0.0
 40
2.1166666667
 41
0.0
 71
     1
 72
     1
  1
APPROX WEIGHT
  7
SLDTEXTSTYLE0
 73
     1
 44
1.0
  0
MTEXT
  5
AB
330
1F
100
AcDbEntity
  8
0
  6
Continuous
 62
     7
370
     0
100
AcDbMText
 10
243.4312674163
 20
13.135953086
 30
0.0
 40
2.6458333333
 41
0.0
 71
     2
 72
     1
  1
PYREX/SCHOTT BOROFLOAT
  7
SLDTEXTSTYLE0
 73
     1
 44
1.0
  0
MTEXT
  5
AC
330
1F
100
AcDbEntity
  8
0
  6
Continuous
 62
     7
370
     0
100
AcDbMText
 10
266.1678480997
 20
5.1306563898
 30
0.0
 40
3.175
 41
0.0
 71
     2
 72
     1
  1
0.06 kg
  7
SLDTEXTSTYLE0
 73
     1
 44
1.0
  0
INSERT
  5
B2
330
1F
100
AcDbEntity
  8
0
  6
Continuous
 62
     7
370
     0
100
AcDbBlockReference
  2
SW_NOTE_2
 10
174.8430140051
 20
4.4558554801
 30
0.0
  0
INSERT
  5
B8
330
1F
100
AcDbEntity
  8
0
  6
Continuous
 62
     7
370
     0
100
AcDbBlockReference
  2
SW_NOTE_3
 10
174.5483650337
 20
30.4835322715
 30
0.0
  0
MTEXT
  5
B9
330
1F
100
AcDbEntity
  8
0
  6
Continuous
 62
     7
370
     0
100
AcDbMText
 10
187.9273588276
 20
24.8221395769
 30
0.0
 40
2.1166666667
 41
0.0
 71
     1
 72
     1
  1
NAME
  7
SLDTEXTSTYLE0
 73
     1
 44
1.0
  0
INSERT
  5
BF
330
1F
100
AcDbEntity
  8
0
  6
Continuous
 62
     7
370
     0
100
AcDbBlockReference
  2
SW_NOTE_4
 10
58.6204667508
 20
8.1776609732
 30
0.0
  0
MTEXT
  5
C0
330
1F
100
AcDbEntity
  8
0
  6
Continuous
 62
     7
370
     0
100
AcDbMText
 10
179.1174811218
 20
10.6680638482
 30
0.0
 40
1.5875
 41
0.0
 71
     1
 72
     1
  1
COPYRIGHT © 2010 BY THORLABS
  7
SLDTEXTSTYLE0
 73
     1
 44
1.0
  0
INSERT
  5
C7
330
1F
100
AcDbEntity
  8
0
  6
Continuous
 62
     7
370
     0
100
AcDbBlockReference
  2
SW_NOTE_5
 10
234.7355697769
 20
20.9955364058
 30
0.0
  0
MTEXT
  5
C8
330
1F
100
AcDbEntity
  8
0
  6
Continuous
 62
     7
370
     0
100
AcDbMText
 10
199.8662436873
 20
15.841877739
 30
0.0
 40
2.1166666667
 41
0.0
 71
     1
 72
     1
  1
22/MAR/11
  7
SLDTEXTSTYLE0
 73
     1
 44
1.0
  0
SPLINE
  5
C9
330
1F
100
AcDbEntity
  8
0
  6
Continuous
 62
     7
370
     0
100
AcDbSpline
210
0.0
220
0.0
230
1.0
 70
     8
 71
     3
 72
    17
 73
    13
 74
     0
 42
0.00000001
 43
0.00000001
 40
0.0
 40
0.0
 40
0.0
 40
0.0
 40
0.1130706412526419
 40
0.277081329695874
 40
0.4278623011627995
 40
0.5655870324719687
 40
0.6895292028687772
 40
0.7981322117228508
 40
0.8888128819542186
 40
0.9563171889105113
 40
0.9933185838666766
 40
1.0
 40
1.0
 40
1.0
 40
1.0
 10
56.51391616449587
 20
131.4684156221795
 30
0.0
 10
56.51216999742127
 20
131.4467321682688
 30
0.0
 10
56.5078909883917
 20
131.3935965339838
 30
0.0
 10
56.48045603075923
 20
131.3152272377185
 30
0.0
 10
56.43959581697557
 20
131.2383575368797
 30
0.0
 10
56.39071193642106
 20
131.175627662895
 30
0.0
 10
56.3390266625675
 20
131.1265409869007
 30
0.0
 10
56.28870062372791
 20
131.0901826145099
 30
0.0
 10
56.24385639729836
 20
131.0650772657486
 30
0.0
 10
56.21041100512178
 20
131.0501473907471
 30
0.0
 10
56.19118755152155
 20
131.0428617060325
 30
0.0
 10
56.18623587946617
 20
131.0411419912821
 30
0.0
 10
56.18547850646905
 20
131.0408789557862
 30
0.0
  0
SPLINE
  5
CA
330
1F
100
AcDbEntity
  8
0
  6
Continuous
 62
     7
370
     0
100
AcDbSpline
210
0.0
220
0.0
230
1.0
 70
     8
 71
     3
 72
    16
 73
    12
 74
     0
 42
0.00000001
 43
0.00000001
 40
0.0
 40
0.0
 40
0.0
 40
0.0
 40
0.0134011920144993
 40
0.0539130384452812
 40
0.1579127663883113
 40
0.2780553261342241
 40
0.4341751781562244
 40
0.6316860253843294
 40
0.7980193159388351
 40
0.9812844624433308
 40
1.0
 40
1.0
 40
1.0
 40
1.0
 10
62.46876080878906
 20
131.0401180652428
 30
0.0
 10
62.46722423613381
 20
131.0406464909792
 30
0.0
 10
62.46104259941474
 20
131.0427723494113
 30
0.0
 10
62.43307552518306
 20
131.0534502532978
 30
0.0
 10
62.38767192319222
 20
131.0752357541472
 30
0.0
 10
62.32600064967599
 20
131.1152674992849
 30
0.0
 10
62.2582838228629
 20
131.1767104736597
 30
0.0
 10
62.19824965957695
 20
131.2582225128388
 30
0.0
 10
62.15686152876544
 20
131.3549069326295
 30
0.0
 10
62.13659280393975
 20
131.4244239991877
 30
0.0
 10
62.13684248065082
 20
131.4632905979844
 30
0.0
 10
62.13686561570398
 20
131.4668919784474
 30
0.0
  0
SPLINE
  5
CB
330
1F
100
AcDbEntity
  8
0
  6
Continuous
 62
     7
370
     0
100
AcDbSpline
210
0.0
220
0.0
230
1.0
 70
     8
 71
     3
 72
    18
 73
    14
 74
     0
 42
0.00000001
 43
0.00000001
 40
0.0
 40
0.0
 40
0.0
 40
0.0
 40
0.0432234512420682
 40
0.1413612685954523
 40
0.2376443459225314
 40
0.3297512781105953
 40
0.4201706441289874
 40
0.512748404783926
 40
0.6157454126140435
 40
0.7180292419219909
 40
0.817506734576361
 40
0.9121172028172262
 40
0.9999999999999999
 40
0.9999999999999999
 40
0.9999999999999999
 40
0.9999999999999999
 10
62.13812150419585
 20
131.4679024634409
 30
0.0
 10
62.12318055550908
 20
131.617291186196
 30
0.0
 10
62.07431653841446
 20
132.1058634486065
 30
0.0
 10
62.00236764825644
 20
132.9281674816143
 30
0.0
 10
61.88330858731705
 20
133.9166368052784
 30
0.0
 10
61.69910206398383
 20
134.8687653368244
 30
0.0
 10
61.42862739605344
 20
135.786231151247
 30
0.0
 10
61.10062888676759
 20
136.7240784920359
 30
0.0
 10
60.72393171341812
 20
137.6878106829377
 30
0.0
 10
60.32247133065895
 20
138.6673133880005
 30
0.0
 10
59.93788439574784
 20
139.6220365147387
 30
0.0
 10
59.58925168811704
 20
140.5380459170878
 30
0.0
 10
59.41158452376943
 20
141.1467578539404
 30
0.0
 10
59.32602581926517
 20
141.4398936448145
 30
0.0
  0
SPLINE
  5
CC
330
1F
100
AcDbEntity
  8
0
  6
Continuous
 62
     7
370
     0
100
AcDbSpline
210
0.0
220
0.0
230
1.0
 70
     8
 71
     3
 72
    19
 73
    15
 74
     0
 42
0.00000001
 43
0.00000001
 40
0.0
 40
0.0
 40
0.0
 40
0.0
 40
0.0795946923939249
 40
0.1648784931532079
 40
0.2544831627605551
 40
0.346879785077095
 40
0.4404902049845976
 40
0.5337747057726578
 40
0.6253190526133905
 40
0.7080485273572517
 40
0.7941125266088268
 40
0.8831328721921077
 40
0.9731551753257554
 40
1.0
 40
1.0
 40
1.0
 40
1.0
 10
59.32602581926517
 20
141.4398936448145
 30
0.0
 10
59.24921629976446
 20
141.1742227140101
 30
0.0
 10
59.09010722535005
 20
140.6238917631869
 30
0.0
 10
58.78111782438464
 20
139.7951170529589
 30
0.0
 10
58.43799150971925
 20
138.9325870095633
 30
0.0
 10
58.07450262599709
 20
138.0469455097367
 30
0.0
 10
57.71373389685272
 20
137.1464208513287
 30
0.0
 10
57.37649477984954
 20
136.239815375083
 30
0.0
 10
57.08949821334152
 20
135.355509350563
 30
0.0
 10
56.86665838842482
 20
134.4780674526299
 30
0.0
 10
56.72673949239661
 20
133.5926970769612
 30
0.0
 10
56.62558566773269
 20
132.677385340415
 30
0.0
 10
56.56534954339372
 20
131.9647549545849
 30
0.0
 10
56.52390068992381
 20
131.5609533838338
 30
0.0
 10
56.51437973030738
 20
131.4681986240196
 30
0.0
  0
CIRCLE
  5
CD
330
1F
100
AcDbEntity
  8
0
  6
Continuous
 62
     7
370
     0
100
AcDbCircle
 10
59.3260258193
 20
118.9398927507
 30
0.0
 40
12.50000000000001
  0
SPLINE
  5
CE
330
1F
100
AcDbEntity
  8
0
  6
Continuous
 62
     8
370
     0
100
AcDbSpline
210
0.0
220
0.0
230
1.0
 70
     8
 71
     3
 72
    19
 73
    15
 74
     0
 42
0.00000001
 43
0.00000001
 40
0.0
 40
0.0
 40
0.0
 40
0.0
 40
0.0166647504555383
 40
0.1211737633664918
 40
0.2287868746431801
 40
0.2328633216826929
 40
0.3395187104814095
 40
0.4492672445748033
 40
0.5524707565005316
 40
0.6584280494221133
 40
0.7586642783173528
 40
0.8616570864291558
 40
0.9634579916276547
 40
1.0
 40
1.0
 40
1.0
 40
1.0
 10
59.32602581926517
 20
131.8941809130359
 30
0.0
 10
59.3505050373992
 20
131.8941195904243
 30
0.0
 10
59.52849984107083
 20
131.8936736976621
 30
0.0
 10
59.86423625827952
 20
131.8823758595686
 30
0.0
 10
60.17095123807972
 20
131.857070464574
 30
0.0
 10
60.46989992079202
 20
131.8250444744681
 30
0.0
 10
60.7619777826485
 20
131.7862654517587
 30
0.0
 10
61.14419743591985
 20
131.7181384913609
 30
0.0
 10
61.47583411323763
 20
131.645786761537
 30
0.0
 10
61.74177689697795
 20
131.5786960608161
 30
0.0
 10
61.94680580186317
 20
131.5213889921224
 30
0.0
 10
62.07749794304468
 20
131.4823188035527
 30
0.0
 10
62.13917579305546
 20
131.4631514138307
 30
0.0
 10
62.12969284383005
 20
131.4660912368464
 30
0.0
 10
62.12718801000051
 20
131.4668677640605
 30
0.0
  0
SPLINE
  5
CF
330
1F
100
AcDbEntity
  8
0
  6
Continuous
 62
     8
370
     0
100
AcDbSpline
210
0.0
220
0.0
230
1.0
 70
     8
 71
     3
 72
    17
 73
    13
 74
     0
 42
0.00000001
 43
0.00000001
 40
0.0
 40
0.0
 40
0.0
 40
0.0
 40
0.0517429367017552
 40
0.1588793719827236
 40
0.266133752503006
 40
0.3767897309791888
 40
0.4834511713698211
 40
0.5931489208069571
 40
0.6975115142158813
 40
0.8047575083809622
 40
0.9011763875608559
 40
1.0
 40
1.0
 40
1.0
 40
1.0
 10
56.52551695131592
 20
131.4670726550269
 30
0.0
 10
56.52379534724565
 20
131.4665394918541
 30
0.0
 10
56.51850907261718
 20
131.4649023866673
 30
0.0
 10
56.59571930535736
 20
131.488818200275
 30
0.0
 10
56.75310212774183
 20
131.5352809755648
 30
0.0
 10
56.98843327562638
 20
131.5994036194929
 30
0.0
 10
57.29049077368256
 20
131.6722213903997
 30
0.0
 10
57.64341842583102
 20
131.7441557794112
 30
0.0
 10
58.04334563723135
 20
131.8088722949645
 30
0.0
 10
58.46158766379507
 20
131.8571030564547
 30
0.0
 10
58.89437970363007
 20
131.8883226419912
 30
0.0
 10
59.18096718158571
 20
131.8922121872994
 30
0.0
 10
59.32602581926517
 20
131.8941809130359
 30
0.0
  0
LINE
  5
D0
330
1F
100
AcDbEntity
  8
0
  6
PHANTOM
 62
     7
370
    30
100
AcDbLine
 10
59.3260258193
 20
148.7948061468
 30
0.0
 11
59.3260258193
 21
99.5896475323
 31
0.0
  0
LINE
  5
D1
330
1F
100
AcDbEntity
  8
0
  6
Continuous
 62
     7
370
    30
100
AcDbLine
 10
59.3260258193
 20
148.7948061468
 30
0.0
 11
69.4860258193
 21
148.7948061468
 31
0.0
  0
SOLID
  5
D2
330
1F
100
AcDbEntity
  8
0
  6
Continuous
 62
     7
370
    30
100
AcDbTrace
 10
69.4860258193
 20
148.7948061468
 30
0.0
 11
65.0410258193
 21
149.7473061468
 31
0.0
 12
65.0410258193
 22
147.8423061468
 32
0.0
 13
65.0410258193
 23
147.8423061468
 33
0.0
  0
LINE
  5
D3
330
1F
100
AcDbEntity
  8
0
  6
Continuous
 62
     7
370
    30
100
AcDbLine
 10
59.3260258193
 20
99.5896475323
 30
0.0
 11
69.4860258193
 21
99.5896475323
 31
0.0
  0
SOLID
  5
D4
330
1F
100
AcDbEntity
  8
0
  6
Continuous
 62
     7
370
    30
100
AcDbTrace
 10
69.4860258193
 20
99.5896475323
 30
0.0
 11
65.0410258193
 21
100.5421475323
 31
0.0
 12
65.0410258193
 22
98.6371475323
 32
0.0
 13
65.0410258193
 23
98.6371475323
 33
0.0
  0
MTEXT
  5
D5
330
1F
100
AcDbEntity
  8
0
  6
Continuous
 62
     7
100
AcDbMText
 10
70.4423084761
 20
151.3165289156
 30
0.0
 40
3.175
 41
0.0
 71
     1
 72
     1
  1
A
  7
SLDTEXTSTYLE0
 73
     1
 44
1.0
  0
MTEXT
  5
D6
330
1F
100
AcDbEntity
  8
0
  6
Continuous
 62
     7
100
AcDbMText
 10
70.4423084761
 20
102.1113703011
 30
0.0
 40
3.175
 41
0.0
 71
     1
 72
     1
  1
A
  7
SLDTEXTSTYLE0
 73
     1
 44
1.0
  0
LINE
  5
D7
330
1F
100
AcDbEntity
  8
0
  6
Continuous
 62
     7
370
     0
100
AcDbLine
 10
262.0531525193
 20
176.8122134321
 30
0.0
 11
233.9083323399
 21
193.0598722805
 31
0.0
  0
LINE
  5
D8
330
1F
100
AcDbEntity
  8
0
  6
Continuous
 62
     7
370
     0
100
AcDbLine
 10
230.0701368118
 20
195.2756153955
 30
0.0
 11
213.5173430587
 21
204.8313398298
 31
0.0
  0
LINE
  5
D9
330
1F
100
AcDbEntity
  8
0
  6
Continuous
 62
     7
370
     0
100
AcDbLine
 10
201.0183589007
 20
183.1801182703
 30
0.0
 11
249.5541683614
 21
155.1609918726
 31
0.0
  0
SPLINE
  5
DA
330
1F
100
AcDbEntity
  8
0
  6
Continuous
 62
     7
370
     0
100
AcDbSpline
210
0.0
220
0.0
230
1.0
 70
     8
 71
     3
 72
    22
 73
    18
 74
     0
 42
0.00000001
 43
0.00000001
 40
0.0
 40
0.0
 40
0.0
 40
0.0
 40
0.0322872567325921
 40
0.0954752746193241
 40
0.1689653705030701
 40
0.2623042519245872
 40
0.3807513587905171
 40
0.4627879231064691
 40
0.5351267007519765
 40
0.5991759070805223
 40
0.6512717489013706
 40
0.7003761194863415
 40
0.7533174589684085
 40
0.8114235933102889
 40
0.872594492499522
 40
0.9423924862292588
 40
1.0
 40
1.0
 40
1.0
 40
1.0
 10
231.5357557100298
 20
198.3683341186263
 30
0.0
 10
231.5073938779204
 20
198.2851821875438
 30
0.0
 10
231.423526309617
 20
198.0392971462412
 30
0.0
 10
231.2498931338715
 20
197.6211047646782
 30
0.0
 10
230.9916626231505
 20
197.0691795435075
 30
0.0
 10
230.6495099998847
 20
196.3995373668568
 30
0.0
 10
230.2857727542339
 20
195.7083989912502
 30
0.0
 10
229.9513449696909
 20
195.0460780828346
 30
0.0
 10
229.6924102015916
 20
194.4955923949787
 30
0.0
 10
229.4814711081596
 20
193.9995002155799
 30
0.0
 10
229.3116799520313
 20
193.5477270322473
 30
0.0
 10
229.1685381866567
 20
193.1037028228852
 30
0.0
 10
229.0491261609071
 20
192.6250849183076
 30
0.0
 10
228.9544684721847
 20
192.1194288862515
 30
0.0
 10
228.8749403156532
 20
191.5729294862561
 30
0.0
 10
228.8120602334567
 20
191.0377210948306
 30
0.0
 10
228.7728619991415
 20
190.6906493929652
 30
0.0
 10
228.7551381748939
 20
190.5337178894776
 30
0.0
  0
SPLINE
  5
DB
330
1F
100
AcDbEntity
  8
0
  6
Continuous
 62
     7
370
     0
100
AcDbSpline
210
0.0
220
0.0
230
1.0
 70
     8
 71
     3
 72
    22
 73
    18
 74
     0
 42
0.00000001
 43
0.00000001
 40
0.0
 40
0.0
 40
0.0
 40
0.0
 40
0.0452288203455658
 40
0.1214240234585567
 40
0.1865213170805311
 40
0.2431546756173485
 40
0.3026135059026286
 40
0.3513231626412432
 40
0.4028818093795921
 40
0.4606935756418811
 40
0.5292641439041572
 40
0.6064087042322694
 40
0.6967326017915372
 40
0.8114212502873831
 40
0.8890854570802347
 40
0.9523440871756009
 40
1.0
 40
1.0
 40
1.0
 40
1.0
 10
234.3218330983122
 20
190.4873215948391
 30
0.0
 10
234.3077308650086
 20
190.6105850037065
 30
0.0
 10
234.2698711575389
 20
190.9415053977283
 30
0.0
 10
234.2098108053753
 20
191.4714173964331
 30
0.0
 10
234.1291696361639
 20
192.0451512214978
 30
0.0
 10
234.0324747143468
 20
192.5791106999688
 30
0.0
 10
233.9119412477665
 20
193.0748000244357
 30
0.0
 10
233.763133091786
 20
193.5382721737434
 30
0.0
 10
233.6001451153339
 20
193.973235520958
 30
0.0
 10
233.4009888749411
 20
194.4456595112682
 30
0.0
 10
233.1598067332835
 20
194.9641959127862
 30
0.0
 10
232.8699465357716
 20
195.5436841740365
 30
0.0
 10
232.5190403643415
 20
196.2164289004755
 30
0.0
 10
232.1725811520761
 20
196.881191648469
 30
0.0
 10
231.8788225230361
 20
197.4940915403035
 30
0.0
 10
231.6780752954192
 20
197.9590102785614
 30
0.0
 10
231.5785276735882
 20
198.2453181308906
 30
0.0
 10
231.5357557100298
 20
198.3683341186263
 30
0.0
  0
LINE
  5
DC
330
1F
100
AcDbEntity
  8
0
  6
Continuous
 62
     7
370
     0
100
AcDbLine
 10
263.1845233692
 20
176.1590869426
 30
0.0
 11
262.0531525193
 21
176.8122134321
 31
0.0
  0
LINE
  5
DD
330
1F
100
AcDbEntity
  8
0
  6
Continuous
 62
     7
370
     0
100
AcDbLine
 10
249.5541683614
 20
155.1609918726
 30
0.0
 11
250.6855392113
 21
154.5078653831
 31
0.0
  0
LINE
  5
DE
330
1F
100
AcDbEntity
  8
0
  6
Continuous
 62
     7
370
     0
100
AcDbLine
 10
199.8869880508
 20
183.8332447598
 30
0.0
 11
201.0183589007
 21
183.1801182703
 31
0.0
  0
LINE
  5
DF
330
1F
100
AcDbEntity
  8
0
  6
Continuous
 62
     7
370
     0
100
AcDbLine
 10
213.5173430587
 20
204.8313398298
 30
0.0
 11
212.3859722088
 21
205.4844663193
 31
0.0
  0
LWPOLYLINE
  5
E0
330
1F
100
AcDbEntity
  8
0
  6
Continuous
 62
     7
370
     0
100
AcDbPolyline
 90
       40
 70
   128
 43
0.0
 10
246.9648256755
 20
160.8840519534
 10
246.9809516503
 20
161.5096301218
 10
247.0292707326
 20
162.1515442775
 10
247.1096066114
 20
162.8074521452
 10
247.2216661499
 20
163.4749603884
 10
247.3650404547
 20
164.1516333418
 10
247.5392063688
 20
164.8350018993
 10
247.7435283796
 20
165.522572523
 10
247.9772609381
 20
166.2118363423
 10
248.2395511796
 20
166.9002783083
 10
248.5294420356
 20
167.585386371
 10
248.8458757256
 20
168.2646606452
 10
249.1876976176
 20
168.9356225329
 10
249.5536604404
 20
169.5958237668
 10
249.9424288353
 20
170.2428553443
 10
250.3525842288
 20
170.8743563173
 10
250.7826300083
 20
171.4880224072
 10
251.2309969832
 20
172.081614413
 10
251.6960491113
 20
172.652966382
 10
252.1760894676
 20
173.1999935126
 10
252.669366437
 20
173.7206997622
 10
253.1740801053
 20
174.2131851302
 10
253.6883888271
 20
174.6756525909
 10
254.2104159456
 20
175.1064146507
 10
254.7382566405
 20
175.5038995055
 10
255.2699848783
 20
175.8666567762
 10
255.8036604404
 20
176.1933628009
 10
256.3373360024
 20
176.4828254647
 10
256.8690642402
 20
176.7339885497
 10
257.3969049351
 20
176.9459355891
 10
257.9189320536
 20
177.1178932111
 10
258.4332407754
 20
177.249233961
 10
258.9379544437
 20
177.3394785906
 10
259.4312314131
 20
177.3882978072
 10
259.9112717694
 20
177.3955134746
 10
260.3763238975
 20
177.3610992636
 10
260.8246908724
 20
177.2851807481
 10
261.2547366519
 20
177.1680349464
 10
261.6648920454
 20
177.0100893108
 10
262.0531525193
 20
176.8122134321
  0
ARC
  5
E1
330
1F
100
AcDbEntity
  8
0
  6
Continuous
 62
     7
370
     0
100
AcDbCircle
 10
253.1538196977
 20
160.2369104486
 30
0.0
 40
6.222735663174719
100
AcDbArc
 50
174.0306576151
 51
234.6571619915
  0
LWPOLYLINE
  5
E2
330
1F
100
AcDbEntity
  8
0
  6
Continuous
 62
     7
370
     0
100
AcDbPolyline
 90
       40
 70
   128
 43
0.0
 10
198.4290162149
 20
188.9031783512
 10
198.4451421896
 20
189.5287565196
 10
198.493461272
 20
190.1706706752
 10
198.5737971508
 20
190.826578543
 10
198.6858566892
 20
191.4940867862
 10
198.8292309941
 20
192.1707597396
 10
199.0033969082
 20
192.854128297
 10
199.2077189189
 20
193.5416989207
 10
199.4414514774
 20
194.2309627401
 10
199.703741719
 20
194.9194047061
 10
199.993632575
 20
195.6045127687
 10
200.310066265
 20
196.283787043
 10
200.6518881569
 20
196.9547489306
 10
201.0178509797
 20
197.6149501645
 10
201.4066193747
 20
198.261981742
 10
201.8167747682
 20
198.893482715
 10
202.2468205476
 20
199.5071488049
 10
202.6951875226
 20
200.1007408108
 10
203.1602396506
 20
200.6720927797
 10
203.6402800069
 20
201.2191199103
 10
204.1335569763
 20
201.73982616
 10
204.6382706446
 20
202.232311528
 10
205.1525793664
 20
202.6947789887
 10
205.6746064849
 20
203.1255410485
 10
206.2024471798
 20
203.5230259033
 10
206.7341754176
 20
203.885783174
 10
207.2678509797
 20
204.2124891986
 10
207.8015265418
 20
204.5019518624
 10
208.3332547796
 20
204.7531149474
 10
208.8610954745
 20
204.9650619868
 10
209.383122593
 20
205.1370196088
 10
209.8974313148
 20
205.2683603587
 10
210.4021449831
 20
205.3586049884
 10
210.8954219525
 20
205.4074242049
 10
211.3754623088
 20
205.4146398723
 10
211.8405144368
 20
205.3802256614
 10
212.2888814118
 20
205.3043071458
 10
212.7189271912
 20
205.1871613441
 10
213.1290825847
 20
205.0292157085
 10
213.5173430587
 20
204.8313398298
  0
ARC
  5
E3
330
1F
100
AcDbEntity
  8
0
  6
Continuous
 62
     7
370
     0
100
AcDbCircle
 10
204.618010237
 20
188.2560368464
 30
0.0
 40
6.222735663174719
100
AcDbArc
 50
174.0306576151
 51
234.6571619915
  0
LWPOLYLINE
  5
E4
330
1F
100
AcDbEntity
  8
0
  6
Continuous
 62
     7
370
     0
100
AcDbPolyline
 90
      105
 70
   128
 43
0.0
 10
258.6618167401
 20
176.3404133318
 10
259.1820584322
 20
176.5020831897
 10
259.6941009659
 20
176.6230000118
 10
260.1960759536
 20
176.7027225857
 10
260.686151743
 20
176.7409600124
 10
261.1625401006
 20
176.7375727675
 10
261.6235027371
 20
176.6925732109
 10
262.0673576497
 20
176.6061255411
 10
262.4924852599
 20
176.4785451961
 10
262.8973343234
 20
176.3102977029
 10
263.2804275896
 20
176.1019969783
 10
263.6403671929
 20
175.854403089
 10
263.9758397527
 20
175.5684194783
 10
264.2856211659
 20
175.2450896694
 10
264.5685810739
 20
174.8855934578
 10
264.8236869865
 20
174.491242606
 10
265.0500080499
 20
174.0634760575
 10
265.2467184432
 20
173.6038546862
 10
265.4131003915
 20
173.1140556006
 10
265.548546785
 20
172.5958660244
 10
265.6525633946
 20
172.0511767751
 10
265.7247706749
 20
171.4819753649
 10
265.7649051495
 20
170.8903387478
 10
265.7728203719
 20
170.2784257418
 10
265.7484874603
 20
169.648469151
 10
265.691995203
 20
169.0027676188
 10
265.603549734
 20
168.3436772399
 10
265.4834737813
 20
167.6736029638
 10
265.332205489
 20
166.9949898188
 10
265.1502968187
 20
166.3103139906
 10
264.9384115354
 20
165.6220737871
 10
264.6973227856
 20
164.9327805222
 10
264.4279102758
 20
164.2449493522
 10
264.1311570632
 20
163.5610900985
 10
263.8081459681
 20
162.8836980893
 10
263.4600556229
 20
162.2152450547
 10
263.0881561715
 20
161.5581701072
 10
262.6938046347
 20
160.9148708421
 10
262.2784399584
 20
160.2876945886
 10
261.8435777635
 20
159.6789298449
 10
261.3908048147
 20
159.0907979275
 10
260.9217732316
 20
158.525444866
 10
260.4381944595
 20
157.9849335724
 10
259.9418330249
 20
157.4712363137
 10
259.4345000968
 20
156.9862275157
 10
258.9180468781
 20
156.5316769227
 10
258.3943578506
 20
156.1092431406
 10
257.8653438987
 20
155.7204675845
 10
257.332935337
 20
155.3667688542
 10
256.7990748666
 20
155.049437558
 10
256.2657104865
 20
154.7696316033
 10
255.7347883853
 20
154.5283719719
 10
255.2082458404
 20
154.3265389939
 10
254.6880041483
 20
154.164869136
 10
254.1759616146
 20
154.0439523139
 10
253.6739866269
 20
153.96422974
 10
253.1839108375
 20
153.9259923134
 10
252.7075224799
 20
153.9293795582
 10
252.2465598434
 20
153.9743791148
 10
251.8027049308
 20
154.0608267847
 10
251.3775773206
 20
154.1884071296
 10
250.9727282571
 20
154.3566546228
 10
250.5896349909
 20
154.5649553475
 10
250.2296953876
 20
154.8125492367
 10
249.8942228278
 20
155.0985328474
 10
249.5844414146
 20
155.4218626563
 10
249.3014815066
 20
155.781358868
 10
249.046375594
 20
156.1757097198
 10
248.8200545306
 20
156.6034762682
 10
248.6233441373
 20
157.0630976395
 10
248.456962189
 20
157.5528967251
 10
248.3215157955
 20
158.0710863013
 10
248.2174991859
 20
158.6157755506
 10
248.1452919056
 20
159.1849769609
 10
248.105157431
 20
159.7766135779
 10
248.0972422086
 20
160.3885265839
 10
248.1215751202
 20
161.0184831747
 10
248.1780673775
 20
161.664184707
 10
248.2665128465
 20
162.3232750858
 10
248.3865887992
 20
162.9933493619
 10
248.5378570915
 20
163.671962507
 10
248.7197657618
 20
164.3566383352
 10
248.9316510451
 20
165.0448785386
 10
249.1727397949
 20
165.7341718036
 10
249.4421523047
 20
166.4220029735
 10
249.7389055173
 20
167.1058622272
 10
250.0619166124
 20
167.7832542364
 10
250.4100069576
 20
168.451707271
 10
250.781906409
 20
169.1087822185
 10
251.1762579458
 20
169.7520814836
 10
251.5916226221
 20
170.3792577371
 10
252.0264848171
 20
170.9880224808
 10
252.4792577658
 20
171.5761543982
 10
252.9482893489
 20
172.1415074597
 10
253.431868121
 20
172.6820187533
 10
253.9282295556
 20
173.195716012
 10
254.4355624837
 20
173.6807248101
 10
254.9520157024
 20
174.135275403
 10
255.4757047299
 20
174.5577091851
 10
256.0047186818
 20
174.9464847412
 10
256.5371272435
 20
175.3001834716
 10
257.0709877139
 20
175.6175147678
 10
257.604352094
 20
175.8973207224
 10
258.1352741952
 20
176.1385803538
 10
258.6618167401
 20
176.3404133318
  0
ARC
  5
E5
330
1F
100
AcDbEntity
  8
0
  6
Continuous
 62
     7
370
     0
100
AcDbCircle
 10
259.5956354571
 20
172.0100913796
 30
0.0
 40
5.394419924182211
100
AcDbArc
 50
62.8986095502
 51
112.5095933427
  0
LWPOLYLINE
  5
E6
330
1F
100
AcDbEntity
  8
0
  6
Continuous
 62
     7
370
     0
100
AcDbPolyline
 90
       44
 70
   128
 43
0.0
 10
249.5541683614
 20
155.1609918726
 10
249.458264141
 20
155.2180818369
 10
249.0983245377
 20
155.4656757262
 10
248.7628519779
 20
155.7516593369
 10
248.4530705647
 20
156.0749891457
 10
248.1701106567
 20
156.4344853574
 10
247.9150047442
 20
156.8288362092
 10
247.6886836807
 20
157.2566027576
 10
247.4919732874
 20
157.7162241289
 10
247.3255913391
 20
158.2060232146
 10
247.1901449456
 20
158.7242127908
 10
247.086128336
 20
159.26890204
 10
247.0139210557
 20
159.8381034503
 10
246.9737865811
 20
160.4297400674
 10
246.9658713588
 20
161.0416530734
 10
246.9902042703
 20
161.6716096642
 10
247.0466965276
 20
162.3173111964
 10
247.1351419966
 20
162.9764015753
 10
247.2552179493
 20
163.6464758514
 10
247.4064862416
 20
164.3250889964
 10
247.5883949119
 20
165.0097648246
 10
247.8002801952
 20
165.6980050281
 10
248.041368945
 20
166.387298293
 10
248.3107814548
 20
167.075129463
 10
248.6075346674
 20
167.7589887167
 10
248.9305457625
 20
168.4363807258
 10
249.2786361077
 20
169.1048337605
 10
249.6505355591
 20
169.761908708
 10
250.044887096
 20
170.4052079731
 10
250.4602517722
 20
171.0323842265
 10
250.8951139672
 20
171.6411489702
 10
251.3478869159
 20
172.2292808877
 10
251.816918499
 20
172.7946339492
 10
252.3004972711
 20
173.3351452428
 10
252.7968587057
 20
173.8488425015
 10
253.3041916338
 20
174.3338512995
 10
253.8206448525
 20
174.7884018925
 10
254.34433388
 20
175.2108356746
 10
254.8733478319
 20
175.5996112307
 10
255.4057563936
 20
175.953309961
 10
255.939616864
 20
176.2706412572
 10
256.4729812441
 20
176.5504472118
 10
257.0039033453
 20
176.7917068433
 10
257.5304458902
 20
176.9935398213
  0
LWPOLYLINE
  5
E7
330
1F
100
AcDbEntity
  8
0
  6
Continuous
 62
     7
370
     0
100
AcDbPolyline
 90
       54
 70
   128
 43
0.0
 10
212.3859722088
 20
205.4844663193
 10
212.2623418127
 20
205.5530675547
 10
211.8664506169
 20
205.7382130732
 10
211.4496513803
 20
205.8829312177
 10
211.0134649579
 20
205.9866939272
 10
210.5594829469
 20
206.0491225829
 10
210.0893618781
 20
206.0699893893
 10
209.6048171726
 20
206.0492182059
 10
209.1076168813
 20
205.9868848243
 10
208.5995752343
 20
205.8832166924
 10
208.0825460203
 20
205.7385920839
 10
207.5584158229
 20
205.5535387182
 10
207.0290971364
 20
205.3287318352
 10
206.4965213872
 20
205.0649917306
 10
205.9626318865
 20
204.7632807636
 10
205.4293767392
 20
204.4246998448
 10
204.8987017355
 20
204.0504844192
 10
204.372543251
 20
203.6419999582
 10
203.8528211808
 20
203.2007369775
 10
203.3414319344
 20
202.7283055977
 10
202.8402415158
 20
202.2264296698
 10
202.3510787145
 20
201.6969404846
 10
201.8757284323
 20
201.1417700906
 10
201.4159251711
 20
200.5629442445
 10
200.973346703
 20
199.962575019
 10
200.5496079488
 20
199.3428530963
 10
200.1462550854
 20
198.7060397745
 10
199.7647599035
 20
198.0544587163
 10
199.4065144377
 20
197.3904874704
 10
199.0728258869
 20
196.7165487957
 10
198.7649118444
 20
196.0351018216
 10
198.4838958552
 20
195.3486330739
 10
198.230803316
 20
194.6596474029
 10
198.0065577343
 20
193.9706588425
 10
197.8119773576
 20
193.2841814371
 10
197.6477721889
 20
192.6027200685
 10
197.5145413948
 20
191.9287613153
 10
197.4127711202
 20
191.2647643798
 10
197.3428327137
 20
190.6131521148
 10
197.3049813729
 20
189.9763021829
 10
197.2993552134
 20
189.3565383804
 10
197.3259747643
 20
188.7561221582
 10
197.3847428939
 20
188.17724437
 10
197.4754451635
 20
187.622017278
 10
197.5977506105
 20
187.0924668458
 10
197.7512129555
 20
186.5905253453
 10
197.935272231
 20
186.1180243067
 10
198.1492568248
 20
185.676687835
 10
198.3923859302
 20
185.2681263193
 10
198.6637723955
 20
184.893830556
 10
198.962425961
 20
184.55516631
 10
199.2872568721
 20
184.2533693302
 10
199.6370798562
 20
183.9895408411
 10
199.8869880508
 20
183.8332447598
  0
LWPOLYLINE
  5
E8
330
1F
100
AcDbEntity
  8
0
  6
Continuous
 62
     7
370
     0
100
AcDbPolyline
 90
       54
 70
   128
 43
0.0
 10
213.5173430587
 20
204.8313398298
 10
213.3937126626
 20
204.8999410652
 10
212.9978214668
 20
205.0850865838
 10
212.5810222302
 20
205.2298047282
 10
212.1448358078
 20
205.3335674377
 10
211.6908537968
 20
205.3959960934
 10
211.220732728
 20
205.4168628999
 10
210.7361880225
 20
205.3960917164
 10
210.2389877312
 20
205.3337583349
 10
209.7309460842
 20
205.2300902029
 10
209.2139168702
 20
205.0854655944
 10
208.6897866728
 20
204.9004122288
 10
208.1604679863
 20
204.6756053457
 10
207.6278922371
 20
204.4118652412
 10
207.0940027364
 20
204.1101542742
 10
206.5607475891
 20
203.7715733553
 10
206.0300725854
 20
203.3973579297
 10
205.5039141009
 20
202.9888734688
 10
204.9841920307
 20
202.547610488
 10
204.4728027843
 20
202.0751791083
 10
203.9716123657
 20
201.5733031804
 10
203.4824495643
 20
201.0438139951
 10
203.0070992822
 20
200.4886436012
 10
202.547296021
 20
199.9098177551
 10
202.1047175529
 20
199.3094485296
 10
201.6809787987
 20
198.6897266069
 10
201.2776259353
 20
198.052913285
 10
200.8961307534
 20
197.4013322268
 10
200.5378852876
 20
196.7373609809
 10
200.2041967368
 20
196.0634223063
 10
199.8962826943
 20
195.3819753321
 10
199.6152667051
 20
194.6955065845
 10
199.3621741659
 20
194.0065209135
 10
199.1379285842
 20
193.317532353
 10
198.9433482075
 20
192.6310549477
 10
198.7791430388
 20
191.9495935791
 10
198.6459122447
 20
191.2756348258
 10
198.5441419701
 20
190.6116378903
 10
198.4742035636
 20
189.9600256254
 10
198.4363522228
 20
189.3231756935
 10
198.4307260633
 20
188.703411891
 10
198.4573456142
 20
188.1029956688
 10
198.5161137438
 20
187.5241178806
 10
198.6068160134
 20
186.9688907886
 10
198.7291214604
 20
186.4393403563
 10
198.8825838053
 20
185.9373988558
 10
199.0666430809
 20
185.4648978172
 10
199.2806276747
 20
185.0235613456
 10
199.5237567801
 20
184.6149998298
 10
199.7951432454
 20
184.2407040666
 10
200.0937968109
 20
183.9020398205
 10
200.418627722
 20
183.6002428407
 10
200.7684507061
 20
183.3364143517
 10
201.0183589007
 20
183.1801182703
  0
SPLINE
  5
E9
330
1F
100
AcDbEntity
  8
0
  6
Continuous
 62
     8
370
     0
100
AcDbSpline
210
0.0
220
0.0
230
1.0
 70
     8
 71
     3
 72
    33
 73
    29
 74
     0
 42
0.00000001
 43
0.00000001
 40
0.0
 40
0.0
 40
0.0
 40
0.0
 40
0.0362967718717125
 40
0.0744438744569719
 40
0.1125911847713091
 40
0.1517726092017102
 40
0.1909468021579548
 40
0.230417660043633
 40
0.2698788536033958
 40
0.3051687665697214
 40
0.3404582915541103
 40
0.3760845986496872
 40
0.4117168973443111
 40
0.4506637825971777
 40
0.4896189090362971
 40
0.5298524577990676
 40
0.5700870670331774
 40
0.6103892537953676
 40
0.650688176397031
 40
0.6895157776369655
 40
0.7283441620572997
 40
0.7662570942949923
 40
0.8041724134611877
 40
0.8427366566032902
 40
0.8812982538441821
 40
0.9207714804570899
 40
0.9602349714758445
 40
1.0
 40
1.0
 40
1.0
 40
1.0
 10
234.28429036907
 20
190.8158659166149
 30
0.0
 10
234.3648830873688
 20
190.7409931328896
 30
0.0
 10
234.5301769659648
 20
190.5874307133007
 30
0.0
 10
234.6839734094283
 20
190.3476534156053
 30
0.0
 10
234.766570040247
 20
190.0992158786014
 30
0.0
 10
234.7598255411571
 20
189.8469433098947
 30
0.0
 10
234.6649119204961
 20
189.5924093920385
 30
0.0
 10
234.4778139739245
 20
189.3403715556692
 30
0.0
 10
234.2150669332002
 20
189.1037186189649
 30
0.0
 10
233.8907116045624
 20
188.8872194257578
 30
0.0
 10
233.5231791575929
 20
188.6934713809786
 30
0.0
 10
233.1073380884449
 20
188.5202497811395
 30
0.0
 10
232.6417232906267
 20
188.3683530520786
 30
0.0
 10
232.1352423253782
 20
188.2482417441751
 30
0.0
 10
231.5951286519915
 20
188.1680511470142
 30
0.0
 10
231.049807806111
 20
188.1407682803533
 30
0.0
 10
230.5135877697741
 20
188.1712974642195
 30
0.0
 10
230.0076034973105
 20
188.2662235737045
 30
0.0
 10
229.5502553414215
 20
188.4216180763856
 30
0.0
 10
229.1549285917481
 20
188.6355182381382
 30
0.0
 10
228.8300225603948
 20
188.894955277263
 30
0.0
 10
228.5800575791107
 20
189.1953516060414
 30
0.0
 10
228.4054202330896
 20
189.5255574627804
 30
0.0
 10
228.3130725494021
 20
189.8781265379593
 30
0.0
 10
228.3038931612483
 20
190.2430659553316
 30
0.0
 10
228.3877802050723
 20
190.6033985018302
 30
0.0
 10
228.5548079860976
 20
190.9509577257557
 30
0.0
 10
228.7435296932748
 20
191.1486163111297
 30
0.0
 10
228.8382496768403
 20
191.2478217403209
 30
0.0
  0
SPLINE
  5
EA
330
1F
100
AcDbEntity
  8
0
  6
Continuous
 62
     8
370
     0
100
AcDbSpline
210
0.0
220
0.0
230
1.0
 70
     8
 71
     3
 72
    28
 73
    24
 74
     0
 42
0.00000001
 43
0.00000001
 40
0.0
 40
0.0
 40
0.0
 40
0.0
 40
0.0471329297773652
 40
0.0979696986399924
 40
0.1460615902377225
 40
0.1954760490365614
 40
0.244318651416196
 40
0.2946789689314853
 40
0.3455255658437671
 40
0.3980302357042461
 40
0.4494566744555565
 40
0.5024133257196145
 40
0.5528408067869682
 40
0.6046600231657807
 40
0.6511849821498591
 40
0.6988593669104358
 40
0.7450257516171829
 40
0.7923588542477653
 40
0.8437089537621286
 40
0.8966217673374492
 40
0.9472361209488714
 40
0.9992574436455387
 40
1.0
 40
1.0
 40
1.0
 40
1.0
 10
228.7570910237393
 20
190.5335775734713
 30
0.0
 10
228.7511249282318
 20
190.4331773120066
 30
0.0
 10
228.7387239045381
 20
190.2244870522341
 30
0.0
 10
228.8119267914485
 20
189.9166794125952
 30
0.0
 10
228.9521639870209
 20
189.6220961627484
 30
0.0
 10
229.1596346223042
 20
189.3595190425753
 30
0.0
 10
229.4342620038287
 20
189.1326075157745
 30
0.0
 10
229.7696545928848
 20
188.9525210711526
 30
0.0
 10
230.1627243103733
 20
188.824810897972
 30
0.0
 10
230.5964317927227
 20
188.755765791141
 30
0.0
 10
231.0605524383245
 20
188.743669115145
 30
0.0
 10
231.5301235453199
 20
188.7837756413422
 30
0.0
 10
231.9996816038622
 20
188.8688758876622
 30
0.0
 10
232.437814383726
 20
188.9864656414792
 30
0.0
 10
232.8452583941925
 20
189.1292508897946
 30
0.0
 10
233.2072179604087
 20
189.2864119676978
 30
0.0
 10
233.5320812323498
 20
189.4590578671387
 30
0.0
 10
233.8173702903847
 20
189.6463812269351
 30
0.0
 10
234.054349347827
 20
189.8492105869408
 30
0.0
 10
234.2263732998798
 20
190.0599118457006
 30
0.0
 10
234.3135878134406
 20
190.272535743628
 30
0.0
 10
234.3420969667979
 20
190.4141040692353
 30
0.0
 10
234.3211618873404
 20
190.4861517292123
 30
0.0
 10
234.3208672638866
 20
190.4871656699745
 30
0.0
  0
LINE
  5
EB
330
1F
100
AcDbEntity
  8
0
  6
Continuous
 62
     7
370
     0
100
AcDbLine
 10
128.8082914041
 20
106.4398927507
 30
0.0
 11
128.8082914041
 21
131.4398927507
 31
0.0
  0
LINE
  5
EC
330
1F
100
AcDbEntity
  8
0
  6
Continuous
 62
     7
370
     0
100
AcDbLine
 10
128.8082914041
 20
131.4398927507
 30
0.0
 11
130.4082914041
 21
131.4398927507
 31
0.0
  0
LINE
  5
ED
330
1F
100
AcDbEntity
  8
0
  6
Continuous
 62
     7
370
     0
100
AcDbLine
 10
130.4082914041
 20
106.4398927507
 30
0.0
 11
130.4082914041
 21
131.4398927507
 31
0.0
  0
LINE
  5
EE
330
1F
100
AcDbEntity
  8
0
  6
Continuous
 62
     7
370
     0
100
AcDbLine
 10
130.4082914041
 20
106.4398927507
 30
0.0
 11
128.8082914041
 21
106.4398927507
 31
0.0
  0
LINE
  5
EF
330
1F
100
AcDbEntity
  8
0
  6
Continuous
 62
     7
370
     0
100
AcDbLine
 10
200.6482914041
 20
131.4398927507
 30
0.0
 11
200.6482914041
 21
106.4398927507
 31
0.0
  0
LINE
  5
F0
330
1F
100
AcDbEntity
  8
0
  6
Continuous
 62
     7
370
     0
100
AcDbLine
 10
200.6482914041
 20
106.4398927507
 30
0.0
 11
199.0482914041
 21
106.4398927507
 31
0.0
  0
LINE
  5
F1
330
1F
100
AcDbEntity
  8
0
  6
Continuous
 62
     7
370
     0
100
AcDbLine
 10
199.0482914041
 20
131.4398927507
 30
0.0
 11
199.0482914041
 21
106.4398927507
 31
0.0
  0
LINE
  5
F2
330
1F
100
AcDbEntity
  8
0
  6
Continuous
 62
     7
370
     0
100
AcDbLine
 10
199.0482914041
 20
131.4398927507
 30
0.0
 11
200.6482914041
 21
131.4398927507
 31
0.0
  0
LINE
  5
F3
330
1F
100
AcDbEntity
  8
0
  6
Continuous
 62
     7
370
     0
100
AcDbLine
 10
167.9960508889
 20
131.4398927507
 30
0.0
 11
199.0482914041
 21
131.4398927507
 31
0.0
  0
LINE
  5
F4
330
1F
100
AcDbEntity
  8
0
  6
Continuous
 62
     7
370
     0
100
AcDbLine
 10
130.4082914041
 20
131.4398927507
 30
0.0
 11
161.4605319193
 21
131.4398927507
 31
0.0
  0
LINE
  5
F5
330
1F
100
AcDbEntity
  8
0
  6
Continuous
 62
     7
370
     0
100
AcDbLine
 10
199.0482914041
 20
106.4398927507
 30
0.0
 11
130.4082914041
 21
106.4398927507
 31
0.0
  0
ARC
  5
F6
330
1F
100
AcDbEntity
  8
0
  6
Continuous
 62
     7
370
     0
100
AcDbCircle
 10
167.9960508889
 20
131.9398927507
 30
0.0
 40
0.5
100
AcDbArc
 50
185.2454963414
 51
270.0
  0
ARC
  5
F7
330
1F
100
AcDbEntity
  8
0
  6
Continuous
 62
     7
370
     0
100
AcDbCircle
 10
161.4605319193
 20
131.9398927507
 30
0.0
 40
0.5
100
AcDbArc
 50
270.0
 51
354.7545036586
  0
LINE
  5
F8
330
1F
100
AcDbEntity
  8
0
  6
Continuous
 62
     7
370
     0
100
AcDbLine
 10
130.4082914041
 20
107.1898927507
 30
0.0
 11
199.0482914041
 21
107.1898927507
 31
0.0
  0
LINE
  5
F9
330
1F
100
AcDbEntity
  8
0
  6
Continuous
 62
     7
370
     0
100
AcDbLine
 10
162.7741450382
 20
130.6898927507
 30
0.0
 11
130.4082914041
 21
130.6898927507
 31
0.0
  0
LINE
  5
FA
330
1F
100
AcDbEntity
  8
0
  6
Continuous
 62
     7
370
     0
100
AcDbLine
 10
199.0482914041
 20
130.6898927507
 30
0.0
 11
166.68243777
 21
130.6898927507
 31
0.0
  0
ARC
  5
FB
330
1F
100
AcDbEntity
  8
0
  6
Continuous
 62
     7
370
     0
100
AcDbCircle
 10
162.7741450382
 20
131.1898927507
 30
0.0
 40
0.5
100
AcDbArc
 50
270.0
 51
0.0
  0
ARC
  5
FC
330
1F
100
AcDbEntity
  8
0
  6
Continuous
 62
     7
370
     0
100
AcDbCircle
 10
166.68243777
 20
131.1898927507
 30
0.0
 40
0.5
100
AcDbArc
 50
180.0
 51
270.0
  0
LINE
  5
FD
330
1F
100
AcDbEntity
  8
0
  6
Continuous
 62
     7
370
     0
100
AcDbLine
 10
163.2741450382
 20
131.1898927507
 30
0.0
 11
163.2741450382
 21
131.4398927506
 31
0.0
  0
LINE
  5
FE
330
1F
100
AcDbEntity
  8
0
  6
Continuous
 62
     7
370
     0
100
AcDbLine
 10
166.18243777
 20
131.439892745
 30
0.0
 11
166.18243777
 21
131.1898927507
 31
0.0
  0
LINE
  5
FF
330
1F
100
AcDbEntity
  8
0
  6
Continuous
 62
     7
370
     0
100
AcDbLine
 10
199.0482914041
 20
130.6898927507
 30
0.0
 11
199.0482914041
 21
131.4398927507
 31
0.0
  0
SPLINE
  5
100
330
1F
100
AcDbEntity
  8
0
  6
Continuous
 62
     7
370
     0
100
AcDbSpline
210
0.0
220
0.0
230
1.0
 70
     8
 71
     3
 72
    12
 73
     8
 74
     0
 42
0.00000001
 43
0.00000001
 40
0.1577062106017088
 40
0.1577062106017088
 40
0.1577062106017088
 40
0.1577062106017088
 40
0.4137110222110597
 40
0.469949704421031
 40
0.552116031246527
 40
0.6061481398897426
 40
1.0
 40
1.0
 40
1.0
 40
1.0
 10
166.179003337612
 20
131.4398927506543
 30
0.0
 10
166.1446769690155
 20
132.2767854249518
 30
0.0
 10
166.0864400855758
 20
133.2718996419365
 30
0.0
 10
165.9785765008716
 20
133.9221767612516
 30
0.0
 10
165.9249498939658
 20
134.2961451172182
 30
0.0
 10
165.9219899591581
 20
134.9642845744237
 30
0.0
 10
165.7296666687281
 20
135.8525715002653
 30
0.0
 10
164.7282914040909
 20
139.9398927507448
 30
0.0
  0
SPLINE
  5
101
330
1F
100
AcDbEntity
  8
0
  6
Continuous
 62
     7
370
     0
100
AcDbSpline
210
0.0
220
0.0
230
1.0
 70
     8
 71
     3
 72
    12
 73
     8
 74
     0
 42
0.00000001
 43
0.00000001
 40
0.157706209868522
 40
0.157706209868522
 40
0.157706209868522
 40
0.157706209868522
 40
0.4137110222110597
 40
0.469949704421031
 40
0.552116031246527
 40
0.6061481398897426
 40
1.0
 40
1.0
 40
1.0
 40
1.0
 10
163.2775794702748
 20
131.4398927434638
 30
0.0
 10
163.3119058388927
 20
132.2767854202785
 30
0.0
 10
163.3701427224054
 20
133.2718996407277
 30
0.0
 10
163.4780063073102
 20
133.9221767612516
 30
0.0
 10
163.5316329142159
 20
134.2961451172182
 30
0.0
 10
163.5345928490237
 20
134.9642845744237
 30
0.0
 10
163.7269161394536
 20
135.8525715002653
 30
0.0
 10
164.7282914040909
 20
139.9398927507448
 30
0.0
  0
LINE
  5
102
330
1F
100
AcDbEntity
  8
0
  6
Continuous
 62
     7
370
     0
100
AcDbLine
 10
130.4082914041
 20
130.6898927507
 30
0.0
 11
130.4082914041
 21
131.4398927507
 31
0.0
  0
SPLINE
  5
103
330
1F
100
AcDbEntity
  8
0
  6
Continuous
 62
     7
370
     0
100
AcDbSpline
210
0.0
220
0.0
230
1.0
 70
     8
 71
     3
 72
    10
 73
     6
 74
     0
 42
0.00000001
 43
0.00000001
 40
0.0
 40
0.0
 40
0.0
 40
0.0
 40
0.5612433936655776
 40
0.6263959770805706
 40
0.8417232846490493
 40
0.8417232846490493
 40
0.8417232846490493
 40
0.8417232846490493
 10
164.7282914040909
 20
141.4398927507448
 30
0.0
 10
164.2570582025604
 20
139.6391193745562
 30
0.0
 10
162.9602020131326
 20
137.1651345150872
 30
0.0
 10
162.1474789166415
 20
134.013763453843
 30
0.0
 10
162.0423267003831
 20
132.8079237006629
 30
0.0
 10
161.9584379777246
 20
131.8941810785154
 30
0.0
  0
SPLINE
  5
104
330
1F
100
AcDbEntity
  8
0
  6
Continuous
 62
     7
370
     0
100
AcDbSpline
210
0.0
220
0.0
230
1.0
 70
     8
 71
     3
 72
    10
 73
     6
 74
     0
 42
0.00000001
 43
0.00000001
 40
0.0
 40
0.0
 40
0.0
 40
0.0
 40
0.5612433936655776
 40
0.6263959770805706
 40
0.841723284649049
 40
0.841723284649049
 40
0.841723284649049
 40
0.841723284649049
 10
164.7282914040909
 20
141.4398927507448
 30
0.0
 10
165.1995246056213
 20
139.6391193745562
 30
0.0
 10
166.4963807950491
 20
137.1651345150872
 30
0.0
 10
167.3091038915402
 20
134.013763453843
 30
0.0
 10
167.4142561077987
 20
132.8079237006629
 30
0.0
 10
167.4981448304571
 20
131.8941810785154
 30
0.0
  0
LINE
  5
105
330
1F
100
AcDbEntity
  8
0
  6
Continuous
 62
     7
370
     0
100
AcDbLine
 10
130.4082914041
 20
106.4398927507
 30
0.0
 11
130.4082914041
 21
107.1898927507
 31
0.0
  0
LINE
  5
106
330
1F
100
AcDbEntity
  8
0
  6
Continuous
 62
     7
370
     0
100
AcDbLine
 10
199.0482914041
 20
106.4398927507
 30
0.0
 11
199.0482914041
 21
107.1898927507
 31
0.0
  0
HATCH
  5
107
330
1F
100
AcDbEntity
  8
0
  6
Continuous
 62
     7
370
     0
100
AcDbHatch
 10
0.0
 20
0.0
 30
0.0
210
0.0
220
0.0
230
1.0
  2
ANSI31
 70
     0
 71
     0
 91
        1
 92
        0
 93
        4
 72
     1
 10
130.4082914040909
 20
106.4398927507448
 11
199.0482914040909
 21
106.4398927507448
 72
     1
 10
199.0482914040909
 20
106.4398927507448
 11
199.0482914040909
 21
107.1898927507448
 72
     1
 10
199.0482914040909
 20
107.1898927507448
 11
130.4082914040909
 21
107.1898927507448
 72
     1
 10
130.4082914040909
 20
107.1898927507448
 11
130.4082914040909
 21
106.4398927507448
 97
        0
 75
     0
 76
     1
 52
0.0
 41
1.0
 77
     0
 78
     1
 53
45.0
 43
0.0
 44
0.0
 45
-2.245064030267288
 46
2.245064030267288
 79
     0
 98
        1
 10
0.0
 20
0.0
  0
HATCH
  5
108
330
1F
100
AcDbEntity
  8
0
  6
Continuous
 62
     7
370
     0
100
AcDbHatch
 10
0.0
 20
0.0
 30
0.0
210
0.0
220
0.0
230
1.0
  2
ANSI31
 70
     0
 71
     0
 91
        1
 92
        0
 93
       16
 72
     1
 10
199.0482914040909
 20
131.4398927507448
 11
167.9960508888878
 21
131.4398927507448
 72
     2
 10
167.9960508888878
 20
131.9398927507448
 40
0.5
 50
90.0
 51
174.7545036585506
 73
     0
 72
     4
 94
        3
 73
     1
 74
     0
 95
       10
 96
        6
 40
0.1582767153509509
 40
0.1582767153509509
 40
0.1582767153509509
 40
0.1582767153509509
 40
0.3736040229194294
 40
0.4387566063344224
 40
1.0
 40
1.0
 40
1.0
 40
1.0
 10
167.4981448304571
 20
131.8941810785154
 42
1.0
 10
167.4142561077987
 20
132.8079237006629
 42
1.0
 10
167.3091038915402
 20
134.013763453843
 42
1.0
 10
166.4963807950491
 20
137.1651345150872
 42
1.0
 10
165.1995246056213
 20
139.6391193745562
 42
1.0
 10
164.7282914040909
 20
141.4398927507448
 42
1.0
 72
     4
 94
        3
 73
     1
 74
     0
 95
       10
 96
        6
 40
0.0
 40
0.0
 40
0.0
 40
0.0
 40
0.5612433936655776
 40
0.6263959770805706
 40
0.8417232846490492
 40
0.8417232846490492
 40
0.8417232846490492
 40
0.8417232846490492
 10
164.7282914040909
 20
141.4398927507448
 42
1.0
 10
164.2570582025604
 20
139.6391193745562
 42
1.0
 10
162.9602020131327
 20
137.1651345150872
 42
1.0
 10
162.1474789166415
 20
134.013763453843
 42
1.0
 10
162.0423267003831
 20
132.8079237006629
 42
1.0
 10
161.9584379777246
 20
131.8941810785154
 42
1.0
 72
     2
 10
161.4605319192939
 20
131.9398927507448
 40
0.5
 50
5.245496341449398
 51
90.0
 73
     0
 72
     1
 10
161.4605319192939
 20
131.4398927507448
 11
130.4082914040909
 21
131.4398927507448
 72
     1
 10
130.4082914040909
 20
131.4398927507448
 11
130.4082914040909
 21
130.6898927507448
 72
     1
 10
130.4082914040909
 20
130.6898927507448
 11
162.7741450381776
 21
130.6898927507448
 72
     2
 10
162.7741450381776
 20
131.1898927507448
 40
0.5
 50
270.0000000000008
 51
360.0000000000008
 73
     1
 72
     1
 10
163.2741450381776
 20
131.1898927507448
 11
163.2741450381776
 21
131.4398927505657
 72
     4
 94
        3
 73
     1
 74
     0
 95
       12
 96
        8
 40
0.1577062098685217
 40
0.1577062098685217
 40
0.1577062098685217
 40
0.1577062098685217
 40
0.4137110222110597
 40
0.469949704421031
 40
0.552116031246527
 40
0.6061481398897426
 40
1.0
 40
1.0
 40
1.0
 40
1.0
 10
163.2741450381776
 20
131.4398927505657
 42
1.0
 10
163.3119058388927
 20
132.2767854202785
 42
1.0
 10
163.3701427224054
 20
133.2718996407277
 42
1.0
 10
163.4780063073102
 20
133.9221767612516
 42
1.0
 10
163.531632914216
 20
134.2961451172182
 42
1.0
 10
163.5345928490237
 20
134.9642845744237
 42
1.0
 10
163.7269161394536
 20
135.8525715002653
 42
1.0
 10
164.7282914040909
 20
139.9398927507448
 42
1.0
 72
     4
 94
        3
 73
     1
 74
     0
 95
       12
 96
        8
 40
0.0
 40
0.0
 40
0.0
 40
0.0
 40
0.3938518601102574
 40
0.447883968753473
 40
0.530050295578969
 40
0.5862889777889403
 40
0.8422937893982919
 40
0.8422937893982919
 40
0.8422937893982919
 40
0.8422937893982919
 10
164.7282914040909
 20
139.9398927507448
 42
1.0
 10
165.7296666687281
 20
135.8525715002653
 42
1.0
 10
165.9219899591581
 20
134.9642845744237
 42
1.0
 10
165.9249498939658
 20
134.2961451172182
 42
1.0
 10
165.9785765008716
 20
133.9221767612516
 42
1.0
 10
166.0864400855758
 20
133.2718996419366
 42
1.0
 10
166.1446769690155
 20
132.2767854249518
 42
1.0
 10
166.179003337612
 20
131.4398927506543
 42
1.0
 72
     1
 10
166.179003337612
 20
131.4398927506543
 11
166.1824377700041
 21
131.1898927507448
 72
     2
 10
166.6824377700041
 20
131.1898927507448
 40
0.5
 50
180.0
 51
270.0000000000008
 73
     1
 72
     1
 10
166.6824377700041
 20
130.6898927507448
 11
199.0482914040909
 21
130.6898927507448
 72
     1
 10
199.0482914040909
 20
130.6898927507448
 11
199.0482914040909
 21
131.4398927507448
 97
        0
 75
     0
 76
     1
 52
0.0
 41
1.0
 77
     0
 78
     1
 53
45.0
 43
0.0
 44
0.0
 45
-2.245064030267288
 46
2.245064030267288
 79
     0
 98
        1
 10
0.0
 20
0.0
  0
HATCH
  5
109
330
1F
100
AcDbEntity
  8
0
  6
Continuous
 62
     7
370
     0
100
AcDbHatch
 10
0.0
 20
0.0
 30
0.0
210
0.0
220
0.0
230
1.0
  2
ANSI31
 70
     0
 71
     0
 91
        1
 92
        0
 93
        4
 72
     1
 10
200.6482914040909
 20
131.4398927507448
 11
199.0482914040909
 21
131.4398927507448
 72
     1
 10
199.0482914040909
 20
131.4398927507448
 11
199.0482914040909
 21
106.4398927507448
 72
     1
 10
199.0482914040909
 20
106.4398927507448
 11
200.6482914040909
 21
106.4398927507448
 72
     1
 10
200.6482914040909
 20
106.4398927507448
 11
200.6482914040909
 21
131.4398927507448
 97
        0
 75
     0
 76
     1
 52
0.0
 41
1.0
 77
     0
 78
     1
 53
45.0
 43
0.0
 44
0.0
 45
-2.245064030267288
 46
2.245064030267288
 79
     0
 98
        1
 10
0.0
 20
0.0
  0
HATCH
  5
10A
330
1F
100
AcDbEntity
  8
0
  6
Continuous
 62
     7
370
     0
100
AcDbHatch
 10
0.0
 20
0.0
 30
0.0
210
0.0
220
0.0
230
1.0
  2
ANSI31
 70
     0
 71
     0
 91
        1
 92
        0
 93
        4
 72
     1
 10
128.8082914040909
 20
106.4398927507448
 11
130.4082914040909
 21
106.4398927507448
 72
     1
 10
130.4082914040909
 20
106.4398927507448
 11
130.4082914040909
 21
131.4398927507448
 72
     1
 10
130.4082914040909
 20
131.4398927507448
 11
128.8082914040909
 21
131.4398927507448
 72
     1
 10
128.8082914040909
 20
131.4398927507448
 11
128.8082914040909
 21
106.4398927507448
 97
        0
 75
     0
 76
     1
 52
0.0
 41
1.0
 77
     0
 78
     1
 53
45.0
 43
0.0
 44
0.0
 45
-2.245064030267288
 46
2.245064030267288
 79
     0
 98
        1
 10
0.0
 20
0.0
  0
DIMENSION
  5
10B
330
1F
100
AcDbEntity
  8
0
  6
Continuous
 62
     7
370
     0
100
AcDbDimension
  2
*D8
 10
128.8082914041
 20
141.2429003188
 30
0.0
 11
121.6395016961
 21
141.2429003188
 31
0.0
 70
   160
 71
     2
 42
-1.0
  3
SLDDIMSTYLE0
100
AcDbAlignedDimension
 13
130.4082914041
 23
131.4398927507
 33
0.0
 14
128.8082914041
 24
131.4398927507
 34
0.0
100
AcDbRotatedDimension
  0
DIMENSION
  5
11E
330
1F
100
AcDbEntity
  8
0
  6
Continuous
 62
     7
370
     0
100
AcDbDimension
  2
*D9
 10
149.2961351566
 20
141.4398927507
 30
0.0
 11
149.2961351566
 21
136.4398927507
 31
0.0
 70
   160
  1
<> MAX 
 71
     2
 42
-1.0
  3
SLDDIMSTYLE1
100
AcDbAlignedDimension
 13
161.4605319193
 23
131.4398927507
 33
0.0
 14
164.7282914041
 24
141.4398927507
 34
0.0
 50
90.0
100
AcDbRotatedDimension
  0
DIMENSION
  5
132
330
1F
100
AcDbEntity
  8
0
  6
Continuous
 62
     7
370
     0
100
AcDbDimension
  2
*D10
 10
214.0736472748
 20
107.1898927507
 30
0.0
 11
214.0736472748
 21
118.9398927507
 31
0.0
 70
   160
 71
     2
 42
-1.0
  3
SLDDIMSTYLE2
100
AcDbAlignedDimension
 13
199.0482914041
 23
130.6898927507
 33
0.0
 14
199.0482914041
 24
107.1898927507
 34
0.0
 50
90.0
100
AcDbRotatedDimension
  0
DIMENSION
  5
145
330
1F
100
AcDbEntity
  8
0
  6
Continuous
 62
     7
370
     0
100
AcDbDimension
  2
*D11
 10
227.3016198539
 20
131.4398927507
 30
0.0
 11
227.3016198539
 21
118.9398927507
 31
0.0
 70
   160
 71
     2
 42
-1.0
  3
SLDDIMSTYLE3
100
AcDbAlignedDimension
 13
199.0482914041
 23
106.4398927507
 33
0.0
 14
199.0482914041
 24
131.4398927507
 34
0.0
 50
90.0
100
AcDbRotatedDimension
  0
DIMENSION
  5
158
330
1F
100
AcDbEntity
  8
0
  6
Continuous
 62
     7
370
     0
100
AcDbDimension
  2
*D12
 10
128.8082914041
 20
156.6439904295
 30
0.0
 11
146.1804198963
 21
156.6439904295
 31
0.0
 70
   160
 71
     2
 42
-1.0
  3
SLDDIMSTYLE2
100
AcDbAlignedDimension
 13
164.7282914041
 23
141.4398927507
 33
0.0
 14
128.8082914041
 24
131.4398927507
 34
0.0
100
AcDbRotatedDimension
  0
DIMENSION
  5
16A
330
1F
100
AcDbEntity
  8
0
  6
Continuous
 62
     7
370
     0
100
AcDbDimension
  2
*D13
 10
128.8082914041
 20
95.0465827682
 30
0.0
 11
164.7282914041
 21
95.0465827682
 31
0.0
 70
   160
 71
     2
 42
-1.0
  3
SLDDIMSTYLE2
100
AcDbAlignedDimension
 13
200.6482914041
 23
106.4398927507
 33
0.0
 14
128.8082914041
 24
106.4398927507
 34
0.0
100
AcDbRotatedDimension
  0
MTEXT
  5
17C
330
1F
100
AcDbEntity
  8
0
  6
Continuous
 62
     7
370
     0
100
AcDbMText
 10
187.2920945175
 20
102.3535068736
 30
0.0
 40
2.286
 41
0.0
 71
     2
 72
     1
  1
SECTION A-A
  7
SLDTEXTSTYLE0
 73
     1
 44
1.0
  0
MTEXT
  5
17D
330
1F
100
AcDbEntity
  8
0
  6
Continuous
 62
     7
370
     0
100
AcDbMText
 10
181.8529787064
 20
145.1937514927
 30
0.0
 40
2.286
 41
0.0
 71
     1
 72
     1
  1
STEM
  7
SLDTEXTSTYLE0
 73
     1
 44
1.0
  0
LEADER
  5
17F
330
1F
100
AcDbEntity
  8
0
  6
Continuous
 62
     7
370
     0
100
AcDbLeader
  3
SLDDIMSTYLE4
 76
     3
 10
166.2712840911
 20
137.3134581679
 30
0.0
 10
175.0005102997
 20
144.2237805611
 30
0.0
 10
181.3505102997
 20
144.2237805611
 30
0.0
  0
MTEXT
  5
180
330
1F
100
AcDbEntity
  8
0
  6
Continuous
 62
     7
370
     0
100
AcDbMText
 10
99.6463965726
 20
103.1492540331
 30
0.0
 40
2.286
 41
0.0
 71
     1
 72
     1
  1
WINDOW
  7
SLDTEXTSTYLE0
 73
     1
 44
1.0
  0
LEADER
  5
181
330
1F
100
AcDbEntity
  8
0
  6
Continuous
 62
     7
370
     0
100
AcDbLeader
  3
SLDDIMSTYLE4
 76
     3
 10
128.8082914041
 20
107.8366633504
 30
0.0
 10
120.2074403449
 20
102.1770586582
 30
0.0
 10
113.8574403449
 20
102.1770586582
 30
0.0
  0
OLE2FRAME
  5
182
330
1F
100
AcDbEntity
  8
0
100
AcDbOle2Frame
 70
     2
  3
Paintbrush Picture
 10
229.0524258301
 20
33.6996297921
 30
0.0
 11
265.1686469208
 21
28.555479607
 31
0.0
 71
     2
 72
     0
 73
     1
 90
     7296
310
80557333EF78ADA16C40002412788DD94040000000000000000041161DC7B292
310
7040002412788DD94040000000000000000041161DC7B2927040F6DD59E9338E
310
3C4000000000000000007333EF78ADA16C40F6DD59E9338E3C40000000000000
310
00000000000001000000000100000100000001000000000001000000001C0000
310
D0CF11E0A1B11AE1000000000000000000000000000000003E000300FEFF0900
310
0600000000000000000000000100000001000000000000000010000002000000
310
01000000FEFFFFFF0000000000000000FFFFFFFFFFFFFFFFFFFFFFFFFFFFFFFF
310
FFFFFFFFFFFFFFFFFFFFFFFFFFFFFFFFFFFFFFFFFFFFFFFFFFFFFFFFFFFFFFFF
310
FFFFFFFFFFFFFFFFFFFFFFFFFFFFFFFFFFFFFFFFFFFFFFFFFFFFFFFFFFFFFFFF
310
FFFFFFFFFFFFFFFFFFFFFFFFFFFFFFFFFFFFFFFFFFFFFFFFFFFFFFFFFFFFFFFF
310
FFFFFFFFFFFFFFFFFFFFFFFFFFFFFFFFFFFFFFFFFFFFFFFFFFFFFFFFFFFFFFFF
310
FFFFFFFFFFFFFFFFFFFFFFFFFFFFFFFFFFFFFFFFFFFFFFFFFFFFFFFFFFFFFFFF
310
FFFFFFFFFFFFFFFFFFFFFFFFFFFFFFFFFFFFFFFFFFFFFFFFFFFFFFFFFFFFFFFF
310
FFFFFFFFFFFFFFFFFFFFFFFFFFFFFFFFFFFFFFFFFFFFFFFFFFFFFFFFFFFFFFFF
310
FFFFFFFFFFFFFFFFFFFFFFFFFFFFFFFFFFFFFFFFFFFFFFFFFFFFFFFFFFFFFFFF
310
FFFFFFFFFFFFFFFFFFFFFFFFFFFFFFFFFFFFFFFFFFFFFFFFFFFFFFFFFFFFFFFF
310
FFFFFFFFFFFFFFFFFFFFFFFFFFFFFFFFFFFFFFFFFFFFFFFFFFFFFFFFFFFFFFFF
310
FFFFFFFFFFFFFFFFFFFFFFFFFFFFFFFFFFFFFFFFFFFFFFFFFFFFFFFFFFFFFFFF
310
FFFFFFFFFFFFFFFFFFFFFFFFFFFFFFFFFFFFFFFFFFFFFFFFFFFFFFFFFFFFFFFF
310
FFFFFFFFFFFFFFFFFFFFFFFFFFFFFFFFFFFFFFFFFFFFFFFFFFFFFFFFFFFFFFFF
310
FDFFFFFFFEFFFFFFFEFFFFFFFEFFFFFF05000000060000000700000008000000
310
090000000A0000000B0000000C000000FEFFFFFFFFFFFFFFFFFFFFFFFFFFFFFF
310
FFFFFFFFFFFFFFFFFFFFFFFFFFFFFFFFFFFFFFFFFFFFFFFFFFFFFFFFFFFFFFFF
310
FFFFFFFFFFFFFFFFFFFFFFFFFFFFFFFFFFFFFFFFFFFFFFFFFFFFFFFFFFFFFFFF
310
FFFFFFFFFFFFFFFFFFFFFFFFFFFFFFFFFFFFFFFFFFFFFFFFFFFFFFFFFFFFFFFF
310
FFFFFFFFFFFFFFFFFFFFFFFFFFFFFFFFFFFFFFFFFFFFFFFFFFFFFFFFFFFFFFFF
310
FFFFFFFFFFFFFFFFFFFFFFFFFFFFFFFFFFFFFFFFFFFFFFFFFFFFFFFFFFFFFFFF
310
FFFFFFFFFFFFFFFFFFFFFFFFFFFFFFFFFFFFFFFFFFFFFFFFFFFFFFFFFFFFFFFF
310
FFFFFFFFFFFFFFFFFFFFFFFFFFFFFFFFFFFFFFFFFFFFFFFFFFFFFFFFFFFFFFFF
310
FFFFFFFFFFFFFFFFFFFFFFFFFFFFFFFFFFFFFFFFFFFFFFFFFFFFFFFFFFFFFFFF
310
FFFFFFFFFFFFFFFFFFFFFFFFFFFFFFFFFFFFFFFFFFFFFFFFFFFFFFFFFFFFFFFF
310
FFFFFFFFFFFFFFFFFFFFFFFFFFFFFFFFFFFFFFFFFFFFFFFFFFFFFFFFFFFFFFFF
310
FFFFFFFFFFFFFFFFFFFFFFFFFFFFFFFFFFFFFFFFFFFFFFFFFFFFFFFFFFFFFFFF
310
FFFFFFFFFFFFFFFFFFFFFFFFFFFFFFFFFFFFFFFFFFFFFFFFFFFFFFFFFFFFFFFF
310
FFFFFFFFFFFFFFFFFFFFFFFFFFFFFFFFFFFFFFFFFFFFFFFFFFFFFFFFFFFFFFFF
310
FFFFFFFFFFFFFFFFFFFFFFFFFFFFFFFFFFFFFFFFFFFFFFFFFFFFFFFFFFFFFFFF
310
52006F006F007400200045006E00740072007900000000000000000000000000
310
0000000000000000000000000000000000000000000000000000000000000000
310
16000500FFFFFFFFFFFFFFFF020000000A00030000000000C000000000000046
310
000000000000000000000000009D12C59A27CC0103000000C000000000000000
310
01004F006C006500000000000000000000000000000000000000000000000000
310
0000000000000000000000000000000000000000000000000000000000000000
310
0A000200FFFFFFFFFFFFFFFFFFFFFFFF00000000000000000000000000000000
310
0000000000000000000000000000000000000000000000001400000000000000
310
010043006F006D0070004F0062006A0000000000000000000000000000000000
310
0000000000000000000000000000000000000000000000000000000000000000
310
120002010100000003000000FFFFFFFF00000000000000000000000000000000
310
0000000000000000000000000000000000000000010000004D00000000000000
310
01004F006C006500310030004E00610074006900760065000000000000000000
310
0000000000000000000000000000000000000000000000000000000000000000
310
1A000200FFFFFFFFFFFFFFFFFFFFFFFF00000000000000000000000000000000
310
000000000000000000000000000000000000000004000000E411000000000000
310
FEFFFFFF02000000FEFFFFFFFFFFFFFFFFFFFFFFFFFFFFFFFFFFFFFFFFFFFFFF
310
FFFFFFFFFFFFFFFFFFFFFFFFFFFFFFFFFFFFFFFFFFFFFFFFFFFFFFFFFFFFFFFF
310
FFFFFFFFFFFFFFFFFFFFFFFFFFFFFFFFFFFFFFFFFFFFFFFFFFFFFFFFFFFFFFFF
310
FFFFFFFFFFFFFFFFFFFFFFFFFFFFFFFFFFFFFFFFFFFFFFFFFFFFFFFFFFFFFFFF
310
FFFFFFFFFFFFFFFFFFFFFFFFFFFFFFFFFFFFFFFFFFFFFFFFFFFFFFFFFFFFFFFF
310
FFFFFFFFFFFFFFFFFFFFFFFFFFFFFFFFFFFFFFFFFFFFFFFFFFFFFFFFFFFFFFFF
310
FFFFFFFFFFFFFFFFFFFFFFFFFFFFFFFFFFFFFFFFFFFFFFFFFFFFFFFFFFFFFFFF
310
FFFFFFFFFFFFFFFFFFFFFFFFFFFFFFFFFFFFFFFFFFFFFFFFFFFFFFFFFFFFFFFF
310
FFFFFFFFFFFFFFFFFFFFFFFFFFFFFFFFFFFFFFFFFFFFFFFFFFFFFFFFFFFFFFFF
310
FFFFFFFFFFFFFFFFFFFFFFFFFFFFFFFFFFFFFFFFFFFFFFFFFFFFFFFFFFFFFFFF
310
FFFFFFFFFFFFFFFFFFFFFFFFFFFFFFFFFFFFFFFFFFFFFFFFFFFFFFFFFFFFFFFF
310
FFFFFFFFFFFFFFFFFFFFFFFFFFFFFFFFFFFFFFFFFFFFFFFFFFFFFFFFFFFFFFFF
310
FFFFFFFFFFFFFFFFFFFFFFFFFFFFFFFFFFFFFFFFFFFFFFFFFFFFFFFFFFFFFFFF
310
FFFFFFFFFFFFFFFFFFFFFFFFFFFFFFFFFFFFFFFFFFFFFFFFFFFFFFFFFFFFFFFF
310
FFFFFFFFFFFFFFFFFFFFFFFFFFFFFFFFFFFFFFFFFFFFFFFFFFFFFFFFFFFFFFFF
310
FFFFFFFFFFFFFFFFFFFFFFFFFFFFFFFFFFFFFFFFFFFFFFFFFFFFFFFFFFFFFFFF
310
0100000200000000000000000000000000000000000000000000000000000000
310
0000000000000000000000000000000000000000000000000000000000000000
310
0100FEFF030A0000FFFFFFFF0A00030000000000C00000000000004607000000
310
5042727573680007000000504272757368000700000050427275736800F439B2
310
7100000000000000000000000000000000000000000000000000000000000000
310
0000000000000000000000000000000000000000000000000000000000000000
310
0000000000000000000000000000000000000000000000000000000000000000
310
0000000000000000000000000000000000000000000000000000000000000000
310
0000000000000000000000000000000000000000000000000000000000000000
310
0000000000000000000000000000000000000000000000000000000000000000
310
0000000000000000000000000000000000000000000000000000000000000000
310
0000000000000000000000000000000000000000000000000000000000000000
310
0000000000000000000000000000000000000000000000000000000000000000
310
0000000000000000000000000000000000000000000000000000000000000000
310
0000000000000000000000000000000000000000000000000000000000000000
310
0000000000000000000000000000000000000000000000000000000000000000
310
E0110000424DDE11000000000000360400002800000096000000170000000100
310
08000000000000000000E7240000E72400000001000000010000000000FF0101
310
01FF020202FF030303FF040404FF050505FF060606FF070707FF080808FF0909
310
09FF0A0A0AFF0B0B0BFF0C0C0CFF0D0D0DFF0E0E0EFF0F0F0FFF101010FF1111
310
11FF121212FF131313FF141414FF151515FF161616FF171717FF181818FF1919
310
19FF1A1A1AFF1B1B1BFF1C1C1CFF1D1D1DFF1E1E1EFF1F1F1FFF202020FF2121
310
21FF222222FF232323FF242424FF252525FF262626FF272727FF282828FF2929
310
29FF2A2A2AFF2B2B2BFF2C2C2CFF2D2D2DFF2E2E2EFF2F2F2FFF303030FF3131
310
31FF323232FF333333FF343434FF353535FF363636FF373737FF383838FF3939
310
39FF3A3A3AFF3B3B3BFF3C3C3CFF3D3D3DFF3E3E3EFF3F3F3FFF404040FF4141
310
41FF424242FF434343FF444444FF454545FF464646FF474747FF484848FF4949
310
49FF4A4A4AFF4B4B4BFF4C4C4CFF4D4D4DFF4E4E4EFF4F4F4FFF505050FF5151
310
51FF525252FF535353FF545454FF555555FF565656FF575757FF585858FF5959
310
59FF5A5A5AFF5B5B5BFF5C5C5CFF5D5D5DFF5E5E5EFF5F5F5FFF606060FF6161
310
61FF626262FF636363FF646464FF656565FF666666FF676767FF686868FF6969
310
69FF6A6A6AFF6B6B6BFF6C6C6CFF6D6D6DFF6E6E6EFF6F6F6FFF707070FF7171
310
71FF727272FF737373FF747474FF757575FF767676FF777777FF787878FF7979
310
79FF7A7A7AFF7B7B7BFF7C7C7CFF7D7D7DFF7E7E7EFF7F7F7FFF808080FF8181
310
81FF828282FF838383FF848484FF858585FF868686FF878787FF888888FF8989
310
89FF8A8A8AFF8B8B8BFF8C8C8CFF8D8D8DFF8E8E8EFF8F8F8FFF909090FF9191
310
91FF929292FF939393FF949494FF959595FF969696FF979797FF989898FF9999
310
99FF9A9A9AFF9B9B9BFF9C9C9CFF9D9D9DFF9E9E9EFF9F9F9FFFA0A0A0FFA1A1
310
A1FFA2A2A2FFA3A3A3FFA4A4A4FFA5A5A5FFA6A6A6FFA7A7A7FFA8A8A8FFA9A9
310
A9FFAAAAAAFFABABABFFACACACFFADADADFFAEAEAEFFAFAFAFFFB0B0B0FFB1B1
310
B1FFB2B2B2FFB3B3B3FFB4B4B4FFB5B5B5FFB6B6B6FFB7B7B7FFB8B8B8FFB9B9
310
B9FFBABABAFFBBBBBBFFBCBCBCFFBDBDBDFFBEBEBEFFBFBFBFFFC0C0C0FFC1C1
310
C1FFC2C2C2FFC3C3C3FFC4C4C4FFC5C5C5FFC6C6C6FFC7C7C7FFC8C8C8FFC9C9
310
C9FFCACACAFFCBCBCBFFCCCCCCFFCDCDCDFFCECECEFFCFCFCFFFD0D0D0FFD1D1
310
D1FFD2D2D2FFD3D3D3FFD4D4D4FFD5D5D5FFD6D6D6FFD7D7D7FFD8D8D8FFD9D9
310
D9FFDADADAFFDBDBDBFFDCDCDCFFDDDDDDFFDEDEDEFFDFDFDFFFE0E0E0FFE1E1
310
E1FFE2E2E2FFE3E3E3FFE4E4E4FFE5E5E5FFE6E6E6FFE7E7E7FFE8E8E8FFE9E9
310
E9FFEAEAEAFFEBEBEBFFECECECFFEDEDEDFFEEEEEEFFEFEFEFFFF0F0F0FFF1F1
310
F1FFF2F2F2FFF3F3F3FFF4F4F4FFF5F5F5FFF6F6F6FFF7F7F7FFF8F8F8FFF9F9
310
F9FFFAFAFAFFFBFBFBFFFCFCFCFFFDFDFDFFFEFEFEFFFFFFFFFFFFFFFFFFFFFF
310
C94E4E4E4F4E4EFFFFFFFFFFC94E4E4E4E4E72FFFFFFFFFFFFFF734E4D4E4E4E
310
C9FFFFFFFFFFAA683516171616265B9BE9FFFFFFFFFF4E4E4E4D4E4EFFFFFFFF
310
FFFFFFFF4E4E4F4E4D4E4E4E4F4E4E4F4D4E4E4E4E4E4D4E4F4E4D4E4E4EAAFF
310
FFFFFFFFFFEA4E4F4F4E4E4E4E4E4D4D4F4F4E4E4E4E4E5B7FAAFFFFFFFFFFFF
310
C9744E1716171616164D8DEAFFFFFFFF0000FFFFFFFFFFFFBA161617161716FF
310
FFFFFFFFB917171616174FFFFFFFFFFFFFFF4E1716161616B9FFFFFFB9341717
310
1716171617171616268CFFFFFFFF161617161617FFFFFFFFFFFFFFB917161717
310
1617167F807F7F7F7F7F7F807F7F807F7F807F7F7F414EFFFFFFFFFFFF8C167F
310
7F807F7F7F7E7F7F807F807F7F807F4E3417258EFFFFEA4E162674AABAEAEBBA
310
AA74341680FFFFFF0000FFFFFFFFFFFFB9171717171617FFFFFFFFFFBB161616
310
16164EFFFFFFFFFFFFFF4E1717171717B9FFFF9C171617171716161616171616
310
171766FFFFFF161717161617FFFFFFFFFFFFFF8E16171717161616FFFFFFFFFF
310
FFFFFFFFFFFFFFFFFFFFFFFFFFAA16D9FFFFFFFFFF3467FFFFFFFFEAFFFFFFFF
310
FFFFFFFFFFFFFFFFFFCA671667EB26278DFFFFFFFFFFFFFFFFFFFF8C2541EAFF
310
0000FFFFFFFFFFFFB9171717171716FFFFFFFFFFBA16171617174EFFFFFFFFFF
310
FFFF4E1717161616BAFF9B1617161616171716171617161616161667FFFF1616
310
16161716FFFFFFFFFFFFFF7F16161617174017FFFFFFFFFFFFFFFFFFFFFFFFFF
310
FFFFFFFFFFFF344E7F7F7F7E7417DAFFFFFFFF80FFFFFFFFFFFFFFFFFFFFFFFF
310
FFFFFF9B163425CAFFFFFFFFFFFFFFFFFFFFFFFFCA2667FF0000FFFFFFFFFFFF
310
BA171717171617FFFFFFFFFFB916171716164EFFFFFFFFFFFFFF4F1716161717
310
B9C91716171616161716161617171616161617168DFF161716161717FFFFFFFF
310
FFFFFF7F17171716164F16FFFFFFFFFFFFFFFFFFFFFFFFFFFFFFFFFFFFFF9B16
310
17161617174EFFFFFFFFFF34FFFFFFFFD9BABABABABADAFFFFFFFFFF7F16AAFF
310
FFFFFFFFFFFFFFFFFFFFFFFFFF9C16BA0000FFFFFFFFFFFFB9161717161717FF
310
FFFFFFFFB917161716174DFFFFFFFFFFFFFF4E1616161616BA4E161617171716
310
419BEAEAAA4E16161617161726E9171717161616FFFFFFFFFFFFFF4F16161717
310
164E16FFFFFFFFFFBAB9B9B9B9B9BABABACAFFFFFFFFFFFFFFFFFFFFFFFFFFFF
310
FFFFBA16FFFFFFFF7F1617161617174DEAFFFFFFEA41FFFFFFFFFFAA4D16174E
310
9BFFFFFFFFFF34730000FFFFFFFFFFFFB9161617171617FFFFFFFFFFBA161616
310
16164EFFFFFFFFFFFFFF4F16161717169B1617161716175BFFFFFFFFFFFF7417
310
16171616168D171717161617FFFFFFFFFFFFEA2616171717167416FFFFFFFFFF
310
16171616171717171717EAFFFFFFFFFFFFFFFFFFFFFFFFFFFFFF6716FFFFFFFF
310
7F4EFFFFFFFFBA2573FFFFFFFFBAFFFFFFFFAA167FB9BB9B269BFFFFFFFF664F
310
0000FFFFFFFFFFFFB9171616161616FFFFFFFFFFBA16161717164EFFFFFFFFFF
310
FFFF4E16161616174E161617171626EAFFFFFFFFFFFFFF4E16161616164E1716
310
16161617FFFFFFFFFFFF671616161716347F16FFFFFFFFFF16B9FFFFFFFFFFFF
310
D9168DFFFFFFFFFFFFFFFFFFFFFFFFFFFFEA1716FFFFFFFF7F4EFFFFFFFFFF7F
310
4EFFFFFFFFFFFFFFFFFF5B66FFFFFFEA347FFFFFFFFF7F4D0000FFFFFFFFFFFF
310
B9171616171617FFFFFFFFFFBA17161716174EFFFFFFFFFFFFFF4D1716161617
310
17161716161673FFFFFFFFFFFFFFFF9B1617161717161616171616174F4E4E4E
310
4E341616171616167E7F16FFFFFFFFFF16BAFFFFFFFFFFFFFF5B41FFFFFFFF34
310
1616171616BAFFFFFF9B1716FFFFFFFF7F4EFFFFFFFFFF4E4EFFFFFFFF734E4E
310
4E4E267EDA9B67164EEAFFFFFFFF744D0000FFFFFFFFFFFFBA171717161617FF
310
FFFFFFFFBA1616171616347F7F7F7F80807F331616161717161717161716B9FF
310
FFFFFFFFFFFFFFE9161616161616171716161716171616161616171616171734
310
EA7F16FFFFFFFFFF16BAFFFFFFFFFFFFFFAA17C9FFFFFF7326BABA5B25FFFFFF
310
FF401716FFFFFFFF7F264F4E4E4E4217AAFFFFFFEA16677F73261616164173CA
310
FFFFFFFFFFFF417F0000FFFFFFFFFFFFBA171616171617FFFFFFFFFFBA161616
310
17171616161616161616161717161616161616161617EAFFFFFFFFFFFFFFFFFF
310
261717161716161617161616161617161617161616174EEAFF8016FFFFFFFFFF
310
17BAFFFFFFFFFFFFFFFF3467FFFFFFC916C9FF3467FFFFFFDA166716FFFFFFFF
310
9C4D4E4E4E4E67AAFFFFFFFF6834FF7F262567AAEAFFFFFFFFFFFFFFFF9B17D9
310
0000FFFFFFFFFFFFB9161616161616FFFFFFFFFFBA1617161717171616161616
310
1716171716161716161617171716FFFFFFFFFFFFFFFFFFFF4E17161716171616
310
1617171616161716171717161616169BFF7F17FFFFFFFFFF17B9FFFFFFFFFFFF
310
FFFF7326FFFFFFFF3473DA16AAFFFFFF7317AA16FFFFFFFFFFFFFFFFFFFFFFFF
310
FFFFEA6725BA4E167FEAFFFFFFFFFFFFFFFFFFFF9C167FFF0000FFFFFFFFFFFF
310
B9161717171716FFFFFFFFFFBA16161716171616171717161617161716161616
310
171617171617EAFFFFFFFFFFFFFFFFFF26161717161616161616161617171616
310
1616161616171616AA8016FFFFFFFFFF16BAFFFFFFFFFFFFFFFFDA179BFFFFFF
310
74348D26FFFFFFFF2566B917FFFFFFFFD8BAB9BAB9BADAFFFFEA41169B7425C9
310
FFFFFFFFFFFFFFFFFFFFAB4F1680FFFF0000FFFFFFFFFFFFBA161717171617FF
310
FFFFFFFFBA17161717161617171617161616161617171616171716171617BBFF
310
FFFFFFFFFFFFFFE9171616161617161617161716FFFFFFFFFFD9671616161617
310
348017FFFFFFFFFF16BAFFFFFFFFFFFFFFFFFF4E5AFFFFFFC916265AFFFFFFAA
310
16AABA16FFFFFFFF7F1617161616179BFFFFEB4127168DFFFFFFFFFFFFFFD99B
310
6734175AC9FFFFFF0000FFFFFFFFFFFFB9161617171617FFFFFFFFFFBB161616
310
1616347F807F7F7F7F8033171716171617171616161672FFFFFFFFFFFFFFFF9C
310
171617171617161716161617FFFFFFFFFFFFFF4117161616174E17FFFFFFFFFF
310
16BAFFFFFFFFFFFFFFFFFF9B16DAFFFFFF34169BFFFFFF5A26FFB917FFFFFFFF
310
7F4EFFFFFFEA5B26FFFFFFEA2616EAFFFFFFFFDA743416331617414E4E4E4ECA
310
0000FFFFFFFFFFFFBA161716161616FFFFFFFFFFBA17171616164EFFFFFFFFFF
310
FFFF4E16161717174E161717171626EBFFFFFFFFFFFFFF4E16161617165B1616
310
16171617FFFFFFFFFFFFFF6716161616161617FFFFFFFFFF16BAFFFFFFFFFFFF
310
FFFFFFEA268CFFFFFF7316EAFFFFEB1774FFB916FFFFFFFF7F4EFFFFFFFF7316
310
FFFFFFFF6826FFFFFFFFEB264D9CEABA257F807F7F6616BA0000FFFFFFFFFFFF
310
BA161716161616FFFFFFFFFFBA16171616164DFFFFFFFFFFFFFF4E1617161617
310
9B1617171717165BEBFFFFFFFFFF671616161617179B171616161616FFFFFFFF
310
FFFFFF3417161617171617FFFFFFFFFF17BAFFFFFFFFFFFFFFFFFFFF6734FFFF
310
FFEBCAFFFFFF8D17C9FFBA17FFFFFFFF7F357F808066174FFFFFFFFF7F16FFFF
310
FFFFD91673B99B415BFFFFFFFFBA16DA00009B7F7F7F807F671617161616167F
310
80807F7E6617161616164EFFFFFFFFFFFFFF4E1616161617B94E171716161616
310
349BC9D9AA4E16171616161634FF161617161717B9B9BAB9BA9B411716171716
310
163416FFFFFFFFFF16B9FFFFFFFFFFFFFFFFFFFFC917CAFFFFFFFFFFFFFF3342
310
FFFFBA17FFFFFFFF9B4E4E4F4E4E66EAFFFFFFFF5B16C9FFFFFFFFAA4E164E73
310
EAFFFFFFFF8D26FF00004E161716161616171617171616171717171617161616
310
17174EFFFFFFFFFFFFFF4E1717171616B9D92616171716171716171717171716
310
16171716AAFF161717171617161617171616161617161716166717FFFFFFFFFF
310
17B9FFFFFFFFFFFFFFFFFFFFFF3467FFFFFFFFFFFFCA168CFFFFBB17FFFFFFFF
310
FFFFFFFFFFFFFFFFFFFFFFEA26265BFFFFFFFFFFFFFFFFFFFFFFFFFFEA3467FF
310
00004D16161616161617161717161617161616171617171616164EFFFFFFFFFF
310
FFFF4D1617161616BAFF9B1616161616161716161616171717161766FFFF1616
310
16171617161617161716171616171717667F16FFFFFFFFFF17BAFFFFFFFFFFFF
310
FFFFFFFFFF8C26EAFFFFFFFFFF6617EAFFFFBA17FFFFFFFFFFFFFFFFFFFFFFFF
310
FFFFEA5A25BA269BFFFFFFFFFFFFFFFFFFFFFFFF6616DAFF00004E1616171616
310
1616161616161716161617171616171616174EFFFFFFFFFFFFFF4D1717171716
310
B9FFFF9C161616161616161716161717171667FFFFFF17161717171716161617
310
1716161616161641E97E16FFFFFFFFFF16B9FFFFFFFFFFFFFFFFFFFFFFEA169B
310
FFFFFFFFEA265BFFFFFFB916FFFFFFFFFFFFFFFFFFFFFFFFFF9B3416AAFF9B17
310
67EAFFFFFFFFFFFFFFFFEA5B169BFFFF00004D17161716161616161717171616
310
161717161716171716174EFFFFFFFFFFFFFF4D1616161616BAFFFFFFBB411616
310
161716161616171634ABFFFFFFFF161716161617171716171617171617267FFF
310
FF7F164E4E4E4E4F17BAFFFFFFFFFFFFFFFFFFFFFFFF66344D4E4E4F4117AAFF
310
FFFFBA174E4E4E4D4E4D4D4E4E4E4E4116174EBBFFFFFFCA342666ABEAFFFFEA
310
AA6725269CFFFFFF0000724F4E4D4D4D4E4D4D4E4E4E4D4E4E4E4E4E4E4E4E4D
310
4E4E74FFFFFFFFFFFFFF734E4E4E4D4ECAFFFFFFFFFFAA663416171717265B9B
310
FFFFFFFFFFFF7F8080807F80807F7F7F7F7F807FBAFFFFFFFF9B4E4E4F4D4D4E
310
4DC9FFFFFFFFFFFFFFFFFFFFFFFFBA4E4E4E4E4D4E4EFFFFFFFFC94E4E4E4F4E
310
4E4E4D4E4E5A807F9CD9FFFFFFFFFFFFFF9B5B2617171716174E8DEAFFFFFFFF
310
0000000000000000000000000000000000000000000000000000000000000000
  1
OLE
  0
ENDSEC
  0
SECTION
  2
OBJECTS
  0
DICTIONARY
  5
C
330
0
100
AcDbDictionary
281
     1
  3
ACAD_GROUP
350
D
  3
ACAD_LAYOUT
350
1A
  3
ACAD_MLINESTYLE
350
17
  3
ACAD_PLOTSETTINGS
350
19
  3
ACAD_PLOTSTYLENAME
350
E
  0
DICTIONARY
  5
D
102
{ACAD_REACTORS
330
C
102
}
330
C
100
AcDbDictionary
281
     1
  0
DICTIONARY
  5
1A
102
{ACAD_REACTORS
330
C
102
}
330
C
100
AcDbDictionary
281
     1
  3
Layout1
350
1E
  3
Layout2
350
26
  3
Model
350
22
  0
DICTIONARY
  5
17
102
{ACAD_REACTORS
330
C
102
}
330
C
100
AcDbDictionary
281
     1
  3
Standard
350
18
  0
DICTIONARY
  5
19
102
{ACAD_REACTORS
330
C
102
}
330
C
100
AcDbDictionary
281
     1
  0
ACDBDICTIONARYWDFLT
  5
E
102
{ACAD_REACTORS
330
C
102
}
330
C
100
AcDbDictionary
281
     1
  3
Normal
350
F
100
AcDbDictionaryWithDefault
340
F
  0
LAYOUT
  5
1E
102
{ACAD_REACTORS
330
1A
102
}
330
1A
100
AcDbPlotSettings
  1

  2
none_device
  4

  6

 40
0.0
 41
0.0
 42
0.0
 43
0.0
 44
0.0
 45
0.0
 46
0.0
 47
0.0
 48
0.0
 49
0.0
140
0.0
141
0.0
142
1.0
143
1.0
 70
   688
 72
     0
 73
     0
 74
     5
  7

 75
    16
147
1.0
148
0.0
149
0.0
100
AcDbLayout
  1
Layout1
 70
     1
 71
     1
 10
0.0
 20
0.0
 11
420.0
 21
297.0
 12
0.0
 22
0.0
 32
0.0
 14
1.0000000000E+20
 24
1.0000000000E+20
 34
1.0000000000E+20
 15
-1.0000000000E+20
 25
-1.0000000000E+20
 35
-1.0000000000E+20
146
0.0
 13
0.0
 23
0.0
 33
0.0
 16
1.0
 26
0.0
 36
0.0
 17
0.0
 27
1.0
 37
0.0
 76
     0
330
1B
  0
LAYOUT
  5
26
102
{ACAD_REACTORS
330
1A
102
}
330
1A
100
AcDbPlotSettings
  1

  2
none_device
  4

  6

 40
0.0
 41
0.0
 42
0.0
 43
0.0
 44
0.0
 45
0.0
 46
0.0
 47
0.0
 48
0.0
 49
0.0
140
0.0
141
0.0
142
1.0
143
1.0
 70
   688
 72
     0
 73
     0
 74
     5
  7

 75
    16
147
1.0
148
0.0
149
0.0
100
AcDbLayout
  1
Layout2
 70
     1
 71
     2
 10
0.0
 20
0.0
 11
0.0
 21
0.0
 12
0.0
 22
0.0
 32
0.0
 14
0.0
 24
0.0
 34
0.0
 15
0.0
 25
0.0
 35
0.0
146
0.0
 13
0.0
 23
0.0
 33
0.0
 16
1.0
 26
0.0
 36
0.0
 17
0.0
 27
1.0
 37
0.0
 76
     0
330
23
  0
LAYOUT
  5
22
102
{ACAD_REACTORS
330
1A
102
}
330
1A
100
AcDbPlotSettings
  1

  2
none_device
  4

  6

 40
0.0
 41
0.0
 42
0.0
 43
0.0
 44
0.0
 45
0.0
 46
0.0
 47
0.0
 48
0.0
 49
0.0
140
0.0
141
0.0
142
1.0
143
1.0
 70
  1712
 72
     0
 73
     0
 74
     0
  7

 75
     0
147
1.0
148
0.0
149
0.0
100
AcDbLayout
  1
Model
 70
     1
 71
     0
 10
0.0
 20
0.0
 11
279.4
 21
215.9
 12
0.0
 22
0.0
 32
0.0
 14
0.0
 24
0.0
 34
0.0
 15
279.4
 25
215.9
 35
0.0
146
0.0
 13
0.0
 23
0.0
 33
0.0
 16
1.0
 26
0.0
 36
0.0
 17
0.0
 27
1.0
 37
0.0
 76
     0
330
1F
331
29
  0
MLINESTYLE
  5
18
102
{ACAD_REACTORS
330
17
102
}
330
17
100
AcDbMlineStyle
  2
Standard
 70
     0
  3

 62
   256
 51
90.0
 52
90.0
 71
     2
 49
0.5
 62
   256
  6
BYLAYER
 49
-0.5
 62
   256
  6
BYLAYER
  0
ACDBPLACEHOLDER
  5
F
102
{ACAD_REACTORS
330
E
102
}
330
E
  0
ENDSEC
  0
EOF
