  0
SECTION
  2
HEADER
  9
$ACADVER
  1
AC1015
  9
$ACADMAINTVER
 70
     6
  9
$DWGCODEPAGE
  3
ANSI_1252
  9
$INSBASE
 10
0.0
 20
0.0
 30
0.0
  9
$EXTMIN
 10
0.0
 20
0.0
 30
0.0
  9
$EXTMAX
 10
279.4
 20
215.9
 30
0.0
  9
$LIMMIN
 10
0.0
 20
0.0
  9
$LIMMAX
 10
279.4
 20
215.9
  9
$ORTHOMODE
 70
     0
  9
$REGENMODE
 70
     1
  9
$FILLMODE
 70
     1
  9
$QTEXTMODE
 70
     0
  9
$MIRRTEXT
 70
     1
  9
$LTSCALE
 40
1.0
  9
$ATTMODE
 70
     1
  9
$TEXTSIZE
 40
2.8222222222
  9
$TRACEWID
 40
1.0
  9
$TEXTSTYLE
  7
Standard
  9
$CLAYER
  8
0
  9
$CELTYPE
  6
ByLayer
  9
$CECOLOR
 62
   256
  9
$CELTSCALE
 40
1.0
  9
$DISPSILH
 70
     0
  9
$DIMSCALE
 40
1.0
  9
$DIMASZ
 40
3.175
  9
$DIMEXO
 40
1.27
  9
$DIMDLI
 40
3.75
  9
$DIMRND
 40
0.0
  9
$DIMDLE
 40
0.0
  9
$DIMEXE
 40
1.778
  9
$DIMTP
 40
0.0
  9
$DIMTM
 40
0.0
  9
$DIMTXT
 40
2.8222222222
  9
$DIMCEN
 40
2.5
  9
$DIMTSZ
 40
0.0
  9
$DIMTOL
 70
     0
  9
$DIMLIM
 70
     0
  9
$DIMTIH
 70
     1
  9
$DIMTOH
 70
     1
  9
$DIMSE1
 70
     0
  9
$DIMSE2
 70
     0
  9
$DIMTAD
 70
     0
  9
$DIMZIN
 70
     1
  9
$DIMBLK
  1

  9
$DIMASO
 70
     1
  9
$DIMSHO
 70
     1
  9
$DIMPOST
  1

  9
$DIMAPOST
  1

  9
$DIMALT
 70
     0
  9
$DIMALTD
 70
     3
  9
$DIMALTF
 40
0.0393700787
  9
$DIMLFAC
 40
1.0
  9
$DIMTOFL
 70
     1
  9
$DIMTVP
 40
0.0
  9
$DIMTIX
 70
     0
  9
$DIMSOXD
 70
     0
  9
$DIMSAH
 70
     0
  9
$DIMBLK1
  1

  9
$DIMBLK2
  1

  9
$DIMSTYLE
  2
ISO-25
  9
$DIMCLRD
 70
     0
  9
$DIMCLRE
 70
     0
  9
$DIMCLRT
 70
     0
  9
$DIMTFAC
 40
1.0
  9
$DIMGAP
 40
2.54
  9
$DIMJUST
 70
     0
  9
$DIMSD1
 70
     0
  9
$DIMSD2
 70
     0
  9
$DIMTOLJ
 70
     0
  9
$DIMTZIN
 70
     1
  9
$DIMALTZ
 70
     0
  9
$DIMALTTZ
 70
     0
  9
$DIMUPT
 70
     0
  9
$DIMDEC
 70
     1
  9
$DIMTDEC
 70
     1
  9
$DIMALTU
 70
     2
  9
$DIMALTTD
 70
     3
  9
$DIMTXSTY
  7
Standard
  9
$DIMAUNIT
 70
     0
  9
$DIMADEC
 70
     0
  9
$DIMALTRND
 40
0.0
  9
$DIMAZIN
 70
     0
  9
$DIMDSEP
 70
    44
  9
$DIMATFIT
 70
     3
  9
$DIMFRAC
 70
     0
  9
$DIMLDRBLK
  1

  9
$DIMLUNIT
 70
     2
  9
$DIMLWD
 70
    -2
  9
$DIMLWE
 70
    -2
  9
$DIMTMOVE
 70
     0
  9
$LUNITS
 70
     2
  9
$LUPREC
 70
     1
  9
$SKETCHINC
 40
1.0
  9
$FILLETRAD
 40
10.0
  9
$AUNITS
 70
     0
  9
$AUPREC
 70
     0
  9
$MENU
  1
.
  9
$ELEVATION
 40
0.0
  9
$PELEVATION
 40
0.0
  9
$THICKNESS
 40
0.0
  9
$LIMCHECK
 70
     0
  9
$CHAMFERA
 40
0.0
  9
$CHAMFERB
 40
0.0
  9
$CHAMFERC
 40
0.0
  9
$CHAMFERD
 40
0.0
  9
$SKPOLY
 70
     0
  9
$TDCREATE
 40
2459643.561862442
  9
$TDUCREATE
 40
2459643.228529109
  9
$TDUPDATE
 40
2459643.561877604
  9
$TDUUPDATE
 40
2459643.228544271
  9
$TDINDWG
 40
0.0000000116
  9
$TDUSRTIMER
 40
0.0000000116
  9
$USRTIMER
 70
     1
  9
$ANGBASE
 50
0.0
  9
$ANGDIR
 70
     0
  9
$PDMODE
 70
     0
  9
$PDSIZE
 40
-1.0
  9
$PLINEWID
 40
0.0
  9
$SPLFRAME
 70
     0
  9
$SPLINETYPE
 70
     6
  9
$SPLINESEGS
 70
     8
  9
$HANDSEED
  5
275
  9
$SURFTAB1
 70
     6
  9
$SURFTAB2
 70
     6
  9
$SURFTYPE
 70
     6
  9
$SURFU
 70
     6
  9
$SURFV
 70
     6
  9
$UCSBASE
  2

  9
$UCSNAME
  2

  9
$UCSORG
 10
0.0
 20
0.0
 30
0.0
  9
$UCSXDIR
 10
1.0
 20
0.0
 30
0.0
  9
$UCSYDIR
 10
0.0
 20
1.0
 30
0.0
  9
$UCSORTHOREF
  2

  9
$UCSORTHOVIEW
 70
     0
  9
$UCSORGTOP
 10
0.0
 20
0.0
 30
0.0
  9
$UCSORGBOTTOM
 10
0.0
 20
0.0
 30
0.0
  9
$UCSORGLEFT
 10
0.0
 20
0.0
 30
0.0
  9
$UCSORGRIGHT
 10
0.0
 20
0.0
 30
0.0
  9
$UCSORGFRONT
 10
0.0
 20
0.0
 30
0.0
  9
$UCSORGBACK
 10
0.0
 20
0.0
 30
0.0
  9
$PUCSBASE
  2

  9
$PUCSNAME
  2

  9
$PUCSORG
 10
0.0
 20
0.0
 30
0.0
  9
$PUCSXDIR
 10
1.0
 20
0.0
 30
0.0
  9
$PUCSYDIR
 10
0.0
 20
1.0
 30
0.0
  9
$PUCSORTHOREF
  2

  9
$PUCSORTHOVIEW
 70
     0
  9
$PUCSORGTOP
 10
0.0
 20
0.0
 30
0.0
  9
$PUCSORGBOTTOM
 10
0.0
 20
0.0
 30
0.0
  9
$PUCSORGLEFT
 10
0.0
 20
0.0
 30
0.0
  9
$PUCSORGRIGHT
 10
0.0
 20
0.0
 30
0.0
  9
$PUCSORGFRONT
 10
0.0
 20
0.0
 30
0.0
  9
$PUCSORGBACK
 10
0.0
 20
0.0
 30
0.0
  9
$USERI1
 70
     0
  9
$USERI2
 70
     0
  9
$USERI3
 70
     0
  9
$USERI4
 70
     0
  9
$USERI5
 70
     0
  9
$USERR1
 40
0.0
  9
$USERR2
 40
0.0
  9
$USERR3
 40
0.0
  9
$USERR4
 40
0.0
  9
$USERR5
 40
0.0
  9
$WORLDVIEW
 70
     1
  9
$SHADEDGE
 70
     3
  9
$SHADEDIF
 70
    70
  9
$TILEMODE
 70
     1
  9
$MAXACTVP
 70
    64
  9
$PINSBASE
 10
0.0
 20
0.0
 30
0.0
  9
$PLIMCHECK
 70
     0
  9
$PEXTMIN
 10
1.0000000000E+20
 20
1.0000000000E+20
 30
1.0000000000E+20
  9
$PEXTMAX
 10
-1.0000000000E+20
 20
-1.0000000000E+20
 30
-1.0000000000E+20
  9
$PLIMMIN
 10
0.0
 20
0.0
  9
$PLIMMAX
 10
420.0
 20
297.0
  9
$UNITMODE
 70
     0
  9
$VISRETAIN
 70
     1
  9
$PLINEGEN
 70
     0
  9
$PSLTSCALE
 70
     1
  9
$TREEDEPTH
 70
  3020
  9
$CMLSTYLE
  2
Standard
  9
$CMLJUST
 70
     0
  9
$CMLSCALE
 40
20.0
  9
$PROXYGRAPHICS
 70
     1
  9
$MEASUREMENT
 70
     1
  9
$CELWEIGHT
370
    -1
  9
$ENDCAPS
280
     0
  9
$JOINSTYLE
280
     0
  9
$LWDISPLAY
290
     1
  9
$INSUNITS
 70
     4
  9
$HYPERLINKBASE
  1

  9
$STYLESHEET
  1

  9
$XEDIT
290
     1
  9
$CEPSNTYPE
380
     0
  9
$PSTYLEMODE
290
     1
  9
$FINGERPRINTGUID
  2
{523B70D8-466F-4722-8429-FA4D589FE1DD}
  9
$VERSIONGUID
  2
{FAEB1C32-E019-11D5-929B-00C0DF256EC4}
  9
$EXTNAMES
290
     1
  9
$PSVPSCALE
 40
0.0
  9
$OLESTARTUP
290
     0
  0
ENDSEC
  0
SECTION
  2
CLASSES
  0
CLASS
  1
ACDBDICTIONARYWDFLT
  2
AcDbDictionaryWithDefault
  3
ObjectDBX Classes
 90
        0
280
     0
281
     0
  0
CLASS
  1
VISUALSTYLE
  2
AcDbVisualStyle
  3
ObjectDBX Classes
 90
     4095
280
     0
281
     0
  0
CLASS
  1
MATERIAL
  2
AcDbMaterial
  3
ObjectDBX Classes
 90
     1153
280
     0
281
     0
  0
CLASS
  1
SCALE
  2
AcDbScale
  3
ObjectDBX Classes
 90
     1153
280
     0
281
     0
  0
CLASS
  1
TABLESTYLE
  2
AcDbTableStyle
  3
ObjectDBX Classes
 90
     4095
280
     0
281
     0
  0
CLASS
  1
MLEADERSTYLE
  2
AcDbMLeaderStyle
  3
ACDB_MLEADERSTYLE_CLASS
 90
     4095
280
     0
281
     0
  0
CLASS
  1
SUN
  2
AcDbSun
  3
SCENEOE
 90
     1153
280
     0
281
     0
  0
CLASS
  1
ACDBPLACEHOLDER
  2
AcDbPlaceHolder
  3
ObjectDBX Classes
 90
        0
280
     0
281
     0
  0
CLASS
  1
LAYOUT
  2
AcDbLayout
  3
ObjectDBX Classes
 90
        0
280
     0
281
     0
  0
ENDSEC
  0
SECTION
  2
TABLES
  0
TABLE
  2
VPORT
  5
8
330
0
100
AcDbSymbolTable
 70
     1
  0
VPORT
  5
29
330
8
100
AcDbSymbolTableRecord
100
AcDbViewportTableRecord
  2
*Active
 70
     0
 10
0.0
 20
0.0
 11
1.0
 21
1.0
 12
139.7
 22
107.95
 13
0.0
 23
0.0
 14
10.0
 24
10.0
 15
10.0
 25
10.0
 16
0.0
 26
0.0
 36
1.0
 17
0.0
 27
0.0
 37
0.0
 40
215.9
 41
1.2941176471
 42
50.0
 43
0.0
 44
0.0
 50
0.0
 51
0.0
 71
     0
 72
  2000
 73
     1
 74
     3
 75
     0
 76
     0
 77
     0
 78
     0
281
     0
 65
     1
110
0.0
120
0.0
130
0.0
111
1.0
121
0.0
131
0.0
112
0.0
122
1.0
132
0.0
 79
     0
146
0.0
  0
ENDTAB
  0
TABLE
  2
LTYPE
  5
5
330
0
100
AcDbSymbolTable
 70
     6
  0
LTYPE
  5
14
330
5
100
AcDbSymbolTableRecord
100
AcDbLinetypeTableRecord
  2
ByBlock
 70
     0
  3

 72
    65
 73
     0
 40
0.0
  0
LTYPE
  5
15
330
5
100
AcDbSymbolTableRecord
100
AcDbLinetypeTableRecord
  2
ByLayer
 70
     0
  3

 72
    65
 73
     0
 40
0.0
  0
LTYPE
  5
16
330
5
100
AcDbSymbolTableRecord
100
AcDbLinetypeTableRecord
  2
Continuous
 70
     0
  3
Solid line
 72
    65
 73
     0
 40
0.0
  0
LTYPE
  5
6E
330
5
100
AcDbSymbolTableRecord
100
AcDbLinetypeTableRecord
  2
HIDDEN
 70
     0
  3
Hidden __ __ __ __ __ __ __ __ __ __ __ __ __ __
 72
    65
 73
     2
 40
1.905
 49
1.27
 74
     0
 49
-0.635
 74
     0
  0
LTYPE
  5
6F
330
5
100
AcDbSymbolTableRecord
100
AcDbLinetypeTableRecord
  2
PHANTOM
 70
     0
  3
Phantom ______  __  __  ______  __  __  ______
 72
    65
 73
     6
 40
12.7
 49
6.35
 74
     0
 49
-1.27
 74
     0
 49
1.27
 74
     0
 49
-1.27
 74
     0
 49
1.27
 74
     0
 49
-1.27
 74
     0
  0
LTYPE
  5
70
330
5
100
AcDbSymbolTableRecord
100
AcDbLinetypeTableRecord
  2
CENTER
 70
     0
  3
Center ____ _ ____ _ ____ _ ____ _ ____ _ ____
 72
    65
 73
     4
 40
10.16
 49
6.35
 74
     0
 49
-1.27
 74
     0
 49
1.27
 74
     0
 49
-1.27
 74
     0
  0
LTYPE
  5
71
330
5
100
AcDbSymbolTableRecord
100
AcDbLinetypeTableRecord
  2
CENTERX2
 70
     0
  3
Center (2x) ________  __  ________  __  _____
 72
    65
 73
     4
 40
20.32
 49
12.7
 74
     0
 49
-2.54
 74
     0
 49
2.54
 74
     0
 49
-2.54
 74
     0
  0
LTYPE
  5
72
330
5
100
AcDbSymbolTableRecord
100
AcDbLinetypeTableRecord
  2
DOT2
 70
     0
  3
Dot (.5x) ........................................
 72
    65
 73
     2
 40
0.635
 49
0.0
 74
     0
 49
-0.635
 74
     0
  0
ENDTAB
  0
TABLE
  2
LAYER
  5
2
330
0
100
AcDbSymbolTable
 70
     2
  0
LAYER
  5
10
330
2
100
AcDbSymbolTableRecord
100
AcDbLayerTableRecord
  2
0
 70
     0
 62
     7
  6
Continuous
370
    -3
390
F
  0
LAYER
  5
73
330
2
100
AcDbSymbolTableRecord
100
AcDbLayerTableRecord
  2
FORMAT
 70
     0
 62
     7
  6
Continuous
370
    -3
390
F
  0
ENDTAB
  0
TABLE
  2
STYLE
  5
3
330
0
100
AcDbSymbolTable
 70
     3
  0
STYLE
  5
11
330
3
100
AcDbSymbolTableRecord
100
AcDbTextStyleTableRecord
  2
Standard
 70
     0
 40
0.0
 41
1.0
 50
0.0
 71
     0
 42
2.8222222222
  3
txt
  4

  0
STYLE
  5
132
330
3
100
AcDbSymbolTableRecord
100
AcDbTextStyleTableRecord
  2
SLDTEXTSTYLE0
 70
     0
 40
0.0
 41
0.75
 50
0.0
 71
     0
 42
2.8222222222
  3
TXT
  4

  0
STYLE
  5
14C
330
3
100
AcDbSymbolTableRecord
100
AcDbTextStyleTableRecord
  2
SLDTEXTSTYLE1
 70
     0
 40
0.0
 41
0.6
 50
0.0
 71
     0
 42
2.8222222222
  3
TXT
  4

  0
ENDTAB
  0
TABLE
  2
VIEW
  5
6
330
0
100
AcDbSymbolTable
 70
     0
  0
ENDTAB
  0
TABLE
  2
UCS
  5
7
330
0
100
AcDbSymbolTable
 70
     0
  0
ENDTAB
  0
TABLE
  2
APPID
  5
9
330
0
100
AcDbSymbolTable
 70
     1
  0
APPID
  5
12
330
9
100
AcDbSymbolTableRecord
100
AcDbRegAppTableRecord
  2
ACAD
 70
     0
  0
ENDTAB
  0
TABLE
  2
DIMSTYLE
  5
A
330
0
100
AcDbSymbolTable
 70
     5
100
AcDbDimStyleTable
  0
DIMSTYLE
105
27
330
A
100
AcDbSymbolTableRecord
100
AcDbDimStyleTableRecord
  2
ISO-25
 70
     0
 41
2.5
 42
0.625
 43
3.75
 44
1.25
 73
     0
 74
     0
 77
     1
 78
     8
140
2.5
141
2.5
143
0.0393700787
147
0.625
171
     3
172
     1
178
     0
271
     2
272
     2
274
     3
278
    44
283
     0
284
     8
340
11
  0
DIMSTYLE
105
170
102
{ACAD_REACTORS
330
16F
102
}
330
A
100
AcDbSymbolTableRecord
100
AcDbDimStyleTableRecord
  2
SLDDIMSTYLE0
 70
     0
 41
3.175
 44
0.0
 45
0.000000001
 78
    12
 79
     3
140
2.1166666667
141
0.0
143
0.0393700787
147
0.5291666667
148
0.000000001
170
     1
173
     1
178
     0
271
     1
272
     1
276
     2
284
    12
340
132
  0
DIMSTYLE
105
23C
102
{ACAD_REACTORS
330
23B
102
}
330
A
100
AcDbSymbolTableRecord
100
AcDbDimStyleTableRecord
  2
SLDDIMSTYLE1
 70
     0
 41
3.175
 44
0.0
 45
0.000000001
 78
     4
 79
     1
140
2.1166666667
143
0.0393700787
147
0.5291666667
148
0.000000001
170
     1
172
     1
173
     1
178
     0
271
     1
272
     1
276
     2
284
    12
289
     0
340
132
  0
DIMSTYLE
105
250
102
{ACAD_REACTORS
330
24F
102
}
330
A
100
AcDbSymbolTableRecord
100
AcDbDimStyleTableRecord
  2
SLDDIMSTYLE2
 70
     0
 41
3.175
 44
0.0
 45
0.000000001
 78
    12
 79
     3
140
2.1166666667
141
0.0
143
0.0393700787
147
0.5291666667
148
0.000000001
170
     1
173
     1
178
     0
271
     1
272
     1
276
     2
284
    12
340
132
  0
DIMSTYLE
105
260
102
{ACAD_REACTORS
330
25F
102
}
330
A
100
AcDbSymbolTableRecord
100
AcDbDimStyleTableRecord
  2
SLDDIMSTYLE3
 70
     0
 41
3.175
 44
0.0
 45
0.000000001
 78
    12
 79
     3
140
2.1166666667
143
0.0393700787
147
0.5291666667
148
0.000000001
170
     1
172
     1
173
     1
178
     0
271
     1
272
     1
276
     2
284
    12
289
     0
340
132
  0
ENDTAB
  0
TABLE
  2
BLOCK_RECORD
  5
1
330
0
100
AcDbSymbolTable
 70
    13
  0
BLOCK_RECORD
  5
1F
330
1
100
AcDbSymbolTableRecord
100
AcDbBlockTableRecord
  2
*Model_Space
340
22
  0
BLOCK_RECORD
  5
1B
330
1
100
AcDbSymbolTableRecord
100
AcDbBlockTableRecord
  2
*Paper_Space
340
1E
  0
BLOCK_RECORD
  5
23
330
1
100
AcDbSymbolTableRecord
100
AcDbBlockTableRecord
  2
*Paper_Space0
340
26
  0
BLOCK_RECORD
  5
74
330
1
100
AcDbSymbolTableRecord
100
AcDbBlockTableRecord
  2
Third Angle Projection Block
340
0
102
{BLKREFS
331
12E
102
}
  0
BLOCK_RECORD
  5
81
330
1
100
AcDbSymbolTableRecord
100
AcDbBlockTableRecord
  2
THORLABS LOGO1
340
0
102
{BLKREFS
331
12D
102
}
  0
BLOCK_RECORD
  5
12F
330
1
100
AcDbSymbolTableRecord
100
AcDbBlockTableRecord
  2
SW_NOTE_0
340
0
102
{BLKREFS
331
140
102
}
  0
BLOCK_RECORD
  5
152
330
1
100
AcDbSymbolTableRecord
100
AcDbBlockTableRecord
  2
SW_NOTE_1
340
0
102
{BLKREFS
331
157
102
}
  0
BLOCK_RECORD
  5
158
330
1
100
AcDbSymbolTableRecord
100
AcDbBlockTableRecord
  2
SW_NOTE_2
340
0
102
{BLKREFS
331
15D
102
}
  0
BLOCK_RECORD
  5
15F
330
1
100
AcDbSymbolTableRecord
100
AcDbBlockTableRecord
  2
SW_NOTE_3
340
0
102
{BLKREFS
331
164
102
}
  0
BLOCK_RECORD
  5
165
330
1
100
AcDbSymbolTableRecord
100
AcDbBlockTableRecord
  2
SW_NOTE_4
340
0
102
{BLKREFS
331
16B
102
}
  0
BLOCK_RECORD
  5
171
330
1
100
AcDbSymbolTableRecord
100
AcDbBlockTableRecord
  2
_D
340
0
  0
BLOCK_RECORD
  5
22B
330
1
100
AcDbSymbolTableRecord
100
AcDbBlockTableRecord
  2
SW_NOTE_5
340
0
102
{BLKREFS
331
230
102
}
  0
BLOCK_RECORD
  5
23D
330
1
100
AcDbSymbolTableRecord
100
AcDbBlockTableRecord
  2
_D_1
340
0
  0
BLOCK_RECORD
  5
251
330
1
100
AcDbSymbolTableRecord
100
AcDbBlockTableRecord
  2
_D_2
340
0
  0
BLOCK_RECORD
  5
261
330
1
100
AcDbSymbolTableRecord
100
AcDbBlockTableRecord
  2
_D_3
340
0
  0
ENDTAB
  0
ENDSEC
  0
SECTION
  2
BLOCKS
  0
BLOCK
  5
20
330
1F
100
AcDbEntity
  8
0
100
AcDbBlockBegin
  2
*Model_Space
 70
     0
 10
0.0
 20
0.0
 30
0.0
  3
*Model_Space
  1

  0
ENDBLK
  5
21
330
1F
100
AcDbEntity
  8
0
100
AcDbBlockEnd
  0
BLOCK
  5
1C
330
1B
100
AcDbEntity
 67
     1
  8
0
100
AcDbBlockBegin
  2
*Paper_Space
 70
     0
 10
0.0
 20
0.0
 30
0.0
  3
*Paper_Space
  1

  0
ENDBLK
  5
1D
330
1B
100
AcDbEntity
 67
     1
  8
0
100
AcDbBlockEnd
  0
BLOCK
  5
24
330
23
100
AcDbEntity
  8
0
100
AcDbBlockBegin
  2
*Paper_Space0
 70
     0
 10
0.0
 20
0.0
 30
0.0
  3
*Paper_Space0
  1

  0
ENDBLK
  5
25
330
23
100
AcDbEntity
  8
0
100
AcDbBlockEnd
  0
BLOCK
  5
75
330
74
100
AcDbEntity
  8
0
100
AcDbBlockBegin
  2
Third Angle Projection Block
 70
     0
 10
0.0
 20
0.0
 30
0.0
  3
Third Angle Projection Block
  1

  0
CIRCLE
  5
77
330
74
100
AcDbEntity
  8
0
  6
Continuous
 62
     7
370
    35
100
AcDbCircle
 10
101.4766388944
 20
18.9404083667
 30
0.0
 40
1.768227153674871
  0
CIRCLE
  5
78
330
74
100
AcDbEntity
  8
0
  6
Continuous
 62
     7
370
    35
100
AcDbCircle
 10
101.4766388944
 20
18.9404083667
 30
0.0
 40
3.901228248531818
  0
LINE
  5
79
330
74
100
AcDbEntity
  8
0
  6
CENTERX2
 62
     7
370
    18
100
AcDbLine
 10
110.1367822585
 20
18.9404083667
 30
0.0
 11
119.4527334874
 21
18.9404083667
 31
0.0
  0
LINE
  5
7A
330
74
100
AcDbEntity
  8
0
  6
Continuous
 62
     7
370
    35
100
AcDbLine
 10
111.0016388944
 20
20.7086355204
 30
0.0
 11
111.0016388944
 21
17.172181213
 31
0.0
  0
LINE
  5
7B
330
74
100
AcDbEntity
  8
0
  6
Continuous
 62
     7
370
    35
100
AcDbLine
 10
111.0016388944
 20
17.172181213
 30
0.0
 11
118.6216388944
 21
15.1304083667
 31
0.0
  0
LINE
  5
7C
330
74
100
AcDbEntity
  8
0
  6
Continuous
 62
     7
370
    35
100
AcDbLine
 10
118.6216388944
 20
15.1304083667
 30
0.0
 11
118.6216388944
 21
22.7504083667
 31
0.0
  0
LINE
  5
7D
330
74
100
AcDbEntity
  8
0
  6
Continuous
 62
     7
370
    35
100
AcDbLine
 10
118.6216388944
 20
22.7504083667
 30
0.0
 11
111.0016388944
 21
20.7086355204
 31
0.0
  0
LINE
  5
7E
330
74
100
AcDbEntity
  8
0
  6
CENTERX2
 62
     7
370
    18
100
AcDbLine
 10
96.6025854619
 20
18.9404083667
 30
0.0
 11
106.3506923269
 21
18.9404083667
 31
0.0
  0
LINE
  5
7F
330
74
100
AcDbEntity
  8
0
  6
CENTERX2
 62
     7
370
    18
100
AcDbLine
 10
101.4766388944
 20
23.8144617992
 30
0.0
 11
101.4766388944
 21
14.0663549342
 31
0.0
  0
POINT
  5
80
330
74
100
AcDbEntity
  8
0
  6
Continuous
 62
     7
370
     0
100
AcDbPoint
 10
101.4766388944
 20
18.9404083667
 30
0.0
  0
ENDBLK
  5
76
330
74
100
AcDbEntity
  8
0
100
AcDbBlockEnd
  0
BLOCK
  5
82
330
81
100
AcDbEntity
  8
0
100
AcDbBlockBegin
  2
THORLABS LOGO1
 70
     0
 10
0.0
 20
0.0
 30
0.0
  3
THORLABS LOGO1
  1

  0
LINE
  5
84
330
81
100
AcDbEntity
  8
0
  6
Continuous
 62
     7
370
    18
100
AcDbLine
 10
127.070019234
 20
36.20212077
 30
0.0
 11
129.5897637342
 21
43.9131108267
 31
0.0
  0
LINE
  5
85
330
81
100
AcDbEntity
  8
0
  6
Continuous
 62
     7
370
    18
100
AcDbLine
 10
129.5897637342
 20
43.9131108267
 30
0.0
 11
130.3745570034
 21
43.9131108267
 31
0.0
  0
LINE
  5
86
330
81
100
AcDbEntity
  8
0
  6
Continuous
 62
     7
370
    18
100
AcDbLine
 10
130.3745570034
 20
43.9131108267
 30
0.0
 11
132.8105856281
 21
36.20212077
 31
0.0
  0
LINE
  5
87
330
81
100
AcDbEntity
  8
0
  6
Continuous
 62
     7
370
    18
100
AcDbLine
 10
132.8105856281
 20
36.20212077
 30
0.0
 11
127.070019234
 21
36.20212077
 31
0.0
  0
LINE
  5
88
330
81
100
AcDbEntity
  8
0
  6
Continuous
 62
     7
370
    18
100
AcDbLine
 10
128.4229091235
 20
37.230137941
 30
0.0
 11
131.3867267247
 21
37.230137941
 31
0.0
  0
LINE
  5
89
330
81
100
AcDbEntity
  8
0
  6
Continuous
 62
     7
370
    18
100
AcDbLine
 10
131.3867267247
 20
37.230137941
 30
0.0
 11
129.9297948829
 21
41.8820534435
 31
0.0
  0
LINE
  5
8A
330
81
100
AcDbEntity
  8
0
  6
Continuous
 62
     7
370
    18
100
AcDbLine
 10
129.9297948829
 20
41.8820534435
 30
0.0
 11
128.4229091235
 21
37.230137941
 31
0.0
  0
LINE
  5
8B
330
81
100
AcDbEntity
  8
0
  6
Continuous
 62
     7
370
    18
100
AcDbLine
 10
148.5694963023
 20
29.6960536541
 30
0.0
 11
134.4690556888
 21
29.6960536541
 31
0.0
  0
LINE
  5
8C
330
81
100
AcDbEntity
  8
0
  6
Continuous
 62
     7
370
    18
100
AcDbLine
 10
134.4690556888
 20
29.6960536541
 30
0.0
 11
133.0327944335
 21
32.9713080926
 31
0.0
  0
LINE
  5
8D
330
81
100
AcDbEntity
  8
0
  6
Continuous
 62
     7
370
    18
100
AcDbLine
 10
133.0327944335
 20
32.9713080926
 30
0.0
 11
126.8013016089
 21
32.9713080926
 31
0.0
  0
LINE
  5
8E
330
81
100
AcDbEntity
  8
0
  6
Continuous
 62
     7
370
    18
100
AcDbLine
 10
126.8013016089
 20
32.9713080926
 30
0.0
 11
125.336790552
 21
29.7225809068
 31
0.0
  0
LINE
  5
8F
330
81
100
AcDbEntity
  8
0
  6
Continuous
 62
     7
370
    18
100
AcDbLine
 10
125.336790552
 20
29.7225809068
 30
0.0
 11
107.5084096545
 21
29.7225809068
 31
0.0
  0
LINE
  5
90
330
81
100
AcDbEntity
  8
0
  6
Continuous
 62
     7
370
    18
100
AcDbLine
 10
107.5084096545
 20
29.7225809068
 30
0.0
 11
107.5084096545
 21
48.9892901182
 31
0.0
  0
LINE
  5
91
330
81
100
AcDbEntity
  8
0
  6
Continuous
 62
     7
370
    18
100
AcDbLine
 10
107.5084096545
 20
48.9892901182
 30
0.0
 11
112.5348072834
 21
48.9892901182
 31
0.0
  0
LINE
  5
92
330
81
100
AcDbEntity
  8
0
  6
Continuous
 62
     7
370
    18
100
AcDbLine
 10
112.5348072834
 20
48.9892901182
 30
0.0
 11
112.5348072834
 21
34.0806295706
 31
0.0
  0
LINE
  5
93
330
81
100
AcDbEntity
  8
0
  6
Continuous
 62
     7
370
    18
100
AcDbLine
 10
112.5348072834
 20
34.0806295706
 30
0.0
 11
121.7804161364
 21
34.0806295706
 31
0.0
  0
LINE
  5
94
330
81
100
AcDbEntity
  8
0
  6
Continuous
 62
     7
370
    18
100
AcDbLine
 10
121.7804161364
 20
34.0806295706
 30
0.0
 11
127.3904133255
 21
48.9892901182
 31
0.0
  0
LINE
  5
95
330
81
100
AcDbEntity
  8
0
  6
Continuous
 62
     7
370
    18
100
AcDbLine
 10
127.3904133255
 20
48.9892901182
 30
0.0
 11
132.4970817321
 21
48.9892901182
 31
0.0
  0
LINE
  5
96
330
81
100
AcDbEntity
  8
0
  6
Continuous
 62
     7
370
    18
100
AcDbLine
 10
132.4970817321
 20
48.9892901182
 30
0.0
 11
139.3018388236
 21
31.0275839375
 31
0.0
  0
LINE
  5
97
330
81
100
AcDbEntity
  8
0
  6
Continuous
 62
     7
370
    18
100
AcDbLine
 10
139.3018388236
 20
31.0275839375
 30
0.0
 11
139.3018388236
 21
48.9892901182
 31
0.0
  0
LINE
  5
98
330
81
100
AcDbEntity
  8
0
  6
Continuous
 62
     7
370
    18
100
AcDbLine
 10
139.3018388236
 20
48.9892901182
 30
0.0
 11
148.3259278908
 21
48.9892901182
 31
0.0
  0
LINE
  5
99
330
81
100
AcDbEntity
  8
0
  6
Continuous
 62
     7
370
    18
100
AcDbLine
 10
156.0567272597
 20
36.2334711596
 30
0.0
 11
160.8609160832
 21
36.2334711596
 31
0.0
  0
LINE
  5
9A
330
81
100
AcDbEntity
  8
0
  6
Continuous
 62
     7
370
    18
100
AcDbLine
 10
171.9930604685
 20
43.2037651984
 30
0.0
 11
166.9673518592
 21
43.2037651984
 31
0.0
  0
LINE
  5
9B
330
81
100
AcDbEntity
  8
0
  6
Continuous
 62
     7
370
    18
100
AcDbLine
 10
161.57267328
 20
37.1278185376
 30
0.0
 11
156.7116403435
 21
37.1278185376
 31
0.0
  0
LINE
  5
9C
330
81
100
AcDbEntity
  8
0
  6
Continuous
 62
     7
370
    18
100
AcDbLine
 10
167.1893381071
 20
42.2088209659
 30
0.0
 11
173.0691700759
 21
42.1674797928
 31
0.0
  0
LINE
  5
9D
330
81
100
AcDbEntity
  8
0
  6
Continuous
 62
     7
370
    18
100
AcDbLine
 10
147.7273754781
 20
50.0471073848
 30
0.0
 11
138.3041010399
 21
50.0471073848
 31
0.0
  0
LINE
  5
9E
330
81
100
AcDbEntity
  8
0
  6
Continuous
 62
     7
370
    18
100
AcDbLine
 10
138.3041010399
 20
50.0471073848
 30
0.0
 11
138.3041010399
 21
36.7502358233
 31
0.0
  0
LINE
  5
9F
330
81
100
AcDbEntity
  8
0
  6
Continuous
 62
     7
370
    18
100
AcDbLine
 10
138.3041010399
 20
36.7502358233
 30
0.0
 11
133.3762332069
 21
50.0471073848
 31
0.0
  0
LINE
  5
A0
330
81
100
AcDbEntity
  8
0
  6
Continuous
 62
     7
370
    18
100
AcDbLine
 10
133.3762332069
 20
50.0471073848
 30
0.0
 11
126.7834772196
 21
50.0471073848
 31
0.0
  0
LINE
  5
A1
330
81
100
AcDbEntity
  8
0
  6
Continuous
 62
     7
370
    18
100
AcDbLine
 10
126.7834772196
 20
50.0471073848
 30
0.0
 11
121.0416582836
 21
34.8362965993
 31
0.0
  0
LINE
  5
A2
330
81
100
AcDbEntity
  8
0
  6
Continuous
 62
     7
370
    18
100
AcDbLine
 10
121.0416582836
 20
34.8362965993
 30
0.0
 11
113.7338781066
 21
34.7908312116
 31
0.0
  0
LINE
  5
A3
330
81
100
AcDbEntity
  8
0
  6
Continuous
 62
     7
370
    18
100
AcDbLine
 10
113.7338781066
 20
34.7908312116
 30
0.0
 11
113.6389611148
 21
50.0471073848
 31
0.0
  0
LINE
  5
A4
330
81
100
AcDbEntity
  8
0
  6
Continuous
 62
     7
370
    18
100
AcDbLine
 10
113.6389611148
 20
50.0471073848
 30
0.0
 11
106.3849632756
 21
50.0471073848
 31
0.0
  0
LINE
  5
A5
330
81
100
AcDbEntity
  8
0
  6
Continuous
 62
     7
370
    18
100
AcDbLine
 10
106.3849632756
 20
50.0471073848
 30
0.0
 11
106.3718719042
 21
28.6983533434
 31
0.0
  0
LINE
  5
A6
330
81
100
AcDbEntity
  8
0
  6
Continuous
 62
     7
370
    18
100
AcDbLine
 10
106.3718719042
 20
28.6983533434
 30
0.0
 11
126.0705963744
 21
28.7607096128
 31
0.0
  0
LINE
  5
A7
330
81
100
AcDbEntity
  8
0
  6
Continuous
 62
     7
370
    18
100
AcDbLine
 10
126.0705963744
 20
28.7607096128
 30
0.0
 11
127.3401148982
 21
31.9074619049
 31
0.0
  0
LINE
  5
A8
330
81
100
AcDbEntity
  8
0
  6
Continuous
 62
     7
370
    18
100
AcDbLine
 10
127.3401148982
 20
31.9074619049
 30
0.0
 11
132.5163742795
 21
31.9074619049
 31
0.0
  0
LINE
  5
A9
330
81
100
AcDbEntity
  8
0
  6
Continuous
 62
     7
370
    18
100
AcDbLine
 10
132.5163742795
 20
31.9074619049
 30
0.0
 11
133.7345608468
 21
28.7607096128
 31
0.0
  0
LINE
  5
AA
330
81
100
AcDbEntity
  8
0
  6
Continuous
 62
     7
370
    18
100
AcDbLine
 10
133.7345608468
 20
28.7607096128
 30
0.0
 11
149.6765281643
 21
28.7607096128
 31
0.0
  0
LINE
  5
AB
330
81
100
AcDbEntity
  8
0
  6
Continuous
 62
     7
370
    18
100
AcDbLine
 10
47.9736752992
 20
45.2630723832
 30
0.0
 11
42.1812601838
 21
45.2630723832
 31
0.0
  0
LINE
  5
AC
330
81
100
AcDbEntity
  8
0
  6
Continuous
 62
     7
370
    18
100
AcDbLine
 10
42.1812601838
 20
45.2630723832
 30
0.0
 11
42.1812601838
 21
28.6983533434
 31
0.0
  0
LINE
  5
AD
330
81
100
AcDbEntity
  8
0
  6
Continuous
 62
     7
370
    18
100
AcDbLine
 10
42.1812601838
 20
28.6983533434
 30
0.0
 11
36.5974457377
 21
28.6983533434
 31
0.0
  0
LINE
  5
AE
330
81
100
AcDbEntity
  8
0
  6
Continuous
 62
     7
370
    18
100
AcDbLine
 10
36.5974457377
 20
28.6983533434
 30
0.0
 11
36.5974457377
 21
45.2630723832
 31
0.0
  0
LINE
  5
AF
330
81
100
AcDbEntity
  8
0
  6
Continuous
 62
     7
370
    18
100
AcDbLine
 10
36.5974457377
 20
45.2630723832
 30
0.0
 11
30.2029997892
 21
45.2630723832
 31
0.0
  0
LINE
  5
B0
330
81
100
AcDbEntity
  8
0
  6
Continuous
 62
     7
370
    18
100
AcDbLine
 10
30.2029997892
 20
45.2630723832
 30
0.0
 11
30.2029997892
 21
50.0471073848
 31
0.0
  0
LINE
  5
B1
330
81
100
AcDbEntity
  8
0
  6
Continuous
 62
     7
370
    18
100
AcDbLine
 10
30.2029997892
 20
50.0471073848
 30
0.0
 11
53.5569729806
 21
50.0471073848
 31
0.0
  0
LINE
  5
B2
330
81
100
AcDbEntity
  8
0
  6
Continuous
 62
     7
370
    18
100
AcDbLine
 10
53.5569729806
 20
50.0471073848
 30
0.0
 11
53.5569729806
 21
42.2728997842
 31
0.0
  0
LINE
  5
B3
330
81
100
AcDbEntity
  8
0
  6
Continuous
 62
     7
370
    18
100
AcDbLine
 10
53.5569729806
 20
42.2728997842
 30
0.0
 11
60.9124289487
 21
42.2728997842
 31
0.0
  0
LINE
  5
B4
330
81
100
AcDbEntity
  8
0
  6
Continuous
 62
     7
370
    18
100
AcDbLine
 10
60.9124289487
 20
42.2728997842
 30
0.0
 11
60.9124289487
 21
50.0471073848
 31
0.0
  0
LINE
  5
B5
330
81
100
AcDbEntity
  8
0
  6
Continuous
 62
     7
370
    18
100
AcDbLine
 10
60.9124289487
 20
50.0471073848
 30
0.0
 11
66.4964156497
 21
50.0471073848
 31
0.0
  0
LINE
  5
B6
330
81
100
AcDbEntity
  8
0
  6
Continuous
 62
     7
370
    18
100
AcDbLine
 10
66.4964156497
 20
50.0471073848
 30
0.0
 11
66.4964156497
 21
28.6983533434
 31
0.0
  0
LINE
  5
B7
330
81
100
AcDbEntity
  8
0
  6
Continuous
 62
     7
370
    18
100
AcDbLine
 10
66.4964156497
 20
28.6983533434
 30
0.0
 11
60.9124289487
 21
28.6983533434
 31
0.0
  0
LINE
  5
B8
330
81
100
AcDbEntity
  8
0
  6
Continuous
 62
     7
370
    18
100
AcDbLine
 10
60.9124289487
 20
28.6983533434
 30
0.0
 11
60.9124289487
 21
37.4895538021
 31
0.0
  0
LINE
  5
B9
330
81
100
AcDbEntity
  8
0
  6
Continuous
 62
     7
370
    18
100
AcDbLine
 10
60.9124289487
 20
37.4895538021
 30
0.0
 11
53.5569729806
 21
37.4895538021
 31
0.0
  0
LINE
  5
BA
330
81
100
AcDbEntity
  8
0
  6
Continuous
 62
     7
370
    18
100
AcDbLine
 10
53.5569729806
 20
37.4895538021
 30
0.0
 11
53.5569729806
 21
28.6983533434
 31
0.0
  0
LINE
  5
BB
330
81
100
AcDbEntity
  8
0
  6
Continuous
 62
     7
370
    18
100
AcDbLine
 10
53.5569729806
 20
28.6983533434
 30
0.0
 11
47.9736752992
 21
28.6983533434
 31
0.0
  0
LINE
  5
BC
330
81
100
AcDbEntity
  8
0
  6
Continuous
 62
     7
370
    18
100
AcDbLine
 10
47.9736752992
 20
28.6983533434
 30
0.0
 11
47.9736752992
 21
45.2630723832
 31
0.0
  0
LINE
  5
BD
330
81
100
AcDbEntity
  8
0
  6
Continuous
 62
     7
370
    18
100
AcDbLine
 10
93.2083256259
 20
40.8002927475
 30
0.0
 11
97.891591518
 21
40.8002927475
 31
0.0
  0
LINE
  5
BE
330
81
100
AcDbEntity
  8
0
  6
Continuous
 62
     7
370
    18
100
AcDbLine
 10
97.6514682043
 20
45.613783335
 30
0.0
 11
93.2083256259
 21
45.613783335
 31
0.0
  0
LINE
  5
BF
330
81
100
AcDbEntity
  8
0
  6
Continuous
 62
     7
370
    18
100
AcDbLine
 10
93.2083256259
 20
45.613783335
 30
0.0
 11
93.2083256259
 21
40.8002927475
 31
0.0
  0
LINE
  5
C0
330
81
100
AcDbEntity
  8
0
  6
Continuous
 62
     7
370
    18
100
AcDbLine
 10
87.6243389163
 20
50.0471073848
 30
0.0
 11
98.5521890046
 21
50.0471073848
 31
0.0
  0
LINE
  5
C1
330
81
100
AcDbEntity
  8
0
  6
Continuous
 62
     7
370
    18
100
AcDbLine
 10
102.6945745488
 20
38.6856917437
 30
0.0
 11
102.6945745488
 21
38.6257470427
 31
0.0
  0
LINE
  5
C2
330
81
100
AcDbEntity
  8
0
  6
Continuous
 62
     7
370
    18
100
AcDbLine
 10
106.3668527513
 20
28.6983533434
 30
0.0
 11
101.1935454556
 21
28.6983533434
 31
0.0
  0
LINE
  5
C3
330
81
100
AcDbEntity
  8
0
  6
Continuous
 62
     7
370
    18
100
AcDbLine
 10
97.4420062521
 20
36.4729054538
 30
0.0
 11
93.2083256173
 21
36.4729054538
 31
0.0
  0
LINE
  5
C4
330
81
100
AcDbEntity
  8
0
  6
Continuous
 62
     7
370
    18
100
AcDbLine
 10
93.2083256173
 20
36.4729054538
 30
0.0
 11
93.2083256173
 21
28.6983533434
 31
0.0
  0
LINE
  5
C5
330
81
100
AcDbEntity
  8
0
  6
Continuous
 62
     7
370
    18
100
AcDbLine
 10
93.2083256173
 20
28.6983533434
 30
0.0
 11
87.6243389163
 21
28.6983533434
 31
0.0
  0
LINE
  5
C6
330
81
100
AcDbEntity
  8
0
  6
Continuous
 62
     7
370
    18
100
AcDbLine
 10
87.6243389163
 20
28.6983533434
 30
0.0
 11
87.6243389163
 21
50.0471073848
 31
0.0
  0
LINE
  5
C7
330
81
100
AcDbEntity
  8
0
  6
Continuous
 62
     7
370
    18
100
AcDbLine
 10
143.8820962928
 20
45.355573258
 30
0.0
 11
148.3552112218
 21
45.355573258
 31
0.0
  0
LINE
  5
C8
330
81
100
AcDbEntity
  8
0
  6
Continuous
 62
     7
370
    18
100
AcDbLine
 10
148.3552112218
 20
40.6891883448
 30
0.0
 11
143.8820962928
 21
40.6891883448
 31
0.0
  0
LINE
  5
C9
330
81
100
AcDbEntity
  8
0
  6
Continuous
 62
     7
370
    18
100
AcDbLine
 10
143.8820962928
 20
40.6891883448
 30
0.0
 11
143.8820962928
 21
45.355573258
 31
0.0
  0
LINE
  5
CA
330
81
100
AcDbEntity
  8
0
  6
Continuous
 62
     7
370
    18
100
AcDbLine
 10
144.8611930757
 20
44.3318624592
 30
0.0
 11
144.8611930757
 21
41.6384850321
 31
0.0
  0
LINE
  5
CB
330
81
100
AcDbEntity
  8
0
  6
Continuous
 62
     7
370
    18
100
AcDbLine
 10
144.8611930757
 20
41.6384850321
 30
0.0
 11
147.9838296835
 21
41.6384850321
 31
0.0
  0
LINE
  5
CC
330
81
100
AcDbEntity
  8
0
  6
Continuous
 62
     7
370
    18
100
AcDbLine
 10
147.9838296835
 20
44.3318624592
 30
0.0
 11
144.8611930757
 21
44.3318624592
 31
0.0
  0
LINE
  5
CD
330
81
100
AcDbEntity
  8
0
  6
Continuous
 62
     7
370
    18
100
AcDbLine
 10
143.8820962928
 20
38.4576262721
 30
0.0
 11
148.8506162794
 21
38.4576262721
 31
0.0
  0
LINE
  5
CE
330
81
100
AcDbEntity
  8
0
  6
Continuous
 62
     7
370
    18
100
AcDbLine
 10
148.8506162794
 20
33.0798286719
 30
0.0
 11
143.8820962928
 21
33.0798286719
 31
0.0
  0
LINE
  5
CF
330
81
100
AcDbEntity
  8
0
  6
Continuous
 62
     7
370
    18
100
AcDbLine
 10
143.8820962928
 20
33.0798286719
 30
0.0
 11
143.8820962928
 21
38.4576262721
 31
0.0
  0
LINE
  5
D0
330
81
100
AcDbEntity
  8
0
  6
Continuous
 62
     7
370
    18
100
AcDbLine
 10
144.8353548425
 20
37.4561363539
 30
0.0
 11
144.8353548425
 21
33.9958801658
 31
0.0
  0
LINE
  5
D1
330
81
100
AcDbEntity
  8
0
  6
Continuous
 62
     7
370
    18
100
AcDbLine
 10
144.8353548425
 20
33.9958801658
 30
0.0
 11
148.5660512046
 21
33.9958801658
 31
0.0
  0
LINE
  5
D2
330
81
100
AcDbEntity
  8
0
  6
Continuous
 62
     7
370
    18
100
AcDbLine
 10
148.5660512046
 20
37.4561363539
 30
0.0
 11
144.8353548425
 21
37.4561363539
 31
0.0
  0
LINE
  5
D3
330
81
100
AcDbEntity
  8
0
  6
Continuous
 62
     7
370
    18
100
AcDbLine
 10
106.3668527513
 20
29.7153023919
 30
0.0
 11
106.3668527513
 21
28.6983533434
 31
0.0
  0
SPLINE
  5
D4
330
81
100
AcDbEntity
  8
0
  6
Continuous
 62
     8
370
     0
100
AcDbSpline
210
0.0
220
0.0
230
1.0
 70
     8
 71
     3
 72
     8
 73
     4
 74
     0
 42
0.000000001
 43
0.00000001
 40
0.0
 40
0.0
 40
0.0
 40
0.0
 40
1.0
 40
1.0
 40
1.0
 40
1.0
 10
165.9145299843317
 20
42.47392123835806
 30
0.0
 10
163.2373445166196
 20
43.14743785003957
 30
0.0
 10
162.5142184972235
 20
43.26439891892237
 30
0.0
 10
162.5142184972235
 20
43.83439034297712
 30
0.0
  0
SPLINE
  5
D5
330
81
100
AcDbEntity
  8
0
  6
Continuous
 62
     8
370
     0
100
AcDbSpline
210
0.0
220
0.0
230
1.0
 70
     8
 71
     3
 72
     8
 73
     4
 74
     0
 42
0.000000001
 43
0.00000001
 40
1.0
 40
1.0
 40
1.0
 40
1.0
 40
2.0
 40
2.0
 40
2.0
 40
2.0
 10
162.5142184972235
 20
43.83439034297712
 30
0.0
 10
162.5142184972235
 20
44.08794953796311
 30
0.0
 10
163.6817621273968
 20
44.25641481832745
 30
0.0
 10
164.2398679641865
 20
44.24039511375292
 30
0.0
  0
SPLINE
  5
D6
330
81
100
AcDbEntity
  8
0
  6
Continuous
 62
     8
370
     0
100
AcDbSpline
210
0.0
220
0.0
230
1.0
 70
     8
 71
     3
 72
     8
 73
     4
 74
     0
 42
0.000000001
 43
0.00000001
 40
2.0
 40
2.0
 40
2.0
 40
2.0
 40
3.0
 40
3.0
 40
3.0
 40
3.0
 10
164.2398679641865
 20
44.24039511375292
 30
0.0
 10
165.3912196348973
 20
44.2062886459491
 30
0.0
 10
165.7515768603801
 20
43.97150523374403
 30
0.0
 10
165.8638870472897
 20
43.27628450618734
 30
0.0
  0
SPLINE
  5
D7
330
81
100
AcDbEntity
  8
0
  6
Continuous
 62
     8
370
     0
100
AcDbSpline
210
0.0
220
0.0
230
1.0
 70
     8
 71
     3
 72
     8
 73
     4
 74
     0
 42
0.000000001
 43
0.00000001
 40
3.0
 40
3.0
 40
3.0
 40
3.0
 40
4.0
 40
4.0
 40
4.0
 40
4.0
 10
165.8638870472897
 20
43.27628450618734
 30
0.0
 10
165.9090178279189
 20
43.00205472465359
 30
0.0
 10
165.9138409647801
 20
42.83186689541027
 30
0.0
 10
165.9145299843317
 20
42.47392123835806
 30
0.0
  0
SPLINE
  5
D8
330
81
100
AcDbEntity
  8
0
  6
Continuous
 62
     8
370
     0
100
AcDbSpline
210
0.0
220
0.0
230
1.0
 70
     8
 71
     3
 72
     8
 73
     4
 74
     0
 42
0.000000001
 43
0.00000001
 40
0.0
 40
0.0
 40
0.0
 40
0.0
 40
1.0
 40
1.0
 40
1.0
 40
1.0
 10
164.2102401234681
 20
29.12313389692912
 30
0.0
 10
160.290752404235
 20
29.12313389692912
 30
0.0
 10
156.7767526911141
 20
30.89219159564247
 30
0.0
 10
155.9991941271422
 20
34.65217128868185
 30
0.0
  0
SPLINE
  5
D9
330
81
100
AcDbEntity
  8
0
  6
Continuous
 62
     8
370
     0
100
AcDbSpline
210
0.0
220
0.0
230
1.0
 70
     8
 71
     3
 72
     8
 73
     4
 74
     0
 42
0.000000001
 43
0.00000001
 40
1.0
 40
1.0
 40
1.0
 40
1.0
 40
2.0
 40
2.0
 40
2.0
 40
2.0
 10
155.9991941271422
 20
34.65217128868185
 30
0.0
 10
155.4869080905333
 20
30.98107511779787
 30
0.0
 10
152.3484240330302
 20
29.69605365407815
 30
0.0
 10
148.569496302322
 20
29.69605365407815
 30
0.0
  0
SPLINE
  5
DA
330
81
100
AcDbEntity
  8
0
  6
Continuous
 62
     8
370
     0
100
AcDbSpline
210
0.0
220
0.0
230
1.0
 70
     8
 71
     3
 72
     8
 73
     4
 74
     0
 42
0.000000001
 43
0.00000001
 40
16.0
 40
16.0
 40
16.0
 40
16.0
 40
17.0
 40
17.0
 40
17.0
 40
17.0
 10
148.3259278908342
 20
48.98929011821522
 30
0.0
 10
151.6487246783881
 20
49.0430336432394
 30
0.0
 10
155.2970832040696
 20
48.18227596841268
 30
0.0
 10
155.2970832040696
 20
44.17218217814528
 30
0.0
  0
SPLINE
  5
DB
330
81
100
AcDbEntity
  8
0
  6
Continuous
 62
     8
370
     0
100
AcDbSpline
210
0.0
220
0.0
230
1.0
 70
     8
 71
     3
 72
     8
 73
     4
 74
     0
 42
0.000000001
 43
0.00000001
 40
17.0
 40
17.0
 40
17.0
 40
17.0
 40
18.0
 40
18.0
 40
18.0
 40
18.0
 10
155.2970832040696
 20
44.17218217814528
 30
0.0
 10
155.2970832040696
 20
42.44963329916444
 30
0.0
 10
154.270444072197
 20
41.05092360943199
 30
0.0
 10
152.7570126271244
 20
40.29730847487787
 30
0.0
  0
SPLINE
  5
DC
330
81
100
AcDbEntity
  8
0
  6
Continuous
 62
     8
370
     0
100
AcDbSpline
210
0.0
220
0.0
230
1.0
 70
     8
 71
     3
 72
     8
 73
     4
 74
     0
 42
0.000000001
 43
0.00000001
 40
18.0
 40
18.0
 40
18.0
 40
18.0
 40
19.0
 40
19.0
 40
19.0
 40
19.0
 10
152.7570126271244
 20
40.29730847487787
 30
0.0
 10
154.6566395308645
 20
39.74936567647406
 30
0.0
 10
155.8830943326989
 20
38.18925315678111
 30
0.0
 10
156.0567272597002
 20
36.23347115958625
 30
0.0
  0
SPLINE
  5
DD
330
81
100
AcDbEntity
  8
0
  6
Continuous
 62
     8
370
     0
100
AcDbSpline
210
0.0
220
0.0
230
1.0
 70
     8
 71
     3
 72
     8
 73
     4
 74
     0
 42
0.000000001
 43
0.00000001
 40
20.0
 40
20.0
 40
20.0
 40
20.0
 40
21.0
 40
21.0
 40
21.0
 40
21.0
 10
160.8609160831777
 20
36.23347115958625
 30
0.0
 10
160.9684031332261
 20
33.9727980108118
 30
0.0
 10
162.3736585086987
 20
33.24622689365768
 30
0.0
 10
164.507896569756
 20
33.24622689365768
 30
0.0
  0
SPLINE
  5
DE
330
81
100
AcDbEntity
  8
0
  6
Continuous
 62
     8
370
     0
100
AcDbSpline
210
0.0
220
0.0
230
1.0
 70
     8
 71
     3
 72
     8
 73
     4
 74
     0
 42
0.000000001
 43
0.00000001
 40
21.0
 40
21.0
 40
21.0
 40
21.0
 40
22.0
 40
22.0
 40
22.0
 40
22.0
 10
164.507896569756
 20
33.24622689365768
 30
0.0
 10
166.0209835050527
 20
33.24622689365768
 30
0.0
 10
167.5885029849253
 20
33.78504018300288
 30
0.0
 10
167.5885029849253
 20
35.21131065479903
 30
0.0
  0
SPLINE
  5
DF
330
81
100
AcDbEntity
  8
0
  6
Continuous
 62
     8
370
     0
100
AcDbSpline
210
0.0
220
0.0
230
1.0
 70
     8
 71
     3
 72
     8
 73
     4
 74
     0
 42
0.000000001
 43
0.00000001
 40
22.0
 40
22.0
 40
22.0
 40
22.0
 40
23.0
 40
23.0
 40
23.0
 40
23.0
 10
167.5885029849253
 20
35.21131065479903
 30
0.0
 10
167.5885029849253
 20
36.90629875171619
 30
0.0
 10
164.8331137981075
 20
37.22910441163718
 30
0.0
 10
162.0491302998987
 20
38.00941905381552
 30
0.0
  0
SPLINE
  5
E0
330
81
100
AcDbEntity
  8
0
  6
Continuous
 62
     8
370
     0
100
AcDbSpline
210
0.0
220
0.0
230
1.0
 70
     8
 71
     3
 72
     8
 73
     4
 74
     0
 42
0.000000001
 43
0.00000001
 40
23.0
 40
23.0
 40
23.0
 40
23.0
 40
24.0
 40
24.0
 40
24.0
 40
24.0
 10
162.0491302998987
 20
38.00941905381552
 30
0.0
 10
159.2930520935294
 20
38.78956144110593
 30
0.0
 10
156.4022705648237
 20
40.02772957531736
 30
0.0
 10
156.4022705648237
 20
43.55344262081537
 30
0.0
  0
SPLINE
  5
E1
330
81
100
AcDbEntity
  8
0
  6
Continuous
 62
     8
370
     0
100
AcDbSpline
210
0.0
220
0.0
230
1.0
 70
     8
 71
     3
 72
     8
 73
     4
 74
     0
 42
0.000000001
 43
0.00000001
 40
24.0
 40
24.0
 40
24.0
 40
24.0
 40
25.0
 40
25.0
 40
25.0
 40
25.0
 10
156.4022705648237
 20
43.55344262081537
 30
0.0
 10
156.4022705648237
 20
47.75129423889168
 30
0.0
 10
160.6449084537535
 20
49.39253881078461
 30
0.0
 10
164.2646726680438
 20
49.39253881078461
 30
0.0
  0
SPLINE
  5
E2
330
81
100
AcDbEntity
  8
0
  6
Continuous
 62
     8
370
     0
100
AcDbSpline
210
0.0
220
0.0
230
1.0
 70
     8
 71
     3
 72
     8
 73
     4
 74
     0
 42
0.000000001
 43
0.00000001
 40
25.0
 40
25.0
 40
25.0
 40
25.0
 40
26.0
 40
26.0
 40
26.0
 40
26.0
 10
164.2646726680438
 20
49.39253881078461
 30
0.0
 10
168.1018225508616
 20
49.39253881078461
 30
0.0
 10
171.9654996864157
 20
47.53614788390696
 30
0.0
 10
171.9930604684793
 20
43.20376519838225
 30
0.0
  0
SPLINE
  5
E3
330
81
100
AcDbEntity
  8
0
  6
Continuous
 62
     8
370
     0
100
AcDbSpline
210
0.0
220
0.0
230
1.0
 70
     8
 71
     3
 72
     8
 73
     4
 74
     0
 42
0.000000001
 43
0.00000001
 40
27.0
 40
27.0
 40
27.0
 40
27.0
 40
28.0
 40
28.0
 40
28.0
 40
28.0
 10
166.9673518591648
 20
43.20376519838225
 30
0.0
 10
167.0486561662527
 20
44.9523245654357
 30
0.0
 10
165.3998323792922
 20
45.51766510751722
 30
0.0
 10
163.8591846619318
 20
45.51766510751722
 30
0.0
  0
SPLINE
  5
E4
330
81
100
AcDbEntity
  8
0
  6
Continuous
 62
     8
370
     0
100
AcDbSpline
210
0.0
220
0.0
230
1.0
 70
     8
 71
     3
 72
     8
 73
     4
 74
     0
 42
0.000000001
 43
0.00000001
 40
28.0
 40
28.0
 40
28.0
 40
28.0
 40
29.0
 40
29.0
 40
29.0
 40
29.0
 10
163.8591846619318
 20
45.51766510751722
 30
0.0
 10
162.7794910245866
 20
45.51766510751722
 30
0.0
 10
161.4286681936898
 20
45.14094366768412
 30
0.0
 10
161.4286681936898
 20
43.87642053562427
 30
0.0
  0
SPLINE
  5
E5
330
81
100
AcDbEntity
  8
0
  6
Continuous
 62
     8
370
     0
100
AcDbSpline
210
0.0
220
0.0
230
1.0
 70
     8
 71
     3
 72
     8
 73
     4
 74
     0
 42
0.000000001
 43
0.00000001
 40
29.0
 40
29.0
 40
29.0
 40
29.0
 40
30.0
 40
30.0
 40
30.0
 40
30.0
 10
161.4286681936898
 20
43.87642053562427
 30
0.0
 10
161.4286681936898
 20
42.39606202902813
 30
0.0
 10
164.2102401234681
 20
42.12665538435552
 30
0.0
 10
167.021095384189
 20
41.34634074217721
 30
0.0
  0
SPLINE
  5
E6
330
81
100
AcDbEntity
  8
0
  6
Continuous
 62
     8
370
     0
100
AcDbSpline
210
0.0
220
0.0
230
1.0
 70
     8
 71
     3
 72
     8
 73
     4
 74
     0
 42
0.000000001
 43
0.00000001
 40
30.0
 40
30.0
 40
30.0
 40
30.0
 40
31.0
 40
31.0
 40
31.0
 40
31.0
 10
167.021095384189
 20
41.34634074217721
 30
0.0
 10
169.8047343726221
 20
40.56619835488677
 30
0.0
 10
172.6142115942398
 20
39.27428669565115
 30
0.0
 10
172.6142115942398
 20
35.80317844961686
 30
0.0
  0
SPLINE
  5
E7
330
81
100
AcDbEntity
  8
0
  6
Continuous
 62
     8
370
     0
100
AcDbSpline
210
0.0
220
0.0
230
1.0
 70
     8
 71
     3
 72
     8
 73
     4
 74
     0
 42
0.000000001
 43
0.00000001
 40
31.0
 40
31.0
 40
31.0
 40
31.0
 40
32.0
 40
32.0
 40
32.0
 40
32.0
 10
172.6142115942398
 20
35.80317844961686
 30
0.0
 10
172.6142115942398
 20
30.93249923941061
 30
0.0
 10
168.4532225221737
 20
29.12313389692912
 30
0.0
 10
164.2102401234681
 20
29.12313389692912
 30
0.0
  0
SPLINE
  5
E8
330
81
100
AcDbEntity
  8
0
  6
Continuous
 62
     8
370
     0
100
AcDbSpline
210
0.0
220
0.0
230
1.0
 70
     8
 71
     3
 72
     8
 73
     4
 74
     0
 42
0.000000001
 43
0.00000001
 40
0.0
 40
0.0
 40
0.0
 40
0.0
 40
1.0
 40
1.0
 40
1.0
 40
1.0
 10
160.6276829649637
 20
37.39343557469195
 30
0.0
 10
160.938086272956
 20
37.30765264051871
 30
0.0
 10
161.2550352666885
 20
37.2187691183633
 30
0.0
 10
161.5726732799726
 20
37.12781853755313
 30
0.0
  0
SPLINE
  5
E9
330
81
100
AcDbEntity
  8
0
  6
Continuous
 62
     8
370
     0
100
AcDbSpline
210
0.0
220
0.0
230
1.0
 70
     8
 71
     3
 72
     8
 73
     4
 74
     0
 42
0.000000001
 43
0.00000001
 40
3.00211844657731
 40
3.00211844657731
 40
3.00211844657731
 40
3.00211844657731
 40
4.0
 40
4.0
 40
4.0
 40
4.0
 10
66.52024188954972
 20
39.12608937915723
 30
0.0
 10
66.52360869616864
 20
45.27412322811475
 30
0.0
 10
70.30988649618203
 20
50.17609584429974
 30
0.0
 10
77.02507716926495
 20
50.1899542846939
 30
0.0
  0
SPLINE
  5
EA
330
81
100
AcDbEntity
  8
0
  6
Continuous
 62
     8
370
     0
100
AcDbSpline
210
0.0
220
0.0
230
1.0
 70
     8
 71
     3
 72
     8
 73
     4
 74
     0
 42
0.000000001
 43
0.00000001
 40
3.0
 40
3.0
 40
3.0
 40
3.0
 40
4.0
 40
4.0
 40
4.0
 40
4.0
 10
161.7042760143268
 20
37.08957795243973
 30
0.0
 10
164.0696801349432
 20
36.40710408658753
 30
0.0
 10
166.4492091563673
 20
35.59543905481176
 30
0.0
 10
166.3251856370807
 20
35.10003399721688
 30
0.0
  0
SPLINE
  5
EB
330
81
100
AcDbEntity
  8
0
  6
Continuous
 62
     8
370
     0
100
AcDbSpline
210
0.0
220
0.0
230
1.0
 70
     8
 71
     3
 72
     8
 73
     4
 74
     0
 42
0.000000001
 43
0.00000001
 40
4.0
 40
4.0
 40
4.0
 40
4.0
 40
5.0
 40
5.0
 40
5.0
 40
5.0
 10
166.3251856370807
 20
35.10003399721688
 30
0.0
 10
166.0898854602119
 20
34.15642172131117
 30
0.0
 10
165.4012104183954
 20
33.89493880148186
 30
0.0
 10
163.6080370353763
 20
34.38448719288822
 30
0.0
  0
SPLINE
  5
EC
330
81
100
AcDbEntity
  8
0
  6
Continuous
 62
     8
370
     0
100
AcDbSpline
210
0.0
220
0.0
230
1.0
 70
     8
 71
     3
 72
     8
 73
     4
 74
     0
 42
0.000000001
 43
0.00000001
 40
5.0
 40
5.0
 40
5.0
 40
5.0
 40
6.0
 40
6.0
 40
6.0
 40
6.0
 10
163.6080370353763
 20
34.38448719288822
 30
0.0
 10
161.7283916986325
 20
34.89884028815191
 30
0.0
 10
161.7046205241026
 20
35.93478118397098
 30
0.0
 10
161.7042760143268
 20
37.08957795243973
 30
0.0
  0
SPLINE
  5
ED
330
81
100
AcDbEntity
  8
0
  6
Continuous
 62
     8
370
     0
100
AcDbSpline
210
0.0
220
0.0
230
1.0
 70
     8
 71
     3
 72
     8
 73
     4
 74
     0
 42
0.000000001
 43
0.00000001
 40
8.0
 40
8.0
 40
8.0
 40
8.0
 40
9.0
 40
9.0
 40
9.0
 40
9.0
 10
156.7116403434886
 20
37.12781853755313
 30
0.0
 10
156.7116403434886
 20
38.5878509673773
 30
0.0
 10
155.4507345640747
 20
39.84892900167915
 30
0.0
 10
154.6542279624339
 20
40.37981856618105
 30
0.0
  0
SPLINE
  5
EE
330
81
100
AcDbEntity
  8
0
  6
Continuous
 62
     8
370
     0
100
AcDbSpline
210
0.0
220
0.0
230
1.0
 70
     8
 71
     3
 72
     8
 73
     4
 74
     0
 42
0.000000001
 43
0.00000001
 40
9.0
 40
9.0
 40
9.0
 40
9.0
 40
10.0
 40
10.0
 40
10.0
 40
10.0
 10
154.6542279624339
 20
40.37981856618105
 30
0.0
 10
155.0517922437027
 20
40.8442177439543
 30
0.0
 10
155.649516704709
 20
41.30913368639121
 30
0.0
 10
155.8493323746708
 20
42.10546803314405
 30
0.0
  0
SPLINE
  5
EF
330
81
100
AcDbEntity
  8
0
  6
Continuous
 62
     8
370
     0
100
AcDbSpline
210
0.0
220
0.0
230
1.0
 70
     8
 71
     3
 72
     8
 73
     4
 74
     0
 42
0.000000001
 43
0.00000001
 40
10.0
 40
10.0
 40
10.0
 40
10.0
 40
11.0
 40
11.0
 40
11.0
 40
11.0
 10
155.8493323746708
 20
42.10546803314405
 30
0.0
 10
155.8493323746708
 20
39.84892900167915
 30
0.0
 10
157.9732351424542
 20
38.12293502494035
 30
0.0
 10
160.6276829649637
 20
37.39343557469195
 30
0.0
  0
SPLINE
  5
F0
330
81
100
AcDbEntity
  8
0
  6
Continuous
 62
     8
370
     0
100
AcDbSpline
210
0.0
220
0.0
230
1.0
 70
     8
 71
     3
 72
     8
 73
     4
 74
     0
 42
0.000000001
 43
0.00000001
 40
0.0
 40
0.0
 40
0.0
 40
0.0
 40
1.0
 40
1.0
 40
1.0
 40
1.0
 10
167.3357547617924
 20
42.17058038076954
 30
0.0
 10
167.2847673149745
 20
42.18401626202559
 30
0.0
 10
167.2406700636727
 20
42.19590184929056
 30
0.0
 10
167.189338107079
 20
42.2088209658829
 30
0.0
  0
SPLINE
  5
F1
330
81
100
AcDbEntity
  8
0
  6
Continuous
 62
     8
370
     0
100
AcDbSpline
210
0.0
220
0.0
230
1.0
 70
     8
 71
     3
 72
     8
 73
     4
 74
     0
 42
0.000000001
 43
0.00000001
 40
2.0
 40
2.0
 40
2.0
 40
2.0
 40
3.0
 40
3.0
 40
3.0
 40
3.0
 10
173.0691700759391
 20
42.16747979278733
 30
0.0
 10
173.0691700759391
 20
45.27185738248661
 30
0.0
 10
172.4597322825556
 20
50.25002364274127
 30
0.0
 10
164.1870190363622
 20
50.25002364274127
 30
0.0
  0
SPLINE
  5
F2
330
81
100
AcDbEntity
  8
0
  6
Continuous
 62
     8
370
     0
100
AcDbSpline
210
0.0
220
0.0
230
1.0
 70
     8
 71
     3
 72
     8
 73
     4
 74
     0
 42
0.000000001
 43
0.00000001
 40
3.0
 40
3.0
 40
3.0
 40
3.0
 40
4.0
 40
4.0
 40
4.0
 40
4.0
 10
164.1870190363622
 20
50.25002364274127
 30
0.0
 10
159.3649157045433
 20
50.25002364274127
 30
0.0
 10
156.9760849191726
 20
47.90081148158718
 30
0.0
 10
156.0162806838046
 20
46.1898036800955
 30
0.0
  0
SPLINE
  5
F3
330
81
100
AcDbEntity
  8
0
  6
Continuous
 62
     8
370
     0
100
AcDbSpline
210
0.0
220
0.0
230
1.0
 70
     8
 71
     3
 72
     8
 73
     4
 74
     0
 42
0.000000001
 43
0.00000001
 40
4.0
 40
4.0
 40
4.0
 40
4.0
 40
5.0
 40
5.0
 40
5.0
 40
5.0
 10
156.0162806838046
 20
46.1898036800955
 30
0.0
 10
155.1174546787523
 20
47.90081148158718
 30
0.0
 10
154.5865651142504
 20
50.04710738479733
 30
0.0
 10
147.7273754781487
 20
50.04710738479733
 30
0.0
  0
SPLINE
  5
F4
330
81
100
AcDbEntity
  8
0
  6
Continuous
 62
     8
370
     0
100
AcDbSpline
210
0.0
220
0.0
230
1.0
 70
     8
 71
     3
 72
     8
 73
     4
 74
     0
 42
0.000000001
 43
0.00000001
 40
19.0
 40
19.0
 40
19.0
 40
19.0
 40
20.0
 40
20.0
 40
20.0
 40
20.0
 10
149.6765281642566
 20
28.76070961279156
 30
0.0
 10
152.520456363454
 20
28.8110080400578
 30
0.0
 10
155.173870656636
 20
30.15769675364504
 30
0.0
 10
155.9810570613264
 20
32.14345110133414
 30
0.0
  0
SPLINE
  5
F5
330
81
100
AcDbEntity
  8
0
  6
Continuous
 62
     8
370
     0
100
AcDbSpline
210
0.0
220
0.0
230
1.0
 70
     8
 71
     3
 72
     8
 73
     4
 74
     0
 42
0.000000001
 43
0.00000001
 40
20.0
 40
20.0
 40
20.0
 40
20.0
 40
21.0
 40
21.0
 40
21.0
 40
21.0
 10
155.9810570613264
 20
32.14345110133414
 30
0.0
 10
156.7465577831456
 20
30.15769675364504
 30
0.0
 10
159.417886584669
 20
28.16367417133681
 30
0.0
 10
164.5948349855581
 20
28.16367417133681
 30
0.0
  0
SPLINE
  5
F6
330
81
100
AcDbEntity
  8
0
  6
Continuous
 62
     8
370
     0
100
AcDbSpline
210
0.0
220
0.0
230
1.0
 70
     8
 71
     3
 72
     8
 73
     4
 74
     0
 42
0.000000001
 43
0.00000001
 40
21.0
 40
21.0
 40
21.0
 40
21.0
 40
22.0
 40
22.0
 40
22.0
 40
22.0
 10
164.5948349855581
 20
28.16367417133681
 30
0.0
 10
169.7717833864471
 20
28.16367417133681
 30
0.0
 10
173.6165124843323
 20
31.30629234614945
 30
0.0
 10
173.6165124843323
 20
35.44798887077101
 30
0.0
  0
SPLINE
  5
F7
330
81
100
AcDbEntity
  8
0
  6
Continuous
 62
     8
370
     0
100
AcDbSpline
210
0.0
220
0.0
230
1.0
 70
     8
 71
     3
 72
     8
 73
     4
 74
     0
 42
0.000000001
 43
0.00000001
 40
22.0
 40
22.0
 40
22.0
 40
22.0
 40
23.0
 40
23.0
 40
23.0
 40
23.0
 10
173.6165124843323
 20
35.44798887077101
 30
0.0
 10
173.6165124843323
 20
39.66030989943075
 30
0.0
 10
171.193575231158
 20
41.15548232638614
 30
0.0
 10
167.3357547617924
 20
42.17058038076954
 30
0.0
  0
SPLINE
  5
F8
330
81
100
AcDbEntity
  8
0
  6
Continuous
 62
     8
370
     0
100
AcDbSpline
210
0.0
220
0.0
230
1.0
 70
     8
 71
     3
 72
     8
 73
     4
 74
     0
 42
0.000000001
 43
0.00000001
 40
0.0
 40
0.0
 40
0.0
 40
0.0
 40
1.0
 40
1.0
 40
1.0
 40
1.0
 10
77.03221361313545
 20
33.05571298764242
 30
0.0
 10
80.63526910329966
 20
33.05571298764242
 30
0.0
 10
82.01537526513914
 20
36.22554743474296
 30
0.0
 10
82.01537526513914
 20
39.394520607404
 30
0.0
  0
SPLINE
  5
F9
330
81
100
AcDbEntity
  8
0
  6
Continuous
 62
     8
370
     0
100
AcDbSpline
210
0.0
220
0.0
230
1.0
 70
     8
 71
     3
 72
     8
 73
     4
 74
     0
 42
0.000000001
 43
0.00000001
 40
1.0
 40
1.0
 40
1.0
 40
1.0
 40
2.0
 40
2.0
 40
2.0
 40
2.0
 10
82.01537526513914
 20
39.394520607404
 30
0.0
 10
82.01537526513914
 20
42.56383828984087
 30
0.0
 10
80.63526910329966
 20
45.73315597227772
 30
0.0
 10
77.03221361313545
 20
45.73315597227772
 30
0.0
  0
SPLINE
  5
FA
330
81
100
AcDbEntity
  8
0
  6
Continuous
 62
     8
370
     0
100
AcDbSpline
210
0.0
220
0.0
230
1.0
 70
     8
 71
     3
 72
     8
 73
     4
 74
     0
 42
0.000000001
 43
0.00000001
 40
2.0
 40
2.0
 40
2.0
 40
2.0
 40
3.0
 40
3.0
 40
3.0
 40
3.0
 10
77.03221361313545
 20
45.73315597227772
 30
0.0
 10
73.42950263274702
 20
45.73315597227772
 30
0.0
 10
72.04887970624388
 20
42.56383828984087
 30
0.0
 10
72.04887970624385
 20
39.394520607404
 30
0.0
  0
SPLINE
  5
FB
330
81
100
AcDbEntity
  8
0
  6
Continuous
 62
     8
370
     0
100
AcDbSpline
210
0.0
220
0.0
230
1.0
 70
     8
 71
     3
 72
     8
 73
     4
 74
     0
 42
0.000000001
 43
0.00000001
 40
3.0
 40
3.0
 40
3.0
 40
3.0
 40
4.0
 40
4.0
 40
4.0
 40
4.0
 10
72.04887970624385
 20
39.394520607404
 30
0.0
 10
72.04887970624388
 20
36.22554743474296
 30
0.0
 10
73.42950263274702
 20
33.05571298764242
 30
0.0
 10
77.03221361313545
 20
33.05571298764242
 30
0.0
  0
SPLINE
  5
FC
330
81
100
AcDbEntity
  8
0
  6
Continuous
 62
     8
370
     0
100
AcDbSpline
210
0.0
220
0.0
230
1.0
 70
     8
 71
     3
 72
    11
 73
     7
 74
     0
 42
0.000000001
 43
0.00000001
 40
2.0
 40
2.0
 40
2.0
 40
2.0
 40
3.0
 40
3.0
 40
3.0
 40
3.00211844657731
 40
3.00211844657731
 40
3.00211844657731
 40
3.00211844657731
 10
77.06659554923958
 20
27.94516906200683
 30
0.0
 10
70.31214814569965
 20
27.95750275571358
 30
0.0
 10
66.50881771248031
 20
32.89783589216447
 30
0.0
 10
66.52011877545024
 20
39.08677144153199
 30
0.0
 10
66.52014271748132
 20
39.09988310068809
 30
0.0
 10
66.5201837582936
 20
39.11298909154457
 30
0.0
 10
66.52024188954972
 20
39.12608937915723
 30
0.0
  0
SPLINE
  5
FD
330
81
100
AcDbEntity
  8
0
  6
Continuous
 62
     8
370
     0
100
AcDbSpline
210
0.0
220
0.0
230
1.0
 70
     8
 71
     3
 72
    11
 73
     7
 74
     0
 42
0.000000001
 43
0.00000001
 40
0.0
 40
0.0
 40
0.0
 40
0.0
 40
1.0
 40
1.0
 40
1.0
 40
2.0
 40
2.0
 40
2.0
 40
2.0
 10
77.02507716926495
 20
50.1899542846939
 30
0.0
 10
83.78004083250916
 20
50.2025619653381
 30
0.0
 10
87.60141459757921
 20
45.2764779726998
 30
0.0
 10
87.61296646735416
 20
39.08719837601426
 30
0.0
 10
87.6245176941261
 20
32.89826328850453
 30
0.0
 10
83.82155921248359
 20
27.95777674265099
 30
0.0
 10
77.06659554923958
 20
27.94516906200683
 30
0.0
  0
SPLINE
  5
FE
330
81
100
AcDbEntity
  8
0
  6
Continuous
 62
     8
370
     0
100
AcDbSpline
210
0.0
220
0.0
230
1.0
 70
     8
 71
     3
 72
     8
 73
     4
 74
     0
 42
0.000000001
 43
0.00000001
 40
1.0
 40
1.0
 40
1.0
 40
1.0
 40
2.0
 40
2.0
 40
2.0
 40
2.0
 10
97.89159151804188
 20
40.80029274754029
 30
0.0
 10
99.57279922392719
 20
40.80029274754029
 30
0.0
 10
100.4730032680826
 20
41.69670718416189
 30
0.0
 10
100.4730032680826
 20
43.31125224843066
 30
0.0
  0
SPLINE
  5
FF
330
81
100
AcDbEntity
  8
0
  6
Continuous
 62
     8
370
     0
100
AcDbSpline
210
0.0
220
0.0
230
1.0
 70
     8
 71
     3
 72
     8
 73
     4
 74
     0
 42
0.000000001
 43
0.00000001
 40
2.0
 40
2.0
 40
2.0
 40
2.0
 40
3.0
 40
3.0
 40
3.0
 40
3.0
 10
100.4730032680826
 20
43.31125224843066
 30
0.0
 10
100.4730032680826
 20
44.89565270731723
 30
0.0
 10
99.21295876310808
 20
45.61378333496433
 30
0.0
 10
97.65146820431197
 20
45.61378333496433
 30
0.0
  0
SPLINE
  5
100
330
81
100
AcDbEntity
  8
0
  6
Continuous
 62
     8
370
     0
100
AcDbSpline
210
0.0
220
0.0
230
1.0
 70
     8
 71
     3
 72
     8
 73
     4
 74
     0
 42
0.000000001
 43
0.00000001
 40
1.0
 40
1.0
 40
1.0
 40
1.0
 40
2.0
 40
2.0
 40
2.0
 40
2.0
 10
98.55218900458812
 20
50.04710738479733
 30
0.0
 10
102.3342173232785
 20
50.04710738479733
 30
0.0
 10
106.0573344703076
 20
48.34264526904578
 30
0.0
 10
106.0573344703077
 20
44.03765111069685
 30
0.0
  0
SPLINE
  5
101
330
81
100
AcDbEntity
  8
0
  6
Continuous
 62
     8
370
     0
100
AcDbSpline
210
0.0
220
0.0
230
1.0
 70
     8
 71
     3
 72
     8
 73
     4
 74
     0
 42
0.000000001
 43
0.00000001
 40
2.0
 40
2.0
 40
2.0
 40
2.0
 40
3.0
 40
3.0
 40
3.0
 40
3.0
 10
106.0573344703077
 20
44.03765111069685
 30
0.0
 10
106.0573344703076
 20
41.73494776927527
 30
0.0
 10
104.9459459335892
 20
39.55265059449444
 30
0.0
 10
102.6945745487612
 20
38.68569174370337
 30
0.0
  0
SPLINE
  5
102
330
81
100
AcDbEntity
  8
0
  6
Continuous
 62
     8
370
     0
100
AcDbSpline
210
0.0
220
0.0
230
1.0
 70
     8
 71
     3
 72
     8
 73
     4
 74
     0
 42
0.000000001
 43
0.00000001
 40
4.0
 40
4.0
 40
4.0
 40
4.0
 40
5.0
 40
5.0
 40
5.0
 40
5.0
 10
102.6945745487612
 20
38.62574704271483
 30
0.0
 10
104.9766073036351
 20
38.08727826314542
 30
0.0
 10
105.6373770536121
 20
35.54548513732129
 30
0.0
 10
105.8175556663535
 20
33.5125329503481
 30
0.0
  0
SPLINE
  5
103
330
81
100
AcDbEntity
  8
0
  6
Continuous
 62
     8
370
     0
100
AcDbSpline
210
0.0
220
0.0
230
1.0
 70
     8
 71
     3
 72
     8
 73
     4
 74
     0
 42
0.000000001
 43
0.00000001
 40
5.0
 40
5.0
 40
5.0
 40
5.0
 40
5.74044267676188
 40
5.74044267676188
 40
5.74044267676188
 40
5.74044267676188
 10
105.8175556663535
 20
33.5125329503481
 30
0.0
 10
105.8808091746534
 20
32.85009942065996
 30
0.0
 10
105.9969739034398
 20
30.95908278298207
 30
0.0
 10
106.3668527512702
 20
29.71530239194635
 30
0.0
  0
SPLINE
  5
104
330
81
100
AcDbEntity
  8
0
  6
Continuous
 62
     8
370
     0
100
AcDbSpline
210
0.0
220
0.0
230
1.0
 70
     8
 71
     3
 72
     8
 73
     4
 74
     0
 42
0.000000001
 43
0.00000001
 40
7.0
 40
7.0
 40
7.0
 40
7.0
 40
8.0
 40
8.0
 40
8.0
 40
8.0
 10
101.1935454556174
 20
28.69835334337245
 30
0.0
 10
100.7139878477091
 20
29.41665622590745
 30
0.0
 10
100.6237262864505
 20
31.50920860409338
 30
0.0
 10
100.5634370756861
 20
32.10693306509975
 30
0.0
  0
SPLINE
  5
105
330
81
100
AcDbEntity
  8
0
  6
Continuous
 62
     8
370
     0
100
AcDbSpline
210
0.0
220
0.0
230
1.0
 70
     8
 71
     3
 72
     8
 73
     4
 74
     0
 42
0.000000001
 43
0.00000001
 40
8.0
 40
8.0
 40
8.0
 40
8.0
 40
9.0
 40
9.0
 40
9.0
 40
9.0
 10
100.5634370756861
 20
32.10693306509975
 30
0.0
 10
100.4134030683269
 20
34.26046367360161
 30
0.0
 10
100.0533903526199
 20
36.4729054537646
 30
0.0
 10
97.44200625208497
 20
36.4729054537646
 30
0.0
  0
SPLINE
  5
106
330
81
100
AcDbEntity
  8
0
  6
Continuous
 62
     8
370
     0
100
AcDbSpline
210
0.0
220
0.0
230
1.0
 70
     8
 71
     3
 72
     8
 73
     4
 74
     0
 42
0.000000001
 43
0.00000001
 40
1.0
 40
1.0
 40
1.0
 40
1.0
 40
2.0
 40
2.0
 40
2.0
 40
2.0
 10
148.3552112217768
 20
45.35557325800512
 30
0.0
 10
149.5682301423551
 20
45.35557325800512
 30
0.0
 10
150.7168257348595
 20
44.77576330534016
 30
0.0
 10
150.7168257348595
 20
43.00515531263576
 30
0.0
  0
SPLINE
  5
107
330
81
100
AcDbEntity
  8
0
  6
Continuous
 62
     8
370
     0
100
AcDbSpline
210
0.0
220
0.0
230
1.0
 70
     8
 71
     3
 72
     8
 73
     4
 74
     0
 42
0.000000001
 43
0.00000001
 40
2.0
 40
2.0
 40
2.0
 40
2.0
 40
3.0
 40
3.0
 40
3.0
 40
3.0
 10
150.7168257348595
 20
43.00515531263576
 30
0.0
 10
150.7168257348595
 20
41.26865378773517
 30
0.0
 10
149.3504999640519
 20
40.68918834484602
 30
0.0
 10
148.3552112217768
 20
40.68918834484602
 30
0.0
  0
SPLINE
  5
108
330
81
100
AcDbEntity
  8
0
  6
Continuous
 62
     8
370
     0
100
AcDbSpline
210
0.0
220
0.0
230
1.0
 70
     8
 71
     3
 72
     8
 73
     4
 74
     0
 42
0.000000001
 43
0.00000001
 40
2.0
 40
2.0
 40
2.0
 40
2.0
 40
3.0
 40
3.0
 40
3.0
 40
3.0
 10
147.9838296834685
 20
41.63848503205236
 30
0.0
 10
148.6783613914736
 20
41.63848503205236
 30
0.0
 10
149.6316199411016
 20
41.97300402435042
 30
0.0
 10
149.6316199411016
 20
42.9753552170294
 30
0.0
  0
SPLINE
  5
109
330
81
100
AcDbEntity
  8
0
  6
Continuous
 62
     8
370
     0
100
AcDbSpline
210
0.0
220
0.0
230
1.0
 70
     8
 71
     3
 72
     8
 73
     4
 74
     0
 42
0.000000001
 43
0.00000001
 40
3.0
 40
3.0
 40
3.0
 40
3.0
 40
4.0
 40
4.0
 40
4.0
 40
4.0
 10
149.6316199411016
 20
42.9753552170294
 30
0.0
 10
149.6316199411016
 20
43.99734346692872
 30
0.0
 10
148.8296011830481
 20
44.33186245922681
 30
0.0
 10
147.9838296834685
 20
44.33186245922681
 30
0.0
  0
SPLINE
  5
10A
330
81
100
AcDbEntity
  8
0
  6
Continuous
 62
     8
370
     0
100
AcDbSpline
210
0.0
220
0.0
230
1.0
 70
     8
 71
     3
 72
     8
 73
     4
 74
     0
 42
0.000000001
 43
0.00000001
 40
1.0
 40
1.0
 40
1.0
 40
1.0
 40
2.0
 40
2.0
 40
2.0
 40
2.0
 10
148.8506162793717
 20
38.45762627212632
 30
0.0
 10
150.1973049929589
 20
38.45762627212632
 30
0.0
 10
151.4726801829563
 20
37.78979407174546
 30
0.0
 10
151.4726801829563
 20
35.74943492459264
 30
0.0
  0
SPLINE
  5
10B
330
81
100
AcDbEntity
  8
0
  6
Continuous
 62
     8
370
     0
100
AcDbSpline
210
0.0
220
0.0
230
1.0
 70
     8
 71
     3
 72
     8
 73
     4
 74
     0
 42
0.000000001
 43
0.00000001
 40
2.0
 40
2.0
 40
2.0
 40
2.0
 40
3.0
 40
3.0
 40
3.0
 40
3.0
 10
151.4726801829563
 20
35.74943492459264
 30
0.0
 10
151.4726801829563
 20
33.74748861744111
 30
0.0
 10
149.9558036401258
 20
33.07982867194814
 30
0.0
 10
148.8506162793717
 20
33.07982867194814
 30
0.0
  0
SPLINE
  5
10C
330
81
100
AcDbEntity
  8
0
  6
Continuous
 62
     8
370
     0
100
AcDbSpline
210
0.0
220
0.0
230
1.0
 70
     8
 71
     3
 72
     8
 73
     4
 74
     0
 42
0.000000001
 43
0.00000001
 40
2.0
 40
2.0
 40
2.0
 40
2.0
 40
3.0
 40
3.0
 40
3.0
 40
3.0
 10
148.5660512045641
 20
33.99588016579015
 30
0.0
 10
149.395975254457
 20
33.99588016579015
 30
0.0
 10
150.5349245732392
 20
34.42513934643217
 30
0.0
 10
150.5349245732392
 20
35.71326139813404
 30
0.0
  0
SPLINE
  5
10D
330
81
100
AcDbEntity
  8
0
  6
Continuous
 62
     8
370
     0
100
AcDbSpline
210
0.0
220
0.0
230
1.0
 70
     8
 71
     3
 72
     8
 73
     4
 74
     0
 42
0.000000001
 43
0.00000001
 40
3.0
 40
3.0
 40
3.0
 40
3.0
 40
4.0
 40
4.0
 40
4.0
 40
4.0
 10
150.5349245732392
 20
35.71326139813404
 30
0.0
 10
150.5349245732392
 20
37.02618815369325
 30
0.0
 10
149.5771873965258
 20
37.45613635388687
 30
0.0
 10
148.5660512045641
 20
37.45613635388687
 30
0.0
  0
HATCH
  5
10E
330
81
100
AcDbEntity
  8
0
  6
Continuous
 62
     7
100
AcDbHatch
 10
0.0
 20
0.0
 30
0.0
210
0.0
220
0.0
230
1.0
  2
SOLID
 70
     1
 71
     0
 91
        1
 92
        0
 93
       18
 72
     1
 10
53.55697298060871
 20
28.69835334337245
 11
47.97367529916809
 21
28.69835334337245
 72
     1
 10
47.97367529916809
 20
28.69835334337245
 11
47.97367529916809
 21
45.26307238320382
 72
     1
 10
47.97367529916809
 20
45.26307238320382
 11
42.18126018381921
 21
45.26307238320382
 72
     1
 10
42.18126018381921
 20
45.26307238320382
 11
42.18126018381921
 21
28.69835334337245
 72
     1
 10
42.18126018381921
 20
28.69835334337245
 11
36.59744573771491
 21
28.69835334337245
 72
     1
 10
36.59744573771491
 20
28.69835334337245
 11
36.59744573771491
 21
45.26307238320382
 72
     1
 10
36.59744573771491
 20
45.26307238320382
 11
30.20299978916224
 21
45.26307238320382
 72
     1
 10
30.20299978916224
 20
45.26307238320382
 11
30.20299978916224
 21
50.04710738479733
 72
     1
 10
30.20299978916224
 20
50.04710738479733
 11
53.55697298060871
 21
50.04710738479733
 72
     1
 10
53.55697298060871
 20
50.04710738479733
 11
53.55697298060871
 21
42.272899784181
 72
     1
 10
53.55697298060871
 20
42.272899784181
 11
60.91242894874484
 21
42.272899784181
 72
     1
 10
60.91242894874484
 20
42.272899784181
 11
60.91242894874484
 21
50.04710738479733
 72
     1
 10
60.91242894874484
 20
50.04710738479733
 11
66.496415649737
 21
50.04710738479733
 72
     1
 10
66.496415649737
 20
50.04710738479733
 11
66.496415649737
 21
28.69835334337245
 72
     1
 10
66.496415649737
 20
28.69835334337245
 11
60.91242894874484
 21
28.69835334337245
 72
     1
 10
60.91242894874484
 20
28.69835334337245
 11
60.91242894874484
 21
37.48955380213908
 72
     1
 10
60.91242894874484
 20
37.48955380213908
 11
53.55697298060871
 21
37.48955380213908
 72
     1
 10
53.55697298060871
 20
37.48955380213908
 11
53.55697298060871
 21
28.69835334337245
 97
        0
 75
     0
 76
     1
 98
        1
 10
0.0
 20
0.0
  0
HATCH
  5
10F
330
81
100
AcDbEntity
  8
0
  6
Continuous
 62
     7
100
AcDbHatch
 10
0.0
 20
0.0
 30
0.0
210
0.0
220
0.0
230
1.0
  2
SOLID
 70
     1
 71
     0
 91
        2
 92
        0
 93
        3
 72
     4
 94
        3
 73
     1
 74
     0
 95
       11
 96
        7
 40
0.0
 40
0.0
 40
0.0
 40
0.0
 40
1.0
 40
1.0
 40
1.0
 40
2.0
 40
2.0
 40
2.0
 40
2.0
 10
77.02507716926495
 20
50.1899542846939
 42
1.0
 10
83.78004083250916
 20
50.2025619653381
 42
1.0
 10
87.60141459757921
 20
45.2764779726998
 42
1.0
 10
87.61296646735416
 20
39.08719837601426
 42
1.0
 10
87.6245176941261
 20
32.89826328850453
 42
1.0
 10
83.82155921248359
 20
27.95777674265099
 42
1.0
 10
77.06659554923958
 20
27.94516906200683
 42
1.0
 72
     4
 94
        3
 73
     1
 74
     0
 95
       11
 96
        7
 40
2.0
 40
2.0
 40
2.0
 40
2.0
 40
3.0
 40
3.0
 40
3.0
 40
3.00211844657731
 40
3.00211844657731
 40
3.00211844657731
 40
3.00211844657731
 10
77.06659554923958
 20
27.94516906200683
 42
1.0
 10
70.31214814569965
 20
27.95750275571358
 42
1.0
 10
66.50881771248031
 20
32.89783589216447
 42
1.0
 10
66.52011877545024
 20
39.08677144153199
 42
1.0
 10
66.52014271748132
 20
39.09988310068809
 42
1.0
 10
66.5201837582936
 20
39.11298909154457
 42
1.0
 10
66.52024188954972
 20
39.12608937915723
 42
1.0
 72
     4
 94
        3
 73
     1
 74
     0
 95
        8
 96
        4
 40
3.00211844657731
 40
3.00211844657731
 40
3.00211844657731
 40
3.00211844657731
 40
4.0
 40
4.0
 40
4.0
 40
4.0
 10
66.52024188954972
 20
39.12608937915723
 42
1.0
 10
66.52360869616864
 20
45.27412322811475
 42
1.0
 10
70.30988649618203
 20
50.17609584429974
 42
1.0
 10
77.02507716926495
 20
50.1899542846939
 42
1.0
 97
        0
 92
        0
 93
        4
 72
     4
 94
        3
 73
     1
 74
     0
 95
        8
 96
        4
 40
2.0
 40
2.0
 40
2.0
 40
2.0
 40
3.0
 40
3.0
 40
3.0
 40
3.0
 10
77.03221361313545
 20
45.73315597227772
 42
1.0
 10
73.42950263274702
 20
45.73315597227772
 42
1.0
 10
72.04887970624388
 20
42.56383828984087
 42
1.0
 10
72.04887970624385
 20
39.394520607404
 42
1.0
 72
     4
 94
        3
 73
     1
 74
     0
 95
        8
 96
        4
 40
3.0
 40
3.0
 40
3.0
 40
3.0
 40
4.0
 40
4.0
 40
4.0
 40
4.0
 10
72.04887970624385
 20
39.394520607404
 42
1.0
 10
72.04887970624388
 20
36.22554743474296
 42
1.0
 10
73.42950263274702
 20
33.05571298764242
 42
1.0
 10
77.03221361313545
 20
33.05571298764242
 42
1.0
 72
     4
 94
        3
 73
     1
 74
     0
 95
        8
 96
        4
 40
0.0
 40
0.0
 40
0.0
 40
0.0
 40
1.0
 40
1.0
 40
1.0
 40
1.0
 10
77.03221361313545
 20
33.05571298764242
 42
1.0
 10
80.63526910329966
 20
33.05571298764242
 42
1.0
 10
82.01537526513914
 20
36.22554743474296
 42
1.0
 10
82.01537526513914
 20
39.394520607404
 42
1.0
 72
     4
 94
        3
 73
     1
 74
     0
 95
        8
 96
        4
 40
1.0
 40
1.0
 40
1.0
 40
1.0
 40
2.0
 40
2.0
 40
2.0
 40
2.0
 10
82.01537526513914
 20
39.394520607404
 42
1.0
 10
82.01537526513914
 20
42.56383828984087
 42
1.0
 10
80.63526910329966
 20
45.73315597227772
 42
1.0
 10
77.03221361313545
 20
45.73315597227772
 42
1.0
 97
        0
 75
     0
 76
     1
 98
        1
 10
0.0
 20
0.0
  0
HATCH
  5
110
330
81
100
AcDbEntity
  8
0
  6
Continuous
 62
     7
100
AcDbHatch
 10
0.0
 20
0.0
 30
0.0
210
0.0
220
0.0
230
1.0
  2
SOLID
 70
     1
 71
     0
 91
        2
 92
        0
 93
       14
 72
     1
 10
106.3668527512702
 20
29.71530239194635
 11
106.3668527512702
 21
28.69835334337245
 72
     1
 10
106.3668527512702
 20
28.69835334337245
 11
101.1935454556174
 21
28.69835334337245
 72
     4
 94
        3
 73
     1
 74
     0
 95
        8
 96
        4
 40
7.0
 40
7.0
 40
7.0
 40
7.0
 40
8.0
 40
8.0
 40
8.0
 40
8.0
 10
101.1935454556174
 20
28.69835334337245
 42
1.0
 10
100.7139878477091
 20
29.41665622590745
 42
1.0
 10
100.6237262864505
 20
31.50920860409338
 42
1.0
 10
100.5634370756861
 20
32.10693306509975
 42
1.0
 72
     4
 94
        3
 73
     1
 74
     0
 95
        8
 96
        4
 40
8.0
 40
8.0
 40
8.0
 40
8.0
 40
9.0
 40
9.0
 40
9.0
 40
9.0
 10
100.5634370756861
 20
32.10693306509975
 42
1.0
 10
100.4134030683269
 20
34.26046367360161
 42
1.0
 10
100.0533903526199
 20
36.4729054537646
 42
1.0
 10
97.44200625208497
 20
36.4729054537646
 42
1.0
 72
     1
 10
97.44200625208497
 20
36.4729054537646
 11
93.20832561732585
 21
36.4729054537646
 72
     1
 10
93.20832561732585
 20
36.4729054537646
 11
93.20832561732585
 21
28.69835334337245
 72
     1
 10
93.20832561732585
 20
28.69835334337245
 11
87.62433891633366
 21
28.69835334337245
 72
     1
 10
87.62433891633366
 20
28.69835334337245
 11
87.62433891633366
 21
50.04710738479733
 72
     1
 10
87.62433891633366
 20
50.04710738479733
 11
98.55218900458812
 21
50.04710738479733
 72
     4
 94
        3
 73
     1
 74
     0
 95
        8
 96
        4
 40
1.0
 40
1.0
 40
1.0
 40
1.0
 40
2.0
 40
2.0
 40
2.0
 40
2.0
 10
98.55218900458812
 20
50.04710738479733
 42
1.0
 10
102.3342173232785
 20
50.04710738479733
 42
1.0
 10
106.0573344703076
 20
48.34264526904578
 42
1.0
 10
106.0573344703077
 20
44.03765111069685
 42
1.0
 72
     4
 94
        3
 73
     1
 74
     0
 95
        8
 96
        4
 40
2.0
 40
2.0
 40
2.0
 40
2.0
 40
3.0
 40
3.0
 40
3.0
 40
3.0
 10
106.0573344703077
 20
44.03765111069685
 42
1.0
 10
106.0573344703076
 20
41.73494776927527
 42
1.0
 10
104.9459459335892
 20
39.55265059449444
 42
1.0
 10
102.6945745487612
 20
38.68569174370337
 42
1.0
 72
     1
 10
102.6945745487612
 20
38.68569174370337
 11
102.6945745487612
 21
38.62574704271483
 72
     4
 94
        3
 73
     1
 74
     0
 95
        8
 96
        4
 40
4.0
 40
4.0
 40
4.0
 40
4.0
 40
5.0
 40
5.0
 40
5.0
 40
5.0
 10
102.6945745487612
 20
38.62574704271483
 42
1.0
 10
104.9766073036351
 20
38.08727826314542
 42
1.0
 10
105.6373770536121
 20
35.54548513732129
 42
1.0
 10
105.8175556663535
 20
33.5125329503481
 42
1.0
 72
     4
 94
        3
 73
     1
 74
     0
 95
        8
 96
        4
 40
5.0
 40
5.0
 40
5.0
 40
5.0
 40
5.74044267676188
 40
5.74044267676188
 40
5.74044267676188
 40
5.74044267676188
 10
105.8175556663535
 20
33.5125329503481
 42
1.0
 10
105.8808091746534
 20
32.85009942065996
 42
1.0
 10
105.9969739034398
 20
30.95908278298207
 42
1.0
 10
106.3668527512702
 20
29.71530239194635
 42
1.0
 97
        0
 92
        0
 93
        5
 72
     1
 10
97.65146820431197
 20
45.61378333496433
 11
93.20832562586878
 21
45.61378333496433
 72
     1
 10
93.20832562586878
 20
45.61378333496433
 11
93.20832562586878
 21
40.80029274754029
 72
     1
 10
93.20832562586878
 20
40.80029274754029
 11
97.89159151804188
 21
40.80029274754029
 72
     4
 94
        3
 73
     1
 74
     0
 95
        8
 96
        4
 40
1.0
 40
1.0
 40
1.0
 40
1.0
 40
2.0
 40
2.0
 40
2.0
 40
2.0
 10
97.89159151804188
 20
40.80029274754029
 42
1.0
 10
99.57279922392719
 20
40.80029274754029
 42
1.0
 10
100.4730032680826
 20
41.69670718416189
 42
1.0
 10
100.4730032680826
 20
43.31125224843066
 42
1.0
 72
     4
 94
        3
 73
     1
 74
     0
 95
        8
 96
        4
 40
2.0
 40
2.0
 40
2.0
 40
2.0
 40
3.0
 40
3.0
 40
3.0
 40
3.0
 10
100.4730032680826
 20
43.31125224843066
 42
1.0
 10
100.4730032680826
 20
44.89565270731723
 42
1.0
 10
99.21295876310808
 20
45.61378333496433
 42
1.0
 10
97.65146820431197
 20
45.61378333496433
 42
1.0
 97
        0
 75
     0
 76
     1
 98
        1
 10
0.0
 20
0.0
  0
HATCH
  5
111
330
81
100
AcDbEntity
  8
0
  6
Continuous
 62
     7
100
AcDbHatch
 10
0.0
 20
0.0
 30
0.0
210
0.0
220
0.0
230
1.0
  2
SOLID
 70
     1
 71
     0
 91
        5
 92
        0
 93
       23
 72
     4
 94
        3
 73
     1
 74
     0
 95
        8
 96
        4
 40
19.0
 40
19.0
 40
19.0
 40
19.0
 40
20.0
 40
20.0
 40
20.0
 40
20.0
 10
149.6765281642566
 20
28.76070961279156
 42
1.0
 10
152.520456363454
 20
28.8110080400578
 42
1.0
 10
155.173870656636
 20
30.15769675364504
 42
1.0
 10
155.9810570613264
 20
32.14345110133414
 42
1.0
 72
     4
 94
        3
 73
     1
 74
     0
 95
        8
 96
        4
 40
20.0
 40
20.0
 40
20.0
 40
20.0
 40
21.0
 40
21.0
 40
21.0
 40
21.0
 10
155.9810570613264
 20
32.14345110133414
 42
1.0
 10
156.7465577831456
 20
30.15769675364504
 42
1.0
 10
159.417886584669
 20
28.16367417133681
 42
1.0
 10
164.5948349855581
 20
28.16367417133681
 42
1.0
 72
     4
 94
        3
 73
     1
 74
     0
 95
        8
 96
        4
 40
21.0
 40
21.0
 40
21.0
 40
21.0
 40
22.0
 40
22.0
 40
22.0
 40
22.0
 10
164.5948349855581
 20
28.16367417133681
 42
1.0
 10
169.7717833864471
 20
28.16367417133681
 42
1.0
 10
173.6165124843323
 20
31.30629234614945
 42
1.0
 10
173.6165124843323
 20
35.44798887077101
 42
1.0
 72
     4
 94
        3
 73
     1
 74
     0
 95
        8
 96
        4
 40
22.0
 40
22.0
 40
22.0
 40
22.0
 40
23.0
 40
23.0
 40
23.0
 40
23.0
 10
173.6165124843323
 20
35.44798887077101
 42
1.0
 10
173.6165124843323
 20
39.66030989943075
 42
1.0
 10
171.193575231158
 20
41.15548232638614
 42
1.0
 10
167.3357547617924
 20
42.17058038076954
 42
1.0
 72
     4
 94
        3
 73
     1
 74
     0
 95
        8
 96
        4
 40
0.0
 40
0.0
 40
0.0
 40
0.0
 40
1.0
 40
1.0
 40
1.0
 40
1.0
 10
167.3357547617924
 20
42.17058038076954
 42
1.0
 10
167.2847673149745
 20
42.18401626202559
 42
1.0
 10
167.2406700636727
 20
42.19590184929056
 42
1.0
 10
167.189338107079
 20
42.2088209658829
 42
1.0
 72
     1
 10
167.189338107079
 20
42.2088209658829
 11
173.0691700759391
 21
42.16747979278733
 72
     4
 94
        3
 73
     1
 74
     0
 95
        8
 96
        4
 40
2.0
 40
2.0
 40
2.0
 40
2.0
 40
3.0
 40
3.0
 40
3.0
 40
3.0
 10
173.0691700759391
 20
42.16747979278733
 42
1.0
 10
173.0691700759391
 20
45.27185738248661
 42
1.0
 10
172.4597322825556
 20
50.25002364274127
 42
1.0
 10
164.1870190363622
 20
50.25002364274127
 42
1.0
 72
     4
 94
        3
 73
     1
 74
     0
 95
        8
 96
        4
 40
3.0
 40
3.0
 40
3.0
 40
3.0
 40
4.0
 40
4.0
 40
4.0
 40
4.0
 10
164.1870190363622
 20
50.25002364274127
 42
1.0
 10
159.3649157045433
 20
50.25002364274127
 42
1.0
 10
156.9760849191726
 20
47.90081148158718
 42
1.0
 10
156.0162806838046
 20
46.1898036800955
 42
1.0
 72
     4
 94
        3
 73
     1
 74
     0
 95
        8
 96
        4
 40
4.0
 40
4.0
 40
4.0
 40
4.0
 40
5.0
 40
5.0
 40
5.0
 40
5.0
 10
156.0162806838046
 20
46.1898036800955
 42
1.0
 10
155.1174546787523
 20
47.90081148158718
 42
1.0
 10
154.5865651142504
 20
50.04710738479733
 42
1.0
 10
147.7273754781487
 20
50.04710738479733
 42
1.0
 72
     1
 10
147.7273754781487
 20
50.04710738479733
 11
138.3041010399261
 21
50.04710738479733
 72
     1
 10
138.3041010399261
 20
50.04710738479733
 11
138.3041010399261
 21
36.75023582328049
 72
     1
 10
138.3041010399261
 20
36.75023582328049
 11
133.3762332069377
 21
50.04710738479733
 72
     1
 10
133.3762332069377
 20
50.04710738479733
 11
126.7834772195869
 21
50.04710738479733
 72
     1
 10
126.7834772195869
 20
50.04710738479733
 11
121.0416582836138
 21
34.83629659928359
 72
     1
 10
121.0416582836138
 20
34.83629659928359
 11
113.7338781065659
 21
34.79083121159394
 72
     1
 10
113.7338781065659
 20
34.79083121159394
 11
113.6389611147968
 21
50.04710738479733
 72
     1
 10
113.6389611147968
 20
50.04710738479733
 11
106.3849632756327
 21
50.04710738479733
 72
     1
 10
106.3849632756327
 20
50.04710738479733
 11
106.3718719041525
 21
28.69835334337245
 72
     1
 10
106.3718719041525
 20
28.69835334337245
 11
126.0705963744016
 21
28.76070961279156
 72
     1
 10
126.0705963744016
 20
28.76070961279156
 11
127.3401148982105
 21
31.90746190491377
 72
     1
 10
127.3401148982105
 20
31.90746190491377
 11
132.5163742795479
 21
31.90746190491377
 72
     1
 10
132.5163742795479
 20
31.90746190491377
 11
133.7345608467632
 21
28.76070961279156
 72
     1
 10
133.7345608467632
 20
28.76070961279156
 11
149.6765281642566
 21
28.76070961279156
 97
        0
 92
        0
 93
        4
 72
     4
 94
        3
 73
     1
 74
     0
 95
        8
 96
        4
 40
2.0
 40
2.0
 40
2.0
 40
2.0
 40
3.0
 40
3.0
 40
3.0
 40
3.0
 10
164.2398679641865
 20
44.24039511375292
 42
1.0
 10
165.3912196348973
 20
44.2062886459491
 42
1.0
 10
165.7515768603801
 20
43.97150523374403
 42
1.0
 10
165.8638870472897
 20
43.27628450618734
 42
1.0
 72
     4
 94
        3
 73
     1
 74
     0
 95
        8
 96
        4
 40
3.0
 40
3.0
 40
3.0
 40
3.0
 40
4.0
 40
4.0
 40
4.0
 40
4.0
 10
165.8638870472897
 20
43.27628450618734
 42
1.0
 10
165.9090178279189
 20
43.00205472465359
 42
1.0
 10
165.9138409647801
 20
42.83186689541027
 42
1.0
 10
165.9145299843317
 20
42.47392123835806
 42
1.0
 72
     4
 94
        3
 73
     1
 74
     0
 95
        8
 96
        4
 40
0.0
 40
0.0
 40
0.0
 40
0.0
 40
1.0
 40
1.0
 40
1.0
 40
1.0
 10
165.9145299843317
 20
42.47392123835806
 42
1.0
 10
163.2373445166196
 20
43.14743785003957
 42
1.0
 10
162.5142184972235
 20
43.26439891892237
 42
1.0
 10
162.5142184972235
 20
43.83439034297712
 42
1.0
 72
     4
 94
        3
 73
     1
 74
     0
 95
        8
 96
        4
 40
1.0
 40
1.0
 40
1.0
 40
1.0
 40
2.0
 40
2.0
 40
2.0
 40
2.0
 10
162.5142184972235
 20
43.83439034297712
 42
1.0
 10
162.5142184972235
 20
44.08794953796311
 42
1.0
 10
163.6817621273968
 20
44.25641481832745
 42
1.0
 10
164.2398679641865
 20
44.24039511375292
 42
1.0
 97
        0
 92
        0
 93
        3
 72
     4
 94
        3
 73
     1
 74
     0
 95
        8
 96
        4
 40
4.0
 40
4.0
 40
4.0
 40
4.0
 40
5.0
 40
5.0
 40
5.0
 40
5.0
 10
166.3251856370807
 20
35.10003399721688
 42
1.0
 10
166.0898854602119
 20
34.15642172131117
 42
1.0
 10
165.4012104183954
 20
33.89493880148186
 42
1.0
 10
163.6080370353763
 20
34.38448719288822
 42
1.0
 72
     4
 94
        3
 73
     1
 74
     0
 95
        8
 96
        4
 40
5.0
 40
5.0
 40
5.0
 40
5.0
 40
6.0
 40
6.0
 40
6.0
 40
6.0
 10
163.6080370353763
 20
34.38448719288822
 42
1.0
 10
161.7283916986325
 20
34.89884028815191
 42
1.0
 10
161.7046205241026
 20
35.93478118397098
 42
1.0
 10
161.7042760143268
 20
37.08957795243973
 42
1.0
 72
     4
 94
        3
 73
     1
 74
     0
 95
        8
 96
        4
 40
3.0
 40
3.0
 40
3.0
 40
3.0
 40
4.0
 40
4.0
 40
4.0
 40
4.0
 10
161.7042760143268
 20
37.08957795243973
 42
1.0
 10
164.0696801349432
 20
36.40710408658753
 42
1.0
 10
166.4492091563673
 20
35.59543905481176
 42
1.0
 10
166.3251856370807
 20
35.10003399721688
 42
1.0
 97
        0
 92
        0
 93
       32
 72
     4
 94
        3
 73
     1
 74
     0
 95
        8
 96
        4
 40
16.0
 40
16.0
 40
16.0
 40
16.0
 40
17.0
 40
17.0
 40
17.0
 40
17.0
 10
148.3259278908342
 20
48.98929011821522
 42
1.0
 10
151.6487246783881
 20
49.0430336432394
 42
1.0
 10
155.2970832040696
 20
48.18227596841268
 42
1.0
 10
155.2970832040696
 20
44.17218217814528
 42
1.0
 72
     4
 94
        3
 73
     1
 74
     0
 95
        8
 96
        4
 40
17.0
 40
17.0
 40
17.0
 40
17.0
 40
18.0
 40
18.0
 40
18.0
 40
18.0
 10
155.2970832040696
 20
44.17218217814528
 42
1.0
 10
155.2970832040696
 20
42.44963329916444
 42
1.0
 10
154.270444072197
 20
41.05092360943199
 42
1.0
 10
152.7570126271244
 20
40.29730847487787
 42
1.0
 72
     4
 94
        3
 73
     1
 74
     0
 95
        8
 96
        4
 40
18.0
 40
18.0
 40
18.0
 40
18.0
 40
19.0
 40
19.0
 40
19.0
 40
19.0
 10
152.7570126271244
 20
40.29730847487787
 42
1.0
 10
154.6566395308645
 20
39.74936567647406
 42
1.0
 10
155.8830943326989
 20
38.18925315678111
 42
1.0
 10
156.0567272597002
 20
36.23347115958625
 42
1.0
 72
     1
 10
156.0567272597002
 20
36.23347115958625
 11
160.8609160831777
 21
36.23347115958625
 72
     4
 94
        3
 73
     1
 74
     0
 95
        8
 96
        4
 40
20.0
 40
20.0
 40
20.0
 40
20.0
 40
21.0
 40
21.0
 40
21.0
 40
21.0
 10
160.8609160831777
 20
36.23347115958625
 42
1.0
 10
160.9684031332261
 20
33.9727980108118
 42
1.0
 10
162.3736585086987
 20
33.24622689365768
 42
1.0
 10
164.507896569756
 20
33.24622689365768
 42
1.0
 72
     4
 94
        3
 73
     1
 74
     0
 95
        8
 96
        4
 40
21.0
 40
21.0
 40
21.0
 40
21.0
 40
22.0
 40
22.0
 40
22.0
 40
22.0
 10
164.507896569756
 20
33.24622689365768
 42
1.0
 10
166.0209835050527
 20
33.24622689365768
 42
1.0
 10
167.5885029849253
 20
33.78504018300288
 42
1.0
 10
167.5885029849253
 20
35.21131065479903
 42
1.0
 72
     4
 94
        3
 73
     1
 74
     0
 95
        8
 96
        4
 40
22.0
 40
22.0
 40
22.0
 40
22.0
 40
23.0
 40
23.0
 40
23.0
 40
23.0
 10
167.5885029849253
 20
35.21131065479903
 42
1.0
 10
167.5885029849253
 20
36.90629875171619
 42
1.0
 10
164.8331137981075
 20
37.22910441163718
 42
1.0
 10
162.0491302998987
 20
38.00941905381552
 42
1.0
 72
     4
 94
        3
 73
     1
 74
     0
 95
        8
 96
        4
 40
23.0
 40
23.0
 40
23.0
 40
23.0
 40
24.0
 40
24.0
 40
24.0
 40
24.0
 10
162.0491302998987
 20
38.00941905381552
 42
1.0
 10
159.2930520935294
 20
38.78956144110593
 42
1.0
 10
156.4022705648237
 20
40.02772957531736
 42
1.0
 10
156.4022705648237
 20
43.55344262081537
 42
1.0
 72
     4
 94
        3
 73
     1
 74
     0
 95
        8
 96
        4
 40
24.0
 40
24.0
 40
24.0
 40
24.0
 40
25.0
 40
25.0
 40
25.0
 40
25.0
 10
156.4022705648237
 20
43.55344262081537
 42
1.0
 10
156.4022705648237
 20
47.75129423889168
 42
1.0
 10
160.6449084537535
 20
49.39253881078461
 42
1.0
 10
164.2646726680438
 20
49.39253881078461
 42
1.0
 72
     4
 94
        3
 73
     1
 74
     0
 95
        8
 96
        4
 40
25.0
 40
25.0
 40
25.0
 40
25.0
 40
26.0
 40
26.0
 40
26.0
 40
26.0
 10
164.2646726680438
 20
49.39253881078461
 42
1.0
 10
168.1018225508616
 20
49.39253881078461
 42
1.0
 10
171.9654996864157
 20
47.53614788390696
 42
1.0
 10
171.9930604684793
 20
43.20376519838225
 42
1.0
 72
     1
 10
171.9930604684793
 20
43.20376519838225
 11
166.9673518591648
 21
43.20376519838225
 72
     4
 94
        3
 73
     1
 74
     0
 95
        8
 96
        4
 40
27.0
 40
27.0
 40
27.0
 40
27.0
 40
28.0
 40
28.0
 40
28.0
 40
28.0
 10
166.9673518591648
 20
43.20376519838225
 42
1.0
 10
167.0486561662527
 20
44.9523245654357
 42
1.0
 10
165.3998323792922
 20
45.51766510751722
 42
1.0
 10
163.8591846619318
 20
45.51766510751722
 42
1.0
 72
     4
 94
        3
 73
     1
 74
     0
 95
        8
 96
        4
 40
28.0
 40
28.0
 40
28.0
 40
28.0
 40
29.0
 40
29.0
 40
29.0
 40
29.0
 10
163.8591846619318
 20
45.51766510751722
 42
1.0
 10
162.7794910245866
 20
45.51766510751722
 42
1.0
 10
161.4286681936898
 20
45.14094366768412
 42
1.0
 10
161.4286681936898
 20
43.87642053562427
 42
1.0
 72
     4
 94
        3
 73
     1
 74
     0
 95
        8
 96
        4
 40
29.0
 40
29.0
 40
29.0
 40
29.0
 40
30.0
 40
30.0
 40
30.0
 40
30.0
 10
161.4286681936898
 20
43.87642053562427
 42
1.0
 10
161.4286681936898
 20
42.39606202902813
 42
1.0
 10
164.2102401234681
 20
42.12665538435552
 42
1.0
 10
167.021095384189
 20
41.34634074217721
 42
1.0
 72
     4
 94
        3
 73
     1
 74
     0
 95
        8
 96
        4
 40
30.0
 40
30.0
 40
30.0
 40
30.0
 40
31.0
 40
31.0
 40
31.0
 40
31.0
 10
167.021095384189
 20
41.34634074217721
 42
1.0
 10
169.8047343726221
 20
40.56619835488677
 42
1.0
 10
172.6142115942398
 20
39.27428669565115
 42
1.0
 10
172.6142115942398
 20
35.80317844961686
 42
1.0
 72
     4
 94
        3
 73
     1
 74
     0
 95
        8
 96
        4
 40
31.0
 40
31.0
 40
31.0
 40
31.0
 40
32.0
 40
32.0
 40
32.0
 40
32.0
 10
172.6142115942398
 20
35.80317844961686
 42
1.0
 10
172.6142115942398
 20
30.93249923941061
 42
1.0
 10
168.4532225221737
 20
29.12313389692912
 42
1.0
 10
164.2102401234681
 20
29.12313389692912
 42
1.0
 72
     4
 94
        3
 73
     1
 74
     0
 95
        8
 96
        4
 40
0.0
 40
0.0
 40
0.0
 40
0.0
 40
1.0
 40
1.0
 40
1.0
 40
1.0
 10
164.2102401234681
 20
29.12313389692912
 42
1.0
 10
160.290752404235
 20
29.12313389692912
 42
1.0
 10
156.7767526911141
 20
30.89219159564247
 42
1.0
 10
155.9991941271422
 20
34.65217128868185
 42
1.0
 72
     4
 94
        3
 73
     1
 74
     0
 95
        8
 96
        4
 40
1.0
 40
1.0
 40
1.0
 40
1.0
 40
2.0
 40
2.0
 40
2.0
 40
2.0
 10
155.9991941271422
 20
34.65217128868185
 42
1.0
 10
155.4869080905333
 20
30.98107511779787
 42
1.0
 10
152.3484240330302
 20
29.69605365407815
 42
1.0
 10
148.569496302322
 20
29.69605365407815
 42
1.0
 72
     1
 10
148.569496302322
 20
29.69605365407815
 11
134.4690556887606
 21
29.69605365407815
 72
     1
 10
134.4690556887606
 20
29.69605365407815
 11
133.0327944334664
 21
32.97130809257236
 72
     1
 10
133.0327944334664
 20
32.97130809257236
 11
126.8013016088652
 21
32.97130809257236
 72
     1
 10
126.8013016088652
 20
32.97130809257236
 11
125.3367905519557
 21
29.72258090681447
 72
     1
 10
125.3367905519557
 20
29.72258090681447
 11
107.508409654504
 21
29.72258090681447
 72
     1
 10
107.508409654504
 20
29.72258090681447
 11
107.508409654504
 21
48.98929011821522
 72
     1
 10
107.508409654504
 20
48.98929011821522
 11
112.5348072833701
 21
48.98929011821522
 72
     1
 10
112.5348072833701
 20
48.98929011821522
 11
112.5348072833701
 21
34.08062957063601
 72
     1
 10
112.5348072833701
 20
34.08062957063601
 11
121.7804161364119
 21
34.08062957063601
 72
     1
 10
121.7804161364119
 20
34.08062957063601
 11
127.3904133254767
 21
48.98929011821522
 72
     1
 10
127.3904133254767
 20
48.98929011821522
 11
132.4970817321033
 21
48.98929011821522
 72
     1
 10
132.4970817321033
 20
48.98929011821522
 11
139.3018388236293
 21
31.02758393753034
 72
     1
 10
139.3018388236293
 20
31.02758393753034
 11
139.3018388236293
 21
48.98929011821522
 72
     1
 10
139.3018388236293
 20
48.98929011821522
 11
148.3259278908342
 21
48.98929011821522
 97
        0
 92
        0
 93
        5
 72
     4
 94
        3
 73
     1
 74
     0
 95
        8
 96
        4
 40
8.0
 40
8.0
 40
8.0
 40
8.0
 40
9.0
 40
9.0
 40
9.0
 40
9.0
 10
156.7116403434886
 20
37.12781853755313
 42
1.0
 10
156.7116403434886
 20
38.5878509673773
 42
1.0
 10
155.4507345640747
 20
39.84892900167915
 42
1.0
 10
154.6542279624339
 20
40.37981856618105
 42
1.0
 72
     4
 94
        3
 73
     1
 74
     0
 95
        8
 96
        4
 40
9.0
 40
9.0
 40
9.0
 40
9.0
 40
10.0
 40
10.0
 40
10.0
 40
10.0
 10
154.6542279624339
 20
40.37981856618105
 42
1.0
 10
155.0517922437027
 20
40.8442177439543
 42
1.0
 10
155.649516704709
 20
41.30913368639121
 42
1.0
 10
155.8493323746708
 20
42.10546803314405
 42
1.0
 72
     4
 94
        3
 73
     1
 74
     0
 95
        8
 96
        4
 40
10.0
 40
10.0
 40
10.0
 40
10.0
 40
11.0
 40
11.0
 40
11.0
 40
11.0
 10
155.8493323746708
 20
42.10546803314405
 42
1.0
 10
155.8493323746708
 20
39.84892900167915
 42
1.0
 10
157.9732351424542
 20
38.12293502494035
 42
1.0
 10
160.6276829649637
 20
37.39343557469195
 42
1.0
 72
     4
 94
        3
 73
     1
 74
     0
 95
        8
 96
        4
 40
0.0
 40
0.0
 40
0.0
 40
0.0
 40
1.0
 40
1.0
 40
1.0
 40
1.0
 10
160.6276829649637
 20
37.39343557469195
 42
1.0
 10
160.938086272956
 20
37.30765264051871
 42
1.0
 10
161.2550352666885
 20
37.2187691183633
 42
1.0
 10
161.5726732799726
 20
37.12781853755313
 42
1.0
 72
     1
 10
161.5726732799726
 20
37.12781853755313
 11
156.7116403434886
 21
37.12781853755313
 97
        0
 75
     0
 76
     1
 98
        1
 10
0.0
 20
0.0
  0
HATCH
  5
112
330
81
100
AcDbEntity
  8
0
  6
Continuous
 62
     7
100
AcDbHatch
 10
0.0
 20
0.0
 30
0.0
210
0.0
220
0.0
230
1.0
  2
SOLID
 70
     1
 71
     0
 91
        2
 92
        0
 93
        4
 72
     1
 10
130.3745570034231
 20
43.91311082674656
 11
132.8105856280779
 21
36.20212076998882
 72
     1
 10
132.8105856280779
 20
36.20212076998882
 11
127.0700192339863
 21
36.20212076998882
 72
     1
 10
127.0700192339863
 20
36.20212076998882
 11
129.5897637341595
 21
43.91311082674656
 72
     1
 10
129.5897637341595
 20
43.91311082674656
 11
130.3745570034231
 21
43.91311082674656
 97
        0
 92
        0
 93
        3
 72
     1
 10
128.4229091235378
 20
37.23013794096457
 11
131.3867267247123
 21
37.23013794096457
 72
     1
 10
131.3867267247123
 20
37.23013794096457
 11
129.9297948828703
 21
41.88205344354024
 72
     1
 10
129.9297948828703
 20
41.88205344354024
 11
128.4229091235378
 21
37.23013794096457
 97
        0
 75
     0
 76
     1
 98
        1
 10
0.0
 20
0.0
  0
HATCH
  5
113
330
81
100
AcDbEntity
  8
0
  6
Continuous
 62
     7
100
AcDbHatch
 10
0.0
 20
0.0
 30
0.0
210
0.0
220
0.0
230
1.0
  2
SOLID
 70
     1
 71
     0
 91
        2
 92
        0
 93
        5
 72
     4
 94
        3
 73
     1
 74
     0
 95
        8
 96
        4
 40
2.0
 40
2.0
 40
2.0
 40
2.0
 40
3.0
 40
3.0
 40
3.0
 40
3.0
 10
150.7168257348595
 20
43.00515531263576
 42
1.0
 10
150.7168257348595
 20
41.26865378773517
 42
1.0
 10
149.3504999640519
 20
40.68918834484602
 42
1.0
 10
148.3552112217768
 20
40.68918834484602
 42
1.0
 72
     1
 10
148.3552112217768
 20
40.68918834484602
 11
143.8820962928393
 21
40.68918834484602
 72
     1
 10
143.8820962928393
 20
40.68918834484602
 11
143.8820962928393
 21
45.35557325800512
 72
     1
 10
143.8820962928393
 20
45.35557325800512
 11
148.3552112217768
 21
45.35557325800512
 72
     4
 94
        3
 73
     1
 74
     0
 95
        8
 96
        4
 40
1.0
 40
1.0
 40
1.0
 40
1.0
 40
2.0
 40
2.0
 40
2.0
 40
2.0
 10
148.3552112217768
 20
45.35557325800512
 42
1.0
 10
149.5682301423551
 20
45.35557325800512
 42
1.0
 10
150.7168257348595
 20
44.77576330534016
 42
1.0
 10
150.7168257348595
 20
43.00515531263576
 42
1.0
 97
        0
 92
        0
 93
        5
 72
     1
 10
144.861193075652
 20
44.33186245922681
 11
144.861193075652
 21
41.63848503205236
 72
     1
 10
144.861193075652
 20
41.63848503205236
 11
147.9838296834685
 21
41.63848503205236
 72
     4
 94
        3
 73
     1
 74
     0
 95
        8
 96
        4
 40
2.0
 40
2.0
 40
2.0
 40
2.0
 40
3.0
 40
3.0
 40
3.0
 40
3.0
 10
147.9838296834685
 20
41.63848503205236
 42
1.0
 10
148.6783613914736
 20
41.63848503205236
 42
1.0
 10
149.6316199411016
 20
41.97300402435042
 42
1.0
 10
149.6316199411016
 20
42.9753552170294
 42
1.0
 72
     4
 94
        3
 73
     1
 74
     0
 95
        8
 96
        4
 40
3.0
 40
3.0
 40
3.0
 40
3.0
 40
4.0
 40
4.0
 40
4.0
 40
4.0
 10
149.6316199411016
 20
42.9753552170294
 42
1.0
 10
149.6316199411016
 20
43.99734346692872
 42
1.0
 10
148.8296011830481
 20
44.33186245922681
 42
1.0
 10
147.9838296834685
 20
44.33186245922681
 42
1.0
 72
     1
 10
147.9838296834685
 20
44.33186245922681
 11
144.861193075652
 21
44.33186245922681
 97
        0
 75
     0
 76
     1
 98
        1
 10
0.0
 20
0.0
  0
HATCH
  5
114
330
81
100
AcDbEntity
  8
0
  6
Continuous
 62
     7
100
AcDbHatch
 10
0.0
 20
0.0
 30
0.0
210
0.0
220
0.0
230
1.0
  2
SOLID
 70
     1
 71
     0
 91
        2
 92
        0
 93
        5
 72
     4
 94
        3
 73
     1
 74
     0
 95
        8
 96
        4
 40
2.0
 40
2.0
 40
2.0
 40
2.0
 40
3.0
 40
3.0
 40
3.0
 40
3.0
 10
151.4726801829563
 20
35.74943492459264
 42
1.0
 10
151.4726801829563
 20
33.74748861744111
 42
1.0
 10
149.9558036401258
 20
33.07982867194814
 42
1.0
 10
148.8506162793717
 20
33.07982867194814
 42
1.0
 72
     1
 10
148.8506162793717
 20
33.07982867194814
 11
143.8820962928393
 21
33.07982867194814
 72
     1
 10
143.8820962928393
 20
33.07982867194814
 11
143.8820962928393
 21
38.45762627212632
 72
     1
 10
143.8820962928393
 20
38.45762627212632
 11
148.8506162793717
 21
38.45762627212632
 72
     4
 94
        3
 73
     1
 74
     0
 95
        8
 96
        4
 40
1.0
 40
1.0
 40
1.0
 40
1.0
 40
2.0
 40
2.0
 40
2.0
 40
2.0
 10
148.8506162793717
 20
38.45762627212632
 42
1.0
 10
150.1973049929589
 20
38.45762627212632
 42
1.0
 10
151.4726801829563
 20
37.78979407174546
 42
1.0
 10
151.4726801829563
 20
35.74943492459264
 42
1.0
 97
        0
 92
        0
 93
        5
 72
     1
 10
144.8353548424673
 20
33.99588016579015
 11
148.5660512045641
 21
33.99588016579015
 72
     4
 94
        3
 73
     1
 74
     0
 95
        8
 96
        4
 40
2.0
 40
2.0
 40
2.0
 40
2.0
 40
3.0
 40
3.0
 40
3.0
 40
3.0
 10
148.5660512045641
 20
33.99588016579015
 42
1.0
 10
149.395975254457
 20
33.99588016579015
 42
1.0
 10
150.5349245732392
 20
34.42513934643217
 42
1.0
 10
150.5349245732392
 20
35.71326139813404
 42
1.0
 72
     4
 94
        3
 73
     1
 74
     0
 95
        8
 96
        4
 40
3.0
 40
3.0
 40
3.0
 40
3.0
 40
4.0
 40
4.0
 40
4.0
 40
4.0
 10
150.5349245732392
 20
35.71326139813404
 42
1.0
 10
150.5349245732392
 20
37.02618815369325
 42
1.0
 10
149.5771873965258
 20
37.45613635388687
 42
1.0
 10
148.5660512045641
 20
37.45613635388687
 42
1.0
 72
     1
 10
148.5660512045641
 20
37.45613635388687
 11
144.8353548424673
 21
37.45613635388687
 72
     1
 10
144.8353548424673
 20
37.45613635388687
 11
144.8353548424673
 21
33.99588016579015
 97
        0
 75
     0
 76
     1
 98
        1
 10
0.0
 20
0.0
  0
ENDBLK
  5
83
330
81
100
AcDbEntity
  8
0
100
AcDbBlockEnd
  0
BLOCK
  5
130
330
12F
100
AcDbEntity
  8
0
100
AcDbBlockBegin
  2
SW_NOTE_0
 70
     0
 10
0.0
 20
0.0
 30
0.0
  3
SW_NOTE_0
  1

  0
MTEXT
  5
133
330
12F
100
AcDbEntity
  8
0
  6
Continuous
 62
     0
370
     0
100
AcDbMText
 10
0.0
 20
3.4106583948
 30
0.0
 40
2.6458333333
 41
0.0
 71
     1
 72
     1
  1
NOTES/SPECIFICATIONS:
  7
SLDTEXTSTYLE0
 73
     1
 44
1.0
  0
MTEXT
  5
134
330
12F
100
AcDbEntity
  8
0
  6
Continuous
 62
     0
370
     0
100
AcDbMText
 10
0.0
 20
-1.1171195042
 30
0.0
 40
2.6458333333
 41
0.0
 71
     1
 72
     1
  1
1. DESIGN WAVELENGTH: 587.6 nm
  7
SLDTEXTSTYLE0
 73
     1
 44
1.0
  0
MTEXT
  5
135
330
12F
100
AcDbEntity
  8
0
  6
Continuous
 62
     0
370
     0
100
AcDbMText
 10
0.0
 20
-5.6448974033
 30
0.0
 40
2.6458333333
 41
0.0
 71
     1
 72
     1
  1
2. FOCAL LENGTH: f=1003.5 mm ± 1%
  7
SLDTEXTSTYLE0
 73
     1
 44
1.0
  0
MTEXT
  5
136
330
12F
100
AcDbEntity
  8
0
  6
Continuous
 62
     0
370
     0
100
AcDbMText
 10
0.0
 20
-10.1726753024
 30
0.0
 40
2.6458333333
 41
0.0
 71
     1
 72
     1
  1
3. BACK FOCAL LENGTH(REF): bf=1001.0 mm
  7
SLDTEXTSTYLE0
 73
     1
 44
1.0
  0
MTEXT
  5
137
330
12F
100
AcDbEntity
  8
0
  6
Continuous
 62
     0
370
     0
100
AcDbMText
 10
0.0
 20
-14.7004532014
 30
0.0
 40
2.6458333333
 41
0.0
 71
     1
 72
     1
  1
4. CLEAR APERTURE: >
  7
SLDTEXTSTYLE0
 73
     1
 44
1.0
  0
MTEXT
  5
138
330
12F
100
AcDbEntity
  8
0
  6
Continuous
 62
     0
370
     0
100
AcDbMText
 10
36.6839878261
 20
-14.7004532014
 30
0.0
 40
2.6458333333
 41
0.0
 71
     1
 72
     1
  1
%%c
  7
SLDTEXTSTYLE0
 73
     1
 44
1.0
  0
MTEXT
  5
139
330
12F
100
AcDbEntity
  8
0
  6
Continuous
 62
     0
370
     0
100
AcDbMText
 10
40.6777262688
 20
-14.7004532014
 30
0.0
 40
2.6458333333
 41
0.0
 71
     1
 72
     1
  1
45.72 mm
  7
SLDTEXTSTYLE0
 73
     1
 44
1.0
  0
MTEXT
  5
13A
330
12F
100
AcDbEntity
  8
0
  6
Continuous
 62
     0
370
     0
100
AcDbMText
 10
0.0
 20
-19.2282311005
 30
0.0
 40
2.6458333333
 41
0.0
 71
     1
 72
     1
  1
5. SURFACE QUALITY: 40-20 SCRATCH-DIG
  7
SLDTEXTSTYLE0
 73
     1
 44
1.0
  0
MTEXT
  5
13B
330
12F
100
AcDbEntity
  8
0
  6
Continuous
 62
     0
370
     0
100
AcDbMText
 10
0.0
 20
-23.7560089995
 30
0.0
 40
2.6458333333
 41
0.0
 71
     1
 72
     1
  1
6. CENTRATION: <3 arcmin
  7
SLDTEXTSTYLE0
 73
     1
 44
1.0
  0
MTEXT
  5
13C
330
12F
100
AcDbEntity
  8
0
  6
Continuous
 62
     0
370
     0
100
AcDbMText
 10
0.0
 20
-28.2837868986
 30
0.0
 40
2.6458333333
 41
0.0
 71
     1
 72
     1
  1
7. DIAMETER TOLERANCE: +0.0/-0.1 mm
  7
SLDTEXTSTYLE0
 73
     1
 44
1.0
  0
MTEXT
  5
13D
330
12F
100
AcDbEntity
  8
0
  6
Continuous
 62
     0
370
     0
100
AcDbMText
 10
0.0
 20
-32.8115647976
 30
0.0
 40
2.6458333333
 41
0.0
 71
     1
 72
     1
  1
8. THICKNESS TOLERANCE: ±0.1 mm
  7
SLDTEXTSTYLE0
 73
     1
 44
1.0
  0
MTEXT
  5
13E
330
12F
100
AcDbEntity
  8
0
  6
Continuous
 62
     0
370
     0
100
AcDbMText
 10
0.0
 20
-37.3393426967
 30
0.0
 40
2.6458333333
 41
0.0
 71
     1
 72
     1
  1
9. COATING: BBAR Ravg <0.5% FROM 350-700 nm, AOI: 0
  7
SLDTEXTSTYLE0
 73
     1
 44
1.0
  0
MTEXT
  5
13F
330
12F
100
AcDbEntity
  8
0
  6
Continuous
 62
     0
370
     0
100
AcDbMText
 10
95.5537855625
 20
-37.3393426967
 30
0.0
 40
2.6458333333
 41
0.0
 71
     1
 72
     1
  1
%%d
  7
SLDTEXTSTYLE0
 73
     1
 44
1.0
  0
ENDBLK
  5
131
330
12F
100
AcDbEntity
  8
0
100
AcDbBlockEnd
  0
BLOCK
  5
153
330
152
100
AcDbEntity
  8
0
100
AcDbBlockBegin
  2
SW_NOTE_1
 70
     0
 10
0.0
 20
0.0
 30
0.0
  3
SW_NOTE_1
  1

  0
MTEXT
  5
155
330
152
100
AcDbEntity
  8
0
  6
Continuous
 62
     0
370
     0
100
AcDbMText
 10
19.90725
 20
1.9645392354
 30
0.0
 40
1.524
 41
0.0
 71
     2
 72
     1
  1
VALUES IN PARENTHESIS ARE CALCULATED
  7
SLDTEXTSTYLE0
 73
     1
 44
1.0
  0
MTEXT
  5
156
330
152
100
AcDbEntity
  8
0
  6
Continuous
 62
     0
370
     0
100
AcDbMText
 10
19.8778795174
 20
-0.5594606586
 30
0.0
 40
1.524
 41
0.0
 71
     2
 72
     1
  1
AND MAY CONTAIN ROUNDOFF ERRORS
  7
SLDTEXTSTYLE0
 73
     1
 44
1.0
  0
ENDBLK
  5
154
330
152
100
AcDbEntity
  8
0
100
AcDbBlockEnd
  0
BLOCK
  5
159
330
158
100
AcDbEntity
  8
0
100
AcDbBlockBegin
  2
SW_NOTE_2
 70
     0
 10
0.0
 20
0.0
 30
0.0
  3
SW_NOTE_2
  1

  0
MTEXT
  5
15B
330
158
100
AcDbEntity
  8
0
  6
Continuous
 62
     0
370
     0
100
AcDbMText
 10
0.0
 20
2.7285267159
 30
0.0
 40
2.1166666667
 41
0.0
 71
     1
 72
     1
  1
DRAWING
  7
SLDTEXTSTYLE0
 73
     1
 44
1.0
  0
MTEXT
  5
15C
330
158
100
AcDbEntity
  8
0
  6
Continuous
 62
     0
370
     0
100
AcDbMText
 10
0.0
 20
-0.0936954723
 30
0.0
 40
2.1166666667
 41
0.0
 71
     1
 72
     1
  1
PROJECTION
  7
SLDTEXTSTYLE0
 73
     1
 44
1.0
  0
ENDBLK
  5
15A
330
158
100
AcDbEntity
  8
0
100
AcDbBlockEnd
  0
BLOCK
  5
160
330
15F
100
AcDbEntity
  8
0
100
AcDbBlockBegin
  2
SW_NOTE_3
 70
     0
 10
0.0
 20
0.0
 30
0.0
  3
SW_NOTE_3
  1

  0
MTEXT
  5
162
330
15F
100
AcDbEntity
  8
0
  6
Continuous
 62
     0
370
     0
100
AcDbMText
 10
25.052734375
 20
4.0927900738
 30
0.0
 40
3.175
 41
0.0
 71
     2
 72
     1
  1
FOR INFORMATION ONLY
  7
SLDTEXTSTYLE0
 73
     1
 44
1.0
  0
MTEXT
  5
163
330
15F
100
AcDbEntity
  8
0
  6
Continuous
 62
     0
370
     0
100
AcDbMText
 10
25.3768468589
 20
-0.1405432084
 30
0.0
 40
3.175
 41
0.0
 71
     2
 72
     1
  1
NOT FOR MANUFACTURING PURPOSES
  7
SLDTEXTSTYLE0
 73
     1
 44
1.0
  0
ENDBLK
  5
161
330
15F
100
AcDbEntity
  8
0
100
AcDbBlockEnd
  0
BLOCK
  5
166
330
165
100
AcDbEntity
  8
0
100
AcDbBlockBegin
  2
SW_NOTE_4
 70
     0
 10
0.0
 20
0.0
 30
0.0
  3
SW_NOTE_4
  1

  0
MTEXT
  5
168
330
165
100
AcDbEntity
  8
0
  6
Continuous
 62
     0
370
     0
100
AcDbMText
 10
1.7115234375
 20
3.0695925553
 30
0.0
 40
2.38125
 41
0.0
 71
     2
 72
     1
  1
%%c
  7
SLDTEXTSTYLE0
 73
     1
 44
1.0
  0
MTEXT
  5
169
330
165
100
AcDbEntity
  8
0
  6
Continuous
 62
     0
370
     0
100
AcDbMText
 10
29.9369426303
 20
3.0695925553
 30
0.0
 40
2.38125
 41
0.0
 71
     2
 72
     1
  1
50.8 mm f=1003.5 mm FUSED SILICA
  7
SLDTEXTSTYLE0
 73
     1
 44
1.0
  0
MTEXT
  5
16A
330
165
100
AcDbEntity
  8
0
  6
Continuous
 62
     0
370
     0
100
AcDbMText
 10
28.5743935555
 20
-0.1054074063
 30
0.0
 40
2.38125
 41
0.0
 71
     2
 72
     1
  1
PLANO CONVEX LENS, -A COAT
  7
SLDTEXTSTYLE0
 73
     1
 44
1.0
  0
ENDBLK
  5
167
330
165
100
AcDbEntity
  8
0
100
AcDbBlockEnd
  0
BLOCK
  5
172
330
171
100
AcDbEntity
  8
0
100
AcDbBlockBegin
  2
_D
 70
     0
 10
0.0
 20
0.0
 30
0.0
  3
_D
  1

  0
SOLID
  5
174
330
171
100
AcDbEntity
  8
0
  6
Continuous
 62
     7
370
    18
100
AcDbTrace
 10
82.2218101293
 20
157.952408352
 30
0.0
 11
84.6337081796
 21
160.0787753934
 31
0.0
 12
83.8498483577
 22
160.725165198
 32
0.0
 13
83.8498483577
 23
160.725165198
 33
0.0
  0
LINE
  5
175
330
171
100
AcDbEntity
  8
0
  6
Continuous
 62
     7
370
    18
100
AcDbLine
 10
99.0218885792
 20
170.5737610787
 30
0.0
 11
98.3780691251
 21
170.5737610787
 31
0.0
  0
LINE
  5
176
330
171
100
AcDbEntity
  8
0
  6
Continuous
 62
     7
370
    18
100
AcDbLine
 10
98.3780691251
 20
170.5737610787
 30
0.0
 11
98.3780691251
 21
167.2106130023
 31
0.0
  0
LINE
  5
177
330
171
100
AcDbEntity
  8
0
  6
Continuous
 62
     7
370
    18
100
AcDbLine
 10
98.3780691251
 20
167.2106130023
 30
0.0
 11
99.0218885792
 21
167.2106130023
 31
0.0
  0
LINE
  5
178
330
171
100
AcDbEntity
  8
0
  6
Continuous
 62
     7
370
    18
100
AcDbLine
 10
106.7790801255
 20
170.5737610787
 30
0.0
 11
107.4228995796
 21
170.5737610787
 31
0.0
  0
LINE
  5
179
330
171
100
AcDbEntity
  8
0
  6
Continuous
 62
     7
370
    18
100
AcDbLine
 10
107.4228995796
 20
170.5737610787
 30
0.0
 11
107.4228995796
 21
167.2106130023
 31
0.0
  0
LINE
  5
17A
330
171
100
AcDbEntity
  8
0
  6
Continuous
 62
     7
370
    18
100
AcDbLine
 10
107.4228995796
 20
167.2106130023
 30
0.0
 11
106.7790801255
 21
167.2106130023
 31
0.0
  0
LINE
  5
17B
330
171
100
AcDbEntity
  8
0
  6
Continuous
 62
     7
370
    18
100
AcDbLine
 10
82.2218101293
 20
157.952408352
 30
0.0
 11
93.924249671
 21
172.1436473081
 31
0.0
  0
LINE
  5
17C
330
171
100
AcDbEntity
  8
0
  6
Continuous
 62
     7
370
    18
100
AcDbLine
 10
93.924249671
 20
172.1436473081
 30
0.0
 11
97.734249671
 21
172.1436473081
 31
0.0
  0
MTEXT
  5
17D
330
171
100
AcDbEntity
  8
0
  6
Continuous
 62
     7
370
    18
100
AcDbMText
 10
97.734249671
 20
173.7315007252
 30
0.0
 40
2.1166666667
 41
0.0
 71
     1
 72
     1
  1
%%c
  7
SLDTEXTSTYLE0
 73
     1
 44
1.0
  0
MTEXT
  5
17E
330
171
100
AcDbEntity
  8
0
  6
Continuous
 62
     7
370
    18
100
AcDbMText
 10
100.9292404717
 20
173.7315007252
 30
0.0
 40
2.1166666667
 41
0.0
 71
     1
 72
     1
  1
50.8mm
  7
SLDTEXTSTYLE0
 73
     1
 44
1.0
  0
MTEXT
  5
17F
330
171
100
AcDbEntity
  8
0
  6
Continuous
 62
     7
370
    18
100
AcDbMText
 10
99.0218885792
 20
169.9391396017
 30
0.0
 40
2.1166666667
 41
0.0
 71
     1
 72
     1
  1
2.00in
  7
SLDTEXTSTYLE0
 73
     1
 44
1.0
  0
ENDBLK
  5
173
330
171
100
AcDbEntity
  8
0
100
AcDbBlockEnd
  0
BLOCK
  5
22C
330
22B
100
AcDbEntity
  8
0
100
AcDbBlockBegin
  2
SW_NOTE_5
 70
     0
 10
0.0
 20
0.0
 30
0.0
  3
SW_NOTE_5
  1

  0
MTEXT
  5
22E
330
22B
100
AcDbEntity
  8
0
  6
Continuous
 62
     0
370
     0
100
AcDbMText
 10
11.01328125
 20
2.7285267159
 30
0.0
 40
2.1166666667
 41
0.0
 71
     2
 72
     1
  1
ISOMETRIC VIEW
  7
SLDTEXTSTYLE0
 73
     1
 44
1.0
  0
MTEXT
  5
22F
330
22B
100
AcDbEntity
  8
0
  6
Continuous
 62
     0
370
     0
100
AcDbMText
 10
10.8150885594
 20
-1.0936954033
 30
0.0
 40
2.1166666667
 41
0.0
 71
     2
 72
     1
  1
SCALE: 1:1
  7
SLDTEXTSTYLE0
 73
     1
 44
1.0
  0
ENDBLK
  5
22D
330
22B
100
AcDbEntity
  8
0
100
AcDbBlockEnd
  0
BLOCK
  5
23E
330
23D
100
AcDbEntity
  8
0
100
AcDbBlockBegin
  2
_D_1
 70
     0
 10
0.0
 20
0.0
 30
0.0
  3
_D_1
  1

  0
SOLID
  5
240
330
23D
100
AcDbEntity
  8
0
  6
Continuous
 62
     7
370
    18
100
AcDbTrace
 10
166.7298513369
 20
172.2572977672
 30
0.0
 11
163.5548513369
 21
172.7652977672
 31
0.0
 12
163.5548513369
 22
171.7492977672
 32
0.0
 13
163.5548513369
 23
171.7492977672
 33
0.0
  0
SOLID
  5
241
330
23D
100
AcDbEntity
  8
0
  6
Continuous
 62
     7
370
    18
100
AcDbTrace
 10
169.7435650967
 20
172.2572977672
 30
0.0
 11
172.9185650967
 21
171.7492977672
 31
0.0
 12
172.9185650967
 22
172.7652977672
 32
0.0
 13
172.9185650967
 23
172.7652977672
 33
0.0
  0
LINE
  5
242
330
23D
100
AcDbEntity
  8
0
  6
Continuous
 62
     7
370
    18
100
AcDbLine
 10
183.8927494493
 20
174.2093345168
 30
0.0
 11
183.2489299952
 21
174.2093345168
 31
0.0
  0
LINE
  5
243
330
23D
100
AcDbEntity
  8
0
  6
Continuous
 62
     7
370
    18
100
AcDbLine
 10
183.2489299952
 20
174.2093345168
 30
0.0
 11
183.2489299952
 21
170.8461864404
 31
0.0
  0
LINE
  5
244
330
23D
100
AcDbEntity
  8
0
  6
Continuous
 62
     7
370
    18
100
AcDbLine
 10
183.2489299952
 20
170.8461864404
 30
0.0
 11
183.8927494493
 21
170.8461864404
 31
0.0
  0
LINE
  5
245
330
23D
100
AcDbEntity
  8
0
  6
Continuous
 62
     7
370
    18
100
AcDbLine
 10
191.6499409955
 20
174.2093345168
 30
0.0
 11
192.2937604497
 21
174.2093345168
 31
0.0
  0
LINE
  5
246
330
23D
100
AcDbEntity
  8
0
  6
Continuous
 62
     7
370
    18
100
AcDbLine
 10
192.2937604497
 20
174.2093345168
 30
0.0
 11
192.2937604497
 21
170.8461864404
 31
0.0
  0
LINE
  5
247
330
23D
100
AcDbEntity
  8
0
  6
Continuous
 62
     7
370
    18
100
AcDbLine
 10
192.2937604497
 20
170.8461864404
 30
0.0
 11
191.6499409955
 21
170.8461864404
 31
0.0
  0
LINE
  5
248
330
23D
100
AcDbEntity
  8
0
  6
Continuous
 62
     7
370
    18
100
AcDbLine
 10
166.7298513369
 20
164.7763610557
 30
0.0
 11
166.7298513369
 21
174.0352977672
 31
0.0
  0
LINE
  5
249
330
23D
100
AcDbEntity
  8
0
  6
Continuous
 62
     7
370
    18
100
AcDbLine
 10
169.7435650967
 20
164.7759128026
 30
0.0
 11
169.7435650967
 21
174.0352977672
 31
0.0
  0
LINE
  5
24A
330
23D
100
AcDbEntity
  8
0
  6
Continuous
 62
     7
370
    18
100
AcDbLine
 10
166.7298513369
 20
172.2572977672
 30
0.0
 11
160.3798513369
 21
172.2572977672
 31
0.0
  0
LINE
  5
24B
330
23D
100
AcDbEntity
  8
0
  6
Continuous
 62
     7
370
    18
100
AcDbLine
 10
169.7435650967
 20
172.2572977672
 30
0.0
 11
182.1754945006
 21
172.2572977672
 31
0.0
  0
MTEXT
  5
24C
330
23D
100
AcDbEntity
  8
0
  6
Continuous
 62
     7
370
    18
100
AcDbMText
 10
183.1715148539
 20
177.3670741633
 30
0.0
 40
2.1166666667
 41
0.0
 71
     1
 72
     1
  1
3.0mm
  7
SLDTEXTSTYLE0
 73
     1
 44
1.0
  0
MTEXT
  5
24D
330
23D
100
AcDbEntity
  8
0
  6
Continuous
 62
     7
370
    18
100
AcDbMText
 10
183.8927494493
 20
173.5747130398
 30
0.0
 40
2.1166666667
 41
0.0
 71
     1
 72
     1
  1
0.12in
  7
SLDTEXTSTYLE0
 73
     1
 44
1.0
  0
MTEXT
  5
24E
330
23D
100
AcDbEntity
  8
0
  6
Continuous
 62
     7
370
    18
100
AcDbMText
 10
185.4743696414
 20
169.7823521491
 30
0.0
 40
2.1166666667
 41
0.0
 71
     1
 72
     1
  1
REF
  7
SLDTEXTSTYLE0
 73
     1
 44
1.0
  0
ENDBLK
  5
23F
330
23D
100
AcDbEntity
  8
0
100
AcDbBlockEnd
  0
BLOCK
  5
252
330
251
100
AcDbEntity
  8
0
100
AcDbBlockBegin
  2
_D_2
 70
     0
 10
0.0
 20
0.0
 30
0.0
  3
_D_2
  1

  0
SOLID
  5
254
330
251
100
AcDbEntity
  8
0
  6
Continuous
 62
     7
370
    18
100
AcDbTrace
 10
166.4539645537
 20
157.8146637195
 30
0.0
 11
163.3032487801
 21
158.4562859714
 31
0.0
 12
163.2603446528
 22
157.4411922635
 32
0.0
 13
163.2603446528
 23
157.4411922635
 33
0.0
  0
LINE
  5
255
330
251
100
AcDbEntity
  8
0
  6
Continuous
 62
     7
370
    18
100
AcDbLine
 10
132.0127666436
 20
157.0004240272
 30
0.0
 11
131.3689471895
 21
157.0004240272
 31
0.0
  0
LINE
  5
256
330
251
100
AcDbEntity
  8
0
  6
Continuous
 62
     7
370
    18
100
AcDbLine
 10
131.3689471895
 20
157.0004240272
 30
0.0
 11
131.3689471895
 21
153.6372759507
 31
0.0
  0
LINE
  5
257
330
251
100
AcDbEntity
  8
0
  6
Continuous
 62
     7
370
    18
100
AcDbLine
 10
131.3689471895
 20
153.6372759507
 30
0.0
 11
132.0127666436
 21
153.6372759507
 31
0.0
  0
LINE
  5
258
330
251
100
AcDbEntity
  8
0
  6
Continuous
 62
     7
370
    18
100
AcDbLine
 10
141.3339402966
 20
157.0004240272
 30
0.0
 11
141.9777597508
 21
157.0004240272
 31
0.0
  0
LINE
  5
259
330
251
100
AcDbEntity
  8
0
  6
Continuous
 62
     7
370
    18
100
AcDbLine
 10
141.9777597508
 20
157.0004240272
 30
0.0
 11
141.9777597508
 21
153.6372759507
 31
0.0
  0
LINE
  5
25A
330
251
100
AcDbEntity
  8
0
  6
Continuous
 62
     7
370
    18
100
AcDbLine
 10
141.9777597508
 20
153.6372759507
 30
0.0
 11
141.3339402966
 21
153.6372759507
 31
0.0
  0
LINE
  5
25B
330
251
100
AcDbEntity
  8
0
  6
Continuous
 62
     7
370
    18
100
AcDbLine
 10
166.4539645537
 20
157.8146637195
 30
0.0
 11
148.5756835403
 21
158.5703102565
 31
0.0
  0
LINE
  5
25C
330
251
100
AcDbEntity
  8
0
  6
Continuous
 62
     7
370
    18
100
AcDbLine
 10
148.5756835403
 20
158.5703102565
 30
0.0
 11
144.7656835403
 21
158.5703102565
 31
0.0
  0
MTEXT
  5
25D
330
251
100
AcDbEntity
  8
0
  6
Continuous
 62
     7
370
    18
100
AcDbMText
 10
130.7251277354
 20
160.1581636736
 30
0.0
 40
2.1166666667
 41
0.0
 71
     1
 72
     1
  1
R460.1mm
  7
SLDTEXTSTYLE0
 73
     1
 44
1.0
  0
MTEXT
  5
25E
330
251
100
AcDbEntity
  8
0
  6
Continuous
 62
     7
370
    18
100
AcDbMText
 10
132.0127666436
 20
156.3658025501
 30
0.0
 40
2.1166666667
 41
0.0
 71
     1
 72
     1
  1
18.11in
  7
SLDTEXTSTYLE0
 73
     1
 44
1.0
  0
ENDBLK
  5
253
330
251
100
AcDbEntity
  8
0
100
AcDbBlockEnd
  0
BLOCK
  5
262
330
261
100
AcDbEntity
  8
0
100
AcDbBlockBegin
  2
_D_3
 70
     0
 10
0.0
 20
0.0
 30
0.0
  3
_D_3
  1

  0
SOLID
  5
264
330
261
100
AcDbEntity
  8
0
  6
Continuous
 62
     7
370
    18
100
AcDbTrace
 10
166.0435641005
 20
107.0002049738
 30
0.0
 11
162.8685641005
 21
107.5082049738
 31
0.0
 12
162.8685641005
 22
106.4922049738
 32
0.0
 13
162.8685641005
 23
106.4922049738
 33
0.0
  0
SOLID
  5
265
330
261
100
AcDbEntity
  8
0
  6
Continuous
 62
     7
370
    18
100
AcDbTrace
 10
169.7435650967
 20
107.0002049738
 30
0.0
 11
172.9185650967
 21
106.4922049738
 31
0.0
 12
172.9185650967
 22
107.5082049738
 32
0.0
 13
172.9185650967
 23
107.5082049738
 33
0.0
  0
LINE
  5
266
330
261
100
AcDbEntity
  8
0
  6
Continuous
 62
     7
370
    18
100
AcDbLine
 10
183.8927489836
 20
107.000204741
 30
0.0
 11
183.2489295295
 21
107.000204741
 31
0.0
  0
LINE
  5
267
330
261
100
AcDbEntity
  8
0
  6
Continuous
 62
     7
370
    18
100
AcDbLine
 10
183.2489295295
 20
107.000204741
 30
0.0
 11
183.2489295295
 21
103.6370566645
 31
0.0
  0
LINE
  5
268
330
261
100
AcDbEntity
  8
0
  6
Continuous
 62
     7
370
    18
100
AcDbLine
 10
183.2489295295
 20
103.6370566645
 30
0.0
 11
183.8927489836
 21
103.6370566645
 31
0.0
  0
LINE
  5
269
330
261
100
AcDbEntity
  8
0
  6
Continuous
 62
     7
370
    18
100
AcDbLine
 10
191.6499405299
 20
107.000204741
 30
0.0
 11
192.293759984
 21
107.000204741
 31
0.0
  0
LINE
  5
26A
330
261
100
AcDbEntity
  8
0
  6
Continuous
 62
     7
370
    18
100
AcDbLine
 10
192.293759984
 20
107.000204741
 30
0.0
 11
192.293759984
 21
103.6370566645
 31
0.0
  0
LINE
  5
26B
330
261
100
AcDbEntity
  8
0
  6
Continuous
 62
     7
370
    18
100
AcDbLine
 10
192.293759984
 20
103.6370566645
 30
0.0
 11
191.6499405299
 21
103.6370566645
 31
0.0
  0
LINE
  5
26C
330
261
100
AcDbEntity
  8
0
  6
Continuous
 62
     7
370
    18
100
AcDbLine
 10
166.0435641005
 20
137.1161884206
 30
0.0
 11
166.0435641005
 21
105.2222049738
 31
0.0
  0
LINE
  5
26D
330
261
100
AcDbEntity
  8
0
  6
Continuous
 62
     7
370
    18
100
AcDbLine
 10
169.7435650967
 20
111.9359128026
 30
0.0
 11
169.7435650967
 21
105.2222049738
 31
0.0
  0
LINE
  5
26E
330
261
100
AcDbEntity
  8
0
  6
Continuous
 62
     7
370
    18
100
AcDbLine
 10
166.0435641005
 20
107.0002049738
 30
0.0
 11
159.6935641005
 21
107.0002049738
 31
0.0
  0
LINE
  5
26F
330
261
100
AcDbEntity
  8
0
  6
Continuous
 62
     7
370
    18
100
AcDbLine
 10
169.7435650967
 20
107.0002049738
 30
0.0
 11
180.6154323305
 21
107.0002049738
 31
0.0
  0
MTEXT
  5
270
330
261
100
AcDbEntity
  8
0
  6
Continuous
 62
     7
370
    18
100
AcDbMText
 10
182.632548371
 20
110.1579443875
 30
0.0
 40
2.1166666667
 41
0.0
 71
     1
 72
     1
  1

  7
SLDTEXTSTYLE0
 73
     1
 44
1.0
  0
MTEXT
  5
271
330
261
100
AcDbEntity
  8
0
  6
Continuous
 62
     7
370
    18
100
AcDbMText
 10
183.1715143882
 20
110.1579443875
 30
0.0
 40
2.1166666667
 41
0.0
 71
     1
 72
     1
  1
3.7mm
  7
SLDTEXTSTYLE0
 73
     1
 44
1.0
  0
MTEXT
  5
272
330
261
100
AcDbEntity
  8
0
  6
Continuous
 62
     7
370
    18
100
AcDbMText
 10
183.8927489836
 20
106.365583264
 30
0.0
 40
2.1166666667
 41
0.0
 71
     1
 72
     1
  1
0.15in
  7
SLDTEXTSTYLE0
 73
     1
 44
1.0
  0
MTEXT
  5
273
330
261
100
AcDbEntity
  8
0
  6
Continuous
 62
     7
370
    18
100
AcDbMText
 10
194.5250794381
 20
110.1579443875
 30
0.0
 40
2.1166666667
 41
0.0
 71
     1
 72
     1
  1

  7
SLDTEXTSTYLE0
 73
     1
 44
1.0
  0
ENDBLK
  5
263
330
261
100
AcDbEntity
  8
0
100
AcDbBlockEnd
  0
ENDSEC
  0
SECTION
  2
ENTITIES
  0
LINE
  5
115
330
1F
100
AcDbEntity
  8
0
  6
Continuous
 62
     7
370
    18
100
AcDbLine
 10
1.5793501011
 20
214.6453799966
 30
0.0
 11
277.9892068491
 21
214.6453799966
 31
0.0
  0
LINE
  5
116
330
1F
100
AcDbEntity
  8
0
  6
Continuous
 62
     7
370
    18
100
AcDbLine
 10
1.5793501011
 20
214.6453799966
 30
0.0
 11
1.5793501011
 21
0.9031642596
 31
0.0
  0
LINE
  5
117
330
1F
100
AcDbEntity
  8
0
  6
Continuous
 62
     7
370
    18
100
AcDbLine
 10
277.9892068491
 20
0.9031642596
 30
0.0
 11
1.5793501011
 21
0.9031642596
 31
0.0
  0
LINE
  5
118
330
1F
100
AcDbEntity
  8
0
  6
Continuous
 62
     7
370
    18
100
AcDbLine
 10
277.9892068491
 20
0.9031642596
 30
0.0
 11
277.9892068491
 21
214.6453799966
 31
0.0
  0
LINE
  5
119
330
1F
100
AcDbEntity
  8
0
  6
Continuous
 62
     7
370
    18
100
AcDbLine
 10
215.7427640041
 20
12.2958890132
 30
0.0
 11
171.6327596684
 21
12.2958890132
 31
0.0
  0
LINE
  5
11A
330
1F
100
AcDbEntity
  8
0
  6
Continuous
 62
     7
370
    18
100
AcDbLine
 10
171.6327596684
 20
12.2958890132
 30
0.0
 11
171.6327596684
 21
26.1661402506
 31
0.0
  0
LINE
  5
11B
330
1F
100
AcDbEntity
  8
0
  6
Continuous
 62
     7
370
    18
100
AcDbLine
 10
171.6327596684
 20
0.9031642596
 30
0.0
 11
171.6327596684
 21
26.1661402506
 31
0.0
  0
LINE
  5
11C
330
1F
100
AcDbEntity
  8
0
  6
Continuous
 62
     7
370
    18
100
AcDbLine
 10
215.7427640041
 20
17.1604579552
 30
0.0
 11
277.9892068491
 21
17.1604579552
 31
0.0
  0
LINE
  5
11D
330
1F
100
AcDbEntity
  8
0
  6
Continuous
 62
     7
370
    18
100
AcDbLine
 10
215.7427640041
 20
35.2394508358
 30
0.0
 11
215.7427640041
 21
0.9031642596
 31
0.0
  0
LINE
  5
11E
330
1F
100
AcDbEntity
  8
0
  6
Continuous
 62
     7
370
    18
100
AcDbLine
 10
215.7427640041
 20
26.1661402506
 30
0.0
 11
171.6327596684
 21
26.1661402506
 31
0.0
  0
LINE
  5
11F
330
1F
100
AcDbEntity
  8
0
  6
Continuous
 62
     7
370
    18
100
AcDbLine
 10
215.7427640041
 20
9.1409200612
 30
0.0
 11
277.9892068491
 21
9.1409200612
 31
0.0
  0
LINE
  5
120
330
1F
100
AcDbEntity
  8
0
  6
Continuous
 62
     7
370
    18
100
AcDbLine
 10
215.7427640041
 20
16.9216824031
 30
0.0
 11
171.6327596684
 21
16.9216824031
 31
0.0
  0
LINE
  5
121
330
1F
100
AcDbEntity
  8
0
  6
Continuous
 62
     7
370
    18
100
AcDbLine
 10
215.7427640041
 20
21.4874005542
 30
0.0
 11
171.6327596684
 21
21.4874005542
 31
0.0
  0
LINE
  5
122
330
1F
100
AcDbEntity
  8
0
  6
Continuous
 62
     7
370
    18
100
AcDbLine
 10
186.1338100705
 20
26.1661402506
 30
0.0
 11
186.1338100705
 21
12.2958890132
 31
0.0
  0
LINE
  5
123
330
1F
100
AcDbEntity
  8
0
  6
Continuous
 62
     7
370
    18
100
AcDbLine
 10
198.2145906188
 20
26.1661402506
 30
0.0
 11
198.2145906188
 21
12.2958890132
 31
0.0
  0
LINE
  5
124
330
1F
100
AcDbEntity
  8
0
  6
Continuous
 62
     7
370
    18
100
AcDbLine
 10
253.7490408369
 20
9.1409200612
 30
0.0
 11
253.7490408369
 21
0.9031642596
 31
0.0
  0
LINE
  5
125
330
1F
100
AcDbEntity
  8
0
  6
Continuous
 62
     7
370
    18
100
AcDbLine
 10
171.6327596684
 20
12.2958890132
 30
0.0
 11
171.6327596684
 21
7.5627342528
 31
0.0
  0
LINE
  5
126
330
1F
100
AcDbEntity
  8
0
  6
Continuous
 62
     7
370
    18
100
AcDbLine
 10
171.6327596684
 20
7.5627342528
 30
0.0
 11
215.7427640041
 21
7.5627342528
 31
0.0
  0
LINE
  5
127
330
1F
100
AcDbEntity
  8
0
  6
Continuous
 62
     7
370
    18
100
AcDbLine
 10
171.6327596684
 20
7.5627342528
 30
0.0
 11
171.6327596684
 21
35.2394508358
 31
0.0
  0
LINE
  5
128
330
1F
100
AcDbEntity
  8
0
  6
Continuous
 62
     7
370
    18
100
AcDbLine
 10
171.6327596684
 20
35.2394508358
 30
0.0
 11
215.7427640041
 21
35.2394508358
 31
0.0
  0
LINE
  5
129
330
1F
100
AcDbEntity
  8
0
  6
Continuous
 62
     7
370
    18
100
AcDbLine
 10
270.1683598194
 20
17.1604579552
 30
0.0
 11
270.1683598194
 21
9.1409200612
 31
0.0
  0
LINE
  5
12A
330
1F
100
AcDbEntity
  8
0
  6
Continuous
 62
     7
370
    18
100
AcDbLine
 10
215.7427640041
 20
35.2394508358
 30
0.0
 11
277.9892068491
 21
35.2394508358
 31
0.0
  0
LINE
  5
12B
330
1F
100
AcDbEntity
  8
0
  6
Continuous
 62
     7
370
    18
100
AcDbLine
 10
277.9892068491
 20
35.2394508358
 30
0.0
 11
277.9892068491
 21
50.0331356147
 31
0.0
  0
LINE
  5
12C
330
1F
100
AcDbEntity
  8
0
  6
Continuous
 62
     7
370
    18
100
AcDbLine
 10
215.7427640041
 20
24.8927335446
 30
0.0
 11
277.9892068491
 21
24.8927335446
 31
0.0
  0
INSERT
  5
12D
330
1F
100
AcDbEntity
  8
0
  6
Continuous
 62
     7
100
AcDbBlockReference
  2
THORLABS LOGO1
 10
221.4689095479
 20
21.3590046332
 30
0.0
 41
0.25
 42
0.25
 43
0.25
  0
INSERT
  5
12E
330
1F
100
AcDbEntity
  8
0
  6
Continuous
 62
     7
100
AcDbBlockReference
  2
Third Angle Projection Block
 10
117.7262204235
 20
15.5162339489
 30
0.0
 41
0.8
 42
0.8
 43
0.8
  0
INSERT
  5
140
330
1F
100
AcDbEntity
  8
0
  6
Continuous
 62
     7
370
     0
100
AcDbBlockReference
  2
SW_NOTE_0
 10
15.3672660057
 20
64.9510241138
 30
0.0
  0
MTEXT
  5
141
330
1F
100
AcDbEntity
  8
0
  6
Continuous
 62
     7
370
     0
100
AcDbMText
 10
274.1458225539
 20
13.2559386876
 30
0.0
 40
3.175
 41
0.0
 71
     2
 72
     1
  1
A
  7
SLDTEXTSTYLE0
 73
     1
 44
1.0
  0
MTEXT
  5
142
330
1F
100
AcDbEntity
  8
0
  6
Continuous
 62
     7
370
     0
100
AcDbMText
 10
234.3764478854
 20
5.1306563898
 30
0.0
 40
3.175
 41
0.0
 71
     2
 72
     1
  1
LA4337-A
  7
SLDTEXTSTYLE0
 73
     1
 44
1.0
  0
MTEXT
  5
143
330
1F
100
AcDbEntity
  8
0
  6
Continuous
 62
     7
370
     0
100
AcDbMText
 10
216.4199766059
 20
16.8243178599
 30
0.0
 40
2.1166666667
 41
0.0
 71
     1
 72
     1
  1
MATERIAL
  7
SLDTEXTSTYLE0
 73
     1
 44
1.0
  0
MTEXT
  5
144
330
1F
100
AcDbEntity
  8
0
  6
Continuous
 62
     7
370
     0
100
AcDbMText
 10
174.230946566
 20
20.054553926
 30
0.0
 40
1.8520833333
 41
0.0
 71
     1
 72
     1
  1
DRAWN
  7
SLDTEXTSTYLE0
 73
     1
 44
1.0
  0
MTEXT
  5
145
330
1F
100
AcDbEntity
  8
0
  6
Continuous
 62
     7
370
     0
100
AcDbMText
 10
172.3960124543
 20
15.5787169747
 30
0.0
 40
1.8520833333
 41
0.0
 71
     1
 72
     1
  1
APPROVAL
  7
SLDTEXTSTYLE0
 73
     1
 44
1.0
  0
MTEXT
  5
146
330
1F
100
AcDbEntity
  8
0
  6
Continuous
 62
     7
370
     0
100
AcDbMText
 10
271.7160653675
 20
16.1671746307
 30
0.0
 40
2.1166666667
 41
0.0
 71
     1
 72
     1
  1
REV
  7
SLDTEXTSTYLE0
 73
     1
 44
1.0
  0
MTEXT
  5
147
330
1F
100
AcDbEntity
  8
0
  6
Continuous
 62
     7
370
     0
100
AcDbMText
 10
190.2958696448
 20
20.3177146903
 30
0.0
 40
2.1166666667
 41
0.0
 71
     1
 72
     1
  1
YB
  7
SLDTEXTSTYLE0
 73
     1
 44
1.0
  0
MTEXT
  5
148
330
1F
100
AcDbEntity
  8
0
  6
Continuous
 62
     7
370
     0
100
AcDbMText
 10
190.2958696448
 20
15.841877739
 30
0.0
 40
2.1166666667
 41
0.0
 71
     1
 72
     1
  1
DS
  7
SLDTEXTSTYLE0
 73
     1
 44
1.0
  0
MTEXT
  5
149
330
1F
100
AcDbEntity
  8
0
  6
Continuous
 62
     7
370
     0
100
AcDbMText
 10
199.8662436873
 20
20.3177146903
 30
0.0
 40
2.1166666667
 41
0.0
 71
     1
 72
     1
  1
25/JUN/21
  7
SLDTEXTSTYLE0
 73
     1
 44
1.0
  0
MTEXT
  5
14A
330
1F
100
AcDbEntity
  8
0
  6
Continuous
 62
     7
370
     0
100
AcDbMText
 10
203.6145073853
 20
24.8221395769
 30
0.0
 40
2.1166666667
 41
0.0
 71
     1
 72
     1
  1
DATE
  7
SLDTEXTSTYLE0
 73
     1
 44
1.0
  0
MTEXT
  5
14B
330
1F
100
AcDbEntity
  8
0
  6
Continuous
 62
     7
370
     0
100
AcDbMText
 10
199.8662436873
 20
15.841877739
 30
0.0
 40
2.1166666667
 41
0.0
 71
     1
 72
     1
  1
27/AUG/21
  7
SLDTEXTSTYLE0
 73
     1
 44
1.0
  0
MTEXT
  5
14D
330
1F
100
AcDbEntity
  8
0
  6
Continuous
 62
     7
370
     0
100
AcDbMText
 10
229.402906477
 20
27.7957480569
 30
0.0
 40
2.1166666667
 41
0.0
 71
     1
 72
     1
  1
w w w . t h o r  l a b s . c o m
  7
SLDTEXTSTYLE1
 73
     1
 44
1.0
  0
MTEXT
  5
14E
330
1F
100
AcDbEntity
  8
0
  6
Continuous
 62
     7
370
     0
100
AcDbMText
 10
216.7004035316
 20
8.3494791871
 30
0.0
 40
2.1166666667
 41
0.0
 71
     1
 72
     1
  1
ITEM #
  7
SLDTEXTSTYLE0
 73
     1
 44
1.0
  0
MTEXT
  5
14F
330
1F
100
AcDbEntity
  8
0
  6
Continuous
 62
     7
370
     0
100
AcDbMText
 10
254.5318000914
 20
8.3494791871
 30
0.0
 40
2.1166666667
 41
0.0
 71
     1
 72
     1
  1
APPROX WEIGHT
  7
SLDTEXTSTYLE0
 73
     1
 44
1.0
  0
MTEXT
  5
150
330
1F
100
AcDbEntity
  8
0
  6
Continuous
 62
     7
370
     0
100
AcDbMText
 10
243.4409424799
 20
13.8247651814
 30
0.0
 40
3.175
 41
0.0
 71
     2
 72
     1
  1
UV FUSED SILICA
  7
SLDTEXTSTYLE0
 73
     1
 44
1.0
  0
MTEXT
  5
151
330
1F
100
AcDbEntity
  8
0
  6
Continuous
 62
     7
370
     0
100
AcDbMText
 10
266.1553537756
 20
5.1306563898
 30
0.0
 40
3.175
 41
0.0
 71
     2
 72
     1
  1
14.94 g
  7
SLDTEXTSTYLE0
 73
     1
 44
1.0
  0
INSERT
  5
157
330
1F
100
AcDbEntity
  8
0
  6
Continuous
 62
     7
370
     0
100
AcDbBlockReference
  2
SW_NOTE_1
 10
174.8430140051
 20
4.4558554801
 30
0.0
  0
INSERT
  5
15D
330
1F
100
AcDbEntity
  8
0
  6
Continuous
 62
     7
370
     0
100
AcDbBlockReference
  2
SW_NOTE_2
 10
174.5483650337
 20
30.4835322715
 30
0.0
  0
MTEXT
  5
15E
330
1F
100
AcDbEntity
  8
0
  6
Continuous
 62
     7
370
     0
100
AcDbMText
 10
187.9273588276
 20
24.8221395769
 30
0.0
 40
2.1166666667
 41
0.0
 71
     1
 72
     1
  1
NAME
  7
SLDTEXTSTYLE0
 73
     1
 44
1.0
  0
INSERT
  5
164
330
1F
100
AcDbEntity
  8
0
  6
Continuous
 62
     7
370
     0
100
AcDbBlockReference
  2
SW_NOTE_3
 10
58.6204667508
 20
8.1776609732
 30
0.0
  0
INSERT
  5
16B
330
1F
100
AcDbEntity
  8
0
  6
Continuous
 62
     7
370
     0
100
AcDbBlockReference
  2
SW_NOTE_4
 10
218.0986061985
 20
20.6862828027
 30
0.0
  0
MTEXT
  5
16C
330
1F
100
AcDbEntity
  8
0
  6
Continuous
 62
     7
370
     0
100
AcDbMText
 10
177.6925831922
 20
10.7142101515
 30
0.0
 40
1.5875
 41
0.0
 71
     1
 72
     1
  1
COPYRIGHT © 2021 BY THORLABS
  7
SLDTEXTSTYLE0
 73
     1
 44
1.0
  0
CIRCLE
  5
16D
330
1F
100
AcDbEntity
  8
0
  6
Continuous
 62
     7
370
    18
100
AcDbCircle
 10
66.0620650143
 20
138.3559128026
 30
0.0
 40
25.15044825317292
  0
CIRCLE
  5
16E
330
1F
100
AcDbEntity
  8
0
  6
Continuous
 62
     7
370
    18
100
AcDbCircle
 10
66.0620650143
 20
138.3559128026
 30
0.0
 40
25.40000000000001
  0
DIMENSION
  5
16F
330
1F
100
AcDbEntity
  8
0
  6
Continuous
 62
     7
370
    18
100
AcDbDimension
  2
_D
 10
49.9023198993
 20
118.7594172531
 30
0.0
 11
104.713566144
 21
172.1436473081
 31
0.0
 70
   163
  1
<>
 71
     1
 42
-1.0
  3
SLDDIMSTYLE0
100
AcDbDiametricDimension
 15
82.2218101293
 25
157.952408352
 35
0.0
 40
0.0
  0
LINE
  5
180
330
1F
100
AcDbEntity
  8
0
  6
PHANTOM
 62
     7
370
    35
100
AcDbLine
 10
66.0620650143
 20
169.8519128026
 30
0.0
 11
66.0620650143
 21
106.8599128026
 31
0.0
  0
LINE
  5
181
330
1F
100
AcDbEntity
  8
0
  6
Continuous
 62
     7
370
    35
100
AcDbLine
 10
66.0620650143
 20
169.8519128026
 30
0.0
 11
57.1720650143
 21
169.8519128026
 31
0.0
  0
SOLID
  5
182
330
1F
100
AcDbEntity
  8
0
  6
Continuous
 62
     7
370
    35
100
AcDbTrace
 10
57.1720650143
 20
169.8519128026
 30
0.0
 11
60.9820650143
 21
169.2169128026
 31
0.0
 12
60.9820650143
 22
170.4869128026
 32
0.0
 13
60.9820650143
 23
170.4869128026
 33
0.0
  0
LINE
  5
183
330
1F
100
AcDbEntity
  8
0
  6
Continuous
 62
     7
370
    35
100
AcDbLine
 10
66.0620650143
 20
106.8599128026
 30
0.0
 11
57.1720650143
 21
106.8599128026
 31
0.0
  0
SOLID
  5
184
330
1F
100
AcDbEntity
  8
0
  6
Continuous
 62
     7
370
    35
100
AcDbTrace
 10
57.1720650143
 20
106.8599128026
 30
0.0
 11
60.9820650143
 21
106.2249128026
 31
0.0
 12
60.9820650143
 22
107.4949128026
 32
0.0
 13
60.9820650143
 23
107.4949128026
 33
0.0
  0
MTEXT
  5
185
330
1F
100
AcDbEntity
  8
0
  6
Continuous
 62
     7
100
AcDbMText
 10
53.766960101
 20
171.9522578893
 30
0.0
 40
2.6458333333
 41
0.0
 71
     1
 72
     1
  1
A
  7
SLDTEXTSTYLE0
 73
     1
 44
1.0
  0
MTEXT
  5
186
330
1F
100
AcDbEntity
  8
0
  6
Continuous
 62
     7
100
AcDbMText
 10
53.766960101
 20
108.9602578893
 30
0.0
 40
2.6458333333
 41
0.0
 71
     1
 72
     1
  1
A
  7
SLDTEXTSTYLE0
 73
     1
 44
1.0
  0
LINE
  5
187
330
1F
100
AcDbEntity
  8
0
  6
Continuous
 62
     7
370
    18
100
AcDbLine
 10
224.917935502
 20
188.5525966691
 30
0.0
 11
224.9076795768
 21
188.3325539483
 31
0.0
  0
LINE
  5
188
330
1F
100
AcDbEntity
  8
0
  6
Continuous
 62
     7
370
    18
100
AcDbLine
 10
243.5952874401
 20
155.9611601493
 30
0.0
 11
243.7909684972
 21
155.8600023178
 31
0.0
  0
LINE
  5
189
330
1F
100
AcDbEntity
  8
0
  6
Continuous
 62
     7
370
    18
100
AcDbLine
 10
255.5527975453
 20
155.1152446616
 30
0.0
 11
257.3205644982
 21
156.1357548014
 31
0.0
  0
LINE
  5
18A
330
1F
100
AcDbEntity
  8
0
  6
Continuous
 62
     7
370
    18
100
AcDbLine
 10
231.9226286893
 20
200.1310370103
 30
0.0
 11
230.1548617363
 21
199.1105268706
 31
0.0
  0
LINE
  5
18B
330
1F
100
AcDbEntity
  8
0
  6
Continuous
 62
     7
370
    18
100
AcDbLine
 10
262.5821088359
 20
167.7650128857
 30
0.0
 11
262.5821088359
 21
167.9691149137
 31
0.0
  0
LINE
  5
18C
330
1F
100
AcDbEntity
  8
0
  6
Continuous
 62
     7
370
    18
100
AcDbLine
 10
244.8012636462
 20
198.7697794999
 30
0.0
 11
244.6245156821
 21
198.8718471
 31
0.0
  0
LWPOLYLINE
  5
18D
330
1F
100
AcDbEntity
  8
0
  6
Continuous
 62
     7
370
    18
100
AcDbPolyline
 90
      172
 70
   128
 43
0.0
 10
224.8833033432
 20
187.2717517247
 10
224.8953071609
 20
186.5104082131
 10
224.9313024093
 20
185.7362331666
 10
224.9912404965
 20
184.9502716851
 10
225.075040509
 20
184.1535847798
 10
225.1825893206
 20
183.3472479404
 10
225.3137417455
 20
182.5323496839
 10
225.4683207342
 20
181.7099900846
 10
225.6461176121
 20
180.8812792894
 10
225.846892362
 20
180.0473360188
 10
226.0703739472
 20
179.2092860572
 10
226.3162606783
 20
178.3682607325
 10
226.5842206196
 20
177.5253953894
 10
226.8738920378
 20
176.6818278566
 10
227.1848838901
 20
175.8386969107
 10
227.5167763521
 20
174.9971407386
 10
227.8691213847
 20
174.1582954019
 10
228.2414433384
 20
173.3232933021
 10
228.6332395963
 20
172.4932616531
 10
229.0439812518
 20
171.6693209584
 10
229.4731138228
 20
170.8525834993
 10
229.9200580007
 20
170.044151833
 10
230.3842104318
 20
169.2451173042
 10
230.8649445321
 20
168.4565585721
 10
231.3616113331
 20
167.6795401539
 10
231.8735403581
 20
166.9151109879
 10
232.4000405268
 20
166.1643030176
 10
232.9404010888
 20
165.4281297984
 10
233.4938925827
 20
164.7075851297
 10
234.0597678211
 20
164.0036417129
 10
234.6372628989
 20
163.3172498385
 10
235.2255982248
 20
162.6493361033
 10
235.823979574
 20
162.0008021594
 10
236.4315991595
 20
161.3725234973
 10
237.0476367236
 20
160.7653482635
 10
237.6712606446
 20
160.1800961162
 10
238.3016290593
 20
159.6175571182
 10
238.937891
 20
159.0784906708
 10
239.5791875431
 20
158.5636244882
 10
240.2246529683
 20
158.0736536158
 10
240.8734159276
 20
157.6092394911
 10
241.5246006216
 20
157.1710090513
 10
242.1773279814
 20
156.7595538871
 10
242.8307168558
 20
156.3754294434
 10
243.4838852006
 20
156.0191542704
 10
244.135951269
 20
155.6912093227
 10
244.7860348027
 20
155.3920373105
 10
245.4332582193
 20
155.1220421021
 10
246.0767477977
 20
154.8815881783
 10
246.7156348572
 20
154.6710001406
 10
247.3490569302
 20
154.490562273
 10
247.9761589267
 20
154.3405181581
 10
248.5960942885
 20
154.2210703483
 10
249.208026132
 20
154.1323800927
 10
249.8111283779
 20
154.0745671189
 10
250.4045868665
 20
154.0477094718
 10
250.9876004568
 20
154.0518434078
 10
251.5593821078
 20
154.0869633463
 10
252.1191599411
 20
154.1530218771
 10
252.666178283
 20
154.2499298243
 10
253.1996986844
 20
154.3775563667
 10
253.7190009179
 20
154.5357292145
 10
254.2233839497
 20
154.7242348417
 10
254.7121668866
 20
154.9428187746
 10
255.1846898945
 20
155.1911859352
 10
255.6403150895
 20
155.4690010395
 10
256.0784273991
 20
155.7758890501
 10
256.4984353923
 20
156.1114356826
 10
256.8997720778
 20
156.4751879649
 10
257.2818956702
 20
156.8666548485
 10
257.6442903205
 20
157.2853078714
 10
257.9864668129
 20
157.7305818717
 10
258.3079632253
 20
158.2018757505
 10
258.6083455526
 20
158.6985532832
 10
258.8872082928
 20
159.2199439785
 10
259.1441749942
 20
159.7653439833
 10
259.378898764
 20
160.3340170334
 10
259.591062736
 20
160.9251954468
 10
259.7803804988
 20
161.5380811604
 10
259.9465964825
 20
162.1718468073
 10
260.0894863031
 20
162.8256368337
 10
260.2088570662
 20
163.4985686538
 10
260.3045476268
 20
164.1897338412
 10
260.3764288072
 20
164.8981993554
 10
260.4244035712
 20
165.6230088012
 10
260.448407155
 20
166.3631837199
 10
260.448407155
 20
167.1177249103
 10
260.4244035712
 20
167.885613777
 10
260.3764288072
 20
168.6658137062
 10
260.3045476268
 20
169.4572714648
 10
260.2088570662
 20
170.2589186218
 10
260.0894863031
 20
171.0696729913
 10
259.9465964825
 20
171.8884400929
 10
259.7803804988
 20
172.7141146297
 10
259.591062736
 20
173.5455819797
 10
259.378898764
 20
174.381719701
 10
259.1441749942
 20
175.2213990471
 10
258.8872082928
 20
176.0634864903
 10
258.6083455526
 20
176.9068452521
 10
258.3079632253
 20
177.7503368377
 10
257.9864668129
 20
178.5928225732
 10
257.6442903205
 20
179.4331651425
 10
257.2818956702
 20
180.2702301224
 10
256.8997720778
 20
181.1028875147
 10
256.4984353923
 20
181.930013271
 10
256.0784273991
 20
182.7504908104
 10
255.6403150895
 20
183.5632125267
 10
255.1846898945
 20
184.3670812838
 10
254.7121668866
 20
185.1610118966
 10
254.2233839497
 20
185.9439325962
 10
253.7190009179
 20
186.7147864764
 10
253.1996986844
 20
187.4725329206
 10
252.666178283
 20
188.2161490067
 10
252.1191599411
 20
188.944630888
 10
251.5593821078
 20
189.6569951482
 10
250.9876004568
 20
190.352280129
 10
250.4045868665
 20
191.0295472283
 10
249.8111283779
 20
191.6878821674
 10
249.208026132
 20
192.326396225
 10
248.5960942885
 20
192.9442274371
 10
247.9761589267
 20
193.5405417607
 10
247.3490569302
 20
194.1145341993
 10
246.7156348572
 20
194.6654298903
 10
246.0767477977
 20
195.1924851503
 10
245.4332582193
 20
195.6949884794
 10
244.7860348027
 20
196.1722615218
 10
244.135951269
 20
196.6236599813
 10
243.4838852006
 20
197.0485744912
 10
242.8307168558
 20
197.4464314368
 10
242.1773279814
 20
197.81669373
 10
241.5246006216
 20
198.1588615341
 10
240.8734159276
 20
198.4724729386
 10
240.2246529683
 20
198.7571045828
 10
239.5791875431
 20
199.0123722275
 10
238.937891
 20
199.2379312732
 10
238.3016290593
 20
199.4334772259
 10
237.6712606446
 20
199.5987461077
 10
237.0476367236
 20
199.7335148134
 10
236.4315991595
 20
199.8376014115
 10
235.823979574
 20
199.9108653901
 10
235.2255982248
 20
199.9532078462
 10
234.6372628989
 20
199.9645716196
 10
234.0597678211
 20
199.9449413695
 10
233.4938925827
 20
199.894343596
 10
232.9404010888
 20
199.8128466037
 10
232.4000405268
 20
199.7005604097
 10
231.8735403581
 20
199.557636595
 10
231.3616113331
 20
199.3842681001
 10
230.8649445321
 20
199.1806889644
 10
230.3842104318
 20
198.94717401
 10
229.9200580007
 20
198.6840384713
 10
229.4731138228
 20
198.3916375688
 10
229.0439812518
 20
198.0703660299
 10
228.6332395963
 20
197.7206575563
 10
228.2414433384
 20
197.3429842378
 10
227.8691213847
 20
196.9378559158
 10
227.5167763521
 20
196.5058194944
 10
227.1848838901
 20
196.0474582025
 10
226.8738920378
 20
195.5633908064
 10
226.5842206196
 20
195.0542707741
 10
226.3162606783
 20
194.520785394
 10
226.0703739472
 20
193.9636548461
 10
225.846892362
 20
193.3836312305
 10
225.6461176121
 20
192.7814975519
 10
225.4683207342
 20
192.1580666624
 10
225.3137417455
 20
191.5141801645
 10
225.1825893206
 20
190.8507072747
 10
225.075040509
 20
190.1685436501
 10
224.9912404965
 20
189.4686101797
 10
224.9313024093
 20
188.7518517407
 10
224.8953071609
 20
188.0192359234
 10
224.8833033432
 20
187.2717517247
  0
LWPOLYLINE
  5
18E
330
1F
100
AcDbEntity
  8
0
  6
Continuous
 62
     7
370
    18
100
AcDbPolyline
 90
      128
 70
   128
 43
0.0
 10
224.917935502
 20
188.5525966691
 10
224.9412309506
 20
188.9675416803
 10
225.0010629563
 20
189.687442404
 10
225.0847159668
 20
190.3905648559
 10
225.1920783636
 20
191.0759708572
 10
225.3230068927
 20
191.7427458686
 10
225.4773268557
 20
192.39000021
 10
225.6548323431
 20
193.0168702477
 10
225.8552865086
 20
193.6225195472
 10
226.0784218855
 20
194.2061399885
 10
226.3239407438
 20
194.7669528449
 10
226.5915154867
 20
195.3042098221
 10
226.8807890883
 20
195.8171940563
 10
227.1913755701
 20
196.305221071
 10
227.5228605153
 20
196.7676396902
 10
227.8748016227
 20
197.2038329071
 10
228.2467292959
 20
197.6132187077
 10
228.6381472708
 20
197.9952508473
 10
229.0485332769
 20
198.3494195791
 10
229.477339735
 20
198.6752523346
 10
229.9239944872
 20
198.9723143542
 10
230.3879015606
 20
199.2402092669
 10
230.8684419624
 20
199.4785796197
 10
231.3649745061
 20
199.6871073543
 10
231.8768366667
 20
199.8655142315
 10
232.4033454647
 20
200.0135622023
 10
232.9437983779
 20
200.131053726
 10
233.497474278
 20
200.2178320331
 10
234.0636343937
 20
200.273781335
 10
234.6415232955
 20
200.2988269786
 10
235.2303699044
 20
200.2929355452
 10
235.8293885205
 20
200.2561148958
 10
236.4377798713
 20
200.1884141603
 10
237.0547321782
 20
200.0899236721
 10
237.6794222397
 20
199.9607748474
 10
238.3110165299
 20
199.8011400097
 10
238.9486723105
 20
199.6112321605
 10
239.5915387552
 20
199.3913046943
 10
240.2387580852
 20
199.1416510612
 10
240.8894667138
 20
198.8626043747
 10
241.5427963982
 20
198.5545369678
 10
242.1978753986
 20
198.2178598958
 10
242.8538296408
 20
197.853022388
 10
243.509783883
 20
197.4605112483
 10
244.1648628834
 20
197.0408502056
 10
244.8181925678
 20
196.594599215
 10
245.4689011964
 20
196.1223537107
 10
246.1161205264
 20
195.6247438113
 10
246.7589869711
 20
195.1024334794
 10
247.3966427517
 20
194.5561196353
 10
248.0282370419
 20
193.9865312274
 10
248.6529271034
 20
193.3944282594
 10
249.2698794103
 20
192.7806007762
 10
249.8782707611
 20
192.1458678097
 10
250.4772893772
 20
191.4910762863
 10
251.0661359861
 20
190.8170998965
 10
251.6440248879
 20
190.124837929
 10
252.2101850036
 20
189.4152140714
 10
252.7638609037
 20
188.689175177
 10
253.3043138169
 20
187.9476900019
 10
253.8308226149
 20
187.1917479123
 10
254.3426847755
 20
186.4223575639
 10
254.8392173192
 20
185.6405455571
 10
255.319757721
 20
184.847355066
 10
255.7836647944
 20
184.0438444472
 10
256.2303195466
 20
183.2310858278
 10
256.6591260047
 20
182.410163674
 10
257.0695120108
 20
181.5821733451
 10
257.4609299857
 20
180.7482196311
 10
257.8328576589
 20
179.9094152794
 10
258.1847987663
 20
179.0668795092
 10
258.5162837115
 20
178.2217365188
 10
258.8268701932
 20
177.3751139852
 10
259.1161437949
 20
176.5281415596
 10
259.3837185378
 20
175.6819493601
 10
259.629237396
 20
174.8376664638
 10
259.852372773
 20
173.9964194
 10
260.0528269385
 20
173.1593306474
 10
260.2303324259
 20
172.3275171363
 10
260.3846523889
 20
171.5020887581
 10
260.515580918
 20
170.6841468847
 10
260.6229433148
 20
169.8747828986
 10
260.7065963253
 20
169.0750767367
 10
260.766428331
 20
168.2860954495
 10
260.8023594979
 20
167.5088917775
 10
260.8143418829
 20
166.7445027459
 10
260.8023594979
 20
165.9939482816
 10
260.766428331
 20
165.2582298519
 10
260.7065963253
 20
164.5383291281
 10
260.6229433148
 20
163.8352066763
 10
260.515580918
 20
163.149800675
 10
260.3846523889
 20
162.4830256636
 10
260.2303324259
 20
161.8357713222
 10
260.0528269385
 20
161.2089012844
 10
259.852372773
 20
160.603251985
 10
259.629237396
 20
160.0196315437
 10
259.3837185378
 20
159.4588186873
 10
259.1161437949
 20
158.9215617101
 10
258.8268701932
 20
158.4085774759
 10
258.5162837115
 20
157.9205504612
 10
258.1847987663
 20
157.458131842
 10
257.8328576589
 20
157.0219386251
 10
257.4609299857
 20
156.6125528244
 10
257.0695120108
 20
156.2305206848
 10
256.6591260047
 20
155.876351953
 10
256.2303195466
 20
155.5505191975
 10
255.7836647944
 20
155.253457178
 10
255.319757721
 20
154.9855622653
 10
254.8392173192
 20
154.7471919125
 10
254.3426847755
 20
154.5386641779
 10
253.8308226149
 20
154.3602573007
 10
253.3043138169
 20
154.2122093299
 10
252.7638609037
 20
154.0947178062
 10
252.2101850036
 20
154.0079394991
 10
251.6440248879
 20
153.9519901971
 10
251.0661359861
 20
153.9269445536
 10
250.4772893772
 20
153.932835987
 10
249.8782707611
 20
153.9696566364
 10
249.2698794103
 20
154.0373573718
 10
248.6529271034
 20
154.13584786
 10
248.0282370419
 20
154.2649966848
 10
247.3966427517
 20
154.4246315224
 10
246.7589869711
 20
154.6145393717
 10
246.1161205264
 20
154.8344668378
 10
245.4689011964
 20
155.084120471
 10
244.8181925678
 20
155.3631671575
 10
244.1648628834
 20
155.6712345644
 10
243.7909684972
 20
155.8600023178
  0
SPLINE
  5
18F
330
1F
100
AcDbEntity
  8
0
  6
Continuous
 62
     7
370
    18
100
AcDbSpline
210
0.0
220
0.0
230
1.0
 70
     8
 71
     3
 72
    12
 73
     8
 74
     0
 42
0.000000001
 43
0.00000001
 40
0.0
 40
0.0
 40
0.0
 40
0.0
 40
0.2490836818467643
 40
0.3692362629956808
 40
0.4994955572454227
 40
0.7496058132545772
 40
0.9999999999999999
 40
0.9999999999999999
 40
0.9999999999999999
 40
0.9999999999999999
 10
244.6691932638574
 20
197.758486719094
 30
0.0
 10
244.6529020217495
 20
197.7815498133626
 30
0.0
 10
244.6287522367821
 20
197.8157380455171
 30
0.0
 10
244.6310692871807
 20
197.8648177343483
 30
0.0
 10
244.6490767387675
 20
197.9116457318954
 30
0.0
 10
244.6928595991425
 20
197.9666925579093
 30
0.0
 10
244.7467817697273
 20
198.0013452327459
 30
0.0
 10
244.7737581497507
 20
198.0186813992074
 30
0.0
  0
SPLINE
  5
190
330
1F
100
AcDbEntity
  8
0
  6
Continuous
 62
     7
370
    18
100
AcDbSpline
210
0.0
220
0.0
230
1.0
 70
     8
 71
     3
 72
    11
 73
     7
 74
     0
 42
0.000000001
 43
0.00000001
 40
0.0
 40
0.0
 40
0.0
 40
0.0
 40
0.2501979445621171
 40
0.5001495245309945
 40
0.7500769726862787
 40
1.0
 40
1.0
 40
1.0
 40
1.0
 10
244.32441206926
 20
197.7080765264521
 30
0.0
 10
244.3479443247479
 20
197.7201202599811
 30
0.0
 10
244.3949856640125
 20
197.744195867831
 30
0.0
 10
244.4819250204469
 20
197.7654879057959
 30
0.0
 10
244.5763765362495
 20
197.7723504669314
 30
0.0
 10
244.6382545370779
 20
197.7631079411252
 30
0.0
 10
244.6691932638574
 20
197.758486719094
 30
0.0
  0
SPLINE
  5
191
330
1F
100
AcDbEntity
  8
0
  6
Continuous
 62
     7
370
    18
100
AcDbSpline
210
0.0
220
0.0
230
1.0
 70
     8
 71
     3
 72
    13
 73
     9
 74
     0
 42
0.000000001
 43
0.00000001
 40
0.0
 40
0.0
 40
0.0
 40
0.0
 40
0.1252599267414619
 40
0.250416983733897
 40
0.3729786230255213
 40
0.5009683080962078
 40
0.7502202677935148
 40
1.0
 40
1.0
 40
1.0
 40
1.0
 10
244.2972806568964
 20
197.3801856436283
 30
0.0
 10
244.2805057516026
 20
197.3922591616603
 30
0.0
 10
244.2469697174107
 20
197.4163962823442
 30
0.0
 10
244.2136093010096
 20
197.4589022559696
 30
0.0
 10
244.1960234709019
 20
197.5043512951367
 30
0.0
 10
244.193769171934
 20
197.5654392808029
 30
0.0
 10
244.2256174200102
 20
197.6410947966454
 30
0.0
 10
244.2914573089045
 20
197.6857335466375
 30
0.0
 10
244.32441206926
 20
197.7080765264521
 30
0.0
  0
SPLINE
  5
192
330
1F
100
AcDbEntity
  8
0
  6
Continuous
 62
     7
370
    18
100
AcDbSpline
210
0.0
220
0.0
230
1.0
 70
     8
 71
     3
 72
    12
 73
     8
 74
     0
 42
0.000000001
 43
0.00000001
 40
0.0
 40
0.0
 40
0.0
 40
0.0
 40
0.2504756097916659
 40
0.5000979860407813
 40
0.6272564393604586
 40
0.7507072537651039
 40
1.0
 40
1.0
 40
1.0
 40
1.0
 10
244.8321873293523
 20
197.360724774801
 30
0.0
 10
244.7911457718785
 20
197.3456696130533
 30
0.0
 10
244.7092024630923
 20
197.3156105742679
 30
0.0
 10
244.5867308239468
 20
197.3013499170121
 30
0.0
 10
244.4887136220682
 20
197.3092820734803
 30
0.0
 10
244.392887758412
 20
197.3287132544808
 30
0.0
 10
244.3355970005455
 20
197.3595571158333
 30
0.0
 10
244.2972806568964
 20
197.3801856436283
 30
0.0
  0
LINE
  5
193
330
1F
100
AcDbEntity
  8
0
  6
Continuous
 62
     7
370
    18
100
AcDbLine
 10
244.7334291248
 20
197.4435906131
 30
0.0
 11
244.8321873294
 21
197.3607247748
 31
0.0
  0
SPLINE
  5
194
330
1F
100
AcDbEntity
  8
0
  6
Continuous
 62
     7
370
    18
100
AcDbSpline
210
0.0
220
0.0
230
1.0
 70
     8
 71
     3
 72
    12
 73
     8
 74
     0
 42
0.000000001
 43
0.00000001
 40
0.0
 40
0.0
 40
0.0
 40
0.0
 40
0.2490769759853225
 40
0.373815425772032
 40
0.4995732232299751
 40
0.7493635803476797
 40
1.0
 40
1.0
 40
1.0
 40
1.0
 10
244.4074007489141
 20
197.4475422042329
 30
0.0
 10
244.431063198599
 20
197.4350571604427
 30
0.0
 10
244.4665758696067
 20
197.416319571624
 30
0.0
 10
244.5258621270252
 20
197.4057230488756
 30
0.0
 10
244.5860579792036
 20
197.4031851047412
 30
0.0
 10
244.659676672524
 20
197.414402849074
 30
0.0
 10
244.7088172803251
 20
197.4338503985708
 30
0.0
 10
244.7334291247957
 20
197.4435906131301
 30
0.0
  0
SPLINE
  5
195
330
1F
100
AcDbEntity
  8
0
  6
Continuous
 62
     7
370
    18
100
AcDbSpline
210
0.0
220
0.0
230
1.0
 70
     8
 71
     3
 72
    13
 73
     9
 74
     0
 42
0.000000001
 43
0.00000001
 40
0.0
 40
0.0
 40
0.0
 40
0.0
 40
0.2500995961983916
 40
0.4992459363662376
 40
0.6265959655368135
 40
0.7496356763202712
 40
0.8747144162729378
 40
1.0
 40
1.0
 40
1.0
 40
1.0
 10
244.4310680214734
 20
197.6325680320554
 30
0.0
 10
244.4120936573571
 20
197.6201091403361
 30
0.0
 10
244.3742172500212
 20
197.5952388440339
 30
0.0
 10
244.3522323796813
 20
197.5531286357081
 30
0.0
 10
244.3518660532276
 20
197.5184038099952
 30
0.0
 10
244.3607773450749
 20
197.4924905203576
 30
0.0
 10
244.3789870836309
 20
197.4681109523622
 30
0.0
 10
244.3979243120226
 20
197.4544022288599
 30
0.0
 10
244.4074007489141
 20
197.4475422042329
 30
0.0
  0
SPLINE
  5
196
330
1F
100
AcDbEntity
  8
0
  6
Continuous
 62
     7
370
    18
100
AcDbSpline
210
0.0
220
0.0
230
1.0
 70
     8
 71
     3
 72
    13
 73
     9
 74
     0
 42
0.000000001
 43
0.00000001
 40
0.0
 40
0.0
 40
0.0
 40
0.0
 40
0.2614098033398603
 40
0.3812460329074205
 40
0.4998707188996254
 40
0.6256242483327961
 40
0.750351516486878
 40
0.9999999999999999
 40
0.9999999999999999
 40
0.9999999999999999
 40
0.9999999999999999
 10
244.788963924905
 20
197.6182854235858
 30
0.0
 10
244.7619092078188
 20
197.6332567038019
 30
0.0
 10
244.722451989961
 20
197.6550911611061
 30
0.0
 10
244.6583735183063
 20
197.6705139195296
 30
0.0
 10
244.6097137900462
 20
197.6758475620844
 30
0.0
 10
244.5601190914081
 20
197.6747715406777
 30
0.0
 10
244.4954628545406
 20
197.6640923149209
 30
0.0
 10
244.4568299574929
 20
197.6451797047558
 30
0.0
 10
244.4310680214734
 20
197.6325680320554
 30
0.0
  0
LINE
  5
197
330
1F
100
AcDbEntity
  8
0
  6
Continuous
 62
     7
370
    18
100
AcDbLine
 10
244.8044073005
 20
197.606331399
 30
0.0
 11
244.7889639249
 21
197.6182854236
 31
0.0
  0
LINE
  5
198
330
1F
100
AcDbEntity
  8
0
  6
Continuous
 62
     7
370
    18
100
AcDbLine
 10
244.9467746374
 20
197.67115916
 30
0.0
 11
244.8044073005
 21
197.606331399
 31
0.0
  0
LINE
  5
199
330
1F
100
AcDbEntity
  8
0
  6
Continuous
 62
     7
370
    18
100
AcDbLine
 10
244.8538399386
 20
197.7131057938
 30
0.0
 11
244.9467746374
 21
197.67115916
 31
0.0
  0
SPLINE
  5
19A
330
1F
100
AcDbEntity
  8
0
  6
Continuous
 62
     7
370
    18
100
AcDbSpline
210
0.0
220
0.0
230
1.0
 70
     8
 71
     3
 72
    13
 73
     9
 74
     0
 42
0.000000001
 43
0.00000001
 40
0.0
 40
0.0
 40
0.0
 40
0.0
 40
0.2500234755633288
 40
0.4992731213522034
 40
0.629235346357808
 40
0.7496799904896173
 40
0.8748223939523307
 40
1.0
 40
1.0
 40
1.0
 40
1.0
 10
244.8881661188237
 20
197.9479416143635
 30
0.0
 10
244.8639898858245
 20
197.9321272519202
 30
0.0
 10
244.8157122459556
 20
197.9005474729354
 30
0.0
 10
244.786504591162
 20
197.8472387919096
 30
0.0
 10
244.7842497973061
 20
197.8031311171197
 30
0.0
 10
244.7954261886655
 20
197.7701995797185
 30
0.0
 10
244.8174546797129
 20
197.7391724169424
 30
0.0
 10
244.8417103819178
 20
197.7217954827476
 30
0.0
 10
244.8538399385639
 20
197.7131057937881
 30
0.0
  0
SPLINE
  5
19B
330
1F
100
AcDbEntity
  8
0
  6
Continuous
 62
     7
370
    18
100
AcDbSpline
210
0.0
220
0.0
230
1.0
 70
     8
 71
     3
 72
    13
 73
     9
 74
     0
 42
0.000000001
 43
0.00000001
 40
0.0
 40
0.0
 40
0.0
 40
0.0
 40
0.1275695741775537
 40
0.2491531696381871
 40
0.3725499154160393
 40
0.5005418555998598
 40
0.7499512714522691
 40
1.0
 40
1.0
 40
1.0
 40
1.0
 10
245.298708048112
 20
197.9623533325601
 30
0.0
 10
245.2839182941604
 20
197.97073344309
 30
0.0
 10
245.2550327695442
 20
197.9871004421485
 30
0.0
 10
245.2013344799959
 20
198.0019848835464
 30
0.0
 10
245.1446273463794
 20
198.0090575345723
 30
0.0
 10
245.0678901329352
 20
198.0086332383993
 30
0.0
 10
244.9743242638233
 20
197.9920313920846
 30
0.0
 10
244.9169099974841
 20
197.9626507428039
 30
0.0
 10
244.8881661188237
 20
197.9479416143635
 30
0.0
  0
SPLINE
  5
19C
330
1F
100
AcDbEntity
  8
0
  6
Continuous
 62
     7
370
    18
100
AcDbSpline
210
0.0
220
0.0
230
1.0
 70
     8
 71
     3
 72
    12
 73
     8
 74
     0
 42
0.000000001
 43
0.00000001
 40
0.0
 40
0.0
 40
0.0
 40
0.0
 40
0.499028636800054
 40
0.6293407817488207
 40
0.7495721554918237
 40
0.8747210612433222
 40
0.9999999999999999
 40
0.9999999999999999
 40
0.9999999999999999
 40
0.9999999999999999
 10
245.2569901870897
 20
197.7283929669539
 30
0.0
 10
245.2965889482753
 20
197.7638140259725
 30
0.0
 10
245.3465281972143
 20
197.8084846427052
 30
0.0
 10
245.3600697450815
 20
197.8731056769836
 30
0.0
 10
245.3541127873826
 20
197.9058744896399
 30
0.0
 10
245.333807149089
 20
197.9367611864247
 30
0.0
 10
245.3104117977316
 20
197.9538196646809
 30
0.0
 10
245.298708048112
 20
197.9623533325601
 30
0.0
  0
LINE
  5
19D
330
1F
100
AcDbEntity
  8
0
  6
Continuous
 62
     7
370
    18
100
AcDbLine
 10
245.3840443405
 20
197.6617668412
 30
0.0
 11
245.2569901871
 21
197.728392967
 31
0.0
  0
SPLINE
  5
19E
330
1F
100
AcDbEntity
  8
0
  6
Continuous
 62
     7
370
    18
100
AcDbSpline
210
0.0
220
0.0
230
1.0
 70
     8
 71
     3
 72
    13
 73
     9
 74
     0
 42
0.000000001
 43
0.00000001
 40
0.0
 40
0.0
 40
0.0
 40
0.0
 40
0.1251569786278842
 40
0.2502594380309269
 40
0.3732664258333882
 40
0.5006077684495404
 40
0.7499451257132113
 40
0.9999999999999999
 40
0.9999999999999999
 40
0.9999999999999999
 40
0.9999999999999999
 10
245.4136835657444
 20
198.0265641891283
 30
0.0
 10
245.43194402822
 20
198.0133635423954
 30
0.0
 10
245.4684569987904
 20
197.9869679992204
 30
0.0
 10
245.504374582325
 20
197.9398239857361
 30
0.0
 10
245.5222215374978
 20
197.8893322395874
 30
0.0
 10
245.5222493343196
 20
197.8214583799427
 30
0.0
 10
245.4839932327486
 20
197.7388940447475
 30
0.0
 10
245.4173925347474
 20
197.687500522764
 30
0.0
 10
245.3840443404545
 20
197.661766841167
 30
0.0
  0
SPLINE
  5
19F
330
1F
100
AcDbEntity
  8
0
  6
Continuous
 62
     7
370
    18
100
AcDbSpline
210
0.0
220
0.0
230
1.0
 70
     8
 71
     3
 72
    12
 73
     8
 74
     0
 42
0.000000001
 43
0.00000001
 40
0.0
 40
0.0
 40
0.0
 40
0.0
 40
0.2502697854934406
 40
0.4998408312705755
 40
0.7493414152411464
 40
0.8746312909961639
 40
1.0
 40
1.0
 40
1.0
 40
1.0
 10
244.7737581497507
 20
198.0186813992074
 30
0.0
 10
244.819009850451
 20
198.0413152565182
 30
0.0
 10
244.9093869115486
 20
198.0865197786334
 30
0.0
 10
245.0860316959509
 20
198.1121954075774
 30
0.0
 10
245.2374333891582
 20
198.0994139807662
 30
0.0
 10
245.3467510770523
 20
198.0653038389381
 30
0.0
 10
245.3913680587668
 20
198.0394801129574
 30
0.0
 10
245.4136835657444
 20
198.0265641891283
 30
0.0
  0
SPLINE
  5
1A0
330
1F
100
AcDbEntity
  8
0
  6
Continuous
 62
     7
370
    18
100
AcDbSpline
210
0.0
220
0.0
230
1.0
 70
     8
 71
     3
 72
    12
 73
     8
 74
     0
 42
0.000000001
 43
0.00000001
 40
0.0
 40
0.0
 40
0.0
 40
0.0
 40
0.2490836818467842
 40
0.369236262978868
 40
0.4994955572453727
 40
0.7496058132545458
 40
1.0
 40
1.0
 40
1.0
 40
1.0
 10
243.9762353412924
 20
198.1860428160089
 30
0.0
 10
243.9599100216314
 20
198.2079333408336
 30
0.0
 10
243.9357097208375
 20
198.2403833814023
 30
0.0
 10
243.9379827013693
 20
198.2877286767767
 30
0.0
 10
243.9559577474917
 20
198.3332310713633
 30
0.0
 10
243.9997160457144
 20
198.3871914164042
 30
0.0
 10
244.0536353976356
 20
198.4217153341019
 30
0.0
 10
244.0806103675277
 20
198.4389870854726
 30
0.0
  0
SPLINE
  5
1A1
330
1F
100
AcDbEntity
  8
0
  6
Continuous
 62
     7
370
    18
100
AcDbSpline
210
0.0
220
0.0
230
1.0
 70
     8
 71
     3
 72
    11
 73
     7
 74
     0
 42
0.000000001
 43
0.00000001
 40
0.0
 40
0.0
 40
0.0
 40
0.0
 40
0.250197944562136
 40
0.5001495245309937
 40
0.7500769726863027
 40
1.0
 40
1.0
 40
1.0
 40
1.0
 10
243.6313074895638
 20
198.1302491907138
 30
0.0
 10
243.6548410820551
 20
198.1423490562361
 30
0.0
 10
243.7018850940099
 20
198.1665368728006
 30
0.0
 10
243.7888505235233
 20
198.1888797070611
 30
0.0
 10
243.8833470264391
 20
198.1974721218724
 30
0.0
 10
243.9452727522384
 20
198.1898525621668
 30
0.0
 10
243.9762353412924
 20
198.1860428160089
 30
0.0
  0
SPLINE
  5
1A2
330
1F
100
AcDbEntity
  8
0
  6
Continuous
 62
     7
370
    18
100
AcDbSpline
210
0.0
220
0.0
230
1.0
 70
     8
 71
     3
 72
    13
 73
     9
 74
     0
 42
0.000000001
 43
0.00000001
 40
0.0
 40
0.0
 40
0.0
 40
0.0
 40
0.125259926741518
 40
0.2504169837340142
 40
0.372978623026099
 40
0.5009683080959667
 40
0.7502202677933854
 40
1.0
 40
1.0
 40
1.0
 40
1.0
 10
243.6045201712151
 20
197.8136067046881
 30
0.0
 10
243.5877171064845
 20
197.8249034442718
 30
0.0
 10
243.5541247765449
 20
197.8474876459885
 30
0.0
 10
243.5206915378358
 20
197.8877765056593
 30
0.0
 10
243.5030443932377
 20
197.9312225132264
 30
0.0
 10
243.5007259486007
 20
197.9900550614899
 30
0.0
 10
243.5325213615287
 20
198.0636300029667
 30
0.0
 10
243.5983555716151
 20
198.1080271434273
 30
0.0
 10
243.6313074895638
 20
198.1302491907138
 30
0.0
  0
SPLINE
  5
1A3
330
1F
100
AcDbEntity
  8
0
  6
Continuous
 62
     7
370
    18
100
AcDbSpline
210
0.0
220
0.0
230
1.0
 70
     8
 71
     3
 72
    12
 73
     8
 74
     0
 42
0.000000001
 43
0.00000001
 40
0.0
 40
0.0
 40
0.0
 40
0.0
 40
0.2504756097916671
 40
0.5000979860407976
 40
0.6272564393604072
 40
0.7507072537651094
 40
1.0
 40
1.0
 40
1.0
 40
1.0
 10
244.1399338881181
 20
197.805726333185
 30
0.0
 10
244.0988770980538
 20
197.7903696376821
 30
0.0
 10
244.0169033759756
 20
197.7597085585469
 30
0.0
 10
243.8943354303805
 20
197.7434721435445
 30
0.0
 10
243.7962147862559
 20
197.7491346318497
 30
0.0
 10
243.7002736684277
 20
197.7659283536123
 30
0.0
 10
243.6428951856924
 20
197.7944987089903
 30
0.0
 10
243.6045201712151
 20
197.8136067046881
 30
0.0
  0
LINE
  5
1A4
330
1F
100
AcDbEntity
  8
0
  6
Continuous
 62
     7
370
    18
100
AcDbLine
 10
244.0409417736
 20
197.8836875763
 30
0.0
 11
244.1399338881
 21
197.8057263332
 31
0.0
  0
SPLINE
  5
1A5
330
1F
100
AcDbEntity
  8
0
  6
Continuous
 62
     7
370
    18
100
AcDbSpline
210
0.0
220
0.0
230
1.0
 70
     8
 71
     3
 72
    12
 73
     8
 74
     0
 42
0.000000001
 43
0.00000001
 40
0.0
 40
0.0
 40
0.0
 40
0.0
 40
0.2490769759850396
 40
0.3738154257508122
 40
0.4995732232305498
 40
0.7493635803479508
 40
1.0
 40
1.0
 40
1.0
 40
1.0
 10
243.7146352736143
 20
197.8808282657147
 30
0.0
 10
243.73833295058
 20
197.8692743002328
 30
0.0
 10
243.7738984907878
 20
197.8519340763578
 30
0.0
 10
243.8332498012746
 20
197.8429258744679
 30
0.0
 10
243.8935011151845
 20
197.841707024985
 30
0.0
 10
243.9671682038228
 20
197.8540282140339
 30
0.0
 10
244.0163228820086
 20
197.8737899852609
 30
0.0
 10
244.0409417735659
 20
197.8836875763097
 30
0.0
  0
SPLINE
  5
1A6
330
1F
100
AcDbEntity
  8
0
  6
Continuous
 62
     7
370
    18
100
AcDbSpline
210
0.0
220
0.0
230
1.0
 70
     8
 71
     3
 72
    13
 73
     9
 74
     0
 42
0.000000001
 43
0.00000001
 40
0.0
 40
0.0
 40
0.0
 40
0.0
 40
0.2500995961985399
 40
0.499245936366484
 40
0.6265959655263407
 40
0.7496356763201422
 40
0.8747144162728773
 40
1.0
 40
1.0
 40
1.0
 40
1.0
 10
243.7380975800608
 20
198.0597077442994
 30
0.0
 10
243.7191248172049
 20
198.0473031773282
 30
0.0
 10
243.6812516062867
 20
198.0225413234631
 30
0.0
 10
243.6592989439008
 20
197.9814913157199
 30
0.0
 10
243.6589723512999
 20
197.9480070075677
 30
0.0
 10
243.6679206889951
 20
197.9232078487209
 30
0.0
 10
243.6861735290116
 20
197.9000774514572
 30
0.0
 10
243.7051428014584
 20
197.8872481940161
 30
0.0
 10
243.7146352736143
 20
197.8808282657146
 30
0.0
  0
SPLINE
  5
1A7
330
1F
100
AcDbEntity
  8
0
  6
Continuous
 62
     7
370
    18
100
AcDbSpline
210
0.0
220
0.0
230
1.0
 70
     8
 71
     3
 72
    13
 73
     9
 74
     0
 42
0.000000001
 43
0.00000001
 40
0.0
 40
0.0
 40
0.0
 40
0.0
 40
0.2614098033401229
 40
0.3812460329077189
 40
0.499870718899836
 40
0.6256242483237104
 40
0.7503515164867479
 40
1.0
 40
1.0
 40
1.0
 40
1.0
 10
244.0962652946147
 20
198.0533351054404
 30
0.0
 10
244.069169360186
 20
198.0672170307514
 30
0.0
 10
244.0296520300135
 20
198.0874627479598
 30
0.0
 10
243.9655093042079
 20
198.1010081710078
 30
0.0
 10
243.9168100344774
 20
198.1051422318019
 30
0.0
 10
243.8671839946836
 20
198.1030751761148
 30
0.0
 10
243.802498396301
 20
198.0914359886534
 30
0.0
 10
243.763861909721
 20
198.0724010142733
 30
0.0
 10
243.7380975800608
 20
198.0597077442994
 30
0.0
  0
LINE
  5
1A8
330
1F
100
AcDbEntity
  8
0
  6
Continuous
 62
     7
370
    18
100
AcDbLine
 10
244.1117378472
 20
198.0421224911
 30
0.0
 11
244.0962652946
 21
198.0533351054
 31
0.0
  0
LINE
  5
1A9
330
1F
100
AcDbEntity
  8
0
  6
Continuous
 62
     7
370
    18
100
AcDbLine
 10
244.2541299088
 20
198.1075661912
 30
0.0
 11
244.1117378472
 21
198.0421224911
 31
0.0
  0
LINE
  5
1AA
330
1F
100
AcDbEntity
  8
0
  6
Continuous
 62
     7
370
    18
100
AcDbLine
 10
244.1610641931
 20
198.1461121723
 30
0.0
 11
244.2541299088
 21
198.1075661912
 31
0.0
  0
SPLINE
  5
1AB
330
1F
100
AcDbEntity
  8
0
  6
Continuous
 62
     7
370
    18
100
AcDbSpline
210
0.0
220
0.0
230
1.0
 70
     8
 71
     3
 72
    13
 73
     9
 74
     0
 42
0.000000001
 43
0.00000001
 40
0.0
 40
0.0
 40
0.0
 40
0.0
 40
0.2500234755636421
 40
0.4992731213528167
 40
0.6292353463810711
 40
0.7496799904892874
 40
0.8748223939521655
 40
1.0
 40
1.0
 40
1.0
 40
1.0
 10
244.1951421487869
 20
198.3732206617838
 30
0.0
 10
244.1709677507569
 20
198.3574735844848
 30
0.0
 10
244.1226937751469
 20
198.3260281675391
 30
0.0
 10
244.093523534311
 20
198.2740371988579
 30
0.0
 10
244.0913156785588
 20
198.2314720614555
 30
0.0
 10
244.1025373342144
 20
198.1999562201164
 30
0.0
 10
244.1246184294596
 20
198.1704975629487
 30
0.0
 10
244.1489144662947
 20
198.1542413979168
 30
0.0
 10
244.161064193092
 20
198.1461121723459
 30
0.0
  0
SPLINE
  5
1AC
330
1F
100
AcDbEntity
  8
0
  6
Continuous
 62
     7
370
    18
100
AcDbSpline
210
0.0
220
0.0
230
1.0
 70
     8
 71
     3
 72
    13
 73
     9
 74
     0
 42
0.000000001
 43
0.00000001
 40
0.0
 40
0.0
 40
0.0
 40
0.0
 40
0.1275695741836685
 40
0.2491531696454807
 40
0.3725499154319308
 40
0.5005418556002375
 40
0.7499512714524604
 40
0.9999999999999999
 40
0.9999999999999999
 40
0.9999999999999999
 40
0.9999999999999999
 10
244.6059422171984
 20
198.3956297507223
 30
0.0
 10
244.5911305653688
 20
198.4034058610566
 30
0.0
 10
244.5622022725166
 20
198.4185932013743
 30
0.0
 10
244.5084486056493
 20
198.4318327464831
 30
0.0
 10
244.4516955946877
 20
198.4374746174769
 30
0.0
 10
244.3749101649038
 20
198.4354694355361
 30
0.0
 10
244.2813058683679
 20
198.4175150226096
 30
0.0
 10
244.2238878872261
 20
198.3879980427607
 30
0.0
 10
244.1951421487869
 20
198.3732206617838
 30
0.0
  0
SPLINE
  5
1AD
330
1F
100
AcDbEntity
  8
0
  6
Continuous
 62
     7
370
    18
100
AcDbSpline
210
0.0
220
0.0
230
1.0
 70
     8
 71
     3
 72
    12
 73
     8
 74
     0
 42
0.000000001
 43
0.00000001
 40
0.0
 40
0.0
 40
0.0
 40
0.0
 40
0.4990286368001558
 40
0.6293407817520899
 40
0.7495721554917889
 40
0.8747210612432987
 40
1.0
 40
1.0
 40
1.0
 40
1.0
 10
244.5645305701588
 20
198.169103964776
 30
0.0
 10
244.6041090091842
 20
198.2040834319163
 30
0.0
 10
244.6540226292051
 20
198.2481971431785
 30
0.0
 10
244.6674783007807
 20
198.3108110574211
 30
0.0
 10
244.6614683720803
 20
198.3422975097626
 30
0.0
 10
244.6411024709544
 20
198.3716716360191
 30
0.0
 10
244.6176663581327
 20
198.3876409485012
 30
0.0
 10
244.6059422171984
 20
198.3956297507223
 30
0.0
  0
LINE
  5
1AE
330
1F
100
AcDbEntity
  8
0
  6
Continuous
 62
     7
370
    18
100
AcDbLine
 10
244.691822072
 20
198.1073802348
 30
0.0
 11
244.5645305702
 21
198.1691039648
 31
0.0
  0
SPLINE
  5
1AF
330
1F
100
AcDbEntity
  8
0
  6
Continuous
 62
     7
370
    18
100
AcDbSpline
210
0.0
220
0.0
230
1.0
 70
     8
 71
     3
 72
    13
 73
     9
 74
     0
 42
0.000000001
 43
0.00000001
 40
0.0
 40
0.0
 40
0.0
 40
0.0
 40
0.1251569786278764
 40
0.2502594380309113
 40
0.3732664258213159
 40
0.5006077684495712
 40
0.7499451257132398
 40
1.0
 40
1.0
 40
1.0
 40
1.0
 10
244.7209205826815
 20
198.4599177520082
 30
0.0
 10
244.739213021414
 20
198.4475626342775
 30
0.0
 10
244.7757899305692
 20
198.4228577807886
 30
0.0
 10
244.8118073783127
 20
198.3781168724103
 30
0.0
 10
244.8297487010125
 20
198.3297691125633
 30
0.0
 10
244.8298871920716
 20
198.2642804927034
 30
0.0
 10
244.7917360721418
 20
198.1838302869776
 30
0.0
 10
244.7251586244695
 20
198.1328879831547
 30
0.0
 10
244.6918220720439
 20
198.1073802347887
 30
0.0
  0
SPLINE
  5
1B0
330
1F
100
AcDbEntity
  8
0
  6
Continuous
 62
     7
370
    18
100
AcDbSpline
210
0.0
220
0.0
230
1.0
 70
     8
 71
     3
 72
    12
 73
     8
 74
     0
 42
0.000000001
 43
0.00000001
 40
0.0
 40
0.0
 40
0.0
 40
0.0
 40
0.2502697854934477
 40
0.4998408312705746
 40
0.7493414152411433
 40
0.8746312909961622
 40
1.0
 40
1.0
 40
1.0
 40
1.0
 10
244.0806103675277
 20
198.4389870854726
 30
0.0
 10
244.1258647990233
 20
198.4617485345587
 30
0.0
 10
244.2162473140874
 20
198.5072078839951
 30
0.0
 10
244.3929569129108
 20
198.5356648245519
 30
0.0
 10
244.5444590198106
 20
198.5265095138545
 30
0.0
 10
244.6538885453324
 20
198.4958938312343
 30
0.0
 10
244.6985718858615
 20
198.4719122925174
 30
0.0
 10
244.7209205826815
 20
198.4599177520082
 30
0.0
  0
LINE
  5
1B1
330
1F
100
AcDbEntity
  8
0
  6
Continuous
 62
     7
370
    18
100
AcDbLine
 10
242.71120451
 20
199.1815584972
 30
0.0
 11
243.1315421604
 21
199.3221457459
 31
0.0
  0
ARC
  5
1B2
330
1F
100
AcDbEntity
  8
0
  6
Continuous
 62
     7
370
    18
100
AcDbCircle
 10
233.339771304
 20
180.2765602678
 30
0.0
 40
21.10030138153822
100
AcDbArc
 50
63.6318362925
 51
64.776390748
  0
LINE
  5
1B3
330
1F
100
AcDbEntity
  8
0
  6
Continuous
 62
     7
370
    18
100
AcDbLine
 10
242.5623125049
 20
199.5972676237
 30
0.0
 11
242.3317089999
 21
199.3649801831
 31
0.0
  0
ARC
  5
1B4
330
1F
100
AcDbEntity
  8
0
  6
Continuous
 62
     7
370
    18
100
AcDbCircle
 10
233.9405884179
 20
181.0488439127
 30
0.0
 40
20.45429413099314
100
AcDbArc
 50
65.0699363598
 51
65.4309446665
  0
LINE
  5
1B5
330
1F
100
AcDbEntity
  8
0
  6
Continuous
 62
     7
370
    18
100
AcDbLine
 10
241.7023391869
 20
198.8597557602
 30
0.0
 11
242.4452725345
 21
199.651222698
 31
0.0
  0
ARC
  5
1B6
330
1F
100
AcDbEntity
  8
0
  6
Continuous
 62
     7
370
    18
100
AcDbCircle
 10
232.574931286
 20
179.8352855055
 30
0.0
 40
21.10071191832543
100
AcDbArc
 50
64.0379494414
 51
64.3696129411
  0
LINE
  5
1B7
330
1F
100
AcDbEntity
  8
0
  6
Continuous
 62
     7
370
    18
100
AcDbLine
 10
243.2491687021
 20
199.2626753071
 30
0.0
 11
241.8123110817
 21
198.8066022224
 31
0.0
  0
ARC
  5
1B8
330
1F
100
AcDbEntity
  8
0
  6
Continuous
 62
     7
370
    18
100
AcDbCircle
 10
233.3735530842
 20
179.8757636235
 30
0.0
 40
21.7573005785088
100
AcDbArc
 50
63.0058877079
 51
63.3529859385
  0
LINE
  5
1B9
330
1F
100
AcDbEntity
  8
0
  6
Continuous
 62
     7
370
    18
100
AcDbLine
 10
242.8245840578
 20
198.9868379785
 30
0.0
 11
242.9519452008
 21
199.0603620013
 31
0.0
  0
ARC
  5
1BA
330
1F
100
AcDbEntity
  8
0
  6
Continuous
 62
     7
370
    18
100
AcDbCircle
 10
232.6941381243
 20
179.1725237107
 30
0.0
 40
22.25383078739009
100
AcDbArc
 50
61.9354106646
 51
62.9207446305
  0
LINE
  5
1BB
330
1F
100
AcDbEntity
  8
0
  6
Continuous
 62
     7
370
    18
100
AcDbLine
 10
243.2911835543
 20
198.8832241
 30
0.0
 11
243.1638224112
 21
198.8097000771
 31
0.0
  0
ARC
  5
1BC
330
1F
100
AcDbEntity
  8
0
  6
Continuous
 62
     7
370
    18
100
AcDbCircle
 10
232.8214992675
 20
179.2460477338
 30
0.0
 40
22.2538307870982
100
AcDbArc
 50
61.9354106646
 51
62.9207446305
  0
SPLINE
  5
1BD
330
1F
100
AcDbEntity
  8
0
  6
Continuous
 62
     7
370
    18
100
AcDbSpline
210
0.0
220
0.0
230
1.0
 70
     8
 71
     3
 72
    15
 73
    11
 74
     0
 42
0.000000001
 43
0.00000001
 40
0.0
 40
0.0
 40
0.0
 40
0.0
 40
0.1249633618473855
 40
0.2499685816824322
 40
0.376871402101179
 40
0.4999854611232409
 40
0.6262440668568362
 40
0.7505044898301216
 40
0.8757014246526379
 40
1.0
 40
1.0
 40
1.0
 40
1.0
 10
244.1683941456447
 20
198.7671911512852
 30
0.0
 10
244.1234152665502
 20
198.7440500343517
 30
0.0
 10
244.0334424421422
 20
198.6977600490879
 30
0.0
 10
243.8834804923873
 20
198.6381835093054
 30
0.0
 10
243.7290716020871
 20
198.5837430132366
 30
0.0
 10
243.5680853201981
 20
198.5350496800816
 30
0.0
 10
243.4029578781909
 20
198.4928222725939
 30
0.0
 10
243.2321029170492
 20
198.4572695419435
 30
0.0
 10
243.0586132314492
 20
198.4275195125536
 30
0.0
 10
242.9398521683748
 20
198.4153070500086
 30
0.0
 10
242.8806854485535
 20
198.4092228054674
 30
0.0
  0
ARC
  5
1BE
330
1F
100
AcDbEntity
  8
0
  6
Continuous
 62
     7
370
    18
100
AcDbCircle
 10
232.5218839765
 20
178.2848849726
 30
0.0
 40
23.56196225951052
100
AcDbArc
 50
60.3768671923
 51
60.6930397353
  0
SPLINE
  5
1BF
330
1F
100
AcDbEntity
  8
0
  6
Continuous
 62
     7
370
    18
100
AcDbSpline
210
0.0
220
0.0
230
1.0
 70
     8
 71
     3
 72
    15
 73
    11
 74
     0
 42
0.000000001
 43
0.00000001
 40
0.0
 40
0.0
 40
0.0
 40
0.0
 40
0.124963788251885
 40
0.2499556673951044
 40
0.3702457454535935
 40
0.499984462566285
 40
0.6252640829815256
 40
0.7499968711326986
 40
0.874996486161148
 40
1.0
 40
1.0
 40
1.0
 40
1.0
 10
242.744308374408
 20
198.4572797698409
 30
0.0
 10
242.8048910206902
 20
198.4640784258109
 30
0.0
 10
242.9260699317641
 20
198.4776772660361
 30
0.0
 10
243.1005487022267
 20
198.5099750294818
 30
0.0
 10
243.2729378748487
 20
198.5490293119048
 30
0.0
 10
243.4412456656945
 20
198.5937540218889
 30
0.0
 10
243.6069111271253
 20
198.6442692865686
 30
0.0
 10
243.764251094258
 20
198.7002909649808
 30
0.0
 10
243.9151022235754
 20
198.761838983022
 30
0.0
 10
244.0084941694266
 20
198.8080443195738
 30
0.0
 10
244.0551908705781
 20
198.8311473481369
 30
0.0
  0
LINE
  5
1C0
330
1F
100
AcDbEntity
  8
0
  6
Continuous
 62
     7
370
    18
100
AcDbLine
 10
242.6401641064
 20
198.3971585636
 30
0.0
 11
242.7443083744
 21
198.4572797698
 31
0.0
  0
ARC
  5
1C1
330
1F
100
AcDbEntity
  8
0
  6
Continuous
 62
     7
370
    18
100
AcDbCircle
 10
231.5510456106
 20
177.8477086714
 30
0.0
 40
23.35055545139279
100
AcDbArc
 50
60.0171780769
 51
61.6473288561
  0
LINE
  5
1C2
330
1F
100
AcDbEntity
  8
0
  6
Continuous
 62
     7
370
    18
100
AcDbLine
 10
243.3476210637
 20
198.1469064104
 30
0.0
 11
243.2202599207
 21
198.0733823876
 31
0.0
  0
ARC
  5
1C3
330
1F
100
AcDbEntity
  8
0
  6
Continuous
 62
     7
370
    18
100
AcDbCircle
 10
231.6230020124
 20
177.823270791
 30
0.0
 40
23.46309563317296
100
AcDbArc
 50
60.0195352872
 51
61.3274085715
  0
LINE
  5
1C4
330
1F
100
AcDbEntity
  8
0
  6
Continuous
 62
     7
370
    18
100
AcDbLine
 10
245.6520781676
 20
197.5165458606
 30
0.0
 11
245.9209516918
 21
197.6717632423
 31
0.0
  0
ARC
  5
1C5
330
1F
100
AcDbEntity
  8
0
  6
Continuous
 62
     7
370
    18
100
AcDbCircle
 10
230.3837571548
 20
175.1197363392
 30
0.0
 40
27.10606395786641
100
AcDbArc
 50
55.7170192331
 51
56.0409905837
  0
LINE
  5
1C6
330
1F
100
AcDbEntity
  8
0
  6
Continuous
 62
     7
370
    18
100
AcDbLine
 10
245.3978338466
 20
197.5289960314
 30
0.0
 11
245.5251949896
 21
197.6025200543
 31
0.0
  0
ARC
  5
1C7
330
1F
100
AcDbEntity
  8
0
  6
Continuous
 62
     7
370
    18
100
AcDbCircle
 10
230.2563960153
 20
175.0462123216
 30
0.0
 40
27.10606395149081
100
AcDbArc
 50
55.7170192331
 51
56.0409905837
  0
LINE
  5
1C8
330
1F
100
AcDbEntity
  8
0
  6
Continuous
 62
     7
370
    18
100
AcDbLine
 10
244.8171551187
 20
197.0345550439
 30
0.0
 11
245.5247170245
 21
197.4430218377
 31
0.0
  0
ARC
  5
1C9
330
1F
100
AcDbEntity
  8
0
  6
Continuous
 62
     7
370
    18
100
AcDbCircle
 10
229.4134241382
 20
174.4390481864
 30
0.0
 40
27.34651455431115
100
AcDbArc
 50
55.4470296421
 51
55.7170983419
  0
LINE
  5
1CA
330
1F
100
AcDbEntity
  8
0
  6
Continuous
 62
     7
370
    18
100
AcDbLine
 10
246.017320044
 20
197.0992905823
 30
0.0
 11
244.9234895156
 21
196.961697459
 31
0.0
  0
LINE
  5
1CB
330
1F
100
AcDbEntity
  8
0
  6
Continuous
 62
     7
370
    18
100
AcDbLine
 10
246.144681187
 20
197.1728146051
 30
0.0
 11
246.017320044
 21
197.0992905823
 31
0.0
  0
ARC
  5
1CC
330
1F
100
AcDbEntity
  8
0
  6
Continuous
 62
     7
370
    18
100
AcDbCircle
 10
229.9553148223
 20
174.4974940114
 30
0.0
 40
27.86154603243591
100
AcDbArc
 50
54.4745233013
 51
55.4287863283
  0
LINE
  5
1CD
330
1F
100
AcDbEntity
  8
0
  6
Continuous
 62
     7
370
    18
100
AcDbLine
 10
246.0336686534
 20
197.5945090503
 30
0.0
 11
245.7647951292
 21
197.4392916687
 31
0.0
  0
ARC
  5
1CE
330
1F
100
AcDbEntity
  8
0
  6
Continuous
 62
     7
370
    18
100
AcDbCircle
 10
230.5135046869
 20
175.0708243088
 30
0.0
 40
27.35309605659045
100
AcDbArc
 50
55.4308379582
 51
55.7170760351
  0
LINE
  5
1CF
330
1F
100
AcDbEntity
  8
0
  6
Continuous
 62
     7
370
    18
100
AcDbLine
 10
246.7183572963
 20
196.6770775568
 30
0.0
 11
247.1377622842
 21
196.7937101363
 31
0.0
  0
ARC
  5
1D0
330
1F
100
AcDbEntity
  8
0
  6
Continuous
 62
     7
370
    18
100
AcDbCircle
 10
229.1331568906
 20
173.40473208
 30
0.0
 40
29.16918472117595
100
AcDbArc
 50
52.9243400076
 51
53.8466521799
  0
LINE
  5
1D1
330
1F
100
AcDbEntity
  8
0
  6
Continuous
 62
     7
370
    18
100
AcDbLine
 10
246.5724459484
 20
197.2137690739
 30
0.0
 11
246.3414712501
 21
196.9571258905
 31
0.0
  0
ARC
  5
1D2
330
1F
100
AcDbEntity
  8
0
  6
Continuous
 62
     7
370
    18
100
AcDbCircle
 10
229.8754622058
 20
174.1630632637
 30
0.0
 40
28.4626826642935
100
AcDbArc
 50
54.0819726316
 51
54.3716110476
  0
LINE
  5
1D3
330
1F
100
AcDbEntity
  8
0
  6
Continuous
 62
     7
370
    18
100
AcDbLine
 10
245.711380402
 20
196.4174340808
 30
0.0
 11
246.4557084666
 21
197.2978798478
 31
0.0
  0
ARC
  5
1D4
330
1F
100
AcDbEntity
  8
0
  6
Continuous
 62
     7
370
    18
100
AcDbCircle
 10
228.36818288
 20
172.9633055849
 30
0.0
 40
29.16989276266666
100
AcDbArc
 50
53.2515967216
 51
53.5188598675
  0
LINE
  5
1D5
330
1F
100
AcDbEntity
  8
0
  6
Continuous
 62
     7
370
    18
100
AcDbLine
 10
247.2540769322
 20
196.7046454717
 30
0.0
 11
245.8205959635
 21
196.3362797506
 31
0.0
  0
ARC
  5
1D6
330
1F
100
AcDbEntity
  8
0
  6
Continuous
 62
     7
370
    18
100
AcDbCircle
 10
229.0337033834
 20
173.0300991075
 30
0.0
 40
29.87417208582247
100
AcDbArc
 50
52.417446614
 51
52.6984155823
  0
LINE
  5
1D7
330
1F
100
AcDbEntity
  8
0
  6
Continuous
 62
     7
370
    18
100
AcDbLine
 10
247.1546300328
 20
196.6096121654
 30
0.0
 11
247.2819911758
 21
196.6831361883
 31
0.0
  0
ARC
  5
1D8
330
1F
100
AcDbEntity
  8
0
  6
Continuous
 62
     7
370
    18
100
AcDbCircle
 10
228.5158019323
 20
172.452255103
 30
0.0
 40
30.51202735310615
100
AcDbArc
 50
51.2831985572
 51
52.3476919448
  0
LINE
  5
1D9
330
1F
100
AcDbEntity
  8
0
  6
Continuous
 62
     7
370
    18
100
AcDbLine
 10
246.6379207459
 20
195.7036589032
 30
0.0
 11
247.6002049378
 21
196.2591737428
 31
0.0
  0
ARC
  5
1DA
330
1F
100
AcDbEntity
  8
0
  6
Continuous
 62
     7
370
    18
100
AcDbCircle
 10
227.1957447266
 20
171.4482721983
 30
0.0
 40
31.08572007485882
100
AcDbArc
 50
51.0228519473
 51
51.2856917099
  0
LINE
  5
1DB
330
1F
100
AcDbEntity
  8
0
  6
Continuous
 62
     7
370
    18
100
AcDbLine
 10
247.8386307446
 20
196.2432534459
 30
0.0
 11
246.7489854096
 21
195.6142145835
 31
0.0
  0
ARC
  5
1DC
330
1F
100
AcDbEntity
  8
0
  6
Continuous
 62
     7
370
    18
100
AcDbCircle
 10
228.5726473826
 20
172.4356896485
 30
0.0
 40
30.62642990744649
100
AcDbArc
 50
51.0189028816
 51
52.346201387
  0
SPLINE
  5
1DD
330
1F
100
AcDbEntity
  8
0
  6
Continuous
 62
     7
370
    18
100
AcDbSpline
210
0.0
220
0.0
230
1.0
 70
     8
 71
     3
 72
     9
 73
     5
 74
     0
 42
0.000000001
 43
0.00000001
 40
0.0
 40
0.0
 40
0.0
 40
0.0
 40
0.5008566923096286
 40
1.0
 40
1.0
 40
1.0
 40
1.0
 10
240.5847954660902
 20
199.4385385471124
 30
0.0
 10
240.5872088973625
 20
199.3920413556967
 30
0.0
 10
240.5920275037809
 20
199.2992060354753
 30
0.0
 10
240.5398762962718
 20
199.2038146516515
 30
0.0
 10
240.5138453700556
 20
199.1562006808045
 30
0.0
  0
ARC
  5
1DE
330
1F
100
AcDbEntity
  8
0
  6
Continuous
 62
     7
370
    18
100
AcDbCircle
 10
233.1036955189
 20
181.3862668986
 30
0.0
 40
19.25307423351373
100
AcDbArc
 50
67.25871964
 51
67.3636233845
  0
SPLINE
  5
1DF
330
1F
100
AcDbEntity
  8
0
  6
Continuous
 62
     7
370
    18
100
AcDbSpline
210
0.0
220
0.0
230
1.0
 70
     8
 71
     3
 72
    11
 73
     7
 74
     0
 42
0.000000001
 43
0.00000001
 40
0.0
 40
0.0
 40
0.0
 40
0.0
 40
0.2498388309252687
 40
0.499828664987354
 40
0.7498960250003137
 40
1.0
 40
1.0
 40
1.0
 40
1.0
 10
240.5463681829946
 20
199.1426035437432
 30
0.0
 10
240.5919259470875
 20
199.1535940033656
 30
0.0
 10
240.6830690104856
 20
199.1755815652684
 30
0.0
 10
240.8258499512776
 20
199.1955616915669
 30
0.0
 10
240.9690068444833
 20
199.2101080376182
 30
0.0
 10
241.06451963495
 20
199.2153175784204
 30
0.0
 10
241.112279526185
 20
199.2179225395034
 30
0.0
  0
LINE
  5
1E0
330
1F
100
AcDbEntity
  8
0
  6
Continuous
 62
     7
370
    18
100
AcDbLine
 10
241.1122795262
 20
199.2179225395
 30
0.0
 11
241.1707447353
 21
199.2516737863
 31
0.0
  0
SPLINE
  5
1E1
330
1F
100
AcDbEntity
  8
0
  6
Continuous
 62
     7
370
    18
100
AcDbSpline
210
0.0
220
0.0
230
1.0
 70
     8
 71
     3
 72
    10
 73
     6
 74
     0
 42
0.000000001
 43
0.00000001
 40
0.0
 40
0.0
 40
0.0
 40
0.0
 40
0.3538768019685488
 40
0.6756856498006949
 40
1.0
 40
1.0
 40
1.0
 40
1.0
 10
241.1707447353065
 20
199.2516737863138
 30
0.0
 10
241.1280934265604
 20
199.2561650123813
 30
0.0
 10
241.0466558270775
 20
199.2647404742001
 30
0.0
 10
240.9224323014067
 20
199.2714353410595
 30
0.0
 10
240.8398948637027
 20
199.2680585029109
 30
0.0
 10
240.7984661151953
 20
199.2663635365744
 30
0.0
  0
LINE
  5
1E2
330
1F
100
AcDbEntity
  8
0
  6
Continuous
 62
     7
370
    18
100
AcDbLine
 10
240.7984661152
 20
199.2663635366
 30
0.0
 11
242.0073467469
 21
199.9642354706
 31
0.0
  0
ARC
  5
1E3
330
1F
100
AcDbEntity
  8
0
  6
Continuous
 62
     7
370
    18
100
AcDbCircle
 10
234.5411480162
 20
182.2129784481
 30
0.0
 40
19.25749852308956
100
AcDbArc
 50
67.1883230048
 51
67.4182138186
  0
LINE
  5
1E4
330
1F
100
AcDbEntity
  8
0
  6
Continuous
 62
     7
370
    18
100
AcDbLine
 10
241.9360625541
 20
199.9940495166
 30
0.0
 11
240.7271819225
 21
199.2961775825
 31
0.0
  0
LINE
  5
1E5
330
1F
100
AcDbEntity
  8
0
  6
Continuous
 62
     7
370
    18
100
AcDbLine
 10
240.7271819225
 20
199.2961775825
 30
0.0
 11
240.6432606752
 21
199.4722897939
 31
0.0
  0
LINE
  5
1E6
330
1F
100
AcDbEntity
  8
0
  6
Continuous
 62
     7
370
    18
100
AcDbLine
 10
240.6432606752
 20
199.4722897939
 30
0.0
 11
240.5847954661
 21
199.4385385471
 31
0.0
  0
SPLINE
  5
1E7
330
1F
100
AcDbEntity
  8
0
  6
Continuous
 62
     7
370
    18
100
AcDbSpline
210
0.0
220
0.0
230
1.0
 70
     8
 71
     3
 72
     9
 73
     5
 74
     0
 42
0.000000001
 43
0.00000001
 40
0.0
 40
0.0
 40
0.0
 40
0.0
 40
0.499149333981905
 40
1.0
 40
1.0
 40
1.0
 40
1.0
 10
239.5806286468692
 20
200.0993898758885
 30
0.0
 10
239.6361827268938
 20
200.0908816363042
 30
0.0
 10
239.7474802409695
 20
200.0738361571158
 30
0.0
 10
239.8803945910768
 20
200.0846320934608
 30
0.0
 10
239.9469648318514
 20
200.0900392453695
 30
0.0
  0
LINE
  5
1E8
330
1F
100
AcDbEntity
  8
0
  6
Continuous
 62
     7
370
    18
100
AcDbLine
 10
239.9469648319
 20
200.0900392454
 30
0.0
 11
240.1084682343
 21
200.108357293
 31
0.0
  0
LINE
  5
1E9
330
1F
100
AcDbEntity
  8
0
  6
Continuous
 62
     7
370
    18
100
AcDbLine
 10
240.1084682343
 20
200.108357293
 30
0.0
 11
240.1743988777
 21
200.1165017367
 31
0.0
  0
LINE
  5
1EA
330
1F
100
AcDbEntity
  8
0
  6
Continuous
 62
     7
370
    18
100
AcDbLine
 10
240.1743988777
 20
200.1165017367
 30
0.0
 11
240.1740078058
 21
200.082527258
 31
0.0
  0
LINE
  5
1EB
330
1F
100
AcDbEntity
  8
0
  6
Continuous
 62
     7
370
    18
100
AcDbLine
 10
240.1740078058
 20
200.082527258
 30
0.0
 11
240.1789963117
 21
200.0008320378
 31
0.0
  0
SPLINE
  5
1EC
330
1F
100
AcDbEntity
  8
0
  6
Continuous
 62
     7
370
    18
100
AcDbSpline
210
0.0
220
0.0
230
1.0
 70
     8
 71
     3
 72
     9
 73
     5
 74
     0
 42
0.000000001
 43
0.00000001
 40
0.0
 40
0.0
 40
0.0
 40
0.0
 40
0.5007223697475861
 40
1.0
 40
1.0
 40
1.0
 40
1.0
 10
240.1789963117368
 20
200.000832037759
 30
0.0
 10
240.1850789702996
 20
199.9757879816335
 30
0.0
 10
240.1972267370665
 20
199.9257721292601
 30
0.0
 10
240.2523664138382
 20
199.8865949520195
 30
0.0
 10
240.2798964209896
 20
199.8670346638069
 30
0.0
  0
LINE
  5
1ED
330
1F
100
AcDbEntity
  8
0
  6
Continuous
 62
     7
370
    18
100
AcDbLine
 10
240.279896421
 20
199.8670346638
 30
0.0
 11
240.3545722541
 21
199.8383475341
 31
0.0
  0
SPLINE
  5
1EE
330
1F
100
AcDbEntity
  8
0
  6
Continuous
 62
     7
370
    18
100
AcDbSpline
210
0.0
220
0.0
230
1.0
 70
     8
 71
     3
 72
     9
 73
     5
 74
     0
 42
0.000000001
 43
0.00000001
 40
0.0
 40
0.0
 40
0.0
 40
0.0
 40
0.5042542220904869
 40
1.0
 40
1.0
 40
1.0
 40
1.0
 10
240.3545722541424
 20
199.8383475340915
 30
0.0
 10
240.4012351631259
 20
199.8280756326045
 30
0.0
 10
240.4937736227743
 20
199.8077051507386
 30
0.0
 10
240.6067758999702
 20
199.8153458975831
 30
0.0
 10
240.6627963017841
 20
199.8191337655714
 30
0.0
  0
SPLINE
  5
1EF
330
1F
100
AcDbEntity
  8
0
  6
Continuous
 62
     7
370
    18
100
AcDbSpline
210
0.0
220
0.0
230
1.0
 70
     8
 71
     3
 72
     9
 73
     5
 74
     0
 42
0.000000001
 43
0.00000001
 40
0.0
 40
0.0
 40
0.0
 40
0.0
 40
0.4968966081417868
 40
1.0
 40
1.0
 40
1.0
 40
1.0
 10
240.6627963017841
 20
199.8191337655714
 30
0.0
 10
240.7139888040736
 20
199.8268766847234
 30
0.0
 10
240.8170132591628
 20
199.8424592405813
 30
0.0
 10
240.9027693813352
 20
199.8791961619851
 30
0.0
 10
240.9459135772727
 20
199.8976786317498
 30
0.0
  0
LINE
  5
1F0
330
1F
100
AcDbEntity
  8
0
  6
Continuous
 62
     7
370
    18
100
AcDbLine
 10
240.9459135773
 20
199.8976786317
 30
0.0
 11
241.0292284296
 21
199.9479787798
 31
0.0
  0
SPLINE
  5
1F1
330
1F
100
AcDbEntity
  8
0
  6
Continuous
 62
     7
370
    18
100
AcDbSpline
210
0.0
220
0.0
230
1.0
 70
     8
 71
     3
 72
     9
 73
     5
 74
     0
 42
0.000000001
 43
0.00000001
 40
0.0
 40
0.0
 40
0.0
 40
0.0
 40
0.5003984924667658
 40
1.0
 40
1.0
 40
1.0
 40
1.0
 10
241.0292284296296
 20
199.947978779813
 30
0.0
 10
241.0574745507908
 20
199.9716636948618
 30
0.0
 10
241.1139218055017
 20
200.018995801983
 30
0.0
 10
241.1213752067812
 20
200.068944327598
 30
0.0
 10
241.1250989372967
 20
200.0938986862944
 30
0.0
  0
SPLINE
  5
1F2
330
1F
100
AcDbEntity
  8
0
  6
Continuous
 62
     7
370
    18
100
AcDbSpline
210
0.0
220
0.0
230
1.0
 70
     8
 71
     3
 72
     9
 73
     5
 74
     0
 42
0.000000001
 43
0.00000001
 40
0.0
 40
0.0
 40
0.0
 40
0.0
 40
0.4852848230911707
 40
1.0
 40
1.0
 40
1.0
 40
1.0
 10
241.1250989372967
 20
200.0938986862944
 30
0.0
 10
241.1200841785325
 20
200.1137715477382
 30
0.0
 10
241.1097505383163
 20
200.15472247078
 30
0.0
 10
241.0620488606376
 20
200.1847921142058
 30
0.0
 10
241.0374960831723
 20
200.2002694160414
 30
0.0
  0
LINE
  5
1F3
330
1F
100
AcDbEntity
  8
0
  6
Continuous
 62
     7
370
    18
100
AcDbLine
 10
241.0374960832
 20
200.200269416
 30
0.0
 11
240.9584810113
 21
200.2306224237
 31
0.0
  0
SPLINE
  5
1F4
330
1F
100
AcDbEntity
  8
0
  6
Continuous
 62
     7
370
    18
100
AcDbSpline
210
0.0
220
0.0
230
1.0
 70
     8
 71
     3
 72
     9
 73
     5
 74
     0
 42
0.000000001
 43
0.00000001
 40
0.0
 40
0.0
 40
0.0
 40
0.0
 40
0.4991205128932914
 40
1.0
 40
1.0
 40
1.0
 40
1.0
 10
240.9584810113267
 20
200.2306224236643
 30
0.0
 10
240.9021456797423
 20
200.2416089150925
 30
0.0
 10
240.7892764825661
 20
200.2636206159632
 30
0.0
 10
240.6544850179295
 20
200.25408222712
 30
0.0
 10
240.586970738256
 20
200.2493046438084
 30
0.0
  0
LINE
  5
1F5
330
1F
100
AcDbEntity
  8
0
  6
Continuous
 62
     7
370
    18
100
AcDbLine
 10
240.5869707383
 20
200.2493046438
 30
0.0
 11
240.4263911926
 21
200.2319802961
 31
0.0
  0
LINE
  5
1F6
330
1F
100
AcDbEntity
  8
0
  6
Continuous
 62
     7
370
    18
100
AcDbLine
 10
240.4263911926
 20
200.2319802961
 30
0.0
 11
240.3604602295
 21
200.2239126688
 31
0.0
  0
LINE
  5
1F7
330
1F
100
AcDbEntity
  8
0
  6
Continuous
 62
     7
370
    18
100
AcDbLine
 10
240.3604602295
 20
200.2239126688
 30
0.0
 11
240.3608402635
 21
200.2588700495
 31
0.0
  0
LINE
  5
1F8
330
1F
100
AcDbEntity
  8
0
  6
Continuous
 62
     7
370
    18
100
AcDbLine
 10
240.3608402635
 20
200.2588700495
 30
0.0
 11
240.3564907882
 21
200.3362863547
 31
0.0
  0
SPLINE
  5
1F9
330
1F
100
AcDbEntity
  8
0
  6
Continuous
 62
     7
370
    18
100
AcDbSpline
210
0.0
220
0.0
230
1.0
 70
     8
 71
     3
 72
     9
 73
     5
 74
     0
 42
0.000000001
 43
0.00000001
 40
0.0
 40
0.0
 40
0.0
 40
0.0
 40
0.5006809585910644
 40
1.0
 40
1.0
 40
1.0
 40
1.0
 10
240.3564907882147
 20
200.336286354731
 30
0.0
 10
240.3507502770439
 20
200.3608226819454
 30
0.0
 10
240.3392848696375
 20
200.4098285943801
 30
0.0
 10
240.2852066195476
 20
200.4461256928219
 30
0.0
 10
240.2582043195516
 20
200.4642495252218
 30
0.0
  0
LINE
  5
1FA
330
1F
100
AcDbEntity
  8
0
  6
Continuous
 62
     7
370
    18
100
AcDbLine
 10
240.2582043196
 20
200.4642495252
 30
0.0
 11
240.2124532884
 21
200.4808403646
 31
0.0
  0
LINE
  5
1FB
330
1F
100
AcDbEntity
  8
0
  6
Continuous
 62
     7
370
    18
100
AcDbLine
 10
240.2124532884
 20
200.4808403646
 30
0.0
 11
240.1607375209
 21
200.4944184106
 31
0.0
  0
SPLINE
  5
1FC
330
1F
100
AcDbEntity
  8
0
  6
Continuous
 62
     7
370
    18
100
AcDbSpline
210
0.0
220
0.0
230
1.0
 70
     8
 71
     3
 72
     9
 73
     5
 74
     0
 42
0.000000001
 43
0.00000001
 40
0.0
 40
0.0
 40
0.0
 40
0.0
 40
0.5001378865576374
 40
1.0
 40
1.0
 40
1.0
 40
1.0
 10
240.1607375208906
 20
200.4944184105896
 30
0.0
 10
240.1173604169366
 20
200.5003015855725
 30
0.0
 10
240.0306301269109
 20
200.5120646915899
 30
0.0
 10
239.9277764434114
 20
200.4996835580948
 30
0.0
 10
239.8763637838019
 20
200.4934946985391
 30
0.0
  0
SPLINE
  5
1FD
330
1F
100
AcDbEntity
  8
0
  6
Continuous
 62
     7
370
    18
100
AcDbSpline
210
0.0
220
0.0
230
1.0
 70
     8
 71
     3
 72
     9
 73
     5
 74
     0
 42
0.000000001
 43
0.00000001
 40
0.0
 40
0.0
 40
0.0
 40
0.0
 40
0.4998745998195889
 40
1.0
 40
1.0
 40
1.0
 40
1.0
 10
239.8763637838019
 20
200.4934946985391
 30
0.0
 10
239.8291009381472
 20
200.4844920922999
 30
0.0
 10
239.7345515338129
 20
200.466482362975
 30
0.0
 10
239.6534331971136
 20
200.4324197705481
 30
0.0
 10
239.6128638565099
 20
200.4153842028794
 30
0.0
  0
LINE
  5
1FE
330
1F
100
AcDbEntity
  8
0
  6
Continuous
 62
     7
370
    18
100
AcDbLine
 10
239.6128638565
 20
200.4153842029
 30
0.0
 11
239.524881396
 21
200.3656066627
 31
0.0
  0
LINE
  5
1FF
330
1F
100
AcDbEntity
  8
0
  6
Continuous
 62
     7
370
    18
100
AcDbLine
 10
239.524881396
 20
200.3656066627
 30
0.0
 11
239.4400735188
 21
200.2889184646
 31
0.0
  0
LINE
  5
200
330
1F
100
AcDbEntity
  8
0
  6
Continuous
 62
     7
370
    18
100
AcDbLine
 10
239.4400735188
 20
200.2889184646
 30
0.0
 11
239.4150161499
 21
200.2261043542
 31
0.0
  0
SPLINE
  5
201
330
1F
100
AcDbEntity
  8
0
  6
Continuous
 62
     7
370
    18
100
AcDbSpline
210
0.0
220
0.0
230
1.0
 70
     8
 71
     3
 72
     9
 73
     5
 74
     0
 42
0.000000001
 43
0.00000001
 40
0.0
 40
0.0
 40
0.0
 40
0.0
 40
0.4909862436184889
 40
1.0
 40
1.0
 40
1.0
 40
1.0
 10
239.4150161498867
 20
200.2261043542328
 30
0.0
 10
239.4188122817961
 20
200.2058064657941
 30
0.0
 10
239.4265439279647
 20
200.1644654125518
 30
0.0
 10
239.4806264768726
 20
200.1364664408682
 30
0.0
 10
239.508155238247
 20
200.1222145791166
 30
0.0
  0
LINE
  5
202
330
1F
100
AcDbEntity
  8
0
  6
Continuous
 62
     7
370
    18
100
AcDbLine
 10
239.5081552382
 20
200.1222145791
 30
0.0
 11
239.5806286469
 21
200.0993898759
 31
0.0
  0
LWPOLYLINE
  5
203
330
1F
100
AcDbEntity
  8
0
  6
Continuous
 62
     7
370
    18
100
AcDbPolyline
 90
       66
 70
   128
 43
0.0
 10
262.5821088359
 20
167.7650128857
 10
262.5701264509
 20
168.5294019173
 10
262.534195284
 20
169.3066055893
 10
262.4743632783
 20
170.0955868764
 10
262.3907102678
 20
170.8952930384
 10
262.283347871
 20
171.7046570245
 10
262.1524193419
 20
172.5225988979
 10
261.9980993788
 20
173.3480272761
 10
261.8205938915
 20
174.1798407872
 10
261.620139726
 20
175.0169295398
 10
261.397004349
 20
175.8581766036
 10
261.1514854908
 20
176.7024594999
 10
260.8839107479
 20
177.5486516994
 10
260.5946371462
 20
178.3956241249
 10
260.2840506645
 20
179.2422466585
 10
259.9525657192
 20
180.087389649
 10
259.6006246119
 20
180.9299254192
 10
259.2286969386
 20
181.7687297709
 10
258.8372789638
 20
182.6026834848
 10
258.4268929576
 20
183.4306738138
 10
257.9980864995
 20
184.2515959675
 10
257.5514317473
 20
185.064354587
 10
257.087524674
 20
185.8678652057
 10
256.6069842721
 20
186.6610556969
 10
256.1104517284
 20
187.4428677037
 10
255.5985895679
 20
188.212258052
 10
255.0720807698
 20
188.9682001417
 10
254.5316278567
 20
189.7096853168
 10
253.9779519565
 20
190.4357242112
 10
253.4117918409
 20
191.1453480688
 10
252.8339029391
 20
191.8376100363
 10
252.2450563302
 20
192.5115864261
 10
251.6460377141
 20
193.1663779495
 10
251.0376463633
 20
193.8011109159
 10
250.4206940564
 20
194.4149383992
 10
249.7960039949
 20
195.0070413672
 10
249.1644097047
 20
195.5766297751
 10
248.5267539241
 20
196.1229436191
 10
247.8838874794
 20
196.6452539511
 10
247.2366681493
 20
197.1428638505
 10
246.5859595208
 20
197.6151093548
 10
245.9326298363
 20
198.0613603454
 10
245.277550836
 20
198.4810213881
 10
244.6215965938
 20
198.8735325278
 10
243.9656423515
 20
199.2383700355
 10
243.3105633512
 20
199.5750471076
 10
242.6572336668
 20
199.8831145145
 10
242.0065250382
 20
200.162161201
 10
241.3593057081
 20
200.4118148341
 10
240.7164392634
 20
200.6317423003
 10
240.0787834829
 20
200.8216501495
 10
239.4471891927
 20
200.9812849872
 10
238.8224991311
 20
201.1104338119
 10
238.2055468242
 20
201.2089243001
 10
237.5971554734
 20
201.2766250356
 10
236.9981368573
 20
201.3134456849
 10
236.4092902484
 20
201.3193371183
 10
235.8314013466
 20
201.2942914748
 10
235.265241231
 20
201.2383421728
 10
234.7115653308
 20
201.1515638657
 10
234.1711124177
 20
201.0340723421
 10
233.6446036196
 20
200.8860243713
 10
233.1327414591
 20
200.7076174941
 10
232.6362089154
 20
200.4990897595
 10
232.1556685135
 20
200.2607194066
 10
231.9226286893
 20
200.1310370103
  0
LWPOLYLINE
  5
204
330
1F
100
AcDbEntity
  8
0
  6
Continuous
 62
     7
370
    18
100
AcDbPolyline
 90
       23
 70
   128
 43
0.0
 10
257.3205644982
 20
156.1357548014
 10
257.5514317473
 20
156.2739673178
 10
257.9980864995
 20
156.5710293373
 10
258.4268929576
 20
156.8968620928
 10
258.8372789638
 20
157.2510308246
 10
259.2286969386
 20
157.6330629642
 10
259.6006246119
 20
158.0424487649
 10
259.9525657192
 20
158.4786419818
 10
260.2840506645
 20
158.9410606009
 10
260.5946371462
 20
159.4290876156
 10
260.8839107479
 20
159.9420718499
 10
261.1514854908
 20
160.4793288271
 10
261.397004349
 20
161.0401416835
 10
261.620139726
 20
161.6237621248
 10
261.8205938915
 20
162.2294114242
 10
261.9980993788
 20
162.856281462
 10
262.1524193419
 20
163.5035358034
 10
262.283347871
 20
164.1703108147
 10
262.3907102678
 20
164.8557168161
 10
262.4743632783
 20
165.5588392679
 10
262.534195284
 20
166.2787399917
 10
262.5701264509
 20
167.0144584214
 10
262.5821088359
 20
167.7650128857
  0
ARC
  5
205
330
1F
100
AcDbEntity
  8
0
  6
Continuous
 62
     7
370
    18
100
AcDbCircle
 10
224.0090791451
 20
166.2340428676
 30
0.0
 40
38.61203302769354
100
AcDbArc
 50
2.5755129783
 51
57.419110489
  0
ARC
  5
206
330
1F
100
AcDbEntity
  8
0
  6
Continuous
 62
     7
370
    18
100
AcDbCircle
 10
229.0054015603
 20
173.3309874468
 30
0.0
 40
29.16959689716611
100
AcDbArc
 50
53.0143249285
 51
53.7561316606
  0
LINE
  5
207
330
1F
100
AcDbEntity
  8
0
  6
Continuous
 62
     7
370
    18
100
AcDbLine
 10
246.2511480981
 20
196.8564972074
 30
0.0
 11
246.0420108989
 21
196.6172395893
 31
0.0
  0
LINE
  5
208
330
1F
100
AcDbEntity
  8
0
  6
Continuous
 62
     7
370
    18
100
AcDbLine
 10
246.0420108989
 20
196.6172395893
 30
0.0
 11
245.8793218061
 21
196.4425104613
 31
0.0
  0
LINE
  5
209
330
1F
100
AcDbEntity
  8
0
  6
Continuous
 62
     7
370
    18
100
AcDbLine
 10
245.8793218061
 20
196.4425104613
 30
0.0
 11
246.1357312078
 21
196.5242854821
 31
0.0
  0
LINE
  5
20A
330
1F
100
AcDbEntity
  8
0
  6
Continuous
 62
     7
370
    18
100
AcDbLine
 10
246.1357312078
 20
196.5242854821
 30
0.0
 11
246.5542782748
 21
196.6312515912
 31
0.0
  0
LINE
  5
20B
330
1F
100
AcDbEntity
  8
0
  6
Continuous
 62
     7
370
    18
100
AcDbLine
 10
245.6374339861
 20
197.3657676458
 30
0.0
 11
245.1450151223
 21
197.0815002865
 31
0.0
  0
LINE
  5
20C
330
1F
100
AcDbEntity
  8
0
  6
Continuous
 62
     7
370
    18
100
AcDbLine
 10
245.1450151223
 20
197.0815002865
 30
0.0
 11
245.9063912106
 21
197.1780796599
 31
0.0
  0
ARC
  5
20D
330
1F
100
AcDbEntity
  8
0
  6
Continuous
 62
     7
370
    18
100
AcDbCircle
 10
229.8933736127
 20
174.5179484583
 30
0.0
 40
27.74704089929265
100
AcDbArc
 50
54.7526640416
 51
55.4299054591
  0
ARC
  5
20E
330
1F
100
AcDbEntity
  8
0
  6
Continuous
 62
     7
370
    18
100
AcDbCircle
 10
233.2120947419
 20
180.2028701659
 30
0.0
 40
21.10058816389757
100
AcDbArc
 50
63.7435045396
 51
64.664057843
  0
LINE
  5
20F
330
1F
100
AcDbEntity
  8
0
  6
Continuous
 62
     7
370
    18
100
AcDbLine
 10
242.2415622094
 20
199.2738831991
 30
0.0
 11
242.0329276885
 21
199.0578186887
 31
0.0
  0
LINE
  5
210
330
1F
100
AcDbEntity
  8
0
  6
Continuous
 62
     7
370
    18
100
AcDbLine
 10
242.0329276885
 20
199.0578186887
 30
0.0
 11
241.8706390893
 21
198.8988160674
 31
0.0
  0
LINE
  5
211
330
1F
100
AcDbEntity
  8
0
  6
Continuous
 62
     7
370
    18
100
AcDbLine
 10
241.8706390893
 20
198.8988160674
 30
0.0
 11
242.127411447
 21
198.9934314355
 31
0.0
  0
LINE
  5
212
330
1F
100
AcDbEntity
  8
0
  6
Continuous
 62
     7
370
    18
100
AcDbLine
 10
242.127411447
 20
198.9934314355
 30
0.0
 11
242.5467916056
 21
199.1263543938
 31
0.0
  0
SPLINE
  5
213
330
1F
100
AcDbEntity
  8
0
  6
Continuous
 62
     7
370
    18
100
AcDbSpline
210
0.0
220
0.0
230
1.0
 70
     8
 71
     3
 72
     9
 73
     5
 74
     0
 42
0.000000001
 43
0.00000001
 40
0.0
 40
0.0
 40
0.0
 40
0.0
 40
0.4990601532506213
 40
1.0
 40
1.0
 40
1.0
 40
1.0
 10
239.7058698261573
 20
200.1796037180266
 30
0.0
 10
239.7428489398831
 20
200.1739510648624
 30
0.0
 10
239.8169464479389
 20
200.1626244680036
 30
0.0
 10
239.9051571799557
 20
200.1689364464898
 30
0.0
 10
239.9493454505338
 20
200.1720983680253
 30
0.0
  0
LINE
  5
214
330
1F
100
AcDbEntity
  8
0
  6
Continuous
 62
     7
370
    18
100
AcDbLine
 10
239.9493454505
 20
200.172098368
 30
0.0
 11
240.1067434944
 21
200.1898799795
 31
0.0
  0
LINE
  5
215
330
1F
100
AcDbEntity
  8
0
  6
Continuous
 62
     7
370
    18
100
AcDbLine
 10
240.1067434944
 20
200.1898799795
 30
0.0
 11
240.1785342956
 21
200.1991940713
 31
0.0
  0
LINE
  5
216
330
1F
100
AcDbEntity
  8
0
  6
Continuous
 62
     7
370
    18
100
AcDbLine
 10
240.1785342956
 20
200.1991940713
 30
0.0
 11
240.1786051705
 21
200.2287231982
 31
0.0
  0
LINE
  5
217
330
1F
100
AcDbEntity
  8
0
  6
Continuous
 62
     7
370
    18
100
AcDbLine
 10
240.1786051705
 20
200.2287231982
 30
0.0
 11
240.1734997288
 21
200.3109499524
 31
0.0
  0
SPLINE
  5
218
330
1F
100
AcDbEntity
  8
0
  6
Continuous
 62
     7
370
    18
100
AcDbSpline
210
0.0
220
0.0
230
1.0
 70
     8
 71
     3
 72
    10
 73
     6
 74
     0
 42
0.000000001
 43
0.00000001
 40
0.0
 40
0.0
 40
0.0
 40
0.0
 40
0.4996987121967367
 40
0.7520488438621408
 40
1.0
 40
1.0
 40
1.0
 40
1.0
 10
240.1734997287954
 20
200.3109499523796
 30
0.0
 10
240.1644091466247
 20
200.3344305907252
 30
0.0
 10
240.1507277789432
 20
200.369769058666
 30
0.0
 10
240.0892713909972
 20
200.4033567595929
 30
0.0
 10
240.0440210144447
 20
200.4110869371694
 30
0.0
 10
240.0215947615939
 20
200.4149180415739
 30
0.0
  0
SPLINE
  5
219
330
1F
100
AcDbEntity
  8
0
  6
Continuous
 62
     7
370
    18
100
AcDbSpline
210
0.0
220
0.0
230
1.0
 70
     8
 71
     3
 72
     9
 73
     5
 74
     0
 42
0.000000001
 43
0.00000001
 40
0.0
 40
0.0
 40
0.0
 40
0.0
 40
0.499832859794402
 40
1.0
 40
1.0
 40
1.0
 40
1.0
 10
240.0215947615939
 20
200.4149180415739
 30
0.0
 10
240.0010349639737
 20
200.4164194506601
 30
0.0
 10
239.9599016186617
 20
200.4194232729517
 30
0.0
 10
239.9139894712799
 20
200.4137863561048
 30
0.0
 10
239.8910257238232
 20
200.4109669555259
 30
0.0
  0
SPLINE
  5
21A
330
1F
100
AcDbEntity
  8
0
  6
Continuous
 62
     7
370
    18
100
AcDbSpline
210
0.0
220
0.0
230
1.0
 70
     8
 71
     3
 72
     9
 73
     5
 74
     0
 42
0.000000001
 43
0.00000001
 40
0.0
 40
0.0
 40
0.0
 40
0.0
 40
0.4999465409716118
 40
1.0
 40
1.0
 40
1.0
 40
1.0
 10
239.8910257238232
 20
200.4109669555259
 30
0.0
 10
239.8651330637061
 20
200.4065110262397
 30
0.0
 10
239.8133422060938
 20
200.3975982147267
 30
0.0
 10
239.7674431667762
 20
200.380055746561
 30
0.0
 10
239.7444911933993
 20
200.3712835746748
 30
0.0
  0
LINE
  5
21B
330
1F
100
AcDbEntity
  8
0
  6
Continuous
 62
     7
370
    18
100
AcDbLine
 10
239.7444911934
 20
200.3712835747
 30
0.0
 11
239.6762635869
 21
200.3343748422
 31
0.0
  0
SPLINE
  5
21C
330
1F
100
AcDbEntity
  8
0
  6
Continuous
 62
     7
370
    18
100
AcDbSpline
210
0.0
220
0.0
230
1.0
 70
     8
 71
     3
 72
    10
 73
     6
 74
     0
 42
0.000000001
 43
0.00000001
 40
0.0
 40
0.0
 40
0.0
 40
0.0
 40
0.5110681375310815
 40
0.7536217871006546
 40
1.0
 40
1.0
 40
1.0
 40
1.0
 10
239.6762635868991
 20
200.3343748422348
 30
0.0
 10
239.6565006254364
 20
200.3183323609986
 30
0.0
 10
239.62735813495
 20
200.2946760958338
 30
0.0
 10
239.6132125999462
 20
200.2624369180172
 30
0.0
 10
239.614607701825
 20
200.2477947794764
 30
0.0
 10
239.6153107092052
 20
200.2404164427312
 30
0.0
  0
SPLINE
  5
21D
330
1F
100
AcDbEntity
  8
0
  6
Continuous
 62
     7
370
    18
100
AcDbSpline
210
0.0
220
0.0
230
1.0
 70
     8
 71
     3
 72
     9
 73
     5
 74
     0
 42
0.000000001
 43
0.00000001
 40
0.0
 40
0.0
 40
0.0
 40
0.0
 40
0.4931389177679995
 40
1.0
 40
1.0
 40
1.0
 40
1.0
 10
239.6153107092052
 20
200.2404164427312
 30
0.0
 10
239.6198401538799
 20
200.2306705076514
 30
0.0
 10
239.6290250803
 20
200.2109074455025
 30
0.0
 10
239.657044768967
 20
200.1972550463761
 30
0.0
 10
239.6712468586886
 20
200.1903351765797
 30
0.0
  0
LINE
  5
21E
330
1F
100
AcDbEntity
  8
0
  6
Continuous
 62
     7
370
    18
100
AcDbLine
 10
239.6712468587
 20
200.1903351766
 30
0.0
 11
239.7058698262
 21
200.179603718
 31
0.0
  0
LINE
  5
21F
330
1F
100
AcDbEntity
  8
0
  6
Continuous
 62
     7
370
    18
100
AcDbLine
 10
240.4604704215
 20
199.9232964013
 30
0.0
 11
240.5270016984
 21
199.9080093432
 31
0.0
  0
SPLINE
  5
220
330
1F
100
AcDbEntity
  8
0
  6
Continuous
 62
     7
370
    18
100
AcDbSpline
210
0.0
220
0.0
230
1.0
 70
     8
 71
     3
 72
    11
 73
     7
 74
     0
 42
0.000000001
 43
0.00000001
 40
0.0
 40
0.0
 40
0.0
 40
0.0
 40
0.250611348606051
 40
0.4999572233858128
 40
0.7482569590043173
 40
1.0
 40
1.0
 40
1.0
 40
1.0
 10
240.5270016983641
 20
199.9080093431529
 30
0.0
 10
240.5558514971837
 20
199.9059132533715
 30
0.0
 10
240.6134054164028
 20
199.901731658113
 30
0.0
 10
240.706982484469
 20
199.9152037497657
 30
0.0
 10
240.7951159766517
 20
199.9400983518991
 30
0.0
 10
240.8389747400736
 20
199.9656114984215
 30
0.0
 10
240.8610551279814
 20
199.9784559137221
 30
0.0
  0
SPLINE
  5
221
330
1F
100
AcDbEntity
  8
0
  6
Continuous
 62
     7
370
    18
100
AcDbSpline
210
0.0
220
0.0
230
1.0
 70
     8
 71
     3
 72
     9
 73
     5
 74
     0
 42
0.000000001
 43
0.00000001
 40
0.0
 40
0.0
 40
0.0
 40
0.0
 40
0.5003908862755055
 40
1.0
 40
1.0
 40
1.0
 40
1.0
 10
240.8610551279814
 20
199.9784559137221
 30
0.0
 10
240.8801955740748
 20
199.9929662779791
 30
0.0
 10
240.9184465626887
 20
200.0219643366068
 30
0.0
 10
240.9250505940174
 20
200.0532293478168
 30
0.0
 10
240.9283500282565
 20
200.068849632358
 30
0.0
  0
LINE
  5
222
330
1F
100
AcDbEntity
  8
0
  6
Continuous
 62
     7
370
    18
100
AcDbLine
 10
240.9283500283
 20
200.0688496324
 30
0.0
 11
240.9167228638
 21
200.104143116
 31
0.0
  0
SPLINE
  5
223
330
1F
100
AcDbEntity
  8
0
  6
Continuous
 62
     7
370
    18
100
AcDbSpline
210
0.0
220
0.0
230
1.0
 70
     8
 71
     3
 72
     9
 73
     5
 74
     0
 42
0.000000001
 43
0.00000001
 40
0.0
 40
0.0
 40
0.0
 40
0.0
 40
0.4997992622110495
 40
1.0
 40
1.0
 40
1.0
 40
1.0
 10
240.9167228637932
 20
200.104143116016
 30
0.0
 10
240.9081960457118
 20
200.1133258088003
 30
0.0
 10
240.8911355601808
 20
200.1316985705839
 30
0.0
 10
240.8589357111153
 20
200.1435672585649
 30
0.0
 10
240.842829322856
 20
200.1495039850496
 30
0.0
  0
SPLINE
  5
224
330
1F
100
AcDbEntity
  8
0
  6
Continuous
 62
     7
370
    18
100
AcDbSpline
210
0.0
220
0.0
230
1.0
 70
     8
 71
     3
 72
     9
 73
     5
 74
     0
 42
0.000000001
 43
0.00000001
 40
0.0
 40
0.0
 40
0.0
 40
0.0
 40
0.4997995457067714
 40
1.0
 40
1.0
 40
1.0
 40
1.0
 10
240.842829322856
 20
200.1495039850496
 30
0.0
 10
240.822600829244
 20
200.1550719455163
 30
0.0
 10
240.7821276159611
 20
200.1662123327268
 30
0.0
 10
240.7326766295963
 20
200.1688265428384
 30
0.0
 10
240.7079412237514
 20
200.1701341719238
 30
0.0
  0
LINE
  5
225
330
1F
100
AcDbEntity
  8
0
  6
Continuous
 62
     7
370
    18
100
AcDbLine
 10
240.7079412238
 20
200.1701341719
 30
0.0
 11
240.5306677906
 21
200.1630890992
 31
0.0
  0
SPLINE
  5
226
330
1F
100
AcDbEntity
  8
0
  6
Continuous
 62
     7
370
    18
100
AcDbSpline
210
0.0
220
0.0
230
1.0
 70
     8
 71
     3
 72
    12
 73
     8
 74
     0
 42
0.000000001
 43
0.00000001
 40
0.0
 40
0.0
 40
0.0
 40
0.0
 40
0.5000516499995316
 40
0.8556479987123231
 40
0.9541356980986716
 40
0.983605396279349
 40
0.9999999999999999
 40
0.9999999999999999
 40
0.9999999999999999
 40
0.9999999999999999
 10
240.5306677906136
 20
200.1630890992064
 30
0.0
 10
240.5009971087277
 20
200.1598654589046
 30
0.0
 10
240.4502270341242
 20
200.1543494259653
 30
0.0
 10
240.3935568016997
 20
200.1473919107476
 30
0.0
 10
240.3648866967742
 20
200.1434296427441
 30
0.0
 10
240.3563099169669
 20
200.1421541557349
 30
0.0
 10
240.3536317392572
 20
200.1415836832056
 30
0.0
 10
240.3526744007516
 20
200.1413797627127
 30
0.0
  0
SPLINE
  5
227
330
1F
100
AcDbEntity
  8
0
  6
Continuous
 62
     7
370
    18
100
AcDbSpline
210
0.0
220
0.0
230
1.0
 70
     8
 71
     3
 72
    12
 73
     8
 74
     0
 42
0.000000001
 43
0.00000001
 40
0.0
 40
0.0
 40
0.0
 40
0.0
 40
0.0043442714189392
 40
0.0387918645380945
 40
0.1350046525201465
 40
0.5000045675351531
 40
1.0
 40
1.0
 40
1.0
 40
1.0
 10
240.3526744007516
 20
200.1413797627127
 30
0.0
 10
240.3526230261898
 20
200.14125233898
 30
0.0
 10
240.352164280672
 20
200.1401145177675
 30
0.0
 10
240.3521559856072
 20
200.1362638745235
 30
0.0
 10
240.3512417897786
 20
200.1221301197019
 30
0.0
 10
240.3515387333461
 20
200.0948397706685
 30
0.0
 10
240.3521966906162
 20
200.0702633404004
 30
0.0
 10
240.3525770113089
 20
200.056057364708
 30
0.0
  0
SPLINE
  5
228
330
1F
100
AcDbEntity
  8
0
  6
Continuous
 62
     7
370
    18
100
AcDbSpline
210
0.0
220
0.0
230
1.0
 70
     8
 71
     3
 72
    10
 73
     6
 74
     0
 42
0.000000001
 43
0.00000001
 40
0.0
 40
0.0
 40
0.0
 40
0.0
 40
0.5001281764259663
 40
0.7611086342725896
 40
1.0
 40
1.0
 40
1.0
 40
1.0
 10
240.3525770113089
 20
200.056057364708
 30
0.0
 10
240.3557895327626
 20
200.0342947396229
 30
0.0
 10
240.3606784351109
 20
200.0011757860477
 30
0.0
 10
240.3884635638742
 20
199.9613452267189
 30
0.0
 10
240.4137772711341
 20
199.9452373253832
 30
0.0
 10
240.4258748245743
 20
199.9375392748678
 30
0.0
  0
LINE
  5
229
330
1F
100
AcDbEntity
  8
0
  6
Continuous
 62
     7
370
    18
100
AcDbLine
 10
240.4258748246
 20
199.9375392749
 30
0.0
 11
240.435837106
 21
199.9322647417
 31
0.0
  0
LINE
  5
22A
330
1F
100
AcDbEntity
  8
0
  6
Continuous
 62
     7
370
    18
100
AcDbLine
 10
240.435837106
 20
199.9322647417
 30
0.0
 11
240.4604704215
 21
199.9232964013
 31
0.0
  0
INSERT
  5
230
330
1F
100
AcDbEntity
  8
0
  6
Continuous
 62
     7
370
     0
100
AcDbBlockReference
  2
SW_NOTE_5
 10
236.4989219898
 20
144.106883813
 30
0.0
  0
ARC
  5
231
330
1F
100
AcDbEntity
  8
0
  6
Continuous
 62
     7
370
    18
100
AcDbCircle
 10
626.1235641005
 20
138.3256371846
 30
0.0
 40
460.08
100
AcDbArc
 50
179.9962296446
 51
183.1298816361
  0
ARC
  5
232
330
1F
100
AcDbEntity
  8
0
  6
Continuous
 62
     7
370
    18
100
AcDbCircle
 10
626.1235641005
 20
138.3861884206
 30
0.0
 40
460.08
100
AcDbArc
 50
176.8701183639
 51
180.0037703554
  0
LINE
  5
233
330
1F
100
AcDbEntity
  8
0
  6
Continuous
 62
     7
370
    18
100
AcDbLine
 10
166.7298513369
 20
163.5063610557
 30
0.0
 11
166.9935650967
 21
163.7559128026
 31
0.0
  0
LINE
  5
234
330
1F
100
AcDbEntity
  8
0
  6
Continuous
 62
     7
370
    18
100
AcDbLine
 10
169.4935650967
 20
163.7559128026
 30
0.0
 11
166.9935650967
 21
163.7559128026
 31
0.0
  0
LINE
  5
235
330
1F
100
AcDbEntity
  8
0
  6
Continuous
 62
     7
370
    18
100
AcDbLine
 10
169.4935650967
 20
163.7559128026
 30
0.0
 11
169.7435650967
 21
163.5059128026
 31
0.0
  0
LINE
  5
236
330
1F
100
AcDbEntity
  8
0
  6
Continuous
 62
     7
370
    18
100
AcDbLine
 10
169.7435650967
 20
113.2059128026
 30
0.0
 11
169.7435650967
 21
163.5059128026
 31
0.0
  0
LINE
  5
237
330
1F
100
AcDbEntity
  8
0
  6
Continuous
 62
     7
370
    18
100
AcDbLine
 10
169.7435650967
 20
113.2059128026
 30
0.0
 11
169.4935650967
 21
112.9559128026
 31
0.0
  0
LINE
  5
238
330
1F
100
AcDbEntity
  8
0
  6
Continuous
 62
     7
370
    18
100
AcDbLine
 10
166.9935650967
 20
112.9559128026
 30
0.0
 11
169.4935650967
 21
112.9559128026
 31
0.0
  0
LINE
  5
239
330
1F
100
AcDbEntity
  8
0
  6
Continuous
 62
     7
370
    18
100
AcDbLine
 10
166.9935650967
 20
112.9559128026
 30
0.0
 11
166.7298513369
 21
113.2054645494
 31
0.0
  0
HATCH
  5
23A
330
1F
100
AcDbEntity
  8
0
  6
Continuous
 62
     7
370
    18
100
AcDbHatch
 10
0.0
 20
0.0
 30
0.0
210
0.0
220
0.0
230
1.0
  2
ANSI31
 70
     0
 71
     0
 91
        1
 92
        0
 93
        9
 72
     1
 10
166.7298513368537
 20
113.2054645493971
 11
166.9935650966581
 21
112.9559128025694
 72
     1
 10
166.9935650966581
 20
112.9559128025694
 11
169.4935650966581
 21
112.9559128025694
 72
     1
 10
169.4935650966581
 20
112.9559128025694
 11
169.7435650966581
 21
113.2059128025694
 72
     1
 10
169.7435650966581
 20
113.2059128025694
 11
169.7435650966581
 21
163.5059128025694
 72
     1
 10
169.7435650966581
 20
163.5059128025694
 11
169.4935650966581
 21
163.7559128025694
 72
     1
 10
169.4935650966581
 20
163.7559128025694
 11
166.9935650966581
 21
163.7559128025694
 72
     1
 10
166.9935650966581
 20
163.7559128025694
 11
166.7298513368536
 21
163.5063610557423
 72
     2
 10
626.1235641005128
 20
138.3861884205734
 40
460.08
 50
176.8701183639031
 51
180.0037703554499
 73
     1
 72
     2
 10
626.1235641005128
 20
138.3256371845654
 40
460.08
 50
179.9962296445509
 51
183.1298816360977
 73
     1
 97
        0
 75
     0
 76
     1
 52
0.0
 41
1.0
 77
     0
 78
     1
 53
45.0
 43
0.0
 44
0.0
 45
-2.245064030267288
 46
2.245064030267288
 79
     0
 98
        1
 10
0.0
 20
0.0
  0
DIMENSION
  5
23B
330
1F
100
AcDbEntity
  8
0
  6
Continuous
 62
     7
370
    18
100
AcDbDimension
  2
_D_1
 10
169.7435650967
 20
172.2572977672
 30
0.0
 11
187.7713449896
 21
172.2572977672
 31
0.0
 70
   160
  1
<>\PREF
 71
     2
 42
-1.0
  3
SLDDIMSTYLE1
100
AcDbAlignedDimension
 13
166.7298513369
 23
163.5063610557
 33
0.0
 14
169.7435650967
 24
163.5059128026
 34
0.0
100
AcDbRotatedDimension
  0
DIMENSION
  5
24F
330
1F
100
AcDbEntity
  8
0
  6
Continuous
 62
     7
370
    18
100
AcDbDimension
  2
_D_2
 10
626.1235641005
 20
138.3861884206
 30
0.0
 11
137.7454056379
 21
158.5703102565
 31
0.0
 70
   164
  1
<>
 71
     1
 42
-1.0
  3
SLDDIMSTYLE2
100
AcDbRadialDimension
 15
166.4539645537
 25
157.8146637195
 35
0.0
 40
0.0
  0
DIMENSION
  5
25F
330
1F
100
AcDbEntity
  8
0
  6
Continuous
 62
     7
370
    18
100
AcDbDimension
  2
_D_3
 10
169.7435650967
 20
107.0002049738
 30
0.0
 11
187.7713449896
 21
107.0002049738
 31
0.0
 70
   160
  1
<>
 71
     2
 42
-1.0
  3
SLDDIMSTYLE3
100
AcDbAlignedDimension
 13
166.0435641005
 23
138.3861884206
 33
0.0
 14
169.7435650967
 24
113.2059128026
 34
0.0
100
AcDbRotatedDimension
  0
MTEXT
  5
274
330
1F
100
AcDbEntity
  8
0
  6
Continuous
 62
     7
370
     0
100
AcDbMText
 10
167.8235387749
 20
89.7427620676
 30
0.0
 40
2.1166666667
 41
0.0
 71
     2
 72
     1
  1
SECTION A-A
  7
SLDTEXTSTYLE0
 73
     1
 44
1.0
  0
ENDSEC
  0
SECTION
  2
OBJECTS
  0
DICTIONARY
  5
C
330
0
100
AcDbDictionary
281
     1
  3
ACAD_GROUP
350
D
  3
ACAD_LAYOUT
350
1A
  3
ACAD_MLINESTYLE
350
17
  3
ACAD_PLOTSETTINGS
350
19
  3
ACAD_PLOTSTYLENAME
350
E
  3
ACAD_SCALELIST
350
47
  0
DICTIONARY
  5
D
102
{ACAD_REACTORS
330
C
102
}
330
C
100
AcDbDictionary
281
     1
  0
DICTIONARY
  5
1A
102
{ACAD_REACTORS
330
C
102
}
330
C
100
AcDbDictionary
281
     1
  3
Layout1
350
1E
  3
Layout2
350
26
  3
Model
350
22
  0
DICTIONARY
  5
17
102
{ACAD_REACTORS
330
C
102
}
330
C
100
AcDbDictionary
281
     1
  3
Standard
350
18
  0
DICTIONARY
  5
19
102
{ACAD_REACTORS
330
C
102
}
330
C
100
AcDbDictionary
281
     1
  0
ACDBDICTIONARYWDFLT
  5
E
102
{ACAD_REACTORS
330
C
102
}
330
C
100
AcDbDictionary
281
     1
  3
Normal
350
F
100
AcDbDictionaryWithDefault
340
F
  0
DICTIONARY
  5
47
102
{ACAD_REACTORS
330
C
102
}
330
C
100
AcDbDictionary
281
     1
  3
A0
350
48
  3
A1
350
49
  3
A2
350
4A
  3
A3
350
4B
  3
A4
350
4C
  3
A5
350
4D
  3
A6
350
4E
  3
A7
350
4F
  3
A8
350
50
  3
A9
350
51
  3
B0
350
52
  3
B1
350
53
  3
B2
350
54
  3
B3
350
55
  3
B4
350
56
  3
B5
350
57
  3
B6
350
58
  3
B7
350
59
  3
B8
350
5A
  3
B9
350
5B
  3
C0
350
5C
  3
C1
350
5D
  3
C2
350
5E
  3
C3
350
5F
  3
C4
350
60
  3
C5
350
61
  3
C6
350
62
  3
C7
350
63
  3
C8
350
64
  3
C9
350
65
  3
D0
350
66
  3
D1
350
67
  3
D2
350
68
  0
LAYOUT
  5
1E
102
{ACAD_REACTORS
330
1A
102
}
330
1A
100
AcDbPlotSettings
  1

  2
none_device
  4

  6

 40
0.0
 41
0.0
 42
0.0
 43
0.0
 44
0.0
 45
0.0
 46
0.0
 47
0.0
 48
0.0
 49
0.0
140
0.0
141
0.0
142
1.0
143
1.0
 70
   688
 72
     1
 73
     0
 74
     5
  7

 75
    16
147
1.0
148
0.0
149
0.0
100
AcDbLayout
  1
Layout1
 70
     1
 71
     1
 10
0.0
 20
0.0
 11
420.0
 21
297.0
 12
0.0
 22
0.0
 32
0.0
 14
1.0000000000E+20
 24
1.0000000000E+20
 34
1.0000000000E+20
 15
-1.0000000000E+20
 25
-1.0000000000E+20
 35
-1.0000000000E+20
146
0.0
 13
0.0
 23
0.0
 33
0.0
 16
1.0
 26
0.0
 36
0.0
 17
0.0
 27
1.0
 37
0.0
 76
     0
330
1B
  0
LAYOUT
  5
26
102
{ACAD_REACTORS
330
1A
102
}
330
1A
100
AcDbPlotSettings
  1

  2
none_device
  4

  6

 40
0.0
 41
0.0
 42
0.0
 43
0.0
 44
0.0
 45
0.0
 46
0.0
 47
0.0
 48
0.0
 49
0.0
140
0.0
141
0.0
142
1.0
143
1.0
 70
   688
 72
     1
 73
     0
 74
     5
  7

 75
    16
147
1.0
148
0.0
149
0.0
100
AcDbLayout
  1
Layout2
 70
     1
 71
     2
 10
0.0
 20
0.0
 11
0.0
 21
0.0
 12
0.0
 22
0.0
 32
0.0
 14
0.0
 24
0.0
 34
0.0
 15
0.0
 25
0.0
 35
0.0
146
0.0
 13
0.0
 23
0.0
 33
0.0
 16
1.0
 26
0.0
 36
0.0
 17
0.0
 27
1.0
 37
0.0
 76
     0
330
23
  0
LAYOUT
  5
22
102
{ACAD_REACTORS
330
1A
102
}
330
1A
100
AcDbPlotSettings
  1

  2
none_device
  4
Letter_(8.50_x_11.00_Inches)
  6

 40
6.35
 41
6.35
 42
6.35000508
 43
6.35000508
 44
215.9
 45
279.4
 46
0.0
 47
0.0
 48
0.0
 49
0.0
140
0.0
141
0.0
142
1.0
143
1.0
 70
  1712
 72
     1
 73
     0
 74
     0
  7

 75
     0
147
1.0
148
0.0
149
0.0
100
AcDbLayout
  1
Model
 70
     1
 71
     0
 10
0.0
 20
0.0
 11
279.4
 21
215.9
 12
0.0
 22
0.0
 32
0.0
 14
0.0
 24
0.0
 34
0.0
 15
279.4
 25
215.9
 35
0.0
146
0.0
 13
0.0
 23
0.0
 33
0.0
 16
1.0
 26
0.0
 36
0.0
 17
0.0
 27
1.0
 37
0.0
 76
     0
330
1F
331
29
  0
MLINESTYLE
  5
18
102
{ACAD_REACTORS
330
17
102
}
330
17
100
AcDbMlineStyle
  2
Standard
 70
     0
  3

 62
   256
 51
90.0
 52
90.0
 71
     2
 49
0.5
 62
   256
  6
BYLAYER
 49
-0.5
 62
   256
  6
BYLAYER
  0
ACDBPLACEHOLDER
  5
F
102
{ACAD_REACTORS
330
E
102
}
330
E
  0
SCALE
  5
48
102
{ACAD_REACTORS
330
47
102
}
330
47
100
AcDbScale
 70
     0
300
1:1
140
1.0
141
1.0
290
     1
  0
SCALE
  5
49
102
{ACAD_REACTORS
330
47
102
}
330
47
100
AcDbScale
 70
     0
300
1:2
140
1.0
141
2.0
290
     0
  0
SCALE
  5
4A
102
{ACAD_REACTORS
330
47
102
}
330
47
100
AcDbScale
 70
     0
300
1:4
140
1.0
141
4.0
290
     0
  0
SCALE
  5
4B
102
{ACAD_REACTORS
330
47
102
}
330
47
100
AcDbScale
 70
     0
300
1:5
140
1.0
141
5.0
290
     0
  0
SCALE
  5
4C
102
{ACAD_REACTORS
330
47
102
}
330
47
100
AcDbScale
 70
     0
300
1:8
140
1.0
141
8.0
290
     0
  0
SCALE
  5
4D
102
{ACAD_REACTORS
330
47
102
}
330
47
100
AcDbScale
 70
     0
300
1:10
140
1.0
141
10.0
290
     0
  0
SCALE
  5
4E
102
{ACAD_REACTORS
330
47
102
}
330
47
100
AcDbScale
 70
     0
300
1:16
140
1.0
141
16.0
290
     0
  0
SCALE
  5
4F
102
{ACAD_REACTORS
330
47
102
}
330
47
100
AcDbScale
 70
     0
300
1:20
140
1.0
141
20.0
290
     0
  0
SCALE
  5
50
102
{ACAD_REACTORS
330
47
102
}
330
47
100
AcDbScale
 70
     0
300
1:30
140
1.0
141
30.0
290
     0
  0
SCALE
  5
51
102
{ACAD_REACTORS
330
47
102
}
330
47
100
AcDbScale
 70
     0
300
1:40
140
1.0
141
40.0
290
     0
  0
SCALE
  5
52
102
{ACAD_REACTORS
330
47
102
}
330
47
100
AcDbScale
 70
     0
300
1:50
140
1.0
141
50.0
290
     0
  0
SCALE
  5
53
102
{ACAD_REACTORS
330
47
102
}
330
47
100
AcDbScale
 70
     0
300
1:100
140
1.0
141
100.0
290
     0
  0
SCALE
  5
54
102
{ACAD_REACTORS
330
47
102
}
330
47
100
AcDbScale
 70
     0
300
2:1
140
2.0
141
1.0
290
     0
  0
SCALE
  5
55
102
{ACAD_REACTORS
330
47
102
}
330
47
100
AcDbScale
 70
     0
300
4:1
140
4.0
141
1.0
290
     0
  0
SCALE
  5
56
102
{ACAD_REACTORS
330
47
102
}
330
47
100
AcDbScale
 70
     0
300
8:1
140
8.0
141
1.0
290
     0
  0
SCALE
  5
57
102
{ACAD_REACTORS
330
47
102
}
330
47
100
AcDbScale
 70
     0
300
10:1
140
10.0
141
1.0
290
     0
  0
SCALE
  5
58
102
{ACAD_REACTORS
330
47
102
}
330
47
100
AcDbScale
 70
     0
300
100:1
140
100.0
141
1.0
290
     0
  0
SCALE
  5
59
102
{ACAD_REACTORS
330
47
102
}
330
47
100
AcDbScale
 70
     0
300
1/128" = 1'-0"
140
0.0078125
141
12.0
290
     0
  0
SCALE
  5
5A
102
{ACAD_REACTORS
330
47
102
}
330
47
100
AcDbScale
 70
     0
300
1/64" = 1'-0"
140
0.015625
141
12.0
290
     0
  0
SCALE
  5
5B
102
{ACAD_REACTORS
330
47
102
}
330
47
100
AcDbScale
 70
     0
300
1/32" = 1'-0"
140
0.03125
141
12.0
290
     0
  0
SCALE
  5
5C
102
{ACAD_REACTORS
330
47
102
}
330
47
100
AcDbScale
 70
     0
300
1/16" = 1'-0"
140
0.0625
141
12.0
290
     0
  0
SCALE
  5
5D
102
{ACAD_REACTORS
330
47
102
}
330
47
100
AcDbScale
 70
     0
300
3/32" = 1'-0"
140
0.09375
141
12.0
290
     0
  0
SCALE
  5
5E
102
{ACAD_REACTORS
330
47
102
}
330
47
100
AcDbScale
 70
     0
300
1/8" = 1'-0"
140
0.125
141
12.0
290
     0
  0
SCALE
  5
5F
102
{ACAD_REACTORS
330
47
102
}
330
47
100
AcDbScale
 70
     0
300
3/16" = 1'-0"
140
0.1875
141
12.0
290
     0
  0
SCALE
  5
60
102
{ACAD_REACTORS
330
47
102
}
330
47
100
AcDbScale
 70
     0
300
1/4" = 1'-0"
140
0.25
141
12.0
290
     0
  0
SCALE
  5
61
102
{ACAD_REACTORS
330
47
102
}
330
47
100
AcDbScale
 70
     0
300
3/8" = 1'-0"
140
0.375
141
12.0
290
     0
  0
SCALE
  5
62
102
{ACAD_REACTORS
330
47
102
}
330
47
100
AcDbScale
 70
     0
300
1/2" = 1'-0"
140
0.5
141
12.0
290
     0
  0
SCALE
  5
63
102
{ACAD_REACTORS
330
47
102
}
330
47
100
AcDbScale
 70
     0
300
3/4" = 1'-0"
140
0.75
141
12.0
290
     0
  0
SCALE
  5
64
102
{ACAD_REACTORS
330
47
102
}
330
47
100
AcDbScale
 70
     0
300
1" = 1'-0"
140
1.0
141
12.0
290
     0
  0
SCALE
  5
65
102
{ACAD_REACTORS
330
47
102
}
330
47
100
AcDbScale
 70
     0
300
1-1/2" = 1'-0"
140
1.5
141
12.0
290
     0
  0
SCALE
  5
66
102
{ACAD_REACTORS
330
47
102
}
330
47
100
AcDbScale
 70
     0
300
3" = 1'-0"
140
3.0
141
12.0
290
     0
  0
SCALE
  5
67
102
{ACAD_REACTORS
330
47
102
}
330
47
100
AcDbScale
 70
     0
300
6" = 1'-0"
140
6.0
141
12.0
290
     0
  0
SCALE
  5
68
102
{ACAD_REACTORS
330
47
102
}
330
47
100
AcDbScale
 70
     0
300
1'-0" = 1'-0"
140
12.0
141
12.0
290
     0
  0
ENDSEC
  0
EOF
