  0
SECTION
  2
HEADER
  9
$ACADVER
  1
AC1015
  9
$ACADMAINTVER
 70
     6
  9
$DWGCODEPAGE
  3
ANSI_1252
  9
$INSBASE
 10
0.0
 20
0.0
 30
0.0
  9
$EXTMIN
 10
0.0
 20
0.0
 30
0.0
  9
$EXTMAX
 10
11.0
 20
8.5
 30
0.0
  9
$LIMMIN
 10
0.0
 20
0.0
  9
$LIMMAX
 10
0.0
 20
0.0
  9
$ORTHOMODE
 70
     0
  9
$REGENMODE
 70
     1
  9
$FILLMODE
 70
     1
  9
$QTEXTMODE
 70
     0
  9
$MIRRTEXT
 70
     1
  9
$LTSCALE
 40
1.0
  9
$ATTMODE
 70
     1
  9
$TEXTSIZE
 40
0.1388888889
  9
$TRACEWID
 40
0.05
  9
$TEXTSTYLE
  7
Standard
  9
$CLAYER
  8
0
  9
$CELTYPE
  6
ByLayer
  9
$CECOLOR
 62
   256
  9
$CELTSCALE
 40
1.0
  9
$DISPSILH
 70
     0
  9
$DIMSCALE
 40
1.0
  9
$DIMASZ
 40
0.156
  9
$DIMEXO
 40
0.05
  9
$DIMDLI
 40
0.38
  9
$DIMRND
 40
0.0
  9
$DIMDLE
 40
0.0
  9
$DIMEXE
 40
0.125
  9
$DIMTP
 40
0.0
  9
$DIMTM
 40
0.0
  9
$DIMTXT
 40
0.1388888889
  9
$DIMCEN
 40
0.09
  9
$DIMTSZ
 40
0.0
  9
$DIMTOL
 70
     0
  9
$DIMLIM
 70
     0
  9
$DIMTIH
 70
     1
  9
$DIMTOH
 70
     1
  9
$DIMSE1
 70
     0
  9
$DIMSE2
 70
     0
  9
$DIMTAD
 70
     0
  9
$DIMZIN
 70
     0
  9
$DIMBLK
  1

  9
$DIMASO
 70
     1
  9
$DIMSHO
 70
     1
  9
$DIMPOST
  1

  9
$DIMAPOST
  1

  9
$DIMALT
 70
     0
  9
$DIMALTD
 70
     2
  9
$DIMALTF
 40
25.4
  9
$DIMLFAC
 40
0.5
  9
$DIMTOFL
 70
     0
  9
$DIMTVP
 40
0.0
  9
$DIMTIX
 70
     0
  9
$DIMSOXD
 70
     0
  9
$DIMSAH
 70
     0
  9
$DIMBLK1
  1

  9
$DIMBLK2
  1

  9
$DIMSTYLE
  2
Standard
  9
$DIMCLRD
 70
     0
  9
$DIMCLRE
 70
     0
  9
$DIMCLRT
 70
     0
  9
$DIMTFAC
 40
1.0
  9
$DIMGAP
 40
0.06
  9
$DIMJUST
 70
     0
  9
$DIMSD1
 70
     0
  9
$DIMSD2
 70
     0
  9
$DIMTOLJ
 70
     1
  9
$DIMTZIN
 70
     0
  9
$DIMALTZ
 70
     0
  9
$DIMALTTZ
 70
     0
  9
$DIMUPT
 70
     0
  9
$DIMDEC
 70
     4
  9
$DIMTDEC
 70
     4
  9
$DIMALTU
 70
     2
  9
$DIMALTTD
 70
     2
  9
$DIMTXSTY
  7
Standard
  9
$DIMAUNIT
 70
     0
  9
$DIMADEC
 70
     0
  9
$DIMALTRND
 40
0.0
  9
$DIMAZIN
 70
     0
  9
$DIMDSEP
 70
    46
  9
$DIMATFIT
 70
     3
  9
$DIMFRAC
 70
     0
  9
$DIMLDRBLK
  1

  9
$DIMLUNIT
 70
     2
  9
$DIMLWD
 70
    -2
  9
$DIMLWE
 70
    -2
  9
$DIMTMOVE
 70
     0
  9
$LUNITS
 70
     2
  9
$LUPREC
 70
     2
  9
$SKETCHINC
 40
0.1
  9
$FILLETRAD
 40
0.5
  9
$AUNITS
 70
     0
  9
$AUPREC
 70
     0
  9
$MENU
  1
.
  9
$ELEVATION
 40
0.0
  9
$PELEVATION
 40
0.0
  9
$THICKNESS
 40
0.0
  9
$LIMCHECK
 70
     0
  9
$CHAMFERA
 40
0.5
  9
$CHAMFERB
 40
0.5
  9
$CHAMFERC
 40
1.0
  9
$CHAMFERD
 40
0.0
  9
$SKPOLY
 70
     0
  9
$TDCREATE
 40
2454805.323569572
  9
$TDUCREATE
 40
2454805.531902905
  9
$TDUPDATE
 40
2454805.323569583
  9
$TDUUPDATE
 40
2454805.531902917
  9
$TDINDWG
 40
0.0000000116
  9
$TDUSRTIMER
 40
0.0000000116
  9
$USRTIMER
 70
     1
  9
$ANGBASE
 50
0.0
  9
$ANGDIR
 70
     0
  9
$PDMODE
 70
     0
  9
$PDSIZE
 40
-1.0
  9
$PLINEWID
 40
0.0
  9
$SPLFRAME
 70
     0
  9
$SPLINETYPE
 70
     6
  9
$SPLINESEGS
 70
     8
  9
$HANDSEED
  5
483
  9
$SURFTAB1
 70
     6
  9
$SURFTAB2
 70
     6
  9
$SURFTYPE
 70
     6
  9
$SURFU
 70
     6
  9
$SURFV
 70
     6
  9
$UCSBASE
  2

  9
$UCSNAME
  2

  9
$UCSORG
 10
0.0
 20
0.0
 30
0.0
  9
$UCSXDIR
 10
1.0
 20
0.0
 30
0.0
  9
$UCSYDIR
 10
0.0
 20
1.0
 30
0.0
  9
$UCSORTHOREF
  2

  9
$UCSORTHOVIEW
 70
     0
  9
$UCSORGTOP
 10
0.0
 20
0.0
 30
0.0
  9
$UCSORGBOTTOM
 10
0.0
 20
0.0
 30
0.0
  9
$UCSORGLEFT
 10
0.0
 20
0.0
 30
0.0
  9
$UCSORGRIGHT
 10
0.0
 20
0.0
 30
0.0
  9
$UCSORGFRONT
 10
0.0
 20
0.0
 30
0.0
  9
$UCSORGBACK
 10
0.0
 20
0.0
 30
0.0
  9
$PUCSBASE
  2

  9
$PUCSNAME
  2

  9
$PUCSORG
 10
0.0
 20
0.0
 30
0.0
  9
$PUCSXDIR
 10
1.0
 20
0.0
 30
0.0
  9
$PUCSYDIR
 10
0.0
 20
1.0
 30
0.0
  9
$PUCSORTHOREF
  2

  9
$PUCSORTHOVIEW
 70
     0
  9
$PUCSORGTOP
 10
0.0
 20
0.0
 30
0.0
  9
$PUCSORGBOTTOM
 10
0.0
 20
0.0
 30
0.0
  9
$PUCSORGLEFT
 10
0.0
 20
0.0
 30
0.0
  9
$PUCSORGRIGHT
 10
0.0
 20
0.0
 30
0.0
  9
$PUCSORGFRONT
 10
0.0
 20
0.0
 30
0.0
  9
$PUCSORGBACK
 10
0.0
 20
0.0
 30
0.0
  9
$USERI1
 70
     0
  9
$USERI2
 70
     0
  9
$USERI3
 70
     0
  9
$USERI4
 70
     0
  9
$USERI5
 70
     0
  9
$USERR1
 40
0.0
  9
$USERR2
 40
0.0
  9
$USERR3
 40
0.0
  9
$USERR4
 40
0.0
  9
$USERR5
 40
0.0
  9
$WORLDVIEW
 70
     1
  9
$SHADEDGE
 70
     3
  9
$SHADEDIF
 70
    70
  9
$TILEMODE
 70
     1
  9
$MAXACTVP
 70
    64
  9
$PINSBASE
 10
0.0
 20
0.0
 30
0.0
  9
$PLIMCHECK
 70
     0
  9
$PEXTMIN
 10
1.0000000000E+20
 20
1.0000000000E+20
 30
1.0000000000E+20
  9
$PEXTMAX
 10
-1.0000000000E+20
 20
-1.0000000000E+20
 30
-1.0000000000E+20
  9
$PLIMMIN
 10
0.0
 20
0.0
  9
$PLIMMAX
 10
12.0
 20
9.0
  9
$UNITMODE
 70
     0
  9
$VISRETAIN
 70
     1
  9
$PLINEGEN
 70
     0
  9
$PSLTSCALE
 70
     1
  9
$TREEDEPTH
 70
  3020
  9
$CMLSTYLE
  2
Standard
  9
$CMLJUST
 70
     0
  9
$CMLSCALE
 40
1.0
  9
$PROXYGRAPHICS
 70
     1
  9
$MEASUREMENT
 70
     0
  9
$CELWEIGHT
370
    -1
  9
$ENDCAPS
280
     0
  9
$JOINSTYLE
280
     0
  9
$LWDISPLAY
290
     1
  9
$INSUNITS
 70
     1
  9
$HYPERLINKBASE
  1

  9
$STYLESHEET
  1

  9
$XEDIT
290
     1
  9
$CEPSNTYPE
380
     0
  9
$PSTYLEMODE
290
     1
  9
$FINGERPRINTGUID
  2
{9D0ACF2C-E62E-4A80-82DA-26F5432A5CD7}
  9
$VERSIONGUID
  2
{FAEB1C32-E019-11D5-929B-00C0DF256EC4}
  9
$EXTNAMES
290
     1
  9
$PSVPSCALE
 40
0.0
  9
$OLESTARTUP
290
     0
  0
ENDSEC
  0
SECTION
  2
CLASSES
  0
CLASS
  1
ACDBDICTIONARYWDFLT
  2
AcDbDictionaryWithDefault
  3
ObjectDBX Classes
 90
        0
280
     0
281
     0
  0
CLASS
  1
ACDBPLACEHOLDER
  2
AcDbPlaceHolder
  3
ObjectDBX Classes
 90
        0
280
     0
281
     0
  0
CLASS
  1
LAYOUT
  2
AcDbLayout
  3
ObjectDBX Classes
 90
        0
280
     0
281
     0
  0
ENDSEC
  0
SECTION
  2
TABLES
  0
TABLE
  2
VPORT
  5
8
330
0
100
AcDbSymbolTable
 70
     1
  0
VPORT
  5
29
330
8
100
AcDbSymbolTableRecord
100
AcDbViewportTableRecord
  2
*Active
 70
     0
 10
0.0
 20
0.0
 11
1.0
 21
1.0
 12
5.5
 22
4.25
 13
0.0
 23
0.0
 14
0.5
 24
0.5
 15
0.5
 25
0.5
 16
0.0
 26
0.0
 36
1.0
 17
0.0
 27
0.0
 37
0.0
 40
8.5
 41
1.2941176471
 42
50.0
 43
0.0
 44
0.0
 50
0.0
 51
0.0
 71
     0
 72
  2000
 73
     1
 74
     3
 75
     0
 76
     0
 77
     0
 78
     0
281
     0
 65
     1
110
0.0
120
0.0
130
0.0
111
1.0
121
0.0
131
0.0
112
0.0
122
1.0
132
0.0
 79
     0
146
0.0
  0
ENDTAB
  0
TABLE
  2
LTYPE
  5
5
330
0
100
AcDbSymbolTable
 70
     6
  0
LTYPE
  5
14
330
5
100
AcDbSymbolTableRecord
100
AcDbLinetypeTableRecord
  2
ByBlock
 70
     0
  3

 72
    65
 73
     0
 40
0.0
  0
LTYPE
  5
15
330
5
100
AcDbSymbolTableRecord
100
AcDbLinetypeTableRecord
  2
ByLayer
 70
     0
  3

 72
    65
 73
     0
 40
0.0
  0
LTYPE
  5
16
330
5
100
AcDbSymbolTableRecord
100
AcDbLinetypeTableRecord
  2
Continuous
 70
     0
  3
Solid line
 72
    65
 73
     0
 40
0.0
  0
LTYPE
  5
2A
330
5
100
AcDbSymbolTableRecord
100
AcDbLinetypeTableRecord
  2
HIDDEN
 70
     0
  3
Hidden __ __ __ __ __ __ __ __ __ __ __ __ __ __
 72
    65
 73
     2
 40
0.075
 49
0.05
 74
     0
 49
-0.025
 74
     0
  0
LTYPE
  5
2B
330
5
100
AcDbSymbolTableRecord
100
AcDbLinetypeTableRecord
  2
PHANTOM
 70
     0
  3
Phantom ______  __  __  ______  __  __  ______
 72
    65
 73
     6
 40
0.5
 49
0.25
 74
     0
 49
-0.05
 74
     0
 49
0.05
 74
     0
 49
-0.05
 74
     0
 49
0.05
 74
     0
 49
-0.05
 74
     0
  0
LTYPE
  5
2C
330
5
100
AcDbSymbolTableRecord
100
AcDbLinetypeTableRecord
  2
CENTER
 70
     0
  3
Center ____ _ ____ _ ____ _ ____ _ ____ _ ____
 72
    65
 73
     4
 40
0.4
 49
0.25
 74
     0
 49
-0.05
 74
     0
 49
0.05
 74
     0
 49
-0.05
 74
     0
  0
LTYPE
  5
2D
330
5
100
AcDbSymbolTableRecord
100
AcDbLinetypeTableRecord
  2
CENTERX2
 70
     0
  3
Center (2x) ________  __  ________  __  _____
 72
    65
 73
     4
 40
0.8
 49
0.5
 74
     0
 49
-0.1
 74
     0
 49
0.1
 74
     0
 49
-0.1
 74
     0
  0
LTYPE
  5
2E
330
5
100
AcDbSymbolTableRecord
100
AcDbLinetypeTableRecord
  2
DOT2
 70
     0
  3
Dot (.5x) ........................................
 72
    65
 73
     2
 40
0.025
 49
0.0
 74
     0
 49
-0.025
 74
     0
  0
ENDTAB
  0
TABLE
  2
LAYER
  5
2
330
0
100
AcDbSymbolTable
 70
     2
  0
LAYER
  5
10
330
2
100
AcDbSymbolTableRecord
100
AcDbLayerTableRecord
  2
0
 70
     0
 62
     7
  6
Continuous
370
    -3
390
F
  0
LAYER
  5
2F
330
2
100
AcDbSymbolTableRecord
100
AcDbLayerTableRecord
  2
FORMAT
 70
     0
 62
     7
  6
Continuous
370
    -3
390
F
  0
ENDTAB
  0
TABLE
  2
STYLE
  5
3
330
0
100
AcDbSymbolTable
 70
    21
  0
STYLE
  5
11
330
3
100
AcDbSymbolTableRecord
100
AcDbTextStyleTableRecord
  2
Standard
 70
     0
 40
0.0
 41
1.0
 50
0.0
 71
     0
 42
0.2
  3
txt
  4

  0
STYLE
  5
4D
330
3
100
AcDbSymbolTableRecord
100
AcDbTextStyleTableRecord
  2
SLDTEXTSTYLE0
 70
     0
 40
0.0
 41
0.75
 50
0.0
 71
     0
 42
0.2
  3
TXT
  4

  0
STYLE
  5
56
330
3
100
AcDbSymbolTableRecord
100
AcDbTextStyleTableRecord
  2
SLDTEXTSTYLE1
 70
     0
 40
0.0
 41
0.6428571429
 50
0.0
 71
     0
 42
0.2
  3
TXT
  4

  0
STYLE
  5
58
330
3
100
AcDbSymbolTableRecord
100
AcDbTextStyleTableRecord
  2
SLDTEXTSTYLE2
 70
     0
 40
0.0
 41
0.7211538462
 50
0.0
 71
     0
 42
0.2
  3
TXT
  4

  0
STYLE
  5
63
330
3
100
AcDbSymbolTableRecord
100
AcDbTextStyleTableRecord
  2
SLDTEXTSTYLE3
 70
     0
 40
0.0
 41
0.6375
 50
0.0
 71
     0
 42
0.2
  3
TXT
  4

  0
STYLE
  5
69
330
3
100
AcDbSymbolTableRecord
100
AcDbTextStyleTableRecord
  2
SLDTEXTSTYLE4
 70
     0
 40
0.0
 41
0.7016129032
 50
0.0
 71
     0
 42
0.2
  3
TXT
  4

  0
STYLE
  5
6B
330
3
100
AcDbSymbolTableRecord
100
AcDbTextStyleTableRecord
  2
SLDTEXTSTYLE5
 70
     0
 40
0.0
 41
0.6853448276
 50
0.0
 71
     0
 42
0.2
  3
TXT
  4

  0
STYLE
  5
6D
330
3
100
AcDbSymbolTableRecord
100
AcDbTextStyleTableRecord
  2
SLDTEXTSTYLE6
 70
     0
 40
0.0
 41
0.689516129
 50
0.0
 71
     0
 42
0.2
  3
TXT
  4

  0
STYLE
  5
6F
330
3
100
AcDbSymbolTableRecord
100
AcDbTextStyleTableRecord
  2
SLDTEXTSTYLE7
 70
     0
 40
0.0
 41
0.6666666667
 50
0.0
 71
     0
 42
0.2
  3
TXT
  4

  0
STYLE
  5
71
330
3
100
AcDbSymbolTableRecord
100
AcDbTextStyleTableRecord
  2
SLDTEXTSTYLE8
 70
     0
 40
0.0
 41
0.7010869565
 50
0.0
 71
     0
 42
0.2
  3
TXT
  4

  0
STYLE
  5
73
330
3
100
AcDbSymbolTableRecord
100
AcDbTextStyleTableRecord
  2
SLDTEXTSTYLE9
 70
     0
 40
0.0
 41
0.7083333333
 50
0.0
 71
     0
 42
0.2
  3
TXT
  4

  0
STYLE
  5
82
330
3
100
AcDbSymbolTableRecord
100
AcDbTextStyleTableRecord
  2
SLDTEXTSTYLE10
 70
     0
 40
0.0
 41
0.65625
 50
0.0
 71
     0
 42
0.2
  3
TXT
  4

  0
STYLE
  5
89
330
3
100
AcDbSymbolTableRecord
100
AcDbTextStyleTableRecord
  2
SLDTEXTSTYLE11
 70
     0
 40
0.0
 41
0.7125
 50
0.0
 71
     0
 42
0.2
  3
TXT
  4

  0
STYLE
  5
92
330
3
100
AcDbSymbolTableRecord
100
AcDbTextStyleTableRecord
  2
SLDTEXTSTYLE12
 70
     0
 40
0.0
 41
0.69375
 50
0.0
 71
     0
 42
0.2
  3
TXT
  4

  0
STYLE
  5
94
330
3
100
AcDbSymbolTableRecord
100
AcDbTextStyleTableRecord
  2
SLDTEXTSTYLE13
 70
     0
 40
0.0
 41
0.6988636364
 50
0.0
 71
     0
 42
0.2
  3
TXT
  4

  0
STYLE
  5
96
330
3
100
AcDbSymbolTableRecord
100
AcDbTextStyleTableRecord
  2
SLDTEXTSTYLE14
 70
     0
 40
0.0
 41
0.7115384615
 50
0.0
 71
     0
 42
0.2
  3
TXT
  4

  0
STYLE
  5
99
330
3
100
AcDbSymbolTableRecord
100
AcDbTextStyleTableRecord
  2
SLDTEXTSTYLE15
 70
     0
 40
0.0
 41
0.6796875
 50
0.0
 71
     0
 42
0.2
  3
TXT
  4

  0
STYLE
  5
A3
330
3
100
AcDbSymbolTableRecord
100
AcDbTextStyleTableRecord
  2
SLDTEXTSTYLE16
 70
     0
 40
0.0
 41
0.6995192308
 50
0.0
 71
     0
 42
0.2
  3
TXT
  4

  0
STYLE
  5
447
330
3
100
AcDbSymbolTableRecord
100
AcDbTextStyleTableRecord
  2
SLDTEXTSTYLE17
 70
     0
 40
0.0
 41
0.675
 50
0.0
 71
     0
 42
0.2
  3
TXT
  4

  0
STYLE
  5
449
330
3
100
AcDbSymbolTableRecord
100
AcDbTextStyleTableRecord
  2
SLDTEXTSTYLE18
 70
     0
 40
0.0
 41
0.625
 50
0.0
 71
     0
 42
0.2
  3
TXT
  4

  0
STYLE
  5
44F
330
3
100
AcDbSymbolTableRecord
100
AcDbTextStyleTableRecord
  2
SLDTEXTSTYLE19
 70
     0
 40
0.0
 41
0.6875
 50
0.0
 71
     0
 42
0.2
  3
TXT
  4

  0
ENDTAB
  0
TABLE
  2
VIEW
  5
6
330
0
100
AcDbSymbolTable
 70
     0
  0
ENDTAB
  0
TABLE
  2
UCS
  5
7
330
0
100
AcDbSymbolTable
 70
     0
  0
ENDTAB
  0
TABLE
  2
APPID
  5
9
330
0
100
AcDbSymbolTable
 70
     1
  0
APPID
  5
12
330
9
100
AcDbSymbolTableRecord
100
AcDbRegAppTableRecord
  2
ACAD
 70
     0
  0
ENDTAB
  0
TABLE
  2
DIMSTYLE
  5
A
330
0
100
AcDbSymbolTable
 70
     6
100
AcDbDimStyleTable
  0
DIMSTYLE
105
27
330
A
100
AcDbSymbolTableRecord
100
AcDbDimStyleTableRecord
  2
Standard
 70
     0
340
11
  0
DIMSTYLE
105
D6
102
{ACAD_REACTORS
330
D5
102
}
330
A
100
AcDbSymbolTableRecord
100
AcDbDimStyleTableRecord
  2
SLDDIMSTYLE0
 70
     0
 41
0.156
 44
0.0
 78
     4
140
0.1041666667
147
0.0260416667
170
     1
172
     1
173
     1
271
     2
272
     2
284
    12
340
4D
  0
DIMSTYLE
105
3C4
102
{ACAD_REACTORS
330
3C3
330
3D6
330
420
330
432
102
}
330
A
100
AcDbSymbolTableRecord
100
AcDbDimStyleTableRecord
  2
SLDDIMSTYLE1
 70
     0
 41
0.156
 44
0.0
 78
     8
140
0.1041666667
147
0.0260416667
170
     1
173
     1
271
     2
272
     2
284
    12
340
4D
  0
DIMSTYLE
105
3E9
102
{ACAD_REACTORS
330
3E8
330
3FB
102
}
330
A
100
AcDbSymbolTableRecord
100
AcDbDimStyleTableRecord
  2
SLDDIMSTYLE2
 70
     0
 41
0.156
 44
0.0
 78
    12
140
0.1041666667
147
0.0260416667
170
     1
173
     1
271
     2
272
     2
284
    12
340
4D
  0
DIMSTYLE
105
40E
102
{ACAD_REACTORS
330
40D
102
}
330
A
100
AcDbSymbolTableRecord
100
AcDbDimStyleTableRecord
  2
SLDDIMSTYLE3
 70
     0
 41
0.156
 44
0.0
 78
    12
140
0.1041666667
147
0.0260416667
170
     1
173
     1
271
     3
272
     3
284
    12
340
4D
  0
DIMSTYLE
105
453
330
A
100
AcDbSymbolTableRecord
100
AcDbDimStyleTableRecord
  2
SLDDIMSTYLE4
 70
     0
 41
0.156
 44
0.0
140
0.156
147
0.039
173
     1
271
     0
272
     0
340
11
  0
ENDTAB
  0
TABLE
  2
BLOCK_RECORD
  5
1
330
0
100
AcDbSymbolTable
 70
    22
  0
BLOCK_RECORD
  5
1F
330
1
100
AcDbSymbolTableRecord
100
AcDbBlockTableRecord
  2
*Model_Space
340
22
  0
BLOCK_RECORD
  5
1B
330
1
100
AcDbSymbolTableRecord
100
AcDbBlockTableRecord
  2
*Paper_Space
340
1E
  0
BLOCK_RECORD
  5
23
330
1
100
AcDbSymbolTableRecord
100
AcDbBlockTableRecord
  2
*Paper_Space0
340
26
  0
BLOCK_RECORD
  5
66
330
1
100
AcDbSymbolTableRecord
100
AcDbBlockTableRecord
  2
SW_NOTE_0
340
0
102
{BLKREFS
331
75
102
}
1001
ACAD
1000
DesignCenter Data
1002
{
1070
     1
1070
     0
1002
}
  0
BLOCK_RECORD
  5
7F
330
1
100
AcDbSymbolTableRecord
100
AcDbBlockTableRecord
  2
SW_NOTE_1
340
0
102
{BLKREFS
331
85
102
}
1001
ACAD
1000
DesignCenter Data
1002
{
1070
     1
1070
     0
1002
}
  0
BLOCK_RECORD
  5
86
330
1
100
AcDbSymbolTableRecord
100
AcDbBlockTableRecord
  2
SW_NOTE_2
340
0
102
{BLKREFS
331
8C
102
}
1001
ACAD
1000
DesignCenter Data
1002
{
1070
     1
1070
     0
1002
}
  0
BLOCK_RECORD
  5
8E
330
1
100
AcDbSymbolTableRecord
100
AcDbBlockTableRecord
  2
SW_NOTE_3
340
0
102
{BLKREFS
331
9D
102
}
1001
ACAD
1000
DesignCenter Data
1002
{
1070
     1
1070
     0
1002
}
  0
BLOCK_RECORD
  5
9F
330
1
100
AcDbSymbolTableRecord
100
AcDbBlockTableRecord
  2
SW_NOTE_4
340
0
102
{BLKREFS
331
A5
102
}
1001
ACAD
1000
DesignCenter Data
1002
{
1070
     1
1070
     0
1002
}
  0
BLOCK_RECORD
  5
A6
330
1
100
AcDbSymbolTableRecord
100
AcDbBlockTableRecord
  2
SW_TABLEANNOTATION_0
340
0
102
{BLKREFS
331
C2
102
}
1001
ACAD
1000
DesignCenter Data
1002
{
1070
     1
1070
     0
1002
}
  0
BLOCK_RECORD
  5
D7
330
1
100
AcDbSymbolTableRecord
100
AcDbBlockTableRecord
  2
*D7
340
0
  0
BLOCK_RECORD
  5
3C5
330
1
100
AcDbSymbolTableRecord
100
AcDbBlockTableRecord
  2
*D8
340
0
  0
BLOCK_RECORD
  5
3D7
330
1
100
AcDbSymbolTableRecord
100
AcDbBlockTableRecord
  2
*D9
340
0
  0
BLOCK_RECORD
  5
3EA
330
1
100
AcDbSymbolTableRecord
100
AcDbBlockTableRecord
  2
*D10
340
0
  0
BLOCK_RECORD
  5
3FC
330
1
100
AcDbSymbolTableRecord
100
AcDbBlockTableRecord
  2
*D11
340
0
  0
BLOCK_RECORD
  5
40F
330
1
100
AcDbSymbolTableRecord
100
AcDbBlockTableRecord
  2
*D12
340
0
  0
BLOCK_RECORD
  5
421
330
1
100
AcDbSymbolTableRecord
100
AcDbBlockTableRecord
  2
*D13
340
0
  0
BLOCK_RECORD
  5
433
330
1
100
AcDbSymbolTableRecord
100
AcDbBlockTableRecord
  2
*D14
340
0
  0
BLOCK_RECORD
  5
444
330
1
100
AcDbSymbolTableRecord
100
AcDbBlockTableRecord
  2
SW_NOTE_5
340
0
102
{BLKREFS
331
44B
102
}
1001
ACAD
1000
DesignCenter Data
1002
{
1070
     1
1070
     0
1002
}
  0
BLOCK_RECORD
  5
44C
330
1
100
AcDbSymbolTableRecord
100
AcDbBlockTableRecord
  2
SW_NOTE_6
340
0
102
{BLKREFS
331
452
102
}
1001
ACAD
1000
DesignCenter Data
1002
{
1070
     1
1070
     0
1002
}
  0
BLOCK_RECORD
  5
456
330
1
100
AcDbSymbolTableRecord
100
AcDbBlockTableRecord
  2
SW_NOTE_7
340
0
102
{BLKREFS
331
45B
102
}
1001
ACAD
1000
DesignCenter Data
1002
{
1070
     1
1070
     0
1002
}
  0
BLOCK_RECORD
  5
45D
330
1
100
AcDbSymbolTableRecord
100
AcDbBlockTableRecord
  2
SW_NOTE_8
340
0
102
{BLKREFS
331
462
102
}
1001
ACAD
1000
DesignCenter Data
1002
{
1070
     1
1070
     0
1002
}
  0
BLOCK_RECORD
  5
464
330
1
100
AcDbSymbolTableRecord
100
AcDbBlockTableRecord
  2
SW_NOTE_9
340
0
102
{BLKREFS
331
469
102
}
1001
ACAD
1000
DesignCenter Data
1002
{
1070
     1
1070
     0
1002
}
  0
BLOCK_RECORD
  5
46B
330
1
100
AcDbSymbolTableRecord
100
AcDbBlockTableRecord
  2
SW_NOTE_10
340
0
102
{BLKREFS
331
470
102
}
1001
ACAD
1000
DesignCenter Data
1002
{
1070
     1
1070
     0
1002
}
  0
BLOCK_RECORD
  5
472
330
1
100
AcDbSymbolTableRecord
100
AcDbBlockTableRecord
  2
SW_NOTE_11
340
0
102
{BLKREFS
331
477
102
}
1001
ACAD
1000
DesignCenter Data
1002
{
1070
     1
1070
     0
1002
}
  0
ENDTAB
  0
ENDSEC
  0
SECTION
  2
BLOCKS
  0
BLOCK
  5
20
330
1F
100
AcDbEntity
  8
0
100
AcDbBlockBegin
  2
*Model_Space
 70
     0
 71
     0
 10
0.0
 20
0.0
 30
0.0
  3
*Model_Space
  1

  0
ENDBLK
  5
21
330
1F
100
AcDbEntity
  8
0
100
AcDbBlockEnd
  0
BLOCK
  5
1C
330
1B
100
AcDbEntity
 67
     1
  8
0
100
AcDbBlockBegin
  2
*Paper_Space
 70
     0
 71
     0
 10
0.0
 20
0.0
 30
0.0
  3
*Paper_Space
  1

  0
ENDBLK
  5
1D
330
1B
100
AcDbEntity
 67
     1
  8
0
100
AcDbBlockEnd
  0
BLOCK
  5
24
330
23
100
AcDbEntity
  8
0
100
AcDbBlockBegin
  2
*Paper_Space0
 70
     0
 71
     0
 10
0.0
 20
0.0
 30
0.0
  3
*Paper_Space0
  1

  0
ENDBLK
  5
25
330
23
100
AcDbEntity
  8
0
100
AcDbBlockEnd
  0
BLOCK
  5
67
330
66
100
AcDbEntity
  8
0
100
AcDbBlockBegin
  2
SW_NOTE_0
 70
     0
 71
     0
 10
0.0
 20
0.0
 30
0.0
  3
SW_NOTE_0
  1

  0
MTEXT
  5
6A
330
66
100
AcDbEntity
  8
0
  6
Continuous
 62
     0
370
     0
100
AcDbMText
 10
0.0
 20
0.076640625
 30
0.0
 40
0.06
 41
0.0
 71
     1
 72
     1
  1
THE INFORMATION CONTAINED IN THIS
  7
SLDTEXTSTYLE4
 73
     1
 44
1.0
  0
MTEXT
  5
6C
330
66
100
AcDbEntity
  8
0
  6
Continuous
 62
     0
370
     0
100
AcDbMText
 10
0.0
 20
-0.0227294496
 30
0.0
 40
0.06
 41
0.0
 71
     1
 72
     1
  1
DRAWING IS THE SOLE PROPERTY OF
  7
SLDTEXTSTYLE5
 73
     1
 44
1.0
  0
MTEXT
  5
6E
330
66
100
AcDbEntity
  8
0
  6
Continuous
 62
     0
370
     0
100
AcDbMText
 10
0.0
 20
-0.1220995241
 30
0.0
 40
0.06
 41
0.0
 71
     1
 72
     1
  1
THORLABS, INC.  ANY REPRODUCTION 
  7
SLDTEXTSTYLE6
 73
     1
 44
1.0
  0
MTEXT
  5
70
330
66
100
AcDbEntity
  8
0
  6
Continuous
 62
     0
370
     0
100
AcDbMText
 10
0.0
 20
-0.2214695987
 30
0.0
 40
0.06
 41
0.0
 71
     1
 72
     1
  1
IN PART OR AS A WHOLE WITHOUT
  7
SLDTEXTSTYLE7
 73
     1
 44
1.0
  0
MTEXT
  5
72
330
66
100
AcDbEntity
  8
0
  6
Continuous
 62
     0
370
     0
100
AcDbMText
 10
0.0
 20
-0.3208396733
 30
0.0
 40
0.06
 41
0.0
 71
     1
 72
     1
  1
THE WRITTEN PERMISSION OF
  7
SLDTEXTSTYLE8
 73
     1
 44
1.0
  0
MTEXT
  5
74
330
66
100
AcDbEntity
  8
0
  6
Continuous
 62
     0
370
     0
100
AcDbMText
 10
0.0
 20
-0.4202097478
 30
0.0
 40
0.06
 41
0.0
 71
     1
 72
     1
  1
THORLABS, INC. IS PROHIBITED.
  7
SLDTEXTSTYLE9
 73
     1
 44
1.0
  0
ENDBLK
  5
68
330
66
100
AcDbEntity
  8
0
100
AcDbBlockEnd
  0
BLOCK
  5
80
330
7F
100
AcDbEntity
  8
0
100
AcDbBlockBegin
  2
SW_NOTE_1
 70
     0
 71
     0
 10
0.0
 20
0.0
 30
0.0
  3
SW_NOTE_1
  1

  0
MTEXT
  5
83
330
7F
100
AcDbEntity
  8
0
  6
Continuous
 62
     0
370
     0
100
AcDbMText
 10
0.0
 20
0.1330566406
 30
0.0
 40
0.1041666667
 41
0.0
 71
     1
 72
     1
  1
PO BOX 366
  7
SLDTEXTSTYLE10
 73
     1
 44
1.0
  0
MTEXT
  5
84
330
7F
100
AcDbEntity
  8
0
  6
Continuous
 62
     0
370
     0
100
AcDbMText
 10
0.0
 20
-0.0058322466
 30
0.0
 40
0.1041666667
 41
0.0
 71
     1
 72
     1
  1
NEWTON NJ
  7
SLDTEXTSTYLE0
 73
     1
 44
1.0
  0
ENDBLK
  5
81
330
7F
100
AcDbEntity
  8
0
100
AcDbBlockEnd
  0
BLOCK
  5
87
330
86
100
AcDbEntity
  8
0
100
AcDbBlockBegin
  2
SW_NOTE_2
 70
     0
 71
     0
 10
0.0
 20
0.0
 30
0.0
  3
SW_NOTE_2
  1

  0
MTEXT
  5
8A
330
86
100
AcDbEntity
  8
0
  6
Continuous
 62
     0
370
     0
100
AcDbMText
 10
0.0
 20
0.1330566406
 30
0.0
 40
0.1041666667
 41
0.0
 71
     1
 72
     1
  1
MATCHED ACHROMAT PAIRS
  7
SLDTEXTSTYLE11
 73
     1
 44
1.0
  0
MTEXT
  5
8B
330
86
100
AcDbEntity
  8
0
  6
Continuous
 62
     0
370
     0
100
AcDbMText
 10
0.0
 20
-0.0058322466
 30
0.0
 40
0.1041666667
 41
0.0
 71
     1
 72
     1
  1
F1=30mm, F2=100mm
  7
SLDTEXTSTYLE0
 73
     1
 44
1.0
  0
ENDBLK
  5
88
330
86
100
AcDbEntity
  8
0
100
AcDbBlockEnd
  0
BLOCK
  5
8F
330
8E
100
AcDbEntity
  8
0
100
AcDbBlockBegin
  2
SW_NOTE_3
 70
     0
 71
     0
 10
0.0
 20
0.0
 30
0.0
  3
SW_NOTE_3
  1

  0
LINE
  5
91
330
8E
100
AcDbEntity
  8
0
  6
Continuous
 62
     0
370
     0
100
AcDbLine
 10
1.0817708433
 20
-0.6526041506
 30
0.0
 11
1.4039930543
 21
-0.6526041506
 31
0.0
  0
MTEXT
  5
93
330
8E
100
AcDbEntity
  8
0
  6
Continuous
 62
     0
370
     0
100
AcDbMText
 10
0.0
 20
0.1197509766
 30
0.0
 40
0.09375
 41
0.0
 71
     1
 72
     1
  1
DESIGN WAVELENGTH:  486.1, 587.6 & 656.3nm
  7
SLDTEXTSTYLE12
 73
     1
 44
1.0
  0
MTEXT
  5
95
330
8E
100
AcDbEntity
  8
0
  6
Continuous
 62
     0
370
     0
100
AcDbMText
 10
0.0
 20
-0.0052490219
 30
0.0
 40
0.09375
 41
0.0
 71
     1
 72
     1
  1
COATING:  BBAR 400-700nm
  7
SLDTEXTSTYLE13
 73
     1
 44
1.0
  0
MTEXT
  5
97
330
8E
100
AcDbEntity
  8
0
  6
Continuous
 62
     0
370
     0
100
AcDbMText
 10
0.0
 20
-0.1302490204
 30
0.0
 40
0.09375
 41
0.0
 71
     1
 72
     1
  1
COATING RANGE: R(AVG)<0.5% FROM 400-700nm
  7
SLDTEXTSTYLE14
 73
     1
 44
1.0
  0
MTEXT
  5
98
330
8E
100
AcDbEntity
  8
0
  6
Continuous
 62
     0
370
     0
100
AcDbMText
 10
0.0
 20
-0.2552490189
 30
0.0
 40
0.09375
 41
0.0
 71
     1
 72
     1
  1
MAGNIFICATION: 1:3.33
  7
SLDTEXTSTYLE0
 73
     1
 44
1.0
  0
MTEXT
  5
9A
330
8E
100
AcDbEntity
  8
0
  6
Continuous
 62
     0
370
     0
100
AcDbMText
 10
0.0
 20
-0.6091552547
 30
0.0
 40
0.09375
 41
0.0
 71
     1
 72
     1
  1
Dimensions are in 
  7
SLDTEXTSTYLE15
 73
     1
 44
1.0
  0
MTEXT
  5
9B
330
8E
100
AcDbEntity
  8
0
  6
Continuous
 62
     0
370
     0
100
AcDbMText
 10
1.0817708433
 20
-0.5052490159
 30
0.0
 40
0.09375
 41
0.0
 71
     1
 72
     1
  1
[mm]
  7
SLDTEXTSTYLE0
 73
     1
 44
1.0
  0
MTEXT
  5
9C
330
8E
100
AcDbEntity
  8
0
  6
Continuous
 62
     0
370
     0
100
AcDbMText
 10
1.1922743109
 20
-0.6854573399
 30
0.0
 40
0.09375
 41
0.0
 71
     1
 72
     1
  1
in
  7
SLDTEXTSTYLE0
 73
     1
 44
1.0
  0
ENDBLK
  5
90
330
8E
100
AcDbEntity
  8
0
100
AcDbBlockEnd
  0
BLOCK
  5
A0
330
9F
100
AcDbEntity
  8
0
100
AcDbBlockBegin
  2
SW_NOTE_4
 70
     0
 71
     0
 10
0.0
 20
0.0
 30
0.0
  3
SW_NOTE_4
  1

  0
MTEXT
  5
A2
330
9F
100
AcDbEntity
  8
0
  6
Continuous
 62
     0
370
     0
100
AcDbMText
 10
0.0
 20
0.1149609375
 30
0.0
 40
0.09
 41
0.0
 71
     1
 72
     1
  1
NOTE:
  7
SLDTEXTSTYLE0
 73
     1
 44
1.0
  0
MTEXT
  5
A4
330
9F
100
AcDbEntity
  8
0
  6
Continuous
 62
     0
370
     0
100
AcDbMText
 10
0.0
 20
-0.0144091455
 30
0.0
 40
0.09
 41
0.0
 71
     1
 72
     1
  1
FOR INFORMATION ONLY.  NOT INTENDED FOR MANUFACTURING.
  7
SLDTEXTSTYLE16
 73
     1
 44
1.0
  0
ENDBLK
  5
A1
330
9F
100
AcDbEntity
  8
0
100
AcDbBlockEnd
  0
BLOCK
  5
A7
330
A6
100
AcDbEntity
  8
0
100
AcDbBlockBegin
  2
SW_TABLEANNOTATION_0
 70
     0
 71
     0
 10
0.0
 20
0.0
 30
0.0
  3
SW_TABLEANNOTATION_0
  1

  0
LINE
  5
A9
330
A6
100
AcDbEntity
  8
0
  6
Continuous
 62
     0
370
     0
100
AcDbLine
 10
0.0
 20
0.0
 30
0.0
 11
0.0
 21
-1.0877351438
 31
0.0
  0
LINE
  5
AA
330
A6
100
AcDbEntity
  8
0
  6
Continuous
 62
     0
370
     0
100
AcDbLine
 10
0.0
 20
-1.0877351438
 30
0.0
 11
5.3007222216
 21
-1.0877351438
 31
0.0
  0
LINE
  5
AB
330
A6
100
AcDbEntity
  8
0
  6
Continuous
 62
     0
370
     0
100
AcDbLine
 10
5.3007222216
 20
-1.0877351438
 30
0.0
 11
5.3007222216
 21
0.0
 31
0.0
  0
LINE
  5
AC
330
A6
100
AcDbEntity
  8
0
  6
Continuous
 62
     0
370
     0
100
AcDbLine
 10
5.3007222216
 20
0.0
 30
0.0
 11
0.0
 21
0.0
 31
0.0
  0
LINE
  5
AD
330
A6
100
AcDbEntity
  8
0
  6
Continuous
 62
     0
370
     0
100
AcDbLine
 10
1.7669074072
 20
0.0
 30
0.0
 11
1.7669074072
 21
-1.0877351438
 31
0.0
  0
LINE
  5
AE
330
A6
100
AcDbEntity
  8
0
  6
Continuous
 62
     0
370
     0
100
AcDbLine
 10
3.5338148144
 20
0.0
 30
0.0
 11
3.5338148144
 21
-1.0877351438
 31
0.0
  0
LINE
  5
AF
330
A6
100
AcDbEntity
  8
0
  6
Continuous
 62
     0
370
     0
100
AcDbLine
 10
0.0
 20
-0.2175470288
 30
0.0
 11
5.3007222216
 21
-0.2175470288
 31
0.0
  0
LINE
  5
B0
330
A6
100
AcDbEntity
  8
0
  6
Continuous
 62
     0
370
     0
100
AcDbLine
 10
0.0
 20
-0.4350940575
 30
0.0
 11
5.3007222216
 21
-0.4350940575
 31
0.0
  0
LINE
  5
B1
330
A6
100
AcDbEntity
  8
0
  6
Continuous
 62
     0
370
     0
100
AcDbLine
 10
0.0
 20
-0.6526410863
 30
0.0
 11
5.3007222216
 21
-0.6526410863
 31
0.0
  0
LINE
  5
B2
330
A6
100
AcDbEntity
  8
0
  6
Continuous
 62
     0
370
     0
100
AcDbLine
 10
0.0
 20
-0.870188115
 30
0.0
 11
5.3007222216
 21
-0.870188115
 31
0.0
  0
MTEXT
  5
B3
330
A6
100
AcDbEntity
  8
0
  6
Continuous
 62
     0
370
     0
100
AcDbMText
 10
0.6662347763
 20
-0.0391846857
 30
0.0
 40
0.1377952756
 41
0.0
 71
     1
 72
     1
  1
PART
  7
SLDTEXTSTYLE0
 73
     1
 44
1.0
  0
MTEXT
  5
B4
330
A6
100
AcDbEntity
  8
0
  6
Continuous
 62
     0
370
     0
100
AcDbMText
 10
2.2344873384
 20
-0.0391846857
 30
0.0
 40
0.1377952756
 41
0.0
 71
     1
 72
     1
  1
PART NO.
  7
SLDTEXTSTYLE0
 73
     1
 44
1.0
  0
MTEXT
  5
B5
330
A6
100
AcDbEntity
  8
0
  6
Continuous
 62
     0
370
     0
100
AcDbMText
 10
3.9896246982
 20
-0.0391846857
 30
0.0
 40
0.1377952756
 41
0.0
 71
     1
 72
     1
  1
MATERIAL
  7
SLDTEXTSTYLE0
 73
     1
 44
1.0
  0
MTEXT
  5
B6
330
A6
100
AcDbEntity
  8
0
  6
Continuous
 62
     0
370
     0
100
AcDbMText
 10
0.8155129793
 20
-0.2567317144
 30
0.0
 40
0.1377952756
 41
0.0
 71
     1
 72
     1
  1
A
  7
SLDTEXTSTYLE0
 73
     1
 44
1.0
  0
MTEXT
  5
B7
330
A6
100
AcDbEntity
  8
0
  6
Continuous
 62
     0
370
     0
100
AcDbMText
 10
2.0224357113
 20
-0.2567317144
 30
0.0
 40
0.1377952756
 41
0.0
 71
     1
 72
     1
  1
AC254-030-A1
  7
SLDTEXTSTYLE0
 73
     1
 44
1.0
  0
MTEXT
  5
B8
330
A6
100
AcDbEntity
  8
0
  6
Continuous
 62
     0
370
     0
100
AcDbMText
 10
3.8682882899
 20
-0.2567317144
 30
0.0
 40
0.1377952756
 41
0.0
 71
     1
 72
     1
  1
BAFN10-SFL6
  7
SLDTEXTSTYLE0
 73
     1
 44
1.0
  0
MTEXT
  5
B9
330
A6
100
AcDbEntity
  8
0
  6
Continuous
 62
     0
370
     0
100
AcDbMText
 10
0.8307278706
 20
-0.4742787432
 30
0.0
 40
0.1377952756
 41
0.0
 71
     1
 72
     1
  1
B
  7
SLDTEXTSTYLE0
 73
     1
 44
1.0
  0
MTEXT
  5
BA
330
A6
100
AcDbEntity
  8
0
  6
Continuous
 62
     0
370
     0
100
AcDbMText
 10
2.0224357113
 20
-0.4742787432
 30
0.0
 40
0.1377952756
 41
0.0
 71
     1
 72
     1
  1
AC254-100-A1
  7
SLDTEXTSTYLE0
 73
     1
 44
1.0
  0
MTEXT
  5
BB
330
A6
100
AcDbEntity
  8
0
  6
Continuous
 62
     0
370
     0
100
AcDbMText
 10
4.0877081451
 20
-0.4742787432
 30
0.0
 40
0.1377952756
 41
0.0
 71
     1
 72
     1
  1
BK7-SF5
  7
SLDTEXTSTYLE0
 73
     1
 44
1.0
  0
MTEXT
  5
BC
330
A6
100
AcDbEntity
  8
0
  6
Continuous
 62
     0
370
     0
100
AcDbMText
 10
0.8088145975
 20
-0.691825772
 30
0.0
 40
0.1377952756
 41
0.0
 71
     1
 72
     1
  1
C
  7
SLDTEXTSTYLE0
 73
     1
 44
1.0
  0
MTEXT
  5
BD
330
A6
100
AcDbEntity
  8
0
  6
Continuous
 62
     0
370
     0
100
AcDbMText
 10
2.088079873
 20
-0.691825772
 30
0.0
 40
0.1377952756
 41
0.0
 71
     1
 72
     1
  1
LENS MOUNT
  7
SLDTEXTSTYLE0
 73
     1
 44
1.0
  0
MTEXT
  5
BE
330
A6
100
AcDbEntity
  8
0
  6
Continuous
 62
     0
370
     0
100
AcDbMText
 10
3.5937345782
 20
-0.6960533749
 30
0.0
 40
0.1354166667
 41
0.0
 71
     1
 72
     1
  1
6061-T6 ALUMINUM
  7
SLDTEXTSTYLE0
 73
     1
 44
1.0
  0
MTEXT
  5
BF
330
A6
100
AcDbEntity
  8
0
  6
Continuous
 62
     0
370
     0
100
AcDbMText
 10
0.8151302112
 20
-0.9093728007
 30
0.0
 40
0.1377952756
 41
0.0
 71
     1
 72
     1
  1
D
  7
SLDTEXTSTYLE0
 73
     1
 44
1.0
  0
MTEXT
  5
C0
330
A6
100
AcDbEntity
  8
0
  6
Continuous
 62
     0
370
     0
100
AcDbMText
 10
2.3577375412
 20
-0.9093728007
 30
0.0
 40
0.1377952756
 41
0.0
 71
     1
 72
     1
  1
SM1RR
  7
SLDTEXTSTYLE0
 73
     1
 44
1.0
  0
MTEXT
  5
C1
330
A6
100
AcDbEntity
  8
0
  6
Continuous
 62
     0
370
     0
100
AcDbMText
 10
3.5937345782
 20
-0.9136004036
 30
0.0
 40
0.1354166667
 41
0.0
 71
     1
 72
     1
  1
6061-T6 ALUMINUM
  7
SLDTEXTSTYLE0
 73
     1
 44
1.0
  0
ENDBLK
  5
A8
330
A6
100
AcDbEntity
  8
0
100
AcDbBlockEnd
  0
BLOCK
  5
D8
330
D7
100
AcDbEntity
  8
0
100
AcDbBlockBegin
  2
*D7
 70
     1
 71
     0
 10
0.0
 20
0.0
 30
0.0
  3
*D7
  1

  0
SOLID
  5
DA
330
D7
100
AcDbEntity
  8
0
  6
Continuous
 62
     7
370
     0
100
AcDbTrace
 10
2.0740739062
 20
4.9925349396
 30
0.0
 11
2.1342384415
 21
5.1387957638
 31
0.0
 12
2.0835503614
 22
5.1504025955
 32
0.0
 13
2.0835503614
 23
5.1504025955
 33
0.0
  0
LINE
  5
DB
330
D7
100
AcDbEntity
  8
0
  6
Continuous
 62
     7
370
     0
100
AcDbLine
 10
2.5639739894
 20
5.6997835185
 30
0.0
 11
2.5639739894
 21
5.5591406002
 31
0.0
  0
LINE
  5
DC
330
D7
100
AcDbEntity
  8
0
  6
Continuous
 62
     7
370
     0
100
AcDbLine
 10
2.5639739894
 20
5.5591406002
 30
0.0
 11
2.5850751567
 21
5.5591406002
 31
0.0
  0
LINE
  5
DD
330
D7
100
AcDbEntity
  8
0
  6
Continuous
 62
     7
370
     0
100
AcDbLine
 10
2.5639739894
 20
5.6997835185
 30
0.0
 11
2.5850751567
 21
5.6997835185
 31
0.0
  0
LINE
  5
DE
330
D7
100
AcDbEntity
  8
0
  6
Continuous
 62
     7
370
     0
100
AcDbLine
 10
2.9945833279
 20
5.6997835185
 30
0.0
 11
2.9945833279
 21
5.5591406002
 31
0.0
  0
LINE
  5
DF
330
D7
100
AcDbEntity
  8
0
  6
Continuous
 62
     7
370
     0
100
AcDbLine
 10
2.9945833279
 20
5.5591406002
 30
0.0
 11
2.9734821606
 21
5.5591406002
 31
0.0
  0
LINE
  5
E0
330
D7
100
AcDbEntity
  8
0
  6
Continuous
 62
     7
370
     0
100
AcDbLine
 10
2.9945833279
 20
5.6997835185
 30
0.0
 11
2.9734821606
 21
5.6997835185
 31
0.0
  0
LINE
  5
E1
330
D7
100
AcDbEntity
  8
0
  6
Continuous
 62
     7
370
     0
100
AcDbLine
 10
2.0740739062
 20
4.9925349396
 30
0.0
 11
2.2009767131
 21
5.5467309309
 31
0.0
  0
LINE
  5
E2
330
D7
100
AcDbEntity
  8
0
  6
Continuous
 62
     7
370
     0
100
AcDbLine
 10
2.2009767131
 20
5.5467309309
 30
0.0
 11
2.4509767131
 21
5.5467309309
 31
0.0
  0
MTEXT
  5
E3
330
D7
100
AcDbEntity
  8
0
  6
Continuous
 62
     7
370
     0
100
AcDbMText
 10
2.5702097481
 20
5.5143253124
 30
0.0
 40
0.1041666667
 41
0.0
 71
     1
 72
     1
  1
%%c
  7
SLDTEXTSTYLE0
 73
     1
 44
1.0
  0
MTEXT
  5
E4
330
D7
100
AcDbEntity
  8
0
  6
Continuous
 62
     7
370
     0
100
AcDbMText
 10
2.7191257792
 20
5.5143253124
 30
0.0
 40
0.1041666667
 41
0.0
 71
     1
 72
     1
  1
1.20
  7
SLDTEXTSTYLE0
 73
     1
 44
1.0
  0
MTEXT
  5
E5
330
D7
100
AcDbEntity
  8
0
  6
Continuous
 62
     7
370
     0
100
AcDbMText
 10
2.606176324
 20
5.6797875692
 30
0.0
 40
0.1041666667
 41
0.0
 71
     1
 72
     1
  1
30.48
  7
SLDTEXTSTYLE0
 73
     1
 44
1.0
  0
ENDBLK
  5
D9
330
D7
100
AcDbEntity
  8
0
100
AcDbBlockEnd
  0
BLOCK
  5
3C6
330
3C5
100
AcDbEntity
  8
0
100
AcDbBlockBegin
  2
*D8
 70
     1
 71
     0
 10
0.0
 20
0.0
 30
0.0
  3
*D8
  1

  0
SOLID
  5
3C8
330
3C5
100
AcDbEntity
  8
0
  6
Continuous
 62
     7
370
     0
100
AcDbTrace
 10
9.3559145138
 20
3.0878956911
 30
0.0
 11
9.1999145138
 21
3.1138956911
 31
0.0
 12
9.1999145138
 22
3.0618956911
 32
0.0
 13
9.1999145138
 23
3.0618956911
 33
0.0
  0
SOLID
  5
3C9
330
3C5
100
AcDbEntity
  8
0
  6
Continuous
 62
     7
370
     0
100
AcDbTrace
 10
8.6973648681
 20
3.0878956911
 30
0.0
 11
8.8533648681
 21
3.0618956911
 31
0.0
 12
8.8533648681
 22
3.1138956911
 32
0.0
 13
8.8533648681
 23
3.1138956911
 33
0.0
  0
LINE
  5
3CA
330
3C5
100
AcDbEntity
  8
0
  6
Continuous
 62
     7
370
     0
100
AcDbLine
 10
9.7134424523
 20
3.2409482787
 30
0.0
 11
9.7134424523
 21
3.1003053604
 31
0.0
  0
LINE
  5
3CB
330
3C5
100
AcDbEntity
  8
0
  6
Continuous
 62
     7
370
     0
100
AcDbLine
 10
9.7134424523
 20
3.1003053604
 30
0.0
 11
9.7345436196
 21
3.1003053604
 31
0.0
  0
LINE
  5
3CC
330
3C5
100
AcDbEntity
  8
0
  6
Continuous
 62
     7
370
     0
100
AcDbLine
 10
9.7134424523
 20
3.2409482787
 30
0.0
 11
9.7345436196
 21
3.2409482787
 31
0.0
  0
LINE
  5
3CD
330
3C5
100
AcDbEntity
  8
0
  6
Continuous
 62
     7
370
     0
100
AcDbLine
 10
10.1440517908
 20
3.2409482787
 30
0.0
 11
10.1440517908
 21
3.1003053604
 31
0.0
  0
LINE
  5
3CE
330
3C5
100
AcDbEntity
  8
0
  6
Continuous
 62
     7
370
     0
100
AcDbLine
 10
10.1440517908
 20
3.1003053604
 30
0.0
 11
10.1229506235
 21
3.1003053604
 31
0.0
  0
LINE
  5
3CF
330
3C5
100
AcDbEntity
  8
0
  6
Continuous
 62
     7
370
     0
100
AcDbLine
 10
10.1440517908
 20
3.2409482787
 30
0.0
 11
10.1229506235
 21
3.2409482787
 31
0.0
  0
LINE
  5
3D0
330
3C5
100
AcDbEntity
  8
0
  6
Continuous
 62
     7
370
     0
100
AcDbLine
 10
9.3559145138
 20
4.3576724773
 30
0.0
 11
9.3559145138
 21
2.9628956911
 31
0.0
  0
LINE
  5
3D1
330
3C5
100
AcDbEntity
  8
0
  6
Continuous
 62
     7
370
     0
100
AcDbLine
 10
8.6973648681
 20
3.7676724777
 30
0.0
 11
8.6973648681
 21
2.9628956911
 31
0.0
  0
LINE
  5
3D2
330
3C5
100
AcDbEntity
  8
0
  6
Continuous
 62
     7
370
     0
100
AcDbLine
 10
9.3559145138
 20
3.0878956911
 30
0.0
 11
9.587602569
 21
3.0878956911
 31
0.0
  0
LINE
  5
3D3
330
3C5
100
AcDbEntity
  8
0
  6
Continuous
 62
     7
370
     0
100
AcDbLine
 10
8.6973648681
 20
3.0878956911
 30
0.0
 11
9.3559145138
 21
3.0878956911
 31
0.0
  0
MTEXT
  5
3D4
330
3C5
100
AcDbEntity
  8
0
  6
Continuous
 62
     7
370
     0
100
AcDbMText
 10
9.7941362266
 20
3.0554900727
 30
0.0
 40
0.1041666667
 41
0.0
 71
     1
 72
     1
  1
0.66
  7
SLDTEXTSTYLE0
 73
     1
 44
1.0
  0
MTEXT
  5
3D5
330
3C5
100
AcDbEntity
  8
0
  6
Continuous
 62
     7
370
     0
100
AcDbMText
 10
9.7556447869
 20
3.2209523295
 30
0.0
 40
0.1041666667
 41
0.0
 71
     1
 72
     1
  1
16.73
  7
SLDTEXTSTYLE0
 73
     1
 44
1.0
  0
ENDBLK
  5
3C7
330
3C5
100
AcDbEntity
  8
0
100
AcDbBlockEnd
  0
BLOCK
  5
3D8
330
3D7
100
AcDbEntity
  8
0
100
AcDbBlockBegin
  2
*D9
 70
     1
 71
     0
 10
0.0
 20
0.0
 30
0.0
  3
*D9
  1

  0
SOLID
  5
3DA
330
3D7
100
AcDbEntity
  8
0
  6
Continuous
 62
     7
370
     0
100
AcDbTrace
 10
9.3559145138
 20
5.2425955152
 30
0.0
 11
9.1999145138
 21
5.2685955152
 31
0.0
 12
9.1999145138
 22
5.2165955152
 32
0.0
 13
9.1999145138
 23
5.2165955152
 33
0.0
  0
SOLID
  5
3DB
330
3D7
100
AcDbEntity
  8
0
  6
Continuous
 62
     7
370
     0
100
AcDbTrace
 10
8.4972316492
 20
5.2425955152
 30
0.0
 11
8.6532316492
 21
5.2165955152
 31
0.0
 12
8.6532316492
 22
5.2685955152
 32
0.0
 13
8.6532316492
 23
5.2685955152
 33
0.0
  0
LINE
  5
3DC
330
3D7
100
AcDbEntity
  8
0
  6
Continuous
 62
     7
370
     0
100
AcDbLine
 10
9.5844224037
 20
5.3956481027
 30
0.0
 11
9.5844224037
 21
5.2550051844
 31
0.0
  0
LINE
  5
3DD
330
3D7
100
AcDbEntity
  8
0
  6
Continuous
 62
     7
370
     0
100
AcDbLine
 10
9.5844224037
 20
5.2550051844
 30
0.0
 11
9.605523571
 21
5.2550051844
 31
0.0
  0
LINE
  5
3DE
330
3D7
100
AcDbEntity
  8
0
  6
Continuous
 62
     7
370
     0
100
AcDbLine
 10
9.5844224037
 20
5.3956481027
 30
0.0
 11
9.605523571
 21
5.3956481027
 31
0.0
  0
LINE
  5
3DF
330
3D7
100
AcDbEntity
  8
0
  6
Continuous
 62
     7
370
     0
100
AcDbLine
 10
10.0150317422
 20
5.3956481027
 30
0.0
 11
10.0150317422
 21
5.2550051844
 31
0.0
  0
LINE
  5
3E0
330
3D7
100
AcDbEntity
  8
0
  6
Continuous
 62
     7
370
     0
100
AcDbLine
 10
10.0150317422
 20
5.2550051844
 30
0.0
 11
9.9939305749
 21
5.2550051844
 31
0.0
  0
LINE
  5
3E1
330
3D7
100
AcDbEntity
  8
0
  6
Continuous
 62
     7
370
     0
100
AcDbLine
 10
10.0150317422
 20
5.3956481027
 30
0.0
 11
9.9939305749
 21
5.3956481027
 31
0.0
  0
LINE
  5
3E2
330
3D7
100
AcDbEntity
  8
0
  6
Continuous
 62
     7
370
     0
100
AcDbLine
 10
9.3559145138
 20
4.4576724773
 30
0.0
 11
9.3559145138
 21
5.3675955152
 31
0.0
  0
LINE
  5
3E3
330
3D7
100
AcDbEntity
  8
0
  6
Continuous
 62
     7
370
     0
100
AcDbLine
 10
8.4972316492
 20
4.4576724773
 30
0.0
 11
8.4972316492
 21
5.3675955152
 31
0.0
  0
LINE
  5
3E4
330
3D7
100
AcDbEntity
  8
0
  6
Continuous
 62
     7
370
     0
100
AcDbLine
 10
9.3559145138
 20
5.2425955152
 30
0.0
 11
9.4585825204
 21
5.2425955152
 31
0.0
  0
LINE
  5
3E5
330
3D7
100
AcDbEntity
  8
0
  6
Continuous
 62
     7
370
     0
100
AcDbLine
 10
8.4972316492
 20
5.2425955152
 30
0.0
 11
9.3559145138
 21
5.2425955152
 31
0.0
  0
MTEXT
  5
3E6
330
3D7
100
AcDbEntity
  8
0
  6
Continuous
 62
     7
370
     0
100
AcDbMText
 10
9.665116178
 20
5.2101898967
 30
0.0
 40
0.1041666667
 41
0.0
 71
     1
 72
     1
  1
0.86
  7
SLDTEXTSTYLE0
 73
     1
 44
1.0
  0
MTEXT
  5
3E7
330
3D7
100
AcDbEntity
  8
0
  6
Continuous
 62
     7
370
     0
100
AcDbMText
 10
9.6266247383
 20
5.3756521535
 30
0.0
 40
0.1041666667
 41
0.0
 71
     1
 72
     1
  1
21.81
  7
SLDTEXTSTYLE0
 73
     1
 44
1.0
  0
ENDBLK
  5
3D9
330
3D7
100
AcDbEntity
  8
0
100
AcDbBlockEnd
  0
BLOCK
  5
3EB
330
3EA
100
AcDbEntity
  8
0
100
AcDbBlockBegin
  2
*D10
 70
     1
 71
     0
 10
0.0
 20
0.0
 30
0.0
  3
*D10
  1

  0
SOLID
  5
3ED
330
3EA
100
AcDbEntity
  8
0
  6
Continuous
 62
     7
370
     0
100
AcDbTrace
 10
3.7090066278
 20
3.0878956916
 30
0.0
 11
3.8650066278
 21
3.0618956916
 31
0.0
 12
3.8650066278
 22
3.1138956916
 32
0.0
 13
3.8650066278
 23
3.1138956916
 33
0.0
  0
SOLID
  5
3EE
330
3EA
100
AcDbEntity
  8
0
  6
Continuous
 62
     7
370
     0
100
AcDbTrace
 10
7.3200691081
 20
3.0878956916
 30
0.0
 11
7.1640691081
 21
3.1138956916
 31
0.0
 12
7.1640691081
 22
3.0618956916
 32
0.0
 13
7.1640691081
 23
3.0618956916
 33
0.0
  0
LINE
  5
3EF
330
3EA
100
AcDbEntity
  8
0
  6
Continuous
 62
     7
370
     0
100
AcDbLine
 10
5.0575203444
 20
3.2409482792
 30
0.0
 11
5.0575203444
 21
3.1003053609
 31
0.0
  0
LINE
  5
3F0
330
3EA
100
AcDbEntity
  8
0
  6
Continuous
 62
     7
370
     0
100
AcDbLine
 10
5.0575203444
 20
3.1003053609
 30
0.0
 11
5.0786215117
 21
3.1003053609
 31
0.0
  0
LINE
  5
3F1
330
3EA
100
AcDbEntity
  8
0
  6
Continuous
 62
     7
370
     0
100
AcDbLine
 10
5.0575203444
 20
3.2409482792
 30
0.0
 11
5.0786215117
 21
3.2409482792
 31
0.0
  0
LINE
  5
3F2
330
3EA
100
AcDbEntity
  8
0
  6
Continuous
 62
     7
370
     0
100
AcDbLine
 10
5.4881296829
 20
3.2409482792
 30
0.0
 11
5.4881296829
 21
3.1003053609
 31
0.0
  0
LINE
  5
3F3
330
3EA
100
AcDbEntity
  8
0
  6
Continuous
 62
     7
370
     0
100
AcDbLine
 10
5.4881296829
 20
3.1003053609
 30
0.0
 11
5.4670285156
 21
3.1003053609
 31
0.0
  0
LINE
  5
3F4
330
3EA
100
AcDbEntity
  8
0
  6
Continuous
 62
     7
370
     0
100
AcDbLine
 10
5.4881296829
 20
3.2409482792
 30
0.0
 11
5.4670285156
 21
3.2409482792
 31
0.0
  0
LINE
  5
3F5
330
3EA
100
AcDbEntity
  8
0
  6
Continuous
 62
     7
370
     0
100
AcDbLine
 10
3.7090066278
 20
4.3576724773
 30
0.0
 11
3.7090066278
 21
2.9628956916
 31
0.0
  0
LINE
  5
3F6
330
3EA
100
AcDbEntity
  8
0
  6
Continuous
 62
     7
370
     0
100
AcDbLine
 10
7.3200691081
 20
3.7676724777
 30
0.0
 11
7.3200691081
 21
2.9628956916
 31
0.0
  0
LINE
  5
3F7
330
3EA
100
AcDbEntity
  8
0
  6
Continuous
 62
     7
370
     0
100
AcDbLine
 10
3.7090066278
 20
3.0878956916
 30
0.0
 11
4.9316804611
 21
3.0878956916
 31
0.0
  0
LINE
  5
3F8
330
3EA
100
AcDbEntity
  8
0
  6
Continuous
 62
     7
370
     0
100
AcDbLine
 10
7.3200691081
 20
3.0878956916
 30
0.0
 11
5.6139695662
 21
3.0878956916
 31
0.0
  0
MTEXT
  5
3F9
330
3EA
100
AcDbEntity
  8
0
  6
Continuous
 62
     7
370
     0
100
AcDbMText
 10
5.1382141187
 20
3.0554900731
 30
0.0
 40
0.1041666667
 41
0.0
 71
     1
 72
     1
  1
3.61
  7
SLDTEXTSTYLE0
 73
     1
 44
1.0
  0
MTEXT
  5
3FA
330
3EA
100
AcDbEntity
  8
0
  6
Continuous
 62
     7
370
     0
100
AcDbMText
 10
5.099722679
 20
3.2209523299
 30
0.0
 40
0.1041666667
 41
0.0
 71
     1
 72
     1
  1
91.72
  7
SLDTEXTSTYLE0
 73
     1
 44
1.0
  0
ENDBLK
  5
3EC
330
3EA
100
AcDbEntity
  8
0
100
AcDbBlockEnd
  0
BLOCK
  5
3FD
330
3FC
100
AcDbEntity
  8
0
100
AcDbBlockBegin
  2
*D11
 70
     1
 71
     0
 10
0.0
 20
0.0
 30
0.0
  3
*D11
  1

  0
SOLID
  5
3FF
330
3FC
100
AcDbEntity
  8
0
  6
Continuous
 62
     7
370
     0
100
AcDbTrace
 10
3.7090066278
 20
5.2425955157
 30
0.0
 11
3.8650066278
 21
5.2165955157
 31
0.0
 12
3.8650066278
 22
5.2685955157
 32
0.0
 13
3.8650066278
 23
5.2685955157
 33
0.0
  0
SOLID
  5
400
330
3FC
100
AcDbEntity
  8
0
  6
Continuous
 62
     7
370
     0
100
AcDbTrace
 10
7.5338662918
 20
5.2425955157
 30
0.0
 11
7.3778662918
 21
5.2685955157
 31
0.0
 12
7.3778662918
 22
5.2165955157
 32
0.0
 13
7.3778662918
 23
5.2165955157
 33
0.0
  0
LINE
  5
401
330
3FC
100
AcDbEntity
  8
0
  6
Continuous
 62
     7
370
     0
100
AcDbLine
 10
5.1219275643
 20
5.3956481032
 30
0.0
 11
5.1219275643
 21
5.2550051849
 31
0.0
  0
LINE
  5
402
330
3FC
100
AcDbEntity
  8
0
  6
Continuous
 62
     7
370
     0
100
AcDbLine
 10
5.1219275643
 20
5.2550051849
 30
0.0
 11
5.1430287316
 21
5.2550051849
 31
0.0
  0
LINE
  5
403
330
3FC
100
AcDbEntity
  8
0
  6
Continuous
 62
     7
370
     0
100
AcDbLine
 10
5.1219275643
 20
5.3956481032
 30
0.0
 11
5.1430287316
 21
5.3956481032
 31
0.0
  0
LINE
  5
404
330
3FC
100
AcDbEntity
  8
0
  6
Continuous
 62
     7
370
     0
100
AcDbLine
 10
5.5525369028
 20
5.3956481032
 30
0.0
 11
5.5525369028
 21
5.2550051849
 31
0.0
  0
LINE
  5
405
330
3FC
100
AcDbEntity
  8
0
  6
Continuous
 62
     7
370
     0
100
AcDbLine
 10
5.5525369028
 20
5.2550051849
 30
0.0
 11
5.5314357355
 21
5.2550051849
 31
0.0
  0
LINE
  5
406
330
3FC
100
AcDbEntity
  8
0
  6
Continuous
 62
     7
370
     0
100
AcDbLine
 10
5.5525369028
 20
5.3956481032
 30
0.0
 11
5.5314357355
 21
5.3956481032
 31
0.0
  0
LINE
  5
407
330
3FC
100
AcDbEntity
  8
0
  6
Continuous
 62
     7
370
     0
100
AcDbLine
 10
3.7090066278
 20
4.4576724773
 30
0.0
 11
3.7090066278
 21
5.3675955157
 31
0.0
  0
LINE
  5
408
330
3FC
100
AcDbEntity
  8
0
  6
Continuous
 62
     7
370
     0
100
AcDbLine
 10
7.5338662918
 20
4.4576724773
 30
0.0
 11
7.5338662918
 21
5.3675955157
 31
0.0
  0
LINE
  5
409
330
3FC
100
AcDbEntity
  8
0
  6
Continuous
 62
     7
370
     0
100
AcDbLine
 10
3.7090066278
 20
5.2425955157
 30
0.0
 11
4.996087681
 21
5.2425955157
 31
0.0
  0
LINE
  5
40A
330
3FC
100
AcDbEntity
  8
0
  6
Continuous
 62
     7
370
     0
100
AcDbLine
 10
7.5338662918
 20
5.2425955157
 30
0.0
 11
5.6783767861
 21
5.2425955157
 31
0.0
  0
MTEXT
  5
40B
330
3FC
100
AcDbEntity
  8
0
  6
Continuous
 62
     7
370
     0
100
AcDbMText
 10
5.2026213386
 20
5.2101898972
 30
0.0
 40
0.1041666667
 41
0.0
 71
     1
 72
     1
  1
3.82
  7
SLDTEXTSTYLE0
 73
     1
 44
1.0
  0
MTEXT
  5
40C
330
3FC
100
AcDbEntity
  8
0
  6
Continuous
 62
     7
370
     0
100
AcDbMText
 10
5.1641298989
 20
5.375652154
 30
0.0
 40
0.1041666667
 41
0.0
 71
     1
 72
     1
  1
97.15
  7
SLDTEXTSTYLE0
 73
     1
 44
1.0
  0
ENDBLK
  5
3FE
330
3FC
100
AcDbEntity
  8
0
100
AcDbBlockEnd
  0
BLOCK
  5
410
330
40F
100
AcDbEntity
  8
0
100
AcDbBlockBegin
  2
*D12
 70
     1
 71
     0
 10
0.0
 20
0.0
 30
0.0
  3
*D12
  1

  0
SOLID
  5
412
330
40F
100
AcDbEntity
  8
0
  6
Continuous
 62
     7
370
     0
100
AcDbTrace
 10
7.3200691081
 20
2.5290472869
 30
0.0
 11
7.4760691081
 21
2.5030472869
 31
0.0
 12
7.4760691081
 22
2.5550472869
 32
0.0
 13
7.4760691081
 23
2.5550472869
 33
0.0
  0
SOLID
  5
413
330
40F
100
AcDbEntity
  8
0
  6
Continuous
 62
     7
370
     0
100
AcDbTrace
 10
8.6973648681
 20
2.5290472869
 30
0.0
 11
8.5413648681
 21
2.5550472869
 31
0.0
 12
8.5413648681
 22
2.5030472869
 32
0.0
 13
8.5413648681
 23
2.5030472869
 33
0.0
  0
LINE
  5
414
330
40F
100
AcDbEntity
  8
0
  6
Continuous
 62
     7
370
     0
100
AcDbLine
 10
7.7934123189
 20
2.6820998745
 30
0.0
 11
7.7934123189
 21
2.5414569562
 31
0.0
  0
LINE
  5
415
330
40F
100
AcDbEntity
  8
0
  6
Continuous
 62
     7
370
     0
100
AcDbLine
 10
7.7934123189
 20
2.5414569562
 30
0.0
 11
7.8145134862
 21
2.5414569562
 31
0.0
  0
LINE
  5
416
330
40F
100
AcDbEntity
  8
0
  6
Continuous
 62
     7
370
     0
100
AcDbLine
 10
7.7934123189
 20
2.6820998745
 30
0.0
 11
7.8145134862
 21
2.6820998745
 31
0.0
  0
LINE
  5
417
330
40F
100
AcDbEntity
  8
0
  6
Continuous
 62
     7
370
     0
100
AcDbLine
 10
8.2240216574
 20
2.6820998745
 30
0.0
 11
8.2240216574
 21
2.5414569562
 31
0.0
  0
LINE
  5
418
330
40F
100
AcDbEntity
  8
0
  6
Continuous
 62
     7
370
     0
100
AcDbLine
 10
8.2240216574
 20
2.5414569562
 30
0.0
 11
8.2029204901
 21
2.5414569562
 31
0.0
  0
LINE
  5
419
330
40F
100
AcDbEntity
  8
0
  6
Continuous
 62
     7
370
     0
100
AcDbLine
 10
8.2240216574
 20
2.6820998745
 30
0.0
 11
8.2029204901
 21
2.6820998745
 31
0.0
  0
LINE
  5
41A
330
40F
100
AcDbEntity
  8
0
  6
Continuous
 62
     7
370
     0
100
AcDbLine
 10
7.3200691081
 20
3.7676724777
 30
0.0
 11
7.3200691081
 21
2.4040472869
 31
0.0
  0
LINE
  5
41B
330
40F
100
AcDbEntity
  8
0
  6
Continuous
 62
     7
370
     0
100
AcDbLine
 10
8.6973648681
 20
3.7676724777
 30
0.0
 11
8.6973648681
 21
2.4040472869
 31
0.0
  0
LINE
  5
41C
330
40F
100
AcDbEntity
  8
0
  6
Continuous
 62
     7
370
     0
100
AcDbLine
 10
7.3200691081
 20
2.5290472869
 30
0.0
 11
7.6675724356
 21
2.5290472869
 31
0.0
  0
LINE
  5
41D
330
40F
100
AcDbEntity
  8
0
  6
Continuous
 62
     7
370
     0
100
AcDbLine
 10
8.6973648681
 20
2.5290472869
 30
0.0
 11
8.3498615407
 21
2.5290472869
 31
0.0
  0
MTEXT
  5
41E
330
40F
100
AcDbEntity
  8
0
  6
Continuous
 62
     7
370
     0
100
AcDbMText
 10
7.8356146535
 20
2.4966416685
 30
0.0
 40
0.1041666667
 41
0.0
 71
     1
 72
     1
  1
1.377
  7
SLDTEXTSTYLE0
 73
     1
 44
1.0
  0
MTEXT
  5
41F
330
40F
100
AcDbEntity
  8
0
  6
Continuous
 62
     7
370
     0
100
AcDbMText
 10
7.8356146535
 20
2.6621039253
 30
0.0
 40
0.1041666667
 41
0.0
 71
     1
 72
     1
  1
34.98
  7
SLDTEXTSTYLE0
 73
     1
 44
1.0
  0
ENDBLK
  5
411
330
40F
100
AcDbEntity
  8
0
100
AcDbBlockEnd
  0
BLOCK
  5
422
330
421
100
AcDbEntity
  8
0
100
AcDbBlockBegin
  2
*D13
 70
     1
 71
     0
 10
0.0
 20
0.0
 30
0.0
  3
*D13
  1

  0
SOLID
  5
424
330
421
100
AcDbEntity
  8
0
  6
Continuous
 62
     7
370
     0
100
AcDbTrace
 10
7.7897718036
 20
3.5094133041
 30
0.0
 11
7.6337718036
 21
3.5354133041
 31
0.0
 12
7.6337718036
 22
3.4834133041
 32
0.0
 13
7.6337718036
 23
3.4834133041
 33
0.0
  0
SOLID
  5
425
330
421
100
AcDbEntity
  8
0
  6
Continuous
 62
     7
370
     0
100
AcDbTrace
 10
7.9460505468
 20
3.5094133041
 30
0.0
 11
8.1020505468
 21
3.4834133041
 31
0.0
 12
8.1020505468
 22
3.5354133041
 32
0.0
 13
8.1020505468
 23
3.5354133041
 33
0.0
  0
LINE
  5
426
330
421
100
AcDbEntity
  8
0
  6
Continuous
 62
     7
370
     0
100
AcDbLine
 10
8.2703961323
 20
3.6624658916
 30
0.0
 11
8.2703961323
 21
3.5218229733
 31
0.0
  0
LINE
  5
427
330
421
100
AcDbEntity
  8
0
  6
Continuous
 62
     7
370
     0
100
AcDbLine
 10
8.2703961323
 20
3.5218229733
 30
0.0
 11
8.2914972996
 21
3.5218229733
 31
0.0
  0
LINE
  5
428
330
421
100
AcDbEntity
  8
0
  6
Continuous
 62
     7
370
     0
100
AcDbLine
 10
8.2703961323
 20
3.6624658916
 30
0.0
 11
8.2914972996
 21
3.6624658916
 31
0.0
  0
LINE
  5
429
330
421
100
AcDbEntity
  8
0
  6
Continuous
 62
     7
370
     0
100
AcDbLine
 10
8.6240225915
 20
3.6624658916
 30
0.0
 11
8.6240225915
 21
3.5218229733
 31
0.0
  0
LINE
  5
42A
330
421
100
AcDbEntity
  8
0
  6
Continuous
 62
     7
370
     0
100
AcDbLine
 10
8.6240225915
 20
3.5218229733
 30
0.0
 11
8.6029214242
 21
3.5218229733
 31
0.0
  0
LINE
  5
42B
330
421
100
AcDbEntity
  8
0
  6
Continuous
 62
     7
370
     0
100
AcDbLine
 10
8.6240225915
 20
3.6624658916
 30
0.0
 11
8.6029214242
 21
3.6624658916
 31
0.0
  0
LINE
  5
42C
330
421
100
AcDbEntity
  8
0
  6
Continuous
 62
     7
370
     0
100
AcDbLine
 10
7.7897718036
 20
4.3576724773
 30
0.0
 11
7.7897718036
 21
3.3844133041
 31
0.0
  0
LINE
  5
42D
330
421
100
AcDbEntity
  8
0
  6
Continuous
 62
     7
370
     0
100
AcDbLine
 10
7.9460505468
 20
4.3576724773
 30
0.0
 11
7.9460505468
 21
3.3844133041
 31
0.0
  0
LINE
  5
42E
330
421
100
AcDbEntity
  8
0
  6
Continuous
 62
     7
370
     0
100
AcDbLine
 10
7.7897718036
 20
3.5094133041
 30
0.0
 11
7.2897718036
 21
3.5094133041
 31
0.0
  0
LINE
  5
42F
330
421
100
AcDbEntity
  8
0
  6
Continuous
 62
     7
370
     0
100
AcDbLine
 10
7.9460505468
 20
3.5094133041
 30
0.0
 11
8.1445562491
 21
3.5094133041
 31
0.0
  0
MTEXT
  5
430
330
421
100
AcDbEntity
  8
0
  6
Continuous
 62
     7
370
     0
100
AcDbMText
 10
8.312598467
 20
3.4770076856
 30
0.0
 40
0.1041666667
 41
0.0
 71
     1
 72
     1
  1
0.16
  7
SLDTEXTSTYLE0
 73
     1
 44
1.0
  0
MTEXT
  5
431
330
421
100
AcDbEntity
  8
0
  6
Continuous
 62
     7
370
     0
100
AcDbMText
 10
8.312598467
 20
3.6424699424
 30
0.0
 40
0.1041666667
 41
0.0
 71
     1
 72
     1
  1
3.97
  7
SLDTEXTSTYLE0
 73
     1
 44
1.0
  0
ENDBLK
  5
423
330
421
100
AcDbEntity
  8
0
100
AcDbBlockEnd
  0
BLOCK
  5
434
330
433
100
AcDbEntity
  8
0
100
AcDbBlockBegin
  2
*D14
 70
     1
 71
     0
 10
0.0
 20
0.0
 30
0.0
  3
*D14
  1

  0
SOLID
  5
436
330
433
100
AcDbEntity
  8
0
  6
Continuous
 62
     7
370
     0
100
AcDbTrace
 10
7.5338662918
 20
5.7078488994
 30
0.0
 11
7.3778662918
 21
5.7338488994
 31
0.0
 12
7.3778662918
 22
5.6818488994
 32
0.0
 13
7.3778662918
 23
5.6818488994
 33
0.0
  0
SOLID
  5
437
330
433
100
AcDbEntity
  8
0
  6
Continuous
 62
     7
370
     0
100
AcDbTrace
 10
8.4972316492
 20
5.7078488994
 30
0.0
 11
8.6532316492
 21
5.6818488994
 31
0.0
 12
8.6532316492
 22
5.7338488994
 32
0.0
 13
8.6532316492
 23
5.7338488994
 33
0.0
  0
LINE
  5
438
330
433
100
AcDbEntity
  8
0
  6
Continuous
 62
     7
370
     0
100
AcDbLine
 10
7.7934123189
 20
5.860901487
 30
0.0
 11
7.7934123189
 21
5.7202585687
 31
0.0
  0
LINE
  5
439
330
433
100
AcDbEntity
  8
0
  6
Continuous
 62
     7
370
     0
100
AcDbLine
 10
7.7934123189
 20
5.7202585687
 30
0.0
 11
7.8145134862
 21
5.7202585687
 31
0.0
  0
LINE
  5
43A
330
433
100
AcDbEntity
  8
0
  6
Continuous
 62
     7
370
     0
100
AcDbLine
 10
7.7934123189
 20
5.860901487
 30
0.0
 11
7.8145134862
 21
5.860901487
 31
0.0
  0
LINE
  5
43B
330
433
100
AcDbEntity
  8
0
  6
Continuous
 62
     7
370
     0
100
AcDbLine
 10
8.2240216574
 20
5.860901487
 30
0.0
 11
8.2240216574
 21
5.7202585687
 31
0.0
  0
LINE
  5
43C
330
433
100
AcDbEntity
  8
0
  6
Continuous
 62
     7
370
     0
100
AcDbLine
 10
8.2240216574
 20
5.7202585687
 30
0.0
 11
8.2029204901
 21
5.7202585687
 31
0.0
  0
LINE
  5
43D
330
433
100
AcDbEntity
  8
0
  6
Continuous
 62
     7
370
     0
100
AcDbLine
 10
8.2240216574
 20
5.860901487
 30
0.0
 11
8.2029204901
 21
5.860901487
 31
0.0
  0
LINE
  5
43E
330
433
100
AcDbEntity
  8
0
  6
Continuous
 62
     7
370
     0
100
AcDbLine
 10
7.5338662918
 20
4.4576724773
 30
0.0
 11
7.5338662918
 21
5.8328488994
 31
0.0
  0
LINE
  5
43F
330
433
100
AcDbEntity
  8
0
  6
Continuous
 62
     7
370
     0
100
AcDbLine
 10
8.4972316492
 20
4.4576724773
 30
0.0
 11
8.4972316492
 21
5.8328488994
 31
0.0
  0
LINE
  5
440
330
433
100
AcDbEntity
  8
0
  6
Continuous
 62
     7
370
     0
100
AcDbLine
 10
7.5338662918
 20
5.7078488994
 30
0.0
 11
7.0338662918
 21
5.7078488994
 31
0.0
  0
LINE
  5
441
330
433
100
AcDbEntity
  8
0
  6
Continuous
 62
     7
370
     0
100
AcDbLine
 10
8.4972316492
 20
5.7078488994
 30
0.0
 11
8.9972316492
 21
5.7078488994
 31
0.0
  0
MTEXT
  5
442
330
433
100
AcDbEntity
  8
0
  6
Continuous
 62
     7
370
     0
100
AcDbMText
 10
7.8741060932
 20
5.6754432809
 30
0.0
 40
0.1041666667
 41
0.0
 71
     1
 72
     1
  1
0.96
  7
SLDTEXTSTYLE0
 73
     1
 44
1.0
  0
MTEXT
  5
443
330
433
100
AcDbEntity
  8
0
  6
Continuous
 62
     7
370
     0
100
AcDbMText
 10
7.8356146535
 20
5.8409055377
 30
0.0
 40
0.1041666667
 41
0.0
 71
     1
 72
     1
  1
24.47
  7
SLDTEXTSTYLE0
 73
     1
 44
1.0
  0
ENDBLK
  5
435
330
433
100
AcDbEntity
  8
0
100
AcDbBlockEnd
  0
BLOCK
  5
445
330
444
100
AcDbEntity
  8
0
100
AcDbBlockBegin
  2
SW_NOTE_5
 70
     0
 71
     0
 10
0.0
 20
0.0
 30
0.0
  3
SW_NOTE_5
  1

  0
MTEXT
  5
448
330
444
100
AcDbEntity
  8
0
  6
Continuous
 62
     0
370
     0
100
AcDbMText
 10
0.0
 20
0.1330566406
 30
0.0
 40
0.1041666667
 41
0.0
 71
     1
 72
     1
  1
SECTION A-A 
  7
SLDTEXTSTYLE17
 73
     1
 44
1.0
  0
MTEXT
  5
44A
330
444
100
AcDbEntity
  8
0
  6
Continuous
 62
     0
370
     0
100
AcDbMText
 10
0.0841049551
 20
-0.0058322466
 30
0.0
 40
0.1041666667
 41
0.0
 71
     1
 72
     1
  1
SCALE 1 : 1
  7
SLDTEXTSTYLE18
 73
     1
 44
1.0
  0
ENDBLK
  5
446
330
444
100
AcDbEntity
  8
0
100
AcDbBlockEnd
  0
BLOCK
  5
44D
330
44C
100
AcDbEntity
  8
0
100
AcDbBlockBegin
  2
SW_NOTE_6
 70
     0
 71
     0
 10
0.0
 20
0.0
 30
0.0
  3
SW_NOTE_6
  1

  0
MTEXT
  5
450
330
44C
100
AcDbEntity
  8
0
  6
Continuous
 62
     0
370
     0
100
AcDbMText
 10
-1.341323728
 20
0.1666134877
 30
0.0
 40
0.09
 41
0.0
 71
     1
 72
     1
  1
INTERNAL  SM1 THREAD
  7
SLDTEXTSTYLE19
 73
     1
 44
1.0
  0
MTEXT
  5
451
330
44C
100
AcDbEntity
  8
0
  6
Continuous
 62
     0
370
     0
100
AcDbMText
 10
-0.960761216
 20
0.0372434047
 30
0.0
 40
0.09
 41
0.0
 71
     1
 72
     1
  1
(1.035-40)
  7
SLDTEXTSTYLE0
 73
     1
 44
1.0
  0
ENDBLK
  5
44E
330
44C
100
AcDbEntity
  8
0
100
AcDbBlockEnd
  0
BLOCK
  5
457
330
456
100
AcDbEntity
  8
0
100
AcDbBlockBegin
  2
SW_NOTE_7
 70
     0
 71
     0
 10
0.0
 20
0.0
 30
0.0
  3
SW_NOTE_7
  1

  0
CIRCLE
  5
459
330
456
100
AcDbEntity
  8
0
  6
Continuous
 62
     0
370
     0
100
AcDbCircle
 10
0.1948990829
 20
0.0282433933
 30
0.0
 40
0.1969348668812023
  0
MTEXT
  5
45A
330
456
100
AcDbEntity
  8
0
  6
Continuous
 62
     0
370
     0
100
AcDbMText
 10
0.1269583586
 20
0.0991033035
 30
0.0
 40
0.1377952756
 41
0.0
 71
     1
 72
     1
  1
A
  7
SLDTEXTSTYLE0
 73
     1
 44
1.0
  0
ENDBLK
  5
458
330
456
100
AcDbEntity
  8
0
100
AcDbBlockEnd
  0
BLOCK
  5
45E
330
45D
100
AcDbEntity
  8
0
100
AcDbBlockBegin
  2
SW_NOTE_8
 70
     0
 71
     0
 10
0.0
 20
0.0
 30
0.0
  3
SW_NOTE_8
  1

  0
CIRCLE
  5
460
330
45D
100
AcDbEntity
  8
0
  6
Continuous
 62
     0
370
     0
100
AcDbCircle
 10
-0.1949450937
 20
0.0279240443
 30
0.0
 40
0.1969348668812023
  0
MTEXT
  5
461
330
45D
100
AcDbEntity
  8
0
  6
Continuous
 62
     0
370
     0
100
AcDbMText
 10
-0.2476709267
 20
0.0987839544
 30
0.0
 40
0.1377952756
 41
0.0
 71
     1
 72
     1
  1
B
  7
SLDTEXTSTYLE0
 73
     1
 44
1.0
  0
ENDBLK
  5
45F
330
45D
100
AcDbEntity
  8
0
100
AcDbBlockEnd
  0
BLOCK
  5
465
330
464
100
AcDbEntity
  8
0
100
AcDbBlockBegin
  2
SW_NOTE_9
 70
     0
 71
     0
 10
0.0
 20
0.0
 30
0.0
  3
SW_NOTE_9
  1

  0
CIRCLE
  5
467
330
464
100
AcDbEntity
  8
0
  6
Continuous
 62
     0
370
     0
100
AcDbCircle
 10
0.1355538888
 20
-0.142858269
 30
0.0
 40
0.1969348668812016
  0
MTEXT
  5
468
330
464
100
AcDbEntity
  8
0
  6
Continuous
 62
     0
370
     0
100
AcDbMText
 10
0.0609147827
 20
-0.0719983588
 30
0.0
 40
0.1377952756
 41
0.0
 71
     1
 72
     1
  1
C
  7
SLDTEXTSTYLE0
 73
     1
 44
1.0
  0
ENDBLK
  5
466
330
464
100
AcDbEntity
  8
0
100
AcDbBlockEnd
  0
BLOCK
  5
46C
330
46B
100
AcDbEntity
  8
0
100
AcDbBlockBegin
  2
SW_NOTE_10
 70
     0
 71
     0
 10
0.0
 20
0.0
 30
0.0
  3
SW_NOTE_10
  1

  0
CIRCLE
  5
46E
330
46B
100
AcDbEntity
  8
0
  6
Continuous
 62
     0
370
     0
100
AcDbCircle
 10
0.1951864116
 20
0.0261840891
 30
0.0
 40
0.1969348668812023
  0
MTEXT
  5
46F
330
46B
100
AcDbEntity
  8
0
  6
Continuous
 62
     0
370
     0
100
AcDbMText
 10
0.1268629192
 20
0.0970439993
 30
0.0
 40
0.1377952756
 41
0.0
 71
     1
 72
     1
  1
D
  7
SLDTEXTSTYLE0
 73
     1
 44
1.0
  0
ENDBLK
  5
46D
330
46B
100
AcDbEntity
  8
0
100
AcDbBlockEnd
  0
BLOCK
  5
473
330
472
100
AcDbEntity
  8
0
100
AcDbBlockBegin
  2
SW_NOTE_11
 70
     0
 71
     0
 10
0.0
 20
0.0
 30
0.0
  3
SW_NOTE_11
  1

  0
CIRCLE
  5
475
330
472
100
AcDbEntity
  8
0
  6
Continuous
 62
     0
370
     0
100
AcDbCircle
 10
-0.196927522
 20
0.0017008465
 30
0.0
 40
0.1969348668812025
  0
MTEXT
  5
476
330
472
100
AcDbEntity
  8
0
  6
Continuous
 62
     0
370
     0
100
AcDbMText
 10
-0.2652510144
 20
0.0725607567
 30
0.0
 40
0.1377952756
 41
0.0
 71
     1
 72
     1
  1
D
  7
SLDTEXTSTYLE0
 73
     1
 44
1.0
  0
ENDBLK
  5
474
330
472
100
AcDbEntity
  8
0
100
AcDbBlockEnd
  0
ENDSEC
  0
SECTION
  2
ENTITIES
  0
LINE
  5
30
330
1F
100
AcDbEntity
  8
0
  6
Continuous
 62
     7
370
     0
100
AcDbLine
 10
0.329927
 20
8.1920731707
 30
0.0
 11
10.629927
 21
8.1920731707
 31
0.0
  0
LINE
  5
31
330
1F
100
AcDbEntity
  8
0
  6
Continuous
 62
     7
370
     0
100
AcDbLine
 10
0.329927
 20
8.1920731707
 30
0.0
 11
0.329927
 21
0.3920731707
 31
0.0
  0
LINE
  5
32
330
1F
100
AcDbEntity
  8
0
  6
Continuous
 62
     7
370
     0
100
AcDbLine
 10
10.629927
 20
0.3920731707
 30
0.0
 11
0.329927
 21
0.3920731707
 31
0.0
  0
LINE
  5
33
330
1F
100
AcDbEntity
  8
0
  6
Continuous
 62
     7
370
     0
100
AcDbLine
 10
10.629927
 20
0.3920731707
 30
0.0
 11
10.629927
 21
8.1920731707
 31
0.0
  0
LINE
  5
34
330
1F
100
AcDbEntity
  8
0
  6
Continuous
 62
     7
370
     0
100
AcDbLine
 10
7.8832069922
 20
1.2010186622
 30
0.0
 11
6.3491817542
 21
1.2010186622
 31
0.0
  0
LINE
  5
35
330
1F
100
AcDbEntity
  8
0
  6
Continuous
 62
     7
370
     0
100
AcDbLine
 10
6.3491817542
 20
0.3920731707
 30
0.0
 11
6.3491817542
 21
1.6988536355
 31
0.0
  0
LINE
  5
36
330
1F
100
AcDbEntity
  8
0
  6
Continuous
 62
     7
370
     0
100
AcDbLine
 10
7.8832069922
 20
1.270166923
 30
0.0
 11
10.629927
 21
1.270166923
 31
0.0
  0
LINE
  5
37
330
1F
100
AcDbEntity
  8
0
  6
Continuous
 62
     7
370
     0
100
AcDbLine
 10
7.8832069922
 20
1.9437769943
 30
0.0
 11
7.8832069922
 21
0.3920731707
 31
0.0
  0
LINE
  5
38
330
1F
100
AcDbEntity
  8
0
  6
Continuous
 62
     7
370
     0
100
AcDbLine
 10
7.8832069922
 20
1.323339557
 30
0.0
 11
6.3491817542
 21
1.323339557
 31
0.0
  0
LINE
  5
39
330
1F
100
AcDbEntity
  8
0
  6
Continuous
 62
     7
370
     0
100
AcDbLine
 10
7.8832069922
 20
1.6988536355
 30
0.0
 11
6.3491817542
 21
1.6988536355
 31
0.0
  0
LINE
  5
3A
330
1F
100
AcDbEntity
  8
0
  6
Continuous
 62
     7
370
     0
100
AcDbLine
 10
7.8832069922
 20
0.7890359178
 30
0.0
 11
10.629927
 21
0.7890359178
 31
0.0
  0
LINE
  5
3B
330
1F
100
AcDbEntity
  8
0
  6
Continuous
 62
     7
370
     0
100
AcDbLine
 10
7.8832069922
 20
1.4456604517
 30
0.0
 11
6.3491817542
 21
1.4456604517
 31
0.0
  0
LINE
  5
3C
330
1F
100
AcDbEntity
  8
0
  6
Continuous
 62
     7
370
     0
100
AcDbLine
 10
7.8832069922
 20
1.5679813464
 30
0.0
 11
6.3491817542
 21
1.5679813464
 31
0.0
  0
LINE
  5
3D
330
1F
100
AcDbEntity
  8
0
  6
Continuous
 62
     7
370
     0
100
AcDbLine
 10
6.9294188505
 20
1.6988536355
 30
0.0
 11
6.9294188505
 21
1.2010186622
 31
0.0
  0
LINE
  5
3E
330
1F
100
AcDbEntity
  8
0
  6
Continuous
 62
     7
370
     0
100
AcDbLine
 10
7.2989435727
 20
1.6988536355
 30
0.0
 11
7.2989435727
 21
1.2010186622
 31
0.0
  0
LINE
  5
3F
330
1F
100
AcDbEntity
  8
0
  6
Continuous
 62
     7
370
     0
100
AcDbLine
 10
8.9000563418
 20
0.7890359178
 30
0.0
 11
8.9000563418
 21
0.3920731707
 31
0.0
  0
LINE
  5
40
330
1F
100
AcDbEntity
  8
0
  6
Continuous
 62
     7
370
     0
100
AcDbLine
 10
9.3113942988
 20
0.96139916
 30
0.0
 11
9.3113942988
 21
0.7890359178
 31
0.0
  0
LINE
  5
41
330
1F
100
AcDbEntity
  8
0
  6
Continuous
 62
     7
370
     0
100
AcDbLine
 10
10.0324602448
 20
1.270166923
 30
0.0
 11
10.0324602448
 21
0.96139916
 31
0.0
  0
LINE
  5
42
330
1F
100
AcDbEntity
  8
0
  6
Continuous
 62
     7
370
     0
100
AcDbLine
 10
6.3491817542
 20
1.0381709011
 30
0.0
 11
7.8832069922
 21
1.0381709011
 31
0.0
  0
LINE
  5
43
330
1F
100
AcDbEntity
  8
0
  6
Continuous
 62
     7
370
     0
100
AcDbLine
 10
7.8832069922
 20
1.9437769943
 30
0.0
 11
10.629927
 21
1.9437769943
 31
0.0
  0
LINE
  5
44
330
1F
100
AcDbEntity
  8
0
  6
Continuous
 62
     7
370
     0
100
AcDbLine
 10
10.315241862
 20
1.2693980507
 30
0.0
 11
10.315241862
 21
0.96139916
 31
0.0
  0
LINE
  5
45
330
1F
100
AcDbEntity
  8
0
  6
Continuous
 62
     7
370
     0
100
AcDbLine
 10
7.8832069922
 20
0.96139916
 30
0.0
 11
10.629927
 21
0.96139916
 31
0.0
  0
LINE
  5
46
330
1F
100
AcDbEntity
  8
0
  6
Continuous
 62
     7
370
     0
100
AcDbLine
 10
10.629927
 20
1.9437769943
 30
0.0
 11
10.629927
 21
1.9698084888
 31
0.0
  0
LINE
  5
47
330
1F
100
AcDbEntity
  8
0
  6
Continuous
 62
     7
370
     0
100
AcDbLine
 10
7.8832069922
 20
1.6268095213
 30
0.0
 11
10.629927
 21
1.6268095213
 31
0.0
  0
LINE
  5
48
330
1F
100
AcDbEntity
  8
0
  6
Continuous
 62
     7
370
     0
100
AcDbLine
 10
6.692177
 20
0.3920731707
 30
0.0
 11
6.692177
 21
0.3072739649
 31
0.0
  0
LINE
  5
49
330
1F
100
AcDbEntity
  8
0
  6
Continuous
 62
     7
370
     0
100
AcDbLine
 10
2.754677
 20
0.3920731707
 30
0.0
 11
2.754677
 21
0.3072739649
 31
0.0
  0
LINE
  5
4A
330
1F
100
AcDbEntity
  8
0
  6
Continuous
 62
     7
370
     0
100
AcDbLine
 10
2.754677
 20
0.3920731707
 30
0.0
 11
2.7672319738
 21
0.3575
 31
0.0
  0
LINE
  5
4B
330
1F
100
AcDbEntity
  8
0
  6
Continuous
 62
     7
370
     0
100
AcDbLine
 10
2.7672319738
 20
0.3575
 30
0.0
 11
2.7414258825
 21
0.3575
 31
0.0
  0
LINE
  5
4C
330
1F
100
AcDbEntity
  8
0
  6
Continuous
 62
     7
370
     0
100
AcDbLine
 10
2.7414258825
 20
0.3575
 30
0.0
 11
2.754677
 21
0.3920731707
 31
0.0
  0
MTEXT
  5
4E
330
1F
100
AcDbEntity
  8
0
  6
Continuous
 62
     7
370
     0
100
AcDbMText
 10
10.4043270877
 20
1.1203120088
 30
0.0
 40
0.1041666667
 41
0.0
 71
     1
 72
     1
  1
C
  7
SLDTEXTSTYLE0
 73
     1
 44
1.0
  0
MTEXT
  5
4F
330
1F
100
AcDbEntity
  8
0
  6
Continuous
 62
     7
370
     0
100
AcDbMText
 10
1.7387909509
 20
0.3094873007
 30
0.0
 40
0.09375
 41
0.0
 71
     1
 72
     1
  1
5
  7
SLDTEXTSTYLE0
 73
     1
 44
1.0
  0
MTEXT
  5
50
330
1F
100
AcDbEntity
  8
0
  6
Continuous
 62
     7
370
     0
100
AcDbMText
 10
3.723800327
 20
0.3126246278
 30
0.0
 40
0.09375
 41
0.0
 71
     1
 72
     1
  1
4
  7
SLDTEXTSTYLE0
 73
     1
 44
1.0
  0
MTEXT
  5
51
330
1F
100
AcDbEntity
  8
0
  6
Continuous
 62
     7
370
     0
100
AcDbMText
 10
5.6324457277
 20
0.3105200602
 30
0.0
 40
0.09375
 41
0.0
 71
     1
 72
     1
  1
3
  7
SLDTEXTSTYLE0
 73
     1
 44
1.0
  0
MTEXT
  5
52
330
1F
100
AcDbEntity
  8
0
  6
Continuous
 62
     7
370
     0
100
AcDbMText
 10
7.6059721724
 20
0.3113400111
 30
0.0
 40
0.09375
 41
0.0
 71
     1
 72
     1
  1
2
  7
SLDTEXTSTYLE0
 73
     1
 44
1.0
  0
MTEXT
  5
53
330
1F
100
AcDbEntity
  8
0
  6
Continuous
 62
     7
370
     0
100
AcDbMText
 10
9.6619921328
 20
0.300272888
 30
0.0
 40
0.09375
 41
0.0
 71
     1
 72
     1
  1
1
  7
SLDTEXTSTYLE0
 73
     1
 44
1.0
  0
MTEXT
  5
54
330
1F
100
AcDbEntity
  8
0
  6
Continuous
 62
     7
370
     0
100
AcDbMText
 10
9.2773348087
 20
0.5941666803
 30
0.0
 40
0.09375
 41
0.0
 71
     1
 72
     1
  1
MAP1030100-A1
  7
SLDTEXTSTYLE0
 73
     1
 44
1.0
  0
MTEXT
  5
55
330
1F
100
AcDbEntity
  8
0
  6
Continuous
 62
     7
370
     0
100
AcDbMText
 10
7.9301743649
 20
1.2499730493
 30
0.0
 40
0.0833333333
 41
0.0
 71
     1
 72
     1
  1
MATERIAL:
  7
SLDTEXTSTYLE0
 73
     1
 44
1.0
  0
MTEXT
  5
57
330
1F
100
AcDbEntity
  8
0
  6
Continuous
 62
     7
370
     0
100
AcDbMText
 10
8.9438302275
 20
0.7457341193
 30
0.0
 40
0.0833333333
 41
0.0
 71
     1
 72
     1
  1
PART  NO.
  7
SLDTEXTSTYLE1
 73
     1
 44
1.0
  0
MTEXT
  5
59
330
1F
100
AcDbEntity
  8
0
  6
Continuous
 62
     7
370
     0
100
AcDbMText
 10
6.3927073562
 20
1.1440291591
 30
0.0
 40
0.06
 41
0.0
 71
     1
 72
     1
  1
PROPRIETARY AND CONFIDENTIAL
  7
SLDTEXTSTYLE2
 73
     1
 44
1.0
  0
MTEXT
  5
5A
330
1F
100
AcDbEntity
  8
0
  6
Continuous
 62
     7
370
     0
100
AcDbMText
 10
6.4985660702
 20
1.5406501707
 30
0.0
 40
0.065
 41
0.0
 71
     1
 72
     1
  1
DRAWN
  7
SLDTEXTSTYLE0
 73
     1
 44
1.0
  0
MTEXT
  5
5B
330
1F
100
AcDbEntity
  8
0
  6
Continuous
 62
     7
370
     0
100
AcDbMText
 10
6.4369653776
 20
1.4183941661
 30
0.0
 40
0.065
 41
0.0
 71
     1
 72
     1
  1
ENG APPR.
  7
SLDTEXTSTYLE0
 73
     1
 44
1.0
  0
MTEXT
  5
5C
330
1F
100
AcDbEntity
  8
0
  6
Continuous
 62
     7
370
     0
100
AcDbMText
 10
6.4273055419
 20
1.298296273
 30
0.0
 40
0.065
 41
0.0
 71
     1
 72
     1
  1
MFG APPR.
  7
SLDTEXTSTYLE0
 73
     1
 44
1.0
  0
MTEXT
  5
5D
330
1F
100
AcDbEntity
  8
0
  6
Continuous
 62
     7
370
     0
100
AcDbMText
 10
6.9752663896
 20
1.6608078346
 30
0.0
 40
0.065
 41
0.0
 71
     1
 72
     1
  1
NAME
  7
SLDTEXTSTYLE0
 73
     1
 44
1.0
  0
MTEXT
  5
5E
330
1F
100
AcDbEntity
  8
0
  6
Continuous
 62
     7
370
     0
100
AcDbMText
 10
7.9386050459
 20
1.5661804433
 30
0.0
 40
0.1
 41
0.0
 71
     1
 72
     1
  1
TITLE:
  7
SLDTEXTSTYLE0
 73
     1
 44
1.0
  0
MTEXT
  5
5F
330
1F
100
AcDbEntity
  8
0
  6
Continuous
 62
     7
370
     0
100
AcDbMText
 10
10.0657693915
 20
1.2262994671
 30
0.0
 40
0.0833333333
 41
0.0
 71
     1
 72
     1
  1
SIZE
  7
SLDTEXTSTYLE0
 73
     1
 44
1.0
  0
MTEXT
  5
60
330
1F
100
AcDbEntity
  8
0
  6
Continuous
 62
     7
370
     0
100
AcDbMText
 10
10.1162261111
 20
1.1164461388
 30
0.0
 40
0.1041666667
 41
0.0
 71
     1
 72
     1
  1
A
  7
SLDTEXTSTYLE0
 73
     1
 44
1.0
  0
MTEXT
  5
61
330
1F
100
AcDbEntity
  8
0
  6
Continuous
 62
     7
370
     0
100
AcDbMText
 10
10.335100974
 20
1.2278993505
 30
0.0
 40
0.0833333333
 41
0.0
 71
     1
 72
     1
  1
REV.
  7
SLDTEXTSTYLE0
 73
     1
 44
1.0
  0
MTEXT
  5
62
330
1F
100
AcDbEntity
  8
0
  6
Continuous
 62
     7
370
     0
100
AcDbMText
 10
8.3227727705
 20
0.9309786574
 30
0.0
 40
0.0833333333
 41
0.0
 71
     1
 72
     1
  1
SCALE: 1:1
  7
SLDTEXTSTYLE0
 73
     1
 44
1.0
  0
MTEXT
  5
64
330
1F
100
AcDbEntity
  8
0
  6
Continuous
 62
     7
370
     0
100
AcDbMText
 10
9.6378279873
 20
0.926579063
 30
0.0
 40
0.0833333333
 41
0.0
 71
     1
 72
     1
  1
SHEET 1 OF 1
  7
SLDTEXTSTYLE3
 73
     1
 44
1.0
  0
MTEXT
  5
65
330
1F
100
AcDbEntity
  8
0
  6
Continuous
 62
     7
370
     0
100
AcDbMText
 10
8.0628347712
 20
0.6044052155
 30
0.0
 40
0.1041666667
 41
0.0
 71
     1
 72
     1
  1
13321-E01
  7
SLDTEXTSTYLE0
 73
     1
 44
1.0
  0
INSERT
  5
75
330
1F
100
AcDbEntity
  8
0
  6
Continuous
 62
     7
370
     0
100
AcDbBlockReference
  2
SW_NOTE_0
 10
6.3891646717
 20
0.9312082413
 30
0.0
  0
MTEXT
  5
76
330
1F
100
AcDbEntity
  8
0
  6
Continuous
 62
     7
370
     0
100
AcDbMText
 10
7.9076399399
 20
0.7468305835
 30
0.0
 40
0.0833333333
 41
0.0
 71
     1
 72
     1
  1
DWG.  NO.
  7
SLDTEXTSTYLE1
 73
     1
 44
1.0
  0
MTEXT
  5
77
330
1F
100
AcDbEntity
  8
0
  6
Continuous
 62
     7
370
     0
100
AcDbMText
 10
7.0592138229
 20
1.5434434118
 30
0.0
 40
0.065
 41
0.0
 71
     1
 72
     1
  1
AP
  7
SLDTEXTSTYLE0
 73
     1
 44
1.0
  0
MTEXT
  5
78
330
1F
100
AcDbEntity
  8
0
  6
Continuous
 62
     7
370
     0
100
AcDbMText
 10
7.0628716471
 20
1.4267005168
 30
0.0
 40
0.065
 41
0.0
 71
     1
 72
     1
  1
TO
  7
SLDTEXTSTYLE0
 73
     1
 44
1.0
  0
MTEXT
  5
79
330
1F
100
AcDbEntity
  8
0
  6
Continuous
 62
     7
370
     0
100
AcDbMText
 10
7.0636219211
 20
1.3041261123
 30
0.0
 40
0.065
 41
0.0
 71
     1
 72
     1
  1
TO
  7
SLDTEXTSTYLE0
 73
     1
 44
1.0
  0
MTEXT
  5
7A
330
1F
100
AcDbEntity
  8
0
  6
Continuous
 62
     7
370
     0
100
AcDbMText
 10
7.3775562039
 20
1.5451308061
 30
0.0
 40
0.065
 41
0.0
 71
     1
 72
     1
  1
04/14/06
  7
SLDTEXTSTYLE0
 73
     1
 44
1.0
  0
MTEXT
  5
7B
330
1F
100
AcDbEntity
  8
0
  6
Continuous
 62
     7
370
     0
100
AcDbMText
 10
7.4731545031
 20
1.6582684693
 30
0.0
 40
0.065
 41
0.0
 71
     1
 72
     1
  1
DATE
  7
SLDTEXTSTYLE0
 73
     1
 44
1.0
  0
MTEXT
  5
7C
330
1F
100
AcDbEntity
  8
0
  6
Continuous
 62
     7
370
     0
100
AcDbMText
 10
7.3821011998
 20
1.4184142209
 30
0.0
 40
0.065
 41
0.0
 71
     1
 72
     1
  1
04/14/06
  7
SLDTEXTSTYLE0
 73
     1
 44
1.0
  0
MTEXT
  5
7D
330
1F
100
AcDbEntity
  8
0
  6
Continuous
 62
     7
370
     0
100
AcDbMText
 10
7.3821011998
 20
1.2979456571
 30
0.0
 40
0.065
 41
0.0
 71
     1
 72
     1
  1
04/14/06
  7
SLDTEXTSTYLE0
 73
     1
 44
1.0
  0
MTEXT
  5
7E
330
1F
100
AcDbEntity
  8
0
  6
Continuous
 62
     7
370
     0
100
AcDbMText
 10
7.9182509893
 20
1.8945248266
 30
0.0
 40
0.1875
 41
0.0
 71
     1
 72
     1
  1
THORLABS INC.
  7
SLDTEXTSTYLE0
 73
     1
 44
1.0
  0
INSERT
  5
85
330
1F
100
AcDbEntity
  8
0
  6
Continuous
 62
     7
370
     0
100
AcDbBlockReference
  2
SW_NOTE_1
 10
9.7899715108
 20
1.7786954532
 30
0.0
  0
INSERT
  5
8C
330
1F
100
AcDbEntity
  8
0
  6
Continuous
 62
     7
370
     0
100
AcDbBlockReference
  2
SW_NOTE_2
 10
8.3969790309
 20
1.4097151923
 30
0.0
  0
MTEXT
  5
8D
330
1F
100
AcDbEntity
  8
0
  6
Continuous
 62
     7
370
     0
100
AcDbMText
 10
8.3691642187
 20
1.131481397
 30
0.0
 40
0.1041666667
 41
0.0
 71
     1
 72
     1
  1
SEE TABLE
  7
SLDTEXTSTYLE0
 73
     1
 44
1.0
  0
INSERT
  5
9D
330
1F
100
AcDbEntity
  8
0
  6
Continuous
 62
     7
370
     0
100
AcDbBlockReference
  2
SW_NOTE_3
 10
0.8014463909
 20
1.9040002886
 30
0.0
  0
MTEXT
  5
9E
330
1F
100
AcDbEntity
  8
0
  6
Continuous
 62
     7
370
     0
100
AcDbMText
 10
0.8204544462
 20
2.2103189847
 30
0.0
 40
0.09
 41
0.0
 71
     1
 72
     1
  1
SPECIFICATIONS:
  7
SLDTEXTSTYLE0
 73
     1
 44
1.0
  0
INSERT
  5
A5
330
1F
100
AcDbEntity
  8
0
  6
Continuous
 62
     7
370
     0
100
AcDbBlockReference
  2
SW_NOTE_4
 10
0.4948605893
 20
0.6440107603
 30
0.0
  0
INSERT
  5
C2
330
1F
100
AcDbEntity
  8
0
  6
Continuous
 62
     7
370
     0
100
AcDbBlockReference
  2
SW_TABLEANNOTATION_0
 10
0.3237793427
 20
8.2050938967
 30
0.0
  0
CIRCLE
  5
C3
330
1F
100
AcDbEntity
  8
0
  6
Continuous
 62
     7
370
     0
100
AcDbCircle
 10
1.9401489243
 20
4.4076724777
 30
0.0
 40
0.5059999999999993
  0
CIRCLE
  5
C4
330
1F
100
AcDbEntity
  8
0
  6
Continuous
 62
     7
370
     0
100
AcDbCircle
 10
1.9401489243
 20
4.4076724777
 30
0.0
 40
0.5159999999999995
  0
CIRCLE
  5
C5
330
1F
100
AcDbEntity
  8
0
  6
Continuous
 62
     7
370
     0
100
AcDbCircle
 10
1.9401489243
 20
4.4076724777
 30
0.0
 40
0.5899999999999994
  0
CIRCLE
  5
C6
330
1F
100
AcDbEntity
  8
0
  6
Continuous
 62
     7
370
     0
100
AcDbCircle
 10
1.9401489243
 20
4.4076724777
 30
0.0
 40
0.5999999999999991
  0
ARC
  5
C7
330
1F
100
AcDbEntity
  8
0
  6
Continuous
 62
     7
370
     0
100
AcDbCircle
 10
1.9401489279
 20
4.4076724781
 30
0.0
 40
0.5001794919243121
100
AcDbArc
 50
273.7485713387
 51
92.0302503848
  0
SPLINE
  5
C8
330
1F
100
AcDbEntity
  8
0
  6
Continuous
 62
     7
370
     0
100
AcDbSpline
210
0.0
220
0.0
230
1.0
 70
    24
 71
     1
 72
     4
 73
     2
 74
     0
 42
0.00000001
 43
0.00000001
 40
0.0
 40
0.0
 40
1.0
 40
1.0
 10
1.922428998204342
 20
4.907537979008885
 30
0.0
 10
1.92215745259126
 20
4.912918090190715
 30
0.0
  0
SPLINE
  5
C9
330
1F
100
AcDbEntity
  8
0
  6
Continuous
 62
     7
370
     0
100
AcDbSpline
210
0.0
220
0.0
230
1.0
 70
    24
 71
     1
 72
     4
 73
     2
 74
     0
 42
0.00000001
 43
0.00000001
 40
0.0
 40
0.0
 40
1.0
 40
1.0
 10
1.973112867491626
 20
3.90335072446574
 30
0.0
 10
1.972849786624508
 20
3.90856308758541
 30
0.0
  0
ARC
  5
CA
330
1F
100
AcDbEntity
  8
0
  6
Continuous
 62
     7
370
     0
100
AcDbCircle
 10
1.9401489279
 20
4.4076724781
 30
0.0
 40
0.45
100
AcDbArc
 50
273.8443847355
 51
91.934436988
  0
LINE
  5
CB
330
1F
100
AcDbEntity
  8
0
  6
Continuous
 62
     7
370
     0
100
AcDbLine
 10
1.9224289982
 20
4.907537979
 30
0.0
 11
1.9249587811
 21
4.8574160314
 31
0.0
  0
LINE
  5
CC
330
1F
100
AcDbEntity
  8
0
  6
Continuous
 62
     7
370
     0
100
AcDbLine
 10
1.9728497866
 20
3.9085630876
 30
0.0
 11
1.9703200043
 21
3.9586850536
 31
0.0
  0
ARC
  5
CD
330
1F
100
AcDbEntity
  8
0
  6
Continuous
 62
     7
370
     0
100
AcDbCircle
 10
1.9401489279
 20
4.4076724781
 30
0.0
 40
0.5001794919243114
100
AcDbArc
 50
93.7485713387
 51
272.0302503848
  0
SPLINE
  5
CE
330
1F
100
AcDbEntity
  8
0
  6
Continuous
 62
     7
370
     0
100
AcDbSpline
210
0.0
220
0.0
230
1.0
 70
    24
 71
     1
 72
     4
 73
     2
 74
     0
 42
0.00000001
 43
0.00000001
 40
0.0
 40
0.0
 40
1.0
 40
1.0
 10
1.957868856300077
 20
3.907806974653425
 30
0.0
 10
1.958149493422717
 20
3.902246777218633
 30
0.0
  0
SPLINE
  5
CF
330
1F
100
AcDbEntity
  8
0
  6
Continuous
 62
     7
370
     0
100
AcDbSpline
210
0.0
220
0.0
230
1.0
 70
    24
 71
     1
 72
     4
 73
     2
 74
     0
 42
0.00000001
 43
0.00000001
 40
0.0
 40
0.0
 40
1.0
 40
1.0
 10
1.907204101583647
 20
4.911615558571005
 30
0.0
 10
1.907448069598641
 20
4.906781847743778
 30
0.0
  0
ARC
  5
D0
330
1F
100
AcDbEntity
  8
0
  6
Continuous
 62
     7
370
     0
100
AcDbCircle
 10
1.9401489279
 20
4.4076724781
 30
0.0
 40
0.4499999999999998
100
AcDbArc
 50
93.8443847355
 51
271.934436988
  0
LINE
  5
D1
330
1F
100
AcDbEntity
  8
0
  6
Continuous
 62
     7
370
     0
100
AcDbLine
 10
1.9578688563
 20
3.9078069747
 30
0.0
 11
1.955339074
 21
3.9579289223
 31
0.0
  0
LINE
  5
D2
330
1F
100
AcDbEntity
  8
0
  6
Continuous
 62
     7
370
     0
100
AcDbLine
 10
1.9074480696
 20
4.9067818477
 30
0.0
 11
1.9099778525
 21
4.8566599001
 31
0.0
  0
ARC
  5
D3
330
1F
100
AcDbEntity
  8
0
  6
Continuous
 62
     7
370
     0
100
AcDbCircle
 10
1.9401489279
 20
4.4076724781
 30
0.0
 40
0.449999999999998
100
AcDbArc
 50
91.934436988
 51
93.8443847355
  0
ARC
  5
D4
330
1F
100
AcDbEntity
  8
0
  6
Continuous
 62
     7
370
     0
100
AcDbCircle
 10
1.9401489279
 20
4.4076724781
 30
0.0
 40
0.45
100
AcDbArc
 50
271.934436988
 51
273.8443847355
  0
DIMENSION
  5
D5
330
1F
100
AcDbEntity
  8
0
  6
Continuous
 62
     7
370
     0
100
AcDbDimension
  2
*D7
 10
1.8062239425
 20
3.8228100159
 30
0.0
 11
2.770983717
 21
5.5467309309
 31
0.0
 70
   163
  1
<>
 71
     1
 42
-1.0
  3
SLDDIMSTYLE0
100
AcDbDiametricDimension
 15
2.0740739062
 25
4.9925349396
 35
0.0
 40
0.0
  0
LINE
  5
E6
330
1F
100
AcDbEntity
  8
0
  6
PHANTOM
 62
     7
370
    30
100
AcDbLine
 10
1.9401489243
 20
5.2438000742
 30
0.0
 11
1.9401489243
 21
3.6229988872
 31
0.0
  0
LINE
  5
E7
330
1F
100
AcDbEntity
  8
0
  6
Continuous
 62
     7
370
    30
100
AcDbLine
 10
1.9401489243
 20
5.2438000742
 30
0.0
 11
1.4701489243
 21
5.2438000742
 31
0.0
  0
SOLID
  5
E8
330
1F
100
AcDbEntity
  8
0
  6
Continuous
 62
     7
370
    30
100
AcDbTrace
 10
1.4701489243
 20
5.2438000742
 30
0.0
 11
1.7101489243
 21
5.1838000742
 31
0.0
 12
1.7101489243
 22
5.3038000742
 32
0.0
 13
1.7101489243
 23
5.3038000742
 33
0.0
  0
LINE
  5
E9
330
1F
100
AcDbEntity
  8
0
  6
Continuous
 62
     7
370
    30
100
AcDbLine
 10
1.9401489243
 20
3.6229988872
 30
0.0
 11
1.4701489243
 21
3.6229988872
 31
0.0
  0
SOLID
  5
EA
330
1F
100
AcDbEntity
  8
0
  6
Continuous
 62
     7
370
    30
100
AcDbTrace
 10
1.4701489243
 20
3.6229988872
 30
0.0
 11
1.7101489243
 21
3.5629988872
 31
0.0
 12
1.7101489243
 22
3.6829988872
 32
0.0
 13
1.7101489243
 23
3.6829988872
 33
0.0
  0
MTEXT
  5
EB
330
1F
100
AcDbEntity
  8
0
  6
Continuous
 62
     7
100
AcDbMText
 10
1.2824212979
 20
5.3596382065
 30
0.0
 40
0.1458333333
 41
0.0
 71
     1
 72
     1
  1
A
  7
SLDTEXTSTYLE0
 73
     1
 44
1.0
  0
MTEXT
  5
EC
330
1F
100
AcDbEntity
  8
0
  6
Continuous
 62
     7
100
AcDbMText
 10
1.2824212979
 20
3.7388370195
 30
0.0
 40
0.1458333333
 41
0.0
 71
     1
 72
     1
  1
A
  7
SLDTEXTSTYLE0
 73
     1
 44
1.0
  0
LINE
  5
ED
330
1F
100
AcDbEntity
  8
0
  6
Continuous
 62
     7
370
     0
100
AcDbLine
 10
6.9702288042
 20
7.0552639512
 30
0.0
 11
6.9702288042
 21
7.04709987
 31
0.0
  0
LINE
  5
EE
330
1F
100
AcDbEntity
  8
0
  6
Continuous
 62
     7
370
     0
100
AcDbLine
 10
7.3873539995
 20
6.3245395477
 30
0.0
 11
7.3944239181
 21
6.3204568437
 31
0.0
  0
LINE
  5
EF
330
1F
100
AcDbEntity
  8
0
  6
Continuous
 62
     7
370
     0
100
AcDbLine
 10
7.2749817559
 20
7.434150775
 30
0.0
 11
7.0945172531
 21
7.329970835
 31
0.0
  0
LINE
  5
F0
330
1F
100
AcDbEntity
  8
0
  6
Continuous
 62
     7
370
     0
100
AcDbLine
 10
7.3924565906
 20
7.5019675535
 30
0.0
 11
7.3157865764
 21
7.4577068964
 31
0.0
  0
LINE
  5
F1
330
1F
100
AcDbEntity
  8
0
  6
Continuous
 62
     7
370
     0
100
AcDbLine
 10
8.0542702891
 20
7.8840244693
 30
0.0
 11
7.4345254164
 21
7.5262533697
 31
0.0
  0
LINE
  5
F2
330
1F
100
AcDbEntity
  8
0
  6
Continuous
 62
     7
370
     0
100
AcDbLine
 10
7.915737816
 20
6.4184482616
 30
0.0
 11
8.6542215287
 21
6.8447658345
 31
0.0
  0
LINE
  5
F3
330
1F
100
AcDbEntity
  8
0
  6
Continuous
 62
     7
370
     0
100
AcDbLine
 10
7.7866923977
 20
6.3439519273
 30
0.0
 11
7.8579754569
 21
6.3851027614
 31
0.0
  0
LINE
  5
F4
330
1F
100
AcDbEntity
  8
0
  6
Continuous
 62
     7
370
     0
100
AcDbLine
 10
7.7574905522
 20
6.3270940607
 30
0.0
 11
7.7774749847
 21
6.338630828
 31
0.0
  0
LINE
  5
F5
330
1F
100
AcDbEntity
  8
0
  6
Continuous
 62
     7
370
     0
100
AcDbLine
 10
7.6944684927
 20
6.2907122002
 30
0.0
 11
7.7513755013
 21
6.323563917
 31
0.0
  0
LINE
  5
F6
330
1F
100
AcDbEntity
  8
0
  6
Continuous
 62
     7
370
     0
100
AcDbLine
 10
7.7774749847
 20
6.338630828
 30
0.0
 11
7.7866923977
 21
6.3439519273
 31
0.0
  0
LINE
  5
F7
330
1F
100
AcDbEntity
  8
0
  6
Continuous
 62
     7
370
     0
100
AcDbLine
 10
7.7513755013
 20
6.323563917
 30
0.0
 11
7.7574905522
 21
6.3270940607
 31
0.0
  0
LINE
  5
F8
330
1F
100
AcDbEntity
  8
0
  6
Continuous
 62
     7
370
     0
100
AcDbLine
 10
8.7785099776
 20
7.1194727184
 30
0.0
 11
8.7785099776
 21
7.1276367995
 31
0.0
  0
LINE
  5
F9
330
1F
100
AcDbEntity
  8
0
  6
Continuous
 62
     7
370
     0
100
AcDbLine
 10
8.3613847823
 20
7.8501971218
 30
0.0
 11
8.3543148638
 21
7.8542798258
 31
0.0
  0
LINE
  5
FA
330
1F
100
AcDbEntity
  8
0
  6
Continuous
 62
     7
370
     0
100
AcDbLine
 10
7.3157865764
 20
7.4577068964
 30
0.0
 11
7.2749817559
 21
7.434150775
 31
0.0
  0
LINE
  5
FB
330
1F
100
AcDbEntity
  8
0
  6
Continuous
 62
     7
370
     0
100
AcDbLine
 10
7.8579754569
 20
6.3851027614
 30
0.0
 11
7.915737816
 21
6.4184482616
 31
0.0
  0
LINE
  5
FC
330
1F
100
AcDbEntity
  8
0
  6
Continuous
 62
     7
370
     0
100
AcDbLine
 10
7.4345254164
 20
7.5262533697
 30
0.0
 11
7.3924548588
 21
7.5019665537
 31
0.0
  0
LWPOLYLINE
  5
FD
330
1F
100
AcDbEntity
  8
0
  6
Continuous
 62
     7
370
     0
100
AcDbPolyline
 90
       82
 70
   128
 43
0.0
 10
7.8045955908
 20
6.5700539284
 10
7.8030308396
 20
6.6082742939
 10
7.7989665668
 20
6.6476853655
 10
7.7924272154
 20
6.6880501205
 10
7.7834521138
 20
6.7291258005
 10
7.7720952393
 20
6.7706653715
 10
7.7584248936
 20
6.8124190096
 10
7.7425232916
 20
6.8541356036
 10
7.7244860675
 20
6.8955642649
 10
7.7044216992
 20
6.9364558367
 10
7.6824508563
 20
6.9765643923
 10
7.6587056739
 20
7.0156487141
 10
7.6333289585
 20
7.0534737443
 10
7.6064733285
 20
7.0898119989
 10
7.5783002968
 20
7.1244449353
 10
7.5489792995
 20
7.1571642669
 10
7.5186866763
 20
7.1877732157
 10
7.4876046108
 20
7.2160876961
 10
7.4559200341
 20
7.2419374213
 10
7.423823501
 20
7.2651669281
 10
7.3915080438
 20
7.2856365115
 10
7.3591680115
 20
7.303223065
 10
7.3269979009
 20
7.3178208211
 10
7.2951911867
 20
7.329341987
 10
7.2639391583
 20
7.3377172731
 10
7.233429769
 20
7.3428963095
 10
7.203846506
 20
7.3448479489
 10
7.1753672864
 20
7.3435604538
 10
7.1481633877
 20
7.3390415674
 10
7.1223984172
 20
7.3313184669
 10
7.0982273286
 20
7.3204375998
 10
7.0757954896
 20
7.306464405
 10
7.0552378079
 20
7.2894829188
 10
7.0366779199
 20
7.2695952701
 10
7.0202274468
 20
7.2469210653
 10
7.0059853239
 20
7.22159667
 10
6.9940372048
 20
7.1937743878
 10
6.9844549469
 20
7.1636215454
 10
6.9772961792
 20
7.1313194855
 10
6.9726039553
 20
7.0970624764
 10
6.9704064947
 20
7.0610565439
 10
6.9707170133
 20
7.0235182319
 10
6.9735336435
 20
6.9846733001
 10
6.9788394458
 20
6.9447553666
 10
6.9866025105
 20
6.9040045025
 10
6.9967761496
 20
6.8626657884
 10
7.0092991776
 20
6.82098784
 10
7.0240962796
 20
6.7792213135
 10
7.0410784641
 20
6.7376173978
 10
7.0601435982
 20
6.6964263036
 10
7.0811770219
 20
6.655895759
 10
7.1040522378
 20
6.6162695195
 10
7.1286316716
 20
6.5777859019
 10
7.1547674997
 20
6.5406763513
 10
7.1823025382
 20
6.5051640489
 10
7.2110711881
 20
6.4714625699
 10
7.2409004313
 20
6.4397745988
 10
7.2716108713
 20
6.4102907109
 10
7.303017812
 20
6.3831882257
 10
7.3349323681
 20
6.3586301409
 10
7.3671626019
 20
6.3367641515
 10
7.399514677
 20
6.3177217623
 10
7.4317940241
 20
6.3016174963
 10
7.4638065114
 20
6.2885482066
 10
7.4953596122
 20
6.2785924934
 10
7.5262635622
 20
6.2718102316
 10
7.5563325016
 20
6.2682422104
 10
7.5853855922
 20
6.2679098883
 10
7.6132481053
 20
6.270815264
 10
7.6397524724
 20
6.2769408642
 10
7.6647392933
 20
6.2862498488
 10
7.6880582941
 20
6.2986862325
 10
7.7095692317
 20
6.3141752215
 10
7.7291427367
 20
6.332623663
 10
7.7466610919
 20
6.3539206061
 10
7.7620189398
 20
6.3779379683
 10
7.7751239163
 20
6.4045313065
 10
7.7858972068
 20
6.4335406852
 10
7.7942740194
 20
6.4647916386
 10
7.8002039748
 20
6.4980962197
 10
7.8036514097
 20
6.5332541309
 10
7.8045955908
 20
6.5700539284
  0
LWPOLYLINE
  5
FE
330
1F
100
AcDbEntity
  8
0
  6
Continuous
 62
     7
370
     0
100
AcDbPolyline
 90
       22
 70
   128
 43
0.0
 10
7.8187374007
 20
6.5701324851
 10
7.8178042865
 20
6.5331557374
 10
7.8143870126
 20
6.4978056261
 10
7.8085056329
 20
6.4642895997
 10
7.8001946617
 20
6.4328043435
 10
7.7895028711
 20
6.4035346256
 10
7.7764930048
 20
6.3766522123
 10
7.7612414098
 20
6.3523148603
 10
7.7438375886
 20
6.3306653909
 10
7.7243836736
 20
6.3118308516
 10
7.7029938283
 20
6.2959217712
 10
7.6797935766
 20
6.2830315105
 10
7.654919067
 20
6.2732357145
 10
7.628516273
 20
6.2665918689
 10
7.6007401366
 20
6.2631389625
 10
7.5717536592
 20
6.2628972583
 10
7.541726945
 20
6.2658681747
 10
7.5108362028
 20
6.2720342771
 10
7.4792627116
 20
6.2813593805
 10
7.4471917574
 20
6.2937887614
 10
7.4148115451
 20
6.3092494793
 10
7.3944239181
 20
6.3204568437
  0
LWPOLYLINE
  5
FF
330
1F
100
AcDbEntity
  8
0
  6
Continuous
 62
     7
370
     0
100
AcDbPolyline
 90
       42
 70
   128
 43
0.0
 10
6.9702288042
 20
7.0552639512
 10
6.9711814594
 20
7.0875272978
 10
6.9745987333
 20
7.1228774091
 10
6.980480113
 20
7.1563934355
 10
6.9887910841
 20
7.1878786917
 10
6.9994828747
 20
7.2171484096
 10
7.0124927411
 20
7.2440308229
 10
7.0277443361
 20
7.2683681749
 10
7.0451481573
 20
7.2900176444
 10
7.0646020723
 20
7.3088521836
 10
7.0859919176
 20
7.324761264
 10
7.1091921692
 20
7.3376515248
 10
7.1340666788
 20
7.3474473207
 10
7.1604694729
 20
7.3540911663
 10
7.1882456093
 20
7.3575440727
 10
7.2172320867
 20
7.3577857769
 10
7.2472588008
 20
7.3548148606
 10
7.2781495431
 20
7.3486487581
 10
7.3097230342
 20
7.3393236547
 10
7.3417939885
 20
7.3268942738
 10
7.3741742008
 20
7.311433556
 10
7.4066736511
 20
7.2930322308
 10
7.4391016198
 20
7.2717982845
 10
7.4712678066
 20
7.2478563265
 10
7.5029834476
 20
7.2213468576
 10
7.5340624228
 20
7.1924254459
 10
7.5643223483
 20
7.1612618138
 10
7.5935856469
 20
7.1280388419
 10
7.62168059
 20
7.0929514957
 10
7.6484423052
 20
7.0562056818
 10
7.6737137442
 20
7.0180170393
 10
7.6973466041
 20
6.9786096742
 10
7.7192021978
 20
6.9382148446
 10
7.7391522681
 20
6.8970696035
 10
7.7570797401
 20
6.8554154076
 10
7.7728794081
 20
6.8134967001
 10
7.7864585535
 20
6.7715594767
 10
7.7977374884
 20
6.7298498418
 10
7.8066500235
 20
6.6886125641
 10
7.8131438567
 20
6.6480896402
 10
7.8171808793
 20
6.6085188749
 10
7.8187374007
 20
6.5701324851
  0
SPLINE
  5
100
330
1F
100
AcDbEntity
  8
0
  6
Continuous
 62
     7
370
     0
100
AcDbSpline
210
0.0
220
0.0
230
1.0
 70
    24
 71
     1
 72
     4
 73
     2
 74
     0
 42
0.00000001
 43
0.00000001
 40
0.0
 40
0.0
 40
1.0
 40
1.0
 10
8.401560436410737
 20
7.726452943390065
 30
0.0
 10
8.419332967273592
 20
7.722110787666062
 30
0.0
  0
ARC
  5
101
330
1F
100
AcDbEntity
  8
0
  6
Continuous
 62
     7
370
     0
100
AcDbCircle
 10
8.3841447086
 20
7.6880638228
 30
0.0
 40
0.0421548591591994
100
AcDbArc
 50
65.597957164
 51
113.0356014397
  0
SPLINE
  5
102
330
1F
100
AcDbEntity
  8
0
  6
Continuous
 62
     7
370
     0
100
AcDbSpline
210
0.0
220
0.0
230
1.0
 70
     8
 71
     3
 72
    13
 73
     9
 74
     0
 42
0.00000001
 43
0.00000001
 40
0.0
 40
0.0
 40
0.0
 40
0.0
 40
0.2505394783769734
 40
0.4996876272641408
 40
0.62510178121664
 40
0.7498743002532978
 40
0.8749192415306937
 40
1.0
 40
1.0
 40
1.0
 40
1.0
 10
8.373145968485415
 20
7.697407513784407
 30
0.0
 10
8.370659725106767
 20
7.699812843852991
 30
0.0
 10
8.36570104529021
 20
7.70461014638808
 30
0.0
 10
8.361404261298388
 20
7.71143602933826
 30
0.0
 10
8.360690312308874
 20
7.716969432561601
 30
0.0
 10
8.361659061953613
 20
7.720856637181385
 30
0.0
 10
8.3638961352207
 20
7.7243287724259
 30
0.0
 10
8.366398182251002
 20
7.726014399162633
 30
0.0
 10
8.36764938490868
 20
7.72685733321915
 30
0.0
  0
ARC
  5
103
330
1F
100
AcDbEntity
  8
0
  6
Continuous
 62
     7
370
     0
100
AcDbCircle
 10
8.4002844396
 20
7.7193752763
 30
0.0
 40
0.0349153147773414
100
AcDbArc
 50
218.9891115108
 51
291.2356154717
  0
SPLINE
  5
104
330
1F
100
AcDbEntity
  8
0
  6
Continuous
 62
     7
370
     0
100
AcDbSpline
210
0.0
220
0.0
230
1.0
 70
    24
 71
     1
 72
     4
 73
     2
 74
     0
 42
0.00000001
 43
0.00000001
 40
0.0
 40
0.0
 40
1.0
 40
1.0
 10
8.399301242215973
 20
7.702222773425346
 30
0.0
 10
8.41293090765062
 20
7.686830752190003
 30
0.0
  0
ARC
  5
105
330
1F
100
AcDbEntity
  8
0
  6
Continuous
 62
     7
370
     0
100
AcDbCircle
 10
8.3927116196
 20
7.714415043
 30
0.0
 40
0.0138590968226883
100
AcDbArc
 50
228.5763239158
 51
298.3901341697
  0
SPLINE
  5
106
330
1F
100
AcDbEntity
  8
0
  6
Continuous
 62
     7
370
     0
100
AcDbSpline
210
0.0
220
0.0
230
1.0
 70
     8
 71
     3
 72
    12
 73
     8
 74
     0
 42
0.00000001
 43
0.00000001
 40
0.0
 40
0.0
 40
0.0
 40
0.0
 40
0.249402364805647
 40
0.4991486310883377
 40
0.7488658669771331
 40
0.8743546734024571
 40
1.0
 40
1.0
 40
1.0
 40
1.0
 10
8.383359173519334
 20
7.713629143019589
 30
0.0
 10
8.382595595663775
 20
7.713046254550659
 30
0.0
 10
8.381067387053447
 20
7.711879673866591
 30
0.0
 10
8.38054114516475
 20
7.709223300351287
 30
0.0
 10
8.381186066824853
 20
7.70692771933998
 30
0.0
 10
8.382369983388978
 20
7.705202667484542
 30
0.0
 10
8.38315125837222
 20
7.704416365355056
 30
0.0
 10
8.383542139329938
 20
7.704022969257622
 30
0.0
  0
ARC
  5
107
330
1F
100
AcDbEntity
  8
0
  6
Continuous
 62
     7
370
     0
100
AcDbCircle
 10
8.3925175902
 20
7.6863275626
 30
0.0
 40
0.0287967514233476
100
AcDbArc
 50
60.7262886798
 51
108.5442194192
  0
ARC
  5
108
330
1F
100
AcDbEntity
  8
0
  6
Continuous
 62
     7
370
     0
100
AcDbCircle
 10
8.4338795224
 20
7.772133472
 30
0.0
 40
0.0665365866865765
100
AcDbArc
 50
245.7943809488
 51
287.2991105079
  0
ARC
  5
109
330
1F
100
AcDbEntity
  8
0
  6
Continuous
 62
     7
370
     0
100
AcDbCircle
 10
7.8683281773
 20
7.129903531
 30
0.0
 40
0.8231137852264169
100
AcDbArc
 50
44.6734898448
 51
48.9859151895
  0
LINE
  5
10A
330
1F
100
AcDbEntity
  8
0
  6
Continuous
 62
     7
370
     0
100
AcDbLine
 10
8.395624136
 20
7.743554104
 30
0.0
 11
8.4084921019
 21
7.7509826226
 31
0.0
  0
ARC
  5
10B
330
1F
100
AcDbEntity
  8
0
  6
Continuous
 62
     7
370
     0
100
AcDbCircle
 10
7.8696091815
 20
7.138136458
 30
0.0
 40
0.8020113829468416
100
AcDbArc
 50
46.7304561598
 51
49.014372851
  0
LINE
  5
10C
330
1F
100
AcDbEntity
  8
0
  6
Continuous
 62
     7
370
     0
100
AcDbLine
 10
8.3145567941
 20
7.7650576806
 30
0.0
 11
8.3271492638
 21
7.7723271587
 31
0.0
  0
ARC
  5
10D
330
1F
100
AcDbEntity
  8
0
  6
Continuous
 62
     7
370
     0
100
AcDbCircle
 10
7.891883297
 20
7.1833916938
 30
0.0
 40
0.7190189186035049
100
AcDbArc
 50
49.7784420661
 51
53.9955891093
  0
LINE
  5
10E
330
1F
100
AcDbEntity
  8
0
  6
Continuous
 62
     7
370
     0
100
AcDbLine
 10
8.3687786568
 20
7.7396703081
 30
0.0
 11
8.356186187
 21
7.73240083
 31
0.0
  0
ARC
  5
10F
330
1F
100
AcDbEntity
  8
0
  6
Continuous
 62
     7
370
     0
100
AcDbCircle
 10
7.9044757668
 20
7.1906611719
 30
0.0
 40
0.7190189186037516
100
AcDbArc
 50
49.7784420661
 51
53.9955891093
  0
ARC
  5
110
330
1F
100
AcDbEntity
  8
0
  6
Continuous
 62
     7
370
     0
100
AcDbCircle
 10
8.2547210542
 20
7.7937145551
 30
0.0
 40
0.0530191109637719
100
AcDbArc
 50
66.7986556053
 51
127.1657466162
  0
SPLINE
  5
111
330
1F
100
AcDbEntity
  8
0
  6
Continuous
 62
     7
370
     0
100
AcDbSpline
210
0.0
220
0.0
230
1.0
 70
    24
 71
     1
 72
     4
 73
     2
 74
     0
 42
0.00000001
 43
0.00000001
 40
0.0
 40
0.0
 40
1.0
 40
1.0
 10
8.211027571380109
 20
7.827631522997319
 30
0.0
 10
8.222690999741484
 20
7.835965019457777
 30
0.0
  0
SPLINE
  5
112
330
1F
100
AcDbEntity
  8
0
  6
Continuous
 62
     7
370
     0
100
AcDbSpline
210
0.0
220
0.0
230
1.0
 70
     8
 71
     3
 72
    12
 73
     8
 74
     0
 42
0.00000001
 43
0.00000001
 40
0.0
 40
0.0
 40
0.0
 40
0.0
 40
0.2503262674180363
 40
0.4997345046006478
 40
0.6249000363599431
 40
0.7501600021982635
 40
1.0
 40
1.0
 40
1.0
 40
1.0
 10
8.216458414309317
 20
7.808753176774873
 30
0.0
 10
8.214141697091666
 20
7.80998208171685
 30
0.0
 10
8.209516758834072
 20
7.812435384794928
 30
0.0
 10
8.206331534395952
 20
7.816496751520054
 30
0.0
 10
8.206073978263282
 20
7.819977927424784
 30
0.0
 10
8.20696523144024
 20
7.823511010152432
 30
0.0
 10
8.209403519368287
 20
7.8259842144819
 30
0.0
 10
8.211027571380109
 20
7.827631522997319
 30
0.0
  0
ARC
  5
113
330
1F
100
AcDbEntity
  8
0
  6
Continuous
 62
     7
370
     0
100
AcDbCircle
 10
8.2390621944
 20
7.8556123489
 30
0.0
 40
0.0520260788858579
100
AcDbArc
 50
244.2484142841
 51
305.3398677775
  0
SPLINE
  5
114
330
1F
100
AcDbEntity
  8
0
  6
Continuous
 62
     7
370
     0
100
AcDbSpline
210
0.0
220
0.0
230
1.0
 70
     8
 71
     3
 72
     9
 73
     5
 74
     0
 42
0.00000001
 43
0.00000001
 40
0.0
 40
0.0
 40
0.0
 40
0.0
 40
0.4987092906772007
 40
0.9999999999999999
 40
0.9999999999999999
 40
0.9999999999999999
 40
0.9999999999999999
 10
8.285422174752318
 20
7.827464176494591
 30
0.0
 10
8.283507066562683
 20
7.824809911973058
 30
0.0
 10
8.279666937201881
 20
7.819487643928022
 30
0.0
 10
8.272665269469943
 20
7.815281393684914
 30
0.0
 10
8.269155398486157
 20
7.813172839516957
 30
0.0
  0
SPLINE
  5
115
330
1F
100
AcDbEntity
  8
0
  6
Continuous
 62
     7
370
     0
100
AcDbSpline
210
0.0
220
0.0
230
1.0
 70
     8
 71
     3
 72
    11
 73
     7
 74
     0
 42
0.00000001
 43
0.00000001
 40
0.0
 40
0.0
 40
0.0
 40
0.0
 40
0.2504031889031624
 40
0.5003824607867526
 40
0.7500984159891437
 40
1.0
 40
1.0
 40
1.0
 40
1.0
 10
8.275608647507674
 20
7.842445803580119
 30
0.0
 10
8.277368928611143
 20
7.841500401351098
 30
0.0
 10
8.280886510771689
 20
7.83961119740021
 30
0.0
 10
8.28479887597436
 20
7.836026119701763
 30
0.0
 10
8.286535197381172
 20
7.8317946837773
 30
0.0
 10
8.285793274180433
 20
7.828908036425561
 30
0.0
 10
8.285422174752318
 20
7.827464176494591
 30
0.0
  0
LINE
  5
116
330
1F
100
AcDbEntity
  8
0
  6
Continuous
 62
     7
370
     0
100
AcDbLine
 10
8.130658999
 20
7.8689960064
 30
0.0
 11
8.1516541013
 21
7.8811162209
 31
0.0
  0
ARC
  5
117
330
1F
100
AcDbEntity
  8
0
  6
Continuous
 62
     7
370
     0
100
AcDbCircle
 10
8.1164336509
 20
7.8898945711
 30
0.0
 40
0.0252806355881625
100
AcDbArc
 50
269.2474136634
 51
304.2425472154
  0
SPLINE
  5
118
330
1F
100
AcDbEntity
  8
0
  6
Continuous
 62
     7
370
     0
100
AcDbSpline
210
0.0
220
0.0
230
1.0
 70
     8
 71
     3
 72
    11
 73
     7
 74
     0
 42
0.00000001
 43
0.00000001
 40
0.0
 40
0.0
 40
0.0
 40
0.0
 40
0.2494767937827738
 40
0.5035301868545524
 40
0.752241785732364
 40
1.0
 40
1.0
 40
1.0
 40
1.0
 10
8.11524412209401
 20
7.867049761703349
 30
0.0
 10
8.11494776330776
 20
7.866755670794245
 30
0.0
 10
8.114349609095683
 20
7.866162093940194
 30
0.0
 10
8.114246680671208
 20
7.865407697483433
 30
0.0
 10
8.114794943585302
 20
7.864843902534535
 30
0.0
 10
8.115666603540518
 20
7.864691947824124
 30
0.0
 10
8.116101596581856
 20
7.864616116370319
 30
0.0
  0
SPLINE
  5
119
330
1F
100
AcDbEntity
  8
0
  6
Continuous
 62
     7
370
     0
100
AcDbSpline
210
0.0
220
0.0
230
1.0
 70
    24
 71
     1
 72
     4
 73
     2
 74
     0
 42
0.00000001
 43
0.00000001
 40
0.0
 40
0.0
 40
1.0
 40
1.0
 10
8.118642828858281
 20
7.869204305863258
 30
0.0
 10
8.11524412209401
 20
7.867049761703349
 30
0.0
  0
LINE
  5
11A
330
1F
100
AcDbEntity
  8
0
  6
Continuous
 62
     7
370
     0
100
AcDbLine
 10
8.1413023871
 20
7.8822853904
 30
0.0
 11
8.1186428289
 21
7.8692043059
 31
0.0
  0
ARC
  5
11B
330
1F
100
AcDbEntity
  8
0
  6
Continuous
 62
     7
370
     0
100
AcDbCircle
 10
8.1143150913
 20
7.5995970652
 30
0.0
 40
0.2839735961586778
100
AcDbArc
 50
84.5466930742
 51
87.4735847059
  0
LINE
  5
11C
330
1F
100
AcDbEntity
  8
0
  6
Continuous
 62
     7
370
     0
100
AcDbLine
 10
8.1055964797
 20
7.8710352655
 30
0.0
 11
8.1268326411
 21
7.8832946406
 31
0.0
  0
ARC
  5
11D
330
1F
100
AcDbEntity
  8
0
  6
Continuous
 62
     7
370
     0
100
AcDbCircle
 10
8.0898353131
 20
7.8947629248
 30
0.0
 40
0.0284853679256872
100
AcDbArc
 50
273.3611349592
 51
303.5942157375
  0
SPLINE
  5
11E
330
1F
100
AcDbEntity
  8
0
  6
Continuous
 62
     7
370
     0
100
AcDbSpline
210
0.0
220
0.0
230
1.0
 70
     8
 71
     3
 72
    10
 73
     6
 74
     0
 42
0.00000001
 43
0.00000001
 40
0.0
 40
0.0
 40
0.0
 40
0.0
 40
0.4988594542991834
 40
0.7491987595266225
 40
1.0
 40
1.0
 40
1.0
 40
1.0
 10
8.090077961351085
 20
7.867618295101105
 30
0.0
 10
8.089969909038373
 20
7.86727690308799
 30
0.0
 10
8.089807633555871
 20
7.866764192603034
 30
0.0
 10
8.090534490770855
 20
7.866396902926822
 30
0.0
 10
8.091181557000114
 20
7.866350019797508
 30
0.0
 10
8.091505388337168
 20
7.86632655662517
 30
0.0
  0
SPLINE
  5
11F
330
1F
100
AcDbEntity
  8
0
  6
Continuous
 62
     7
370
     0
100
AcDbSpline
210
0.0
220
0.0
230
1.0
 70
     8
 71
     3
 72
     9
 73
     5
 74
     0
 42
0.00000001
 43
0.00000001
 40
0.0
 40
0.0
 40
0.0
 40
0.0
 40
0.5015784057012899
 40
1.0
 40
1.0
 40
1.0
 40
1.0
 10
8.093254037138875
 20
7.870018380027608
 30
0.0
 10
8.092531438410939
 20
7.869593529681039
 30
0.0
 10
8.091090788814144
 20
7.868746502891726
 30
0.0
 10
8.090414859244714
 20
7.867993572077785
 30
0.0
 10
8.090077961351085
 20
7.867618295101105
 30
0.0
  0
LINE
  5
120
330
1F
100
AcDbEntity
  8
0
  6
Continuous
 62
     7
370
     0
100
AcDbLine
 10
8.1166941678
 20
7.8835500794
 30
0.0
 11
8.0932540371
 21
7.87001838
 31
0.0
  0
ARC
  5
121
330
1F
100
AcDbEntity
  8
0
  6
Continuous
 62
     7
370
     0
100
AcDbCircle
 10
8.1150124133
 20
7.6261096575
 30
0.0
 40
0.2574459149538336
100
AcDbArc
 50
89.6257151061
 51
92.7503805142
  0
LINE
  5
122
330
1F
100
AcDbEntity
  8
0
  6
Continuous
 62
     7
370
     0
100
AcDbLine
 10
8.0768196894
 20
7.8683423348
 30
0.0
 11
8.1026589324
 21
7.8832590122
 31
0.0
  0
SPLINE
  5
123
330
1F
100
AcDbEntity
  8
0
  6
Continuous
 62
     7
370
     0
100
AcDbSpline
210
0.0
220
0.0
230
1.0
 70
     8
 71
     3
 72
    13
 73
     9
 74
     0
 42
0.00000001
 43
0.00000001
 40
0.0
 40
0.0
 40
0.0
 40
0.0
 40
0.2493026324882284
 40
0.3767800005084785
 40
0.499426965059139
 40
0.6183515801713856
 40
0.7497380290330902
 40
0.9999999999999999
 40
0.9999999999999999
 40
0.9999999999999999
 40
0.9999999999999999
 10
8.073061159896204
 20
7.859268460859737
 30
0.0
 10
8.071383735547498
 20
7.859350188101548
 30
0.0
 10
8.068848584030443
 20
7.859473705410224
 30
0.0
 10
8.067618602746348
 20
7.860536779069018
 30
0.0
 10
8.067761927984852
 20
7.861679506922108
 30
0.0
 10
8.069029015495797
 20
7.863150485493651
 30
0.0
 10
8.071843463664027
 20
7.865363626366335
 30
0.0
 10
8.074848903557202
 20
7.867162646265762
 30
0.0
 10
8.076819689422438
 20
7.868342334802247
 30
0.0
  0
ARC
  5
124
330
1F
100
AcDbEntity
  8
0
  6
Continuous
 62
     7
370
     0
100
AcDbCircle
 10
8.0721184566
 20
7.9197333444
 30
0.0
 40
0.0604722319157524
100
AcDbArc
 50
270.8932217014
 51
290.1258816452
  0
SPLINE
  5
125
330
1F
100
AcDbEntity
  8
0
  6
Continuous
 62
     7
370
     0
100
AcDbSpline
210
0.0
220
0.0
230
1.0
 70
     8
 71
     3
 72
    12
 73
     8
 74
     0
 42
0.00000001
 43
0.00000001
 40
0.0
 40
0.0
 40
0.0
 40
0.0
 40
0.2503253654036829
 40
0.4999978777420989
 40
0.749482662908261
 40
0.874698218791799
 40
1.0
 40
1.0
 40
1.0
 40
1.0
 10
8.097411612144215
 20
7.85816612871668
 30
0.0
 10
8.09629608716694
 20
7.858292383035519
 30
0.0
 10
8.094067946521635
 20
7.858544562399657
 30
0.0
 10
8.09182377758495
 20
7.859432695817076
 30
0.0
 10
8.091568935490445
 20
7.86073751781825
 30
0.0
 10
8.092131390666593
 20
7.861959874907708
 30
0.0
 10
8.09266105344003
 20
7.862622290563194
 30
0.0
 10
8.092925975978813
 20
7.862953612389046
 30
0.0
  0
ARC
  5
126
330
1F
100
AcDbEntity
  8
0
  6
Continuous
 62
     7
370
     0
100
AcDbCircle
 10
8.1010990176
 20
7.9100052351
 30
0.0
 40
0.0519700866351933
100
AcDbArc
 50
265.9313048111
 51
288.4236565229
  0
LINE
  5
127
330
1F
100
AcDbEntity
  8
0
  6
Continuous
 62
     7
370
     0
100
AcDbLine
 10
8.1115201644
 20
7.8572330853
 30
0.0
 11
8.1175236847
 21
7.8606988438
 31
0.0
  0
ARC
  5
128
330
1F
100
AcDbEntity
  8
0
  6
Continuous
 62
     7
370
     0
100
AcDbCircle
 10
8.0695113713
 20
7.5439386801
 30
0.0
 40
0.316098280672753
100
AcDbArc
 50
79.823896553
 51
82.362917695
  0
LINE
  5
129
330
1F
100
AcDbEntity
  8
0
  6
Continuous
 62
     7
370
     0
100
AcDbLine
 10
8.166498554
 20
7.8788145929
 30
0.0
 11
8.1253577958
 21
7.8550645388
 31
0.0
  0
ARC
  5
12A
330
1F
100
AcDbEntity
  8
0
  6
Continuous
 62
     7
370
     0
100
AcDbCircle
 10
8.1107616184
 20
7.5683575328
 30
0.0
 40
0.3154206590913036
100
AcDbArc
 50
79.8220086908
 51
82.5509631374
  0
SPLINE
  5
12B
330
1F
100
AcDbEntity
  8
0
  6
Continuous
 62
     7
370
     0
100
AcDbSpline
210
0.0
220
0.0
230
1.0
 70
    24
 71
     1
 72
     4
 73
     2
 74
     0
 42
0.00000001
 43
0.00000001
 40
0.0
 40
0.0
 40
1.0
 40
1.0
 10
7.981725904728109
 20
7.260505379186117
 30
0.0
 10
7.988843296286807
 20
7.251922084963999
 30
0.0
  0
SPLINE
  5
12C
330
1F
100
AcDbEntity
  8
0
  6
Continuous
 62
     7
370
     0
100
AcDbSpline
210
0.0
220
0.0
230
1.0
 70
    24
 71
     1
 72
     4
 73
     2
 74
     0
 42
0.00000001
 43
0.00000001
 40
0.0
 40
0.0
 40
1.0
 40
1.0
 10
7.974424718393434
 20
7.26702584462496
 30
0.0
 10
7.981725904728109
 20
7.260505379186117
 30
0.0
  0
ARC
  5
12D
330
1F
100
AcDbEntity
  8
0
  6
Continuous
 62
     7
370
     0
100
AcDbCircle
 10
7.9637548728
 20
7.2499912427
 30
0.0
 40
0.0201003300024484
100
AcDbArc
 50
57.938490679
 51
117.1472463788
  0
ARC
  5
12E
330
1F
100
AcDbEntity
  8
0
  6
Continuous
 62
     7
370
     0
100
AcDbCircle
 10
7.9625218822
 20
7.255084061
 30
0.0
 40
0.015056012007212
100
AcDbArc
 50
121.8202031602
 51
215.6949059228
  0
ARC
  5
12F
330
1F
100
AcDbEntity
  8
0
  6
Continuous
 62
     7
370
     0
100
AcDbCircle
 10
7.9346994073
 20
7.2279887583
 30
0.0
 40
0.0240516148178041
100
AcDbArc
 50
49.5792751186
 51
73.5849537394
  0
SPLINE
  5
130
330
1F
100
AcDbEntity
  8
0
  6
Continuous
 62
     7
370
     0
100
AcDbSpline
210
0.0
220
0.0
230
1.0
 70
     8
 71
     3
 72
     9
 73
     5
 74
     0
 42
0.00000001
 43
0.00000001
 40
0.0
 40
0.0
 40
0.0
 40
0.0
 40
0.500165444583708
 40
1.0
 40
1.0
 40
1.0
 40
1.0
 10
7.930266940358748
 20
7.249607419555383
 30
0.0
 10
7.931952153732995
 20
7.250392941562737
 30
0.0
 10
7.935321465612687
 20
7.251963465907954
 30
0.0
 10
7.939438432041927
 20
7.251361105147871
 30
0.0
 10
7.94149623412675
 20
7.251060024425156
 30
0.0
  0
SPLINE
  5
131
330
1F
100
AcDbEntity
  8
0
  6
Continuous
 62
     7
370
     0
100
AcDbSpline
210
0.0
220
0.0
230
1.0
 70
     8
 71
     3
 72
    14
 73
    10
 74
     0
 42
0.00000001
 43
0.00000001
 40
0.0
 40
0.0
 40
0.0
 40
0.0
 40
0.2499004290087871
 40
0.3800976031654296
 40
0.4999571058493004
 40
0.6257216768313681
 40
0.7499966555366363
 40
0.8749516763669926
 40
0.9999999999999999
 40
0.9999999999999999
 40
0.9999999999999999
 40
0.9999999999999999
 10
7.92999172430029
 20
7.222083593694746
 30
0.0
 10
7.928419788978555
 20
7.224533885185561
 30
0.0
 10
7.926028881325886
 20
7.228260769234578
 30
0.0
 10
7.924214757666732
 20
7.233552849259957
 30
0.0
 10
7.92363882583379
 20
7.23753385339832
 30
0.0
 10
7.923975565163337
 20
7.241287958667342
 30
0.0
 10
7.925208863726626
 20
7.244717230886691
 30
0.0
 10
7.92729431668281
 20
7.247617620148715
 30
0.0
 10
7.92927581929707
 20
7.248943988083573
 30
0.0
 10
7.930266940358748
 20
7.249607419555383
 30
0.0
  0
ARC
  5
132
330
1F
100
AcDbEntity
  8
0
  6
Continuous
 62
     7
370
     0
100
AcDbCircle
 10
7.0885533724
 20
6.6343203663
 30
0.0
 40
1.026393740963808
100
AcDbArc
 50
32.3524327976
 51
34.935147624
  0
LINE
  5
133
330
1F
100
AcDbEntity
  8
0
  6
Continuous
 62
     7
370
     0
100
AcDbLine
 10
8.0124206813
 20
7.216358838
 30
0.0
 11
7.9556225586
 21
7.1835699797
 31
0.0
  0
ARC
  5
134
330
1F
100
AcDbEntity
  8
0
  6
Continuous
 62
     7
370
     0
100
AcDbCircle
 10
7.1447519056
 20
6.6667171832
 30
0.0
 40
1.027110049074713
100
AcDbArc
 50
32.353009043
 51
34.7334019337
  0
ARC
  5
135
330
1F
100
AcDbEntity
  8
0
  6
Continuous
 62
     7
370
     0
100
AcDbCircle
 10
7.2338933632
 20
6.746067244
 30
0.0
 40
0.8814281846450933
100
AcDbArc
 50
43.8671959362
 51
44.0020471617
  0
ARC
  5
136
330
1F
100
AcDbEntity
  8
0
  6
Continuous
 62
     7
370
     0
100
AcDbCircle
 10
7.8747327982
 20
7.3653149685
 30
0.0
 40
0.0097220495867076
100
AcDbArc
 50
192.1567527379
 51
225.4945178367
  0
SPLINE
  5
137
330
1F
100
AcDbEntity
  8
0
  6
Continuous
 62
     7
370
     0
100
AcDbSpline
210
0.0
220
0.0
230
1.0
 70
    24
 71
     1
 72
     4
 73
     2
 74
     0
 42
0.00000001
 43
0.00000001
 40
0.0
 40
0.0
 40
1.0
 40
1.0
 10
7.866630715741296
 20
7.368814426288961
 30
0.0
 10
7.86522876434819
 20
7.363267631475828
 30
0.0
  0
SPLINE
  5
138
330
1F
100
AcDbEntity
  8
0
  6
Continuous
 62
     7
370
     0
100
AcDbSpline
210
0.0
220
0.0
230
1.0
 70
    24
 71
     1
 72
     4
 73
     2
 74
     0
 42
0.00000001
 43
0.00000001
 40
0.0
 40
0.0
 40
1.0
 40
1.0
 10
7.875185069421819
 20
7.387614269734308
 30
0.0
 10
7.866630715741296
 20
7.368814426288961
 30
0.0
  0
ARC
  5
139
330
1F
100
AcDbEntity
  8
0
  6
Continuous
 62
     7
370
     0
100
AcDbCircle
 10
7.2912941386
 20
6.7938594504
 30
0.0
 40
0.8327505056547689
100
AcDbArc
 50
45.4798947096
 51
47.2725857421
  0
SPLINE
  5
13A
330
1F
100
AcDbEntity
  8
0
  6
Continuous
 62
     7
370
     0
100
AcDbSpline
210
0.0
220
0.0
230
1.0
 70
    24
 71
     1
 72
     4
 73
     2
 74
     0
 42
0.00000001
 43
0.00000001
 40
0.0
 40
0.0
 40
1.0
 40
1.0
 10
7.847964670677658
 20
7.388504066449852
 30
0.0
 10
7.856324705209422
 20
7.405589671474493
 30
0.0
  0
SPLINE
  5
13B
330
1F
100
AcDbEntity
  8
0
  6
Continuous
 62
     7
370
     0
100
AcDbSpline
210
0.0
220
0.0
230
1.0
 70
    24
 71
     1
 72
     4
 73
     2
 74
     0
 42
0.00000001
 43
0.00000001
 40
0.0
 40
0.0
 40
1.0
 40
1.0
 10
7.846461652589849
 20
7.379957935609495
 30
0.0
 10
7.847964670677658
 20
7.388504066449852
 30
0.0
  0
SPLINE
  5
13C
330
1F
100
AcDbEntity
  8
0
  6
Continuous
 62
     7
370
     0
100
AcDbSpline
210
0.0
220
0.0
230
1.0
 70
    24
 71
     1
 72
     4
 73
     2
 74
     0
 42
0.00000001
 43
0.00000001
 40
0.0
 40
0.0
 40
1.0
 40
1.0
 10
7.848684526016354
 20
7.374544582930454
 30
0.0
 10
7.846461652589849
 20
7.379957935609495
 30
0.0
  0
SPLINE
  5
13D
330
1F
100
AcDbEntity
  8
0
  6
Continuous
 62
     7
370
     0
100
AcDbSpline
210
0.0
220
0.0
230
1.0
 70
    24
 71
     1
 72
     4
 73
     2
 74
     0
 42
0.00000001
 43
0.00000001
 40
0.0
 40
0.0
 40
1.0
 40
1.0
 10
7.840608899093022
 20
7.378909577488899
 30
0.0
 10
7.848684526016354
 20
7.374544582930454
 30
0.0
  0
ARC
  5
13E
330
1F
100
AcDbEntity
  8
0
  6
Continuous
 62
     7
370
     0
100
AcDbCircle
 10
7.831348768
 20
7.3556409534
 30
0.0
 40
0.0250435399913773
100
AcDbArc
 50
68.2991052304
 51
117.7174673199
  0
SPLINE
  5
13F
330
1F
100
AcDbEntity
  8
0
  6
Continuous
 62
     7
370
     0
100
AcDbSpline
210
0.0
220
0.0
230
1.0
 70
     8
 71
     3
 72
    14
 73
    10
 74
     0
 42
0.00000001
 43
0.00000001
 40
0.0
 40
0.0
 40
0.0
 40
0.0
 40
0.2503817225611481
 40
0.3755492991303494
 40
0.5004182237810827
 40
0.6251583274716294
 40
0.749916726444508
 40
0.8736417210981078
 40
1.0
 40
1.0
 40
1.0
 40
1.0
 10
7.824758181525573
 20
7.348495267051694
 30
0.0
 10
7.822371103595776
 20
7.350956046506922
 30
0.0
 10
7.818790708691807
 20
7.354646986845025
 30
0.0
 10
7.814835141216022
 20
7.359869601098791
 30
0.0
 10
7.812789574382681
 20
7.364031510007123
 30
0.0
 10
7.812387042111657
 20
7.368230606932228
 30
0.0
 10
7.813506952738684
 20
7.372073828901958
 30
0.0
 10
7.815975991844748
 20
7.375386735337574
 30
0.0
 10
7.81845045778531
 20
7.376997122213707
 30
0.0
 10
7.81970071836054
 20
7.37781079404046
 30
0.0
  0
ARC
  5
140
330
1F
100
AcDbEntity
  8
0
  6
Continuous
 62
     7
370
     0
100
AcDbCircle
 10
7.195801177
 20
6.7222992168
 30
0.0
 40
0.887529383725395
100
AcDbArc
 50
42.3405608816
 51
44.8739669449
  0
LINE
  5
141
330
1F
100
AcDbEntity
  8
0
  6
Continuous
 62
     7
370
     0
100
AcDbLine
 10
7.9086206108
 20
7.3528710174
 30
0.0
 11
7.8518224882
 21
7.3200821591
 31
0.0
  0
ARC
  5
142
330
1F
100
AcDbEntity
  8
0
  6
Continuous
 62
     7
370
     0
100
AcDbCircle
 10
7.2455457332
 20
6.7485058406
 30
0.0
 40
0.8971764376183293
100
AcDbArc
 50
42.3478704075
 51
43.8631591297
  0
LINE
  5
143
330
1F
100
AcDbEntity
  8
0
  6
Continuous
 62
     7
370
     0
100
AcDbLine
 10
7.8693572439
 20
7.356887431
 30
0.0
 11
7.8924070884
 21
7.370193823
 31
0.0
  0
ARC
  5
144
330
1F
100
AcDbEntity
  8
0
  6
Continuous
 62
     7
370
     0
100
AcDbCircle
 10
7.7294548546
 20
7.4450599664
 30
0.0
 40
0.0476975592830743
100
AcDbArc
 50
59.7960309298
 51
127.4929891126
  0
SPLINE
  5
145
330
1F
100
AcDbEntity
  8
0
  6
Continuous
 62
     7
370
     0
100
AcDbSpline
210
0.0
220
0.0
230
1.0
 70
    24
 71
     1
 72
     4
 73
     2
 74
     0
 42
0.00000001
 43
0.00000001
 40
0.0
 40
0.0
 40
1.0
 40
1.0
 10
7.688771770565558
 20
7.474355633030962
 30
0.0
 10
7.700423050812347
 20
7.482904537056497
 30
0.0
  0
SPLINE
  5
146
330
1F
100
AcDbEntity
  8
0
  6
Continuous
 62
     7
370
     0
100
AcDbSpline
210
0.0
220
0.0
230
1.0
 70
     8
 71
     3
 72
    12
 73
     8
 74
     0
 42
0.00000001
 43
0.00000001
 40
0.0
 40
0.0
 40
0.0
 40
0.0
 40
0.2503262674180346
 40
0.4997345046006492
 40
0.6249000363599425
 40
0.7501600021982593
 40
1.0
 40
1.0
 40
1.0
 40
1.0
 10
7.694299587947358
 20
7.452645478939971
 30
0.0
 10
7.691977331987995
 20
7.454193723244813
 30
0.0
 10
7.687341336559397
 20
7.457284533924258
 30
0.0
 10
7.684128677193384
 20
7.462107595396628
 30
0.0
 10
7.683850529658131
 20
7.466064324722061
 30
0.0
 10
7.684722454485178
 20
7.469997000758276
 30
0.0
 10
7.687152925263545
 20
7.472613128559149
 30
0.0
 10
7.688771770565558
 20
7.474355633030962
 30
0.0
  0
ARC
  5
147
330
1F
100
AcDbEntity
  8
0
  6
Continuous
 62
     7
370
     0
100
AcDbCircle
 10
7.7196354101
 20
7.4921261186
 30
0.0
 40
0.0469108174851498
100
AcDbArc
 50
237.3105843455
 51
305.6298885809
  0
SPLINE
  5
148
330
1F
100
AcDbEntity
  8
0
  6
Continuous
 62
     7
370
     0
100
AcDbSpline
210
0.0
220
0.0
230
1.0
 70
     8
 71
     3
 72
     9
 73
     5
 74
     0
 42
0.00000001
 43
0.00000001
 40
0.0
 40
0.0
 40
0.0
 40
0.0
 40
0.4987092906772063
 40
1.0
 40
1.0
 40
1.0
 40
1.0
 10
7.763247245256344
 20
7.468846139594095
 30
0.0
 10
7.761326863480249
 20
7.466015286214327
 30
0.0
 10
7.757476159649389
 20
7.460338926393712
 30
0.0
 10
7.750473524385512
 20
7.456114708754305
 30
0.0
 10
7.746963168386955
 20
7.453997147697514
 30
0.0
  0
SPLINE
  5
149
330
1F
100
AcDbEntity
  8
0
  6
Continuous
 62
     7
370
     0
100
AcDbSpline
210
0.0
220
0.0
230
1.0
 70
     8
 71
     3
 72
    11
 73
     7
 74
     0
 42
0.00000001
 43
0.00000001
 40
0.0
 40
0.0
 40
0.0
 40
0.0
 40
0.2504031889031623
 40
0.5003824607867542
 40
0.750098415989143
 40
1.0
 40
1.0
 40
1.0
 40
1.0
 10
7.753450533979055
 20
7.486282102812646
 30
0.0
 10
7.755213003021532
 20
7.485096438244926
 30
0.0
 10
7.758734957356053
 20
7.482727116365832
 30
0.0
 10
7.762643742536584
 20
7.478445185937253
 30
0.0
 10
7.764370858461445
 20
7.473600847067983
 30
0.0
 10
7.763621875750844
 20
7.470431434608479
 30
0.0
 10
7.763247245256344
 20
7.468846139594095
 30
0.0
  0
LINE
  5
14A
330
1F
100
AcDbEntity
  8
0
  6
Continuous
 62
     7
370
     0
100
AcDbLine
 10
7.622219878
 20
7.5203635667
 30
0.0
 11
7.6344335406
 21
7.5274143641
 31
0.0
  0
ARC
  5
14B
330
1F
100
AcDbEntity
  8
0
  6
Continuous
 62
     7
370
     0
100
AcDbCircle
 10
7.4849914556
 20
7.1170896142
 30
0.0
 40
0.4259830052332497
100
AcDbArc
 50
67.9664615972
 51
71.2072868283
  0
LINE
  5
14C
330
1F
100
AcDbEntity
  8
0
  6
Continuous
 62
     7
370
     0
100
AcDbLine
 10
7.657012328
 20
7.5190114999
 30
0.0
 11
7.6447986654
 21
7.5119607026
 31
0.0
  0
ARC
  5
14D
330
1F
100
AcDbEntity
  8
0
  6
Continuous
 62
     7
370
     0
100
AcDbCircle
 10
7.4972051182
 20
7.1241404115
 30
0.0
 40
0.4259830052339039
100
AcDbArc
 50
67.9664615972
 51
71.2072868283
  0
ARC
  5
14E
330
1F
100
AcDbEntity
  8
0
  6
Continuous
 62
     7
370
     0
100
AcDbCircle
 10
7.5719617234
 20
7.4660750236
 30
0.0
 40
0.0875155069646076
100
AcDbArc
 50
89.5738585675
 51
125.1195958585
  0
SPLINE
  5
14F
330
1F
100
AcDbEntity
  8
0
  6
Continuous
 62
     7
370
     0
100
AcDbSpline
210
0.0
220
0.0
230
1.0
 70
    24
 71
     1
 72
     4
 73
     2
 74
     0
 42
0.00000001
 43
0.00000001
 40
0.0
 40
0.0
 40
1.0
 40
1.0
 10
7.509807491711227
 20
7.529976966927739
 30
0.0
 10
7.521615361877987
 20
7.537658595991362
 30
0.0
  0
SPLINE
  5
150
330
1F
100
AcDbEntity
  8
0
  6
Continuous
 62
     7
370
     0
100
AcDbSpline
210
0.0
220
0.0
230
1.0
 70
     8
 71
     3
 72
    12
 73
     8
 74
     0
 42
0.00000001
 43
0.00000001
 40
0.0
 40
0.0
 40
0.0
 40
0.0
 40
0.2503262674180368
 40
0.4997345046006531
 40
0.6249000363599465
 40
0.7501600021982582
 40
1.0
 40
1.0
 40
1.0
 40
1.0
 10
7.513493918268965
 20
7.519723839679331
 30
0.0
 10
7.511360627717301
 20
7.519975306993062
 30
0.0
 10
7.507101870104682
 20
7.520477319405687
 30
0.0
 10
7.504389182097877
 20
7.52221988690964
 30
0.0
 10
7.504435173912468
 20
7.524256421745458
 30
0.0
 10
7.505586478010254
 20
7.526577411230232
 30
0.0
 10
7.508120004722334
 20
7.528617884391181
 30
0.0
 10
7.509807491711227
 20
7.529976966927739
 30
0.0
  0
ARC
  5
151
330
1F
100
AcDbEntity
  8
0
  6
Continuous
 62
     7
370
     0
100
AcDbCircle
 10
7.5182815146
 20
7.6032271395
 30
0.0
 40
0.0836404337639242
100
AcDbArc
 50
266.7185837496
 51
303.6613069723
  0
SPLINE
  5
152
330
1F
100
AcDbEntity
  8
0
  6
Continuous
 62
     7
370
     0
100
AcDbSpline
210
0.0
220
0.0
230
1.0
 70
     8
 71
     3
 72
     9
 73
     5
 74
     0
 42
0.00000001
 43
0.00000001
 40
0.0
 40
0.0
 40
0.0
 40
0.0
 40
0.4987092906772073
 40
1.0
 40
1.0
 40
1.0
 40
1.0
 10
7.581162615091154
 20
7.546171369330114
 30
0.0
 10
7.579166602111
 20
7.54406499762278
 30
0.0
 10
7.575164244389846
 20
7.539841351208511
 30
0.0
 10
7.568155405990617
 20
7.53569122935539
 30
0.0
 10
7.56464194041794
 20
7.533610811827861
 30
0.0
  0
SPLINE
  5
153
330
1F
100
AcDbEntity
  8
0
  6
Continuous
 62
     7
370
     0
100
AcDbSpline
210
0.0
220
0.0
230
1.0
 70
     8
 71
     3
 72
    11
 73
     7
 74
     0
 42
0.00000001
 43
0.00000001
 40
0.0
 40
0.0
 40
0.0
 40
0.0
 40
0.2504031889031623
 40
0.5003824607867536
 40
0.7500984159891425
 40
1.0
 40
1.0
 40
1.0
 40
1.0
 10
7.57261262022293
 20
7.553588109991219
 30
0.0
 10
7.574239769594429
 20
7.55337985950527
 30
0.0
 10
7.577491313674779
 20
7.552963711088489
 30
0.0
 10
7.581041986497697
 20
7.551525451702966
 30
0.0
 10
7.582475102151461
 20
7.549187574469748
 30
0.0
 10
7.581600219129799
 20
7.547177020045006
 30
0.0
 10
7.581162615091154
 20
7.546171369330114
 30
0.0
  0
LINE
  5
154
330
1F
100
AcDbEntity
  8
0
  6
Continuous
 62
     7
370
     0
100
AcDbLine
 10
7.4649881466
 20
7.5354383765
 30
0.0
 11
7.4847435163
 21
7.5468429087
 31
0.0
  0
ARC
  5
155
330
1F
100
AcDbEntity
  8
0
  6
Continuous
 62
     7
370
     0
100
AcDbCircle
 10
7.4260607061
 20
7.5979021395
 30
0.0
 40
0.073600729059675
100
AcDbArc
 50
288.8634837505
 51
301.9311760809
  0
SPLINE
  5
156
330
1F
100
AcDbEntity
  8
0
  6
Continuous
 62
     7
370
     0
100
AcDbSpline
210
0.0
220
0.0
230
1.0
 70
     8
 71
     3
 72
    13
 73
     9
 74
     0
 42
0.00000001
 43
0.00000001
 40
0.0
 40
0.0
 40
0.0
 40
0.0
 40
0.2556326815328654
 40
0.3827690308483966
 40
0.5009930149484757
 40
0.6250249962956368
 40
0.7509663452183675
 40
1.0
 40
1.0
 40
1.0
 40
1.0
 10
7.452604507260667
 20
7.531035199693855
 30
0.0
 10
7.451756974800375
 20
7.530539122866792
 30
0.0
 10
7.450487930574523
 20
7.529796327207088
 30
0.0
 10
7.449124509168027
 20
7.528927830912391
 30
0.0
 10
7.448388617150887
 20
7.528391113180186
 30
0.0
 10
7.44809735076349
 20
7.52804418207469
 30
0.0
 10
7.44831558076407
 20
7.527853868672482
 30
0.0
 10
7.44924176804104
 20
7.528094545542483
 30
0.0
 10
7.449856880516053
 20
7.528254387238504
 30
0.0
  0
LINE
  5
157
330
1F
100
AcDbEntity
  8
0
  6
Continuous
 62
     7
370
     0
100
AcDbLine
 10
7.4752296285
 20
7.5440964041
 30
0.0
 11
7.4526045073
 21
7.5310351997
 31
0.0
  0
ARC
  5
158
330
1F
100
AcDbEntity
  8
0
  6
Continuous
 62
     7
370
     0
100
AcDbCircle
 10
7.5373280178
 20
7.3463928015
 30
0.0
 40
0.2072267465276114
100
AcDbArc
 50
107.4374214534
 51
111.0563587363
  0
LINE
  5
159
330
1F
100
AcDbEntity
  8
0
  6
Continuous
 62
     7
370
     0
100
AcDbLine
 10
7.4367251546
 20
7.5246868954
 30
0.0
 11
7.4628743307
 21
7.5397824934
 31
0.0
  0
SPLINE
  5
15A
330
1F
100
AcDbEntity
  8
0
  6
Continuous
 62
     7
370
     0
100
AcDbSpline
210
0.0
220
0.0
230
1.0
 70
     8
 71
     3
 72
    13
 73
     9
 74
     0
 42
0.00000001
 43
0.00000001
 40
0.0
 40
0.0
 40
0.0
 40
0.0
 40
0.249382799417482
 40
0.3744361297780061
 40
0.4994378368474275
 40
0.6245077693644085
 40
0.7497582852968232
 40
0.9999999999999999
 40
0.9999999999999999
 40
0.9999999999999999
 40
0.9999999999999999
 10
7.431662441244904
 20
7.519333120079932
 30
0.0
 10
7.430219713922903
 20
7.518894295839839
 30
0.0
 10
7.428053529101669
 20
7.518235422611626
 30
0.0
 10
7.427230239358292
 20
7.518373431280324
 30
0.0
 10
7.427567612743659
 20
7.51893308063468
 30
0.0
 10
7.428969191123032
 20
7.51998631004733
 30
0.0
 10
7.431843815636957
 20
7.521836720697957
 30
0.0
 10
7.434773023597038
 20
7.523547061728828
 30
0.0
 10
7.436725154594296
 20
7.524686895358855
 30
0.0
  0
ARC
  5
15B
330
1F
100
AcDbEntity
  8
0
  6
Continuous
 62
     7
370
     0
100
AcDbCircle
 10
7.37912905
 20
7.6780181416
 30
0.0
 40
0.1671546985540327
100
AcDbArc
 50
288.3173580929
 51
295.537163464
  0
LINE
  5
15C
330
1F
100
AcDbEntity
  8
0
  6
Continuous
 62
     7
370
     0
100
AcDbLine
 10
7.4444851067
 20
7.523323492
 30
0.0
 11
7.4511888463
 21
7.5271934785
 31
0.0
  0
ARC
  5
15D
330
1F
100
AcDbEntity
  8
0
  6
Continuous
 62
     7
370
     0
100
AcDbCircle
 10
7.4993042869
 20
7.3116328796
 30
0.0
 40
0.2186734046449749
100
AcDbArc
 50
101.2823824701
 51
104.5183315181
  0
LINE
  5
15E
330
1F
100
AcDbEntity
  8
0
  6
Continuous
 62
     7
370
     0
100
AcDbLine
 10
7.4976627717
 20
7.5498304448
 30
0.0
 11
7.4565220135
 21
7.5260803906
 31
0.0
  0
ARC
  5
15F
330
1F
100
AcDbEntity
  8
0
  6
Continuous
 62
     7
370
     0
100
AcDbCircle
 10
7.5403875311
 20
7.3356444648
 30
0.0
 40
0.2184056754881149
100
AcDbArc
 50
101.2810090323
 51
104.7601742589
  0
LINE
  5
160
330
1F
100
AcDbEntity
  8
0
  6
Continuous
 62
     7
370
     0
100
AcDbLine
 10
7.8954578524
 20
7.1099088501
 30
0.0
 11
7.9112644439
 21
7.1190338011
 31
0.0
  0
ARC
  5
161
330
1F
100
AcDbEntity
  8
0
  6
Continuous
 62
     7
370
     0
100
AcDbCircle
 10
7.0000948792
 20
6.5826605337
 30
0.0
 40
1.039069603511575
100
AcDbArc
 50
29.1783445098
 51
30.4923610629
  0
LINE
  5
162
330
1F
100
AcDbEntity
  8
0
  6
Continuous
 62
     7
370
     0
100
AcDbLine
 10
7.923119798
 20
7.0983627717
 30
0.0
 11
7.9073132064
 21
7.0892378206
 31
0.0
  0
ARC
  5
163
330
1F
100
AcDbEntity
  8
0
  6
Continuous
 62
     7
370
     0
100
AcDbCircle
 10
7.0159014707
 20
6.5917854848
 30
0.0
 40
1.039069603504434
100
AcDbArc
 50
29.1783445098
 51
30.4923610629
  0
ARC
  5
164
330
1F
100
AcDbEntity
  8
0
  6
Continuous
 62
     7
370
     0
100
AcDbCircle
 10
7.8457643105
 20
7.1291840349
 30
0.0
 40
0.009424288892148
100
AcDbArc
 50
24.8359621757
 51
112.9355863999
  0
SPLINE
  5
165
330
1F
100
AcDbEntity
  8
0
  6
Continuous
 62
     7
370
     0
100
AcDbSpline
210
0.0
220
0.0
230
1.0
 70
    24
 71
     1
 72
     4
 73
     2
 74
     0
 42
0.00000001
 43
0.00000001
 40
0.0
 40
0.0
 40
1.0
 40
1.0
 10
7.855686720812444
 20
7.130588740562545
 30
0.0
 10
7.854316984912274
 20
7.133142441424843
 30
0.0
  0
SPLINE
  5
166
330
1F
100
AcDbEntity
  8
0
  6
Continuous
 62
     7
370
     0
100
AcDbSpline
210
0.0
220
0.0
230
1.0
 70
    24
 71
     1
 72
     4
 73
     2
 74
     0
 42
0.00000001
 43
0.00000001
 40
0.0
 40
0.0
 40
1.0
 40
1.0
 10
7.867589500769081
 20
7.136133151294783
 30
0.0
 10
7.855686720812444
 20
7.130588740562545
 30
0.0
  0
SPLINE
  5
167
330
1F
100
AcDbEntity
  8
0
  6
Continuous
 62
     7
370
     0
100
AcDbSpline
210
0.0
220
0.0
230
1.0
 70
    24
 71
     1
 72
     4
 73
     2
 74
     0
 42
0.00000001
 43
0.00000001
 40
0.0
 40
0.0
 40
1.0
 40
1.0
 10
7.862763831718028
 20
7.141660544995694
 30
0.0
 10
7.867589500769081
 20
7.136133151294783
 30
0.0
  0
ARC
  5
168
330
1F
100
AcDbEntity
  8
0
  6
Continuous
 62
     7
370
     0
100
AcDbCircle
 10
7.8697238973
 20
7.1474792632
 30
0.0
 40
0.0090719344414696
100
AcDbArc
 50
119.7748982636
 51
219.8961243437
  0
ARC
  5
169
330
1F
100
AcDbEntity
  8
0
  6
Continuous
 62
     7
370
     0
100
AcDbCircle
 10
7.8704516499
 20
7.1464139466
 30
0.0
 40
0.0103585171982175
100
AcDbArc
 50
29.7390285942
 51
120.3426782503
  0
ARC
  5
16A
330
1F
100
AcDbEntity
  8
0
  6
Continuous
 62
     7
370
     0
100
AcDbCircle
 10
7.8711102381
 20
7.1456713169
 30
0.0
 40
0.0102014163124592
100
AcDbArc
 50
305.2034762213
 51
35.2037712565
  0
SPLINE
  5
16B
330
1F
100
AcDbEntity
  8
0
  6
Continuous
 62
     7
370
     0
100
AcDbSpline
210
0.0
220
0.0
230
1.0
 70
    24
 71
     1
 72
     4
 73
     2
 74
     0
 42
0.00000001
 43
0.00000001
 40
0.0
 40
0.0
 40
1.0
 40
1.0
 10
7.890789764140575
 20
7.119581781237594
 30
0.0
 10
7.87699116987061
 20
7.137335638429155
 30
0.0
  0
ARC
  5
16C
330
1F
100
AcDbEntity
  8
0
  6
Continuous
 62
     7
370
     0
100
AcDbCircle
 10
7.8675162619
 20
7.1373785722
 30
0.0
 40
0.0292981513819653
100
AcDbArc
 50
322.5955648272
 51
43.5396559652
  0
ARC
  5
16D
330
1F
100
AcDbEntity
  8
0
  6
Continuous
 62
     7
370
     0
100
AcDbCircle
 10
7.8621276991
 20
7.1463850778
 30
0.0
 40
0.0288769669219596
100
AcDbArc
 50
22.7686669922
 51
110.897473644
  0
ARC
  5
16E
330
1F
100
AcDbEntity
  8
0
  6
Continuous
 62
     7
370
     0
100
AcDbCircle
 10
7.8579250835
 20
7.1619782711
 30
0.0
 40
0.0129144581652941
100
AcDbArc
 50
118.1746773746
 51
189.3927787817
  0
SPLINE
  5
16F
330
1F
100
AcDbEntity
  8
0
  6
Continuous
 62
     7
370
     0
100
AcDbSpline
210
0.0
220
0.0
230
1.0
 70
    24
 71
     1
 72
     4
 73
     2
 74
     0
 42
0.00000001
 43
0.00000001
 40
0.0
 40
0.0
 40
1.0
 40
1.0
 10
7.847255237471088
 20
7.152918777213177
 30
0.0
 10
7.84518377283934
 20
7.159870610601598
 30
0.0
  0
ARC
  5
170
330
1F
100
AcDbEntity
  8
0
  6
Continuous
 62
     7
370
     0
100
AcDbCircle
 10
7.8358429418
 20
7.1379257844
 30
0.0
 40
0.0188422484152781
100
AcDbArc
 50
52.7225056642
 51
111.418129403
  0
SPLINE
  5
171
330
1F
100
AcDbEntity
  8
0
  6
Continuous
 62
     7
370
     0
100
AcDbSpline
210
0.0
220
0.0
230
1.0
 70
     8
 71
     3
 72
    13
 73
     9
 74
     0
 42
0.00000001
 43
0.00000001
 40
0.0
 40
0.0
 40
0.0
 40
0.0
 40
0.2504706134920095
 40
0.5000297978665281
 40
0.6250199073750451
 40
0.7500281686611583
 40
0.8749635130634373
 40
1.0
 40
1.0
 40
1.0
 40
1.0
 10
7.830837407617696
 20
7.122408208253843
 30
0.0
 10
7.829075187357008
 20
7.125294485785433
 30
0.0
 10
7.825557159319854
 20
7.131056538070077
 30
0.0
 10
7.822548410810465
 20
7.138952223378915
 30
0.0
 10
7.822373268759227
 20
7.145155527562589
 30
0.0
 10
7.823360681786339
 20
7.149446256653469
 30
0.0
 10
7.825539587864139
 20
7.153104112570794
 30
0.0
 10
7.827821083038386
 20
7.15467902050321
 30
0.0
 10
7.828962292189924
 20
7.155466793085678
 30
0.0
  0
ARC
  5
172
330
1F
100
AcDbEntity
  8
0
  6
Continuous
 62
     7
370
     0
100
AcDbCircle
 10
7.8586792138
 20
7.1346228717
 30
0.0
 40
0.0304033579396503
100
AcDbArc
 50
203.687860493
 51
276.4877314887
  0
SPLINE
  5
173
330
1F
100
AcDbEntity
  8
0
  6
Continuous
 62
     7
370
     0
100
AcDbSpline
210
0.0
220
0.0
230
1.0
 70
    24
 71
     1
 72
     4
 73
     2
 74
     0
 42
0.00000001
 43
0.00000001
 40
0.0
 40
0.0
 40
1.0
 40
1.0
 10
7.853700266314968
 20
7.123890086003114
 30
0.0
 10
7.862114503244465
 20
7.104414214645781
 30
0.0
  0
ARC
  5
174
330
1F
100
AcDbEntity
  8
0
  6
Continuous
 62
     7
370
     0
100
AcDbCircle
 10
7.8493101662
 20
7.1325971657
 30
0.0
 40
0.0097512161474744
100
AcDbArc
 50
210.145238066
 51
296.7571919354
  0
SPLINE
  5
175
330
1F
100
AcDbEntity
  8
0
  6
Continuous
 62
     7
370
     0
100
AcDbSpline
210
0.0
220
0.0
230
1.0
 70
     8
 71
     3
 72
    14
 73
    10
 74
     0
 42
0.00000001
 43
0.00000001
 40
0.0
 40
0.0
 40
0.0
 40
0.0
 40
0.2493767508762642
 40
0.3764892636658689
 40
0.4994689652995353
 40
0.6214935465613245
 40
0.7495690295592901
 40
0.874707416503824
 40
1.0
 40
1.0
 40
1.0
 40
1.0
 10
7.84209170264454
 20
7.137863272889719
 30
0.0
 10
7.841365481661803
 20
7.137349548113818
 30
0.0
 10
7.84026909075091
 20
7.13657396714275
 30
0.0
 10
7.83941691581129
 20
7.134957790152293
 30
0.0
 10
7.839079964438505
 20
7.13359230606273
 30
0.0
 10
7.839089081621277
 20
7.132104994502314
 30
0.0
 10
7.839426419628183
 20
7.13058438991694
 30
0.0
 10
7.840028455879573
 20
7.129084554769878
 30
0.0
 10
7.840594536753857
 20
7.128161818801573
 30
0.0
 10
7.840877751466008
 20
7.127700166741723
 30
0.0
  0
ARC
  5
176
330
1F
100
AcDbEntity
  8
0
  6
Continuous
 62
     7
370
     0
100
AcDbCircle
 10
7.7805497728
 20
7.2172448477
 30
0.0
 40
0.0105032806410246
100
AcDbArc
 50
33.2097779793
 51
113.581390589
  0
SPLINE
  5
177
330
1F
100
AcDbEntity
  8
0
  6
Continuous
 62
     7
370
     0
100
AcDbSpline
210
0.0
220
0.0
230
1.0
 70
    24
 71
     1
 72
     4
 73
     2
 74
     0
 42
0.00000001
 43
0.00000001
 40
0.0
 40
0.0
 40
1.0
 40
1.0
 10
7.790927586365783
 20
7.220679475591258
 30
0.0
 10
7.789337561621021
 20
7.222997557687968
 30
0.0
  0
SPLINE
  5
178
330
1F
100
AcDbEntity
  8
0
  6
Continuous
 62
     7
370
     0
100
AcDbSpline
210
0.0
220
0.0
230
1.0
 70
    24
 71
     1
 72
     4
 73
     2
 74
     0
 42
0.00000001
 43
0.00000001
 40
0.0
 40
0.0
 40
1.0
 40
1.0
 10
7.802918164482028
 20
7.226316759045375
 30
0.0
 10
7.790927586365783
 20
7.220679475591258
 30
0.0
  0
SPLINE
  5
179
330
1F
100
AcDbEntity
  8
0
  6
Continuous
 62
     7
370
     0
100
AcDbSpline
210
0.0
220
0.0
230
1.0
 70
    24
 71
     1
 72
     4
 73
     2
 74
     0
 42
0.00000001
 43
0.00000001
 40
0.0
 40
0.0
 40
1.0
 40
1.0
 10
7.797546163685365
 20
7.231256583206422
 30
0.0
 10
7.802918164482028
 20
7.226316759045375
 30
0.0
  0
ARC
  5
17A
330
1F
100
AcDbEntity
  8
0
  6
Continuous
 62
     7
370
     0
100
AcDbCircle
 10
7.8028729155
 20
7.2370723467
 30
0.0
 40
0.0078865322221951
100
AcDbArc
 50
117.6692103596
 51
227.5129278989
  0
ARC
  5
17B
330
1F
100
AcDbEntity
  8
0
  6
Continuous
 62
     7
370
     0
100
AcDbCircle
 10
7.8050403021
 20
7.2340326355
 30
0.0
 40
0.0115962252279646
100
AcDbArc
 50
37.7349316642
 51
120.1799526202
  0
ARC
  5
17C
330
1F
100
AcDbEntity
  8
0
  6
Continuous
 62
     7
370
     0
100
AcDbCircle
 10
7.8077122495
 20
7.2351596367
 30
0.0
 40
0.0088247946821079
100
AcDbArc
 50
303.639566812
 51
42.5709458743
  0
SPLINE
  5
17D
330
1F
100
AcDbEntity
  8
0
  6
Continuous
 62
     7
370
     0
100
AcDbSpline
210
0.0
220
0.0
230
1.0
 70
    24
 71
     1
 72
     4
 73
     2
 74
     0
 42
0.00000001
 43
0.00000001
 40
0.0
 40
0.0
 40
1.0
 40
1.0
 10
7.828159637901665
 20
7.211769404286585
 30
0.0
 10
7.812600891055711
 20
7.227812651921133
 30
0.0
  0
SPLINE
  5
17E
330
1F
100
AcDbEntity
  8
0
  6
Continuous
 62
     7
370
     0
100
AcDbSpline
210
0.0
220
0.0
230
1.0
 70
     8
 71
     3
 72
    12
 73
     8
 74
     0
 42
0.00000001
 43
0.00000001
 40
0.0
 40
0.0
 40
0.0
 40
0.0
 40
0.2505093998121788
 40
0.4997729473065753
 40
0.6235673607848562
 40
0.7500891746799119
 40
1.0
 40
1.0
 40
1.0
 40
1.0
 10
7.823478391718846
 20
7.24709267542274
 30
0.0
 10
7.825699408257812
 20
7.244238021590661
 30
0.0
 10
7.830130395608101
 20
7.238542910907117
 30
0.0
 10
7.833415106604133
 20
7.230358858314921
 30
0.0
 10
7.833686829881402
 20
7.223942606589972
 30
0.0
 10
7.832499478161006
 20
7.21785724664552
 30
0.0
 10
7.829891232661377
 20
7.214198451278349
 30
0.0
 10
7.828159637901665
 20
7.211769404286585
 30
0.0
  0
ARC
  5
17F
330
1F
100
AcDbEntity
  8
0
  6
Continuous
 62
     7
370
     0
100
AcDbCircle
 10
7.7962287033
 20
7.2305851674
 30
0.0
 40
0.0318597447891938
100
AcDbArc
 50
31.2069378158
 51
112.1333229341
  0
ARC
  5
180
330
1F
100
AcDbEntity
  8
0
  6
Continuous
 62
     7
370
     0
100
AcDbCircle
 10
7.789228185
 20
7.2499103053
 30
0.0
 40
0.0113491199094289
100
AcDbArc
 50
116.1569866184
 51
192.9892316399
  0
SPLINE
  5
181
330
1F
100
AcDbEntity
  8
0
  6
Continuous
 62
     7
370
     0
100
AcDbSpline
210
0.0
220
0.0
230
1.0
 70
    24
 71
     1
 72
     4
 73
     2
 74
     0
 42
0.00000001
 43
0.00000001
 40
0.0
 40
0.0
 40
1.0
 40
1.0
 10
7.780746449697637
 20
7.241029343865761
 30
0.0
 10
7.778169462710198
 20
7.247359387139974
 30
0.0
  0
ARC
  5
182
330
1F
100
AcDbEntity
  8
0
  6
Continuous
 62
     7
370
     0
100
AcDbCircle
 10
7.7696450177
 20
7.222583031
 30
0.0
 40
0.0215292418137152
100
AcDbArc
 50
58.9594656002
 51
111.8152377622
  0
SPLINE
  5
183
330
1F
100
AcDbEntity
  8
0
  6
Continuous
 62
     7
370
     0
100
AcDbSpline
210
0.0
220
0.0
230
1.0
 70
     8
 71
     3
 72
    13
 73
     9
 74
     0
 42
0.00000001
 43
0.00000001
 40
0.0
 40
0.0
 40
0.0
 40
0.0
 40
0.2504706134920074
 40
0.5000297978665278
 40
0.6250199073750422
 40
0.750028168661154
 40
0.8749635130634396
 40
1.0
 40
1.0
 40
1.0
 40
1.0
 10
7.765673339009918
 20
7.212062923243613
 30
0.0
 10
7.763657914548366
 20
7.214668183400915
 30
0.0
 10
7.75963439948576
 20
7.219869223521682
 30
0.0
 10
7.756019859724299
 20
7.227042278007558
 30
0.0
 10
7.755453867443296
 20
7.232763988590726
 30
0.0
 10
7.756212749794812
 20
7.236767210716575
 30
0.0
 10
7.75824524848722
 20
7.240238073618543
 30
0.0
 10
7.760511066428111
 20
7.241792814720978
 30
0.0
 10
7.761644433791343
 20
7.242570499808547
 30
0.0
  0
ARC
  5
184
330
1F
100
AcDbEntity
  8
0
  6
Continuous
 62
     7
370
     0
100
AcDbCircle
 10
7.7942805525
 20
7.2297636138
 30
0.0
 40
0.0336405575050421
100
AcDbArc
 50
211.747117454
 51
278.7315351933
  0
SPLINE
  5
185
330
1F
100
AcDbEntity
  8
0
  6
Continuous
 62
     7
370
     0
100
AcDbSpline
210
0.0
220
0.0
230
1.0
 70
    24
 71
     1
 72
     4
 73
     2
 74
     0
 42
0.00000001
 43
0.00000001
 40
0.0
 40
0.0
 40
1.0
 40
1.0
 10
7.789309987500069
 20
7.214367099495092
 30
0.0
 10
7.799387352525108
 20
7.196512934065697
 30
0.0
  0
ARC
  5
186
330
1F
100
AcDbEntity
  8
0
  6
Continuous
 62
     7
370
     0
100
AcDbCircle
 10
7.7843750965
 20
7.2241630262
 30
0.0
 40
0.0109687432703196
100
AcDbArc
 50
218.1271739225
 51
296.7375808331
  0
SPLINE
  5
187
330
1F
100
AcDbEntity
  8
0
  6
Continuous
 62
     7
370
     0
100
AcDbSpline
210
0.0
220
0.0
230
1.0
 70
     8
 71
     3
 72
    14
 73
    10
 74
     0
 42
0.00000001
 43
0.00000001
 40
0.0
 40
0.0
 40
0.0
 40
0.0
 40
0.2493767508762295
 40
0.3764892636872084
 40
0.4994689653004256
 40
0.6214935465838097
 40
0.7495690295593243
 40
0.8747074165038085
 40
1.0
 40
1.0
 40
1.0
 40
1.0
 10
7.776347920898932
 20
7.226871027861147
 30
0.0
 10
7.775627753817776
 20
7.226364220037315
 30
0.0
 10
7.774540502607858
 20
7.2255990817325
 30
0.0
 10
7.773760543775524
 20
7.224064920969451
 30
0.0
 10
7.7734989746436
 20
7.222784611641417
 30
0.0
 10
7.773604430328058
 20
7.221405481131875
 30
0.0
 10
7.774052857623105
 20
7.220008633193429
 30
0.0
 10
7.774774935083124
 20
7.218641465729331
 30
0.0
 10
7.775422591529954
 20
7.217807876353504
 30
0.0
 10
7.775746619142428
 20
7.217390825034776
 30
0.0
  0
SPLINE
  5
188
330
1F
100
AcDbEntity
  8
0
  6
Continuous
 62
     7
370
     0
100
AcDbSpline
210
0.0
220
0.0
230
1.0
 70
     8
 71
     3
 72
    13
 73
     9
 74
     0
 42
0.00000001
 43
0.00000001
 40
0.0
 40
0.0
 40
0.0
 40
0.0
 40
0.2501705057669825
 40
0.3840880187002803
 40
0.4999102936416258
 40
0.6140227116372804
 40
0.7498213084071583
 40
1.0
 40
1.0
 40
1.0
 40
1.0
 10
7.643809498325801
 20
7.375882839410388
 30
0.0
 10
7.643099563136737
 20
7.375434800262975
 30
0.0
 10
7.642009596118693
 20
7.374746923537053
 30
0.0
 10
7.641080012180316
 20
7.37358606878642
 30
0.0
 10
7.640838049970564
 20
7.372608673888154
 30
0.0
 10
7.641187459584089
 20
7.371599633473103
 30
0.0
 10
7.64215288822107
 20
7.370312868756193
 30
0.0
 10
7.643245236402429
 20
7.3694532779921
 30
0.0
 10
7.643953263136166
 20
7.368896117508441
 30
0.0
  0
SPLINE
  5
189
330
1F
100
AcDbEntity
  8
0
  6
Continuous
 62
     7
370
     0
100
AcDbSpline
210
0.0
220
0.0
230
1.0
 70
    24
 71
     1
 72
     4
 73
     2
 74
     0
 42
0.00000001
 43
0.00000001
 40
0.0
 40
0.0
 40
1.0
 40
1.0
 10
7.665078645567957
 20
7.3656778243278
 30
0.0
 10
7.643809498325801
 20
7.375882839410388
 30
0.0
  0
ARC
  5
18A
330
1F
100
AcDbEntity
  8
0
  6
Continuous
 62
     7
370
     0
100
AcDbCircle
 10
7.6849297116
 20
7.3974807312
 30
0.0
 40
0.0374898614059277
100
AcDbArc
 50
238.0279896257
 51
261.7578859349
  0
SPLINE
  5
18B
330
1F
100
AcDbEntity
  8
0
  6
Continuous
 62
     7
370
     0
100
AcDbSpline
210
0.0
220
0.0
230
1.0
 70
     8
 71
     3
 72
     9
 73
     5
 74
     0
 42
0.00000001
 43
0.00000001
 40
0.0
 40
0.0
 40
0.0
 40
0.0
 40
0.500650695542928
 40
1.0
 40
1.0
 40
1.0
 40
1.0
 10
7.689969952143005
 20
7.362644197787655
 30
0.0
 10
7.688462894027583
 20
7.361896210774797
 30
0.0
 10
7.685452695242604
 20
7.360402181066027
 30
0.0
 10
7.681519391968464
 20
7.36038611857798
 30
0.0
 10
7.679555299714304
 20
7.360378097785746
 30
0.0
  0
SPLINE
  5
18C
330
1F
100
AcDbEntity
  8
0
  6
Continuous
 62
     7
370
     0
100
AcDbSpline
210
0.0
220
0.0
230
1.0
 70
     8
 71
     3
 72
    14
 73
    10
 74
     0
 42
0.00000001
 43
0.00000001
 40
0.0
 40
0.0
 40
0.0
 40
0.0
 40
0.2500047170986321
 40
0.379956398857043
 40
0.5001514804938
 40
0.6248780927840826
 40
0.7508658106727827
 40
0.8742378331936805
 40
1.0
 40
1.0
 40
1.0
 40
1.0
 10
7.687033491206594
 20
7.381150986276036
 30
0.0
 10
7.688718185640043
 20
7.37973132949646
 30
0.0
 10
7.691278579049959
 20
7.377573739496395
 30
0.0
 10
7.693589556945123
 20
7.374280634424473
 30
0.0
 10
7.694602535123679
 20
7.371676088285283
 30
0.0
 10
7.694748250110573
 20
7.369077161820101
 30
0.0
 10
7.694093444053305
 20
7.366568340559914
 30
0.0
 10
7.692491126150636
 20
7.36432896274605
 30
0.0
 10
7.690815701377181
 20
7.363209366502315
 30
0.0
 10
7.689969952143005
 20
7.362644197787655
 30
0.0
  0
SPLINE
  5
18D
330
1F
100
AcDbEntity
  8
0
  6
Continuous
 62
     7
370
     0
100
AcDbSpline
210
0.0
220
0.0
230
1.0
 70
    24
 71
     1
 72
     4
 73
     2
 74
     0
 42
0.00000001
 43
0.00000001
 40
0.0
 40
0.0
 40
1.0
 40
1.0
 10
7.675717332857372
 20
7.387443357017513
 30
0.0
 10
7.687033491206594
 20
7.381150986276036
 30
0.0
  0
SPLINE
  5
18E
330
1F
100
AcDbEntity
  8
0
  6
Continuous
 62
     7
370
     0
100
AcDbSpline
210
0.0
220
0.0
230
1.0
 70
    24
 71
     1
 72
     4
 73
     2
 74
     0
 42
0.00000001
 43
0.00000001
 40
0.0
 40
0.0
 40
1.0
 40
1.0
 10
7.665363073012242
 20
7.389469832233996
 30
0.0
 10
7.675717332857372
 20
7.387443357017513
 30
0.0
  0
SPLINE
  5
18F
330
1F
100
AcDbEntity
  8
0
  6
Continuous
 62
     7
370
     0
100
AcDbSpline
210
0.0
220
0.0
230
1.0
 70
     8
 71
     3
 72
     9
 73
     5
 74
     0
 42
0.00000001
 43
0.00000001
 40
0.0
 40
0.0
 40
0.0
 40
0.0
 40
0.4998463205888399
 40
1.0
 40
1.0
 40
1.0
 40
1.0
 10
7.668705789137176
 20
7.393608773814536
 30
0.0
 10
7.668350250541017
 20
7.392840454227016
 30
0.0
 10
7.667638954725653
 20
7.391303342607159
 30
0.0
 10
7.666121855681304
 20
7.390081127577908
 30
0.0
 10
7.665363073012242
 20
7.389469832233996
 30
0.0
  0
ARC
  5
190
330
1F
100
AcDbEntity
  8
0
  6
Continuous
 62
     7
370
     0
100
AcDbCircle
 10
7.2829339101
 20
6.859803938
 30
0.0
 40
0.6586103138102535
100
AcDbArc
 50
54.1449863087
 51
55.708654493
  0
SPLINE
  5
191
330
1F
100
AcDbEntity
  8
0
  6
Continuous
 62
     7
370
     0
100
AcDbSpline
210
0.0
220
0.0
230
1.0
 70
     8
 71
     3
 72
     9
 73
     5
 74
     0
 42
0.00000001
 43
0.00000001
 40
0.0
 40
0.0
 40
0.0
 40
0.0
 40
0.5000572978128771
 40
1.0
 40
1.0
 40
1.0
 40
1.0
 10
7.647203244036733
 20
7.397535029963406
 30
0.0
 10
7.648717489456043
 20
7.398430011826163
 30
0.0
 10
7.651745633282627
 20
7.400219770453167
 30
0.0
 10
7.653245795932116
 20
7.402697918018835
 30
0.0
 10
7.653995791300822
 20
7.403936849809234
 30
0.0
  0
LINE
  5
192
330
1F
100
AcDbEntity
  8
0
  6
Continuous
 62
     7
370
     0
100
AcDbLine
 10
7.6290319772
 20
7.3870449809
 30
0.0
 11
7.647203244
 21
7.39753503
 31
0.0
  0
ARC
  5
193
330
1F
100
AcDbEntity
  8
0
  6
Continuous
 62
     7
370
     0
100
AcDbCircle
 10
7.6331979059
 20
7.3769560038
 30
0.0
 40
0.0109152380777813
100
AcDbArc
 50
112.4366523553
 51
176.2100648745
  0
ARC
  5
194
330
1F
100
AcDbEntity
  8
0
  6
Continuous
 62
     7
370
     0
100
AcDbCircle
 10
7.6487388154
 20
7.3873863453
 30
0.0
 40
0.0281589633148304
100
AcDbArc
 50
200.168826289
 51
244.5069204108
  0
SPLINE
  5
195
330
1F
100
AcDbEntity
  8
0
  6
Continuous
 62
     7
370
     0
100
AcDbSpline
210
0.0
220
0.0
230
1.0
 70
     8
 71
     3
 72
     9
 73
     5
 74
     0
 42
0.00000001
 43
0.00000001
 40
0.0
 40
0.0
 40
0.0
 40
0.0
 40
0.4989850375674055
 40
1.0
 40
1.0
 40
1.0
 40
1.0
 10
7.653115074055746
 20
7.352650489383026
 30
0.0
 10
7.650062839693605
 20
7.353960715121955
 30
0.0
 10
7.643945954151266
 20
7.356586496739207
 30
0.0
 10
7.639064713654062
 20
7.360172416101388
 30
0.0
 10
7.636619139129731
 20
7.361969015355916
 30
0.0
  0
ARC
  5
196
330
1F
100
AcDbEntity
  8
0
  6
Continuous
 62
     7
370
     0
100
AcDbCircle
 10
7.6612587607
 20
7.3776062899
 30
0.0
 40
0.0262509354377351
100
AcDbArc
 50
251.9272318638
 51
289.9786832549
  0
SPLINE
  5
197
330
1F
100
AcDbEntity
  8
0
  6
Continuous
 62
     7
370
     0
100
AcDbSpline
210
0.0
220
0.0
230
1.0
 70
    24
 71
     1
 72
     4
 73
     2
 74
     0
 42
0.00000001
 43
0.00000001
 40
0.0
 40
0.0
 40
1.0
 40
1.0
 10
7.656999231583798
 20
7.365551177245419
 30
0.0
 10
7.670227931222841
 20
7.352935140899383
 30
0.0
  0
SPLINE
  5
198
330
1F
100
AcDbEntity
  8
0
  6
Continuous
 62
     7
370
     0
100
AcDbSpline
210
0.0
220
0.0
230
1.0
 70
     8
 71
     3
 72
     9
 73
     5
 74
     0
 42
0.00000001
 43
0.00000001
 40
0.0
 40
0.0
 40
0.0
 40
0.0
 40
0.4984185104768206
 40
1.0
 40
1.0
 40
1.0
 40
1.0
 10
7.650935346339458
 20
7.365288703833801
 30
0.0
 10
7.651988782446541
 20
7.365167840098502
 30
0.0
 10
7.654102339798323
 20
7.36492534562296
 30
0.0
 10
7.656031566953617
 20
7.365342127280717
 30
0.0
 10
7.656999231583798
 20
7.365551177245419
 30
0.0
  0
SPLINE
  5
199
330
1F
100
AcDbEntity
  8
0
  6
Continuous
 62
     7
370
     0
100
AcDbSpline
210
0.0
220
0.0
230
1.0
 70
     8
 71
     3
 72
     9
 73
     5
 74
     0
 42
0.00000001
 43
0.00000001
 40
0.0
 40
0.0
 40
0.0
 40
0.0
 40
0.5011984280361714
 40
1.0
 40
1.0
 40
1.0
 40
1.0
 10
7.643953263136166
 20
7.368896117508441
 30
0.0
 10
7.644967594014518
 20
7.368155930644416
 30
0.0
 10
7.646991404987599
 20
7.366679096674832
 30
0.0
 10
7.649622801581806
 20
7.365751426950541
 30
0.0
 10
7.650935346339458
 20
7.365288703833801
 30
0.0
  0
ARC
  5
19A
330
1F
100
AcDbEntity
  8
0
  6
Continuous
 62
     7
370
     0
100
AcDbCircle
 10
7.5657092657
 20
7.443876161
 30
0.0
 40
0.0210083332919119
100
AcDbArc
 50
247.1133646004
 51
304.4442887406
  0
SPLINE
  5
19B
330
1F
100
AcDbEntity
  8
0
  6
Continuous
 62
     7
370
     0
100
AcDbSpline
210
0.0
220
0.0
230
1.0
 70
     8
 71
     3
 72
    12
 73
     8
 74
     0
 42
0.00000001
 43
0.00000001
 40
0.0
 40
0.0
 40
0.0
 40
0.0
 40
0.2499205863329942
 40
0.3770821376127707
 40
0.5003335730962299
 40
0.7497132612425599
 40
1.0
 40
1.0
 40
1.0
 40
1.0
 10
7.555389103443363
 20
7.431273939318819
 30
0.0
 10
7.554861277555538
 20
7.430684384473263
 30
0.0
 10
7.554064889722953
 20
7.429794859505895
 30
0.0
 10
7.553780875742043
 20
7.428525027060501
 30
0.0
 10
7.55396587332215
 20
7.427276666698182
 30
0.0
 10
7.555158333032036
 20
7.425842784572688
 30
0.0
 10
7.556744440844415
 20
7.424962583935174
 30
0.0
 10
7.557538934391117
 20
7.424521684696894
 30
0.0
  0
SPLINE
  5
19C
330
1F
100
AcDbEntity
  8
0
  6
Continuous
 62
     7
370
     0
100
AcDbSpline
210
0.0
220
0.0
230
1.0
 70
    24
 71
     1
 72
     4
 73
     2
 74
     0
 42
0.00000001
 43
0.00000001
 40
0.0
 40
0.0
 40
1.0
 40
1.0
 10
7.538656761485557
 20
7.436966312239651
 30
0.0
 10
7.555389103443363
 20
7.431273939318819
 30
0.0
  0
SPLINE
  5
19D
330
1F
100
AcDbEntity
  8
0
  6
Continuous
 62
     7
370
     0
100
AcDbSpline
210
0.0
220
0.0
230
1.0
 70
     8
 71
     3
 72
    12
 73
     8
 74
     0
 42
0.00000001
 43
0.00000001
 40
0.0
 40
0.0
 40
0.0
 40
0.0
 40
0.2504931653223377
 40
0.500121872170447
 40
0.6252456824059349
 40
0.7504040889272312
 40
1.0
 40
1.0
 40
1.0
 40
1.0
 10
7.547195437909783
 20
7.418054828811775
 30
0.0
 10
7.544859119551631
 20
7.419312624540097
 30
0.0
 10
7.540194545531171
 20
7.421823875310738
 30
0.0
 10
7.536049206715512
 20
7.425656198235465
 30
0.0
 10
7.534925314795663
 20
7.429112561636739
 30
0.0
 10
7.535186460924586
 20
7.432690069713206
 30
0.0
 10
7.537269442653207
 20
7.435256802736251
 30
0.0
 10
7.538656761485557
 20
7.436966312239651
 30
0.0
  0
SPLINE
  5
19E
330
1F
100
AcDbEntity
  8
0
  6
Continuous
 62
     7
370
     0
100
AcDbSpline
210
0.0
220
0.0
230
1.0
 70
    24
 71
     1
 72
     4
 73
     2
 74
     0
 42
0.00000001
 43
0.00000001
 40
0.0
 40
0.0
 40
1.0
 40
1.0
 10
7.560887059257579
 20
7.412999873812373
 30
0.0
 10
7.547195437909783
 20
7.418054828811775
 30
0.0
  0
SPLINE
  5
19F
330
1F
100
AcDbEntity
  8
0
  6
Continuous
 62
     7
370
     0
100
AcDbSpline
210
0.0
220
0.0
230
1.0
 70
     8
 71
     3
 72
     9
 73
     5
 74
     0
 42
0.00000001
 43
0.00000001
 40
0.0
 40
0.0
 40
0.0
 40
0.0
 40
0.4972076014264309
 40
1.0
 40
1.0
 40
1.0
 40
1.0
 10
7.580100069970306
 20
7.412814906973611
 30
0.0
 10
7.576883357304093
 20
7.412406826141392
 30
0.0
 10
7.57041380081102
 20
7.411586080780604
 30
0.0
 10
7.564074441121362
 20
7.412526858118254
 30
0.0
 10
7.560887059257579
 20
7.412999873812373
 30
0.0
  0
SPLINE
  5
1A0
330
1F
100
AcDbEntity
  8
0
  6
Continuous
 62
     7
370
     0
100
AcDbSpline
210
0.0
220
0.0
230
1.0
 70
     8
 71
     3
 72
     9
 73
     5
 74
     0
 42
0.00000001
 43
0.00000001
 40
0.0
 40
0.0
 40
0.0
 40
0.0
 40
0.5005315226334629
 40
1.0
 40
1.0
 40
1.0
 40
1.0
 10
7.592853164570725
 20
7.417693684643352
 30
0.0
 10
7.590972828895052
 20
7.416666725164577
 30
0.0
 10
7.587216151062296
 20
7.414614987297254
 30
0.0
 10
7.582470415357009
 20
7.413414508360341
 30
0.0
 10
7.580100069970306
 20
7.412814906973611
 30
0.0
  0
SPLINE
  5
1A1
330
1F
100
AcDbEntity
  8
0
  6
Continuous
 62
     7
370
     0
100
AcDbSpline
210
0.0
220
0.0
230
1.0
 70
     8
 71
     3
 72
    14
 73
    10
 74
     0
 42
0.00000001
 43
0.00000001
 40
0.0
 40
0.0
 40
0.0
 40
0.0
 40
0.250079695316737
 40
0.3795939076661654
 40
0.5000103126991046
 40
0.6249779831586245
 40
0.7499325412133518
 40
0.862538753446386
 40
1.0
 40
1.0
 40
1.0
 40
1.0
 10
7.589107579892617
 20
7.443463533297043
 30
0.0
 10
7.592157311879789
 20
7.441806706288641
 30
0.0
 10
7.596786474918711
 20
7.43929182223278
 30
0.0
 10
7.600948878920243
 20
7.434973614911669
 30
0.0
 10
7.602521342196417
 20
7.431330450754778
 30
0.0
 10
7.602404080402441
 20
7.427577397218062
 30
0.0
 10
7.600913452237749
 20
7.423954596438606
 30
0.0
 10
7.597546462249871
 20
7.420600495578245
 30
0.0
 10
7.594517935568414
 20
7.418724766597022
 30
0.0
 10
7.592853164570725
 20
7.417693684643352
 30
0.0
  0
ARC
  5
1A2
330
1F
100
AcDbEntity
  8
0
  6
Continuous
 62
     7
370
     0
100
AcDbCircle
 10
7.5683649902
 20
7.4020273154
 30
0.0
 40
0.0463380532242525
100
AcDbArc
 50
63.4078747199
 51
111.4707578858
  0
SPLINE
  5
1A3
330
1F
100
AcDbEntity
  8
0
  6
Continuous
 62
     7
370
     0
100
AcDbSpline
210
0.0
220
0.0
230
1.0
 70
    24
 71
     1
 72
     4
 73
     2
 74
     0
 42
0.00000001
 43
0.00000001
 40
0.0
 40
0.0
 40
1.0
 40
1.0
 10
7.564608943308393
 20
7.437287467465282
 30
0.0
 10
7.55140404310745
 20
7.445149716211461
 30
0.0
  0
ARC
  5
1A4
330
1F
100
AcDbEntity
  8
0
  6
Continuous
 62
     7
370
     0
100
AcDbCircle
 10
7.5715672455
 20
7.419329459
 30
0.0
 40
0.0192589729387051
100
AcDbArc
 50
65.9075983318
 51
111.1801675745
  0
SPLINE
  5
1A5
330
1F
100
AcDbEntity
  8
0
  6
Continuous
 62
     7
370
     0
100
AcDbSpline
210
0.0
220
0.0
230
1.0
 70
     8
 71
     3
 72
    14
 73
    10
 74
     0
 42
0.00000001
 43
0.00000001
 40
0.0
 40
0.0
 40
0.0
 40
0.0
 40
0.2499126333277172
 40
0.3788826256937053
 40
0.5000564188325682
 40
0.6248407341066393
 40
0.7500055571873998
 40
0.8749218735121082
 40
0.9999999999999999
 40
0.9999999999999999
 40
0.9999999999999999
 40
0.9999999999999999
 10
7.577591676367466
 20
7.426551081393383
 30
0.0
 10
7.578800732181794
 20
7.427310673060412
 30
0.0
 10
7.580633733720944
 20
7.428462259842665
 30
0.0
 10
7.582229073947216
 20
7.430277740499053
 30
0.0
 10
7.582908481643075
 20
7.431727568285137
 30
0.0
 10
7.582973966640299
 20
7.433193538905251
 30
0.0
 10
7.582407980842271
 20
7.434614032645038
 30
0.0
 10
7.581227468785934
 20
7.435901924064782
 30
0.0
 10
7.580028707780723
 20
7.436574329905149
 30
0.0
 10
7.579428939326066
 20
7.436910750434366
 30
0.0
  0
ARC
  5
1A6
330
1F
100
AcDbEntity
  8
0
  6
Continuous
 62
     7
370
     0
100
AcDbCircle
 10
7.4566527206
 20
7.5183077166
 30
0.0
 40
0.0644318933068437
100
AcDbArc
 50
258.9447464022
 51
299.3144191738
  0
SPLINE
  5
1A7
330
1F
100
AcDbEntity
  8
0
  6
Continuous
 62
     7
370
     0
100
AcDbSpline
210
0.0
220
0.0
230
1.0
 70
     8
 71
     3
 72
    13
 73
     9
 74
     0
 42
0.00000001
 43
0.00000001
 40
0.0
 40
0.0
 40
0.0
 40
0.0
 40
0.2502092620005212
 40
0.3753081960891674
 40
0.5003750810855413
 40
0.6255355602286975
 40
0.7507183164374089
 40
1.0
 40
1.0
 40
1.0
 40
1.0
 10
7.486849767897526
 20
7.479987746599867
 30
0.0
 10
7.489634955827698
 20
7.479302188598291
 30
0.0
 10
7.493812674308158
 20
7.478273867205114
 30
0.0
 10
7.497316248343256
 20
7.475766672372266
 30
0.0
 10
7.498238530597352
 20
7.473319218177281
 30
0.0
 10
7.497606627343679
 20
7.470568719824981
 30
0.0
 10
7.495187827233288
 20
7.46670787311382
 30
0.0
 10
7.490991920900556
 20
7.463957504791999
 30
0.0
 10
7.488198698143989
 20
7.46212657941468
 30
0.0
  0
ARC
  5
1A8
330
1F
100
AcDbEntity
  8
0
  6
Continuous
 62
     7
370
     0
100
AcDbCircle
 10
7.4753189906
 20
7.4208423108
 30
0.0
 40
0.060258952824359
100
AcDbArc
 50
78.9682012618
 51
111.2019640825
  0
SPLINE
  5
1A9
330
1F
100
AcDbEntity
  8
0
  6
Continuous
 62
     7
370
     0
100
AcDbSpline
210
0.0
220
0.0
230
1.0
 70
    24
 71
     1
 72
     4
 73
     2
 74
     0
 42
0.00000001
 43
0.00000001
 40
0.0
 40
0.0
 40
1.0
 40
1.0
 10
7.466706215951215
 20
7.473861055572742
 30
0.0
 10
7.453525946829497
 20
7.477022419777474
 30
0.0
  0
SPLINE
  5
1AA
330
1F
100
AcDbEntity
  8
0
  6
Continuous
 62
     7
370
     0
100
AcDbSpline
210
0.0
220
0.0
230
1.0
 70
    24
 71
     1
 72
     4
 73
     2
 74
     0
 42
0.00000001
 43
0.00000001
 40
0.0
 40
0.0
 40
1.0
 40
1.0
 10
7.471899897482278
 20
7.474871143162156
 30
0.0
 10
7.466706215951215
 20
7.473861055572742
 30
0.0
  0
SPLINE
  5
1AB
330
1F
100
AcDbEntity
  8
0
  6
Continuous
 62
     7
370
     0
100
AcDbSpline
210
0.0
220
0.0
230
1.0
 70
     8
 71
     3
 72
     9
 73
     5
 74
     0
 42
0.00000001
 43
0.00000001
 40
0.0
 40
0.0
 40
0.0
 40
0.0
 40
0.4998133900792597
 40
1.0
 40
1.0
 40
1.0
 40
1.0
 10
7.477258405989462
 20
7.474707389817939
 30
0.0
 10
7.476472253603498
 20
7.474828074292848
 30
0.0
 10
7.47489936179714
 20
7.475069533359977
 30
0.0
 10
7.472899967658421
 20
7.474937289680085
 30
0.0
 10
7.471899897482278
 20
7.474871143162156
 30
0.0
  0
SPLINE
  5
1AC
330
1F
100
AcDbEntity
  8
0
  6
Continuous
 62
     7
370
     0
100
AcDbSpline
210
0.0
220
0.0
230
1.0
 70
     8
 71
     3
 72
    10
 73
     6
 74
     0
 42
0.00000001
 43
0.00000001
 40
0.0
 40
0.0
 40
0.0
 40
0.0
 40
0.2506462839715646
 40
0.5011586610055362
 40
1.0
 40
1.0
 40
1.0
 40
1.0
 10
7.480277684987704
 20
7.471944969893395
 30
0.0
 10
7.480311903864021
 20
7.47226269820463
 30
0.0
 10
7.480380323335334
 20
7.472897985081816
 30
0.0
 10
7.479686173652212
 20
7.473987885477642
 30
0.0
 10
7.478228663696204
 20
7.474419839801552
 30
0.0
 10
7.477258405989462
 20
7.474707389817939
 30
0.0
  0
SPLINE
  5
1AD
330
1F
100
AcDbEntity
  8
0
  6
Continuous
 62
     7
370
     0
100
AcDbSpline
210
0.0
220
0.0
230
1.0
 70
     8
 71
     3
 72
     9
 73
     5
 74
     0
 42
0.00000001
 43
0.00000001
 40
0.0
 40
0.0
 40
0.0
 40
0.0
 40
0.5011623542816426
 40
1.0
 40
1.0
 40
1.0
 40
1.0
 10
7.476595782872572
 20
7.468240474629345
 30
0.0
 10
7.47748729815995
 20
7.468858751050194
 30
0.0
 10
7.479266193321892
 20
7.470092435934079
 30
0.0
 10
7.47994104404285
 20
7.471328416338366
 30
0.0
 10
7.480277684987704
 20
7.471944969893395
 30
0.0
  0
ARC
  5
1AE
330
1F
100
AcDbEntity
  8
0
  6
Continuous
 62
     7
370
     0
100
AcDbCircle
 10
7.4033881508
 20
7.1499899543
 30
0.0
 40
0.326562017165237
100
AcDbArc
 50
77.0455234982
 51
82.3789093405
  0
LINE
  5
1AF
330
1F
100
AcDbEntity
  8
0
  6
Continuous
 62
     7
370
     0
100
AcDbLine
 10
7.4449064885
 20
7.4726336169
 30
0.0
 11
7.4466972135
 21
7.4736673804
 31
0.0
  0
SPLINE
  5
1B0
330
1F
100
AcDbEntity
  8
0
  6
Continuous
 62
     7
370
     0
100
AcDbSpline
210
0.0
220
0.0
230
1.0
 70
     8
 71
     3
 72
    13
 73
     9
 74
     0
 42
0.00000001
 43
0.00000001
 40
0.0
 40
0.0
 40
0.0
 40
0.0
 40
0.2500649107443549
 40
0.3783596976313322
 40
0.5001025157053293
 40
0.6229520872436949
 40
0.7501470080801762
 40
1.0
 40
1.0
 40
1.0
 40
1.0
 10
7.444297547702313
 20
7.455071504028524
 30
0.0
 10
7.441314641963689
 20
7.45576495002919
 30
0.0
 10
7.43680136855012
 20
7.456814165684255
 30
0.0
 10
7.433326645507524
 20
7.459140117453742
 30
0.0
 10
7.432469188075947
 20
7.46138672695333
 30
0.0
 10
7.433445069403507
 20
7.464010970501873
 30
0.0
 10
7.437068405647032
 20
7.46783973460287
 30
0.0
 10
7.441782600122479
 20
7.470723002592409
 30
0.0
 10
7.444906488504653
 20
7.472633616891866
 30
0.0
  0
LINE
  5
1B1
330
1F
100
AcDbEntity
  8
0
  6
Continuous
 62
     7
370
     0
100
AcDbLine
 10
7.3944852613
 20
7.4643298314
 30
0.0
 11
7.3747987657
 21
7.4529650594
 31
0.0
  0
SPLINE
  5
1B2
330
1F
100
AcDbEntity
  8
0
  6
Continuous
 62
     7
370
     0
100
AcDbSpline
210
0.0
220
0.0
230
1.0
 70
     8
 71
     3
 72
    11
 73
     7
 74
     0
 42
0.00000001
 43
0.00000001
 40
0.0
 40
0.0
 40
0.0
 40
0.0
 40
0.4988199337615964
 40
0.7491888849042955
 40
0.8745696102450816
 40
0.9999999999999999
 40
0.9999999999999999
 40
0.9999999999999999
 40
0.9999999999999999
 10
7.400415458588001
 20
7.461022067790199
 30
0.0
 10
7.398565607545818
 20
7.46124466147184
 30
0.0
 10
7.395787274633016
 20
7.461578979931965
 30
0.0
 10
7.394585157354745
 20
7.462788192406289
 30
0.0
 10
7.394364809930278
 20
7.463621887375155
 30
0.0
 10
7.394445105570436
 20
7.464093818886495
 30
0.0
 10
7.394485261340393
 20
7.464329831366973
 30
0.0
  0
ARC
  5
1B3
330
1F
100
AcDbEntity
  8
0
  6
Continuous
 62
     7
370
     0
100
AcDbCircle
 10
7.4004530348
 20
7.5301505872
 30
0.0
 40
0.069128529614881
100
AcDbArc
 50
269.9688557181
 51
302.3806019292
  0
SPLINE
  5
1B4
330
1F
100
AcDbEntity
  8
0
  6
Continuous
 62
     7
370
     0
100
AcDbSpline
210
0.0
220
0.0
230
1.0
 70
     8
 71
     3
 72
    13
 73
     9
 74
     0
 42
0.00000001
 43
0.00000001
 40
0.0
 40
0.0
 40
0.0
 40
0.0
 40
0.1251722017704562
 40
0.2501710903368885
 40
0.3751630043242066
 40
0.5002554073255688
 40
0.7499099807477191
 40
0.9999999999999999
 40
0.9999999999999999
 40
0.9999999999999999
 40
0.9999999999999999
 10
7.443489164809636
 20
7.485841190474565
 30
0.0
 10
7.444616077933616
 20
7.485724267536522
 30
0.0
 10
7.446868343859703
 20
7.485490583551725
 30
0.0
 10
7.449004706759442
 20
7.484455784853978
 30
0.0
 10
7.44966603223243
 20
7.482849178156972
 30
0.0
 10
7.448529357563551
 20
7.480163366241395
 30
0.0
 10
7.444884264663425
 20
7.476353498998817
 30
0.0
 10
7.439945649518934
 20
7.473299321374771
 30
0.0
 10
7.43747419034825
 20
7.471770901954144
 30
0.0
  0
ARC
  5
1B5
330
1F
100
AcDbEntity
  8
0
  6
Continuous
 62
     7
370
     0
100
AcDbCircle
 10
7.4418858908
 20
7.4511179008
 30
0.0
 40
0.0347602838761953
100
AcDbArc
 50
87.3563669055
 51
101.7604237107
  0
SPLINE
  5
1B6
330
1F
100
AcDbEntity
  8
0
  6
Continuous
 62
     7
370
     0
100
AcDbSpline
210
0.0
220
0.0
230
1.0
 70
    24
 71
     1
 72
     4
 73
     2
 74
     0
 42
0.00000001
 43
0.00000001
 40
0.0
 40
0.0
 40
1.0
 40
1.0
 10
7.4244589222522
 20
7.482261700656799
 30
0.0
 10
7.434801054468872
 20
7.485148510958753
 30
0.0
  0
LINE
  5
1B7
330
1F
100
AcDbEntity
  8
0
  6
Continuous
 62
     7
370
     0
100
AcDbLine
 10
7.4305427955
 20
7.4857738459
 30
0.0
 11
7.4244589223
 21
7.4822617007
 31
0.0
  0
ARC
  5
1B8
330
1F
100
AcDbEntity
  8
0
  6
Continuous
 62
     7
370
     0
100
AcDbCircle
 10
7.426069921
 20
7.2250532498
 30
0.0
 40
0.2607589611774132
100
AcDbArc
 50
89.0171405806
 51
91.9082759136
  0
LINE
  5
1B9
330
1F
100
AcDbEntity
  8
0
  6
Continuous
 62
     7
370
     0
100
AcDbLine
 10
7.3605886448
 20
7.4528787402
 30
0.0
 11
7.4173867674
 21
7.4856675984
 31
0.0
  0
ARC
  5
1BA
330
1F
100
AcDbEntity
  8
0
  6
Continuous
 62
     7
370
     0
100
AcDbCircle
 10
7.3692803407
 20
7.1917252956
 30
0.0
 40
0.2612980428145019
100
AcDbArc
 50
88.7898647562
 51
91.9062116592
  0
SPLINE
  5
1BB
330
1F
100
AcDbEntity
  8
0
  6
Continuous
 62
     7
370
     0
100
AcDbSpline
210
0.0
220
0.0
230
1.0
 70
     8
 71
     3
 72
    13
 73
     9
 74
     0
 42
0.00000001
 43
0.00000001
 40
0.0
 40
0.0
 40
0.0
 40
0.0
 40
0.2501705057674675
 40
0.3840880186960109
 40
0.499910293641734
 40
0.6140227116094563
 40
0.7498213084066455
 40
1.0
 40
1.0
 40
1.0
 40
1.0
 10
7.292136804576994
 20
7.443998734439965
 30
0.0
 10
7.291418732827379
 20
7.443583620186934
 30
0.0
 10
7.290316273707569
 20
7.442946293214716
 30
0.0
 10
7.289254368558911
 20
7.44232281007598
 30
0.0
 10
7.288835635545786
 20
7.442065790556777
 30
0.0
 10
7.288931429750098
 20
7.442096081898327
 30
0.0
 10
7.289513786596999
 20
7.442389186809363
 30
0.0
 10
7.290302899940698
 20
7.44280009119077
 30
0.0
 10
7.290814379112617
 20
7.443066426862848
 30
0.0
  0
SPLINE
  5
1BC
330
1F
100
AcDbEntity
  8
0
  6
Continuous
 62
     7
370
     0
100
AcDbSpline
210
0.0
220
0.0
230
1.0
 70
    24
 71
     1
 72
     4
 73
     2
 74
     0
 42
0.00000001
 43
0.00000001
 40
0.0
 40
0.0
 40
1.0
 40
1.0
 10
7.308986234510311
 20
7.452810614843308
 30
0.0
 10
7.292136804576994
 20
7.443998734439965
 30
0.0
  0
ARC
  5
1BD
330
1F
100
AcDbEntity
  8
0
  6
Continuous
 62
     7
370
     0
100
AcDbCircle
 10
7.0042058007
 20
8.0918763632
 30
0.0
 40
0.7080226999246445
100
AcDbArc
 50
295.4972031357
 51
296.5893678265
  0
SPLINE
  5
1BE
330
1F
100
AcDbEntity
  8
0
  6
Continuous
 62
     7
370
     0
100
AcDbSpline
210
0.0
220
0.0
230
1.0
 70
     8
 71
     3
 72
     9
 73
     5
 74
     0
 42
0.00000001
 43
0.00000001
 40
0.0
 40
0.0
 40
0.0
 40
0.0
 40
0.5006506955429246
 40
1.0
 40
1.0
 40
1.0
 40
1.0
 10
7.330923630518106
 20
7.464040260248247
 30
0.0
 10
7.329435421017221
 20
7.463194088554908
 30
0.0
 10
7.32646287046624
 20
7.461503944706369
 30
0.0
 10
7.322894018571519
 20
7.459657879610959
 30
0.0
 10
7.321111914860181
 20
7.458736048289584
 30
0.0
  0
SPLINE
  5
1BF
330
1F
100
AcDbEntity
  8
0
  6
Continuous
 62
     7
370
     0
100
AcDbSpline
210
0.0
220
0.0
230
1.0
 70
     8
 71
     3
 72
    14
 73
    10
 74
     0
 42
0.00000001
 43
0.00000001
 40
0.0
 40
0.0
 40
0.0
 40
0.0
 40
0.2500047170984986
 40
0.3799563988611541
 40
0.5001514804935763
 40
0.6248780927875492
 40
0.7508658106828463
 40
0.8742378332012216
 40
1.0
 40
1.0
 40
1.0
 40
1.0
 10
7.331453258760987
 20
7.465953576650608
 30
0.0
 10
7.332702167957414
 20
7.466523606804446
 30
0.0
 10
7.334600256306654
 20
7.467389936876168
 30
0.0
 10
7.336112915371735
 20
7.467901840465416
 30
0.0
 10
7.336588105849825
 20
7.467907741296568
 30
0.0
 10
7.336291923150136
 20
7.467494591588955
 30
0.0
 10
7.335292794555746
 20
7.466715188928163
 30
0.0
 10
7.333481115277293
 20
7.465539630662835
 30
0.0
 10
7.331781560502282
 20
7.464543236788552
 30
0.0
 10
7.330923630518106
 20
7.464040260248247
 30
0.0
  0
SPLINE
  5
1C0
330
1F
100
AcDbEntity
  8
0
  6
Continuous
 62
     7
370
     0
100
AcDbSpline
210
0.0
220
0.0
230
1.0
 70
    24
 71
     1
 72
     4
 73
     2
 74
     0
 42
0.00000001
 43
0.00000001
 40
0.0
 40
0.0
 40
1.0
 40
1.0
 10
7.32262101615725
 20
7.461434635515402
 30
0.0
 10
7.331453258760987
 20
7.465953576650608
 30
0.0
  0
SPLINE
  5
1C1
330
1F
100
AcDbEntity
  8
0
  6
Continuous
 62
     7
370
     0
100
AcDbSpline
210
0.0
220
0.0
230
1.0
 70
    24
 71
     1
 72
     4
 73
     2
 74
     0
 42
0.00000001
 43
0.00000001
 40
0.0
 40
0.0
 40
1.0
 40
1.0
 10
7.313934519079785
 20
7.45659904286496
 30
0.0
 10
7.32262101615725
 20
7.461434635515402
 30
0.0
  0
SPLINE
  5
1C2
330
1F
100
AcDbEntity
  8
0
  6
Continuous
 62
     7
370
     0
100
AcDbSpline
210
0.0
220
0.0
230
1.0
 70
     8
 71
     3
 72
     9
 73
     5
 74
     0
 42
0.00000001
 43
0.00000001
 40
0.0
 40
0.0
 40
0.0
 40
0.0
 40
0.4998463205888485
 40
1.0
 40
1.0
 40
1.0
 40
1.0
 10
7.317753992152507
 20
7.45882786246177
 30
0.0
 10
7.317276548187256
 20
7.458546763950219
 30
0.0
 10
7.316321366673293
 20
7.457984394077777
 30
0.0
 10
7.314730297953957
 20
7.457060921215076
 30
0.0
 10
7.313934519079785
 20
7.45659904286496
 30
0.0
  0
SPLINE
  5
1C3
330
1F
100
AcDbEntity
  8
0
  6
Continuous
 62
     7
370
     0
100
AcDbSpline
210
0.0
220
0.0
230
1.0
 70
     8
 71
     3
 72
     9
 73
     5
 74
     0
 42
0.00000001
 43
0.00000001
 40
0.0
 40
0.0
 40
0.0
 40
0.0
 40
0.4989850375674081
 40
1.0
 40
1.0
 40
1.0
 40
1.0
 10
7.295938900041667
 20
7.44484369498077
 30
0.0
 10
7.293426995862026
 20
7.443617524333636
 30
0.0
 10
7.288392968806048
 20
7.441160194845137
 30
0.0
 10
7.284760426859431
 20
7.439339573736462
 30
0.0
 10
7.282940468992511
 20
7.438427415320096
 30
0.0
  0
ARC
  5
1C4
330
1F
100
AcDbEntity
  8
0
  6
Continuous
 62
     7
370
     0
100
AcDbCircle
 10
7.1302679911
 20
7.7801770056
 30
0.0
 40
0.3740257735593665
100
AcDbArc
 50
296.2916042274
 51
298.9740421196
  0
SPLINE
  5
1C5
330
1F
100
AcDbEntity
  8
0
  6
Continuous
 62
     7
370
     0
100
AcDbSpline
210
0.0
220
0.0
230
1.0
 70
    24
 71
     1
 72
     4
 73
     2
 74
     0
 42
0.00000001
 43
0.00000001
 40
0.0
 40
0.0
 40
1.0
 40
1.0
 10
7.301742468635823
 20
7.448901112966234
 30
0.0
 10
7.311451059154837
 20
7.452964574403784
 30
0.0
  0
SPLINE
  5
1C6
330
1F
100
AcDbEntity
  8
0
  6
Continuous
 62
     7
370
     0
100
AcDbSpline
210
0.0
220
0.0
230
1.0
 70
     8
 71
     3
 72
     9
 73
     5
 74
     0
 42
0.00000001
 43
0.00000001
 40
0.0
 40
0.0
 40
0.0
 40
0.0
 40
0.4984185104768322
 40
1.0
 40
1.0
 40
1.0
 40
1.0
 10
7.296292015013419
 20
7.445922354843901
 30
0.0
 10
7.2972065043353
 20
7.446413833164647
 30
0.0
 10
7.299041286356147
 20
7.447399908742527
 30
0.0
 10
7.300840177923819
 20
7.448399657496878
 30
0.0
 10
7.301742468635823
 20
7.448901112966234
 30
0.0
  0
SPLINE
  5
1C7
330
1F
100
AcDbEntity
  8
0
  6
Continuous
 62
     7
370
     0
100
AcDbSpline
210
0.0
220
0.0
230
1.0
 70
     8
 71
     3
 72
     9
 73
     5
 74
     0
 42
0.00000001
 43
0.00000001
 40
0.0
 40
0.0
 40
0.0
 40
0.0
 40
0.5011984280361731
 40
1.0
 40
1.0
 40
1.0
 40
1.0
 10
7.290814379112617
 20
7.443066426862848
 30
0.0
 10
7.291562485369198
 20
7.443453068083365
 30
0.0
 10
7.293055120251379
 20
7.444224501509505
 30
0.0
 10
7.295214775553714
 20
7.445357308791107
 30
0.0
 10
7.296292015013419
 20
7.445922354843901
 30
0.0
  0
LINE
  5
1C8
330
1F
100
AcDbEntity
  8
0
  6
Continuous
 62
     7
370
     0
100
AcDbLine
 10
7.6754028341
 20
7.1708428111
 30
0.0
 11
7.6986133846
 21
7.1842419767
 31
0.0
  0
ARC
  5
1C9
330
1F
100
AcDbEntity
  8
0
  6
Continuous
 62
     7
370
     0
100
AcDbCircle
 10
6.9528799081
 20
6.5692791307
 30
0.0
 40
0.9401692614782599
100
AcDbArc
 50
39.7803481027
 51
41.6145714944
  0
LINE
  5
1CA
330
1F
100
AcDbEntity
  8
0
  6
Continuous
 62
     7
370
     0
100
AcDbLine
 10
7.644310389
 20
7.1870408668
 30
0.0
 11
7.6557779162
 21
7.1936609293
 31
0.0
  0
ARC
  5
1CB
330
1F
100
AcDbEntity
  8
0
  6
Continuous
 62
     7
370
     0
100
AcDbCircle
 10
6.9414123809
 20
6.5626590681
 30
0.0
 40
0.9401692614865077
100
AcDbArc
 50
39.7803481027
 51
41.6145714944
  0
LINE
  5
1CC
330
1F
100
AcDbEntity
  8
0
  6
Continuous
 62
     7
370
     0
100
AcDbLine
 10
7.6540174456
 20
7.1584972891
 30
0.0
 11
7.6639353069
 21
7.1642227486
 31
0.0
  0
ARC
  5
1CD
330
1F
100
AcDbEntity
  8
0
  6
Continuous
 62
     7
370
     0
100
AcDbCircle
 10
6.9335395353
 20
6.5586767673
 30
0.0
 40
0.9374823079253347
100
AcDbArc
 50
39.7784457051
 51
41.9296287761
  0
LINE
  5
1CE
330
1F
100
AcDbEntity
  8
0
  6
Continuous
 62
     7
370
     0
100
AcDbLine
 10
7.6187924056
 20
7.1780745536
 30
0.0
 11
7.6309945892
 21
7.1851187242
 31
0.0
  0
ARC
  5
1CF
330
1F
100
AcDbEntity
  8
0
  6
Continuous
 62
     7
370
     0
100
AcDbCircle
 10
6.912388602
 20
6.543861957
 30
0.0
 40
0.9493323714111788
100
AcDbArc
 50
38.3244583661
 51
41.917641463
  0
LINE
  5
1D0
330
1F
100
AcDbEntity
  8
0
  6
Continuous
 62
     7
370
     0
100
AcDbLine
 10
7.7139491041
 20
7.1653450904
 30
0.0
 11
7.6571509815
 21
7.1325562321
 31
0.0
  0
ARC
  5
1D1
330
1F
100
AcDbEntity
  8
0
  6
Continuous
 62
     7
370
     0
100
AcDbCircle
 10
6.956050034
 20
6.5659453268
 30
0.0
 40
0.9662769152842531
100
AcDbArc
 50
38.3394207231
 51
39.7825153077
  0
ARC
  5
1D2
330
1F
100
AcDbEntity
  8
0
  6
Continuous
 62
     7
370
     0
100
AcDbCircle
 10
7.5938314291
 20
7.1574914433
 30
0.0
 40
0.0491368743170241
100
AcDbArc
 50
52.3487243948
 51
93.7787945265
  0
LINE
  5
1D3
330
1F
100
AcDbEntity
  8
0
  6
Continuous
 62
     7
370
     0
100
AcDbLine
 10
7.6367837234
 20
7.2038635126
 30
0.0
 11
7.6238468835
 21
7.1963952338
 31
0.0
  0
SPLINE
  5
1D4
330
1F
100
AcDbEntity
  8
0
  6
Continuous
 62
     7
370
     0
100
AcDbSpline
210
0.0
220
0.0
230
1.0
 70
    24
 71
     1
 72
     4
 73
     2
 74
     0
 42
0.00000001
 43
0.00000001
 40
0.0
 40
0.0
 40
1.0
 40
1.0
 10
7.613218747616932
 20
7.215247646114103
 30
0.0
 10
7.636783723444687
 20
7.203863512564713
 30
0.0
  0
LINE
  5
1D5
330
1F
100
AcDbEntity
  8
0
  6
Continuous
 62
     7
370
     0
100
AcDbLine
 10
7.651065031
 20
7.2370958405
 30
0.0
 11
7.6132187476
 21
7.2152476461
 31
0.0
  0
ARC
  5
1D6
330
1F
100
AcDbEntity
  8
0
  6
Continuous
 62
     7
370
     0
100
AcDbCircle
 10
7.0334634948
 20
6.635966081
 30
0.0
 40
0.8618518696705086
100
AcDbArc
 50
44.2256653845
 51
45.6360772498
  0
LINE
  5
1D7
330
1F
100
AcDbEntity
  8
0
  6
Continuous
 62
     7
370
     0
100
AcDbLine
 10
7.5783194446
 20
7.2187697665
 30
0.0
 11
7.6360818038
 21
7.2521152666
 31
0.0
  0
ARC
  5
1D8
330
1F
100
AcDbEntity
  8
0
  6
Continuous
 62
     7
370
     0
100
AcDbCircle
 10
6.9774847563
 20
6.6044172771
 30
0.0
 40
0.8593202568836313
100
AcDbArc
 50
44.4811837562
 51
45.6373347425
  0
LINE
  5
1D9
330
1F
100
AcDbEntity
  8
0
  6
Continuous
 62
     7
370
     0
100
AcDbLine
 10
7.5329422324
 20
7.278865077
 30
0.0
 11
7.5455347021
 21
7.2861345551
 31
0.0
  0
ARC
  5
1DA
330
1F
100
AcDbEntity
  8
0
  6
Continuous
 62
     7
370
     0
100
AcDbCircle
 10
7.050542295
 20
6.6761905564
 30
0.0
 40
0.771962614014904
100
AcDbArc
 50
47.3031031839
 51
51.3251043823
  0
LINE
  5
1DB
330
1F
100
AcDbEntity
  8
0
  6
Continuous
 62
     7
370
     0
100
AcDbLine
 10
7.5866179486
 20
7.2508149795
 30
0.0
 11
7.5740254789
 21
7.2435455014
 31
0.0
  0
ARC
  5
1DC
330
1F
100
AcDbEntity
  8
0
  6
Continuous
 62
     7
370
     0
100
AcDbCircle
 10
7.0631347648
 20
6.6834600344
 30
0.0
 40
0.7719626140143326
100
AcDbArc
 50
47.3031031839
 51
51.3251043823
  0
ARC
  5
1DD
330
1F
100
AcDbEntity
  8
0
  6
Continuous
 62
     7
370
     0
100
AcDbCircle
 10
7.4975491752
 20
7.2377099551
 30
0.0
 40
0.0570974098350306
100
AcDbArc
 50
63.1469651513
 51
98.7821068586
  0
LINE
  5
1DE
330
1F
100
AcDbEntity
  8
0
  6
Continuous
 62
     7
370
     0
100
AcDbLine
 10
7.5362771181
 20
7.2961187208
 30
0.0
 11
7.5233402781
 21
7.2886504421
 31
0.0
  0
SPLINE
  5
1DF
330
1F
100
AcDbEntity
  8
0
  6
Continuous
 62
     7
370
     0
100
AcDbSpline
210
0.0
220
0.0
230
1.0
 70
    24
 71
     1
 72
     4
 73
     2
 74
     0
 42
0.00000001
 43
0.00000001
 40
0.0
 40
0.0
 40
1.0
 40
1.0
 10
7.511630891054812
 20
7.303567646441047
 30
0.0
 10
7.536277118111362
 20
7.296118720832061
 30
0.0
  0
LINE
  5
1E0
330
1F
100
AcDbEntity
  8
0
  6
Continuous
 62
     7
370
     0
100
AcDbLine
 10
7.5494771745
 20
7.3254158408
 30
0.0
 11
7.5116308911
 21
7.3035676464
 31
0.0
  0
ARC
  5
1E1
330
1F
100
AcDbEntity
  8
0
  6
Continuous
 62
     7
370
     0
100
AcDbCircle
 10
7.1654751051
 20
6.793074494
 30
0.0
 40
0.6563877655483139
100
AcDbArc
 50
54.1953711755
 51
55.8865801118
  0
LINE
  5
1E2
330
1F
100
AcDbEntity
  8
0
  6
Continuous
 62
     7
370
     0
100
AcDbLine
 10
7.4758366187
 20
7.3031714592
 30
0.0
 11
7.5335989778
 21
7.3365169593
 31
0.0
  0
ARC
  5
1E3
330
1F
100
AcDbEntity
  8
0
  6
Continuous
 62
     7
370
     0
100
AcDbCircle
 10
7.1094017049
 20
6.7621750126
 30
0.0
 40
0.6534154124435367
100
AcDbArc
 50
54.5011055349
 51
55.8889064575
  0
ARC
  5
1E4
330
1F
100
AcDbEntity
  8
0
  6
Continuous
 62
     7
370
     0
100
AcDbCircle
 10
7.422960917
 20
7.3345671308
 30
0.0
 40
0.0567977186584474
100
AcDbArc
 50
70.8658244828
 51
126.9135272104
  0
SPLINE
  5
1E5
330
1F
100
AcDbEntity
  8
0
  6
Continuous
 62
     7
370
     0
100
AcDbSpline
210
0.0
220
0.0
230
1.0
 70
    24
 71
     1
 72
     4
 73
     2
 74
     0
 42
0.00000001
 43
0.00000001
 40
0.0
 40
0.0
 40
1.0
 40
1.0
 10
7.377168905078181
 20
7.371768175507072
 30
0.0
 10
7.388847695466657
 20
7.37997934239214
 30
0.0
  0
SPLINE
  5
1E6
330
1F
100
AcDbEntity
  8
0
  6
Continuous
 62
     7
370
     0
100
AcDbSpline
210
0.0
220
0.0
230
1.0
 70
     8
 71
     3
 72
    12
 73
     8
 74
     0
 42
0.00000001
 43
0.00000001
 40
0.0
 40
0.0
 40
0.0
 40
0.0
 40
0.2503262674180353
 40
0.4997345046006471
 40
0.6249000363599394
 40
0.7501600021982573
 40
1.0
 40
1.0
 40
1.0
 40
1.0
 10
7.382430637567394
 20
7.354502376997145
 30
0.0
 10
7.380130164995468
 20
7.355549061090528
 30
0.0
 10
7.37553765645477
 20
7.357638590736275
 30
0.0
 10
7.372398626354708
 20
7.361266311278126
 30
0.0
 10
7.372171724050649
 20
7.364476987461601
 30
0.0
 10
7.373089795497764
 20
7.36778291848047
 30
0.0
 10
7.375538148859209
 20
7.370174939887336
 30
0.0
 10
7.377168905078181
 20
7.371768175507072
 30
0.0
  0
ARC
  5
1E7
330
1F
100
AcDbEntity
  8
0
  6
Continuous
 62
     7
370
     0
100
AcDbCircle
 10
7.4030193446
 20
7.4061588087
 30
0.0
 40
0.0556082888540666
100
AcDbArc
 50
248.2692542357
 51
305.1283429467
  0
SPLINE
  5
1E8
330
1F
100
AcDbEntity
  8
0
  6
Continuous
 62
     7
370
     0
100
AcDbSpline
210
0.0
220
0.0
230
1.0
 70
     8
 71
     3
 72
     9
 73
     5
 74
     0
 42
0.00000001
 43
0.00000001
 40
0.0
 40
0.0
 40
0.0
 40
0.0
 40
0.4987092906771995
 40
1.0
 40
1.0
 40
1.0
 40
1.0
 10
7.451297926215411
 20
7.374649976029083
 30
0.0
 10
7.449378199796126
 20
7.372097056955707
 30
0.0
 10
7.445528810071143
 20
7.366978004391217
 30
0.0
 10
7.438526898089298
 20
7.362782095765529
 30
0.0
 10
7.435016904665302
 20
7.360678725754304
 30
0.0
  0
SPLINE
  5
1E9
330
1F
100
AcDbEntity
  8
0
  6
Continuous
 62
     7
370
     0
100
AcDbSpline
210
0.0
220
0.0
230
1.0
 70
     8
 71
     3
 72
    11
 73
     7
 74
     0
 42
0.00000001
 43
0.00000001
 40
0.0
 40
0.0
 40
0.0
 40
0.0
 40
0.2504031889031619
 40
0.5003824607867586
 40
0.750098415989145
 40
1.0
 40
1.0
 40
1.0
 40
1.0
 10
7.441578157268805
 20
7.388226978099089
 30
0.0
 10
7.443327252636522
 20
7.38741881178665
 30
0.0
 10
7.446822482262322
 20
7.385803847337054
 30
0.0
 10
7.450707601528007
 20
7.382617497657773
 30
0.0
 10
7.45242313049396
 20
7.378737176878477
 30
0.0
 10
7.451673087199077
 20
7.376012713729544
 30
0.0
 10
7.451297926215411
 20
7.374649976029083
 30
0.0
  0
LINE
  5
1EA
330
1F
100
AcDbEntity
  8
0
  6
Continuous
 62
     7
370
     0
100
AcDbLine
 10
7.2985815338
 20
7.4048636867
 30
0.0
 11
7.3195766361
 21
7.4169839013
 31
0.0
  0
ARC
  5
1EB
330
1F
100
AcDbEntity
  8
0
  6
Continuous
 62
     7
370
     0
100
AcDbCircle
 10
7.2822736014
 20
7.429313894
 30
0.0
 40
0.0293898161762089
100
AcDbArc
 50
273.7138793917
 51
303.7027103784
  0
SPLINE
  5
1EC
330
1F
100
AcDbEntity
  8
0
  6
Continuous
 62
     7
370
     0
100
AcDbSpline
210
0.0
220
0.0
230
1.0
 70
     8
 71
     3
 72
    11
 73
     7
 74
     0
 42
0.00000001
 43
0.00000001
 40
0.0
 40
0.0
 40
0.0
 40
0.0
 40
0.2494767938177084
 40
0.5035301868962069
 40
0.7522417857809108
 40
0.9999999999999999
 40
0.9999999999999999
 40
0.9999999999999999
 40
0.9999999999999999
 10
7.283438091272277
 20
7.402045705500272
 30
0.0
 10
7.283136641752127
 20
7.401767517085137
 30
0.0
 10
7.282528212683842
 20
7.401206036946958
 30
0.0
 10
7.282396826607782
 20
7.400540981937485
 30
0.0
 10
7.282909507847807
 20
7.400089580090816
 30
0.0
 10
7.283755243059704
 20
7.400020347507243
 30
0.0
 10
7.284177298621334
 20
7.399985797690076
 30
0.0
  0
SPLINE
  5
1ED
330
1F
100
AcDbEntity
  8
0
  6
Continuous
 62
     7
370
     0
100
AcDbSpline
210
0.0
220
0.0
230
1.0
 70
    24
 71
     1
 72
     4
 73
     2
 74
     0
 42
0.00000001
 43
0.00000001
 40
0.0
 40
0.0
 40
1.0
 40
1.0
 10
7.286844785478591
 20
7.404175327839838
 30
0.0
 10
7.283438091272277
 20
7.402045705500272
 30
0.0
  0
LINE
  5
1EE
330
1F
100
AcDbEntity
  8
0
  6
Continuous
 62
     7
370
     0
100
AcDbLine
 10
7.3095043437
 20
7.4172564124
 30
0.0
 11
7.2868447855
 21
7.4041753278
 31
0.0
  0
ARC
  5
1EF
330
1F
100
AcDbEntity
  8
0
  6
Continuous
 62
     7
370
     0
100
AcDbCircle
 10
7.3072978485
 20
7.1592891231
 30
0.0
 40
0.25797672561052
100
AcDbArc
 50
89.5099387283
 51
92.630316127
  0
LINE
  5
1F0
330
1F
100
AcDbEntity
  8
0
  6
Continuous
 62
     7
370
     0
100
AcDbLine
 10
7.2742227344
 20
7.4047346765
 30
0.0
 11
7.2954588959
 21
7.4169940516
 31
0.0
  0
ARC
  5
1F1
330
1F
100
AcDbEntity
  8
0
  6
Continuous
 62
     7
370
     0
100
AcDbCircle
 10
7.2555170246
 20
7.4335242301
 30
0.0
 40
0.034332811963691
100
AcDbArc
 50
278.0198854455
 51
303.0133734242
  0
SPLINE
  5
1F2
330
1F
100
AcDbEntity
  8
0
  6
Continuous
 62
     7
370
     0
100
AcDbSpline
210
0.0
220
0.0
230
1.0
 70
     8
 71
     3
 72
    10
 73
     6
 74
     0
 42
0.00000001
 43
0.00000001
 40
0.0
 40
0.0
 40
0.0
 40
0.0
 40
0.4988594542991799
 40
0.7491987595266519
 40
1.0
 40
1.0
 40
1.0
 40
1.0
 10
7.258994278079902
 20
7.400500336698489
 30
0.0
 10
7.258870821516553
 20
7.400201428001703
 30
0.0
 10
7.258685411571289
 20
7.399752519951721
 30
0.0
 10
7.259369697196791
 20
7.399503594073509
 30
0.0
 10
7.259994392445213
 20
7.399519328582488
 30
0.0
 10
7.260307027981424
 20
7.399527203088762
 30
0.0
  0
SPLINE
  5
1F3
330
1F
100
AcDbEntity
  8
0
  6
Continuous
 62
     7
370
     0
100
AcDbSpline
210
0.0
220
0.0
230
1.0
 70
     8
 71
     3
 72
     9
 73
     5
 74
     0
 42
0.00000001
 43
0.00000001
 40
0.0
 40
0.0
 40
0.0
 40
0.0
 40
0.5015784057013044
 40
0.9999999999999999
 40
0.9999999999999999
 40
0.9999999999999999
 40
0.9999999999999999
 10
7.26220195245364
 20
7.402813624684876
 30
0.0
 10
7.261478908839972
 20
7.402389979805727
 30
0.0
 10
7.260037372271713
 20
7.401545356364337
 30
0.0
 10
7.259341243628226
 20
7.400847942719323
 30
0.0
 10
7.258994278079903
 20
7.400500336698489
 30
0.0
  0
LINE
  5
1F4
330
1F
100
AcDbEntity
  8
0
  6
Continuous
 62
     7
370
     0
100
AcDbLine
 10
7.2856420831
 20
7.4163453241
 30
0.0
 11
7.2622019525
 21
7.4028136247
 31
0.0
  0
ARC
  5
1F5
330
1F
100
AcDbEntity
  8
0
  6
Continuous
 62
     7
370
     0
100
AcDbCircle
 10
7.3059089665
 20
7.1808071735
 30
0.0
 40
0.2364084747994011
100
AcDbArc
 50
94.9179030349
 51
98.2253094489
  0
LINE
  5
1F6
330
1F
100
AcDbEntity
  8
0
  6
Continuous
 62
     7
370
     0
100
AcDbLine
 10
7.2462476763
 20
7.3998670677
 30
0.0
 11
7.2720869193
 21
7.4147837451
 31
0.0
  0
SPLINE
  5
1F7
330
1F
100
AcDbEntity
  8
0
  6
Continuous
 62
     7
370
     0
100
AcDbSpline
210
0.0
220
0.0
230
1.0
 70
     8
 71
     3
 72
    13
 73
     9
 74
     0
 42
0.00000001
 43
0.00000001
 40
0.0
 40
0.0
 40
0.0
 40
0.0
 40
0.2493026324880443
 40
0.3767800005101609
 40
0.4994269650591527
 40
0.6183515801853048
 40
0.7497380290332852
 40
1.0
 40
1.0
 40
1.0
 40
1.0
 10
7.24206048996672
 20
7.391923365785233
 30
0.0
 10
7.240444425691297
 20
7.391839577190505
 30
0.0
 10
7.238002009851393
 20
7.39171294448531
 30
0.0
 10
7.236883193559792
 20
7.392483975764301
 30
0.0
 10
7.237094695364729
 20
7.39344925704083
 30
0.0
 10
7.238410474343342
 20
7.394794564444418
 30
0.0
 10
7.241264245903439
 20
7.396906747026463
 30
0.0
 10
7.244274037136287
 20
7.39869466144118
 30
0.0
 10
7.246247676347203
 20
7.39986706767193
 30
0.0
  0
ARC
  5
1F8
330
1F
100
AcDbEntity
  8
0
  6
Continuous
 62
     7
370
     0
100
AcDbCircle
 10
7.2343056465
 20
7.4646296681
 30
0.0
 40
0.0731186979289118
100
AcDbArc
 50
276.0881420909
 51
291.8464229419
  0
SPLINE
  5
1F9
330
1F
100
AcDbEntity
  8
0
  6
Continuous
 62
     7
370
     0
100
AcDbSpline
210
0.0
220
0.0
230
1.0
 70
     8
 71
     3
 72
    12
 73
     8
 74
     0
 42
0.00000001
 43
0.00000001
 40
0.0
 40
0.0
 40
0.0
 40
0.0
 40
0.2503253654036823
 40
0.4999978777421037
 40
0.7494826629082579
 40
0.8746982187917929
 40
1.0
 40
1.0
 40
1.0
 40
1.0
 10
7.265664753139084
 20
7.392978374230998
 30
0.0
 10
7.264582329649241
 20
7.393003015577522
 30
0.0
 10
7.262420305649531
 20
7.393052234005493
 30
0.0
 10
7.260275151018649
 20
7.393643694180768
 30
0.0
 10
7.260088515774061
 20
7.394747313295499
 30
0.0
 10
7.260693996716972
 20
7.395843852392071
 30
0.0
 10
7.261240987261858
 20
7.396455891677975
 30
0.0
 10
7.26151457666838
 20
7.396762016649538
 30
0.0
  0
ARC
  5
1FA
330
1F
100
AcDbEntity
  8
0
  6
Continuous
 62
     7
370
     0
100
AcDbCircle
 10
7.2647575232
 20
7.4527943182
 30
0.0
 40
0.0598228235403276
100
AcDbArc
 50
270.8689399595
 51
290.2059711775
  0
LINE
  5
1FB
330
1F
100
AcDbEntity
  8
0
  6
Continuous
 62
     7
370
     0
100
AcDbLine
 10
7.2794165671
 20
7.3931874103
 30
0.0
 11
7.2854200873
 21
7.3966531688
 31
0.0
  0
ARC
  5
1FC
330
1F
100
AcDbEntity
  8
0
  6
Continuous
 62
     7
370
     0
100
AcDbCircle
 10
7.2653635937
 20
7.1084245341
 30
0.0
 40
0.2851094206159108
100
AcDbArc
 50
84.4549292083
 51
87.1747603072
  0
LINE
  5
1FD
330
1F
100
AcDbEntity
  8
0
  6
Continuous
 62
     7
370
     0
100
AcDbLine
 10
7.3340541145
 20
7.4159498379
 30
0.0
 11
7.2929133563
 21
7.3921997837
 31
0.0
  0
ARC
  5
1FE
330
1F
100
AcDbEntity
  8
0
  6
Continuous
 62
     7
370
     0
100
AcDbCircle
 10
7.3065509103
 20
7.1327527744
 30
0.0
 40
0.2845294413982736
100
AcDbArc
 50
84.4530103931
 51
87.3760885871
  0
LWPOLYLINE
  5
1FF
330
1F
100
AcDbEntity
  8
0
  6
Continuous
 62
     7
370
     0
100
AcDbPolyline
 90
       43
 70
   128
 43
0.0
 10
8.6542215287
 20
6.8447658345
 10
8.6627468642
 20
6.8499754055
 10
8.6841367096
 20
6.8658844859
 10
8.7035906245
 20
6.8847190252
 10
8.7209944458
 20
6.9063684946
 10
8.7362460408
 20
6.9307058466
 10
8.7492559071
 20
6.9575882599
 10
8.7599476977
 20
6.9868579778
 10
8.7682586689
 20
7.018343234
 10
8.7741400486
 20
7.0518592604
 10
8.7775573225
 20
7.0872093717
 10
8.7784904367
 20
7.1241861194
 10
8.7769339153
 20
7.1625725092
 10
8.7728968926
 20
7.2021432745
 10
8.7664030595
 20
7.2426661984
 10
8.7574905244
 20
7.2839034761
 10
8.7462115895
 20
7.325613111
 10
8.7326324441
 20
7.3675503344
 10
8.716832776
 20
7.4094690419
 10
8.6989053041
 20
7.4511232378
 10
8.6789552338
 20
7.4922684789
 10
8.65709964
 20
7.5326633085
 10
8.6334667802
 20
7.5720706736
 10
8.6081953412
 20
7.6102593161
 10
8.581433626
 20
7.64700513
 10
8.5533386829
 20
7.6820924762
 10
8.5240753843
 20
7.7153154481
 10
8.4938154587
 20
7.7464790802
 10
8.4627364836
 20
7.7754004919
 10
8.4310208426
 20
7.8019099608
 10
8.3988546558
 20
7.8258519188
 10
8.3664266871
 20
7.8470858651
 10
8.3339272368
 20
7.8654871903
 10
8.3015470245
 20
7.8809479081
 10
8.2694760702
 20
7.893377289
 10
8.237902579
 20
7.9027023924
 10
8.2070118368
 20
7.9088684949
 10
8.1769851227
 20
7.9118394112
 10
8.1479986453
 20
7.911597707
 10
8.1202225089
 20
7.9081448006
 10
8.0938197148
 20
7.901500955
 10
8.0689452052
 20
7.8917051591
 10
8.0542702891
 20
7.8840244693
  0
LINE
  5
200
330
1F
100
AcDbEntity
  8
0
  6
Continuous
 62
     7
370
     0
100
AcDbLine
 10
7.3733259711
 20
7.3920530001
 30
0.0
 11
7.3943210734
 21
7.4041732147
 31
0.0
  0
ARC
  5
201
330
1F
100
AcDbEntity
  8
0
  6
Continuous
 62
     7
370
     0
100
AcDbCircle
 10
7.3617706599
 20
7.4084799906
 30
0.0
 40
0.0200841040247331
100
AcDbArc
 50
260.7142534178
 51
305.123874537
  0
SPLINE
  5
202
330
1F
100
AcDbEntity
  8
0
  6
Continuous
 62
     7
370
     0
100
AcDbSpline
210
0.0
220
0.0
230
1.0
 70
     8
 71
     3
 72
    11
 73
     7
 74
     0
 42
0.00000001
 43
0.00000001
 40
0.0
 40
0.0
 40
0.0
 40
0.0
 40
0.2494767938294358
 40
0.5035301869235037
 40
0.7522417858257706
 40
1.0
 40
1.0
 40
1.0
 40
1.0
 10
7.357486435075886
 20
7.391833552613795
 30
0.0
 10
7.357198112974544
 20
7.391507923437953
 30
0.0
 10
7.356616179563606
 20
7.390850691487586
 30
0.0
 10
7.35655810497365
 20
7.389919148983696
 30
0.0
 10
7.357162339425437
 20
7.389132560089417
 30
0.0
 10
7.358074645545304
 20
7.388816698463074
 30
0.0
 10
7.358529922641885
 20
7.388659070928815
 30
0.0
  0
SPLINE
  5
203
330
1F
100
AcDbEntity
  8
0
  6
Continuous
 62
     7
370
     0
100
AcDbSpline
210
0.0
220
0.0
230
1.0
 70
    24
 71
     1
 72
     4
 73
     2
 74
     0
 42
0.00000001
 43
0.00000001
 40
0.0
 40
0.0
 40
1.0
 40
1.0
 10
7.360872527394959
 20
7.394037524957603
 30
0.0
 10
7.357486435075886
 20
7.391833552613795
 30
0.0
  0
LINE
  5
204
330
1F
100
AcDbEntity
  8
0
  6
Continuous
 62
     7
370
     0
100
AcDbLine
 10
7.3835320856
 20
7.4071186095
 30
0.0
 11
7.3608725274
 21
7.394037525
 31
0.0
  0
ARC
  5
205
330
1F
100
AcDbEntity
  8
0
  6
Continuous
 62
     7
370
     0
100
AcDbCircle
 10
7.2963683488
 20
7.0679027464
 30
0.0
 40
0.3502355189692966
100
AcDbArc
 50
75.5892400499
 51
78.1341993096
  0
LINE
  5
206
330
1F
100
AcDbEntity
  8
0
  6
Continuous
 62
     7
370
     0
100
AcDbLine
 10
7.3471476449
 20
7.39839502
 30
0.0
 11
7.3683838063
 21
7.4106543951
 31
0.0
  0
ARC
  5
207
330
1F
100
AcDbEntity
  8
0
  6
Continuous
 62
     7
370
     0
100
AcDbCircle
 10
7.3348725227
 20
7.4162214979
 30
0.0
 40
0.0216439815985509
100
AcDbArc
 50
264.4300508243
 51
304.5508826609
  0
SPLINE
  5
208
330
1F
100
AcDbEntity
  8
0
  6
Continuous
 62
     7
370
     0
100
AcDbSpline
210
0.0
220
0.0
230
1.0
 70
     8
 71
     3
 72
    10
 73
     6
 74
     0
 42
0.00000001
 43
0.00000001
 40
0.0
 40
0.0
 40
0.0
 40
0.0
 40
0.4988594542991672
 40
0.7491987595266276
 40
1.0
 40
1.0
 40
1.0
 40
1.0
 10
7.33115686712279
 20
7.396606731380686
 30
0.0
 10
7.331074044409903
 20
7.396180599162072
 30
0.0
 10
7.330949659328653
 20
7.395540623860757
 30
0.0
 10
7.331746087235067
 20
7.394937330808889
 30
0.0
 10
7.332429644574792
 20
7.394765636090184
 30
0.0
 10
7.332771738285246
 20
7.394679709599494
 30
0.0
  0
SPLINE
  5
209
330
1F
100
AcDbEntity
  8
0
  6
Continuous
 62
     7
370
     0
100
AcDbSpline
210
0.0
220
0.0
230
1.0
 70
     8
 71
     3
 72
     9
 73
     5
 74
     0
 42
0.00000001
 43
0.00000001
 40
0.0
 40
0.0
 40
0.0
 40
0.0
 40
0.5015784057012637
 40
0.9999999999999999
 40
0.9999999999999999
 40
0.9999999999999999
 40
0.9999999999999999
 10
7.334281133327508
 20
7.39917998163689
 30
0.0
 10
7.333559266720469
 20
7.398752724682013
 30
0.0
 10
7.332120076757679
 20
7.397900899822687
 30
0.0
 10
7.331477260584611
 20
7.397037212028194
 30
0.0
 10
7.33115686712279
 20
7.396606731380686
 30
0.0
  0
LINE
  5
20A
330
1F
100
AcDbEntity
  8
0
  6
Continuous
 62
     7
370
     0
100
AcDbLine
 10
7.357721264
 20
7.412711681
 30
0.0
 11
7.3342811333
 21
7.3991799816
 31
0.0
  0
ARC
  5
20B
330
1F
100
AcDbEntity
  8
0
  6
Continuous
 62
     7
370
     0
100
AcDbCircle
 10
7.3032480447
 20
7.1034476387
 30
0.0
 40
0.3140248071282217
100
AcDbArc
 50
80.0104891656
 51
82.747525079
  0
LINE
  5
20C
330
1F
100
AcDbEntity
  8
0
  6
Continuous
 62
     7
370
     0
100
AcDbLine
 10
7.3170518647
 20
7.4000434122
 30
0.0
 11
7.3428911076
 21
7.4149600896
 31
0.0
  0
SPLINE
  5
20D
330
1F
100
AcDbEntity
  8
0
  6
Continuous
 62
     7
370
     0
100
AcDbSpline
210
0.0
220
0.0
230
1.0
 70
     8
 71
     3
 72
    13
 73
     9
 74
     0
 42
0.00000001
 43
0.00000001
 40
0.0
 40
0.0
 40
0.0
 40
0.0
 40
0.2493026324883924
 40
0.3767800005146896
 40
0.4994269650585862
 40
0.6183515801692163
 40
0.749738029032931
 40
1.0
 40
1.0
 40
1.0
 40
1.0
 10
7.314003811798765
 20
7.388710136257776
 30
0.0
 10
7.312225290379853
 20
7.389122375303704
 30
0.0
 10
7.309537347238443
 20
7.38974540694355
 30
0.0
 10
7.308122946170689
 20
7.391392429075883
 30
0.0
 10
7.308152899879035
 20
7.392890137562996
 30
0.0
 10
7.309338846411636
 20
7.394612630201745
 30
0.0
 10
7.312087678515884
 20
7.39702788137298
 30
0.0
 10
7.315085846966077
 20
7.39884914048473
 30
0.0
 10
7.317051864658405
 20
7.400043412152749
 30
0.0
  0
ARC
  5
20E
330
1F
100
AcDbEntity
  8
0
  6
Continuous
 62
     7
370
     0
100
AcDbCircle
 10
7.3211696597
 20
7.4353385482
 30
0.0
 40
0.047175821956265
100
AcDbArc
 50
261.263145554
 51
286.461576945
  0
SPLINE
  5
20F
330
1F
100
AcDbEntity
  8
0
  6
Continuous
 62
     7
370
     0
100
AcDbSpline
210
0.0
220
0.0
230
1.0
 70
     8
 71
     3
 72
    12
 73
     8
 74
     0
 42
0.00000001
 43
0.00000001
 40
0.0
 40
0.0
 40
0.0
 40
0.0
 40
0.2503253654036854
 40
0.4999978777421037
 40
0.7494826629082489
 40
0.8746982187917978
 40
1.0
 40
1.0
 40
1.0
 40
1.0
 10
7.339560326435275
 20
7.383314333753232
 30
0.0
 10
7.338392255207252
 20
7.383642264092932
 30
0.0
 10
7.336059159102027
 20
7.384297269524094
 30
0.0
 10
7.333656636127735
 20
7.385774862664644
 30
0.0
 10
7.333292199250085
 20
7.387479738844479
 30
0.0
 10
7.333785342265687
 20
7.388952362169327
 30
0.0
 10
7.334287043372697
 20
7.389715009243727
 30
0.0
 10
7.334537980266217
 20
7.390096464028314
 30
0.0
  0
ARC
  5
210
330
1F
100
AcDbEntity
  8
0
  6
Continuous
 62
     7
370
     0
100
AcDbCircle
 10
7.3493503537
 20
7.425185824
 30
0.0
 40
0.0430007712745946
100
AcDbArc
 50
256.8400093411
 51
284.6572458639
  0
LINE
  5
211
330
1F
100
AcDbEntity
  8
0
  6
Continuous
 62
     7
370
     0
100
AcDbLine
 10
7.3542275809
 20
7.3801186753
 30
0.0
 11
7.3602311011
 21
7.3835844338
 31
0.0
  0
ARC
  5
212
330
1F
100
AcDbEntity
  8
0
  6
Continuous
 62
     7
370
     0
100
AcDbCircle
 10
7.2442314744
 20
7.0040775867
 30
0.0
 40
0.3917984734702442
100
AcDbArc
 50
71.494824637
 51
73.695228208
  0
LINE
  5
213
330
1F
100
AcDbEntity
  8
0
  6
Continuous
 62
     7
370
     0
100
AcDbLine
 10
7.4097252732
 20
7.3993681704
 30
0.0
 11
7.3685845151
 21
7.3756181162
 31
0.0
  0
ARC
  5
214
330
1F
100
AcDbEntity
  8
0
  6
Continuous
 62
     7
370
     0
100
AcDbCircle
 10
7.2856340187
 20
7.0286457702
 30
0.0
 40
0.3909395572551121
100
AcDbArc
 50
71.4931515466
 51
73.8582315989
  0
ARC
  5
215
330
1F
100
AcDbEntity
  8
0
  6
Continuous
 62
     7
370
     0
100
AcDbCircle
 10
7.471568712
 20
7.3177103548
 30
0.0
 40
0.0498911179510941
100
AcDbArc
 50
62.887652461
 51
127.3640218991
  0
SPLINE
  5
216
330
1F
100
AcDbEntity
  8
0
  6
Continuous
 62
     7
370
     0
100
AcDbSpline
210
0.0
220
0.0
230
1.0
 70
    24
 71
     1
 72
     4
 73
     2
 74
     0
 42
0.00000001
 43
0.00000001
 40
0.0
 40
0.0
 40
1.0
 40
1.0
 10
7.429636728927123
 20
7.348910448709044
 30
0.0
 10
7.441290946121876
 20
7.357363608668768
 30
0.0
  0
SPLINE
  5
217
330
1F
100
AcDbEntity
  8
0
  6
Continuous
 62
     7
370
     0
100
AcDbSpline
210
0.0
220
0.0
230
1.0
 70
     8
 71
     3
 72
    12
 73
     8
 74
     0
 42
0.00000001
 43
0.00000001
 40
0.0
 40
0.0
 40
0.0
 40
0.0
 40
0.2503262674180358
 40
0.4997345046006503
 40
0.6249000363599454
 40
0.750160002198262
 40
1.0
 40
1.0
 40
1.0
 40
1.0
 10
7.435154626612538
 20
7.328457701469638
 30
0.0
 10
7.432831020857615
 20
7.329864258987271
 30
0.0
 10
7.42819233078805
 20
7.332672215705186
 30
0.0
 10
7.424982957476491
 20
7.337157034694149
 30
0.0
 10
7.424708445337004
 20
7.34090251689358
 30
0.0
 10
7.42558435152487
 20
7.344657647230031
 30
0.0
 10
7.428016659762503
 20
7.347210253525948
 30
0.0
 10
7.429636728927123
 20
7.348910448709044
 30
0.0
  0
ARC
  5
218
330
1F
100
AcDbEntity
  8
0
  6
Continuous
 62
     7
370
     0
100
AcDbCircle
 10
7.4593904418
 20
7.3710791822
 30
0.0
 40
0.0490302494161172
100
AcDbArc
 50
240.3761789271
 51
305.511969986
  0
SPLINE
  5
219
330
1F
100
AcDbEntity
  8
0
  6
Continuous
 62
     7
370
     0
100
AcDbSpline
210
0.0
220
0.0
230
1.0
 70
     8
 71
     3
 72
     9
 73
     5
 74
     0
 42
0.00000001
 43
0.00000001
 40
0.0
 40
0.0
 40
0.0
 40
0.0
 40
0.4987092906772075
 40
1.0
 40
1.0
 40
1.0
 40
1.0
 10
7.504140174114647
 20
7.345770958633027
 30
0.0
 10
7.502224351616348
 20
7.343018286514332
 30
0.0
 10
7.498382789940812
 20
7.337498693897647
 30
0.0
 10
7.491380815680373
 20
7.333282422237021
 30
0.0
 10
7.487870791036698
 20
7.331168844425569
 30
0.0
  0
SPLINE
  5
21A
330
1F
100
AcDbEntity
  8
0
  6
Continuous
 62
     7
370
     0
100
AcDbSpline
210
0.0
220
0.0
230
1.0
 70
     8
 71
     3
 72
    11
 73
     7
 74
     0
 42
0.00000001
 43
0.00000001
 40
0.0
 40
0.0
 40
0.0
 40
0.0
 40
0.2504031889031625
 40
0.500382460786755
 40
0.750098415989145
 40
0.9999999999999999
 40
0.9999999999999999
 40
0.9999999999999999
 40
0.9999999999999999
 10
7.494305927592119
 20
7.362119167887469
 30
0.0
 10
7.496070317448979
 20
7.361040064529815
 30
0.0
 10
7.499596110160446
 20
7.358883684669353
 30
0.0
 10
7.503515006288261
 20
7.354910621362068
 30
0.0
 10
7.505253785299092
 20
7.350337817667417
 30
0.0
 10
7.504511469776549
 20
7.347293621993154
 30
0.0
 10
7.504140174114647
 20
7.345770958633027
 30
0.0
  0
LINE
  5
21B
330
1F
100
AcDbEntity
  8
0
  6
Continuous
 62
     7
370
     0
100
AcDbLine
 10
7.5520088616
 20
7.2898720078
 30
0.0
 11
7.5645554154
 21
7.2971149792
 31
0.0
  0
ARC
  5
21C
330
1F
100
AcDbEntity
  8
0
  6
Continuous
 62
     7
370
     0
100
AcDbCircle
 10
7.0696089243
 20
6.6871974872
 30
0.0
 40
0.7719626140146135
100
AcDbArc
 50
47.3031031839
 51
51.3251043823
  0
LINE
  5
21D
330
1F
100
AcDbEntity
  8
0
  6
Continuous
 62
     7
370
     0
100
AcDbLine
 10
7.6056386619
 20
7.2617954035
 30
0.0
 11
7.5930921081
 21
7.2545524322
 31
0.0
  0
ARC
  5
21E
330
1F
100
AcDbEntity
  8
0
  6
Continuous
 62
     7
370
     0
100
AcDbCircle
 10
7.082155478
 20
6.6944404585
 30
0.0
 40
0.7719626140151296
100
AcDbArc
 50
47.3031031839
 51
51.3251043823
  0
LINE
  5
21F
330
1F
100
AcDbEntity
  8
0
  6
Continuous
 62
     7
370
     0
100
AcDbLine
 10
7.3497977144
 20
7.4673530129
 30
0.0
 11
7.3708731698
 21
7.4795196143
 31
0.0
  0
ARC
  5
220
330
1F
100
AcDbEntity
  8
0
  6
Continuous
 62
     7
370
     0
100
AcDbCircle
 10
7.3997996493
 20
7.2580402709
 30
0.0
 40
0.2152022710160102
100
AcDbArc
 50
103.4353800371
 51
105.5757081559
  0
ARC
  5
221
330
1F
100
AcDbEntity
  8
0
  6
Continuous
 62
     7
370
     0
100
AcDbCircle
 10
7.3914484878
 20
7.3111293654
 30
0.0
 40
0.1619395461703395
100
AcDbArc
 50
107.7736004896
 51
121.3461308814
  0
SPLINE
  5
222
330
1F
100
AcDbEntity
  8
0
  6
Continuous
 62
     7
370
     0
100
AcDbSpline
210
0.0
220
0.0
230
1.0
 70
     8
 71
     3
 72
    13
 73
     9
 74
     0
 42
0.00000001
 43
0.00000001
 40
0.0
 40
0.0
 40
0.0
 40
0.0
 40
0.2501206955155281
 40
0.3808254451846342
 40
0.5003377339301662
 40
0.6236969560635295
 40
0.7504281227974294
 40
1.0
 40
1.0
 40
1.0
 40
1.0
 10
7.304736960980162
 20
7.44427716159874
 30
0.0
 10
7.302893517586699
 20
7.443766260084987
 30
0.0
 10
7.300086752038805
 20
7.442988378446609
 30
0.0
 10
7.298107236771364
 20
7.442758266516751
 30
0.0
 10
7.297719174311377
 20
7.443104781645142
 30
0.0
 10
7.298604374276159
 20
7.444033727049583
 30
0.0
 10
7.301328701437407
 20
7.445973945050084
 30
0.0
 10
7.304862638998361
 20
7.448053232875884
 30
0.0
 10
7.307206418686608
 20
7.449432259100335
 30
0.0
  0
ARC
  5
223
330
1F
100
AcDbEntity
  8
0
  6
Continuous
 62
     7
370
     0
100
AcDbCircle
 10
7.365044779
 20
7.23367894
 30
0.0
 40
0.2190631047685785
100
AcDbArc
 50
99.5578695638
 51
105.9798236861
  0
LINE
  5
224
330
1F
100
AcDbEntity
  8
0
  6
Continuous
 62
     7
370
     0
100
AcDbLine
 10
7.3854688566
 20
7.4824899562
 30
0.0
 11
7.328670734
 21
7.4497010979
 31
0.0
  0
ARC
  5
225
330
1F
100
AcDbEntity
  8
0
  6
Continuous
 62
     7
370
     0
100
AcDbCircle
 10
7.4224214286
 20
7.2635667796
 30
0.0
 40
0.2220199310749211
100
AcDbArc
 50
99.5807858913
 51
103.4253642702
  0
LINE
  5
226
330
1F
100
AcDbEntity
  8
0
  6
Continuous
 62
     7
370
     0
100
AcDbLine
 10
7.5232726414
 20
7.45133287
 30
0.0
 11
7.5430280111
 21
7.4627374021
 31
0.0
  0
ARC
  5
227
330
1F
100
AcDbEntity
  8
0
  6
Continuous
 62
     7
370
     0
100
AcDbCircle
 10
7.5114554355
 20
7.4670668087
 30
0.0
 40
0.0196774790872146
100
AcDbArc
 50
256.8667269987
 51
306.9089194642
  0
SPLINE
  5
228
330
1F
100
AcDbEntity
  8
0
  6
Continuous
 62
     7
370
     0
100
AcDbSpline
210
0.0
220
0.0
230
1.0
 70
     8
 71
     3
 72
    13
 73
     9
 74
     0
 42
0.00000001
 43
0.00000001
 40
0.0
 40
0.0
 40
0.0
 40
0.0
 40
0.2556326815358136
 40
0.3827690308583435
 40
0.5009930149488365
 40
0.6250249963023081
 40
0.7509663452182715
 40
0.9999999999999999
 40
0.9999999999999999
 40
0.9999999999999999
 40
0.9999999999999999
 10
7.508716807228299
 20
7.453878847126704
 30
0.0
 10
7.507875459841496
 20
7.453363596783192
 30
0.0
 10
7.506615676773357
 20
7.452592091850994
 30
0.0
 10
7.505325490205277
 20
7.451496076405725
 30
0.0
 10
7.504689396707632
 20
7.450648733266426
 30
0.0
 10
7.504554911145976
 20
7.449811998240225
 30
0.0
 10
7.505045251647238
 20
7.448767942596749
 30
0.0
 10
7.506210499398376
 20
7.448248794244274
 30
0.0
 10
7.506984380065969
 20
7.447904010164494
 30
0.0
  0
LINE
  5
229
330
1F
100
AcDbEntity
  8
0
  6
Continuous
 62
     7
370
     0
100
AcDbLine
 10
7.5313419284
 20
7.4669400516
 30
0.0
 11
7.5087168072
 21
7.4538788471
 31
0.0
  0
ARC
  5
22A
330
1F
100
AcDbEntity
  8
0
  6
Continuous
 62
     7
370
     0
100
AcDbCircle
 10
7.4029652448
 20
7.0927384078
 30
0.0
 40
0.3956102161321633
100
AcDbArc
 50
71.0645356848
 51
73.4160748538
  0
LINE
  5
22B
330
1F
100
AcDbEntity
  8
0
  6
Continuous
 62
     7
370
     0
100
AcDbLine
 10
7.4897309348
 20
7.4567967048
 30
0.0
 11
7.5158801109
 21
7.4718923028
 31
0.0
  0
SPLINE
  5
22C
330
1F
100
AcDbEntity
  8
0
  6
Continuous
 62
     7
370
     0
100
AcDbSpline
210
0.0
220
0.0
230
1.0
 70
     8
 71
     3
 72
    13
 73
     9
 74
     0
 42
0.00000001
 43
0.00000001
 40
0.0
 40
0.0
 40
0.0
 40
0.0
 40
0.2492945499288259
 40
0.3757665645110364
 40
0.4994575090412652
 40
0.6241755381071318
 40
0.7497536491744023
 40
0.9999999999999999
 40
0.9999999999999999
 40
0.9999999999999999
 40
0.9999999999999999
 10
7.487303667901172
 20
7.443322207413397
 30
0.0
 10
7.485492638537224
 20
7.444071035979955
 30
0.0
 10
7.482762838457305
 20
7.445199759965073
 30
0.0
 10
7.481264743241261
 20
7.447427300273693
 30
0.0
 10
7.481226906949423
 20
7.449294700616941
 30
0.0
 10
7.482312406494456
 20
7.451249257660426
 30
0.0
 10
7.484915591504238
 20
7.453829008976927
 30
0.0
 10
7.487806197126607
 20
7.455610489055355
 30
0.0
 10
7.48973093482205
 20
7.456796704786096
 30
0.0
  0
ARC
  5
22D
330
1F
100
AcDbEntity
  8
0
  6
Continuous
 62
     7
370
     0
100
AcDbCircle
 10
7.4998347896
 20
7.4826641793
 30
0.0
 40
0.0412894630647422
100
AcDbArc
 50
252.3323923406
 51
280.2135262047
  0
LINE
  5
22E
330
1F
100
AcDbEntity
  8
0
  6
Continuous
 62
     7
370
     0
100
AcDbLine
 10
7.4862298884
 20
7.4299485439
 30
0.0
 11
7.5071561167
 21
7.4420289983
 31
0.0
  0
ARC
  5
22F
330
1F
100
AcDbEntity
  8
0
  6
Continuous
 62
     7
370
     0
100
AcDbCircle
 10
7.3303815785
 20
7.016088528
 30
0.0
 40
0.442231623089937
100
AcDbArc
 50
67.1912875763
 51
69.3650048491
  0
LINE
  5
230
330
1F
100
AcDbEntity
  8
0
  6
Continuous
 62
     7
370
     0
100
AcDbLine
 10
7.5586133374
 20
7.4565283605
 30
0.0
 11
7.5018152148
 21
7.4237395022
 31
0.0
  0
ARC
  5
231
330
1F
100
AcDbEntity
  8
0
  6
Continuous
 62
     7
370
     0
100
AcDbCircle
 10
7.3871797011
 20
7.0488773862
 30
0.0
 40
0.4422316230951658
100
AcDbArc
 50
67.1912875763
 51
69.3650048491
  0
ARC
  5
232
330
1F
100
AcDbEntity
  8
0
  6
Continuous
 62
     7
370
     0
100
AcDbCircle
 10
7.2592749212
 20
6.8617682698
 30
0.0
 40
0.6275157683338369
100
AcDbArc
 50
56.237615652
 51
56.8715530438
  0
LINE
  5
233
330
1F
100
AcDbEntity
  8
0
  6
Continuous
 62
     7
370
     0
100
AcDbLine
 10
7.6195187361
 20
7.3900931375
 30
0.0
 11
7.6080167719
 21
7.3834531949
 31
0.0
  0
ARC
  5
234
330
1F
100
AcDbEntity
  8
0
  6
Continuous
 62
     7
370
     0
100
AcDbCircle
 10
7.2707768854
 20
6.8684082125
 30
0.0
 40
0.6275157682256934
100
AcDbArc
 50
56.237615652
 51
56.8715530438
  0
LINE
  5
235
330
1F
100
AcDbEntity
  8
0
  6
Continuous
 62
     7
370
     0
100
AcDbLine
 10
7.6282119379
 20
7.4022825915
 30
0.0
 11
7.6137254321
 21
7.3939197097
 31
0.0
  0
SPLINE
  5
236
330
1F
100
AcDbEntity
  8
0
  6
Continuous
 62
     7
370
     0
100
AcDbSpline
210
0.0
220
0.0
230
1.0
 70
     8
 71
     3
 72
    13
 73
     9
 74
     0
 42
0.00000001
 43
0.00000001
 40
0.0
 40
0.0
 40
0.0
 40
0.0
 40
0.250097938148292
 40
0.3777541129313814
 40
0.4995112558106803
 40
0.6243482411510949
 40
0.7495213959044662
 40
0.9999999999999999
 40
0.9999999999999999
 40
0.9999999999999999
 40
0.9999999999999999
 10
7.630169131026513
 20
7.420511396131188
 30
0.0
 10
7.6322348367954
 20
7.419170872854457
 30
0.0
 10
7.635354929892053
 20
7.417146113334188
 30
0.0
 10
7.637824723889004
 20
7.413721462803974
 30
0.0
 10
7.638007029952814
 20
7.410939964416205
 30
0.0
 10
7.636667370113664
 20
7.408356718437747
 30
0.0
 10
7.633384927717398
 20
7.405396169468833
 30
0.0
 10
7.630281352428586
 20
7.403528154282936
 30
0.0
 10
7.628211937903736
 20
7.402282591537198
 30
0.0
  0
SPLINE
  5
237
330
1F
100
AcDbEntity
  8
0
  6
Continuous
 62
     7
370
     0
100
AcDbSpline
210
0.0
220
0.0
230
1.0
 70
    24
 71
     1
 72
     4
 73
     2
 74
     0
 42
0.00000001
 43
0.00000001
 40
0.0
 40
0.0
 40
1.0
 40
1.0
 10
7.617969199669541
 20
7.426321529930997
 30
0.0
 10
7.630169131026513
 20
7.420511396131188
 30
0.0
  0
SPLINE
  5
238
330
1F
100
AcDbEntity
  8
0
  6
Continuous
 62
     7
370
     0
100
AcDbSpline
210
0.0
220
0.0
230
1.0
 70
    24
 71
     1
 72
     4
 73
     2
 74
     0
 42
0.00000001
 43
0.00000001
 40
0.0
 40
0.0
 40
1.0
 40
1.0
 10
7.608234970488792
 20
7.41935364433764
 30
0.0
 10
7.617969199669541
 20
7.426321529930998
 30
0.0
  0
SPLINE
  5
239
330
1F
100
AcDbEntity
  8
0
  6
Continuous
 62
     7
370
     0
100
AcDbSpline
210
0.0
220
0.0
230
1.0
 70
    24
 71
     1
 72
     4
 73
     2
 74
     0
 42
0.00000001
 43
0.00000001
 40
0.0
 40
0.0
 40
1.0
 40
1.0
 10
7.614134637882717
 20
7.417032207238697
 30
0.0
 10
7.608234970488792
 20
7.41935364433764
 30
0.0
  0
ARC
  5
23A
330
1F
100
AcDbEntity
  8
0
  6
Continuous
 62
     7
370
     0
100
AcDbCircle
 10
7.613514048
 20
7.4150719561
 30
0.0
 40
0.0020561411552589
100
AcDbArc
 50
347.6811252223
 51
72.4328953171
  0
SPLINE
  5
23B
330
1F
100
AcDbEntity
  8
0
  6
Continuous
 62
     7
370
     0
100
AcDbSpline
210
0.0
220
0.0
230
1.0
 70
     8
 71
     3
 72
     9
 73
     5
 74
     0
 42
0.00000001
 43
0.00000001
 40
0.0
 40
0.0
 40
0.0
 40
0.0
 40
0.5014428105295397
 40
1.0
 40
1.0
 40
1.0
 40
1.0
 10
7.612538118065564
 20
7.412311401091732
 30
0.0
 10
7.613137913273372
 20
7.412653255370022
 30
0.0
 10
7.61433405208564
 20
7.413334996679519
 30
0.0
 10
7.61512734524795
 20
7.414201348036071
 30
0.0
 10
7.615522847257377
 20
7.414633273733488
 30
0.0
  0
LINE
  5
23C
330
1F
100
AcDbEntity
  8
0
  6
Continuous
 62
     7
370
     0
100
AcDbLine
 10
7.5979368222
 20
7.4038822524
 30
0.0
 11
7.6125381181
 21
7.4123114011
 31
0.0
  0
ARC
  5
23D
330
1F
100
AcDbEntity
  8
0
  6
Continuous
 62
     7
370
     0
100
AcDbCircle
 10
7.2957529081
 20
6.9081034864
 30
0.0
 40
0.5806132127016301
100
AcDbArc
 50
58.6371231486
 51
59.6346154366
  0
LINE
  5
23E
330
1F
100
AcDbEntity
  8
0
  6
Continuous
 62
     7
370
     0
100
AcDbLine
 10
7.5777582278
 20
7.4024277911
 30
0.0
 11
7.589260192
 21
7.4090677337
 31
0.0
  0
ARC
  5
23F
330
1F
100
AcDbEntity
  8
0
  6
Continuous
 62
     7
370
     0
100
AcDbCircle
 10
7.2842509439
 20
6.9014635438
 30
0.0
 40
0.5806132126950693
100
AcDbArc
 50
58.6371231486
 51
59.6346154366
  0
LINE
  5
240
330
1F
100
AcDbEntity
  8
0
  6
Continuous
 62
     7
370
     0
100
AcDbLine
 10
7.5707774936
 20
7.3882035057
 30
0.0
 11
7.586434858
 21
7.3972423098
 31
0.0
  0
SPLINE
  5
241
330
1F
100
AcDbEntity
  8
0
  6
Continuous
 62
     7
370
     0
100
AcDbSpline
210
0.0
220
0.0
230
1.0
 70
    24
 71
     1
 72
     4
 73
     2
 74
     0
 42
0.00000001
 43
0.00000001
 40
0.0
 40
0.0
 40
1.0
 40
1.0
 10
7.594670281822128
 20
7.382919405638287
 30
0.0
 10
7.570777493553281
 20
7.388203505711773
 30
0.0
  0
LINE
  5
242
330
1F
100
AcDbEntity
  8
0
  6
Continuous
 62
     7
370
     0
100
AcDbLine
 10
7.6022234679
 20
7.3872797671
 30
0.0
 11
7.5946702818
 21
7.3829194056
 31
0.0
  0
LINE
  5
243
330
1F
100
AcDbEntity
  8
0
  6
Continuous
 62
     7
370
     0
100
AcDbLine
 10
7.7131684272
 20
7.2940333551
 30
0.0
 11
7.7564787176
 21
7.3190358535
 31
0.0
  0
SPLINE
  5
244
330
1F
100
AcDbEntity
  8
0
  6
Continuous
 62
     7
370
     0
100
AcDbSpline
210
0.0
220
0.0
230
1.0
 70
    24
 71
     1
 72
     4
 73
     2
 74
     0
 42
0.00000001
 43
0.00000001
 40
0.0
 40
0.0
 40
1.0
 40
1.0
 10
7.745981733564132
 20
7.329180235227424
 30
0.0
 10
7.713168427230825
 20
7.294033355060297
 30
0.0
  0
ARC
  5
245
330
1F
100
AcDbEntity
  8
0
  6
Continuous
 62
     7
370
     0
100
AcDbCircle
 10
7.1821955551
 20
6.7355908526
 30
0.0
 40
0.8186593981983836
100
AcDbArc
 50
46.4750791246
 51
47.6608087377
  0
SPLINE
  5
246
330
1F
100
AcDbEntity
  8
0
  6
Continuous
 62
     7
370
     0
100
AcDbSpline
210
0.0
220
0.0
230
1.0
 70
    24
 71
     1
 72
     4
 73
     2
 74
     0
 42
0.00000001
 43
0.00000001
 40
0.0
 40
0.0
 40
1.0
 40
1.0
 10
7.679542387080248
 20
7.325313379374133
 30
0.0
 10
7.733577621530396
 20
7.340719786806917
 30
0.0
  0
LINE
  5
247
330
1F
100
AcDbEntity
  8
0
  6
Continuous
 62
     7
370
     0
100
AcDbLine
 10
7.7228526774
 20
7.3503158778
 30
0.0
 11
7.6795423871
 21
7.3253133794
 31
0.0
  0
ARC
  5
248
330
1F
100
AcDbEntity
  8
0
  6
Continuous
 62
     7
370
     0
100
AcDbCircle
 10
7.2139917831
 20
6.7711755081
 30
0.0
 40
0.7709364290295169
100
AcDbArc
 50
48.69588797
 51
50.0600291451
  0
LINE
  5
249
330
1F
100
AcDbEntity
  8
0
  6
Continuous
 62
     7
370
     0
100
AcDbLine
 10
7.6521230275
 20
7.3294770822
 30
0.0
 11
7.7089211501
 21
7.3622659405
 31
0.0
  0
ARC
  5
24A
330
1F
100
AcDbEntity
  8
0
  6
Continuous
 62
     7
370
     0
100
AcDbCircle
 10
7.1516972361
 20
6.7319584422
 30
0.0
 40
0.779393673239022
100
AcDbArc
 50
47.879667027
 51
50.0536045431
  0
SPLINE
  5
24B
330
1F
100
AcDbEntity
  8
0
  6
Continuous
 62
     7
370
     0
100
AcDbSpline
210
0.0
220
0.0
230
1.0
 70
    24
 71
     1
 72
     4
 73
     2
 74
     0
 42
0.00000001
 43
0.00000001
 40
0.0
 40
0.0
 40
1.0
 40
1.0
 10
7.717504445831781
 20
7.322211548629228
 30
0.0
 10
7.674428690878639
 20
7.310064249181227
 30
0.0
  0
SPLINE
  5
24C
330
1F
100
AcDbEntity
  8
0
  6
Continuous
 62
     7
370
     0
100
AcDbSpline
210
0.0
220
0.0
230
1.0
 70
    24
 71
     1
 72
     4
 73
     2
 74
     0
 42
0.00000001
 43
0.00000001
 40
0.0
 40
0.0
 40
1.0
 40
1.0
 10
7.691432113714161
 20
7.29424798955411
 30
0.0
 10
7.717504445831781
 20
7.322211548629228
 30
0.0
  0
ARC
  5
24D
330
1F
100
AcDbEntity
  8
0
  6
Continuous
 62
     7
370
     0
100
AcDbCircle
 10
7.0996894536
 20
6.6759760134
 30
0.0
 40
0.8558151741552609
100
AcDbArc
 50
44.2063625417
 51
46.2559966708
  0
LINE
  5
24E
330
1F
100
AcDbEntity
  8
0
  6
Continuous
 62
     7
370
     0
100
AcDbLine
 10
7.7699642932
 20
7.3054774742
 30
0.0
 11
7.7131661706
 21
7.2726886159
 31
0.0
  0
ARC
  5
24F
330
1F
100
AcDbEntity
  8
0
  6
Continuous
 62
     7
370
     0
100
AcDbCircle
 10
7.150996041
 20
6.7033186326
 30
0.0
 40
0.8635490534872745
100
AcDbArc
 50
44.2113454363
 51
45.4801691098
  0
LINE
  5
250
330
1F
100
AcDbEntity
  8
0
  6
Continuous
 62
     7
370
     0
100
AcDbLine
 10
7.8337041392
 20
7.20287301
 30
0.0
 11
7.8495107307
 21
7.211997961
 31
0.0
  0
ARC
  5
251
330
1F
100
AcDbEntity
  8
0
  6
Continuous
 62
     7
370
     0
100
AcDbCircle
 10
7.0281622779
 20
6.6016001085
 30
0.0
 40
1.005199876805337
100
AcDbArc
 50
35.39504049
 51
36.7384115855
  0
LINE
  5
252
330
1F
100
AcDbEntity
  8
0
  6
Continuous
 62
     7
370
     0
100
AcDbLine
 10
7.8633856293
 20
7.1929474963
 30
0.0
 11
7.8475790378
 21
7.1838225453
 31
0.0
  0
ARC
  5
253
330
1F
100
AcDbEntity
  8
0
  6
Continuous
 62
     7
370
     0
100
AcDbCircle
 10
7.0439688694
 20
6.6107250596
 30
0.0
 40
1.005199876789019
100
AcDbArc
 50
35.39504049
 51
36.7384115855
  0
LINE
  5
254
330
1F
100
AcDbEntity
  8
0
  6
Continuous
 62
     7
370
     0
100
AcDbLine
 10
7.8701236858
 20
7.095283747
 30
0.0
 11
7.8859302773
 21
7.104408698
 31
0.0
  0
ARC
  5
255
330
1F
100
AcDbEntity
  8
0
  6
Continuous
 62
     7
370
     0
100
AcDbCircle
 10
6.9747607125
 20
6.5680354306
 30
0.0
 40
1.039069603519881
100
AcDbArc
 50
29.1783445098
 51
30.4923610628
  0
LINE
  5
256
330
1F
100
AcDbEntity
  8
0
  6
Continuous
 62
     7
370
     0
100
AcDbLine
 10
7.8977856313
 20
7.0837376686
 30
0.0
 11
7.8819790398
 21
7.0746127175
 31
0.0
  0
ARC
  5
257
330
1F
100
AcDbEntity
  8
0
  6
Continuous
 62
     7
370
     0
100
AcDbCircle
 10
6.990567304
 20
6.5771603817
 30
0.0
 40
1.039069603512673
100
AcDbArc
 50
29.1783445098
 51
30.4923610628
  0
ARC
  5
258
330
1F
100
AcDbEntity
  8
0
  6
Continuous
 62
     7
370
     0
100
AcDbCircle
 10
7.8843903859
 20
6.9907622304
 30
0.0
 40
0.0347023486639988
100
AcDbArc
 50
32.7707369506
 51
86.7404464957
  0
LINE
  5
259
330
1F
100
AcDbEntity
  8
0
  6
Continuous
 62
     7
370
     0
100
AcDbLine
 10
7.9265064585
 20
7.0170141559
 30
0.0
 11
7.9135696185
 21
7.0095458772
 31
0.0
  0
SPLINE
  5
25A
330
1F
100
AcDbEntity
  8
0
  6
Continuous
 62
     7
370
     0
100
AcDbSpline
210
0.0
220
0.0
230
1.0
 70
    24
 71
     1
 72
     4
 73
     2
 74
     0
 42
0.00000001
 43
0.00000001
 40
0.0
 40
0.0
 40
1.0
 40
1.0
 10
7.908110934000777
 20
7.033245702431542
 30
0.0
 10
7.926506458495268
 20
7.017014155917548
 30
0.0
  0
LINE
  5
25B
330
1F
100
AcDbEntity
  8
0
  6
Continuous
 62
     7
370
     0
100
AcDbLine
 10
7.9459572174
 20
7.0550938968
 30
0.0
 11
7.908110934
 21
7.0332457024
 31
0.0
  0
ARC
  5
25C
330
1F
100
AcDbEntity
  8
0
  6
Continuous
 62
     7
370
     0
100
AcDbCircle
 10
7.0228833966
 20
6.595509438
 30
0.0
 40
1.031156221603048
100
AcDbArc
 50
26.4680172412
 51
27.7194751366
  0
LINE
  5
25D
330
1F
100
AcDbEntity
  8
0
  6
Continuous
 62
     7
370
     0
100
AcDbLine
 10
7.8779372055
 20
7.0417990041
 30
0.0
 11
7.9356995646
 21
7.0751445042
 31
0.0
  0
ARC
  5
25E
330
1F
100
AcDbEntity
  8
0
  6
Continuous
 62
     7
370
     0
100
AcDbCircle
 10
6.9645614158
 20
6.5618745961
 30
0.0
 40
1.031786203866311
100
AcDbArc
 50
26.6958166645
 51
27.7192436578
  0
LINE
  5
25F
330
1F
100
AcDbEntity
  8
0
  6
Continuous
 62
     7
370
     0
100
AcDbLine
 10
7.4229303636
 20
7.5192298274
 30
0.0
 11
7.4439254659
 21
7.531350042
 31
0.0
  0
ARC
  5
260
330
1F
100
AcDbEntity
  8
0
  6
Continuous
 62
     7
370
     0
100
AcDbCircle
 10
7.1628343336
 20
7.9686568665
 30
0.0
 40
0.5192635248626958
100
AcDbArc
 50
298.3803541401
 51
300.0591700775
  0
SPLINE
  5
261
330
1F
100
AcDbEntity
  8
0
  6
Continuous
 62
     7
370
     0
100
AcDbSpline
210
0.0
220
0.0
230
1.0
 70
     8
 71
     3
 72
    11
 73
     7
 74
     0
 42
0.00000001
 43
0.00000001
 40
0.0
 40
0.0
 40
0.0
 40
0.0
 40
0.2494767938135408
 40
0.5035301869103449
 40
0.7522417857997618
 40
1.0
 40
1.0
 40
1.0
 40
1.0
 10
7.409772904625274
 20
7.511954349172134
 30
0.0
 10
7.409434590322689
 20
7.511757277474145
 30
0.0
 10
7.408751755412831
 20
7.511359518839341
 30
0.0
 10
7.408413911248965
 20
7.511150386977631
 30
0.0
 10
7.408667863313638
 20
7.511272855977692
 30
0.0
 10
7.409324376687232
 20
7.51162637225632
 30
0.0
 10
7.409652003013651
 20
7.511802790962098
 30
0.0
  0
SPLINE
  5
262
330
1F
100
AcDbEntity
  8
0
  6
Continuous
 62
     7
370
     0
100
AcDbSpline
210
0.0
220
0.0
230
1.0
 70
    24
 71
     1
 72
     4
 73
     2
 74
     0
 42
0.00000001
 43
0.00000001
 40
0.0
 40
0.0
 40
1.0
 40
1.0
 10
7.413237415074676
 20
7.513956861728483
 30
0.0
 10
7.409772904625274
 20
7.511954349172134
 30
0.0
  0
LINE
  5
263
330
1F
100
AcDbEntity
  8
0
  6
Continuous
 62
     7
370
     0
100
AcDbLine
 10
7.4358969733
 20
7.5270379462
 30
0.0
 11
7.4132374151
 21
7.5139568617
 31
0.0
  0
ARC
  5
264
330
1F
100
AcDbEntity
  8
0
  6
Continuous
 62
     7
370
     0
100
AcDbCircle
 10
7.834448283
 20
6.7253710738
 30
0.0
 40
0.8935649789215948
100
AcDbArc
 50
118.3906521505
 51
119.6480962144
  0
LINE
  5
265
330
1F
100
AcDbEntity
  8
0
  6
Continuous
 62
     7
370
     0
100
AcDbLine
 10
7.4035718724
 20
7.5079978026
 30
0.0
 11
7.4095753926
 21
7.5114635611
 31
0.0
  0
ARC
  5
266
330
1F
100
AcDbEntity
  8
0
  6
Continuous
 62
     7
370
     0
100
AcDbCircle
 10
7.4941001474
 20
7.327863502
 30
0.0
 40
0.2016029137730023
100
AcDbArc
 50
113.255437842
 51
116.6822679032
  0
LINE
  5
267
330
1F
100
AcDbEntity
  8
0
  6
Continuous
 62
     7
370
     0
100
AcDbLine
 10
7.4556418144
 20
7.5368369875
 30
0.0
 11
7.4145010562
 21
7.5130869333
 31
0.0
  0
ARC
  5
268
330
1F
100
AcDbEntity
  8
0
  6
Continuous
 62
     7
370
     0
100
AcDbCircle
 10
7.5352114182
 20
7.3516784321
 30
0.0
 40
0.2015316662190064
100
AcDbArc
 50
113.2550180323
 51
116.9338074807
  0
ARC
  5
269
330
1F
100
AcDbEntity
  8
0
  6
Continuous
 62
     7
370
     0
100
AcDbCircle
 10
7.5458316498
 20
7.4293934094
 30
0.0
 40
0.1263938149315864
100
AcDbArc
 50
99.4130744325
 51
123.8054928712
  0
SPLINE
  5
26A
330
1F
100
AcDbEntity
  8
0
  6
Continuous
 62
     7
370
     0
100
AcDbSpline
210
0.0
220
0.0
230
1.0
 70
    24
 71
     1
 72
     4
 73
     2
 74
     0
 42
0.00000001
 43
0.00000001
 40
0.0
 40
0.0
 40
1.0
 40
1.0
 10
7.463604473536651
 20
7.526992725527054
 30
0.0
 10
7.475509255825902
 20
7.53441796542034
 30
0.0
  0
SPLINE
  5
26B
330
1F
100
AcDbEntity
  8
0
  6
Continuous
 62
     7
370
     0
100
AcDbSpline
210
0.0
220
0.0
230
1.0
 70
     8
 71
     3
 72
    12
 73
     8
 74
     0
 42
0.00000001
 43
0.00000001
 40
0.0
 40
0.0
 40
0.0
 40
0.0
 40
0.2503262674180357
 40
0.4997345046006514
 40
0.6249000363599464
 40
0.7501600021982607
 40
1.0
 40
1.0
 40
1.0
 40
1.0
 10
7.466064443134269
 20
7.520152727400462
 30
0.0
 10
7.464065365196653
 20
7.520015638266485
 30
0.0
 10
7.460074540609536
 20
7.519741962750283
 30
0.0
 10
7.457692767471337
 20
7.520567389421084
 30
0.0
 10
7.457947987730962
 20
7.522033670016366
 30
0.0
 10
7.459276636880831
 20
7.523876866726614
 30
0.0
 10
7.461874280610467
 20
7.525747060016951
 30
0.0
 10
7.463604473536651
 20
7.526992725527054
 30
0.0
  0
ARC
  5
26C
330
1F
100
AcDbEntity
  8
0
  6
Continuous
 62
     7
370
     0
100
AcDbCircle
 10
7.4529759342
 20
7.6364461885
 30
0.0
 40
0.1170276811329626
100
AcDbArc
 50
276.4214599719
 51
302.577749106
  0
SPLINE
  5
26D
330
1F
100
AcDbEntity
  8
0
  6
Continuous
 62
     7
370
     0
100
AcDbSpline
210
0.0
220
0.0
230
1.0
 70
     8
 71
     3
 72
     9
 73
     5
 74
     0
 42
0.00000001
 43
0.00000001
 40
0.0
 40
0.0
 40
0.0
 40
0.0
 40
0.4987092906772075
 40
1.0
 40
1.0
 40
1.0
 40
1.0
 10
7.532723326629866
 20
7.549695186781419
 30
0.0
 10
7.530659419361149
 20
7.547809336596088
 30
0.0
 10
7.526520921628507
 20
7.544027874689151
 30
0.0
 10
7.519505502051931
 20
7.539900482689982
 30
0.0
 10
7.515988737396192
 20
7.537831459427064
 30
0.0
  0
SPLINE
  5
26E
330
1F
100
AcDbEntity
  8
0
  6
Continuous
 62
     7
370
     0
100
AcDbSpline
210
0.0
220
0.0
230
1.0
 70
     8
 71
     3
 72
    11
 73
     7
 74
     0
 42
0.00000001
 43
0.00000001
 40
0.0
 40
0.0
 40
0.0
 40
0.0
 40
0.2504031889031579
 40
0.500382460786753
 40
0.7500984159891406
 40
1.0
 40
1.0
 40
1.0
 40
1.0
 10
7.525159804123031
 20
7.554085314742524
 30
0.0
 10
7.526687476730513
 20
7.554170746742408
 30
0.0
 10
7.5297402356908
 20
7.554341466111115
 30
0.0
 10
7.533009916227682
 20
7.553761733776876
 30
0.0
 10
7.534200484518008
 20
7.552183066871244
 30
0.0
 10
7.533215834538793
 20
7.5505246855307
 30
0.0
 10
7.532723326629866
 20
7.549695186781419
 30
0.0
  0
SPLINE
  5
26F
330
1F
100
AcDbEntity
  8
0
  6
Continuous
 62
     7
370
     0
100
AcDbSpline
210
0.0
220
0.0
230
1.0
 70
     8
 71
     3
 72
     9
 73
     5
 74
     0
 42
0.00000001
 43
0.00000001
 40
0.0
 40
0.0
 40
0.0
 40
0.0
 40
0.5000883479088505
 40
1.0
 40
1.0
 40
1.0
 40
1.0
 10
7.634529702371831
 20
7.540465321654162
 30
0.0
 10
7.625226111142749
 20
7.536270314373428
 30
0.0
 10
7.606622215915064
 20
7.527881782030539
 30
0.0
 10
7.584338372087091
 20
7.522761442903762
 30
0.0
 10
7.573198418904107
 20
7.520201725711628
 30
0.0
  0
ARC
  5
270
330
1F
100
AcDbEntity
  8
0
  6
Continuous
 62
     7
370
     0
100
AcDbCircle
 10
7.5287716505
 20
7.1850329585
 30
0.0
 40
0.3708327525081057
100
AcDbArc
 50
73.4297520958
 51
75.86711979
  0
SPLINE
  5
271
330
1F
100
AcDbEntity
  8
0
  6
Continuous
 62
     7
370
     0
100
AcDbSpline
210
0.0
220
0.0
230
1.0
 70
    24
 71
     1
 72
     4
 73
     2
 74
     0
 42
0.00000001
 43
0.00000001
 40
0.0
 40
0.0
 40
1.0
 40
1.0
 10
7.599093987479379
 20
7.53535896302883
 30
0.0
 10
7.619318458546476
 20
7.544641364775392
 30
0.0
  0
SPLINE
  5
272
330
1F
100
AcDbEntity
  8
0
  6
Continuous
 62
     7
370
     0
100
AcDbSpline
210
0.0
220
0.0
230
1.0
 70
    24
 71
     1
 72
     4
 73
     2
 74
     0
 42
0.00000001
 43
0.00000001
 40
0.0
 40
0.0
 40
1.0
 40
1.0
 10
7.57462406953188
 20
7.52720719703755
 30
0.0
 10
7.599093987479379
 20
7.53535896302883
 30
0.0
  0
SPLINE
  5
273
330
1F
100
AcDbEntity
  8
0
  6
Continuous
 62
     7
370
     0
100
AcDbSpline
210
0.0
220
0.0
230
1.0
 70
    24
 71
     1
 72
     4
 73
     2
 74
     0
 42
0.00000001
 43
0.00000001
 40
0.0
 40
0.0
 40
1.0
 40
1.0
 10
7.553333162657649
 20
7.522383126319074
 30
0.0
 10
7.57462406953188
 20
7.52720719703755
 30
0.0
  0
LINE
  5
274
330
1F
100
AcDbEntity
  8
0
  6
Continuous
 62
     7
370
     0
100
AcDbLine
 10
7.5426806449
 20
7.5162335587
 30
0.0
 11
7.5533331627
 21
7.5223831263
 31
0.0
  0
ARC
  5
275
330
1F
100
AcDbEntity
  8
0
  6
Continuous
 62
     7
370
     0
100
AcDbCircle
 10
7.4744278312
 20
7.160224396
 30
0.0
 40
0.3624927179046492
100
AcDbArc
 50
71.8976080717
 51
79.1471439534
  0
LINE
  5
276
330
1F
100
AcDbEntity
  8
0
  6
Continuous
 62
     7
370
     0
100
AcDbLine
 10
7.6003872848
 20
7.5124683114
 30
0.0
 11
7.5870601586
 21
7.5047747252
 31
0.0
  0
ARC
  5
277
330
1F
100
AcDbEntity
  8
0
  6
Continuous
 62
     7
370
     0
100
AcDbCircle
 10
7.4839900888
 20
7.1549046832
 30
0.0
 40
0.3760319872662726
100
AcDbArc
 50
71.9684482424
 51
76.2765350571
  0
ARC
  5
278
330
1F
100
AcDbEntity
  8
0
  6
Continuous
 62
     7
370
     0
100
AcDbCircle
 10
7.6800884555
 20
7.4660038244
 30
0.0
 40
0.0536475741061063
100
AcDbArc
 50
67.5213458701
 51
127.1244610103
  0
SPLINE
  5
279
330
1F
100
AcDbEntity
  8
0
  6
Continuous
 62
     7
370
     0
100
AcDbSpline
210
0.0
220
0.0
230
1.0
 70
    24
 71
     1
 72
     4
 73
     2
 74
     0
 42
0.00000001
 43
0.00000001
 40
0.0
 40
0.0
 40
1.0
 40
1.0
 10
7.636043797354156
 20
7.500466855183408
 30
0.0
 10
7.647709545810812
 20
7.508778447881674
 30
0.0
  0
SPLINE
  5
27A
330
1F
100
AcDbEntity
  8
0
  6
Continuous
 62
     7
370
     0
100
AcDbSpline
210
0.0
220
0.0
230
1.0
 70
     8
 71
     3
 72
    12
 73
     8
 74
     0
 42
0.00000001
 43
0.00000001
 40
0.0
 40
0.0
 40
0.0
 40
0.0
 40
0.2503262674180338
 40
0.4997345046006474
 40
0.6249000363599427
 40
0.750160002198258
 40
1.0
 40
1.0
 40
1.0
 40
1.0
 10
7.641450161823215
 20
7.481877021947725
 30
0.0
 10
7.639135686880796
 20
7.483073343464976
 30
0.0
 10
7.634515224950489
 20
7.485461599187928
 30
0.0
 10
7.631336714378897
 20
7.489445374253184
 30
0.0
 10
7.631083682397123
 20
7.492878137809759
 30
0.0
 10
7.631978931588308
 20
7.496370559177885
 30
0.0
 10
7.634418735561562
 20
7.498829228134157
 30
0.0
 10
7.636043797354156
 20
7.500466855183408
 30
0.0
  0
ARC
  5
27B
330
1F
100
AcDbEntity
  8
0
  6
Continuous
 62
     7
370
     0
100
AcDbCircle
 10
7.663720803
 20
7.529556786
 30
0.0
 40
0.0526245318975623
100
AcDbArc
 50
244.9632905755
 51
305.3048417481
  0
SPLINE
  5
27C
330
1F
100
AcDbEntity
  8
0
  6
Continuous
 62
     7
370
     0
100
AcDbSpline
210
0.0
220
0.0
230
1.0
 70
     8
 71
     3
 72
     9
 73
     5
 74
     0
 42
0.00000001
 43
0.00000001
 40
0.0
 40
0.0
 40
0.0
 40
0.0
 40
0.4987092906772055
 40
1.0
 40
1.0
 40
1.0
 40
1.0
 10
7.710402021673371
 20
7.500844693714479
 30
0.0
 10
7.708486473877074
 20
7.498208521660202
 30
0.0
 10
7.704645463027457
 20
7.492922532199896
 30
0.0
 10
7.697643791940829
 20
7.488718126659594
 30
0.0
 10
7.694133919275368
 20
7.486610497224016
 30
0.0
  0
SPLINE
  5
27D
330
1F
100
AcDbEntity
  8
0
  6
Continuous
 62
     7
370
     0
100
AcDbSpline
210
0.0
220
0.0
230
1.0
 70
     8
 71
     3
 72
    11
 73
     7
 74
     0
 42
0.00000001
 43
0.00000001
 40
0.0
 40
0.0
 40
0.0
 40
0.0
 40
0.2504031889031619
 40
0.500382460786753
 40
0.7500984159891418
 40
1.0
 40
1.0
 40
1.0
 40
1.0
 10
7.70060002660838
 20
7.515575365255675
 30
0.0
 10
7.70235881070181
 20
7.514654495588668
 30
0.0
 10
7.705873401376622
 20
7.512814315229707
 30
0.0
 10
7.709782377604157
 20
7.509300479966364
 30
0.0
 10
7.711516299778578
 20
7.50513175798095
 30
0.0
 10
7.71077353969725
 20
7.502274069053614
 30
0.0
 10
7.710402021673371
 20
7.500844693714479
 30
0.0
  0
LINE
  5
27E
330
1F
100
AcDbEntity
  8
0
  6
Continuous
 62
     7
370
     0
100
AcDbLine
 10
7.7769290504
 20
7.4559514847
 30
0.0
 11
7.7875471311
 21
7.4620811723
 31
0.0
  0
ARC
  5
27F
330
1F
100
AcDbEntity
  8
0
  6
Continuous
 62
     7
370
     0
100
AcDbCircle
 10
7.3863456093
 20
6.9156109643
 30
0.0
 40
0.666725807577775
100
AcDbArc
 50
54.1388339089
 51
54.8860372134
  0
LINE
  5
280
330
1F
100
AcDbEntity
  8
0
  6
Continuous
 62
     7
370
     0
100
AcDbLine
 10
7.7576127503
 20
7.4539350023
 30
0.0
 11
7.7698493709
 21
7.460999053
 31
0.0
  0
ARC
  5
281
330
1F
100
AcDbEntity
  8
0
  6
Continuous
 62
     7
370
     0
100
AcDbCircle
 10
7.3741089887
 20
6.9085469136
 30
0.0
 40
0.6667258075537201
100
AcDbArc
 50
54.1388339089
 51
54.8860372134
  0
LINE
  5
282
330
1F
100
AcDbEntity
  8
0
  6
Continuous
 62
     7
370
     0
100
AcDbLine
 10
7.7297847719
 20
7.4287356721
 30
0.0
 11
7.7646924298
 21
7.448887434
 31
0.0
  0
ARC
  5
283
330
1F
100
AcDbEntity
  8
0
  6
Continuous
 62
     7
370
     0
100
AcDbCircle
 10
7.3266238637
 20
6.8710669751
 30
0.0
 40
0.6881374089414788
100
AcDbArc
 50
52.7239336859
 51
54.1353351664
  0
SPLINE
  5
284
330
1F
100
AcDbEntity
  8
0
  6
Continuous
 62
     7
370
     0
100
AcDbSpline
210
0.0
220
0.0
230
1.0
 70
    24
 71
     1
 72
     4
 73
     2
 74
     0
 42
0.00000001
 43
0.00000001
 40
0.0
 40
0.0
 40
1.0
 40
1.0
 10
7.805783255052337
 20
7.415756472491943
 30
0.0
 10
7.74339845613766
 20
7.418636178619532
 30
0.0
  0
LINE
  5
285
330
1F
100
AcDbEntity
  8
0
  6
Continuous
 62
     7
370
     0
100
AcDbLine
 10
7.818754532
 20
7.4232446313
 30
0.0
 11
7.8057832551
 21
7.4157564725
 31
0.0
  0
ARC
  5
286
330
1F
100
AcDbEntity
  8
0
  6
Continuous
 62
     7
370
     0
100
AcDbCircle
 10
7.3474709321
 20
6.8640347811
 30
0.0
 40
0.7313165444701323
100
AcDbArc
 50
49.8769166637
 51
52.7096061277
  0
LINE
  5
287
330
1F
100
AcDbEntity
  8
0
  6
Continuous
 62
     7
370
     0
100
AcDbLine
 10
7.8011608153
 20
7.4519816788
 30
0.0
 11
7.7905427346
 21
7.4458519912
 31
0.0
  0
ARC
  5
288
330
1F
100
AcDbEntity
  8
0
  6
Continuous
 62
     7
370
     0
100
AcDbCircle
 10
7.3843862228
 20
6.9044124752
 30
0.0
 40
0.6881374089422835
100
AcDbArc
 50
52.7239336859
 51
54.1353351664
  0
SPLINE
  5
289
330
1F
100
AcDbEntity
  8
0
  6
Continuous
 62
     7
370
     0
100
AcDbSpline
210
0.0
220
0.0
230
1.0
 70
    24
 71
     1
 72
     4
 73
     2
 74
     0
 42
0.00000001
 43
0.00000001
 40
0.0
 40
0.0
 40
1.0
 40
1.0
 10
7.876246064517829
 20
7.292186490751047
 30
0.0
 10
7.913942417970897
 20
7.346981897838733
 30
0.0
  0
ARC
  5
28A
330
1F
100
AcDbEntity
  8
0
  6
Continuous
 62
     7
370
     0
100
AcDbCircle
 10
7.1393355725
 20
6.6723670758
 30
0.0
 40
0.9629190933696143
100
AcDbArc
 50
38.4966267616
 51
40.0673734269
  0
SPLINE
  5
28B
330
1F
100
AcDbEntity
  8
0
  6
Continuous
 62
     7
370
     0
100
AcDbSpline
210
0.0
220
0.0
230
1.0
 70
    24
 71
     1
 72
     4
 73
     2
 74
     0
 42
0.00000001
 43
0.00000001
 40
0.0
 40
0.0
 40
1.0
 40
1.0
 10
7.967866247293153
 20
7.281057608447024
 30
0.0
 10
7.89295919906285
 20
7.271753937420978
 30
0.0
  0
ARC
  5
28C
330
1F
100
AcDbEntity
  8
0
  6
Continuous
 62
     7
370
     0
100
AcDbCircle
 10
7.1763561682
 20
6.6894788233
 30
0.0
 40
0.9881567002889922
100
AcDbArc
 50
36.7746312581
 51
38.2204080672
  0
SPLINE
  5
28D
330
1F
100
AcDbEntity
  8
0
  6
Continuous
 62
     7
370
     0
100
AcDbSpline
210
0.0
220
0.0
230
1.0
 70
    24
 71
     1
 72
     4
 73
     2
 74
     0
 42
0.00000001
 43
0.00000001
 40
0.0
 40
0.0
 40
1.0
 40
1.0
 10
7.940942551480785
 20
7.298419595494374
 30
0.0
 10
7.952688212477189
 20
7.300839781631829
 30
0.0
  0
ARC
  5
28E
330
1F
100
AcDbEntity
  8
0
  6
Continuous
 62
     7
370
     0
100
AcDbCircle
 10
7.1865411999
 20
6.6995636453
 30
0.0
 40
0.9631977202544986
100
AcDbArc
 50
38.4431126274
 51
40.0832251676
  0
SPLINE
  5
28F
330
1F
100
AcDbEntity
  8
0
  6
Continuous
 62
     7
370
     0
100
AcDbSpline
210
0.0
220
0.0
230
1.0
 70
    24
 71
     1
 72
     4
 73
     2
 74
     0
 42
0.00000001
 43
0.00000001
 40
0.0
 40
0.0
 40
1.0
 40
1.0
 10
7.930401725661098
 20
7.328102915571454
 30
0.0
 10
7.923493361539799
 20
7.319766321692143
 30
0.0
  0
ARC
  5
290
330
1F
100
AcDbEntity
  8
0
  6
Continuous
 62
     7
370
     0
100
AcDbCircle
 10
7.2184840369
 20
6.7240444056
 30
0.0
 40
0.9336559746716251
100
AcDbArc
 50
40.3144341561
 51
41.8515089362
  0
SPLINE
  5
291
330
1F
100
AcDbEntity
  8
0
  6
Continuous
 62
     7
370
     0
100
AcDbSpline
210
0.0
220
0.0
230
1.0
 70
    24
 71
     1
 72
     4
 73
     2
 74
     0
 42
0.00000001
 43
0.00000001
 40
0.0
 40
0.0
 40
1.0
 40
1.0
 10
8.029000239698446
 20
7.187507274840883
 30
0.0
 10
8.035375969295552
 20
7.178348282031443
 30
0.0
  0
SPLINE
  5
292
330
1F
100
AcDbEntity
  8
0
  6
Continuous
 62
     7
370
     0
100
AcDbSpline
210
0.0
220
0.0
230
1.0
 70
    24
 71
     1
 72
     4
 73
     2
 74
     0
 42
0.00000001
 43
0.00000001
 40
0.0
 40
0.0
 40
1.0
 40
1.0
 10
8.022315395497188
 20
7.194535693997624
 30
0.0
 10
8.029000239698446
 20
7.187507274840883
 30
0.0
  0
ARC
  5
293
330
1F
100
AcDbEntity
  8
0
  6
Continuous
 62
     7
370
     0
100
AcDbCircle
 10
8.011574366
 20
7.1799285341
 30
0.0
 40
0.0181311565065442
100
AcDbArc
 50
53.6719754844
 51
117.6216743493
  0
ARC
  5
294
330
1F
100
AcDbEntity
  8
0
  6
Continuous
 62
     7
370
     0
100
AcDbCircle
 10
8.0122684388
 20
7.1819261518
 30
0.0
 40
0.0167540356940939
100
AcDbArc
 50
122.8995083783
 51
210.2521043772
  0
ARC
  5
295
330
1F
100
AcDbEntity
  8
0
  6
Continuous
 62
     7
370
     0
100
AcDbCircle
 10
7.9821027901
 20
7.157879919
 30
0.0
 40
0.0221315971910687
100
AcDbArc
 50
44.8393208752
 51
70.3094852386
  0
SPLINE
  5
296
330
1F
100
AcDbEntity
  8
0
  6
Continuous
 62
     7
370
     0
100
AcDbSpline
210
0.0
220
0.0
230
1.0
 70
     8
 71
     3
 72
     9
 73
     5
 74
     0
 42
0.00000001
 43
0.00000001
 40
0.0
 40
0.0
 40
0.0
 40
0.0
 40
0.5001654445837035
 40
1.0
 40
1.0
 40
1.0
 40
1.0
 10
7.978614445665623
 20
7.177512050291385
 30
0.0
 10
7.980289186555993
 20
7.178288167655785
 30
0.0
 10
7.9836375603961
 20
7.179839888936822
 30
0.0
 10
7.987586153719812
 20
7.179091480831449
 30
0.0
 10
7.98955979710829
 20
7.178717400598831
 30
0.0
  0
SPLINE
  5
297
330
1F
100
AcDbEntity
  8
0
  6
Continuous
 62
     7
370
     0
100
AcDbSpline
210
0.0
220
0.0
230
1.0
 70
     8
 71
     3
 72
    14
 73
    10
 74
     0
 42
0.00000001
 43
0.00000001
 40
0.0
 40
0.0
 40
0.0
 40
0.0
 40
0.2499004290087885
 40
0.3800976031643395
 40
0.4999571058492638
 40
0.6257216768296248
 40
0.7499966555366319
 40
0.874951676366994
 40
1.0
 40
1.0
 40
1.0
 40
1.0
 10
7.976767610617666
 20
7.148694443017308
 30
0.0
 10
7.975391701001695
 20
7.151297391559758
 30
0.0
 10
7.973298947702808
 20
7.155256466404369
 30
0.0
 10
7.971849300673842
 20
7.160847505247182
 30
0.0
 10
7.971519834316458
 20
7.165034867868899
 30
0.0
 10
7.972058672160722
 20
7.168961754156861
 30
0.0
 10
7.973445487916155
 20
7.172524363039141
 30
0.0
 10
7.975626437646323
 20
7.175508663722421
 30
0.0
 10
7.977618195213754
 20
7.17684408863877
 30
0.0
 10
7.978614445665623
 20
7.177512050291385
 30
0.0
  0
ARC
  5
298
330
1F
100
AcDbEntity
  8
0
  6
Continuous
 62
     7
370
     0
100
AcDbCircle
 10
7.0791552235
 20
6.6282854017
 30
0.0
 40
1.037561356150373
100
AcDbArc
 50
27.5397395884
 51
30.1038860219
  0
LINE
  5
299
330
1F
100
AcDbEntity
  8
0
  6
Continuous
 62
     7
370
     0
100
AcDbLine
 10
8.0559489956
 20
7.1408049894
 30
0.0
 11
7.999150873
 21
7.1080161311
 31
0.0
  0
ARC
  5
29A
330
1F
100
AcDbEntity
  8
0
  6
Continuous
 62
     7
370
     0
100
AcDbCircle
 10
7.1361174732
 20
6.6611628827
 30
0.0
 40
1.037374850331485
100
AcDbArc
 50
27.5395907623
 51
29.9042531603
  0
LINE
  5
29B
330
1F
100
AcDbEntity
  8
0
  6
Continuous
 62
     7
370
     0
100
AcDbLine
 10
8.2068949528
 20
7.849888346
 30
0.0
 11
8.2278900552
 21
7.8620085605
 31
0.0
  0
ARC
  5
29C
330
1F
100
AcDbEntity
  8
0
  6
Continuous
 62
     7
370
     0
100
AcDbCircle
 10
8.1962478651
 20
7.8648328439
 30
0.0
 40
0.0183493459015796
100
AcDbArc
 50
256.6606909699
 51
305.4676673451
  0
SPLINE
  5
29D
330
1F
100
AcDbEntity
  8
0
  6
Continuous
 62
     7
370
     0
100
AcDbSpline
210
0.0
220
0.0
230
1.0
 70
     8
 71
     3
 72
    11
 73
     7
 74
     0
 42
0.00000001
 43
0.00000001
 40
0.0
 40
0.0
 40
0.0
 40
0.0
 40
0.2494767937856935
 40
0.5035301868785836
 40
0.7522417857860633
 40
1.0
 40
1.0
 40
1.0
 40
1.0
 10
8.19090384166785
 20
7.85051725096732
 30
0.0
 10
8.19061843429733
 20
7.850176108536383
 30
0.0
 10
8.19004238381811
 20
7.849487565488371
 30
0.0
 10
8.190000531165596
 20
7.848468906548561
 30
0.0
 10
8.190624938046767
 20
7.84757278230432
 30
0.0
 10
8.191551807688974
 20
7.847176372622213
 30
0.0
 10
8.192014352563392
 20
7.84697854839939
 30
0.0
  0
SPLINE
  5
29E
330
1F
100
AcDbEntity
  8
0
  6
Continuous
 62
     7
370
     0
100
AcDbSpline
210
0.0
220
0.0
230
1.0
 70
    24
 71
     1
 72
     4
 73
     2
 74
     0
 42
0.00000001
 43
0.00000001
 40
0.0
 40
0.0
 40
1.0
 40
1.0
 10
8.194285355987432
 20
7.852745537659736
 30
0.0
 10
8.19090384166785
 20
7.85051725096732
 30
0.0
  0
LINE
  5
29F
330
1F
100
AcDbEntity
  8
0
  6
Continuous
 62
     7
370
     0
100
AcDbLine
 10
8.2169449142
 20
7.8658266222
 30
0.0
 11
8.194285356
 21
7.8527455377
 31
0.0
  0
ARC
  5
2A0
330
1F
100
AcDbEntity
  8
0
  6
Continuous
 62
     7
370
     0
100
AcDbCircle
 10
8.0936029601
 20
7.4957192504
 30
0.0
 40
0.390118833575916
100
AcDbArc
 50
71.5688367759
 51
73.9372329409
  0
LINE
  5
2A1
330
1F
100
AcDbEntity
  8
0
  6
Continuous
 62
     7
370
     0
100
AcDbLine
 10
8.1803088742
 20
7.8583481422
 30
0.0
 11
8.2015450356
 21
7.8706075172
 31
0.0
  0
ARC
  5
2A2
330
1F
100
AcDbEntity
  8
0
  6
Continuous
 62
     7
370
     0
100
AcDbCircle
 10
8.1691498489
 20
7.8743301691
 30
0.0
 40
0.0194922812893463
100
AcDbArc
 50
260.1778247838
 51
304.9236468652
  0
SPLINE
  5
2A3
330
1F
100
AcDbEntity
  8
0
  6
Continuous
 62
     7
370
     0
100
AcDbSpline
210
0.0
220
0.0
230
1.0
 70
     8
 71
     3
 72
    10
 73
     6
 74
     0
 42
0.00000001
 43
0.00000001
 40
0.0
 40
0.0
 40
0.0
 40
0.0
 40
0.498859454299161
 40
0.7491987595266324
 40
1.0
 40
1.0
 40
1.0
 40
1.0
 10
8.16413773357326
 20
7.857364839009029
 30
0.0
 10
8.164064638199479
 20
7.856896779093719
 30
0.0
 10
8.163954861862896
 20
7.856193835799947
 30
0.0
 10
8.164778018608192
 20
7.855473819978847
 30
0.0
 10
8.165475554319583
 20
7.855240416167859
 30
0.0
 10
8.165824643658278
 20
7.855123606690299
 30
0.0
  0
SPLINE
  5
2A4
330
1F
100
AcDbEntity
  8
0
  6
Continuous
 62
     7
370
     0
100
AcDbSpline
210
0.0
220
0.0
230
1.0
 70
     8
 71
     3
 72
     9
 73
     5
 74
     0
 42
0.00000001
 43
0.00000001
 40
0.0
 40
0.0
 40
0.0
 40
0.0
 40
0.5015784057013238
 40
0.9999999999999999
 40
0.9999999999999999
 40
0.9999999999999999
 40
0.9999999999999999
 10
8.16724199004688
 20
7.860023784954977
 30
0.0
 10
8.166520407830918
 20
7.859595336208225
 30
0.0
 10
8.165081784860389
 20
7.858741135265995
 30
0.0
 10
8.164451754373161
 20
7.857822637920386
 30
0.0
 10
8.16413773357326
 20
7.857364839009029
 30
0.0
  0
LINE
  5
2A5
330
1F
100
AcDbEntity
  8
0
  6
Continuous
 62
     7
370
     0
100
AcDbLine
 10
8.1906821207
 20
7.8735554843
 30
0.0
 11
8.16724199
 21
7.860023785
 31
0.0
  0
ARC
  5
2A6
330
1F
100
AcDbEntity
  8
0
  6
Continuous
 62
     7
370
     0
100
AcDbCircle
 10
8.1042859878
 20
7.535020772
 30
0.0
 40
0.3493852361878624
100
AcDbArc
 50
75.6833595532
 51
78.2324464478
  0
LINE
  5
2A7
330
1F
100
AcDbEntity
  8
0
  6
Continuous
 62
     7
370
     0
100
AcDbLine
 10
8.1497009601
 20
7.8621463143
 30
0.0
 11
8.175540203
 21
7.8770629917
 31
0.0
  0
SPLINE
  5
2A8
330
1F
100
AcDbEntity
  8
0
  6
Continuous
 62
     7
370
     0
100
AcDbSpline
210
0.0
220
0.0
230
1.0
 70
     8
 71
     3
 72
    13
 73
     9
 74
     0
 42
0.00000001
 43
0.00000001
 40
0.0
 40
0.0
 40
0.0
 40
0.0
 40
0.2493026324881227
 40
0.376780000499098
 40
0.4994269650592022
 40
0.6183515801683074
 40
0.7497380290331994
 40
0.9999999999999999
 40
0.9999999999999999
 40
0.9999999999999999
 40
0.9999999999999999
 10
8.146931967030724
 20
7.849692585622946
 30
0.0
 10
8.14511410134937
 20
7.850268536688707
 30
0.0
 10
8.142366695814612
 20
7.85113899216958
 30
0.0
 10
8.140879756375352
 20
7.853075651915695
 30
0.0
 10
8.140864955537557
 20
7.854749515457846
 30
0.0
 10
8.142018767770036
 20
7.856596873932749
 30
0.0
 10
8.144741562102368
 20
7.859112491968738
 30
0.0
 10
8.147736838696957
 20
7.860944798414924
 30
0.0
 10
8.149700960085127
 20
7.86214631425728
 30
0.0
  0
ARC
  5
2A9
330
1F
100
AcDbEntity
  8
0
  6
Continuous
 62
     7
370
     0
100
AcDbCircle
 10
8.1568200255
 20
7.8919943408
 30
0.0
 40
0.0434420555906571
100
AcDbArc
 50
256.843309375
 51
284.5342107431
  0
SPLINE
  5
2AA
330
1F
100
AcDbEntity
  8
0
  6
Continuous
 62
     7
370
     0
100
AcDbSpline
210
0.0
220
0.0
230
1.0
 70
     8
 71
     3
 72
    12
 73
     8
 74
     0
 42
0.00000001
 43
0.00000001
 40
0.0
 40
0.0
 40
0.0
 40
0.0
 40
0.2503253654036789
 40
0.4999978777420986
 40
0.7494826629082546
 40
0.8746982187917952
 40
1.0
 40
1.0
 40
1.0
 40
1.0
 10
8.172943669758281
 20
7.842177332301261
 30
0.0
 10
8.171756357894731
 20
7.842604542233444
 30
0.0
 10
8.169384830698373
 20
7.843457847926607
 30
0.0
 10
8.166923583154302
 20
7.84522593765869
 30
0.0
 10
8.166518184089123
 20
7.847128111029909
 30
0.0
 10
8.16698530996969
 20
7.84872421038154
 30
0.0
 10
8.167476485805128
 20
7.84953632313368
 30
0.0
 10
8.167722158251522
 20
7.84994251926991
 30
0.0
  0
ARC
  5
2AB
330
1F
100
AcDbEntity
  8
0
  6
Continuous
 62
     7
370
     0
100
AcDbCircle
 10
8.1849487339
 20
7.8806828592
 30
0.0
 40
0.0403335736621462
100
AcDbArc
 50
252.6838221596
 51
282.6975549166
  0
LINE
  5
2AC
330
1F
100
AcDbEntity
  8
0
  6
Continuous
 62
     7
370
     0
100
AcDbLine
 10
8.1878107176
 20
7.8378699279
 30
0.0
 11
8.1938142379
 21
7.8413356864
 31
0.0
  0
ARC
  5
2AD
330
1F
100
AcDbEntity
  8
0
  6
Continuous
 62
     7
370
     0
100
AcDbCircle
 10
8.037342207
 20
7.428777008
 30
0.0
 40
0.4358873591122212
100
AcDbArc
 50
67.7565694145
 51
69.8059678081
  0
LINE
  5
2AE
330
1F
100
AcDbEntity
  8
0
  6
Continuous
 62
     7
370
     0
100
AcDbLine
 10
8.2434848533
 20
7.8559773896
 30
0.0
 11
8.2023440952
 21
7.8322273355
 31
0.0
  0
ARC
  5
2AF
330
1F
100
AcDbEntity
  8
0
  6
Continuous
 62
     7
370
     0
100
AcDbCircle
 10
8.0788271265
 20
7.4533992368
 30
0.0
 40
0.4349498087720238
100
AcDbArc
 50
67.7550406926
 51
69.9577523749
  0
ARC
  5
2B0
330
1F
100
AcDbEntity
  8
0
  6
Continuous
 62
     7
370
     0
100
AcDbCircle
 10
8.2866878027
 20
7.778127908
 30
0.0
 40
0.0139373708613899
100
AcDbArc
 50
56.9401984803
 51
116.8210631064
  0
SPLINE
  5
2B1
330
1F
100
AcDbEntity
  8
0
  6
Continuous
 62
     7
370
     0
100
AcDbSpline
210
0.0
220
0.0
230
1.0
 70
    24
 71
     1
 72
     4
 73
     2
 74
     0
 42
0.00000001
 43
0.00000001
 40
0.0
 40
0.0
 40
1.0
 40
1.0
 10
8.296146517407482
 20
7.788365880814793
 30
0.0
 10
8.294290834830388
 20
7.78980884151997
 30
0.0
  0
SPLINE
  5
2B2
330
1F
100
AcDbEntity
  8
0
  6
Continuous
 62
     7
370
     0
100
AcDbSpline
210
0.0
220
0.0
230
1.0
 70
    24
 71
     1
 72
     4
 73
     2
 74
     0
 42
0.00000001
 43
0.00000001
 40
0.0
 40
0.0
 40
1.0
 40
1.0
 10
8.308243662444658
 20
7.79434917650124
 30
0.0
 10
8.296146517407482
 20
7.788365880814793
 30
0.0
  0
SPLINE
  5
2B3
330
1F
100
AcDbEntity
  8
0
  6
Continuous
 62
     7
370
     0
100
AcDbSpline
210
0.0
220
0.0
230
1.0
 70
    24
 71
     1
 72
     4
 73
     2
 74
     0
 42
0.00000001
 43
0.00000001
 40
0.0
 40
0.0
 40
1.0
 40
1.0
 10
8.302214945870482
 20
7.797110010126146
 30
0.0
 10
8.308243662444658
 20
7.79434917650124
 30
0.0
  0
SPLINE
  5
2B4
330
1F
100
AcDbEntity
  8
0
  6
Continuous
 62
     7
370
     0
100
AcDbSpline
210
0.0
220
0.0
230
1.0
 70
     8
 71
     3
 72
    14
 73
    10
 74
     0
 42
0.00000001
 43
0.00000001
 40
0.0
 40
0.0
 40
0.0
 40
0.0
 40
0.2498127395189684
 40
0.3773648753594603
 40
0.4998828473800818
 40
0.624500224968801
 40
0.7497696394636771
 40
0.8747912564030442
 40
0.9999999999999999
 40
0.9999999999999999
 40
0.9999999999999999
 40
0.9999999999999999
 10
8.302957394863906
 20
7.806643895575711
 30
0.0
 10
8.301949352821477
 20
7.805994524244643
 30
0.0
 10
8.300426613587161
 20
7.805013589757947
 30
0.0
 10
8.29923430978173
 20
7.803376352921821
 30
0.0
 10
8.298801668740344
 20
7.802057437810976
 30
0.0
 10
8.298895818253284
 20
7.800702623979764
 30
0.0
 10
8.299560898939308
 20
7.799380894064533
 30
0.0
 10
8.300697410556314
 20
7.798163919682289
 30
0.0
 10
8.30170884864204
 20
7.797461488408342
 30
0.0
 10
8.302214945870482
 20
7.797110010126146
 30
0.0
  0
ARC
  5
2B5
330
1F
100
AcDbEntity
  8
0
  6
Continuous
 62
     7
370
     0
100
AcDbCircle
 10
8.3111404635
 20
7.7931316939
 30
0.0
 40
0.015796904950125
100
AcDbArc
 50
60.7476265458
 51
121.1993438184
  0
SPLINE
  5
2B6
330
1F
100
AcDbEntity
  8
0
  6
Continuous
 62
     7
370
     0
100
AcDbSpline
210
0.0
220
0.0
230
1.0
 70
     8
 71
     3
 72
    12
 73
     8
 74
     0
 42
0.00000001
 43
0.00000001
 40
0.0
 40
0.0
 40
0.0
 40
0.0
 40
0.2507186227519473
 40
0.500567136041469
 40
0.6250149800114749
 40
0.7508411148632093
 40
1.0
 40
1.0
 40
1.0
 40
1.0
 10
8.318270112301109
 20
7.79694227058165
 30
0.0
 10
8.319072945192678
 20
7.797692804514555
 30
0.0
 10
8.320675824774742
 20
7.799191267680843
 30
0.0
 10
8.321993925927671
 20
7.801359167825415
 30
0.0
 10
8.322007360620146
 20
7.803215049268094
 30
0.0
 10
8.321282540894881
 20
7.805053689800796
 30
0.0
 10
8.31982692326708
 20
7.80617142876246
 30
0.0
 10
8.31885973779034
 20
7.806914110679649
 30
0.0
  0
SPLINE
  5
2B7
330
1F
100
AcDbEntity
  8
0
  6
Continuous
 62
     7
370
     0
100
AcDbSpline
210
0.0
220
0.0
230
1.0
 70
    24
 71
     1
 72
     4
 73
     2
 74
     0
 42
0.00000001
 43
0.00000001
 40
0.0
 40
0.0
 40
1.0
 40
1.0
 10
8.336065595432743
 20
7.78743023330035
 30
0.0
 10
8.318270112301109
 20
7.79694227058165
 30
0.0
  0
SPLINE
  5
2B8
330
1F
100
AcDbEntity
  8
0
  6
Continuous
 62
     7
370
     0
100
AcDbSpline
210
0.0
220
0.0
230
1.0
 70
     8
 71
     3
 72
    12
 73
     8
 74
     0
 42
0.00000001
 43
0.00000001
 40
0.0
 40
0.0
 40
0.0
 40
0.0
 40
0.2505093998122618
 40
0.4997729473067443
 40
0.6235673607790262
 40
0.7500891746798266
 40
1.0
 40
1.0
 40
1.0
 40
1.0
 10
8.32807793194114
 20
7.812709603443189
 30
0.0
 10
8.330634692136671
 20
7.810978704968255
 30
0.0
 10
8.335735497054314
 20
7.80752551625376
 30
0.0
 10
8.339899743567207
 20
7.802000078475475
 30
0.0
 10
8.340762017940609
 20
7.797295364711353
 30
0.0
 10
8.340069304570273
 20
7.792603749773704
 30
0.0
 10
8.337663073991308
 20
7.789494464580564
 30
0.0
 10
8.336065595432743
 20
7.78743023330035
 30
0.0
  0
ARC
  5
2B9
330
1F
100
AcDbEntity
  8
0
  6
Continuous
 62
     7
370
     0
100
AcDbCircle
 10
8.3047039418
 20
7.7792740496
 30
0.0
 40
0.0407955840242862
100
AcDbArc
 50
55.0435299062
 51
116.9350235225
  0
SPLINE
  5
2BA
330
1F
100
AcDbEntity
  8
0
  6
Continuous
 62
     7
370
     0
100
AcDbSpline
210
0.0
220
0.0
230
1.0
 70
     8
 71
     3
 72
    11
 73
     7
 74
     0
 42
0.00000001
 43
0.00000001
 40
0.0
 40
0.0
 40
0.0
 40
0.0
 40
0.2499209240103246
 40
0.4997139303395956
 40
0.7496624164477627
 40
1.0
 40
1.0
 40
1.0
 40
1.0
 10
8.280794647605047
 20
7.805577921852557
 30
0.0
 10
8.280541319583607
 20
7.806498404025613
 30
0.0
 10
8.280034793202272
 20
7.808338897238927
 30
0.0
 10
8.280905325824323
 20
7.81109584120832
 30
0.0
 10
8.283003391481726
 20
7.813604002761907
 30
0.0
 10
8.285150152615767
 20
7.814963755948425
 30
0.0
 10
8.286224368004422
 20
7.815644161315642
 30
0.0
  0
SPLINE
  5
2BB
330
1F
100
AcDbEntity
  8
0
  6
Continuous
 62
     7
370
     0
100
AcDbSpline
210
0.0
220
0.0
230
1.0
 70
    24
 71
     1
 72
     4
 73
     2
 74
     0
 42
0.00000001
 43
0.00000001
 40
0.0
 40
0.0
 40
1.0
 40
1.0
 10
8.28392749988012
 20
7.801473504457596
 30
0.0
 10
8.280794647605047
 20
7.805577921852557
 30
0.0
  0
ARC
  5
2BC
330
1F
100
AcDbEntity
  8
0
  6
Continuous
 62
     7
370
     0
100
AcDbCircle
 10
8.2769554177
 20
7.7710414603
 30
0.0
 40
0.0312204939534375
100
AcDbArc
 50
77.0960400381
 51
114.6309286655
  0
SPLINE
  5
2BD
330
1F
100
AcDbEntity
  8
0
  6
Continuous
 62
     7
370
     0
100
AcDbSpline
210
0.0
220
0.0
230
1.0
 70
     8
 71
     3
 72
    13
 73
     9
 74
     0
 42
0.00000001
 43
0.00000001
 40
0.0
 40
0.0
 40
0.0
 40
0.0
 40
0.2504706134920077
 40
0.5000297978665235
 40
0.6250199073750433
 40
0.750028168661158
 40
0.8749635130634432
 40
1.0
 40
1.0
 40
1.0
 40
1.0
 10
8.27040586609167
 20
7.778132891749833
 30
0.0
 10
8.268091848311482
 20
7.779704945981497
 30
0.0
 10
8.263472233152818
 20
7.782843333949392
 30
0.0
 10
8.2591766607772
 20
7.787409606543852
 30
0.0
 10
8.258181458487377
 20
7.791408271947574
 30
0.0
 10
8.25869330577317
 20
7.794388160685347
 30
0.0
 10
8.260569400788562
 20
7.7971959151356
 30
0.0
 10
8.262818566391244
 20
7.798679265648238
 30
0.0
 10
8.263943604216475
 20
7.799421240998031
 30
0.0
  0
ARC
  5
2BE
330
1F
100
AcDbEntity
  8
0
  6
Continuous
 62
     7
370
     0
100
AcDbCircle
 10
8.2951978049
 20
7.8123647287
 30
0.0
 40
0.0422665220447884
100
AcDbArc
 50
234.0865799052
 51
286.4495269604
  0
SPLINE
  5
2BF
330
1F
100
AcDbEntity
  8
0
  6
Continuous
 62
     7
370
     0
100
AcDbSpline
210
0.0
220
0.0
230
1.0
 70
    24
 71
     1
 72
     4
 73
     2
 74
     0
 42
0.00000001
 43
0.00000001
 40
0.0
 40
0.0
 40
1.0
 40
1.0
 10
8.294979208745469
 20
7.783496718155609
 30
0.0
 10
8.307166440863718
 20
7.771828194046567
 30
0.0
  0
ARC
  5
2C0
330
1F
100
AcDbEntity
  8
0
  6
Continuous
 62
     7
370
     0
100
AcDbCircle
 10
8.2878364186
 20
7.7966295771
 30
0.0
 40
0.0149496299516916
100
AcDbArc
 50
240.6914722777
 51
298.5411908678
  0
SPLINE
  5
2C1
330
1F
100
AcDbEntity
  8
0
  6
Continuous
 62
     7
370
     0
100
AcDbSpline
210
0.0
220
0.0
230
1.0
 70
     8
 71
     3
 72
    14
 73
    10
 74
     0
 42
0.00000001
 43
0.00000001
 40
0.0
 40
0.0
 40
0.0
 40
0.0
 40
0.2493767508763844
 40
0.3764892636641426
 40
0.4994689652998214
 40
0.6214935465509048
 40
0.7495690295591648
 40
0.8747074165037432
 40
1.0
 40
1.0
 40
1.0
 40
1.0
 10
8.280399182311239
 20
7.790565896550537
 30
0.0
 10
8.279686023011584
 20
7.790084322784772
 30
0.0
 10
8.278609351595106
 20
7.789357280861916
 30
0.0
 10
8.277913315859672
 20
7.788122806261902
 30
0.0
 10
8.277739639173348
 20
7.78715414986555
 30
0.0
 10
8.277957867204645
 20
7.786171509500077
 30
0.0
 10
8.2785369893399
 20
7.785229210090971
 30
0.0
 10
8.279400997434262
 20
7.784350373973453
 30
0.0
 10
8.280145774085883
 20
7.783845930353148
 30
0.0
 10
8.280518391700408
 20
7.783593553243778
 30
0.0
  0
LINE
  5
2C2
330
1F
100
AcDbEntity
  8
0
  6
Continuous
 62
     7
370
     0
100
AcDbLine
 10
8.3336234233
 20
7.7760646114
 30
0.0
 11
8.3461699771
 21
7.7833075827
 31
0.0
  0
ARC
  5
2C3
330
1F
100
AcDbEntity
  8
0
  6
Continuous
 62
     7
370
     0
100
AcDbCircle
 10
7.9109499263
 20
7.1943986246
 30
0.0
 40
0.7190189186026614
100
AcDbArc
 50
49.7784420661
 51
53.9955891093
  0
LINE
  5
2C4
330
1F
100
AcDbEntity
  8
0
  6
Continuous
 62
     7
370
     0
100
AcDbLine
 10
8.3877993701
 20
7.7506507321
 30
0.0
 11
8.3752528163
 21
7.7434077608
 31
0.0
  0
ARC
  5
2C5
330
1F
100
AcDbEntity
  8
0
  6
Continuous
 62
     7
370
     0
100
AcDbCircle
 10
7.9234964801
 20
7.2016415959
 30
0.0
 40
0.7190189186017868
100
AcDbArc
 50
49.7784420661
 51
53.9955891093
  0
LINE
  5
2C6
330
1F
100
AcDbEntity
  8
0
  6
Continuous
 62
     7
370
     0
100
AcDbLine
 10
8.4594800553
 20
7.6644489726
 30
0.0
 11
8.4826906058
 21
7.6778481382
 31
0.0
  0
ARC
  5
2C7
330
1F
100
AcDbEntity
  8
0
  6
Continuous
 62
     7
370
     0
100
AcDbCircle
 10
7.7902582404
 20
7.0621108552
 30
0.0
 40
0.9003716151426358
100
AcDbArc
 50
41.9890327909
 51
43.876919412
  0
LINE
  5
2C8
330
1F
100
AcDbEntity
  8
0
  6
Continuous
 62
     7
370
     0
100
AcDbLine
 10
8.4278059247
 20
7.6795487231
 30
0.0
 11
8.4392734519
 21
7.6861687856
 31
0.0
  0
ARC
  5
2C9
330
1F
100
AcDbEntity
  8
0
  6
Continuous
 62
     7
370
     0
100
AcDbCircle
 10
7.7787907132
 20
7.0554907926
 30
0.0
 40
0.900371615136595
100
AcDbArc
 50
41.9890327909
 51
43.876919412
  0
LINE
  5
2CA
330
1F
100
AcDbEntity
  8
0
  6
Continuous
 62
     7
370
     0
100
AcDbLine
 10
8.4380946668
 20
7.6521034506
 30
0.0
 11
8.4480125281
 21
7.6578289101
 31
0.0
  0
ARC
  5
2CB
330
1F
100
AcDbEntity
  8
0
  6
Continuous
 62
     7
370
     0
100
AcDbCircle
 10
7.7711257485
 20
7.0518422306
 30
0.0
 40
0.8973076786551204
100
AcDbArc
 50
41.9866996069
 51
44.2016279397
  0
LINE
  5
2CC
330
1F
100
AcDbEntity
  8
0
  6
Continuous
 62
     7
370
     0
100
AcDbLine
 10
8.4021951835
 20
7.6703879375
 30
0.0
 11
8.4143973671
 21
7.6774321081
 31
0.0
  0
ARC
  5
2CD
330
1F
100
AcDbEntity
  8
0
  6
Continuous
 62
     7
370
     0
100
AcDbCircle
 10
7.748946831
 20
7.0354252024
 30
0.0
 40
0.9109945581506517
100
AcDbArc
 50
40.4934405074
 51
44.186764996
  0
LINE
  5
2CE
330
1F
100
AcDbEntity
  8
0
  6
Continuous
 62
     7
370
     0
100
AcDbLine
 10
8.4985383799
 20
7.6597783881
 30
0.0
 11
8.4417402573
 21
7.6269895299
 31
0.0
  0
ARC
  5
2CF
330
1F
100
AcDbEntity
  8
0
  6
Continuous
 62
     7
370
     0
100
AcDbCircle
 10
7.7909187517
 20
7.0551567388
 30
0.0
 40
0.9307485573808827
100
AcDbArc
 50
40.51204845
 51
41.9916385367
  0
LINE
  5
2D0
330
1F
100
AcDbEntity
  8
0
  6
Continuous
 62
     7
370
     0
100
AcDbLine
 10
7.8647194808
 20
6.3891751016
 30
0.0
 11
7.9224818399
 21
6.4225206017
 31
0.0
  0
LWPOLYLINE
  5
2D1
330
1F
100
AcDbEntity
  8
0
  6
Continuous
 62
     7
370
     0
100
AcDbPolyline
 90
       77
 70
   128
 43
0.0
 10
7.752272099
 20
6.5996797091
 10
7.7513151319
 20
6.5654263719
 10
7.7478724044
 20
6.532818169
 10
7.7419674339
 20
6.5020778474
 10
7.7336405571
 20
6.4734153949
 10
7.7229486553
 20
6.4470266049
 10
7.7099647648
 20
6.4230917397
 10
7.6947775789
 20
6.4017742987
 10
7.6774908414
 20
6.3832199016
 10
7.6582226382
 20
6.3675552938
 10
7.6371045908
 20
6.3548874803
 10
7.6142809567
 20
6.3453029953
 10
7.5899076446
 20
6.3388673105
 10
7.5641511489
 20
6.335624388
 10
7.5371874126
 20
6.3355963805
 10
7.5092006254
 20
6.3387834792
 10
7.4803819653
 20
6.3451639129
 10
7.450928293
 20
6.3546940969
 10
7.4210408071
 20
6.3673089303
 10
7.3909236693
 20
6.382922241
 10
7.3607826102
 20
6.4014273743
 10
7.3308235238
 20
6.4226979214
 10
7.301251061
 20
6.4465885828
 10
7.2722672318
 20
6.4729361612
 10
7.2440700252
 20
6.5015606757
 10
7.2168520565
 20
6.5322665921
 10
7.1907992522
 20
6.5648441576
 10
7.1660895792
 20
6.5990708346
 10
7.1428918299
 20
6.6347128201
 10
7.1213644681
 20
6.6715266433
 10
7.1016545478
 20
6.7092608282
 10
7.0838967076
 20
6.7476576124
 10
7.0682122516
 20
6.7864547066
 10
7.0547083206
 20
6.8253870876
 10
7.04347716
 20
6.8641888075
 10
7.03459549
 20
6.9025948114
 10
7.0281239816
 20
6.9403427473
 10
7.0241068416
 20
6.9771747585
 10
7.0225715112
 20
7.012839245
 10
7.0235284783
 20
7.0470925822
 10
7.0269712058
 20
7.0797007851
 10
7.0328761764
 20
7.1104411067
 10
7.0412030531
 20
7.1391035592
 10
7.051894955
 20
7.1654923492
 10
7.0648788454
 20
7.1894272144
 10
7.0800660314
 20
7.2107446554
 10
7.0973527689
 20
7.2292990525
 10
7.1166209721
 20
7.2449636603
 10
7.1377390195
 20
7.2576314738
 10
7.1605626535
 20
7.2672159588
 10
7.1849359656
 20
7.2736516436
 10
7.2106924613
 20
7.2768945661
 10
7.2376561976
 20
7.2769225736
 10
7.2656429849
 20
7.273735475
 10
7.294461645
 20
7.2673550412
 10
7.3239153172
 20
7.2578248572
 10
7.3538028032
 20
7.2452100238
 10
7.383919941
 20
7.2295967131
 10
7.4140610001
 20
7.2110915798
 10
7.4440200865
 20
7.1898210327
 10
7.4735925492
 20
7.1659303713
 10
7.5025763784
 20
7.1395827929
 10
7.5307735851
 20
7.1109582784
 10
7.5579915538
 20
7.080252362
 10
7.5840443581
 20
7.0476747965
 10
7.608754031
 20
7.0134481195
 10
7.6319517804
 20
6.977806134
 10
7.6534791421
 20
6.9409923109
 10
7.6731890624
 20
6.9032581259
 10
7.6909469026
 20
6.8648613417
 10
7.7066313586
 20
6.8260642475
 10
7.7201352897
 20
6.7871318665
 10
7.7313664503
 20
6.7483301466
 10
7.7402481202
 20
6.7099241427
 10
7.7467196287
 20
6.6721762068
 10
7.7507367686
 20
6.6353441956
 10
7.752272099
 20
6.5996797091
  0
LWPOLYLINE
  5
2D2
330
1F
100
AcDbEntity
  8
0
  6
Continuous
 62
     7
370
     0
100
AcDbPolyline
 90
       49
 70
   128
 43
0.0
 10
7.2647211271
 20
7.2738891331
 10
7.244226955
 20
7.2752061577
 10
7.217805548
 20
7.2741336672
 10
7.1926597842
 20
7.2698289685
 10
7.1689660432
 20
7.262322256
 10
7.1468905193
 20
7.2516661838
 10
7.1265880567
 20
7.2379354967
 10
7.1082010625
 20
7.2212265056
 10
7.0918585083
 20
7.201656412
 10
7.0776750252
 20
7.1793624861
 10
7.0657501003
 20
7.1545011038
 10
7.0561673784
 20
7.1272466497
 10
7.0489940753
 20
7.0977902943
 10
7.0442805066
 20
7.0663386528
 10
7.0420597346
 20
7.0331123358
 10
7.0423473365
 20
6.9983444021
 10
7.0451412949
 20
6.9622787238
 10
7.0504220121
 20
6.9251682756
 10
7.0581524479
 20
6.8872733607
 10
7.0682783787
 20
6.8488597847
 10
7.0807287783
 20
6.8101969913
 10
7.0954163163
 20
6.7715561721
 10
7.1122379699
 20
6.7332083647
 10
7.1310757476
 20
6.6954225515
 10
7.1517975156
 20
6.6584637728
 10
7.1742579259
 20
6.6225912679
 10
7.1982994346
 20
6.5880566565
 10
7.2237534079
 20
6.5551021742
 10
7.2504413045
 20
6.5239589731
 10
7.278175928
 20
6.4948455002
 10
7.3067627398
 20
6.4679659658
 10
7.3360012241
 20
6.4435089103
 10
7.3656862939
 20
6.4216458825
 10
7.3956097297
 20
6.4025302358
 10
7.4255616401
 20
6.3862960527
 10
7.4553319341
 20
6.3730572044
 10
7.4847117943
 20
6.3629065519
 10
7.5134951423
 20
6.3559152947
 10
7.5414800834
 20
6.3521324715
 10
7.5684703234
 20
6.3515846159
 10
7.5942765452
 20
6.354275571
 10
7.6187177367
 20
6.3601864615
 10
7.6416224605
 20
6.3692758267
 10
7.6628300564
 20
6.3814799114
 10
7.6821917683
 20
6.3967131126
 10
7.6995717878
 20
6.4148685804
 10
7.7148482064
 20
6.4358189672
 10
7.7279138712
 20
6.4594173211
 10
7.7310187141
 20
6.4661505008
  0
SPLINE
  5
2D3
330
1F
100
AcDbEntity
  8
0
  6
Continuous
 62
     7
370
     0
100
AcDbSpline
210
0.0
220
0.0
230
1.0
 70
     8
 71
     3
 72
    14
 73
    10
 74
     0
 42
0.00000001
 43
0.00000001
 40
0.0
 40
0.0
 40
0.0
 40
0.0
 40
0.500159812972011
 40
0.6334839770270827
 40
0.7547008492922224
 40
0.8160823888869193
 40
0.8744466572167073
 40
0.9383930382679241
 40
1.0
 40
1.0
 40
1.0
 40
1.0
 10
7.472266137194928
 20
7.340713429259789
 30
0.0
 10
7.47595269653319
 20
7.342890948286994
 30
0.0
 10
7.480621956658811
 20
7.345648913596539
 30
0.0
 10
7.484756030882361
 20
7.349581956709403
 30
0.0
 10
7.485800417632115
 20
7.351429530647837
 30
0.0
 10
7.485991949674868
 20
7.352897624066583
 30
0.0
 10
7.485669128963097
 20
7.354002065158991
 30
0.0
 10
7.484895717168309
 20
7.355038264085684
 30
0.0
 10
7.484016132060673
 20
7.355601107071055
 30
0.0
 10
7.483584534105055
 20
7.355877284873193
 30
0.0
  0
ARC
  5
2D4
330
1F
100
AcDbEntity
  8
0
  6
Continuous
 62
     7
370
     0
100
AcDbCircle
 10
7.4759055409
 20
7.3310776255
 30
0.0
 40
0.0259613181834978
100
AcDbArc
 50
72.7953275446
 51
134.775177029
  0
SPLINE
  5
2D5
330
1F
100
AcDbEntity
  8
0
  6
Continuous
 62
     7
370
     0
100
AcDbSpline
210
0.0
220
0.0
230
1.0
 70
     8
 71
     3
 72
    14
 73
    10
 74
     0
 42
0.00000001
 43
0.00000001
 40
0.0
 40
0.0
 40
0.0
 40
0.0
 40
0.5003034315361163
 40
0.6254176539424955
 40
0.7501401738687269
 40
0.8143424488283626
 40
0.8750383566947508
 40
0.9374874297319964
 40
0.9999999999999999
 40
0.9999999999999999
 40
0.9999999999999999
 40
0.9999999999999999
 10
7.457620290617227
 20
7.349506940840855
 30
0.0
 10
7.45385045903486
 20
7.347283448813815
 30
0.0
 10
7.449137880476758
 20
7.344503913277068
 30
0.0
 10
7.444834568378756
 20
7.340596209294552
 30
0.0
 10
7.443732789852793
 20
7.338751232242875
 30
0.0
 10
7.44360409129878
 20
7.337222877038277
 30
0.0
 10
7.443986772980968
 20
7.336097334849622
 30
0.0
 10
7.444826516582568
 20
7.335056149585202
 30
0.0
 10
7.445732638359065
 20
7.334491270650754
 30
0.0
 10
7.446185929462851
 20
7.334208687666499
 30
0.0
  0
SPLINE
  5
2D6
330
1F
100
AcDbEntity
  8
0
  6
Continuous
 62
     7
370
     0
100
AcDbSpline
210
0.0
220
0.0
230
1.0
 70
     8
 71
     3
 72
    14
 73
    10
 74
     0
 42
0.00000001
 43
0.00000001
 40
0.0
 40
0.0
 40
0.0
 40
0.0
 40
0.0625005409549583
 40
0.1249727346346775
 40
0.1854844482469028
 40
0.2498740647270023
 40
0.3606505595072363
 40
0.4996888686475456
 40
1.0
 40
1.0
 40
1.0
 40
1.0
 10
7.446185929462851
 20
7.334208687666499
 30
0.0
 10
7.446672826902468
 20
7.333957580541484
 30
0.0
 10
7.447646400948163
 20
7.333455480181714
 30
0.0
 10
7.449429491958796
 20
7.332973417047437
 30
0.0
 10
7.45137231907245
 20
7.332751436069691
 30
0.0
 10
7.453861832373351
 20
7.33283311477205
 30
0.0
 10
7.457009778079051
 20
7.333464755300142
 30
0.0
 10
7.463711701556932
 20
7.335858812194076
 30
0.0
 10
7.468510738896645
 20
7.338582251770251
 30
0.0
 10
7.472266137194928
 20
7.340713429259789
 30
0.0
  0
ARC
  5
2D7
330
1F
100
AcDbEntity
  8
0
  6
Continuous
 62
     7
370
     0
100
AcDbCircle
 10
7.1005469342
 20
6.6406443119
 30
0.0
 40
1.038582984230309
100
AcDbArc
 50
28.9212868828
 51
29.5167273595
  0
SPLINE
  5
2D8
330
1F
100
AcDbEntity
  8
0
  6
Continuous
 62
     7
370
     0
100
AcDbSpline
210
0.0
220
0.0
230
1.0
 70
     8
 71
     3
 72
    12
 73
     8
 74
     0
 42
0.00000001
 43
0.00000001
 40
0.0
 40
0.0
 40
0.0
 40
0.0
 40
0.2508758277597827
 40
0.5006089009248194
 40
0.6255741322444934
 40
0.750685252371661
 40
1.0
 40
1.0
 40
1.0
 40
1.0
 10
8.00433420315918
 20
7.152330922741046
 30
0.0
 10
8.003699196268803
 20
7.153392356690223
 30
0.0
 10
8.00243207498291
 20
7.155510389692632
 30
0.0
 10
8.000316188878264
 20
7.157856210553344
 30
0.0
 10
7.998221024117512
 20
7.158878095763011
 30
0.0
 10
7.996035466776124
 20
7.159201181220752
 30
0.0
 10
7.99462648486278
 20
7.158566500545724
 30
0.0
 10
7.993688301899505
 20
7.158143892852332
 30
0.0
  0
SPLINE
  5
2D9
330
1F
100
AcDbEntity
  8
0
  6
Continuous
 62
     7
370
     0
100
AcDbSpline
210
0.0
220
0.0
230
1.0
 70
     8
 71
     3
 72
    13
 73
     9
 74
     0
 42
0.00000001
 43
0.00000001
 40
0.0
 40
0.0
 40
0.0
 40
0.0
 40
0.1252642250000329
 40
0.2502628772394759
 40
0.3767307195474092
 40
0.5001238771616443
 40
0.7494666677386623
 40
1.0
 40
1.0
 40
1.0
 40
1.0
 10
7.993688301899505
 20
7.158143892852332
 30
0.0
 10
7.993276653292235
 20
7.157872063083445
 30
0.0
 10
7.992454228814161
 20
7.157328979852131
 30
0.0
 10
7.991519026736026
 20
7.156111554527875
 30
0.0
 10
7.99095671288996
 20
7.154611334008936
 30
0.0
 10
7.990857640790099
 20
7.152333802605275
 30
0.0
 10
7.991790444599468
 20
7.149430227068921
 30
0.0
 10
7.992920524240589
 20
7.147315981151091
 30
0.0
 10
7.99348690980148
 20
7.146256340470504
 30
0.0
  0
ARC
  5
2DA
330
1F
100
AcDbEntity
  8
0
  6
Continuous
 62
     7
370
     0
100
AcDbCircle
 10
7.0897743012
 20
6.6344255108
 30
0.0
 40
1.038589079973492
100
AcDbArc
 50
28.9212880599
 51
29.5256800952
  0
LINE
  5
2DB
330
1F
100
AcDbEntity
  8
0
  6
Continuous
 62
     7
370
     0
100
AcDbLine
 10
7.998835645
 20
7.1366951101
 30
0.0
 11
8.0096029528
 21
7.1429109446
 31
0.0
  0
ARC
  5
2DC
330
1F
100
AcDbEntity
  8
0
  6
Continuous
 62
     7
370
     0
100
AcDbCircle
 10
7.1228032844
 20
6.6534937967
 30
0.0
 40
1.038650346026993
100
AcDbArc
 50
28.9213008973
 51
29.6196811032
  0
SPLINE
  5
2DD
330
1F
100
AcDbEntity
  8
0
  6
Continuous
 62
     7
370
     0
100
AcDbSpline
210
0.0
220
0.0
230
1.0
 70
     8
 71
     3
 72
    13
 73
     9
 74
     0
 42
0.00000001
 43
0.00000001
 40
0.0
 40
0.0
 40
0.0
 40
0.0
 40
0.2576868080773252
 40
0.4999433752800768
 40
0.6237499127101707
 40
0.7488287378805203
 40
0.8752064661122756
 40
1.0
 40
1.0
 40
1.0
 40
1.0
 10
8.025728213660805
 20
7.166836872430221
 30
0.0
 10
8.024998887555613
 20
7.168033494948507
 30
0.0
 10
8.023583907264495
 20
7.170355086438549
 30
0.0
 10
8.021263734645684
 20
7.172909205650806
 30
0.0
 10
8.019012865689378
 20
7.174098605847904
 30
0.0
 10
8.017218067465032
 20
7.174446798153381
 30
0.0
 10
8.015472173800815
 20
7.174275868000779
 30
0.0
 10
8.014467254573752
 20
7.173774223138006
 30
0.0
 10
8.013967964087419
 20
7.173524982700809
 30
0.0
  0
SPLINE
  5
2DE
330
1F
100
AcDbEntity
  8
0
  6
Continuous
 62
     7
370
     0
100
AcDbSpline
210
0.0
220
0.0
230
1.0
 70
     8
 71
     3
 72
    13
 73
     9
 74
     0
 42
0.00000001
 43
0.00000001
 40
0.0
 40
0.0
 40
0.0
 40
0.0
 40
0.129689759472564
 40
0.2496082834017514
 40
0.3753937891436734
 40
0.49989588810451
 40
0.7495309619036178
 40
1.0
 40
1.0
 40
1.0
 40
1.0
 10
8.013967964087419
 20
7.173524982700809
 30
0.0
 10
8.013497084203117
 20
7.173204492075228
 30
0.0
 10
8.012590802010235
 20
7.17258765759868
 30
0.0
 10
8.011659873795242
 20
7.171136048821629
 30
0.0
 10
8.011172246857377
 20
7.169419445962049
 30
0.0
 10
8.011239533319582
 20
7.166855267102847
 30
0.0
 10
8.01234874148434
 20
7.163661080874379
 30
0.0
 10
8.013613451342348
 20
7.161310903262206
 30
0.0
 10
8.014246860774646
 20
7.160133854899924
 30
0.0
  0
ARC
  5
2DF
330
1F
100
AcDbEntity
  8
0
  6
Continuous
 62
     7
370
     0
100
AcDbCircle
 10
7.1112917994
 20
6.6468483199
 30
0.0
 40
1.038648103687934
100
AcDbArc
 50
28.9213003942
 51
29.6161001998
  0
LINE
  5
2E0
330
1F
100
AcDbEntity
  8
0
  6
Continuous
 62
     7
370
     0
100
AcDbLine
 10
8.0204046976
 20
7.1491466591
 30
0.0
 11
8.0319181408
 21
7.1557932284
 31
0.0
  0
ARC
  5
2E1
330
1F
100
AcDbEntity
  8
0
  6
Continuous
 62
     7
370
     0
100
AcDbCircle
 10
7.1129507518
 20
6.6486407597
 30
0.0
 40
1.023823863322662
100
AcDbArc
 50
33.7437517448
 51
34.3449010575
  0
SPLINE
  5
2E2
330
1F
100
AcDbEntity
  8
0
  6
Continuous
 62
     7
370
     0
100
AcDbSpline
210
0.0
220
0.0
230
1.0
 70
     8
 71
     3
 72
    12
 73
     8
 74
     0
 42
0.00000001
 43
0.00000001
 40
0.0
 40
0.0
 40
0.0
 40
0.0
 40
0.2508758277600041
 40
0.5006089009252632
 40
0.6255741322548372
 40
0.7506852523714488
 40
1.0
 40
1.0
 40
1.0
 40
1.0
 10
7.958277499190164
 20
7.22625481181069
 30
0.0
 10
7.957558156372504
 20
7.227255129297046
 30
0.0
 10
7.956122747387299
 20
7.229251207763002
 30
0.0
 10
7.95379814249085
 20
7.231441268668294
 30
0.0
 10
7.951572962069651
 20
7.232364871158635
 30
0.0
 10
7.949295308784178
 20
7.232617770585904
 30
0.0
 10
7.947875973504271
 20
7.231975125308608
 30
0.0
 10
7.946930896661047
 20
7.231547214314936
 30
0.0
  0
SPLINE
  5
2E3
330
1F
100
AcDbEntity
  8
0
  6
Continuous
 62
     7
370
     0
100
AcDbSpline
210
0.0
220
0.0
230
1.0
 70
     8
 71
     3
 72
    13
 73
     9
 74
     0
 42
0.00000001
 43
0.00000001
 40
0.0
 40
0.0
 40
0.0
 40
0.0
 40
0.1252642249998506
 40
0.250262877239108
 40
0.3767307195280356
 40
0.5001238771623702
 40
0.7494666677390106
 40
1.0
 40
1.0
 40
1.0
 40
1.0
 10
7.946930896661047
 20
7.231547214314936
 30
0.0
 10
7.946521231066224
 20
7.231276904832285
 30
0.0
 10
7.94570276840886
 20
7.230736858950282
 30
0.0
 10
7.944806890115853
 20
7.229549519466975
 30
0.0
 10
7.944312910593986
 20
7.228101337086899
 30
0.0
 10
7.944343225435759
 20
7.225921576544023
 30
0.0
 10
7.945477433646178
 20
7.223168273808072
 30
0.0
 10
7.946770862133606
 20
7.22117250215799
 30
0.0
 10
7.947419116639457
 20
7.220172239694785
 30
0.0
  0
ARC
  5
2E4
330
1F
100
AcDbEntity
  8
0
  6
Continuous
 62
     7
370
     0
100
AcDbCircle
 10
7.1022118802
 20
6.6424440664
 30
0.0
 40
1.023789585199812
100
AcDbArc
 50
33.7437449877
 51
34.3539476919
  0
LINE
  5
2E5
330
1F
100
AcDbEntity
  8
0
  6
Continuous
 62
     7
370
     0
100
AcDbLine
 10
7.9535238994
 20
7.21113815
 30
0.0
 11
7.9642912072
 21
7.2173539845
 31
0.0
  0
ARC
  5
2E6
330
1F
100
AcDbEntity
  8
0
  6
Continuous
 62
     7
370
     0
100
AcDbCircle
 10
7.135595077
 20
6.6617447269
 30
0.0
 40
1.023427035204259
100
AcDbArc
 50
33.743667351
 51
34.4489561001
  0
SPLINE
  5
2E7
330
1F
100
AcDbEntity
  8
0
  6
Continuous
 62
     7
370
     0
100
AcDbSpline
210
0.0
220
0.0
230
1.0
 70
     8
 71
     3
 72
    13
 73
     9
 74
     0
 42
0.00000001
 43
0.00000001
 40
0.0
 40
0.0
 40
0.0
 40
0.0
 40
0.2576868080829276
 40
0.4999433752797592
 40
0.6237499127194037
 40
0.7488287379028334
 40
0.8752064661221148
 40
1.0
 40
1.0
 40
1.0
 40
1.0
 10
7.979544187733287
 20
7.240668551703816
 30
0.0
 10
7.978719691154698
 20
7.241795366412979
 30
0.0
 10
7.977120068708079
 20
7.24398152236409
 30
0.0
 10
7.97457317653897
 20
7.246363925437793
 30
0.0
 10
7.972178046787262
 20
7.247442519780568
 30
0.0
 10
7.970303240386523
 20
7.247728714992435
 30
0.0
 10
7.968509065012547
 20
7.247520157583489
 30
0.0
 10
7.967499622278853
 20
7.247014978100953
 30
0.0
 10
7.966998084304591
 20
7.246763981500698
 30
0.0
  0
SPLINE
  5
2E8
330
1F
100
AcDbEntity
  8
0
  6
Continuous
 62
     7
370
     0
100
AcDbSpline
210
0.0
220
0.0
230
1.0
 70
     8
 71
     3
 72
    13
 73
     9
 74
     0
 42
0.00000001
 43
0.00000001
 40
0.0
 40
0.0
 40
0.0
 40
0.0
 40
0.1296897594730844
 40
0.249608283413435
 40
0.3753937891593649
 40
0.4998958881042982
 40
0.7495309619035153
 40
0.9999999999999999
 40
0.9999999999999999
 40
0.9999999999999999
 40
0.9999999999999999
 10
7.966998084304591
 20
7.246763981500698
 30
0.0
 10
7.966530008728109
 20
7.246445682515329
 30
0.0
 10
7.965629123865433
 20
7.245833066194096
 30
0.0
 10
7.964750940090088
 20
7.244422546586966
 30
0.0
 10
7.964346272906664
 20
7.242770190752387
 30
0.0
 10
7.964564492219524
 20
7.240321822496937
 30
0.0
 10
7.965897097040153
 20
7.237296571765039
 30
0.0
 10
7.967343065882218
 20
7.235079258754689
 30
0.0
 10
7.968067255938598
 20
7.233968753474585
 30
0.0
  0
ARC
  5
2E9
330
1F
100
AcDbEntity
  8
0
  6
Continuous
 62
     7
370
     0
100
AcDbCircle
 10
7.1240701076
 20
6.6550903895
 30
0.0
 40
1.023440934624262
100
AcDbArc
 50
33.7436705343
 51
34.4453361013
  0
LINE
  5
2EA
330
1F
100
AcDbEntity
  8
0
  6
Continuous
 62
     7
370
     0
100
AcDbLine
 10
7.975092952
 20
7.223589699
 30
0.0
 11
7.9866063952
 21
7.2302362683
 31
0.0
  0
SPLINE
  5
2EB
330
1F
100
AcDbEntity
  8
0
  6
Continuous
 62
     7
370
     0
100
AcDbSpline
210
0.0
220
0.0
230
1.0
 70
     8
 71
     3
 72
    14
 73
    10
 74
     0
 42
0.00000001
 43
0.00000001
 40
0.0
 40
0.0
 40
0.0
 40
0.0
 40
0.5001598129721003
 40
0.6334839770295372
 40
0.7547008492910354
 40
0.8160823888859301
 40
0.8744466572129604
 40
0.9383930382621888
 40
1.0
 40
1.0
 40
1.0
 40
1.0
 10
7.419480178959671
 20
7.367934504462493
 30
0.0
 10
7.423166976736474
 20
7.370105847444141
 30
0.0
 10
7.427836538859577
 20
7.37285599040212
 30
0.0
 10
7.431979786715852
 20
7.376592642611274
 30
0.0
 10
7.433031884067847
 20
7.378281632757155
 30
0.0
 10
7.433232292709245
 20
7.379576017211111
 30
0.0
 10
7.432918270892766
 20
7.380514714704862
 30
0.0
 10
7.432155410772762
 20
7.381359821968881
 30
0.0
 10
7.431283963173829
 20
7.38178385355835
 30
0.0
 10
7.43085635815996
 20
7.38199191889001
 30
0.0
  0
ARC
  5
2EC
330
1F
100
AcDbEntity
  8
0
  6
Continuous
 62
     7
370
     0
100
AcDbCircle
 10
7.4253579573
 20
7.3525508436
 30
0.0
 40
0.0299501139790694
100
AcDbArc
 50
79.4213360391
 51
132.9068987685
  0
SPLINE
  5
2ED
330
1F
100
AcDbEntity
  8
0
  6
Continuous
 62
     7
370
     0
100
AcDbSpline
210
0.0
220
0.0
230
1.0
 70
     8
 71
     3
 72
    14
 73
    10
 74
     0
 42
0.00000001
 43
0.00000001
 40
0.0
 40
0.0
 40
0.0
 40
0.0
 40
0.5003034315362057
 40
0.6254176539426045
 40
0.7501401738688712
 40
0.8143424488246492
 40
0.8750383566947265
 40
0.9374874297319844
 40
1.0
 40
1.0
 40
1.0
 40
1.0
 10
7.404967648103172
 20
7.374488131942548
 30
0.0
 10
7.401197310517055
 20
7.3722709964559
 30
0.0
 10
7.396484099415462
 20
7.369499407082078
 30
0.0
 10
7.392167134339098
 20
7.365780785891699
 30
0.0
 10
7.391054061988333
 20
7.364095914521758
 30
0.0
 10
7.390912352442774
 20
7.362759213799761
 30
0.0
 10
7.391283412408582
 20
7.361810462906753
 30
0.0
 10
7.392110477616362
 20
7.360968850839397
 30
0.0
 10
7.393008104662622
 20
7.360545393215888
 30
0.0
 10
7.393457146243059
 20
7.360333556817575
 30
0.0
  0
ARC
  5
2EE
330
1F
100
AcDbEntity
  8
0
  6
Continuous
 62
     7
370
     0
100
AcDbCircle
 10
7.3990006695
 20
7.3897018726
 30
0.0
 40
0.029886930626048
100
AcDbArc
 50
259.3106951763
 51
313.2539295586
  0
SPLINE
  5
2EF
330
1F
100
AcDbEntity
  8
0
  6
Continuous
 62
     7
370
     0
100
AcDbSpline
210
0.0
220
0.0
230
1.0
 70
    24
 71
     1
 72
     4
 73
     2
 74
     0
 42
0.00000001
 43
0.00000001
 40
0.0
 40
0.0
 40
1.0
 40
1.0
 10
7.899553212384014
 20
7.290342424808466
 30
0.0
 10
7.925380186518678
 20
7.295437426861504
 30
0.0
  0
ARC
  5
2F0
330
1F
100
AcDbEntity
  8
0
  6
Continuous
 62
     7
370
     0
100
AcDbCircle
 10
7.1742545705
 20
6.6924931663
 30
0.0
 40
0.9631881812434137
100
AcDbArc
 50
38.7547421499
 51
39.7810105418
  0
SPLINE
  5
2F1
330
1F
100
AcDbEntity
  8
0
  6
Continuous
 62
     7
370
     0
100
AcDbSpline
210
0.0
220
0.0
230
1.0
 70
    24
 71
     1
 72
     4
 73
     2
 74
     0
 42
0.00000001
 43
0.00000001
 40
0.0
 40
0.0
 40
1.0
 40
1.0
 10
7.914460480572709
 20
7.308793971976014
 30
0.0
 10
7.899553212384014
 20
7.290342424808466
 30
0.0
  0
SPLINE
  5
2F2
330
1F
100
AcDbEntity
  8
0
  6
Continuous
 62
     7
370
     0
100
AcDbSpline
210
0.0
220
0.0
230
1.0
 70
     8
 71
     3
 72
     9
 73
     5
 74
     0
 42
0.00000001
 43
0.00000001
 40
0.0
 40
0.0
 40
0.0
 40
0.0
 40
0.4999994477952465
 40
1.0
 40
1.0
 40
1.0
 40
1.0
 10
7.651752970607963
 20
7.38046850835017
 30
0.0
 10
7.653242470628233
 20
7.379875917040876
 30
0.0
 10
7.656221473958814
 20
7.378690733113359
 30
0.0
 10
7.659091216674224
 20
7.377356303269077
 30
0.0
 10
7.660526089616615
 20
7.376689087610057
 30
0.0
  0
ARC
  5
2F3
330
1F
100
AcDbEntity
  8
0
  6
Continuous
 62
     7
370
     0
100
AcDbCircle
 10
7.6783668236
 20
7.412487328
 30
0.0
 40
0.0399975724636917
100
AcDbArc
 50
243.5097562013
 51
256.5322211252
  0
ARC
  5
2F4
330
1F
100
AcDbEntity
  8
0
  6
Continuous
 62
     7
370
     0
100
AcDbCircle
 10
7.6701483241
 20
7.3801819267
 30
0.0
 40
0.0066829101631546
100
AcDbArc
 50
260.5532230952
 51
297.7327175802
  0
SPLINE
  5
2F5
330
1F
100
AcDbEntity
  8
0
  6
Continuous
 62
     7
370
     0
100
AcDbSpline
210
0.0
220
0.0
230
1.0
 70
     8
 71
     3
 72
    13
 73
     9
 74
     0
 42
0.00000001
 43
0.00000001
 40
0.0
 40
0.0
 40
0.0
 40
0.0
 40
0.2485845284663191
 40
0.3735388535828442
 40
0.4967972082273505
 40
0.6212572301490695
 40
0.7502093099323208
 40
1.0
 40
1.0
 40
1.0
 40
1.0
 10
7.673258199961452
 20
7.374266695475888
 30
0.0
 10
7.673825055246033
 20
7.374677985661429
 30
0.0
 10
7.6746768478916
 20
7.375296016338338
 30
0.0
 10
7.675036134489631
 20
7.376431700112234
 30
0.0
 10
7.675018341058118
 20
7.377314558176797
 30
0.0
 10
7.674687811968509
 20
7.378206005712411
 30
0.0
 10
7.673916028727825
 20
7.379341458585191
 30
0.0
 10
7.673018859864169
 20
7.380074295597051
 30
0.0
 10
7.672427153705268
 20
7.380557620633122
 30
0.0
  0
ARC
  5
2F6
330
1F
100
AcDbEntity
  8
0
  6
Continuous
 62
     7
370
     0
100
AcDbCircle
 10
7.6623430566
 20
7.3678536943
 30
0.0
 40
0.0162197028107023
100
AcDbArc
 50
51.5582275904
 51
119.8627654914
  0
LINE
  5
2F7
330
1F
100
AcDbEntity
  8
0
  6
Continuous
 62
     7
370
     0
100
AcDbLine
 10
7.654266873
 20
7.3819197533
 30
0.0
 11
7.6517529706
 21
7.3804685084
 31
0.0
  0
ARC
  5
2F8
330
1F
100
AcDbEntity
  8
0
  6
Continuous
 62
     7
370
     0
100
AcDbCircle
 10
7.2267309864
 20
6.743318949
 30
0.0
 40
0.8764648535378298
100
AcDbArc
 50
43.8664592347
 51
44.5131768413
  0
SPLINE
  5
2F9
330
1F
100
AcDbEntity
  8
0
  6
Continuous
 62
     7
370
     0
100
AcDbSpline
210
0.0
220
0.0
230
1.0
 70
    24
 71
     1
 72
     4
 73
     2
 74
     0
 42
0.00000001
 43
0.00000001
 40
0.0
 40
0.0
 40
1.0
 40
1.0
 10
7.851728638934336
 20
7.357785037439709
 30
0.0
 10
7.846594548945646
 20
7.361730961973609
 30
0.0
  0
ARC
  5
2FA
330
1F
100
AcDbEntity
  8
0
  6
Continuous
 62
     7
370
     0
100
AcDbCircle
 10
7.8415876064
 20
7.3551075503
 30
0.0
 40
0.0083029546149694
100
AcDbArc
 50
52.9126826705
 51
117.0694892432
  0
SPLINE
  5
2FB
330
1F
100
AcDbEntity
  8
0
  6
Continuous
 62
     7
370
     0
100
AcDbSpline
210
0.0
220
0.0
230
1.0
 70
     8
 71
     3
 72
    13
 73
     9
 74
     0
 42
0.00000001
 43
0.00000001
 40
0.0
 40
0.0
 40
0.0
 40
0.0
 40
0.1252323796024027
 40
0.2501692759913907
 40
0.3766784429435829
 40
0.4998070571087935
 40
0.7494738685102545
 40
1.0
 40
1.0
 40
1.0
 40
1.0
 10
7.837809174260551
 20
7.362500959967516
 30
0.0
 10
7.837350036257353
 20
7.362200143208774
 30
0.0
 10
7.836432843577595
 20
7.361599219462221
 30
0.0
 10
7.83549575062233
 20
7.360353077628968
 30
0.0
 10
7.835094342830404
 20
7.358872696502662
 30
0.0
 10
7.835530773117699
 20
7.356726012683783
 30
0.0
 10
7.837279740298295
 20
7.354184781540321
 30
0.0
 10
7.839019638760041
 20
7.352338038880818
 30
0.0
 10
7.839891082543887
 20
7.351413081220143
 30
0.0
  0
ARC
  5
2FC
330
1F
100
AcDbEntity
  8
0
  6
Continuous
 62
     7
370
     0
100
AcDbCircle
 10
7.2153732426
 20
6.7368366685
 30
0.0
 40
0.8762001480696935
100
AcDbArc
 50
43.8663927289
 51
44.5403177794
  0
LINE
  5
2FD
330
1F
100
AcDbEntity
  8
0
  6
Continuous
 62
     7
370
     0
100
AcDbLine
 10
7.8470764929
 20
7.3440250273
 30
0.0
 11
7.8586243732
 21
7.3506914766
 31
0.0
  0
SPLINE
  5
2FE
330
1F
100
AcDbEntity
  8
0
  6
Continuous
 62
     7
370
     0
100
AcDbSpline
210
0.0
220
0.0
230
1.0
 70
    24
 71
     1
 72
     4
 73
     2
 74
     0
 42
0.00000001
 43
0.00000001
 40
0.0
 40
0.0
 40
1.0
 40
1.0
 10
7.760444780326978
 20
7.428476812110253
 30
0.0
 10
7.793258311884178
 20
7.427091466639987
 30
0.0
  0
ARC
  5
2FF
330
1F
100
AcDbEntity
  8
0
  6
Continuous
 62
     7
370
     0
100
AcDbCircle
 10
7.3436318919
 20
6.8677164429
 30
0.0
 40
0.7176798274410494
100
AcDbArc
 50
51.2076308229
 51
52.7232228752
  0
LINE
  5
300
330
1F
100
AcDbEntity
  8
0
  6
Continuous
 62
     7
370
     0
100
AcDbLine
 10
7.778306114
 20
7.4387879405
 30
0.0
 11
7.7604447803
 21
7.4284768121
 31
0.0
  0
SPLINE
  5
301
330
1F
100
AcDbEntity
  8
0
  6
Continuous
 62
     7
370
     0
100
AcDbSpline
210
0.0
220
0.0
230
1.0
 70
     8
 71
     3
 72
    14
 73
    10
 74
     0
 42
0.00000001
 43
0.00000001
 40
0.0
 40
0.0
 40
0.0
 40
0.0
 40
0.5001598129720783
 40
0.6334839770252112
 40
0.754700849288637
 40
0.8160823888839094
 40
0.874446657212122
 40
0.9383930382640883
 40
1.0
 40
1.0
 40
1.0
 40
1.0
 10
7.731400865870181
 20
7.464438752004561
 30
0.0
 10
7.73508751597778
 20
7.466618694385731
 30
0.0
 10
7.739756891068483
 20
7.469379729026044
 30
0.0
 10
7.743893173085608
 20
7.473389914564291
 30
0.0
 10
7.744939213432715
 20
7.475299796013684
 30
0.0
 10
7.745132373207746
 20
7.47683616197832
 30
0.0
 10
7.744810965180096
 20
7.478005762104324
 30
0.0
 10
7.744039008545398
 20
7.479117106329517
 30
0.0
 10
7.743160278975803
 20
7.479734560352702
 30
0.0
 10
7.742729100818631
 20
7.480037534893524
 30
0.0
  0
SPLINE
  5
302
330
1F
100
AcDbEntity
  8
0
  6
Continuous
 62
     7
370
     0
100
AcDbSpline
210
0.0
220
0.0
230
1.0
 70
     8
 71
     3
 72
    14
 73
    10
 74
     0
 42
0.00000001
 43
0.00000001
 40
0.0
 40
0.0
 40
0.0
 40
0.0
 40
0.0625270621852606
 40
0.1249759676500018
 40
0.1874784178567637
 40
0.2499337956407948
 40
0.3634906992456948
 40
0.4998436771422138
 40
1.0
 40
1.0
 40
1.0
 40
1.0
 10
7.742729100818631
 20
7.480037534893524
 30
0.0
 10
7.742244802149435
 20
7.480310765625008
 30
0.0
 10
7.741276810168057
 20
7.480856885558769
 30
0.0
 10
7.739478499687285
 20
7.48137781525761
 30
0.0
 10
7.737567553254296
 20
7.481661480295342
 30
0.0
 10
7.735074712021198
 20
7.481677301907635
 30
0.0
 10
7.731932542958506
 20
7.481164171480611
 30
0.0
 10
7.725141896841118
 20
7.478975695878539
 30
0.0
 10
7.720452669718767
 20
7.476253011710695
 30
0.0
 10
7.716767968502647
 20
7.474113580754889
 30
0.0
  0
SPLINE
  5
303
330
1F
100
AcDbEntity
  8
0
  6
Continuous
 62
     7
370
     0
100
AcDbSpline
210
0.0
220
0.0
230
1.0
 70
     8
 71
     3
 72
    14
 73
    10
 74
     0
 42
0.00000001
 43
0.00000001
 40
0.0
 40
0.0
 40
0.0
 40
0.0
 40
0.5003034315361866
 40
0.6254176539425813
 40
0.750140173868832
 40
0.8143424488237011
 40
0.8750383566947305
 40
0.9374874297319881
 40
1.0
 40
1.0
 40
1.0
 40
1.0
 10
7.716767968502647
 20
7.474113580754889
 30
0.0
 10
7.712998154603114
 20
7.471887581018451
 30
0.0
 10
7.708285598149909
 20
7.469104910652659
 30
0.0
 10
7.703982215716115
 20
7.465122684531328
 30
0.0
 10
7.702880263874317
 20
7.463214619782863
 30
0.0
 10
7.702751141148735
 20
7.4616107718554
 30
0.0
 10
7.703133269437168
 20
7.460415611301372
 30
0.0
 10
7.703972200341496
 20
7.459295859320535
 30
0.0
 10
7.704877537563394
 20
7.458675331952876
 30
0.0
 10
7.705330436190551
 20
7.458364910613591
 30
0.0
  0
SPLINE
  5
304
330
1F
100
AcDbEntity
  8
0
  6
Continuous
 62
     7
370
     0
100
AcDbSpline
210
0.0
220
0.0
230
1.0
 70
     8
 71
     3
 72
    14
 73
    10
 74
     0
 42
0.00000001
 43
0.00000001
 40
0.0
 40
0.0
 40
0.0
 40
0.0
 40
0.0625005409549638
 40
0.1249727346346955
 40
0.1854844482481018
 40
0.2498740647269589
 40
0.3606505595067007
 40
0.4996888686474958
 40
1.0
 40
1.0
 40
1.0
 40
1.0
 10
7.705330436190551
 20
7.458364910613591
 30
0.0
 10
7.705816904450267
 20
7.458086664184813
 30
0.0
 10
7.706789620330812
 20
7.457530297526614
 30
0.0
 10
7.708571217508456
 20
7.456971651275469
 30
0.0
 10
7.710512560099916
 20
7.456681873778333
 30
0.0
 10
7.713000423078642
 20
7.456695427288182
 30
0.0
 10
7.71614678119764
 20
7.457267737717709
 30
0.0
 10
7.722846590663339
 20
7.459588239486075
 30
0.0
 10
7.727645538001196
 20
7.462309376411763
 30
0.0
 10
7.731400865870181
 20
7.464438752004561
 30
0.0
  0
SPLINE
  5
305
330
1F
100
AcDbEntity
  8
0
  6
Continuous
 62
     7
370
     0
100
AcDbSpline
210
0.0
220
0.0
230
1.0
 70
     8
 71
     3
 72
    14
 73
    10
 74
     0
 42
0.00000001
 43
0.00000001
 40
0.0
 40
0.0
 40
0.0
 40
0.0
 40
0.500159812972095
 40
0.6334839770287616
 40
0.754700849290127
 40
0.8160823888851604
 40
0.8744466572138193
 40
0.9383930382637559
 40
1.0
 40
1.0
 40
1.0
 40
1.0
 10
7.678539986312876
 20
7.494819698555886
 30
0.0
 10
7.682226607548778
 20
7.496993613024112
 30
0.0
 10
7.686895946071679
 20
7.499747012932171
 30
0.0
 10
7.691032940124344
 20
7.503565400712009
 30
0.0
 10
7.692079865752759
 20
7.505320384961063
 30
0.0
 10
7.692274436259535
 20
7.506687048434173
 30
0.0
 10
7.691954711581872
 20
7.507694703448315
 30
0.0
 10
7.691185112718858
 20
7.508619305416991
 30
0.0
 10
7.690308579951388
 20
7.50910107267524
 30
0.0
 10
7.689878479728903
 20
7.509337467950636
 30
0.0
  0
ARC
  5
306
330
1F
100
AcDbEntity
  8
0
  6
Continuous
 62
     7
370
     0
100
AcDbCircle
 10
7.6833818243
 20
7.4819607656
 30
0.0
 40
0.0281369928514538
100
AcDbArc
 50
76.6503044138
 51
133.6940227288
  0
SPLINE
  5
307
330
1F
100
AcDbEntity
  8
0
  6
Continuous
 62
     7
370
     0
100
AcDbSpline
210
0.0
220
0.0
230
1.0
 70
     8
 71
     3
 72
    14
 73
    10
 74
     0
 42
0.00000001
 43
0.00000001
 40
0.0
 40
0.0
 40
0.0
 40
0.0
 40
0.5003034315361717
 40
0.6254176539425617
 40
0.7501401738688118
 40
0.8143424488243248
 40
0.8750383566947331
 40
0.9374874297319888
 40
1.0
 40
1.0
 40
1.0
 40
1.0
 10
7.663944593047223
 20
7.502304914828718
 30
0.0
 10
7.660174541954274
 20
7.500085138376358
 30
0.0
 10
7.655461688991113
 20
7.49731024759288
 30
0.0
 10
7.651152683537897
 20
7.493513037316004
 30
0.0
 10
7.650046243694563
 20
7.491761614900745
 30
0.0
 10
7.649912269198355
 20
7.490345238195854
 30
0.0
 10
7.650290311437765
 20
7.489322982074161
 30
0.0
 10
7.651125081366185
 20
7.48839838305723
 30
0.0
 10
7.652027971314377
 20
7.48791610867127
 30
0.0
 10
7.652479645682909
 20
7.487674848948338
 30
0.0
  0
ARC
  5
308
330
1F
100
AcDbEntity
  8
0
  6
Continuous
 62
     7
370
     0
100
AcDbCircle
 10
7.6589968518
 20
7.5150028564
 30
0.0
 40
0.0280943760400158
100
AcDbArc
 50
256.5865960301
 51
314.0769976222
  0
ARC
  5
309
330
1F
100
AcDbEntity
  8
0
  6
Continuous
 62
     7
370
     0
100
AcDbCircle
 10
7.4562428664
 20
7.4805775184
 30
0.0
 40
0.020250079418248
100
AcDbArc
 50
260.8049979501
 51
285.6896823424
  0
ARC
  5
30A
330
1F
100
AcDbEntity
  8
0
  6
Continuous
 62
     7
370
     0
100
AcDbCircle
 10
7.4526593391
 20
7.4954061939
 30
0.0
 40
0.0354997464222507
100
AcDbArc
 50
284.785706615
 51
297.4042225073
  0
ARC
  5
30B
330
1F
100
AcDbEntity
  8
0
  6
Continuous
 62
     7
370
     0
100
AcDbCircle
 10
7.3936824672
 20
7.1351590058
 30
0.0
 40
0.3372487337011802
100
AcDbArc
 50
77.0955814571
 51
79.6599771264
  0
SPLINE
  5
30C
330
1F
100
AcDbEntity
  8
0
  6
Continuous
 62
     7
370
     0
100
AcDbSpline
210
0.0
220
0.0
230
1.0
 70
     8
 71
     3
 72
    13
 73
     9
 74
     0
 42
0.00000001
 43
0.00000001
 40
0.0
 40
0.0
 40
0.0
 40
0.0
 40
0.2503831206488254
 40
0.4995031561261242
 40
0.6232338939590539
 40
0.7495671229801691
 40
0.8746833959388737
 40
0.9999999999999999
 40
0.9999999999999999
 40
0.9999999999999999
 40
0.9999999999999999
 10
7.454215055392108
 20
7.466930785992354
 30
0.0
 10
7.453290048246337
 20
7.466291355838441
 30
0.0
 10
7.451444700255008
 20
7.4650157212063
 30
0.0
 10
7.449990306120656
 20
7.463366713516947
 30
0.0
 10
7.449954761353698
 20
7.462216769740771
 30
0.0
 10
7.450504766905803
 20
7.461497934339571
 30
0.0
 10
7.451544264676887
 20
7.460942729308697
 30
0.0
 10
7.4525191638284
 20
7.460706071716929
 30
0.0
 10
7.453007003334234
 20
7.460587648265191
 30
0.0
  0
SPLINE
  5
30D
330
1F
100
AcDbEntity
  8
0
  6
Continuous
 62
     7
370
     0
100
AcDbSpline
210
0.0
220
0.0
230
1.0
 70
     8
 71
     3
 72
    13
 73
     9
 74
     0
 42
0.00000001
 43
0.00000001
 40
0.0
 40
0.0
 40
0.0
 40
0.0
 40
0.2502837930806691
 40
0.4996335298263341
 40
0.626205589491097
 40
0.7498197801867431
 40
0.8748231480904015
 40
0.9999999999999999
 40
0.9999999999999999
 40
0.9999999999999999
 40
0.9999999999999999
 10
7.410808314617078
 20
7.47381476182446
 30
0.0
 10
7.409718602190727
 20
7.473161195157434
 30
0.0
 10
7.407543244132697
 20
7.471856500926923
 30
0.0
 10
7.405661841157124
 20
7.47025212476284
 30
0.0
 10
7.405221527280442
 20
7.469203633565621
 30
0.0
 10
7.405496758062737
 20
7.4685950775301
 30
0.0
 10
7.406305967652679
 20
7.468177709504308
 30
0.0
 10
7.407269317676276
 20
7.468095762608852
 30
0.0
 10
7.407751326698936
 20
7.468054760748656
 30
0.0
  0
ARC
  5
30E
330
1F
100
AcDbEntity
  8
0
  6
Continuous
 62
     7
370
     0
100
AcDbCircle
 10
7.4056563106
 20
7.5000363597
 30
0.0
 40
0.0320501445106748
100
AcDbArc
 50
273.7479153137
 51
304.0298932911
  0
SPLINE
  5
30F
330
1F
100
AcDbEntity
  8
0
  6
Continuous
 62
     7
370
     0
100
AcDbSpline
210
0.0
220
0.0
230
1.0
 70
     8
 71
     3
 72
    13
 73
     9
 74
     0
 42
0.00000001
 43
0.00000001
 40
0.0
 40
0.0
 40
0.0
 40
0.0
 40
0.2503895108601816
 40
0.4999174635818214
 40
0.6260458464209019
 40
0.7500378636044218
 40
0.8749142295200207
 40
1.0
 40
1.0
 40
1.0
 40
1.0
 10
7.423592384457625
 20
7.473474939968362
 30
0.0
 10
7.424664824390649
 20
7.474113860998207
 30
0.0
 10
7.42680601412867
 20
7.475389504612714
 30
0.0
 10
7.428772101911449
 20
7.476998713918737
 30
0.0
 10
7.429410511590222
 20
7.478116911879381
 30
0.0
 10
7.429303504614994
 20
7.478796506650639
 30
0.0
 10
7.428639895433376
 20
7.479284457590246
 30
0.0
 10
7.427713000302384
 20
7.479375293144297
 30
0.0
 10
7.427249164485943
 20
7.479420748969844
 30
0.0
  0
ARC
  5
310
330
1F
100
AcDbEntity
  8
0
  6
Continuous
 62
     7
370
     0
100
AcDbCircle
 10
7.4293903484
 20
7.4462299485
 30
0.0
 40
0.0332597941295494
100
AcDbArc
 50
93.6911142225
 51
123.9654987818
  0
SPLINE
  5
311
330
1F
100
AcDbEntity
  8
0
  6
Continuous
 62
     7
370
     0
100
AcDbSpline
210
0.0
220
0.0
230
1.0
 70
     8
 71
     3
 72
    14
 73
    10
 74
     0
 42
0.00000001
 43
0.00000001
 40
0.0
 40
0.0
 40
0.0
 40
0.0
 40
0.5001598129720427
 40
0.6334839770240975
 40
0.7547008492860818
 40
0.8160823888817396
 40
0.8744466572138897
 40
0.9383930382646657
 40
1.0
 40
1.0
 40
1.0
 40
1.0
 10
7.550022175247088
 20
7.535763340208885
 30
0.0
 10
7.553711549200528
 20
7.537920944515495
 30
0.0
 10
7.558384374213932
 20
7.540653686574224
 30
0.0
 10
7.562612481870493
 20
7.543954382563273
 30
0.0
 10
7.563733662467403
 20
7.545291516819254
 30
0.0
 10
7.564010538786784
 20
7.546200734758343
 30
0.0
 10
7.563770086690139
 20
7.546772117228698
 30
0.0
 10
7.56309279985808
 20
7.547193968641309
 30
0.0
 10
7.562284386982207
 20
7.547310814244686
 30
0.0
 10
7.561887712070929
 20
7.547368148461812
 30
0.0
  0
ARC
  5
312
330
1F
100
AcDbEntity
  8
0
  6
Continuous
 62
     7
370
     0
100
AcDbCircle
 10
7.5657708333
 20
7.5003974462
 30
0.0
 40
0.0471309399560243
100
AcDbArc
 50
94.7259600901
 51
128.345824716
  0
SPLINE
  5
313
330
1F
100
AcDbEntity
  8
0
  6
Continuous
 62
     7
370
     0
100
AcDbSpline
210
0.0
220
0.0
230
1.0
 70
     8
 71
     3
 72
    14
 73
    10
 74
     0
 42
0.00000001
 43
0.00000001
 40
0.0
 40
0.0
 40
0.0
 40
0.0
 40
0.5003034315361645
 40
0.6254176539425544
 40
0.7501401738688037
 40
0.814342448825413
 40
0.8750383566947355
 40
0.9374874297319882
 40
1.0
 40
1.0
 40
1.0
 40
1.0
 10
7.536530492210588
 20
7.537361319831438
 30
0.0
 10
7.532757021703185
 20
7.53515817433651
 30
0.0
 10
7.528039894209747
 20
7.532404073525127
 30
0.0
 10
7.523632320809805
 20
7.529102407286612
 30
0.0
 10
7.522443018901079
 20
7.527770745925601
 30
0.0
 10
7.522210997827455
 20
7.526857148141246
 30
0.0
 10
7.522499452615193
 20
7.526298906866814
 30
0.0
 10
7.523234082505128
 20
7.525898380891921
 30
0.0
 10
7.52406711235618
 20
7.525787767224617
 30
0.0
 10
7.524483838927004
 20
7.525732432287695
 30
0.0
  0
ARC
  5
314
330
1F
100
AcDbEntity
  8
0
  6
Continuous
 62
     7
370
     0
100
AcDbCircle
 10
7.520940899
 20
7.5722779358
 30
0.0
 40
0.0466801490927394
100
AcDbArc
 50
274.3528332862
 51
308.534826371
  0
ARC
  5
315
330
1F
100
AcDbEntity
  8
0
  6
Continuous
 62
     7
370
     0
100
AcDbCircle
 10
7.3885899901
 20
7.2502237231
 30
0.0
 40
0.2164145925145993
100
AcDbArc
 50
103.4382718716
 51
104.3936033831
  0
ARC
  5
316
330
1F
100
AcDbEntity
  8
0
  6
Continuous
 62
     7
370
     0
100
AcDbCircle
 10
7.3489796579
 20
7.4062857283
 30
0.0
 40
0.0554064711503623
100
AcDbArc
 50
104.835339913
 51
120.1771301802
  0
SPLINE
  5
317
330
1F
100
AcDbEntity
  8
0
  6
Continuous
 62
     7
370
     0
100
AcDbSpline
210
0.0
220
0.0
230
1.0
 70
     8
 71
     3
 72
    13
 73
     9
 74
     0
 42
0.00000001
 43
0.00000001
 40
0.0
 40
0.0
 40
0.0
 40
0.0
 40
0.129714878471376
 40
0.2501166036100168
 40
0.3795473458239679
 40
0.5003189319528712
 40
0.7495371040294581
 40
1.0
 40
1.0
 40
1.0
 40
1.0
 10
7.321128213996547
 20
7.454183265984794
 30
0.0
 10
7.320628337402695
 20
7.453887769188211
 30
0.0
 10
7.319664473909534
 20
7.453317991410907
 30
0.0
 10
7.318629343152766
 20
7.452601430119269
 30
0.0
 10
7.317995875866415
 20
7.452051930512126
 30
0.0
 10
7.317900684192743
 20
7.451636660455559
 30
0.0
 10
7.319213520658385
 20
7.451798497806634
 30
0.0
 10
7.320771960158328
 20
7.452187820785674
 30
0.0
 10
7.321553120973318
 20
7.452382967184114
 30
0.0
  0
ARC
  5
318
330
1F
100
AcDbEntity
  8
0
  6
Continuous
 62
     7
370
     0
100
AcDbCircle
 10
7.3758782652
 20
7.2430664458
 30
0.0
 40
0.2162513061922563
100
AcDbArc
 50
103.4380117796
 51
104.5493041979
  0
LINE
  5
319
330
1F
100
AcDbEntity
  8
0
  6
Continuous
 62
     7
370
     0
100
AcDbLine
 10
7.3256229274
 20
7.4533972054
 30
0.0
 11
7.3382957502
 21
7.4607130703
 31
0.0
  0
SPLINE
  5
31A
330
1F
100
AcDbEntity
  8
0
  6
Continuous
 62
     7
370
     0
100
AcDbSpline
210
0.0
220
0.0
230
1.0
 70
     8
 71
     3
 72
    14
 73
    10
 74
     0
 42
0.00000001
 43
0.00000001
 40
0.0
 40
0.0
 40
0.0
 40
0.0
 40
0.5001598129721285
 40
0.6334839770291598
 40
0.7547008492891045
 40
0.8160823888843081
 40
0.8744466572136068
 40
0.9383930382649524
 40
0.9999999999999999
 40
0.9999999999999999
 40
0.9999999999999999
 40
0.9999999999999999
 10
7.50216405487217
 20
7.537469795447828
 30
0.0
 10
7.505855614993252
 20
7.539620645445564
 30
0.0
 10
7.510531208926018
 20
7.542344832745744
 30
0.0
 10
7.514830009988914
 20
7.545431613082757
 30
0.0
 10
7.516008498687019
 20
7.546596176827975
 30
0.0
 10
7.516348467078369
 20
7.54731659864791
 30
0.0
 10
7.516168457301388
 20
7.547708020824574
 30
0.0
 10
7.515561157342865
 20
7.547922610481306
 30
0.0
 10
7.514803933007344
 20
7.54788915490889
 30
0.0
 10
7.514432375471497
 20
7.547872738809374
 30
0.0
  0
ARC
  5
31B
330
1F
100
AcDbEntity
  8
0
  6
Continuous
 62
     7
370
     0
100
AcDbCircle
 10
7.5293364323
 20
7.4814867817
 30
0.0
 40
0.0680384171592673
100
AcDbArc
 50
102.6534495542
 51
125.8384214859
  0
SPLINE
  5
31C
330
1F
100
AcDbEntity
  8
0
  6
Continuous
 62
     7
370
     0
100
AcDbSpline
210
0.0
220
0.0
230
1.0
 70
     8
 71
     3
 72
    14
 73
    10
 74
     0
 42
0.00000001
 43
0.00000001
 40
0.0
 40
0.0
 40
0.0
 40
0.0
 40
0.5003034315361655
 40
0.6254176539425537
 40
0.7501401738688038
 40
0.8143424488254034
 40
0.8750383566947347
 40
0.9374874297319828
 40
0.9999999999999999
 40
0.9999999999999999
 40
0.9999999999999999
 40
0.9999999999999999
 10
7.489499841931321
 20
7.536643578902493
 30
0.0
 10
7.485723928833099
 20
7.534447243751953
 30
0.0
 10
7.481003747913831
 20
7.53170165639329
 30
0.0
 10
7.476524550146834
 20
7.528603330597686
 30
0.0
 10
7.475274797502448
 20
7.527443992307128
 30
0.0
 10
7.474970789408443
 20
7.526736949541726
 30
0.0
 10
7.475193120844166
 20
7.526369450795505
 30
0.0
 10
7.475853432280222
 20
7.52618448623355
 30
0.0
 10
7.476634160268961
 20
7.526226888908129
 30
0.0
 10
7.477024722620459
 20
7.526248101018534
 30
0.0
  0
ARC
  5
31D
330
1F
100
AcDbEntity
  8
0
  6
Continuous
 62
     7
370
     0
100
AcDbCircle
 10
7.4629910405
 20
7.5914569362
 30
0.0
 40
0.0667018471707155
100
AcDbArc
 50
282.1454546274
 51
305.9646005805
  0
ARC
  5
31E
330
1F
100
AcDbEntity
  8
0
  6
Continuous
 62
     7
370
     0
100
AcDbCircle
 10
7.8754456465
 20
7.0879896439
 30
0.0
 40
0.9039342250026019
100
AcDbArc
 50
2.5138373947
 51
57.4807860726
  0
SPLINE
  5
31F
330
1F
100
AcDbEntity
  8
0
  6
Continuous
 62
     7
370
     0
100
AcDbSpline
210
0.0
220
0.0
230
1.0
 70
     8
 71
     3
 72
     9
 73
     5
 74
     0
 42
0.00000001
 43
0.00000001
 40
0.0
 40
0.0
 40
0.0
 40
0.0
 40
0.4999994477952355
 40
1.0
 40
1.0
 40
1.0
 40
1.0
 10
7.300080276859155
 20
7.448584403379748
 30
0.0
 10
7.301263382765764
 20
7.449240732355645
 30
0.0
 10
7.303629597192254
 20
7.450553391757152
 30
0.0
 10
7.305896823403918
 20
7.451763094103
 30
0.0
 10
7.307030437761723
 20
7.452367945943927
 30
0.0
  0
SPLINE
  5
320
330
1F
100
AcDbEntity
  8
0
  6
Continuous
 62
     7
370
     0
100
AcDbSpline
210
0.0
220
0.0
230
1.0
 70
     8
 71
     3
 72
    10
 73
     6
 74
     0
 42
0.00000001
 43
0.00000001
 40
0.0
 40
0.0
 40
0.0
 40
0.0
 40
0.2507716101116209
 40
0.5014964000564424
 40
1.0
 40
1.0
 40
1.0
 40
1.0
 10
7.307030437761722
 20
7.452367945943926
 30
0.0
 10
7.307565067517913
 20
7.452650705150162
 30
0.0
 10
7.308634227212558
 20
7.453216170770238
 30
0.0
 10
7.310837282488569
 20
7.454369656001372
 30
0.0
 10
7.312735117396414
 20
7.455369323017041
 30
0.0
 10
7.313997853227607
 20
7.456034457457729
 30
0.0
  0
ARC
  5
321
330
1F
100
AcDbEntity
  8
0
  6
Continuous
 62
     7
370
     0
100
AcDbCircle
 10
7.2496327025
 20
7.5771046743
 30
0.0
 40
0.1371162646853796
100
AcDbArc
 50
297.9966700324
 51
299.8482968938
  0
SPLINE
  5
322
330
1F
100
AcDbEntity
  8
0
  6
Continuous
 62
     7
370
     0
100
AcDbSpline
210
0.0
220
0.0
230
1.0
 70
     8
 71
     3
 72
    13
 73
     9
 74
     0
 42
0.00000001
 43
0.00000001
 40
0.0
 40
0.0
 40
0.0
 40
0.0
 40
0.2485845284624661
 40
0.3735388535805755
 40
0.496797208231777
 40
0.6212572301527108
 40
0.7502093099461392
 40
1.0
 40
1.0
 40
1.0
 40
1.0
 10
7.317876188471444
 20
7.458177399643501
 30
0.0
 10
7.318458657879026
 20
7.458518485374318
 30
0.0
 10
7.319333913294558
 20
7.45903102239201
 30
0.0
 10
7.319867001187827
 20
7.459390035914919
 30
0.0
 10
7.320017464827457
 20
7.459524614470384
 30
0.0
 10
7.319892332325155
 20
7.459507852404097
 30
0.0
 10
7.319422847494382
 20
7.459314368031112
 30
0.0
 10
7.318769137049276
 20
7.458991645711734
 30
0.0
 10
7.318337998038374
 20
7.458778801963231
 30
0.0
  0
ARC
  5
323
330
1F
100
AcDbEntity
  8
0
  6
Continuous
 62
     7
370
     0
100
AcDbCircle
 10
7.4995871289
 20
7.1138564907
 30
0.0
 40
0.3896442585645917
100
AcDbArc
 50
117.7209441719
 51
120.3692830899
  0
LINE
  5
324
330
1F
100
AcDbEntity
  8
0
  6
Continuous
 62
     7
370
     0
100
AcDbLine
 10
7.3025941792
 20
7.4500356483
 30
0.0
 11
7.3000802769
 21
7.4485844034
 31
0.0
  0
SPLINE
  5
325
330
1F
100
AcDbEntity
  8
0
  6
Continuous
 62
     7
370
     0
100
AcDbSpline
210
0.0
220
0.0
230
1.0
 70
     8
 71
     3
 72
    14
 73
    10
 74
     0
 42
0.00000001
 43
0.00000001
 40
0.0
 40
0.0
 40
0.0
 40
0.0
 40
0.5001598129720078
 40
0.6334839770296175
 40
0.7547008492956755
 40
0.81608238888983
 40
0.8744466572215057
 40
0.9383930382654692
 40
1.0
 40
1.0
 40
1.0
 40
1.0
 10
8.253554338903133
 20
7.821589330554225
 30
0.0
 10
8.257240935941441
 20
7.823763804326293
 30
0.0
 10
8.26191024381657
 20
7.826517912627978
 30
0.0
 10
8.266046325046052
 20
7.830354084436888
 30
0.0
 10
8.267092486285696
 20
7.832123428898483
 30
0.0
 10
8.267286180711789
 20
7.83350582189546
 30
0.0
 10
8.266965590459542
 20
7.834528484919719
 30
0.0
 10
8.266194956971894
 20
7.835470389855852
 30
0.0
 10
8.265317630064676
 20
7.83596472586127
 30
0.0
 10
8.264887140170853
 20
7.836207288414331
 30
0.0
  0
ARC
  5
326
330
1F
100
AcDbEntity
  8
0
  6
Continuous
 62
     7
370
     0
100
AcDbCircle
 10
8.2581916333
 20
7.8092524445
 30
0.0
 40
0.027773970202075
100
AcDbArc
 50
76.0502225727
 51
133.8632539223
  0
SPLINE
  5
327
330
1F
100
AcDbEntity
  8
0
  6
Continuous
 62
     7
370
     0
100
AcDbSpline
210
0.0
220
0.0
230
1.0
 70
     8
 71
     3
 72
    14
 73
    10
 74
     0
 42
0.00000001
 43
0.00000001
 40
0.0
 40
0.0
 40
0.0
 40
0.0
 40
0.5003034315360224
 40
0.6254176539423664
 40
0.7501401738685786
 40
0.8143424488270923
 40
0.875038356694773
 40
0.9374874297320077
 40
0.9999999999999999
 40
0.9999999999999999
 40
0.9999999999999999
 40
0.9999999999999999
 10
8.238945950426812
 20
7.829277356778976
 30
0.0
 10
8.235175947713245
 20
7.82705700486835
 30
0.0
 10
8.23046315522802
 20
7.824281394717914
 30
0.0
 10
8.226155462881104
 20
7.820467065729803
 30
0.0
 10
8.225050110874
 20
7.818701147865624
 30
0.0
 10
8.224917392785889
 20
7.817267419012794
 30
0.0
 10
8.225296559743914
 20
7.816229156157809
 30
0.0
 10
8.226132559606208
 20
7.815286487404316
 30
0.0
 10
8.22703627702181
 20
7.814791408104955
 30
0.0
 10
8.22748836533428
 20
7.814543742672018
 30
0.0
  0
ARC
  5
328
330
1F
100
AcDbEntity
  8
0
  6
Continuous
 62
     7
370
     0
100
AcDbCircle
 10
8.2341996358
 20
7.841454463
 30
0.0
 40
0.0277349602564981
100
AcDbArc
 50
255.9966439319
 51
314.254362094
  0
ARC
  5
329
330
1F
100
AcDbEntity
  8
0
  6
Continuous
 62
     7
370
     0
100
AcDbCircle
 10
7.6511397629
 20
6.6744034167
 30
0.0
 40
0.2610147706472883
100
AcDbArc
 50
239.8767310586
 51
281.3544074511
  0
SPLINE
  5
32A
330
1F
100
AcDbEntity
  8
0
  6
Continuous
 62
     7
370
     0
100
AcDbSpline
210
0.0
220
0.0
230
1.0
 70
    24
 71
     1
 72
     4
 73
     2
 74
     0
 42
0.00000001
 43
0.00000001
 40
0.0
 40
0.0
 40
1.0
 40
1.0
 10
7.522730061435076
 20
6.445144112072443
 30
0.0
 10
7.520146354860647
 20
6.448639297444141
 30
0.0
  0
ARC
  5
32B
330
1F
100
AcDbEntity
  8
0
  6
Continuous
 62
     7
370
     0
100
AcDbCircle
 10
7.6281680406
 20
6.6623605778
 30
0.0
 40
0.2038639945676528
100
AcDbArc
 50
237.4084907934
 51
303.0047723866
  0
LINE
  5
32C
330
1F
100
AcDbEntity
  8
0
  6
Continuous
 62
     7
370
     0
100
AcDbLine
 10
7.5201463549
 20
6.4486392974
 30
0.0
 11
7.5183575288
 21
6.490598592
 31
0.0
  0
LINE
  5
32D
330
1F
100
AcDbEntity
  8
0
  6
Continuous
 62
     7
370
     0
100
AcDbLine
 10
7.5183575288
 20
6.490598592
 30
0.0
 11
7.5360351983
 21
6.5008036934
 31
0.0
  0
ARC
  5
32E
330
1F
100
AcDbEntity
  8
0
  6
Continuous
 62
     7
370
     0
100
AcDbCircle
 10
7.711556515
 20
6.8519466863
 30
0.0
 40
0.3925673623923366
100
AcDbArc
 50
241.6995232143
 51
243.4414994448
  0
LINE
  5
32F
330
1F
100
AcDbEntity
  8
0
  6
Continuous
 62
     7
370
     0
100
AcDbLine
 10
7.5077644114
 20
6.4960964613
 30
0.0
 11
7.5254420809
 21
6.5063015627
 31
0.0
  0
LWPOLYLINE
  5
330
330
1F
100
AcDbEntity
  8
0
  6
Continuous
 62
     7
370
     0
100
AcDbPolyline
 90
       29
 70
   128
 43
0.0
 10
7.2906810038
 20
7.2683622182
 10
7.2737947224
 20
7.2602494755
 10
7.2545631391
 20
7.2474573888
 10
7.237242522
 20
7.231686651
 10
7.2219693847
 20
7.2130615604
 10
7.2088641034
 20
7.1917289118
 10
7.1980299684
 20
7.1678568398
 10
7.1895523694
 20
7.1416334939
 10
7.1834981233
 20
7.113265555
 10
7.1799149471
 20
7.0829766069
 10
7.1788310817
 20
7.051005374
 10
7.1802550698
 20
7.0176038396
 10
7.184175688
 20
6.9830352602
 10
7.1905620358
 20
6.9475720902
 10
7.1993637788
 20
6.9114938351
 10
7.2105115453
 20
6.8750848479
 10
7.2239174736
 20
6.8386320885
 10
7.239475904
 20
6.8024228617
 10
7.2570642116
 20
6.766742553
 10
7.276543773
 20
6.731872379
 10
7.2977610589
 20
6.6980871713
 10
7.3205488437
 20
6.6656532103
 10
7.344727524
 20
6.6348261264
 10
7.370106534
 20
6.6058488853
 10
7.3964858473
 20
6.5789498729
 10
7.4236575536
 20
6.5543410958
 10
7.4514074973
 20
6.5322165094
 10
7.4795169655
 20
6.5127504904
 10
7.5077644114
 20
6.4960964613
  0
LWPOLYLINE
  5
331
330
1F
100
AcDbEntity
  8
0
  6
Continuous
 62
     7
370
     0
100
AcDbPolyline
 90
       34
 70
   128
 43
0.0
 10
7.2962495573
 20
7.2668612847
 10
7.2933820804
 20
7.2638885335
 10
7.2782142527
 20
7.2452606398
 10
7.2652016285
 20
7.223947733
 10
7.2544460492
 20
7.2001166156
 10
7.2460316918
 20
7.1739537983
 10
7.2400244099
 20
7.1456640407
 10
7.2364712188
 20
7.1154687485
 10
7.235399927
 20
7.0836042408
 10
7.2368189188
 20
7.0503199005
 10
7.2407170887
 20
7.0158762228
 10
7.2470639281
 20
6.9805427761
 10
7.2558097646
 20
6.9445960926
 10
7.2668861499
 20
6.9083175038
 10
7.2802063965
 20
6.8719909388
 10
7.2956662553
 20
6.8359007022
 10
7.313144732
 20
6.8003292492
 10
7.3325050338
 20
6.7655549745
 10
7.35359564
 20
6.731850034
 10
7.3762514881
 20
6.6994782146
 10
7.4002952654
 20
6.6686928696
 10
7.4255387967
 20
6.6397349361
 10
7.4517845171
 20
6.6128310492
 10
7.4788270183
 20
6.5881917683
 10
7.5064546561
 20
6.5660099291
 10
7.5344512067
 20
6.5464591347
 10
7.5625975592
 20
6.5296923965
 10
7.5906734301
 20
6.5158409369
 10
7.6184590878
 20
6.5050131625
 10
7.6457370718
 20
6.4972938152
 10
7.6722938949
 20
6.4927433093
 10
7.6979217139
 20
6.4913972589
 10
7.7224199564
 20
6.4932661985
 10
7.7406995245
 20
6.4969679333
  0
LWPOLYLINE
  5
332
330
1F
100
AcDbEntity
  8
0
  6
Continuous
 62
     7
370
     0
100
AcDbPolyline
 90
       28
 70
   128
 43
0.0
 10
7.2092065337
 20
7.2730469969
 10
7.2012412366
 20
7.2642073961
 10
7.185998107
 20
7.2435253917
 10
7.1729533657
 20
7.2201999214
 10
7.1621992154
 20
7.1943958542
 10
7.1538116686
 20
7.1662955784
 10
7.1478500103
 20
7.1360977123
 10
7.1443563784
 20
7.1040157006
 10
7.1433554669
 20
7.0702763051
 10
7.1448543502
 20
7.0351180026
 10
7.148842434
 20
6.998789299
 10
7.1552915298
 20
6.9615469729
 10
7.1641560539
 20
6.9236542603
 10
7.1753733503
 20
6.8853789944
 10
7.1888641328
 20
6.8469917125
 10
7.2045330459
 20
6.8087637435
 10
7.2222693386
 20
6.7709652903
 10
7.2419476472
 20
6.7338635198
 10
7.2634288817
 20
6.6977206747
 10
7.2865612083
 20
6.6627922199
 10
7.3111811231
 20
6.6293250366
 10
7.3371146078
 20
6.5975556774
 10
7.3641783593
 20
6.5677086946
 10
7.3921810856
 20
6.5399950525
 10
7.4209248578
 20
6.5146106367
 10
7.4502065094
 20
6.4917348692
 10
7.4798190718
 20
6.4715294406
 10
7.5095532374
 20
6.4541371667
  0
SPLINE
  5
333
330
1F
100
AcDbEntity
  8
0
  6
Continuous
 62
     7
370
     0
100
AcDbSpline
210
0.0
220
0.0
230
1.0
 70
    24
 71
     1
 72
     4
 73
     2
 74
     0
 42
0.00000001
 43
0.00000001
 40
0.0
 40
0.0
 40
1.0
 40
1.0
 10
7.509553237416603
 20
6.454137166722298
 30
0.0
 10
7.512136939763855
 20
6.450641975740968
 30
0.0
  0
LINE
  5
334
330
1F
100
AcDbEntity
  8
0
  6
Continuous
 62
     7
370
     0
100
AcDbLine
 10
7.5095532374
 20
6.4541371667
 30
0.0
 11
7.5077644114
 21
6.4960964613
 31
0.0
  0
LINE
  5
335
330
1F
100
AcDbEntity
  8
0
  6
Continuous
 62
     7
370
     0
100
AcDbLine
 10
7.5259252851
 20
6.4949673647
 30
0.0
 11
7.5254420809
 21
6.5063015627
 31
0.0
  0
SPLINE
  5
336
330
1F
100
AcDbEntity
  8
0
  6
Continuous
 62
     7
370
     0
100
AcDbSpline
210
0.0
220
0.0
230
1.0
 70
    24
 71
     1
 72
     4
 73
     2
 74
     0
 42
0.00000001
 43
0.00000001
 40
0.0
 40
0.0
 40
1.0
 40
1.0
 10
7.758767423916792
 20
6.327844646630471
 30
0.0
 10
7.757462571159668
 20
6.327143317585374
 30
0.0
  0
SPLINE
  5
337
330
1F
100
AcDbEntity
  8
0
  6
Continuous
 62
     7
370
     0
100
AcDbSpline
210
0.0
220
0.0
230
1.0
 70
    24
 71
     1
 72
     4
 73
     2
 74
     0
 42
0.00000001
 43
0.00000001
 40
0.0
 40
0.0
 40
1.0
 40
1.0
 10
7.751373234032704
 20
6.323567834505465
 30
0.0
 10
7.758767423916792
 20
6.327844646630471
 30
0.0
  0
SPLINE
  5
338
330
1F
100
AcDbEntity
  8
0
  6
Continuous
 62
     7
370
     0
100
AcDbSpline
210
0.0
220
0.0
230
1.0
 70
     8
 71
     3
 72
     9
 73
     5
 74
     0
 42
0.00000001
 43
0.00000001
 40
0.0
 40
0.0
 40
0.0
 40
0.0
 40
0.9986029666145055
 40
1.0
 40
1.0
 40
1.0
 40
1.0
 10
7.780680934309083
 20
6.34050109947008
 30
0.0
 10
7.783260814081114
 20
6.341969974139777
 30
0.0
 10
7.785844303073518
 20
6.343440903747244
 30
0.0
 10
7.786691175841489
 20
6.343951282003445
 30
0.0
 10
7.78669235895102
 20
6.343951995018907
 30
0.0
  0
SPLINE
  5
339
330
1F
100
AcDbEntity
  8
0
  6
Continuous
 62
     7
370
     0
100
AcDbSpline
210
0.0
220
0.0
230
1.0
 70
    24
 71
     1
 72
     4
 73
     2
 74
     0
 42
0.00000001
 43
0.00000001
 40
0.0
 40
0.0
 40
1.0
 40
1.0
 10
7.777442965232324
 20
6.338687087492367
 30
0.0
 10
7.780680934309083
 20
6.34050109947008
 30
0.0
  0
LWPOLYLINE
  5
33A
330
1F
100
AcDbEntity
  8
0
  6
Continuous
 62
     7
370
     0
100
AcDbPolyline
 90
        3
 70
   128
 43
0.0
 10
7.3157865764
 20
7.4577068964
 10
7.3164403695
 20
7.4580826818
 10
7.3177539922
 20
7.4588278625
  0
SPLINE
  5
33B
330
1F
100
AcDbEntity
  8
0
  6
Continuous
 62
     7
370
     0
100
AcDbSpline
210
0.0
220
0.0
230
1.0
 70
     8
 71
     3
 72
     9
 73
     5
 74
     0
 42
0.00000001
 43
0.00000001
 40
0.0
 40
0.0
 40
0.0
 40
0.0
 40
0.7493907600819202
 40
1.0
 40
1.0
 40
1.0
 40
1.0
 10
7.282940468992511
 20
7.438427415320096
 30
0.0
 10
7.28054316558554
 20
7.43717666843832
 30
0.0
 10
7.277344162429017
 20
7.435507650152532
 30
0.0
 10
7.275458429134094
 20
7.434416997937951
 30
0.0
 10
7.274985846946365
 20
7.43414367041544
 30
0.0
  0
LINE
  5
33C
330
1F
100
AcDbEntity
  8
0
  6
Continuous
 62
     7
370
     0
100
AcDbLine
 10
7.4345254164
 20
7.5262533697
 30
0.0
 11
7.4358969733
 21
7.5270379462
 31
0.0
  0
ARC
  5
33D
330
1F
100
AcDbEntity
  8
0
  6
Continuous
 62
     7
370
     0
100
AcDbCircle
 10
7.8156901289
 20
6.5917532595
 30
0.0
 40
0.2001103745395642
100
AcDbArc
 50
299.9975203801
 51
302.2533552227
  0
ARC
  5
33E
330
1F
100
AcDbEntity
  8
0
  6
Continuous
 62
     7
370
     0
100
AcDbCircle
 10
7.7579252293
 20
6.5584119664
 30
0.0
 40
0.2001152881806759
100
AcDbArc
 50
299.9975480787
 51
302.2533275242
  0
LINE
  5
33F
330
1F
100
AcDbEntity
  8
0
  6
Continuous
 62
     7
370
     0
100
AcDbLine
 10
7.5338662918
 20
4.4076724781
 30
0.0
 11
3.7090066278
 21
4.4076724773
 31
0.0
  0
LINE
  5
340
330
1F
100
AcDbEntity
  8
0
  6
Continuous
 62
     7
370
     0
100
AcDbLine
 10
3.7090066278
 20
4.4076724773
 30
0.0
 11
7.5422306808
 21
4.6981617558
 31
0.0
  0
LINE
  5
341
330
1F
100
AcDbEntity
  8
0
  6
Continuous
 62
     7
370
     0
100
AcDbLine
 10
3.7090066278
 20
4.4076724773
 30
0.0
 11
7.5398700348
 21
4.1615366411
 31
0.0
  0
LINE
  5
342
330
1F
100
AcDbEntity
  8
0
  6
Continuous
 62
     7
370
     0
100
AcDbLine
 10
8.4972316492
 20
4.4076724777
 30
0.0
 11
9.3559145138
 21
4.4076724773
 31
0.0
  0
LINE
  5
343
330
1F
100
AcDbEntity
  8
0
  6
Continuous
 62
     7
370
     0
100
AcDbLine
 10
9.3559145138
 20
4.4076724773
 30
0.0
 11
8.4837732859
 21
4.6981617558
 31
0.0
  0
LINE
  5
344
330
1F
100
AcDbEntity
  8
0
  6
Continuous
 62
     7
370
     0
100
AcDbLine
 10
9.3559145138
 20
4.4076724773
 30
0.0
 11
8.4875751776
 21
4.1615366411
 31
0.0
  0
LINE
  5
345
330
1F
100
AcDbEntity
  8
0
  6
Continuous
 62
     7
370
     0
100
AcDbLine
 10
7.4618061211
 20
3.8076724777
 30
0.0
 11
7.610008735
 21
3.8076724777
 31
0.0
  0
LINE
  5
346
330
1F
100
AcDbEntity
  8
0
  6
Continuous
 62
     7
370
     0
100
AcDbLine
 10
7.6254759429
 20
3.8076724777
 30
0.0
 11
8.6873648681
 21
3.8076724777
 31
0.0
  0
LINE
  5
347
330
1F
100
AcDbEntity
  8
0
  6
Continuous
 62
     7
370
     0
100
AcDbLine
 10
8.6873648681
 20
5.0076724777
 30
0.0
 11
8.5980016325
 21
5.0076724777
 31
0.0
  0
SPLINE
  5
348
330
1F
100
AcDbEntity
  8
0
  6
Continuous
 62
     7
370
     0
100
AcDbSpline
210
0.0
220
0.0
230
1.0
 70
     8
 71
     3
 72
     9
 73
     5
 74
     0
 42
0.00000001
 43
0.00000001
 40
0.0
 40
0.0
 40
0.0
 40
0.0
 40
0.9617205262802443
 40
1.0
 40
1.0
 40
1.0
 40
1.0
 10
8.591894088909786
 20
5.007672038264785
 30
0.0
 10
8.593874202133438
 20
5.007672243613222
 30
0.0
 10
8.595933130033535
 20
5.007672457135167
 30
0.0
 10
8.597925370546855
 20
5.007672476984962
 30
0.0
 10
8.598001632465227
 20
5.007672477744802
 30
0.0
  0
SPLINE
  5
349
330
1F
100
AcDbEntity
  8
0
  6
Continuous
 62
     7
370
     0
100
AcDbSpline
210
0.0
220
0.0
230
1.0
 70
     8
 71
     3
 72
     9
 73
     5
 74
     0
 42
0.00000001
 43
0.00000001
 40
0.0
 40
0.0
 40
0.0
 40
0.0
 40
0.2004604668729399
 40
1.0
 40
1.0
 40
1.0
 40
1.0
 10
8.585988796994046
 20
5.007672477744802
 30
0.0
 10
8.586375299843132
 20
5.007672457616938
 30
0.0
 10
8.588303375014835
 20
5.007672357208798
 30
0.0
 10
8.590298726508285
 20
5.00767217997234
 30
0.0
 10
8.591894088909786
 20
5.007672038264785
 30
0.0
  0
LINE
  5
34A
330
1F
100
AcDbEntity
  8
0
  6
Continuous
 62
     7
370
     0
100
AcDbLine
 10
8.585988797
 20
5.0076724777
 30
0.0
 11
7.8022057608
 21
5.0076724777
 31
0.0
  0
LINE
  5
34B
330
1F
100
AcDbEntity
  8
0
  6
Continuous
 62
     7
370
     0
100
AcDbLine
 10
7.7398281066
 20
5.0076724777
 30
0.0
 11
7.4762016631
 21
5.0076724777
 31
0.0
  0
LINE
  5
34C
330
1F
100
AcDbEntity
  8
0
  6
Continuous
 62
     7
370
     0
100
AcDbLine
 10
7.3936750349
 20
5.0076724777
 30
0.0
 11
7.3300691081
 21
5.0076724777
 31
0.0
  0
LINE
  5
34D
330
1F
100
AcDbEntity
  8
0
  6
Continuous
 62
     7
370
     0
100
AcDbLine
 10
7.3300691081
 20
3.8076724777
 30
0.0
 11
7.3947444328
 21
3.8076724777
 31
0.0
  0
LINE
  5
34E
330
1F
100
AcDbEntity
  8
0
  6
Continuous
 62
     7
370
     0
100
AcDbLine
 10
8.6973648681
 20
3.8176724777
 30
0.0
 11
8.6873648681
 21
3.8076724777
 31
0.0
  0
LINE
  5
34F
330
1F
100
AcDbEntity
  8
0
  6
Continuous
 62
     7
370
     0
100
AcDbLine
 10
8.6873648681
 20
5.0076724777
 30
0.0
 11
8.6973648681
 21
4.9976724777
 31
0.0
  0
LINE
  5
350
330
1F
100
AcDbEntity
  8
0
  6
Continuous
 62
     7
370
     0
100
AcDbLine
 10
7.3200691081
 20
4.9976724777
 30
0.0
 11
7.3300691081
 21
5.0076724777
 31
0.0
  0
LINE
  5
351
330
1F
100
AcDbEntity
  8
0
  6
Continuous
 62
     7
370
     0
100
AcDbLine
 10
7.3300691081
 20
3.8076724777
 30
0.0
 11
7.3200691081
 21
3.8176724777
 31
0.0
  0
LINE
  5
352
330
1F
100
AcDbEntity
  8
0
  6
Continuous
 62
     7
370
     0
100
AcDbLine
 10
8.0823648681
 20
3.8826724777
 30
0.0
 11
8.1023648681
 21
3.8826724777
 31
0.0
  0
LINE
  5
353
330
1F
100
AcDbEntity
  8
0
  6
Continuous
 62
     7
370
     0
100
AcDbLine
 10
8.1023648681
 20
4.9326724777
 30
0.0
 11
8.0823648681
 21
4.9326724777
 31
0.0
  0
LINE
  5
354
330
1F
100
AcDbEntity
  8
0
  6
Continuous
 62
     7
370
     0
100
AcDbLine
 10
7.7287372581
 20
4.9326724777
 30
0.0
 11
7.7487372581
 21
4.9326724777
 31
0.0
  0
LINE
  5
355
330
1F
100
AcDbEntity
  8
0
  6
Continuous
 62
     7
370
     0
100
AcDbLine
 10
7.7487372581
 20
3.8826724777
 30
0.0
 11
7.7287372581
 21
3.8826724777
 31
0.0
  0
LINE
  5
356
330
1F
100
AcDbEntity
  8
0
  6
Continuous
 62
     7
370
     0
100
AcDbLine
 10
8.6973648681
 20
4.9236724777
 30
0.0
 11
8.6800443601
 21
4.9136724777
 31
0.0
  0
LINE
  5
357
330
1F
100
AcDbEntity
  8
0
  6
Continuous
 62
     7
370
     0
100
AcDbLine
 10
8.6800443601
 20
3.9016724777
 30
0.0
 11
8.6973648681
 21
3.8916724777
 31
0.0
  0
LINE
  5
358
330
1F
100
AcDbEntity
  8
0
  6
Continuous
 62
     7
370
     0
100
AcDbLine
 10
8.6800443601
 20
3.9016724777
 30
0.0
 11
8.6800443601
 21
4.9136724777
 31
0.0
  0
LINE
  5
359
330
1F
100
AcDbEntity
  8
0
  6
Continuous
 62
     7
370
     0
100
AcDbLine
 10
8.6973648681
 20
4.9236724777
 30
0.0
 11
8.6973648681
 21
3.8916724777
 31
0.0
  0
LINE
  5
35A
330
1F
100
AcDbEntity
  8
0
  6
Continuous
 62
     7
370
     0
100
AcDbLine
 10
7.3200691081
 20
3.8916724777
 30
0.0
 11
7.3373896162
 21
3.9016724777
 31
0.0
  0
LINE
  5
35B
330
1F
100
AcDbEntity
  8
0
  6
Continuous
 62
     7
370
     0
100
AcDbLine
 10
7.3373896162
 20
4.9136724777
 30
0.0
 11
7.3200691081
 21
4.9236724777
 31
0.0
  0
LINE
  5
35C
330
1F
100
AcDbEntity
  8
0
  6
Continuous
 62
     7
370
     0
100
AcDbLine
 10
7.3373896162
 20
4.9136724777
 30
0.0
 11
7.3373896162
 21
3.9016724777
 31
0.0
  0
LINE
  5
35D
330
1F
100
AcDbEntity
  8
0
  6
Continuous
 62
     7
370
     0
100
AcDbLine
 10
7.3200691081
 20
3.8916724777
 30
0.0
 11
7.3200691081
 21
4.9236724777
 31
0.0
  0
LINE
  5
35E
330
1F
100
AcDbEntity
  8
0
  6
Continuous
 62
     7
370
     0
100
AcDbLine
 10
8.3963648681
 20
3.9016724777
 30
0.0
 11
8.3963648681
 21
3.9076724773
 31
0.0
  0
LINE
  5
35F
330
1F
100
AcDbEntity
  8
0
  6
Continuous
 62
     7
370
     0
100
AcDbLine
 10
8.3963648681
 20
4.9076724773
 30
0.0
 11
8.3963648681
 21
4.9136724777
 31
0.0
  0
LINE
  5
360
330
1F
100
AcDbEntity
  8
0
  6
Continuous
 62
     7
370
     0
100
AcDbLine
 10
8.3963648681
 20
4.9136724777
 30
0.0
 11
8.6800443601
 21
4.9136724777
 31
0.0
  0
LINE
  5
361
330
1F
100
AcDbEntity
  8
0
  6
Continuous
 62
     7
370
     0
100
AcDbLine
 10
8.6800443601
 20
3.9016724777
 30
0.0
 11
8.3963648681
 21
3.9016724777
 31
0.0
  0
LINE
  5
362
330
1F
100
AcDbEntity
  8
0
  6
Continuous
 62
     7
370
     0
100
AcDbLine
 10
8.3952101676
 20
4.9116724777
 30
0.0
 11
8.3952101676
 21
4.9076724773
 31
0.0
  0
LINE
  5
363
330
1F
100
AcDbEntity
  8
0
  6
Continuous
 62
     7
370
     0
100
AcDbLine
 10
8.3952101676
 20
3.9076724773
 30
0.0
 11
8.3952101676
 21
3.9036724777
 31
0.0
  0
LINE
  5
364
330
1F
100
AcDbEntity
  8
0
  6
Continuous
 62
     7
370
     0
100
AcDbLine
 10
8.3952101676
 20
4.9116724777
 30
0.0
 11
8.3963648681
 21
4.9136724777
 31
0.0
  0
LINE
  5
365
330
1F
100
AcDbEntity
  8
0
  6
Continuous
 62
     7
370
     0
100
AcDbLine
 10
8.3963648681
 20
3.9016724777
 30
0.0
 11
8.3952101676
 21
3.9036724777
 31
0.0
  0
LINE
  5
366
330
1F
100
AcDbEntity
  8
0
  6
Continuous
 62
     7
370
     0
100
AcDbLine
 10
7.6222238087
 20
3.9036724777
 30
0.0
 11
7.6222238087
 21
3.9076724773
 31
0.0
  0
LINE
  5
367
330
1F
100
AcDbEntity
  8
0
  6
Continuous
 62
     7
370
     0
100
AcDbLine
 10
7.6222238087
 20
4.9076724773
 30
0.0
 11
7.6222238087
 21
4.9116724777
 31
0.0
  0
LINE
  5
368
330
1F
100
AcDbEntity
  8
0
  6
Continuous
 62
     7
370
     0
100
AcDbLine
 10
7.6222238087
 20
3.9036724777
 30
0.0
 11
7.6210691081
 21
3.9016724777
 31
0.0
  0
LINE
  5
369
330
1F
100
AcDbEntity
  8
0
  6
Continuous
 62
     7
370
     0
100
AcDbLine
 10
7.6210691081
 20
4.9136724777
 30
0.0
 11
7.6210691081
 21
4.9076724773
 31
0.0
  0
LINE
  5
36A
330
1F
100
AcDbEntity
  8
0
  6
Continuous
 62
     7
370
     0
100
AcDbLine
 10
7.6210691081
 20
3.9076724773
 30
0.0
 11
7.6210691081
 21
3.9016724777
 31
0.0
  0
LINE
  5
36B
330
1F
100
AcDbEntity
  8
0
  6
Continuous
 62
     7
370
     0
100
AcDbLine
 10
7.6210691081
 20
4.9136724777
 30
0.0
 11
7.6222238087
 21
4.9116724777
 31
0.0
  0
LINE
  5
36C
330
1F
100
AcDbEntity
  8
0
  6
Continuous
 62
     7
370
     0
100
AcDbLine
 10
7.6210691081
 20
3.9016724777
 30
0.0
 11
7.3373896162
 21
3.9016724777
 31
0.0
  0
LINE
  5
36D
330
1F
100
AcDbEntity
  8
0
  6
Continuous
 62
     7
370
     0
100
AcDbLine
 10
7.3373896162
 20
4.9136724777
 30
0.0
 11
7.6210691081
 21
4.9136724777
 31
0.0
  0
LINE
  5
36E
330
1F
100
AcDbEntity
  8
0
  6
Continuous
 62
     7
370
     0
100
AcDbLine
 10
8.1023648681
 20
3.9036724777
 30
0.0
 11
8.3952101676
 21
3.9036724777
 31
0.0
  0
LINE
  5
36F
330
1F
100
AcDbEntity
  8
0
  6
Continuous
 62
     7
370
     0
100
AcDbLine
 10
8.3952101676
 20
4.9116724777
 30
0.0
 11
8.1023648681
 21
4.9116724777
 31
0.0
  0
LINE
  5
370
330
1F
100
AcDbEntity
  8
0
  6
Continuous
 62
     7
370
     0
100
AcDbLine
 10
8.1023648681
 20
3.9036724777
 30
0.0
 11
8.1023648681
 21
3.925298733
 31
0.0
  0
LINE
  5
371
330
1F
100
AcDbEntity
  8
0
  6
Continuous
 62
     7
370
     0
100
AcDbLine
 10
8.1023648681
 20
4.8900462216
 30
0.0
 11
8.1023648681
 21
4.9116724777
 31
0.0
  0
LINE
  5
372
330
1F
100
AcDbEntity
  8
0
  6
Continuous
 62
     7
370
     0
100
AcDbLine
 10
7.7287372581
 20
4.9116724777
 30
0.0
 11
7.6222238087
 21
4.9116724777
 31
0.0
  0
LINE
  5
373
330
1F
100
AcDbEntity
  8
0
  6
Continuous
 62
     7
370
     0
100
AcDbLine
 10
7.6222238087
 20
3.9036724777
 30
0.0
 11
7.7287372581
 21
3.9036724777
 31
0.0
  0
LINE
  5
374
330
1F
100
AcDbEntity
  8
0
  6
Continuous
 62
     7
370
     0
100
AcDbLine
 10
7.7287372581
 20
4.9116724777
 30
0.0
 11
7.7287372581
 21
4.9076724773
 31
0.0
  0
LINE
  5
375
330
1F
100
AcDbEntity
  8
0
  6
Continuous
 62
     7
370
     0
100
AcDbLine
 10
7.7287372581
 20
3.9076724773
 30
0.0
 11
7.7287372581
 21
3.9036724777
 31
0.0
  0
LINE
  5
376
330
1F
100
AcDbEntity
  8
0
  6
Continuous
 62
     7
370
     0
100
AcDbLine
 10
8.0823648681
 20
4.8586724777
 30
0.0
 11
7.7487372581
 21
4.8586724777
 31
0.0
  0
LINE
  5
377
330
1F
100
AcDbEntity
  8
0
  6
Continuous
 62
     7
370
     0
100
AcDbLine
 10
7.7487372581
 20
3.9566724777
 30
0.0
 11
8.0823648681
 21
3.9566724777
 31
0.0
  0
LINE
  5
378
330
1F
100
AcDbEntity
  8
0
  6
Continuous
 62
     7
370
     0
100
AcDbLine
 10
7.7487372581
 20
4.8586724777
 30
0.0
 11
7.7487372581
 21
4.8560758599
 31
0.0
  0
LINE
  5
379
330
1F
100
AcDbEntity
  8
0
  6
Continuous
 62
     7
370
     0
100
AcDbLine
 10
7.7487372581
 20
3.9592690947
 30
0.0
 11
7.7487372581
 21
3.9566724777
 31
0.0
  0
LINE
  5
37A
330
1F
100
AcDbEntity
  8
0
  6
Continuous
 62
     7
370
     0
100
AcDbLine
 10
7.4098333722
 20
5.0076724777
 30
0.0
 11
7.3936750349
 21
5.0076724777
 31
0.0
  0
LINE
  5
37B
330
1F
100
AcDbEntity
  8
0
  6
Continuous
 62
     7
370
     0
100
AcDbLine
 10
7.4593410009
 20
5.0076724777
 30
0.0
 11
7.4098333722
 21
5.0076724777
 31
0.0
  0
LINE
  5
37C
330
1F
100
AcDbEntity
  8
0
  6
Continuous
 62
     7
370
     0
100
AcDbLine
 10
7.4762016631
 20
5.0076724777
 30
0.0
 11
7.4593410009
 21
5.0076724777
 31
0.0
  0
LINE
  5
37D
330
1F
100
AcDbEntity
  8
0
  6
Continuous
 62
     7
370
     0
100
AcDbLine
 10
7.8022057608
 20
5.0076724777
 30
0.0
 11
7.7398281066
 21
5.0076724777
 31
0.0
  0
LINE
  5
37E
330
1F
100
AcDbEntity
  8
0
  6
Continuous
 62
     7
370
     0
100
AcDbLine
 10
8.5980016325
 20
5.0076724777
 30
0.0
 11
8.585988797
 21
5.0076724777
 31
0.0
  0
LINE
  5
37F
330
1F
100
AcDbEntity
  8
0
  6
Continuous
 62
     7
370
     0
100
AcDbLine
 10
7.7287372581
 20
4.9116724777
 30
0.0
 11
7.7287372581
 21
4.9326724777
 31
0.0
  0
LINE
  5
380
330
1F
100
AcDbEntity
  8
0
  6
Continuous
 62
     7
370
     0
100
AcDbLine
 10
7.7487372581
 20
4.8586724777
 30
0.0
 11
7.7487372581
 21
4.9326724777
 31
0.0
  0
LINE
  5
381
330
1F
100
AcDbEntity
  8
0
  6
Continuous
 62
     7
370
     0
100
AcDbLine
 10
8.0823648681
 20
4.8586724777
 30
0.0
 11
8.0823648681
 21
4.9326724777
 31
0.0
  0
LINE
  5
382
330
1F
100
AcDbEntity
  8
0
  6
Continuous
 62
     7
370
     0
100
AcDbLine
 10
8.1023648681
 20
4.9326724777
 30
0.0
 11
8.1023648681
 21
4.9116724777
 31
0.0
  0
LINE
  5
383
330
1F
100
AcDbEntity
  8
0
  6
Continuous
 62
     7
370
     0
100
AcDbLine
 10
7.3200691081
 20
4.9236724777
 30
0.0
 11
7.3200691081
 21
4.9976724777
 31
0.0
  0
LINE
  5
384
330
1F
100
AcDbEntity
  8
0
  6
Continuous
 62
     7
370
     0
100
AcDbLine
 10
8.6973648681
 20
4.9976724777
 30
0.0
 11
8.6973648681
 21
4.9236724777
 31
0.0
  0
LINE
  5
385
330
1F
100
AcDbEntity
  8
0
  6
Continuous
 62
     7
370
     0
100
AcDbLine
 10
7.610008735
 20
3.8076724777
 30
0.0
 11
7.6254759429
 21
3.8076724777
 31
0.0
  0
LINE
  5
386
330
1F
100
AcDbEntity
  8
0
  6
Continuous
 62
     7
370
     0
100
AcDbLine
 10
7.4444359912
 20
3.8076724777
 30
0.0
 11
7.4618061211
 21
3.8076724777
 31
0.0
  0
LINE
  5
387
330
1F
100
AcDbEntity
  8
0
  6
Continuous
 62
     7
370
     0
100
AcDbLine
 10
7.4341627867
 20
3.8076724777
 30
0.0
 11
7.4444359912
 21
3.8076724777
 31
0.0
  0
LINE
  5
388
330
1F
100
AcDbEntity
  8
0
  6
Continuous
 62
     7
370
     0
100
AcDbLine
 10
7.3947444328
 20
3.8076724777
 30
0.0
 11
7.4341627867
 21
3.8076724777
 31
0.0
  0
LINE
  5
389
330
1F
100
AcDbEntity
  8
0
  6
Continuous
 62
     7
370
     0
100
AcDbLine
 10
7.7287372581
 20
3.8826724777
 30
0.0
 11
7.7287372581
 21
3.9036724777
 31
0.0
  0
LINE
  5
38A
330
1F
100
AcDbEntity
  8
0
  6
Continuous
 62
     7
370
     0
100
AcDbLine
 10
7.7487372581
 20
3.8826724777
 30
0.0
 11
7.7487372581
 21
3.9566724777
 31
0.0
  0
LINE
  5
38B
330
1F
100
AcDbEntity
  8
0
  6
Continuous
 62
     7
370
     0
100
AcDbLine
 10
8.0823648681
 20
3.8826724777
 30
0.0
 11
8.0823648681
 21
3.9566724777
 31
0.0
  0
LINE
  5
38C
330
1F
100
AcDbEntity
  8
0
  6
Continuous
 62
     7
370
     0
100
AcDbLine
 10
8.1023648681
 20
3.9036724777
 30
0.0
 11
8.1023648681
 21
3.8826724777
 31
0.0
  0
LINE
  5
38D
330
1F
100
AcDbEntity
  8
0
  6
Continuous
 62
     7
370
     0
100
AcDbLine
 10
7.3200691081
 20
3.8176724777
 30
0.0
 11
7.3200691081
 21
3.8916724777
 31
0.0
  0
LINE
  5
38E
330
1F
100
AcDbEntity
  8
0
  6
Continuous
 62
     7
370
     0
100
AcDbLine
 10
8.6973648681
 20
3.8916724777
 30
0.0
 11
8.6973648681
 21
3.8176724777
 31
0.0
  0
LINE
  5
38F
330
1F
100
AcDbEntity
  8
0
  6
Continuous
 62
     7
370
     0
100
AcDbLine
 10
8.4810040358
 20
3.8901724773
 30
0.0
 11
8.5336835277
 21
3.8901724773
 31
0.0
  0
LINE
  5
390
330
1F
100
AcDbEntity
  8
0
  6
Continuous
 62
     7
370
     0
100
AcDbLine
 10
8.5336835277
 20
4.9251724773
 30
0.0
 11
8.4810040358
 21
4.9251724773
 31
0.0
  0
LINE
  5
391
330
1F
100
AcDbEntity
  8
0
  6
Continuous
 62
     7
370
     0
100
AcDbLine
 10
8.4636835277
 20
4.9151724773
 30
0.0
 11
8.4810040358
 21
4.9251724773
 31
0.0
  0
LINE
  5
392
330
1F
100
AcDbEntity
  8
0
  6
Continuous
 62
     7
370
     0
100
AcDbLine
 10
8.4810040358
 20
3.8901724773
 30
0.0
 11
8.4636835277
 21
3.9001724773
 31
0.0
  0
LINE
  5
393
330
1F
100
AcDbEntity
  8
0
  6
Continuous
 62
     7
370
     0
100
AcDbLine
 10
8.5436835277
 20
3.9618760825
 30
0.0
 11
8.5186835277
 21
3.9618760825
 31
0.0
  0
LINE
  5
394
330
1F
100
AcDbEntity
  8
0
  6
Continuous
 62
     7
370
     0
100
AcDbLine
 10
8.5186835277
 20
3.9600785554
 30
0.0
 11
8.5186835277
 21
3.9618760825
 31
0.0
  0
LINE
  5
395
330
1F
100
AcDbEntity
  8
0
  6
Continuous
 62
     7
370
     0
100
AcDbLine
 10
8.5436835277
 20
3.9600785554
 30
0.0
 11
8.5186835277
 21
3.9600785554
 31
0.0
  0
LINE
  5
396
330
1F
100
AcDbEntity
  8
0
  6
Continuous
 62
     7
370
     0
100
AcDbLine
 10
8.5436835277
 20
3.9576724773
 30
0.0
 11
8.5436835277
 21
3.9600785554
 31
0.0
  0
LINE
  5
397
330
1F
100
AcDbEntity
  8
0
  6
Continuous
 62
     7
370
     0
100
AcDbLine
 10
8.4636835277
 20
3.9576724773
 30
0.0
 11
8.5436835277
 21
3.9576724773
 31
0.0
  0
LINE
  5
398
330
1F
100
AcDbEntity
  8
0
  6
Continuous
 62
     7
370
     0
100
AcDbLine
 10
8.5436835277
 20
4.8576724773
 30
0.0
 11
8.4636835277
 21
4.8576724773
 31
0.0
  0
LINE
  5
399
330
1F
100
AcDbEntity
  8
0
  6
Continuous
 62
     7
370
     0
100
AcDbLine
 10
8.5436835277
 20
3.9618760825
 30
0.0
 11
8.5436835277
 21
4.8576724773
 31
0.0
  0
LINE
  5
39A
330
1F
100
AcDbEntity
  8
0
  6
Continuous
 62
     7
370
     0
100
AcDbLine
 10
8.5336835277
 20
4.9251724773
 30
0.0
 11
8.5436835277
 21
4.9078519692
 31
0.0
  0
LINE
  5
39B
330
1F
100
AcDbEntity
  8
0
  6
Continuous
 62
     7
370
     0
100
AcDbLine
 10
8.5436835277
 20
4.9078519692
 30
0.0
 11
8.5436835277
 21
4.8576724773
 31
0.0
  0
LINE
  5
39C
330
1F
100
AcDbEntity
  8
0
  6
Continuous
 62
     7
370
     0
100
AcDbLine
 10
8.4636835277
 20
4.9151724773
 30
0.0
 11
8.4636835277
 21
4.8576724773
 31
0.0
  0
LINE
  5
39D
330
1F
100
AcDbEntity
  8
0
  6
Continuous
 62
     7
370
     0
100
AcDbLine
 10
8.5436835277
 20
3.9576724773
 30
0.0
 11
8.5436835277
 21
3.9074929854
 31
0.0
  0
LINE
  5
39E
330
1F
100
AcDbEntity
  8
0
  6
Continuous
 62
     7
370
     0
100
AcDbLine
 10
8.5436835277
 20
3.9074929854
 30
0.0
 11
8.5336835277
 21
3.8901724773
 31
0.0
  0
LINE
  5
39F
330
1F
100
AcDbEntity
  8
0
  6
Continuous
 62
     7
370
     0
100
AcDbLine
 10
8.4636835277
 20
3.9576724773
 30
0.0
 11
8.4636835277
 21
3.9001724773
 31
0.0
  0
LINE
  5
3A0
330
1F
100
AcDbEntity
  8
0
  6
Continuous
 62
     7
370
     0
100
AcDbLine
 10
8.5436835277
 20
3.9600785554
 30
0.0
 11
8.5436835277
 21
3.9618760825
 31
0.0
  0
LINE
  5
3A1
330
1F
100
AcDbEntity
  8
0
  6
Continuous
 62
     7
370
     0
100
AcDbLine
 10
7.5550691041
 20
3.9001724781
 30
0.0
 11
7.537748596
 21
3.8901724781
 31
0.0
  0
LINE
  5
3A2
330
1F
100
AcDbEntity
  8
0
  6
Continuous
 62
     7
370
     0
100
AcDbLine
 10
7.537748596
 20
4.9251724781
 30
0.0
 11
7.5550691041
 21
4.9151724781
 31
0.0
  0
LINE
  5
3A3
330
1F
100
AcDbEntity
  8
0
  6
Continuous
 62
     7
370
     0
100
AcDbLine
 10
7.537748596
 20
4.9251724781
 30
0.0
 11
7.4850691041
 21
4.9251724781
 31
0.0
  0
LINE
  5
3A4
330
1F
100
AcDbEntity
  8
0
  6
Continuous
 62
     7
370
     0
100
AcDbLine
 10
7.4850691041
 20
3.8901724781
 30
0.0
 11
7.537748596
 21
3.8901724781
 31
0.0
  0
LINE
  5
3A5
330
1F
100
AcDbEntity
  8
0
  6
Continuous
 62
     7
370
     0
100
AcDbLine
 10
7.4750691041
 20
4.8566599012
 30
0.0
 11
7.5000691041
 21
4.8566599012
 31
0.0
  0
LINE
  5
3A6
330
1F
100
AcDbEntity
  8
0
  6
Continuous
 62
     7
370
     0
100
AcDbLine
 10
7.5000691041
 20
4.8574160266
 30
0.0
 11
7.5000691041
 21
4.8566599012
 31
0.0
  0
LINE
  5
3A7
330
1F
100
AcDbEntity
  8
0
  6
Continuous
 62
     7
370
     0
100
AcDbLine
 10
7.4750691041
 20
4.8574160266
 30
0.0
 11
7.5000691041
 21
4.8574160266
 31
0.0
  0
LINE
  5
3A8
330
1F
100
AcDbEntity
  8
0
  6
Continuous
 62
     7
370
     0
100
AcDbLine
 10
7.4750691041
 20
4.8576724781
 30
0.0
 11
7.4750691041
 21
4.8574160266
 31
0.0
  0
LINE
  5
3A9
330
1F
100
AcDbEntity
  8
0
  6
Continuous
 62
     7
370
     0
100
AcDbLine
 10
7.5550691041
 20
4.8576724781
 30
0.0
 11
7.4750691041
 21
4.8576724781
 31
0.0
  0
LINE
  5
3AA
330
1F
100
AcDbEntity
  8
0
  6
Continuous
 62
     7
370
     0
100
AcDbLine
 10
7.4750691041
 20
3.9576724781
 30
0.0
 11
7.5550691041
 21
3.9576724781
 31
0.0
  0
LINE
  5
3AB
330
1F
100
AcDbEntity
  8
0
  6
Continuous
 62
     7
370
     0
100
AcDbLine
 10
7.4750691041
 20
4.8566599012
 30
0.0
 11
7.4750691041
 21
3.9576724781
 31
0.0
  0
LINE
  5
3AC
330
1F
100
AcDbEntity
  8
0
  6
Continuous
 62
     7
370
     0
100
AcDbLine
 10
7.4850691041
 20
3.8901724781
 30
0.0
 11
7.4750691041
 21
3.9074929861
 31
0.0
  0
LINE
  5
3AD
330
1F
100
AcDbEntity
  8
0
  6
Continuous
 62
     7
370
     0
100
AcDbLine
 10
7.4750691041
 20
3.9074929861
 30
0.0
 11
7.4750691041
 21
3.9576724781
 31
0.0
  0
LINE
  5
3AE
330
1F
100
AcDbEntity
  8
0
  6
Continuous
 62
     7
370
     0
100
AcDbLine
 10
7.5550691041
 20
3.9001724781
 30
0.0
 11
7.5550691041
 21
3.9576724781
 31
0.0
  0
LINE
  5
3AF
330
1F
100
AcDbEntity
  8
0
  6
Continuous
 62
     7
370
     0
100
AcDbLine
 10
7.4750691041
 20
4.90785197
 30
0.0
 11
7.4850691041
 21
4.9251724781
 31
0.0
  0
LINE
  5
3B0
330
1F
100
AcDbEntity
  8
0
  6
Continuous
 62
     7
370
     0
100
AcDbLine
 10
7.4750691041
 20
4.8576724781
 30
0.0
 11
7.4750691041
 21
4.90785197
 31
0.0
  0
LINE
  5
3B1
330
1F
100
AcDbEntity
  8
0
  6
Continuous
 62
     7
370
     0
100
AcDbLine
 10
7.5550691041
 20
4.8576724781
 30
0.0
 11
7.5550691041
 21
4.9151724781
 31
0.0
  0
LINE
  5
3B2
330
1F
100
AcDbEntity
  8
0
  6
Continuous
 62
     7
370
     0
100
AcDbLine
 10
7.4750691041
 20
4.8574160266
 30
0.0
 11
7.4750691041
 21
4.8566599012
 31
0.0
  0
ARC
  5
3B3
330
1F
100
AcDbEntity
  8
0
  6
Continuous
 62
     7
370
     0
100
AcDbCircle
 10
5.3554993657
 20
4.4076724773
 30
0.0
 40
3.141732283464567
100
AcDbArc
 50
350.8425609973
 51
9.1574390027
  0
LINE
  5
3B4
330
1F
100
AcDbEntity
  8
0
  6
Continuous
 62
     7
370
     0
100
AcDbLine
 10
8.1885897538
 20
3.9076724773
 30
0.0
 11
8.4571895084
 21
3.9076724773
 31
0.0
  0
ARC
  5
3B5
330
1F
100
AcDbEntity
  8
0
  6
Continuous
 62
     7
370
     0
100
AcDbCircle
 10
7.7598300744
 20
4.4076724773
 30
0.0
 40
0.6586614173228356
100
AcDbArc
 50
310.6137279292
 51
49.3862720708
  0
LINE
  5
3B6
330
1F
100
AcDbEntity
  8
0
  6
Continuous
 62
     7
370
     0
100
AcDbLine
 10
8.4571895084
 20
4.9076724773
 30
0.0
 11
8.1885897538
 21
4.9076724773
 31
0.0
  0
LINE
  5
3B7
330
1F
100
AcDbEntity
  8
0
  6
Continuous
 62
     7
370
     0
100
AcDbLine
 10
7.5586875066
 20
3.9076724773
 30
0.0
 11
7.7031459745
 21
3.9076724773
 31
0.0
  0
LINE
  5
3B8
330
1F
100
AcDbEntity
  8
0
  6
Continuous
 62
     7
370
     0
100
AcDbLine
 10
7.7031459745
 20
4.9076724773
 30
0.0
 11
7.5586875066
 21
4.9076724773
 31
0.0
  0
ARC
  5
3B9
330
1F
100
AcDbEntity
  8
0
  6
Continuous
 62
     7
370
     0
100
AcDbCircle
 10
9.4318977879
 20
4.4076724773
 30
0.0
 40
1.799606299212596
100
AcDbArc
 50
163.8687552727
 51
196.1312447273
  0
ARC
  5
3BA
330
1F
100
AcDbEntity
  8
0
  6
Continuous
 62
     7
370
     0
100
AcDbCircle
 10
12.5822914886
 20
4.4076724773
 30
0.0
 40
5.048425196850356
100
AcDbArc
 50
174.3160626373
 51
185.6839373627
  0
ARC
  5
3BB
330
1F
100
AcDbEntity
  8
0
  6
Continuous
 62
     7
370
     0
100
AcDbCircle
 10
5.3192993627
 20
4.4076724773
 30
0.0
 40
2.470472440944878
100
AcDbArc
 50
348.3232197246
 51
11.6767802754
  0
LINE
  5
3BC
330
1F
100
AcDbEntity
  8
0
  6
Continuous
 62
     7
370
     0
100
AcDbLine
 10
7.7031459745
 20
3.9076724773
 30
0.0
 11
7.7386451588
 21
3.9076724773
 31
0.0
  0
ARC
  5
3BD
330
1F
100
AcDbEntity
  8
0
  6
Continuous
 62
     7
370
     0
100
AcDbCircle
 10
9.4318977879
 20
4.4076724773
 30
0.0
 40
1.799606299212596
100
AcDbArc
 50
163.8687552727
 51
196.1312447273
  0
LINE
  5
3BE
330
1F
100
AcDbEntity
  8
0
  6
Continuous
 62
     7
370
     0
100
AcDbLine
 10
7.7386451588
 20
4.9076724773
 30
0.0
 11
7.7031459745
 21
4.9076724773
 31
0.0
  0
ARC
  5
3BF
330
1F
100
AcDbEntity
  8
0
  6
Continuous
 62
     7
370
     0
100
AcDbCircle
 10
7.7598300744
 20
4.4076724773
 30
0.0
 40
0.6586614173228356
100
AcDbArc
 50
310.6137279292
 51
49.3862720708
  0
LINE
  5
3C0
330
1F
100
AcDbEntity
  8
0
  6
Continuous
 62
     7
370
     0
100
AcDbLine
 10
8.1154914091
 20
3.9076724773
 30
0.0
 11
8.1885897538
 21
3.9076724773
 31
0.0
  0
ARC
  5
3C1
330
1F
100
AcDbEntity
  8
0
  6
Continuous
 62
     7
370
     0
100
AcDbCircle
 10
8.7684914917
 20
4.4076724773
 30
0.0
 40
0.8224409448818905
100
AcDbArc
 50
142.5588390421
 51
217.4411609579
  0
LINE
  5
3C2
330
1F
100
AcDbEntity
  8
0
  6
Continuous
 62
     7
370
     0
100
AcDbLine
 10
8.1885897538
 20
4.9076724773
 30
0.0
 11
8.1154914091
 21
4.9076724773
 31
0.0
  0
DIMENSION
  5
3C3
330
1F
100
AcDbEntity
  8
0
  6
Continuous
 62
     7
370
     0
100
AcDbDimension
  2
*D8
 10
8.6973648681
 20
3.0878956911
 30
0.0
 11
9.9287471215
 21
3.0878956911
 31
0.0
 70
   160
 71
     1
 42
-1.0
  3
SLDDIMSTYLE1
100
AcDbAlignedDimension
 13
9.3559145138
 23
4.4076724773
 33
0.0
 14
8.6973648681
 24
3.8176724777
 34
0.0
100
AcDbRotatedDimension
  0
DIMENSION
  5
3D6
330
1F
100
AcDbEntity
  8
0
  6
Continuous
 62
     7
370
     0
100
AcDbDimension
  2
*D9
 10
8.4972316492
 20
5.2425955152
 30
0.0
 11
9.799727073
 21
5.2425955152
 31
0.0
 70
   160
 71
     1
 42
-1.0
  3
SLDDIMSTYLE1
100
AcDbAlignedDimension
 13
9.3559145138
 23
4.4076724773
 33
0.0
 14
8.4972316492
 24
4.4076724773
 34
0.0
100
AcDbRotatedDimension
  0
DIMENSION
  5
3E8
330
1F
100
AcDbEntity
  8
0
  6
Continuous
 62
     7
370
     0
100
AcDbDimension
  2
*D10
 10
7.3200691081
 20
3.0878956916
 30
0.0
 11
5.2728250136
 21
3.0878956916
 31
0.0
 70
   160
 71
     1
 42
-1.0
  3
SLDDIMSTYLE2
100
AcDbAlignedDimension
 13
3.7090066278
 23
4.4076724773
 33
0.0
 14
7.3200691081
 24
3.8176724777
 34
0.0
100
AcDbRotatedDimension
  0
DIMENSION
  5
3FB
330
1F
100
AcDbEntity
  8
0
  6
Continuous
 62
     7
370
     0
100
AcDbDimension
  2
*D11
 10
7.5338662918
 20
5.2425955157
 30
0.0
 11
5.3372322335
 21
5.2425955157
 31
0.0
 70
   160
 71
     1
 42
-1.0
  3
SLDDIMSTYLE2
100
AcDbAlignedDimension
 13
3.7090066278
 23
4.4076724773
 33
0.0
 14
7.5338662918
 24
4.4076724773
 34
0.0
100
AcDbRotatedDimension
  0
DIMENSION
  5
40D
330
1F
100
AcDbEntity
  8
0
  6
Continuous
 62
     7
370
     0
100
AcDbDimension
  2
*D12
 10
8.6973648681
 20
2.5290472869
 30
0.0
 11
8.0087169881
 21
2.5290472869
 31
0.0
 70
   160
 71
     1
 42
-1.0
  3
SLDDIMSTYLE3
100
AcDbAlignedDimension
 13
7.3200691081
 23
3.8176724777
 33
0.0
 14
8.6973648681
 24
3.8176724777
 34
0.0
100
AcDbRotatedDimension
  0
DIMENSION
  5
420
330
1F
100
AcDbEntity
  8
0
  6
Continuous
 62
     7
370
     0
100
AcDbDimension
  2
*D13
 10
7.9460505468
 20
3.5094133041
 30
0.0
 11
8.4472093619
 21
3.5094133041
 31
0.0
 70
   160
 71
     1
 42
-1.0
  3
SLDDIMSTYLE1
100
AcDbAlignedDimension
 13
7.7897718036
 23
4.4076724773
 33
0.0
 14
7.9460505468
 24
4.4076724773
 34
0.0
100
AcDbRotatedDimension
  0
DIMENSION
  5
432
330
1F
100
AcDbEntity
  8
0
  6
Continuous
 62
     7
370
     0
100
AcDbDimension
  2
*D14
 10
8.4972316492
 20
5.7078488994
 30
0.0
 11
8.0087169881
 21
5.7078488994
 31
0.0
 70
   160
 71
     1
 42
-1.0
  3
SLDDIMSTYLE1
100
AcDbAlignedDimension
 13
7.5338662918
 23
4.4076724773
 33
0.0
 14
8.4972316492
 24
4.4076724773
 34
0.0
100
AcDbRotatedDimension
  0
INSERT
  5
44B
330
1F
100
AcDbEntity
  8
0
  6
Continuous
 62
     7
370
     0
100
AcDbBlockReference
  2
SW_NOTE_5
 10
7.5590641826
 20
3.0462635862
 30
0.0
  0
INSERT
  5
452
102
{ACAD_REACTORS
330
454
330
455
102
}
330
1F
100
AcDbEntity
  8
0
  6
Continuous
 62
     7
370
     0
100
AcDbBlockReference
  2
SW_NOTE_6
 10
6.8131138331
 20
3.5607558366
 30
0.0
  0
LEADER
  5
454
330
1F
100
AcDbEntity
  8
0
  6
Continuous
 62
     7
370
     0
100
AcDbLeader
  3
SLDDIMSTYLE4
 73
     2
 76
     3
 10
7.4324564904
 20
3.9016724777
 30
0.0
 10
7.0631138331
 20
3.5607558366
 30
0.0
 10
6.8131138331
 20
3.5607558366
 30
0.0
340
452
  0
LEADER
  5
455
330
1F
100
AcDbEntity
  8
0
  6
Continuous
 62
     7
370
     0
100
AcDbLeader
  3
SLDDIMSTYLE4
 73
     2
 76
     3
 10
8.5606285596
 20
3.9016724777
 30
0.0
 10
7.0631138331
 20
3.5607558366
 30
0.0
 10
6.8131138331
 20
3.5607558366
 30
0.0
340
452
  0
INSERT
  5
45B
330
1F
100
AcDbEntity
  8
0
  6
Continuous
 62
     7
370
     0
100
AcDbBlockReference
  2
SW_NOTE_7
 10
8.9209678431
 20
4.8610416027
 30
0.0
  0
LEADER
  5
45C
330
1F
100
AcDbEntity
  8
0
  6
Continuous
 62
     7
370
     0
100
AcDbLeader
  3
SLDDIMSTYLE4
 76
     2
 10
8.3083772527
 20
4.7722693173
 30
0.0
 10
8.9209678431
 20
4.8610416027
 30
0.0
  0
INSERT
  5
462
102
{ACAD_REACTORS
330
463
102
}
330
1F
100
AcDbEntity
  8
0
  6
Continuous
 62
     7
370
     0
100
AcDbBlockReference
  2
SW_NOTE_8
 10
6.665016689
 20
4.8613609518
 30
0.0
  0
LEADER
  5
463
330
1F
100
AcDbEntity
  8
0
  6
Continuous
 62
     7
370
     0
100
AcDbLeader
  3
SLDDIMSTYLE4
 73
     2
 76
     2
 10
7.6594120152
 20
4.7189232091
 30
0.0
 10
6.665016689
 20
4.8613609518
 30
0.0
340
462
  0
INSERT
  5
469
330
1F
100
AcDbEntity
  8
0
  6
Continuous
 62
     7
370
     0
100
AcDbBlockReference
  2
SW_NOTE_9
 10
8.9870072007
 20
3.5124226424
 30
0.0
  0
LEADER
  5
46A
330
1F
100
AcDbEntity
  8
0
  6
Continuous
 62
     7
370
     0
100
AcDbLeader
  3
SLDDIMSTYLE4
 76
     2
 10
8.6973648681
 20
3.8176724777
 30
0.0
 10
8.9870072007
 20
3.5124226424
 30
0.0
  0
INSERT
  5
470
330
1F
100
AcDbEntity
  8
0
  6
Continuous
 62
     7
370
     0
100
AcDbBlockReference
  2
SW_NOTE_10
 10
8.9209715651
 20
4.0082853427
 30
0.0
  0
LEADER
  5
471
330
1F
100
AcDbEntity
  8
0
  6
Continuous
 62
     7
370
     0
100
AcDbLeader
  3
SLDDIMSTYLE4
 76
     2
 10
8.5436835277
 20
3.9576724773
 30
0.0
 10
8.9209715651
 20
4.0082853427
 30
0.0
  0
INSERT
  5
477
102
{ACAD_REACTORS
330
478
102
}
330
1F
100
AcDbEntity
  8
0
  6
Continuous
 62
     7
370
     0
100
AcDbBlockReference
  2
SW_NOTE_11
 10
6.6825703235
 20
3.9645172235
 30
0.0
  0
LEADER
  5
478
330
1F
100
AcDbEntity
  8
0
  6
Continuous
 62
     7
370
     0
100
AcDbLeader
  3
SLDDIMSTYLE4
 73
     2
 76
     2
 10
7.4750691041
 20
3.9576724781
 30
0.0
 10
6.6825703235
 20
3.9645172235
 30
0.0
340
477
  0
HATCH
  5
479
330
1F
100
AcDbEntity
  8
0
  6
Continuous
 62
     7
370
     0
100
AcDbHatch
 10
0.0
 20
0.0
 30
0.0
210
0.0
220
0.0
230
1.0
  2
ANSI31
 70
     0
 71
     0
 91
        1
 92
        0
 93
       28
 72
     1
 10
8.680044360054874
 20
4.913672477744803
 11
8.697364868130562
 21
4.923672477744804
 72
     1
 10
8.697364868130562
 20
4.923672477744804
 11
8.697364868130562
 21
4.9976724777448
 72
     1
 10
8.697364868130562
 20
4.9976724777448
 11
8.687364868130562
 21
5.007672477744802
 72
     1
 10
8.687364868130562
 20
5.007672477744802
 11
8.598001632465227
 21
5.007672477744802
 72
     1
 10
8.598001632465227
 20
5.007672477744802
 11
8.585988796994046
 21
5.007672477744802
 72
     1
 10
8.585988796994046
 20
5.007672477744802
 11
7.80220576080132
 21
5.007672477744802
 72
     1
 10
7.80220576080132
 20
5.007672477744802
 11
7.739828106560205
 21
5.007672477744802
 72
     1
 10
7.739828106560205
 20
5.007672477744802
 11
7.476201663121655
 21
5.007672477744802
 72
     1
 10
7.476201663121655
 20
5.007672477744802
 11
7.459341000902549
 21
5.007672477744802
 72
     1
 10
7.459341000902549
 20
5.007672477744802
 11
7.409833372150548
 21
5.007672477744802
 72
     1
 10
7.409833372150548
 20
5.007672477744802
 11
7.393675034905025
 21
5.007672477744802
 72
     1
 10
7.393675034905025
 20
5.007672477744802
 11
7.330069108130568
 21
5.007672477744801
 72
     1
 10
7.330069108130568
 20
5.007672477744801
 11
7.320069108130567
 21
4.9976724777448
 72
     1
 10
7.320069108130567
 20
4.9976724777448
 11
7.320069108130567
 21
4.923672477744805
 72
     1
 10
7.320069108130567
 20
4.923672477744805
 11
7.337389616206257
 21
4.913672477744803
 72
     1
 10
7.337389616206257
 20
4.913672477744803
 11
7.621069108130568
 21
4.913672477744803
 72
     1
 10
7.621069108130568
 20
4.913672477744803
 11
7.622223808668947
 21
4.911672477744801
 72
     1
 10
7.622223808668947
 20
4.911672477744801
 11
7.728737258130566
 21
4.911672477744803
 72
     1
 10
7.728737258130566
 20
4.911672477744803
 11
7.728737258130566
 21
4.932672477744803
 72
     1
 10
7.728737258130566
 20
4.932672477744803
 11
7.748737258130566
 21
4.932672477744804
 72
     1
 10
7.748737258130566
 20
4.932672477744804
 11
7.748737258130566
 21
4.858672477744805
 72
     1
 10
7.748737258130566
 20
4.858672477744805
 11
8.082364868130565
 21
4.858672477744804
 72
     1
 10
8.082364868130565
 20
4.858672477744804
 11
8.082364868130565
 21
4.932672477744803
 72
     1
 10
8.082364868130565
 20
4.932672477744803
 11
8.102364868130564
 21
4.932672477744804
 72
     1
 10
8.102364868130564
 20
4.932672477744804
 11
8.102364868130564
 21
4.911672477744804
 72
     1
 10
8.102364868130564
 20
4.911672477744804
 11
8.395210167592184
 21
4.911672477744803
 72
     1
 10
8.395210167592184
 20
4.911672477744803
 11
8.396364868130565
 21
4.913672477744802
 72
     1
 10
8.396364868130565
 20
4.913672477744802
 11
8.680044360054874
 21
4.913672477744803
 97
        0
 75
     0
 76
     1
 52
0.0
 41
1.0
 77
     0
 78
     1
 53
45.0
 43
0.0
 44
0.0
 45
-0.0883883476483184
 46
0.0883883476483184
 79
     0
 98
        1
 10
0.0
 20
0.0
  0
HATCH
  5
47A
330
1F
100
AcDbEntity
  8
0
  6
Continuous
 62
     7
370
     0
100
AcDbHatch
 10
0.0
 20
0.0
 30
0.0
210
0.0
220
0.0
230
1.0
  2
ANSI31
 70
     0
 71
     0
 91
        1
 92
        0
 93
       26
 72
     1
 10
8.697364868130562
 20
3.891672477744805
 11
8.680044360054874
 21
3.901672477744806
 72
     1
 10
8.680044360054874
 20
3.901672477744806
 11
8.396364868130565
 21
3.901672477744807
 72
     1
 10
8.396364868130565
 20
3.901672477744807
 11
8.395210167592184
 21
3.903672477744806
 72
     1
 10
8.395210167592184
 20
3.903672477744806
 11
8.102364868130564
 21
3.903672477744805
 72
     1
 10
8.102364868130564
 20
3.903672477744805
 11
8.102364868130564
 21
3.882672477744806
 72
     1
 10
8.102364868130564
 20
3.882672477744806
 11
8.082364868130565
 21
3.882672477744807
 72
     1
 10
8.082364868130565
 20
3.882672477744807
 11
8.082364868130565
 21
3.956672477744806
 72
     1
 10
8.082364868130565
 20
3.956672477744806
 11
7.748737258130566
 21
3.956672477744805
 72
     1
 10
7.748737258130566
 20
3.956672477744805
 11
7.748737258130566
 21
3.882672477744806
 72
     1
 10
7.748737258130566
 20
3.882672477744806
 11
7.728737258130566
 21
3.882672477744807
 72
     1
 10
7.728737258130566
 20
3.882672477744807
 11
7.728737258130566
 21
3.903672477744806
 72
     1
 10
7.728737258130566
 20
3.903672477744806
 11
7.622223808668947
 21
3.903672477744808
 72
     1
 10
7.622223808668947
 20
3.903672477744808
 11
7.621069108130568
 21
3.901672477744806
 72
     1
 10
7.621069108130568
 20
3.901672477744806
 11
7.337389616206257
 21
3.901672477744806
 72
     1
 10
7.337389616206257
 20
3.901672477744806
 11
7.320069108130567
 21
3.891672477744804
 72
     1
 10
7.320069108130567
 20
3.891672477744804
 11
7.320069108130567
 21
3.817672477744805
 72
     1
 10
7.320069108130567
 20
3.817672477744805
 11
7.330069108130568
 21
3.807672477744809
 72
     1
 10
7.330069108130568
 20
3.807672477744809
 11
7.394744432805894
 21
3.807672477744807
 72
     1
 10
7.394744432805894
 20
3.807672477744807
 11
7.434162786738616
 21
3.807672477744807
 72
     1
 10
7.434162786738616
 20
3.807672477744807
 11
7.444435991247451
 21
3.807672477744807
 72
     1
 10
7.444435991247451
 20
3.807672477744807
 11
7.461806121117582
 21
3.807672477744807
 72
     1
 10
7.461806121117582
 20
3.807672477744807
 11
7.610008735025173
 21
3.807672477744807
 72
     1
 10
7.610008735025173
 20
3.807672477744807
 11
7.625475942929413
 21
3.807672477744807
 72
     1
 10
7.625475942929413
 20
3.807672477744807
 11
8.687364868130562
 21
3.807672477744807
 72
     1
 10
8.687364868130562
 20
3.807672477744807
 11
8.697364868130562
 21
3.817672477744809
 72
     1
 10
8.697364868130562
 20
3.817672477744809
 11
8.697364868130562
 21
3.891672477744805
 97
        0
 75
     0
 76
     1
 52
0.0
 41
1.0
 77
     0
 78
     1
 53
45.0
 43
0.0
 44
0.0
 45
-0.0883883476483184
 46
0.0883883476483184
 79
     0
 98
        1
 10
0.0
 20
0.0
  0
HATCH
  5
47B
330
1F
100
AcDbEntity
  8
0
  6
Continuous
 62
     7
370
     0
100
AcDbHatch
 10
0.0
 20
0.0
 30
0.0
210
0.0
220
0.0
230
1.0
  2
ANSI31
 70
     0
 71
     0
 91
        1
 92
        0
 93
        6
 72
     1
 10
8.543683527716155
 20
3.957672477285456
 11
8.463683527716155
 21
3.957672477285456
 72
     1
 10
8.463683527716155
 20
3.957672477285456
 11
8.463683527716155
 21
3.900172477285456
 72
     1
 10
8.463683527716155
 20
3.900172477285456
 11
8.481004035791843
 21
3.890172477285456
 72
     1
 10
8.481004035791843
 20
3.890172477285456
 11
8.533683527716155
 21
3.890172477285456
 72
     1
 10
8.533683527716155
 20
3.890172477285456
 11
8.543683527716155
 21
3.907492985361146
 72
     1
 10
8.543683527716155
 20
3.907492985361146
 11
8.543683527716155
 21
3.957672477285456
 97
        0
 75
     0
 76
     1
 52
0.0
 41
1.0
 77
     0
 78
     1
 53
45.0
 43
0.0
 44
0.0
 45
-0.0883883476483184
 46
0.0883883476483184
 79
     0
 98
        1
 10
0.0
 20
0.0
  0
HATCH
  5
47C
330
1F
100
AcDbEntity
  8
0
  6
Continuous
 62
     7
370
     0
100
AcDbHatch
 10
0.0
 20
0.0
 30
0.0
210
0.0
220
0.0
230
1.0
  2
ANSI31
 70
     0
 71
     0
 91
        1
 92
        0
 93
        6
 72
     1
 10
8.543683527716155
 20
4.857672477285455
 11
8.543683527716155
 21
4.907851969209765
 72
     1
 10
8.543683527716155
 20
4.907851969209765
 11
8.533683527716155
 21
4.925172477285455
 72
     1
 10
8.533683527716155
 20
4.925172477285455
 11
8.481004035791843
 21
4.925172477285455
 72
     1
 10
8.481004035791843
 20
4.925172477285455
 11
8.463683527716155
 21
4.915172477285455
 72
     1
 10
8.463683527716155
 20
4.915172477285455
 11
8.463683527716155
 21
4.857672477285455
 72
     1
 10
8.463683527716155
 20
4.857672477285455
 11
8.543683527716155
 21
4.857672477285455
 97
        0
 75
     0
 76
     1
 52
0.0
 41
1.0
 77
     0
 78
     1
 53
45.0
 43
0.0
 44
0.0
 45
-0.0883883476483184
 46
0.0883883476483184
 79
     0
 98
        1
 10
0.0
 20
0.0
  0
HATCH
  5
47D
330
1F
100
AcDbEntity
  8
0
  6
Continuous
 62
     7
370
     0
100
AcDbHatch
 10
0.0
 20
0.0
 30
0.0
210
0.0
220
0.0
230
1.0
  2
ANSI31
 70
     0
 71
     0
 91
        1
 92
        0
 93
        6
 72
     1
 10
7.537748596049837
 20
3.890172478056971
 11
7.555069104125526
 21
3.90017247805697
 72
     1
 10
7.555069104125526
 20
3.90017247805697
 11
7.555069104125526
 21
3.957672478056971
 72
     1
 10
7.555069104125526
 20
3.957672478056971
 11
7.475069104125526
 21
3.957672478056971
 72
     1
 10
7.475069104125526
 20
3.957672478056971
 11
7.475069104125526
 21
3.90749298613266
 72
     1
 10
7.475069104125526
 20
3.90749298613266
 11
7.485069104125526
 21
3.890172478056971
 72
     1
 10
7.485069104125526
 20
3.890172478056971
 11
7.537748596049837
 21
3.890172478056971
 97
        0
 75
     0
 76
     1
 52
0.0
 41
1.0
 77
     0
 78
     1
 53
45.0
 43
0.0
 44
0.0
 45
-0.0883883476483184
 46
0.0883883476483184
 79
     0
 98
        1
 10
0.0
 20
0.0
  0
HATCH
  5
47E
330
1F
100
AcDbEntity
  8
0
  6
Continuous
 62
     7
370
     0
100
AcDbHatch
 10
0.0
 20
0.0
 30
0.0
210
0.0
220
0.0
230
1.0
  2
ANSI31
 70
     0
 71
     0
 91
        1
 92
        0
 93
        6
 72
     1
 10
7.475069104125525
 20
4.907851969981281
 11
7.475069104125525
 21
4.857672478056971
 72
     1
 10
7.475069104125525
 20
4.857672478056971
 11
7.555069104125526
 21
4.857672478056971
 72
     1
 10
7.555069104125526
 20
4.857672478056971
 11
7.555069104125526
 21
4.915172478056972
 72
     1
 10
7.555069104125526
 20
4.915172478056972
 11
7.537748596049837
 21
4.925172478056971
 72
     1
 10
7.537748596049837
 20
4.925172478056971
 11
7.485069104125525
 21
4.925172478056971
 72
     1
 10
7.485069104125525
 20
4.925172478056971
 11
7.475069104125525
 21
4.907851969981281
 97
        0
 75
     0
 76
     1
 52
0.0
 41
1.0
 77
     0
 78
     1
 53
45.0
 43
0.0
 44
0.0
 45
-0.0883883476483184
 46
0.0883883476483184
 79
     0
 98
        1
 10
0.0
 20
0.0
  0
HATCH
  5
47F
330
1F
100
AcDbEntity
  8
0
  6
Continuous
 62
     7
370
     0
100
AcDbHatch
 10
0.0
 20
0.0
 30
0.0
210
0.0
220
0.0
230
1.0
  2
ANSI31
 70
     0
 71
     0
 91
        1
 92
        0
 93
        4
 72
     1
 10
8.188589753763763
 20
4.907672477285456
 11
8.115491409141578
 21
4.907672477285455
 72
     2
 10
8.768491491697635
 20
4.407672477285455
 40
0.8224409448818898
 50
142.5588390420824
 51
217.4411609579184
 73
     1
 72
     1
 10
8.115491409141578
 20
3.907672477285455
 11
8.188589753763763
 21
3.907672477285455
 72
     2
 10
7.7598300743748
 20
4.407672477285455
 40
0.6586614173228348
 50
310.6137279291679
 51
409.3862720708337
 73
     1
 97
        0
 75
     0
 76
     1
 52
0.0
 41
1.0
 77
     0
 78
     1
 53
45.0
 43
0.0
 44
0.0
 45
-0.0883883476483184
 46
0.0883883476483184
 79
     0
 98
        1
 10
0.0
 20
0.0
  0
HATCH
  5
480
330
1F
100
AcDbEntity
  8
0
  6
Continuous
 62
     7
370
     0
100
AcDbHatch
 10
0.0
 20
0.0
 30
0.0
210
0.0
220
0.0
230
1.0
  2
ANSI31
 70
     0
 71
     0
 91
        1
 92
        0
 93
        4
 72
     1
 10
7.738645158833005
 20
4.907672477285457
 11
7.703145974503786
 21
4.907672477285455
 72
     2
 10
9.431897787855156
 20
4.407672477285455
 40
1.799606299212595
 50
163.8687552727385
 51
196.1312447272624
 73
     1
 72
     1
 10
7.703145974503786
 20
3.907672477285455
 11
7.738645158833005
 21
3.907672477285454
 72
     2
 10
5.319299362658315
 20
4.407672477285455
 40
2.470472440944878
 50
348.3232197245635
 51
371.6767802754381
 73
     1
 97
        0
 75
     0
 76
     1
 52
0.0
 41
1.0
 77
     0
 78
     1
 53
45.0
 43
0.0
 44
0.0
 45
-0.0883883476483184
 46
0.0883883476483184
 79
     0
 98
        1
 10
0.0
 20
0.0
  0
HATCH
  5
481
330
1F
100
AcDbEntity
  8
0
  6
Continuous
 62
     7
370
     0
100
AcDbHatch
 10
0.0
 20
0.0
 30
0.0
210
0.0
220
0.0
230
1.0
  2
ANSI31
 70
     0
 71
     0
 91
        1
 92
        0
 93
        4
 72
     1
 10
7.703145974503786
 20
4.907672477285456
 11
7.558687506619902
 21
4.907672477285455
 72
     2
 10
12.58229148864253
 20
4.407672477285455
 40
5.048425196850355
 50
174.316062637307
 51
185.6839373626938
 73
     1
 72
     1
 10
7.558687506619902
 20
3.907672477285455
 11
7.703145974503786
 21
3.907672477285455
 72
     2
 10
9.431897787855156
 20
4.407672477285455
 40
1.799606299212595
 50
163.8687552727384
 51
196.1312447272624
 73
     0
 97
        0
 75
     0
 76
     1
 52
0.0
 41
1.0
 77
     0
 78
     1
 53
45.0
 43
0.0
 44
0.0
 45
-0.0883883476483184
 46
0.0883883476483184
 79
     0
 98
        1
 10
0.0
 20
0.0
  0
HATCH
  5
482
330
1F
100
AcDbEntity
  8
0
  6
Continuous
 62
     7
370
     0
100
AcDbHatch
 10
0.0
 20
0.0
 30
0.0
210
0.0
220
0.0
230
1.0
  2
ANSI31
 70
     0
 71
     0
 91
        1
 92
        0
 93
        4
 72
     1
 10
8.457189508355533
 20
4.907672477285455
 11
8.188589753763763
 21
4.907672477285455
 72
     2
 10
7.7598300743748
 20
4.407672477285455
 40
0.6586614173228348
 50
310.6137279291679
 51
409.3862720708337
 73
     0
 72
     1
 10
8.188589753763763
 20
3.907672477285455
 11
8.457189508355533
 21
3.907672477285456
 72
     2
 10
5.355499365713382
 20
4.407672477285455
 40
3.141732283464567
 50
350.8425609973378
 51
369.1574390026638
 73
     1
 97
        0
 75
     0
 76
     1
 52
0.0
 41
1.0
 77
     0
 78
     1
 53
45.0
 43
0.0
 44
0.0
 45
-0.0883883476483184
 46
0.0883883476483184
 79
     0
 98
        1
 10
0.0
 20
0.0
  0
ENDSEC
  0
SECTION
  2
OBJECTS
  0
DICTIONARY
  5
C
330
0
100
AcDbDictionary
281
     1
  3
ACAD_GROUP
350
D
  3
ACAD_LAYOUT
350
1A
  3
ACAD_MLINESTYLE
350
17
  3
ACAD_PLOTSETTINGS
350
19
  3
ACAD_PLOTSTYLENAME
350
E
  0
DICTIONARY
  5
D
102
{ACAD_REACTORS
330
C
102
}
330
C
100
AcDbDictionary
281
     1
  0
DICTIONARY
  5
1A
102
{ACAD_REACTORS
330
C
102
}
330
C
100
AcDbDictionary
281
     1
  3
Layout1
350
1E
  3
Layout2
350
26
  3
Model
350
22
  0
DICTIONARY
  5
17
102
{ACAD_REACTORS
330
C
102
}
330
C
100
AcDbDictionary
281
     1
  3
Standard
350
18
  0
DICTIONARY
  5
19
102
{ACAD_REACTORS
330
C
102
}
330
C
100
AcDbDictionary
281
     1
  0
ACDBDICTIONARYWDFLT
  5
E
102
{ACAD_REACTORS
330
C
102
}
330
C
100
AcDbDictionary
281
     1
  3
Normal
350
F
100
AcDbDictionaryWithDefault
340
F
  0
LAYOUT
  5
1E
102
{ACAD_REACTORS
330
1A
102
}
330
1A
100
AcDbPlotSettings
  1

  2
none_device
  4

  6

 40
0.0
 41
0.0
 42
0.0
 43
0.0
 44
0.0
 45
0.0
 46
0.0
 47
0.0
 48
0.0
 49
0.0
140
0.0
141
0.0
142
1.0
143
1.0
 70
   688
 72
     0
 73
     0
 74
     5
  7

 75
    16
147
1.0
148
0.0
149
0.0
100
AcDbLayout
  1
Layout1
 70
     1
 71
     1
 10
0.0
 20
0.0
 11
12.0
 21
9.0
 12
0.0
 22
0.0
 32
0.0
 14
1.0000000000E+20
 24
1.0000000000E+20
 34
1.0000000000E+20
 15
-1.0000000000E+20
 25
-1.0000000000E+20
 35
-1.0000000000E+20
146
0.0
 13
0.0
 23
0.0
 33
0.0
 16
1.0
 26
0.0
 36
0.0
 17
0.0
 27
1.0
 37
0.0
 76
     0
330
1B
  0
LAYOUT
  5
26
102
{ACAD_REACTORS
330
1A
102
}
330
1A
100
AcDbPlotSettings
  1

  2
none_device
  4

  6

 40
0.0
 41
0.0
 42
0.0
 43
0.0
 44
0.0
 45
0.0
 46
0.0
 47
0.0
 48
0.0
 49
0.0
140
0.0
141
0.0
142
1.0
143
1.0
 70
   688
 72
     0
 73
     0
 74
     5
  7

 75
    16
147
1.0
148
0.0
149
0.0
100
AcDbLayout
  1
Layout2
 70
     1
 71
     2
 10
0.0
 20
0.0
 11
0.0
 21
0.0
 12
0.0
 22
0.0
 32
0.0
 14
0.0
 24
0.0
 34
0.0
 15
0.0
 25
0.0
 35
0.0
146
0.0
 13
0.0
 23
0.0
 33
0.0
 16
1.0
 26
0.0
 36
0.0
 17
0.0
 27
1.0
 37
0.0
 76
     0
330
23
  0
LAYOUT
  5
22
102
{ACAD_REACTORS
330
1A
102
}
330
1A
100
AcDbPlotSettings
  1

  2
none_device
  4

  6

 40
0.0
 41
0.0
 42
0.0
 43
0.0
 44
0.0
 45
0.0
 46
0.0
 47
0.0
 48
0.0
 49
0.0
140
0.0
141
0.0
142
1.0
143
1.0
 70
  1712
 72
     0
 73
     0
 74
     0
  7

 75
     0
147
1.0
148
0.0
149
0.0
100
AcDbLayout
  1
Model
 70
     1
 71
     0
 10
0.0
 20
0.0
 11
0.0
 21
0.0
 12
0.0
 22
0.0
 32
0.0
 14
0.0
 24
0.0
 34
0.0
 15
11.0
 25
8.5
 35
0.0
146
0.0
 13
0.0
 23
0.0
 33
0.0
 16
1.0
 26
0.0
 36
0.0
 17
0.0
 27
1.0
 37
0.0
 76
     0
330
1F
  0
MLINESTYLE
  5
18
102
{ACAD_REACTORS
330
17
102
}
330
17
100
AcDbMlineStyle
  2
Standard
 70
     0
  3

 62
   256
 51
90.0
 52
90.0
 71
     2
 49
0.5
 62
   256
  6
BYLAYER
 49
-0.5
 62
   256
  6
BYLAYER
  0
ACDBPLACEHOLDER
  5
F
102
{ACAD_REACTORS
330
E
102
}
330
E
  0
ENDSEC
  0
EOF
