  0
SECTION
  2
HEADER
  9
$ACADVER
  1
AC1015
  9
$ACADMAINTVER
 70
     6
  9
$DWGCODEPAGE
  3
ANSI_1252
  9
$INSBASE
 10
0.0
 20
0.0
 30
0.0
  9
$EXTMIN
 10
0.0
 20
0.0
 30
0.0
  9
$EXTMAX
 10
279.4
 20
215.9
 30
0.0
  9
$LIMMIN
 10
0.0
 20
0.0
  9
$LIMMAX
 10
279.4
 20
215.9
  9
$ORTHOMODE
 70
     0
  9
$REGENMODE
 70
     1
  9
$FILLMODE
 70
     1
  9
$QTEXTMODE
 70
     0
  9
$MIRRTEXT
 70
     1
  9
$LTSCALE
 40
1.0
  9
$ATTMODE
 70
     1
  9
$TEXTSIZE
 40
2.8222222222
  9
$TRACEWID
 40
1.0
  9
$TEXTSTYLE
  7
Standard
  9
$CLAYER
  8
0
  9
$CELTYPE
  6
ByLayer
  9
$CECOLOR
 62
   256
  9
$CELTSCALE
 40
1.0
  9
$DISPSILH
 70
     0
  9
$DIMSCALE
 40
1.0
  9
$DIMASZ
 40
3.175
  9
$DIMEXO
 40
1.27
  9
$DIMDLI
 40
3.75
  9
$DIMRND
 40
0.0
  9
$DIMDLE
 40
0.0
  9
$DIMEXE
 40
1.778
  9
$DIMTP
 40
0.0
  9
$DIMTM
 40
0.0
  9
$DIMTXT
 40
2.8222222222
  9
$DIMCEN
 40
2.5
  9
$DIMTSZ
 40
0.0
  9
$DIMTOL
 70
     0
  9
$DIMLIM
 70
     0
  9
$DIMTIH
 70
     1
  9
$DIMTOH
 70
     1
  9
$DIMSE1
 70
     0
  9
$DIMSE2
 70
     0
  9
$DIMTAD
 70
     1
  9
$DIMZIN
 70
     1
  9
$DIMBLK
  1

  9
$DIMASO
 70
     1
  9
$DIMSHO
 70
     1
  9
$DIMPOST
  1

  9
$DIMAPOST
  1

  9
$DIMALT
 70
     0
  9
$DIMALTD
 70
     3
  9
$DIMALTF
 40
0.0393700787
  9
$DIMLFAC
 40
1.0
  9
$DIMTOFL
 70
     1
  9
$DIMTVP
 40
0.0
  9
$DIMTIX
 70
     0
  9
$DIMSOXD
 70
     0
  9
$DIMSAH
 70
     0
  9
$DIMBLK1
  1

  9
$DIMBLK2
  1

  9
$DIMSTYLE
  2
ISO-25
  9
$DIMCLRD
 70
     0
  9
$DIMCLRE
 70
     0
  9
$DIMCLRT
 70
     0
  9
$DIMTFAC
 40
1.0
  9
$DIMGAP
 40
2.54
  9
$DIMJUST
 70
     0
  9
$DIMSD1
 70
     0
  9
$DIMSD2
 70
     0
  9
$DIMTOLJ
 70
     0
  9
$DIMTZIN
 70
     1
  9
$DIMALTZ
 70
     0
  9
$DIMALTTZ
 70
     0
  9
$DIMUPT
 70
     0
  9
$DIMDEC
 70
     1
  9
$DIMTDEC
 70
     1
  9
$DIMALTU
 70
     2
  9
$DIMALTTD
 70
     3
  9
$DIMTXSTY
  7
Standard
  9
$DIMAUNIT
 70
     0
  9
$DIMADEC
 70
     0
  9
$DIMALTRND
 40
0.0
  9
$DIMAZIN
 70
     0
  9
$DIMDSEP
 70
    44
  9
$DIMATFIT
 70
     3
  9
$DIMFRAC
 70
     0
  9
$DIMLDRBLK
  1

  9
$DIMLUNIT
 70
     2
  9
$DIMLWD
 70
    -2
  9
$DIMLWE
 70
    -2
  9
$DIMTMOVE
 70
     0
  9
$LUNITS
 70
     2
  9
$LUPREC
 70
     1
  9
$SKETCHINC
 40
1.0
  9
$FILLETRAD
 40
10.0
  9
$AUNITS
 70
     0
  9
$AUPREC
 70
     0
  9
$MENU
  1
.
  9
$ELEVATION
 40
0.0
  9
$PELEVATION
 40
0.0
  9
$THICKNESS
 40
0.0
  9
$LIMCHECK
 70
     0
  9
$CHAMFERA
 40
10.0
  9
$CHAMFERB
 40
10.0
  9
$CHAMFERC
 40
20.0
  9
$CHAMFERD
 40
0.0
  9
$SKPOLY
 70
     0
  9
$TDCREATE
 40
2455757.478942674
  9
$TDUCREATE
 40
2455757.64560934
  9
$TDUPDATE
 40
2455757.478942685
  9
$TDUUPDATE
 40
2455757.645609352
  9
$TDINDWG
 40
0.0000000116
  9
$TDUSRTIMER
 40
0.0000000116
  9
$USRTIMER
 70
     1
  9
$ANGBASE
 50
0.0
  9
$ANGDIR
 70
     0
  9
$PDMODE
 70
     0
  9
$PDSIZE
 40
-1.0
  9
$PLINEWID
 40
0.0
  9
$SPLFRAME
 70
     0
  9
$SPLINETYPE
 70
     6
  9
$SPLINESEGS
 70
     8
  9
$HANDSEED
  5
236
  9
$SURFTAB1
 70
     6
  9
$SURFTAB2
 70
     6
  9
$SURFTYPE
 70
     6
  9
$SURFU
 70
     6
  9
$SURFV
 70
     6
  9
$UCSBASE
  2

  9
$UCSNAME
  2

  9
$UCSORG
 10
0.0
 20
0.0
 30
0.0
  9
$UCSXDIR
 10
1.0
 20
0.0
 30
0.0
  9
$UCSYDIR
 10
0.0
 20
1.0
 30
0.0
  9
$UCSORTHOREF
  2

  9
$UCSORTHOVIEW
 70
     0
  9
$UCSORGTOP
 10
0.0
 20
0.0
 30
0.0
  9
$UCSORGBOTTOM
 10
0.0
 20
0.0
 30
0.0
  9
$UCSORGLEFT
 10
0.0
 20
0.0
 30
0.0
  9
$UCSORGRIGHT
 10
0.0
 20
0.0
 30
0.0
  9
$UCSORGFRONT
 10
0.0
 20
0.0
 30
0.0
  9
$UCSORGBACK
 10
0.0
 20
0.0
 30
0.0
  9
$PUCSBASE
  2

  9
$PUCSNAME
  2

  9
$PUCSORG
 10
0.0
 20
0.0
 30
0.0
  9
$PUCSXDIR
 10
1.0
 20
0.0
 30
0.0
  9
$PUCSYDIR
 10
0.0
 20
1.0
 30
0.0
  9
$PUCSORTHOREF
  2

  9
$PUCSORTHOVIEW
 70
     0
  9
$PUCSORGTOP
 10
0.0
 20
0.0
 30
0.0
  9
$PUCSORGBOTTOM
 10
0.0
 20
0.0
 30
0.0
  9
$PUCSORGLEFT
 10
0.0
 20
0.0
 30
0.0
  9
$PUCSORGRIGHT
 10
0.0
 20
0.0
 30
0.0
  9
$PUCSORGFRONT
 10
0.0
 20
0.0
 30
0.0
  9
$PUCSORGBACK
 10
0.0
 20
0.0
 30
0.0
  9
$USERI1
 70
     0
  9
$USERI2
 70
     0
  9
$USERI3
 70
     0
  9
$USERI4
 70
     0
  9
$USERI5
 70
     0
  9
$USERR1
 40
0.0
  9
$USERR2
 40
0.0
  9
$USERR3
 40
0.0
  9
$USERR4
 40
0.0
  9
$USERR5
 40
0.0
  9
$WORLDVIEW
 70
     1
  9
$SHADEDGE
 70
     3
  9
$SHADEDIF
 70
    70
  9
$TILEMODE
 70
     1
  9
$MAXACTVP
 70
    64
  9
$PINSBASE
 10
0.0
 20
0.0
 30
0.0
  9
$PLIMCHECK
 70
     0
  9
$PEXTMIN
 10
1.0000000000E+20
 20
1.0000000000E+20
 30
1.0000000000E+20
  9
$PEXTMAX
 10
-1.0000000000E+20
 20
-1.0000000000E+20
 30
-1.0000000000E+20
  9
$PLIMMIN
 10
0.0
 20
0.0
  9
$PLIMMAX
 10
420.0
 20
297.0
  9
$UNITMODE
 70
     0
  9
$VISRETAIN
 70
     1
  9
$PLINEGEN
 70
     0
  9
$PSLTSCALE
 70
     1
  9
$TREEDEPTH
 70
  3020
  9
$CMLSTYLE
  2
Standard
  9
$CMLJUST
 70
     0
  9
$CMLSCALE
 40
20.0
  9
$PROXYGRAPHICS
 70
     1
  9
$MEASUREMENT
 70
     1
  9
$CELWEIGHT
370
    -1
  9
$ENDCAPS
280
     0
  9
$JOINSTYLE
280
     0
  9
$LWDISPLAY
290
     1
  9
$INSUNITS
 70
     4
  9
$HYPERLINKBASE
  1

  9
$STYLESHEET
  1

  9
$XEDIT
290
     1
  9
$CEPSNTYPE
380
     0
  9
$PSTYLEMODE
290
     1
  9
$FINGERPRINTGUID
  2
{B1A0F738-3695-45E9-9EC9-8A094E4071EA}
  9
$VERSIONGUID
  2
{FAEB1C32-E019-11D5-929B-00C0DF256EC4}
  9
$EXTNAMES
290
     1
  9
$PSVPSCALE
 40
0.0
  9
$OLESTARTUP
290
     0
  0
ENDSEC
  0
SECTION
  2
CLASSES
  0
CLASS
  1
ACDBDICTIONARYWDFLT
  2
AcDbDictionaryWithDefault
  3
ObjectDBX Classes
 90
        0
280
     0
281
     0
  0
CLASS
  1
VISUALSTYLE
  2
AcDbVisualStyle
  3
ObjectDBX Classes
 90
     4095
280
     0
281
     0
  0
CLASS
  1
MATERIAL
  2
AcDbMaterial
  3
ObjectDBX Classes
 90
     1153
280
     0
281
     0
  0
CLASS
  1
ACDBPLACEHOLDER
  2
AcDbPlaceHolder
  3
ObjectDBX Classes
 90
        0
280
     0
281
     0
  0
CLASS
  1
LAYOUT
  2
AcDbLayout
  3
ObjectDBX Classes
 90
        0
280
     0
281
     0
  0
ENDSEC
  0
SECTION
  2
TABLES
  0
TABLE
  2
VPORT
  5
8
330
0
100
AcDbSymbolTable
 70
     1
  0
VPORT
  5
29
330
8
100
AcDbSymbolTableRecord
100
AcDbViewportTableRecord
  2
*Active
 70
     0
 10
0.0
 20
0.0
 11
1.0
 21
1.0
 12
139.7
 22
107.95
 13
0.0
 23
0.0
 14
10.0
 24
10.0
 15
10.0
 25
10.0
 16
0.0
 26
0.0
 36
1.0
 17
0.0
 27
0.0
 37
0.0
 40
215.9
 41
1.2941176471
 42
50.0
 43
0.0
 44
0.0
 50
0.0
 51
0.0
 71
     0
 72
  2000
 73
     1
 74
     3
 75
     0
 76
     0
 77
     0
 78
     0
281
     0
 65
     1
110
0.0
120
0.0
130
0.0
111
1.0
121
0.0
131
0.0
112
0.0
122
1.0
132
0.0
 79
     0
146
0.0
  0
ENDTAB
  0
TABLE
  2
LTYPE
  5
5
330
0
100
AcDbSymbolTable
 70
     6
  0
LTYPE
  5
14
330
5
100
AcDbSymbolTableRecord
100
AcDbLinetypeTableRecord
  2
ByBlock
 70
     0
  3

 72
    65
 73
     0
 40
0.0
  0
LTYPE
  5
15
330
5
100
AcDbSymbolTableRecord
100
AcDbLinetypeTableRecord
  2
ByLayer
 70
     0
  3

 72
    65
 73
     0
 40
0.0
  0
LTYPE
  5
16
330
5
100
AcDbSymbolTableRecord
100
AcDbLinetypeTableRecord
  2
Continuous
 70
     0
  3
Solid line
 72
    65
 73
     0
 40
0.0
  0
LTYPE
  5
3F
330
5
100
AcDbSymbolTableRecord
100
AcDbLinetypeTableRecord
  2
HIDDEN
 70
     0
  3
Hidden __ __ __ __ __ __ __ __ __ __ __ __ __ __
 72
    65
 73
     2
 40
1.905
 49
1.27
 74
     0
 49
-0.635
 74
     0
  0
LTYPE
  5
40
330
5
100
AcDbSymbolTableRecord
100
AcDbLinetypeTableRecord
  2
PHANTOM
 70
     0
  3
Phantom ______  __  __  ______  __  __  ______
 72
    65
 73
     6
 40
12.7
 49
6.35
 74
     0
 49
-1.27
 74
     0
 49
1.27
 74
     0
 49
-1.27
 74
     0
 49
1.27
 74
     0
 49
-1.27
 74
     0
  0
LTYPE
  5
41
330
5
100
AcDbSymbolTableRecord
100
AcDbLinetypeTableRecord
  2
CENTER
 70
     0
  3
Center ____ _ ____ _ ____ _ ____ _ ____ _ ____
 72
    65
 73
     4
 40
10.16
 49
6.35
 74
     0
 49
-1.27
 74
     0
 49
1.27
 74
     0
 49
-1.27
 74
     0
  0
LTYPE
  5
42
330
5
100
AcDbSymbolTableRecord
100
AcDbLinetypeTableRecord
  2
CENTERX2
 70
     0
  3
Center (2x) ________  __  ________  __  _____
 72
    65
 73
     4
 40
20.32
 49
12.7
 74
     0
 49
-2.54
 74
     0
 49
2.54
 74
     0
 49
-2.54
 74
     0
  0
LTYPE
  5
43
330
5
100
AcDbSymbolTableRecord
100
AcDbLinetypeTableRecord
  2
DOT2
 70
     0
  3
Dot (.5x) ........................................
 72
    65
 73
     2
 40
0.635
 49
0.0
 74
     0
 49
-0.635
 74
     0
  0
ENDTAB
  0
TABLE
  2
LAYER
  5
2
330
0
100
AcDbSymbolTable
 70
     2
  0
LAYER
  5
10
330
2
100
AcDbSymbolTableRecord
100
AcDbLayerTableRecord
  2
0
 70
     0
 62
     7
  6
Continuous
370
    -3
390
F
  0
LAYER
  5
44
330
2
100
AcDbSymbolTableRecord
100
AcDbLayerTableRecord
  2
FORMAT
 70
     0
 62
     7
  6
Continuous
370
    -3
390
F
  0
ENDTAB
  0
TABLE
  2
STYLE
  5
3
330
0
100
AcDbSymbolTable
 70
     5
  0
STYLE
  5
11
330
3
100
AcDbSymbolTableRecord
100
AcDbTextStyleTableRecord
  2
Standard
 70
     0
 40
0.0
 41
1.0
 50
0.0
 71
     0
 42
2.5
  3
txt
  4

  0
STYLE
  5
6B
330
3
100
AcDbSymbolTableRecord
100
AcDbTextStyleTableRecord
  2
SLDTEXTSTYLE0
 70
     0
 40
0.0
 41
0.75
 50
0.0
 71
     0
 42
0.2
  3
TXT
  4

  0
STYLE
  5
75
330
3
100
AcDbSymbolTableRecord
100
AcDbTextStyleTableRecord
  2
SLDTEXTSTYLE1
 70
     0
 40
0.0
 41
0.6
 50
0.0
 71
     0
 42
0.2
  3
TXT
  4

  0
STYLE
  5
9E
330
3
100
AcDbSymbolTableRecord
100
AcDbTextStyleTableRecord
  2
SLDTEXTSTYLE2
 70
     0
 40
0.0
 41
0.75
 50
0.0
 71
     0
 42
0.2
  3
TXT
  4
bigfont
  0
STYLE
  5
B2
330
3
100
AcDbSymbolTableRecord
100
AcDbTextStyleTableRecord
  2
SLDTEXTSTYLE3
 70
     0
 40
0.0
 41
0.7
 50
0.0
 71
     0
 42
0.2
  3
TXT
  4

  0
ENDTAB
  0
TABLE
  2
VIEW
  5
6
330
0
100
AcDbSymbolTable
 70
     0
  0
ENDTAB
  0
TABLE
  2
UCS
  5
7
330
0
100
AcDbSymbolTable
 70
     0
  0
ENDTAB
  0
TABLE
  2
APPID
  5
9
330
0
100
AcDbSymbolTable
 70
     1
  0
APPID
  5
12
330
9
100
AcDbSymbolTableRecord
100
AcDbRegAppTableRecord
  2
ACAD
 70
     0
  0
ENDTAB
  0
TABLE
  2
DIMSTYLE
  5
A
330
0
100
AcDbSymbolTable
 70
     5
100
AcDbDimStyleTable
  0
DIMSTYLE
105
27
330
A
100
AcDbSymbolTableRecord
100
AcDbDimStyleTableRecord
  2
ISO-25
 70
     0
 41
2.5
 42
0.625
 43
3.75
 44
1.25
 73
     0
 74
     0
 77
     1
 78
     8
140
2.5
141
2.5
143
0.0393700787
147
0.625
171
     3
172
     1
178
     0
271
     2
272
     2
274
     3
278
    44
283
     0
284
     8
340
11
  0
DIMSTYLE
105
BB
102
{ACAD_REACTORS
330
BA
102
}
330
A
100
AcDbSymbolTableRecord
100
AcDbDimStyleTableRecord
  2
SLDDIMSTYLE0
 70
     0
 41
3.175
 44
0.0
 45
0.000000001
 78
    12
 79
     3
140
2.1166666667
141
0.0
143
0.0393700787
147
0.5291666667
148
0.000000001
170
     1
173
     1
178
     0
271
     1
272
     1
276
     2
284
    12
340
6B
  0
DIMSTYLE
105
1FD
102
{ACAD_REACTORS
330
1FC
102
}
330
A
100
AcDbSymbolTableRecord
100
AcDbDimStyleTableRecord
  2
SLDDIMSTYLE1
 70
     0
 41
3.175
 44
0.0
 45
0.000000001
 78
     4
 79
     1
140
2.1166666667
141
0.0
143
0.0393700787
147
0.5291666667
148
0.000000001
170
     1
173
     1
178
     0
271
     1
272
     1
276
     2
284
    12
340
6B
  0
DIMSTYLE
105
20E
102
{ACAD_REACTORS
330
20D
102
}
330
A
100
AcDbSymbolTableRecord
100
AcDbDimStyleTableRecord
  2
SLDDIMSTYLE2
 70
     0
 41
3.175
 44
0.0
 45
0.000000001
 78
     4
 79
     1
140
2.1166666667
143
0.0393700787
147
0.5291666667
148
0.000000001
170
     1
172
     1
173
     1
178
     0
271
     1
272
     1
276
     2
284
    12
289
     0
340
6B
  0
DIMSTYLE
105
221
102
{ACAD_REACTORS
330
220
102
}
330
A
100
AcDbSymbolTableRecord
100
AcDbDimStyleTableRecord
  2
SLDDIMSTYLE3
 70
     0
 41
3.175
 44
0.0
 45
0.000000001
 78
    12
 79
     3
140
2.1166666667
143
0.0393700787
147
0.5291666667
148
0.000000001
170
     1
172
     1
173
     1
178
     0
271
     1
272
     1
276
     2
284
    12
289
     0
340
6B
  0
ENDTAB
  0
TABLE
  2
BLOCK_RECORD
  5
1
330
0
100
AcDbSymbolTable
 70
    12
  0
BLOCK_RECORD
  5
1F
330
1
100
AcDbSymbolTableRecord
100
AcDbBlockTableRecord
  2
*Model_Space
340
22
  0
BLOCK_RECORD
  5
1B
330
1
100
AcDbSymbolTableRecord
100
AcDbBlockTableRecord
  2
*Paper_Space
340
1E
  0
BLOCK_RECORD
  5
23
330
1
100
AcDbSymbolTableRecord
100
AcDbBlockTableRecord
  2
*Paper_Space0
340
26
  0
BLOCK_RECORD
  5
45
330
1
100
AcDbSymbolTableRecord
100
AcDbBlockTableRecord
  2
Third Angle Projection Block
340
0
102
{BLKREFS
331
6A
102
}
  0
BLOCK_RECORD
  5
7B
330
1
100
AcDbSymbolTableRecord
100
AcDbBlockTableRecord
  2
SW_NOTE_0
340
0
102
{BLKREFS
331
80
102
}
  0
BLOCK_RECORD
  5
81
330
1
100
AcDbSymbolTableRecord
100
AcDbBlockTableRecord
  2
SW_NOTE_1
340
0
102
{BLKREFS
331
86
102
}
  0
BLOCK_RECORD
  5
88
330
1
100
AcDbSymbolTableRecord
100
AcDbBlockTableRecord
  2
SW_NOTE_2
340
0
102
{BLKREFS
331
8D
102
}
  0
BLOCK_RECORD
  5
8F
330
1
100
AcDbSymbolTableRecord
100
AcDbBlockTableRecord
  2
SW_NOTE_3
340
0
102
{BLKREFS
331
95
102
}
  0
BLOCK_RECORD
  5
96
330
1
100
AcDbSymbolTableRecord
100
AcDbBlockTableRecord
  2
SW_NOTE_4
340
0
102
{BLKREFS
331
B5
102
}
  0
BLOCK_RECORD
  5
BC
330
1
100
AcDbSymbolTableRecord
100
AcDbBlockTableRecord
  2
*D7
340
0
  0
BLOCK_RECORD
  5
CB
330
1
100
AcDbSymbolTableRecord
100
AcDbBlockTableRecord
  2
SW_CENTERMARKSYMBOL_0
340
0
102
{BLKREFS
331
D2
102
}
  0
BLOCK_RECORD
  5
1FE
330
1
100
AcDbSymbolTableRecord
100
AcDbBlockTableRecord
  2
*D9
340
0
  0
BLOCK_RECORD
  5
20F
330
1
100
AcDbSymbolTableRecord
100
AcDbBlockTableRecord
  2
*D10
340
0
  0
BLOCK_RECORD
  5
222
330
1
100
AcDbSymbolTableRecord
100
AcDbBlockTableRecord
  2
*D11
340
0
  0
ENDTAB
  0
ENDSEC
  0
SECTION
  2
BLOCKS
  0
BLOCK
  5
20
330
1F
100
AcDbEntity
  8
0
100
AcDbBlockBegin
  2
*Model_Space
 70
     0
 10
0.0
 20
0.0
 30
0.0
  3
*Model_Space
  1

  0
ENDBLK
  5
21
330
1F
100
AcDbEntity
  8
0
100
AcDbBlockEnd
  0
BLOCK
  5
1C
330
1B
100
AcDbEntity
 67
     1
  8
0
100
AcDbBlockBegin
  2
*Paper_Space
 70
     0
 10
0.0
 20
0.0
 30
0.0
  3
*Paper_Space
  1

  0
ENDBLK
  5
1D
330
1B
100
AcDbEntity
 67
     1
  8
0
100
AcDbBlockEnd
  0
BLOCK
  5
24
330
23
100
AcDbEntity
  8
0
100
AcDbBlockBegin
  2
*Paper_Space0
 70
     0
 10
0.0
 20
0.0
 30
0.0
  3
*Paper_Space0
  1

  0
ENDBLK
  5
25
330
23
100
AcDbEntity
  8
0
100
AcDbBlockEnd
  0
BLOCK
  5
46
330
45
100
AcDbEntity
  8
0
100
AcDbBlockBegin
  2
Third Angle Projection Block
 70
     0
 10
0.0
 20
0.0
 30
0.0
  3
Third Angle Projection Block
  1

  0
CIRCLE
  5
48
330
45
100
AcDbEntity
  8
0
  6
Continuous
 62
     7
370
    30
100
AcDbCircle
 10
101.4766388944
 20
18.9404083667
 30
0.0
 40
1.768227153674871
  0
CIRCLE
  5
49
330
45
100
AcDbEntity
  8
0
  6
Continuous
 62
     7
370
    30
100
AcDbCircle
 10
101.4766388944
 20
18.9404083667
 30
0.0
 40
3.901228248531818
  0
LINE
  5
4A
330
45
100
AcDbEntity
  8
0
  6
CENTERX2
 62
     7
370
     0
100
AcDbLine
 10
110.1367822585
 20
18.9404083667
 30
0.0
 11
119.4527334874
 21
18.9404083667
 31
0.0
  0
LINE
  5
4B
330
45
100
AcDbEntity
  8
0
  6
Continuous
 62
     7
370
    30
100
AcDbLine
 10
111.0016388944
 20
20.7086355204
 30
0.0
 11
111.0016388944
 21
17.172181213
 31
0.0
  0
LINE
  5
4C
330
45
100
AcDbEntity
  8
0
  6
Continuous
 62
     7
370
    30
100
AcDbLine
 10
111.0016388944
 20
17.172181213
 30
0.0
 11
118.6216388944
 21
15.1304083667
 31
0.0
  0
LINE
  5
4D
330
45
100
AcDbEntity
  8
0
  6
Continuous
 62
     7
370
    30
100
AcDbLine
 10
118.6216388944
 20
15.1304083667
 30
0.0
 11
118.6216388944
 21
22.7504083667
 31
0.0
  0
LINE
  5
4E
330
45
100
AcDbEntity
  8
0
  6
Continuous
 62
     7
370
    30
100
AcDbLine
 10
118.6216388944
 20
22.7504083667
 30
0.0
 11
111.0016388944
 21
20.7086355204
 31
0.0
  0
LINE
  5
4F
330
45
100
AcDbEntity
  8
0
  6
CENTERX2
 62
     7
370
     0
100
AcDbLine
 10
96.6025854619
 20
18.9404083667
 30
0.0
 11
106.3506923269
 21
18.9404083667
 31
0.0
  0
LINE
  5
50
330
45
100
AcDbEntity
  8
0
  6
CENTERX2
 62
     7
370
     0
100
AcDbLine
 10
101.4766388944
 20
23.8144617992
 30
0.0
 11
101.4766388944
 21
14.0663549342
 31
0.0
  0
POINT
  5
51
330
45
100
AcDbEntity
  8
0
  6
Continuous
 62
     7
370
     0
100
AcDbPoint
 10
101.4766388944
 20
18.9404083667
 30
0.0
  0
ENDBLK
  5
47
330
45
100
AcDbEntity
  8
0
100
AcDbBlockEnd
  0
BLOCK
  5
7C
330
7B
100
AcDbEntity
  8
0
100
AcDbBlockBegin
  2
SW_NOTE_0
 70
     0
 10
0.0
 20
0.0
 30
0.0
  3
SW_NOTE_0
  1

  0
MTEXT
  5
7E
330
7B
100
AcDbEntity
  8
0
  6
Continuous
 62
     0
370
     0
100
AcDbMText
 10
19.90725
 20
1.9645392354
 30
0.0
 40
1.524
 41
0.0
 71
     2
 72
     1
  1
VALUES IN PARENTHESIS ARE CALCULATED
  7
SLDTEXTSTYLE0
 73
     1
 44
1.0
  0
MTEXT
  5
7F
330
7B
100
AcDbEntity
  8
0
  6
Continuous
 62
     0
370
     0
100
AcDbMText
 10
19.8778795174
 20
-0.5594606586
 30
0.0
 40
1.524
 41
0.0
 71
     2
 72
     1
  1
AND MAY CONTAIN ROUNDOFF ERRORS
  7
SLDTEXTSTYLE0
 73
     1
 44
1.0
  0
ENDBLK
  5
7D
330
7B
100
AcDbEntity
  8
0
100
AcDbBlockEnd
  0
BLOCK
  5
82
330
81
100
AcDbEntity
  8
0
100
AcDbBlockBegin
  2
SW_NOTE_1
 70
     0
 10
0.0
 20
0.0
 30
0.0
  3
SW_NOTE_1
  1

  0
MTEXT
  5
84
330
81
100
AcDbEntity
  8
0
  6
Continuous
 62
     0
370
     0
100
AcDbMText
 10
0.0
 20
2.7285267159
 30
0.0
 40
2.1166666667
 41
0.0
 71
     1
 72
     1
  1
DRAWING
  7
SLDTEXTSTYLE0
 73
     1
 44
1.0
  0
MTEXT
  5
85
330
81
100
AcDbEntity
  8
0
  6
Continuous
 62
     0
370
     0
100
AcDbMText
 10
0.0
 20
-0.0936954723
 30
0.0
 40
2.1166666667
 41
0.0
 71
     1
 72
     1
  1
PROJECTION
  7
SLDTEXTSTYLE0
 73
     1
 44
1.0
  0
ENDBLK
  5
83
330
81
100
AcDbEntity
  8
0
100
AcDbBlockEnd
  0
BLOCK
  5
89
330
88
100
AcDbEntity
  8
0
100
AcDbBlockBegin
  2
SW_NOTE_2
 70
     0
 10
0.0
 20
0.0
 30
0.0
  3
SW_NOTE_2
  1

  0
MTEXT
  5
8B
330
88
100
AcDbEntity
  8
0
  6
Continuous
 62
     0
370
     0
100
AcDbMText
 10
25.052734375
 20
4.0927900738
 30
0.0
 40
3.175
 41
0.0
 71
     2
 72
     1
  1
FOR INFORMATION ONLY
  7
SLDTEXTSTYLE0
 73
     1
 44
1.0
  0
MTEXT
  5
8C
330
88
100
AcDbEntity
  8
0
  6
Continuous
 62
     0
370
     0
100
AcDbMText
 10
25.3768468589
 20
-0.1405432084
 30
0.0
 40
3.175
 41
0.0
 71
     2
 72
     1
  1
NOT FOR MANUFACTURING PURPOSES
  7
SLDTEXTSTYLE0
 73
     1
 44
1.0
  0
ENDBLK
  5
8A
330
88
100
AcDbEntity
  8
0
100
AcDbBlockEnd
  0
BLOCK
  5
90
330
8F
100
AcDbEntity
  8
0
100
AcDbBlockBegin
  2
SW_NOTE_3
 70
     0
 10
0.0
 20
0.0
 30
0.0
  3
SW_NOTE_3
  1

  0
MTEXT
  5
92
330
8F
100
AcDbEntity
  8
0
  6
Continuous
 62
     0
370
     0
100
AcDbMText
 10
1.9016927083
 20
3.4106583948
 30
0.0
 40
2.6458333333
 41
0.0
 71
     2
 72
     1
  1
%%c
  7
SLDTEXTSTYLE0
 73
     1
 44
1.0
  0
MTEXT
  5
93
330
8F
100
AcDbEntity
  8
0
  6
Continuous
 62
     0
370
     0
100
AcDbMText
 10
32.3124233385
 20
3.4106583948
 30
0.0
 40
2.6458333333
 41
0.0
 71
     2
 72
     1
  1
50.8mm, f= 200.0mm BROADBAND
  7
SLDTEXTSTYLE0
 73
     1
 44
1.0
  0
MTEXT
  5
94
330
8F
100
AcDbEntity
  8
0
  6
Continuous
 62
     0
370
     0
100
AcDbMText
 10
30.8202281992
 20
-0.1171193403
 30
0.0
 40
2.6458333333
 41
0.0
 71
     2
 72
     1
  1
MIRROR 400-750nm
  7
SLDTEXTSTYLE0
 73
     1
 44
1.0
  0
ENDBLK
  5
91
330
8F
100
AcDbEntity
  8
0
100
AcDbBlockEnd
  0
BLOCK
  5
97
330
96
100
AcDbEntity
  8
0
100
AcDbBlockBegin
  2
SW_NOTE_4
 70
     0
 10
0.0
 20
0.0
 30
0.0
  3
SW_NOTE_4
  1

  0
MTEXT
  5
99
330
96
100
AcDbEntity
  8
0
  6
Continuous
 62
     0
370
     0
100
AcDbMText
 10
0.0
 20
3.0695925553
 30
0.0
 40
2.38125
 41
0.0
 71
     1
 72
     1
  1
NOTES/SPECIFICATIONS:
  7
SLDTEXTSTYLE0
 73
     1
 44
1.0
  0
MTEXT
  5
9A
330
96
100
AcDbEntity
  8
0
  6
Continuous
 62
     0
370
     0
100
AcDbMText
 10
9.9999997765
 20
-3.2804073679
 30
0.0
 40
2.38125
 41
0.0
 71
     1
 72
     1
  1
CLEAR APERTURE: >90% DIAMETER
  7
SLDTEXTSTYLE0
 73
     1
 44
1.0
  0
MTEXT
  5
9B
330
96
100
AcDbEntity
  8
0
  6
Continuous
 62
     0
370
     0
100
AcDbMText
 10
0.0
 20
-3.2804073679
 30
0.0
 40
2.38125
 41
0.0
 71
     1
 72
     1
  1
1.
  7
SLDTEXTSTYLE0
 73
     1
 44
1.0
  0
MTEXT
  5
9C
330
96
100
AcDbEntity
  8
0
  6
Continuous
 62
     0
370
     0
100
AcDbMText
 10
9.9999997765
 20
-6.5976282029
 30
0.0
 40
2.38125
 41
0.0
 71
     1
 72
     1
  1
SURFACE ACCURACY
  7
SLDTEXTSTYLE0
 73
     1
 44
1.0
  0
MTEXT
  5
9D
330
96
100
AcDbEntity
  8
0
  6
Continuous
 62
     0
370
     0
100
AcDbMText
 10
42.9582651705
 20
-6.6891910621
 30
0.0
 40
2.286
 41
0.0
 71
     1
 72
     1
  1
:
  7
SLDTEXTSTYLE0
 73
     1
 44
1.0
  0
MTEXT
  5
9F
330
96
100
AcDbEntity
  8
0
  6
Continuous
 62
     0
370
     0
100
AcDbMText
 10
44.6957833081
 20
-6.5976282029
 30
0.0
 40
2.38125
 41
0.0
 71
     1
 72
     1
  1
\M+183C9/
  7
SLDTEXTSTYLE2
 73
     1
 44
1.0
  0
MTEXT
  5
A0
330
96
100
AcDbEntity
  8
0
  6
Continuous
 62
     0
370
     0
100
AcDbMText
 10
47.7715637535
 20
-6.6891910621
 30
0.0
 40
2.286
 41
0.0
 71
     1
 72
     1
  1
4
  7
SLDTEXTSTYLE0
 73
     1
 44
1.0
  0
MTEXT
  5
A1
330
96
100
AcDbEntity
  8
0
  6
Continuous
 62
     0
370
     0
100
AcDbMText
 10
50.3052156419
 20
-6.5976282029
 30
0.0
 40
2.38125
 41
0.0
 71
     1
 72
     1
  1
AT 632.8nm OVER CLEAR APERTURE
  7
SLDTEXTSTYLE0
 73
     1
 44
1.0
  0
MTEXT
  5
A2
330
96
100
AcDbEntity
  8
0
  6
Continuous
 62
     0
370
     0
100
AcDbMText
 10
0.0
 20
-6.5976282029
 30
0.0
 40
2.38125
 41
0.0
 71
     1
 72
     1
  1
2.
  7
SLDTEXTSTYLE0
 73
     1
 44
1.0
  0
MTEXT
  5
A3
330
96
100
AcDbEntity
  8
0
  6
Continuous
 62
     0
370
     0
100
AcDbMText
 10
9.9999997765
 20
-9.7726281646
 30
0.0
 40
2.38125
 41
0.0
 71
     1
 72
     1
  1
SURFACE QUALITY: 20-10 SCRATCH-DIG
  7
SLDTEXTSTYLE0
 73
     1
 44
1.0
  0
MTEXT
  5
A4
330
96
100
AcDbEntity
  8
0
  6
Continuous
 62
     0
370
     0
100
AcDbMText
 10
0.0
 20
-9.7726281646
 30
0.0
 40
2.38125
 41
0.0
 71
     1
 72
     1
  1
3.
  7
SLDTEXTSTYLE0
 73
     1
 44
1.0
  0
MTEXT
  5
A5
330
96
100
AcDbEntity
  8
0
  6
Continuous
 62
     0
370
     0
100
AcDbMText
 10
9.9999997765
 20
-12.9476281262
 30
0.0
 40
2.38125
 41
0.0
 71
     1
 72
     1
  1
BACK SURFACE: FINE GROUND
  7
SLDTEXTSTYLE0
 73
     1
 44
1.0
  0
MTEXT
  5
A6
330
96
100
AcDbEntity
  8
0
  6
Continuous
 62
     0
370
     0
100
AcDbMText
 10
0.0
 20
-12.9476281262
 30
0.0
 40
2.38125
 41
0.0
 71
     1
 72
     1
  1
4.
  7
SLDTEXTSTYLE0
 73
     1
 44
1.0
  0
MTEXT
  5
A7
330
96
100
AcDbEntity
  8
0
  6
Continuous
 62
     0
370
     0
100
AcDbMText
 10
9.9999997765
 20
-16.1226280878
 30
0.0
 40
2.38125
 41
0.0
 71
     1
 72
     1
  1
THICKNESS TOLERANCE:
  7
SLDTEXTSTYLE0
 73
     1
 44
1.0
  0
MTEXT
  5
A8
330
96
100
AcDbEntity
  8
0
  6
Continuous
 62
     0
370
     0
100
AcDbMText
 10
46.741804108
 20
-16.1226280878
 30
0.0
 40
2.38125
 41
0.0
 71
     1
 72
     1
  1
%%p
  7
SLDTEXTSTYLE0
 73
     1
 44
1.0
  0
MTEXT
  5
A9
330
96
100
AcDbEntity
  8
0
  6
Continuous
 62
     0
370
     0
100
AcDbMText
 10
49.0119289607
 20
-16.1226280878
 30
0.0
 40
2.38125
 41
0.0
 71
     1
 72
     1
  1
0.2 mm
  7
SLDTEXTSTYLE0
 73
     1
 44
1.0
  0
MTEXT
  5
AA
330
96
100
AcDbEntity
  8
0
  6
Continuous
 62
     0
370
     0
100
AcDbMText
 10
0.0
 20
-16.1226280878
 30
0.0
 40
2.38125
 41
0.0
 71
     1
 72
     1
  1
5.
  7
SLDTEXTSTYLE0
 73
     1
 44
1.0
  0
MTEXT
  5
AB
330
96
100
AcDbEntity
  8
0
  6
Continuous
 62
     0
370
     0
100
AcDbMText
 10
9.9999997765
 20
-19.2976280495
 30
0.0
 40
2.38125
 41
0.0
 71
     1
 72
     1
  1
DIAMETER TOLERANCE: + 0.0/-0.2 mm
  7
SLDTEXTSTYLE0
 73
     1
 44
1.0
  0
MTEXT
  5
AC
330
96
100
AcDbEntity
  8
0
  6
Continuous
 62
     0
370
     0
100
AcDbMText
 10
0.0
 20
-19.2976280495
 30
0.0
 40
2.38125
 41
0.0
 71
     1
 72
     1
  1
6.
  7
SLDTEXTSTYLE0
 73
     1
 44
1.0
  0
MTEXT
  5
AD
330
96
100
AcDbEntity
  8
0
  6
Continuous
 62
     0
370
     0
100
AcDbMText
 10
9.9999997765
 20
-22.4726280111
 30
0.0
 40
2.38125
 41
0.0
 71
     1
 72
     1
  1
COATING: BROADBAND HR, DIELECTRIC
  7
SLDTEXTSTYLE0
 73
     1
 44
1.0
  0
MTEXT
  5
AE
330
96
100
AcDbEntity
  8
0
  6
Continuous
 62
     0
370
     0
100
AcDbMText
 10
0.0
 20
-22.4726280111
 30
0.0
 40
2.38125
 41
0.0
 71
     1
 72
     1
  1
7.
  7
SLDTEXTSTYLE0
 73
     1
 44
1.0
  0
MTEXT
  5
AF
330
96
100
AcDbEntity
  8
0
  6
Continuous
 62
     0
370
     0
100
AcDbMText
 10
10.0
 20
-25.6476279727
 30
0.0
 40
2.38125
 41
0.0
 71
     1
 72
     1
  1
Rs and Rp >99% OVER WAVELENGTH RANGE
  7
SLDTEXTSTYLE0
 73
     1
 44
1.0
  0
MTEXT
  5
B0
330
96
100
AcDbEntity
  8
0
  6
Continuous
 62
     0
370
     0
100
AcDbMText
 10
10.0
 20
-28.8226279343
 30
0.0
 40
2.38125
 41
0.0
 71
     1
 72
     1
  1
AOI: 0
  7
SLDTEXTSTYLE0
 73
     1
 44
1.0
  0
MTEXT
  5
B1
330
96
100
AcDbEntity
  8
0
  6
Continuous
 62
     0
370
     0
100
AcDbMText
 10
19.344201535
 20
-28.8226279343
 30
0.0
 40
2.38125
 41
0.0
 71
     1
 72
     1
  1
%%d
  7
SLDTEXTSTYLE0
 73
     1
 44
1.0
  0
MTEXT
  5
B3
330
96
100
AcDbEntity
  8
0
  6
Continuous
 62
     0
370
     0
100
AcDbMText
 10
21.7505871639
 20
-28.8226279343
 30
0.0
 40
2.38125
 41
0.0
 71
     1
 72
     1
  1
TO 45
  7
SLDTEXTSTYLE3
 73
     1
 44
1.0
  0
MTEXT
  5
B4
330
96
100
AcDbEntity
  8
0
  6
Continuous
 62
     0
370
     0
100
AcDbMText
 10
30.2459171414
 20
-28.8226279343
 30
0.0
 40
2.38125
 41
0.0
 71
     1
 72
     1
  1
%%d
  7
SLDTEXTSTYLE0
 73
     1
 44
1.0
  0
ENDBLK
  5
98
330
96
100
AcDbEntity
  8
0
100
AcDbBlockEnd
  0
BLOCK
  5
BD
330
BC
100
AcDbEntity
  8
0
100
AcDbBlockBegin
  2
*D7
 70
     1
 10
0.0
 20
0.0
 30
0.0
  3
*D7
  1

  0
SOLID
  5
BF
330
BC
100
AcDbEntity
  8
0
  6
Continuous
 62
     7
370
     0
100
AcDbTrace
 10
74.0918377245
 20
88.5609063629
 30
0.0
 11
75.9768235088
 21
85.9560037557
 31
0.0
 12
76.6954833783
 22
86.6741847858
 32
0.0
 13
76.6954833783
 23
86.6741847858
 33
0.0
  0
LINE
  5
C0
330
BC
100
AcDbEntity
  8
0
  6
Continuous
 62
     7
370
     0
100
AcDbLine
 10
90.3130510242
 20
76.8245986457
 30
0.0
 11
90.3130510242
 21
73.96657603
 31
0.0
  0
LINE
  5
C1
330
BC
100
AcDbEntity
  8
0
  6
Continuous
 62
     7
370
     0
100
AcDbLine
 10
90.3130510242
 20
73.96657603
 30
0.0
 11
90.7420881121
 21
73.96657603
 31
0.0
  0
LINE
  5
C2
330
BC
100
AcDbEntity
  8
0
  6
Continuous
 62
     7
370
     0
100
AcDbLine
 10
90.3130510242
 20
76.8245986457
 30
0.0
 11
90.7420881121
 21
76.8245986457
 31
0.0
  0
LINE
  5
C3
330
BC
100
AcDbEntity
  8
0
  6
Continuous
 62
     7
370
     0
100
AcDbLine
 10
99.7860310217
 20
76.8245986457
 30
0.0
 11
99.7860310217
 21
73.96657603
 31
0.0
  0
LINE
  5
C4
330
BC
100
AcDbEntity
  8
0
  6
Continuous
 62
     7
370
     0
100
AcDbLine
 10
99.7860310217
 20
73.96657603
 30
0.0
 11
99.3569939338
 21
73.96657603
 31
0.0
  0
LINE
  5
C5
330
BC
100
AcDbEntity
  8
0
  6
Continuous
 62
     7
370
     0
100
AcDbLine
 10
99.7860310217
 20
76.8245986457
 30
0.0
 11
99.3569939338
 21
76.8245986457
 31
0.0
  0
LINE
  5
C6
330
BC
100
AcDbEntity
  8
0
  6
Continuous
 62
     7
370
     0
100
AcDbLine
 10
74.0918377245
 20
88.5609063629
 30
0.0
 11
83.8882455527
 21
78.7579668857
 31
0.0
  0
LINE
  5
C7
330
BC
100
AcDbEntity
  8
0
  6
Continuous
 62
     7
370
     0
100
AcDbLine
 10
83.8882455527
 20
78.7579668857
 30
0.0
 11
87.6982455527
 21
78.7579668857
 31
0.0
  0
MTEXT
  5
C8
330
BC
100
AcDbEntity
  8
0
  6
Continuous
 62
     7
370
     0
100
AcDbMText
 10
89.4549768485
 20
79.8053037112
 30
0.0
 40
2.1166666667
 41
0.0
 71
     1
 72
     1
  1
%%c
  7
SLDTEXTSTYLE0
 73
     1
 44
1.0
  0
MTEXT
  5
C9
330
BC
100
AcDbEntity
  8
0
  6
Continuous
 62
     7
370
     0
100
AcDbMText
 10
92.4811184416
 20
79.8053037112
 30
0.0
 40
2.1166666667
 41
0.0
 71
     1
 72
     1
  1
50.8mm
  7
SLDTEXTSTYLE0
 73
     1
 44
1.0
  0
MTEXT
  5
CA
330
BC
100
AcDbEntity
  8
0
  6
Continuous
 62
     7
370
     0
100
AcDbMText
 10
91.1711251999
 20
76.4429241633
 30
0.0
 40
2.1166666667
 41
0.0
 71
     1
 72
     1
  1
2.00in
  7
SLDTEXTSTYLE0
 73
     1
 44
1.0
  0
ENDBLK
  5
BE
330
BC
100
AcDbEntity
  8
0
100
AcDbBlockEnd
  0
BLOCK
  5
CC
330
CB
100
AcDbEntity
  8
0
100
AcDbBlockBegin
  2
SW_CENTERMARKSYMBOL_0
 70
     0
 10
0.0
 20
0.0
 30
0.0
  3
SW_CENTERMARKSYMBOL_0
  1

  0
LINE
  5
CE
330
CB
100
AcDbEntity
  8
0
  6
Continuous
 62
     0
370
     0
100
AcDbLine
 10
0.0
 20
0.0
 30
0.0
 11
0.0
 21
2.0
 31
0.0
  0
LINE
  5
CF
330
CB
100
AcDbEntity
  8
0
  6
Continuous
 62
     0
370
     0
100
AcDbLine
 10
0.0
 20
0.0
 30
0.0
 11
-2.0
 21
0.0
 31
0.0
  0
LINE
  5
D0
330
CB
100
AcDbEntity
  8
0
  6
Continuous
 62
     0
370
     0
100
AcDbLine
 10
0.0
 20
0.0
 30
0.0
 11
0.0
 21
-2.0
 31
0.0
  0
LINE
  5
D1
330
CB
100
AcDbEntity
  8
0
  6
Continuous
 62
     0
370
     0
100
AcDbLine
 10
0.0
 20
0.0
 30
0.0
 11
2.0
 21
0.0
 31
0.0
  0
ENDBLK
  5
CD
330
CB
100
AcDbEntity
  8
0
100
AcDbBlockEnd
  0
BLOCK
  5
1FF
330
1FE
100
AcDbEntity
  8
0
100
AcDbBlockBegin
  2
*D9
 70
     1
 10
0.0
 20
0.0
 30
0.0
  3
*D9
  1

  0
SOLID
  5
201
330
1FE
100
AcDbEntity
  8
0
  6
Continuous
 62
     7
370
     0
100
AcDbTrace
 10
131.2599713601
 20
91.2207791301
 30
0.0
 11
134.4132064728
 21
90.5916548783
 31
0.0
 12
134.4520852977
 22
91.6069107263
 32
0.0
 13
134.4520852977
 23
91.6069107263
 33
0.0
  0
LINE
  5
202
330
1FE
100
AcDbEntity
  8
0
  6
Continuous
 62
     7
370
     0
100
AcDbLine
 10
151.5433020019
 20
88.7502234528
 30
0.0
 11
151.5433020019
 21
85.8922008371
 31
0.0
  0
LINE
  5
203
330
1FE
100
AcDbEntity
  8
0
  6
Continuous
 62
     7
370
     0
100
AcDbLine
 10
151.5433020019
 20
85.8922008371
 30
0.0
 11
151.9723390897
 21
85.8922008371
 31
0.0
  0
LINE
  5
204
330
1FE
100
AcDbEntity
  8
0
  6
Continuous
 62
     7
370
     0
100
AcDbLine
 10
151.5433020019
 20
88.7502234528
 30
0.0
 11
151.9723390897
 21
88.7502234528
 31
0.0
  0
LINE
  5
205
330
1FE
100
AcDbEntity
  8
0
  6
Continuous
 62
     7
370
     0
100
AcDbLine
 10
162.5798838307
 20
88.7502234528
 30
0.0
 11
162.5798838307
 21
85.8922008371
 31
0.0
  0
LINE
  5
206
330
1FE
100
AcDbEntity
  8
0
  6
Continuous
 62
     7
370
     0
100
AcDbLine
 10
162.5798838307
 20
85.8922008371
 30
0.0
 11
162.1508467428
 21
85.8922008371
 31
0.0
  0
LINE
  5
207
330
1FE
100
AcDbEntity
  8
0
  6
Continuous
 62
     7
370
     0
100
AcDbLine
 10
162.5798838307
 20
88.7502234528
 30
0.0
 11
162.1508467428
 21
88.7502234528
 31
0.0
  0
LINE
  5
208
330
1FE
100
AcDbEntity
  8
0
  6
Continuous
 62
     7
370
     0
100
AcDbLine
 10
131.2599713601
 20
91.2207791301
 30
0.0
 11
145.2877278261
 21
90.6835916928
 31
0.0
  0
LINE
  5
209
330
1FE
100
AcDbEntity
  8
0
  6
Continuous
 62
     7
370
     0
100
AcDbLine
 10
145.2877278261
 20
90.6835916928
 30
0.0
 11
149.0977278261
 21
90.6835916928
 31
0.0
  0
MTEXT
  5
20A
330
1FE
100
AcDbEntity
  8
0
  6
Continuous
 62
     7
370
     0
100
AcDbMText
 10
150.6852278261
 20
91.7309285183
 30
0.0
 40
2.1166666667
 41
0.0
 71
     1
 72
     1
  1
R
  7
SLDTEXTSTYLE0
 73
     1
 44
1.0
  0
MTEXT
  5
20B
330
1FE
100
AcDbEntity
  8
0
  6
Continuous
 62
     7
370
     0
100
AcDbMText
 10
152.397403612
 20
91.7309285183
 30
0.0
 40
2.1166666667
 41
0.0
 71
     1
 72
     1
  1
400.0mm
  7
SLDTEXTSTYLE0
 73
     1
 44
1.0
  0
MTEXT
  5
20C
330
1FE
100
AcDbEntity
  8
0
  6
Continuous
 62
     7
370
     0
100
AcDbMText
 10
152.4013761776
 20
88.3685489704
 30
0.0
 40
2.1166666667
 41
0.0
 71
     1
 72
     1
  1
15.75in
  7
SLDTEXTSTYLE0
 73
     1
 44
1.0
  0
ENDBLK
  5
200
330
1FE
100
AcDbEntity
  8
0
100
AcDbBlockEnd
  0
BLOCK
  5
210
330
20F
100
AcDbEntity
  8
0
100
AcDbBlockBegin
  2
*D10
 70
     1
 10
0.0
 20
0.0
 30
0.0
  3
*D10
  1

  0
SOLID
  5
212
330
20F
100
AcDbEntity
  8
0
  6
Continuous
 62
     7
370
     0
100
AcDbTrace
 10
140.5529445735
 20
141.9274031008
 30
0.0
 11
143.7279445735
 21
141.4194031008
 31
0.0
 12
143.7279445735
 22
142.4354031008
 32
0.0
 13
143.7279445735
 23
142.4354031008
 33
0.0
  0
SOLID
  5
213
330
20F
100
AcDbEntity
  8
0
  6
Continuous
 62
     7
370
     0
100
AcDbTrace
 10
131.5529445735
 20
141.9274031008
 30
0.0
 11
128.3779445735
 21
142.4354031008
 31
0.0
 12
128.3779445735
 22
141.4194031008
 32
0.0
 13
128.3779445735
 23
141.4194031008
 33
0.0
  0
LINE
  5
214
330
20F
100
AcDbEntity
  8
0
  6
Continuous
 62
     7
370
     0
100
AcDbLine
 10
149.9786241358
 20
141.6752246347
 30
0.0
 11
149.9786241358
 21
138.817202019
 31
0.0
  0
LINE
  5
215
330
20F
100
AcDbEntity
  8
0
  6
Continuous
 62
     7
370
     0
100
AcDbLine
 10
149.9786241358
 20
138.817202019
 30
0.0
 11
150.4076612236
 21
138.817202019
 31
0.0
  0
LINE
  5
216
330
20F
100
AcDbEntity
  8
0
  6
Continuous
 62
     7
370
     0
100
AcDbLine
 10
149.9786241358
 20
141.6752246347
 30
0.0
 11
150.4076612236
 21
141.6752246347
 31
0.0
  0
LINE
  5
217
330
20F
100
AcDbEntity
  8
0
  6
Continuous
 62
     7
370
     0
100
AcDbLine
 10
159.4516041333
 20
141.6752246347
 30
0.0
 11
159.4516041333
 21
138.817202019
 31
0.0
  0
LINE
  5
218
330
20F
100
AcDbEntity
  8
0
  6
Continuous
 62
     7
370
     0
100
AcDbLine
 10
159.4516041333
 20
138.817202019
 30
0.0
 11
159.0225670454
 21
138.817202019
 31
0.0
  0
LINE
  5
219
330
20F
100
AcDbEntity
  8
0
  6
Continuous
 62
     7
370
     0
100
AcDbLine
 10
159.4516041333
 20
141.6752246347
 30
0.0
 11
159.0225670454
 21
141.6752246347
 31
0.0
  0
LINE
  5
21A
330
20F
100
AcDbEntity
  8
0
  6
Continuous
 62
     7
370
     0
100
AcDbLine
 10
140.5529445735
 20
132.9974031008
 30
0.0
 11
140.5529445735
 21
143.7054031008
 31
0.0
  0
LINE
  5
21B
330
20F
100
AcDbEntity
  8
0
  6
Continuous
 62
     7
370
     0
100
AcDbLine
 10
131.5529445735
 20
107.7974031008
 30
0.0
 11
131.5529445735
 21
143.7054031008
 31
0.0
  0
LINE
  5
21C
330
20F
100
AcDbEntity
  8
0
  6
Continuous
 62
     7
370
     0
100
AcDbLine
 10
140.5529445735
 20
141.9274031008
 30
0.0
 11
147.1701560899
 21
141.9274031008
 31
0.0
  0
LINE
  5
21D
330
20F
100
AcDbEntity
  8
0
  6
Continuous
 62
     7
370
     0
100
AcDbLine
 10
131.5529445735
 20
141.9274031008
 30
0.0
 11
125.2029445735
 21
141.9274031008
 31
0.0
  0
MTEXT
  5
21E
330
20F
100
AcDbEntity
  8
0
  6
Continuous
 62
     7
370
     0
100
AcDbMText
 10
150.1156776499
 20
144.6559297002
 30
0.0
 40
2.1166666667
 41
0.0
 71
     1
 72
     1
  1
9.0mm
  7
SLDTEXTSTYLE0
 73
     1
 44
1.0
  0
MTEXT
  5
21F
330
20F
100
AcDbEntity
  8
0
  6
Continuous
 62
     7
370
     0
100
AcDbMText
 10
150.8366983115
 20
141.2935501523
 30
0.0
 40
2.1166666667
 41
0.0
 71
     1
 72
     1
  1
0.35in
  7
SLDTEXTSTYLE0
 73
     1
 44
1.0
  0
ENDBLK
  5
211
330
20F
100
AcDbEntity
  8
0
100
AcDbBlockEnd
  0
BLOCK
  5
223
330
222
100
AcDbEntity
  8
0
100
AcDbBlockBegin
  2
*D11
 70
     1
 10
0.0
 20
0.0
 30
0.0
  3
*D11
  1

  0
SOLID
  5
225
330
222
100
AcDbEntity
  8
0
  6
Continuous
 62
     7
370
     0
100
AcDbTrace
 10
140.5529445735
 20
153.9274031008
 30
0.0
 11
143.7279445735
 21
153.4194031008
 31
0.0
 12
143.7279445735
 22
154.4354031008
 32
0.0
 13
143.7279445735
 23
154.4354031008
 33
0.0
  0
SOLID
  5
226
330
222
100
AcDbEntity
  8
0
  6
Continuous
 62
     7
370
     0
100
AcDbTrace
 10
130.7583330366
 20
153.9274031008
 30
0.0
 11
127.5833330366
 21
154.4354031008
 31
0.0
 12
127.5833330366
 22
153.4194031008
 32
0.0
 13
127.5833330366
 23
153.4194031008
 33
0.0
  0
LINE
  5
227
330
222
100
AcDbEntity
  8
0
  6
Continuous
 62
     7
370
     0
100
AcDbLine
 10
147.2919780013
 20
153.6752246347
 30
0.0
 11
147.2919780013
 21
150.817202019
 31
0.0
  0
LINE
  5
228
330
222
100
AcDbEntity
  8
0
  6
Continuous
 62
     7
370
     0
100
AcDbLine
 10
147.2919780013
 20
150.817202019
 30
0.0
 11
147.7210150891
 21
150.817202019
 31
0.0
  0
LINE
  5
229
330
222
100
AcDbEntity
  8
0
  6
Continuous
 62
     7
370
     0
100
AcDbLine
 10
147.2919780013
 20
153.6752246347
 30
0.0
 11
147.7210150891
 21
153.6752246347
 31
0.0
  0
LINE
  5
22A
330
222
100
AcDbEntity
  8
0
  6
Continuous
 62
     7
370
     0
100
AcDbLine
 10
156.7649579988
 20
153.6752246347
 30
0.0
 11
156.7649579988
 21
150.817202019
 31
0.0
  0
LINE
  5
22B
330
222
100
AcDbEntity
  8
0
  6
Continuous
 62
     7
370
     0
100
AcDbLine
 10
156.7649579988
 20
150.817202019
 30
0.0
 11
156.3359209109
 21
150.817202019
 31
0.0
  0
LINE
  5
22C
330
222
100
AcDbEntity
  8
0
  6
Continuous
 62
     7
370
     0
100
AcDbLine
 10
156.7649579988
 20
153.6752246347
 30
0.0
 11
156.3359209109
 21
153.6752246347
 31
0.0
  0
LINE
  5
22D
330
222
100
AcDbEntity
  8
0
  6
Continuous
 62
     7
370
     0
100
AcDbLine
 10
140.5529445735
 20
132.9974031008
 30
0.0
 11
140.5529445735
 21
155.7054031008
 31
0.0
  0
LINE
  5
22E
330
222
100
AcDbEntity
  8
0
  6
Continuous
 62
     7
370
     0
100
AcDbLine
 10
130.7583330366
 20
132.9977567096
 30
0.0
 11
130.7583330366
 21
155.7054031008
 31
0.0
  0
LINE
  5
22F
330
222
100
AcDbEntity
  8
0
  6
Continuous
 62
     7
370
     0
100
AcDbLine
 10
140.5529445735
 20
153.9274031008
 30
0.0
 11
144.4835099554
 21
153.9274031008
 31
0.0
  0
LINE
  5
230
330
222
100
AcDbEntity
  8
0
  6
Continuous
 62
     7
370
     0
100
AcDbLine
 10
130.7583330366
 20
153.9274031008
 30
0.0
 11
124.4083330366
 21
153.9274031008
 31
0.0
  0
MTEXT
  5
231
330
222
100
AcDbEntity
  8
0
  6
Continuous
 62
     7
370
     0
100
AcDbMText
 10
147.4290315154
 20
156.6559297002
 30
0.0
 40
2.1166666667
 41
0.0
 71
     1
 72
     1
  1
9.8mm
  7
SLDTEXTSTYLE0
 73
     1
 44
1.0
  0
MTEXT
  5
232
330
222
100
AcDbEntity
  8
0
  6
Continuous
 62
     7
370
     0
100
AcDbMText
 10
158.4167821745
 20
156.6559297002
 30
0.0
 40
2.1166666667
 41
0.0
 71
     1
 72
     1
  1
REF
  7
SLDTEXTSTYLE0
 73
     1
 44
1.0
  0
MTEXT
  5
233
330
222
100
AcDbEntity
  8
0
  6
Continuous
 62
     7
370
     0
100
AcDbMText
 10
148.150052177
 20
153.2935501523
 30
0.0
 40
2.1166666667
 41
0.0
 71
     1
 72
     1
  1
0.39in
  7
SLDTEXTSTYLE0
 73
     1
 44
1.0
  0
ENDBLK
  5
224
330
222
100
AcDbEntity
  8
0
100
AcDbBlockEnd
  0
ENDSEC
  0
SECTION
  2
ENTITIES
  0
LINE
  5
52
330
1F
100
AcDbEntity
  8
0
  6
Continuous
 62
     7
370
     0
100
AcDbLine
 10
1.5793501011
 20
214.6453799966
 30
0.0
 11
277.9892068491
 21
214.6453799966
 31
0.0
  0
LINE
  5
53
330
1F
100
AcDbEntity
  8
0
  6
Continuous
 62
     7
370
     0
100
AcDbLine
 10
1.5793501011
 20
214.6453799966
 30
0.0
 11
1.5793501011
 21
0.9031642596
 31
0.0
  0
LINE
  5
54
330
1F
100
AcDbEntity
  8
0
  6
Continuous
 62
     7
370
     0
100
AcDbLine
 10
277.9892068491
 20
0.9031642596
 30
0.0
 11
1.5793501011
 21
0.9031642596
 31
0.0
  0
LINE
  5
55
330
1F
100
AcDbEntity
  8
0
  6
Continuous
 62
     7
370
     0
100
AcDbLine
 10
277.9892068491
 20
0.9031642596
 30
0.0
 11
277.9892068491
 21
214.6453799966
 31
0.0
  0
LINE
  5
56
330
1F
100
AcDbEntity
  8
0
  6
Continuous
 62
     7
370
     0
100
AcDbLine
 10
215.7427640041
 20
12.2958890132
 30
0.0
 11
171.6327596684
 21
12.2958890132
 31
0.0
  0
LINE
  5
57
330
1F
100
AcDbEntity
  8
0
  6
Continuous
 62
     7
370
     0
100
AcDbLine
 10
171.6327596684
 20
12.2958890132
 30
0.0
 11
171.6327596684
 21
26.1661402506
 31
0.0
  0
LINE
  5
58
330
1F
100
AcDbEntity
  8
0
  6
Continuous
 62
     7
370
     0
100
AcDbLine
 10
171.6327596684
 20
0.9031642596
 30
0.0
 11
171.6327596684
 21
26.1661402506
 31
0.0
  0
LINE
  5
59
330
1F
100
AcDbEntity
  8
0
  6
Continuous
 62
     7
370
     0
100
AcDbLine
 10
215.7427640041
 20
17.1604579552
 30
0.0
 11
277.9892068491
 21
17.1604579552
 31
0.0
  0
LINE
  5
5A
330
1F
100
AcDbEntity
  8
0
  6
Continuous
 62
     7
370
     0
100
AcDbLine
 10
215.7427640041
 20
35.2394508358
 30
0.0
 11
215.7427640041
 21
0.9031642596
 31
0.0
  0
LINE
  5
5B
330
1F
100
AcDbEntity
  8
0
  6
Continuous
 62
     7
370
     0
100
AcDbLine
 10
215.7427640041
 20
26.1661402506
 30
0.0
 11
171.6327596684
 21
26.1661402506
 31
0.0
  0
LINE
  5
5C
330
1F
100
AcDbEntity
  8
0
  6
Continuous
 62
     7
370
     0
100
AcDbLine
 10
215.7427640041
 20
9.1409200612
 30
0.0
 11
277.9892068491
 21
9.1409200612
 31
0.0
  0
LINE
  5
5D
330
1F
100
AcDbEntity
  8
0
  6
Continuous
 62
     7
370
     0
100
AcDbLine
 10
215.7427640041
 20
16.9216824031
 30
0.0
 11
171.6327596684
 21
16.9216824031
 31
0.0
  0
LINE
  5
5E
330
1F
100
AcDbEntity
  8
0
  6
Continuous
 62
     7
370
     0
100
AcDbLine
 10
215.7427640041
 20
21.4874005542
 30
0.0
 11
171.6327596684
 21
21.4874005542
 31
0.0
  0
LINE
  5
5F
330
1F
100
AcDbEntity
  8
0
  6
Continuous
 62
     7
370
     0
100
AcDbLine
 10
186.1338100705
 20
26.1661402506
 30
0.0
 11
186.1338100705
 21
12.2958890132
 31
0.0
  0
LINE
  5
60
330
1F
100
AcDbEntity
  8
0
  6
Continuous
 62
     7
370
     0
100
AcDbLine
 10
198.2145906188
 20
26.1661402506
 30
0.0
 11
198.2145906188
 21
12.2958890132
 31
0.0
  0
LINE
  5
61
330
1F
100
AcDbEntity
  8
0
  6
Continuous
 62
     7
370
     0
100
AcDbLine
 10
253.7490408369
 20
9.1409200612
 30
0.0
 11
253.7490408369
 21
0.9031642596
 31
0.0
  0
LINE
  5
62
330
1F
100
AcDbEntity
  8
0
  6
Continuous
 62
     7
370
     0
100
AcDbLine
 10
171.6327596684
 20
12.2958890132
 30
0.0
 11
171.6327596684
 21
7.5627342528
 31
0.0
  0
LINE
  5
63
330
1F
100
AcDbEntity
  8
0
  6
Continuous
 62
     7
370
     0
100
AcDbLine
 10
171.6327596684
 20
7.5627342528
 30
0.0
 11
215.7427640041
 21
7.5627342528
 31
0.0
  0
LINE
  5
64
330
1F
100
AcDbEntity
  8
0
  6
Continuous
 62
     7
370
     0
100
AcDbLine
 10
171.6327596684
 20
7.5627342528
 30
0.0
 11
171.6327596684
 21
35.2394508358
 31
0.0
  0
LINE
  5
65
330
1F
100
AcDbEntity
  8
0
  6
Continuous
 62
     7
370
     0
100
AcDbLine
 10
171.6327596684
 20
35.2394508358
 30
0.0
 11
215.7427640041
 21
35.2394508358
 31
0.0
  0
LINE
  5
66
330
1F
100
AcDbEntity
  8
0
  6
Continuous
 62
     7
370
     0
100
AcDbLine
 10
270.1683598194
 20
17.1604579552
 30
0.0
 11
270.1683598194
 21
9.1409200612
 31
0.0
  0
LINE
  5
67
330
1F
100
AcDbEntity
  8
0
  6
Continuous
 62
     7
370
     0
100
AcDbLine
 10
215.7427640041
 20
35.2394508358
 30
0.0
 11
277.9892068491
 21
35.2394508358
 31
0.0
  0
LINE
  5
68
330
1F
100
AcDbEntity
  8
0
  6
Continuous
 62
     7
370
     0
100
AcDbLine
 10
277.9892068491
 20
35.2394508358
 30
0.0
 11
277.9892068491
 21
50.0331356147
 31
0.0
  0
LINE
  5
69
330
1F
100
AcDbEntity
  8
0
  6
Continuous
 62
     7
370
     0
100
AcDbLine
 10
215.7427640041
 20
24.8927335446
 30
0.0
 11
277.9892068491
 21
24.8927335446
 31
0.0
  0
INSERT
  5
6A
330
1F
100
AcDbEntity
  8
0
  6
Continuous
 62
     7
100
AcDbBlockReference
  2
Third Angle Projection Block
 10
117.7262204235
 20
15.5162339489
 30
0.0
 41
0.8
 42
0.8
 43
0.8
  0
MTEXT
  5
6C
330
1F
100
AcDbEntity
  8
0
  6
Continuous
 62
     7
370
     0
100
AcDbMText
 10
273.7514466724
 20
13.1125292762
 30
0.0
 40
3.175
 41
0.0
 71
     2
 72
     1
  1
A
  7
SLDTEXTSTYLE0
 73
     1
 44
1.0
  0
MTEXT
  5
6D
330
1F
100
AcDbEntity
  8
0
  6
Continuous
 62
     7
370
     0
100
AcDbMText
 10
234.5127825937
 20
5.1306563898
 30
0.0
 40
3.175
 41
0.0
 71
     2
 72
     1
  1
CM508-200-E02
  7
SLDTEXTSTYLE0
 73
     1
 44
1.0
  0
MTEXT
  5
6E
330
1F
100
AcDbEntity
  8
0
  6
Continuous
 62
     7
370
     0
100
AcDbMText
 10
216.4199766059
 20
16.8243178599
 30
0.0
 40
2.1166666667
 41
0.0
 71
     1
 72
     1
  1
MATERIAL
  7
SLDTEXTSTYLE0
 73
     1
 44
1.0
  0
MTEXT
  5
6F
330
1F
100
AcDbEntity
  8
0
  6
Continuous
 62
     7
370
     0
100
AcDbMText
 10
174.230946566
 20
20.054553926
 30
0.0
 40
1.8520833333
 41
0.0
 71
     1
 72
     1
  1
DRAWN
  7
SLDTEXTSTYLE0
 73
     1
 44
1.0
  0
MTEXT
  5
70
330
1F
100
AcDbEntity
  8
0
  6
Continuous
 62
     7
370
     0
100
AcDbMText
 10
172.3960124543
 20
15.5787169747
 30
0.0
 40
1.8520833333
 41
0.0
 71
     1
 72
     1
  1
APPROVAL
  7
SLDTEXTSTYLE0
 73
     1
 44
1.0
  0
MTEXT
  5
71
330
1F
100
AcDbEntity
  8
0
  6
Continuous
 62
     7
370
     0
100
AcDbMText
 10
271.321689486
 20
16.0237652193
 30
0.0
 40
2.1166666667
 41
0.0
 71
     1
 72
     1
  1
REV
  7
SLDTEXTSTYLE0
 73
     1
 44
1.0
  0
MTEXT
  5
72
330
1F
100
AcDbEntity
  8
0
  6
Continuous
 62
     7
370
     0
100
AcDbMText
 10
190.2958696448
 20
20.3177146903
 30
0.0
 40
2.1166666667
 41
0.0
 71
     1
 72
     1
  1
MG
  7
SLDTEXTSTYLE0
 73
     1
 44
1.0
  0
MTEXT
  5
73
330
1F
100
AcDbEntity
  8
0
  6
Continuous
 62
     7
370
     0
100
AcDbMText
 10
199.8662436873
 20
20.3177146903
 30
0.0
 40
2.1166666667
 41
0.0
 71
     1
 72
     1
  1
15/JUN/11
  7
SLDTEXTSTYLE0
 73
     1
 44
1.0
  0
MTEXT
  5
74
330
1F
100
AcDbEntity
  8
0
  6
Continuous
 62
     7
370
     0
100
AcDbMText
 10
203.6145073853
 20
24.8221395769
 30
0.0
 40
2.1166666667
 41
0.0
 71
     1
 72
     1
  1
DATE
  7
SLDTEXTSTYLE0
 73
     1
 44
1.0
  0
MTEXT
  5
76
330
1F
100
AcDbEntity
  8
0
  6
Continuous
 62
     7
370
     0
100
AcDbMText
 10
229.402906477
 20
27.7957480569
 30
0.0
 40
2.1166666667
 41
0.0
 71
     1
 72
     1
  1
w w w . t h o r  l a b s . c o m
  7
SLDTEXTSTYLE1
 73
     1
 44
1.0
  0
MTEXT
  5
77
330
1F
100
AcDbEntity
  8
0
  6
Continuous
 62
     7
370
     0
100
AcDbMText
 10
216.7004035316
 20
8.3494791871
 30
0.0
 40
2.1166666667
 41
0.0
 71
     1
 72
     1
  1
ITEM #
  7
SLDTEXTSTYLE0
 73
     1
 44
1.0
  0
MTEXT
  5
78
330
1F
100
AcDbEntity
  8
0
  6
Continuous
 62
     7
370
     0
100
AcDbMText
 10
254.5318000914
 20
8.3494791871
 30
0.0
 40
2.1166666667
 41
0.0
 71
     1
 72
     1
  1
APPROX WEIGHT
  7
SLDTEXTSTYLE0
 73
     1
 44
1.0
  0
MTEXT
  5
79
330
1F
100
AcDbEntity
  8
0
  6
Continuous
 62
     7
370
     0
100
AcDbMText
 10
243.7058359879
 20
13.1125292762
 30
0.0
 40
3.175
 41
0.0
 71
     2
 72
     1
  1
N-BK7
  7
SLDTEXTSTYLE0
 73
     1
 44
1.0
  0
MTEXT
  5
7A
330
1F
100
AcDbEntity
  8
0
  6
Continuous
 62
     7
370
     0
100
AcDbMText
 10
266.1678480997
 20
5.1306563898
 30
0.0
 40
3.175
 41
0.0
 71
     2
 72
     1
  1
0.05 kg
  7
SLDTEXTSTYLE0
 73
     1
 44
1.0
  0
INSERT
  5
80
330
1F
100
AcDbEntity
  8
0
  6
Continuous
 62
     7
370
     0
100
AcDbBlockReference
  2
SW_NOTE_0
 10
174.8430140051
 20
4.4558554801
 30
0.0
  0
INSERT
  5
86
330
1F
100
AcDbEntity
  8
0
  6
Continuous
 62
     7
370
     0
100
AcDbBlockReference
  2
SW_NOTE_1
 10
174.5483650337
 20
30.4835322715
 30
0.0
  0
MTEXT
  5
87
330
1F
100
AcDbEntity
  8
0
  6
Continuous
 62
     7
370
     0
100
AcDbMText
 10
187.9273588276
 20
24.8221395769
 30
0.0
 40
2.1166666667
 41
0.0
 71
     1
 72
     1
  1
NAME
  7
SLDTEXTSTYLE0
 73
     1
 44
1.0
  0
INSERT
  5
8D
330
1F
100
AcDbEntity
  8
0
  6
Continuous
 62
     7
370
     0
100
AcDbBlockReference
  2
SW_NOTE_2
 10
58.6204667508
 20
8.1776609732
 30
0.0
  0
MTEXT
  5
8E
330
1F
100
AcDbEntity
  8
0
  6
Continuous
 62
     7
370
     0
100
AcDbMText
 10
179.1174811218
 20
10.6680638482
 30
0.0
 40
1.5875
 41
0.0
 71
     1
 72
     1
  1
COPYRIGHT © 2010 BY THORLABS
  7
SLDTEXTSTYLE0
 73
     1
 44
1.0
  0
INSERT
  5
95
330
1F
100
AcDbEntity
  8
0
  6
Continuous
 62
     7
370
     0
100
AcDbBlockReference
  2
SW_NOTE_3
 10
216.0264972891
 20
20.5867261075
 30
0.0
  0
INSERT
  5
B5
330
1F
100
AcDbEntity
  8
0
  6
Continuous
 62
     7
370
     0
100
AcDbBlockReference
  2
SW_NOTE_4
 10
7.3311294589
 20
48.1026682038
 30
0.0
  0
MTEXT
  5
B6
330
1F
100
AcDbEntity
  8
0
  6
Continuous
 62
     7
370
     0
100
AcDbMText
 10
199.7826513956
 20
15.7123805402
 30
0.0
 40
2.1166666667
 41
0.0
 71
     1
 72
     1
  1
13/JUL/11
  7
SLDTEXTSTYLE0
 73
     1
 44
1.0
  0
MTEXT
  5
B7
330
1F
100
AcDbEntity
  8
0
  6
Continuous
 62
     7
370
     0
100
AcDbMText
 10
190.2122773531
 20
15.7123805402
 30
0.0
 40
2.1166666667
 41
0.0
 71
     1
 72
     1
  1
PM
  7
SLDTEXTSTYLE0
 73
     1
 44
1.0
  0
CIRCLE
  5
B8
330
1F
100
AcDbEntity
  8
0
  6
Continuous
 62
     7
370
     0
100
AcDbCircle
 10
56.1373119728
 20
106.5274031008
 30
0.0
 40
25.40000000000001
  0
CIRCLE
  5
B9
330
1F
100
AcDbEntity
  8
0
  6
Continuous
 62
     7
370
     0
100
AcDbCircle
 10
56.1373119728
 20
106.5274031008
 30
0.0
 40
25.20035360882086
  0
DIMENSION
  5
BA
330
1F
100
AcDbEntity
  8
0
  6
Continuous
 62
     7
370
     0
100
AcDbDimension
  2
*D7
 10
38.1827862211
 20
124.4938998386
 30
0.0
 11
96.1801332008
 21
78.7579668857
 31
0.0
 70
   163
  1
<>
 71
     1
 42
-1.0
  3
SLDDIMSTYLE0
100
AcDbDiametricDimension
 15
74.0918377245
 25
88.5609063629
 35
0.0
 40
0.0
  0
INSERT
  5
D2
330
1F
100
AcDbEntity
  8
0
  6
Continuous
 62
     7
370
     0
100
AcDbBlockReference
  2
SW_CENTERMARKSYMBOL_0
 10
56.1373119728
 20
106.5274031008
 30
0.0
  0
LINE
  5
D3
330
1F
100
AcDbEntity
  8
0
  6
PHANTOM
 62
     7
370
    30
100
AcDbLine
 10
56.1373119728
 20
139.0044087613
 30
0.0
 11
56.1373119728
 21
74.8365955166
 31
0.0
  0
LINE
  5
D4
330
1F
100
AcDbEntity
  8
0
  6
Continuous
 62
     7
370
    30
100
AcDbLine
 10
56.1373119728
 20
139.0044087613
 30
0.0
 11
47.2473119728
 21
139.0044087613
 31
0.0
  0
SOLID
  5
D5
330
1F
100
AcDbEntity
  8
0
  6
Continuous
 62
     7
370
    30
100
AcDbTrace
 10
47.2473119728
 20
139.0044087613
 30
0.0
 11
51.0573119728
 21
138.3694087613
 31
0.0
 12
51.0573119728
 22
139.6394087613
 32
0.0
 13
51.0573119728
 23
139.6394087613
 33
0.0
  0
LINE
  5
D6
330
1F
100
AcDbEntity
  8
0
  6
Continuous
 62
     7
370
    30
100
AcDbLine
 10
56.1373119728
 20
74.8365955166
 30
0.0
 11
47.2473119728
 21
74.8365955166
 31
0.0
  0
SOLID
  5
D7
330
1F
100
AcDbEntity
  8
0
  6
Continuous
 62
     7
370
    30
100
AcDbTrace
 10
47.2473119728
 20
74.8365955166
 30
0.0
 11
51.0573119728
 21
74.2015955166
 31
0.0
 12
51.0573119728
 22
75.4715955166
 32
0.0
 13
51.0573119728
 23
75.4715955166
 33
0.0
  0
MTEXT
  5
D8
330
1F
100
AcDbEntity
  8
0
  6
Continuous
 62
     7
100
AcDbMText
 10
44.9456074477
 20
140.4246009734
 30
0.0
 40
2.6458333333
 41
0.0
 71
     1
 72
     1
  1
A
  7
SLDTEXTSTYLE0
 73
     1
 44
1.0
  0
MTEXT
  5
D9
330
1F
100
AcDbEntity
  8
0
  6
Continuous
 62
     7
100
AcDbMText
 10
44.9456074477
 20
76.2567877288
 30
0.0
 40
2.6458333333
 41
0.0
 71
     1
 72
     1
  1
A
  7
SLDTEXTSTYLE0
 73
     1
 44
1.0
  0
LINE
  5
DA
330
1F
100
AcDbEntity
  8
0
  6
Continuous
 62
     7
370
     0
100
AcDbLine
 10
216.2692624349
 20
184.3063692503
 30
0.0
 11
216.2776329366
 21
184.1596666887
 31
0.0
  0
LINE
  5
DB
330
1F
100
AcDbEntity
  8
0
  6
Continuous
 62
     7
370
     0
100
AcDbLine
 10
232.8416056308
 20
155.4669154878
 30
0.0
 11
232.9644609612
 21
155.386303611
 31
0.0
  0
LINE
  5
DC
330
1F
100
AcDbEntity
  8
0
  6
Continuous
 62
     7
370
     0
100
AcDbLine
 10
228.1412055639
 20
201.2094960695
 30
0.0
 11
221.4892649763
 21
197.3694125067
 31
0.0
  0
LINE
  5
DD
330
1F
100
AcDbEntity
  8
0
  6
Continuous
 62
     7
370
     0
100
AcDbLine
 10
246.8872007852
 20
153.3741302978
 30
0.0
 11
253.5391413729
 21
157.2142138605
 31
0.0
  0
LINE
  5
DE
330
1F
100
AcDbEntity
  8
0
  6
Continuous
 62
     7
370
     0
100
AcDbLine
 10
258.8006857105
 20
168.8434719449
 30
0.0
 11
258.8006857105
 21
169.0067535672
 31
0.0
  0
LINE
  5
DF
330
1F
100
AcDbEntity
  8
0
  6
Continuous
 62
     7
370
     0
100
AcDbLine
 10
240.9844909281
 20
199.868652079
 30
0.0
 11
240.8430925568
 21
199.9503061591
 31
0.0
  0
LWPOLYLINE
  5
E0
330
1F
100
AcDbEntity
  8
0
  6
Continuous
 62
     7
370
     0
100
AcDbPolyline
 90
       45
 70
   128
 43
0.0
 10
252.1487451229
 20
165.0033883821
 10
252.1360345746
 20
164.2305860291
 10
252.0979209199
 20
163.4735527781
 10
252.0344581046
 20
162.733360125
 10
251.9457359532
 20
162.0110557299
 10
251.8318800418
 20
161.3076619337
 10
251.6930515209
 20
160.6241743118
 10
251.5294468866
 20
159.9615602644
 10
251.3412977031
 20
159.3207576477
 10
251.1288702745
 20
158.702673446
 10
250.892465268
 20
158.1081824885
 10
250.6324172885
 20
157.5381262106
 10
250.3490944048
 20
156.9933114633
 10
250.0428976289
 20
156.4745093708
 10
249.7142603479
 20
155.9824542395
 10
249.3636477112
 20
155.5178425185
 10
248.9915559718
 20
155.0813318137
 10
248.5985117839
 20
154.6735399572
 10
248.1850714577
 20
154.2950441327
 10
247.7518201716
 20
153.9463800588
 10
247.2993711445
 20
153.6280412304
 10
246.8283647673
 20
153.3404782206
 10
246.3394676969
 20
153.0840980427
 10
245.8333719124
 20
152.8592635742
 10
245.3107937358
 20
152.666293043
 10
244.7724728181
 20
152.5054595774
 10
244.2191710924
 20
152.3769908192
 10
243.6516716953
 20
152.2810686015
 10
243.0707778588
 20
152.2178286916
 10
242.4773117732
 20
152.1873605984
 10
241.8721134233
 20
152.1897074461
 10
241.2560393997
 20
152.224865913
 10
240.6299616864
 20
152.2927862362
 10
239.9947664263
 20
152.3933722822
 10
239.3513526673
 20
152.5264816826
 10
238.7006310896
 20
152.6919260359
 10
238.0435227168
 20
152.8894711741
 10
237.3809576123
 20
153.1188374943
 10
236.7138735631
 20
153.379700354
 10
236.0432147518
 20
153.6716905311
 10
235.3699304212
 20
153.994394746
 10
234.6949735298
 20
154.347356247
 10
234.0192994038
 20
154.7300754567
 10
233.3438643841
 20
155.1420106788
 10
232.9644609612
 20
155.386303611
  0
LWPOLYLINE
  5
E1
330
1F
100
AcDbEntity
  8
0
  6
Continuous
 62
     7
370
     0
100
AcDbPolyline
 90
       88
 70
   128
 43
0.0
 10
216.2692624349
 20
184.3063692503
 10
216.2563151555
 20
184.5537822701
 10
216.2308985569
 20
185.3481808202
 10
216.2308985569
 20
186.1284588783
 10
216.2563151555
 20
186.8935120482
 10
216.3071123785
 20
187.6422574826
 10
216.383218328
 20
188.3736354161
 10
216.4845252846
 20
189.086610665
 10
216.6108898596
 20
189.7801740926
 10
216.762133198
 20
190.4533440373
 10
216.9380412319
 20
191.1051677025
 10
217.1383649831
 20
191.7347225047
 10
217.3628209157
 20
192.3411173793
 10
217.6110913375
 20
192.9234940422
 10
217.8828248494
 20
193.4810282045
 10
218.177636843
 20
194.0129307388
 10
218.4951100449
 20
194.5184487966
 10
218.8347951074
 20
194.9968668736
 10
219.1962112441
 20
195.4475078226
 10
219.578846911
 20
195.8697338116
 10
219.98216053
 20
196.2629472269
 10
220.4055812558
 20
196.6265915191
 10
220.8485097838
 20
196.9601519901
 10
221.3103191982
 20
197.2631565226
 10
221.7903558593
 20
197.5351762473
 10
222.2879403289
 20
197.775826151
 10
222.8023683319
 20
197.9847656204
 10
223.332911753
 20
198.1616989252
 10
223.8788196672
 20
198.3063756361
 10
224.439319403
 20
198.4185909793
 10
225.0136176356
 20
198.4981861267
 10
225.6009015102
 20
198.54504842
 10
226.2003397921
 20
198.5591115311
 10
226.8110840434
 20
198.5403555551
 10
227.4322698239
 20
198.4888070391
 10
228.0630179147
 20
198.4045389442
 10
228.7024355623
 20
198.2876705424
 10
229.3496177425
 20
198.1383672479
 10
230.0036484414
 20
197.9568403829
 10
230.6636019517
 20
197.7433468783
 10
231.3285441828
 20
197.4981889103
 10
231.9975339836
 20
197.2217134726
 10
232.6696244737
 20
196.9143118853
 10
233.3438643841
 20
196.5764192408
 10
234.0192994038
 20
196.2085137886
 10
234.6949735298
 20
195.8111162575
 10
235.3699304212
 20
195.3847891195
 10
236.0432147518
 20
194.9301357927
 10
236.7138735631
 20
194.4477997883
 10
237.3809576123
 20
193.9384637989
 10
238.0435227168
 20
193.4028487326
 10
238.7006310896
 20
192.8417126926
 10
239.3513526673
 20
192.2558499043
 10
239.9947664263
 20
191.646089591
 10
240.6299616864
 20
191.0132948
 10
241.2560393997
 20
190.3583611819
 10
241.8721134233
 20
189.6822157217
 10
242.4773117732
 20
188.9858154279
 10
243.0707778588
 20
188.2701459772
 10
243.6516716953
 20
187.5362203195
 10
244.2191710924
 20
186.7850772448
 10
244.7724728181
 20
186.0177799118
 10
245.3107937358
 20
185.2354143444
 10
245.8333719124
 20
184.4390878933
 10
246.3394676969
 20
183.6299276697
 10
246.8283647673
 20
182.8090789493
 10
247.2993711445
 20
181.9777035518
 10
247.7518201716
 20
181.136978196
 10
248.1850714577
 20
180.2880928347
 10
248.5985117839
 20
179.4322489702
 10
248.9915559718
 20
178.5706579538
 10
249.3636477112
 20
177.7045392711
 10
249.7142603479
 20
176.8351188164
 10
250.0428976289
 20
175.963627157
 10
250.3490944048
 20
175.0912977921
 10
250.6324172885
 20
174.2193654061
 10
250.892465268
 20
173.349064122
 10
251.1288702745
 20
172.4816257538
 10
251.3412977031
 20
171.6182780636
 10
251.5294468866
 20
170.7602430235
 10
251.6930515209
 20
169.9087350862
 10
251.8318800418
 20
169.0649594658
 10
251.9457359532
 20
168.2301104325
 10
252.0344581046
 20
167.4053696217
 10
252.0979209199
 20
166.5919043618
 10
252.1360345746
 20
165.7908660218
 10
252.1487451229
 20
165.0033883821
 10
252.1487451229
 20
165.0033883821
  0
LWPOLYLINE
  5
E2
330
1F
100
AcDbEntity
  8
0
  6
Continuous
 62
     7
370
     0
100
AcDbPolyline
 90
      167
 70
   128
 43
0.0
 10
251.8750995129
 20
165.0084090672
 10
251.8623364958
 20
165.7944455015
 10
251.8240657274
 20
166.594091812
 10
251.7603420301
 20
167.4062025131
 10
251.6712566876
 20
168.2296142641
 10
251.5569373138
 20
169.0631475356
 10
251.41754767
 20
169.9056082992
 10
251.2532874306
 20
170.755789738
 10
251.0643918967
 20
171.6124739752
 10
250.8511316596
 20
172.474433819
 10
250.6138122122
 20
173.3404345201
 10
250.3527735126
 20
174.2092355409
 10
250.068389496
 20
175.0795923323
 10
249.7610675399
 20
175.9502581166
 10
249.4312478801
 20
176.8199856734
 10
249.0794029799
 20
177.6875291265
 10
248.7060368538
 20
178.551645728
 10
248.3116843453
 20
179.4110976394
 10
247.8969103604
 20
180.2646537041
 10
247.462309059
 20
181.1110912112
 10
247.0085030031
 20
181.9491976471
 10
246.5361422656
 20
182.7777724324
 10
246.0459034988
 20
183.5956286418
 10
245.5384889648
 20
184.4015947041
 10
245.0146255302
 20
185.1945160807
 10
244.4750636242
 20
185.9732569193
 10
243.9205761642
 20
186.7367016812
 10
243.351957448
 20
187.4837567392
 10
242.7700220165
 20
188.213351944
 10
242.1756034865
 20
188.9244421576
 10
241.569553357
 20
189.61600875
 10
240.9527397888
 20
190.2870610588
 10
240.3260463615
 20
190.936637808
 10
239.6903708074
 20
191.5638084853
 10
239.0466237255
 20
192.1676746745
 10
238.3957272774
 20
192.7473713433
 10
237.738613866
 20
193.3020680817
 10
237.0762247998
 20
193.8309702921
 10
236.4095089449
 20
194.333320327
 10
235.7394213653
 20
194.8083985749
 10
235.066921955
 20
195.2555244907
 10
234.3929740628
 20
195.674057571
 10
233.7185431128
 20
196.0633982711
 10
233.0445952207
 20
196.4229888643
 10
232.3720958104
 20
196.7523142403
 10
231.7020082307
 20
197.0509026439
 10
231.0352923758
 20
197.31832635
 10
230.3729033097
 20
197.5542022767
 10
229.7157898982
 20
197.758192534
 10
229.0648934501
 20
197.9300049079
 10
228.4211463683
 20
198.0693932787
 10
227.7854708141
 20
198.176157974
 10
227.1587773868
 20
198.2501460545
 10
226.5419638187
 20
198.2912515327
 10
225.9359136891
 20
198.2994155257
 10
225.3414951592
 20
198.2746263385
 10
224.7595597277
 20
198.2169194813
 10
224.1909410115
 20
198.1263776188
 10
223.6364535514
 20
198.0031304513
 10
223.0968916455
 20
197.8473545291
 10
222.5730282109
 20
197.6592729997
 10
222.0656136769
 20
197.4391552882
 10
221.57537491
 20
197.187316711
 10
221.1030141726
 20
196.9041180245
 10
220.6492081167
 20
196.589964908
 10
220.2146068152
 20
196.245307383
 10
219.7998328304
 20
195.8706391678
 10
219.4054803218
 20
195.4664969712
 10
219.0321141958
 20
195.033459723
 10
218.6802692956
 20
194.5721477449
 10
218.3504496357
 20
194.0832218617
 10
218.0431276796
 20
193.5673824552
 10
217.7587436631
 20
193.0253684604
 10
217.4977049634
 20
192.4579563069
 10
217.2603855161
 20
191.8659588074
 10
217.0471252789
 20
191.2502239924
 10
216.8582297451
 20
190.6116338963
 10
216.6939695057
 20
189.9511032931
 10
216.5545798619
 20
189.2695783866
 10
216.4402604881
 20
188.5680354546
 10
216.3511751456
 20
187.8474794507
 10
216.2874514483
 20
187.1089425644
 10
216.2491806798
 20
186.3534827426
 10
216.2364176627
 20
185.5821821743
 10
216.2491806798
 20
184.7961457401
 10
216.2874514483
 20
183.9964994296
 10
216.3511751456
 20
183.1843887284
 10
216.4402604881
 20
182.3609769774
 10
216.5545798619
 20
181.5274437059
 10
216.6939695057
 20
180.6849829423
 10
216.8582297451
 20
179.8348015035
 10
217.0471252789
 20
178.9781172663
 10
217.2603855161
 20
178.1161574225
 10
217.4977049634
 20
177.2501567214
 10
217.7587436631
 20
176.3813557006
 10
218.0431276796
 20
175.5109989092
 10
218.3504496357
 20
174.6403331249
 10
218.6802692956
 20
173.7706055681
 10
219.0321141958
 20
172.903062115
 10
219.4054803218
 20
172.0389455135
 10
219.7998328304
 20
171.1794936021
 10
220.2146068152
 20
170.3259375374
 10
220.6492081167
 20
169.4795000303
 10
221.1030141726
 20
168.6413935944
 10
221.57537491
 20
167.8128188091
 10
222.0656136769
 20
166.9949625997
 10
222.5730282109
 20
166.1889965374
 10
223.0968916455
 20
165.3960751608
 10
223.6364535514
 20
164.6173343222
 10
224.1909410115
 20
163.8538895603
 10
224.7595597277
 20
163.1068345023
 10
225.3414951592
 20
162.3772392975
 10
225.9359136891
 20
161.666149084
 10
226.5419638187
 20
160.9745824915
 10
227.1587773868
 20
160.3035301827
 10
227.7854708141
 20
159.6539534335
 10
228.4211463683
 20
159.0267827562
 10
229.0648934501
 20
158.422916567
 10
229.7157898982
 20
157.8432198982
 10
230.3729033097
 20
157.2885231598
 10
231.0352923758
 20
156.7596209495
 10
231.7020082307
 20
156.2572709145
 10
232.3720958104
 20
155.7821926666
 10
233.0445952207
 20
155.3350667508
 10
233.7185431128
 20
154.9165336705
 10
234.3929740628
 20
154.5271929704
 10
235.066921955
 20
154.1676023772
 10
235.7394213653
 20
153.8382770012
 10
236.4095089449
 20
153.5396885976
 10
237.0762247998
 20
153.2722648915
 10
237.738613866
 20
153.0363889648
 10
238.3957272774
 20
152.8323987075
 10
239.0466237255
 20
152.6605863337
 10
239.6903708074
 20
152.5211979628
 10
240.3260463615
 20
152.4144332675
 10
240.9527397888
 20
152.3404451871
 10
241.569553357
 20
152.2993397088
 10
242.1756034865
 20
152.2911757158
 10
242.7700220165
 20
152.315964903
 10
243.351957448
 20
152.3736717602
 10
243.9205761642
 20
152.4642136227
 10
244.4750636242
 20
152.5874607902
 10
245.0146255302
 20
152.7432367124
 10
245.5384889648
 20
152.9313182418
 10
246.0459034988
 20
153.1514359533
 10
246.5361422656
 20
153.4032745305
 10
247.0085030031
 20
153.686473217
 10
247.462309059
 20
154.0006263335
 10
247.8969103604
 20
154.3452838586
 10
248.3116843453
 20
154.7199520737
 10
248.7060368538
 20
155.1240942703
 10
249.0794029799
 20
155.5571315185
 10
249.4312478801
 20
156.0184434966
 10
249.7610675399
 20
156.5073693798
 10
250.068389496
 20
157.0232087863
 10
250.3527735126
 20
157.5652227811
 10
250.6138122122
 20
158.1326349346
 10
250.8511316596
 20
158.7246324341
 10
251.0643918967
 20
159.3403672491
 10
251.2532874306
 20
159.9789573452
 10
251.41754767
 20
160.6394879484
 10
251.5569373138
 20
161.3210128549
 10
251.6712566876
 20
162.0225557869
 10
251.7603420301
 20
162.7431117908
 10
251.8240657274
 20
163.4816486771
 10
251.8623364958
 20
164.2371084989
 10
251.8750995129
 20
165.0084090672
  0
LWPOLYLINE
  5
E3
330
1F
100
AcDbEntity
  8
0
  6
Continuous
 62
     7
370
     0
100
AcDbPolyline
 90
       86
 70
   128
 43
0.0
 10
253.5391413729
 20
157.2142138605
 10
253.718087151
 20
157.3204698447
 10
254.1798965653
 20
157.6234743771
 10
254.6228250933
 20
157.9570348482
 10
255.0462458192
 20
158.3206791403
 10
255.4495594382
 20
158.7138925557
 10
255.8321951051
 20
159.1361185447
 10
256.1936112418
 20
159.5867594936
 10
256.5332963042
 20
160.0651775706
 10
256.8507695062
 20
160.5706956284
 10
257.1455814998
 20
161.1025981627
 10
257.4173150117
 20
161.660132325
 10
257.6655854334
 20
162.242508988
 10
257.890041366
 20
162.8489038626
 10
258.0903651172
 20
163.4784586647
 10
258.2662731511
 20
164.1302823299
 10
258.4175164896
 20
164.8034522747
 10
258.5438810646
 20
165.4970157022
 10
258.6451880211
 20
166.2099909511
 10
258.7212939707
 20
166.9413688846
 10
258.7720911936
 20
167.690114319
 10
258.7975077923
 20
168.4551674889
 10
258.7975077923
 20
169.2354455471
 10
258.7720911936
 20
170.0298440971
 10
258.7212939707
 20
170.8372387568
 10
258.6451880211
 20
171.6564867493
 10
258.5438810646
 20
172.4864285205
 10
258.4175164896
 20
173.3258893809
 10
258.2662731511
 20
174.1736811673
 10
258.0903651172
 20
175.0286039254
 10
257.890041366
 20
175.8894476075
 10
257.6655854334
 20
176.7549937857
 10
257.4173150117
 20
177.6240173761
 10
257.1455814998
 20
178.4952883732
 10
256.8507695062
 20
179.36757359
 10
256.5332963042
 20
180.2396384046
 10
256.1936112418
 20
181.1102485067
 10
255.8321951051
 20
181.978171645
 10
255.4495594382
 20
182.8421793714
 10
255.0462458192
 20
183.7010487795
 10
254.6228250933
 20
184.5535642358
 10
254.1798965653
 20
185.3985190999
 10
253.718087151
 20
186.2347174328
 10
253.2380504899
 20
187.0609756892
 10
252.7404660203
 20
187.8761243929
 10
252.2260380172
 20
188.6790097922
 10
251.6954945962
 20
189.4684954924
 10
251.149586682
 20
190.2434640649
 10
250.5890869462
 20
191.0028186283
 10
250.0147887135
 20
191.7454844012
 10
249.4275048389
 20
192.4704102232
 10
248.8280665571
 20
193.1765700428
 10
248.2173223058
 20
193.8629643698
 10
247.5961365253
 20
194.5286216898
 10
246.9653884345
 20
195.1725998393
 10
246.3259707869
 20
195.7939873392
 10
245.6787886067
 20
196.3919046851
 10
245.0247579077
 20
196.9655055917
 10
244.3648043975
 20
197.5139781911
 10
243.6998621663
 20
198.0365461817
 10
243.0308723656
 20
198.532469927
 10
242.3587818755
 20
199.0010475023
 10
241.684541965
 20
199.4416156885
 10
241.0091069454
 20
199.8535509105
 10
240.3334328193
 20
200.2362701202
 10
239.658475928
 20
200.5892316212
 10
238.9851915973
 20
200.9119358362
 10
238.3145327861
 20
201.2039260132
 10
237.6474487368
 20
201.4647888729
 10
236.9848836324
 20
201.6941551931
 10
236.3277752596
 20
201.8917003314
 10
235.6770536819
 20
202.0571446847
 10
235.0336399229
 20
202.190254085
 10
234.3984446628
 20
202.290840131
 10
233.7723669494
 20
202.3587604543
 10
233.1562929259
 20
202.3939189212
 10
232.551094576
 20
202.3962657689
 10
231.9576284904
 20
202.3657976756
 10
231.3767346539
 20
202.3025577657
 10
230.8092352568
 20
202.206635548
 10
230.255933531
 20
202.0781667898
 10
229.7176126133
 20
201.9173333242
 10
229.1950344368
 20
201.7243627931
 10
228.6889386523
 20
201.4995283245
 10
228.2000415819
 20
201.2431481466
 10
228.1412055639
 20
201.2094960695
  0
ARC
  5
E4
330
1F
100
AcDbEntity
  8
0
  6
Continuous
 62
     7
370
     0
100
AcDbCircle
 10
220.1911772737
 20
167.2914431949
 30
0.0
 40
38.64759282808907
100
AcDbArc
 50
2.5438153591
 51
57.4508081082
  0
SPLINE
  5
E5
330
1F
100
AcDbEntity
  8
0
  6
Continuous
 62
     7
370
     0
100
AcDbSpline
210
0.0
220
0.0
230
1.0
 70
     8
 71
     3
 72
    23
 73
    19
 74
     0
 42
0.00000001
 43
0.00000001
 40
0.0
 40
0.0
 40
0.0
 40
0.0
 40
0.0579448754623255
 40
0.1160176254256828
 40
0.1748257843638406
 40
0.2346830900793709
 40
0.2968270303289145
 40
0.3640613359637886
 40
0.4361924240497392
 40
0.5142601195414407
 40
0.5569758971654891
 40
0.6048559283836548
 40
0.6576752010734883
 40
0.7157505846619322
 40
0.7788397991664554
 40
0.8475011894738635
 40
0.9212282309463242
 40
1.0
 40
1.0
 40
1.0
 40
1.0
 10
231.5744333955257
 20
105.4038800602646
 30
0.0
 10
231.5738670820267
 20
105.3835476053111
 30
0.0
 10
231.572733205271
 20
105.3428378251285
 30
0.0
 10
231.5638831461647
 20
105.2819887096976
 30
0.0
 10
231.5487405962213
 20
105.2217999425307
 30
0.0
 10
231.528665616512
 20
105.1615389903315
 30
0.0
 10
231.5012390160031
 20
105.100966679903
 30
0.0
 10
231.4665901635036
 20
105.0392474146476
 30
0.0
 10
231.423604475946
 20
104.9761532088736
 30
0.0
 10
231.3822642965121
 20
104.9225161241884
 30
0.0
 10
231.3437832989692
 20
104.8775547214603
 30
0.0
 10
231.3096735313231
 20
104.8405488600618
 30
0.0
 10
231.2702105042442
 20
104.8012326069513
 30
0.0
 10
231.2268746236464
 20
104.7582443493848
 30
0.0
 10
231.1778984439237
 20
104.7131098304996
 30
0.0
 10
231.1246891646524
 20
104.6644774709859
 30
0.0
 10
231.0660820095127
 20
104.6136270895884
 30
0.0
 10
231.0253972217479
 20
104.5788885499201
 30
0.0
 10
231.004381892548
 20
104.5609446970167
 30
0.0
  0
SPLINE
  5
E6
330
1F
100
AcDbEntity
  8
0
  6
Continuous
 62
     7
370
     0
100
AcDbSpline
210
0.0
220
0.0
230
1.0
 70
     8
 71
     3
 72
    23
 73
    19
 74
     0
 42
0.00000001
 43
0.00000001
 40
0.0
 40
0.0
 40
0.0
 40
0.0
 40
0.074711890304501
 40
0.1455392023749081
 40
0.2133390572509717
 40
0.2786150735384715
 40
0.3420941969414986
 40
0.4038900759591956
 40
0.4650633525655199
 40
0.5265767363834863
 40
0.5873283340287682
 40
0.6463804557031435
 40
0.7043453083753256
 40
0.7616719489990781
 40
0.8194178590468653
 40
0.878039399781682
 40
0.9377955090070549
 40
1.0
 40
1.0
 40
1.0
 40
1.0
 10
230.9422318730898
 20
105.9710504365124
 30
0.0
 10
230.965990977118
 20
105.9706435888008
 30
0.0
 10
231.0122738517088
 20
105.9698510470623
 30
0.0
 10
231.0797154392044
 20
105.9617417537953
 30
0.0
 10
231.1433484409316
 20
105.9491116034267
 30
0.0
 10
231.2034061337352
 20
105.9315090406922
 30
0.0
 10
231.2595336884168
 20
105.908426831866
 30
0.0
 10
231.3117742799976
 20
105.8802255846974
 30
0.0
 10
231.3603687789896
 20
105.8471803943564
 30
0.0
 10
231.4045052709458
 20
105.8088945747385
 30
0.0
 10
231.444304299553
 20
105.7670991892509
 30
0.0
 10
231.479182279592
 20
105.7224945029933
 30
0.0
 10
231.5083419498426
 20
105.6752710680199
 30
0.0
 10
231.5331695987009
 20
105.6260725724842
 30
0.0
 10
231.5515851821635
 20
105.5738594841485
 30
0.0
 10
231.5645353597737
 20
105.519341649953
 30
0.0
 10
231.573335381066
 20
105.4624724827927
 30
0.0
 10
231.5740625248567
 20
105.4236705199844
 30
0.0
 10
231.5744333955257
 20
105.4038800602646
 30
0.0
  0
SPLINE
  5
E7
330
1F
100
AcDbEntity
  8
0
  6
Continuous
 62
     7
370
     0
100
AcDbSpline
210
0.0
220
0.0
230
1.0
 70
     8
 71
     3
 72
    23
 73
    19
 74
     0
 42
0.00000001
 43
0.00000001
 40
0.0
 40
0.0
 40
0.0
 40
0.0
 40
0.0706752902033301
 40
0.137492693844125
 40
0.2014728253723047
 40
0.2628693217722907
 40
0.3225500865261559
 40
0.3807372513385544
 40
0.4382197368560123
 40
0.4954874370602866
 40
0.5534836796953483
 40
0.611346206229429
 40
0.6706437388141553
 40
0.7315869484227127
 40
0.7941831937999386
 40
0.8594451119347493
 40
0.928207635399809
 40
1.0
 40
1.0
 40
1.0
 40
1.0
 10
230.2836886205524
 20
105.3915323742795
 30
0.0
 10
230.2863837537557
 20
105.414489835711
 30
0.0
 10
230.2916269034241
 20
105.4591516009044
 30
0.0
 10
230.3046868739474
 20
105.5238366450538
 30
0.0
 10
230.3230218906783
 20
105.5840122778794
 30
0.0
 10
230.3449612856332
 20
105.6405174741565
 30
0.0
 10
230.3724643843422
 20
105.6923903452806
 30
0.0
 10
230.4035542700583
 20
105.7407038233742
 30
0.0
 10
230.4402233559255
 20
105.7839256074893
 30
0.0
 10
230.4807329670044
 20
105.8234181102172
 30
0.0
 10
230.5255269305197
 20
105.858221396681
 30
0.0
 10
230.57418447648
 20
105.888626899324
 30
0.0
 10
230.6266833473712
 20
105.9140592249947
 30
0.0
 10
230.6827311429057
 20
105.9351161303307
 30
0.0
 10
230.7424565351299
 20
105.9510925343646
 30
0.0
 10
230.8057750322063
 20
105.9625491235217
 30
0.0
 10
230.8727884616232
 20
105.9696110960631
 30
0.0
 10
230.9187537887138
 20
105.9705638107001
 30
0.0
 10
230.9422318730898
 20
105.9710504365124
 30
0.0
  0
LINE
  5
E8
330
1F
100
AcDbEntity
  8
0
  6
Continuous
 62
     7
370
     0
100
AcDbLine
 10
230.5471059216
 20
105.3651906442
 30
0.0
 11
230.2836886206
 21
105.3915323743
 31
0.0
  0
SPLINE
  5
E9
330
1F
100
AcDbEntity
  8
0
  6
Continuous
 62
     7
370
     0
100
AcDbSpline
210
0.0
220
0.0
230
1.0
 70
     8
 71
     3
 72
    23
 73
    19
 74
     0
 42
0.00000001
 43
0.00000001
 40
0.0
 40
0.0
 40
0.0
 40
0.0
 40
0.0706964833433759
 40
0.1383582132030701
 40
0.2033698682591703
 40
0.265700213340231
 40
0.3272558681973761
 40
0.3865123433292937
 40
0.4458582974819492
 40
0.50517314380694
 40
0.5637797628070197
 40
0.62234306429344
 40
0.6808235796100194
 40
0.7397951568104396
 40
0.8008011629883834
 40
0.8642394615769076
 40
0.9306310981734531
 40
0.9999999999999999
 40
0.9999999999999999
 40
0.9999999999999999
 40
0.9999999999999999
 10
230.9364696196301
 20
105.7339748655989
 30
0.0
 10
230.9221876997721
 20
105.7336468703675
 30
0.0
 10
230.894236933069
 20
105.7330049595962
 30
0.0
 10
230.8533803973458
 20
105.7283323784778
 30
0.0
 10
230.814594198748
 20
105.7211933061032
 30
0.0
 10
230.7779709137973
 20
105.7102782753813
 30
0.0
 10
230.7435551177206
 20
105.6965280170462
 30
0.0
 10
230.7114869784544
 20
105.6792201038348
 30
0.0
 10
230.6812529516151
 20
105.6596826002972
 30
0.0
 10
230.6538052229961
 20
105.636551669937
 30
0.0
 10
230.6289846019924
 20
105.6109041865212
 30
0.0
 10
230.6069496688326
 20
105.5829818351374
 30
0.0
 10
230.5888953518937
 20
105.5522457727852
 30
0.0
 10
230.5739853528049
 20
105.5193718162896
 30
0.0
 10
230.5619964652699
 20
105.4842566224621
 30
0.0
 10
230.5532929406292
 20
105.4466317427011
 30
0.0
 10
230.5485477206685
 20
105.4066058134989
 30
0.0
 10
230.5475934967305
 20
105.3791960683202
 30
0.0
 10
230.5471059215674
 20
105.365190644178
 30
0.0
  0
SPLINE
  5
EA
330
1F
100
AcDbEntity
  8
0
  6
Continuous
 62
     7
370
     0
100
AcDbSpline
210
0.0
220
0.0
230
1.0
 70
     8
 71
     3
 72
    23
 73
    19
 74
     0
 42
0.00000001
 43
0.00000001
 40
0.0
 40
0.0
 40
0.0
 40
0.0
 40
0.061762156768071
 40
0.1211739926536295
 40
0.1794214068253156
 40
0.2368434346502755
 40
0.2943217954133982
 40
0.3531909627945257
 40
0.4127207064163241
 40
0.4745221507037167
 40
0.5370567441421367
 40
0.5995913375805573
 40
0.6623669793543062
 40
0.7252456446794932
 40
0.7903164461250801
 40
0.8577243009540917
 40
0.9272319523784939
 40
1.0
 40
1.0
 40
1.0
 40
1.0
 10
231.3110160945107
 20
105.4014105230676
 30
0.0
 10
231.3107300864718
 20
105.41295781771
 30
0.0
 10
231.3101689542539
 20
105.4356129818005
 30
0.0
 10
231.3048449595383
 20
105.4687686728108
 30
0.0
 10
231.2974335319562
 20
105.5006983954027
 30
0.0
 10
231.285451509283
 20
105.5308273448135
 30
0.0
 10
231.271189295197
 20
105.5600477560858
 30
0.0
 10
231.2528945632073
 20
105.5874363016042
 30
0.0
 10
231.2317313191641
 20
105.6136755737562
 30
0.0
 10
231.2075011958747
 20
105.6380737666772
 30
0.0
 10
231.1810362269727
 20
105.6609631668434
 30
0.0
 10
231.151465395677
 20
105.6799898188047
 30
0.0
 10
231.1207309060693
 20
105.6971194747433
 30
0.0
 10
231.0877724440912
 20
105.7108927006813
 30
0.0
 10
231.0526435655291
 20
105.7210066261946
 30
0.0
 10
231.0155999921334
 20
105.7283467314443
 30
0.0
 10
230.9766476020077
 20
105.7330007515294
 30
0.0
 10
230.9500653338989
 20
105.7336452378832
 30
0.0
 10
230.9364696196301
 20
105.7339748655989
 30
0.0
  0
SPLINE
  5
EB
330
1F
100
AcDbEntity
  8
0
  6
Continuous
 62
     7
370
     0
100
AcDbSpline
210
0.0
220
0.0
230
1.0
 70
     8
 71
     3
 72
    23
 73
    19
 74
     0
 42
0.00000001
 43
0.00000001
 40
0.0
 40
0.0
 40
0.0
 40
0.0
 40
0.1114096600426611
 40
0.2145263672558007
 40
0.3094172254458335
 40
0.3960871907990309
 40
0.4742842164262462
 40
0.5443738816396978
 40
0.6064195628105356
 40
0.6605816023749735
 40
0.7097938180647577
 40
0.7564506485918288
 40
0.8007673253039327
 40
0.8431682879413348
 40
0.884294868550049
 40
0.9238845020552847
 40
0.9623587101392161
 40
1.0
 40
1.0
 40
1.0
 40
1.0
 10
230.758662941445
 20
104.6848331464003
 30
0.0
 10
230.7851004041894
 20
104.7070851296093
 30
0.0
 10
230.8360074156627
 20
104.7499327347473
 30
0.0
 10
230.9078960932227
 20
104.81351460963
 30
0.0
 10
230.9735546985867
 20
104.872553981855
 30
0.0
 10
231.0319376929562
 20
104.928085637149
 30
0.0
 10
231.0835225879692
 20
104.979570954356
 30
0.0
 10
231.1284305058627
 20
105.0268932867383
 30
0.0
 10
231.1670478482239
 20
105.0699049509194
 30
0.0
 10
231.1989031729977
 20
105.1101627868841
 30
0.0
 10
231.2257804879631
 20
105.1481773818279
 30
0.0
 10
231.2485566385288
 20
105.1852582716443
 30
0.0
 10
231.2675375380717
 20
105.2220531782693
 30
0.0
 10
231.2833460876979
 20
105.258445672519
 30
0.0
 10
231.2958493072284
 20
105.2945913849522
 30
0.0
 10
231.3043720299511
 20
105.3305956245272
 30
0.0
 10
231.3101518456492
 20
105.3661011416734
 30
0.0
 10
231.3107301208775
 20
105.3897269067709
 30
0.0
 10
231.3110160945107
 20
105.4014105230676
 30
0.0
  0
SPLINE
  5
EC
330
1F
100
AcDbEntity
  8
0
  6
Continuous
 62
     7
370
     0
100
AcDbSpline
210
0.0
220
0.0
230
1.0
 70
     8
 71
     3
 72
    19
 73
    15
 74
     0
 42
0.00000001
 43
0.00000001
 40
0.0
 40
0.0
 40
0.0
 40
0.0
 40
0.100388143139711
 40
0.2044067930373095
 40
0.3106860830942073
 40
0.4221572938828002
 40
0.4806854607703745
 40
0.5432381544526689
 40
0.6094995045645641
 40
0.6795546087742246
 40
0.7538412220511739
 40
0.8316406764893858
 40
0.9138127068095897
 40
1.0
 40
1.0
 40
1.0
 40
1.0
 10
230.2849233891509
 20
104.0991412411748
 30
0.0
 10
230.2936404184614
 20
104.1232132787447
 30
0.0
 10
230.3113897258044
 20
104.1722279118242
 30
0.0
 10
230.3473500084026
 20
104.2429491824837
 30
0.0
 10
230.3896477987113
 20
104.3132427448917
 30
0.0
 10
230.4308306515062
 20
104.3704716291151
 30
0.0
 10
230.4685452516594
 20
104.4161935067043
 30
0.0
 10
230.5001738599171
 20
104.4519655844438
 30
0.0
 10
230.5352241558363
 20
104.4885825214868
 30
0.0
 10
230.5736680697154
 20
104.5260376291713
 30
0.0
 10
230.6151356019309
 20
104.5645734890573
 30
0.0
 10
230.6596833347297
 20
104.6043186167802
 30
0.0
 10
230.7078373068552
 20
104.644532318374
 30
0.0
 10
230.7414538190974
 20
104.6711876329539
 30
0.0
 10
230.758662941445
 20
104.6848331464003
 30
0.0
  0
SPLINE
  5
ED
330
1F
100
AcDbEntity
  8
0
  6
Continuous
 62
     7
370
     0
100
AcDbSpline
210
0.0
220
0.0
230
1.0
 70
     8
 71
     3
 72
    11
 73
     7
 74
     0
 42
0.00000001
 43
0.00000001
 40
0.0
 40
0.0
 40
0.0
 40
0.0
 40
0.2526433275832377
 40
0.5044398525799896
 40
0.7504068042814568
 40
1.0
 40
1.0
 40
1.0
 40
1.0
 10
230.2573468904509
 20
103.9163954885957
 30
0.0
 10
230.2573193869468
 20
103.9320511193437
 30
0.0
 10
230.257264472124
 20
103.9633099067499
 30
0.0
 10
230.2625539624777
 20
104.0095396704139
 30
0.0
 10
230.2708383633835
 20
104.0551561573952
 30
0.0
 10
230.2802055325843
 20
104.084408196325
 30
0.0
 10
230.2849233891509
 20
104.0991412411748
 30
0.0
  0
LINE
  5
EE
330
1F
100
AcDbEntity
  8
0
  6
Continuous
 62
     7
370
     0
100
AcDbLine
 10
231.6007751256
 20
103.9163954886
 30
0.0
 11
230.2573468905
 21
103.9163954886
 31
0.0
  0
LINE
  5
EF
330
1F
100
AcDbEntity
  8
0
  6
Continuous
 62
     7
370
     0
100
AcDbLine
 10
231.6007751256
 20
104.1798127896
 30
0.0
 11
231.6007751256
 21
103.9163954886
 31
0.0
  0
LINE
  5
F0
330
1F
100
AcDbEntity
  8
0
  6
Continuous
 62
     7
370
     0
100
AcDbLine
 10
230.5956734864
 20
104.1798127896
 30
0.0
 11
231.6007751256
 21
104.1798127896
 31
0.0
  0
SPLINE
  5
F1
330
1F
100
AcDbEntity
  8
0
  6
Continuous
 62
     7
370
     0
100
AcDbSpline
210
0.0
220
0.0
230
1.0
 70
     8
 71
     3
 72
    17
 73
    13
 74
     0
 42
0.00000001
 43
0.00000001
 40
0.0
 40
0.0
 40
0.0
 40
0.0
 40
0.1241996726524863
 40
0.2368296581100287
 40
0.3394949853062827
 40
0.4312535100312255
 40
0.5114548721194194
 40
0.581223036623459
 40
0.6404953748643712
 40
0.6883082049320183
 40
0.8503329734146899
 40
1.0
 40
1.0
 40
1.0
 40
1.0
 10
231.004381892548
 20
104.5609446970167
 30
0.0
 10
230.9863854373627
 20
104.5462936640643
 30
0.0
 10
230.9520689674582
 20
104.5183563994083
 30
0.0
 10
230.9032471409833
 20
104.4778549984158
 30
0.0
 10
230.85951763398
 20
104.4407163108955
 30
0.0
 10
230.8198578388126
 20
104.4081517307664
 30
0.0
 10
230.7857121391869
 20
104.3785861498827
 30
0.0
 10
230.7558778010467
 20
104.3533144116105
 30
0.0
 10
230.7314387220624
 20
104.3310658622956
 30
0.0
 10
230.694222331424
 20
104.2972698669623
 30
0.0
 10
230.6470845973669
 20
104.249097091429
 30
0.0
 10
230.6123514987492
 20
104.2022889512348
 30
0.0
 10
230.595673486442
 20
104.1798127896107
 30
0.0
  0
LINE
  5
F2
330
1F
100
AcDbEntity
  8
0
  6
Continuous
 62
     7
370
     0
100
AcDbLine
 10
227.2280479288
 20
104.1534710595
 30
0.0
 11
228.4397675134
 21
104.1534710595
 31
0.0
  0
LINE
  5
F3
330
1F
100
AcDbEntity
  8
0
  6
Continuous
 62
     7
370
     0
100
AcDbLine
 10
227.2280479288
 20
104.8646977722
 30
0.0
 11
227.2280479288
 21
104.1534710595
 31
0.0
  0
LINE
  5
F4
330
1F
100
AcDbEntity
  8
0
  6
Continuous
 62
     7
370
     0
100
AcDbLine
 10
228.3080588629
 20
104.8646977722
 30
0.0
 11
227.2280479288
 21
104.8646977722
 31
0.0
  0
LINE
  5
F5
330
1F
100
AcDbEntity
  8
0
  6
Continuous
 62
     7
370
     0
100
AcDbLine
 10
228.3080588629
 20
105.1017733432
 30
0.0
 11
228.3080588629
 21
104.8646977722
 31
0.0
  0
LINE
  5
F6
330
1F
100
AcDbEntity
  8
0
  6
Continuous
 62
     7
370
     0
100
AcDbLine
 10
227.2280479288
 20
105.1017733432
 30
0.0
 11
228.3080588629
 21
105.1017733432
 31
0.0
  0
LINE
  5
F7
330
1F
100
AcDbEntity
  8
0
  6
Continuous
 62
     7
370
     0
100
AcDbLine
 10
227.2280479288
 20
105.7339748656
 30
0.0
 11
227.2280479288
 21
105.1017733432
 31
0.0
  0
LINE
  5
F8
330
1F
100
AcDbEntity
  8
0
  6
Continuous
 62
     7
370
     0
100
AcDbLine
 10
228.3870840532
 20
105.7339748656
 30
0.0
 11
227.2280479288
 21
105.7339748656
 31
0.0
  0
LINE
  5
F9
330
1F
100
AcDbEntity
  8
0
  6
Continuous
 62
     7
370
     0
100
AcDbLine
 10
228.3870840532
 20
105.9710504365
 30
0.0
 11
228.3870840532
 21
105.7339748656
 31
0.0
  0
LINE
  5
FA
330
1F
100
AcDbEntity
  8
0
  6
Continuous
 62
     7
370
     0
100
AcDbLine
 10
226.9382888977
 20
105.9710504365
 30
0.0
 11
228.3870840532
 21
105.9710504365
 31
0.0
  0
LINE
  5
FB
330
1F
100
AcDbEntity
  8
0
  6
Continuous
 62
     7
370
     0
100
AcDbLine
 10
226.9382888977
 20
103.9163954886
 30
0.0
 11
226.9382888977
 21
105.9710504365
 31
0.0
  0
LINE
  5
FC
330
1F
100
AcDbEntity
  8
0
  6
Continuous
 62
     7
370
     0
100
AcDbLine
 10
228.4397675134
 20
103.9163954886
 30
0.0
 11
226.9382888977
 21
103.9163954886
 31
0.0
  0
LINE
  5
FD
330
1F
100
AcDbEntity
  8
0
  6
Continuous
 62
     7
370
     0
100
AcDbLine
 10
228.4397675134
 20
104.1534710595
 30
0.0
 11
228.4397675134
 21
103.9163954886
 31
0.0
  0
SPLINE
  5
FE
330
1F
100
AcDbEntity
  8
0
  6
Continuous
 62
     7
370
     0
100
AcDbSpline
210
0.0
220
0.0
230
1.0
 70
     8
 71
     3
 72
    31
 73
    27
 74
     0
 42
0.00000001
 43
0.00000001
 40
0.0
 40
0.0
 40
0.0
 40
0.0
 40
0.0628739462114324
 40
0.1228366299919129
 40
0.1796565674430314
 40
0.233960012230862
 40
0.285595018695559
 40
0.3345131060783805
 40
0.3809048259061763
 40
0.4248945919393346
 40
0.4665290347654874
 40
0.5064882940692463
 40
0.5450315536447542
 40
0.5818311798231344
 40
0.617448279949443
 40
0.6520669127690458
 40
0.6858797142465107
 40
0.7191745547913923
 40
0.7521816462063928
 40
0.7852401639180908
 40
0.8186564497770833
 40
0.8525477406533113
 40
0.8876263422585189
 40
0.923635078068751
 40
0.9610218444769891
 40
1.0
 40
1.0
 40
1.0
 40
1.0
 10
225.6212023925877
 20
104.9297289184376
 30
0.0
 10
225.6209320283517
 20
104.9005039350947
 30
0.0
 10
225.6204038185983
 20
104.8434071775069
 30
0.0
 10
225.6172661023219
 20
104.7599350666282
 30
0.0
 10
225.611297882845
 20
104.6806271973456
 30
0.0
 10
225.6039538797392
 20
104.6053018984051
 30
0.0
 10
225.5928439413228
 20
104.5341602529032
 30
0.0
 10
225.5808723807326
 20
104.4668999988095
 30
0.0
 10
225.5660665174073
 20
104.4038265569132
 30
0.0
 10
225.5487915509582
 20
104.3449122837503
 30
0.0
 10
225.5293360160183
 20
104.2898456618606
 30
0.0
 10
225.5080000113773
 20
104.2382105283273
 30
0.0
 10
225.4843683375737
 20
104.1900421660879
 30
0.0
 10
225.4577376267424
 20
104.1458103851879
 30
0.0
 10
225.4293263545433
 20
104.1049280827898
 30
0.0
 10
225.3989264386148
 20
104.067241900187
 30
0.0
 10
225.3658933651493
 20
104.0332942504783
 30
0.0
 10
225.3302605129767
 20
104.0032756780608
 30
0.0
 10
225.2927502426555
 20
103.9762351745065
 30
0.0
 10
225.2526163852902
 20
103.9530826934439
 30
0.0
 10
225.2100346005191
 20
103.933901265023
 30
0.0
 10
225.165289393643
 20
103.9175020966847
 30
0.0
 10
225.1179267599858
 20
103.9054857479881
 30
0.0
 10
225.0683201968691
 20
103.8962874208295
 30
0.0
 10
225.0162869274909
 20
103.8908707796816
 30
0.0
 10
224.9807817034962
 20
103.8903298563721
 30
0.0
 10
224.9626591400502
 20
103.8900537584942
 30
0.0
  0
SPLINE
  5
FF
330
1F
100
AcDbEntity
  8
0
  6
Continuous
 62
     7
370
     0
100
AcDbSpline
210
0.0
220
0.0
230
1.0
 70
     8
 71
     3
 72
    27
 73
    23
 74
     0
 42
0.00000001
 43
0.00000001
 40
0.0
 40
0.0
 40
0.0
 40
0.0
 40
0.0567243372181507
 40
0.1114372357370107
 40
0.1643678222229016
 40
0.2164353724620897
 40
0.2676414903219248
 40
0.317359779969028
 40
0.3674730633322805
 40
0.4182103970528082
 40
0.4714042826470201
 40
0.5279657201290493
 40
0.5880611158232137
 40
0.6521342629937144
 40
0.6863448363353055
 40
0.7232636803169652
 40
0.7626102507715419
 40
0.8047389366452182
 40
0.84943033879095
 40
0.8967112583864923
 40
0.9468896380534765
 40
1.0
 40
1.0
 40
1.0
 40
1.0
 10
224.9626591400502
 20
105.9710504365124
 30
0.0
 10
224.9890463291596
 20
105.9702746718276
 30
0.0
 10
225.0408850205824
 20
105.9687506509876
 30
0.0
 10
225.1165697777603
 20
105.9563210135622
 30
0.0
 10
225.1878977834056
 20
105.9350582030547
 30
0.0
 10
225.2548226962323
 20
105.906373754408
 30
0.0
 10
225.3162004452238
 20
105.8699389838301
 30
0.0
 10
225.3710133620571
 20
105.8256469691815
 30
0.0
 10
225.4186702008858
 20
105.7739627678692
 30
0.0
 10
225.4586508610582
 20
105.7142739390547
 30
0.0
 10
225.4935979487764
 20
105.6482270992422
 30
0.0
 10
225.5246441743516
 20
105.5755258058496
 30
0.0
 10
225.5527090605262
 20
105.496251528886
 30
0.0
 10
225.5726245147098
 20
105.4252899842107
 30
0.0
 10
225.5868301918267
 20
105.3640334609155
 30
0.0
 10
225.5962332213929
 20
105.313510813335
 30
0.0
 10
225.6040396210473
 20
105.2589965921661
 30
0.0
 10
225.6100203781772
 20
105.2006226819846
 30
0.0
 10
225.614927448289
 20
105.1384545543251
 30
0.0
 10
225.618716953647
 20
105.0724535021219
 30
0.0
 10
225.6206405156212
 20
105.0024545669742
 30
0.0
 10
225.6210115891343
 20
104.9544252589451
 30
0.0
 10
225.6212023925877
 20
104.9297289184376
 30
0.0
  0
SPLINE
  5
100
330
1F
100
AcDbEntity
  8
0
  6
Continuous
 62
     7
370
     0
100
AcDbSpline
210
0.0
220
0.0
230
1.0
 70
     8
 71
     3
 72
    31
 73
    27
 74
     0
 42
0.00000001
 43
0.00000001
 40
0.0
 40
0.0
 40
0.0
 40
0.0
 40
0.0631144583947934
 40
0.1236146457694899
 40
0.1809737111859575
 40
0.2352614550083221
 40
0.2871007018338719
 40
0.3360307363034435
 40
0.3823823485850661
 40
0.4263340836597072
 40
0.4682106947981602
 40
0.5082496012618051
 40
0.546628336606585
 40
0.5836495392304462
 40
0.6189943150301618
 40
0.653583018620596
 40
0.6871561361903314
 40
0.7204221919788074
 40
0.7532302188118172
 40
0.7862601560778999
 40
0.8195039834988841
 40
0.8535452747120185
 40
0.8883082803397299
 40
0.9239958607406952
 40
0.961350304754645
 40
1.0
 40
1.0
 40
1.0
 40
1.0
 10
224.3041158875129
 20
104.9297289184376
 30
0.0
 10
224.3043812805012
 20
104.9590918236398
 30
0.0
 10
224.3049010736054
 20
105.016601389873
 30
0.0
 10
224.3081251813707
 20
105.1007482165192
 30
0.0
 10
224.3137542122756
 20
105.1806589735586
 30
0.0
 10
224.3221568057783
 20
105.2562642622325
 30
0.0
 10
224.3321070507207
 20
105.3277347385349
 30
0.0
 10
224.3450424319194
 20
105.3949684067253
 30
0.0
 10
224.3595966162632
 20
105.4581161163698
 30
0.0
 10
224.3770590256865
 20
105.5171120462108
 30
0.0
 10
224.396244497032
 20
105.572463453851
 30
0.0
 10
224.4180110263501
 20
105.6240815431363
 30
0.0
 10
224.4425013245442
 20
105.6719115867425
 30
0.0
 10
224.4685118456801
 20
105.7164496090481
 30
0.0
 10
224.4974118369134
 20
105.7570028605073
 30
0.0
 10
224.5274569527225
 20
105.7947094313704
 30
0.0
 10
224.5608306927328
 20
105.8281864745562
 30
0.0
 10
224.5961453052434
 20
105.8582953574194
 30
0.0
 10
224.6339208070791
 20
105.8848646918921
 30
0.0
 10
224.6739573283317
 20
105.9077908228255
 30
0.0
 10
224.7161008193585
 20
105.9280329433758
 30
0.0
 10
224.7611544884934
 20
105.9432712064379
 30
0.0
 10
224.8081830302242
 20
105.9556936212003
 30
0.0
 10
224.8575484458769
 20
105.9648317001214
 30
0.0
 10
224.909305135378
 20
105.9702189060386
 30
0.0
 10
224.9446735573647
 20
105.9707701284046
 30
0.0
 10
224.9626591400502
 20
105.9710504365124
 30
0.0
  0
SPLINE
  5
101
330
1F
100
AcDbEntity
  8
0
  6
Continuous
 62
     7
370
     0
100
AcDbSpline
210
0.0
220
0.0
230
1.0
 70
     8
 71
     3
 72
    15
 73
    11
 74
     0
 42
0.00000001
 43
0.00000001
 40
0.0
 40
0.0
 40
0.0
 40
0.0
 40
0.0974206681772145
 40
0.2008855880393207
 40
0.3111719701726506
 40
0.429797945825373
 40
0.5577399263645872
 40
0.6947152693641585
 40
0.8421299102060552
 40
1.0
 40
1.0
 40
1.0
 40
1.0
 10
224.5037368109383
 20
104.0880283237883
 30
0.0
 10
224.4874530540196
 20
104.1115178820363
 30
0.0
 10
224.4538752501994
 20
104.1599543566542
 30
0.0
 10
224.4145753421899
 20
104.242543038937
 30
0.0
 10
224.3795191284498
 20
104.3334615824366
 30
0.0
 10
224.3520064280379
 20
104.4344937981985
 30
0.0
 10
224.3304571252688
 20
104.544835583997
 30
0.0
 10
224.3148931484726
 20
104.6647034539199
 30
0.0
 10
224.3060854698639
 20
104.7940456210931
 30
0.0
 10
224.3047872356861
 20
104.8834801623188
 30
0.0
 10
224.3041158875129
 20
104.9297289184376
 30
0.0
  0
SPLINE
  5
102
330
1F
100
AcDbEntity
  8
0
  6
Continuous
 62
     7
370
     0
100
AcDbSpline
210
0.0
220
0.0
230
1.0
 70
     8
 71
     3
 72
    15
 73
    11
 74
     0
 42
0.00000001
 43
0.00000001
 40
0.0
 40
0.0
 40
0.0
 40
0.0
 40
0.1379032299933934
 40
0.2688733426002937
 40
0.3951781273461133
 40
0.5170892381308875
 40
0.6367430265135479
 40
0.756221816463797
 40
0.8766283594636795
 40
1.0
 40
1.0
 40
1.0
 40
1.0
 10
224.9626591400502
 20
103.8900537584942
 30
0.0
 10
224.9388983581125
 20
103.8907315360554
 30
0.0
 10
224.8925713731485
 20
103.8920530157511
 30
0.0
 10
224.824914227563
 20
103.9010316563135
 30
0.0
 10
224.7614143876397
 20
103.9168344852663
 30
0.0
 10
224.7015362685934
 20
103.9380283071909
 30
0.0
 10
224.6459529168541
 20
103.9663762644716
 30
0.0
 10
224.594398944019
 20
104.0008670900015
 30
0.0
 10
224.5458384101699
 20
104.0406983182956
 30
0.0
 10
224.5178840146841
 20
104.0721242431069
 30
0.0
 10
224.5037368109383
 20
104.0880283237883
 30
0.0
  0
SPLINE
  5
103
330
1F
100
AcDbEntity
  8
0
  6
Continuous
 62
     7
370
     0
100
AcDbSpline
210
0.0
220
0.0
230
1.0
 70
     8
 71
     3
 72
    23
 73
    19
 74
     0
 42
0.00000001
 43
0.00000001
 40
0.0
 40
0.0
 40
0.0
 40
0.0
 40
0.0579448754623256
 40
0.1160176254256826
 40
0.1748257843638405
 40
0.2346830900793709
 40
0.2968270303289143
 40
0.3640613359637881
 40
0.436192424049739
 40
0.5142601195414407
 40
0.5569758971654883
 40
0.6048559283836539
 40
0.6576752010734876
 40
0.7157505846619323
 40
0.7788397991664556
 40
0.847501189473863
 40
0.9212282309463236
 40
1.0
 40
1.0
 40
1.0
 40
1.0
 10
222.4075113202052
 20
105.4038800602646
 30
0.0
 10
222.4069450067062
 20
105.3835476053111
 30
0.0
 10
222.4058111299505
 20
105.3428378251285
 30
0.0
 10
222.3969610708441
 20
105.2819887096976
 30
0.0
 10
222.3818185209008
 20
105.2217999425307
 30
0.0
 10
222.3617435411915
 20
105.1615389903315
 30
0.0
 10
222.3343169406826
 20
105.100966679903
 30
0.0
 10
222.2996680881831
 20
105.0392474146476
 30
0.0
 10
222.2566824006255
 20
104.9761532088736
 30
0.0
 10
222.2153422211915
 20
104.9225161241884
 30
0.0
 10
222.1768612236487
 20
104.8775547214603
 30
0.0
 10
222.1427514560026
 20
104.8405488600618
 30
0.0
 10
222.1032884289237
 20
104.8012326069513
 30
0.0
 10
222.0599525483259
 20
104.7582443493848
 30
0.0
 10
222.0109763686032
 20
104.7131098304996
 30
0.0
 10
221.9577670893318
 20
104.6644774709859
 30
0.0
 10
221.8991599341922
 20
104.6136270895884
 30
0.0
 10
221.8584751464274
 20
104.5788885499201
 30
0.0
 10
221.8374598172275
 20
104.5609446970167
 30
0.0
  0
SPLINE
  5
104
330
1F
100
AcDbEntity
  8
0
  6
Continuous
 62
     7
370
     0
100
AcDbSpline
210
0.0
220
0.0
230
1.0
 70
     8
 71
     3
 72
    23
 73
    19
 74
     0
 42
0.00000001
 43
0.00000001
 40
0.0
 40
0.0
 40
0.0
 40
0.0
 40
0.0747118903045011
 40
0.1455392023749086
 40
0.2133390572509725
 40
0.2786150735384709
 40
0.3420941969414983
 40
0.4038900759591959
 40
0.4650633525655206
 40
0.5265767363834861
 40
0.5873283340287676
 40
0.6463804557031434
 40
0.7043453083753259
 40
0.7616719489990784
 40
0.8194178590468651
 40
0.8780393997816818
 40
0.9377955090070548
 40
1.0
 40
1.0
 40
1.0
 40
1.0
 10
221.7753097977693
 20
105.9710504365124
 30
0.0
 10
221.7990689017975
 20
105.9706435888008
 30
0.0
 10
221.8453517763882
 20
105.9698510470623
 30
0.0
 10
221.9127933638839
 20
105.9617417537953
 30
0.0
 10
221.9764263656111
 20
105.9491116034267
 30
0.0
 10
222.0364840584147
 20
105.9315090406922
 30
0.0
 10
222.0926116130963
 20
105.908426831866
 30
0.0
 10
222.1448522046771
 20
105.8802255846974
 30
0.0
 10
222.1934467036691
 20
105.8471803943564
 30
0.0
 10
222.2375831956253
 20
105.8088945747385
 30
0.0
 10
222.2773822242324
 20
105.7670991892509
 30
0.0
 10
222.3122602042715
 20
105.7224945029933
 30
0.0
 10
222.341419874522
 20
105.6752710680199
 30
0.0
 10
222.3662475233804
 20
105.6260725724842
 30
0.0
 10
222.384663106843
 20
105.5738594841485
 30
0.0
 10
222.3976132844531
 20
105.519341649953
 30
0.0
 10
222.4064133057454
 20
105.4624724827927
 30
0.0
 10
222.4071404495363
 20
105.4236705199844
 30
0.0
 10
222.4075113202052
 20
105.4038800602646
 30
0.0
  0
SPLINE
  5
105
330
1F
100
AcDbEntity
  8
0
  6
Continuous
 62
     7
370
     0
100
AcDbSpline
210
0.0
220
0.0
230
1.0
 70
     8
 71
     3
 72
    23
 73
    19
 74
     0
 42
0.00000001
 43
0.00000001
 40
0.0
 40
0.0
 40
0.0
 40
0.0
 40
0.0706752902033302
 40
0.137492693844125
 40
0.2014728253723049
 40
0.2628693217722904
 40
0.322550086526156
 40
0.3807372513385548
 40
0.4382197368560125
 40
0.4954874370602862
 40
0.5534836796953478
 40
0.6113462062294291
 40
0.6706437388141558
 40
0.7315869484227135
 40
0.7941831937999383
 40
0.8594451119347498
 40
0.92820763539981
 40
1.0
 40
1.0
 40
1.0
 40
1.0
 10
221.1167665452319
 20
105.3915323742795
 30
0.0
 10
221.1194616784352
 20
105.414489835711
 30
0.0
 10
221.1247048281036
 20
105.4591516009044
 30
0.0
 10
221.1377647986269
 20
105.5238366450538
 30
0.0
 10
221.1560998153579
 20
105.5840122778794
 30
0.0
 10
221.1780392103127
 20
105.6405174741565
 30
0.0
 10
221.2055423090217
 20
105.6923903452806
 30
0.0
 10
221.2366321947378
 20
105.7407038233742
 30
0.0
 10
221.2733012806049
 20
105.7839256074893
 30
0.0
 10
221.3138108916839
 20
105.8234181102172
 30
0.0
 10
221.3586048551992
 20
105.858221396681
 30
0.0
 10
221.4072624011595
 20
105.888626899324
 30
0.0
 10
221.4597612720507
 20
105.9140592249947
 30
0.0
 10
221.5158090675852
 20
105.9351161303307
 30
0.0
 10
221.5755344598094
 20
105.9510925343646
 30
0.0
 10
221.6388529568858
 20
105.9625491235217
 30
0.0
 10
221.7058663863027
 20
105.9696110960631
 30
0.0
 10
221.7518317133933
 20
105.9705638107001
 30
0.0
 10
221.7753097977693
 20
105.9710504365124
 30
0.0
  0
LINE
  5
106
330
1F
100
AcDbEntity
  8
0
  6
Continuous
 62
     7
370
     0
100
AcDbLine
 10
221.3801838462
 20
105.3651906442
 30
0.0
 11
221.1167665452
 21
105.3915323743
 31
0.0
  0
SPLINE
  5
107
330
1F
100
AcDbEntity
  8
0
  6
Continuous
 62
     7
370
     0
100
AcDbSpline
210
0.0
220
0.0
230
1.0
 70
     8
 71
     3
 72
    23
 73
    19
 74
     0
 42
0.00000001
 43
0.00000001
 40
0.0
 40
0.0
 40
0.0
 40
0.0
 40
0.0706964833433765
 40
0.1383582132030687
 40
0.20336986825917
 40
0.2657002133402299
 40
0.3272558681973766
 40
0.3865123433292945
 40
0.4458582974819498
 40
0.5051731438069392
 40
0.5637797628070206
 40
0.6223430642934399
 40
0.6808235796100197
 40
0.7397951568104401
 40
0.8008011629883836
 40
0.864239461576908
 40
0.9306310981734532
 40
1.0
 40
1.0
 40
1.0
 40
1.0
 10
221.7695475443096
 20
105.7339748655989
 30
0.0
 10
221.7552656244516
 20
105.7336468703675
 30
0.0
 10
221.7273148577484
 20
105.7330049595962
 30
0.0
 10
221.6864583220252
 20
105.7283323784778
 30
0.0
 10
221.6476721234275
 20
105.7211933061032
 30
0.0
 10
221.6110488384768
 20
105.7102782753813
 30
0.0
 10
221.5766330424001
 20
105.6965280170462
 30
0.0
 10
221.5445649031338
 20
105.6792201038348
 30
0.0
 10
221.5143308762946
 20
105.6596826002972
 30
0.0
 10
221.4868831476756
 20
105.636551669937
 30
0.0
 10
221.4620625266719
 20
105.6109041865212
 30
0.0
 10
221.4400275935121
 20
105.5829818351374
 30
0.0
 10
221.4219732765731
 20
105.5522457727852
 30
0.0
 10
221.4070632774844
 20
105.5193718162896
 30
0.0
 10
221.3950743899494
 20
105.4842566224621
 30
0.0
 10
221.3863708653087
 20
105.4466317427011
 30
0.0
 10
221.381625645348
 20
105.4066058134989
 30
0.0
 10
221.38067142141
 20
105.3791960683202
 30
0.0
 10
221.3801838462468
 20
105.365190644178
 30
0.0
  0
SPLINE
  5
108
330
1F
100
AcDbEntity
  8
0
  6
Continuous
 62
     7
370
     0
100
AcDbSpline
210
0.0
220
0.0
230
1.0
 70
     8
 71
     3
 72
    23
 73
    19
 74
     0
 42
0.00000001
 43
0.00000001
 40
0.0
 40
0.0
 40
0.0
 40
0.0
 40
0.061762156768071
 40
0.1211739926536296
 40
0.1794214068253156
 40
0.2368434346502754
 40
0.2943217954133984
 40
0.3531909627945248
 40
0.4127207064163249
 40
0.4745221507037176
 40
0.5370567441421369
 40
0.599591337580556
 40
0.6623669793543064
 40
0.7252456446794925
 40
0.7903164461250805
 40
0.8577243009540928
 40
0.927231952378493
 40
1.0
 40
1.0
 40
1.0
 40
1.0
 10
222.1440940191902
 20
105.4014105230676
 30
0.0
 10
222.1438080111513
 20
105.41295781771
 30
0.0
 10
222.1432468789334
 20
105.4356129818005
 30
0.0
 10
222.1379228842177
 20
105.4687686728108
 30
0.0
 10
222.1305114566357
 20
105.5006983954027
 30
0.0
 10
222.1185294339625
 20
105.5308273448135
 30
0.0
 10
222.1042672198765
 20
105.5600477560858
 30
0.0
 10
222.0859724878868
 20
105.5874363016042
 30
0.0
 10
222.0648092438437
 20
105.6136755737562
 30
0.0
 10
222.0405791205542
 20
105.6380737666772
 30
0.0
 10
222.0141141516521
 20
105.6609631668434
 30
0.0
 10
221.9845433203565
 20
105.6799898188047
 30
0.0
 10
221.9538088307488
 20
105.6971194747433
 30
0.0
 10
221.9208503687707
 20
105.7108927006813
 30
0.0
 10
221.8857214902085
 20
105.7210066261946
 30
0.0
 10
221.8486779168129
 20
105.7283467314443
 30
0.0
 10
221.8097255266872
 20
105.7330007515294
 30
0.0
 10
221.7831432585784
 20
105.7336452378832
 30
0.0
 10
221.7695475443096
 20
105.7339748655989
 30
0.0
  0
SPLINE
  5
109
330
1F
100
AcDbEntity
  8
0
  6
Continuous
 62
     7
370
     0
100
AcDbSpline
210
0.0
220
0.0
230
1.0
 70
     8
 71
     3
 72
    23
 73
    19
 74
     0
 42
0.00000001
 43
0.00000001
 40
0.0
 40
0.0
 40
0.0
 40
0.0
 40
0.1114096600426609
 40
0.2145263672558013
 40
0.3094172254458342
 40
0.3960871907990314
 40
0.4742842164262461
 40
0.5443738816396977
 40
0.6064195628105363
 40
0.6605816023749734
 40
0.7097938180647575
 40
0.7564506485918284
 40
0.8007673253039324
 40
0.8431682879413349
 40
0.8842948685500487
 40
0.9238845020552847
 40
0.9623587101392161
 40
1.0
 40
1.0
 40
1.0
 40
1.0
 10
221.5917408661245
 20
104.6848331464003
 30
0.0
 10
221.6181783288689
 20
104.7070851296093
 30
0.0
 10
221.6690853403421
 20
104.7499327347473
 30
0.0
 10
221.7409740179021
 20
104.81351460963
 30
0.0
 10
221.8066326232661
 20
104.872553981855
 30
0.0
 10
221.8650156176357
 20
104.928085637149
 30
0.0
 10
221.9166005126487
 20
104.979570954356
 30
0.0
 10
221.9615084305422
 20
105.0268932867383
 30
0.0
 10
222.0001257729034
 20
105.0699049509194
 30
0.0
 10
222.0319810976772
 20
105.1101627868841
 30
0.0
 10
222.0588584126426
 20
105.1481773818279
 30
0.0
 10
222.0816345632084
 20
105.1852582716443
 30
0.0
 10
222.1006154627512
 20
105.2220531782693
 30
0.0
 10
222.1164240123774
 20
105.258445672519
 30
0.0
 10
222.1289272319079
 20
105.2945913849522
 30
0.0
 10
222.1374499546306
 20
105.3305956245272
 30
0.0
 10
222.1432297703287
 20
105.3661011416734
 30
0.0
 10
222.143808045557
 20
105.3897269067709
 30
0.0
 10
222.1440940191902
 20
105.4014105230676
 30
0.0
  0
SPLINE
  5
10A
330
1F
100
AcDbEntity
  8
0
  6
Continuous
 62
     7
370
     0
100
AcDbSpline
210
0.0
220
0.0
230
1.0
 70
     8
 71
     3
 72
    19
 73
    15
 74
     0
 42
0.00000001
 43
0.00000001
 40
0.0
 40
0.0
 40
0.0
 40
0.0
 40
0.1003881431397112
 40
0.204406793037309
 40
0.3106860830942076
 40
0.4221572938827998
 40
0.480685460770374
 40
0.5432381544526687
 40
0.6094995045645645
 40
0.6795546087742242
 40
0.753841222051175
 40
0.8316406764893858
 40
0.9138127068095903
 40
0.9999999999999999
 40
0.9999999999999999
 40
0.9999999999999999
 40
0.9999999999999999
 10
221.1180013138304
 20
104.0991412411748
 30
0.0
 10
221.1267183431409
 20
104.1232132787447
 30
0.0
 10
221.1444676504839
 20
104.1722279118242
 30
0.0
 10
221.1804279330821
 20
104.2429491824837
 30
0.0
 10
221.2227257233909
 20
104.3132427448917
 30
0.0
 10
221.2639085761857
 20
104.3704716291151
 30
0.0
 10
221.3016231763389
 20
104.4161935067043
 30
0.0
 10
221.3332517845966
 20
104.4519655844438
 30
0.0
 10
221.3683020805158
 20
104.4885825214868
 30
0.0
 10
221.4067459943949
 20
104.5260376291713
 30
0.0
 10
221.4482135266104
 20
104.5645734890573
 30
0.0
 10
221.4927612594092
 20
104.6043186167802
 30
0.0
 10
221.5409152315347
 20
104.644532318374
 30
0.0
 10
221.5745317437769
 20
104.6711876329539
 30
0.0
 10
221.5917408661245
 20
104.6848331464003
 30
0.0
  0
SPLINE
  5
10B
330
1F
100
AcDbEntity
  8
0
  6
Continuous
 62
     7
370
     0
100
AcDbSpline
210
0.0
220
0.0
230
1.0
 70
     8
 71
     3
 72
    11
 73
     7
 74
     0
 42
0.00000001
 43
0.00000001
 40
0.0
 40
0.0
 40
0.0
 40
0.0
 40
0.2526433275832378
 40
0.504439852579989
 40
0.750406804281457
 40
1.0
 40
1.0
 40
1.0
 40
1.0
 10
221.0904248151304
 20
103.9163954885957
 30
0.0
 10
221.0903973116263
 20
103.9320511193437
 30
0.0
 10
221.0903423968035
 20
103.9633099067499
 30
0.0
 10
221.0956318871571
 20
104.0095396704139
 30
0.0
 10
221.1039162880631
 20
104.0551561573952
 30
0.0
 10
221.1132834572638
 20
104.084408196325
 30
0.0
 10
221.1180013138304
 20
104.0991412411748
 30
0.0
  0
LINE
  5
10C
330
1F
100
AcDbEntity
  8
0
  6
Continuous
 62
     7
370
     0
100
AcDbLine
 10
222.4338530503
 20
103.9163954886
 30
0.0
 11
221.0904248151
 21
103.9163954886
 31
0.0
  0
LINE
  5
10D
330
1F
100
AcDbEntity
  8
0
  6
Continuous
 62
     7
370
     0
100
AcDbLine
 10
222.4338530503
 20
104.1798127896
 30
0.0
 11
222.4338530503
 21
103.9163954886
 31
0.0
  0
LINE
  5
10E
330
1F
100
AcDbEntity
  8
0
  6
Continuous
 62
     7
370
     0
100
AcDbLine
 10
221.4287514111
 20
104.1798127896
 30
0.0
 11
222.4338530503
 21
104.1798127896
 31
0.0
  0
SPLINE
  5
10F
330
1F
100
AcDbEntity
  8
0
  6
Continuous
 62
     7
370
     0
100
AcDbSpline
210
0.0
220
0.0
230
1.0
 70
     8
 71
     3
 72
    17
 73
    13
 74
     0
 42
0.00000001
 43
0.00000001
 40
0.0
 40
0.0
 40
0.0
 40
0.0
 40
0.1241996726524869
 40
0.2368296581100271
 40
0.3394949853062825
 40
0.4312535100312251
 40
0.5114548721194184
 40
0.5812230366234586
 40
0.6404953748643705
 40
0.6883082049320186
 40
0.8503329734146889
 40
1.0
 40
1.0
 40
1.0
 40
1.0
 10
221.8374598172275
 20
104.5609446970167
 30
0.0
 10
221.8194633620422
 20
104.5462936640643
 30
0.0
 10
221.7851468921377
 20
104.5183563994084
 30
0.0
 10
221.7363250656628
 20
104.4778549984158
 30
0.0
 10
221.6925955586595
 20
104.4407163108955
 30
0.0
 10
221.6529357634921
 20
104.4081517307664
 30
0.0
 10
221.6187900638663
 20
104.3785861498827
 30
0.0
 10
221.5889557257262
 20
104.3533144116105
 30
0.0
 10
221.5645166467419
 20
104.3310658622956
 30
0.0
 10
221.5273002561034
 20
104.2972698669623
 30
0.0
 10
221.4801625220464
 20
104.249097091429
 30
0.0
 10
221.4454294234287
 20
104.2022889512348
 30
0.0
 10
221.4287514111215
 20
104.1798127896107
 30
0.0
  0
SPLINE
  5
110
330
1F
100
AcDbEntity
  8
0
  6
Continuous
 62
     7
370
     0
100
AcDbSpline
210
0.0
220
0.0
230
1.0
 70
     8
 71
     3
 72
    23
 73
    19
 74
     0
 42
0.00000001
 43
0.00000001
 40
0.0
 40
0.0
 40
0.0
 40
0.0
 40
0.0635999003471699
 40
0.1252966507935535
 40
0.1855687201945882
 40
0.2446982110006627
 40
0.303716806189989
 40
0.3629196509481438
 40
0.4233003138688771
 40
0.4851773095450755
 40
0.5470834132243567
 40
0.608524799634247
 40
0.6699648532447271
 40
0.7322993779782991
 40
0.7956502934901157
 40
0.8610554709467161
 40
0.929122115173219
 40
1.0
 40
1.0
 40
1.0
 40
1.0
 10
219.9313886906646
 20
104.5144350798062
 30
0.0
 10
219.9308652050146
 20
104.492862813906
 30
0.0
 10
219.929833898388
 20
104.4503638060055
 30
0.0
 10
219.9207725139641
 20
104.3879802498666
 30
0.0
 10
219.9070622382027
 20
104.3280523317698
 30
0.0
 10
219.8870710733525
 20
104.2708332094245
 30
0.0
 10
219.8615373890059
 20
104.2162824340547
 30
0.0
 10
219.8299519127736
 20
104.1644792193472
 30
0.0
 10
219.7926249825017
 20
104.1154768543172
 30
0.0
 10
219.7506576779354
 20
104.0691230241178
 30
0.0
 10
219.7037382564937
 20
104.0272211692247
 30
0.0
 10
219.6529801336359
 20
103.990296389533
 30
0.0
 10
219.5981928583703
 20
103.9593671786077
 30
0.0
 10
219.5400411877008
 20
103.9337579031578
 30
0.0
 10
219.4782466714016
 20
103.9139108096257
 30
0.0
 10
219.4128887420302
 20
103.900013636034
 30
0.0
 10
219.3439891485488
 20
103.8917384807395
 30
0.0
 10
219.2968777405879
 20
103.8906228566523
 30
0.0
 10
219.2728454381272
 20
103.8900537584942
 30
0.0
  0
SPLINE
  5
111
330
1F
100
AcDbEntity
  8
0
  6
Continuous
 62
     7
370
     0
100
AcDbSpline
210
0.0
220
0.0
230
1.0
 70
     8
 71
     3
 72
    23
 73
    19
 74
     0
 42
0.00000001
 43
0.00000001
 40
0.0
 40
0.0
 40
0.0
 40
0.0
 40
0.0690130029109932
 40
0.1352355440560497
 40
0.1996111851157138
 40
0.2624185195032886
 40
0.3237234972102992
 40
0.3837653656042444
 40
0.4437730350956272
 40
0.5037949564977896
 40
0.5638225777168209
 40
0.6234843128834681
 40
0.6834691722744386
 40
0.7435907624559172
 40
0.8057272199738402
 40
0.8686162107352969
 40
0.933278202847215
 40
1.0
 40
1.0
 40
1.0
 40
1.0
 10
219.5477872460615
 20
105.0433276295003
 30
0.0
 10
219.5631262328924
 20
105.0381207702948
 30
0.0
 10
219.5931839921818
 20
105.0279175852748
 30
0.0
 10
219.6356766959235
 20
105.0080794491533
 30
0.0
 10
219.6756822992882
 20
104.9866892295216
 30
0.0
 10
219.7134263982878
 20
104.9635343037912
 30
0.0
 10
219.7475157652313
 20
104.9368926952964
 30
0.0
 10
219.7790877215429
 20
104.908339611954
 30
0.0
 10
219.8080095247666
 20
104.8774726846737
 30
0.0
 10
219.8338861337768
 20
104.8440293869874
 30
0.0
 10
219.8569886749809
 20
104.8087116365798
 30
0.0
 10
219.8767662840902
 20
104.7714333271775
 30
0.0
 10
219.8935630276981
 20
104.7327250667544
 30
0.0
 10
219.907918103207
 20
104.6924073577601
 30
0.0
 10
219.9184033511487
 20
104.6501962070784
 30
0.0
 10
219.9257397386418
 20
104.6062855972506
 30
0.0
 10
219.930394469668
 20
104.560906952581
 30
0.0
 10
219.9310538378578
 20
104.5300867680027
 30
0.0
 10
219.9313886906646
 20
104.5144350798062
 30
0.0
  0
SPLINE
  5
112
330
1F
100
AcDbEntity
  8
0
  6
Continuous
 62
     7
370
     0
100
AcDbSpline
210
0.0
220
0.0
230
1.0
 70
     8
 71
     3
 72
    15
 73
    11
 74
     0
 42
0.00000001
 43
0.00000001
 40
0.0
 40
0.0
 40
0.0
 40
0.0
 40
0.1248350921668871
 40
0.2447781332833286
 40
0.3609889778410595
 40
0.4779641722472781
 40
0.5969221175582977
 40
0.7215907566966706
 40
0.8550978657574203
 40
1.0
 40
1.0
 40
1.0
 40
1.0
 10
219.8523635003601
 20
105.4462737821467
 30
0.0
 10
219.8516106771276
 20
105.4236869800977
 30
0.0
 10
219.8501345323806
 20
105.3793985100337
 30
0.0
 10
219.8350919572549
 20
105.315556312307
 30
0.0
 10
219.8116468171869
 20
105.2559564209448
 30
0.0
 10
219.7777615151046
 20
105.2017347062801
 30
0.0
 10
219.734847040275
 20
105.1523311794883
 30
0.0
 10
219.6815935995695
 20
105.1093841518868
 30
0.0
 10
219.6188099428524
 20
105.0719247390157
 30
0.0
 10
219.5720987597381
 20
105.0531165990904
 30
0.0
 10
219.5477872460615
 20
105.0433276295003
 30
0.0
  0
SPLINE
  5
113
330
1F
100
AcDbEntity
  8
0
  6
Continuous
 62
     7
370
     0
100
AcDbSpline
210
0.0
220
0.0
230
1.0
 70
     8
 71
     3
 72
    23
 73
    19
 74
     0
 42
0.00000001
 43
0.00000001
 40
0.0
 40
0.0
 40
0.0
 40
0.0
 40
0.0732007449685416
 40
0.1425867913224124
 40
0.2096247814680876
 40
0.274882926768208
 40
0.3379306095315751
 40
0.4004618221882003
 40
0.4625006206857345
 40
0.5250054581372535
 40
0.5866888527108447
 40
0.6468127657705337
 40
0.7052153157505644
 40
0.7628810210075593
 40
0.8207275416930105
 40
0.8792954957245831
 40
0.9385111654136069
 40
0.9999999999999999
 40
0.9999999999999999
 40
0.9999999999999999
 40
0.9999999999999999
 10
219.2695527218645
 20
105.9710504365124
 30
0.0
 10
219.2909746883392
 20
105.9705677190908
 30
0.0
 10
219.3327022618051
 20
105.9696274400227
 30
0.0
 10
219.39372513543
 20
105.9625476354909
 30
0.0
 10
219.4516111112451
 20
105.9506814420402
 30
0.0
 10
219.5063261090282
 20
105.9338463008414
 30
0.0
 10
219.5579563888158
 20
105.9123215591374
 30
0.0
 10
219.6061626884578
 20
105.8858648260487
 30
0.0
 10
219.6514412625442
 20
105.8549124572918
 30
0.0
 10
219.692634806316
 20
105.8190953348614
 30
0.0
 10
219.7301160210295
 20
105.7802095874877
 30
0.0
 10
219.7625899532485
 20
105.7385497901108
 30
0.0
 10
219.7904418113257
 20
105.6950880459254
 30
0.0
 10
219.8134571873612
 20
105.649560314829
 30
0.0
 10
219.8304840495741
 20
105.6014481578697
 30
0.0
 10
219.8434623406196
 20
105.5516580303599
 30
0.0
 10
219.850990351041
 20
105.4995983285409
 30
0.0
 10
219.8519000731466
 20
105.4642704017438
 30
0.0
 10
219.8523635003601
 20
105.4462737821467
 30
0.0
  0
SPLINE
  5
114
330
1F
100
AcDbEntity
  8
0
  6
Continuous
 62
     7
370
     0
100
AcDbSpline
210
0.0
220
0.0
230
1.0
 70
     8
 71
     3
 72
    23
 73
    19
 74
     0
 42
0.00000001
 43
0.00000001
 40
0.0
 40
0.0
 40
0.0
 40
0.0
 40
0.0621313717366117
 40
0.1219658247853497
 40
0.1805702366487598
 40
0.2385759705888209
 40
0.2960002420906481
 40
0.3543589964435931
 40
0.4137812280524365
 40
0.4750979653520684
 40
0.5372798973856026
 40
0.5989179536770425
 40
0.6612351129787322
 40
0.7243219805737479
 40
0.7892171825086325
 40
0.8563966620881328
 40
0.9265077687361052
 40
1.0
 40
1.0
 40
1.0
 40
1.0
 10
218.6933273758943
 20
105.452859214672
 30
0.0
 10
218.6937793782118
 20
105.4708591427554
 30
0.0
 10
218.6946666728896
 20
105.5061935642143
 30
0.0
 10
218.7023331008315
 20
105.558040845709
 30
0.0
 10
218.7146119897063
 20
105.6077235126269
 30
0.0
 10
218.7320386059543
 20
105.6551013407061
 30
0.0
 10
218.7538712999757
 20
105.7005642928786
 30
0.0
 10
218.7814204779492
 20
105.743279467664
 30
0.0
 10
218.8130865469091
 20
105.7844540823522
 30
0.0
 10
218.8501818419441
 20
105.8224237336962
 30
0.0
 10
218.8910602157805
 20
105.8572002594197
 30
0.0
 10
218.9353378740698
 20
105.8881479517292
 30
0.0
 10
218.9833536300532
 20
105.9134556404063
 30
0.0
 10
219.0343069243031
 20
105.9346150007351
 30
0.0
 10
219.0884496956968
 20
105.9511805425987
 30
0.0
 10
219.1459726642324
 20
105.962462599478
 30
0.0
 10
219.2066730488624
 20
105.9696388246355
 30
0.0
 10
219.2482663939693
 20
105.9705725709028
 30
0.0
 10
219.2695527218645
 20
105.9710504365124
 30
0.0
  0
SPLINE
  5
115
330
1F
100
AcDbEntity
  8
0
  6
Continuous
 62
     7
370
     0
100
AcDbSpline
210
0.0
220
0.0
230
1.0
 70
     8
 71
     3
 72
    15
 73
    11
 74
     0
 42
0.00000001
 43
0.00000001
 40
0.0
 40
0.0
 40
0.0
 40
0.0
 40
0.1453591950554989
 40
0.2787017789350165
 40
0.4036022344180536
 40
0.5216687911804251
 40
0.6375206936077398
 40
0.7537041507630958
 40
0.8732127703640606
 40
1.0
 40
1.0
 40
1.0
 40
1.0
 10
219.0044890627182
 20
105.0433276295003
 30
0.0
 10
218.9794954123034
 20
105.0531052870906
 30
0.0
 10
218.9315742964081
 20
105.0718522990232
 30
0.0
 10
218.8669410657183
 20
105.109370346828
 30
0.0
 10
218.8122393672083
 20
105.1525299199858
 30
0.0
 10
218.7681408654262
 20
105.2023717833712
 30
0.0
 10
218.7345297897636
 20
105.2578655693755
 30
0.0
 10
218.7103284864501
 20
105.3183037342586
 30
0.0
 10
218.6961533586413
 20
105.3840229855577
 30
0.0
 10
218.694287747843
 20
105.4294661548357
 30
0.0
 10
218.6933273758943
 20
105.452859214672
 30
0.0
  0
SPLINE
  5
116
330
1F
100
AcDbEntity
  8
0
  6
Continuous
 62
     7
370
     0
100
AcDbSpline
210
0.0
220
0.0
230
1.0
 70
     8
 71
     3
 72
    23
 73
    19
 74
     0
 42
0.00000001
 43
0.00000001
 40
0.0
 40
0.0
 40
0.0
 40
0.0
 40
0.0698340680322546
 40
0.1370265239564767
 40
0.2014822968650622
 40
0.2645399492437557
 40
0.3259725932884495
 40
0.3863863095292152
 40
0.4457607667910172
 40
0.5056119070745054
 40
0.5651144217391008
 40
0.6247503916637622
 40
0.6841789512645825
 40
0.7442191416569944
 40
0.8051791454666236
 40
0.8683948608225696
 40
0.9332039334133245
 40
1.0
 40
1.0
 40
1.0
 40
1.0
 10
218.6143021855898
 20
104.5214321018645
 30
0.0
 10
218.6146594966959
 20
104.5379026499796
 30
0.0
 10
218.615360602907
 20
104.5702207150654
 30
0.0
 10
218.6196434232004
 20
104.61762252233
 30
0.0
 10
218.6281790017771
 20
104.6628014270589
 30
0.0
 10
218.6391733706386
 20
104.7060236682613
 30
0.0
 10
218.6531327790222
 20
104.7473973763066
 30
0.0
 10
218.6703543662921
 20
104.7865976432517
 30
0.0
 10
218.6912485885173
 20
104.8235297262677
 30
0.0
 10
218.7149857950424
 20
104.8584339408727
 30
0.0
 10
218.7418655222246
 20
104.8910652465645
 30
0.0
 10
218.7714521118883
 20
104.921137884028
 30
0.0
 10
218.8038530360274
 20
104.948309797204
 30
0.0
 10
218.8383401883266
 20
104.9733745958298
 30
0.0
 10
218.8763591466104
 20
104.9945592682193
 30
0.0
 10
218.9164959978779
 20
105.0140001523275
 30
0.0
 10
218.9594408009482
 20
105.03057962174
 30
0.0
 10
218.9893225888996
 20
105.0390357363542
 30
0.0
 10
219.0044890627182
 20
105.0433276295003
 30
0.0
  0
SPLINE
  5
117
330
1F
100
AcDbEntity
  8
0
  6
Continuous
 62
     7
370
     0
100
AcDbSpline
210
0.0
220
0.0
230
1.0
 70
     8
 71
     3
 72
    23
 73
    19
 74
     0
 42
0.00000001
 43
0.00000001
 40
0.0
 40
0.0
 40
0.0
 40
0.0
 40
0.0704416310595481
 40
0.1380893247200281
 40
0.2031777335235315
 40
0.2661387238052539
 40
0.3279287813674604
 40
0.3891903607612971
 40
0.4502535751031184
 40
0.5123465781279282
 40
0.5738427205586503
 40
0.6339325568070916
 40
0.6934598075975581
 40
0.7524794354833053
 40
0.8123859308429278
 40
0.8730704652319968
 40
0.9351843065837714
 40
1.0
 40
1.0
 40
1.0
 40
1.0
 10
219.2728454381272
 20
103.8900537584942
 30
0.0
 10
219.2488155394807
 20
103.8906351213709
 30
0.0
 10
219.2017088438056
 20
103.8917747884378
 30
0.0
 10
219.132746300099
 20
103.899880770883
 30
0.0
 10
219.0674818816877
 20
103.9144079405019
 30
0.0
 10
219.0057677131252
 20
103.9342752083009
 30
0.0
 10
218.947269016017
 20
103.959191109618
 30
0.0
 10
218.8928496896262
 20
103.9908172342746
 30
0.0
 10
218.8417600155514
 20
104.0276952328584
 30
0.0
 10
218.7948079697628
 20
104.0698562626816
 30
0.0
 10
218.7524920641749
 20
104.1162051483838
 30
0.0
 10
218.7156571852689
 20
104.1659312025364
 30
0.0
 10
218.684259215309
 20
104.2182691566855
 30
0.0
 10
218.658419367388
 20
104.2735140525467
 30
0.0
 10
218.6387235110252
 20
104.3316663934718
 30
0.0
 10
218.6249007254142
 20
104.3925078548669
 30
0.0
 10
218.6158229397535
 20
104.4559919446341
 30
0.0
 10
218.6148162465475
 20
104.4993113471092
 30
0.0
 10
218.6143021855898
 20
104.5214321018645
 30
0.0
  0
SPLINE
  5
118
330
1F
100
AcDbEntity
  8
0
  6
Continuous
 62
     7
370
     0
100
AcDbSpline
210
0.0
220
0.0
230
1.0
 70
     8
 71
     3
 72
    15
 73
    11
 74
     0
 42
0.00000001
 43
0.00000001
 40
0.0
 40
0.0
 40
0.0
 40
0.0
 40
0.132461622242638
 40
0.26164950103549
 40
0.3875466984163659
 40
0.5107816292933464
 40
0.6326753605997106
 40
0.7546603541381373
 40
0.8765227798028644
 40
1.0
 40
1.0
 40
1.0
 40
1.0
 10
216.7703810784851
 20
104.6210367688107
 30
0.0
 10
216.7699146728258
 20
104.5982427162238
 30
0.0
 10
216.7689933885628
 20
104.5532179582223
 30
0.0
 10
216.7614432734838
 20
104.4868656538929
 30
0.0
 10
216.7490062532449
 20
104.4229299860427
 30
0.0
 10
216.7323565149874
 20
104.3612216214957
 30
0.0
 10
216.7098604842195
 20
104.3020910160264
 30
0.0
 10
216.682574904527
 20
104.245347172984
 30
0.0
 10
216.6510994578921
 20
104.1903979895814
 30
0.0
 10
216.625857783096
 20
104.1565249893906
 30
0.0
 10
216.6131538769418
 20
104.1394770153928
 30
0.0
  0
SPLINE
  5
119
330
1F
100
AcDbEntity
  8
0
  6
Continuous
 62
     7
370
     0
100
AcDbSpline
210
0.0
220
0.0
230
1.0
 70
     8
 71
     3
 72
    23
 73
    19
 74
     0
 42
0.00000001
 43
0.00000001
 40
0.0
 40
0.0
 40
0.0
 40
0.0
 40
0.0619974190757221
 40
0.1220879540822937
 40
0.1813753107870036
 40
0.2395080083953663
 40
0.2978356978967516
 40
0.3568799706531185
 40
0.4172818251154289
 40
0.4796404090798165
 40
0.5425000674783568
 40
0.6049624196481908
 40
0.6669910330782646
 40
0.7302162430101637
 40
0.794172863251256
 40
0.8604581431502615
 40
0.9285781799847829
 40
1.0
 40
1.0
 40
1.0
 40
1.0
 10
216.1674024128805
 20
105.2861654538735
 30
0.0
 10
216.1881476329496
 20
105.285621912651
 30
0.0
 10
216.2290000024993
 20
105.2845515481615
 30
0.0
 10
216.2891973835775
 20
105.2757571561569
 30
0.0
 10
216.3467562061781
 20
105.2608280927226
 30
0.0
 10
216.4021279568912
 20
105.2407208208035
 30
0.0
 10
216.4545824945633
 20
105.214065197022
 30
0.0
 10
216.5046511459318
 20
105.1817908966198
 30
0.0
 10
216.5521317665284
 20
105.1436318915698
 30
0.0
 10
216.5967559347444
 20
105.1003081635476
 30
0.0
 10
216.6372318299938
 20
105.0522142708878
 30
0.0
 10
216.6734590772829
 20
105.000918730096
 30
0.0
 10
216.7030475140358
 20
104.9453947455965
 30
0.0
 10
216.7279334200972
 20
104.8870920581124
 30
0.0
 10
216.7467029033048
 20
104.8250536078538
 30
0.0
 10
216.7609495961627
 20
104.7601598471347
 30
0.0
 10
216.7685668298668
 20
104.6915994557986
 30
0.0
 10
216.7697668640374
 20
104.6449257889716
 30
0.0
 10
216.7703810784851
 20
104.6210367688107
 30
0.0
  0
SPLINE
  5
11A
330
1F
100
AcDbEntity
  8
0
  6
Continuous
 62
     7
370
     0
100
AcDbSpline
210
0.0
220
0.0
230
1.0
 70
     8
 71
     3
 72
    15
 73
    11
 74
     0
 42
0.00000001
 43
0.00000001
 40
0.0
 40
0.0
 40
0.0
 40
0.0
 40
0.1367294018595733
 40
0.2685149167908308
 40
0.3955294046848096
 40
0.5199999535658124
 40
0.640496476841269
 40
0.7612361017625323
 40
0.8801067171759528
 40
1.0
 40
1.0
 40
1.0
 40
1.0
 10
215.8010877286566
 20
105.1491061394392
 30
0.0
 10
215.815622389877
 20
105.1600131529425
 30
0.0
 10
215.8441661653568
 20
105.1814328021435
 30
0.0
 10
215.8886893388051
 20
105.2094790093792
 30
0.0
 10
215.9338491469201
 20
105.2331200919334
 30
0.0
 10
215.9793827029579
 20
105.2524801505569
 30
0.0
 10
216.0256516995581
 20
105.2675616021682
 30
0.0
 10
216.0723769281767
 20
105.2780394983367
 30
0.0
 10
216.119717480365
 20
105.2851210771047
 30
0.0
 10
216.1514621127766
 20
105.285816335646
 30
0.0
 10
216.1674024128805
 20
105.2861654538735
 30
0.0
  0
LINE
  5
11B
330
1F
100
AcDbEntity
  8
0
  6
Continuous
 62
     7
370
     0
100
AcDbLine
 10
215.90563147
 20
105.6812914054
 30
0.0
 11
215.8010877287
 21
105.1491061394
 31
0.0
  0
LINE
  5
11C
330
1F
100
AcDbEntity
  8
0
  6
Continuous
 62
     7
370
     0
100
AcDbLine
 10
216.6650141581
 20
105.6812914054
 30
0.0
 11
215.90563147
 21
105.6812914054
 31
0.0
  0
LINE
  5
11D
330
1F
100
AcDbEntity
  8
0
  6
Continuous
 62
     7
370
     0
100
AcDbLine
 10
216.6650141581
 20
105.9447087064
 30
0.0
 11
216.6650141581
 21
105.6812914054
 31
0.0
  0
LINE
  5
11E
330
1F
100
AcDbEntity
  8
0
  6
Continuous
 62
     7
370
     0
100
AcDbLine
 10
215.6903701443
 20
105.9447087064
 30
0.0
 11
216.6650141581
 21
105.9447087064
 31
0.0
  0
LINE
  5
11F
330
1F
100
AcDbEntity
  8
0
  6
Continuous
 62
     7
370
     0
100
AcDbLine
 10
215.4796363035
 20
104.8910395024
 30
0.0
 11
215.6903701443
 21
105.9447087064
 31
0.0
  0
LINE
  5
120
330
1F
100
AcDbEntity
  8
0
  6
Continuous
 62
     7
370
     0
100
AcDbLine
 10
215.7430536045
 20
104.8646977722
 30
0.0
 11
215.4796363035
 21
104.8910395024
 31
0.0
  0
SPLINE
  5
121
330
1F
100
AcDbEntity
  8
0
  6
Continuous
 62
     7
370
     0
100
AcDbSpline
210
0.0
220
0.0
230
1.0
 70
     8
 71
     3
 72
    15
 73
    11
 74
     0
 42
0.00000001
 43
0.00000001
 40
0.0
 40
0.0
 40
0.0
 40
0.0
 40
0.1478596367312514
 40
0.283561321939547
 40
0.4123693961385312
 40
0.5342363558879457
 40
0.6526916293119823
 40
0.7686630594981229
 40
0.8836524018604046
 40
1.0
 40
1.0
 40
1.0
 40
1.0
 10
216.0945510655686
 20
105.04908988296
 30
0.0
 10
216.0740662967031
 20
105.0484906634311
 30
0.0
 10
216.0347811458159
 20
105.0473414959805
 30
0.0
 10
215.9783324238853
 20
105.037673962272
 30
0.0
 10
215.9269451085854
 20
105.022057293092
 30
0.0
 10
215.8812010053036
 20
104.9987825476084
 30
0.0
 10
215.8403309094279
 20
104.970977041119
 30
0.0
 10
215.8034857667064
 20
104.939513849114
 30
0.0
 10
215.7703617515165
 20
104.9044142434878
 30
0.0
 10
215.7521918806328
 20
104.8779883144555
 30
0.0
 10
215.7430536045268
 20
104.8646977722496
 30
0.0
  0
SPLINE
  5
122
330
1F
100
AcDbEntity
  8
0
  6
Continuous
 62
     7
370
     0
100
AcDbSpline
210
0.0
220
0.0
230
1.0
 70
     8
 71
     3
 72
    23
 73
    19
 74
     0
 42
0.00000001
 43
0.00000001
 40
0.0
 40
0.0
 40
0.0
 40
0.0
 40
0.0728659334565351
 40
0.1418868719641256
 40
0.2074526264147115
 40
0.2704376800000974
 40
0.3316408722476697
 40
0.3901075774931577
 40
0.4480692869488358
 40
0.505502951924537
 40
0.5624881528337238
 40
0.6190843288847293
 40
0.6764155306922391
 40
0.7354523604507931
 40
0.7962407694486783
 40
0.8604056780892032
 40
0.9283049272851064
 40
1.0
 40
1.0
 40
1.0
 40
1.0
 10
216.5069637774701
 20
104.605396366563
 30
0.0
 10
216.5066613868802
 20
104.622145974917
 30
0.0
 10
216.5060725622692
 20
104.6547613470564
 30
0.0
 10
216.5011136983929
 20
104.7022547517571
 30
0.0
 10
216.4927475112326
 20
104.7469129250202
 30
0.0
 10
216.4819224483967
 20
104.7892280778628
 30
0.0
 10
216.4670014646405
 20
104.8285389839071
 30
0.0
 10
216.4493043377354
 20
104.8654156128557
 30
0.0
 10
216.4276246134932
 20
104.8990753340751
 30
0.0
 10
216.4035044896825
 20
104.9305661893862
 30
0.0
 10
216.3759562631335
 20
104.9587964722713
 30
0.0
 10
216.3446077619346
 20
104.9826333705391
 30
0.0
 10
216.3106887692788
 20
105.003495470432
 30
0.0
 10
216.2735161219059
 20
105.0204133319926
 30
0.0
 10
216.2330679307579
 20
105.0329826674076
 30
0.0
 10
216.1897461393984
 20
105.0426536400055
 30
0.0
 10
216.1431012200715
 20
105.0477401755876
 30
0.0
 10
216.1110251856425
 20
105.0486318979846
 30
0.0
 10
216.0945510655686
 20
105.04908988296
 30
0.0
  0
SPLINE
  5
123
330
1F
100
AcDbEntity
  8
0
  6
Continuous
 62
     7
370
     0
100
AcDbSpline
210
0.0
220
0.0
230
1.0
 70
     8
 71
     3
 72
    23
 73
    19
 74
     0
 42
0.00000001
 43
0.00000001
 40
0.0
 40
0.0
 40
0.0
 40
0.0
 40
0.0658010376094729
 40
0.1286767959489733
 40
0.1886758749524341
 40
0.2475984367338953
 40
0.304849420118827
 40
0.3617858992828986
 40
0.4195227063685901
 40
0.4786818154207406
 40
0.5387695030440189
 40
0.5987990560131542
 40
0.6601842815006784
 40
0.722951530610966
 40
0.7879926891048742
 40
0.8554037684344732
 40
0.9261530612840041
 40
1.0
 40
1.0
 40
1.0
 40
1.0
 10
216.0933162969701
 20
104.1271293294077
 30
0.0
 10
216.1089775760624
 20
104.1275077513727
 30
0.0
 10
216.1396038896782
 20
104.1282477720129
 30
0.0
 10
216.1841593744621
 20
104.1345065692705
 30
0.0
 10
216.2262456383317
 20
104.1448266008523
 30
0.0
 10
216.2656613049159
 20
104.1592687184124
 30
0.0
 10
216.3028684464868
 20
104.1772292004623
 30
0.0
 10
216.3366327388022
 20
104.2004847530166
 30
0.0
 10
216.3687951971639
 20
104.2266262919942
 30
0.0
 10
216.3972861600902
 20
104.2577920235864
 30
0.0
 10
216.4232209411147
 20
104.2917211282783
 30
0.0
 10
216.445604606908
 20
104.3287561893253
 30
0.0
 10
216.4644484910044
 20
104.3683773903372
 30
0.0
 10
216.480312981772
 20
104.4105771351988
 30
0.0
 10
216.4920277504867
 20
104.4555964964088
 30
0.0
 10
216.5006449091342
 20
104.5031959795502
 30
0.0
 10
216.5061767809977
 20
104.5534059055391
 30
0.0
 10
216.5066977252965
 20
104.5878204616533
 30
0.0
 10
216.5069637774701
 20
104.605396366563
 30
0.0
  0
SPLINE
  5
124
330
1F
100
AcDbEntity
  8
0
  6
Continuous
 62
     7
370
     0
100
AcDbSpline
210
0.0
220
0.0
230
1.0
 70
     8
 71
     3
 72
    23
 73
    19
 74
     0
 42
0.00000001
 43
0.00000001
 40
0.0
 40
0.0
 40
0.0
 40
0.0
 40
0.0773613371189759
 40
0.1504798322806804
 40
0.2199772368520742
 40
0.2866809968624409
 40
0.3496784941856623
 40
0.4106796250174851
 40
0.4694271135192905
 40
0.5267557014271295
 40
0.583141980834837
 40
0.6388244277786258
 40
0.6952634704038123
 40
0.7526958048985352
 40
0.8108491833348948
 40
0.8713563036360843
 40
0.934436430984128
 40
1.0
 40
1.0
 40
1.0
 40
1.0
 10
215.7167118744253
 20
104.4959135508286
 30
0.0
 10
215.7193201192553
 20
104.4810714316084
 30
0.0
 10
215.7243935610958
 20
104.4522012014117
 30
0.0
 10
215.734061565247
 20
104.4104106868876
 30
0.0
 10
215.7466175505773
 20
104.3715861307975
 30
0.0
 10
215.7607255824296
 20
104.3353912903106
 30
0.0
 10
215.7774953583645
 20
104.3022088805445
 30
0.0
 10
215.7956655495266
 20
104.2715149686073
 30
0.0
 10
215.8170935765628
 20
104.2443990926889
 30
0.0
 10
215.8396222699291
 20
104.2194430669044
 30
0.0
 10
215.864349232322
 20
104.197452394663
 30
0.0
 10
215.8915130604151
 20
104.1789134993255
 30
0.0
 10
215.920355865597
 20
104.1627394357472
 30
0.0
 10
215.9512289423619
 20
104.1494968310552
 30
0.0
 10
215.9841796072959
 20
104.1398039418407
 30
0.0
 10
216.0187884864942
 20
104.1321385304683
 30
0.0
 10
216.0555012318914
 20
104.1282759658304
 30
0.0
 10
216.0805500875069
 20
104.1275164291184
 30
0.0
 10
216.0933162969701
 20
104.1271293294077
 30
0.0
  0
LINE
  5
125
330
1F
100
AcDbEntity
  8
0
  6
Continuous
 62
     7
370
     0
100
AcDbLine
 10
215.4532945734
 20
104.4695718207
 30
0.0
 11
215.7167118744
 21
104.4959135508
 31
0.0
  0
SPLINE
  5
126
330
1F
100
AcDbEntity
  8
0
  6
Continuous
 62
     7
370
     0
100
AcDbSpline
210
0.0
220
0.0
230
1.0
 70
     8
 71
     3
 72
    23
 73
    19
 74
     0
 42
0.00000001
 43
0.00000001
 40
0.0
 40
0.0
 40
0.0
 40
0.0
 40
0.0692980234597528
 40
0.135560844101282
 40
0.1996709556470567
 40
0.2617162384956084
 40
0.3226619299471026
 40
0.3829069237782244
 40
0.4430320330728902
 40
0.503500787350163
 40
0.5637242810171083
 40
0.6239800220534739
 40
0.6836293869955233
 40
0.7438482724857305
 40
0.80519184622951
 40
0.8676487429597676
 40
0.9327780842312613
 40
1.0
 40
1.0
 40
1.0
 40
1.0
 10
216.0916699388387
 20
103.8900537584942
 30
0.0
 10
216.0695589259367
 20
103.8905022767866
 30
0.0
 10
216.0263053463497
 20
103.8913796685977
 30
0.0
 10
215.9629744100345
 20
103.8990072974294
 30
0.0
 10
215.9027392006308
 20
103.9111706758216
 30
0.0
 10
215.8455808474329
 20
103.9286167257912
 30
0.0
 10
215.7913271476605
 20
103.950661442601
 30
0.0
 10
215.7406087299252
 20
103.9786657919884
 30
0.0
 10
215.6925454307392
 20
104.0107010234506
 30
0.0
 10
215.6481944825056
 20
104.0477541365638
 30
0.0
 10
215.607784994097
 20
104.089082602631
 30
0.0
 10
215.5715772718033
 20
104.1338107605278
 30
0.0
 10
215.5400613047557
 20
104.1819677762771
 30
0.0
 10
215.5132523040896
 20
104.2332654889734
 30
0.0
 10
215.4909082399993
 20
104.2876547026845
 30
0.0
 10
215.473814147547
 20
104.345506644561
 30
0.0
 10
215.4602742037852
 20
104.4062536979492
 30
0.0
 10
215.4556455112571
 20
104.4482444776975
 30
0.0
 10
215.4532945734103
 20
104.4695718207271
 30
0.0
  0
SPLINE
  5
127
330
1F
100
AcDbEntity
  8
0
  6
Continuous
 62
     7
370
     0
100
AcDbSpline
210
0.0
220
0.0
230
1.0
 70
     8
 71
     3
 72
    15
 73
    11
 74
     0
 42
0.00000001
 43
0.00000001
 40
0.0
 40
0.0
 40
0.0
 40
0.0
 40
0.1278926194654212
 40
0.2515785135038573
 40
0.3727928197023035
 40
0.4927776986078535
 40
0.6135900692425712
 40
0.7378086492801463
 40
0.8661799015391671
 40
0.9999999999999999
 40
0.9999999999999999
 40
0.9999999999999999
 40
0.9999999999999999
 10
216.6131538769418
 20
104.1394770153928
 30
0.0
 10
216.597013920353
 20
104.1195766644677
 30
0.0
 10
216.5652648928986
 20
104.0804305376243
 30
0.0
 10
216.5102917984301
 20
104.0296212079771
 30
0.0
 10
216.4511949424704
 20
103.9864402703793
 30
0.0
 10
216.3876226324518
 20
103.9513588879594
 30
0.0
 10
216.3200016498656
 20
103.923168026519
 30
0.0
 10
216.2475012894772
 20
103.904408066786
 30
0.0
 10
216.1709975934163
 20
103.8918100107339
 30
0.0
 10
216.1184763217557
 20
103.8906472308499
 30
0.0
 10
216.0916699388387
 20
103.8900537584942
 30
0.0
  0
SPLINE
  5
128
330
1F
100
AcDbEntity
  8
0
  6
Continuous
 62
     7
370
     0
100
AcDbSpline
210
0.0
220
0.0
230
1.0
 70
     8
 71
     3
 72
    27
 73
    23
 74
     0
 42
0.00000001
 43
0.00000001
 40
0.0
 40
0.0
 40
0.0
 40
0.0
 40
0.0467628351215619
 40
0.091968696607212
 40
0.1358043853805056
 40
0.1782315801839235
 40
0.2194414332265379
 40
0.2601769432685921
 40
0.3002796061140319
 40
0.3405476414666171
 40
0.3803111902076692
 40
0.4196419535698123
 40
0.4590173240985177
 40
0.4981819588897615
 40
0.5376702145628715
 40
0.5779133315743612
 40
0.6186488416164155
 40
0.6607616027603175
 40
0.7452991770631804
 40
0.8297447416906314
 40
0.9146020866092538
 40
1.0
 40
1.0
 40
1.0
 40
1.0
 10
211.9868875278666
 20
105.7603165957004
 30
0.0
 10
211.968761950171
 20
105.760053611571
 30
0.0
 10
211.933114287843
 20
105.7595363993972
 30
0.0
 10
211.8807435835268
 20
105.7538755695321
 30
0.0
 10
211.8304494920521
 20
105.7455377195285
 30
0.0
 10
211.7826068535626
 20
105.7330343966856
 30
0.0
 10
211.7369538697239
 20
105.7174460045185
 30
0.0
 10
211.6937614533579
 20
105.6980356981012
 30
0.0
 10
211.6526621905165
 20
105.6752845421551
 30
0.0
 10
211.6141147699117
 20
105.6490559132211
 30
0.0
 10
211.5784431477584
 20
105.6195698865516
 30
0.0
 10
211.544679299479
 20
105.5883985428784
 30
0.0
 10
211.5144442643865
 20
105.5540881219198
 30
0.0
 10
211.4865850900495
 20
105.5177699741504
 30
0.0
 10
211.4619130346626
 20
105.4788023315984
 30
0.0
 10
211.4397040518336
 20
105.4377159807288
 30
0.0
 10
211.4200997068943
 20
105.3941741866494
 30
0.0
 10
211.3987296396905
 20
105.3328924094312
 30
0.0
 10
211.3769399919385
 20
105.2539628976444
 30
0.0
 10
211.3580374456429
 20
105.1573787577006
 30
0.0
 10
211.3459969693078
 20
105.0592729412323
 30
0.0
 10
211.3446568597909
 20
104.9932851810723
 30
0.0
 10
211.343984677577
 20
104.9601865438675
 30
0.0
  0
SPLINE
  5
129
330
1F
100
AcDbEntity
  8
0
  6
Continuous
 62
     7
370
     0
100
AcDbSpline
210
0.0
220
0.0
230
1.0
 70
     8
 71
     3
 72
    23
 73
    19
 74
     0
 42
0.00000001
 43
0.00000001
 40
0.0
 40
0.0
 40
0.0
 40
0.0
 40
0.0772311103286299
 40
0.1511651795217243
 40
0.2207847057253998
 40
0.2871495176777696
 40
0.3506324812950841
 40
0.4113067715078916
 40
0.4699644151376497
 40
0.5267072266832779
 40
0.5824983333641278
 40
0.6385087274080254
 40
0.6949179812139082
 40
0.7524203526591543
 40
0.8112509754155086
 40
0.8718561089908092
 40
0.9346441878526853
 40
1.0
 40
1.0
 40
1.0
 40
1.0
 10
212.5030208020428
 20
105.3380257350108
 30
0.0
 10
212.4973303869669
 20
105.3557973885829
 30
0.0
 10
212.4861924839529
 20
105.3905820134729
 30
0.0
 10
212.4664160476454
 20
105.4401562858195
 30
0.0
 10
212.4450581558135
 20
105.48617740736
 30
0.0
 10
212.421610045921
 20
105.5283325472028
 30
0.0
 10
212.3960209010072
 20
105.5666318027517
 30
0.0
 10
212.3688799711006
 20
105.6015406445254
 30
0.0
 10
212.3395369867183
 20
105.6324074936482
 30
0.0
 10
212.3085888086837
 20
105.6599440629068
 30
0.0
 10
212.2752362641802
 20
105.6834025847668
 30
0.0
 10
212.2402612816886
 20
105.7041906956428
 30
0.0
 10
212.2029264141214
 20
105.7213896873797
 30
0.0
 10
212.1637687510483
 20
105.7359364813982
 30
0.0
 10
212.1224222899487
 20
105.7470081591008
 30
0.0
 10
212.0790553991233
 20
105.7547975211171
 30
0.0
 10
212.0336299753974
 20
105.7593056222309
 30
0.0
 10
212.0026751005104
 20
105.7599751326848
 30
0.0
 10
211.9868875278666
 20
105.7603165957004
 30
0.0
  0
LINE
  5
12A
330
1F
100
AcDbEntity
  8
0
  6
Continuous
 62
     7
370
     0
100
AcDbLine
 10
212.7927798332
 20
105.4001757545
 30
0.0
 11
212.503020802
 21
105.338025735
 31
0.0
  0
SPLINE
  5
12B
330
1F
100
AcDbEntity
  8
0
  6
Continuous
 62
     7
370
     0
100
AcDbSpline
210
0.0
220
0.0
230
1.0
 70
     8
 71
     3
 72
    23
 73
    19
 74
     0
 42
0.00000001
 43
0.00000001
 40
0.0
 40
0.0
 40
0.0
 40
0.0
 40
0.0686494919759957
 40
0.134937373785155
 40
0.1988418982006104
 40
0.2614093284183097
 40
0.3225167637069052
 40
0.3823768656987784
 40
0.4424709047536874
 40
0.5022278334792912
 40
0.5621014330908561
 40
0.62173160809488
 40
0.6818513124344153
 40
0.7420491672939588
 40
0.8039081304743815
 40
0.8671621602461707
 40
0.9323605979385298
 40
1.0
 40
1.0
 40
1.0
 40
1.0
 10
212.000881571983
 20
105.9973921666139
 30
0.0
 10
212.0254574655925
 20
105.9969289231786
 30
0.0
 10
212.0737638178556
 20
105.9960183723385
 30
0.0
 10
212.1446447832773
 20
105.9885289120651
 30
0.0
 10
212.2125302415351
 20
105.9759848865193
 30
0.0
 10
212.2777143525353
 20
105.9595283112728
 30
0.0
 10
212.3395194092605
 20
105.9369958340995
 30
0.0
 10
212.3986164122963
 20
105.9102073084412
 30
0.0
 10
212.4544174634909
 20
105.8780241398426
 30
0.0
 10
212.5073567426336
 20
105.8413307799807
 30
0.0
 10
212.5565724795424
 20
105.8000595577224
 30
0.0
 10
212.6027533961581
 20
105.7551964312762
 30
0.0
 10
212.6440164773
 20
105.7056201497478
 30
0.0
 10
212.6819959918271
 20
105.6525305474889
 30
0.0
 10
212.7154969775632
 20
105.5951914528892
 30
0.0
 10
212.7457519018884
 20
105.5341028012853
 30
0.0
 10
212.7717702562483
 20
105.4688104683986
 30
0.0
 10
212.7856913716114
 20
105.4233325525615
 30
0.0
 10
212.7927798331592
 20
105.400175754469
 30
0.0
  0
SPLINE
  5
12C
330
1F
100
AcDbEntity
  8
0
  6
Continuous
 62
     7
370
     0
100
AcDbSpline
210
0.0
220
0.0
230
1.0
 70
     8
 71
     3
 72
    31
 73
    27
 74
     0
 42
0.00000001
 43
0.00000001
 40
0.0
 40
0.0
 40
0.0
 40
0.0
 40
0.0494014326173349
 40
0.0976047534771127
 40
0.1442547055445423
 40
0.1894721438466749
 40
0.2339150059350921
 40
0.2772371111508619
 40
0.3198588355644323
 40
0.3619566544332702
 40
0.4034857542265475
 40
0.4439336363338552
 40
0.4836491750513743
 40
0.5228932833172718
 40
0.5618583840947368
 40
0.6007948668981946
 40
0.6401043361891355
 40
0.6796434268265384
 40
0.7193997691904886
 40
0.7588541926680972
 40
0.7983154646830742
 40
0.8378024081343659
 40
0.8774685864444087
 40
0.9176827969423332
 40
0.9583928898538524
 40
0.9999999999999999
 40
0.9999999999999999
 40
0.9999999999999999
 40
0.9999999999999999
 10
211.0542256464605
 20
104.958951775269
 30
0.0
 10
211.0546905048348
 20
104.9850263110429
 30
0.0
 10
211.0556089475724
 20
105.0365430080577
 30
0.0
 10
211.0607935419305
 20
105.1125573898898
 30
0.0
 10
211.0703157625022
 20
105.1859205675447
 30
0.0
 10
211.0835393571811
 20
105.2566807977483
 30
0.0
 10
211.1002724946316
 20
105.3248953861207
 30
0.0
 10
211.1209276771082
 20
105.3905975665158
 30
0.0
 10
211.1452436174235
 20
105.4537032736969
 30
0.0
 10
211.1731461845165
 20
105.5142820943517
 30
0.0
 10
211.2048207580867
 20
105.5716578090935
 30
0.0
 10
211.2393219817098
 20
105.6259119821484
 30
0.0
 10
211.277472842058
 20
105.6761537841289
 30
0.0
 10
211.3181422228703
 20
105.7233430984982
 30
0.0
 10
211.3623458691878
 20
105.7666941702079
 30
0.0
 10
211.4099488025037
 20
105.806305199587
 30
0.0
 10
211.4605403249741
 20
105.8425374894241
 30
0.0
 10
211.514113052145
 20
105.8750546737448
 30
0.0
 10
211.5699667260882
 20
105.9035868016519
 30
0.0
 10
211.6272717399887
 20
105.9290006165984
 30
0.0
 10
211.6862560202495
 20
105.9498306925173
 30
0.0
 10
211.7464519228358
 20
105.9671500632898
 30
0.0
 10
211.8079890440638
 20
105.9809378913178
 30
0.0
 10
211.8710111720945
 20
105.9901578549215
 30
0.0
 10
211.93546007346
 20
105.9961662975549
 30
0.0
 10
211.9789165562036
 20
105.9969805858059
 30
0.0
 10
212.000881571983
 20
105.9973921666139
 30
0.0
  0
SPLINE
  5
12D
330
1F
100
AcDbEntity
  8
0
  6
Continuous
 62
     7
370
     0
100
AcDbSpline
210
0.0
220
0.0
230
1.0
 70
     8
 71
     3
 72
    31
 73
    27
 74
     0
 42
0.00000001
 43
0.00000001
 40
0.0
 40
0.0
 40
0.0
 40
0.0
 40
0.0491959188678573
 40
0.0962478839423339
 40
0.1413486305545651
 40
0.18465611934875
 40
0.226058682310063
 40
0.2661730836384061
 40
0.3052898413966903
 40
0.3432450951047079
 40
0.3808772760868657
 40
0.4184957931350257
 40
0.4563187508918002
 40
0.494236737091876
 40
0.533023528957667
 40
0.572473194333944
 40
0.613078809089891
 40
0.6549344546107934
 40
0.6973967795046183
 40
0.7398840686663996
 40
0.7821947798191174
 40
0.8250615348667028
 40
0.8679874655774052
 40
0.9114105439600777
 40
0.9553719455228146
 40
1.0
 40
1.0
 40
1.0
 40
1.0
 10
212.0066438254427
 20
103.8900537584942
 30
0.0
 10
211.9800164356053
 20
103.8904406066576
 30
0.0
 10
211.9279220752246
 20
103.8911974441757
 30
0.0
 10
211.851606840646
 20
103.8973533594649
 30
0.0
 10
211.7790235587728
 20
103.9080298365343
 30
0.0
 10
211.7103077772314
 20
103.9228632734367
 30
0.0
 10
211.6452282068783
 20
103.9412038960259
 30
0.0
 10
211.5840547149531
 20
103.9642780244307
 30
0.0
 10
211.5268944489331
 20
103.9919191702871
 30
0.0
 10
211.4732706162465
 20
104.0233542967409
 30
0.0
 10
211.4234109755967
 20
104.0590660159478
 30
0.0
 10
211.3761817013419
 20
104.0980905656666
 30
0.0
 10
211.332729363226
 20
104.1415022486378
 30
0.0
 10
211.2919674884475
 20
104.1882760747676
 30
0.0
 10
211.2547838854658
 20
104.2390290558052
 30
0.0
 10
211.219810561398
 20
104.293071691186
 30
0.0
 10
211.1887545440424
 20
104.3513562098707
 30
0.0
 10
211.1604649213905
 20
104.4128020153963
 30
0.0
 10
211.1356345149248
 20
104.4768142019729
 30
0.0
 10
211.1136682904057
 20
104.5421283520985
 30
0.0
 10
211.0957097009969
 20
104.6088746112642
 30
0.0
 10
211.0802485143936
 20
104.6764913213046
 30
0.0
 10
211.0690167114903
 20
104.7455474303514
 30
0.0
 10
211.0600990077309
 20
104.8155248062562
 30
0.0
 10
211.0551958749139
 20
104.8868524708715
 30
0.0
 10
211.0545506743649
 20
104.9347984063017
 30
0.0
 10
211.0542256464605
 20
104.958951775269
 30
0.0
  0
SPLINE
  5
12E
330
1F
100
AcDbEntity
  8
0
  6
Continuous
 62
     7
370
     0
100
AcDbSpline
210
0.0
220
0.0
230
1.0
 70
     8
 71
     3
 72
    23
 73
    19
 74
     0
 42
0.00000001
 43
0.00000001
 40
0.0
 40
0.0
 40
0.0
 40
0.0
 40
0.0715783870982365
 40
0.140016209075356
 40
0.206197439946981
 40
0.2701561038056543
 40
0.3320010402688309
 40
0.3927550109285565
 40
0.4525790344906381
 40
0.512252798847904
 40
0.5715322524285594
 40
0.630151752872219
 40
0.6887691695485556
 40
0.7481639008503594
 40
0.8087033721996509
 40
0.8702562984804197
 40
0.9339000275070017
 40
1.0
 40
1.0
 40
1.0
 40
1.0
 10
212.8454632933622
 20
104.5741155620674
 30
0.0
 10
212.8382040207858
 20
104.5469572530171
 30
0.0
 10
212.8240039826457
 20
104.4938322297764
 30
0.0
 10
212.7959287823349
 20
104.4178044409236
 30
0.0
 10
212.7644178130784
 20
104.3464556040685
 30
0.0
 10
212.7287064760741
 20
104.2799736647122
 30
0.0
 10
212.6884039140256
 20
104.2187408527196
 30
0.0
 10
212.6445779820064
 20
104.161970208334
 30
0.0
 10
212.5954927965491
 20
104.1108522656828
 30
0.0
 10
212.5429493517474
 20
104.0642072493341
 30
0.0
 10
212.4865385395297
 20
104.0230664693794
 30
0.0
 10
212.426940481018
 20
103.9875406511526
 30
0.0
 10
212.3644432604123
 20
103.9573153912634
 30
0.0
 10
212.29879428343
 20
103.9324599934393
 30
0.0
 10
212.2299509892665
 20
103.9137541755348
 30
0.0
 10
212.1582678531635
 20
103.9001202795558
 30
0.0
 10
212.0835358518335
 20
103.891722593702
 30
0.0
 10
212.0325959571875
 20
103.8906170136613
 30
0.0
 10
212.0066438254427
 20
103.8900537584942
 30
0.0
  0
LINE
  5
12F
330
1F
100
AcDbEntity
  8
0
  6
Continuous
 62
     7
370
     0
100
AcDbLine
 10
212.5557042622
 20
104.6416162455
 30
0.0
 11
212.8454632934
 21
104.5741155621
 31
0.0
  0
SPLINE
  5
130
330
1F
100
AcDbEntity
  8
0
  6
Continuous
 62
     7
370
     0
100
AcDbSpline
210
0.0
220
0.0
230
1.0
 70
     8
 71
     3
 72
    23
 73
    19
 74
     0
 42
0.00000001
 43
0.00000001
 40
0.0
 40
0.0
 40
0.0
 40
0.0
 40
0.0633358805656859
 40
0.1251107589802128
 40
0.1846884118917139
 40
0.2432104439678636
 40
0.3008880404131166
 40
0.358370115531299
 40
0.4157614077031932
 40
0.4743866229897766
 40
0.533966264972407
 40
0.5940075641988068
 40
0.6550724073076795
 40
0.7186100426051375
 40
0.7843747830517759
 40
0.8529914722129185
 40
0.9249004292977553
 40
0.9999999999999999
 40
0.9999999999999999
 40
0.9999999999999999
 40
0.9999999999999999
 10
211.9794789162756
 20
104.1271293294077
 30
0.0
 10
211.9973350218095
 20
104.1275038094995
 30
0.0
 10
212.0326071439594
 20
104.1282435400928
 30
0.0
 10
212.0843205537425
 20
104.1347184435843
 30
0.0
 10
212.1341715678631
 20
104.1442600608024
 30
0.0
 10
212.181556248253
 20
104.1589837396663
 30
0.0
 10
212.2271119724308
 20
104.1770111593695
 30
0.0
 10
212.2704654892731
 20
104.1992421206784
 30
0.0
 10
212.311480458685
 20
104.2259794786335
 30
0.0
 10
212.3506393068574
 20
104.2563372371381
 30
0.0
 10
212.3872199100306
 20
104.2908791785986
 30
0.0
 10
212.4207440662748
 20
104.3293270163659
 30
0.0
 10
212.450819022122
 20
104.3718560285024
 30
0.0
 10
212.4787060743926
 20
104.4177836864473
 30
0.0
 10
212.5021363236718
 20
104.4684820189815
 30
0.0
 10
212.5238382668322
 20
104.5224399319828
 30
0.0
 10
212.5419218935838
 20
104.5805442716956
 30
0.0
 10
212.5510441441465
 20
104.6209664850778
 30
0.0
 10
212.5557042622458
 20
104.6416162454525
 30
0.0
  0
SPLINE
  5
131
330
1F
100
AcDbEntity
  8
0
  6
Continuous
 62
     7
370
     0
100
AcDbSpline
210
0.0
220
0.0
230
1.0
 70
     8
 71
     3
 72
    27
 73
    23
 74
     0
 42
0.00000001
 43
0.00000001
 40
0.0
 40
0.0
 40
0.0
 40
0.0
 40
0.1053432609984026
 40
0.2043754661654296
 40
0.2980686612490644
 40
0.3870699389029766
 40
0.4297257277325169
 40
0.4709012389537418
 40
0.5111216710274202
 40
0.5501787824700682
 40
0.5883543698960263
 40
0.6266830105708967
 40
0.6644516852874769
 40
0.7025148539501567
 40
0.7404811716294024
 40
0.777618121594641
 40
0.8147160450669567
 40
0.8515265100150813
 40
0.8880984508373161
 40
0.9251116757437154
 40
0.9621036957071507
 40
1.0
 40
1.0
 40
1.0
 40
1.0
 10
211.343984677577
 20
104.9601865438675
 30
0.0
 10
211.3447428037134
 20
104.918570546639
 30
0.0
 10
211.3462136370737
 20
104.8378317432936
 30
0.0
 10
211.3607271471745
 20
104.720827880828
 30
0.0
 10
211.3828549835549
 20
104.611694771135
 30
0.0
 10
211.40956009408
 20
104.526549200893
 30
0.0
 10
211.4363480031094
 20
104.4637442251431
 30
0.0
 10
211.4580127179673
 20
104.4197609948682
 30
0.0
 10
211.4827421256843
 20
104.379061047322
 30
0.0
 10
211.509921115758
 20
104.3414132425485
 30
0.0
 10
211.5398997821075
 20
104.3069273980842
 30
0.0
 10
211.5722604612179
 20
104.2754203226998
 30
0.0
 10
211.6070103815825
 20
104.2465888441529
 30
0.0
 10
211.6445612974927
 20
104.2217826163491
 30
0.0
 10
211.6834678269877
 20
104.1997568491225
 30
0.0
 10
211.7232390010137
 20
104.1801711162857
 30
0.0
 10
211.763899859938
 20
104.1636063702996
 30
0.0
 10
211.8056144531535
 20
104.1507385392005
 30
0.0
 10
211.8477969961828
 20
104.1396189441638
 30
0.0
 10
211.8909120862653
 20
104.1323551028001
 30
0.0
 10
211.9349474286532
 20
104.1282556195891
 30
0.0
 10
211.9645160722492
 20
104.1275077695904
 30
0.0
 10
211.9794789162756
 20
104.1271293294077
 30
0.0
  0
SPLINE
  5
132
330
1F
100
AcDbEntity
  8
0
  6
Continuous
 62
     7
370
     0
100
AcDbSpline
210
0.0
220
0.0
230
1.0
 70
     8
 71
     3
 72
    23
 73
    19
 74
     0
 42
0.00000001
 43
0.00000001
 40
0.0
 40
0.0
 40
0.0
 40
0.0
 40
0.0704642259291749
 40
0.137956965604269
 40
0.2035785636142838
 40
0.2676916802449431
 40
0.3301858648593746
 40
0.3915337640898202
 40
0.4526637734870348
 40
0.5131537880892133
 40
0.5734535531000283
 40
0.6329675593891928
 40
0.6923319074206212
 40
0.75147419157163
 40
0.8121874455294295
 40
0.872961717848316
 40
0.935420306759491
 40
1.0
 40
1.0
 40
1.0
 40
1.0
 10
226.6036666074669
 20
108.1574140349365
 30
0.0
 10
226.6188247921653
 20
108.1526688730739
 30
0.0
 10
226.6485019387953
 20
108.1433786534875
 30
0.0
 10
226.6911659200744
 20
108.1263788546864
 30
0.0
 10
226.7312143686686
 20
108.1070221508261
 30
0.0
 10
226.7687344589945
 20
108.0852767333681
 30
0.0
 10
226.8034726725473
 20
108.0609412290354
 30
0.0
 10
226.835330991017
 20
108.0339777001091
 30
0.0
 10
226.8645303062187
 20
108.0048034001732
 30
0.0
 10
226.8910184507129
 20
107.9734360756022
 30
0.0
 10
226.9142855066787
 20
107.9400775818237
 30
0.0
 10
226.9351531492448
 20
107.9054570037675
 30
0.0
 10
226.9523847407316
 20
107.8691574333814
 30
0.0
 10
226.9665088487725
 20
107.8312731134333
 30
0.0
 10
226.9775277528272
 20
107.7920381359648
 30
0.0
 10
226.9854405253696
 20
107.7513015962371
 30
0.0
 10
226.9899506036983
 20
107.7091583165255
 30
0.0
 10
226.9906280030598
 20
107.6805295282417
 30
0.0
 10
226.9909723578654
 20
107.6659761327305
 30
0.0
  0
SPLINE
  5
133
330
1F
100
AcDbEntity
  8
0
  6
Continuous
 62
     7
370
     0
100
AcDbSpline
210
0.0
220
0.0
230
1.0
 70
     8
 71
     3
 72
    15
 73
    11
 74
     0
 42
0.00000001
 43
0.00000001
 40
0.0
 40
0.0
 40
0.0
 40
0.0
 40
0.1158426906010177
 40
0.2305685484828844
 40
0.3473546045205441
 40
0.4682527467344622
 40
0.5923025714800838
 40
0.7199701656206967
 40
0.8556003811349103
 40
1.0
 40
1.0
 40
1.0
 40
1.0
 10
226.911947167561
 20
108.5994611932023
 30
0.0
 10
226.9109884708625
 20
108.5774278135498
 30
0.0
 10
226.9090803202054
 20
108.5335734767911
 30
0.0
 10
226.8938935758467
 20
108.4689733714223
 30
0.0
 10
226.8699242470138
 20
108.4062470713413
 30
0.0
 10
226.8360309374591
 20
108.3461571394862
 30
0.0
 10
226.7927110394436
 20
108.2898029074935
 30
0.0
 10
226.739006736473
 20
108.2390910820691
 30
0.0
 10
226.6756897544956
 20
108.1939129819766
 30
0.0
 10
226.6281703616265
 20
108.1698317265017
 30
0.0
 10
226.6036666074669
 20
108.1574140349365
 30
0.0
  0
SPLINE
  5
134
330
1F
100
AcDbEntity
  8
0
  6
Continuous
 62
     7
370
     0
100
AcDbSpline
210
0.0
220
0.0
230
1.0
 70
     8
 71
     3
 72
    23
 73
    19
 74
     0
 42
0.00000001
 43
0.00000001
 40
0.0
 40
0.0
 40
0.0
 40
0.0
 40
0.0587320371008649
 40
0.1146029008469815
 40
0.1676568100446119
 40
0.2179667070908431
 40
0.2657752056293755
 40
0.3111706510536958
 40
0.3537918046646693
 40
0.3947449080003065
 40
0.472805951082463
 40
0.549192366561607
 40
0.6247801075795548
 40
0.7026247640242256
 40
0.7797414321940388
 40
0.8540634639886252
 40
0.92715526641035
 40
0.9999999999999999
 40
0.9999999999999999
 40
0.9999999999999999
 40
0.9999999999999999
 10
226.2324128488489
 20
109.1320580486919
 30
0.0
 10
226.2514892453182
 20
109.131984867034
 30
0.0
 10
226.2887127179068
 20
109.1318420688153
 30
0.0
 10
226.343066685024
 20
109.1282708332231
 30
0.0
 10
226.394543950651
 20
109.1233861235543
 30
0.0
 10
226.4432553333931
 20
109.1170895829932
 30
0.0
 10
226.4889900596187
 20
109.1079534304999
 30
0.0
 10
226.5317055097643
 20
109.0968855924796
 30
0.0
 10
226.5716239740859
 20
109.0841191988978
 30
0.0
 10
226.6204182137068
 20
109.064671846365
 30
0.0
 10
226.6766482253251
 20
109.0347382370484
 30
0.0
 10
226.736875909592
 20
108.9900725685315
 30
0.0
 10
226.7892763349017
 20
108.9364451226901
 30
0.0
 10
226.8323941788954
 20
108.874958219354
 30
0.0
 10
226.8679186320249
 20
108.8092786103744
 30
0.0
 10
226.893105053413
 20
108.7406575546649
 30
0.0
 10
226.9092080967662
 20
108.6705890998226
 30
0.0
 10
226.9110351750367
 20
108.6231437205868
 30
0.0
 10
226.911947167561
 20
108.5994611932023
 30
0.0
  0
LINE
  5
135
330
1F
100
AcDbEntity
  8
0
  6
Continuous
 62
     7
370
     0
100
AcDbLine
 10
225.463152012
 20
109.1320580487
 30
0.0
 11
226.2324128488
 21
109.1320580487
 31
0.0
  0
LINE
  5
136
330
1F
100
AcDbEntity
  8
0
  6
Continuous
 62
     7
370
     0
100
AcDbLine
 10
225.463152012
 20
107.0774031008
 30
0.0
 11
225.463152012
 21
109.1320580487
 31
0.0
  0
LINE
  5
137
330
1F
100
AcDbEntity
  8
0
  6
Continuous
 62
     7
370
     0
100
AcDbLine
 10
226.2344707965
 20
107.0774031008
 30
0.0
 11
225.463152012
 21
107.0774031008
 31
0.0
  0
SPLINE
  5
138
330
1F
100
AcDbEntity
  8
0
  6
Continuous
 62
     7
370
     0
100
AcDbSpline
210
0.0
220
0.0
230
1.0
 70
     8
 71
     3
 72
    23
 73
    19
 74
     0
 42
0.00000001
 43
0.00000001
 40
0.0
 40
0.0
 40
0.0
 40
0.0
 40
0.0642545754247028
 40
0.1273603868320974
 40
0.1894718420926419
 40
0.2517207629332009
 40
0.3120272840890018
 40
0.3686746571150508
 40
0.4226814918055488
 40
0.4740604252251504
 40
0.525773772273917
 40
0.5796221048577136
 40
0.6373752855308656
 40
0.698400381820801
 40
0.7643573310122576
 40
0.8363147679791493
 40
0.9146777942540475
 40
1.0
 40
1.0
 40
1.0
 40
1.0
 10
226.9909723578654
 20
107.6659761327305
 30
0.0
 10
226.9902625901053
 20
107.6426108598566
 30
0.0
 10
226.9888557440418
 20
107.5962980459909
 30
0.0
 10
226.9775572017763
 20
107.5281333723433
 30
0.0
 10
226.9584632644104
 20
107.4625647012774
 30
0.0
 10
226.9321820834854
 20
107.4006521989655
 30
0.0
 10
226.9008669985105
 20
107.3434049754502
 30
0.0
 10
226.8652763072768
 20
107.2923219496829
 30
0.0
 10
226.8263176460553
 20
107.2479287624772
 30
0.0
 10
226.7828939789912
 20
107.210586157125
 30
0.0
 10
226.7352854073669
 20
107.1788932130809
 30
0.0
 10
226.6821472636787
 20
107.1522056815507
 30
0.0
 10
226.6238904024431
 20
107.1286698362814
 30
0.0
 10
226.5593307854477
 20
107.1098685342617
 30
0.0
 10
226.4884978000807
 20
107.094932804444
 30
0.0
 10
226.4104301778057
 20
107.0852290364614
 30
0.0
 10
226.3250079794776
 20
107.078282439442
 30
0.0
 10
226.2654932921535
 20
107.0777044054885
 30
0.0
 10
226.2344707965131
 20
107.0774031007752
 30
0.0
  0
LINE
  5
139
330
1F
100
AcDbEntity
  8
0
  6
Continuous
 62
     7
370
     0
100
AcDbLine
 10
222.2758026697
 20
107.3144786717
 30
0.0
 11
223.2504466835
 21
107.3144786717
 31
0.0
  0
LINE
  5
13A
330
1F
100
AcDbEntity
  8
0
  6
Continuous
 62
     7
370
     0
100
AcDbLine
 10
222.2758026697
 20
109.1320580487
 30
0.0
 11
222.2758026697
 21
107.3144786717
 31
0.0
  0
LINE
  5
13B
330
1F
100
AcDbEntity
  8
0
  6
Continuous
 62
     7
370
     0
100
AcDbLine
 10
221.9860436386
 20
109.1320580487
 30
0.0
 11
222.2758026697
 21
109.1320580487
 31
0.0
  0
LINE
  5
13C
330
1F
100
AcDbEntity
  8
0
  6
Continuous
 62
     7
370
     0
100
AcDbLine
 10
221.9860436386
 20
107.0774031008
 30
0.0
 11
221.9860436386
 21
109.1320580487
 31
0.0
  0
LINE
  5
13D
330
1F
100
AcDbEntity
  8
0
  6
Continuous
 62
     7
370
     0
100
AcDbLine
 10
223.2504466835
 20
107.0774031008
 30
0.0
 11
221.9860436386
 21
107.0774031008
 31
0.0
  0
LINE
  5
13E
330
1F
100
AcDbEntity
  8
0
  6
Continuous
 62
     7
370
     0
100
AcDbLine
 10
223.2504466835
 20
107.3144786717
 30
0.0
 11
223.2504466835
 21
107.0774031008
 31
0.0
  0
SPLINE
  5
13F
330
1F
100
AcDbEntity
  8
0
  6
Continuous
 62
     7
370
     0
100
AcDbSpline
210
0.0
220
0.0
230
1.0
 70
     8
 71
     3
 72
    31
 73
    27
 74
     0
 42
0.00000001
 43
0.00000001
 40
0.0
 40
0.0
 40
0.0
 40
0.0
 40
0.0430989705688968
 40
0.0855867603450731
 40
0.1269076657436391
 40
0.1679674856215208
 40
0.208449558601066
 40
0.2490254246415441
 40
0.289280534171679
 40
0.3300098489827308
 40
0.370597724099577
 40
0.4104659863326995
 40
0.4500332158929483
 40
0.4896882096042475
 40
0.5291164230741915
 40
0.5690368070925096
 40
0.6097030542359448
 40
0.6507589174942197
 40
0.6925092624061777
 40
0.7342191213706863
 40
0.7767069111468624
 40
0.8195518402403216
 40
0.8633507288313336
 40
0.9078385251300618
 40
0.9533337036124183
 40
1.0
 40
1.0
 40
1.0
 40
1.0
 10
218.5891952240868
 20
109.1583997787934
 30
0.0
 10
218.6123929490969
 20
109.1579947028432
 30
0.0
 10
218.6584594352517
 20
109.1571902952711
 30
0.0
 10
218.7265646235721
 20
109.1510698279184
 30
0.0
 10
218.7929197480769
 20
109.1401458540039
 30
0.0
 10
218.8574594656016
 20
109.1255065039528
 30
0.0
 10
218.9203594536506
 20
109.1063003133173
 30
0.0
 10
218.9816572749159
 20
109.0836279896956
 30
0.0
 10
219.0408163354655
 20
109.0555337882821
 30
0.0
 10
219.0982302047585
 20
109.0240795341322
 30
0.0
 10
219.1532211545918
 20
108.988896590804
 30
0.0
 10
219.2049015115515
 20
108.9500300647042
 30
0.0
 10
219.2531474848508
 20
108.9077739016495
 30
0.0
 10
219.2986071487747
 20
108.8628226777869
 30
0.0
 10
219.3397635783292
 20
108.8136593520486
 30
0.0
 10
219.3783170502651
 20
108.7617815235657
 30
0.0
 10
219.4131597079268
 20
108.7062693143733
 30
0.0
 10
219.4444151807287
 20
108.6475775530411
 30
0.0
 10
219.4723607495788
 20
108.5866127230865
 30
0.0
 10
219.4962456346051
 20
108.5231221501244
 30
0.0
 10
219.5167551495517
 20
108.4578674480032
 30
0.0
 10
219.5339233438739
 20
108.3904623785965
 30
0.0
 10
219.5462419865096
 20
108.320929985584
 30
0.0
 10
219.5560514548274
 20
108.2495698771771
 30
0.0
 10
219.5612144490196
 20
108.176148824539
 30
0.0
 10
219.5621372205428
 20
108.1265515951127
 30
0.0
 10
219.5626044692436
 20
108.1014378584709
 30
0.0
  0
SPLINE
  5
140
330
1F
100
AcDbEntity
  8
0
  6
Continuous
 62
     7
370
     0
100
AcDbSpline
210
0.0
220
0.0
230
1.0
 70
     8
 71
     3
 72
    23
 73
    19
 74
     0
 42
0.00000001
 43
0.00000001
 40
0.0
 40
0.0
 40
0.0
 40
0.0
 40
0.0752263466908988
 40
0.1465747215268522
 40
0.2145002518264754
 40
0.2795299716530227
 40
0.3424029515883814
 40
0.4034960527288082
 40
0.4637616065030392
 40
0.5238643590795866
 40
0.5832517242549664
 40
0.6413020392831351
 40
0.6988977748564887
 40
0.7562952438113087
 40
0.814627804812969
 40
0.874324768339998
 40
0.9357832838625453
 40
1.0
 40
1.0
 40
1.0
 40
1.0
 10
217.613316441733
 20
108.0775656655664
 30
0.0
 10
217.6140305607269
 20
108.118759726332
 30
0.0
 10
217.6154219853711
 20
108.1990242646339
 30
0.0
 10
217.6284228157054
 20
108.3158997747459
 30
0.0
 10
217.6495328271528
 20
108.4258643415835
 30
0.0
 10
217.6797114564499
 20
108.5289093981276
 30
0.0
 10
217.7179629558108
 20
108.6251964166789
 30
0.0
 10
217.7644649604508
 20
108.7149434244636
 30
0.0
 10
217.820616219925
 20
108.7971345499653
 30
0.0
 10
217.8841376032034
 20
108.8725521993003
 30
0.0
 10
217.9550880707183
 20
108.9392269291338
 30
0.0
 10
218.0306301526228
 20
108.9984436418033
 30
0.0
 10
218.1117071325492
 20
109.0478373810676
 30
0.0
 10
218.1975699214221
 20
109.0886203258999
 30
0.0
 10
218.2885833131872
 20
109.1199322899873
 30
0.0
 10
218.3844917698977
 20
109.1418535140121
 30
0.0
 10
218.4851927180939
 20
109.1559948337684
 30
0.0
 10
218.554024172958
 20
109.1575864864248
 30
0.0
 10
218.5891952240868
 20
109.1583997787934
 30
0.0
  0
SPLINE
  5
141
330
1F
100
AcDbEntity
  8
0
  6
Continuous
 62
     7
370
     0
100
AcDbSpline
210
0.0
220
0.0
230
1.0
 70
     8
 71
     3
 72
    31
 73
    27
 74
     0
 42
0.00000001
 43
0.00000001
 40
0.0
 40
0.0
 40
0.0
 40
0.0
 40
0.0446969998899171
 40
0.0885335629185875
 40
0.1314091332352275
 40
0.1738139421467784
 40
0.2157145332694449
 40
0.2572471603264208
 40
0.2988479641797117
 40
0.3406041827148143
 40
0.3820294481091344
 40
0.4229697500404858
 40
0.4636322295306197
 40
0.5040475437003945
 40
0.5445912057564576
 40
0.5849639251690937
 40
0.6262652162680831
 40
0.6679794005009905
 40
0.7099427472053506
 40
0.7513818550852256
 40
0.7926185649779642
 40
0.8339484357458206
 40
0.8750080506311037
 40
0.9164455302232757
 40
0.957906613728307
 40
1.0
 40
1.0
 40
1.0
 40
1.0
 10
218.5879604554883
 20
107.0510613706737
 30
0.0
 10
218.5643458974907
 20
107.0514107509853
 30
0.0
 10
218.5175713720993
 20
107.052102785884
 30
0.0
 10
218.4484373638257
 20
107.0590104738139
 30
0.0
 10
218.3810233010206
 20
107.0695483923768
 30
0.0
 10
218.3155251683634
 20
107.0847619631384
 30
0.0
 10
218.2520324664536
 20
107.1046091410945
 30
0.0
 10
218.1904700688938
 20
107.1286315373034
 30
0.0
 10
218.1306214542341
 20
107.1565080998894
 30
0.0
 10
218.0732292447378
 20
107.1890370261217
 30
0.0
 10
218.0184887800496
 20
107.2252056954992
 30
0.0
 10
217.9669306245194
 20
107.2648343151581
 30
0.0
 10
217.9185832879171
 20
107.3075576721969
 30
0.0
 10
217.8742225470772
 20
107.3540819327311
 30
0.0
 10
217.8324116972663
 20
107.4027205742668
 30
0.0
 10
217.7948225240987
 20
107.4552814649583
 30
0.0
 10
217.7602274238371
 20
107.5105725788261
 30
0.0
 10
217.7296501221989
 20
107.5691268982611
 30
0.0
 10
217.7020281061209
 20
107.6292044108982
 30
0.0
 10
217.678755960935
 20
107.6908243339141
 30
0.0
 10
217.6583042556105
 20
107.7530785534359
 30
0.0
 10
217.6420165425504
 20
107.8163507784414
 30
0.0
 10
217.6290372172971
 20
107.88049505432
 30
0.0
 10
217.6203095616109
 20
107.9454046472369
 30
0.0
 10
217.6140063823126
 20
108.0111762289867
 30
0.0
 10
217.6135475792647
 20
108.0553244886279
 30
0.0
 10
217.613316441733
 20
108.0775656655664
 30
0.0
  0
SPLINE
  5
142
330
1F
100
AcDbEntity
  8
0
  6
Continuous
 62
     7
370
     0
100
AcDbSpline
210
0.0
220
0.0
230
1.0
 70
     8
 71
     3
 72
    31
 73
    27
 74
     0
 42
0.00000001
 43
0.00000001
 40
0.0
 40
0.0
 40
0.0
 40
0.0
 40
0.0475595569054264
 40
0.0939621052432108
 40
0.1391115332408221
 40
0.1836263101269046
 40
0.2274570284004936
 40
0.2707025105518545
 40
0.3136105321155538
 40
0.3562604510849769
 40
0.3983661529550377
 40
0.4395565149792806
 40
0.4800453830214204
 40
0.5198884957050127
 40
0.5596577503171976
 40
0.5994212546627414
 40
0.6392077550883982
 40
0.6796683749857806
 40
0.7200198525128486
 40
0.7598588655624579
 40
0.7995598848323808
 40
0.8391991446364383
 40
0.8789560762302792
 40
0.918794269302466
 40
0.9590833628432752
 40
1.0
 40
1.0
 40
1.0
 40
1.0
 10
219.5626044692436
 20
108.1014378584709
 30
0.0
 10
219.562176367692
 20
108.0759099957508
 30
0.0
 10
219.5613305792604
 20
108.0254753012412
 30
0.0
 10
219.5556076286448
 20
107.9509678264671
 30
0.0
 10
219.5455446922604
 20
107.8785993067678
 30
0.0
 10
219.5321979204489
 20
107.8081539523063
 30
0.0
 10
219.5143136536922
 20
107.739778415657
 30
0.0
 10
219.4930609509573
 20
107.6732766599668
 30
0.0
 10
219.4673546062962
 20
107.6090447829708
 30
0.0
 10
219.4383221440449
 20
107.546927972548
 30
0.0
 10
219.4054719253183
 20
107.4877805504077
 30
0.0
 10
219.3692359050313
 20
107.4320161032317
 30
0.0
 10
219.329588412292
 20
107.3801562633584
 30
0.0
 10
219.2871316879154
 20
107.331564842925
 30
0.0
 10
219.2408742549321
 20
107.287110747414
 30
0.0
 10
219.1913857103947
 20
107.246378298412
 30
0.0
 10
219.1388563374805
 20
107.2089833426371
 30
0.0
 10
219.0831096642072
 20
107.1759386524339
 30
0.0
 10
219.0251461406629
 20
107.1469738011307
 30
0.0
 10
218.9661127735996
 20
107.121276759664
 30
0.0
 10
218.9059657117141
 20
107.0993613000992
 30
0.0
 10
218.8444993907669
 20
107.0816009983829
 30
0.0
 10
218.7818814848468
 20
107.0681800360632
 30
0.0
 10
218.7182882081853
 20
107.0581302779196
 30
0.0
 10
218.6535110932104
 20
107.0523435926702
 30
0.0
 10
218.6099229485695
 20
107.0514909743008
 30
0.0
 10
218.5879604554883
 20
107.0510613706737
 30
0.0
  0
LINE
  5
143
330
1F
100
AcDbEntity
  8
0
  6
Continuous
 62
     7
370
     0
100
AcDbLine
 10
215.347927653
 20
108.8949824778
 30
0.0
 11
214.6893844005
 21
108.8949824778
 31
0.0
  0
LINE
  5
144
330
1F
100
AcDbEntity
  8
0
  6
Continuous
 62
     7
370
     0
100
AcDbLine
 10
215.347927653
 20
109.1320580487
 30
0.0
 11
215.347927653
 21
108.8949824778
 31
0.0
  0
LINE
  5
145
330
1F
100
AcDbEntity
  8
0
  6
Continuous
 62
     7
370
     0
100
AcDbLine
 10
213.7410821168
 20
109.1320580487
 30
0.0
 11
215.347927653
 21
109.1320580487
 31
0.0
  0
LINE
  5
146
330
1F
100
AcDbEntity
  8
0
  6
Continuous
 62
     7
370
     0
100
AcDbLine
 10
213.7410821168
 20
108.8949824778
 30
0.0
 11
213.7410821168
 21
109.1320580487
 31
0.0
  0
LINE
  5
147
330
1F
100
AcDbEntity
  8
0
  6
Continuous
 62
     7
370
     0
100
AcDbLine
 10
214.3996253694
 20
108.8949824778
 30
0.0
 11
213.7410821168
 21
108.8949824778
 31
0.0
  0
LINE
  5
148
330
1F
100
AcDbEntity
  8
0
  6
Continuous
 62
     7
370
     0
100
AcDbLine
 10
214.3996253694
 20
107.0774031008
 30
0.0
 11
214.3996253694
 21
108.8949824778
 31
0.0
  0
LINE
  5
149
330
1F
100
AcDbEntity
  8
0
  6
Continuous
 62
     7
370
     0
100
AcDbLine
 10
214.6893844005
 20
107.0774031008
 30
0.0
 11
214.3996253694
 21
107.0774031008
 31
0.0
  0
LINE
  5
14A
330
1F
100
AcDbEntity
  8
0
  6
Continuous
 62
     7
370
     0
100
AcDbLine
 10
214.6893844005
 20
108.8949824778
 30
0.0
 11
214.6893844005
 21
107.0774031008
 31
0.0
  0
CIRCLE
  5
14B
330
1F
100
AcDbEntity
  8
0
  6
Continuous
 62
     7
370
     0
100
AcDbCircle
 10
221.3406712511
 20
106.5274031008
 30
0.0
 40
25.19999999999996
  0
LINE
  5
14C
330
1F
100
AcDbEntity
  8
0
  6
Continuous
 62
     7
370
     0
100
AcDbLine
 10
216.9547731892
 20
108.0520471145
 30
0.0
 11
215.9537874453
 21
108.0520471145
 31
0.0
  0
LINE
  5
14D
330
1F
100
AcDbEntity
  8
0
  6
Continuous
 62
     7
370
     0
100
AcDbLine
 10
216.9547731892
 20
107.0774031008
 30
0.0
 11
216.9547731892
 21
108.0520471145
 31
0.0
  0
LINE
  5
14E
330
1F
100
AcDbEntity
  8
0
  6
Continuous
 62
     7
370
     0
100
AcDbLine
 10
217.2445322203
 20
107.0774031008
 30
0.0
 11
216.9547731892
 21
107.0774031008
 31
0.0
  0
LINE
  5
14F
330
1F
100
AcDbEntity
  8
0
  6
Continuous
 62
     7
370
     0
100
AcDbLine
 10
217.2445322203
 20
109.1320580487
 30
0.0
 11
217.2445322203
 21
107.0774031008
 31
0.0
  0
LINE
  5
150
330
1F
100
AcDbEntity
  8
0
  6
Continuous
 62
     7
370
     0
100
AcDbLine
 10
216.9547731892
 20
109.1320580487
 30
0.0
 11
217.2445322203
 21
109.1320580487
 31
0.0
  0
LINE
  5
151
330
1F
100
AcDbEntity
  8
0
  6
Continuous
 62
     7
370
     0
100
AcDbLine
 10
216.9547731892
 20
108.2891226854
 30
0.0
 11
216.9547731892
 21
109.1320580487
 31
0.0
  0
LINE
  5
152
330
1F
100
AcDbEntity
  8
0
  6
Continuous
 62
     7
370
     0
100
AcDbLine
 10
215.9537874453
 20
108.2891226854
 30
0.0
 11
216.9547731892
 21
108.2891226854
 31
0.0
  0
LINE
  5
153
330
1F
100
AcDbEntity
  8
0
  6
Continuous
 62
     7
370
     0
100
AcDbLine
 10
215.9537874453
 20
109.1320580487
 30
0.0
 11
215.9537874453
 21
108.2891226854
 31
0.0
  0
LINE
  5
154
330
1F
100
AcDbEntity
  8
0
  6
Continuous
 62
     7
370
     0
100
AcDbLine
 10
215.6640284142
 20
109.1320580487
 30
0.0
 11
215.9537874453
 21
109.1320580487
 31
0.0
  0
LINE
  5
155
330
1F
100
AcDbEntity
  8
0
  6
Continuous
 62
     7
370
     0
100
AcDbLine
 10
215.6640284142
 20
107.0774031008
 30
0.0
 11
215.6640284142
 21
109.1320580487
 31
0.0
  0
LINE
  5
156
330
1F
100
AcDbEntity
  8
0
  6
Continuous
 62
     7
370
     0
100
AcDbLine
 10
215.9537874453
 20
107.0774031008
 30
0.0
 11
215.6640284142
 21
107.0774031008
 31
0.0
  0
LINE
  5
157
330
1F
100
AcDbEntity
  8
0
  6
Continuous
 62
     7
370
     0
100
AcDbLine
 10
215.9537874453
 20
108.0520471145
 30
0.0
 11
215.9537874453
 21
107.0774031008
 31
0.0
  0
LINE
  5
158
330
1F
100
AcDbEntity
  8
0
  6
Continuous
 62
     7
370
     0
100
AcDbLine
 10
220.517903775
 20
107.9993636543
 30
0.0
 11
220.2211477218
 21
107.9993636543
 31
0.0
  0
SPLINE
  5
159
330
1F
100
AcDbEntity
  8
0
  6
Continuous
 62
     7
370
     0
100
AcDbSpline
210
0.0
220
0.0
230
1.0
 70
     8
 71
     3
 72
    11
 73
     7
 74
     0
 42
0.00000001
 43
0.00000001
 40
0.0
 40
0.0
 40
0.0
 40
0.0
 40
0.1774946570818496
 40
0.4052256231013751
 40
0.6783881083348569
 40
0.9999999999999999
 40
0.9999999999999999
 40
0.9999999999999999
 40
0.9999999999999999
 10
220.6607253428498
 20
107.9898970950723
 30
0.0
 10
220.6523737621979
 20
107.9914031689015
 30
0.0
 10
220.6333068532038
 20
107.9948415806031
 30
0.0
 10
220.6009312893107
 20
107.9970872127673
 30
0.0
 10
220.5617043217655
 20
107.9994706508735
 30
0.0
 10
220.5332758698885
 20
107.9994012054812
 30
0.0
 10
220.5179037749557
 20
107.9993636543276
 30
0.0
  0
SPLINE
  5
15A
330
1F
100
AcDbEntity
  8
0
  6
Continuous
 62
     7
370
     0
100
AcDbSpline
210
0.0
220
0.0
230
1.0
 70
     8
 71
     3
 72
    21
 73
    17
 74
     0
 42
0.00000001
 43
0.00000001
 40
0.0
 40
0.0
 40
0.0
 40
0.0
 40
0.0807814705861227
 40
0.1565412257955895
 40
0.227934986843486
 40
0.2943103173046012
 40
0.3568678635548113
 40
0.4147585592592751
 40
0.4676413968340161
 40
0.5167484215300129
 40
0.604729741894053
 40
0.6815706529393896
 40
0.7481095416219826
 40
0.8049410995352804
 40
0.9054060495000024
 40
1.0
 40
1.0
 40
1.0
 40
1.0
 10
221.0920711732617
 20
107.5112184683842
 30
0.0
 10
221.0828663867109
 20
107.5264394019981
 30
0.0
 10
221.0650290217882
 20
107.5559350720867
 30
0.0
 10
221.0392635871936
 20
107.5990120783381
 30
0.0
 10
221.0140014256918
 20
107.638671326198
 30
0.0
 10
220.9905712030014
 20
107.676046298553
 30
0.0
 10
220.9680220814244
 20
107.7104584712125
 30
0.0
 10
220.94657193825
 20
107.7420273853598
 30
0.0
 10
220.9268110909437
 20
107.7711671839077
 30
0.0
 10
220.9023347267876
 20
107.8050934927567
 30
0.0
 10
220.8738483041678
 20
107.8426332683183
 30
0.0
 10
220.8406066034954
 20
107.8812921483326
 30
0.0
 10
220.8089506486556
 20
107.9121143584045
 30
0.0
 10
220.7699657560584
 20
107.9423388140676
 30
0.0
 10
220.7216770686295
 20
107.9706087119095
 30
0.0
 10
220.680630772788
 20
107.9835979533375
 30
0.0
 10
220.6607253428498
 20
107.9898970950723
 30
0.0
  0
LINE
  5
15B
330
1F
100
AcDbEntity
  8
0
  6
Continuous
 62
     7
370
     0
100
AcDbLine
 10
221.3480798627
 20
107.0774031008
 30
0.0
 11
221.0920711733
 21
107.5112184684
 31
0.0
  0
LINE
  5
15C
330
1F
100
AcDbEntity
  8
0
  6
Continuous
 62
     7
370
     0
100
AcDbLine
 10
221.6802326157
 20
107.0774031008
 30
0.0
 11
221.3480798627
 21
107.0774031008
 31
0.0
  0
LINE
  5
15D
330
1F
100
AcDbEntity
  8
0
  6
Continuous
 62
     7
370
     0
100
AcDbLine
 10
221.3431407883
 20
107.644573477
 30
0.0
 11
221.6802326157
 21
107.0774031008
 31
0.0
  0
SPLINE
  5
15E
330
1F
100
AcDbEntity
  8
0
  6
Continuous
 62
     7
370
     0
100
AcDbSpline
210
0.0
220
0.0
230
1.0
 70
     8
 71
     3
 72
    11
 73
     7
 74
     0
 42
0.00000001
 43
0.00000001
 40
0.0
 40
0.0
 40
0.0
 40
0.0
 40
0.2295275697008571
 40
0.4714659343032296
 40
0.7281863484998701
 40
1.0
 40
1.0
 40
1.0
 40
1.0
 10
221.1266446940199
 20
107.9244543593514
 30
0.0
 10
221.1460545038919
 20
107.9054270734727
 30
0.0
 10
221.185923632284
 20
107.8663436765381
 30
0.0
 10
221.2408650229721
 20
107.7997732026163
 30
0.0
 10
221.2941325881408
 20
107.7256700500449
 30
0.0
 10
221.3264966503123
 20
107.6721154505473
 30
0.0
 10
221.3431407882916
 20
107.644573477023
 30
0.0
  0
SPLINE
  5
15F
330
1F
100
AcDbEntity
  8
0
  6
Continuous
 62
     7
370
     0
100
AcDbSpline
210
0.0
220
0.0
230
1.0
 70
     8
 71
     3
 72
    11
 73
     7
 74
     0
 42
0.00000001
 43
0.00000001
 40
0.0
 40
0.0
 40
0.0
 40
0.0
 40
0.2930762433192213
 40
0.5565623371181898
 40
0.7919136092098108
 40
1.0
 40
1.0
 40
1.0
 40
1.0
 10
220.9669479552796
 20
108.0257053844291
 30
0.0
 10
220.9834898022865
 20
108.0173488081939
 30
0.0
 10
221.0149033652766
 20
108.0014793690779
 30
0.0
 10
221.0583958324943
 20
107.9765962263715
 30
0.0
 10
221.0952628914189
 20
107.9511717862523
 30
0.0
 10
221.1166218468159
 20
107.9329874793547
 30
0.0
 10
221.1266446940199
 20
107.9244543593514
 30
0.0
  0
SPLINE
  5
160
330
1F
100
AcDbEntity
  8
0
  6
Continuous
 62
     7
370
     0
100
AcDbSpline
210
0.0
220
0.0
230
1.0
 70
     8
 71
     3
 72
    23
 73
    19
 74
     0
 42
0.00000001
 43
0.00000001
 40
0.0
 40
0.0
 40
0.0
 40
0.0
 40
0.0614130692946597
 40
0.1212950233845471
 40
0.1792240423087202
 40
0.2359380947348319
 40
0.2922168332673612
 40
0.3481966394342069
 40
0.4044447389633588
 40
0.4620255339229974
 40
0.5203342118681488
 40
0.5803829016508381
 40
0.641825904813988
 40
0.7063632097966277
 40
0.7738513938275595
 40
0.8452662573568828
 40
0.920154675768406
 40
1.0
 40
1.0
 40
1.0
 40
1.0
 10
221.5118924967543
 20
108.5780585374948
 30
0.0
 10
221.5114904364785
 20
108.5604826888695
 30
0.0
 10
221.5106963398618
 20
108.5257691825346
 30
0.0
 10
221.504613479898
 20
108.4747310364673
 30
0.0
 10
221.4936070359191
 20
108.4259661402481
 30
0.0
 10
221.4794934409219
 20
108.3790474196583
 30
0.0
 10
221.4601762349938
 20
108.3346396379737
 30
0.0
 10
221.4377980903846
 20
108.2918357527205
 30
0.0
 10
221.4100747508179
 20
108.2518117008258
 30
0.0
 10
221.3790354064698
 20
108.2135017059597
 30
0.0
 10
221.3434416021475
 20
108.1777262659319
 30
0.0
 10
221.3029802199144
 20
108.1457760706604
 30
0.0
 10
221.258052344168
 20
108.1170368060577
 30
0.0
 10
221.208446382649
 20
108.0923013996007
 30
0.0
 10
221.1547333498464
 20
108.0696920637706
 30
0.0
 10
221.0962392947462
 20
108.0514859371822
 30
0.0
 10
221.0332002944771
 20
108.0366192387621
 30
0.0
 10
220.9894987292033
 20
108.0294202096667
 30
0.0
 10
220.9669479552796
 20
108.0257053844291
 30
0.0
  0
SPLINE
  5
161
330
1F
100
AcDbEntity
  8
0
  6
Continuous
 62
     7
370
     0
100
AcDbSpline
210
0.0
220
0.0
230
1.0
 70
     8
 71
     3
 72
    27
 73
    23
 74
     0
 42
0.00000001
 43
0.00000001
 40
0.0
 40
0.0
 40
0.0
 40
0.0
 40
0.0621127506505295
 40
0.1202119588785538
 40
0.1743851213884739
 40
0.2254437557784867
 40
0.2723582126361769
 40
0.3163881629634409
 40
0.3568694790582284
 40
0.3939783235063669
 40
0.4295893718770922
 40
0.4646830409549871
 40
0.5000363461428401
 40
0.535482747753064
 40
0.5713634671484438
 40
0.6079085322052602
 40
0.645662298533116
 40
0.6845173397035776
 40
0.7625786223763463
 40
0.8404972886541806
 40
0.9190729926935233
 40
1.0
 40
1.0
 40
1.0
 40
1.0
 10
220.8228916187871
 20
109.1320580486919
 30
0.0
 10
220.8438837829736
 20
109.1318935663986
 30
0.0
 10
220.8845116597226
 20
109.1315752301719
 30
0.0
 10
220.9434304697561
 20
109.1293217712184
 30
0.0
 10
220.9984252723521
 20
109.1244639048622
 30
0.0
 10
221.049597184552
 20
109.1192107994412
 30
0.0
 10
221.0969371145742
 20
109.1111479842304
 30
0.0
 10
221.1403962231021
 20
109.1019001173272
 30
0.0
 10
221.1800416088016
 20
109.090895015896
 30
0.0
 10
221.216050510527
 20
109.0778971427218
 30
0.0
 10
221.2494589195497
 20
109.063191996434
 30
0.0
 10
221.280425991203
 20
109.0450482200738
 30
0.0
 10
221.3102389867431
 20
109.0251665098608
 30
0.0
 10
221.3377914418985
 20
109.0018084674283
 30
0.0
 10
221.3638100553691
 20
108.9762335729687
 30
0.0
 10
221.3882707122863
 20
108.9480943179253
 30
0.0
 10
221.410811292089
 20
108.9171465108329
 30
0.0
 10
221.4386123978732
 20
108.8728537808607
 30
0.0
 10
221.4684373162042
 20
108.8138651919045
 30
0.0
 10
221.4932861578507
 20
108.7383725795365
 30
0.0
 10
221.509308246423
 20
108.6594045514834
 30
0.0
 10
221.5110226556772
 20
108.6054390522885
 30
0.0
 10
221.5118924967543
 20
108.5780585374948
 30
0.0
  0
LINE
  5
162
330
1F
100
AcDbEntity
  8
0
  6
Continuous
 62
     7
370
     0
100
AcDbLine
 10
219.9313886907
 20
109.1320580487
 30
0.0
 11
220.8228916188
 21
109.1320580487
 31
0.0
  0
LINE
  5
163
330
1F
100
AcDbEntity
  8
0
  6
Continuous
 62
     7
370
     0
100
AcDbLine
 10
219.9313886907
 20
107.0774031008
 30
0.0
 11
219.9313886907
 21
109.1320580487
 31
0.0
  0
LINE
  5
164
330
1F
100
AcDbEntity
  8
0
  6
Continuous
 62
     7
370
     0
100
AcDbLine
 10
220.2211477218
 20
107.0774031008
 30
0.0
 11
219.9313886907
 21
107.0774031008
 31
0.0
  0
LINE
  5
165
330
1F
100
AcDbEntity
  8
0
  6
Continuous
 62
     7
370
     0
100
AcDbLine
 10
220.2211477218
 20
107.9993636543
 30
0.0
 11
220.2211477218
 21
107.0774031008
 31
0.0
  0
LINE
  5
166
330
1F
100
AcDbEntity
  8
0
  6
Continuous
 62
     7
370
     0
100
AcDbLine
 10
224.7025345553
 20
107.7096046232
 30
0.0
 11
223.8266720294
 21
107.7096046232
 31
0.0
  0
LINE
  5
167
330
1F
100
AcDbEntity
  8
0
  6
Continuous
 62
     7
370
     0
100
AcDbLine
 10
224.9363174099
 20
107.0774031008
 30
0.0
 11
224.7025345553
 21
107.7096046232
 31
0.0
  0
LINE
  5
168
330
1F
100
AcDbEntity
  8
0
  6
Continuous
 62
     7
370
     0
100
AcDbLine
 10
225.243774791
 20
107.0774031008
 30
0.0
 11
224.9363174099
 21
107.0774031008
 31
0.0
  0
LINE
  5
169
330
1F
100
AcDbEntity
  8
0
  6
Continuous
 62
     7
370
     0
100
AcDbLine
 10
224.4280043369
 20
109.1320580487
 30
0.0
 11
225.243774791
 21
107.0774031008
 31
0.0
  0
LINE
  5
16A
330
1F
100
AcDbEntity
  8
0
  6
Continuous
 62
     7
370
     0
100
AcDbLine
 10
224.1012022478
 20
109.1320580487
 30
0.0
 11
224.4280043369
 21
109.1320580487
 31
0.0
  0
LINE
  5
16B
330
1F
100
AcDbEntity
  8
0
  6
Continuous
 62
     7
370
     0
100
AcDbLine
 10
223.2854317937
 20
107.0774031008
 30
0.0
 11
224.1012022478
 21
109.1320580487
 31
0.0
  0
LINE
  5
16C
330
1F
100
AcDbEntity
  8
0
  6
Continuous
 62
     7
370
     0
100
AcDbLine
 10
223.5928891748
 20
107.0774031008
 30
0.0
 11
223.2854317937
 21
107.0774031008
 31
0.0
  0
LINE
  5
16D
330
1F
100
AcDbEntity
  8
0
  6
Continuous
 62
     7
370
     0
100
AcDbLine
 10
223.8266720294
 20
107.7096046232
 30
0.0
 11
223.5928891748
 21
107.0774031008
 31
0.0
  0
SPLINE
  5
16E
330
1F
100
AcDbEntity
  8
0
  6
Continuous
 62
     7
370
     0
100
AcDbSpline
210
0.0
220
0.0
230
1.0
 70
     8
 71
     3
 72
    23
 73
    19
 74
     0
 42
0.00000001
 43
0.00000001
 40
0.0
 40
0.0
 40
0.0
 40
0.0
 40
0.0749313059818448
 40
0.1470775964339469
 40
0.2163644561730687
 40
0.2825027309006237
 40
0.3466877108244162
 40
0.4088355551310375
 40
0.4692619872876909
 40
0.5284320432534628
 40
0.5870013379727417
 40
0.644416393832067
 40
0.7021887902662974
 40
0.7597671795443349
 40
0.8184897928274489
 40
0.8776328274167843
 40
0.9380195662701677
 40
1.0
 40
1.0
 40
1.0
 40
1.0
 10
228.5047986596358
 20
108.1574140349365
 30
0.0
 10
228.5195715556363
 20
108.1506027811995
 30
0.0
 10
228.5485682747999
 20
108.1372334315635
 30
0.0
 10
228.5896460103519
 20
108.1144072782601
 30
0.0
 10
228.6279759941624
 20
108.0907035468844
 30
0.0
 10
228.6632485455787
 20
108.0654840529439
 30
0.0
 10
228.6953496113969
 20
108.0386957478631
 30
0.0
 10
228.7246381190329
 20
108.0106455666832
 30
0.0
 10
228.7512909607941
 20
107.9814911559961
 30
0.0
 10
228.7742326970536
 20
107.9502994049122
 30
0.0
 10
228.7948320224539
 20
107.91833122452
 30
0.0
 10
228.812857803867
 20
107.8851398184148
 30
0.0
 10
228.8273718168837
 20
107.8505299942969
 30
0.0
 10
228.8401015115905
 20
107.8149189414649
 30
0.0
 10
228.8492578133957
 20
107.7779105614212
 30
0.0
 10
228.8564382008245
 20
107.7398786635219
 30
0.0
 10
228.8606264007297
 20
107.7006444867914
 30
0.0
 10
228.8610305092712
 20
107.674080463647
 30
0.0
 10
228.8612351950716
 20
107.6606254688036
 30
0.0
  0
SPLINE
  5
16F
330
1F
100
AcDbEntity
  8
0
  6
Continuous
 62
     7
370
     0
100
AcDbSpline
210
0.0
220
0.0
230
1.0
 70
     8
 71
     3
 72
    23
 73
    19
 74
     0
 42
0.00000001
 43
0.00000001
 40
0.0
 40
0.0
 40
0.0
 40
0.0
 40
0.0327432182311376
 40
0.0724096054938575
 40
0.1196114857927603
 40
0.1746729151985131
 40
0.2373450901947013
 40
0.3083524168429163
 40
0.3876300477623597
 40
0.4747836155862522
 40
0.5633323159904144
 40
0.6451362168299873
 40
0.7202025267224655
 40
0.7891341563324459
 40
0.8514970735699655
 40
0.9073306044315619
 40
0.9569686823424193
 40
1.0
 40
1.0
 40
1.0
 40
1.0
 10
227.696848406679
 20
108.4331790219366
 30
0.0
 10
227.7039838836781
 20
108.4270972755886
 30
0.0
 10
227.7197635505049
 20
108.4136478690377
 30
0.0
 10
227.7491240531066
 20
108.3958491541895
 30
0.0
 10
227.7855267219452
 20
108.3778658211862
 30
0.0
 10
227.8292147936954
 20
108.3599889965706
 30
0.0
 10
227.8801131014633
 20
108.3420016575547
 30
0.0
 10
227.9381395452722
 20
108.32348148008
 30
0.0
 10
228.0035151410021
 20
108.3050874812896
 30
0.0
 10
228.0742475693493
 20
108.2873618200406
 30
0.0
 10
228.1457038150775
 20
108.2695649002712
 30
0.0
 10
228.2136112716346
 20
108.2518358097671
 30
0.0
 10
228.2759618114035
 20
108.2350335107449
 30
0.0
 10
228.3326565107272
 20
108.2186456203407
 30
0.0
 10
228.3837540503859
 20
108.202718477584
 30
0.0
 10
228.4290768477068
 20
108.186918388304
 30
0.0
 10
228.4689915812613
 20
108.172386313961
 30
0.0
 10
228.4934440710909
 20
108.1621618131865
 30
0.0
 10
228.5047986596358
 20
108.1574140349365
 30
0.0
  0
SPLINE
  5
170
330
1F
100
AcDbEntity
  8
0
  6
Continuous
 62
     7
370
     0
100
AcDbSpline
210
0.0
220
0.0
230
1.0
 70
     8
 71
     3
 72
    11
 73
     7
 74
     0
 42
0.00000001
 43
0.00000001
 40
0.0
 40
0.0
 40
0.0
 40
0.0
 40
0.2627412305282691
 40
0.5099565029432329
 40
0.7533267184204503
 40
1.0
 40
1.0
 40
1.0
 40
1.0
 10
227.6231738803014
 20
108.6146900059172
 30
0.0
 10
227.623922685842
 20
108.5970126578708
 30
0.0
 10
227.6253760483545
 20
108.562702555216
 30
0.0
 10
227.640217004549
 20
108.5139582418355
 30
0.0
 10
227.6630424990108
 20
108.4695246418766
 30
0.0
 10
227.6855292479152
 20
108.4453485470535
 30
0.0
 10
227.696848406679
 20
108.4331790219366
 30
0.0
  0
SPLINE
  5
171
330
1F
100
AcDbEntity
  8
0
  6
Continuous
 62
     7
370
     0
100
AcDbSpline
210
0.0
220
0.0
230
1.0
 70
     8
 71
     3
 72
    23
 73
    19
 74
     0
 42
0.00000001
 43
0.00000001
 40
0.0
 40
0.0
 40
0.0
 40
0.0
 40
0.0915110363280375
 40
0.177142860314148
 40
0.257108485228235
 40
0.3311983993883849
 40
0.4005922945239581
 40
0.4656249598049642
 40
0.5269734913138602
 40
0.5854431157040231
 40
0.6413985080863308
 40
0.6950441672657243
 40
0.7467815514927477
 40
0.7969589345766993
 40
0.8475448623598797
 40
0.8974385414187385
 40
0.9476489188871287
 40
1.0
 40
1.0
 40
1.0
 40
1.0
 10
228.0582240165089
 20
108.9213242078799
 30
0.0
 10
228.0399643039085
 20
108.9211865747984
 30
0.0
 10
228.0046179910666
 20
108.9209201510018
 30
0.0
 10
227.9535208874558
 20
108.9160635780917
 30
0.0
 10
227.9061604772208
 20
108.9094001877902
 30
0.0
 10
227.8626181068935
 20
108.8995711204801
 30
0.0
 10
227.8230364155939
 20
108.8867048383693
 30
0.0
 10
227.7868279542861
 20
108.8718472349096
 30
0.0
 10
227.7550060551706
 20
108.8530187708434
 30
0.0
 10
227.7268288948757
 20
108.83204631073
 30
0.0
 10
227.7025225253401
 20
108.808841442147
 30
0.0
 10
227.681574035382
 20
108.784389121056
 30
0.0
 10
227.6630467140181
 20
108.7594077742289
 30
0.0
 10
227.6486505766414
 20
108.7325319048754
 30
0.0
 10
227.6369299570311
 20
108.7047793429835
 30
0.0
 10
227.6293688695169
 20
108.6756284312853
 30
0.0
 10
227.6240154429279
 20
108.6456183859141
 30
0.0
 10
227.6234582776356
 20
108.625141930165
 30
0.0
 10
227.6231738803014
 20
108.6146900059172
 30
0.0
  0
SPLINE
  5
172
330
1F
100
AcDbEntity
  8
0
  6
Continuous
 62
     7
370
     0
100
AcDbSpline
210
0.0
220
0.0
230
1.0
 70
     8
 71
     3
 72
    23
 73
    19
 74
     0
 42
0.00000001
 43
0.00000001
 40
0.0
 40
0.0
 40
0.0
 40
0.0
 40
0.0671554674490462
 40
0.1314033464826141
 40
0.1927317719102091
 40
0.2512526591565257
 40
0.3077037298841914
 40
0.3626989162982003
 40
0.417778332785431
 40
0.4723043857981144
 40
0.5278725997916964
 40
0.5852299868117375
 40
0.6450565760102912
 40
0.707952356429442
 40
0.7744342720454286
 40
0.84494043137526
 40
0.9204035944750272
 40
1.0
 40
1.0
 40
1.0
 40
1.0
 10
228.5187927037522
 20
108.552539986459
 30
0.0
 10
228.5169516175678
 20
108.5672525977106
 30
0.0
 10
228.5133491575601
 20
108.596040817455
 30
0.0
 10
228.5044119324877
 20
108.6377160965246
 30
0.0
 10
228.4918837413516
 20
108.6764222203896
 30
0.0
 10
228.4772093900569
 20
108.7125201498584
 30
0.0
 10
228.4594210041004
 20
108.7456344267373
 30
0.0
 10
228.4386848933621
 20
108.7760830205271
 30
0.0
 10
228.4147485360021
 20
108.8035071948391
 30
0.0
 10
228.3882278396774
 20
108.8286316014935
 30
0.0
 10
228.3583157844724
 20
108.8505079463215
 30
0.0
 10
228.3251660678267
 20
108.8694972852371
 30
0.0
 10
228.2887227319617
 20
108.8855389283679
 30
0.0
 10
228.249017883389
 20
108.8986775572896
 30
0.0
 10
228.2060436613241
 20
108.9088647362339
 30
0.0
 10
228.159702320399
 20
108.9163586195411
 30
0.0
 10
228.1100117722631
 20
108.9201965727068
 30
0.0
 10
228.0757906658268
 20
108.9209417087475
 30
0.0
 10
228.0582240165089
 20
108.9213242078799
 30
0.0
  0
LINE
  5
173
330
1F
100
AcDbEntity
  8
0
  6
Continuous
 62
     7
370
     0
100
AcDbLine
 10
228.8085517349
 20
108.5525399865
 30
0.0
 11
228.5187927038
 21
108.5525399865
 31
0.0
  0
SPLINE
  5
174
330
1F
100
AcDbEntity
  8
0
  6
Continuous
 62
     7
370
     0
100
AcDbSpline
210
0.0
220
0.0
230
1.0
 70
     8
 71
     3
 72
    23
 73
    19
 74
     0
 42
0.00000001
 43
0.00000001
 40
0.0
 40
0.0
 40
0.0
 40
0.0
 40
0.1004750608070148
 40
0.1956443031597846
 40
0.286083379069932
 40
0.3729828804699542
 40
0.4150256681909619
 40
0.4560516735090279
 40
0.4959387495188998
 40
0.5355660888033517
 40
0.5740871099085042
 40
0.6125192874870976
 40
0.651080960134445
 40
0.6895131377130386
 40
0.7662374603277348
 40
0.8423504388672227
 40
0.9199744947371038
 40
1.0
 40
1.0
 40
1.0
 40
1.0
 10
228.0466995095894
 20
109.1583997787934
 30
0.0
 10
228.0832332774074
 20
109.1575626632982
 30
0.0
 10
228.1543715627603
 20
109.1559326381316
 30
0.0
 10
228.2577375021167
 20
109.1423711256734
 30
0.0
 10
228.3541496261473
 20
109.1190824401823
 30
0.0
 10
228.4297593217622
 20
109.0930130933261
 30
0.0
 10
228.4856566855246
 20
109.0666214167588
 30
0.0
 10
228.5253677291786
 20
109.0460282595151
 30
0.0
 10
228.5622274303641
 20
109.022218818362
 30
0.0
 10
228.5965676007359
 20
108.9964532782332
 30
0.0
 10
228.628707214004
 20
108.9687434061357
 30
0.0
 10
228.6578202099386
 20
108.9384300757914
 30
0.0
 10
228.6851707560223
 20
108.9065475231766
 30
0.0
 10
228.7173114589672
 20
108.8607741669475
 30
0.0
 10
228.7519659506336
 20
108.8001933889408
 30
0.0
 10
228.7819294757942
 20
108.7217085847807
 30
0.0
 10
228.8025147670849
 20
108.638874318006
 30
0.0
 10
228.8065190799315
 20
108.5816088686449
 30
0.0
 10
228.8085517348686
 20
108.552539986459
 30
0.0
  0
SPLINE
  5
175
330
1F
100
AcDbEntity
  8
0
  6
Continuous
 62
     7
370
     0
100
AcDbSpline
210
0.0
220
0.0
230
1.0
 70
     8
 71
     3
 72
    23
 73
    19
 74
     0
 42
0.00000001
 43
0.00000001
 40
0.0
 40
0.0
 40
0.0
 40
0.0
 40
0.0749954673898322
 40
0.1491654404266561
 40
0.2236642943382247
 40
0.3004120221906725
 40
0.3395704846106348
 40
0.3789205746932795
 40
0.4180957375990935
 40
0.4582296767501551
 40
0.4984267212184583
 40
0.5397075464534805
 40
0.5822159516458436
 40
0.6258238199943749
 40
0.7154812648736979
 40
0.8073840844133601
 40
0.9016341255073719
 40
1.0
 40
1.0
 40
1.0
 40
1.0
 10
227.3334148491849
 20
108.5957568874068
 30
0.0
 10
227.334392753718
 20
108.6212293463326
 30
0.0
 10
227.336337798738
 20
108.6718938822928
 30
0.0
 10
227.3535914140312
 20
108.7462409303675
 30
0.0
 10
227.3811112605096
 20
108.8177825661982
 30
0.0
 10
227.4124372034712
 20
108.8745805202905
 30
0.0
 10
227.4429869204223
 20
108.9175308789928
 30
0.0
 10
227.4683128678195
 20
108.9484629421839
 30
0.0
 10
227.4967208711814
 20
108.977055476135
 30
0.0
 10
227.5273360627569
 20
109.0037076133336
 30
0.0
 10
227.5607057201179
 20
109.0280211400012
 30
0.0
 10
227.5960019387366
 20
109.0509953115268
 30
0.0
 10
227.6345022445799
 20
109.0707421632727
 30
0.0
 10
227.6886008998857
 20
109.0958754484258
 30
0.0
 10
227.7609718654416
 20
109.1209733839627
 30
0.0
 10
227.8520778592081
 20
109.1428430512598
 30
0.0
 10
227.9479639261361
 20
109.1557216436477
 30
0.0
 10
228.0133221219279
 20
109.1574944399901
 30
0.0
 10
228.0466995095894
 20
109.1583997787934
 30
0.0
  0
SPLINE
  5
176
330
1F
100
AcDbEntity
  8
0
  6
Continuous
 62
     7
370
     0
100
AcDbSpline
210
0.0
220
0.0
230
1.0
 70
     8
 71
     3
 72
    15
 73
    11
 74
     0
 42
0.00000001
 43
0.00000001
 40
0.0
 40
0.0
 40
0.0
 40
0.0
 40
0.1448052410584837
 40
0.2795118010254855
 40
0.4063939211311608
 40
0.5275015404829168
 40
0.6453932904726503
 40
0.7618854106740865
 40
0.8789420729184871
 40
1.0
 40
1.0
 40
1.0
 40
1.0
 10
227.6367563348849
 20
108.1516517814768
 30
0.0
 10
227.612573790887
 20
108.1647158883526
 30
0.0
 10
227.5658951874274
 20
108.1899330145764
 30
0.0
 10
227.5030709570335
 20
108.2350213068235
 30
0.0
 10
227.450135165184
 20
108.2850551123213
 30
0.0
 10
227.4073111375812
 20
108.3399618799497
 30
0.0
 10
227.3737516228876
 20
108.3988130044449
 30
0.0
 10
227.351109165063
 20
108.4617085332717
 30
0.0
 10
227.3356009505861
 20
108.5275067950803
 30
0.0
 10
227.3341516675436
 20
108.5727534160309
 30
0.0
 10
227.3334148491849
 20
108.5957568874068
 30
0.0
  0
SPLINE
  5
177
330
1F
100
AcDbEntity
  8
0
  6
Continuous
 62
     7
370
     0
100
AcDbSpline
210
0.0
220
0.0
230
1.0
 70
     8
 71
     3
 72
    23
 73
    19
 74
     0
 42
0.00000001
 43
0.00000001
 40
0.0
 40
0.0
 40
0.0
 40
0.0
 40
0.031200111153937
 40
0.0704867190162008
 40
0.1172148300204117
 40
0.1715755269954914
 40
0.2341219784876085
 40
0.3039626396728061
 40
0.3821556401561972
 40
0.4676462220680265
 40
0.5543353814021599
 40
0.6350744656665042
 40
0.7100366878785244
 40
0.7790924037748317
 40
0.8429656453505103
 40
0.9010012068505269
 40
0.953246256459026
 40
1.0
 40
1.0
 40
1.0
 40
1.0
 10
228.3525105324865
 20
107.9240427698186
 30
0.0
 10
228.3452718842125
 20
107.92701327219
 30
0.0
 10
228.3289184627639
 20
107.9337241766787
 30
0.0
 10
228.3008894657951
 20
107.9426082587553
 30
0.0
 10
228.2676295112507
 20
107.9540962833922
 30
0.0
 10
228.2283395554525
 20
107.9659270790688
 30
0.0
 10
228.1832299348041
 20
107.9784424062694
 30
0.0
 10
228.1323757522886
 20
107.9926078591846
 30
0.0
 10
228.0758054243929
 20
108.0076720429996
 30
0.0
 10
228.0151233833034
 20
108.0237062258045
 30
0.0
 10
227.9538530135211
 20
108.0400105308535
 30
0.0
 10
227.8953163331472
 20
108.056330104572
 30
0.0
 10
227.8414598043682
 20
108.0728965623562
 30
0.0
 10
227.7918422695065
 20
108.0888477740028
 30
0.0
 10
227.7467195295291
 20
108.1048647952053
 30
0.0
 10
227.7059635157484
 20
108.1205091143417
 30
0.0
 10
227.6695234152996
 20
108.1354633289367
 30
0.0
 10
227.6472671891663
 20
108.1464589335472
 30
0.0
 10
227.6367563348849
 20
108.1516517814768
 30
0.0
  0
SPLINE
  5
178
330
1F
100
AcDbEntity
  8
0
  6
Continuous
 62
     7
370
     0
100
AcDbSpline
210
0.0
220
0.0
230
1.0
 70
     8
 71
     3
 72
    15
 73
    11
 74
     0
 42
0.00000001
 43
0.00000001
 40
0.0
 40
0.0
 40
0.0
 40
0.0
 40
0.1177675192120368
 40
0.230176448544057
 40
0.3398429589695384
 40
0.4506252599208614
 40
0.5669428888721625
 40
0.6960213064547937
 40
0.8394383602270619
 40
1.0
 40
1.0
 40
1.0
 40
1.0
 10
228.5714761639552
 20
107.6466314246872
 30
0.0
 10
228.57078246884
 20
107.6614839391157
 30
0.0
 10
228.5694266427256
 20
107.6905131574093
 30
0.0
 10
228.5605910994416
 20
107.7327760729968
 30
0.0
 10
228.5437979009008
 20
107.7714589166463
 30
0.0
 10
228.5220067959197
 20
107.808140541722
 30
0.0
 10
228.4916916482503
 20
107.841677940693
 30
0.0
 10
228.4533918802988
 20
107.8725796623142
 30
0.0
 10
228.4062636520665
 20
107.9005954623878
 30
0.0
 10
228.3710895199364
 20
107.9159385475168
 30
0.0
 10
228.3525105324865
 20
107.9240427698186
 30
0.0
  0
SPLINE
  5
179
330
1F
100
AcDbEntity
  8
0
  6
Continuous
 62
     7
370
     0
100
AcDbSpline
210
0.0
220
0.0
230
1.0
 70
     8
 71
     3
 72
    19
 73
    15
 74
     0
 42
0.00000001
 43
0.00000001
 40
0.0
 40
0.0
 40
0.0
 40
0.0
 40
0.1055838864195047
 40
0.2058681332620123
 40
0.300946717742213
 40
0.3930019285950097
 40
0.4809485116065868
 40
0.5628738662802266
 40
0.6414613436333616
 40
0.7177416181792268
 40
0.7917717603087844
 40
0.8627163930302565
 40
0.9317768462002763
 40
1.0
 40
1.0
 40
1.0
 40
1.0
 10
228.1022640965223
 20
107.2881369415872
 30
0.0
 10
228.125491678424
 20
107.2885668593889
 30
0.0
 10
228.1707809653451
 20
107.289405115853
 30
0.0
 10
228.2362969810943
 20
107.2994746527703
 30
0.0
 10
228.2979477422854
 20
107.3137580203767
 30
0.0
 10
228.3545858639612
 20
107.3353638500911
 30
0.0
 10
228.4060024138535
 20
107.3616001018847
 30
0.0
 10
228.4506519271688
 20
107.3933334636742
 30
0.0
 10
228.4887713065678
 20
107.4291199786681
 30
0.0
 10
228.5186215436871
 20
107.4699022438397
 30
0.0
 10
228.5420712939371
 20
107.5126352378279
 30
0.0
 10
228.5592741098861
 20
107.556560348395
 30
0.0
 10
228.5695214747852
 20
107.6014337710381
 30
0.0
 10
228.570827255572
 20
107.6316269233037
 30
0.0
 10
228.5714761639552
 20
107.6466314246872
 30
0.0
  0
SPLINE
  5
17A
330
1F
100
AcDbEntity
  8
0
  6
Continuous
 62
     7
370
     0
100
AcDbSpline
210
0.0
220
0.0
230
1.0
 70
     8
 71
     3
 72
    19
 73
    15
 74
     0
 42
0.00000001
 43
0.00000001
 40
0.0
 40
0.0
 40
0.0
 40
0.0
 40
0.0937964706969321
 40
0.1801880710186105
 40
0.2603631916661885
 40
0.3348466760639744
 40
0.4070930058327154
 40
0.4814483792884674
 40
0.5592709137563652
 40
0.6422698113109349
 40
0.7285859445716477
 40
0.8159775452756136
 40
0.9060351298875359
 40
1.0
 40
1.0
 40
1.0
 40
1.0
 10
227.5441486899968
 20
107.7886298135156
 30
0.0
 10
227.5473358712357
 20
107.7626134370112
 30
0.0
 10
227.553458618021
 20
107.7126345768003
 30
0.0
 10
227.5705784295801
 20
107.6417970661119
 30
0.0
 10
227.5926127316802
 20
107.5781068741112
 30
0.0
 10
227.6200668646519
 20
107.5207187195109
 30
0.0
 10
227.6561817305228
 20
107.470320682826
 30
0.0
 10
227.6996939316281
 20
107.424862423377
 30
0.0
 10
227.7525371317275
 20
107.3854983233136
 30
0.0
 10
227.8121850586741
 20
107.3504668533225
 30
0.0
 10
227.8786162028001
 20
107.3229616087333
 30
0.0
 10
227.9495373739104
 20
107.3025715181692
 30
0.0
 10
228.0246103398446
 20
107.29049022704
 30
0.0
 10
228.0760156869437
 20
107.2889323957038
 30
0.0
 10
228.1022640965223
 20
107.2881369415872
 30
0.0
  0
LINE
  5
17B
330
1F
100
AcDbEntity
  8
0
  6
Continuous
 62
     7
370
     0
100
AcDbLine
 10
227.2543896589
 20
107.7886298135
 30
0.0
 11
227.54414869
 21
107.7886298135
 31
0.0
  0
SPLINE
  5
17C
330
1F
100
AcDbEntity
  8
0
  6
Continuous
 62
     7
370
     0
100
AcDbSpline
210
0.0
220
0.0
230
1.0
 70
     8
 71
     3
 72
    31
 73
    27
 74
     0
 42
0.00000001
 43
0.00000001
 40
0.0
 40
0.0
 40
0.0
 40
0.0
 40
0.0524925849212958
 40
0.1028254751380329
 40
0.1513973394924577
 40
0.1980330772483325
 40
0.2428758954632244
 40
0.2859991683849086
 40
0.3278486614843784
 40
0.3683945968796912
 40
0.4078519911389193
 40
0.4468375528599374
 40
0.4851660451611074
 40
0.5233414044713737
 40
0.5616022144094732
 40
0.5999198855663566
 40
0.6384964264110082
 40
0.6777905770472508
 40
0.7172899891758322
 40
0.7566052415928194
 40
0.7960678905323556
 40
0.8358862309537681
 40
0.8757136832726162
 40
0.9162634539474125
 40
0.9577596754778293
 40
1.0
 40
1.0
 40
1.0
 40
1.0
 10
228.1150233720402
 20
107.0510613706737
 30
0.0
 10
228.0926526268106
 20
107.0512459842674
 30
0.0
 10
228.0488315326337
 20
107.0516076159248
 30
0.0
 10
227.984441328971
 20
107.0559870893932
 30
0.0
 10
227.9227350199483
 20
107.0623222129964
 30
0.0
 10
227.8637731617078
 20
107.0717584501275
 30
0.0
 10
227.8077406528173
 20
107.084138280856
 30
0.0
 10
227.754436361991
 20
107.0990040649636
 30
0.0
 10
227.7037339429895
 20
107.1161250801857
 30
0.0
 10
227.6558105517085
 20
107.1362590973384
 30
0.0
 10
227.6107912882315
 20
107.1596526258936
 30
0.0
 10
227.5678666606941
 20
107.1848883242435
 30
0.0
 10
227.5277383006662
 20
107.2134941709838
 30
0.0
 10
227.4903217329503
 20
107.2450206688604
 30
0.0
 10
227.4546689013255
 20
107.2785570454471
 30
0.0
 10
227.4222575095632
 20
107.3154728988134
 30
0.0
 10
227.3919856531415
 20
107.3546886763923
 30
0.0
 10
227.3645450352249
 20
107.3965632959115
 30
0.0
 10
227.3400310206819
 20
107.4405488988189
 30
0.0
 10
227.3179859374925
 20
107.4859067942073
 30
0.0
 10
227.2994126464494
 20
107.5329660181848
 30
0.0
 10
227.2844443412019
 20
107.5814887344576
 30
0.0
 10
227.2717654288084
 20
107.6311502284053
 30
0.0
 10
227.2629728960912
 20
107.6823648386425
 30
0.0
 10
227.2565083298788
 20
107.7349717697854
 30
0.0
 10
227.2551000539721
 20
107.7706381522682
 30
0.0
 10
227.2543896588804
 20
107.7886298135156
 30
0.0
  0
SPLINE
  5
17D
330
1F
100
AcDbEntity
  8
0
  6
Continuous
 62
     7
370
     0
100
AcDbSpline
210
0.0
220
0.0
230
1.0
 70
     8
 71
     3
 72
    23
 73
    19
 74
     0
 42
0.00000001
 43
0.00000001
 40
0.0
 40
0.0
 40
0.0
 40
0.0
 40
0.0748159666505558
 40
0.1485345605139197
 40
0.2238723272963846
 40
0.3012971209351247
 40
0.3408936290197579
 40
0.38034006206544
 40
0.4201265887284643
 40
0.4599499070829665
 40
0.5008311555562169
 40
0.5419071755971084
 40
0.5844387941530512
 40
0.6280801713306066
 40
0.7172666799070602
 40
0.8078600064218678
 40
0.9019246558363443
 40
1.0
 40
1.0
 40
1.0
 40
1.0
 10
228.8612351950716
 20
107.6606254688036
 30
0.0
 10
228.8601629095715
 20
107.6337729560064
 30
0.0
 10
228.8580340664564
 20
107.5804617930875
 30
0.0
 10
228.8397039594604
 20
107.5018786733861
 30
0.0
 10
228.8109083308413
 20
107.4257320690249
 30
0.0
 10
228.777138323466
 20
107.3653055438895
 30
0.0
 10
228.7452154594784
 20
107.3191484602706
 30
0.0
 10
228.7183987479085
 20
107.2859728580514
 30
0.0
 10
228.6886605565516
 20
107.2552969583446
 30
0.0
 10
228.6567330094947
 20
107.2261597434199
 30
0.0
 10
228.6223682194444
 20
107.1991557076901
 30
0.0
 10
228.5852764699036
 20
107.1742756557862
 30
0.0
 10
228.545849246735
 20
107.1512605885964
 30
0.0
 10
228.489548163527
 20
107.1232153814821
 30
0.0
 10
228.4147709717044
 20
107.0938774317329
 30
0.0
 10
228.3195198409618
 20
107.0694457807192
 30
0.0
 10
228.2191366862776
 20
107.0535963645905
 30
0.0
 10
228.1502074157414
 20
107.0519180462815
 30
0.0
 10
228.1150233720402
 20
107.0510613706737
 30
0.0
  0
LINE
  5
17E
330
1F
100
AcDbEntity
  8
0
  6
Continuous
 62
     7
370
     0
100
AcDbLine
 10
213.9962676272
 20
103.9163954886
 30
0.0
 11
213.4513230857
 21
105.6549496753
 31
0.0
  0
LINE
  5
17F
330
1F
100
AcDbEntity
  8
0
  6
Continuous
 62
     7
370
     0
100
AcDbLine
 10
214.2991975233
 20
103.9163954886
 30
0.0
 11
213.9962676272
 21
103.9163954886
 31
0.0
  0
LINE
  5
180
330
1F
100
AcDbEntity
  8
0
  6
Continuous
 62
     7
370
     0
100
AcDbLine
 10
214.8474347811
 20
105.6549496753
 30
0.0
 11
214.2991975233
 21
103.9163954886
 31
0.0
  0
LINE
  5
181
330
1F
100
AcDbEntity
  8
0
  6
Continuous
 62
     7
370
     0
100
AcDbLine
 10
214.8474347811
 20
103.9163954886
 30
0.0
 11
214.8474347811
 21
105.6549496753
 31
0.0
  0
LINE
  5
182
330
1F
100
AcDbEntity
  8
0
  6
Continuous
 62
     7
370
     0
100
AcDbLine
 10
215.1371938122
 20
103.9163954886
 30
0.0
 11
214.8474347811
 21
103.9163954886
 31
0.0
  0
LINE
  5
183
330
1F
100
AcDbEntity
  8
0
  6
Continuous
 62
     7
370
     0
100
AcDbLine
 10
215.1371938122
 20
105.9710504365
 30
0.0
 11
215.1371938122
 21
103.9163954886
 31
0.0
  0
LINE
  5
184
330
1F
100
AcDbEntity
  8
0
  6
Continuous
 62
     7
370
     0
100
AcDbLine
 10
214.7050248027
 20
105.9710504365
 30
0.0
 11
215.1371938122
 21
105.9710504365
 31
0.0
  0
LINE
  5
185
330
1F
100
AcDbEntity
  8
0
  6
Continuous
 62
     7
370
     0
100
AcDbLine
 10
214.2502183689
 20
104.553947675
 30
0.0
 11
214.7050248027
 21
105.9710504365
 31
0.0
  0
SPLINE
  5
186
330
1F
100
AcDbEntity
  8
0
  6
Continuous
 62
     7
370
     0
100
AcDbSpline
210
0.0
220
0.0
230
1.0
 70
     8
 71
     3
 72
    15
 73
    11
 74
     0
 42
0.00000001
 43
0.00000001
 40
0.0
 40
0.0
 40
0.0
 40
0.0
 40
0.0892047702332451
 40
0.1898334556643485
 40
0.2992325919749813
 40
0.4192609378429071
 40
0.5492073901909386
 40
0.6890743636843492
 40
0.8395791979483176
 40
1.0
 40
1.0
 40
1.0
 40
1.0
 10
214.1493789333863
 20
104.2275571754196
 30
0.0
 10
214.1522472709528
 20
104.2373019637915
 30
0.0
 10
214.1583512767235
 20
104.258039496622
 30
0.0
 10
214.1682468458314
 20
104.2906457121845
 30
0.0
 10
214.1787760131031
 20
104.3267281587363
 30
0.0
 10
214.1913761989071
 20
104.3656666378643
 30
0.0
 10
214.204510401379
 20
104.4080719720831
 30
0.0
 10
214.2182964562311
 20
104.4539089451324
 30
0.0
 10
214.2341984020417
 20
104.5027199298079
 30
0.0
 10
214.2447660397565
 20
104.5365125247263
 30
0.0
 10
214.2502183689311
 20
104.5539476749585
 30
0.0
  0
SPLINE
  5
187
330
1F
100
AcDbEntity
  8
0
  6
Continuous
 62
     7
370
     0
100
AcDbSpline
210
0.0
220
0.0
230
1.0
 70
     8
 71
     3
 72
    15
 73
    11
 74
     0
 42
0.00000001
 43
0.00000001
 40
0.0
 40
0.0
 40
0.0
 40
0.0
 40
0.1625255217041868
 40
0.3143148980392372
 40
0.4549784905465745
 40
0.5845192373661998
 40
0.7045671033090736
 40
0.8134949897289286
 40
0.9116812596826069
 40
0.9999999999999999
 40
0.9999999999999999
 40
0.9999999999999999
 40
0.9999999999999999
 10
214.0567712884982
 20
104.5292523029883
 30
0.0
 10
214.0618262778001
 20
104.5129192428146
 30
0.0
 10
214.071602332849
 20
104.4813320552187
 30
0.0
 10
214.0860990626394
 20
104.435717249801
 30
0.0
 10
214.0992886564352
 20
104.3933285127556
 30
0.0
 10
214.1111679625646
 20
104.3540309184966
 30
0.0
 10
214.1223786172368
 20
104.318019577783
 30
0.0
 10
214.1320852777563
 20
104.2849989910035
 30
0.0
 10
214.141365161006
 20
104.2553360902828
 30
0.0
 10
214.1468035872588
 20
104.2364843469718
 30
0.0
 10
214.1493789333863
 20
104.2275571754196
 30
0.0
  0
LINE
  5
188
330
1F
100
AcDbEntity
  8
0
  6
Continuous
 62
     7
370
     0
100
AcDbLine
 10
213.5974373699
 20
105.9710504365
 30
0.0
 11
214.0567712885
 21
104.529252303
 31
0.0
  0
LINE
  5
189
330
1F
100
AcDbEntity
  8
0
  6
Continuous
 62
     7
370
     0
100
AcDbLine
 10
213.1615640546
 20
105.9710504365
 30
0.0
 11
213.5974373699
 21
105.9710504365
 31
0.0
  0
LINE
  5
18A
330
1F
100
AcDbEntity
  8
0
  6
Continuous
 62
     7
370
     0
100
AcDbLine
 10
213.1615640546
 20
103.9163954886
 30
0.0
 11
213.1615640546
 21
105.9710504365
 31
0.0
  0
LINE
  5
18B
330
1F
100
AcDbEntity
  8
0
  6
Continuous
 62
     7
370
     0
100
AcDbLine
 10
213.4513230857
 20
103.9163954886
 30
0.0
 11
213.1615640546
 21
103.9163954886
 31
0.0
  0
LINE
  5
18C
330
1F
100
AcDbEntity
  8
0
  6
Continuous
 62
     7
370
     0
100
AcDbLine
 10
213.4513230857
 20
105.6549496753
 30
0.0
 11
213.4513230857
 21
103.9163954886
 31
0.0
  0
SPLINE
  5
18D
330
1F
100
AcDbEntity
  8
0
  6
Continuous
 62
     7
370
     0
100
AcDbSpline
210
0.0
220
0.0
230
1.0
 70
     8
 71
     3
 72
    31
 73
    27
 74
     0
 42
0.00000001
 43
0.00000001
 40
0.0
 40
0.0
 40
0.0
 40
0.0
 40
0.0628739462114324
 40
0.1228366299919128
 40
0.1796565674430314
 40
0.233960012230862
 40
0.2855950186955586
 40
0.3345131060783809
 40
0.3809048259061764
 40
0.4248945919393347
 40
0.4665290347654873
 40
0.5064882940692464
 40
0.5450315536447543
 40
0.5818311798231344
 40
0.617448279949443
 40
0.652066912769046
 40
0.6858797142465105
 40
0.7191745547913924
 40
0.7521816462063929
 40
0.7852401639180909
 40
0.8186564497770833
 40
0.8525477406533113
 40
0.887626342258519
 40
0.923635078068751
 40
0.9610218444769891
 40
1.0
 40
1.0
 40
1.0
 40
1.0
 10
218.3508848845748
 20
104.9297289184376
 30
0.0
 10
218.3506145203388
 20
104.9005039350947
 30
0.0
 10
218.3500863105855
 20
104.8434071775069
 30
0.0
 10
218.3469485943091
 20
104.7599350666282
 30
0.0
 10
218.3409803748322
 20
104.6806271973456
 30
0.0
 10
218.3336363717264
 20
104.6053018984051
 30
0.0
 10
218.32252643331
 20
104.5341602529032
 30
0.0
 10
218.3105548727197
 20
104.4668999988095
 30
0.0
 10
218.2957490093944
 20
104.4038265569132
 30
0.0
 10
218.2784740429454
 20
104.3449122837503
 30
0.0
 10
218.2590185080055
 20
104.2898456618606
 30
0.0
 10
218.2376825033645
 20
104.2382105283273
 30
0.0
 10
218.2140508295609
 20
104.1900421660879
 30
0.0
 10
218.1874201187295
 20
104.1458103851879
 30
0.0
 10
218.1590088465305
 20
104.1049280827898
 30
0.0
 10
218.128608930602
 20
104.067241900187
 30
0.0
 10
218.0955758571365
 20
104.0332942504783
 30
0.0
 10
218.0599430049639
 20
104.0032756780608
 30
0.0
 10
218.0224327346427
 20
103.9762351745065
 30
0.0
 10
217.9822988772773
 20
103.9530826934439
 30
0.0
 10
217.9397170925062
 20
103.933901265023
 30
0.0
 10
217.8949718856301
 20
103.9175020966847
 30
0.0
 10
217.847609251973
 20
103.9054857479881
 30
0.0
 10
217.7980026888563
 20
103.8962874208295
 30
0.0
 10
217.745969419478
 20
103.8908707796816
 30
0.0
 10
217.7104641954834
 20
103.8903298563721
 30
0.0
 10
217.6923416320374
 20
103.8900537584942
 30
0.0
  0
SPLINE
  5
18E
330
1F
100
AcDbEntity
  8
0
  6
Continuous
 62
     7
370
     0
100
AcDbSpline
210
0.0
220
0.0
230
1.0
 70
     8
 71
     3
 72
    27
 73
    23
 74
     0
 42
0.00000001
 43
0.00000001
 40
0.0
 40
0.0
 40
0.0
 40
0.0
 40
0.0567243372181508
 40
0.1114372357370108
 40
0.1643678222229016
 40
0.21643537246209
 40
0.2676414903219249
 40
0.3173597799690281
 40
0.3674730633322806
 40
0.4182103970528083
 40
0.4714042826470201
 40
0.5279657201290494
 40
0.5880611158232139
 40
0.6521342629937146
 40
0.6863448363353056
 40
0.7232636803169652
 40
0.762610250771542
 40
0.8047389366452182
 40
0.8494303387909499
 40
0.8967112583864923
 40
0.9468896380534765
 40
1.0
 40
1.0
 40
1.0
 40
1.0
 10
217.6923416320374
 20
105.9710504365124
 30
0.0
 10
217.7187288211468
 20
105.9702746718276
 30
0.0
 10
217.7705675125696
 20
105.9687506509876
 30
0.0
 10
217.8462522697475
 20
105.9563210135622
 30
0.0
 10
217.9175802753927
 20
105.9350582030547
 30
0.0
 10
217.9845051882195
 20
105.906373754408
 30
0.0
 10
218.045882937211
 20
105.8699389838301
 30
0.0
 10
218.1006958540443
 20
105.8256469691815
 30
0.0
 10
218.148352692873
 20
105.7739627678692
 30
0.0
 10
218.1883333530454
 20
105.7142739390547
 30
0.0
 10
218.2232804407636
 20
105.6482270992422
 30
0.0
 10
218.2543266663388
 20
105.5755258058496
 30
0.0
 10
218.2823915525134
 20
105.496251528886
 30
0.0
 10
218.302307006697
 20
105.4252899842107
 30
0.0
 10
218.3165126838139
 20
105.3640334609155
 30
0.0
 10
218.3259157133801
 20
105.313510813335
 30
0.0
 10
218.3337221130345
 20
105.2589965921661
 30
0.0
 10
218.3397028701644
 20
105.2006226819846
 30
0.0
 10
218.3446099402761
 20
105.1384545543251
 30
0.0
 10
218.3483994456342
 20
105.0724535021219
 30
0.0
 10
218.3503230076084
 20
105.0024545669742
 30
0.0
 10
218.3506940811215
 20
104.9544252589451
 30
0.0
 10
218.3508848845748
 20
104.9297289184376
 30
0.0
  0
SPLINE
  5
18F
330
1F
100
AcDbEntity
  8
0
  6
Continuous
 62
     7
370
     0
100
AcDbSpline
210
0.0
220
0.0
230
1.0
 70
     8
 71
     3
 72
    31
 73
    27
 74
     0
 42
0.00000001
 43
0.00000001
 40
0.0
 40
0.0
 40
0.0
 40
0.0
 40
0.0631144583947934
 40
0.12361464576949
 40
0.1809737111859576
 40
0.2352614550083222
 40
0.287100701833872
 40
0.3360307363034436
 40
0.3823823485850662
 40
0.4263340836597073
 40
0.4682106947981602
 40
0.5082496012618052
 40
0.5466283366065849
 40
0.5836495392304463
 40
0.6189943150301618
 40
0.6535830186205963
 40
0.6871561361903312
 40
0.7204221919788076
 40
0.7532302188118171
 40
0.7862601560778999
 40
0.8195039834988841
 40
0.8535452747120184
 40
0.8883082803397299
 40
0.9239958607406951
 40
0.961350304754645
 40
1.0
 40
1.0
 40
1.0
 40
1.0
 10
217.0337983795
 20
104.9297289184376
 30
0.0
 10
217.0340637724884
 20
104.9590918236398
 30
0.0
 10
217.0345835655926
 20
105.016601389873
 30
0.0
 10
217.0378076733579
 20
105.1007482165192
 30
0.0
 10
217.0434367042628
 20
105.1806589735586
 30
0.0
 10
217.0518392977654
 20
105.2562642622325
 30
0.0
 10
217.0617895427079
 20
105.3277347385349
 30
0.0
 10
217.0747249239066
 20
105.3949684067253
 30
0.0
 10
217.0892791082504
 20
105.4581161163698
 30
0.0
 10
217.1067415176737
 20
105.5171120462108
 30
0.0
 10
217.1259269890192
 20
105.572463453851
 30
0.0
 10
217.1476935183373
 20
105.6240815431363
 30
0.0
 10
217.1721838165314
 20
105.6719115867425
 30
0.0
 10
217.1981943376673
 20
105.7164496090481
 30
0.0
 10
217.2270943289006
 20
105.7570028605073
 30
0.0
 10
217.2571394447097
 20
105.7947094313704
 30
0.0
 10
217.2905131847201
 20
105.8281864745562
 30
0.0
 10
217.3258277972305
 20
105.8582953574194
 30
0.0
 10
217.3636032990663
 20
105.8848646918921
 30
0.0
 10
217.4036398203188
 20
105.9077908228255
 30
0.0
 10
217.4457833113457
 20
105.9280329433758
 30
0.0
 10
217.4908369804806
 20
105.9432712064379
 30
0.0
 10
217.5378655222113
 20
105.9556936212003
 30
0.0
 10
217.587230937864
 20
105.9648317001214
 30
0.0
 10
217.6389876273652
 20
105.9702189060386
 30
0.0
 10
217.6743560493519
 20
105.9707701284046
 30
0.0
 10
217.6923416320374
 20
105.9710504365124
 30
0.0
  0
SPLINE
  5
190
330
1F
100
AcDbEntity
  8
0
  6
Continuous
 62
     7
370
     0
100
AcDbSpline
210
0.0
220
0.0
230
1.0
 70
     8
 71
     3
 72
    15
 73
    11
 74
     0
 42
0.00000001
 43
0.00000001
 40
0.0
 40
0.0
 40
0.0
 40
0.0
 40
0.0974206681772145
 40
0.2008855880393207
 40
0.3111719701726504
 40
0.4297979458253723
 40
0.5577399263645877
 40
0.6947152693641585
 40
0.8421299102060552
 40
1.0
 40
1.0
 40
1.0
 40
1.0
 10
217.2334193029255
 20
104.0880283237883
 30
0.0
 10
217.2171355460068
 20
104.1115178820363
 30
0.0
 10
217.1835577421866
 20
104.1599543566542
 30
0.0
 10
217.1442578341771
 20
104.242543038937
 30
0.0
 10
217.109201620437
 20
104.3334615824366
 30
0.0
 10
217.081688920025
 20
104.4344937981985
 30
0.0
 10
217.060139617256
 20
104.544835583997
 30
0.0
 10
217.0445756404598
 20
104.6647034539199
 30
0.0
 10
217.0357679618511
 20
104.7940456210931
 30
0.0
 10
217.0344697276733
 20
104.8834801623188
 30
0.0
 10
217.0337983795
 20
104.9297289184376
 30
0.0
  0
SPLINE
  5
191
330
1F
100
AcDbEntity
  8
0
  6
Continuous
 62
     7
370
     0
100
AcDbSpline
210
0.0
220
0.0
230
1.0
 70
     8
 71
     3
 72
    15
 73
    11
 74
     0
 42
0.00000001
 43
0.00000001
 40
0.0
 40
0.0
 40
0.0
 40
0.0
 40
0.1379032299933934
 40
0.2688733426002937
 40
0.3951781273461133
 40
0.5170892381308875
 40
0.6367430265135471
 40
0.7562218164637977
 40
0.87662835946368
 40
1.0
 40
1.0
 40
1.0
 40
1.0
 10
217.6923416320374
 20
103.8900537584942
 30
0.0
 10
217.6685808500997
 20
103.8907315360554
 30
0.0
 10
217.6222538651357
 20
103.8920530157511
 30
0.0
 10
217.5545967195502
 20
103.9010316563135
 30
0.0
 10
217.4910968796269
 20
103.9168344852663
 30
0.0
 10
217.4312187605805
 20
103.9380283071909
 30
0.0
 10
217.3756354088413
 20
103.9663762644716
 30
0.0
 10
217.3240814360062
 20
104.0008670900015
 30
0.0
 10
217.2755209021571
 20
104.0406983182956
 30
0.0
 10
217.2475665066713
 20
104.0721242431069
 30
0.0
 10
217.2334193029255
 20
104.0880283237883
 30
0.0
  0
LINE
  5
192
330
1F
100
AcDbEntity
  8
0
  6
Continuous
 62
     7
370
     0
100
AcDbLine
 10
220.1421225315
 20
104.7593308518
 30
0.0
 11
220.9060327044
 21
104.7593308518
 31
0.0
  0
LINE
  5
193
330
1F
100
AcDbEntity
  8
0
  6
Continuous
 62
     7
370
     0
100
AcDbLine
 10
220.1421225315
 20
104.5222552809
 30
0.0
 11
220.1421225315
 21
104.7593308518
 31
0.0
  0
LINE
  5
194
330
1F
100
AcDbEntity
  8
0
  6
Continuous
 62
     7
370
     0
100
AcDbLine
 10
220.9060327044
 20
104.5222552809
 30
0.0
 11
220.1421225315
 21
104.5222552809
 31
0.0
  0
LINE
  5
195
330
1F
100
AcDbEntity
  8
0
  6
Continuous
 62
     7
370
     0
100
AcDbLine
 10
220.9060327044
 20
104.7593308518
 30
0.0
 11
220.9060327044
 21
104.5222552809
 31
0.0
  0
SPLINE
  5
196
330
1F
100
AcDbEntity
  8
0
  6
Continuous
 62
     7
370
     0
100
AcDbSpline
210
0.0
220
0.0
230
1.0
 70
     8
 71
     3
 72
    31
 73
    27
 74
     0
 42
0.00000001
 43
0.00000001
 40
0.0
 40
0.0
 40
0.0
 40
0.0
 40
0.0628739462114324
 40
0.1228366299919129
 40
0.1796565674430314
 40
0.233960012230862
 40
0.2855950186955589
 40
0.3345131060783805
 40
0.3809048259061762
 40
0.4248945919393347
 40
0.4665290347654872
 40
0.5064882940692462
 40
0.5450315536447543
 40
0.5818311798231344
 40
0.6174482799494428
 40
0.6520669127690459
 40
0.6858797142465104
 40
0.719174554791392
 40
0.7521816462063926
 40
0.7852401639180911
 40
0.8186564497770833
 40
0.852547740653311
 40
0.8876263422585189
 40
0.923635078068751
 40
0.9610218444769894
 40
1.0
 40
1.0
 40
1.0
 40
1.0
 10
224.0406985864979
 20
104.9297289184376
 30
0.0
 10
224.0404282222619
 20
104.9005039350947
 30
0.0
 10
224.0399000125086
 20
104.8434071775069
 30
0.0
 10
224.0367622962322
 20
104.7599350666282
 30
0.0
 10
224.0307940767553
 20
104.6806271973456
 30
0.0
 10
224.0234500736495
 20
104.6053018984051
 30
0.0
 10
224.012340135233
 20
104.5341602529032
 30
0.0
 10
224.0003685746428
 20
104.4668999988095
 30
0.0
 10
223.9855627113175
 20
104.4038265569132
 30
0.0
 10
223.9682877448685
 20
104.3449122837503
 30
0.0
 10
223.9488322099285
 20
104.2898456618606
 30
0.0
 10
223.9274962052876
 20
104.2382105283273
 30
0.0
 10
223.903864531484
 20
104.1900421660879
 30
0.0
 10
223.8772338206526
 20
104.1458103851879
 30
0.0
 10
223.8488225484536
 20
104.1049280827898
 30
0.0
 10
223.818422632525
 20
104.067241900187
 30
0.0
 10
223.7853895590596
 20
104.0332942504783
 30
0.0
 10
223.749756706887
 20
104.0032756780608
 30
0.0
 10
223.7122464365658
 20
103.9762351745065
 30
0.0
 10
223.6721125792004
 20
103.9530826934439
 30
0.0
 10
223.6295307944293
 20
103.933901265023
 30
0.0
 10
223.5847855875532
 20
103.9175020966847
 30
0.0
 10
223.5374229538961
 20
103.9054857479881
 30
0.0
 10
223.4878163907794
 20
103.8962874208295
 30
0.0
 10
223.4357831214011
 20
103.8908707796816
 30
0.0
 10
223.4002778974065
 20
103.8903298563721
 30
0.0
 10
223.3821553339605
 20
103.8900537584942
 30
0.0
  0
SPLINE
  5
197
330
1F
100
AcDbEntity
  8
0
  6
Continuous
 62
     7
370
     0
100
AcDbSpline
210
0.0
220
0.0
230
1.0
 70
     8
 71
     3
 72
    27
 73
    23
 74
     0
 42
0.00000001
 43
0.00000001
 40
0.0
 40
0.0
 40
0.0
 40
0.0
 40
0.0567243372181508
 40
0.1114372357370108
 40
0.1643678222229013
 40
0.21643537246209
 40
0.2676414903219251
 40
0.3173597799690279
 40
0.3674730633322809
 40
0.4182103970528082
 40
0.4714042826470201
 40
0.5279657201290494
 40
0.5880611158232139
 40
0.6521342629937146
 40
0.6863448363353056
 40
0.7232636803169653
 40
0.762610250771542
 40
0.8047389366452182
 40
0.84943033879095
 40
0.8967112583864923
 40
0.9468896380534765
 40
1.0
 40
1.0
 40
1.0
 40
1.0
 10
223.3821553339605
 20
105.9710504365124
 30
0.0
 10
223.4085425230699
 20
105.9702746718276
 30
0.0
 10
223.4603812144927
 20
105.9687506509876
 30
0.0
 10
223.5360659716706
 20
105.9563210135622
 30
0.0
 10
223.6073939773158
 20
105.9350582030546
 30
0.0
 10
223.6743188901426
 20
105.906373754408
 30
0.0
 10
223.7356966391341
 20
105.8699389838301
 30
0.0
 10
223.7905095559674
 20
105.8256469691815
 30
0.0
 10
223.8381663947961
 20
105.7739627678692
 30
0.0
 10
223.8781470549684
 20
105.7142739390547
 30
0.0
 10
223.9130941426867
 20
105.6482270992422
 30
0.0
 10
223.9441403682619
 20
105.5755258058496
 30
0.0
 10
223.9722052544365
 20
105.496251528886
 30
0.0
 10
223.9921207086201
 20
105.4252899842107
 30
0.0
 10
224.0063263857369
 20
105.3640334609155
 30
0.0
 10
224.0157294153032
 20
105.313510813335
 30
0.0
 10
224.0235358149576
 20
105.2589965921661
 30
0.0
 10
224.0295165720875
 20
105.2006226819846
 30
0.0
 10
224.0344236421992
 20
105.1384545543251
 30
0.0
 10
224.0382131475573
 20
105.0724535021219
 30
0.0
 10
224.0401367095315
 20
105.0024545669742
 30
0.0
 10
224.0405077830446
 20
104.9544252589451
 30
0.0
 10
224.0406985864979
 20
104.9297289184376
 30
0.0
  0
SPLINE
  5
198
330
1F
100
AcDbEntity
  8
0
  6
Continuous
 62
     7
370
     0
100
AcDbSpline
210
0.0
220
0.0
230
1.0
 70
     8
 71
     3
 72
    31
 73
    27
 74
     0
 42
0.00000001
 43
0.00000001
 40
0.0
 40
0.0
 40
0.0
 40
0.0
 40
0.0631144583947934
 40
0.12361464576949
 40
0.1809737111859576
 40
0.2352614550083222
 40
0.287100701833872
 40
0.3360307363034436
 40
0.3823823485850663
 40
0.4263340836597073
 40
0.4682106947981602
 40
0.5082496012618052
 40
0.546628336606585
 40
0.5836495392304463
 40
0.6189943150301618
 40
0.6535830186205961
 40
0.6871561361903314
 40
0.7204221919788075
 40
0.753230218811817
 40
0.7862601560779
 40
0.8195039834988841
 40
0.8535452747120184
 40
0.8883082803397299
 40
0.9239958607406952
 40
0.961350304754645
 40
1.0
 40
1.0
 40
1.0
 40
1.0
 10
222.7236120814231
 20
104.9297289184376
 30
0.0
 10
222.7238774744115
 20
104.9590918236398
 30
0.0
 10
222.7243972675156
 20
105.016601389873
 30
0.0
 10
222.727621375281
 20
105.1007482165192
 30
0.0
 10
222.7332504061858
 20
105.1806589735586
 30
0.0
 10
222.7416529996885
 20
105.2562642622325
 30
0.0
 10
222.751603244631
 20
105.3277347385349
 30
0.0
 10
222.7645386258297
 20
105.3949684067253
 30
0.0
 10
222.7790928101734
 20
105.4581161163698
 30
0.0
 10
222.7965552195968
 20
105.5171120462108
 30
0.0
 10
222.8157406909423
 20
105.572463453851
 30
0.0
 10
222.8375072202604
 20
105.6240815431363
 30
0.0
 10
222.8619975184545
 20
105.6719115867425
 30
0.0
 10
222.8880080395903
 20
105.7164496090481
 30
0.0
 10
222.9169080308237
 20
105.7570028605073
 30
0.0
 10
222.9469531466328
 20
105.7947094313704
 30
0.0
 10
222.9803268866431
 20
105.8281864745562
 30
0.0
 10
223.0156414991536
 20
105.8582953574194
 30
0.0
 10
223.0534170009894
 20
105.8848646918921
 30
0.0
 10
223.0934535222419
 20
105.9077908228255
 30
0.0
 10
223.1355970132688
 20
105.9280329433758
 30
0.0
 10
223.1806506824037
 20
105.9432712064379
 30
0.0
 10
223.2276792241344
 20
105.9556936212003
 30
0.0
 10
223.2770446397871
 20
105.9648317001214
 30
0.0
 10
223.3288013292883
 20
105.9702189060386
 30
0.0
 10
223.364169751275
 20
105.9707701284046
 30
0.0
 10
223.3821553339605
 20
105.9710504365124
 30
0.0
  0
SPLINE
  5
199
330
1F
100
AcDbEntity
  8
0
  6
Continuous
 62
     7
370
     0
100
AcDbSpline
210
0.0
220
0.0
230
1.0
 70
     8
 71
     3
 72
    15
 73
    11
 74
     0
 42
0.00000001
 43
0.00000001
 40
0.0
 40
0.0
 40
0.0
 40
0.0
 40
0.0974206681772144
 40
0.2008855880393207
 40
0.3111719701726504
 40
0.4297979458253729
 40
0.5577399263645872
 40
0.6947152693641585
 40
0.8421299102060553
 40
1.0
 40
1.0
 40
1.0
 40
1.0
 10
222.9232330048485
 20
104.0880283237883
 30
0.0
 10
222.9069492479299
 20
104.1115178820363
 30
0.0
 10
222.8733714441097
 20
104.1599543566542
 30
0.0
 10
222.8340715361002
 20
104.242543038937
 30
0.0
 10
222.7990153223601
 20
104.3334615824366
 30
0.0
 10
222.7715026219481
 20
104.4344937981985
 30
0.0
 10
222.7499533191791
 20
104.544835583997
 30
0.0
 10
222.7343893423829
 20
104.6647034539199
 30
0.0
 10
222.7255816637741
 20
104.7940456210931
 30
0.0
 10
222.7242834295963
 20
104.8834801623188
 30
0.0
 10
222.7236120814231
 20
104.9297289184376
 30
0.0
  0
SPLINE
  5
19A
330
1F
100
AcDbEntity
  8
0
  6
Continuous
 62
     7
370
     0
100
AcDbSpline
210
0.0
220
0.0
230
1.0
 70
     8
 71
     3
 72
    15
 73
    11
 74
     0
 42
0.00000001
 43
0.00000001
 40
0.0
 40
0.0
 40
0.0
 40
0.0
 40
0.1379032299933933
 40
0.2688733426002935
 40
0.3951781273461131
 40
0.5170892381308876
 40
0.6367430265135475
 40
0.7562218164637967
 40
0.8766283594636793
 40
1.0
 40
1.0
 40
1.0
 40
1.0
 10
223.3821553339605
 20
103.8900537584942
 30
0.0
 10
223.3583945520228
 20
103.8907315360554
 30
0.0
 10
223.3120675670588
 20
103.8920530157511
 30
0.0
 10
223.2444104214733
 20
103.9010316563135
 30
0.0
 10
223.18091058155
 20
103.9168344852663
 30
0.0
 10
223.1210324625036
 20
103.9380283071909
 30
0.0
 10
223.0654491107644
 20
103.9663762644716
 30
0.0
 10
223.0138951379293
 20
104.0008670900015
 30
0.0
 10
222.9653346040802
 20
104.0406983182956
 30
0.0
 10
222.9373802085944
 20
104.0721242431069
 30
0.0
 10
222.9232330048485
 20
104.0880283237883
 30
0.0
  0
LINE
  5
19B
330
1F
100
AcDbEntity
  8
0
  6
Continuous
 62
     7
370
     0
100
AcDbLine
 10
225.8319362334
 20
104.7593308518
 30
0.0
 11
226.5958464063
 21
104.7593308518
 31
0.0
  0
LINE
  5
19C
330
1F
100
AcDbEntity
  8
0
  6
Continuous
 62
     7
370
     0
100
AcDbLine
 10
225.8319362334
 20
104.5222552809
 30
0.0
 11
225.8319362334
 21
104.7593308518
 31
0.0
  0
LINE
  5
19D
330
1F
100
AcDbEntity
  8
0
  6
Continuous
 62
     7
370
     0
100
AcDbLine
 10
226.5958464063
 20
104.5222552809
 30
0.0
 11
225.8319362334
 21
104.5222552809
 31
0.0
  0
LINE
  5
19E
330
1F
100
AcDbEntity
  8
0
  6
Continuous
 62
     7
370
     0
100
AcDbLine
 10
226.5958464063
 20
104.7593308518
 30
0.0
 11
226.5958464063
 21
104.5222552809
 31
0.0
  0
SPLINE
  5
19F
330
1F
100
AcDbEntity
  8
0
  6
Continuous
 62
     7
370
     0
100
AcDbSpline
210
0.0
220
0.0
230
1.0
 70
     8
 71
     3
 72
    31
 73
    27
 74
     0
 42
0.00000001
 43
0.00000001
 40
0.0
 40
0.0
 40
0.0
 40
0.0
 40
0.0628739462114324
 40
0.1228366299919129
 40
0.1796565674430315
 40
0.2339600122308621
 40
0.2855950186955591
 40
0.3345131060783806
 40
0.3809048259061764
 40
0.4248945919393348
 40
0.4665290347654876
 40
0.5064882940692463
 40
0.5450315536447548
 40
0.5818311798231349
 40
0.6174482799494435
 40
0.652066912769046
 40
0.685879714246511
 40
0.7191745547913925
 40
0.7521816462063932
 40
0.7852401639180917
 40
0.8186564497770835
 40
0.852547740653311
 40
0.8876263422585192
 40
0.9236350780687517
 40
0.9610218444769894
 40
1.0
 40
1.0
 40
1.0
 40
1.0
 10
230.0466130496389
 20
104.9297289184376
 30
0.0
 10
230.0463426854029
 20
104.9005039350947
 30
0.0
 10
230.0458144756496
 20
104.8434071775069
 30
0.0
 10
230.0426767593732
 20
104.7599350666282
 30
0.0
 10
230.0367085398963
 20
104.6806271973456
 30
0.0
 10
230.0293645367906
 20
104.6053018984051
 30
0.0
 10
230.0182545983741
 20
104.5341602529032
 30
0.0
 10
230.0062830377839
 20
104.4668999988095
 30
0.0
 10
229.9914771744586
 20
104.4038265569132
 30
0.0
 10
229.9742022080095
 20
104.3449122837503
 30
0.0
 10
229.9547466730696
 20
104.2898456618606
 30
0.0
 10
229.9334106684286
 20
104.2382105283273
 30
0.0
 10
229.909778994625
 20
104.1900421660879
 30
0.0
 10
229.8831482837936
 20
104.1458103851879
 30
0.0
 10
229.8547370115946
 20
104.1049280827898
 30
0.0
 10
229.824337095666
 20
104.067241900187
 30
0.0
 10
229.7913040222006
 20
104.0332942504783
 30
0.0
 10
229.7556711700281
 20
104.0032756780608
 30
0.0
 10
229.7181608997068
 20
103.9762351745065
 30
0.0
 10
229.6780270423415
 20
103.9530826934439
 30
0.0
 10
229.6354452575704
 20
103.933901265023
 30
0.0
 10
229.5907000506942
 20
103.9175020966847
 30
0.0
 10
229.5433374170371
 20
103.9054857479881
 30
0.0
 10
229.4937308539204
 20
103.8962874208295
 30
0.0
 10
229.4416975845421
 20
103.8908707796816
 30
0.0
 10
229.4061923605475
 20
103.8903298563721
 30
0.0
 10
229.3880697971016
 20
103.8900537584942
 30
0.0
  0
SPLINE
  5
1A0
330
1F
100
AcDbEntity
  8
0
  6
Continuous
 62
     7
370
     0
100
AcDbSpline
210
0.0
220
0.0
230
1.0
 70
     8
 71
     3
 72
    27
 73
    23
 74
     0
 42
0.00000001
 43
0.00000001
 40
0.0
 40
0.0
 40
0.0
 40
0.0
 40
0.0567243372181508
 40
0.1114372357370111
 40
0.1643678222229013
 40
0.2164353724620895
 40
0.2676414903219251
 40
0.3173597799690279
 40
0.3674730633322808
 40
0.4182103970528078
 40
0.4714042826470199
 40
0.5279657201290492
 40
0.5880611158232136
 40
0.6521342629937142
 40
0.6863448363353056
 40
0.7232636803169652
 40
0.7626102507715418
 40
0.8047389366452182
 40
0.8494303387909499
 40
0.8967112583864923
 40
0.9468896380534765
 40
1.0
 40
1.0
 40
1.0
 40
1.0
 10
229.3880697971016
 20
105.9710504365124
 30
0.0
 10
229.4144569862109
 20
105.9702746718276
 30
0.0
 10
229.4662956776337
 20
105.9687506509876
 30
0.0
 10
229.5419804348116
 20
105.9563210135622
 30
0.0
 10
229.6133084404568
 20
105.9350582030546
 30
0.0
 10
229.6802333532836
 20
105.906373754408
 30
0.0
 10
229.7416111022752
 20
105.8699389838301
 30
0.0
 10
229.7964240191084
 20
105.8256469691815
 30
0.0
 10
229.8440808579371
 20
105.7739627678692
 30
0.0
 10
229.8840615181094
 20
105.7142739390547
 30
0.0
 10
229.9190086058277
 20
105.6482270992422
 30
0.0
 10
229.9500548314029
 20
105.5755258058496
 30
0.0
 10
229.9781197175775
 20
105.496251528886
 30
0.0
 10
229.9980351717612
 20
105.4252899842107
 30
0.0
 10
230.012240848878
 20
105.3640334609155
 30
0.0
 10
230.0216438784442
 20
105.313510813335
 30
0.0
 10
230.0294502780986
 20
105.2589965921661
 30
0.0
 10
230.0354310352285
 20
105.2006226819846
 30
0.0
 10
230.0403381053403
 20
105.1384545543251
 30
0.0
 10
230.0441276106984
 20
105.0724535021219
 30
0.0
 10
230.0460511726725
 20
105.0024545669742
 30
0.0
 10
230.0464222461856
 20
104.9544252589451
 30
0.0
 10
230.0466130496389
 20
104.9297289184376
 30
0.0
  0
SPLINE
  5
1A1
330
1F
100
AcDbEntity
  8
0
  6
Continuous
 62
     7
370
     0
100
AcDbSpline
210
0.0
220
0.0
230
1.0
 70
     8
 71
     3
 72
    31
 73
    27
 74
     0
 42
0.00000001
 43
0.00000001
 40
0.0
 40
0.0
 40
0.0
 40
0.0
 40
0.0631144583947934
 40
0.1236146457694899
 40
0.1809737111859575
 40
0.235261455008322
 40
0.2871007018338719
 40
0.3360307363034434
 40
0.3823823485850662
 40
0.426334083659707
 40
0.4682106947981599
 40
0.5082496012618049
 40
0.5466283366065846
 40
0.5836495392304459
 40
0.6189943150301614
 40
0.6535830186205956
 40
0.687156136190331
 40
0.7204221919788075
 40
0.7532302188118168
 40
0.7862601560778997
 40
0.8195039834988835
 40
0.8535452747120178
 40
0.8883082803397293
 40
0.9239958607406945
 40
0.9613503047546453
 40
1.0
 40
1.0
 40
1.0
 40
1.0
 10
228.7295265445642
 20
104.9297289184376
 30
0.0
 10
228.7297919375525
 20
104.9590918236398
 30
0.0
 10
228.7303117306567
 20
105.016601389873
 30
0.0
 10
228.733535838422
 20
105.1007482165192
 30
0.0
 10
228.7391648693269
 20
105.1806589735586
 30
0.0
 10
228.7475674628296
 20
105.2562642622325
 30
0.0
 10
228.757517707772
 20
105.3277347385349
 30
0.0
 10
228.7704530889707
 20
105.3949684067253
 30
0.0
 10
228.7850072733145
 20
105.4581161163698
 30
0.0
 10
228.8024696827378
 20
105.5171120462108
 30
0.0
 10
228.8216551540833
 20
105.572463453851
 30
0.0
 10
228.8434216834014
 20
105.6240815431363
 30
0.0
 10
228.8679119815955
 20
105.6719115867425
 30
0.0
 10
228.8939225027314
 20
105.7164496090481
 30
0.0
 10
228.9228224939647
 20
105.7570028605073
 30
0.0
 10
228.9528676097738
 20
105.7947094313704
 30
0.0
 10
228.9862413497842
 20
105.8281864745562
 30
0.0
 10
229.0215559622947
 20
105.8582953574194
 30
0.0
 10
229.0593314641304
 20
105.8848646918921
 30
0.0
 10
229.0993679853829
 20
105.9077908228255
 30
0.0
 10
229.1415114764098
 20
105.9280329433758
 30
0.0
 10
229.1865651455448
 20
105.9432712064379
 30
0.0
 10
229.2335936872755
 20
105.9556936212003
 30
0.0
 10
229.2829591029281
 20
105.9648317001214
 30
0.0
 10
229.3347157924293
 20
105.9702189060386
 30
0.0
 10
229.370084214416
 20
105.9707701284046
 30
0.0
 10
229.3880697971016
 20
105.9710504365124
 30
0.0
  0
SPLINE
  5
1A2
330
1F
100
AcDbEntity
  8
0
  6
Continuous
 62
     7
370
     0
100
AcDbSpline
210
0.0
220
0.0
230
1.0
 70
     8
 71
     3
 72
    15
 73
    11
 74
     0
 42
0.00000001
 43
0.00000001
 40
0.0
 40
0.0
 40
0.0
 40
0.0
 40
0.0974206681772145
 40
0.2008855880393207
 40
0.3111719701726504
 40
0.4297979458253728
 40
0.5577399263645871
 40
0.6947152693641585
 40
0.8421299102060552
 40
1.0
 40
1.0
 40
1.0
 40
1.0
 10
228.9291474679896
 20
104.0880283237883
 30
0.0
 10
228.9128637110709
 20
104.1115178820363
 30
0.0
 10
228.8792859072507
 20
104.1599543566542
 30
0.0
 10
228.8399859992412
 20
104.242543038937
 30
0.0
 10
228.8049297855011
 20
104.3334615824366
 30
0.0
 10
228.7774170850892
 20
104.4344937981985
 30
0.0
 10
228.7558677823201
 20
104.544835583997
 30
0.0
 10
228.7403038055238
 20
104.6647034539199
 30
0.0
 10
228.7314961269151
 20
104.7940456210931
 30
0.0
 10
228.7301978927374
 20
104.8834801623188
 30
0.0
 10
228.7295265445642
 20
104.9297289184376
 30
0.0
  0
SPLINE
  5
1A3
330
1F
100
AcDbEntity
  8
0
  6
Continuous
 62
     7
370
     0
100
AcDbSpline
210
0.0
220
0.0
230
1.0
 70
     8
 71
     3
 72
    15
 73
    11
 74
     0
 42
0.00000001
 43
0.00000001
 40
0.0
 40
0.0
 40
0.0
 40
0.0
 40
0.1379032299933933
 40
0.2688733426002926
 40
0.3951781273461146
 40
0.5170892381308878
 40
0.6367430265135473
 40
0.7562218164637978
 40
0.87662835946368
 40
1.0
 40
1.0
 40
1.0
 40
1.0
 10
229.3880697971016
 20
103.8900537584942
 30
0.0
 10
229.3643090151638
 20
103.8907315360554
 30
0.0
 10
229.3179820301999
 20
103.8920530157511
 30
0.0
 10
229.2503248846143
 20
103.9010316563135
 30
0.0
 10
229.186825044691
 20
103.9168344852663
 30
0.0
 10
229.1269469256447
 20
103.9380283071909
 30
0.0
 10
229.0713635739054
 20
103.9663762644716
 30
0.0
 10
229.0198096010703
 20
104.0008670900015
 30
0.0
 10
228.9712490672212
 20
104.0406983182956
 30
0.0
 10
228.9432946717354
 20
104.0721242431069
 30
0.0
 10
228.9291474679896
 20
104.0880283237883
 30
0.0
  0
CIRCLE
  5
1A4
330
1F
100
AcDbEntity
  8
0
  6
Continuous
 62
     7
370
     0
100
AcDbCircle
 10
221.3406712511
 20
106.5274031008
 30
0.0
 40
25.40000000000001
  0
SPLINE
  5
1A5
330
1F
100
AcDbEntity
  8
0
  6
Continuous
 62
     7
370
     0
100
AcDbSpline
210
0.0
220
0.0
230
1.0
 70
     8
 71
     3
 72
    23
 73
    19
 74
     0
 42
0.00000001
 43
0.00000001
 40
0.0
 40
0.0
 40
0.0
 40
0.0
 40
0.1156291309254413
 40
0.2215410391198766
 40
0.3170478562190415
 40
0.4031508756396164
 40
0.4801812167162793
 40
0.5476493661481896
 40
0.6070358428421807
 40
0.6586524080635068
 40
0.7057228903536447
 40
0.7498040879796465
 40
0.7925868153452744
 40
0.8338739610102599
 40
0.8747683933034318
 40
0.9152226988916382
 40
0.9568807037304797
 40
1.0
 40
1.0
 40
1.0
 40
1.0
 10
229.783195748624
 20
104.9305520975033
 30
0.0
 10
229.7829462970467
 20
104.9692485081197
 30
0.0
 10
229.7824683572647
 20
105.043389366479
 30
0.0
 10
229.7770667619263
 20
105.1493822716775
 30
0.0
 10
229.7686019765837
 20
105.2452441784376
 30
0.0
 10
229.7570234949646
 20
105.3310634625482
 30
0.0
 10
229.7416356950397
 20
105.4067469554113
 30
0.0
 10
229.7229723928028
 20
105.4724557768962
 30
0.0
 10
229.7007322775872
 20
105.5280497922663
 30
0.0
 10
229.6742888599593
 20
105.5740874445006
 30
0.0
 10
229.6448520451796
 20
105.6118508088337
 30
0.0
 10
229.6141025015633
 20
105.6445382865187
 30
0.0
 10
229.5812714874197
 20
105.6723379213597
 30
0.0
 10
229.5457773359701
 20
105.6946391985217
 30
0.0
 10
229.5087640904719
 20
105.7126310394392
 30
0.0
 10
229.4693812806209
 20
105.7250134825261
 30
0.0
 10
229.428016008315
 20
105.7326208682499
 30
0.0
 10
229.3996275585913
 20
105.7335183764191
 30
0.0
 10
229.3851886703717
 20
105.7339748655989
 30
0.0
  0
SPLINE
  5
1A6
330
1F
100
AcDbEntity
  8
0
  6
Continuous
 62
     7
370
     0
100
AcDbSpline
210
0.0
220
0.0
230
1.0
 70
     8
 71
     3
 72
    23
 73
    19
 74
     0
 42
0.00000001
 43
0.00000001
 40
0.0
 40
0.0
 40
0.0
 40
0.0
 40
0.0407818458722593
 40
0.0808695887215865
 40
0.1202681657882668
 40
0.1601868504553523
 40
0.2004597376386395
 40
0.2422651778979076
 40
0.2864592615494688
 40
0.3329520837492632
 40
0.3844305340495304
 40
0.4433891253601054
 40
0.5116814722136832
 40
0.589020025549008
 40
0.6762451906507723
 40
0.7737051914728237
 40
0.881567767781983
 40
1.0
 40
1.0
 40
1.0
 40
1.0
 10
229.3880697971016
 20
104.1271293294077
 30
0.0
 10
229.4016754646784
 20
104.1276487574249
 30
0.0
 10
229.4286552327026
 20
104.1286787728452
 30
0.0
 10
229.4683719373305
 20
104.1355395425296
 30
0.0
 10
229.506210354706
 20
104.1483576412462
 30
0.0
 10
229.542511692946
 20
104.1651173597966
 30
0.0
 10
229.5770885281062
 20
104.1868252194545
 30
0.0
 10
229.609759018267
 20
104.2135680847662
 30
0.0
 10
229.6410448785424
 20
104.2448941195846
 30
0.0
 10
229.6710537582243
 20
104.2817636292348
 30
0.0
 10
229.6983758105733
 20
104.3266812261806
 30
0.0
 10
229.7210414257165
 20
104.3820369861456
 30
0.0
 10
229.7404708107981
 20
104.4475557725847
 30
0.0
 10
229.7562759928798
 20
104.5237095506341
 30
0.0
 10
229.7682297294936
 20
104.6103591236346
 30
0.0
 10
229.7771798557674
 20
104.7075870845181
 30
0.0
 10
229.7824456393397
 20
104.8155229995292
 30
0.0
 10
229.7829380458434
 20
104.891033431333
 30
0.0
 10
229.783195748624
 20
104.9305520975033
 30
0.0
  0
SPLINE
  5
1A7
330
1F
100
AcDbEntity
  8
0
  6
Continuous
 62
     7
370
     0
100
AcDbSpline
210
0.0
220
0.0
230
1.0
 70
     8
 71
     3
 72
    23
 73
    19
 74
     0
 42
0.00000001
 43
0.00000001
 40
0.0
 40
0.0
 40
0.0
 40
0.0
 40
0.1184055081537694
 40
0.2266543328167019
 40
0.324092341928602
 40
0.4117048030053217
 40
0.4890259050064155
 40
0.5569093973430755
 40
0.6162333444927066
 40
0.6673492812770748
 40
0.7135123932013473
 40
0.7576965045209773
 40
0.7994925114422908
 40
0.8399760647439393
 40
0.8798857418167766
 40
0.919148659385742
 40
0.9592273564930833
 40
1.0
 40
1.0
 40
1.0
 40
1.0
 10
228.9929438455791
 20
104.9305520975033
 30
0.0
 10
228.993205398012
 20
104.8910336096131
 30
0.0
 10
228.9937060672216
 20
104.815386482665
 30
0.0
 10
228.9989368451551
 20
104.7073115104717
 30
0.0
 10
229.007941414066
 20
104.6098131332419
 30
0.0
 10
229.0198460423154
 20
104.5230263438492
 30
0.0
 10
229.0355649715877
 20
104.446833745999
 30
0.0
 10
229.0553019464204
 20
104.3814295018867
 30
0.0
 10
229.0775502114305
 20
104.326028612309
 30
0.0
 10
229.1050820177894
 20
104.2813177286551
 30
0.0
 10
229.1352263048431
 20
104.2448718361228
 30
0.0
 10
229.1663482211125
 20
104.2135271898912
 30
0.0
 10
229.1991799577072
 20
104.1868849583066
 30
0.0
 10
229.2335072915137
 20
104.1646707704888
 30
0.0
 10
229.2698628358184
 20
104.1478516469575
 30
0.0
 10
229.3078490487876
 20
104.1356611087696
 30
0.0
 10
229.3474741958968
 20
104.1286456412157
 30
0.0
 10
229.3744607216562
 20
104.1276376505356
 30
0.0
 10
229.3880697971016
 20
104.1271293294077
 30
0.0
  0
SPLINE
  5
1A8
330
1F
100
AcDbEntity
  8
0
  6
Continuous
 62
     7
370
     0
100
AcDbSpline
210
0.0
220
0.0
230
1.0
 70
     8
 71
     3
 72
    15
 73
    11
 74
     0
 42
0.00000001
 43
0.00000001
 40
0.0
 40
0.0
 40
0.0
 40
0.0
 40
0.0838881132795455
 40
0.1771540327539698
 40
0.2825136355617228
 40
0.3993998606601629
 40
0.5294908061912204
 40
0.6728021776758327
 40
0.82953576161967
 40
1.0
 40
1.0
 40
1.0
 40
1.0
 10
229.1118932205687
 20
105.5932112453691
 30
0.0
 10
229.102102796244
 20
105.576842643928
 30
0.0
 10
229.0814274814267
 20
105.5422756040643
 30
0.0
 10
229.0582930063259
 20
105.4821966645749
 30
0.0
 10
229.0378569255681
 20
105.4135378724687
 30
0.0
 10
229.0210312556181
 20
105.3352428623617
 30
0.0
 10
229.0088590637865
 20
105.2474459416885
 30
0.0
 10
228.9992495889996
 20
105.150249069975
 30
0.0
 10
228.9942578245304
 20
105.0435165487598
 30
0.0
 10
228.9933939229285
 20
104.9692458229608
 30
0.0
 10
228.9929438455791
 20
104.9305520975033
 30
0.0
  0
SPLINE
  5
1A9
330
1F
100
AcDbEntity
  8
0
  6
Continuous
 62
     7
370
     0
100
AcDbSpline
210
0.0
220
0.0
230
1.0
 70
     8
 71
     3
 72
    15
 73
    11
 74
     0
 42
0.00000001
 43
0.00000001
 40
0.0
 40
0.0
 40
0.0
 40
0.0
 40
0.1276647678962228
 40
0.2517385630080477
 40
0.3727533493873867
 40
0.4921467589723859
 40
0.6140696213092441
 40
0.737197324412108
 40
0.8656069906011162
 40
1.0
 40
1.0
 40
1.0
 40
1.0
 10
229.3851886703717
 20
105.7339748655989
 30
0.0
 10
229.3715804496513
 20
105.7336177035205
 30
0.0
 10
229.3447467821823
 20
105.7329134256696
 30
0.0
 10
229.3054587787994
 20
105.7261911007148
 30
0.0
 10
229.2682259995365
 20
105.7149498750714
 30
0.0
 10
229.2326218770988
 20
105.6997225434408
 30
0.0
 10
229.1995352494121
 20
105.679229562742
 30
0.0
 10
229.1676539831046
 20
105.6553025490793
 30
0.0
 10
229.1384712733393
 20
105.6261501535359
 30
0.0
 10
229.1208860284738
 20
105.6043562783142
 30
0.0
 10
229.1118932205687
 20
105.5932112453691
 30
0.0
  0
SPLINE
  5
1AA
330
1F
100
AcDbEntity
  8
0
  6
Continuous
 62
     7
370
     0
100
AcDbSpline
210
0.0
220
0.0
230
1.0
 70
     8
 71
     3
 72
    15
 73
    11
 74
     0
 42
0.00000001
 43
0.00000001
 40
0.0
 40
0.0
 40
0.0
 40
0.0
 40
0.1323768784386572
 40
0.2551949197670689
 40
0.3737221416536693
 40
0.4900113154474169
 40
0.6078124214239345
 40
0.7311098159015433
 40
0.8599973777575841
 40
1.0
 40
1.0
 40
1.0
 40
1.0
 10
226.4233903920848
 20
108.2870647377798
 30
0.0
 10
226.4391246355138
 20
108.2925764444856
 30
0.0
 10
226.4694569642167
 20
108.3032018616064
 30
0.0
 10
226.5101051219404
 20
108.327333252105
 30
0.0
 10
226.5447255373219
 20
108.3562908029308
 30
0.0
 10
226.5732254352401
 20
108.3905858331783
 30
0.0
 10
226.5951261945966
 20
108.4300348101346
 30
0.0
 10
226.6113649754815
 20
108.4738196578257
 30
0.0
 10
226.6202560683269
 20
108.5225524478902
 30
0.0
 10
226.621526607069
 20
108.5563469255271
 30
0.0
 10
226.6221881364445
 20
108.5739426421664
 30
0.0
  0
SPLINE
  5
1AB
330
1F
100
AcDbEntity
  8
0
  6
Continuous
 62
     7
370
     0
100
AcDbSpline
210
0.0
220
0.0
230
1.0
 70
     8
 71
     3
 72
    15
 73
    11
 74
     0
 42
0.00000001
 43
0.00000001
 40
0.0
 40
0.0
 40
0.0
 40
0.0
 40
0.1669801744060282
 40
0.3208066328848138
 40
0.4631345048703168
 40
0.5942480539785199
 40
0.7123671525397434
 40
0.8194549510427512
 40
0.9157522665813538
 40
1.0
 40
1.0
 40
1.0
 40
1.0
 10
226.1764366723832
 20
108.2627809553425
 30
0.0
 10
226.1902954855065
 20
108.2628357860435
 30
0.0
 10
226.2169213959755
 20
108.2629411282053
 30
0.0
 10
226.2553286374712
 20
108.2644099122908
 30
0.0
 10
226.2907766803876
 20
108.2656629954143
 30
0.0
 10
226.323128406957
 20
108.2688081372279
 30
0.0
 10
226.3525440902471
 20
108.2718886639203
 30
0.0
 10
226.3789060122628
 20
108.2760355330447
 30
0.0
 10
226.4023432951466
 20
108.2807081139899
 30
0.0
 10
226.4166939474303
 20
108.2850422840646
 30
0.0
 10
226.4233903920848
 20
108.2870647377798
 30
0.0
  0
LINE
  5
1AC
330
1F
100
AcDbEntity
  8
0
  6
Continuous
 62
     7
370
     0
100
AcDbLine
 10
225.7529110431
 20
108.2627809553
 30
0.0
 11
226.1764366724
 21
108.2627809553
 31
0.0
  0
LINE
  5
1AD
330
1F
100
AcDbEntity
  8
0
  6
Continuous
 62
     7
370
     0
100
AcDbLine
 10
225.7529110431
 20
108.8949824778
 30
0.0
 11
225.7529110431
 21
108.2627809553
 31
0.0
  0
LINE
  5
1AE
330
1F
100
AcDbEntity
  8
0
  6
Continuous
 62
     7
370
     0
100
AcDbLine
 10
226.1443326888
 20
108.8949824778
 30
0.0
 11
225.7529110431
 21
108.8949824778
 31
0.0
  0
SPLINE
  5
1AF
330
1F
100
AcDbEntity
  8
0
  6
Continuous
 62
     7
370
     0
100
AcDbSpline
210
0.0
220
0.0
230
1.0
 70
     8
 71
     3
 72
    23
 73
    19
 74
     0
 42
0.00000001
 43
0.00000001
 40
0.0
 40
0.0
 40
0.0
 40
0.0
 40
0.076010519206233
 40
0.1481357362434483
 40
0.217788177833154
 40
0.2867678984972345
 40
0.3540434632439188
 40
0.4186108400234796
 40
0.4836364388553443
 40
0.5502295626461522
 40
0.5869278113138146
 40
0.6291578250269657
 40
0.6772382242876696
 40
0.7300426397437304
 40
0.7888625661169236
 40
0.8537504514610937
 40
0.9241097665384561
 40
0.9999999999999999
 40
0.9999999999999999
 40
0.9999999999999999
 40
0.9999999999999999
 10
226.6221881364445
 20
108.5739426421664
 30
0.0
 10
226.6216562220375
 20
108.5908532643291
 30
0.0
 10
226.6206195821998
 20
108.6238101167565
 30
0.0
 10
226.6119179176214
 20
108.6716691805364
 30
0.0
 10
226.596860008527
 20
108.7161932511106
 30
0.0
 10
226.576467476128
 20
108.7573725614865
 30
0.0
 10
226.5506451117478
 20
108.7940074725041
 30
0.0
 10
226.5198252191021
 20
108.8255049206089
 30
0.0
 10
226.4829051631281
 20
108.8493156046111
 30
0.0
 10
226.4483959697125
 20
108.8641687583557
 30
0.0
 10
226.4173576852081
 20
108.8734608074217
 30
0.0
 10
226.3896260680908
 20
108.8789585303658
 30
0.0
 10
226.3581701429758
 20
108.8838025710295
 30
0.0
 10
226.3228863970162
 20
108.8879208133321
 30
0.0
 10
226.2837614833732
 20
108.8911169487933
 30
0.0
 10
226.2406748513661
 20
108.8936560666096
 30
0.0
 10
226.1937290658755
 20
108.8947341143911
 30
0.0
 10
226.1612081109233
 20
108.8948976287015
 30
0.0
 10
226.1443326888221
 20
108.8949824777784
 30
0.0
  0
SPLINE
  5
1B0
330
1F
100
AcDbEntity
  8
0
  6
Continuous
 62
     7
370
     0
100
AcDbSpline
210
0.0
220
0.0
230
1.0
 70
     8
 71
     3
 72
    19
 73
    15
 74
     0
 42
0.00000001
 43
0.00000001
 40
0.0
 40
0.0
 40
0.0
 40
0.0
 40
0.0801399024652513
 40
0.1562809906190948
 40
0.229406049012902
 40
0.3017986969723052
 40
0.3727428627695777
 40
0.442667609902629
 40
0.5133209646126967
 40
0.586547692363208
 40
0.6683225082295051
 40
0.7636766255259053
 40
0.8740807567185483
 40
1.0
 40
1.0
 40
1.0
 40
1.0
 10
226.701213326749
 20
107.6700920280589
 30
0.0
 10
226.7006463765083
 20
107.6888005478315
 30
0.0
 10
226.6995407656638
 20
107.7252840711842
 30
0.0
 10
226.6890315554374
 20
107.77800461092
 30
0.0
 10
226.6716720599902
 20
107.8269035670164
 30
0.0
 10
226.6472349486781
 20
107.8713037380675
 30
0.0
 10
226.6172615560426
 20
107.9112378692207
 30
0.0
 10
226.5809967775511
 20
107.9451129056254
 30
0.0
 10
226.5387117786579
 20
107.9719944222913
 30
0.0
 10
226.4902766002676
 20
107.9930912103295
 30
0.0
 10
226.4336655788442
 20
108.0081012116694
 30
0.0
 10
226.3673157965326
 20
108.0182845883967
 30
0.0
 10
226.2901659677988
 20
108.0248556773053
 30
0.0
 10
226.2350348326089
 20
108.0254100175319
 30
0.0
 10
226.2056595292146
 20
108.0257053844291
 30
0.0
  0
SPLINE
  5
1B1
330
1F
100
AcDbEntity
  8
0
  6
Continuous
 62
     7
370
     0
100
AcDbSpline
210
0.0
220
0.0
230
1.0
 70
     8
 71
     3
 72
    19
 73
    15
 74
     0
 42
0.00000001
 43
0.00000001
 40
0.0
 40
0.0
 40
0.0
 40
0.0
 40
0.0889709576989538
 40
0.1722707767733128
 40
0.2503120304637083
 40
0.3246551996215513
 40
0.3978444501802943
 40
0.4733008807185318
 40
0.551825888744447
 40
0.6347494834982523
 40
0.7217660118923853
 40
0.8103926655611188
 40
0.903175236799419
 40
1.0
 40
1.0
 40
1.0
 40
1.0
 10
226.4147470118952
 20
107.3243568204767
 30
0.0
 10
226.4290889493545
 20
107.3273713504059
 30
0.0
 10
226.456858648259
 20
107.3332082597294
 30
0.0
 10
226.4960072607688
 20
107.3462356323975
 30
0.0
 10
226.5319015891747
 20
107.3611591821079
 30
0.0
 10
226.5639151522093
 20
107.3801253558606
 30
0.0
 10
226.5935589434979
 20
107.4019825718846
 30
0.0
 10
226.6193216043899
 20
107.4292832806905
 30
0.0
 10
226.643050237971
 20
107.460301508429
 30
0.0
 10
226.6636090098847
 20
107.4957983416915
 30
0.0
 10
226.6802337621927
 20
107.5350672968152
 30
0.0
 10
226.6929397759467
 20
107.5775016407759
 30
0.0
 10
226.699707924351
 20
107.6229525898037
 30
0.0
 10
226.7007044444278
 20
107.6541571346441
 30
0.0
 10
226.701213326749
 20
107.6700920280589
 30
0.0
  0
SPLINE
  5
1B2
330
1F
100
AcDbEntity
  8
0
  6
Continuous
 62
     7
370
     0
100
AcDbSpline
210
0.0
220
0.0
230
1.0
 70
     8
 71
     3
 72
    11
 73
     7
 74
     0
 42
0.00000001
 43
0.00000001
 40
0.0
 40
0.0
 40
0.0
 40
0.0
 40
0.3293954641291814
 40
0.6051903468527978
 40
0.8278865786947356
 40
1.0
 40
1.0
 40
1.0
 40
1.0
 10
226.2389982813743
 20
107.3144786716887
 30
0.0
 10
226.2583434321006
 20
107.3147009200864
 30
0.0
 10
226.2938858112553
 20
107.3151092517107
 30
0.0
 10
226.3425008419893
 20
107.3163902078889
 30
0.0
 10
226.38179681704
 20
107.3195191046639
 30
0.0
 10
226.4047435898706
 20
107.322888127708
 30
0.0
 10
226.4147470118952
 20
107.3243568204767
 30
0.0
  0
LINE
  5
1B3
330
1F
100
AcDbEntity
  8
0
  6
Continuous
 62
     7
370
     0
100
AcDbLine
 10
225.7529110431
 20
107.3144786717
 30
0.0
 11
226.2389982814
 21
107.3144786717
 31
0.0
  0
LINE
  5
1B4
330
1F
100
AcDbEntity
  8
0
  6
Continuous
 62
     7
370
     0
100
AcDbLine
 10
225.7529110431
 20
108.0257053844
 30
0.0
 11
225.7529110431
 21
107.3144786717
 31
0.0
  0
LINE
  5
1B5
330
1F
100
AcDbEntity
  8
0
  6
Continuous
 62
     7
370
     0
100
AcDbLine
 10
226.2056595292
 20
108.0257053844
 30
0.0
 11
225.7529110431
 21
108.0257053844
 31
0.0
  0
SPLINE
  5
1B6
330
1F
100
AcDbEntity
  8
0
  6
Continuous
 62
     7
370
     0
100
AcDbSpline
210
0.0
220
0.0
230
1.0
 70
     8
 71
     3
 72
    23
 73
    19
 74
     0
 42
0.00000001
 43
0.00000001
 40
0.0
 40
0.0
 40
0.0
 40
0.0
 40
0.1156291309254414
 40
0.2215410391198768
 40
0.3170478562190418
 40
0.4031508756396168
 40
0.4801812167162797
 40
0.5476493661481898
 40
0.6070358428421809
 40
0.6586524080635074
 40
0.705722890353646
 40
0.7498040879796471
 40
0.7925868153452743
 40
0.8338739610102607
 40
0.874768393303433
 40
0.9152226988916382
 40
0.9568807037304802
 40
1.0
 40
1.0
 40
1.0
 40
1.0
 10
225.3577850915727
 20
104.9305520975033
 30
0.0
 10
225.3575356399954
 20
104.9692485081197
 30
0.0
 10
225.3570577002134
 20
105.043389366479
 30
0.0
 10
225.351656104875
 20
105.1493822716775
 30
0.0
 10
225.3431913195325
 20
105.2452441784376
 30
0.0
 10
225.3316128379133
 20
105.3310634625482
 30
0.0
 10
225.3162250379884
 20
105.4067469554113
 30
0.0
 10
225.2975617357515
 20
105.4724557768962
 30
0.0
 10
225.2753216205358
 20
105.5280497922663
 30
0.0
 10
225.2488782029081
 20
105.5740874445006
 30
0.0
 10
225.2194413881283
 20
105.6118508088337
 30
0.0
 10
225.188691844512
 20
105.6445382865187
 30
0.0
 10
225.1558608303684
 20
105.6723379213597
 30
0.0
 10
225.1203666789189
 20
105.6946391985217
 30
0.0
 10
225.0833534334207
 20
105.7126310394392
 30
0.0
 10
225.0439706235696
 20
105.7250134825261
 30
0.0
 10
225.0026053512637
 20
105.7326208682499
 30
0.0
 10
224.97421690154
 20
105.7335183764191
 30
0.0
 10
224.9597780133204
 20
105.7339748655989
 30
0.0
  0
SPLINE
  5
1B7
330
1F
100
AcDbEntity
  8
0
  6
Continuous
 62
     7
370
     0
100
AcDbSpline
210
0.0
220
0.0
230
1.0
 70
     8
 71
     3
 72
    23
 73
    19
 74
     0
 42
0.00000001
 43
0.00000001
 40
0.0
 40
0.0
 40
0.0
 40
0.0
 40
0.0407818458722597
 40
0.0808695887215869
 40
0.1202681657882672
 40
0.1601868504553523
 40
0.2004597376386391
 40
0.2422651778979082
 40
0.2864592615494684
 40
0.3329520837492633
 40
0.3844305340495305
 40
0.4433891253601058
 40
0.5116814722136833
 40
0.5890200255490083
 40
0.6762451906507724
 40
0.7737051914728238
 40
0.881567767781983
 40
1.0
 40
1.0
 40
1.0
 40
1.0
 10
224.9626591400502
 20
104.1271293294077
 30
0.0
 10
224.9762648076272
 20
104.1276487574249
 30
0.0
 10
225.0032445756513
 20
104.1286787728452
 30
0.0
 10
225.0429612802792
 20
104.1355395425296
 30
0.0
 10
225.0807996976547
 20
104.1483576412462
 30
0.0
 10
225.1171010358946
 20
104.1651173597966
 30
0.0
 10
225.1516778710549
 20
104.1868252194545
 30
0.0
 10
225.1843483612157
 20
104.2135680847662
 30
0.0
 10
225.2156342214911
 20
104.2448941195846
 30
0.0
 10
225.245643101173
 20
104.2817636292348
 30
0.0
 10
225.2729651535221
 20
104.3266812261806
 30
0.0
 10
225.2956307686653
 20
104.3820369861456
 30
0.0
 10
225.3150601537468
 20
104.4475557725847
 30
0.0
 10
225.3308653358285
 20
104.5237095506341
 30
0.0
 10
225.3428190724424
 20
104.6103591236346
 30
0.0
 10
225.3517691987161
 20
104.7075870845181
 30
0.0
 10
225.3570349822884
 20
104.8155229995292
 30
0.0
 10
225.3575273887921
 20
104.891033431333
 30
0.0
 10
225.3577850915727
 20
104.9305520975033
 30
0.0
  0
SPLINE
  5
1B8
330
1F
100
AcDbEntity
  8
0
  6
Continuous
 62
     7
370
     0
100
AcDbSpline
210
0.0
220
0.0
230
1.0
 70
     8
 71
     3
 72
    23
 73
    19
 74
     0
 42
0.00000001
 43
0.00000001
 40
0.0
 40
0.0
 40
0.0
 40
0.0
 40
0.1184055081537694
 40
0.2266543328167019
 40
0.3240923419286019
 40
0.4117048030053216
 40
0.4890259050064157
 40
0.5569093973430758
 40
0.6162333444927067
 40
0.6673492812770749
 40
0.7135123932013474
 40
0.757696504520978
 40
0.7994925114422909
 40
0.8399760647439395
 40
0.879885741816776
 40
0.9191486593857414
 40
0.959227356493083
 40
1.0
 40
1.0
 40
1.0
 40
1.0
 10
224.5675331885278
 20
104.9305520975033
 30
0.0
 10
224.5677947409607
 20
104.8910336096131
 30
0.0
 10
224.5682954101704
 20
104.815386482665
 30
0.0
 10
224.5735261881038
 20
104.7073115104717
 30
0.0
 10
224.5825307570148
 20
104.6098131332419
 30
0.0
 10
224.5944353852642
 20
104.5230263438492
 30
0.0
 10
224.6101543145365
 20
104.446833745999
 30
0.0
 10
224.6298912893691
 20
104.3814295018867
 30
0.0
 10
224.6521395543793
 20
104.326028612309
 30
0.0
 10
224.6796713607381
 20
104.2813177286551
 30
0.0
 10
224.7098156477918
 20
104.2448718361228
 30
0.0
 10
224.7409375640613
 20
104.2135271898912
 30
0.0
 10
224.7737693006559
 20
104.1868849583066
 30
0.0
 10
224.8080966344624
 20
104.1646707704888
 30
0.0
 10
224.8444521787671
 20
104.1478516469575
 30
0.0
 10
224.8824383917363
 20
104.1356611087696
 30
0.0
 10
224.9220635388454
 20
104.1286456412157
 30
0.0
 10
224.9490500646048
 20
104.1276376505356
 30
0.0
 10
224.9626591400502
 20
104.1271293294077
 30
0.0
  0
SPLINE
  5
1B9
330
1F
100
AcDbEntity
  8
0
  6
Continuous
 62
     7
370
     0
100
AcDbSpline
210
0.0
220
0.0
230
1.0
 70
     8
 71
     3
 72
    15
 73
    11
 74
     0
 42
0.00000001
 43
0.00000001
 40
0.0
 40
0.0
 40
0.0
 40
0.0
 40
0.0838881132795455
 40
0.1771540327539696
 40
0.2825136355617228
 40
0.3993998606601629
 40
0.5294908061912204
 40
0.6728021776758328
 40
0.8295357616196702
 40
1.0
 40
1.0
 40
1.0
 40
1.0
 10
224.6864825635174
 20
105.5932112453691
 30
0.0
 10
224.6766921391927
 20
105.576842643928
 30
0.0
 10
224.6560168243754
 20
105.5422756040643
 30
0.0
 10
224.6328823492746
 20
105.4821966645749
 30
0.0
 10
224.6124462685168
 20
105.4135378724687
 30
0.0
 10
224.5956205985668
 20
105.3352428623617
 30
0.0
 10
224.5834484067352
 20
105.2474459416885
 30
0.0
 10
224.5738389319483
 20
105.150249069975
 30
0.0
 10
224.5688471674791
 20
105.0435165487598
 30
0.0
 10
224.5679832658772
 20
104.9692458229608
 30
0.0
 10
224.5675331885278
 20
104.9305520975033
 30
0.0
  0
SPLINE
  5
1BA
330
1F
100
AcDbEntity
  8
0
  6
Continuous
 62
     7
370
     0
100
AcDbSpline
210
0.0
220
0.0
230
1.0
 70
     8
 71
     3
 72
    15
 73
    11
 74
     0
 42
0.00000001
 43
0.00000001
 40
0.0
 40
0.0
 40
0.0
 40
0.0
 40
0.1276647678962251
 40
0.2517385630080496
 40
0.3727533493873896
 40
0.492146758972386
 40
0.614069621309245
 40
0.7371973244121095
 40
0.8656069906011175
 40
1.0
 40
1.0
 40
1.0
 40
1.0
 10
224.9597780133204
 20
105.7339748655989
 30
0.0
 10
224.9461697926001
 20
105.7336177035205
 30
0.0
 10
224.9193361251311
 20
105.7329134256696
 30
0.0
 10
224.8800481217481
 20
105.7261911007148
 30
0.0
 10
224.8428153424852
 20
105.7149498750714
 30
0.0
 10
224.8072112200475
 20
105.6997225434408
 30
0.0
 10
224.7741245923608
 20
105.679229562742
 30
0.0
 10
224.7422433260534
 20
105.6553025490793
 30
0.0
 10
224.7130606162881
 20
105.6261501535359
 30
0.0
 10
224.6954753714225
 20
105.6043562783142
 30
0.0
 10
224.6864825635174
 20
105.5932112453691
 30
0.0
  0
SPLINE
  5
1BB
330
1F
100
AcDbEntity
  8
0
  6
Continuous
 62
     7
370
     0
100
AcDbSpline
210
0.0
220
0.0
230
1.0
 70
     8
 71
     3
 72
    15
 73
    11
 74
     0
 42
0.00000001
 43
0.00000001
 40
0.0
 40
0.0
 40
0.0
 40
0.0
 40
0.1531481085926319
 40
0.2994334688329067
 40
0.4364263514567512
 40
0.5656705729563586
 40
0.6865083102878727
 40
0.7992685160630042
 40
0.9033947408013441
 40
1.0
 40
1.0
 40
1.0
 40
1.0
 10
224.4156566509114
 20
108.4866856612052
 30
0.0
 10
224.4080038974112
 20
108.5075507365463
 30
0.0
 10
224.39304131937
 20
108.5483458984603
 30
0.0
 10
224.3707276076735
 20
108.607617824904
 30
0.0
 10
224.350342160239
 20
108.6639048790305
 30
0.0
 10
224.3303525550201
 20
108.7163999851072
 30
0.0
 10
224.312307581342
 20
108.7658656873138
 30
0.0
 10
224.2956750665724
 20
108.811967867237
 30
0.0
 10
224.2792256498057
 20
108.8543860926584
 30
0.0
 10
224.2693541234089
 20
108.8817926369747
 30
0.0
 10
224.2646032923606
 20
108.8949824777784
 30
0.0
  0
LINE
  5
1BC
330
1F
100
AcDbEntity
  8
0
  6
Continuous
 62
     7
370
     0
100
AcDbLine
 10
224.6152775743
 20
107.9466801941
 30
0.0
 11
224.4156566509
 21
108.4866856612
 31
0.0
  0
LINE
  5
1BD
330
1F
100
AcDbEntity
  8
0
  6
Continuous
 62
     7
370
     0
100
AcDbLine
 10
223.9139290104
 20
107.9466801941
 30
0.0
 11
224.6152775743
 21
107.9466801941
 31
0.0
  0
LINE
  5
1BE
330
1F
100
AcDbEntity
  8
0
  6
Continuous
 62
     7
370
     0
100
AcDbLine
 10
224.1242512617
 20
108.5154969285
 30
0.0
 11
223.9139290104
 21
107.9466801941
 31
0.0
  0
SPLINE
  5
1BF
330
1F
100
AcDbEntity
  8
0
  6
Continuous
 62
     7
370
     0
100
AcDbSpline
210
0.0
220
0.0
230
1.0
 70
     8
 71
     3
 72
    11
 73
     7
 74
     0
 42
0.00000001
 43
0.00000001
 40
0.0
 40
0.0
 40
0.0
 40
0.0
 40
0.247294050035337
 40
0.4956077709090489
 40
0.746359172773196
 40
1.0
 40
1.0
 40
1.0
 40
1.0
 10
224.2646032923606
 20
108.8949824777784
 30
0.0
 10
224.2567445008125
 20
108.8624574919026
 30
0.0
 10
224.2409945134567
 20
108.7972734094451
 30
0.0
 10
224.2080178745922
 20
108.7017699840756
 30
0.0
 10
224.1702937450558
 20
108.6071399806381
 30
0.0
 10
224.1396572567951
 20
108.5461610523954
 30
0.0
 10
224.1242512616636
 20
108.5154969285038
 30
0.0
  0
SPLINE
  5
1C0
330
1F
100
AcDbEntity
  8
0
  6
Continuous
 62
     7
370
     0
100
AcDbSpline
210
0.0
220
0.0
230
1.0
 70
     8
 71
     3
 72
    23
 73
    19
 74
     0
 42
0.00000001
 43
0.00000001
 40
0.0
 40
0.0
 40
0.0
 40
0.0
 40
0.1156291309254413
 40
0.2215410391198767
 40
0.3170478562190416
 40
0.4031508756396165
 40
0.4801812167162793
 40
0.5476493661481897
 40
0.6070358428421808
 40
0.6586524080635069
 40
0.7057228903536454
 40
0.7498040879796471
 40
0.7925868153452743
 40
0.8338739610102602
 40
0.8747683933034326
 40
0.9152226988916381
 40
0.9568807037304797
 40
1.0
 40
1.0
 40
1.0
 40
1.0
 10
223.777281285483
 20
104.9305520975033
 30
0.0
 10
223.7770318339057
 20
104.9692485081197
 30
0.0
 10
223.7765538941237
 20
105.043389366479
 30
0.0
 10
223.7711522987853
 20
105.1493822716775
 30
0.0
 10
223.7626875134427
 20
105.2452441784376
 30
0.0
 10
223.7511090318236
 20
105.3310634625482
 30
0.0
 10
223.7357212318987
 20
105.4067469554113
 30
0.0
 10
223.7170579296618
 20
105.4724557768962
 30
0.0
 10
223.6948178144461
 20
105.5280497922663
 30
0.0
 10
223.6683743968183
 20
105.5740874445006
 30
0.0
 10
223.6389375820386
 20
105.6118508088337
 30
0.0
 10
223.6081880384223
 20
105.6445382865187
 30
0.0
 10
223.5753570242786
 20
105.6723379213597
 30
0.0
 10
223.5398628728291
 20
105.6946391985217
 30
0.0
 10
223.5028496273309
 20
105.7126310394392
 30
0.0
 10
223.4634668174799
 20
105.7250134825261
 30
0.0
 10
223.422101545174
 20
105.7326208682499
 30
0.0
 10
223.3937130954503
 20
105.7335183764191
 30
0.0
 10
223.3792742072307
 20
105.7339748655989
 30
0.0
  0
SPLINE
  5
1C1
330
1F
100
AcDbEntity
  8
0
  6
Continuous
 62
     7
370
     0
100
AcDbSpline
210
0.0
220
0.0
230
1.0
 70
     8
 71
     3
 72
    23
 73
    19
 74
     0
 42
0.00000001
 43
0.00000001
 40
0.0
 40
0.0
 40
0.0
 40
0.0
 40
0.0407818458722601
 40
0.0808695887215869
 40
0.1202681657882672
 40
0.1601868504553522
 40
0.2004597376386394
 40
0.2422651778979082
 40
0.2864592615494687
 40
0.3329520837492634
 40
0.3844305340495304
 40
0.4433891253601058
 40
0.5116814722136832
 40
0.5890200255490082
 40
0.6762451906507722
 40
0.7737051914728236
 40
0.8815677677819829
 40
1.0
 40
1.0
 40
1.0
 40
1.0
 10
223.3821553339605
 20
104.1271293294077
 30
0.0
 10
223.3957610015374
 20
104.1276487574249
 30
0.0
 10
223.4227407695616
 20
104.1286787728452
 30
0.0
 10
223.4624574741895
 20
104.1355395425296
 30
0.0
 10
223.5002958915649
 20
104.1483576412462
 30
0.0
 10
223.5365972298049
 20
104.1651173597966
 30
0.0
 10
223.5711740649652
 20
104.1868252194545
 30
0.0
 10
223.603844555126
 20
104.2135680847662
 30
0.0
 10
223.6351304154013
 20
104.2448941195846
 30
0.0
 10
223.6651392950833
 20
104.2817636292348
 30
0.0
 10
223.6924613474323
 20
104.3266812261806
 30
0.0
 10
223.7151269625755
 20
104.3820369861456
 30
0.0
 10
223.7345563476571
 20
104.4475557725847
 30
0.0
 10
223.7503615297387
 20
104.5237095506341
 30
0.0
 10
223.7623152663526
 20
104.6103591236346
 30
0.0
 10
223.7712653926264
 20
104.7075870845181
 30
0.0
 10
223.7765311761987
 20
104.8155229995292
 30
0.0
 10
223.7770235827024
 20
104.891033431333
 30
0.0
 10
223.777281285483
 20
104.9305520975033
 30
0.0
  0
SPLINE
  5
1C2
330
1F
100
AcDbEntity
  8
0
  6
Continuous
 62
     7
370
     0
100
AcDbSpline
210
0.0
220
0.0
230
1.0
 70
     8
 71
     3
 72
    23
 73
    19
 74
     0
 42
0.00000001
 43
0.00000001
 40
0.0
 40
0.0
 40
0.0
 40
0.0
 40
0.1184055081537694
 40
0.2266543328167019
 40
0.324092341928602
 40
0.4117048030053217
 40
0.4890259050064157
 40
0.5569093973430758
 40
0.6162333444927066
 40
0.667349281277075
 40
0.7135123932013474
 40
0.7576965045209779
 40
0.7994925114422909
 40
0.8399760647439393
 40
0.879885741816776
 40
0.9191486593857419
 40
0.959227356493083
 40
1.0
 40
1.0
 40
1.0
 40
1.0
 10
222.9870293824381
 20
104.9305520975033
 30
0.0
 10
222.987290934871
 20
104.8910336096131
 30
0.0
 10
222.9877916040806
 20
104.815386482665
 30
0.0
 10
222.9930223820141
 20
104.7073115104717
 30
0.0
 10
223.002026950925
 20
104.6098131332419
 30
0.0
 10
223.0139315791744
 20
104.5230263438492
 30
0.0
 10
223.0296505084467
 20
104.446833745999
 30
0.0
 10
223.0493874832794
 20
104.3814295018867
 30
0.0
 10
223.0716357482895
 20
104.326028612309
 30
0.0
 10
223.0991675546483
 20
104.2813177286551
 30
0.0
 10
223.1293118417021
 20
104.2448718361228
 30
0.0
 10
223.1604337579715
 20
104.2135271898912
 30
0.0
 10
223.1932654945662
 20
104.1868849583066
 30
0.0
 10
223.2275928283727
 20
104.1646707704888
 30
0.0
 10
223.2639483726774
 20
104.1478516469575
 30
0.0
 10
223.3019345856466
 20
104.1356611087696
 30
0.0
 10
223.3415597327557
 20
104.1286456412157
 30
0.0
 10
223.3685462585152
 20
104.1276376505356
 30
0.0
 10
223.3821553339605
 20
104.1271293294077
 30
0.0
  0
SPLINE
  5
1C3
330
1F
100
AcDbEntity
  8
0
  6
Continuous
 62
     7
370
     0
100
AcDbSpline
210
0.0
220
0.0
230
1.0
 70
     8
 71
     3
 72
    15
 73
    11
 74
     0
 42
0.00000001
 43
0.00000001
 40
0.0
 40
0.0
 40
0.0
 40
0.0
 40
0.0838881132795455
 40
0.1771540327539697
 40
0.2825136355617227
 40
0.3993998606601629
 40
0.5294908061912204
 40
0.6728021776758328
 40
0.82953576161967
 40
1.0
 40
1.0
 40
1.0
 40
1.0
 10
223.1059787574277
 20
105.5932112453691
 30
0.0
 10
223.096188333103
 20
105.576842643928
 30
0.0
 10
223.0755130182856
 20
105.5422756040643
 30
0.0
 10
223.0523785431849
 20
105.4821966645749
 30
0.0
 10
223.0319424624271
 20
105.4135378724687
 30
0.0
 10
223.0151167924771
 20
105.3352428623617
 30
0.0
 10
223.0029446006455
 20
105.2474459416885
 30
0.0
 10
222.9933351258585
 20
105.150249069975
 30
0.0
 10
222.9883433613894
 20
105.0435165487598
 30
0.0
 10
222.9874794597875
 20
104.9692458229608
 30
0.0
 10
222.9870293824381
 20
104.9305520975033
 30
0.0
  0
SPLINE
  5
1C4
330
1F
100
AcDbEntity
  8
0
  6
Continuous
 62
     7
370
     0
100
AcDbSpline
210
0.0
220
0.0
230
1.0
 70
     8
 71
     3
 72
    15
 73
    11
 74
     0
 42
0.00000001
 43
0.00000001
 40
0.0
 40
0.0
 40
0.0
 40
0.0
 40
0.1276647678962239
 40
0.2517385630080486
 40
0.3727533493873887
 40
0.4921467589723853
 40
0.6140696213092445
 40
0.7371973244121091
 40
0.8656069906011172
 40
1.0
 40
1.0
 40
1.0
 40
1.0
 10
223.3792742072307
 20
105.7339748655989
 30
0.0
 10
223.3656659865103
 20
105.7336177035205
 30
0.0
 10
223.3388323190413
 20
105.7329134256696
 30
0.0
 10
223.2995443156584
 20
105.7261911007148
 30
0.0
 10
223.2623115363955
 20
105.7149498750714
 30
0.0
 10
223.2267074139577
 20
105.6997225434408
 30
0.0
 10
223.1936207862711
 20
105.679229562742
 30
0.0
 10
223.1617395199636
 20
105.6553025490793
 30
0.0
 10
223.1325568101983
 20
105.6261501535359
 30
0.0
 10
223.1149715653328
 20
105.6043562783142
 30
0.0
 10
223.1059787574277
 20
105.5932112453691
 30
0.0
  0
SPLINE
  5
1C5
330
1F
100
AcDbEntity
  8
0
  6
Continuous
 62
     7
370
     0
100
AcDbSpline
210
0.0
220
0.0
230
1.0
 70
     8
 71
     3
 72
    23
 73
    19
 74
     0
 42
0.00000001
 43
0.00000001
 40
0.0
 40
0.0
 40
0.0
 40
0.0
 40
0.0603255293380428
 40
0.1181599905079977
 40
0.1741866762963808
 40
0.2295388181457999
 40
0.2834498146386372
 40
0.337826511950592
 40
0.3926321025334832
 40
0.4484655764151909
 40
0.5059654091573053
 40
0.5650585322290048
 40
0.6266544786228438
 40
0.6922320330373639
 40
0.7611310781257618
 40
0.8353098773394203
 40
0.9153255598322017
 40
1.0
 40
1.0
 40
1.0
 40
1.0
 10
221.2221334656379
 20
108.5718846945023
 30
0.0
 10
221.221751038027
 20
108.5834177719024
 30
0.0
 10
221.2210019746807
 20
108.6060076825269
 30
0.0
 10
221.2170751368802
 20
108.63916339949
 30
0.0
 10
221.2094404318853
 20
108.6706689942637
 30
0.0
 10
221.1993588226745
 20
108.7006910089634
 30
0.0
 10
221.1858877469652
 20
108.7290095537944
 30
0.0
 10
221.1698846585888
 20
108.7558440661728
 30
0.0
 10
221.1507880338129
 20
108.7810458183971
 30
0.0
 10
221.1289139489396
 20
108.8046915788671
 30
0.0
 10
221.1037985243675
 20
108.8262069100643
 30
0.0
 10
221.0751108050042
 20
108.8447699743289
 30
0.0
 10
221.043077049207
 20
108.8605445742979
 30
0.0
 10
221.0076600229472
 20
108.8730643513474
 30
0.0
 10
220.9689712963288
 20
108.8830781350175
 30
0.0
 10
220.9267906229546
 20
108.8897399823097
 30
0.0
 10
220.8813109040516
 20
108.8945604728061
 30
0.0
 10
220.849796096294
 20
108.8948391814159
 30
0.0
 10
220.8335929466408
 20
108.8949824777784
 30
0.0
  0
SPLINE
  5
1C6
330
1F
100
AcDbEntity
  8
0
  6
Continuous
 62
     7
370
     0
100
AcDbSpline
210
0.0
220
0.0
230
1.0
 70
     8
 71
     3
 72
    19
 73
    15
 74
     0
 42
0.00000001
 43
0.00000001
 40
0.0
 40
0.0
 40
0.0
 40
0.0
 40
0.1288602680417313
 40
0.2408921848092289
 40
0.3380442015575112
 40
0.4201204852136088
 40
0.494058456868551
 40
0.5660947835833202
 40
0.6368049543510104
 40
0.7091484493607203
 40
0.7819418055941268
 40
0.8542853006038366
 40
0.9261704072165587
 40
1.0
 40
1.0
 40
1.0
 40
1.0
 10
220.7714429271826
 20
108.236439225241
 30
0.0
 10
220.7990368132304
 20
108.2368709577578
 30
0.0
 10
220.8506209950613
 20
108.2376780412041
 30
0.0
 10
220.9227533127709
 20
108.2445696855276
 30
0.0
 10
220.9842260969107
 20
108.2555208010194
 30
0.0
 10
221.036254576666
 20
108.2714942855177
 30
0.0
 10
221.0799667121676
 20
108.2936707864201
 30
0.0
 10
221.1179839869448
 20
108.3206969967808
 30
0.0
 10
221.1495768208389
 20
108.3545501387275
 30
0.0
 10
221.1758587951218
 20
108.3927462018922
 30
0.0
 10
221.1962883128909
 20
108.4347790627849
 30
0.0
 10
221.2110251926149
 20
108.4789284205446
 30
0.0
 10
221.2206707367083
 20
108.5248232283837
 30
0.0
 10
221.2216415709038
 20
108.5560585992536
 30
0.0
 10
221.2221334656379
 20
108.5718846945023
 30
0.0
  0
LINE
  5
1C7
330
1F
100
AcDbEntity
  8
0
  6
Continuous
 62
     7
370
     0
100
AcDbLine
 10
220.2211477218
 20
108.2364392252
 30
0.0
 11
220.7714429272
 21
108.2364392252
 31
0.0
  0
LINE
  5
1C8
330
1F
100
AcDbEntity
  8
0
  6
Continuous
 62
     7
370
     0
100
AcDbLine
 10
220.2211477218
 20
108.8949824778
 30
0.0
 11
220.2211477218
 21
108.2364392252
 31
0.0
  0
LINE
  5
1C9
330
1F
100
AcDbEntity
  8
0
  6
Continuous
 62
     7
370
     0
100
AcDbLine
 10
220.8335929466
 20
108.8949824778
 30
0.0
 11
220.2211477218
 21
108.8949824778
 31
0.0
  0
SPLINE
  5
1CA
330
1F
100
AcDbEntity
  8
0
  6
Continuous
 62
     7
370
     0
100
AcDbSpline
210
0.0
220
0.0
230
1.0
 70
     8
 71
     3
 72
    23
 73
    19
 74
     0
 42
0.00000001
 43
0.00000001
 40
0.0
 40
0.0
 40
0.0
 40
0.0
 40
0.0718367171319505
 40
0.1395582629178172
 40
0.2049233526537264
 40
0.2678265586039221
 40
0.3285473200936659
 40
0.3887551463289839
 40
0.4480299679797879
 40
0.5086005276974233
 40
0.5693212891871666
 40
0.6285118954019238
 40
0.687493275539241
 40
0.747078295388978
 40
0.8077025413165653
 40
0.8697098126206608
 40
0.933428331305089
 40
1.0
 40
1.0
 40
1.0
 40
1.0
 10
219.2749033857914
 20
104.1271293294077
 30
0.0
 10
219.2898764992761
 20
104.1273829629935
 30
0.0
 10
219.3189649903965
 20
104.1278757007475
 30
0.0
 10
219.3613669028404
 20
104.1335062866263
 30
0.0
 10
219.4013190907887
 20
104.1420497273082
 30
0.0
 10
219.4390045932272
 20
104.1537641848478
 30
0.0
 10
219.4738687215164
 20
104.1697903381985
 30
0.0
 10
219.5064792237935
 20
104.1885214303129
 30
0.0
 10
219.5365025365265
 20
104.2111593889712
 30
0.0
 10
219.563930160314
 20
104.236995014054
 30
0.0
 10
219.5884827458439
 20
104.2655740572705
 30
0.0
 10
219.6095151401715
 20
104.2964046004327
 30
0.0
 10
219.6278619461678
 20
104.3286196099263
 30
0.0
 10
219.642841274488
 20
104.36291433535
 30
0.0
 10
219.6536737431371
 20
104.3993594954071
 30
0.0
 10
219.6620325226895
 20
104.4372975404426
 30
0.0
 10
219.6670751271
 20
104.4771197806224
 30
0.0
 10
219.6676683055748
 20
104.5042680160681
 30
0.0
 10
219.6679713896496
 20
104.5181393856018
 30
0.0
  0
SPLINE
  5
1CB
330
1F
100
AcDbEntity
  8
0
  6
Continuous
 62
     7
370
     0
100
AcDbSpline
210
0.0
220
0.0
230
1.0
 70
     8
 71
     3
 72
    19
 73
    15
 74
     0
 42
0.00000001
 43
0.00000001
 40
0.0
 40
0.0
 40
0.0
 40
0.0
 40
0.079823271279787
 40
0.1598568116661127
 40
0.2397327021152788
 40
0.3213646023254474
 40
0.4025836963489389
 40
0.483265588546352
 40
0.5660170116609762
 40
0.6530713596602558
 40
0.7418556865073695
 40
0.8285909050739395
 40
0.9142807452008549
 40
1.0
 40
1.0
 40
1.0
 40
1.0
 10
218.8777194866047
 20
104.5263711762585
 30
0.0
 10
218.8781749945447
 20
104.5094688796322
 30
0.0
 10
218.8790872103158
 20
104.4756197626368
 30
0.0
 10
218.8870893060277
 20
104.4253466509382
 30
0.0
 10
218.9006672049432
 20
104.3760097164685
 30
0.0
 10
218.9180696461112
 20
104.3275623571039
 30
0.0
 10
218.9426168715419
 20
104.2819599930343
 30
0.0
 10
218.9751692532191
 20
104.2412565278581
 30
0.0
 10
219.0160163951891
 20
104.2070355085081
 30
0.0
 10
219.0626660648774
 20
104.1781242926435
 30
0.0
 10
219.1135728484982
 20
104.1553686792685
 30
0.0
 10
219.1666192055687
 20
104.1394844879127
 30
0.0
 10
219.2204360370701
 20
104.1289890071262
 30
0.0
 10
219.25674552592
 20
104.1277492928943
 30
0.0
 10
219.2749033857914
 20
104.1271293294077
 30
0.0
  0
SPLINE
  5
1CC
330
1F
100
AcDbEntity
  8
0
  6
Continuous
 62
     7
370
     0
100
AcDbSpline
210
0.0
220
0.0
230
1.0
 70
     8
 71
     3
 72
    23
 73
    19
 74
     0
 42
0.00000001
 43
0.00000001
 40
0.0
 40
0.0
 40
0.0
 40
0.0
 40
0.0709524654154269
 40
0.1390889271416602
 40
0.2035598239190671
 40
0.2664237811295191
 40
0.3275165661984789
 40
0.3878608717608968
 40
0.4478987850107178
 40
0.5088188285885856
 40
0.5694824568188307
 40
0.6290357116670982
 40
0.6883784585529115
 40
0.7480679615575835
 40
0.8086301697509072
 40
0.8702311456070247
 40
0.933682580472202
 40
1.0
 40
1.0
 40
1.0
 40
1.0
 10
219.2670831846675
 20
104.9173812324526
 30
0.0
 10
219.2523847154486
 20
104.9171156410001
 30
0.0
 10
219.223571138608
 20
104.9165949990468
 30
0.0
 10
219.1817129761001
 20
104.911054920861
 30
0.0
 10
219.1420861563715
 20
104.9025471982104
 30
0.0
 10
219.1050393178664
 20
104.8900950135786
 30
0.0
 10
219.0701092605185
 20
104.8745347433989
 30
0.0
 10
219.0379348432862
 20
104.8549688171337
 30
0.0
 10
219.0079420768336
 20
104.832258359635
 30
0.0
 10
218.98104713283
 20
104.8058617726239
 30
0.0
 10
218.9567809235788
 20
104.7771879024491
 30
0.0
 10
218.9358001869161
 20
104.7464496017276
 30
0.0
 10
218.9172658324873
 20
104.7143599069797
 30
0.0
 10
218.9032005023992
 20
104.6798658382993
 30
0.0
 10
218.891295459636
 20
104.6440825259107
 30
0.0
 10
218.8838529248054
 20
104.606315454465
 30
0.0
 10
218.8785622125524
 20
104.5669937240883
 30
0.0
 10
218.8780045009971
 20
104.5401099377376
 30
0.0
 10
218.8777194866047
 20
104.5263711762585
 30
0.0
  0
SPLINE
  5
1CD
330
1F
100
AcDbEntity
  8
0
  6
Continuous
 62
     7
370
     0
100
AcDbSpline
210
0.0
220
0.0
230
1.0
 70
     8
 71
     3
 72
    23
 73
    19
 74
     0
 42
0.00000001
 43
0.00000001
 40
0.0
 40
0.0
 40
0.0
 40
0.0
 40
0.0666161804351809
 40
0.130423869924064
 40
0.1926709575700171
 40
0.2529685047960665
 40
0.312880382805784
 40
0.3722002559180861
 40
0.4319271071459047
 40
0.4924217452545999
 40
0.5527712209075776
 40
0.6132624068156192
 40
0.6735564905563718
 40
0.7343197960333021
 40
0.7968580801403251
 40
0.8617690047507051
 40
0.9288631073150267
 40
0.9999999999999999
 40
0.9999999999999999
 40
0.9999999999999999
 40
0.9999999999999999
 10
219.6679713896496
 20
104.5181393856018
 30
0.0
 10
219.6676586530025
 20
104.532283033793
 30
0.0
 10
219.6670463644637
 20
104.5599740439935
 30
0.0
 10
219.6621319089892
 20
104.6006702999881
 30
0.0
 10
219.6533044227355
 20
104.6392758085189
 30
0.0
 10
219.6419522386624
 20
104.6763737864177
 30
0.0
 10
219.6265667832511
 20
104.7113188350749
 30
0.0
 10
219.6080986981061
 20
104.7446120247521
 30
0.0
 10
219.5854827967985
 20
104.7753758209473
 30
0.0
 10
219.5606826569469
 20
104.8046546594361
 30
0.0
 10
219.5326172034525
 20
104.8311587760397
 30
0.0
 10
219.5016241584142
 20
104.8540142771882
 30
0.0
 10
219.46868576169
 20
104.8741995554817
 30
0.0
 10
219.4328055969058
 20
104.8896833680589
 30
0.0
 10
219.3947741527157
 20
104.9020862550015
 30
0.0
 10
219.3544107482
 20
104.9110983811528
 30
0.0
 10
219.3115508098368
 20
104.916607254177
 30
0.0
 10
219.2821919423229
 20
104.9171182579818
 30
0.0
 10
219.2670831846675
 20
104.9173812324526
 30
0.0
  0
SPLINE
  5
1CE
330
1F
100
AcDbEntity
  8
0
  6
Continuous
 62
     7
370
     0
100
AcDbSpline
210
0.0
220
0.0
230
1.0
 70
     8
 71
     3
 72
    19
 73
    15
 74
     0
 42
0.00000001
 43
0.00000001
 40
0.0
 40
0.0
 40
0.0
 40
0.0
 40
0.0768426979287827
 40
0.1498390532852208
 40
0.2183793964454711
 40
0.2849970207005652
 40
0.3476576708142682
 40
0.4098471591145119
 40
0.4699357615076958
 40
0.5304196066566044
 40
0.6487517360264009
 40
0.7637748930771634
 40
0.8787494877784697
 40
0.9999999999999999
 40
0.9999999999999999
 40
0.9999999999999999
 40
0.9999999999999999
 10
219.2753149753242
 20
105.154456803366
 30
0.0
 10
219.287541061449
 20
105.1546312210034
 30
0.0
 10
219.3113812599286
 20
105.1549713258457
 30
0.0
 10
219.3458673062915
 20
105.1594099053519
 30
0.0
 10
219.3784564999257
 20
105.1653380460413
 30
0.0
 10
219.4086672681652
 20
105.1743212321139
 30
0.0
 10
219.4368483927847
 20
105.1860019939006
 30
0.0
 10
219.4625415200109
 20
105.200401489822
 30
0.0
 10
219.4865155116826
 20
105.2169506428283
 30
0.0
 10
219.5145444509124
 20
105.2426933305878
 30
0.0
 10
219.5446226046002
 20
105.2788754241511
 30
0.0
 10
219.5704010104515
 20
105.3282707656637
 30
0.0
 10
219.5864650157073
 20
105.3823122025338
 30
0.0
 10
219.5881046180711
 20
105.419955213633
 30
0.0
 10
219.5889461993451
 20
105.4392767600884
 30
0.0
  0
SPLINE
  5
1CF
330
1F
100
AcDbEntity
  8
0
  6
Continuous
 62
     7
370
     0
100
AcDbSpline
210
0.0
220
0.0
230
1.0
 70
     8
 71
     3
 72
    19
 73
    15
 74
     0
 42
0.00000001
 43
0.00000001
 40
0.0
 40
0.0
 40
0.0
 40
0.0
 40
0.1273939413394724
 40
0.2461816112928118
 40
0.3612680043537856
 40
0.477140268037225
 40
0.5363265834357714
 40
0.5956719150436505
 40
0.6566189532057533
 40
0.7188356214960797
 40
0.7835815527063736
 40
0.8515878166889451
 40
0.9239265274809916
 40
1.0
 40
1.0
 40
1.0
 40
1.0
 10
218.9567446769092
 20
105.4516244460735
 30
0.0
 10
218.9575264964628
 20
105.4306545821776
 30
0.0
 10
218.959037318684
 20
105.39013150213
 30
0.0
 10
218.9754676721644
 20
105.3325714358929
 30
0.0
 10
219.0011599767762
 20
105.2808663545576
 30
0.0
 10
219.0312796950783
 20
105.2433710265853
 30
0.0
 10
219.0601569407274
 20
105.2178235203326
 30
0.0
 10
219.0842589790061
 20
105.2007663581755
 30
0.0
 10
219.1105978459563
 20
105.1862851718822
 30
0.0
 10
219.1393643545115
 20
105.1750294806248
 30
0.0
 10
219.1698617785525
 20
105.1650576389858
 30
0.0
 10
219.2031419308104
 20
105.1594841044472
 30
0.0
 10
219.2384225811185
 20
105.1549531520793
 30
0.0
 10
219.2628129180039
 20
105.1546250055171
 30
0.0
 10
219.2753149753242
 20
105.154456803366
 30
0.0
  0
SPLINE
  5
1D0
330
1F
100
AcDbEntity
  8
0
  6
Continuous
 62
     7
370
     0
100
AcDbSpline
210
0.0
220
0.0
230
1.0
 70
     8
 71
     3
 72
    19
 73
    15
 74
     0
 42
0.00000001
 43
0.00000001
 40
0.0
 40
0.0
 40
0.0
 40
0.0
 40
0.0762358674075237
 40
0.1486180999543649
 40
0.2182394281414515
 40
0.2842516902686069
 40
0.3482575207850561
 40
0.4106562042500674
 40
0.4728623729995132
 40
0.5341947480221281
 40
0.653476101422413
 40
0.7677667895221957
 40
0.8817126094674202
 40
1.0
 40
1.0
 40
1.0
 40
1.0
 10
219.2728454381272
 20
105.7339748655989
 30
0.0
 10
219.2607553166368
 20
105.7338063169585
 30
0.0
 10
219.2371862153042
 20
105.7334777396162
 30
0.0
 10
219.2028577247302
 20
105.7289262456354
 30
0.0
 10
219.1703639543374
 20
105.7232096617476
 30
0.0
 10
219.1400046800947
 20
105.7140356024169
 30
0.0
 10
219.1119060956801
 20
105.7020472395836
 30
0.0
 10
219.085774710591
 20
105.6874571448997
 30
0.0
 10
219.0614165558927
 20
105.670761544714
 30
0.0
 10
219.0326913798047
 20
105.6450466653143
 30
0.0
 10
219.0026064904468
 20
105.6088637522492
 30
0.0
 10
218.9761025490151
 20
105.5602573129391
 30
0.0
 10
218.9597222556718
 20
105.5072598894837
 30
0.0
 10
218.9577494966571
 20
105.470399295264
 30
0.0
 10
218.9567446769092
 20
105.4516244460735
 30
0.0
  0
SPLINE
  5
1D1
330
1F
100
AcDbEntity
  8
0
  6
Continuous
 62
     7
370
     0
100
AcDbSpline
210
0.0
220
0.0
230
1.0
 70
     8
 71
     3
 72
    19
 73
    15
 74
     0
 42
0.00000001
 43
0.00000001
 40
0.0
 40
0.0
 40
0.0
 40
0.0
 40
0.1233861213626085
 40
0.2414346864233538
 40
0.3574485461509667
 40
0.4767139204528327
 40
0.5378895868739915
 40
0.5992703938301226
 40
0.6603520522565615
 40
0.7230069362990812
 40
0.7878755372012023
 40
0.855360105861051
 40
0.9253732137563339
 40
0.9999999999999999
 40
0.9999999999999999
 40
0.9999999999999999
 40
0.9999999999999999
 10
219.5889461993451
 20
105.4392767600884
 30
0.0
 10
219.5879322121556
 20
105.4592737333159
 30
0.0
 10
219.5859481018162
 20
105.4984026313417
 30
0.0
 10
219.5699233358429
 20
105.5545739281631
 30
0.0
 10
219.5429442390684
 20
105.6054483475806
 30
0.0
 10
219.5121243611726
 20
105.6426012155527
 30
0.0
 10
219.4835995913251
 20
105.6695162808996
 30
0.0
 10
219.4591951965365
 20
105.6866495225515
 30
0.0
 10
219.4329603808387
 20
105.7012314269438
 30
0.0
 10
219.4047952949323
 20
105.7131395149787
 30
0.0
 10
219.3746592103242
 20
105.7227435119321
 30
0.0
 10
219.3424704920949
 20
105.7290441965532
 30
0.0
 10
219.30836439757
 20
105.7334630881259
 30
0.0
 10
219.2849342141752
 20
105.7338006836027
 30
0.0
 10
219.2728454381272
 20
105.7339748655989
 30
0.0
  0
SPLINE
  5
1D2
330
1F
100
AcDbEntity
  8
0
  6
Continuous
 62
     7
370
     0
100
AcDbSpline
210
0.0
220
0.0
230
1.0
 70
     8
 71
     3
 72
    23
 73
    19
 74
     0
 42
0.00000001
 43
0.00000001
 40
0.0
 40
0.0
 40
0.0
 40
0.0
 40
0.0610549117432832
 40
0.1195453450847438
 40
0.1768063562451035
 40
0.2329564830316851
 40
0.2885834899465033
 40
0.3446666617213001
 40
0.4016615108374461
 40
0.4605400973082778
 40
0.5204770623221882
 40
0.5812128653554004
 40
0.6434307597220102
 40
0.7079608695212424
 40
0.7753707435336737
 40
0.8464136772813298
 40
0.9211518871893691
 40
1.0
 40
1.0
 40
1.0
 40
1.0
 10
218.5867256868898
 20
107.2881369415872
 30
0.0
 10
218.6111786069972
 20
107.2887489898884
 30
0.0
 10
218.6590573556369
 20
107.2899473787368
 30
0.0
 10
218.7293262136466
 20
107.2999786625538
 30
0.0
 10
218.7960894948397
 20
107.3170564956686
 30
0.0
 10
218.8600089426469
 20
107.3397909601441
 30
0.0
 10
218.9199289552904
 20
107.3705240805307
 30
0.0
 10
218.9772508906926
 20
107.4065123963269
 30
0.0
 10
219.0304121455025
 20
107.45048908743
 30
0.0
 10
219.0807176781043
 20
107.499888125802
 30
0.0
 10
219.1258383521235
 20
107.5560392056867
 30
0.0
 10
219.1658734515746
 20
107.6175591470836
 30
0.0
 10
219.198395148378
 20
107.6853705927195
 30
0.0
 10
219.2264732441556
 20
107.7579797492801
 30
0.0
 10
219.2470336441159
 20
107.8367589574486
 30
0.0
 10
219.2622290396082
 20
107.9208126559722
 30
0.0
 10
219.2713861066352
 20
108.0104112191581
 30
0.0
 10
219.2723503930025
 20
108.0719189702924
 30
0.0
 10
219.2728454381272
 20
108.103495806135
 30
0.0
  0
SPLINE
  5
1D3
330
1F
100
AcDbEntity
  8
0
  6
Continuous
 62
     7
370
     0
100
AcDbSpline
210
0.0
220
0.0
230
1.0
 70
     8
 71
     3
 72
    23
 73
    19
 74
     0
 42
0.00000001
 43
0.00000001
 40
0.0
 40
0.0
 40
0.0
 40
0.0
 40
0.0759644026221998
 40
0.1481252239748712
 40
0.2172006111446031
 40
0.2832999093723612
 40
0.347201868136241
 40
0.4092995407059241
 40
0.4704256161074027
 40
0.5315880640528347
 40
0.5917391729173698
 40
0.6502577442905727
 40
0.7073030399522857
 40
0.7642084640229153
 40
0.8211475320101305
 40
0.8791188121552541
 40
0.9384228183936666
 40
1.0
 40
1.0
 40
1.0
 40
1.0
 10
217.9030754728494
 20
108.0742729493037
 30
0.0
 10
217.9035195148329
 20
108.0446095087487
 30
0.0
 10
217.9043853653626
 20
107.9867678931446
 30
0.0
 10
217.9142911640792
 20
107.9024378934732
 30
0.0
 10
217.929321631535
 20
107.8228682442344
 30
0.0
 10
217.9500395443343
 20
107.7478355742941
 30
0.0
 10
217.9778894927066
 20
107.6780819456737
 30
0.0
 10
218.0111877119179
 20
107.6129370937816
 30
0.0
 10
218.0510553608325
 20
107.5528340644153
 30
0.0
 10
218.0966128403211
 20
107.4979409894903
 30
0.0
 10
218.1467208450599
 20
107.4486291642116
 30
0.0
 10
218.200266333329
 20
107.4055579079862
 30
0.0
 10
218.2572613418892
 20
107.3694887775385
 30
0.0
 10
218.3170739796907
 20
107.3397060104772
 30
0.0
 10
218.3801338529664
 20
107.3164578450655
 30
0.0
 10
218.4462520967485
 20
107.3001335690459
 30
0.0
 10
218.5154772909861
 20
107.2899240595355
 30
0.0
 10
218.5626803365618
 20
107.288740069231
 30
0.0
 10
218.5867256868898
 20
107.2881369415872
 30
0.0
  0
SPLINE
  5
1D4
330
1F
100
AcDbEntity
  8
0
  6
Continuous
 62
     7
370
     0
100
AcDbSpline
210
0.0
220
0.0
230
1.0
 70
     8
 71
     3
 72
    23
 73
    19
 74
     0
 42
0.00000001
 43
0.00000001
 40
0.0
 40
0.0
 40
0.0
 40
0.0
 40
0.0559431333569187
 40
0.1103820356898407
 40
0.1640478588828499
 40
0.2167594775435861
 40
0.2696011346144475
 40
0.3230085051908687
 40
0.3775814436721363
 40
0.4334493367080539
 40
0.490921858049893
 40
0.5506247708713257
 40
0.6131168723098183
 40
0.6798607463518506
 40
0.7513577440202002
 40
0.8282611012589941
 40
0.9107950320656293
 40
1.0
 40
1.0
 40
1.0
 40
1.0
 10
218.5908415822181
 20
108.9213242078799
 30
0.0
 10
218.5677556624014
 20
108.9208657306218
 30
0.0
 10
218.5222045702076
 20
108.9199611039048
 30
0.0
 10
218.4551479398511
 20
108.9099047733745
 30
0.0
 10
218.3904980776144
 20
108.894879241526
 30
0.0
 10
218.3281546538162
 20
108.8738727473677
 30
0.0
 10
218.2686508821829
 20
108.8460568477758
 30
0.0
 10
218.2116784787457
 20
108.8119444536728
 30
0.0
 10
218.1567317299401
 20
108.7724643916673
 30
0.0
 10
218.1046770676525
 20
108.7266547389963
 30
0.0
 10
218.0561507364684
 20
108.6740306307017
 30
0.0
 10
218.0151265917407
 20
108.6119884195923
 30
0.0
 10
217.9805503217496
 20
108.5420091835243
 30
0.0
 10
217.9516797732486
 20
108.4642703036093
 30
0.0
 10
217.9296668302322
 20
108.3781697436016
 30
0.0
 10
217.9144531331958
 20
108.2840780346399
 30
0.0
 10
217.9048475152877
 20
108.1818960272285
 30
0.0
 10
217.9036812544334
 20
108.1110644375943
 30
0.0
 10
217.9030754728494
 20
108.0742729493037
 30
0.0
  0
SPLINE
  5
1D5
330
1F
100
AcDbEntity
  8
0
  6
Continuous
 62
     7
370
     0
100
AcDbSpline
210
0.0
220
0.0
230
1.0
 70
     8
 71
     3
 72
    31
 73
    27
 74
     0
 42
0.00000001
 43
0.00000001
 40
0.0
 40
0.0
 40
0.0
 40
0.0
 40
0.0508516157922844
 40
0.0997524678094164
 40
0.1474376477769319
 40
0.1940857839327041
 40
0.239170927084144
 40
0.2833398222454342
 40
0.3265771497238441
 40
0.368936281499902
 40
0.4105718726814497
 40
0.4510505934949118
 40
0.4908768629924158
 40
0.5300443324843861
 40
0.5689366633103304
 40
0.6075778621311337
 40
0.646420096450513
 40
0.6856793513063945
 40
0.7247985849801968
 40
0.7635130084045112
 40
0.802172526378755
 40
0.8407403615726128
 40
0.8796493769005862
 40
0.9190706128663402
 40
0.9590978622172246
 40
1.0
 40
1.0
 40
1.0
 40
1.0
 10
219.2728454381272
 20
108.103495806135
 30
0.0
 10
219.2726704893708
 20
108.1238102870066
 30
0.0
 10
219.2723273032219
 20
108.1636599469954
 30
0.0
 10
219.2677823684046
 20
108.2223988017805
 30
0.0
 10
219.2619199856843
 20
108.2793105418593
 30
0.0
 10
219.2529944168535
 20
108.3343217307173
 30
0.0
 10
219.2406938505453
 20
108.3872045545127
 30
0.0
 10
219.2270669119263
 20
108.4383616112667
 30
0.0
 10
219.2100269017211
 20
108.4873520575935
 30
0.0
 10
219.1906926353747
 20
108.5343680153058
 30
0.0
 10
219.1690579187144
 20
108.5791681133958
 30
0.0
 10
219.1446568356863
 20
108.6213746692003
 30
0.0
 10
219.1177729769325
 20
108.6608235929838
 30
0.0
 10
219.0891317003089
 20
108.698262796369
 30
0.0
 10
219.0571470138735
 20
108.7322432288567
 30
0.0
 10
219.0233589992592
 20
108.7642002396841
 30
0.0
 10
218.9870001628739
 20
108.7934735899817
 30
0.0
 10
218.9484333525674
 20
108.8200709264283
 30
0.0
 10
218.9082056885523
 20
108.8440127209705
 30
0.0
 10
218.8664000998814
 20
108.864503790673
 30
0.0
 10
218.8236826090781
 20
108.8825026209521
 30
0.0
 10
218.7793381857788
 20
108.8962994797719
 30
0.0
 10
218.7339791410065
 20
108.9074268489041
 30
0.0
 10
218.6874221093393
 20
108.9158791221215
 30
0.0
 10
218.6394942834415
 20
108.920256102548
 30
0.0
 10
218.6071756098051
 20
108.9209656160337
 30
0.0
 10
218.5908415822181
 20
108.9213242078799
 30
0.0
  0
SPLINE
  5
1D6
330
1F
100
AcDbEntity
  8
0
  6
Continuous
 62
     7
370
     0
100
AcDbSpline
210
0.0
220
0.0
230
1.0
 70
     8
 71
     3
 72
    23
 73
    19
 74
     0
 42
0.00000001
 43
0.00000001
 40
0.0
 40
0.0
 40
0.0
 40
0.0
 40
0.1156291309254414
 40
0.2215410391198768
 40
0.3170478562190417
 40
0.4031508756396167
 40
0.4801812167162795
 40
0.5476493661481898
 40
0.6070358428421809
 40
0.6586524080635072
 40
0.705722890353646
 40
0.749804087979647
 40
0.7925868153452743
 40
0.8338739610102607
 40
0.8747683933034329
 40
0.9152226988916381
 40
0.9568807037304801
 40
1.0
 40
1.0
 40
1.0
 40
1.0
 10
218.0874675835599
 20
104.9305520975033
 30
0.0
 10
218.0872181319826
 20
104.9692485081197
 30
0.0
 10
218.0867401922006
 20
105.043389366479
 30
0.0
 10
218.0813385968622
 20
105.1493822716775
 30
0.0
 10
218.0728738115196
 20
105.2452441784376
 30
0.0
 10
218.0612953299005
 20
105.3310634625482
 30
0.0
 10
218.0459075299756
 20
105.4067469554113
 30
0.0
 10
218.0272442277387
 20
105.4724557768962
 30
0.0
 10
218.005004112523
 20
105.5280497922663
 30
0.0
 10
217.9785606948952
 20
105.5740874445006
 30
0.0
 10
217.9491238801155
 20
105.6118508088337
 30
0.0
 10
217.9183743364992
 20
105.6445382865187
 30
0.0
 10
217.8855433223556
 20
105.6723379213597
 30
0.0
 10
217.850049170906
 20
105.6946391985217
 30
0.0
 10
217.8130359254078
 20
105.7126310394392
 30
0.0
 10
217.7736531155568
 20
105.7250134825261
 30
0.0
 10
217.7322878432509
 20
105.7326208682499
 30
0.0
 10
217.7038993935273
 20
105.7335183764191
 30
0.0
 10
217.6894605053076
 20
105.7339748655989
 30
0.0
  0
SPLINE
  5
1D7
330
1F
100
AcDbEntity
  8
0
  6
Continuous
 62
     7
370
     0
100
AcDbSpline
210
0.0
220
0.0
230
1.0
 70
     8
 71
     3
 72
    23
 73
    19
 74
     0
 42
0.00000001
 43
0.00000001
 40
0.0
 40
0.0
 40
0.0
 40
0.0
 40
0.0407818458722597
 40
0.0808695887215869
 40
0.1202681657882671
 40
0.1601868504553522
 40
0.2004597376386391
 40
0.2422651778979079
 40
0.2864592615494684
 40
0.3329520837492633
 40
0.3844305340495303
 40
0.4433891253601058
 40
0.5116814722136833
 40
0.5890200255490083
 40
0.6762451906507723
 40
0.7737051914728237
 40
0.881567767781983
 40
1.0
 40
1.0
 40
1.0
 40
1.0
 10
217.6923416320374
 20
104.1271293294077
 30
0.0
 10
217.7059472996144
 20
104.1276487574249
 30
0.0
 10
217.7329270676385
 20
104.1286787728452
 30
0.0
 10
217.7726437722664
 20
104.1355395425296
 30
0.0
 10
217.8104821896418
 20
104.1483576412462
 30
0.0
 10
217.8467835278818
 20
104.1651173597966
 30
0.0
 10
217.8813603630421
 20
104.1868252194545
 30
0.0
 10
217.9140308532029
 20
104.2135680847662
 30
0.0
 10
217.9453167134783
 20
104.2448941195846
 30
0.0
 10
217.9753255931602
 20
104.2817636292348
 30
0.0
 10
218.0026476455092
 20
104.3266812261806
 30
0.0
 10
218.0253132606524
 20
104.3820369861456
 30
0.0
 10
218.044742645734
 20
104.4475557725847
 30
0.0
 10
218.0605478278157
 20
104.5237095506341
 30
0.0
 10
218.0725015644295
 20
104.6103591236346
 30
0.0
 10
218.0814516907033
 20
104.7075870845181
 30
0.0
 10
218.0867174742756
 20
104.8155229995292
 30
0.0
 10
218.0872098807793
 20
104.891033431333
 30
0.0
 10
218.0874675835599
 20
104.9305520975033
 30
0.0
  0
SPLINE
  5
1D8
330
1F
100
AcDbEntity
  8
0
  6
Continuous
 62
     7
370
     0
100
AcDbSpline
210
0.0
220
0.0
230
1.0
 70
     8
 71
     3
 72
    23
 73
    19
 74
     0
 42
0.00000001
 43
0.00000001
 40
0.0
 40
0.0
 40
0.0
 40
0.0
 40
0.1184055081537695
 40
0.226654332816702
 40
0.3240923419286021
 40
0.4117048030053219
 40
0.4890259050064157
 40
0.5569093973430758
 40
0.6162333444927074
 40
0.6673492812770747
 40
0.7135123932013476
 40
0.7576965045209786
 40
0.7994925114422912
 40
0.8399760647439397
 40
0.8798857418167761
 40
0.9191486593857416
 40
0.9592273564930831
 40
1.0
 40
1.0
 40
1.0
 40
1.0
 10
217.297215680515
 20
104.9305520975033
 30
0.0
 10
217.2974772329479
 20
104.8910336096131
 30
0.0
 10
217.2979779021576
 20
104.815386482665
 30
0.0
 10
217.303208680091
 20
104.7073115104717
 30
0.0
 10
217.3122132490019
 20
104.6098131332419
 30
0.0
 10
217.3241178772513
 20
104.5230263438492
 30
0.0
 10
217.3398368065236
 20
104.446833745999
 30
0.0
 10
217.3595737813563
 20
104.3814295018867
 30
0.0
 10
217.3818220463664
 20
104.326028612309
 30
0.0
 10
217.4093538527252
 20
104.2813177286551
 30
0.0
 10
217.439498139779
 20
104.2448718361228
 30
0.0
 10
217.4706200560485
 20
104.2135271898912
 30
0.0
 10
217.5034517926431
 20
104.1868849583066
 30
0.0
 10
217.5377791264496
 20
104.1646707704888
 30
0.0
 10
217.5741346707543
 20
104.1478516469575
 30
0.0
 10
217.6121208837235
 20
104.1356611087696
 30
0.0
 10
217.6517460308326
 20
104.1286456412157
 30
0.0
 10
217.6787325565921
 20
104.1276376505356
 30
0.0
 10
217.6923416320374
 20
104.1271293294077
 30
0.0
  0
SPLINE
  5
1D9
330
1F
100
AcDbEntity
  8
0
  6
Continuous
 62
     7
370
     0
100
AcDbSpline
210
0.0
220
0.0
230
1.0
 70
     8
 71
     3
 72
    15
 73
    11
 74
     0
 42
0.00000001
 43
0.00000001
 40
0.0
 40
0.0
 40
0.0
 40
0.0
 40
0.0838881132795455
 40
0.1771540327539698
 40
0.2825136355617228
 40
0.3993998606601629
 40
0.5294908061912204
 40
0.6728021776758327
 40
0.82953576161967
 40
1.0
 40
1.0
 40
1.0
 40
1.0
 10
217.4161650555046
 20
105.5932112453691
 30
0.0
 10
217.4063746311799
 20
105.576842643928
 30
0.0
 10
217.3856993163625
 20
105.5422756040643
 30
0.0
 10
217.3625648412618
 20
105.4821966645749
 30
0.0
 10
217.342128760504
 20
105.4135378724687
 30
0.0
 10
217.325303090554
 20
105.3352428623617
 30
0.0
 10
217.3131308987224
 20
105.2474459416885
 30
0.0
 10
217.3035214239355
 20
105.150249069975
 30
0.0
 10
217.2985296594663
 20
105.0435165487598
 30
0.0
 10
217.2976657578644
 20
104.9692458229608
 30
0.0
 10
217.297215680515
 20
104.9305520975033
 30
0.0
  0
SPLINE
  5
1DA
330
1F
100
AcDbEntity
  8
0
  6
Continuous
 62
     7
370
     0
100
AcDbSpline
210
0.0
220
0.0
230
1.0
 70
     8
 71
     3
 72
    15
 73
    11
 74
     0
 42
0.00000001
 43
0.00000001
 40
0.0
 40
0.0
 40
0.0
 40
0.0
 40
0.1276647678962251
 40
0.2517385630080496
 40
0.3727533493873896
 40
0.492146758972386
 40
0.614069621309245
 40
0.7371973244121095
 40
0.8656069906011175
 40
1.0
 40
1.0
 40
1.0
 40
1.0
 10
217.6894605053076
 20
105.7339748655989
 30
0.0
 10
217.6758522845873
 20
105.7336177035205
 30
0.0
 10
217.6490186171182
 20
105.7329134256696
 30
0.0
 10
217.6097306137353
 20
105.7261911007148
 30
0.0
 10
217.5724978344724
 20
105.7149498750714
 30
0.0
 10
217.5368937120346
 20
105.6997225434408
 30
0.0
 10
217.503807084348
 20
105.679229562742
 30
0.0
 10
217.4719258180405
 20
105.6553025490793
 30
0.0
 10
217.4427431082752
 20
105.6261501535359
 30
0.0
 10
217.4251578634097
 20
105.6043562783142
 30
0.0
 10
217.4161650555046
 20
105.5932112453691
 30
0.0
  0
LINE
  5
1DB
330
1F
100
AcDbEntity
  8
0
  6
Continuous
 62
     7
370
     0
100
AcDbLine
 10
140.5526445735
 20
107.644573477
 30
0.0
 11
140.5529445735
 21
107.644573477
 31
0.0
  0
LINE
  5
1DC
330
1F
100
AcDbEntity
  8
0
  6
Continuous
 62
     7
370
     0
100
AcDbLine
 10
140.5529445735
 20
107.6486596483
 30
0.0
 11
140.5526445735
 21
107.6486596625
 31
0.0
  0
LINE
  5
1DD
330
1F
100
AcDbEntity
  8
0
  6
Continuous
 62
     7
370
     0
100
AcDbLine
 10
140.5529445735
 20
107.6486596483
 30
0.0
 11
140.5529445735
 21
107.644573477
 31
0.0
  0
LINE
  5
1DE
330
1F
100
AcDbEntity
  8
0
  6
Continuous
 62
     7
370
     0
100
AcDbLine
 10
140.5526445735
 20
108.5780585375
 30
0.0
 11
140.5529445735
 21
108.5780585375
 31
0.0
  0
LINE
  5
1DF
330
1F
100
AcDbEntity
  8
0
  6
Continuous
 62
     7
370
     0
100
AcDbLine
 10
140.5526445735
 20
108.1766279558
 30
0.0
 11
140.5529445735
 21
108.1766279473
 31
0.0
  0
LINE
  5
1E0
330
1F
100
AcDbEntity
  8
0
  6
Continuous
 62
     7
370
     0
100
AcDbLine
 10
140.5529445735
 20
108.9985514551
 30
0.0
 11
140.5526445735
 21
108.9985514553
 31
0.0
  0
LINE
  5
1E1
330
1F
100
AcDbEntity
  8
0
  6
Continuous
 62
     7
370
     0
100
AcDbLine
 10
140.5526445735
 20
107.0899572432
 30
0.0
 11
140.5529445735
 21
107.0899572432
 31
0.0
  0
LINE
  5
1E2
330
1F
100
AcDbEntity
  8
0
  6
Continuous
 62
     7
370
     0
100
AcDbLine
 10
140.5526445735
 20
105.3691419037
 30
0.0
 11
140.5529445735
 21
105.3691419037
 31
0.0
  0
LINE
  5
1E3
330
1F
100
AcDbEntity
  8
0
  6
Continuous
 62
     7
370
     0
100
AcDbLine
 10
140.5529445735
 20
105.3691419037
 30
0.0
 11
140.5529445735
 21
104.4594824614
 31
0.0
  0
LINE
  5
1E4
330
1F
100
AcDbEntity
  8
0
  6
Continuous
 62
     7
370
     0
100
AcDbLine
 10
140.5526445735
 20
103.9163954886
 30
0.0
 11
140.5529445735
 21
103.9163954886
 31
0.0
  0
LINE
  5
1E5
330
1F
100
AcDbEntity
  8
0
  6
Continuous
 62
     7
370
     0
100
AcDbLine
 10
140.5529445735
 20
81.3274031008
 30
0.0
 11
140.3529445735
 21
81.1274031008
 31
0.0
  0
LINE
  5
1E6
330
1F
100
AcDbEntity
  8
0
  6
Continuous
 62
     7
370
     0
100
AcDbLine
 10
140.3529445735
 20
81.1274031008
 30
0.0
 11
130.9456799783
 21
81.1274031008
 31
0.0
  0
LINE
  5
1E7
330
1F
100
AcDbEntity
  8
0
  6
Continuous
 62
     7
370
     0
100
AcDbLine
 10
130.9456799783
 20
81.1274031008
 30
0.0
 11
130.7583330366
 21
81.327049492
 31
0.0
  0
ARC
  5
1E8
330
1F
100
AcDbEntity
  8
0
  6
Continuous
 62
     7
370
     0
100
AcDbCircle
 10
-268.4470554265
 20
106.5274031008
 30
0.0
 40
400.0000000000001
100
AcDbArc
 50
356.3879230914
 51
3.6120769086
  0
LINE
  5
1E9
330
1F
100
AcDbEntity
  8
0
  6
Continuous
 62
     7
370
     0
100
AcDbLine
 10
130.7583330366
 20
131.7277567096
 30
0.0
 11
130.9456799783
 21
131.9274031008
 31
0.0
  0
LINE
  5
1EA
330
1F
100
AcDbEntity
  8
0
  6
Continuous
 62
     7
370
     0
100
AcDbLine
 10
130.9456799783
 20
131.9274031008
 30
0.0
 11
140.3529445735
 21
131.9274031008
 31
0.0
  0
LINE
  5
1EB
330
1F
100
AcDbEntity
  8
0
  6
Continuous
 62
     7
370
     0
100
AcDbLine
 10
140.3529445735
 20
131.9274031008
 30
0.0
 11
140.5529445735
 21
131.7274031008
 31
0.0
  0
LINE
  5
1EC
330
1F
100
AcDbEntity
  8
0
  6
Continuous
 62
     7
370
     0
100
AcDbLine
 10
140.5526445735
 20
108.9985514553
 30
0.0
 11
140.5526445735
 21
108.1766279558
 31
0.0
  0
LINE
  5
1ED
330
1F
100
AcDbEntity
  8
0
  6
Continuous
 62
     7
370
     0
100
AcDbLine
 10
140.5529445735
 20
105.843937884
 30
0.0
 11
140.5526445735
 21
105.8439378838
 31
0.0
  0
LINE
  5
1EE
330
1F
100
AcDbEntity
  8
0
  6
Continuous
 62
     7
370
     0
100
AcDbLine
 10
140.5526445735
 20
104.4594824553
 30
0.0
 11
140.5526445735
 21
103.9163954886
 31
0.0
  0
LINE
  5
1EF
330
1F
100
AcDbEntity
  8
0
  6
Continuous
 62
     7
370
     0
100
AcDbLine
 10
140.5526445735
 20
105.8439378838
 30
0.0
 11
140.5526445735
 21
105.3691419037
 31
0.0
  0
LINE
  5
1F0
330
1F
100
AcDbEntity
  8
0
  6
Continuous
 62
     7
370
     0
100
AcDbLine
 10
140.5529445735
 20
104.4594824614
 30
0.0
 11
140.5526445735
 21
104.4594824553
 31
0.0
  0
LINE
  5
1F1
330
1F
100
AcDbEntity
  8
0
  6
Continuous
 62
     7
370
     0
100
AcDbLine
 10
140.5529445735
 20
103.9163954886
 30
0.0
 11
140.5529445735
 21
81.3274031008
 31
0.0
  0
LINE
  5
1F2
330
1F
100
AcDbEntity
  8
0
  6
Continuous
 62
     7
370
     0
100
AcDbLine
 10
140.5529445735
 20
107.0899572432
 30
0.0
 11
140.5529445735
 21
105.843937884
 31
0.0
  0
LINE
  5
1F3
330
1F
100
AcDbEntity
  8
0
  6
Continuous
 62
     7
370
     0
100
AcDbLine
 10
140.5529445735
 20
108.1766279473
 30
0.0
 11
140.5529445735
 21
107.6486596483
 31
0.0
  0
LINE
  5
1F4
330
1F
100
AcDbEntity
  8
0
  6
Continuous
 62
     7
370
     0
100
AcDbLine
 10
140.5529445735
 20
131.7274031008
 30
0.0
 11
140.5529445735
 21
108.9985514551
 31
0.0
  0
LINE
  5
1F5
330
1F
100
AcDbEntity
  8
0
  6
Continuous
 62
     7
370
     0
100
AcDbLine
 10
140.5526445735
 20
107.6486596625
 30
0.0
 11
140.5526445735
 21
107.0899572432
 31
0.0
  0
LINE
  5
1F6
330
1F
100
AcDbEntity
  8
0
  6
Continuous
 62
     7
370
     0
100
AcDbLine
 10
130.7583330366
 20
131.7277567096
 30
0.0
 11
130.7583330366
 21
81.327049492
 31
0.0
  0
LINE
  5
1F7
330
1F
100
AcDbEntity
  8
0
  6
Continuous
 62
     7
370
     0
100
AcDbLine
 10
140.5529445735
 20
107.644573477
 30
0.0
 11
140.5529445735
 21
107.0899572432
 31
0.0
  0
LINE
  5
1F8
330
1F
100
AcDbEntity
  8
0
  6
Continuous
 62
     7
370
     0
100
AcDbLine
 10
140.5526445735
 20
105.7339748656
 30
0.0
 11
140.5529445735
 21
105.7339748656
 31
0.0
  0
LINE
  5
1F9
330
1F
100
AcDbEntity
  8
0
  6
Continuous
 62
     7
370
     0
100
AcDbLine
 10
140.5526445735
 20
104.1798127896
 30
0.0
 11
140.5529445735
 21
104.1798127896
 31
0.0
  0
LINE
  5
1FA
330
1F
100
AcDbEntity
  8
0
  6
Continuous
 62
     7
370
     0
100
AcDbLine
 10
140.5529445735
 20
104.1798127896
 30
0.0
 11
140.5529445735
 21
103.9163954886
 31
0.0
  0
HATCH
  5
1FB
330
1F
100
AcDbEntity
  8
0
  6
Continuous
 62
     7
370
     0
100
AcDbHatch
 10
0.0
 20
0.0
 30
0.0
210
0.0
220
0.0
230
1.0
  2
ANSI31
 70
     0
 71
     0
 91
        1
 92
        0
 93
       24
 72
     1
 10
140.5526445734651
 20
108.1766279557779
 11
140.5526445734651
 21
108.9985514552934
 72
     1
 10
140.5526445734651
 20
108.9985514552934
 11
140.5529445734651
 21
108.9985514550682
 72
     1
 10
140.5529445734651
 20
108.9985514550682
 11
140.5529445734651
 21
131.7274031007752
 72
     1
 10
140.5529445734651
 20
131.7274031007752
 11
140.3529445734651
 21
131.9274031007752
 72
     1
 10
140.3529445734651
 20
131.9274031007752
 11
130.9456799783068
 21
131.9274031007752
 72
     1
 10
130.9456799783068
 20
131.9274031007752
 11
130.7583330365849
 21
131.7277567095965
 72
     2
 10
-268.4470554265349
 20
106.5274031007752
 40
400.0
 50
356.3879230913782
 51
363.6120769086234
 73
     0
 72
     1
 10
130.7583330365849
 20
81.32704949195438
 11
130.9456799783068
 21
81.12740310077521
 72
     1
 10
130.9456799783068
 20
81.12740310077521
 11
140.3529445734651
 21
81.12740310077521
 72
     1
 10
140.3529445734651
 20
81.12740310077521
 11
140.5529445734651
 21
81.32740310077523
 72
     1
 10
140.5529445734651
 20
81.32740310077523
 11
140.5529445734651
 21
103.9163954885957
 72
     1
 10
140.5529445734651
 20
103.9163954885957
 11
140.5526445734651
 21
103.9163954885957
 72
     1
 10
140.5526445734651
 20
103.9163954885957
 11
140.5526445734649
 21
104.4594824553374
 72
     1
 10
140.5526445734649
 20
104.4594824553374
 11
140.5529445734651
 21
104.4594824613789
 72
     1
 10
140.5529445734651
 20
104.4594824613789
 11
140.5529445734651
 21
105.3691419036932
 72
     1
 10
140.5529445734651
 20
105.3691419036932
 11
140.5526445734651
 21
105.3691419036932
 72
     1
 10
140.5526445734651
 20
105.3691419036932
 11
140.552644573465
 21
105.8439378837988
 72
     1
 10
140.552644573465
 20
105.8439378837988
 11
140.5529445734651
 21
105.8439378839635
 72
     1
 10
140.5529445734651
 20
105.8439378839635
 11
140.5529445734651
 21
107.0899572432462
 72
     1
 10
140.5529445734651
 20
107.0899572432462
 11
140.5526445734651
 21
107.0899572432462
 72
     1
 10
140.5526445734651
 20
107.0899572432462
 11
140.5526445734644
 21
107.6486596624766
 72
     1
 10
140.5526445734644
 20
107.6486596624766
 11
140.5529445734651
 21
107.6486596483427
 72
     1
 10
140.5529445734651
 20
107.6486596483427
 11
140.5529445734651
 21
108.1766279473201
 72
     1
 10
140.5529445734651
 20
108.1766279473201
 11
140.5526445734651
 21
108.1766279557779
 97
        0
 75
     0
 76
     1
 52
0.0
 41
0.5
 77
     0
 78
     1
 53
45.0
 43
0.0
 44
0.0
 45
-1.122532015133644
 46
1.122532015133644
 79
     0
 98
        1
 10
0.0
 20
0.0
  0
DIMENSION
  5
1FC
330
1F
100
AcDbEntity
  8
0
  6
Continuous
 62
     7
370
     0
100
AcDbDimension
  2
*D9
 10
-268.4470554265
 20
106.5274031008
 30
0.0
 11
157.7047512915
 21
90.6835916928
 31
0.0
 70
   164
  1
<>
 71
     1
 42
-1.0
  3
SLDDIMSTYLE1
100
AcDbRadialDimension
 15
131.2599713601
 25
91.2207791301
 35
0.0
 40
0.0
  0
DIMENSION
  5
20D
330
1F
100
AcDbEntity
  8
0
  6
Continuous
 62
     7
370
     0
100
AcDbDimension
  2
*D10
 10
131.5529445735
 20
141.9274031008
 30
0.0
 11
154.7151141345
 21
141.9274031008
 31
0.0
 70
   160
 71
     2
 42
-1.0
  3
SLDDIMSTYLE2
100
AcDbAlignedDimension
 13
140.5529445735
 23
131.7274031008
 33
0.0
 14
131.5529445735
 24
106.5274031008
 34
0.0
100
AcDbRotatedDimension
  0
DIMENSION
  5
220
330
1F
100
AcDbEntity
  8
0
  6
Continuous
 62
     7
370
     0
100
AcDbDimension
  2
*D11
 10
130.7583330366
 20
153.9274031008
 30
0.0
 11
154.7151141345
 21
153.9274031008
 31
0.0
 70
   160
  1
<> REF
 71
     2
 42
-1.0
  3
SLDDIMSTYLE3
100
AcDbAlignedDimension
 13
140.5529445735
 23
131.7274031008
 33
0.0
 14
130.7583330366
 24
131.7277567096
 34
0.0
100
AcDbRotatedDimension
  0
MTEXT
  5
234
330
1F
100
AcDbEntity
  8
0
  6
Continuous
 62
     7
370
     0
100
AcDbMText
 10
135.474594755
 20
74.542596401
 30
0.0
 40
2.1166666667
 41
0.0
 71
     2
 72
     1
  1
SECTION A-A
  7
SLDTEXTSTYLE0
 73
     1
 44
1.0
  0
OLE2FRAME
  5
235
330
1F
100
AcDbEntity
  8
0
100
AcDbOle2Frame
 70
     2
  3
Paintbrush Picture
 10
229.0524258301
 20
33.6996297921
 30
0.0
 11
265.1686469208
 21
28.555479607
 31
0.0
 71
     2
 72
     0
 73
     1
 90
     7296
310
80557333EF78ADA16C40002412788DD94040000000000000000041161DC7B292
310
7040002412788DD94040000000000000000041161DC7B2927040F6DD59E9338E
310
3C4000000000000000007333EF78ADA16C40F6DD59E9338E3C40000000000000
310
00000000000001000000000100000100000001000000000001000000001C0000
310
D0CF11E0A1B11AE1000000000000000000000000000000003E000300FEFF0900
310
0600000000000000000000000100000001000000000000000010000002000000
310
01000000FEFFFFFF0000000000000000FFFFFFFFFFFFFFFFFFFFFFFFFFFFFFFF
310
FFFFFFFFFFFFFFFFFFFFFFFFFFFFFFFFFFFFFFFFFFFFFFFFFFFFFFFFFFFFFFFF
310
FFFFFFFFFFFFFFFFFFFFFFFFFFFFFFFFFFFFFFFFFFFFFFFFFFFFFFFFFFFFFFFF
310
FFFFFFFFFFFFFFFFFFFFFFFFFFFFFFFFFFFFFFFFFFFFFFFFFFFFFFFFFFFFFFFF
310
FFFFFFFFFFFFFFFFFFFFFFFFFFFFFFFFFFFFFFFFFFFFFFFFFFFFFFFFFFFFFFFF
310
FFFFFFFFFFFFFFFFFFFFFFFFFFFFFFFFFFFFFFFFFFFFFFFFFFFFFFFFFFFFFFFF
310
FFFFFFFFFFFFFFFFFFFFFFFFFFFFFFFFFFFFFFFFFFFFFFFFFFFFFFFFFFFFFFFF
310
FFFFFFFFFFFFFFFFFFFFFFFFFFFFFFFFFFFFFFFFFFFFFFFFFFFFFFFFFFFFFFFF
310
FFFFFFFFFFFFFFFFFFFFFFFFFFFFFFFFFFFFFFFFFFFFFFFFFFFFFFFFFFFFFFFF
310
FFFFFFFFFFFFFFFFFFFFFFFFFFFFFFFFFFFFFFFFFFFFFFFFFFFFFFFFFFFFFFFF
310
FFFFFFFFFFFFFFFFFFFFFFFFFFFFFFFFFFFFFFFFFFFFFFFFFFFFFFFFFFFFFFFF
310
FFFFFFFFFFFFFFFFFFFFFFFFFFFFFFFFFFFFFFFFFFFFFFFFFFFFFFFFFFFFFFFF
310
FFFFFFFFFFFFFFFFFFFFFFFFFFFFFFFFFFFFFFFFFFFFFFFFFFFFFFFFFFFFFFFF
310
FFFFFFFFFFFFFFFFFFFFFFFFFFFFFFFFFFFFFFFFFFFFFFFFFFFFFFFFFFFFFFFF
310
FDFFFFFFFEFFFFFFFEFFFFFFFEFFFFFF05000000060000000700000008000000
310
090000000A0000000B0000000C000000FEFFFFFFFFFFFFFFFFFFFFFFFFFFFFFF
310
FFFFFFFFFFFFFFFFFFFFFFFFFFFFFFFFFFFFFFFFFFFFFFFFFFFFFFFFFFFFFFFF
310
FFFFFFFFFFFFFFFFFFFFFFFFFFFFFFFFFFFFFFFFFFFFFFFFFFFFFFFFFFFFFFFF
310
FFFFFFFFFFFFFFFFFFFFFFFFFFFFFFFFFFFFFFFFFFFFFFFFFFFFFFFFFFFFFFFF
310
FFFFFFFFFFFFFFFFFFFFFFFFFFFFFFFFFFFFFFFFFFFFFFFFFFFFFFFFFFFFFFFF
310
FFFFFFFFFFFFFFFFFFFFFFFFFFFFFFFFFFFFFFFFFFFFFFFFFFFFFFFFFFFFFFFF
310
FFFFFFFFFFFFFFFFFFFFFFFFFFFFFFFFFFFFFFFFFFFFFFFFFFFFFFFFFFFFFFFF
310
FFFFFFFFFFFFFFFFFFFFFFFFFFFFFFFFFFFFFFFFFFFFFFFFFFFFFFFFFFFFFFFF
310
FFFFFFFFFFFFFFFFFFFFFFFFFFFFFFFFFFFFFFFFFFFFFFFFFFFFFFFFFFFFFFFF
310
FFFFFFFFFFFFFFFFFFFFFFFFFFFFFFFFFFFFFFFFFFFFFFFFFFFFFFFFFFFFFFFF
310
FFFFFFFFFFFFFFFFFFFFFFFFFFFFFFFFFFFFFFFFFFFFFFFFFFFFFFFFFFFFFFFF
310
FFFFFFFFFFFFFFFFFFFFFFFFFFFFFFFFFFFFFFFFFFFFFFFFFFFFFFFFFFFFFFFF
310
FFFFFFFFFFFFFFFFFFFFFFFFFFFFFFFFFFFFFFFFFFFFFFFFFFFFFFFFFFFFFFFF
310
FFFFFFFFFFFFFFFFFFFFFFFFFFFFFFFFFFFFFFFFFFFFFFFFFFFFFFFFFFFFFFFF
310
FFFFFFFFFFFFFFFFFFFFFFFFFFFFFFFFFFFFFFFFFFFFFFFFFFFFFFFFFFFFFFFF
310
52006F006F007400200045006E00740072007900000000000000000000000000
310
0000000000000000000000000000000000000000000000000000000000000000
310
16000500FFFFFFFFFFFFFFFF020000000A00030000000000C000000000000046
310
000000000000000000000000D0236AD93A42CC0103000000C000000000000000
310
01004F006C006500000000000000000000000000000000000000000000000000
310
0000000000000000000000000000000000000000000000000000000000000000
310
0A000200FFFFFFFFFFFFFFFFFFFFFFFF00000000000000000000000000000000
310
0000000000000000000000000000000000000000000000001400000000000000
310
010043006F006D0070004F0062006A0000000000000000000000000000000000
310
0000000000000000000000000000000000000000000000000000000000000000
310
120002010100000003000000FFFFFFFF00000000000000000000000000000000
310
0000000000000000000000000000000000000000010000004D00000000000000
310
01004F006C006500310030004E00610074006900760065000000000000000000
310
0000000000000000000000000000000000000000000000000000000000000000
310
1A000200FFFFFFFFFFFFFFFFFFFFFFFF00000000000000000000000000000000
310
000000000000000000000000000000000000000004000000E411000000000000
310
FEFFFFFF02000000FEFFFFFFFFFFFFFFFFFFFFFFFFFFFFFFFFFFFFFFFFFFFFFF
310
FFFFFFFFFFFFFFFFFFFFFFFFFFFFFFFFFFFFFFFFFFFFFFFFFFFFFFFFFFFFFFFF
310
FFFFFFFFFFFFFFFFFFFFFFFFFFFFFFFFFFFFFFFFFFFFFFFFFFFFFFFFFFFFFFFF
310
FFFFFFFFFFFFFFFFFFFFFFFFFFFFFFFFFFFFFFFFFFFFFFFFFFFFFFFFFFFFFFFF
310
FFFFFFFFFFFFFFFFFFFFFFFFFFFFFFFFFFFFFFFFFFFFFFFFFFFFFFFFFFFFFFFF
310
FFFFFFFFFFFFFFFFFFFFFFFFFFFFFFFFFFFFFFFFFFFFFFFFFFFFFFFFFFFFFFFF
310
FFFFFFFFFFFFFFFFFFFFFFFFFFFFFFFFFFFFFFFFFFFFFFFFFFFFFFFFFFFFFFFF
310
FFFFFFFFFFFFFFFFFFFFFFFFFFFFFFFFFFFFFFFFFFFFFFFFFFFFFFFFFFFFFFFF
310
FFFFFFFFFFFFFFFFFFFFFFFFFFFFFFFFFFFFFFFFFFFFFFFFFFFFFFFFFFFFFFFF
310
FFFFFFFFFFFFFFFFFFFFFFFFFFFFFFFFFFFFFFFFFFFFFFFFFFFFFFFFFFFFFFFF
310
FFFFFFFFFFFFFFFFFFFFFFFFFFFFFFFFFFFFFFFFFFFFFFFFFFFFFFFFFFFFFFFF
310
FFFFFFFFFFFFFFFFFFFFFFFFFFFFFFFFFFFFFFFFFFFFFFFFFFFFFFFFFFFFFFFF
310
FFFFFFFFFFFFFFFFFFFFFFFFFFFFFFFFFFFFFFFFFFFFFFFFFFFFFFFFFFFFFFFF
310
FFFFFFFFFFFFFFFFFFFFFFFFFFFFFFFFFFFFFFFFFFFFFFFFFFFFFFFFFFFFFFFF
310
FFFFFFFFFFFFFFFFFFFFFFFFFFFFFFFFFFFFFFFFFFFFFFFFFFFFFFFFFFFFFFFF
310
FFFFFFFFFFFFFFFFFFFFFFFFFFFFFFFFFFFFFFFFFFFFFFFFFFFFFFFFFFFFFFFF
310
0100000200000000000000000000000000000000000000000000000000000000
310
0000000000000000000000000000000000000000000000000000000000000000
310
0100FEFF030A0000FFFFFFFF0A00030000000000C00000000000004607000000
310
5042727573680007000000504272757368000700000050427275736800F439B2
310
7100000000000000000000000000000000000000000000000000000000000000
310
0000000000000000000000000000000000000000000000000000000000000000
310
0000000000000000000000000000000000000000000000000000000000000000
310
0000000000000000000000000000000000000000000000000000000000000000
310
0000000000000000000000000000000000000000000000000000000000000000
310
0000000000000000000000000000000000000000000000000000000000000000
310
0000000000000000000000000000000000000000000000000000000000000000
310
0000000000000000000000000000000000000000000000000000000000000000
310
0000000000000000000000000000000000000000000000000000000000000000
310
0000000000000000000000000000000000000000000000000000000000000000
310
0000000000000000000000000000000000000000000000000000000000000000
310
0000000000000000000000000000000000000000000000000000000000000000
310
E0110000424DDE11000000000000360400002800000096000000170000000100
310
08000000000000000000E7240000E72400000001000000010000000000FF0101
310
01FF020202FF030303FF040404FF050505FF060606FF070707FF080808FF0909
310
09FF0A0A0AFF0B0B0BFF0C0C0CFF0D0D0DFF0E0E0EFF0F0F0FFF101010FF1111
310
11FF121212FF131313FF141414FF151515FF161616FF171717FF181818FF1919
310
19FF1A1A1AFF1B1B1BFF1C1C1CFF1D1D1DFF1E1E1EFF1F1F1FFF202020FF2121
310
21FF222222FF232323FF242424FF252525FF262626FF272727FF282828FF2929
310
29FF2A2A2AFF2B2B2BFF2C2C2CFF2D2D2DFF2E2E2EFF2F2F2FFF303030FF3131
310
31FF323232FF333333FF343434FF353535FF363636FF373737FF383838FF3939
310
39FF3A3A3AFF3B3B3BFF3C3C3CFF3D3D3DFF3E3E3EFF3F3F3FFF404040FF4141
310
41FF424242FF434343FF444444FF454545FF464646FF474747FF484848FF4949
310
49FF4A4A4AFF4B4B4BFF4C4C4CFF4D4D4DFF4E4E4EFF4F4F4FFF505050FF5151
310
51FF525252FF535353FF545454FF555555FF565656FF575757FF585858FF5959
310
59FF5A5A5AFF5B5B5BFF5C5C5CFF5D5D5DFF5E5E5EFF5F5F5FFF606060FF6161
310
61FF626262FF636363FF646464FF656565FF666666FF676767FF686868FF6969
310
69FF6A6A6AFF6B6B6BFF6C6C6CFF6D6D6DFF6E6E6EFF6F6F6FFF707070FF7171
310
71FF727272FF737373FF747474FF757575FF767676FF777777FF787878FF7979
310
79FF7A7A7AFF7B7B7BFF7C7C7CFF7D7D7DFF7E7E7EFF7F7F7FFF808080FF8181
310
81FF828282FF838383FF848484FF858585FF868686FF878787FF888888FF8989
310
89FF8A8A8AFF8B8B8BFF8C8C8CFF8D8D8DFF8E8E8EFF8F8F8FFF909090FF9191
310
91FF929292FF939393FF949494FF959595FF969696FF979797FF989898FF9999
310
99FF9A9A9AFF9B9B9BFF9C9C9CFF9D9D9DFF9E9E9EFF9F9F9FFFA0A0A0FFA1A1
310
A1FFA2A2A2FFA3A3A3FFA4A4A4FFA5A5A5FFA6A6A6FFA7A7A7FFA8A8A8FFA9A9
310
A9FFAAAAAAFFABABABFFACACACFFADADADFFAEAEAEFFAFAFAFFFB0B0B0FFB1B1
310
B1FFB2B2B2FFB3B3B3FFB4B4B4FFB5B5B5FFB6B6B6FFB7B7B7FFB8B8B8FFB9B9
310
B9FFBABABAFFBBBBBBFFBCBCBCFFBDBDBDFFBEBEBEFFBFBFBFFFC0C0C0FFC1C1
310
C1FFC2C2C2FFC3C3C3FFC4C4C4FFC5C5C5FFC6C6C6FFC7C7C7FFC8C8C8FFC9C9
310
C9FFCACACAFFCBCBCBFFCCCCCCFFCDCDCDFFCECECEFFCFCFCFFFD0D0D0FFD1D1
310
D1FFD2D2D2FFD3D3D3FFD4D4D4FFD5D5D5FFD6D6D6FFD7D7D7FFD8D8D8FFD9D9
310
D9FFDADADAFFDBDBDBFFDCDCDCFFDDDDDDFFDEDEDEFFDFDFDFFFE0E0E0FFE1E1
310
E1FFE2E2E2FFE3E3E3FFE4E4E4FFE5E5E5FFE6E6E6FFE7E7E7FFE8E8E8FFE9E9
310
E9FFEAEAEAFFEBEBEBFFECECECFFEDEDEDFFEEEEEEFFEFEFEFFFF0F0F0FFF1F1
310
F1FFF2F2F2FFF3F3F3FFF4F4F4FFF5F5F5FFF6F6F6FFF7F7F7FFF8F8F8FFF9F9
310
F9FFFAFAFAFFFBFBFBFFFCFCFCFFFDFDFDFFFEFEFEFFFFFFFFFFFFFFFFFFFFFF
310
C94E4E4E4F4E4EFFFFFFFFFFC94E4E4E4E4E72FFFFFFFFFFFFFF734E4D4E4E4E
310
C9FFFFFFFFFFAA683516171616265B9BE9FFFFFFFFFF4E4E4E4D4E4EFFFFFFFF
310
FFFFFFFF4E4E4F4E4D4E4E4E4F4E4E4F4D4E4E4E4E4E4D4E4F4E4D4E4E4EAAFF
310
FFFFFFFFFFEA4E4F4F4E4E4E4E4E4D4D4F4F4E4E4E4E4E5B7FAAFFFFFFFFFFFF
310
C9744E1716171616164D8DEAFFFFFFFF0000FFFFFFFFFFFFBA161617161716FF
310
FFFFFFFFB917171616174FFFFFFFFFFFFFFF4E1716161616B9FFFFFFB9341717
310
1716171617171616268CFFFFFFFF161617161617FFFFFFFFFFFFFFB917161717
310
1617167F807F7F7F7F7F7F807F7F807F7F807F7F7F414EFFFFFFFFFFFF8C167F
310
7F807F7F7F7E7F7F807F807F7F807F4E3417258EFFFFEA4E162674AABAEAEBBA
310
AA74341680FFFFFF0000FFFFFFFFFFFFB9171717171617FFFFFFFFFFBB161616
310
16164EFFFFFFFFFFFFFF4E1717171717B9FFFF9C171617171716161616171616
310
171766FFFFFF161717161617FFFFFFFFFFFFFF8E16171717161616FFFFFFFFFF
310
FFFFFFFFFFFFFFFFFFFFFFFFFFAA16D9FFFFFFFFFF3467FFFFFFFFEAFFFFFFFF
310
FFFFFFFFFFFFFFFFFFCA671667EB26278DFFFFFFFFFFFFFFFFFFFF8C2541EAFF
310
0000FFFFFFFFFFFFB9171717171716FFFFFFFFFFBA16171617174EFFFFFFFFFF
310
FFFF4E1717161616BAFF9B1617161616171716171617161616161667FFFF1616
310
16161716FFFFFFFFFFFFFF7F16161617174017FFFFFFFFFFFFFFFFFFFFFFFFFF
310
FFFFFFFFFFFF344E7F7F7F7E7417DAFFFFFFFF80FFFFFFFFFFFFFFFFFFFFFFFF
310
FFFFFF9B163425CAFFFFFFFFFFFFFFFFFFFFFFFFCA2667FF0000FFFFFFFFFFFF
310
BA171717171617FFFFFFFFFFB916171716164EFFFFFFFFFFFFFF4F1716161717
310
B9C91716171616161716161617171616161617168DFF161716161717FFFFFFFF
310
FFFFFF7F17171716164F16FFFFFFFFFFFFFFFFFFFFFFFFFFFFFFFFFFFFFF9B16
310
17161617174EFFFFFFFFFF34FFFFFFFFD9BABABABABADAFFFFFFFFFF7F16AAFF
310
FFFFFFFFFFFFFFFFFFFFFFFFFF9C16BA0000FFFFFFFFFFFFB9161717161717FF
310
FFFFFFFFB917161716174DFFFFFFFFFFFFFF4E1616161616BA4E161617171716
310
419BEAEAAA4E16161617161726E9171717161616FFFFFFFFFFFFFF4F16161717
310
164E16FFFFFFFFFFBAB9B9B9B9B9BABABACAFFFFFFFFFFFFFFFFFFFFFFFFFFFF
310
FFFFBA16FFFFFFFF7F1617161617174DEAFFFFFFEA41FFFFFFFFFFAA4D16174E
310
9BFFFFFFFFFF34730000FFFFFFFFFFFFB9161617171617FFFFFFFFFFBA161616
310
16164EFFFFFFFFFFFFFF4F16161717169B1617161716175BFFFFFFFFFFFF7417
310
16171616168D171717161617FFFFFFFFFFFFEA2616171717167416FFFFFFFFFF
310
16171616171717171717EAFFFFFFFFFFFFFFFFFFFFFFFFFFFFFF6716FFFFFFFF
310
7F4EFFFFFFFFBA2573FFFFFFFFBAFFFFFFFFAA167FB9BB9B269BFFFFFFFF664F
310
0000FFFFFFFFFFFFB9171616161616FFFFFFFFFFBA16161717164EFFFFFFFFFF
310
FFFF4E16161616174E161617171626EAFFFFFFFFFFFFFF4E16161616164E1716
310
16161617FFFFFFFFFFFF671616161716347F16FFFFFFFFFF16B9FFFFFFFFFFFF
310
D9168DFFFFFFFFFFFFFFFFFFFFFFFFFFFFEA1716FFFFFFFF7F4EFFFFFFFFFF7F
310
4EFFFFFFFFFFFFFFFFFF5B66FFFFFFEA347FFFFFFFFF7F4D0000FFFFFFFFFFFF
310
B9171616171617FFFFFFFFFFBA17161716174EFFFFFFFFFFFFFF4D1716161617
310
17161716161673FFFFFFFFFFFFFFFF9B1617161717161616171616174F4E4E4E
310
4E341616171616167E7F16FFFFFFFFFF16BAFFFFFFFFFFFFFF5B41FFFFFFFF34
310
1616171616BAFFFFFF9B1716FFFFFFFF7F4EFFFFFFFFFF4E4EFFFFFFFF734E4E
310
4E4E267EDA9B67164EEAFFFFFFFF744D0000FFFFFFFFFFFFBA171717161617FF
310
FFFFFFFFBA1616171616347F7F7F7F80807F331616161717161717161716B9FF
310
FFFFFFFFFFFFFFE9161616161616171716161716171616161616171616171734
310
EA7F16FFFFFFFFFF16BAFFFFFFFFFFFFFFAA17C9FFFFFF7326BABA5B25FFFFFF
310
FF401716FFFFFFFF7F264F4E4E4E4217AAFFFFFFEA16677F73261616164173CA
310
FFFFFFFFFFFF417F0000FFFFFFFFFFFFBA171616171617FFFFFFFFFFBA161616
310
17171616161616161616161717161616161616161617EAFFFFFFFFFFFFFFFFFF
310
261717161716161617161616161617161617161616174EEAFF8016FFFFFFFFFF
310
17BAFFFFFFFFFFFFFFFF3467FFFFFFC916C9FF3467FFFFFFDA166716FFFFFFFF
310
9C4D4E4E4E4E67AAFFFFFFFF6834FF7F262567AAEAFFFFFFFFFFFFFFFF9B17D9
310
0000FFFFFFFFFFFFB9161616161616FFFFFFFFFFBA1617161717171616161616
310
1716171716161716161617171716FFFFFFFFFFFFFFFFFFFF4E17161716171616
310
1617171616161716171717161616169BFF7F17FFFFFFFFFF17B9FFFFFFFFFFFF
310
FFFF7326FFFFFFFF3473DA16AAFFFFFF7317AA16FFFFFFFFFFFFFFFFFFFFFFFF
310
FFFFEA6725BA4E167FEAFFFFFFFFFFFFFFFFFFFF9C167FFF0000FFFFFFFFFFFF
310
B9161717171716FFFFFFFFFFBA16161716171616171717161617161716161616
310
171617171617EAFFFFFFFFFFFFFFFFFF26161717161616161616161617171616
310
1616161616171616AA8016FFFFFFFFFF16BAFFFFFFFFFFFFFFFFDA179BFFFFFF
310
74348D26FFFFFFFF2566B917FFFFFFFFD8BAB9BAB9BADAFFFFEA41169B7425C9
310
FFFFFFFFFFFFFFFFFFFFAB4F1680FFFF0000FFFFFFFFFFFFBA161717171617FF
310
FFFFFFFFBA17161717161617171617161616161617171616171716171617BBFF
310
FFFFFFFFFFFFFFE9171616161617161617161716FFFFFFFFFFD9671616161617
310
348017FFFFFFFFFF16BAFFFFFFFFFFFFFFFFFF4E5AFFFFFFC916265AFFFFFFAA
310
16AABA16FFFFFFFF7F1617161616179BFFFFEB4127168DFFFFFFFFFFFFFFD99B
310
6734175AC9FFFFFF0000FFFFFFFFFFFFB9161617171617FFFFFFFFFFBB161616
310
1616347F807F7F7F7F8033171716171617171616161672FFFFFFFFFFFFFFFF9C
310
171617171617161716161617FFFFFFFFFFFFFF4117161616174E17FFFFFFFFFF
310
16BAFFFFFFFFFFFFFFFFFF9B16DAFFFFFF34169BFFFFFF5A26FFB917FFFFFFFF
310
7F4EFFFFFFEA5B26FFFFFFEA2616EAFFFFFFFFDA743416331617414E4E4E4ECA
310
0000FFFFFFFFFFFFBA161716161616FFFFFFFFFFBA17171616164EFFFFFFFFFF
310
FFFF4E16161717174E161717171626EBFFFFFFFFFFFFFF4E16161617165B1616
310
16171617FFFFFFFFFFFFFF6716161616161617FFFFFFFFFF16BAFFFFFFFFFFFF
310
FFFFFFEA268CFFFFFF7316EAFFFFEB1774FFB916FFFFFFFF7F4EFFFFFFFF7316
310
FFFFFFFF6826FFFFFFFFEB264D9CEABA257F807F7F6616BA0000FFFFFFFFFFFF
310
BA161716161616FFFFFFFFFFBA16171616164DFFFFFFFFFFFFFF4E1617161617
310
9B1617171717165BEBFFFFFFFFFF671616161617179B171616161616FFFFFFFF
310
FFFFFF3417161617171617FFFFFFFFFF17BAFFFFFFFFFFFFFFFFFFFF6734FFFF
310
FFEBCAFFFFFF8D17C9FFBA17FFFFFFFF7F357F808066174FFFFFFFFF7F16FFFF
310
FFFFD91673B99B415BFFFFFFFFBA16DA00009B7F7F7F807F671617161616167F
310
80807F7E6617161616164EFFFFFFFFFFFFFF4E1616161617B94E171716161616
310
349BC9D9AA4E16171616161634FF161617161717B9B9BAB9BA9B411716171716
310
163416FFFFFFFFFF16B9FFFFFFFFFFFFFFFFFFFFC917CAFFFFFFFFFFFFFF3342
310
FFFFBA17FFFFFFFF9B4E4E4F4E4E66EAFFFFFFFF5B16C9FFFFFFFFAA4E164E73
310
EAFFFFFFFF8D26FF00004E161716161616171617171616171717171617161616
310
17174EFFFFFFFFFFFFFF4E1717171616B9D92616171716171716171717171716
310
16171716AAFF161717171617161617171616161617161716166717FFFFFFFFFF
310
17B9FFFFFFFFFFFFFFFFFFFFFF3467FFFFFFFFFFFFCA168CFFFFBB17FFFFFFFF
310
FFFFFFFFFFFFFFFFFFFFFFEA26265BFFFFFFFFFFFFFFFFFFFFFFFFFFEA3467FF
310
00004D16161616161617161717161617161616171617171616164EFFFFFFFFFF
310
FFFF4D1617161616BAFF9B1616161616161716161616171717161766FFFF1616
310
16171617161617161716171616171717667F16FFFFFFFFFF17BAFFFFFFFFFFFF
310
FFFFFFFFFF8C26EAFFFFFFFFFF6617EAFFFFBA17FFFFFFFFFFFFFFFFFFFFFFFF
310
FFFFEA5A25BA269BFFFFFFFFFFFFFFFFFFFFFFFF6616DAFF00004E1616171616
310
1616161616161716161617171616171616174EFFFFFFFFFFFFFF4D1717171716
310
B9FFFF9C161616161616161716161717171667FFFFFF17161717171716161617
310
1716161616161641E97E16FFFFFFFFFF16B9FFFFFFFFFFFFFFFFFFFFFFEA169B
310
FFFFFFFFEA265BFFFFFFB916FFFFFFFFFFFFFFFFFFFFFFFFFF9B3416AAFF9B17
310
67EAFFFFFFFFFFFFFFFFEA5B169BFFFF00004D17161716161616161717171616
310
161717161716171716174EFFFFFFFFFFFFFF4D1616161616BAFFFFFFBB411616
310
161716161616171634ABFFFFFFFF161716161617171716171617171617267FFF
310
FF7F164E4E4E4E4F17BAFFFFFFFFFFFFFFFFFFFFFFFF66344D4E4E4F4117AAFF
310
FFFFBA174E4E4E4D4E4D4D4E4E4E4E4116174EBBFFFFFFCA342666ABEAFFFFEA
310
AA6725269CFFFFFF0000724F4E4D4D4D4E4D4D4E4E4E4D4E4E4E4E4E4E4E4E4D
310
4E4E74FFFFFFFFFFFFFF734E4E4E4D4ECAFFFFFFFFFFAA663416171717265B9B
310
FFFFFFFFFFFF7F8080807F80807F7F7F7F7F807FBAFFFFFFFF9B4E4E4F4D4D4E
310
4DC9FFFFFFFFFFFFFFFFFFFFFFFFBA4E4E4E4E4D4E4EFFFFFFFFC94E4E4E4F4E
310
4E4E4D4E4E5A807F9CD9FFFFFFFFFFFFFF9B5B2617171716174E8DEAFFFFFFFF
310
0000000000000000000000000000000000000000000000000000000000000000
  1
OLE
  0
ENDSEC
  0
SECTION
  2
OBJECTS
  0
DICTIONARY
  5
C
330
0
100
AcDbDictionary
281
     1
  3
ACAD_GROUP
350
D
  3
ACAD_LAYOUT
350
1A
  3
ACAD_MLINESTYLE
350
17
  3
ACAD_PLOTSETTINGS
350
19
  3
ACAD_PLOTSTYLENAME
350
E
  0
DICTIONARY
  5
D
102
{ACAD_REACTORS
330
C
102
}
330
C
100
AcDbDictionary
281
     1
  0
DICTIONARY
  5
1A
102
{ACAD_REACTORS
330
C
102
}
330
C
100
AcDbDictionary
281
     1
  3
Layout1
350
1E
  3
Layout2
350
26
  3
Model
350
22
  0
DICTIONARY
  5
17
102
{ACAD_REACTORS
330
C
102
}
330
C
100
AcDbDictionary
281
     1
  3
Standard
350
18
  0
DICTIONARY
  5
19
102
{ACAD_REACTORS
330
C
102
}
330
C
100
AcDbDictionary
281
     1
  0
ACDBDICTIONARYWDFLT
  5
E
102
{ACAD_REACTORS
330
C
102
}
330
C
100
AcDbDictionary
281
     1
  3
Normal
350
F
100
AcDbDictionaryWithDefault
340
F
  0
LAYOUT
  5
1E
102
{ACAD_REACTORS
330
1A
102
}
330
1A
100
AcDbPlotSettings
  1

  2
none_device
  4

  6

 40
0.0
 41
0.0
 42
0.0
 43
0.0
 44
0.0
 45
0.0
 46
0.0
 47
0.0
 48
0.0
 49
0.0
140
0.0
141
0.0
142
1.0
143
1.0
 70
   688
 72
     0
 73
     0
 74
     5
  7

 75
    16
147
1.0
148
0.0
149
0.0
100
AcDbLayout
  1
Layout1
 70
     1
 71
     1
 10
0.0
 20
0.0
 11
420.0
 21
297.0
 12
0.0
 22
0.0
 32
0.0
 14
1.0000000000E+20
 24
1.0000000000E+20
 34
1.0000000000E+20
 15
-1.0000000000E+20
 25
-1.0000000000E+20
 35
-1.0000000000E+20
146
0.0
 13
0.0
 23
0.0
 33
0.0
 16
1.0
 26
0.0
 36
0.0
 17
0.0
 27
1.0
 37
0.0
 76
     0
330
1B
  0
LAYOUT
  5
26
102
{ACAD_REACTORS
330
1A
102
}
330
1A
100
AcDbPlotSettings
  1

  2
none_device
  4

  6

 40
0.0
 41
0.0
 42
0.0
 43
0.0
 44
0.0
 45
0.0
 46
0.0
 47
0.0
 48
0.0
 49
0.0
140
0.0
141
0.0
142
1.0
143
1.0
 70
   688
 72
     0
 73
     0
 74
     5
  7

 75
    16
147
1.0
148
0.0
149
0.0
100
AcDbLayout
  1
Layout2
 70
     1
 71
     2
 10
0.0
 20
0.0
 11
0.0
 21
0.0
 12
0.0
 22
0.0
 32
0.0
 14
0.0
 24
0.0
 34
0.0
 15
0.0
 25
0.0
 35
0.0
146
0.0
 13
0.0
 23
0.0
 33
0.0
 16
1.0
 26
0.0
 36
0.0
 17
0.0
 27
1.0
 37
0.0
 76
     0
330
23
  0
LAYOUT
  5
22
102
{ACAD_REACTORS
330
1A
102
}
330
1A
100
AcDbPlotSettings
  1

  2
none_device
  4

  6

 40
0.0
 41
0.0
 42
0.0
 43
0.0
 44
0.0
 45
0.0
 46
0.0
 47
0.0
 48
0.0
 49
0.0
140
0.0
141
0.0
142
1.0
143
1.0
 70
  1712
 72
     0
 73
     0
 74
     0
  7

 75
     0
147
1.0
148
0.0
149
0.0
100
AcDbLayout
  1
Model
 70
     1
 71
     0
 10
0.0
 20
0.0
 11
279.4
 21
215.9
 12
0.0
 22
0.0
 32
0.0
 14
0.0
 24
0.0
 34
0.0
 15
279.4
 25
215.9
 35
0.0
146
0.0
 13
0.0
 23
0.0
 33
0.0
 16
1.0
 26
0.0
 36
0.0
 17
0.0
 27
1.0
 37
0.0
 76
     0
330
1F
331
29
  0
MLINESTYLE
  5
18
102
{ACAD_REACTORS
330
17
102
}
330
17
100
AcDbMlineStyle
  2
Standard
 70
     0
  3

 62
   256
 51
90.0
 52
90.0
 71
     2
 49
0.5
 62
   256
  6
BYLAYER
 49
-0.5
 62
   256
  6
BYLAYER
  0
ACDBPLACEHOLDER
  5
F
102
{ACAD_REACTORS
330
E
102
}
330
E
  0
ENDSEC
  0
EOF
