  0
SECTION
  2
HEADER
  9
$ACADVER
  1
AC1015
  9
$ACADMAINTVER
 70
     6
  9
$DWGCODEPAGE
  3
ANSI_1252
  9
$INSBASE
 10
0.0
 20
0.0
 30
0.0
  9
$EXTMIN
 10
0.0
 20
0.0
 30
0.0
  9
$EXTMAX
 10
279.4
 20
215.9
 30
0.0
  9
$LIMMIN
 10
0.0
 20
0.0
  9
$LIMMAX
 10
279.4
 20
215.9
  9
$ORTHOMODE
 70
     0
  9
$REGENMODE
 70
     1
  9
$FILLMODE
 70
     1
  9
$QTEXTMODE
 70
     0
  9
$MIRRTEXT
 70
     1
  9
$LTSCALE
 40
1.0
  9
$ATTMODE
 70
     1
  9
$TEXTSIZE
 40
2.8222222222
  9
$TRACEWID
 40
1.0
  9
$TEXTSTYLE
  7
Standard
  9
$CLAYER
  8
0
  9
$CELTYPE
  6
ByLayer
  9
$CECOLOR
 62
   256
  9
$CELTSCALE
 40
1.0
  9
$DISPSILH
 70
     0
  9
$DIMSCALE
 40
1.0
  9
$DIMASZ
 40
3.175
  9
$DIMEXO
 40
1.27
  9
$DIMDLI
 40
3.75
  9
$DIMRND
 40
0.0
  9
$DIMDLE
 40
0.0
  9
$DIMEXE
 40
1.778
  9
$DIMTP
 40
0.0
  9
$DIMTM
 40
0.0
  9
$DIMTXT
 40
2.8222222222
  9
$DIMCEN
 40
2.5
  9
$DIMTSZ
 40
0.0
  9
$DIMTOL
 70
     0
  9
$DIMLIM
 70
     0
  9
$DIMTIH
 70
     1
  9
$DIMTOH
 70
     1
  9
$DIMSE1
 70
     0
  9
$DIMSE2
 70
     0
  9
$DIMTAD
 70
     0
  9
$DIMZIN
 70
     1
  9
$DIMBLK
  1

  9
$DIMASO
 70
     1
  9
$DIMSHO
 70
     1
  9
$DIMPOST
  1

  9
$DIMAPOST
  1

  9
$DIMALT
 70
     0
  9
$DIMALTD
 70
     3
  9
$DIMALTF
 40
0.0393700787
  9
$DIMLFAC
 40
1.0
  9
$DIMTOFL
 70
     1
  9
$DIMTVP
 40
0.0
  9
$DIMTIX
 70
     0
  9
$DIMSOXD
 70
     0
  9
$DIMSAH
 70
     0
  9
$DIMBLK1
  1

  9
$DIMBLK2
  1

  9
$DIMSTYLE
  2
ISO-25
  9
$DIMCLRD
 70
     0
  9
$DIMCLRE
 70
     0
  9
$DIMCLRT
 70
     0
  9
$DIMTFAC
 40
1.0
  9
$DIMGAP
 40
2.54
  9
$DIMJUST
 70
     0
  9
$DIMSD1
 70
     0
  9
$DIMSD2
 70
     0
  9
$DIMTOLJ
 70
     0
  9
$DIMTZIN
 70
     1
  9
$DIMALTZ
 70
     0
  9
$DIMALTTZ
 70
     0
  9
$DIMUPT
 70
     0
  9
$DIMDEC
 70
     1
  9
$DIMTDEC
 70
     1
  9
$DIMALTU
 70
     2
  9
$DIMALTTD
 70
     3
  9
$DIMTXSTY
  7
Standard
  9
$DIMAUNIT
 70
     0
  9
$DIMADEC
 70
     0
  9
$DIMALTRND
 40
0.0
  9
$DIMAZIN
 70
     0
  9
$DIMDSEP
 70
    44
  9
$DIMATFIT
 70
     3
  9
$DIMFRAC
 70
     0
  9
$DIMLDRBLK
  1

  9
$DIMLUNIT
 70
     2
  9
$DIMLWD
 70
    -2
  9
$DIMLWE
 70
    -2
  9
$DIMTMOVE
 70
     0
  9
$LUNITS
 70
     2
  9
$LUPREC
 70
     1
  9
$SKETCHINC
 40
1.0
  9
$FILLETRAD
 40
10.0
  9
$AUNITS
 70
     0
  9
$AUPREC
 70
     0
  9
$MENU
  1
.
  9
$ELEVATION
 40
0.0
  9
$PELEVATION
 40
0.0
  9
$THICKNESS
 40
0.0
  9
$LIMCHECK
 70
     0
  9
$CHAMFERA
 40
0.0
  9
$CHAMFERB
 40
0.0
  9
$CHAMFERC
 40
0.0
  9
$CHAMFERD
 40
0.0
  9
$SKPOLY
 70
     0
  9
$TDCREATE
 40
2457303.597397882
  9
$TDUCREATE
 40
2457303.764064549
  9
$TDUPDATE
 40
2457303.597400208
  9
$TDUUPDATE
 40
2457303.764066875
  9
$TDINDWG
 40
0.0000000116
  9
$TDUSRTIMER
 40
0.0000000116
  9
$USRTIMER
 70
     1
  9
$ANGBASE
 50
0.0
  9
$ANGDIR
 70
     0
  9
$PDMODE
 70
     0
  9
$PDSIZE
 40
-1.0
  9
$PLINEWID
 40
0.0
  9
$SPLFRAME
 70
     0
  9
$SPLINETYPE
 70
     6
  9
$SPLINESEGS
 70
     8
  9
$HANDSEED
  5
1F5
  9
$SURFTAB1
 70
     6
  9
$SURFTAB2
 70
     6
  9
$SURFTYPE
 70
     6
  9
$SURFU
 70
     6
  9
$SURFV
 70
     6
  9
$UCSBASE
  2

  9
$UCSNAME
  2

  9
$UCSORG
 10
0.0
 20
0.0
 30
0.0
  9
$UCSXDIR
 10
1.0
 20
0.0
 30
0.0
  9
$UCSYDIR
 10
0.0
 20
1.0
 30
0.0
  9
$UCSORTHOREF
  2

  9
$UCSORTHOVIEW
 70
     0
  9
$UCSORGTOP
 10
0.0
 20
0.0
 30
0.0
  9
$UCSORGBOTTOM
 10
0.0
 20
0.0
 30
0.0
  9
$UCSORGLEFT
 10
0.0
 20
0.0
 30
0.0
  9
$UCSORGRIGHT
 10
0.0
 20
0.0
 30
0.0
  9
$UCSORGFRONT
 10
0.0
 20
0.0
 30
0.0
  9
$UCSORGBACK
 10
0.0
 20
0.0
 30
0.0
  9
$PUCSBASE
  2

  9
$PUCSNAME
  2

  9
$PUCSORG
 10
0.0
 20
0.0
 30
0.0
  9
$PUCSXDIR
 10
1.0
 20
0.0
 30
0.0
  9
$PUCSYDIR
 10
0.0
 20
1.0
 30
0.0
  9
$PUCSORTHOREF
  2

  9
$PUCSORTHOVIEW
 70
     0
  9
$PUCSORGTOP
 10
0.0
 20
0.0
 30
0.0
  9
$PUCSORGBOTTOM
 10
0.0
 20
0.0
 30
0.0
  9
$PUCSORGLEFT
 10
0.0
 20
0.0
 30
0.0
  9
$PUCSORGRIGHT
 10
0.0
 20
0.0
 30
0.0
  9
$PUCSORGFRONT
 10
0.0
 20
0.0
 30
0.0
  9
$PUCSORGBACK
 10
0.0
 20
0.0
 30
0.0
  9
$USERI1
 70
     0
  9
$USERI2
 70
     0
  9
$USERI3
 70
     0
  9
$USERI4
 70
     0
  9
$USERI5
 70
     0
  9
$USERR1
 40
0.0
  9
$USERR2
 40
0.0
  9
$USERR3
 40
0.0
  9
$USERR4
 40
0.0
  9
$USERR5
 40
0.0
  9
$WORLDVIEW
 70
     1
  9
$SHADEDGE
 70
     3
  9
$SHADEDIF
 70
    70
  9
$TILEMODE
 70
     1
  9
$MAXACTVP
 70
    64
  9
$PINSBASE
 10
0.0
 20
0.0
 30
0.0
  9
$PLIMCHECK
 70
     0
  9
$PEXTMIN
 10
1.0000000000E+20
 20
1.0000000000E+20
 30
1.0000000000E+20
  9
$PEXTMAX
 10
-1.0000000000E+20
 20
-1.0000000000E+20
 30
-1.0000000000E+20
  9
$PLIMMIN
 10
0.0
 20
0.0
  9
$PLIMMAX
 10
420.0
 20
297.0
  9
$UNITMODE
 70
     0
  9
$VISRETAIN
 70
     1
  9
$PLINEGEN
 70
     0
  9
$PSLTSCALE
 70
     1
  9
$TREEDEPTH
 70
  3020
  9
$CMLSTYLE
  2
Standard
  9
$CMLJUST
 70
     0
  9
$CMLSCALE
 40
20.0
  9
$PROXYGRAPHICS
 70
     1
  9
$MEASUREMENT
 70
     1
  9
$CELWEIGHT
370
    -1
  9
$ENDCAPS
280
     0
  9
$JOINSTYLE
280
     0
  9
$LWDISPLAY
290
     1
  9
$INSUNITS
 70
     4
  9
$HYPERLINKBASE
  1

  9
$STYLESHEET
  1

  9
$XEDIT
290
     1
  9
$CEPSNTYPE
380
     0
  9
$PSTYLEMODE
290
     1
  9
$FINGERPRINTGUID
  2
{EB3353F4-DEF9-4F7A-BB2A-CE2D3DC0AAA8}
  9
$VERSIONGUID
  2
{FAEB1C32-E019-11D5-929B-00C0DF256EC4}
  9
$EXTNAMES
290
     1
  9
$PSVPSCALE
 40
0.0
  9
$OLESTARTUP
290
     0
  0
ENDSEC
  0
SECTION
  2
CLASSES
  0
CLASS
  1
ACDBDICTIONARYWDFLT
  2
AcDbDictionaryWithDefault
  3
ObjectDBX Classes
 90
        0
280
     0
281
     0
  0
CLASS
  1
VISUALSTYLE
  2
AcDbVisualStyle
  3
ObjectDBX Classes
 90
     4095
280
     0
281
     0
  0
CLASS
  1
MATERIAL
  2
AcDbMaterial
  3
ObjectDBX Classes
 90
     1153
280
     0
281
     0
  0
CLASS
  1
SCALE
  2
AcDbScale
  3
ObjectDBX Classes
 90
     1153
280
     0
281
     0
  0
CLASS
  1
SUN
  2
AcDbSun
  3
SCENEOE
 90
     1153
280
     0
281
     0
  0
CLASS
  1
ACDBPLACEHOLDER
  2
AcDbPlaceHolder
  3
ObjectDBX Classes
 90
        0
280
     0
281
     0
  0
CLASS
  1
LAYOUT
  2
AcDbLayout
  3
ObjectDBX Classes
 90
        0
280
     0
281
     0
  0
ENDSEC
  0
SECTION
  2
TABLES
  0
TABLE
  2
VPORT
  5
8
330
0
100
AcDbSymbolTable
 70
     1
  0
VPORT
  5
29
330
8
100
AcDbSymbolTableRecord
100
AcDbViewportTableRecord
  2
*Active
 70
     0
 10
0.0
 20
0.0
 11
1.0
 21
1.0
 12
139.7
 22
107.95
 13
0.0
 23
0.0
 14
10.0
 24
10.0
 15
10.0
 25
10.0
 16
0.0
 26
0.0
 36
1.0
 17
0.0
 27
0.0
 37
0.0
 40
215.9
 41
1.2941176471
 42
50.0
 43
0.0
 44
0.0
 50
0.0
 51
0.0
 71
     0
 72
  2000
 73
     1
 74
     3
 75
     0
 76
     0
 77
     0
 78
     0
281
     0
 65
     1
110
0.0
120
0.0
130
0.0
111
1.0
121
0.0
131
0.0
112
0.0
122
1.0
132
0.0
 79
     0
146
0.0
  0
ENDTAB
  0
TABLE
  2
LTYPE
  5
5
330
0
100
AcDbSymbolTable
 70
     6
  0
LTYPE
  5
14
330
5
100
AcDbSymbolTableRecord
100
AcDbLinetypeTableRecord
  2
ByBlock
 70
     0
  3

 72
    65
 73
     0
 40
0.0
  0
LTYPE
  5
15
330
5
100
AcDbSymbolTableRecord
100
AcDbLinetypeTableRecord
  2
ByLayer
 70
     0
  3

 72
    65
 73
     0
 40
0.0
  0
LTYPE
  5
16
330
5
100
AcDbSymbolTableRecord
100
AcDbLinetypeTableRecord
  2
Continuous
 70
     0
  3
Solid line
 72
    65
 73
     0
 40
0.0
  0
LTYPE
  5
6A
330
5
100
AcDbSymbolTableRecord
100
AcDbLinetypeTableRecord
  2
HIDDEN
 70
     0
  3
Hidden __ __ __ __ __ __ __ __ __ __ __ __ __ __
 72
    65
 73
     2
 40
1.905
 49
1.27
 74
     0
 49
-0.635
 74
     0
  0
LTYPE
  5
6B
330
5
100
AcDbSymbolTableRecord
100
AcDbLinetypeTableRecord
  2
PHANTOM
 70
     0
  3
Phantom ______  __  __  ______  __  __  ______
 72
    65
 73
     6
 40
12.7
 49
6.35
 74
     0
 49
-1.27
 74
     0
 49
1.27
 74
     0
 49
-1.27
 74
     0
 49
1.27
 74
     0
 49
-1.27
 74
     0
  0
LTYPE
  5
6C
330
5
100
AcDbSymbolTableRecord
100
AcDbLinetypeTableRecord
  2
CENTER
 70
     0
  3
Center ____ _ ____ _ ____ _ ____ _ ____ _ ____
 72
    65
 73
     4
 40
10.16
 49
6.35
 74
     0
 49
-1.27
 74
     0
 49
1.27
 74
     0
 49
-1.27
 74
     0
  0
LTYPE
  5
6D
330
5
100
AcDbSymbolTableRecord
100
AcDbLinetypeTableRecord
  2
CENTERX2
 70
     0
  3
Center (2x) ________  __  ________  __  _____
 72
    65
 73
     4
 40
20.32
 49
12.7
 74
     0
 49
-2.54
 74
     0
 49
2.54
 74
     0
 49
-2.54
 74
     0
  0
LTYPE
  5
6E
330
5
100
AcDbSymbolTableRecord
100
AcDbLinetypeTableRecord
  2
DOT2
 70
     0
  3
Dot (.5x) ........................................
 72
    65
 73
     2
 40
0.635
 49
0.0
 74
     0
 49
-0.635
 74
     0
  0
ENDTAB
  0
TABLE
  2
LAYER
  5
2
330
0
100
AcDbSymbolTable
 70
     2
  0
LAYER
  5
10
330
2
100
AcDbSymbolTableRecord
100
AcDbLayerTableRecord
  2
0
 70
     0
 62
     7
  6
Continuous
370
    -3
390
F
  0
LAYER
  5
6F
330
2
100
AcDbSymbolTableRecord
100
AcDbLayerTableRecord
  2
FORMAT
 70
     0
 62
     7
  6
Continuous
370
    -3
390
F
  0
ENDTAB
  0
TABLE
  2
STYLE
  5
3
330
0
100
AcDbSymbolTable
 70
     5
  0
STYLE
  5
11
330
3
100
AcDbSymbolTableRecord
100
AcDbTextStyleTableRecord
  2
Standard
 70
     0
 40
0.0
 41
1.0
 50
0.0
 71
     0
 42
2.8222222222
  3
txt
  4

  0
STYLE
  5
96
330
3
100
AcDbSymbolTableRecord
100
AcDbTextStyleTableRecord
  2
SLDTEXTSTYLE0
 70
     0
 40
0.0
 41
0.75
 50
0.0
 71
     0
 42
2.8222222222
  3
TXT
  4

  0
STYLE
  5
A0
330
3
100
AcDbSymbolTableRecord
100
AcDbTextStyleTableRecord
  2
SLDTEXTSTYLE1
 70
     0
 40
0.0
 41
0.6
 50
0.0
 71
     0
 42
2.8222222222
  3
TXT
  4

  0
STYLE
  5
C9
330
3
100
AcDbSymbolTableRecord
100
AcDbTextStyleTableRecord
  2
SLDTEXTSTYLE2
 70
     0
 40
0.0
 41
0.75
 50
0.0
 71
     0
 42
2.8222222222
  3
TXT
  4
bigfont
  0
STYLE
  5
D9
330
3
100
AcDbSymbolTableRecord
100
AcDbTextStyleTableRecord
  2
SLDTEXTSTYLE3
 70
     0
 40
0.0
 41
0.7
 50
0.0
 71
     0
 42
2.8222222222
  3
TXT
  4

  0
ENDTAB
  0
TABLE
  2
VIEW
  5
6
330
0
100
AcDbSymbolTable
 70
     0
  0
ENDTAB
  0
TABLE
  2
UCS
  5
7
330
0
100
AcDbSymbolTable
 70
     0
  0
ENDTAB
  0
TABLE
  2
APPID
  5
9
330
0
100
AcDbSymbolTable
 70
     1
  0
APPID
  5
12
330
9
100
AcDbSymbolTableRecord
100
AcDbRegAppTableRecord
  2
ACAD
 70
     0
  0
ENDTAB
  0
TABLE
  2
DIMSTYLE
  5
A
330
0
100
AcDbSymbolTable
 70
     4
100
AcDbDimStyleTable
  0
DIMSTYLE
105
27
330
A
100
AcDbSymbolTableRecord
100
AcDbDimStyleTableRecord
  2
ISO-25
 70
     0
 41
2.5
 42
0.625
 43
3.75
 44
1.25
 73
     0
 74
     0
 77
     1
 78
     8
140
2.5
141
2.5
143
0.0393700787
147
0.625
171
     3
172
     1
178
     0
271
     2
272
     2
274
     3
278
    44
283
     0
284
     8
340
11
  0
DIMSTYLE
105
E7
102
{ACAD_REACTORS
330
E6
102
}
330
A
100
AcDbSymbolTableRecord
100
AcDbDimStyleTableRecord
  2
SLDDIMSTYLE0
 70
     0
 41
3.175
 44
0.0
 45
0.000000001
 78
    12
 79
     3
140
2.1166666667
141
0.0
143
0.0393700787
147
0.5291666667
148
0.000000001
170
     1
173
     1
178
     0
271
     1
272
     1
276
     2
284
    12
340
96
  0
DIMSTYLE
105
112
102
{ACAD_REACTORS
330
111
102
}
330
A
100
AcDbSymbolTableRecord
100
AcDbDimStyleTableRecord
  2
SLDDIMSTYLE1
 70
     0
 41
3.175
 44
0.0
 45
0.000000001
 78
     4
 79
     1
140
2.1166666667
143
0.0393700787
147
0.5291666667
148
0.000000001
170
     1
173
     1
178
     0
271
     1
272
     1
276
     2
284
    12
340
96
  0
DIMSTYLE
105
127
330
A
100
AcDbSymbolTableRecord
100
AcDbDimStyleTableRecord
  2
SLDDIMSTYLE2
 70
     0
 41
3.175
 44
0.0
 45
0.000000001
146
3.175
147
0.0
173
     1
178
     0
271
     0
272
     0
276
     2
340
11
  0
ENDTAB
  0
TABLE
  2
BLOCK_RECORD
  5
1
330
0
100
AcDbSymbolTable
 70
     9
  0
BLOCK_RECORD
  5
1F
330
1
100
AcDbSymbolTableRecord
100
AcDbBlockTableRecord
  2
*Model_Space
340
22
  0
BLOCK_RECORD
  5
1B
330
1
100
AcDbSymbolTableRecord
100
AcDbBlockTableRecord
  2
*Paper_Space
340
1E
  0
BLOCK_RECORD
  5
23
330
1
100
AcDbSymbolTableRecord
100
AcDbBlockTableRecord
  2
*Paper_Space0
340
26
  0
BLOCK_RECORD
  5
70
330
1
100
AcDbSymbolTableRecord
100
AcDbBlockTableRecord
  2
Third Angle Projection Block
340
0
102
{BLKREFS
331
95
102
}
  0
BLOCK_RECORD
  5
A6
330
1
100
AcDbSymbolTableRecord
100
AcDbBlockTableRecord
  2
SW_NOTE_0
340
0
102
{BLKREFS
331
AB
102
}
  0
BLOCK_RECORD
  5
AC
330
1
100
AcDbSymbolTableRecord
100
AcDbBlockTableRecord
  2
SW_NOTE_1
340
0
102
{BLKREFS
331
B1
102
}
  0
BLOCK_RECORD
  5
B3
330
1
100
AcDbSymbolTableRecord
100
AcDbBlockTableRecord
  2
SW_NOTE_2
340
0
102
{BLKREFS
331
B8
102
}
  0
BLOCK_RECORD
  5
BA
330
1
100
AcDbSymbolTableRecord
100
AcDbBlockTableRecord
  2
SW_NOTE_3
340
0
102
{BLKREFS
331
C0
102
}
  0
BLOCK_RECORD
  5
C1
330
1
100
AcDbSymbolTableRecord
100
AcDbBlockTableRecord
  2
SW_NOTE_4
340
0
102
{BLKREFS
331
E1
102
}
  0
BLOCK_RECORD
  5
E8
330
1
100
AcDbSymbolTableRecord
100
AcDbBlockTableRecord
  2
_D
340
0
  0
BLOCK_RECORD
  5
113
330
1
100
AcDbSymbolTableRecord
100
AcDbBlockTableRecord
  2
_D_1
340
0
  0
ENDTAB
  0
ENDSEC
  0
SECTION
  2
BLOCKS
  0
BLOCK
  5
20
330
1F
100
AcDbEntity
  8
0
100
AcDbBlockBegin
  2
*Model_Space
 70
     0
 10
0.0
 20
0.0
 30
0.0
  3
*Model_Space
  1
*Model_Space
  0
ENDBLK
  5
21
330
1F
100
AcDbEntity
  8
0
100
AcDbBlockEnd
  0
BLOCK
  5
1C
330
1B
100
AcDbEntity
 67
     1
  8
0
100
AcDbBlockBegin
  2
*Paper_Space
 70
     0
 10
0.0
 20
0.0
 30
0.0
  3
*Paper_Space
  1
*Paper_Space
  0
ENDBLK
  5
1D
330
1B
100
AcDbEntity
 67
     1
  8
0
100
AcDbBlockEnd
  0
BLOCK
  5
24
330
23
100
AcDbEntity
  8
0
100
AcDbBlockBegin
  2
*Paper_Space0
 70
     0
 10
0.0
 20
0.0
 30
0.0
  3
*Paper_Space0
  1
*Paper_Space0
  0
ENDBLK
  5
25
330
23
100
AcDbEntity
  8
0
100
AcDbBlockEnd
  0
BLOCK
  5
71
330
70
100
AcDbEntity
  8
0
100
AcDbBlockBegin
  2
Third Angle Projection Block
 70
     0
 10
0.0
 20
0.0
 30
0.0
  3
Third Angle Projection Block
  1
Third Angle Projection Block
  0
CIRCLE
  5
73
330
70
100
AcDbEntity
  8
0
  6
Continuous
 62
     7
370
    30
100
AcDbCircle
 10
101.4766388944
 20
18.9404083667
 30
0.0
 40
1.768227153674871
  0
CIRCLE
  5
74
330
70
100
AcDbEntity
  8
0
  6
Continuous
 62
     7
370
    30
100
AcDbCircle
 10
101.4766388944
 20
18.9404083667
 30
0.0
 40
3.901228248531818
  0
LINE
  5
75
330
70
100
AcDbEntity
  8
0
  6
CENTERX2
 62
     7
370
     0
100
AcDbLine
 10
110.1367822585
 20
18.9404083667
 30
0.0
 11
119.4527334874
 21
18.9404083667
 31
0.0
  0
LINE
  5
76
330
70
100
AcDbEntity
  8
0
  6
Continuous
 62
     7
370
    30
100
AcDbLine
 10
111.0016388944
 20
20.7086355204
 30
0.0
 11
111.0016388944
 21
17.172181213
 31
0.0
  0
LINE
  5
77
330
70
100
AcDbEntity
  8
0
  6
Continuous
 62
     7
370
    30
100
AcDbLine
 10
111.0016388944
 20
17.172181213
 30
0.0
 11
118.6216388944
 21
15.1304083667
 31
0.0
  0
LINE
  5
78
330
70
100
AcDbEntity
  8
0
  6
Continuous
 62
     7
370
    30
100
AcDbLine
 10
118.6216388944
 20
15.1304083667
 30
0.0
 11
118.6216388944
 21
22.7504083667
 31
0.0
  0
LINE
  5
79
330
70
100
AcDbEntity
  8
0
  6
Continuous
 62
     7
370
    30
100
AcDbLine
 10
118.6216388944
 20
22.7504083667
 30
0.0
 11
111.0016388944
 21
20.7086355204
 31
0.0
  0
LINE
  5
7A
330
70
100
AcDbEntity
  8
0
  6
CENTERX2
 62
     7
370
     0
100
AcDbLine
 10
96.6025854619
 20
18.9404083667
 30
0.0
 11
106.3506923269
 21
18.9404083667
 31
0.0
  0
LINE
  5
7B
330
70
100
AcDbEntity
  8
0
  6
CENTERX2
 62
     7
370
     0
100
AcDbLine
 10
101.4766388944
 20
23.8144617992
 30
0.0
 11
101.4766388944
 21
14.0663549342
 31
0.0
  0
POINT
  5
7C
330
70
100
AcDbEntity
  8
0
  6
Continuous
 62
     7
370
     0
100
AcDbPoint
 10
101.4766388944
 20
18.9404083667
 30
0.0
  0
ENDBLK
  5
72
330
70
100
AcDbEntity
  8
0
100
AcDbBlockEnd
  0
BLOCK
  5
A7
330
A6
100
AcDbEntity
  8
0
100
AcDbBlockBegin
  2
SW_NOTE_0
 70
     0
 10
0.0
 20
0.0
 30
0.0
  3
SW_NOTE_0
  1
SW_NOTE_0
  0
MTEXT
  5
A9
330
A6
100
AcDbEntity
  8
0
  6
Continuous
 62
     0
370
     0
100
AcDbMText
 10
19.90725
 20
1.9645392354
 30
0.0
 40
1.524
 41
0.0
 71
     2
 72
     1
  1
VALUES IN PARENTHESIS ARE CALCULATED
  7
SLDTEXTSTYLE0
 73
     1
 44
1.0
  0
MTEXT
  5
AA
330
A6
100
AcDbEntity
  8
0
  6
Continuous
 62
     0
370
     0
100
AcDbMText
 10
19.8778795174
 20
-0.5594606586
 30
0.0
 40
1.524
 41
0.0
 71
     2
 72
     1
  1
AND MAY CONTAIN ROUNDOFF ERRORS
  7
SLDTEXTSTYLE0
 73
     1
 44
1.0
  0
ENDBLK
  5
A8
330
A6
100
AcDbEntity
  8
0
100
AcDbBlockEnd
  0
BLOCK
  5
AD
330
AC
100
AcDbEntity
  8
0
100
AcDbBlockBegin
  2
SW_NOTE_1
 70
     0
 10
0.0
 20
0.0
 30
0.0
  3
SW_NOTE_1
  1
SW_NOTE_1
  0
MTEXT
  5
AF
330
AC
100
AcDbEntity
  8
0
  6
Continuous
 62
     0
370
     0
100
AcDbMText
 10
0.0
 20
2.7285267159
 30
0.0
 40
2.1166666667
 41
0.0
 71
     1
 72
     1
  1
DRAWING
  7
SLDTEXTSTYLE0
 73
     1
 44
1.0
  0
MTEXT
  5
B0
330
AC
100
AcDbEntity
  8
0
  6
Continuous
 62
     0
370
     0
100
AcDbMText
 10
0.0
 20
-0.0936954723
 30
0.0
 40
2.1166666667
 41
0.0
 71
     1
 72
     1
  1
PROJECTION
  7
SLDTEXTSTYLE0
 73
     1
 44
1.0
  0
ENDBLK
  5
AE
330
AC
100
AcDbEntity
  8
0
100
AcDbBlockEnd
  0
BLOCK
  5
B4
330
B3
100
AcDbEntity
  8
0
100
AcDbBlockBegin
  2
SW_NOTE_2
 70
     0
 10
0.0
 20
0.0
 30
0.0
  3
SW_NOTE_2
  1
SW_NOTE_2
  0
MTEXT
  5
B6
330
B3
100
AcDbEntity
  8
0
  6
Continuous
 62
     0
370
     0
100
AcDbMText
 10
25.052734375
 20
4.0927900738
 30
0.0
 40
3.175
 41
0.0
 71
     2
 72
     1
  1
FOR INFORMATION ONLY
  7
SLDTEXTSTYLE0
 73
     1
 44
1.0
  0
MTEXT
  5
B7
330
B3
100
AcDbEntity
  8
0
  6
Continuous
 62
     0
370
     0
100
AcDbMText
 10
25.3768468589
 20
-0.1405432084
 30
0.0
 40
3.175
 41
0.0
 71
     2
 72
     1
  1
NOT FOR MANUFACTURING PURPOSES
  7
SLDTEXTSTYLE0
 73
     1
 44
1.0
  0
ENDBLK
  5
B5
330
B3
100
AcDbEntity
  8
0
100
AcDbBlockEnd
  0
BLOCK
  5
BB
330
BA
100
AcDbEntity
  8
0
100
AcDbBlockBegin
  2
SW_NOTE_3
 70
     0
 10
0.0
 20
0.0
 30
0.0
  3
SW_NOTE_3
  1
SW_NOTE_3
  0
MTEXT
  5
BD
330
BA
100
AcDbEntity
  8
0
  6
Continuous
 62
     0
370
     0
100
AcDbMText
 10
1.5213541667
 20
2.7285267159
 30
0.0
 40
2.1166666667
 41
0.0
 71
     2
 72
     1
  1
%%c
  7
SLDTEXTSTYLE0
 73
     1
 44
1.0
  0
MTEXT
  5
BE
330
BA
100
AcDbEntity
  8
0
  6
Continuous
 62
     0
370
     0
100
AcDbMText
 10
30.8108762174
 20
2.7285267159
 30
0.0
 40
2.1166666667
 41
0.0
 71
     2
 72
     1
  1
50.8mm BROADBAND ZERODUR® MIRROR
  7
SLDTEXTSTYLE0
 73
     1
 44
1.0
  0
MTEXT
  5
BF
330
BA
100
AcDbEntity
  8
0
  6
Continuous
 62
     0
370
     0
100
AcDbMText
 10
30.1252183775
 20
-0.0936954723
 30
0.0
 40
2.1166666667
 41
0.0
 71
     2
 72
     1
  1
350-400nm
  7
SLDTEXTSTYLE0
 73
     1
 44
1.0
  0
ENDBLK
  5
BC
330
BA
100
AcDbEntity
  8
0
100
AcDbBlockEnd
  0
BLOCK
  5
C2
330
C1
100
AcDbEntity
  8
0
100
AcDbBlockBegin
  2
SW_NOTE_4
 70
     0
 10
0.0
 20
0.0
 30
0.0
  3
SW_NOTE_4
  1
SW_NOTE_4
  0
MTEXT
  5
C4
330
C1
100
AcDbEntity
  8
0
  6
Continuous
 62
     0
370
     0
100
AcDbMText
 10
0.0
 20
3.0695925553
 30
0.0
 40
2.38125
 41
0.0
 71
     1
 72
     1
  1
NOTES/SPECIFICATIONS
  7
SLDTEXTSTYLE0
 73
     1
 44
1.0
  0
MTEXT
  5
C5
330
C1
100
AcDbEntity
  8
0
  6
Continuous
 62
     0
370
     0
100
AcDbMText
 10
9.9999997765
 20
-3.2804073679
 30
0.0
 40
2.38125
 41
0.0
 71
     1
 72
     1
  1
CLEAR APERTURE: >85% DIAMETER
  7
SLDTEXTSTYLE0
 73
     1
 44
1.0
  0
MTEXT
  5
C6
330
C1
100
AcDbEntity
  8
0
  6
Continuous
 62
     0
370
     0
100
AcDbMText
 10
0.0
 20
-3.2804073679
 30
0.0
 40
2.38125
 41
0.0
 71
     1
 72
     1
  1
1.
  7
SLDTEXTSTYLE0
 73
     1
 44
1.0
  0
MTEXT
  5
C7
330
C1
100
AcDbEntity
  8
0
  6
Continuous
 62
     0
370
     0
100
AcDbMText
 10
9.9999997765
 20
-6.4554073296
 30
0.0
 40
2.38125
 41
0.0
 71
     1
 72
     1
  1
SURFACE QUALITY: 10-5 SCRATCH-DIG
  7
SLDTEXTSTYLE0
 73
     1
 44
1.0
  0
MTEXT
  5
C8
330
C1
100
AcDbEntity
  8
0
  6
Continuous
 62
     0
370
     0
100
AcDbMText
 10
0.0
 20
-6.4554073296
 30
0.0
 40
2.38125
 41
0.0
 71
     1
 72
     1
  1
2.
  7
SLDTEXTSTYLE0
 73
     1
 44
1.0
  0
MTEXT
  5
CA
330
C1
100
AcDbEntity
  8
0
  6
Continuous
 62
     0
370
     0
100
AcDbMText
 10
9.9999997765
 20
-9.6304072912
 30
0.0
 40
2.38125
 41
0.0
 71
     1
 72
     1
  1
SURFACE FLATNESS (S1): \M+183C9/10 AT 632.8nm
  7
SLDTEXTSTYLE2
 73
     1
 44
1.0
  0
MTEXT
  5
CB
330
C1
100
AcDbEntity
  8
0
  6
Continuous
 62
     0
370
     0
100
AcDbMText
 10
0.0
 20
-9.6304072912
 30
0.0
 40
2.38125
 41
0.0
 71
     1
 72
     1
  1
3.
  7
SLDTEXTSTYLE0
 73
     1
 44
1.0
  0
MTEXT
  5
CC
330
C1
100
AcDbEntity
  8
0
  6
Continuous
 62
     0
370
     0
100
AcDbMText
 10
15.3578125
 20
-12.8054072528
 30
0.0
 40
2.38125
 41
0.0
 71
     1
 72
     1
  1
SURFACE FINISH (S2): FINE GROUND
  7
SLDTEXTSTYLE0
 73
     1
 44
1.0
  0
MTEXT
  5
CD
330
C1
100
AcDbEntity
  8
0
  6
Continuous
 62
     0
370
     0
100
AcDbMText
 10
9.9999997765
 20
-15.9804072144
 30
0.0
 40
2.38125
 41
0.0
 71
     1
 72
     1
  1
PARALLELISM: \U+2264 3arcmin
  7
SLDTEXTSTYLE2
 73
     1
 44
1.0
  0
MTEXT
  5
CE
330
C1
100
AcDbEntity
  8
0
  6
Continuous
 62
     0
370
     0
100
AcDbMText
 10
0.0
 20
-15.9804072144
 30
0.0
 40
2.38125
 41
0.0
 71
     1
 72
     1
  1
4.
  7
SLDTEXTSTYLE0
 73
     1
 44
1.0
  0
MTEXT
  5
CF
330
C1
100
AcDbEntity
  8
0
  6
Continuous
 62
     0
370
     0
100
AcDbMText
 10
9.9999997765
 20
-19.1554071761
 30
0.0
 40
2.38125
 41
0.0
 71
     1
 72
     1
  1
DIAMETER TOLERANCE: + 0.0/-0.1mm
  7
SLDTEXTSTYLE0
 73
     1
 44
1.0
  0
MTEXT
  5
D0
330
C1
100
AcDbEntity
  8
0
  6
Continuous
 62
     0
370
     0
100
AcDbMText
 10
0.0
 20
-19.1554071761
 30
0.0
 40
2.38125
 41
0.0
 71
     1
 72
     1
  1
5.
  7
SLDTEXTSTYLE0
 73
     1
 44
1.0
  0
MTEXT
  5
D1
330
C1
100
AcDbEntity
  8
0
  6
Continuous
 62
     0
370
     0
100
AcDbMText
 10
9.9999997765
 20
-22.3304071377
 30
0.0
 40
2.38125
 41
0.0
 71
     1
 72
     1
  1
THICKNESS TOLERANCE:
  7
SLDTEXTSTYLE0
 73
     1
 44
1.0
  0
MTEXT
  5
D2
330
C1
100
AcDbEntity
  8
0
  6
Continuous
 62
     0
370
     0
100
AcDbMText
 10
46.741804108
 20
-22.3304071377
 30
0.0
 40
2.38125
 41
0.0
 71
     1
 72
     1
  1
%%p
  7
SLDTEXTSTYLE0
 73
     1
 44
1.0
  0
MTEXT
  5
D3
330
C1
100
AcDbEntity
  8
0
  6
Continuous
 62
     0
370
     0
100
AcDbMText
 10
49.0119289607
 20
-22.3304071377
 30
0.0
 40
2.38125
 41
0.0
 71
     1
 72
     1
  1
0.2mm
  7
SLDTEXTSTYLE0
 73
     1
 44
1.0
  0
MTEXT
  5
D4
330
C1
100
AcDbEntity
  8
0
  6
Continuous
 62
     0
370
     0
100
AcDbMText
 10
0.0
 20
-22.3304071377
 30
0.0
 40
2.38125
 41
0.0
 71
     1
 72
     1
  1
6.
  7
SLDTEXTSTYLE0
 73
     1
 44
1.0
  0
MTEXT
  5
D5
330
C1
100
AcDbEntity
  8
0
  6
Continuous
 62
     0
370
     0
100
AcDbMText
 10
9.9999997765
 20
-25.5054070993
 30
0.0
 40
2.38125
 41
0.0
 71
     1
 72
     1
  1
COATING(S1): BROADBAND HR, DIELECTRIC
  7
SLDTEXTSTYLE0
 73
     1
 44
1.0
  0
MTEXT
  5
D6
330
C1
100
AcDbEntity
  8
0
  6
Continuous
 62
     0
370
     0
100
AcDbMText
 10
0.0
 20
-25.5054070993
 30
0.0
 40
2.38125
 41
0.0
 71
     1
 72
     1
  1
7.
  7
SLDTEXTSTYLE0
 73
     1
 44
1.0
  0
MTEXT
  5
D7
330
C1
100
AcDbEntity
  8
0
  6
Continuous
 62
     0
370
     0
100
AcDbMText
 10
10.0
 20
-28.680407061
 30
0.0
 40
2.38125
 41
0.0
 71
     1
 72
     1
  1
R
  7
SLDTEXTSTYLE0
 73
     1
 44
1.0
  0
MTEXT
  5
D8
330
C1
100
AcDbEntity
  8
0
  6
Continuous
 62
     0
370
     0
100
AcDbMText
 10
11.9270486664
 20
-29.7330500309
 30
0.0
 40
1.3229166667
 41
0.0
 71
     1
 72
     1
  1
S
  7
SLDTEXTSTYLE0
 73
     1
 44
1.0
  0
MTEXT
  5
DA
330
C1
100
AcDbEntity
  8
0
  6
Continuous
 62
     0
370
     0
100
AcDbMText
 10
13.3915664535
 20
-28.680407061
 30
0.0
 40
2.38125
 41
0.0
 71
     1
 72
     1
  1
AND R
  7
SLDTEXTSTYLE3
 73
     1
 44
1.0
  0
MTEXT
  5
DB
330
C1
100
AcDbEntity
  8
0
  6
Continuous
 62
     0
370
     0
100
AcDbMText
 10
23.26052472
 20
-29.7330500309
 30
0.0
 40
1.3229166667
 41
0.0
 71
     1
 72
     1
  1
P
  7
SLDTEXTSTYLE0
 73
     1
 44
1.0
  0
MTEXT
  5
DC
330
C1
100
AcDbEntity
  8
0
  6
Continuous
 62
     0
370
     0
100
AcDbMText
 10
24.7916786373
 20
-28.680407061
 30
0.0
 40
2.38125
 41
0.0
 71
     1
 72
     1
  1
> 99% FROM 350-400nm
  7
SLDTEXTSTYLE0
 73
     1
 44
1.0
  0
MTEXT
  5
DD
330
C1
100
AcDbEntity
  8
0
  6
Continuous
 62
     0
370
     0
100
AcDbMText
 10
10.0
 20
-31.8554070226
 30
0.0
 40
2.38125
 41
0.0
 71
     1
 72
     1
  1
AOI: 0
  7
SLDTEXTSTYLE0
 73
     1
 44
1.0
  0
MTEXT
  5
DE
330
C1
100
AcDbEntity
  8
0
  6
Continuous
 62
     0
370
     0
100
AcDbMText
 10
19.344201535
 20
-31.8554070226
 30
0.0
 40
2.38125
 41
0.0
 71
     1
 72
     1
  1
%%d
  7
SLDTEXTSTYLE0
 73
     1
 44
1.0
  0
MTEXT
  5
DF
330
C1
100
AcDbEntity
  8
0
  6
Continuous
 62
     0
370
     0
100
AcDbMText
 10
21.7505871639
 20
-31.8554070226
 30
0.0
 40
2.38125
 41
0.0
 71
     1
 72
     1
  1
TO 45
  7
SLDTEXTSTYLE3
 73
     1
 44
1.0
  0
MTEXT
  5
E0
330
C1
100
AcDbEntity
  8
0
  6
Continuous
 62
     0
370
     0
100
AcDbMText
 10
30.2459171414
 20
-31.8554070226
 30
0.0
 40
2.38125
 41
0.0
 71
     1
 72
     1
  1
%%d
  7
SLDTEXTSTYLE0
 73
     1
 44
1.0
  0
ENDBLK
  5
C3
330
C1
100
AcDbEntity
  8
0
100
AcDbBlockEnd
  0
BLOCK
  5
E9
330
E8
100
AcDbEntity
  8
0
100
AcDbBlockBegin
  2
_D
 70
     0
 10
0.0
 20
0.0
 30
0.0
  3
_D
  1
_D
  0
SOLID
  5
EB
330
E8
100
AcDbEntity
  8
0
  6
Continuous
 62
     7
370
     0
100
AcDbTrace
 10
66.0175003801
 20
138.5518080163
 30
0.0
 11
68.0449412852
 21
141.0474386733
 31
0.0
 12
67.165059475
 22
141.5554386733
 32
0.0
 13
67.165059475
 23
141.5554386733
 33
0.0
  0
LINE
  5
EC
330
E8
100
AcDbEntity
  8
0
  6
Continuous
 62
     7
370
     0
100
AcDbLine
 10
78.7618357903
 20
150.9997209105
 30
0.0
 11
78.3326228305
 21
150.9997209105
 31
0.0
  0
LINE
  5
ED
330
E8
100
AcDbEntity
  8
0
  6
Continuous
 62
     7
370
     0
100
AcDbLine
 10
78.3326228305
 20
150.9997209105
 30
0.0
 11
78.3326228305
 21
147.6365728341
 31
0.0
  0
LINE
  5
EE
330
E8
100
AcDbEntity
  8
0
  6
Continuous
 62
     7
370
     0
100
AcDbLine
 10
78.3326228305
 20
147.6365728341
 30
0.0
 11
78.7618357903
 21
147.6365728341
 31
0.0
  0
LINE
  5
EF
330
E8
100
AcDbEntity
  8
0
  6
Continuous
 62
     7
370
     0
100
AcDbLine
 10
87.5920597795
 20
150.9997209105
 30
0.0
 11
88.0212727392
 21
150.9997209105
 31
0.0
  0
LINE
  5
F0
330
E8
100
AcDbEntity
  8
0
  6
Continuous
 62
     7
370
     0
100
AcDbLine
 10
88.0212727392
 20
150.9997209105
 30
0.0
 11
88.0212727392
 21
147.6365728341
 31
0.0
  0
LINE
  5
F1
330
E8
100
AcDbEntity
  8
0
  6
Continuous
 62
     7
370
     0
100
AcDbLine
 10
88.0212727392
 20
147.6365728341
 30
0.0
 11
87.5920597795
 21
147.6365728341
 31
0.0
  0
LINE
  5
F2
330
E8
100
AcDbEntity
  8
0
  6
Continuous
 62
     7
370
     0
100
AcDbLine
 10
66.0175003801
 20
138.5518080163
 30
0.0
 11
74.2007131035
 21
152.7255482223
 31
0.0
  0
LINE
  5
F3
330
E8
100
AcDbEntity
  8
0
  6
Continuous
 62
     7
370
     0
100
AcDbLine
 10
74.2007131035
 20
152.7255482223
 30
0.0
 11
78.0107131035
 21
152.7255482223
 31
0.0
  0
MTEXT
  5
F4
330
E8
100
AcDbEntity
  8
0
  6
Continuous
 62
     7
370
     0
100
AcDbMText
 10
78.0107131035
 20
154.157460557
 30
0.0
 40
2.1166666667
 41
0.0
 71
     1
 72
     1
  1
%%c
  7
SLDTEXTSTYLE0
 73
     1
 44
1.0
  0
MTEXT
  5
F5
330
E8
100
AcDbEntity
  8
0
  6
Continuous
 62
     7
370
     0
100
AcDbMText
 10
81.2057039042
 20
154.157460557
 30
0.0
 40
2.1166666667
 41
0.0
 71
     1
 72
     1
  1
50.8mm
  7
SLDTEXTSTYLE0
 73
     1
 44
1.0
  0
MTEXT
  5
F6
330
E8
100
AcDbEntity
  8
0
  6
Continuous
 62
     7
370
     0
100
AcDbMText
 10
79.2983520117
 20
150.3650994335
 30
0.0
 40
2.1166666667
 41
0.0
 71
     1
 72
     1
  1
2.00in
  7
SLDTEXTSTYLE0
 73
     1
 44
1.0
  0
ENDBLK
  5
EA
330
E8
100
AcDbEntity
  8
0
100
AcDbBlockEnd
  0
BLOCK
  5
114
330
113
100
AcDbEntity
  8
0
100
AcDbBlockBegin
  2
_D_1
 70
     0
 10
0.0
 20
0.0
 30
0.0
  3
_D_1
  1
_D_1
  0
SOLID
  5
116
330
113
100
AcDbEntity
  8
0
  6
Continuous
 62
     7
370
     0
100
AcDbTrace
 10
126.2346801268
 20
147.2880960935
 30
0.0
 11
129.4096801268
 21
146.7800960935
 31
0.0
 12
129.4096801268
 22
147.7960960935
 32
0.0
 13
129.4096801268
 23
147.7960960935
 33
0.0
  0
SOLID
  5
117
330
113
100
AcDbEntity
  8
0
  6
Continuous
 62
     7
370
     0
100
AcDbTrace
 10
138.2346801268
 20
147.2880960935
 30
0.0
 11
135.0596801268
 21
147.7960960935
 31
0.0
 12
135.0596801268
 22
146.7800960935
 32
0.0
 13
135.0596801268
 23
146.7800960935
 33
0.0
  0
LINE
  5
118
330
113
100
AcDbEntity
  8
0
  6
Continuous
 62
     7
370
     0
100
AcDbLine
 10
149.8195683651
 20
147.2880958607
 30
0.0
 11
149.3903554054
 21
147.2880958607
 31
0.0
  0
LINE
  5
119
330
113
100
AcDbEntity
  8
0
  6
Continuous
 62
     7
370
     0
100
AcDbLine
 10
149.3903554054
 20
147.2880958607
 30
0.0
 11
149.3903554054
 21
143.9249477842
 31
0.0
  0
LINE
  5
11A
330
113
100
AcDbEntity
  8
0
  6
Continuous
 62
     7
370
     0
100
AcDbLine
 10
149.3903554054
 20
143.9249477842
 30
0.0
 11
149.8195683651
 21
143.9249477842
 31
0.0
  0
LINE
  5
11B
330
113
100
AcDbEntity
  8
0
  6
Continuous
 62
     7
370
     0
100
AcDbLine
 10
158.6497923543
 20
147.2880958607
 30
0.0
 11
159.079005314
 21
147.2880958607
 31
0.0
  0
LINE
  5
11C
330
113
100
AcDbEntity
  8
0
  6
Continuous
 62
     7
370
     0
100
AcDbLine
 10
159.079005314
 20
147.2880958607
 30
0.0
 11
159.079005314
 21
143.9249477842
 31
0.0
  0
LINE
  5
11D
330
113
100
AcDbEntity
  8
0
  6
Continuous
 62
     7
370
     0
100
AcDbLine
 10
159.079005314
 20
143.9249477842
 30
0.0
 11
158.6497923543
 21
143.9249477842
 31
0.0
  0
LINE
  5
11E
330
113
100
AcDbEntity
  8
0
  6
Continuous
 62
     7
370
     0
100
AcDbLine
 10
126.2346801268
 20
142.9747627602
 30
0.0
 11
126.2346801268
 21
149.0660960935
 31
0.0
  0
LINE
  5
11F
330
113
100
AcDbEntity
  8
0
  6
Continuous
 62
     7
370
     0
100
AcDbLine
 10
138.2346801268
 20
118.1041627602
 30
0.0
 11
138.2346801268
 21
149.0660960935
 31
0.0
  0
LINE
  5
120
330
113
100
AcDbEntity
  8
0
  6
Continuous
 62
     7
370
     0
100
AcDbLine
 10
126.2346801268
 20
147.2880960935
 30
0.0
 11
138.2346801268
 21
147.2880960935
 31
0.0
  0
LINE
  5
121
330
113
100
AcDbEntity
  8
0
  6
Continuous
 62
     7
370
     0
100
AcDbLine
 10
138.2346801268
 20
147.2880960935
 30
0.0
 11
146.8631542042
 21
147.2880960935
 31
0.0
  0
MTEXT
  5
122
330
113
100
AcDbEntity
  8
0
  6
Continuous
 62
     7
370
     0
100
AcDbMText
 10
148.8802972334
 20
150.4458355071
 30
0.0
 40
2.1166666667
 41
0.0
 71
     1
 72
     1
  1

  7
SLDTEXTSTYLE0
 73
     1
 44
1.0
  0
MTEXT
  5
123
330
113
100
AcDbEntity
  8
0
  6
Continuous
 62
     7
370
     0
100
AcDbMText
 10
148.8528589378
 20
150.4458355071
 30
0.0
 40
2.1166666667
 41
0.0
 71
     1
 72
     1
  1
12.0mm
  7
SLDTEXTSTYLE0
 73
     1
 44
1.0
  0
MTEXT
  5
124
330
113
100
AcDbEntity
  8
0
  6
Continuous
 62
     7
370
     0
100
AcDbMText
 10
150.3560845866
 20
146.6534743836
 30
0.0
 40
2.1166666667
 41
0.0
 71
     1
 72
     1
  1
0.47in
  7
SLDTEXTSTYLE0
 73
     1
 44
1.0
  0
MTEXT
  5
125
330
113
100
AcDbEntity
  8
0
  6
Continuous
 62
     7
370
     0
100
AcDbMText
 10
161.2040008503
 20
150.4458355071
 30
0.0
 40
2.1166666667
 41
0.0
 71
     1
 72
     1
  1

  7
SLDTEXTSTYLE0
 73
     1
 44
1.0
  0
ENDBLK
  5
115
330
113
100
AcDbEntity
  8
0
100
AcDbBlockEnd
  0
ENDSEC
  0
SECTION
  2
ENTITIES
  0
LINE
  5
7D
330
1F
100
AcDbEntity
  8
0
  6
Continuous
 62
     7
370
     0
100
AcDbLine
 10
1.5793501011
 20
214.6453799966
 30
0.0
 11
277.9892068491
 21
214.6453799966
 31
0.0
  0
LINE
  5
7E
330
1F
100
AcDbEntity
  8
0
  6
Continuous
 62
     7
370
     0
100
AcDbLine
 10
1.5793501011
 20
214.6453799966
 30
0.0
 11
1.5793501011
 21
0.9031642596
 31
0.0
  0
LINE
  5
7F
330
1F
100
AcDbEntity
  8
0
  6
Continuous
 62
     7
370
     0
100
AcDbLine
 10
277.9892068491
 20
0.9031642596
 30
0.0
 11
1.5793501011
 21
0.9031642596
 31
0.0
  0
LINE
  5
80
330
1F
100
AcDbEntity
  8
0
  6
Continuous
 62
     7
370
     0
100
AcDbLine
 10
277.9892068491
 20
0.9031642596
 30
0.0
 11
277.9892068491
 21
214.6453799966
 31
0.0
  0
LINE
  5
81
330
1F
100
AcDbEntity
  8
0
  6
Continuous
 62
     7
370
     0
100
AcDbLine
 10
215.7427640041
 20
12.2958890132
 30
0.0
 11
171.6327596684
 21
12.2958890132
 31
0.0
  0
LINE
  5
82
330
1F
100
AcDbEntity
  8
0
  6
Continuous
 62
     7
370
     0
100
AcDbLine
 10
171.6327596684
 20
12.2958890132
 30
0.0
 11
171.6327596684
 21
26.1661402506
 31
0.0
  0
LINE
  5
83
330
1F
100
AcDbEntity
  8
0
  6
Continuous
 62
     7
370
     0
100
AcDbLine
 10
171.6327596684
 20
0.9031642596
 30
0.0
 11
171.6327596684
 21
26.1661402506
 31
0.0
  0
LINE
  5
84
330
1F
100
AcDbEntity
  8
0
  6
Continuous
 62
     7
370
     0
100
AcDbLine
 10
215.7427640041
 20
17.1604579552
 30
0.0
 11
277.9892068491
 21
17.1604579552
 31
0.0
  0
LINE
  5
85
330
1F
100
AcDbEntity
  8
0
  6
Continuous
 62
     7
370
     0
100
AcDbLine
 10
215.7427640041
 20
35.2394508358
 30
0.0
 11
215.7427640041
 21
0.9031642596
 31
0.0
  0
LINE
  5
86
330
1F
100
AcDbEntity
  8
0
  6
Continuous
 62
     7
370
     0
100
AcDbLine
 10
215.7427640041
 20
26.1661402506
 30
0.0
 11
171.6327596684
 21
26.1661402506
 31
0.0
  0
LINE
  5
87
330
1F
100
AcDbEntity
  8
0
  6
Continuous
 62
     7
370
     0
100
AcDbLine
 10
215.7427640041
 20
9.1409200612
 30
0.0
 11
277.9892068491
 21
9.1409200612
 31
0.0
  0
LINE
  5
88
330
1F
100
AcDbEntity
  8
0
  6
Continuous
 62
     7
370
     0
100
AcDbLine
 10
215.7427640041
 20
16.9216824031
 30
0.0
 11
171.6327596684
 21
16.9216824031
 31
0.0
  0
LINE
  5
89
330
1F
100
AcDbEntity
  8
0
  6
Continuous
 62
     7
370
     0
100
AcDbLine
 10
215.7427640041
 20
21.4874005542
 30
0.0
 11
171.6327596684
 21
21.4874005542
 31
0.0
  0
LINE
  5
8A
330
1F
100
AcDbEntity
  8
0
  6
Continuous
 62
     7
370
     0
100
AcDbLine
 10
186.1338100705
 20
26.1661402506
 30
0.0
 11
186.1338100705
 21
12.2958890132
 31
0.0
  0
LINE
  5
8B
330
1F
100
AcDbEntity
  8
0
  6
Continuous
 62
     7
370
     0
100
AcDbLine
 10
198.2145906188
 20
26.1661402506
 30
0.0
 11
198.2145906188
 21
12.2958890132
 31
0.0
  0
LINE
  5
8C
330
1F
100
AcDbEntity
  8
0
  6
Continuous
 62
     7
370
     0
100
AcDbLine
 10
253.7490408369
 20
9.1409200612
 30
0.0
 11
253.7490408369
 21
0.9031642596
 31
0.0
  0
LINE
  5
8D
330
1F
100
AcDbEntity
  8
0
  6
Continuous
 62
     7
370
     0
100
AcDbLine
 10
171.6327596684
 20
12.2958890132
 30
0.0
 11
171.6327596684
 21
7.5627342528
 31
0.0
  0
LINE
  5
8E
330
1F
100
AcDbEntity
  8
0
  6
Continuous
 62
     7
370
     0
100
AcDbLine
 10
171.6327596684
 20
7.5627342528
 30
0.0
 11
215.7427640041
 21
7.5627342528
 31
0.0
  0
LINE
  5
8F
330
1F
100
AcDbEntity
  8
0
  6
Continuous
 62
     7
370
     0
100
AcDbLine
 10
171.6327596684
 20
7.5627342528
 30
0.0
 11
171.6327596684
 21
35.2394508358
 31
0.0
  0
LINE
  5
90
330
1F
100
AcDbEntity
  8
0
  6
Continuous
 62
     7
370
     0
100
AcDbLine
 10
171.6327596684
 20
35.2394508358
 30
0.0
 11
215.7427640041
 21
35.2394508358
 31
0.0
  0
LINE
  5
91
330
1F
100
AcDbEntity
  8
0
  6
Continuous
 62
     7
370
     0
100
AcDbLine
 10
270.1683598194
 20
17.1604579552
 30
0.0
 11
270.1683598194
 21
9.1409200612
 31
0.0
  0
LINE
  5
92
330
1F
100
AcDbEntity
  8
0
  6
Continuous
 62
     7
370
     0
100
AcDbLine
 10
215.7427640041
 20
35.2394508358
 30
0.0
 11
277.9892068491
 21
35.2394508358
 31
0.0
  0
LINE
  5
93
330
1F
100
AcDbEntity
  8
0
  6
Continuous
 62
     7
370
     0
100
AcDbLine
 10
277.9892068491
 20
35.2394508358
 30
0.0
 11
277.9892068491
 21
50.0331356147
 31
0.0
  0
LINE
  5
94
330
1F
100
AcDbEntity
  8
0
  6
Continuous
 62
     7
370
     0
100
AcDbLine
 10
215.7427640041
 20
24.8927335446
 30
0.0
 11
277.9892068491
 21
24.8927335446
 31
0.0
  0
INSERT
  5
95
330
1F
100
AcDbEntity
  8
0
  6
Continuous
 62
     7
100
AcDbBlockReference
  2
Third Angle Projection Block
 10
117.7262204235
 20
15.5162339489
 30
0.0
 41
0.8
 42
0.8
 43
0.8
  0
MTEXT
  5
97
330
1F
100
AcDbEntity
  8
0
  6
Continuous
 62
     7
370
     0
100
AcDbMText
 10
273.7514466724
 20
13.1125292762
 30
0.0
 40
3.175
 41
0.0
 71
     2
 72
     1
  1
A
  7
SLDTEXTSTYLE0
 73
     1
 44
1.0
  0
MTEXT
  5
98
330
1F
100
AcDbEntity
  8
0
  6
Continuous
 62
     7
370
     0
100
AcDbMText
 10
234.8982653475
 20
5.1306563898
 30
0.0
 40
3.175
 41
0.0
 71
     2
 72
     1
  1
BB211-E01
  7
SLDTEXTSTYLE0
 73
     1
 44
1.0
  0
MTEXT
  5
99
330
1F
100
AcDbEntity
  8
0
  6
Continuous
 62
     7
370
     0
100
AcDbMText
 10
216.4199766059
 20
16.8243178599
 30
0.0
 40
2.1166666667
 41
0.0
 71
     1
 72
     1
  1
MATERIAL
  7
SLDTEXTSTYLE0
 73
     1
 44
1.0
  0
MTEXT
  5
9A
330
1F
100
AcDbEntity
  8
0
  6
Continuous
 62
     7
370
     0
100
AcDbMText
 10
174.230946566
 20
20.054553926
 30
0.0
 40
1.8520833333
 41
0.0
 71
     1
 72
     1
  1
DRAWN
  7
SLDTEXTSTYLE0
 73
     1
 44
1.0
  0
MTEXT
  5
9B
330
1F
100
AcDbEntity
  8
0
  6
Continuous
 62
     7
370
     0
100
AcDbMText
 10
172.3960124543
 20
15.5787169747
 30
0.0
 40
1.8520833333
 41
0.0
 71
     1
 72
     1
  1
APPROVAL
  7
SLDTEXTSTYLE0
 73
     1
 44
1.0
  0
MTEXT
  5
9C
330
1F
100
AcDbEntity
  8
0
  6
Continuous
 62
     7
370
     0
100
AcDbMText
 10
271.321689486
 20
16.0237652193
 30
0.0
 40
2.1166666667
 41
0.0
 71
     1
 72
     1
  1
REV
  7
SLDTEXTSTYLE0
 73
     1
 44
1.0
  0
MTEXT
  5
9D
330
1F
100
AcDbEntity
  8
0
  6
Continuous
 62
     7
370
     0
100
AcDbMText
 10
190.2958696448
 20
20.3177146903
 30
0.0
 40
2.1166666667
 41
0.0
 71
     1
 72
     1
  1
LM
  7
SLDTEXTSTYLE0
 73
     1
 44
1.0
  0
MTEXT
  5
9E
330
1F
100
AcDbEntity
  8
0
  6
Continuous
 62
     7
370
     0
100
AcDbMText
 10
199.8662436873
 20
20.3177146903
 30
0.0
 40
2.1166666667
 41
0.0
 71
     1
 72
     1
  1
23/JUL/15
  7
SLDTEXTSTYLE0
 73
     1
 44
1.0
  0
MTEXT
  5
9F
330
1F
100
AcDbEntity
  8
0
  6
Continuous
 62
     7
370
     0
100
AcDbMText
 10
203.6145073853
 20
24.8221395769
 30
0.0
 40
2.1166666667
 41
0.0
 71
     1
 72
     1
  1
DATE
  7
SLDTEXTSTYLE0
 73
     1
 44
1.0
  0
MTEXT
  5
A1
330
1F
100
AcDbEntity
  8
0
  6
Continuous
 62
     7
370
     0
100
AcDbMText
 10
229.402906477
 20
27.7957480569
 30
0.0
 40
2.1166666667
 41
0.0
 71
     1
 72
     1
  1
w w w . t h o r  l a b s . c o m
  7
SLDTEXTSTYLE1
 73
     1
 44
1.0
  0
MTEXT
  5
A2
330
1F
100
AcDbEntity
  8
0
  6
Continuous
 62
     7
370
     0
100
AcDbMText
 10
216.7004035316
 20
8.3494791871
 30
0.0
 40
2.1166666667
 41
0.0
 71
     1
 72
     1
  1
ITEM #
  7
SLDTEXTSTYLE0
 73
     1
 44
1.0
  0
MTEXT
  5
A3
330
1F
100
AcDbEntity
  8
0
  6
Continuous
 62
     7
370
     0
100
AcDbMText
 10
254.5318000914
 20
8.3494791871
 30
0.0
 40
2.1166666667
 41
0.0
 71
     1
 72
     1
  1
APPROX WEIGHT
  7
SLDTEXTSTYLE0
 73
     1
 44
1.0
  0
MTEXT
  5
A4
330
1F
100
AcDbEntity
  8
0
  6
Continuous
 62
     7
370
     0
100
AcDbMText
 10
243.618008602
 20
13.1125292762
 30
0.0
 40
3.175
 41
0.0
 71
     2
 72
     1
  1
ZERODUR®
  7
SLDTEXTSTYLE0
 73
     1
 44
1.0
  0
MTEXT
  5
A5
330
1F
100
AcDbEntity
  8
0
  6
Continuous
 62
     7
370
     0
100
AcDbMText
 10
266.1678480997
 20
5.1306563898
 30
0.0
 40
3.175
 41
0.0
 71
     2
 72
     1
  1
0.05 kg
  7
SLDTEXTSTYLE0
 73
     1
 44
1.0
  0
INSERT
  5
AB
330
1F
100
AcDbEntity
  8
0
  6
Continuous
 62
     7
370
     0
100
AcDbBlockReference
  2
SW_NOTE_0
 10
174.8430140051
 20
4.4558554801
 30
0.0
  0
INSERT
  5
B1
330
1F
100
AcDbEntity
  8
0
  6
Continuous
 62
     7
370
     0
100
AcDbBlockReference
  2
SW_NOTE_1
 10
174.5483650337
 20
30.4835322715
 30
0.0
  0
MTEXT
  5
B2
330
1F
100
AcDbEntity
  8
0
  6
Continuous
 62
     7
370
     0
100
AcDbMText
 10
187.9273588276
 20
24.8221395769
 30
0.0
 40
2.1166666667
 41
0.0
 71
     1
 72
     1
  1
NAME
  7
SLDTEXTSTYLE0
 73
     1
 44
1.0
  0
INSERT
  5
B8
330
1F
100
AcDbEntity
  8
0
  6
Continuous
 62
     7
370
     0
100
AcDbBlockReference
  2
SW_NOTE_2
 10
58.6204667508
 20
8.1776609732
 30
0.0
  0
MTEXT
  5
B9
330
1F
100
AcDbEntity
  8
0
  6
Continuous
 62
     7
370
     0
100
AcDbMText
 10
179.1174811218
 20
10.6680638482
 30
0.0
 40
1.5875
 41
0.0
 71
     1
 72
     1
  1
COPYRIGHT © 2015 BY THORLABS
  7
SLDTEXTSTYLE0
 73
     1
 44
1.0
  0
INSERT
  5
C0
330
1F
100
AcDbEntity
  8
0
  6
Continuous
 62
     7
370
     0
100
AcDbBlockReference
  2
SW_NOTE_3
 10
216.9065300668
 20
21.2922815964
 30
0.0
  0
INSERT
  5
E1
330
1F
100
AcDbEntity
  8
0
  6
Continuous
 62
     7
370
     0
100
AcDbBlockReference
  2
SW_NOTE_4
 10
6.9016571464
 20
55.6112863388
 30
0.0
  0
MTEXT
  5
E2
330
1F
100
AcDbEntity
  8
0
  6
Continuous
 62
     7
370
     0
100
AcDbMText
 10
199.7154625413
 20
15.9540988729
 30
0.0
 40
2.1166666667
 41
0.0
 71
     1
 72
     1
  1
04/AUG/15
  7
SLDTEXTSTYLE0
 73
     1
 44
1.0
  0
MTEXT
  5
E3
330
1F
100
AcDbEntity
  8
0
  6
Continuous
 62
     7
370
     0
100
AcDbMText
 10
190.1450884988
 20
15.9540988729
 30
0.0
 40
2.1166666667
 41
0.0
 71
     1
 72
     1
  1
CS
  7
SLDTEXTSTYLE0
 73
     1
 44
1.0
  0
CIRCLE
  5
E4
330
1F
100
AcDbEntity
  8
0
  6
Continuous
 62
     7
370
     0
100
AcDbCircle
 10
53.3175003801
 20
116.5547627602
 30
0.0
 40
25.15
  0
CIRCLE
  5
E5
330
1F
100
AcDbEntity
  8
0
  6
Continuous
 62
     7
370
     0
100
AcDbCircle
 10
53.3175003801
 20
116.5547627602
 30
0.0
 40
25.4
  0
DIMENSION
  5
E6
330
1F
100
AcDbEntity
  8
0
  6
Continuous
 62
     7
370
     0
100
AcDbDimension
  2
_D
 10
40.6175003801
 20
94.557717504
 30
0.0
 11
84.9900295765
 21
152.569738072
 31
0.0
 70
   163
  1
<>
 71
     1
 42
-1.0
  3
SLDDIMSTYLE0
100
AcDbDiametricDimension
 15
66.0175003801
 25
138.5518080163
 35
0.0
 40
0.0
  0
LINE
  5
F7
330
1F
100
AcDbEntity
  8
0
  6
Continuous
 62
     7
370
     0
100
AcDbLine
 10
223.4807986687
 20
191.7932513776
 30
0.0
 11
223.4807986687
 21
191.5891493496
 31
0.0
  0
LINE
  5
F8
330
1F
100
AcDbEntity
  8
0
  6
Continuous
 62
     7
370
     0
100
AcDbLine
 10
241.2616438584
 20
160.7884847634
 30
0.0
 11
241.4383918225
 21
160.6864171633
 31
0.0
  0
LINE
  5
F9
330
1F
100
AcDbEntity
  8
0
  6
Continuous
 62
     7
370
     0
100
AcDbLine
 10
236.87407099
 20
208.1168561049
 30
0.0
 11
228.7423430064
 21
203.4225094619
 31
0.0
  0
LINE
  5
FA
330
1F
100
AcDbEntity
  8
0
  6
Continuous
 62
     7
370
     0
100
AcDbLine
 10
254.1402788153
 20
159.427227253
 30
0.0
 11
262.272006799
 21
164.1215738959
 31
0.0
  0
LINE
  5
FB
330
1F
100
AcDbEntity
  8
0
  6
Continuous
 62
     7
370
     0
100
AcDbLine
 10
267.5335511366
 20
175.7508319803
 30
0.0
 11
267.5335511366
 21
175.9549340082
 31
0.0
  0
LINE
  5
FC
330
1F
100
AcDbEntity
  8
0
  6
Continuous
 62
     7
370
     0
100
AcDbLine
 10
249.752705947
 20
206.7555985944
 30
0.0
 11
249.5759579829
 21
206.8576661946
 31
0.0
  0
LWPOLYLINE
  5
FD
330
1F
100
AcDbEntity
  8
0
  6
Continuous
 62
     7
370
     0
100
AcDbPolyline
 90
      165
 70
   128
 43
0.0
 10
259.0482697624
 20
171.0564853373
 10
259.0352197203
 20
171.8506039597
 10
258.9960887466
 20
172.6586243614
 10
258.9309342715
 20
173.4793606611
 10
258.8398519182
 20
174.311608315
 10
258.7229753625
 20
175.1541458851
 10
258.580476137
 20
176.0057368312
 10
258.4125633788
 20
176.8651313261
 10
258.2194835232
 20
177.73106809
 10
258.0015199414
 20
178.6022762412
 10
257.758992525
 20
179.4774771616
 10
257.4922572165
 20
180.3553863733
 10
257.2017054868
 20
181.2347154232
 10
256.8877637604
 20
182.1141737749
 10
256.5508927903
 20
182.9924707019
 10
256.1915869811
 20
183.8683171824
 10
255.8103736634
 20
184.7404277908
 10
255.4078123206
 20
185.6075225846
 10
254.9844937668
 20
186.4683289826
 10
254.5410392804
 20
187.3215836328
 10
254.078099692
 20
188.1660342661
 10
253.5963544292
 20
189.000441535
 10
253.0965105198
 20
189.8235808316
 10
252.5793015536
 20
190.6342440856
 10
252.045486606
 20
191.4312415368
 10
251.4958491241
 20
192.2134034816
 10
250.9311957766
 20
192.9795819894
 10
250.3523552704
 20
193.7286525877
 10
249.7601771335
 20
194.4595159119
 10
249.1555304691
 20
195.1710993195
 10
248.5393026795
 20
195.8623584637
 10
247.9123981641
 20
196.5322788263
 10
247.2757369916
 20
197.1798772067
 10
246.63025355
 20
197.8042031652
 10
245.9768951754
 20
198.4043404172
 10
245.3166207613
 20
198.9794081786
 10
244.6503993514
 20
199.5285624582
 10
243.9792087175
 20
200.0509972962
 10
243.3040339245
 20
200.5459459476
 10
242.6258658843
 20
201.0126820069
 10
241.9456999022
 20
201.4505204746
 10
241.2645342156
 20
201.8588187624
 10
240.5833685289
 20
202.2369776362
 10
239.9032025468
 20
202.5844420958
 10
239.2250345067
 20
202.9007021891
 10
238.5498597136
 20
203.1852937608
 10
237.8786690797
 20
203.4377991336
 10
237.2124476698
 20
203.657847721
 10
236.5521732557
 20
203.8451165713
 10
235.8988148811
 20
203.9993308418
 10
235.2533314396
 20
204.1202642016
 10
234.6166702671
 20
204.2077391644
 10
233.9897657516
 20
204.2616273487
 10
233.3735379621
 20
204.2818496661
 10
232.7688912977
 20
204.2683764375
 10
232.1767131608
 20
204.2212274368
 10
231.5978726545
 20
204.1404718616
 10
231.0332193071
 20
204.0262282319
 10
230.4835818252
 20
203.878664216
 10
229.9497668776
 20
203.6979963843
 10
229.4325579113
 20
203.4844898919
 10
228.9327140019
 20
203.238458089
 10
228.4509687392
 20
202.9602620612
 10
227.9880291508
 20
202.6503100995
 10
227.5445746644
 20
202.3090571011
 10
227.1212561106
 20
201.9370039019
 10
226.7186947677
 20
201.5346965413
 10
226.3374814501
 20
201.1027254607
 10
225.9781756408
 20
200.6417246374
 10
225.6413046707
 20
200.1523706536
 10
225.3273629444
 20
199.6353817038
 10
225.0368112146
 20
199.0915165404
 10
224.7700759061
 20
198.5215733608
 10
224.5275484898
 20
197.9263886349
 10
224.3095849079
 20
197.3068358787
 10
224.1165050523
 20
196.663824371
 10
223.9485922942
 20
195.99829782
 10
223.8060930686
 20
195.3112329777
 10
223.6892165129
 20
194.6036382065
 10
223.5981341596
 20
193.8765519993
 10
223.5329796845
 20
193.1310414553
 10
223.4938487109
 20
192.3682007141
 10
223.4807986687
 20
191.5891493496
 10
223.4938487109
 20
190.7950307273
 10
223.5329796845
 20
189.9870103255
 10
223.5981341596
 20
189.1662740258
 10
223.6892165129
 20
188.3340263719
 10
223.8060930686
 20
187.4914888018
 10
223.9485922942
 20
186.6398978557
 10
224.1165050523
 20
185.7805033608
 10
224.3095849079
 20
184.9145665969
 10
224.5275484898
 20
184.0433584457
 10
224.7700759061
 20
183.1681575253
 10
225.0368112146
 20
182.2902483137
 10
225.3273629444
 20
181.4109192637
 10
225.6413046707
 20
180.531460912
 10
225.9781756408
 20
179.653163985
 10
226.3374814501
 20
178.7773175045
 10
226.7186947677
 20
177.9052068961
 10
227.1212561106
 20
177.0381121023
 10
227.5445746644
 20
176.1773057043
 10
227.9880291508
 20
175.3240510542
 10
228.4509687392
 20
174.4796004208
 10
228.9327140019
 20
173.6451931519
 10
229.4325579113
 20
172.8220538553
 10
229.9497668776
 20
172.0113906013
 10
230.4835818252
 20
171.2143931501
 10
231.0332193071
 20
170.4322312053
 10
231.5978726545
 20
169.6660526975
 10
232.1767131608
 20
168.9169820993
 10
232.7688912977
 20
168.186118775
 10
233.3735379621
 20
167.4745353674
 10
233.9897657516
 20
166.7832762232
 10
234.6166702671
 20
166.1133558607
 10
235.2533314396
 20
165.4657574802
 10
235.8988148811
 20
164.8414315217
 10
236.5521732557
 20
164.2412942697
 10
237.2124476698
 20
163.6662265083
 10
237.8786690797
 20
163.1170722287
 10
238.5498597136
 20
162.5946373907
 10
239.2250345067
 20
162.0996887393
 10
239.9032025468
 20
161.63295268
 10
240.5833685289
 20
161.1951142123
 10
241.2645342156
 20
160.7868159245
 10
241.9456999022
 20
160.4086570507
 10
242.6258658843
 20
160.0611925911
 10
243.3040339245
 20
159.7449324978
 10
243.9792087175
 20
159.4603409261
 10
244.6503993514
 20
159.2078355533
 10
245.3166207613
 20
158.9877869659
 10
245.9768951754
 20
158.8005181156
 10
246.63025355
 20
158.6463038451
 10
247.2757369916
 20
158.5253704853
 10
247.9123981641
 20
158.4378955225
 10
248.5393026795
 20
158.3840073382
 10
249.1555304691
 20
158.3637850208
 10
249.7601771335
 20
158.3772582494
 10
250.3523552704
 20
158.4244072501
 10
250.9311957766
 20
158.5051628253
 10
251.4958491241
 20
158.619406455
 10
252.045486606
 20
158.766970471
 10
252.5793015536
 20
158.9476383026
 10
253.0965105198
 20
159.161144795
 10
253.5963544292
 20
159.4071765979
 10
254.078099692
 20
159.6853726257
 10
254.5410392804
 20
159.9953245875
 10
254.9844937668
 20
160.3365775858
 10
255.4078123206
 20
160.708630785
 10
255.8103736634
 20
161.1109381456
 10
256.1915869811
 20
161.5429092262
 10
256.5508927903
 20
162.0039100495
 10
256.8877637604
 20
162.4932640333
 10
257.2017054868
 20
163.0102529832
 10
257.4922572165
 20
163.5541181465
 10
257.758992525
 20
164.1240613262
 10
258.0015199414
 20
164.719246052
 10
258.2194835232
 20
165.3387988083
 10
258.4125633788
 20
165.9818103159
 10
258.580476137
 20
166.6473368669
 10
258.7229753625
 20
167.3344017092
 10
258.8398519182
 20
168.0419964804
 10
258.9309342715
 20
168.7690826877
 10
258.9960887466
 20
169.5145932316
 10
259.0352197203
 20
170.2774339728
 10
259.0482697624
 20
171.0564853373
  0
LWPOLYLINE
  5
FE
330
1F
100
AcDbEntity
  8
0
  6
Continuous
 62
     7
370
     0
100
AcDbPolyline
 90
       43
 70
   128
 43
0.0
 10
259.401823153
 20
171.0564853373
 10
259.3888026401
 20
170.2744102244
 10
259.3497599801
 20
169.5085022098
 10
259.2847517809
 20
168.759871787
 10
259.1938722984
 20
168.0296043983
 10
259.077253299
 20
167.3187588618
 10
258.9350638691
 20
166.6283658356
 10
258.7675101699
 20
165.9594263234
 10
258.5748351381
 20
165.3129102236
 10
258.3573181342
 20
164.6897549229
 10
258.115274537
 20
164.0908639367
 10
257.8490552866
 20
163.5171055998
 10
257.5590463755
 20
162.9693118068
 10
257.2456682887
 20
162.4482768065
 10
256.9093753948
 20
161.9547560498
 10
256.550655286
 20
161.4894650946
 10
256.1700280724
 20
161.0530785682
 10
255.768045627
 20
160.6462291895
 10
255.3452907859
 20
160.2695068511
 10
254.9023765032
 20
159.9234577645
 10
254.4399449623
 20
159.6085836676
 10
253.9586666447
 20
159.3253410979
 10
253.459239358
 20
159.0741407299
 10
252.9423872239
 20
158.8553467803
 10
252.4088596287
 20
158.6692764793
 10
251.8594301364
 20
158.5161996111
 10
251.2948953671
 20
158.3963381224
 10
250.7160738424
 20
158.3098658011
 10
250.1238047982
 20
158.2569080236
 10
249.5189469678
 20
158.2375415738
 10
248.9023773375
 20
158.251794531
 10
248.274989874
 20
158.2996462299
 10
247.6376942294
 20
158.3810272902
 10
246.9914144214
 20
158.4958197169
 10
246.3370874938
 20
158.6438570722
 10
245.6756621583
 20
158.8249247159
 10
245.0080974182
 20
159.0387601173
 10
244.3353611787
 20
159.2850532356
 10
243.658428843
 20
159.5634469691
 10
242.9782818983
 20
159.8735376738
 10
242.2959064925
 20
160.2148757475
 10
241.6122920049
 20
160.5869662829
 10
241.4383918225
 20
160.6864171633
  0
LWPOLYLINE
  5
FF
330
1F
100
AcDbEntity
  8
0
  6
Continuous
 62
     7
370
     0
100
AcDbPolyline
 90
       85
 70
   128
 43
0.0
 10
223.4807986687
 20
191.7932513776
 10
223.484054092
 20
192.1862394807
 10
223.5100903976
 20
192.9603713593
 10
223.5621252588
 20
193.7177778613
 10
223.6400832299
 20
194.4573608198
 10
223.7438512793
 20
195.1780479101
 10
223.8732789533
 20
195.8787942049
 10
224.0281785941
 20
196.5585836891
 10
224.208325612
 20
197.2164307327
 10
224.4134588112
 20
197.8513815207
 10
224.643280768
 20
198.4625154349
 10
224.8974582626
 20
199.0489463897
 10
225.1756227619
 20
199.6098241162
 10
225.4773709541
 20
200.1443353954
 10
225.802265333
 20
200.6517052369
 10
226.1498348329
 20
201.1311980031
 10
226.5195755112
 20
201.5821184753
 10
226.9109512793
 20
202.0038128618
 10
227.3233946798
 20
202.3956697462
 10
227.7563077091
 20
202.7571209734
 10
228.2090626847
 20
203.0876424736
 10
228.6810031553
 20
203.3867550224
 10
229.1714448522
 20
203.6540249351
 10
229.6796766819
 20
203.8890646959
 10
230.2049617569
 20
204.0915335196
 10
230.7465384638
 20
204.2611378457
 10
231.3036215684
 20
204.3976317643
 10
231.8754033534
 20
204.5008173722
 10
232.4610547898
 20
204.57054506
 10
233.0597267391
 20
204.6067137294
 10
233.6705511841
 20
204.6092709392
 10
234.2926424878
 20
204.5782129818
 10
234.9250986774
 20
204.5135848881
 10
235.5670027517
 20
204.4154803627
 10
236.2174240113
 20
204.2840416478
 10
236.8754194074
 20
204.1194593171
 10
237.5400349097
 20
203.921971999
 10
238.2103068893
 20
203.6918660315
 10
238.8852635158
 20
203.429475046
 10
239.5639261667
 20
203.1351794845
 10
240.245310846
 20
202.8094060474
 10
240.928429611
 20
202.452627075
 10
241.6122920049
 20
202.0653598628
 10
242.2959064925
 20
201.6481659112
 10
242.9782818983
 20
201.2016501114
 10
243.658428843
 20
200.7264598688
 10
244.3353611787
 20
200.2232841637
 10
245.0080974182
 20
199.6928525529
 10
245.6756621583
 20
199.1359341114
 10
246.3370874938
 20
198.5533363178
 10
246.9914144214
 20
197.9459038831
 10
247.6376942294
 20
197.3145175264
 10
248.274989874
 20
196.6600926974
 10
248.9023773375
 20
195.9835782496
 10
249.5189469678
 20
195.2859550643
 10
250.1238047982
 20
194.5682346284
 10
250.7160738424
 20
193.831457568
 10
251.2948953671
 20
193.0766921392
 10
251.8594301364
 20
192.30503268
 10
252.4088596287
 20
191.5175980226
 10
252.9423872239
 20
190.715529872
 10
253.459239358
 20
189.8999911505
 10
253.9586666447
 20
189.0721643111
 10
254.4399449623
 20
188.2332496237
 10
254.9023765032
 20
187.3844634343
 10
255.3452907859
 20
186.5270364019
 10
255.768045627
 20
185.6622117135
 10
256.1700280724
 20
184.7912432823
 10
256.550655286
 20
183.9153939294
 10
256.9093753948
 20
183.0359335525
 10
257.2456682887
 20
182.154137285
 10
257.5590463755
 20
181.2712836473
 10
257.8490552866
 20
180.3886526928
 10
258.115274537
 20
179.5075241519
 10
258.3573181342
 20
178.6291755768
 10
258.5748351381
 20
177.754880489
 10
258.7675101699
 20
176.8859065328
 10
258.9350638691
 20
176.0235136372
 10
259.077253299
 20
175.1689521896
 10
259.1938722984
 20
174.3234612224
 10
259.2847517809
 20
173.4882666167
 10
259.3497599801
 20
172.6645793247
 10
259.3888026401
 20
171.8535936143
 10
259.401823153
 20
171.0564853373
 10
259.401823153
 20
171.0564853373
  0
LWPOLYLINE
  5
100
330
1F
100
AcDbEntity
  8
0
  6
Continuous
 62
     7
370
     0
100
AcDbPolyline
 90
       63
 70
   128
 43
0.0
 10
267.5335511366
 20
175.7508319803
 10
267.5205306238
 20
176.5479402573
 10
267.4814879637
 20
177.3589259677
 10
267.4164797646
 20
178.1826132597
 10
267.325600282
 20
179.0178078654
 10
267.2089812826
 20
179.8632988326
 10
267.0667918527
 20
180.7178602802
 10
266.8992381535
 20
181.5802531757
 10
266.7065631218
 20
182.449227132
 10
266.4890461178
 20
183.3235222198
 10
266.2470025207
 20
184.2018707949
 10
265.9807832702
 20
185.0829993358
 10
265.6907743591
 20
185.9656302903
 10
265.3773962724
 20
186.848483928
 10
265.0411033784
 20
187.7302801954
 10
264.6823832697
 20
188.6097405724
 10
264.3017560561
 20
189.4855899253
 10
263.8997736106
 20
190.3565583565
 10
263.4770187695
 20
191.2213830448
 10
263.0341044869
 20
192.0788100773
 10
262.5716729459
 20
192.9275962667
 10
262.0903946283
 20
193.7665109541
 10
261.5909673416
 20
194.5943377934
 10
261.0741152075
 20
195.409876515
 10
260.5405876123
 20
196.2119446655
 10
259.99115812
 20
196.9993793229
 10
259.4266233508
 20
197.7710387822
 10
258.8478018261
 20
198.525804211
 10
258.2555327818
 20
199.2625812714
 10
257.6506749515
 20
199.9803017073
 10
257.0341053211
 20
200.6779248926
 10
256.4067178577
 20
201.3544393404
 10
255.7694222131
 20
202.0088641694
 10
255.123142405
 20
202.6402505261
 10
254.4688154775
 20
203.2476829608
 10
253.8073901419
 20
203.8302807544
 10
253.1398254019
 20
204.3871991959
 10
252.4670891624
 20
204.9176308067
 10
251.7901568267
 20
205.4208065118
 10
251.1100098819
 20
205.8959967544
 10
250.4276344762
 20
206.3425125541
 10
249.7440199885
 20
206.7597065058
 10
249.0601575946
 20
207.146973718
 10
248.3770388296
 20
207.5037526904
 10
247.6956541503
 20
207.8295261275
 10
247.0169914995
 20
208.123821689
 10
246.342034873
 20
208.3862126744
 10
245.6717628934
 20
208.616318642
 10
245.0071473911
 20
208.81380596
 10
244.3491519949
 20
208.9783882908
 10
243.6987307353
 20
209.1098270057
 10
243.056826661
 20
209.207931531
 10
242.4243704715
 20
209.2725596247
 10
241.8022791677
 20
209.3036175822
 10
241.1914547227
 20
209.3010603724
 10
240.5927827734
 20
209.264891703
 10
240.007131337
 20
209.1951640152
 10
239.4353495521
 20
209.0919784073
 10
238.8782664475
 20
208.9554844887
 10
238.3366897405
 20
208.7858801626
 10
237.8114046656
 20
208.5834113389
 10
237.3031728359
 20
208.3483715781
 10
236.87407099
 20
208.1168561049
  0
LWPOLYLINE
  5
101
330
1F
100
AcDbEntity
  8
0
  6
Continuous
 62
     7
370
     0
100
AcDbPolyline
 90
       22
 70
   128
 43
0.0
 10
262.272006799
 20
164.1215738959
 10
262.5716729459
 20
164.3029303106
 10
263.0341044869
 20
164.6178044074
 10
263.4770187695
 20
164.9638534941
 10
263.8997736106
 20
165.3405758325
 10
264.3017560561
 20
165.7474252112
 10
264.6823832697
 20
166.1838117376
 10
265.0411033784
 20
166.6491026928
 10
265.3773962724
 20
167.1426234495
 10
265.6907743591
 20
167.6636584498
 10
265.9807832702
 20
168.2114522427
 10
266.2470025207
 20
168.7852105797
 10
266.4890461178
 20
169.3841015658
 10
266.7065631218
 20
170.0072568666
 10
266.8992381535
 20
170.6537729664
 10
267.0667918527
 20
171.3227124785
 10
267.2089812826
 20
172.0131055048
 10
267.325600282
 20
172.7239510413
 10
267.4164797646
 20
173.45421843
 10
267.4814879637
 20
174.2028488528
 10
267.5205306238
 20
174.9687568674
 10
267.5335511366
 20
175.7508319803
  0
ARC
  5
102
330
1F
100
AcDbEntity
  8
0
  6
Continuous
 62
     7
370
     0
100
AcDbCircle
 10
228.9539036283
 20
174.2160415774
 30
0.0
 40
38.61881599370766
100
AcDbArc
 50
2.5807340673
 51
57.4138894
  0
LINE
  5
103
330
1F
100
AcDbEntity
  8
0
  6
Continuous
 62
     7
370
     0
100
AcDbLine
 10
137.9846801268
 20
141.9547627602
 30
0.0
 11
126.4846801268
 21
141.9547627602
 31
0.0
  0
LINE
  5
104
330
1F
100
AcDbEntity
  8
0
  6
Continuous
 62
     7
370
     0
100
AcDbLine
 10
126.4846801268
 20
91.1547627602
 30
0.0
 11
137.9846801268
 21
91.1547627602
 31
0.0
  0
LINE
  5
105
330
1F
100
AcDbEntity
  8
0
  6
Continuous
 62
     7
370
     0
100
AcDbLine
 10
137.9846801268
 20
91.1547627602
 30
0.0
 11
138.2346801268
 21
91.4047627602
 31
0.0
  0
LINE
  5
106
330
1F
100
AcDbEntity
  8
0
  6
Continuous
 62
     7
370
     0
100
AcDbLine
 10
138.2346801268
 20
141.7047627602
 30
0.0
 11
137.9846801268
 21
141.9547627602
 31
0.0
  0
LINE
  5
107
330
1F
100
AcDbEntity
  8
0
  6
Continuous
 62
     7
370
     0
100
AcDbLine
 10
126.4846801268
 20
141.9547627602
 30
0.0
 11
126.2346801268
 21
141.7047627602
 31
0.0
  0
LINE
  5
108
330
1F
100
AcDbEntity
  8
0
  6
Continuous
 62
     7
370
     0
100
AcDbLine
 10
126.2346801268
 20
91.4047627602
 30
0.0
 11
126.4846801268
 21
91.1547627602
 31
0.0
  0
LINE
  5
109
330
1F
100
AcDbEntity
  8
0
  6
Continuous
 62
     7
370
     0
100
AcDbLine
 10
126.4846801268
 20
116.5547627602
 30
0.0
 11
126.4846801268
 21
91.1547627602
 31
0.0
  0
LINE
  5
10A
330
1F
100
AcDbEntity
  8
0
  6
Continuous
 62
     7
370
     0
100
AcDbLine
 10
126.4846801268
 20
141.9547627602
 30
0.0
 11
126.4846801268
 21
116.5547627602
 31
0.0
  0
LINE
  5
10B
330
1F
100
AcDbEntity
  8
0
  6
Continuous
 62
     7
370
     0
100
AcDbLine
 10
137.9846801268
 20
116.5547627602
 30
0.0
 11
137.9846801268
 21
141.9547627602
 31
0.0
  0
LINE
  5
10C
330
1F
100
AcDbEntity
  8
0
  6
Continuous
 62
     7
370
     0
100
AcDbLine
 10
137.9846801268
 20
91.1547627602
 30
0.0
 11
137.9846801268
 21
116.5547627602
 31
0.0
  0
LINE
  5
10D
330
1F
100
AcDbEntity
  8
0
  6
Continuous
 62
     7
370
     0
100
AcDbLine
 10
138.2346801268
 20
116.5547627602
 30
0.0
 11
138.2346801268
 21
91.4047627602
 31
0.0
  0
LINE
  5
10E
330
1F
100
AcDbEntity
  8
0
  6
Continuous
 62
     7
370
     0
100
AcDbLine
 10
138.2346801268
 20
141.7047627602
 30
0.0
 11
138.2346801268
 21
116.5547627602
 31
0.0
  0
LINE
  5
10F
330
1F
100
AcDbEntity
  8
0
  6
Continuous
 62
     7
370
     0
100
AcDbLine
 10
126.2346801268
 20
116.5547627602
 30
0.0
 11
126.2346801268
 21
141.7047627602
 31
0.0
  0
LINE
  5
110
330
1F
100
AcDbEntity
  8
0
  6
Continuous
 62
     7
370
     0
100
AcDbLine
 10
126.2346801268
 20
91.4047627602
 30
0.0
 11
126.2346801268
 21
116.5547627602
 31
0.0
  0
DIMENSION
  5
111
330
1F
100
AcDbEntity
  8
0
  6
Continuous
 62
     7
370
     0
100
AcDbDimension
  2
_D_1
 10
138.2346801268
 20
147.2880960935
 30
0.0
 11
154.2346801269
 21
147.2880960935
 31
0.0
 70
   160
  1
<>
 71
     2
 42
-1.0
  3
SLDDIMSTYLE1
100
AcDbAlignedDimension
 13
126.2346801268
 23
141.7047627602
 33
0.0
 14
138.2346801268
 24
116.8341627602
 34
0.0
100
AcDbRotatedDimension
  0
MTEXT
  5
126
330
1F
100
AcDbEntity
  8
0
  6
Continuous
 62
     7
370
     0
100
AcDbMText
 10
109.7674682619
 20
123.4691454228
 30
0.0
 40
2.1166666667
 41
0.0
 71
     1
 72
     1
  1
S1
  7
SLDTEXTSTYLE0
 73
     1
 44
1.0
  0
LEADER
  5
128
330
1F
100
AcDbEntity
  8
0
  6
Continuous
 62
     7
370
     0
100
AcDbLeader
  3
SLDDIMSTYLE2
 76
     3
 10
126.2346801268
 20
114.689652182
 30
0.0
 10
119.5253148103
 20
122.4508050646
 30
0.0
 10
113.1753148103
 20
122.4508050646
 30
0.0
  0
MTEXT
  5
129
330
1F
100
AcDbEntity
  8
0
  6
Continuous
 62
     7
370
     0
100
AcDbMText
 10
154.2294573823
 20
125.3862835744
 30
0.0
 40
2.1166666667
 41
0.0
 71
     1
 72
     1
  1
S2
  7
SLDTEXTSTYLE0
 73
     1
 44
1.0
  0
LEADER
  5
12A
330
1F
100
AcDbEntity
  8
0
  6
Continuous
 62
     7
370
     0
100
AcDbLeader
  3
SLDDIMSTYLE2
 76
     3
 10
138.2346801268
 20
112.2134602556
 30
0.0
 10
147.351183432
 20
124.3442961888
 30
0.0
 10
153.701183432
 20
124.3442961888
 30
0.0
  0
LINE
  5
12B
330
1F
100
AcDbEntity
  8
0
  6
Continuous
 62
     7
370
     0
100
AcDbLine
 10
212.2009295541
 20
118.6517421372
 30
0.0
 11
211.5884843292
 21
118.6517421372
 31
0.0
  0
SPLINE
  5
12C
330
1F
100
AcDbEntity
  8
0
  6
Continuous
 62
     7
370
     0
100
AcDbSpline
210
0.0
220
0.0
230
1.0
 70
     8
 71
     3
 72
    23
 73
    19
 74
     0
 42
0.000000001
 43
0.00000001
 40
0.0
 40
0.0
 40
0.0
 40
0.0
 40
0.0603255293380431
 40
0.1181599905079978
 40
0.1741866762963805
 40
0.2295388181457996
 40
0.2834498146386368
 40
0.3378265119505919
 40
0.3926321025334832
 40
0.4484655764151907
 40
0.5059654091573051
 40
0.5650585322290047
 40
0.6266544786228437
 40
0.6922320330373638
 40
0.7611310781257616
 40
0.8353098773394202
 40
0.9153255598322015
 40
0.9999999999999999
 40
0.9999999999999999
 40
0.9999999999999999
 40
0.9999999999999999
 10
212.5894700730638
 20
118.3286443538781
 30
0.0
 10
212.5890876454529
 20
118.3401774312782
 30
0.0
 10
212.5883385821067
 20
118.3627673419028
 30
0.0
 10
212.5844117443062
 20
118.3959230588658
 30
0.0
 10
212.5767770393113
 20
118.4274286536396
 30
0.0
 10
212.5666954301004
 20
118.4574506683393
 30
0.0
 10
212.5532243543912
 20
118.4857692131703
 30
0.0
 10
212.5372212660147
 20
118.5126037255486
 30
0.0
 10
212.5181246412388
 20
118.537805477773
 30
0.0
 10
212.4962505563655
 20
118.561451238243
 30
0.0
 10
212.4711351317934
 20
118.5829665694402
 30
0.0
 10
212.4424474124301
 20
118.6015296337048
 30
0.0
 10
212.4104136566329
 20
118.6173042336737
 30
0.0
 10
212.3749966303732
 20
118.6298240107233
 30
0.0
 10
212.3363079037547
 20
118.6398377943934
 30
0.0
 10
212.2941272303805
 20
118.6464996416856
 30
0.0
 10
212.2486475114775
 20
118.6513201321819
 30
0.0
 10
212.2171327037199
 20
118.6515988407918
 30
0.0
 10
212.2009295540668
 20
118.6517421371543
 30
0.0
  0
SPLINE
  5
12D
330
1F
100
AcDbEntity
  8
0
  6
Continuous
 62
     7
370
     0
100
AcDbSpline
210
0.0
220
0.0
230
1.0
 70
     8
 71
     3
 72
    19
 73
    15
 74
     0
 42
0.000000001
 43
0.00000001
 40
0.0
 40
0.0
 40
0.0
 40
0.0
 40
0.1288602680417313
 40
0.2408921848092289
 40
0.3380442015575112
 40
0.4201204852136088
 40
0.494058456868551
 40
0.5660947835833202
 40
0.6368049543510104
 40
0.7091484493607203
 40
0.7819418055941268
 40
0.8542853006038366
 40
0.9261704072165587
 40
1.0
 40
1.0
 40
1.0
 40
1.0
 10
212.1387795346085
 20
117.9931988846169
 30
0.0
 10
212.1663734206564
 20
117.9936306171337
 30
0.0
 10
212.2179576024873
 20
117.99443770058
 30
0.0
 10
212.2900899201969
 20
118.0013293449034
 30
0.0
 10
212.3515627043366
 20
118.0122804603953
 30
0.0
 10
212.4035911840919
 20
118.0282539448936
 30
0.0
 10
212.4473033195936
 20
118.050430445796
 30
0.0
 10
212.4853205943708
 20
118.0774566561567
 30
0.0
 10
212.5169134282649
 20
118.1113097981034
 30
0.0
 10
212.5431954025477
 20
118.149505861268
 30
0.0
 10
212.5636249203168
 20
118.1915387221608
 30
0.0
 10
212.5783618000409
 20
118.2356880799205
 30
0.0
 10
212.5880073441342
 20
118.2815828877595
 30
0.0
 10
212.5889781783297
 20
118.3128182586295
 30
0.0
 10
212.5894700730638
 20
118.3286443538781
 30
0.0
  0
LINE
  5
12E
330
1F
100
AcDbEntity
  8
0
  6
Continuous
 62
     7
370
     0
100
AcDbLine
 10
211.5884843292
 20
117.9931988846
 30
0.0
 11
212.1387795346
 21
117.9931988846
 31
0.0
  0
LINE
  5
12F
330
1F
100
AcDbEntity
  8
0
  6
Continuous
 62
     7
370
     0
100
AcDbLine
 10
211.5884843292
 20
118.6517421372
 30
0.0
 11
211.5884843292
 21
117.9931988846
 31
0.0
  0
LINE
  5
130
330
1F
100
AcDbEntity
  8
0
  6
Continuous
 62
     7
370
     0
100
AcDbLine
 10
217.5729961366
 20
117.7824650438
 30
0.0
 11
217.1202476505
 21
117.7824650438
 31
0.0
  0
SPLINE
  5
131
330
1F
100
AcDbEntity
  8
0
  6
Continuous
 62
     7
370
     0
100
AcDbSpline
210
0.0
220
0.0
230
1.0
 70
     8
 71
     3
 72
    19
 73
    15
 74
     0
 42
0.000000001
 43
0.00000001
 40
0.0
 40
0.0
 40
0.0
 40
0.0
 40
0.0801399024652515
 40
0.1562809906190946
 40
0.2294060490129018
 40
0.301798696972305
 40
0.3727428627695776
 40
0.4426676099026289
 40
0.5133209646126977
 40
0.586547692363209
 40
0.6683225082295049
 40
0.7636766255259052
 40
0.8740807567185483
 40
1.0
 40
1.0
 40
1.0
 40
1.0
 10
218.0685499341749
 20
117.4268516874347
 30
0.0
 10
218.0679829839343
 20
117.4455602072074
 30
0.0
 10
218.0668773730898
 20
117.4820437305601
 30
0.0
 10
218.0563681628634
 20
117.5347642702959
 30
0.0
 10
218.0390086674162
 20
117.5836632263922
 30
0.0
 10
218.014571556104
 20
117.6280633974433
 30
0.0
 10
217.9845981634685
 20
117.6679975285965
 30
0.0
 10
217.9483333849771
 20
117.7018725650012
 30
0.0
 10
217.9060483860839
 20
117.7287540816672
 30
0.0
 10
217.8576132076936
 20
117.7498508697054
 30
0.0
 10
217.8010021862701
 20
117.7648608710453
 30
0.0
 10
217.7346524039585
 20
117.7750442477725
 30
0.0
 10
217.6575025752247
 20
117.7816153366812
 30
0.0
 10
217.6023714400349
 20
117.7821696769077
 30
0.0
 10
217.5729961366405
 20
117.7824650438049
 30
0.0
  0
SPLINE
  5
132
330
1F
100
AcDbEntity
  8
0
  6
Continuous
 62
     7
370
     0
100
AcDbSpline
210
0.0
220
0.0
230
1.0
 70
     8
 71
     3
 72
    19
 73
    15
 74
     0
 42
0.000000001
 43
0.00000001
 40
0.0
 40
0.0
 40
0.0
 40
0.0
 40
0.0889709576989538
 40
0.1722707767733144
 40
0.2503120304637098
 40
0.3246551996215511
 40
0.3978444501802941
 40
0.4733008807185328
 40
0.551825888744448
 40
0.6347494834982532
 40
0.7217660118923857
 40
0.8103926655611191
 40
0.9031752367994194
 40
1.0
 40
1.0
 40
1.0
 40
1.0
 10
217.7820836193211
 20
117.0811164798526
 30
0.0
 10
217.7964255567804
 20
117.0841310097818
 30
0.0
 10
217.8241952556849
 20
117.0899679191052
 30
0.0
 10
217.8633438681947
 20
117.1029952917734
 30
0.0
 10
217.8992381966006
 20
117.1179188414838
 30
0.0
 10
217.9312517596353
 20
117.1368850152364
 30
0.0
 10
217.9608955509239
 20
117.1587422312605
 30
0.0
 10
217.9866582118158
 20
117.1860429400664
 30
0.0
 10
218.010386845397
 20
117.2170611678049
 30
0.0
 10
218.0309456173107
 20
117.2525580010674
 30
0.0
 10
218.0475703696186
 20
117.291826956191
 30
0.0
 10
218.0602763833727
 20
117.3342613001518
 30
0.0
 10
218.0670445317769
 20
117.3797122491796
 30
0.0
 10
218.0680410518537
 20
117.4109167940199
 30
0.0
 10
218.0685499341749
 20
117.4268516874347
 30
0.0
  0
SPLINE
  5
133
330
1F
100
AcDbEntity
  8
0
  6
Continuous
 62
     7
370
     0
100
AcDbSpline
210
0.0
220
0.0
230
1.0
 70
     8
 71
     3
 72
    11
 73
     7
 74
     0
 42
0.000000001
 43
0.00000001
 40
0.0
 40
0.0
 40
0.0
 40
0.0
 40
0.3293954641291864
 40
0.6051903468528028
 40
0.8278865786947356
 40
1.0
 40
1.0
 40
1.0
 40
1.0
 10
217.6063348888002
 20
117.0712383310645
 30
0.0
 10
217.6256800395265
 20
117.0714605794623
 30
0.0
 10
217.6612224186812
 20
117.0718689110866
 30
0.0
 10
217.7098374494152
 20
117.0731498672648
 30
0.0
 10
217.7491334244659
 20
117.0762787640398
 30
0.0
 10
217.7720801972966
 20
117.0796477870839
 30
0.0
 10
217.7820836193211
 20
117.0811164798526
 30
0.0
  0
LINE
  5
134
330
1F
100
AcDbEntity
  8
0
  6
Continuous
 62
     7
370
     0
100
AcDbLine
 10
217.1202476505
 20
117.0712383311
 30
0.0
 11
217.6063348888
 21
117.0712383311
 31
0.0
  0
LINE
  5
135
330
1F
100
AcDbEntity
  8
0
  6
Continuous
 62
     7
370
     0
100
AcDbLine
 10
217.1202476505
 20
117.7824650438
 30
0.0
 11
217.1202476505
 21
117.0712383311
 31
0.0
  0
LINE
  5
136
330
1F
100
AcDbEntity
  8
0
  6
Continuous
 62
     7
370
     0
100
AcDbLine
 10
208.313878006
 20
114.6214574316
 30
0.0
 11
207.8611295198
 21
114.6214574316
 31
0.0
  0
SPLINE
  5
137
330
1F
100
AcDbEntity
  8
0
  6
Continuous
 62
     7
370
     0
100
AcDbSpline
210
0.0
220
0.0
230
1.0
 70
     8
 71
     3
 72
    19
 73
    15
 74
     0
 42
0.000000001
 43
0.00000001
 40
0.0
 40
0.0
 40
0.0
 40
0.0
 40
0.0801399024652511
 40
0.1562809906190945
 40
0.2294060490129022
 40
0.3017986969723054
 40
0.3727428627695781
 40
0.4426676099026295
 40
0.5133209646126973
 40
0.5865476923632087
 40
0.6683225082295047
 40
0.763676625525905
 40
0.8740807567185482
 40
1.0
 40
1.0
 40
1.0
 40
1.0
 10
208.8094318034992
 20
114.2658440752552
 30
0.0
 10
208.8088648532585
 20
114.2845525950279
 30
0.0
 10
208.8077592424141
 20
114.3210361183806
 30
0.0
 10
208.7972500321876
 20
114.3737566581164
 30
0.0
 10
208.7798905367404
 20
114.4226556142127
 30
0.0
 10
208.7554534254282
 20
114.4670557852638
 30
0.0
 10
208.7254800327927
 20
114.5069899164171
 30
0.0
 10
208.6892152543013
 20
114.5408649528217
 30
0.0
 10
208.6469302554081
 20
114.5677464694877
 30
0.0
 10
208.5984950770178
 20
114.5888432575259
 30
0.0
 10
208.5418840555944
 20
114.6038532588658
 30
0.0
 10
208.4755342732828
 20
114.6140366355931
 30
0.0
 10
208.398384444549
 20
114.6206077245017
 30
0.0
 10
208.3432533093591
 20
114.6211620647283
 30
0.0
 10
208.3138780059648
 20
114.6214574316254
 30
0.0
  0
SPLINE
  5
138
330
1F
100
AcDbEntity
  8
0
  6
Continuous
 62
     7
370
     0
100
AcDbSpline
210
0.0
220
0.0
230
1.0
 70
     8
 71
     3
 72
    19
 73
    15
 74
     0
 42
0.000000001
 43
0.00000001
 40
0.0
 40
0.0
 40
0.0
 40
0.0
 40
0.0889709576989539
 40
0.1722707767733142
 40
0.2503120304637097
 40
0.3246551996215506
 40
0.3978444501802953
 40
0.4733008807185329
 40
0.5518258887444478
 40
0.6347494834982534
 40
0.7217660118923851
 40
0.810392665561119
 40
0.9031752367994188
 40
1.0
 40
1.0
 40
1.0
 40
1.0
 10
208.5229654886454
 20
113.9201088676731
 30
0.0
 10
208.5373074261047
 20
113.9231233976023
 30
0.0
 10
208.5650771250092
 20
113.9289603069258
 30
0.0
 10
208.604225737519
 20
113.9419876795939
 30
0.0
 10
208.6401200659249
 20
113.9569112293043
 30
0.0
 10
208.6721336289596
 20
113.975877403057
 30
0.0
 10
208.7017774202481
 20
113.997734619081
 30
0.0
 10
208.7275400811401
 20
114.0250353278869
 30
0.0
 10
208.7512687147212
 20
114.0560535556254
 30
0.0
 10
208.7718274866349
 20
114.0915503888879
 30
0.0
 10
208.7884522389429
 20
114.1308193440116
 30
0.0
 10
208.8011582526969
 20
114.1732536879722
 30
0.0
 10
208.8079264011012
 20
114.2187046370001
 30
0.0
 10
208.808922921178
 20
114.2499091818404
 30
0.0
 10
208.8094318034992
 20
114.2658440752552
 30
0.0
  0
SPLINE
  5
139
330
1F
100
AcDbEntity
  8
0
  6
Continuous
 62
     7
370
     0
100
AcDbSpline
210
0.0
220
0.0
230
1.0
 70
     8
 71
     3
 72
    11
 73
     7
 74
     0
 42
0.000000001
 43
0.00000001
 40
0.0
 40
0.0
 40
0.0
 40
0.0
 40
0.3293954641291815
 40
0.6051903468528028
 40
0.8278865786947358
 40
1.0
 40
1.0
 40
1.0
 40
1.0
 10
208.3472167581245
 20
113.9102307188851
 30
0.0
 10
208.3665619088507
 20
113.9104529672828
 30
0.0
 10
208.4021042880055
 20
113.9108612989071
 30
0.0
 10
208.4507193187395
 20
113.9121422550853
 30
0.0
 10
208.4900152937902
 20
113.9152711518603
 30
0.0
 10
208.5129620666208
 20
113.9186401749044
 30
0.0
 10
208.5229654886454
 20
113.9201088676731
 30
0.0
  0
LINE
  5
13A
330
1F
100
AcDbEntity
  8
0
  6
Continuous
 62
     7
370
     0
100
AcDbLine
 10
207.8611295198
 20
113.9102307189
 30
0.0
 11
208.3472167581
 21
113.9102307189
 31
0.0
  0
LINE
  5
13B
330
1F
100
AcDbEntity
  8
0
  6
Continuous
 62
     7
370
     0
100
AcDbLine
 10
207.8611295198
 20
114.6214574316
 30
0.0
 11
207.8611295198
 21
113.9102307189
 31
0.0
  0
LINE
  5
13C
330
1F
100
AcDbEntity
  8
0
  6
Continuous
 62
     7
370
     0
100
AcDbLine
 10
206.4172734387
 20
114.6214574316
 30
0.0
 11
205.9645249525
 21
114.6214574316
 31
0.0
  0
SPLINE
  5
13D
330
1F
100
AcDbEntity
  8
0
  6
Continuous
 62
     7
370
     0
100
AcDbSpline
210
0.0
220
0.0
230
1.0
 70
     8
 71
     3
 72
    19
 73
    15
 74
     0
 42
0.000000001
 43
0.00000001
 40
0.0
 40
0.0
 40
0.0
 40
0.0
 40
0.0801399024652518
 40
0.156280990619095
 40
0.2294060490129027
 40
0.3017986969723059
 40
0.3727428627695786
 40
0.4426676099026299
 40
0.5133209646126977
 40
0.586547692363209
 40
0.668322508229505
 40
0.7636766255259051
 40
0.8740807567185482
 40
1.0
 40
1.0
 40
1.0
 40
1.0
 10
206.9128272361915
 20
114.2658440752552
 30
0.0
 10
206.9122602859508
 20
114.2845525950279
 30
0.0
 10
206.9111546751063
 20
114.3210361183806
 30
0.0
 10
206.9006454648799
 20
114.3737566581164
 30
0.0
 10
206.8832859694327
 20
114.4226556142127
 30
0.0
 10
206.8588488581206
 20
114.4670557852638
 30
0.0
 10
206.828875465485
 20
114.5069899164171
 30
0.0
 10
206.7926106869936
 20
114.5408649528217
 30
0.0
 10
206.7503256881004
 20
114.5677464694877
 30
0.0
 10
206.7018905097101
 20
114.5888432575259
 30
0.0
 10
206.6452794882867
 20
114.6038532588658
 30
0.0
 10
206.5789297059751
 20
114.6140366355931
 30
0.0
 10
206.5017798772413
 20
114.6206077245017
 30
0.0
 10
206.4466487420514
 20
114.6211620647283
 30
0.0
 10
206.4172734386571
 20
114.6214574316255
 30
0.0
  0
SPLINE
  5
13E
330
1F
100
AcDbEntity
  8
0
  6
Continuous
 62
     7
370
     0
100
AcDbSpline
210
0.0
220
0.0
230
1.0
 70
     8
 71
     3
 72
    19
 73
    15
 74
     0
 42
0.000000001
 43
0.00000001
 40
0.0
 40
0.0
 40
0.0
 40
0.0
 40
0.0889709576989536
 40
0.1722707767733142
 40
0.2503120304637098
 40
0.3246551996215508
 40
0.3978444501802954
 40
0.473300880718533
 40
0.551825888744448
 40
0.634749483498253
 40
0.7217660118923855
 40
0.8103926655611194
 40
0.9031752367994194
 40
1.0
 40
1.0
 40
1.0
 40
1.0
 10
206.6263609213377
 20
113.9201088676731
 30
0.0
 10
206.640702858797
 20
113.9231233976023
 30
0.0
 10
206.6684725577015
 20
113.9289603069258
 30
0.0
 10
206.7076211702113
 20
113.9419876795939
 30
0.0
 10
206.7435154986172
 20
113.9569112293043
 30
0.0
 10
206.7755290616519
 20
113.975877403057
 30
0.0
 10
206.8051728529404
 20
113.997734619081
 30
0.0
 10
206.8309355138324
 20
114.0250353278869
 30
0.0
 10
206.8546641474136
 20
114.0560535556254
 30
0.0
 10
206.8752229193273
 20
114.0915503888879
 30
0.0
 10
206.8918476716352
 20
114.1308193440116
 30
0.0
 10
206.9045536853892
 20
114.1732536879722
 30
0.0
 10
206.9113218337935
 20
114.2187046370001
 30
0.0
 10
206.9123183538703
 20
114.2499091818404
 30
0.0
 10
206.9128272361915
 20
114.2658440752552
 30
0.0
  0
SPLINE
  5
13F
330
1F
100
AcDbEntity
  8
0
  6
Continuous
 62
     7
370
     0
100
AcDbSpline
210
0.0
220
0.0
230
1.0
 70
     8
 71
     3
 72
    11
 73
     7
 74
     0
 42
0.000000001
 43
0.00000001
 40
0.0
 40
0.0
 40
0.0
 40
0.0
 40
0.3293954641291814
 40
0.6051903468528026
 40
0.8278865786947355
 40
1.0
 40
1.0
 40
1.0
 40
1.0
 10
206.4506121908168
 20
113.9102307188851
 30
0.0
 10
206.4699573415431
 20
113.9104529672828
 30
0.0
 10
206.5054997206978
 20
113.9108612989071
 30
0.0
 10
206.5541147514318
 20
113.9121422550853
 30
0.0
 10
206.5934107264825
 20
113.9152711518603
 30
0.0
 10
206.6163574993132
 20
113.9186401749044
 30
0.0
 10
206.6263609213377
 20
113.9201088676731
 30
0.0
  0
LINE
  5
140
330
1F
100
AcDbEntity
  8
0
  6
Continuous
 62
     7
370
     0
100
AcDbLine
 10
205.9645249525
 20
113.9102307189
 30
0.0
 11
206.4506121908
 21
113.9102307189
 31
0.0
  0
LINE
  5
141
330
1F
100
AcDbEntity
  8
0
  6
Continuous
 62
     7
370
     0
100
AcDbLine
 10
205.9645249525
 20
114.6214574316
 30
0.0
 11
205.9645249525
 21
113.9102307189
 31
0.0
  0
LINE
  5
142
330
1F
100
AcDbEntity
  8
0
  6
Continuous
 62
     7
370
     0
100
AcDbLine
 10
217.5116692962
 20
118.6517421372
 30
0.0
 11
217.1202476505
 21
118.6517421372
 31
0.0
  0
SPLINE
  5
143
330
1F
100
AcDbEntity
  8
0
  6
Continuous
 62
     7
370
     0
100
AcDbSpline
210
0.0
220
0.0
230
1.0
 70
     8
 71
     3
 72
    23
 73
    19
 74
     0
 42
0.000000001
 43
0.00000001
 40
0.0
 40
0.0
 40
0.0
 40
0.0
 40
0.076010519206233
 40
0.1481357362434485
 40
0.2177881778331537
 40
0.2867678984972342
 40
0.3540434632439191
 40
0.418610840023479
 40
0.4836364388553436
 40
0.5502295626461514
 40
0.586927811313815
 40
0.6291578250269649
 40
0.67723822428767
 40
0.7300426397437307
 40
0.7888625661169238
 40
0.853750451461094
 40
0.9241097665384563
 40
1.0
 40
1.0
 40
1.0
 40
1.0
 10
217.9895247438704
 20
118.3307023015423
 30
0.0
 10
217.9889928294635
 20
118.347612923705
 30
0.0
 10
217.9879561896257
 20
118.3805697761324
 30
0.0
 10
217.9792545250473
 20
118.4284288399123
 30
0.0
 10
217.964196615953
 20
118.4729529104864
 30
0.0
 10
217.943804083554
 20
118.5141322208624
 30
0.0
 10
217.9179817191738
 20
118.55076713188
 30
0.0
 10
217.8871618265281
 20
118.5822645799848
 30
0.0
 10
217.850241770554
 20
118.606075263987
 30
0.0
 10
217.8157325771384
 20
118.6209284177316
 30
0.0
 10
217.784694292634
 20
118.6302204667976
 30
0.0
 10
217.7569626755168
 20
118.6357181897416
 30
0.0
 10
217.7255067504017
 20
118.6405622304054
 30
0.0
 10
217.6902230044421
 20
118.644680472708
 30
0.0
 10
217.6510980907991
 20
118.6478766081691
 30
0.0
 10
217.608011458792
 20
118.6504157259855
 30
0.0
 10
217.5610656733015
 20
118.651493773767
 30
0.0
 10
217.5285447183493
 20
118.6516572880774
 30
0.0
 10
217.511669296248
 20
118.6517421371543
 30
0.0
  0
SPLINE
  5
144
330
1F
100
AcDbEntity
  8
0
  6
Continuous
 62
     7
370
     0
100
AcDbSpline
210
0.0
220
0.0
230
1.0
 70
     8
 71
     3
 72
    15
 73
    11
 74
     0
 42
0.000000001
 43
0.00000001
 40
0.0
 40
0.0
 40
0.0
 40
0.0
 40
0.1323768784386554
 40
0.2551949197670693
 40
0.3737221416536682
 40
0.4900113154474162
 40
0.6078124214239341
 40
0.7311098159015431
 40
0.8599973777575842
 40
1.0
 40
1.0
 40
1.0
 40
1.0
 10
217.7907269995107
 20
118.0438243971557
 30
0.0
 10
217.8064612429397
 20
118.0493361038615
 30
0.0
 10
217.8367935716426
 20
118.0599615209822
 30
0.0
 10
217.8774417293663
 20
118.0840929114809
 30
0.0
 10
217.9120621447478
 20
118.1130504623066
 30
0.0
 10
217.9405620426661
 20
118.1473454925542
 30
0.0
 10
217.9624628020225
 20
118.1867944695105
 30
0.0
 10
217.9787015829074
 20
118.2305793172015
 30
0.0
 10
217.9875926757528
 20
118.2793121072661
 30
0.0
 10
217.988863214495
 20
118.313106584903
 30
0.0
 10
217.9895247438704
 20
118.3307023015423
 30
0.0
  0
SPLINE
  5
145
330
1F
100
AcDbEntity
  8
0
  6
Continuous
 62
     7
370
     0
100
AcDbSpline
210
0.0
220
0.0
230
1.0
 70
     8
 71
     3
 72
    15
 73
    11
 74
     0
 42
0.000000001
 43
0.00000001
 40
0.0
 40
0.0
 40
0.0
 40
0.0
 40
0.1669801744060311
 40
0.3208066328848162
 40
0.4631345048703153
 40
0.5942480539785179
 40
0.7123671525397409
 40
0.8194549510427486
 40
0.9157522665813508
 40
1.0
 40
1.0
 40
1.0
 40
1.0
 10
217.5437732798092
 20
118.0195406147184
 30
0.0
 10
217.5576320929324
 20
118.0195954454194
 30
0.0
 10
217.5842580034015
 20
118.0197007875812
 30
0.0
 10
217.6226652448971
 20
118.0211695716667
 30
0.0
 10
217.6581132878135
 20
118.0224226547902
 30
0.0
 10
217.6904650143829
 20
118.0255677966038
 30
0.0
 10
217.7198806976731
 20
118.0286483232962
 30
0.0
 10
217.7462426196887
 20
118.0327951924206
 30
0.0
 10
217.7696799025725
 20
118.0374677733658
 30
0.0
 10
217.7840305548562
 20
118.0418019434404
 30
0.0
 10
217.7907269995107
 20
118.0438243971557
 30
0.0
  0
LINE
  5
146
330
1F
100
AcDbEntity
  8
0
  6
Continuous
 62
     7
370
     0
100
AcDbLine
 10
217.1202476505
 20
118.0195406147
 30
0.0
 11
217.5437732798
 21
118.0195406147
 31
0.0
  0
LINE
  5
147
330
1F
100
AcDbEntity
  8
0
  6
Continuous
 62
     7
370
     0
100
AcDbLine
 10
217.1202476505
 20
118.6517421372
 30
0.0
 11
217.1202476505
 21
118.0195406147
 31
0.0
  0
LINE
  5
148
330
1F
100
AcDbEntity
  8
0
  6
Continuous
 62
     7
370
     0
100
AcDbLine
 10
208.2525511656
 20
115.490734525
 30
0.0
 11
207.8611295198
 21
115.490734525
 31
0.0
  0
SPLINE
  5
149
330
1F
100
AcDbEntity
  8
0
  6
Continuous
 62
     7
370
     0
100
AcDbSpline
210
0.0
220
0.0
230
1.0
 70
     8
 71
     3
 72
    23
 73
    19
 74
     0
 42
0.000000001
 43
0.00000001
 40
0.0
 40
0.0
 40
0.0
 40
0.0
 40
0.076010519206233
 40
0.1481357362434485
 40
0.2177881778331538
 40
0.2867678984972342
 40
0.3540434632439184
 40
0.4186108400234793
 40
0.4836364388553449
 40
0.5502295626461514
 40
0.5869278113138151
 40
0.6291578250269663
 40
0.67723822428767
 40
0.7300426397437295
 40
0.7888625661169238
 40
0.853750451461094
 40
0.9241097665384562
 40
1.0
 40
1.0
 40
1.0
 40
1.0
 10
208.7304066131947
 20
115.1696946893628
 30
0.0
 10
208.7298746987877
 20
115.1866053115255
 30
0.0
 10
208.72883805895
 20
115.2195621639529
 30
0.0
 10
208.7201363943716
 20
115.2674212277328
 30
0.0
 10
208.7050784852773
 20
115.311945298307
 30
0.0
 10
208.6846859528782
 20
115.3531246086829
 30
0.0
 10
208.658863588498
 20
115.3897595197005
 30
0.0
 10
208.6280436958523
 20
115.4212569678053
 30
0.0
 10
208.5911236398783
 20
115.4450676518075
 30
0.0
 10
208.5566144464627
 20
115.4599208055521
 30
0.0
 10
208.5255761619583
 20
115.4692128546181
 30
0.0
 10
208.4978445448411
 20
115.4747105775621
 30
0.0
 10
208.4663886197259
 20
115.4795546182259
 30
0.0
 10
208.4311048737664
 20
115.4836728605285
 30
0.0
 10
208.3919799601234
 20
115.4868689959897
 30
0.0
 10
208.3488933281163
 20
115.489408113806
 30
0.0
 10
208.3019475426257
 20
115.4904861615875
 30
0.0
 10
208.2694265876735
 20
115.4906496758979
 30
0.0
 10
208.2525511655722
 20
115.4907345249748
 30
0.0
  0
SPLINE
  5
14A
330
1F
100
AcDbEntity
  8
0
  6
Continuous
 62
     7
370
     0
100
AcDbSpline
210
0.0
220
0.0
230
1.0
 70
     8
 71
     3
 72
    15
 73
    11
 74
     0
 42
0.000000001
 43
0.00000001
 40
0.0
 40
0.0
 40
0.0
 40
0.0
 40
0.1323768784386553
 40
0.2551949197670693
 40
0.3737221416536681
 40
0.4900113154474174
 40
0.6078124214239342
 40
0.7311098159015433
 40
0.8599973777575843
 40
1.0
 40
1.0
 40
1.0
 40
1.0
 10
208.531608868835
 20
114.8828167849762
 30
0.0
 10
208.547343112264
 20
114.888328491682
 30
0.0
 10
208.5776754409669
 20
114.8989539088027
 30
0.0
 10
208.6183235986906
 20
114.9230852993014
 30
0.0
 10
208.6529440140721
 20
114.9520428501272
 30
0.0
 10
208.6814439119903
 20
114.9863378803747
 30
0.0
 10
208.7033446713468
 20
115.025786857331
 30
0.0
 10
208.7195834522316
 20
115.0695717050221
 30
0.0
 10
208.7284745450771
 20
115.1183044950866
 30
0.0
 10
208.7297450838192
 20
115.1520989727235
 30
0.0
 10
208.7304066131947
 20
115.1696946893628
 30
0.0
  0
SPLINE
  5
14B
330
1F
100
AcDbEntity
  8
0
  6
Continuous
 62
     7
370
     0
100
AcDbSpline
210
0.0
220
0.0
230
1.0
 70
     8
 71
     3
 72
    15
 73
    11
 74
     0
 42
0.000000001
 43
0.00000001
 40
0.0
 40
0.0
 40
0.0
 40
0.0
 40
0.1669801744060311
 40
0.3208066328848162
 40
0.4631345048703153
 40
0.5942480539785214
 40
0.712367152539741
 40
0.8194549510427487
 40
0.9157522665813509
 40
1.0
 40
1.0
 40
1.0
 40
1.0
 10
208.2846551491334
 20
114.8585330025389
 30
0.0
 10
208.2985139622567
 20
114.8585878332399
 30
0.0
 10
208.3251398727257
 20
114.8586931754017
 30
0.0
 10
208.3635471142214
 20
114.8601619594872
 30
0.0
 10
208.3989951571378
 20
114.8614150426107
 30
0.0
 10
208.4313468837072
 20
114.8645601844243
 30
0.0
 10
208.4607625669973
 20
114.8676407111167
 30
0.0
 10
208.487124489013
 20
114.8717875802411
 30
0.0
 10
208.5105617718968
 20
114.8764601611863
 30
0.0
 10
208.5249124241805
 20
114.8807943312609
 30
0.0
 10
208.531608868835
 20
114.8828167849762
 30
0.0
  0
LINE
  5
14C
330
1F
100
AcDbEntity
  8
0
  6
Continuous
 62
     7
370
     0
100
AcDbLine
 10
207.8611295198
 20
114.8585330025
 30
0.0
 11
208.2846551491
 21
114.8585330025
 31
0.0
  0
LINE
  5
14D
330
1F
100
AcDbEntity
  8
0
  6
Continuous
 62
     7
370
     0
100
AcDbLine
 10
207.8611295198
 20
115.490734525
 30
0.0
 11
207.8611295198
 21
114.8585330025
 31
0.0
  0
LINE
  5
14E
330
1F
100
AcDbEntity
  8
0
  6
Continuous
 62
     7
370
     0
100
AcDbLine
 10
206.3559465983
 20
115.490734525
 30
0.0
 11
205.9645249525
 21
115.490734525
 31
0.0
  0
SPLINE
  5
14F
330
1F
100
AcDbEntity
  8
0
  6
Continuous
 62
     7
370
     0
100
AcDbSpline
210
0.0
220
0.0
230
1.0
 70
     8
 71
     3
 72
    23
 73
    19
 74
     0
 42
0.000000001
 43
0.00000001
 40
0.0
 40
0.0
 40
0.0
 40
0.0
 40
0.076010519206233
 40
0.1481357362434485
 40
0.2177881778331538
 40
0.2867678984972342
 40
0.3540434632439184
 40
0.4186108400234793
 40
0.4836364388553449
 40
0.5502295626461514
 40
0.5869278113138151
 40
0.6291578250269663
 40
0.67723822428767
 40
0.7300426397437295
 40
0.7888625661169238
 40
0.853750451461094
 40
0.9241097665384562
 40
1.0
 40
1.0
 40
1.0
 40
1.0
 10
206.833802045887
 20
115.1696946893628
 30
0.0
 10
206.83327013148
 20
115.1866053115255
 30
0.0
 10
206.8322334916423
 20
115.2195621639529
 30
0.0
 10
206.8235318270639
 20
115.2674212277328
 30
0.0
 10
206.8084739179696
 20
115.311945298307
 30
0.0
 10
206.7880813855705
 20
115.3531246086829
 30
0.0
 10
206.7622590211903
 20
115.3897595197005
 30
0.0
 10
206.7314391285446
 20
115.4212569678053
 30
0.0
 10
206.6945190725706
 20
115.4450676518075
 30
0.0
 10
206.660009879155
 20
115.4599208055521
 30
0.0
 10
206.6289715946506
 20
115.4692128546181
 30
0.0
 10
206.6012399775333
 20
115.4747105775621
 30
0.0
 10
206.5697840524182
 20
115.4795546182259
 30
0.0
 10
206.5345003064587
 20
115.4836728605285
 30
0.0
 10
206.4953753928157
 20
115.4868689959897
 30
0.0
 10
206.4522887608086
 20
115.489408113806
 30
0.0
 10
206.405342975318
 20
115.4904861615875
 30
0.0
 10
206.3728220203658
 20
115.4906496758979
 30
0.0
 10
206.3559465982645
 20
115.4907345249748
 30
0.0
  0
SPLINE
  5
150
330
1F
100
AcDbEntity
  8
0
  6
Continuous
 62
     7
370
     0
100
AcDbSpline
210
0.0
220
0.0
230
1.0
 70
     8
 71
     3
 72
    15
 73
    11
 74
     0
 42
0.000000001
 43
0.00000001
 40
0.0
 40
0.0
 40
0.0
 40
0.0
 40
0.1323768784386553
 40
0.2551949197670693
 40
0.3737221416536681
 40
0.4900113154474174
 40
0.6078124214239342
 40
0.7311098159015433
 40
0.8599973777575843
 40
1.0
 40
1.0
 40
1.0
 40
1.0
 10
206.6350043015273
 20
114.8828167849762
 30
0.0
 10
206.6507385449563
 20
114.888328491682
 30
0.0
 10
206.6810708736592
 20
114.8989539088027
 30
0.0
 10
206.7217190313829
 20
114.9230852993014
 30
0.0
 10
206.7563394467644
 20
114.9520428501272
 30
0.0
 10
206.7848393446826
 20
114.9863378803747
 30
0.0
 10
206.8067401040391
 20
115.025786857331
 30
0.0
 10
206.8229788849239
 20
115.0695717050221
 30
0.0
 10
206.8318699777694
 20
115.1183044950866
 30
0.0
 10
206.8331405165115
 20
115.1520989727235
 30
0.0
 10
206.833802045887
 20
115.1696946893628
 30
0.0
  0
SPLINE
  5
151
330
1F
100
AcDbEntity
  8
0
  6
Continuous
 62
     7
370
     0
100
AcDbSpline
210
0.0
220
0.0
230
1.0
 70
     8
 71
     3
 72
    15
 73
    11
 74
     0
 42
0.000000001
 43
0.00000001
 40
0.0
 40
0.0
 40
0.0
 40
0.0
 40
0.1669801744060311
 40
0.3208066328848162
 40
0.4631345048703153
 40
0.5942480539785214
 40
0.712367152539741
 40
0.8194549510427487
 40
0.9157522665813509
 40
1.0
 40
1.0
 40
1.0
 40
1.0
 10
206.3880505818258
 20
114.8585330025389
 30
0.0
 10
206.4019093949489
 20
114.8585878332399
 30
0.0
 10
206.428535305418
 20
114.8586931754017
 30
0.0
 10
206.4669425469137
 20
114.8601619594872
 30
0.0
 10
206.5023905898301
 20
114.8614150426107
 30
0.0
 10
206.5347423163994
 20
114.8645601844243
 30
0.0
 10
206.5641579996896
 20
114.8676407111167
 30
0.0
 10
206.5905199217053
 20
114.8717875802411
 30
0.0
 10
206.6139572045891
 20
114.8764601611863
 30
0.0
 10
206.6283078568728
 20
114.8807943312609
 30
0.0
 10
206.6350043015273
 20
114.8828167849762
 30
0.0
  0
LINE
  5
152
330
1F
100
AcDbEntity
  8
0
  6
Continuous
 62
     7
370
     0
100
AcDbLine
 10
205.9645249525
 20
114.8585330025
 30
0.0
 11
206.3880505818
 21
114.8585330025
 31
0.0
  0
LINE
  5
153
330
1F
100
AcDbEntity
  8
0
  6
Continuous
 62
     7
370
     0
100
AcDbLine
 10
205.9645249525
 20
115.490734525
 30
0.0
 11
205.9645249525
 21
114.8585330025
 31
0.0
  0
LINE
  5
154
330
1F
100
AcDbEntity
  8
0
  6
Continuous
 62
     7
370
     0
100
AcDbLine
 10
219.281915877
 20
115.7278100959
 30
0.0
 11
219.4514907645
 21
115.7278100959
 31
0.0
  0
SPLINE
  5
155
330
1F
100
AcDbEntity
  8
0
  6
Continuous
 62
     7
370
     0
100
AcDbSpline
210
0.0
220
0.0
230
1.0
 70
     8
 71
     3
 72
    15
 73
    11
 74
     0
 42
0.000000001
 43
0.00000001
 40
0.0
 40
0.0
 40
0.0
 40
0.0
 40
0.1426572507006142
 40
0.2811689939054434
 40
0.4169771923679737
 40
0.5508524927475577
 40
0.6783641702618117
 40
0.7950324430070942
 40
0.9019981783473516
 40
1.0
 40
1.0
 40
1.0
 40
1.0
 10
218.7139223216616
 20
115.2141463589091
 30
0.0
 10
218.7468387175807
 20
115.2310983687076
 30
0.0
 10
218.8117149848447
 20
115.2645097762337
 30
0.0
 10
218.9033711217063
 20
115.3222158701012
 30
0.0
 10
218.9889419850359
 20
115.3847716513684
 30
0.0
 10
219.0670110382678
 20
115.4521632701684
 30
0.0
 10
219.1369949698274
 20
115.5210496021917
 30
0.0
 10
219.1959714452428
 20
115.5905586170222
 30
0.0
 10
219.2453192069626
 20
115.6581424144362
 30
0.0
 10
219.2700779138658
 20
115.7052746181343
 30
0.0
 10
219.2819158769751
 20
115.7278100958883
 30
0.0
  0
LINE
  5
156
330
1F
100
AcDbEntity
  8
0
  6
Continuous
 62
     7
370
     0
100
AcDbLine
 10
218.7139223217
 20
114.9713085345
 30
0.0
 11
218.7139223217
 21
115.2141463589
 31
0.0
  0
SPLINE
  5
157
330
1F
100
AcDbEntity
  8
0
  6
Continuous
 62
     7
370
     0
100
AcDbSpline
210
0.0
220
0.0
230
1.0
 70
     8
 71
     3
 72
    15
 73
    11
 74
     0
 42
0.000000001
 43
0.00000001
 40
0.0
 40
0.0
 40
0.0
 40
0.0
 40
0.1116703001015867
 40
0.2320944808560184
 40
0.3627434591045531
 40
0.5025575097108858
 40
0.6415251033312818
 40
0.7710984952996679
 40
0.8901617573732526
 40
1.0
 40
1.0
 40
1.0
 40
1.0
 10
219.1880734634885
 20
115.2742384307031
 30
0.0
 10
219.1729058719903
 20
115.2596111548032
 30
0.0
 10
219.1413816952717
 20
115.2292099648426
 30
0.0
 10
219.0880934047886
 20
115.186184689584
 30
0.0
 10
219.0286168624355
 20
115.1425767493348
 30
0.0
 10
218.96372440896
 20
115.1006428396361
 30
0.0
 10
218.8975775303621
 20
115.0611665858598
 30
0.0
 10
218.8336550883742
 20
115.02566376471
 30
0.0
 10
218.7730242953903
 20
114.9956197640257
 30
0.0
 10
218.7330864645806
 20
114.9791915855931
 30
0.0
 10
218.7139223216616
 20
114.9713085345359
 30
0.0
  0
LINE
  5
158
330
1F
100
AcDbEntity
  8
0
  6
Continuous
 62
     7
370
     0
100
AcDbLine
 10
219.1880734635
 20
113.673155148
 30
0.0
 11
219.1880734635
 21
115.2742384307
 31
0.0
  0
LINE
  5
159
330
1F
100
AcDbEntity
  8
0
  6
Continuous
 62
     7
370
     0
100
AcDbLine
 10
219.4514907645
 20
113.673155148
 30
0.0
 11
219.1880734635
 21
113.673155148
 31
0.0
  0
LINE
  5
15A
330
1F
100
AcDbEntity
  8
0
  6
Continuous
 62
     7
370
     0
100
AcDbLine
 10
219.4514907645
 20
115.7278100959
 30
0.0
 11
219.4514907645
 21
113.673155148
 31
0.0
  0
LINE
  5
15B
330
1F
100
AcDbEntity
  8
0
  6
Continuous
 62
     7
370
     0
100
AcDbLine
 10
216.6592673737
 20
113.9102307189
 30
0.0
 11
216.6592673737
 21
113.673155148
 31
0.0
  0
LINE
  5
15C
330
1F
100
AcDbEntity
  8
0
  6
Continuous
 62
     7
370
     0
100
AcDbLine
 10
215.4475477891
 20
113.9102307189
 30
0.0
 11
216.6592673737
 21
113.9102307189
 31
0.0
  0
LINE
  5
15D
330
1F
100
AcDbEntity
  8
0
  6
Continuous
 62
     7
370
     0
100
AcDbLine
 10
215.4475477891
 20
114.6214574316
 30
0.0
 11
215.4475477891
 21
113.9102307189
 31
0.0
  0
LINE
  5
15E
330
1F
100
AcDbEntity
  8
0
  6
Continuous
 62
     7
370
     0
100
AcDbLine
 10
216.5275587232
 20
114.6214574316
 30
0.0
 11
215.4475477891
 21
114.6214574316
 31
0.0
  0
LINE
  5
15F
330
1F
100
AcDbEntity
  8
0
  6
Continuous
 62
     7
370
     0
100
AcDbLine
 10
216.5275587232
 20
114.8585330025
 30
0.0
 11
216.5275587232
 21
114.6214574316
 31
0.0
  0
LINE
  5
160
330
1F
100
AcDbEntity
  8
0
  6
Continuous
 62
     7
370
     0
100
AcDbLine
 10
215.4475477891
 20
114.8585330025
 30
0.0
 11
216.5275587232
 21
114.8585330025
 31
0.0
  0
LINE
  5
161
330
1F
100
AcDbEntity
  8
0
  6
Continuous
 62
     7
370
     0
100
AcDbLine
 10
215.4475477891
 20
115.490734525
 30
0.0
 11
215.4475477891
 21
114.8585330025
 31
0.0
  0
LINE
  5
162
330
1F
100
AcDbEntity
  8
0
  6
Continuous
 62
     7
370
     0
100
AcDbLine
 10
216.6065839135
 20
115.490734525
 30
0.0
 11
215.4475477891
 21
115.490734525
 31
0.0
  0
LINE
  5
163
330
1F
100
AcDbEntity
  8
0
  6
Continuous
 62
     7
370
     0
100
AcDbLine
 10
216.6065839135
 20
115.7278100959
 30
0.0
 11
216.6065839135
 21
115.490734525
 31
0.0
  0
LINE
  5
164
330
1F
100
AcDbEntity
  8
0
  6
Continuous
 62
     7
370
     0
100
AcDbLine
 10
215.157788758
 20
115.7278100959
 30
0.0
 11
216.6065839135
 21
115.7278100959
 31
0.0
  0
LINE
  5
165
330
1F
100
AcDbEntity
  8
0
  6
Continuous
 62
     7
370
     0
100
AcDbLine
 10
215.157788758
 20
113.673155148
 30
0.0
 11
215.157788758
 21
115.7278100959
 31
0.0
  0
LINE
  5
166
330
1F
100
AcDbEntity
  8
0
  6
Continuous
 62
     7
370
     0
100
AcDbLine
 10
216.6592673737
 20
113.673155148
 30
0.0
 11
215.157788758
 21
113.673155148
 31
0.0
  0
LINE
  5
167
330
1F
100
AcDbEntity
  8
0
  6
Continuous
 62
     7
370
     0
100
AcDbLine
 10
213.2760014138
 20
115.7278100959
 30
0.0
 11
213.4455763014
 21
115.7278100959
 31
0.0
  0
SPLINE
  5
168
330
1F
100
AcDbEntity
  8
0
  6
Continuous
 62
     7
370
     0
100
AcDbSpline
210
0.0
220
0.0
230
1.0
 70
     8
 71
     3
 72
    15
 73
    11
 74
     0
 42
0.000000001
 43
0.00000001
 40
0.0
 40
0.0
 40
0.0
 40
0.0
 40
0.1426572507006138
 40
0.2811689939054436
 40
0.416977192367974
 40
0.5508524927475579
 40
0.678364170261812
 40
0.7950324430070947
 40
0.9019981783473519
 40
1.0
 40
1.0
 40
1.0
 40
1.0
 10
212.7080078585205
 20
115.2141463589091
 30
0.0
 10
212.7409242544397
 20
115.2310983687076
 30
0.0
 10
212.8058005217037
 20
115.2645097762337
 30
0.0
 10
212.8974566585653
 20
115.3222158701012
 30
0.0
 10
212.9830275218949
 20
115.3847716513684
 30
0.0
 10
213.0610965751268
 20
115.4521632701684
 30
0.0
 10
213.1310805066864
 20
115.5210496021917
 30
0.0
 10
213.1900569821018
 20
115.5905586170222
 30
0.0
 10
213.2394047438216
 20
115.6581424144362
 30
0.0
 10
213.2641634507248
 20
115.7052746181343
 30
0.0
 10
213.2760014138341
 20
115.7278100958883
 30
0.0
  0
LINE
  5
169
330
1F
100
AcDbEntity
  8
0
  6
Continuous
 62
     7
370
     0
100
AcDbLine
 10
212.7080078585
 20
114.9713085345
 30
0.0
 11
212.7080078585
 21
115.2141463589
 31
0.0
  0
SPLINE
  5
16A
330
1F
100
AcDbEntity
  8
0
  6
Continuous
 62
     7
370
     0
100
AcDbSpline
210
0.0
220
0.0
230
1.0
 70
     8
 71
     3
 72
    15
 73
    11
 74
     0
 42
0.000000001
 43
0.00000001
 40
0.0
 40
0.0
 40
0.0
 40
0.0
 40
0.1116703001015866
 40
0.232094480856018
 40
0.3627434591045532
 40
0.5025575097108851
 40
0.6415251033312813
 40
0.7710984952996682
 40
0.8901617573732524
 40
1.0
 40
1.0
 40
1.0
 40
1.0
 10
213.1821590003475
 20
115.2742384307031
 30
0.0
 10
213.1669914088492
 20
115.2596111548032
 30
0.0
 10
213.1354672321307
 20
115.2292099648426
 30
0.0
 10
213.0821789416476
 20
115.186184689584
 30
0.0
 10
213.0227023992945
 20
115.1425767493348
 30
0.0
 10
212.957809945819
 20
115.1006428396361
 30
0.0
 10
212.8916630672211
 20
115.0611665858598
 30
0.0
 10
212.8277406252332
 20
115.02566376471
 30
0.0
 10
212.7671098322493
 20
114.9956197640257
 30
0.0
 10
212.7271720014396
 20
114.9791915855931
 30
0.0
 10
212.7080078585205
 20
114.9713085345359
 30
0.0
  0
LINE
  5
16B
330
1F
100
AcDbEntity
  8
0
  6
Continuous
 62
     7
370
     0
100
AcDbLine
 10
213.1821590003
 20
113.673155148
 30
0.0
 11
213.1821590003
 21
115.2742384307
 31
0.0
  0
LINE
  5
16C
330
1F
100
AcDbEntity
  8
0
  6
Continuous
 62
     7
370
     0
100
AcDbLine
 10
213.4455763014
 20
113.673155148
 30
0.0
 11
213.1821590003
 21
113.673155148
 31
0.0
  0
LINE
  5
16D
330
1F
100
AcDbEntity
  8
0
  6
Continuous
 62
     7
370
     0
100
AcDbLine
 10
213.4455763014
 20
115.7278100959
 30
0.0
 11
213.4455763014
 21
113.673155148
 31
0.0
  0
SPLINE
  5
16E
330
1F
100
AcDbEntity
  8
0
  6
Continuous
 62
     7
370
     0
100
AcDbSpline
210
0.0
220
0.0
230
1.0
 70
     8
 71
     3
 72
    17
 73
    13
 74
     0
 42
0.000000001
 43
0.00000001
 40
0.0
 40
0.0
 40
0.0
 40
0.0
 40
0.1241996726524868
 40
0.2368296581100267
 40
0.3394949853062824
 40
0.4312535100312245
 40
0.5114548721194183
 40
0.581223036623458
 40
0.6404953748643702
 40
0.6883082049320183
 40
0.8503329734146882
 40
1.0
 40
1.0
 40
1.0
 40
1.0
 10
210.0569596775247
 20
114.3177043563926
 30
0.0
 10
210.0389632223394
 20
114.3030533234402
 30
0.0
 10
210.0046467524349
 20
114.2751160587842
 30
0.0
 10
209.95582492596
 20
114.2346146577916
 30
0.0
 10
209.9120954189567
 20
114.1974759702714
 30
0.0
 10
209.8724356237893
 20
114.1649113901422
 30
0.0
 10
209.8382899241635
 20
114.1353458092586
 30
0.0
 10
209.8084555860234
 20
114.1100740709864
 30
0.0
 10
209.7840165070391
 20
114.0878255216715
 30
0.0
 10
209.7468001164006
 20
114.0540295263381
 30
0.0
 10
209.6996623823435
 20
114.0058567508049
 30
0.0
 10
209.6649292837259
 20
113.9590486106107
 30
0.0
 10
209.6482512714187
 20
113.9365724489866
 30
0.0
  0
SPLINE
  5
16F
330
1F
100
AcDbEntity
  8
0
  6
Continuous
 62
     7
370
     0
100
AcDbSpline
210
0.0
220
0.0
230
1.0
 70
     8
 71
     3
 72
    23
 73
    19
 74
     0
 42
0.000000001
 43
0.00000001
 40
0.0
 40
0.0
 40
0.0
 40
0.0
 40
0.0579448754623256
 40
0.1160176254256827
 40
0.1748257843638405
 40
0.2346830900793709
 40
0.2968270303289143
 40
0.364061335963788
 40
0.436192424049739
 40
0.5142601195414407
 40
0.5569758971654882
 40
0.6048559283836539
 40
0.6576752010734875
 40
0.7157505846619325
 40
0.7788397991664557
 40
0.8475011894738632
 40
0.9212282309463236
 40
1.0
 40
1.0
 40
1.0
 40
1.0
 10
210.6270111805024
 20
115.1606397196404
 30
0.0
 10
210.6264448670034
 20
115.140307264687
 30
0.0
 10
210.6253109902477
 20
115.0995974845044
 30
0.0
 10
210.6164609311414
 20
115.0387483690735
 30
0.0
 10
210.601318381198
 20
114.9785596019066
 30
0.0
 10
210.5812434014887
 20
114.9182986497074
 30
0.0
 10
210.5538168009798
 20
114.8577263392788
 30
0.0
 10
210.5191679484803
 20
114.7960070740235
 30
0.0
 10
210.4761822609227
 20
114.7329128682495
 30
0.0
 10
210.4348420814888
 20
114.6792757835643
 30
0.0
 10
210.3963610839459
 20
114.6343143808362
 30
0.0
 10
210.3622513162998
 20
114.5973085194377
 30
0.0
 10
210.3227882892209
 20
114.5579922663272
 30
0.0
 10
210.2794524086231
 20
114.5150040087607
 30
0.0
 10
210.2304762289004
 20
114.4698694898755
 30
0.0
 10
210.1772669496291
 20
114.4212371303617
 30
0.0
 10
210.1186597944894
 20
114.3703867489643
 30
0.0
 10
210.0779750067246
 20
114.3356482092959
 30
0.0
 10
210.0569596775247
 20
114.3177043563926
 30
0.0
  0
SPLINE
  5
170
330
1F
100
AcDbEntity
  8
0
  6
Continuous
 62
     7
370
     0
100
AcDbSpline
210
0.0
220
0.0
230
1.0
 70
     8
 71
     3
 72
    23
 73
    19
 74
     0
 42
0.000000001
 43
0.00000001
 40
0.0
 40
0.0
 40
0.0
 40
0.0
 40
0.074711890304501
 40
0.1455392023749085
 40
0.2133390572509726
 40
0.2786150735384705
 40
0.3420941969414981
 40
0.4038900759591955
 40
0.4650633525655206
 40
0.526576736383486
 40
0.5873283340287675
 40
0.6463804557031434
 40
0.7043453083753259
 40
0.7616719489990784
 40
0.8194178590468649
 40
0.8780393997816817
 40
0.9377955090070548
 40
1.0
 40
1.0
 40
1.0
 40
1.0
 10
209.9948096580665
 20
115.7278100958883
 30
0.0
 10
210.0185687620946
 20
115.7274032481767
 30
0.0
 10
210.0648516366855
 20
115.7266107064382
 30
0.0
 10
210.1322932241811
 20
115.7185014131712
 30
0.0
 10
210.1959262259083
 20
115.7058712628026
 30
0.0
 10
210.2559839187119
 20
115.6882687000681
 30
0.0
 10
210.3121114733935
 20
115.6651864912419
 30
0.0
 10
210.3643520649743
 20
115.6369852440733
 30
0.0
 10
210.4129465639663
 20
115.6039400537322
 30
0.0
 10
210.4570830559225
 20
115.5656542341144
 30
0.0
 10
210.4968820845296
 20
115.5238588486267
 30
0.0
 10
210.5317600645687
 20
115.4792541623692
 30
0.0
 10
210.5609197348192
 20
115.4320307273958
 30
0.0
 10
210.5857473836776
 20
115.3828322318601
 30
0.0
 10
210.6041629671402
 20
115.3306191435244
 30
0.0
 10
210.6171131447504
 20
115.2761013093289
 30
0.0
 10
210.6259131660426
 20
115.2192321421686
 30
0.0
 10
210.6266403098334
 20
115.1804301793602
 30
0.0
 10
210.6270111805024
 20
115.1606397196404
 30
0.0
  0
SPLINE
  5
171
330
1F
100
AcDbEntity
  8
0
  6
Continuous
 62
     7
370
     0
100
AcDbSpline
210
0.0
220
0.0
230
1.0
 70
     8
 71
     3
 72
    23
 73
    19
 74
     0
 42
0.000000001
 43
0.00000001
 40
0.0
 40
0.0
 40
0.0
 40
0.0
 40
0.0706752902033302
 40
0.1374926938441251
 40
0.2014728253723049
 40
0.2628693217722904
 40
0.322550086526156
 40
0.3807372513385547
 40
0.4382197368560123
 40
0.4954874370602861
 40
0.5534836796953476
 40
0.6113462062294291
 40
0.6706437388141554
 40
0.7315869484227132
 40
0.7941831937999383
 40
0.8594451119347494
 40
0.92820763539981
 40
1.0
 40
1.0
 40
1.0
 40
1.0
 10
209.3362664055291
 20
115.1482920336554
 30
0.0
 10
209.3389615387324
 20
115.1712494950868
 30
0.0
 10
209.3442046884008
 20
115.2159112602803
 30
0.0
 10
209.3572646589242
 20
115.2805963044297
 30
0.0
 10
209.3755996756551
 20
115.3407719372553
 30
0.0
 10
209.3975390706099
 20
115.3972771335324
 30
0.0
 10
209.4250421693189
 20
115.4491500046564
 30
0.0
 10
209.456132055035
 20
115.4974634827501
 30
0.0
 10
209.4928011409021
 20
115.5406852668652
 30
0.0
 10
209.5333107519811
 20
115.5801777695931
 30
0.0
 10
209.5781047154964
 20
115.6149810560569
 30
0.0
 10
209.6267622614567
 20
115.6453865586999
 30
0.0
 10
209.6792611323479
 20
115.6708188843706
 30
0.0
 10
209.7353089278824
 20
115.6918757897066
 30
0.0
 10
209.7950343201066
 20
115.7078521937405
 30
0.0
 10
209.858352817183
 20
115.7193087828976
 30
0.0
 10
209.9253662465999
 20
115.726370755439
 30
0.0
 10
209.9713315736905
 20
115.727323470076
 30
0.0
 10
209.9948096580665
 20
115.7278100958883
 30
0.0
  0
LINE
  5
172
330
1F
100
AcDbEntity
  8
0
  6
Continuous
 62
     7
370
     0
100
AcDbLine
 10
209.5996837065
 20
115.1219503036
 30
0.0
 11
209.3362664055
 21
115.1482920337
 31
0.0
  0
SPLINE
  5
173
330
1F
100
AcDbEntity
  8
0
  6
Continuous
 62
     7
370
     0
100
AcDbSpline
210
0.0
220
0.0
230
1.0
 70
     8
 71
     3
 72
    23
 73
    19
 74
     0
 42
0.000000001
 43
0.00000001
 40
0.0
 40
0.0
 40
0.0
 40
0.0
 40
0.0706964833433767
 40
0.1383582132030687
 40
0.2033698682591703
 40
0.2657002133402297
 40
0.3272558681973768
 40
0.3865123433292944
 40
0.4458582974819498
 40
0.5051731438069389
 40
0.5637797628070206
 40
0.6223430642934396
 40
0.6808235796100197
 40
0.7397951568104398
 40
0.8008011629883834
 40
0.8642394615769078
 40
0.9306310981734531
 40
0.9999999999999999
 40
0.9999999999999999
 40
0.9999999999999999
 40
0.9999999999999999
 10
209.9890474046068
 20
115.4907345249748
 30
0.0
 10
209.9747654847488
 20
115.4904065297434
 30
0.0
 10
209.9468147180456
 20
115.4897646189721
 30
0.0
 10
209.9059581823225
 20
115.4850920378536
 30
0.0
 10
209.8671719837247
 20
115.4779529654791
 30
0.0
 10
209.830548698774
 20
115.4670379347572
 30
0.0
 10
209.7961329026973
 20
115.4532876764221
 30
0.0
 10
209.764064763431
 20
115.4359797632107
 30
0.0
 10
209.7338307365918
 20
115.416442259673
 30
0.0
 10
209.7063830079728
 20
115.3933113293128
 30
0.0
 10
209.6815623869691
 20
115.3676638458971
 30
0.0
 10
209.6595274538093
 20
115.3397414945132
 30
0.0
 10
209.6414731368703
 20
115.309005432161
 30
0.0
 10
209.6265631377815
 20
115.2761314756655
 30
0.0
 10
209.6145742502466
 20
115.2410162818379
 30
0.0
 10
209.6058707256059
 20
115.2033914020769
 30
0.0
 10
209.6011255056452
 20
115.1633654728748
 30
0.0
 10
209.6001712817072
 20
115.1359557276961
 30
0.0
 10
209.5996837065441
 20
115.1219503035539
 30
0.0
  0
SPLINE
  5
174
330
1F
100
AcDbEntity
  8
0
  6
Continuous
 62
     7
370
     0
100
AcDbSpline
210
0.0
220
0.0
230
1.0
 70
     8
 71
     3
 72
    23
 73
    19
 74
     0
 42
0.000000001
 43
0.00000001
 40
0.0
 40
0.0
 40
0.0
 40
0.0
 40
0.0617621567680711
 40
0.1211739926536296
 40
0.1794214068253157
 40
0.2368434346502756
 40
0.2943217954133984
 40
0.3531909627945249
 40
0.4127207064163252
 40
0.4745221507037179
 40
0.5370567441421366
 40
0.5995913375805559
 40
0.6623669793543062
 40
0.7252456446794925
 40
0.7903164461250802
 40
0.8577243009540932
 40
0.9272319523784931
 40
1.0
 40
1.0
 40
1.0
 40
1.0
 10
210.3635938794874
 20
115.1581701824434
 30
0.0
 10
210.3633078714485
 20
115.1697174770858
 30
0.0
 10
210.3627467392306
 20
115.1923726411764
 30
0.0
 10
210.3574227445149
 20
115.2255283321866
 30
0.0
 10
210.3500113169329
 20
115.2574580547786
 30
0.0
 10
210.3380292942597
 20
115.2875870041893
 30
0.0
 10
210.3237670801737
 20
115.3168074154617
 30
0.0
 10
210.305472348184
 20
115.34419596098
 30
0.0
 10
210.2843091041408
 20
115.3704352331321
 30
0.0
 10
210.2600789808514
 20
115.394833426053
 30
0.0
 10
210.2336140119494
 20
115.4177228262193
 30
0.0
 10
210.2040431806537
 20
115.4367494781805
 30
0.0
 10
210.1733086910459
 20
115.4538791341192
 30
0.0
 10
210.1403502290679
 20
115.4676523600571
 30
0.0
 10
210.1052213505058
 20
115.4777662855704
 30
0.0
 10
210.0681777771101
 20
115.4851063908202
 30
0.0
 10
210.0292253869844
 20
115.4897604109053
 30
0.0
 10
210.0026431188756
 20
115.4904048972591
 30
0.0
 10
209.9890474046068
 20
115.4907345249748
 30
0.0
  0
SPLINE
  5
175
330
1F
100
AcDbEntity
  8
0
  6
Continuous
 62
     7
370
     0
100
AcDbSpline
210
0.0
220
0.0
230
1.0
 70
     8
 71
     3
 72
    23
 73
    19
 74
     0
 42
0.000000001
 43
0.00000001
 40
0.0
 40
0.0
 40
0.0
 40
0.0
 40
0.1114096600426607
 40
0.2145263672558013
 40
0.3094172254458341
 40
0.3960871907990314
 40
0.4742842164262461
 40
0.5443738816396977
 40
0.6064195628105363
 40
0.6605816023749734
 40
0.7097938180647575
 40
0.7564506485918283
 40
0.8007673253039321
 40
0.8431682879413347
 40
0.8842948685500486
 40
0.9238845020552846
 40
0.962358710139216
 40
1.0
 40
1.0
 40
1.0
 40
1.0
 10
209.8112407264217
 20
114.4415928057762
 30
0.0
 10
209.8376781891661
 20
114.4638447889852
 30
0.0
 10
209.8885852006393
 20
114.5066923941231
 30
0.0
 10
209.9604738781994
 20
114.5702742690058
 30
0.0
 10
210.0261324835633
 20
114.6293136412309
 30
0.0
 10
210.0845154779329
 20
114.6848452965249
 30
0.0
 10
210.1361003729459
 20
114.7363306137319
 30
0.0
 10
210.1810082908393
 20
114.7836529461142
 30
0.0
 10
210.2196256332006
 20
114.8266646102952
 30
0.0
 10
210.2514809579744
 20
114.8669224462599
 30
0.0
 10
210.2783582729398
 20
114.9049370412038
 30
0.0
 10
210.3011344235055
 20
114.9420179310202
 30
0.0
 10
210.3201153230484
 20
114.9788128376452
 30
0.0
 10
210.3359238726746
 20
115.0152053318948
 30
0.0
 10
210.3484270922051
 20
115.0513510443281
 30
0.0
 10
210.3569498149278
 20
115.087355283903
 30
0.0
 10
210.3627296306259
 20
115.1228608010493
 30
0.0
 10
210.3633079058542
 20
115.1464865661468
 30
0.0
 10
210.3635938794874
 20
115.1581701824434
 30
0.0
  0
SPLINE
  5
176
330
1F
100
AcDbEntity
  8
0
  6
Continuous
 62
     7
370
     0
100
AcDbSpline
210
0.0
220
0.0
230
1.0
 70
     8
 71
     3
 72
    19
 73
    15
 74
     0
 42
0.000000001
 43
0.00000001
 40
0.0
 40
0.0
 40
0.0
 40
0.0
 40
0.1003881431397112
 40
0.2044067930373087
 40
0.3106860830942075
 40
0.4221572938827998
 40
0.4806854607703733
 40
0.5432381544526687
 40
0.6094995045645643
 40
0.679554608774224
 40
0.753841222051175
 40
0.8316406764893859
 40
0.9138127068095903
 40
1.0
 40
1.0
 40
1.0
 40
1.0
 10
209.3375011741276
 20
113.8559009005507
 30
0.0
 10
209.3462182034381
 20
113.8799729381206
 30
0.0
 10
209.3639675107811
 20
113.9289875712001
 30
0.0
 10
209.3999277933793
 20
113.9997088418596
 30
0.0
 10
209.442225583688
 20
114.0700024042675
 30
0.0
 10
209.4834084364829
 20
114.1272312884909
 30
0.0
 10
209.5211230366361
 20
114.1729531660801
 30
0.0
 10
209.5527516448938
 20
114.2087252438197
 30
0.0
 10
209.587801940813
 20
114.2453421808627
 30
0.0
 10
209.6262458546921
 20
114.2827972885472
 30
0.0
 10
209.6677133869076
 20
114.3213331484332
 30
0.0
 10
209.7122611197064
 20
114.3610782761561
 30
0.0
 10
209.7604150918319
 20
114.4012919777499
 30
0.0
 10
209.7940316040741
 20
114.4279472923298
 30
0.0
 10
209.8112407264217
 20
114.4415928057762
 30
0.0
  0
SPLINE
  5
177
330
1F
100
AcDbEntity
  8
0
  6
Continuous
 62
     7
370
     0
100
AcDbSpline
210
0.0
220
0.0
230
1.0
 70
     8
 71
     3
 72
    11
 73
     7
 74
     0
 42
0.000000001
 43
0.00000001
 40
0.0
 40
0.0
 40
0.0
 40
0.0
 40
0.2526433275832377
 40
0.5044398525799888
 40
0.7504068042814569
 40
1.0
 40
1.0
 40
1.0
 40
1.0
 10
209.3099246754276
 20
113.6731551479716
 30
0.0
 10
209.3098971719235
 20
113.6888107787195
 30
0.0
 10
209.3098422571007
 20
113.7200695661258
 30
0.0
 10
209.3151317474543
 20
113.7662993297898
 30
0.0
 10
209.3234161483603
 20
113.8119158167711
 30
0.0
 10
209.332783317561
 20
113.8411678557008
 30
0.0
 10
209.3375011741276
 20
113.8559009005507
 30
0.0
  0
LINE
  5
178
330
1F
100
AcDbEntity
  8
0
  6
Continuous
 62
     7
370
     0
100
AcDbLine
 10
210.6533529106
 20
113.673155148
 30
0.0
 11
209.3099246754
 21
113.673155148
 31
0.0
  0
LINE
  5
179
330
1F
100
AcDbEntity
  8
0
  6
Continuous
 62
     7
370
     0
100
AcDbLine
 10
210.6533529106
 20
113.936572449
 30
0.0
 11
210.6533529106
 21
113.673155148
 31
0.0
  0
LINE
  5
17A
330
1F
100
AcDbEntity
  8
0
  6
Continuous
 62
     7
370
     0
100
AcDbLine
 10
209.6482512714
 20
113.936572449
 30
0.0
 11
210.6533529106
 21
113.936572449
 31
0.0
  0
SPLINE
  5
17B
330
1F
100
AcDbEntity
  8
0
  6
Continuous
 62
     7
370
     0
100
AcDbSpline
210
0.0
220
0.0
230
1.0
 70
     8
 71
     3
 72
    23
 73
    19
 74
     0
 42
0.000000001
 43
0.00000001
 40
0.0
 40
0.0
 40
0.0
 40
0.0
 40
0.064254575424703
 40
0.1273603868320975
 40
0.1894718420926418
 40
0.2517207629332008
 40
0.312027284089002
 40
0.368674657115051
 40
0.4226814918055484
 40
0.4740604252251506
 40
0.5257737722739171
 40
0.5796221048577138
 40
0.6373752855308658
 40
0.6984003818208012
 40
0.7643573310122578
 40
0.8363147679791494
 40
0.9146777942540467
 40
1.0
 40
1.0
 40
1.0
 40
1.0
 10
207.2025862673079
 20
114.2617281799269
 30
0.0
 10
207.2018764995478
 20
114.238362907053
 30
0.0
 10
207.2004696534844
 20
114.1920500931873
 30
0.0
 10
207.1891711112189
 20
114.1238854195396
 30
0.0
 10
207.1700771738529
 20
114.0583167484738
 30
0.0
 10
207.1437959929279
 20
113.9964042461619
 30
0.0
 10
207.112480907953
 20
113.9391570226466
 30
0.0
 10
207.0768902167194
 20
113.8880739968793
 30
0.0
 10
207.0379315554979
 20
113.8436808096736
 30
0.0
 10
206.9945078884337
 20
113.8063382043214
 30
0.0
 10
206.9468993168094
 20
113.7746452602772
 30
0.0
 10
206.8937611731212
 20
113.7479577287471
 30
0.0
 10
206.8355043118856
 20
113.7244218834778
 30
0.0
 10
206.7709446948901
 20
113.705620581458
 30
0.0
 10
206.7001117095232
 20
113.6906848516404
 30
0.0
 10
206.6220440872482
 20
113.6809810836578
 30
0.0
 10
206.5366218889201
 20
113.6740344866384
 30
0.0
 10
206.477107201596
 20
113.6734564526849
 30
0.0
 10
206.4460847059556
 20
113.6731551479716
 30
0.0
  0
SPLINE
  5
17C
330
1F
100
AcDbEntity
  8
0
  6
Continuous
 62
     7
370
     0
100
AcDbSpline
210
0.0
220
0.0
230
1.0
 70
     8
 71
     3
 72
    23
 73
    19
 74
     0
 42
0.000000001
 43
0.00000001
 40
0.0
 40
0.0
 40
0.0
 40
0.0
 40
0.0704642259291737
 40
0.1379569656042678
 40
0.2035785636142838
 40
0.2676916802449432
 40
0.3301858648593747
 40
0.3915337640898193
 40
0.4526637734870349
 40
0.5131537880892134
 40
0.5734535531000284
 40
0.6329675593891927
 40
0.6923319074206209
 40
0.7514741915716305
 40
0.8121874455294297
 40
0.8729617178483159
 40
0.935420306759491
 40
1.0
 40
1.0
 40
1.0
 40
1.0
 10
206.8152805169094
 20
114.7531660821329
 30
0.0
 10
206.8304387016078
 20
114.7484209202703
 30
0.0
 10
206.8601158482378
 20
114.7391307006838
 30
0.0
 10
206.9027798295169
 20
114.7221309018828
 30
0.0
 10
206.9428282781111
 20
114.7027741980225
 30
0.0
 10
206.980348368437
 20
114.6810287805645
 30
0.0
 10
207.0150865819898
 20
114.6566932762318
 30
0.0
 10
207.0469449004595
 20
114.6297297473055
 30
0.0
 10
207.0761442156611
 20
114.6005554473696
 30
0.0
 10
207.1026323601554
 20
114.5691881227986
 30
0.0
 10
207.1258994161213
 20
114.5358296290201
 30
0.0
 10
207.1467670586873
 20
114.5012090509639
 30
0.0
 10
207.1639986501741
 20
114.4649094805778
 30
0.0
 10
207.178122758215
 20
114.4270251606297
 30
0.0
 10
207.1891416622697
 20
114.3877901831611
 30
0.0
 10
207.1970544348121
 20
114.3470536434334
 30
0.0
 10
207.2015645131408
 20
114.3049103637219
 30
0.0
 10
207.2022419125022
 20
114.2762815754381
 30
0.0
 10
207.2025862673079
 20
114.2617281799269
 30
0.0
  0
SPLINE
  5
17D
330
1F
100
AcDbEntity
  8
0
  6
Continuous
 62
     7
370
     0
100
AcDbSpline
210
0.0
220
0.0
230
1.0
 70
     8
 71
     3
 72
    15
 73
    11
 74
     0
 42
0.000000001
 43
0.00000001
 40
0.0
 40
0.0
 40
0.0
 40
0.0
 40
0.1158426906010182
 40
0.2305685484828842
 40
0.3473546045205446
 40
0.4682527467344629
 40
0.5923025714800847
 40
0.7199701656206978
 40
0.8556003811349115
 40
1.0
 40
1.0
 40
1.0
 40
1.0
 10
207.1235610770034
 20
115.1952132403986
 30
0.0
 10
207.122602380305
 20
115.1731798607462
 30
0.0
 10
207.1206942296479
 20
115.1293255239875
 30
0.0
 10
207.1055074852892
 20
115.0647254186187
 30
0.0
 10
207.0815381564563
 20
115.0019991185376
 30
0.0
 10
207.0476448469016
 20
114.9419091866825
 30
0.0
 10
207.0043249488862
 20
114.8855549546899
 30
0.0
 10
206.9506206459155
 20
114.8348431292654
 30
0.0
 10
206.8873036639381
 20
114.789665029173
 30
0.0
 10
206.839784271069
 20
114.7655837736981
 30
0.0
 10
206.8152805169094
 20
114.7531660821329
 30
0.0
  0
SPLINE
  5
17E
330
1F
100
AcDbEntity
  8
0
  6
Continuous
 62
     7
370
     0
100
AcDbSpline
210
0.0
220
0.0
230
1.0
 70
     8
 71
     3
 72
    23
 73
    19
 74
     0
 42
0.000000001
 43
0.00000001
 40
0.0
 40
0.0
 40
0.0
 40
0.0
 40
0.0587320371008649
 40
0.1146029008469814
 40
0.1676568100446127
 40
0.2179667070908439
 40
0.2657752056293755
 40
0.3111706510536967
 40
0.3537918046646701
 40
0.3947449080003073
 40
0.472805951082463
 40
0.5491923665616076
 40
0.6247801075795552
 40
0.7026247640242257
 40
0.7797414321940389
 40
0.8540634639886253
 40
0.9271552664103497
 40
0.9999999999999999
 40
0.9999999999999999
 40
0.9999999999999999
 40
0.9999999999999999
 10
206.4440267582914
 20
115.7278100958883
 30
0.0
 10
206.4631031547607
 20
115.7277369142304
 30
0.0
 10
206.5003266273493
 20
115.7275941160117
 30
0.0
 10
206.5546805944665
 20
115.7240228804195
 30
0.0
 10
206.6061578600935
 20
115.7191381707507
 30
0.0
 10
206.6548692428356
 20
115.7128416301895
 30
0.0
 10
206.7006039690612
 20
115.7037054776963
 30
0.0
 10
206.7433194192068
 20
115.692637639676
 30
0.0
 10
206.7832378835284
 20
115.6798712460942
 30
0.0
 10
206.8320321231493
 20
115.6604238935614
 30
0.0
 10
206.8882621347676
 20
115.6304902842447
 30
0.0
 10
206.9484898190345
 20
115.5858246157279
 30
0.0
 10
207.0008902443442
 20
115.5321971698865
 30
0.0
 10
207.0440080883379
 20
115.4707102665504
 30
0.0
 10
207.0795325414674
 20
115.4050306575708
 30
0.0
 10
207.1047189628555
 20
115.3364096018612
 30
0.0
 10
207.1208220062087
 20
115.266341147019
 30
0.0
 10
207.1226490844792
 20
115.2188957677832
 30
0.0
 10
207.1235610770034
 20
115.1952132403986
 30
0.0
  0
LINE
  5
17F
330
1F
100
AcDbEntity
  8
0
  6
Continuous
 62
     7
370
     0
100
AcDbLine
 10
205.6747659214
 20
115.7278100959
 30
0.0
 11
206.4440267583
 21
115.7278100959
 31
0.0
  0
LINE
  5
180
330
1F
100
AcDbEntity
  8
0
  6
Continuous
 62
     7
370
     0
100
AcDbLine
 10
205.6747659214
 20
113.673155148
 30
0.0
 11
205.6747659214
 21
115.7278100959
 31
0.0
  0
LINE
  5
181
330
1F
100
AcDbEntity
  8
0
  6
Continuous
 62
     7
370
     0
100
AcDbLine
 10
206.446084706
 20
113.673155148
 30
0.0
 11
205.6747659214
 21
113.673155148
 31
0.0
  0
SPLINE
  5
182
330
1F
100
AcDbEntity
  8
0
  6
Continuous
 62
     7
370
     0
100
AcDbSpline
210
0.0
220
0.0
230
1.0
 70
     8
 71
     3
 72
    23
 73
    19
 74
     0
 42
0.000000001
 43
0.00000001
 40
0.0
 40
0.0
 40
0.0
 40
0.0
 40
0.0642545754247029
 40
0.1273603868320973
 40
0.1894718420926419
 40
0.2517207629332008
 40
0.3120272840890018
 40
0.3686746571150512
 40
0.4226814918055486
 40
0.4740604252251508
 40
0.5257737722739173
 40
0.5796221048577139
 40
0.6373752855308659
 40
0.6984003818208013
 40
0.7643573310122579
 40
0.8363147679791494
 40
0.9146777942540467
 40
1.0
 40
1.0
 40
1.0
 40
1.0
 10
218.3583089652914
 20
117.4227357921064
 30
0.0
 10
218.3575991975312
 20
117.3993705192324
 30
0.0
 10
218.3561923514678
 20
117.3530577053668
 30
0.0
 10
218.3448938092023
 20
117.2848930317191
 30
0.0
 10
218.3257998718364
 20
117.2193243606533
 30
0.0
 10
218.2995186909113
 20
117.1574118583414
 30
0.0
 10
218.2682036059364
 20
117.100164634826
 30
0.0
 10
218.2326129147028
 20
117.0490816090588
 30
0.0
 10
218.1936542534813
 20
117.0046884218531
 30
0.0
 10
218.1502305864172
 20
116.9673458165009
 30
0.0
 10
218.1026220147929
 20
116.9356528724567
 30
0.0
 10
218.0494838711046
 20
116.9089653409266
 30
0.0
 10
217.991227009869
 20
116.8854294956573
 30
0.0
 10
217.9266673928736
 20
116.8666281936375
 30
0.0
 10
217.8558344075067
 20
116.8516924638199
 30
0.0
 10
217.7777667852316
 20
116.8419886958373
 30
0.0
 10
217.6923445869036
 20
116.8350420988179
 30
0.0
 10
217.6328298995795
 20
116.8344640648644
 30
0.0
 10
217.601807403939
 20
116.8341627601511
 30
0.0
  0
SPLINE
  5
183
330
1F
100
AcDbEntity
  8
0
  6
Continuous
 62
     7
370
     0
100
AcDbSpline
210
0.0
220
0.0
230
1.0
 70
     8
 71
     3
 72
    23
 73
    19
 74
     0
 42
0.000000001
 43
0.00000001
 40
0.0
 40
0.0
 40
0.0
 40
0.0
 40
0.0704642259291749
 40
0.1379569656042689
 40
0.2035785636142837
 40
0.2676916802449441
 40
0.3301858648593755
 40
0.39153376408982
 40
0.4526637734870355
 40
0.513153788089214
 40
0.573453553100029
 40
0.6329675593891934
 40
0.6923319074206218
 40
0.7514741915716301
 40
0.8121874455294298
 40
0.8729617178483161
 40
0.9354203067594908
 40
0.9999999999999999
 40
0.9999999999999999
 40
0.9999999999999999
 40
0.9999999999999999
 10
217.9710032148928
 20
117.9141736943124
 30
0.0
 10
217.9861613995913
 20
117.9094285324498
 30
0.0
 10
218.0158385462212
 20
117.9001383128633
 30
0.0
 10
218.0585025275004
 20
117.8831385140623
 30
0.0
 10
218.0985509760945
 20
117.863781810202
 30
0.0
 10
218.1360710664204
 20
117.842036392744
 30
0.0
 10
218.1708092799733
 20
117.8177008884113
 30
0.0
 10
218.202667598443
 20
117.790737359485
 30
0.0
 10
218.2318669136446
 20
117.7615630595491
 30
0.0
 10
218.2583550581388
 20
117.730195734978
 30
0.0
 10
218.2816221141047
 20
117.6968372411996
 30
0.0
 10
218.3024897566708
 20
117.6622166631434
 30
0.0
 10
218.3197213481575
 20
117.6259170927573
 30
0.0
 10
218.3338454561985
 20
117.5880327728092
 30
0.0
 10
218.3448643602531
 20
117.5487977953406
 30
0.0
 10
218.3527771327956
 20
117.5080612556129
 30
0.0
 10
218.3572872111243
 20
117.4659179759014
 30
0.0
 10
218.3579646104857
 20
117.4372891876176
 30
0.0
 10
218.3583089652914
 20
117.4227357921064
 30
0.0
  0
SPLINE
  5
184
330
1F
100
AcDbEntity
  8
0
  6
Continuous
 62
     7
370
     0
100
AcDbSpline
210
0.0
220
0.0
230
1.0
 70
     8
 71
     3
 72
    15
 73
    11
 74
     0
 42
0.000000001
 43
0.00000001
 40
0.0
 40
0.0
 40
0.0
 40
0.0
 40
0.1158426906010181
 40
0.2305685484828844
 40
0.3473546045205441
 40
0.4682527467344622
 40
0.5923025714800838
 40
0.7199701656206967
 40
0.8556003811349091
 40
1.0
 40
1.0
 40
1.0
 40
1.0
 10
218.2792837749869
 20
118.3562208525781
 30
0.0
 10
218.2783250782884
 20
118.3341874729256
 30
0.0
 10
218.2764169276313
 20
118.290333136167
 30
0.0
 10
218.2612301832726
 20
118.2257330307982
 30
0.0
 10
218.2372608544397
 20
118.1630067307171
 30
0.0
 10
218.203367544885
 20
118.102916798862
 30
0.0
 10
218.1600476468696
 20
118.0465625668694
 30
0.0
 10
218.106343343899
 20
117.9958507414449
 30
0.0
 10
218.0430263619216
 20
117.9506726413525
 30
0.0
 10
217.9955069690525
 20
117.9265913858776
 30
0.0
 10
217.9710032148928
 20
117.9141736943124
 30
0.0
  0
SPLINE
  5
185
330
1F
100
AcDbEntity
  8
0
  6
Continuous
 62
     7
370
     0
100
AcDbSpline
210
0.0
220
0.0
230
1.0
 70
     8
 71
     3
 72
    23
 73
    19
 74
     0
 42
0.000000001
 43
0.00000001
 40
0.0
 40
0.0
 40
0.0
 40
0.0
 40
0.0587320371008649
 40
0.1146029008469823
 40
0.1676568100446118
 40
0.2179667070908439
 40
0.2657752056293754
 40
0.3111706510536957
 40
0.3537918046646691
 40
0.3947449080003072
 40
0.4728059510824636
 40
0.5491923665616075
 40
0.6247801075795553
 40
0.7026247640242256
 40
0.7797414321940387
 40
0.8540634639886254
 40
0.9271552664103496
 40
0.9999999999999999
 40
0.9999999999999999
 40
0.9999999999999999
 40
0.9999999999999999
 10
217.5997494562748
 20
118.8888177080677
 30
0.0
 10
217.6188258527442
 20
118.8887445264099
 30
0.0
 10
217.6560493253327
 20
118.8886017281912
 30
0.0
 10
217.7104032924499
 20
118.885030492599
 30
0.0
 10
217.7618805580769
 20
118.8801457829302
 30
0.0
 10
217.810591940819
 20
118.873849242369
 30
0.0
 10
217.8563266670447
 20
118.8647130898757
 30
0.0
 10
217.8990421171902
 20
118.8536452518555
 30
0.0
 10
217.9389605815118
 20
118.8408788582737
 30
0.0
 10
217.9877548211327
 20
118.8214315057409
 30
0.0
 10
218.043984832751
 20
118.7914978964242
 30
0.0
 10
218.1042125170179
 20
118.7468322279074
 30
0.0
 10
218.1566129423277
 20
118.693204782066
 30
0.0
 10
218.1997307863213
 20
118.6317178787299
 30
0.0
 10
218.2352552394509
 20
118.5660382697503
 30
0.0
 10
218.260441660839
 20
118.4974172140407
 30
0.0
 10
218.2765447041921
 20
118.4273487591985
 30
0.0
 10
218.2783717824626
 20
118.3799033799627
 30
0.0
 10
218.2792837749869
 20
118.3562208525781
 30
0.0
  0
LINE
  5
186
330
1F
100
AcDbEntity
  8
0
  6
Continuous
 62
     7
370
     0
100
AcDbLine
 10
216.8304886194
 20
118.8888177081
 30
0.0
 11
217.5997494563
 21
118.8888177081
 31
0.0
  0
LINE
  5
187
330
1F
100
AcDbEntity
  8
0
  6
Continuous
 62
     7
370
     0
100
AcDbLine
 10
216.8304886194
 20
116.8341627602
 30
0.0
 11
216.8304886194
 21
118.8888177081
 31
0.0
  0
LINE
  5
188
330
1F
100
AcDbEntity
  8
0
  6
Continuous
 62
     7
370
     0
100
AcDbLine
 10
217.6018074039
 20
116.8341627602
 30
0.0
 11
216.8304886194
 21
116.8341627602
 31
0.0
  0
LINE
  5
189
330
1F
100
AcDbEntity
  8
0
  6
Continuous
 62
     7
370
     0
100
AcDbLine
 10
214.6177832909
 20
117.0712383311
 30
0.0
 11
214.6177832909
 21
116.8341627602
 31
0.0
  0
LINE
  5
18A
330
1F
100
AcDbEntity
  8
0
  6
Continuous
 62
     7
370
     0
100
AcDbLine
 10
213.6431392771
 20
117.0712383311
 30
0.0
 11
214.6177832909
 21
117.0712383311
 31
0.0
  0
LINE
  5
18B
330
1F
100
AcDbEntity
  8
0
  6
Continuous
 62
     7
370
     0
100
AcDbLine
 10
213.6431392771
 20
118.8888177081
 30
0.0
 11
213.6431392771
 21
117.0712383311
 31
0.0
  0
LINE
  5
18C
330
1F
100
AcDbEntity
  8
0
  6
Continuous
 62
     7
370
     0
100
AcDbLine
 10
213.353380246
 20
118.8888177081
 30
0.0
 11
213.6431392771
 21
118.8888177081
 31
0.0
  0
LINE
  5
18D
330
1F
100
AcDbEntity
  8
0
  6
Continuous
 62
     7
370
     0
100
AcDbLine
 10
213.353380246
 20
116.8341627602
 30
0.0
 11
213.353380246
 21
118.8888177081
 31
0.0
  0
LINE
  5
18E
330
1F
100
AcDbEntity
  8
0
  6
Continuous
 62
     7
370
     0
100
AcDbLine
 10
214.6177832909
 20
116.8341627602
 30
0.0
 11
213.353380246
 21
116.8341627602
 31
0.0
  0
SPLINE
  5
18F
330
1F
100
AcDbEntity
  8
0
  6
Continuous
 62
     7
370
     0
100
AcDbSpline
210
0.0
220
0.0
230
1.0
 70
     8
 71
     3
 72
    31
 73
    27
 74
     0
 42
0.000000001
 43
0.00000001
 40
0.0
 40
0.0
 40
0.0
 40
0.0
 40
0.0475595569054264
 40
0.0939621052432108
 40
0.1391115332408222
 40
0.1836263101269047
 40
0.2274570284004935
 40
0.2707025105518545
 40
0.3136105321155538
 40
0.3562604510849769
 40
0.3983661529550377
 40
0.4395565149792806
 40
0.4800453830214204
 40
0.5198884957050127
 40
0.5596577503171976
 40
0.5994212546627414
 40
0.6392077550883982
 40
0.6796683749857806
 40
0.7200198525128486
 40
0.7598588655624579
 40
0.7995598848323808
 40
0.8391991446364383
 40
0.8789560762302792
 40
0.9187942693024661
 40
0.9590833628432752
 40
1.0
 40
1.0
 40
1.0
 40
1.0
 10
210.9299410766696
 20
117.8581975178467
 30
0.0
 10
210.929512975118
 20
117.8326696551267
 30
0.0
 10
210.9286671866863
 20
117.782234960617
 30
0.0
 10
210.9229442360707
 20
117.707727485843
 30
0.0
 10
210.9128812996863
 20
117.6353589661436
 30
0.0
 10
210.8995345278748
 20
117.5649136116822
 30
0.0
 10
210.8816502611181
 20
117.4965380750329
 30
0.0
 10
210.8603975583833
 20
117.4300363193427
 30
0.0
 10
210.8346912137222
 20
117.3658044423467
 30
0.0
 10
210.8056587514708
 20
117.3036876319239
 30
0.0
 10
210.7728085327442
 20
117.2445402097836
 30
0.0
 10
210.7365725124572
 20
117.1887757626075
 30
0.0
 10
210.696925019718
 20
117.1369159227343
 30
0.0
 10
210.6544682953413
 20
117.0883245023009
 30
0.0
 10
210.608210862358
 20
117.0438704067899
 30
0.0
 10
210.5587223178206
 20
117.0031379577879
 30
0.0
 10
210.5061929449064
 20
116.9657430020129
 30
0.0
 10
210.4504462716332
 20
116.9326983118097
 30
0.0
 10
210.3924827480888
 20
116.9037334605066
 30
0.0
 10
210.3334493810255
 20
116.8780364190399
 30
0.0
 10
210.2733023191401
 20
116.856120959475
 30
0.0
 10
210.2118359981928
 20
116.8383606577587
 30
0.0
 10
210.1492180922727
 20
116.8249396954391
 30
0.0
 10
210.0856248156112
 20
116.8148899372955
 30
0.0
 10
210.0208477006363
 20
116.8091032520461
 30
0.0
 10
209.9772595559955
 20
116.8082506336767
 30
0.0
 10
209.9552970629142
 20
116.8078210300496
 30
0.0
  0
SPLINE
  5
190
330
1F
100
AcDbEntity
  8
0
  6
Continuous
 62
     7
370
     0
100
AcDbSpline
210
0.0
220
0.0
230
1.0
 70
     8
 71
     3
 72
    31
 73
    27
 74
     0
 42
0.000000001
 43
0.00000001
 40
0.0
 40
0.0
 40
0.0
 40
0.0
 40
0.0430989705688968
 40
0.0855867603450731
 40
0.1269076657436391
 40
0.1679674856215208
 40
0.208449558601066
 40
0.2490254246415441
 40
0.289280534171679
 40
0.3300098489827308
 40
0.370597724099577
 40
0.4104659863326995
 40
0.4500332158929483
 40
0.4896882096042475
 40
0.5291164230741915
 40
0.5690368070925096
 40
0.6097030542359448
 40
0.6507589174942194
 40
0.6925092624061778
 40
0.7342191213706865
 40
0.7767069111468624
 40
0.8195518402403216
 40
0.8633507288313336
 40
0.9078385251300618
 40
0.9533337036124183
 40
1.0
 40
1.0
 40
1.0
 40
1.0
 10
209.9565318315128
 20
118.9151594381692
 30
0.0
 10
209.9797295565229
 20
118.914754362219
 30
0.0
 10
210.0257960426776
 20
118.913949954647
 30
0.0
 10
210.093901230998
 20
118.9078294872943
 30
0.0
 10
210.1602563555028
 20
118.8969055133798
 30
0.0
 10
210.2247960730276
 20
118.8822661633287
 30
0.0
 10
210.2876960610765
 20
118.8630599726932
 30
0.0
 10
210.3489938823419
 20
118.8403876490714
 30
0.0
 10
210.4081529428914
 20
118.8122934476579
 30
0.0
 10
210.4655668121844
 20
118.7808391935081
 30
0.0
 10
210.5205577620178
 20
118.7456562501798
 30
0.0
 10
210.5722381189774
 20
118.7067897240801
 30
0.0
 10
210.6204840922767
 20
118.6645335610254
 30
0.0
 10
210.6659437562006
 20
118.6195823371627
 30
0.0
 10
210.7071001857552
 20
118.5704190114244
 30
0.0
 10
210.745653657691
 20
118.5185411829416
 30
0.0
 10
210.7804963153527
 20
118.4630289737491
 30
0.0
 10
210.8117517881546
 20
118.404337212417
 30
0.0
 10
210.8396973570047
 20
118.3433723824624
 30
0.0
 10
210.863582242031
 20
118.2798818095002
 30
0.0
 10
210.8840917569777
 20
118.2146271073791
 30
0.0
 10
210.9012599512998
 20
118.1472220379724
 30
0.0
 10
210.9135785939356
 20
118.0776896449598
 30
0.0
 10
210.9233880622533
 20
118.006329536553
 30
0.0
 10
210.9285510564455
 20
117.9329084839149
 30
0.0
 10
210.9294738279688
 20
117.8833112544886
 30
0.0
 10
210.9299410766696
 20
117.8581975178467
 30
0.0
  0
SPLINE
  5
191
330
1F
100
AcDbEntity
  8
0
  6
Continuous
 62
     7
370
     0
100
AcDbSpline
210
0.0
220
0.0
230
1.0
 70
     8
 71
     3
 72
    23
 73
    19
 74
     0
 42
0.000000001
 43
0.00000001
 40
0.0
 40
0.0
 40
0.0
 40
0.0
 40
0.0752263466908988
 40
0.1465747215268522
 40
0.2145002518264754
 40
0.2795299716530228
 40
0.3424029515883814
 40
0.4034960527288083
 40
0.4637616065030392
 40
0.5238643590795867
 40
0.5832517242549665
 40
0.6413020392831351
 40
0.6988977748564887
 40
0.7562952438113087
 40
0.814627804812969
 40
0.874324768339998
 40
0.9357832838625453
 40
1.0
 40
1.0
 40
1.0
 40
1.0
 10
208.9806530491589
 20
117.8343253249423
 30
0.0
 10
208.9813671681529
 20
117.8755193857079
 30
0.0
 10
208.9827585927971
 20
117.9557839240097
 30
0.0
 10
208.9957594231314
 20
118.0726594341217
 30
0.0
 10
209.0168694345787
 20
118.1826240009594
 30
0.0
 10
209.0470480638758
 20
118.2856690575034
 30
0.0
 10
209.0852995632368
 20
118.3819560760548
 30
0.0
 10
209.1318015678767
 20
118.4717030838394
 30
0.0
 10
209.1879528273509
 20
118.5538942093411
 30
0.0
 10
209.2514742106294
 20
118.6293118586761
 30
0.0
 10
209.3224246781443
 20
118.6959865885096
 30
0.0
 10
209.3979667600488
 20
118.7552033011792
 30
0.0
 10
209.4790437399751
 20
118.8045970404435
 30
0.0
 10
209.564906528848
 20
118.8453799852758
 30
0.0
 10
209.6559199206131
 20
118.8766919493632
 30
0.0
 10
209.7518283773236
 20
118.898613173388
 30
0.0
 10
209.8525293255199
 20
118.9127544931442
 30
0.0
 10
209.921360780384
 20
118.9143461458007
 30
0.0
 10
209.9565318315128
 20
118.9151594381692
 30
0.0
  0
SPLINE
  5
192
330
1F
100
AcDbEntity
  8
0
  6
Continuous
 62
     7
370
     0
100
AcDbSpline
210
0.0
220
0.0
230
1.0
 70
     8
 71
     3
 72
    31
 73
    27
 74
     0
 42
0.000000001
 43
0.00000001
 40
0.0
 40
0.0
 40
0.0
 40
0.0
 40
0.0446969998899171
 40
0.0885335629185875
 40
0.1314091332352275
 40
0.1738139421467784
 40
0.2157145332694449
 40
0.2572471603264208
 40
0.2988479641797117
 40
0.3406041827148143
 40
0.3820294481091344
 40
0.4229697500404858
 40
0.4636322295306197
 40
0.5040475437003945
 40
0.5445912057564576
 40
0.5849639251690937
 40
0.6262652162680831
 40
0.6679794005009905
 40
0.7099427472053506
 40
0.7513818550852255
 40
0.7926185649779642
 40
0.8339484357458206
 40
0.8750080506311037
 40
0.9164455302232757
 40
0.957906613728307
 40
1.0
 40
1.0
 40
1.0
 40
1.0
 10
209.9552970629142
 20
116.8078210300496
 30
0.0
 10
209.9316825049167
 20
116.8081704103611
 30
0.0
 10
209.8849079795252
 20
116.8088624452599
 30
0.0
 10
209.8157739712517
 20
116.8157701331897
 30
0.0
 10
209.7483599084466
 20
116.8263080517526
 30
0.0
 10
209.6828617757894
 20
116.8415216225143
 30
0.0
 10
209.6193690738796
 20
116.8613688004704
 30
0.0
 10
209.5578066763198
 20
116.8853911966793
 30
0.0
 10
209.4979580616601
 20
116.9132677592653
 30
0.0
 10
209.4405658521638
 20
116.9457966854976
 30
0.0
 10
209.3858253874755
 20
116.9819653548751
 30
0.0
 10
209.3342672319454
 20
117.021593974534
 30
0.0
 10
209.285919895343
 20
117.0643173315728
 30
0.0
 10
209.2415591545031
 20
117.110841592107
 30
0.0
 10
209.1997483046923
 20
117.1594802336426
 30
0.0
 10
209.1621591315246
 20
117.2120411243342
 30
0.0
 10
209.127564031263
 20
117.267332238202
 30
0.0
 10
209.0969867296249
 20
117.325886557637
 30
0.0
 10
209.0693647135468
 20
117.3859640702741
 30
0.0
 10
209.0460925683609
 20
117.44758399329
 30
0.0
 10
209.0256408630364
 20
117.5098382128118
 30
0.0
 10
209.0093531499764
 20
117.5731104378173
 30
0.0
 10
208.996373824723
 20
117.6372547136959
 30
0.0
 10
208.9876461690369
 20
117.7021643066128
 30
0.0
 10
208.9813429897385
 20
117.7679358883626
 30
0.0
 10
208.9808841866907
 20
117.8120841480038
 30
0.0
 10
208.9806530491589
 20
117.8343253249423
 30
0.0
  0
LINE
  5
193
330
1F
100
AcDbEntity
  8
0
  6
Continuous
 62
     7
370
     0
100
AcDbLine
 10
206.0567210079
 20
118.6517421372
 30
0.0
 11
206.0567210079
 21
116.8341627602
 31
0.0
  0
LINE
  5
194
330
1F
100
AcDbEntity
  8
0
  6
Continuous
 62
     7
370
     0
100
AcDbLine
 10
206.7152642604
 20
118.6517421372
 30
0.0
 11
206.0567210079
 21
118.6517421372
 31
0.0
  0
LINE
  5
195
330
1F
100
AcDbEntity
  8
0
  6
Continuous
 62
     7
370
     0
100
AcDbLine
 10
206.7152642604
 20
118.8888177081
 30
0.0
 11
206.7152642604
 21
118.6517421372
 31
0.0
  0
LINE
  5
196
330
1F
100
AcDbEntity
  8
0
  6
Continuous
 62
     7
370
     0
100
AcDbLine
 10
205.1084187242
 20
118.8888177081
 30
0.0
 11
206.7152642604
 21
118.8888177081
 31
0.0
  0
LINE
  5
197
330
1F
100
AcDbEntity
  8
0
  6
Continuous
 62
     7
370
     0
100
AcDbLine
 10
205.1084187242
 20
118.6517421372
 30
0.0
 11
205.1084187242
 21
118.8888177081
 31
0.0
  0
LINE
  5
198
330
1F
100
AcDbEntity
  8
0
  6
Continuous
 62
     7
370
     0
100
AcDbLine
 10
205.7669619768
 20
118.6517421372
 30
0.0
 11
205.1084187242
 21
118.6517421372
 31
0.0
  0
LINE
  5
199
330
1F
100
AcDbEntity
  8
0
  6
Continuous
 62
     7
370
     0
100
AcDbLine
 10
205.7669619768
 20
116.8341627602
 30
0.0
 11
205.7669619768
 21
118.6517421372
 31
0.0
  0
LINE
  5
19A
330
1F
100
AcDbEntity
  8
0
  6
Continuous
 62
     7
370
     0
100
AcDbLine
 10
206.0567210079
 20
116.8341627602
 30
0.0
 11
205.7669619768
 21
116.8341627602
 31
0.0
  0
CIRCLE
  5
19B
330
1F
100
AcDbEntity
  8
0
  6
Continuous
 62
     7
370
     0
100
AcDbCircle
 10
212.7080078585
 20
116.5547627602
 30
0.0
 40
25.15000000000001
  0
LINE
  5
19C
330
1F
100
AcDbEntity
  8
0
  6
Continuous
 62
     7
370
     0
100
AcDbLine
 10
207.3211240528
 20
117.8088067739
 30
0.0
 11
207.3211240528
 21
116.8341627602
 31
0.0
  0
LINE
  5
19D
330
1F
100
AcDbEntity
  8
0
  6
Continuous
 62
     7
370
     0
100
AcDbLine
 10
208.3221097966
 20
117.8088067739
 30
0.0
 11
207.3211240528
 21
117.8088067739
 31
0.0
  0
LINE
  5
19E
330
1F
100
AcDbEntity
  8
0
  6
Continuous
 62
     7
370
     0
100
AcDbLine
 10
208.3221097966
 20
116.8341627602
 30
0.0
 11
208.3221097966
 21
117.8088067739
 31
0.0
  0
LINE
  5
19F
330
1F
100
AcDbEntity
  8
0
  6
Continuous
 62
     7
370
     0
100
AcDbLine
 10
208.6118688277
 20
116.8341627602
 30
0.0
 11
208.3221097966
 21
116.8341627602
 31
0.0
  0
LINE
  5
1A0
330
1F
100
AcDbEntity
  8
0
  6
Continuous
 62
     7
370
     0
100
AcDbLine
 10
208.6118688277
 20
118.8888177081
 30
0.0
 11
208.6118688277
 21
116.8341627602
 31
0.0
  0
LINE
  5
1A1
330
1F
100
AcDbEntity
  8
0
  6
Continuous
 62
     7
370
     0
100
AcDbLine
 10
208.3221097966
 20
118.8888177081
 30
0.0
 11
208.6118688277
 21
118.8888177081
 31
0.0
  0
LINE
  5
1A2
330
1F
100
AcDbEntity
  8
0
  6
Continuous
 62
     7
370
     0
100
AcDbLine
 10
208.3221097966
 20
118.0458823448
 30
0.0
 11
208.3221097966
 21
118.8888177081
 31
0.0
  0
LINE
  5
1A3
330
1F
100
AcDbEntity
  8
0
  6
Continuous
 62
     7
370
     0
100
AcDbLine
 10
207.3211240528
 20
118.0458823448
 30
0.0
 11
208.3221097966
 21
118.0458823448
 31
0.0
  0
LINE
  5
1A4
330
1F
100
AcDbEntity
  8
0
  6
Continuous
 62
     7
370
     0
100
AcDbLine
 10
207.3211240528
 20
118.8888177081
 30
0.0
 11
207.3211240528
 21
118.0458823448
 31
0.0
  0
LINE
  5
1A5
330
1F
100
AcDbEntity
  8
0
  6
Continuous
 62
     7
370
     0
100
AcDbLine
 10
207.0313650216
 20
118.8888177081
 30
0.0
 11
207.3211240528
 21
118.8888177081
 31
0.0
  0
LINE
  5
1A6
330
1F
100
AcDbEntity
  8
0
  6
Continuous
 62
     7
370
     0
100
AcDbLine
 10
207.0313650216
 20
116.8341627602
 30
0.0
 11
207.0313650216
 21
118.8888177081
 31
0.0
  0
LINE
  5
1A7
330
1F
100
AcDbEntity
  8
0
  6
Continuous
 62
     7
370
     0
100
AcDbLine
 10
207.3211240528
 20
116.8341627602
 30
0.0
 11
207.0313650216
 21
116.8341627602
 31
0.0
  0
LINE
  5
1A8
330
1F
100
AcDbEntity
  8
0
  6
Continuous
 62
     7
370
     0
100
AcDbLine
 10
211.5884843292
 20
117.7561233137
 30
0.0
 11
211.5884843292
 21
116.8341627602
 31
0.0
  0
LINE
  5
1A9
330
1F
100
AcDbEntity
  8
0
  6
Continuous
 62
     7
370
     0
100
AcDbLine
 10
211.8852403824
 20
117.7561233137
 30
0.0
 11
211.5884843292
 21
117.7561233137
 31
0.0
  0
SPLINE
  5
1AA
330
1F
100
AcDbEntity
  8
0
  6
Continuous
 62
     7
370
     0
100
AcDbSpline
210
0.0
220
0.0
230
1.0
 70
     8
 71
     3
 72
    11
 73
     7
 74
     0
 42
0.000000001
 43
0.00000001
 40
0.0
 40
0.0
 40
0.0
 40
0.0
 40
0.1774946570818496
 40
0.4052256231013751
 40
0.6783881083348569
 40
0.9999999999999999
 40
0.9999999999999999
 40
0.9999999999999999
 40
0.9999999999999999
 10
212.0280619502757
 20
117.7466567544482
 30
0.0
 10
212.0197103696239
 20
117.7481628282774
 30
0.0
 10
212.0006434606297
 20
117.751601239979
 30
0.0
 10
211.9682678967366
 20
117.7538468721432
 30
0.0
 10
211.9290409291914
 20
117.7562303102494
 30
0.0
 10
211.9006124773144
 20
117.7561608648571
 30
0.0
 10
211.8852403823816
 20
117.7561233137034
 30
0.0
  0
SPLINE
  5
1AB
330
1F
100
AcDbEntity
  8
0
  6
Continuous
 62
     7
370
     0
100
AcDbSpline
210
0.0
220
0.0
230
1.0
 70
     8
 71
     3
 72
    21
 73
    17
 74
     0
 42
0.000000001
 43
0.00000001
 40
0.0
 40
0.0
 40
0.0
 40
0.0
 40
0.0807814705861226
 40
0.1565412257955895
 40
0.227934986843486
 40
0.2943103173046012
 40
0.3568678635548111
 40
0.4147585592592752
 40
0.467641396834016
 40
0.5167484215300129
 40
0.604729741894053
 40
0.6815706529393896
 40
0.7481095416219826
 40
0.8049410995352804
 40
0.9054060495000024
 40
1.0
 40
1.0
 40
1.0
 40
1.0
 10
212.4594077806877
 20
117.2679781277601
 30
0.0
 10
212.4502029941369
 20
117.283199061374
 30
0.0
 10
212.4323656292141
 20
117.3126947314626
 30
0.0
 10
212.4066001946196
 20
117.355771737714
 30
0.0
 10
212.3813380331178
 20
117.3954309855739
 30
0.0
 10
212.3579078104273
 20
117.4328059579289
 30
0.0
 10
212.3353586888503
 20
117.4672181305883
 30
0.0
 10
212.313908545676
 20
117.4987870447357
 30
0.0
 10
212.2941476983697
 20
117.5279268432836
 30
0.0
 10
212.2696713342135
 20
117.5618531521326
 30
0.0
 10
212.2411849115937
 20
117.5993929276942
 30
0.0
 10
212.2079432109213
 20
117.6380518077084
 30
0.0
 10
212.1762872560815
 20
117.6688740177803
 30
0.0
 10
212.1373023634844
 20
117.6990984734434
 30
0.0
 10
212.0890136760554
 20
117.7273683712854
 30
0.0
 10
212.0479673802139
 20
117.7403576127134
 30
0.0
 10
212.0280619502757
 20
117.7466567544482
 30
0.0
  0
LINE
  5
1AC
330
1F
100
AcDbEntity
  8
0
  6
Continuous
 62
     7
370
     0
100
AcDbLine
 10
212.7154164701
 20
116.8341627602
 30
0.0
 11
212.4594077807
 21
117.2679781278
 31
0.0
  0
LINE
  5
1AD
330
1F
100
AcDbEntity
  8
0
  6
Continuous
 62
     7
370
     0
100
AcDbLine
 10
213.0475692231
 20
116.8341627602
 30
0.0
 11
212.7154164701
 21
116.8341627602
 31
0.0
  0
LINE
  5
1AE
330
1F
100
AcDbEntity
  8
0
  6
Continuous
 62
     7
370
     0
100
AcDbLine
 10
212.7104773957
 20
117.4013331364
 30
0.0
 11
213.0475692231
 21
116.8341627602
 31
0.0
  0
SPLINE
  5
1AF
330
1F
100
AcDbEntity
  8
0
  6
Continuous
 62
     7
370
     0
100
AcDbSpline
210
0.0
220
0.0
230
1.0
 70
     8
 71
     3
 72
    11
 73
     7
 74
     0
 42
0.000000001
 43
0.00000001
 40
0.0
 40
0.0
 40
0.0
 40
0.0
 40
0.2295275697008571
 40
0.4714659343032296
 40
0.7281863484998697
 40
1.0
 40
1.0
 40
1.0
 40
1.0
 10
212.4939813014459
 20
117.6812140187273
 30
0.0
 10
212.5133911113178
 20
117.6621867328486
 30
0.0
 10
212.55326023971
 20
117.623103335914
 30
0.0
 10
212.608201630398
 20
117.5565328619922
 30
0.0
 10
212.6614691955668
 20
117.4824297094208
 30
0.0
 10
212.6938332577382
 20
117.4288751099232
 30
0.0
 10
212.7104773957176
 20
117.4013331363989
 30
0.0
  0
SPLINE
  5
1B0
330
1F
100
AcDbEntity
  8
0
  6
Continuous
 62
     7
370
     0
100
AcDbSpline
210
0.0
220
0.0
230
1.0
 70
     8
 71
     3
 72
    11
 73
     7
 74
     0
 42
0.000000001
 43
0.00000001
 40
0.0
 40
0.0
 40
0.0
 40
0.0
 40
0.2930762433192213
 40
0.5565623371181898
 40
0.7919136092098108
 40
1.0
 40
1.0
 40
1.0
 40
1.0
 10
212.3342845627056
 20
117.7824650438049
 30
0.0
 10
212.3508264097125
 20
117.7741084675698
 30
0.0
 10
212.3822399727026
 20
117.7582390284538
 30
0.0
 10
212.4257324399202
 20
117.7333558857473
 30
0.0
 10
212.4625994988448
 20
117.7079314456282
 30
0.0
 10
212.4839584542418
 20
117.6897471387306
 30
0.0
 10
212.4939813014459
 20
117.6812140187273
 30
0.0
  0
SPLINE
  5
1B1
330
1F
100
AcDbEntity
  8
0
  6
Continuous
 62
     7
370
     0
100
AcDbSpline
210
0.0
220
0.0
230
1.0
 70
     8
 71
     3
 72
    23
 73
    19
 74
     0
 42
0.000000001
 43
0.00000001
 40
0.0
 40
0.0
 40
0.0
 40
0.0
 40
0.0614130692946597
 40
0.1212950233845471
 40
0.1792240423087202
 40
0.2359380947348319
 40
0.2922168332673612
 40
0.3481966394342069
 40
0.4044447389633588
 40
0.4620255339229974
 40
0.5203342118681488
 40
0.5803829016508381
 40
0.641825904813988
 40
0.7063632097966277
 40
0.7738513938275595
 40
0.8452662573568828
 40
0.920154675768406
 40
1.0
 40
1.0
 40
1.0
 40
1.0
 10
212.8792291041802
 20
118.3348181968707
 30
0.0
 10
212.8788270439045
 20
118.3172423482454
 30
0.0
 10
212.8780329472877
 20
118.2825288419105
 30
0.0
 10
212.8719500873239
 20
118.2314906958431
 30
0.0
 10
212.8609436433451
 20
118.1827257996239
 30
0.0
 10
212.8468300483479
 20
118.1358070790342
 30
0.0
 10
212.8275128424197
 20
118.0913992973496
 30
0.0
 10
212.8051346978106
 20
118.0485954120964
 30
0.0
 10
212.7774113582439
 20
118.0085713602016
 30
0.0
 10
212.7463720138958
 20
117.9702613653356
 30
0.0
 10
212.7107782095735
 20
117.9344859253077
 30
0.0
 10
212.6703168273404
 20
117.9025357300363
 30
0.0
 10
212.625388951594
 20
117.8737964654336
 30
0.0
 10
212.575782990075
 20
117.8490610589765
 30
0.0
 10
212.5220699572724
 20
117.8264517231464
 30
0.0
 10
212.4635759021721
 20
117.8082455965581
 30
0.0
 10
212.4005369019031
 20
117.793378898138
 30
0.0
 10
212.3568353366293
 20
117.7861798690425
 30
0.0
 10
212.3342845627056
 20
117.7824650438049
 30
0.0
  0
SPLINE
  5
1B2
330
1F
100
AcDbEntity
  8
0
  6
Continuous
 62
     7
370
     0
100
AcDbSpline
210
0.0
220
0.0
230
1.0
 70
     8
 71
     3
 72
    27
 73
    23
 74
     0
 42
0.000000001
 43
0.00000001
 40
0.0
 40
0.0
 40
0.0
 40
0.0
 40
0.0621127506505294
 40
0.1202119588785538
 40
0.1743851213884739
 40
0.2254437557784867
 40
0.2723582126361769
 40
0.3163881629634408
 40
0.3568694790582282
 40
0.3939783235063667
 40
0.4295893718770922
 40
0.464683040954987
 40
0.50003634614284
 40
0.5354827477530639
 40
0.5713634671484435
 40
0.6079085322052601
 40
0.6456622985331159
 40
0.6845173397035775
 40
0.7625786223763461
 40
0.8404972886541807
 40
0.9190729926935233
 40
1.0
 40
1.0
 40
1.0
 40
1.0
 10
212.190228226213
 20
118.8888177080677
 30
0.0
 10
212.2112203903996
 20
118.8886532257745
 30
0.0
 10
212.2518482671485
 20
118.8883348895478
 30
0.0
 10
212.310767077182
 20
118.8860814305943
 30
0.0
 10
212.365761879778
 20
118.8812235642381
 30
0.0
 10
212.4169337919779
 20
118.8759704588171
 30
0.0
 10
212.4642737220001
 20
118.8679076436063
 30
0.0
 10
212.507732830528
 20
118.8586597767031
 30
0.0
 10
212.5473782162276
 20
118.8476546752719
 30
0.0
 10
212.5833871179529
 20
118.8346568020977
 30
0.0
 10
212.6167955269757
 20
118.8199516558099
 30
0.0
 10
212.6477625986289
 20
118.8018078794497
 30
0.0
 10
212.6775755941691
 20
118.7819261692367
 30
0.0
 10
212.7051280493244
 20
118.7585681268042
 30
0.0
 10
212.731146662795
 20
118.7329932323446
 30
0.0
 10
212.7556073197123
 20
118.7048539773012
 30
0.0
 10
212.7781478995149
 20
118.6739061702087
 30
0.0
 10
212.8059490052992
 20
118.6296134402366
 30
0.0
 10
212.8357739236302
 20
118.5706248512804
 30
0.0
 10
212.8606227652766
 20
118.4951322389123
 30
0.0
 10
212.8766448538489
 20
118.4161642108592
 30
0.0
 10
212.8783592631031
 20
118.3621987116644
 30
0.0
 10
212.8792291041802
 20
118.3348181968707
 30
0.0
  0
LINE
  5
1B3
330
1F
100
AcDbEntity
  8
0
  6
Continuous
 62
     7
370
     0
100
AcDbLine
 10
211.2987252981
 20
118.8888177081
 30
0.0
 11
212.1902282262
 21
118.8888177081
 31
0.0
  0
LINE
  5
1B4
330
1F
100
AcDbEntity
  8
0
  6
Continuous
 62
     7
370
     0
100
AcDbLine
 10
211.2987252981
 20
116.8341627602
 30
0.0
 11
211.2987252981
 21
118.8888177081
 31
0.0
  0
LINE
  5
1B5
330
1F
100
AcDbEntity
  8
0
  6
Continuous
 62
     7
370
     0
100
AcDbLine
 10
211.5884843292
 20
116.8341627602
 30
0.0
 11
211.2987252981
 21
116.8341627602
 31
0.0
  0
LINE
  5
1B6
330
1F
100
AcDbEntity
  8
0
  6
Continuous
 62
     7
370
     0
100
AcDbLine
 10
215.1940086368
 20
117.4663642826
 30
0.0
 11
214.9602257822
 21
116.8341627602
 31
0.0
  0
LINE
  5
1B7
330
1F
100
AcDbEntity
  8
0
  6
Continuous
 62
     7
370
     0
100
AcDbLine
 10
216.0698711627
 20
117.4663642826
 30
0.0
 11
215.1940086368
 21
117.4663642826
 31
0.0
  0
LINE
  5
1B8
330
1F
100
AcDbEntity
  8
0
  6
Continuous
 62
     7
370
     0
100
AcDbLine
 10
216.3036540174
 20
116.8341627602
 30
0.0
 11
216.0698711627
 21
117.4663642826
 31
0.0
  0
LINE
  5
1B9
330
1F
100
AcDbEntity
  8
0
  6
Continuous
 62
     7
370
     0
100
AcDbLine
 10
216.6111113984
 20
116.8341627602
 30
0.0
 11
216.3036540174
 21
116.8341627602
 31
0.0
  0
LINE
  5
1BA
330
1F
100
AcDbEntity
  8
0
  6
Continuous
 62
     7
370
     0
100
AcDbLine
 10
215.7953409443
 20
118.8888177081
 30
0.0
 11
216.6111113984
 21
116.8341627602
 31
0.0
  0
LINE
  5
1BB
330
1F
100
AcDbEntity
  8
0
  6
Continuous
 62
     7
370
     0
100
AcDbLine
 10
215.4685388553
 20
118.8888177081
 30
0.0
 11
215.7953409443
 21
118.8888177081
 31
0.0
  0
LINE
  5
1BC
330
1F
100
AcDbEntity
  8
0
  6
Continuous
 62
     7
370
     0
100
AcDbLine
 10
214.6527684012
 20
116.8341627602
 30
0.0
 11
215.4685388553
 21
118.8888177081
 31
0.0
  0
LINE
  5
1BD
330
1F
100
AcDbEntity
  8
0
  6
Continuous
 62
     7
370
     0
100
AcDbLine
 10
214.9602257822
 20
116.8341627602
 30
0.0
 11
214.6527684012
 21
116.8341627602
 31
0.0
  0
SPLINE
  5
1BE
330
1F
100
AcDbEntity
  8
0
  6
Continuous
 62
     7
370
     0
100
AcDbSpline
210
0.0
220
0.0
230
1.0
 70
     8
 71
     3
 72
    23
 73
    19
 74
     0
 42
0.000000001
 43
0.00000001
 40
0.0
 40
0.0
 40
0.0
 40
0.0
 40
0.0748159666505558
 40
0.1485345605139198
 40
0.2238723272963845
 40
0.3012971209351246
 40
0.3408936290197578
 40
0.3803400620654405
 40
0.4201265887284641
 40
0.4599499070829662
 40
0.5008311555562168
 40
0.5419071755971083
 40
0.5844387941530511
 40
0.6280801713306066
 40
0.7172666799070601
 40
0.8078600064218678
 40
0.9019246558363443
 40
1.0
 40
1.0
 40
1.0
 40
1.0
 10
220.2285718024976
 20
117.4173851281795
 30
0.0
 10
220.2274995169975
 20
117.3905326153822
 30
0.0
 10
220.2253706738823
 20
117.3372214524634
 30
0.0
 10
220.2070405668863
 20
117.258638332762
 30
0.0
 10
220.1782449382672
 20
117.1824917284008
 30
0.0
 10
220.1444749308919
 20
117.1220652032654
 30
0.0
 10
220.1125520669044
 20
117.0759081196465
 30
0.0
 10
220.0857353553344
 20
117.0427325174273
 30
0.0
 10
220.0559971639775
 20
117.0120566177205
 30
0.0
 10
220.0240696169207
 20
116.9829194027958
 30
0.0
 10
219.9897048268704
 20
116.955915367066
 30
0.0
 10
219.9526130773295
 20
116.9310353151621
 30
0.0
 10
219.9131858541609
 20
116.9080202479723
 30
0.0
 10
219.8568847709529
 20
116.879975040858
 30
0.0
 10
219.7821075791304
 20
116.8506370911088
 30
0.0
 10
219.6868564483877
 20
116.826205440095
 30
0.0
 10
219.5864732937036
 20
116.8103560239664
 30
0.0
 10
219.5175440231673
 20
116.8086777056574
 30
0.0
 10
219.4823599794661
 20
116.8078210300496
 30
0.0
  0
SPLINE
  5
1BF
330
1F
100
AcDbEntity
  8
0
  6
Continuous
 62
     7
370
     0
100
AcDbSpline
210
0.0
220
0.0
230
1.0
 70
     8
 71
     3
 72
    23
 73
    19
 74
     0
 42
0.000000001
 43
0.00000001
 40
0.0
 40
0.0
 40
0.0
 40
0.0
 40
0.0749313059818448
 40
0.1470775964339468
 40
0.2163644561730687
 40
0.2825027309006236
 40
0.3466877108244161
 40
0.4088355551310383
 40
0.4692619872876918
 40
0.5284320432534629
 40
0.5870013379727416
 40
0.6444163938320668
 40
0.7021887902662972
 40
0.7597671795443348
 40
0.8184897928274487
 40
0.8776328274167842
 40
0.9380195662701677
 40
1.0
 40
1.0
 40
1.0
 40
1.0
 10
219.8721352670617
 20
117.9141736943124
 30
0.0
 10
219.8869081630622
 20
117.9073624405753
 30
0.0
 10
219.9159048822258
 20
117.8939930909394
 30
0.0
 10
219.9569826177778
 20
117.871166937636
 30
0.0
 10
219.9953126015883
 20
117.8474632062602
 30
0.0
 10
220.0305851530046
 20
117.8222437123198
 30
0.0
 10
220.0626862188229
 20
117.795455407239
 30
0.0
 10
220.0919747264589
 20
117.7674052260591
 30
0.0
 10
220.11862756822
 20
117.738250815372
 30
0.0
 10
220.1415693044795
 20
117.7070590642881
 30
0.0
 10
220.1621686298798
 20
117.6750908838959
 30
0.0
 10
220.1801944112929
 20
117.6418994777906
 30
0.0
 10
220.1947084243096
 20
117.6072896536728
 30
0.0
 10
220.2074381190164
 20
117.5716786008407
 30
0.0
 10
220.2165944208216
 20
117.5346702207971
 30
0.0
 10
220.2237748082504
 20
117.4966383228978
 30
0.0
 10
220.2279630081556
 20
117.4574041461672
 30
0.0
 10
220.2283671166971
 20
117.4308401230228
 30
0.0
 10
220.2285718024976
 20
117.4173851281795
 30
0.0
  0
SPLINE
  5
1C0
330
1F
100
AcDbEntity
  8
0
  6
Continuous
 62
     7
370
     0
100
AcDbSpline
210
0.0
220
0.0
230
1.0
 70
     8
 71
     3
 72
    23
 73
    19
 74
     0
 42
0.000000001
 43
0.00000001
 40
0.0
 40
0.0
 40
0.0
 40
0.0
 40
0.0327432182311376
 40
0.0724096054938575
 40
0.1196114857927602
 40
0.174672915198513
 40
0.2373450901947012
 40
0.3083524168429162
 40
0.3876300477623597
 40
0.474783615586252
 40
0.5633323159904133
 40
0.6451362168299871
 40
0.7202025267224654
 40
0.7891341563324468
 40
0.8514970735699654
 40
0.9073306044315619
 40
0.9569686823424192
 40
0.9999999999999999
 40
0.9999999999999999
 40
0.9999999999999999
 40
0.9999999999999999
 10
219.0641850141049
 20
118.1899386813124
 30
0.0
 10
219.0713204911041
 20
118.1838569349644
 30
0.0
 10
219.0871001579308
 20
118.1704075284136
 30
0.0
 10
219.1164606605325
 20
118.1526088135654
 30
0.0
 10
219.1528633293711
 20
118.134625480562
 30
0.0
 10
219.1965514011213
 20
118.1167486559465
 30
0.0
 10
219.2474497088892
 20
118.0987613169306
 30
0.0
 10
219.3054761526982
 20
118.0802411394559
 30
0.0
 10
219.370851748428
 20
118.0618471406655
 30
0.0
 10
219.4415841767752
 20
118.0441214794165
 30
0.0
 10
219.5130404225035
 20
118.026324559647
 30
0.0
 10
219.5809478790605
 20
118.008595469143
 30
0.0
 10
219.6432984188294
 20
117.9917931701207
 30
0.0
 10
219.6999931181531
 20
117.9754052797165
 30
0.0
 10
219.7510906578118
 20
117.9594781369599
 30
0.0
 10
219.7964134551327
 20
117.9436780476799
 30
0.0
 10
219.8363281886872
 20
117.9291459733369
 30
0.0
 10
219.8607806785169
 20
117.9189214725624
 30
0.0
 10
219.8721352670617
 20
117.9141736943124
 30
0.0
  0
SPLINE
  5
1C1
330
1F
100
AcDbEntity
  8
0
  6
Continuous
 62
     7
370
     0
100
AcDbSpline
210
0.0
220
0.0
230
1.0
 70
     8
 71
     3
 72
    11
 73
     7
 74
     0
 42
0.000000001
 43
0.00000001
 40
0.0
 40
0.0
 40
0.0
 40
0.0
 40
0.2627412305282689
 40
0.5099565029432328
 40
0.7533267184204503
 40
1.0
 40
1.0
 40
1.0
 40
1.0
 10
218.9905104877273
 20
118.3714496652931
 30
0.0
 10
218.991259293268
 20
118.3537723172467
 30
0.0
 10
218.9927126557805
 20
118.3194622145919
 30
0.0
 10
219.0075536119749
 20
118.2707179012114
 30
0.0
 10
219.0303791064367
 20
118.2262843012524
 30
0.0
 10
219.0528658553412
 20
118.2021082064293
 30
0.0
 10
219.0641850141049
 20
118.1899386813124
 30
0.0
  0
SPLINE
  5
1C2
330
1F
100
AcDbEntity
  8
0
  6
Continuous
 62
     7
370
     0
100
AcDbSpline
210
0.0
220
0.0
230
1.0
 70
     8
 71
     3
 72
    23
 73
    19
 74
     0
 42
0.000000001
 43
0.00000001
 40
0.0
 40
0.0
 40
0.0
 40
0.0
 40
0.0915110363280374
 40
0.1771428603141494
 40
0.257108485228235
 40
0.3311983993883849
 40
0.4005922945239579
 40
0.4656249598049641
 40
0.5269734913138601
 40
0.585443115704023
 40
0.6413985080863307
 40
0.695044167265724
 40
0.7467815514927484
 40
0.7969589345766992
 40
0.8475448623598799
 40
0.8974385414187387
 40
0.9476489188871285
 40
1.0
 40
1.0
 40
1.0
 40
1.0
 10
219.4255606239348
 20
118.6780838672558
 30
0.0
 10
219.4073009113345
 20
118.6779462341743
 30
0.0
 10
219.3719545984926
 20
118.6776798103777
 30
0.0
 10
219.3208574948817
 20
118.6728232374675
 30
0.0
 10
219.2734970846467
 20
118.6661598471661
 30
0.0
 10
219.2299547143195
 20
118.6563307798559
 30
0.0
 10
219.1903730230198
 20
118.6434644977452
 30
0.0
 10
219.154164561712
 20
118.6286068942855
 30
0.0
 10
219.1223426625966
 20
118.6097784302193
 30
0.0
 10
219.0941655023016
 20
118.5888059701059
 30
0.0
 10
219.069859132766
 20
118.5656011015228
 30
0.0
 10
219.0489106428079
 20
118.5411487804319
 30
0.0
 10
219.030383321444
 20
118.5161674336047
 30
0.0
 10
219.0159871840673
 20
118.4892915642513
 30
0.0
 10
219.004266564457
 20
118.4615390023594
 30
0.0
 10
218.9967054769429
 20
118.4323880906612
 30
0.0
 10
218.9913520503539
 20
118.40237804529
 30
0.0
 10
218.9907948850615
 20
118.3819015895408
 30
0.0
 10
218.9905104877273
 20
118.3714496652931
 30
0.0
  0
SPLINE
  5
1C3
330
1F
100
AcDbEntity
  8
0
  6
Continuous
 62
     7
370
     0
100
AcDbSpline
210
0.0
220
0.0
230
1.0
 70
     8
 71
     3
 72
    23
 73
    19
 74
     0
 42
0.000000001
 43
0.00000001
 40
0.0
 40
0.0
 40
0.0
 40
0.0
 40
0.0671554674490457
 40
0.1314033464826145
 40
0.1927317719102095
 40
0.2512526591565258
 40
0.3077037298841911
 40
0.3626989162982004
 40
0.4177783327854311
 40
0.4723043857981145
 40
0.5278725997916965
 40
0.5852299868117377
 40
0.6450565760102913
 40
0.707952356429442
 40
0.7744342720454274
 40
0.8449404313752613
 40
0.9204035944750272
 40
1.0
 40
1.0
 40
1.0
 40
1.0
 10
219.8861293111781
 20
118.3092996458349
 30
0.0
 10
219.8842882249938
 20
118.3240122570865
 30
0.0
 10
219.880685764986
 20
118.3528004768309
 30
0.0
 10
219.8717485399137
 20
118.3944757559005
 30
0.0
 10
219.8592203487776
 20
118.4331818797655
 30
0.0
 10
219.8445459974828
 20
118.4692798092343
 30
0.0
 10
219.8267576115263
 20
118.5023940861131
 30
0.0
 10
219.806021500788
 20
118.532842679903
 30
0.0
 10
219.782085143428
 20
118.560266854215
 30
0.0
 10
219.7555644471034
 20
118.5853912608694
 30
0.0
 10
219.7256523918983
 20
118.6072676056974
 30
0.0
 10
219.6925026752527
 20
118.6262569446129
 30
0.0
 10
219.6560593393876
 20
118.6422985877438
 30
0.0
 10
219.616354490815
 20
118.6554372166654
 30
0.0
 10
219.57338026875
 20
118.6656243956098
 30
0.0
 10
219.527038927825
 20
118.673118278917
 30
0.0
 10
219.4773483796891
 20
118.6769562320827
 30
0.0
 10
219.4431272732527
 20
118.6777013681234
 30
0.0
 10
219.4255606239348
 20
118.6780838672558
 30
0.0
  0
LINE
  5
1C4
330
1F
100
AcDbEntity
  8
0
  6
Continuous
 62
     7
370
     0
100
AcDbLine
 10
220.1758883423
 20
118.3092996458
 30
0.0
 11
219.8861293112
 21
118.3092996458
 31
0.0
  0
SPLINE
  5
1C5
330
1F
100
AcDbEntity
  8
0
  6
Continuous
 62
     7
370
     0
100
AcDbSpline
210
0.0
220
0.0
230
1.0
 70
     8
 71
     3
 72
    23
 73
    19
 74
     0
 42
0.000000001
 43
0.00000001
 40
0.0
 40
0.0
 40
0.0
 40
0.0
 40
0.1004750608070147
 40
0.1956443031597846
 40
0.2860833790699328
 40
0.3729828804699541
 40
0.4150256681909618
 40
0.4560516735090278
 40
0.4959387495188997
 40
0.5355660888033515
 40
0.574087109908504
 40
0.6125192874870975
 40
0.6510809601344449
 40
0.6895131377130385
 40
0.7662374603277345
 40
0.8423504388672224
 40
0.9199744947371037
 40
1.0
 40
1.0
 40
1.0
 40
1.0
 10
219.4140361170154
 20
118.9151594381692
 30
0.0
 10
219.4505698848333
 20
118.914322322674
 30
0.0
 10
219.5217081701863
 20
118.9126922975075
 30
0.0
 10
219.6250741095427
 20
118.8991307850493
 30
0.0
 10
219.7214862335732
 20
118.8758420995582
 30
0.0
 10
219.7970959291882
 20
118.849772752702
 30
0.0
 10
219.8529932929506
 20
118.8233810761347
 30
0.0
 10
219.8927043366045
 20
118.802787918891
 30
0.0
 10
219.9295640377901
 20
118.7789784777379
 30
0.0
 10
219.9639042081618
 20
118.7532129376091
 30
0.0
 10
219.99604382143
 20
118.7255030655115
 30
0.0
 10
220.0251568173645
 20
118.6951897351673
 30
0.0
 10
220.0525073634483
 20
118.6633071825525
 30
0.0
 10
220.0846480663931
 20
118.6175338263233
 30
0.0
 10
220.1193025580595
 20
118.5569530483167
 30
0.0
 10
220.1492660832201
 20
118.4784682441566
 30
0.0
 10
220.1698513745109
 20
118.3956339773819
 30
0.0
 10
220.1738556873574
 20
118.3383685280208
 30
0.0
 10
220.1758883422946
 20
118.3092996458349
 30
0.0
  0
SPLINE
  5
1C6
330
1F
100
AcDbEntity
  8
0
  6
Continuous
 62
     7
370
     0
100
AcDbSpline
210
0.0
220
0.0
230
1.0
 70
     8
 71
     3
 72
    23
 73
    19
 74
     0
 42
0.000000001
 43
0.00000001
 40
0.0
 40
0.0
 40
0.0
 40
0.0
 40
0.0749954673898322
 40
0.1491654404266558
 40
0.2236642943382247
 40
0.3004120221906725
 40
0.3395704846106348
 40
0.3789205746932795
 40
0.4180957375990935
 40
0.4582296767501551
 40
0.4984267212184583
 40
0.5397075464534797
 40
0.5822159516458436
 40
0.6258238199943749
 40
0.7154812648736979
 40
0.8073840844133601
 40
0.9016341255073719
 40
1.0
 40
1.0
 40
1.0
 40
1.0
 10
218.7007514566108
 20
118.3525165467826
 30
0.0
 10
218.7017293611439
 20
118.3779890057085
 30
0.0
 10
218.7036744061639
 20
118.4286535416687
 30
0.0
 10
218.7209280214572
 20
118.5030005897434
 30
0.0
 10
218.7484478679356
 20
118.5745422255741
 30
0.0
 10
218.7797738108971
 20
118.6313401796664
 30
0.0
 10
218.8103235278482
 20
118.6742905383687
 30
0.0
 10
218.8356494752454
 20
118.7052226015598
 30
0.0
 10
218.8640574786073
 20
118.7338151355109
 30
0.0
 10
218.8946726701828
 20
118.7604672727095
 30
0.0
 10
218.9280423275438
 20
118.7847807993771
 30
0.0
 10
218.9633385461626
 20
118.8077549709027
 30
0.0
 10
219.0018388520059
 20
118.8275018226486
 30
0.0
 10
219.0559375073117
 20
118.8526351078016
 30
0.0
 10
219.1283084728676
 20
118.8777330433386
 30
0.0
 10
219.219414466634
 20
118.8996027106357
 30
0.0
 10
219.3153005335621
 20
118.9124813030236
 30
0.0
 10
219.3806587293538
 20
118.9142540993659
 30
0.0
 10
219.4140361170154
 20
118.9151594381692
 30
0.0
  0
SPLINE
  5
1C7
330
1F
100
AcDbEntity
  8
0
  6
Continuous
 62
     7
370
     0
100
AcDbSpline
210
0.0
220
0.0
230
1.0
 70
     8
 71
     3
 72
    15
 73
    11
 74
     0
 42
0.000000001
 43
0.00000001
 40
0.0
 40
0.0
 40
0.0
 40
0.0
 40
0.1448052410584836
 40
0.2795118010254855
 40
0.4063939211311607
 40
0.5275015404829176
 40
0.6453932904726505
 40
0.7618854106740867
 40
0.8789420729184868
 40
1.0
 40
1.0
 40
1.0
 40
1.0
 10
219.0040929423108
 20
117.9084114408527
 30
0.0
 10
218.9799103983129
 20
117.9214755477285
 30
0.0
 10
218.9332317948533
 20
117.9466926739522
 30
0.0
 10
218.8704075644594
 20
117.9917809661993
 30
0.0
 10
218.8174717726099
 20
118.0418147716972
 30
0.0
 10
218.7746477450071
 20
118.0967215393256
 30
0.0
 10
218.7410882303135
 20
118.1555726638208
 30
0.0
 10
218.7184457724889
 20
118.2184681926476
 30
0.0
 10
218.702937558012
 20
118.2842664544562
 30
0.0
 10
218.7014882749695
 20
118.3295130754068
 30
0.0
 10
218.7007514566108
 20
118.3525165467826
 30
0.0
  0
SPLINE
  5
1C8
330
1F
100
AcDbEntity
  8
0
  6
Continuous
 62
     7
370
     0
100
AcDbSpline
210
0.0
220
0.0
230
1.0
 70
     8
 71
     3
 72
    23
 73
    19
 74
     0
 42
0.000000001
 43
0.00000001
 40
0.0
 40
0.0
 40
0.0
 40
0.0
 40
0.031200111153937
 40
0.0704867190162008
 40
0.1172148300204118
 40
0.1715755269954925
 40
0.2341219784876085
 40
0.3039626396728072
 40
0.3821556401561973
 40
0.4676462220680265
 40
0.5543353814021611
 40
0.6350744656665043
 40
0.7100366878785244
 40
0.7790924037748317
 40
0.8429656453505103
 40
0.9010012068505269
 40
0.953246256459026
 40
1.0
 40
1.0
 40
1.0
 40
1.0
 10
219.7198471399124
 20
117.6808024291945
 30
0.0
 10
219.7126084916385
 20
117.6837729315659
 30
0.0
 10
219.6962550701898
 20
117.6904838360546
 30
0.0
 10
219.668226073221
 20
117.6993679181311
 30
0.0
 10
219.6349661186766
 20
117.7108559427681
 30
0.0
 10
219.5956761628784
 20
117.7226867384447
 30
0.0
 10
219.5505665422301
 20
117.7352020656453
 30
0.0
 10
219.4997123597146
 20
117.7493675185605
 30
0.0
 10
219.4431420318189
 20
117.7644317023755
 30
0.0
 10
219.3824599907294
 20
117.7804658851803
 30
0.0
 10
219.321189620947
 20
117.7967701902293
 30
0.0
 10
219.2626529405731
 20
117.8130897639479
 30
0.0
 10
219.2087964117941
 20
117.8296562217321
 30
0.0
 10
219.1591788769324
 20
117.8456074333786
 30
0.0
 10
219.1140561369551
 20
117.8616244545811
 30
0.0
 10
219.0733001231743
 20
117.8772687737176
 30
0.0
 10
219.0368600227255
 20
117.8922229883126
 30
0.0
 10
219.0146037965922
 20
117.9032185929231
 30
0.0
 10
219.0040929423108
 20
117.9084114408527
 30
0.0
  0
SPLINE
  5
1C9
330
1F
100
AcDbEntity
  8
0
  6
Continuous
 62
     7
370
     0
100
AcDbSpline
210
0.0
220
0.0
230
1.0
 70
     8
 71
     3
 72
    15
 73
    11
 74
     0
 42
0.000000001
 43
0.00000001
 40
0.0
 40
0.0
 40
0.0
 40
0.0
 40
0.1177675192120365
 40
0.2301764485440569
 40
0.3398429589695383
 40
0.4506252599208613
 40
0.5669428888721608
 40
0.6960213064547938
 40
0.8394383602270619
 40
1.0
 40
1.0
 40
1.0
 40
1.0
 10
219.9388127713811
 20
117.4033910840631
 30
0.0
 10
219.938119076266
 20
117.4182435984916
 30
0.0
 10
219.9367632501516
 20
117.4472728167851
 30
0.0
 10
219.9279277068675
 20
117.4895357323727
 30
0.0
 10
219.9111345083267
 20
117.5282185760222
 30
0.0
 10
219.8893434033456
 20
117.5649002010979
 30
0.0
 10
219.8590282556762
 20
117.5984376000689
 30
0.0
 10
219.8207284877247
 20
117.6293393216901
 30
0.0
 10
219.7736002594924
 20
117.6573551217637
 30
0.0
 10
219.7384261273623
 20
117.6726982068927
 30
0.0
 10
219.7198471399124
 20
117.6808024291945
 30
0.0
  0
SPLINE
  5
1CA
330
1F
100
AcDbEntity
  8
0
  6
Continuous
 62
     7
370
     0
100
AcDbSpline
210
0.0
220
0.0
230
1.0
 70
     8
 71
     3
 72
    19
 73
    15
 74
     0
 42
0.000000001
 43
0.00000001
 40
0.0
 40
0.0
 40
0.0
 40
0.0
 40
0.1055838864195047
 40
0.2058681332620123
 40
0.300946717742213
 40
0.3930019285950109
 40
0.4809485116065869
 40
0.5628738662802266
 40
0.6414613436333617
 40
0.7177416181792269
 40
0.7917717603087844
 40
0.8627163930302565
 40
0.9317768462002766
 40
1.0
 40
1.0
 40
1.0
 40
1.0
 10
219.4696007039482
 20
117.0448966009631
 30
0.0
 10
219.4928282858499
 20
117.0453265187648
 30
0.0
 10
219.538117572771
 20
117.0461647752288
 30
0.0
 10
219.6036335885202
 20
117.0562343121462
 30
0.0
 10
219.6652843497114
 20
117.0705176797525
 30
0.0
 10
219.7219224713871
 20
117.092123509467
 30
0.0
 10
219.7733390212795
 20
117.1183597612606
 30
0.0
 10
219.8179885345947
 20
117.1500931230501
 30
0.0
 10
219.8561079139937
 20
117.185879638044
 30
0.0
 10
219.8859581511131
 20
117.2266619032156
 30
0.0
 10
219.909407901363
 20
117.2693948972038
 30
0.0
 10
219.9266107173121
 20
117.3133200077709
 30
0.0
 10
219.9368580822111
 20
117.358193430414
 30
0.0
 10
219.9381638629979
 20
117.3883865826796
 30
0.0
 10
219.9388127713811
 20
117.4033910840631
 30
0.0
  0
SPLINE
  5
1CB
330
1F
100
AcDbEntity
  8
0
  6
Continuous
 62
     7
370
     0
100
AcDbSpline
210
0.0
220
0.0
230
1.0
 70
     8
 71
     3
 72
    19
 73
    15
 74
     0
 42
0.000000001
 43
0.00000001
 40
0.0
 40
0.0
 40
0.0
 40
0.0
 40
0.0937964706969321
 40
0.1801880710186108
 40
0.2603631916661888
 40
0.3348466760639746
 40
0.4070930058327162
 40
0.4814483792884682
 40
0.5592709137563652
 40
0.6422698113109349
 40
0.7285859445716476
 40
0.8159775452756135
 40
0.9060351298875359
 40
1.0
 40
1.0
 40
1.0
 40
1.0
 10
218.9114852974228
 20
117.5453894728915
 30
0.0
 10
218.9146724786617
 20
117.519373096387
 30
0.0
 10
218.9207952254469
 20
117.4693942361762
 30
0.0
 10
218.937915037006
 20
117.3985567254877
 30
0.0
 10
218.9599493391061
 20
117.3348665334871
 30
0.0
 10
218.9874034720778
 20
117.2774783788867
 30
0.0
 10
219.0235183379488
 20
117.2270803422018
 30
0.0
 10
219.067030539054
 20
117.1816220827529
 30
0.0
 10
219.1198737391534
 20
117.1422579826895
 30
0.0
 10
219.1795216661
 20
117.1072265126984
 30
0.0
 10
219.245952810226
 20
117.0797212681092
 30
0.0
 10
219.3168739813364
 20
117.059331177545
 30
0.0
 10
219.3919469472705
 20
117.0472498864159
 30
0.0
 10
219.4433522943696
 20
117.0456920550797
 30
0.0
 10
219.4696007039482
 20
117.0448966009631
 30
0.0
  0
LINE
  5
1CC
330
1F
100
AcDbEntity
  8
0
  6
Continuous
 62
     7
370
     0
100
AcDbLine
 10
218.6217262663
 20
117.5453894729
 30
0.0
 11
218.9114852974
 21
117.5453894729
 31
0.0
  0
SPLINE
  5
1CD
330
1F
100
AcDbEntity
  8
0
  6
Continuous
 62
     7
370
     0
100
AcDbSpline
210
0.0
220
0.0
230
1.0
 70
     8
 71
     3
 72
    31
 73
    27
 74
     0
 42
0.000000001
 43
0.00000001
 40
0.0
 40
0.0
 40
0.0
 40
0.0
 40
0.0524925849212958
 40
0.1028254751380329
 40
0.1513973394924577
 40
0.1980330772483325
 40
0.2428758954632244
 40
0.2859991683849086
 40
0.3278486614843783
 40
0.3683945968796912
 40
0.4078519911389193
 40
0.4468375528599373
 40
0.4851660451611073
 40
0.5233414044713736
 40
0.5616022144094737
 40
0.5999198855663566
 40
0.6384964264110082
 40
0.6777905770472508
 40
0.7172899891758322
 40
0.7566052415928194
 40
0.7960678905323556
 40
0.8358862309537683
 40
0.8757136832726162
 40
0.9162634539474125
 40
0.9577596754778291
 40
1.0
 40
1.0
 40
1.0
 40
1.0
 10
219.4823599794661
 20
116.8078210300496
 30
0.0
 10
219.4599892342365
 20
116.8080056436433
 30
0.0
 10
219.4161681400596
 20
116.8083672753007
 30
0.0
 10
219.351777936397
 20
116.8127467487691
 30
0.0
 10
219.2900716273742
 20
116.8190818723723
 30
0.0
 10
219.2311097691337
 20
116.8285181095034
 30
0.0
 10
219.1750772602432
 20
116.8408979402319
 30
0.0
 10
219.121772969417
 20
116.8557637243395
 30
0.0
 10
219.0710705504154
 20
116.8728847395616
 30
0.0
 10
219.0231471591344
 20
116.8930187567143
 30
0.0
 10
218.9781278956574
 20
116.9164122852695
 30
0.0
 10
218.93520326812
 20
116.9416479836194
 30
0.0
 10
218.8950749080922
 20
116.9702538303596
 30
0.0
 10
218.8576583403763
 20
117.0017803282363
 30
0.0
 10
218.8220055087514
 20
117.035316704823
 30
0.0
 10
218.7895941169892
 20
117.0722325581892
 30
0.0
 10
218.7593222605674
 20
117.1114483357682
 30
0.0
 10
218.7318816426508
 20
117.1533229552874
 30
0.0
 10
218.7073676281079
 20
117.1973085581948
 30
0.0
 10
218.6853225449184
 20
117.2426664535832
 30
0.0
 10
218.6667492538753
 20
117.2897256775607
 30
0.0
 10
218.6517809486278
 20
117.3382483938335
 30
0.0
 10
218.6391020362343
 20
117.3879098877812
 30
0.0
 10
218.6303095035172
 20
117.4391244980184
 30
0.0
 10
218.6238449373048
 20
117.4917314291613
 30
0.0
 10
218.6224366613981
 20
117.5273978116441
 30
0.0
 10
218.6217262663063
 20
117.5453894728915
 30
0.0
  0
SPLINE
  5
1CE
330
1F
100
AcDbEntity
  8
0
  6
Continuous
 62
     7
370
     0
100
AcDbSpline
210
0.0
220
0.0
230
1.0
 70
     8
 71
     3
 72
    23
 73
    19
 74
     0
 42
0.000000001
 43
0.00000001
 40
0.0
 40
0.0
 40
0.0
 40
0.0
 40
0.0642545754247026
 40
0.1273603868320974
 40
0.1894718420926418
 40
0.2517207629332009
 40
0.3120272840890019
 40
0.3686746571150511
 40
0.4226814918055485
 40
0.4740604252251507
 40
0.5257737722739171
 40
0.5796221048577139
 40
0.6373752855308659
 40
0.6984003818208013
 40
0.7643573310122579
 40
0.8363147679791494
 40
0.9146777942540467
 40
1.0
 40
1.0
 40
1.0
 40
1.0
 10
209.0991908346156
 20
114.2617281799269
 30
0.0
 10
209.0984810668555
 20
114.238362907053
 30
0.0
 10
209.0970742207921
 20
114.1920500931873
 30
0.0
 10
209.0857756785265
 20
114.1238854195396
 30
0.0
 10
209.0666817411606
 20
114.0583167484738
 30
0.0
 10
209.0404005602356
 20
113.9964042461619
 30
0.0
 10
209.0090854752607
 20
113.9391570226465
 30
0.0
 10
208.973494784027
 20
113.8880739968793
 30
0.0
 10
208.9345361228055
 20
113.8436808096736
 30
0.0
 10
208.8911124557414
 20
113.8063382043214
 30
0.0
 10
208.8435038841171
 20
113.7746452602772
 30
0.0
 10
208.7903657404289
 20
113.7479577287471
 30
0.0
 10
208.7321088791933
 20
113.7244218834778
 30
0.0
 10
208.6675492621979
 20
113.705620581458
 30
0.0
 10
208.5967162768309
 20
113.6906848516404
 30
0.0
 10
208.5186486545559
 20
113.6809810836578
 30
0.0
 10
208.4332264562278
 20
113.6740344866384
 30
0.0
 10
208.3737117689037
 20
113.6734564526849
 30
0.0
 10
208.3426892732633
 20
113.6731551479716
 30
0.0
  0
SPLINE
  5
1CF
330
1F
100
AcDbEntity
  8
0
  6
Continuous
 62
     7
370
     0
100
AcDbSpline
210
0.0
220
0.0
230
1.0
 70
     8
 71
     3
 72
    23
 73
    19
 74
     0
 42
0.000000001
 43
0.00000001
 40
0.0
 40
0.0
 40
0.0
 40
0.0
 40
0.0704642259291737
 40
0.1379569656042678
 40
0.2035785636142833
 40
0.2676916802449432
 40
0.3301858648593747
 40
0.3915337640898193
 40
0.4526637734870349
 40
0.5131537880892134
 40
0.5734535531000284
 40
0.6329675593891932
 40
0.6923319074206212
 40
0.7514741915716296
 40
0.8121874455294297
 40
0.8729617178483159
 40
0.935420306759491
 40
1.0
 40
1.0
 40
1.0
 40
1.0
 10
208.7118850842171
 20
114.7531660821329
 30
0.0
 10
208.7270432689155
 20
114.7484209202703
 30
0.0
 10
208.7567204155455
 20
114.7391307006838
 30
0.0
 10
208.7993843968246
 20
114.7221309018828
 30
0.0
 10
208.8394328454187
 20
114.7027741980225
 30
0.0
 10
208.8769529357446
 20
114.6810287805645
 30
0.0
 10
208.9116911492975
 20
114.6566932762318
 30
0.0
 10
208.9435494677672
 20
114.6297297473055
 30
0.0
 10
208.9727487829688
 20
114.6005554473696
 30
0.0
 10
208.999236927463
 20
114.5691881227985
 30
0.0
 10
209.0225039834289
 20
114.5358296290201
 30
0.0
 10
209.043371625995
 20
114.5012090509639
 30
0.0
 10
209.0606032174818
 20
114.4649094805778
 30
0.0
 10
209.0747273255227
 20
114.4270251606297
 30
0.0
 10
209.0857462295774
 20
114.3877901831611
 30
0.0
 10
209.0936590021198
 20
114.3470536434334
 30
0.0
 10
209.0981690804485
 20
114.3049103637219
 30
0.0
 10
209.0988464798099
 20
114.2762815754381
 30
0.0
 10
209.0991908346156
 20
114.2617281799269
 30
0.0
  0
SPLINE
  5
1D0
330
1F
100
AcDbEntity
  8
0
  6
Continuous
 62
     7
370
     0
100
AcDbSpline
210
0.0
220
0.0
230
1.0
 70
     8
 71
     3
 72
    15
 73
    11
 74
     0
 42
0.000000001
 43
0.00000001
 40
0.0
 40
0.0
 40
0.0
 40
0.0
 40
0.1158426906010182
 40
0.2305685484828845
 40
0.3473546045205446
 40
0.4682527467344629
 40
0.5923025714800847
 40
0.7199701656206978
 40
0.8556003811349115
 40
1.0
 40
1.0
 40
1.0
 40
1.0
 10
209.0201656443111
 20
115.1952132403986
 30
0.0
 10
209.0192069476127
 20
115.1731798607462
 30
0.0
 10
209.0172987969555
 20
115.1293255239875
 30
0.0
 10
209.0021120525969
 20
115.0647254186187
 30
0.0
 10
208.978142723764
 20
115.0019991185376
 30
0.0
 10
208.9442494142093
 20
114.9419091866825
 30
0.0
 10
208.9009295161939
 20
114.8855549546899
 30
0.0
 10
208.8472252132232
 20
114.8348431292654
 30
0.0
 10
208.7839082312458
 20
114.789665029173
 30
0.0
 10
208.7363888383767
 20
114.7655837736981
 30
0.0
 10
208.7118850842171
 20
114.7531660821329
 30
0.0
  0
SPLINE
  5
1D1
330
1F
100
AcDbEntity
  8
0
  6
Continuous
 62
     7
370
     0
100
AcDbSpline
210
0.0
220
0.0
230
1.0
 70
     8
 71
     3
 72
    23
 73
    19
 74
     0
 42
0.000000001
 43
0.00000001
 40
0.0
 40
0.0
 40
0.0
 40
0.0
 40
0.0587320371008649
 40
0.1146029008469814
 40
0.1676568100446127
 40
0.2179667070908439
 40
0.2657752056293755
 40
0.3111706510536967
 40
0.3537918046646701
 40
0.3947449080003073
 40
0.472805951082463
 40
0.5491923665616076
 40
0.6247801075795552
 40
0.7026247640242257
 40
0.7797414321940389
 40
0.8540634639886254
 40
0.9271552664103497
 40
0.9999999999999999
 40
0.9999999999999999
 40
0.9999999999999999
 40
0.9999999999999999
 10
208.3406313255991
 20
115.7278100958883
 30
0.0
 10
208.3597077220684
 20
115.7277369142304
 30
0.0
 10
208.396931194657
 20
115.7275941160117
 30
0.0
 10
208.4512851617741
 20
115.7240228804195
 30
0.0
 10
208.5027624274012
 20
115.7191381707507
 30
0.0
 10
208.5514738101433
 20
115.7128416301895
 30
0.0
 10
208.5972085363689
 20
115.7037054776963
 30
0.0
 10
208.6399239865144
 20
115.692637639676
 30
0.0
 10
208.6798424508361
 20
115.6798712460942
 30
0.0
 10
208.728636690457
 20
115.6604238935614
 30
0.0
 10
208.7848667020753
 20
115.6304902842447
 30
0.0
 10
208.8450943863422
 20
115.5858246157279
 30
0.0
 10
208.8974948116519
 20
115.5321971698865
 30
0.0
 10
208.9406126556456
 20
115.4707102665504
 30
0.0
 10
208.9761371087751
 20
115.4050306575708
 30
0.0
 10
209.0013235301632
 20
115.3364096018612
 30
0.0
 10
209.0174265735164
 20
115.266341147019
 30
0.0
 10
209.0192536517869
 20
115.2188957677832
 30
0.0
 10
209.0201656443111
 20
115.1952132403986
 30
0.0
  0
LINE
  5
1D2
330
1F
100
AcDbEntity
  8
0
  6
Continuous
 62
     7
370
     0
100
AcDbLine
 10
207.5713704887
 20
115.7278100959
 30
0.0
 11
208.3406313256
 21
115.7278100959
 31
0.0
  0
LINE
  5
1D3
330
1F
100
AcDbEntity
  8
0
  6
Continuous
 62
     7
370
     0
100
AcDbLine
 10
207.5713704887
 20
113.673155148
 30
0.0
 11
207.5713704887
 21
115.7278100959
 31
0.0
  0
LINE
  5
1D4
330
1F
100
AcDbEntity
  8
0
  6
Continuous
 62
     7
370
     0
100
AcDbLine
 10
208.3426892733
 20
113.673155148
 30
0.0
 11
207.5713704887
 21
113.673155148
 31
0.0
  0
LINE
  5
1D5
330
1F
100
AcDbEntity
  8
0
  6
Continuous
 62
     7
370
     0
100
AcDbLine
 10
211.6954976077
 20
115.7278100959
 30
0.0
 11
211.8650724953
 21
115.7278100959
 31
0.0
  0
SPLINE
  5
1D6
330
1F
100
AcDbEntity
  8
0
  6
Continuous
 62
     7
370
     0
100
AcDbSpline
210
0.0
220
0.0
230
1.0
 70
     8
 71
     3
 72
    15
 73
    11
 74
     0
 42
0.000000001
 43
0.00000001
 40
0.0
 40
0.0
 40
0.0
 40
0.0
 40
0.1426572507006137
 40
0.2811689939054436
 40
0.4169771923679743
 40
0.550852492747558
 40
0.6783641702618118
 40
0.7950324430070947
 40
0.9019981783473519
 40
1.0
 40
1.0
 40
1.0
 40
1.0
 10
211.1275040524308
 20
115.2141463589091
 30
0.0
 10
211.16042044835
 20
115.2310983687076
 30
0.0
 10
211.2252967156139
 20
115.2645097762337
 30
0.0
 10
211.3169528524755
 20
115.3222158701012
 30
0.0
 10
211.4025237158051
 20
115.3847716513684
 30
0.0
 10
211.4805927690371
 20
115.4521632701684
 30
0.0
 10
211.5505767005967
 20
115.5210496021917
 30
0.0
 10
211.6095531760121
 20
115.5905586170222
 30
0.0
 10
211.6589009377318
 20
115.6581424144362
 30
0.0
 10
211.683659644635
 20
115.7052746181343
 30
0.0
 10
211.6954976077443
 20
115.7278100958883
 30
0.0
  0
LINE
  5
1D7
330
1F
100
AcDbEntity
  8
0
  6
Continuous
 62
     7
370
     0
100
AcDbLine
 10
211.1275040524
 20
114.9713085345
 30
0.0
 11
211.1275040524
 21
115.2141463589
 31
0.0
  0
SPLINE
  5
1D8
330
1F
100
AcDbEntity
  8
0
  6
Continuous
 62
     7
370
     0
100
AcDbSpline
210
0.0
220
0.0
230
1.0
 70
     8
 71
     3
 72
    15
 73
    11
 74
     0
 42
0.000000001
 43
0.00000001
 40
0.0
 40
0.0
 40
0.0
 40
0.0
 40
0.1116703001015865
 40
0.232094480856018
 40
0.3627434591045534
 40
0.5025575097108852
 40
0.6415251033312815
 40
0.7710984952996685
 40
0.8901617573732526
 40
1.0
 40
1.0
 40
1.0
 40
1.0
 10
211.6016551942577
 20
115.2742384307031
 30
0.0
 10
211.5864876027595
 20
115.2596111548032
 30
0.0
 10
211.5549634260409
 20
115.2292099648426
 30
0.0
 10
211.5016751355578
 20
115.186184689584
 30
0.0
 10
211.4421985932047
 20
115.1425767493348
 30
0.0
 10
211.3773061397293
 20
115.1006428396361
 30
0.0
 10
211.3111592611313
 20
115.0611665858598
 30
0.0
 10
211.2472368191434
 20
115.02566376471
 30
0.0
 10
211.1866060261596
 20
114.9956197640257
 30
0.0
 10
211.1466681953499
 20
114.9791915855931
 30
0.0
 10
211.1275040524308
 20
114.9713085345359
 30
0.0
  0
LINE
  5
1D9
330
1F
100
AcDbEntity
  8
0
  6
Continuous
 62
     7
370
     0
100
AcDbLine
 10
211.6016551943
 20
113.673155148
 30
0.0
 11
211.6016551943
 21
115.2742384307
 31
0.0
  0
LINE
  5
1DA
330
1F
100
AcDbEntity
  8
0
  6
Continuous
 62
     7
370
     0
100
AcDbLine
 10
211.8650724953
 20
113.673155148
 30
0.0
 11
211.6016551943
 21
113.673155148
 31
0.0
  0
LINE
  5
1DB
330
1F
100
AcDbEntity
  8
0
  6
Continuous
 62
     7
370
     0
100
AcDbLine
 10
211.8650724953
 20
115.7278100959
 30
0.0
 11
211.8650724953
 21
113.673155148
 31
0.0
  0
LINE
  5
1DC
330
1F
100
AcDbEntity
  8
0
  6
Continuous
 62
     7
370
     0
100
AcDbLine
 10
214.8153462666
 20
114.5160905112
 30
0.0
 11
214.8153462666
 21
114.2790149403
 31
0.0
  0
LINE
  5
1DD
330
1F
100
AcDbEntity
  8
0
  6
Continuous
 62
     7
370
     0
100
AcDbLine
 10
214.0514360937
 20
114.5160905112
 30
0.0
 11
214.8153462666
 21
114.5160905112
 31
0.0
  0
LINE
  5
1DE
330
1F
100
AcDbEntity
  8
0
  6
Continuous
 62
     7
370
     0
100
AcDbLine
 10
214.0514360937
 20
114.2790149403
 30
0.0
 11
214.0514360937
 21
114.5160905112
 31
0.0
  0
LINE
  5
1DF
330
1F
100
AcDbEntity
  8
0
  6
Continuous
 62
     7
370
     0
100
AcDbLine
 10
214.8153462666
 20
114.2790149403
 30
0.0
 11
214.0514360937
 21
114.2790149403
 31
0.0
  0
SPLINE
  5
1E0
330
1F
100
AcDbEntity
  8
0
  6
Continuous
 62
     7
370
     0
100
AcDbSpline
210
0.0
220
0.0
230
1.0
 70
     8
 71
     3
 72
    15
 73
    11
 74
     0
 42
0.000000001
 43
0.00000001
 40
0.0
 40
0.0
 40
0.0
 40
0.0
 40
0.1379032299933933
 40
0.2688733426002942
 40
0.3951781273461129
 40
0.5170892381308878
 40
0.6367430265135473
 40
0.7562218164637978
 40
0.87662835946368
 40
1.0
 40
1.0
 40
1.0
 40
1.0
 10
217.6075696573988
 20
113.6468134178701
 30
0.0
 10
217.583808875461
 20
113.6474911954313
 30
0.0
 10
217.537481890497
 20
113.648812675127
 30
0.0
 10
217.4698247449115
 20
113.6577913156893
 30
0.0
 10
217.4063249049882
 20
113.6735941446422
 30
0.0
 10
217.3464467859419
 20
113.6947879665668
 30
0.0
 10
217.2908634342026
 20
113.7231359238475
 30
0.0
 10
217.2393094613676
 20
113.7576267493774
 30
0.0
 10
217.1907489275184
 20
113.7974579776715
 30
0.0
 10
217.1627945320326
 20
113.8288839024827
 30
0.0
 10
217.1486473282868
 20
113.8447879831642
 30
0.0
  0
SPLINE
  5
1E1
330
1F
100
AcDbEntity
  8
0
  6
Continuous
 62
     7
370
     0
100
AcDbSpline
210
0.0
220
0.0
230
1.0
 70
     8
 71
     3
 72
    31
 73
    27
 74
     0
 42
0.000000001
 43
0.00000001
 40
0.0
 40
0.0
 40
0.0
 40
0.0
 40
0.0628739462114324
 40
0.1228366299919129
 40
0.1796565674430314
 40
0.2339600122308621
 40
0.2855950186955591
 40
0.3345131060783806
 40
0.3809048259061764
 40
0.4248945919393348
 40
0.4665290347654876
 40
0.5064882940692466
 40
0.5450315536447544
 40
0.5818311798231345
 40
0.6174482799494432
 40
0.652066912769046
 40
0.685879714246511
 40
0.7191745547913925
 40
0.7521816462063932
 40
0.7852401639180911
 40
0.8186564497770835
 40
0.8525477406533115
 40
0.8876263422585192
 40
0.9236350780687517
 40
0.9610218444769894
 40
1.0
 40
1.0
 40
1.0
 40
1.0
 10
218.2661129099361
 20
114.6864885778135
 30
0.0
 10
218.2658425457001
 20
114.6572635944706
 30
0.0
 10
218.2653143359468
 20
114.6001668368828
 30
0.0
 10
218.2621766196704
 20
114.5166947260041
 30
0.0
 10
218.2562084001935
 20
114.4373868567215
 30
0.0
 10
218.2488643970877
 20
114.362061557781
 30
0.0
 10
218.2377544586713
 20
114.2909199122791
 30
0.0
 10
218.2257828980811
 20
114.2236596581854
 30
0.0
 10
218.2109770347558
 20
114.1605862162891
 30
0.0
 10
218.1937020683067
 20
114.1016719431262
 30
0.0
 10
218.1742465333668
 20
114.0466053212365
 30
0.0
 10
218.1529105287258
 20
113.9949701877032
 30
0.0
 10
218.1292788549222
 20
113.9468018254638
 30
0.0
 10
218.1026481440908
 20
113.9025700445637
 30
0.0
 10
218.0742368718918
 20
113.8616877421657
 30
0.0
 10
218.0438369559633
 20
113.8240015595629
 30
0.0
 10
218.0108038824978
 20
113.7900539098542
 30
0.0
 10
217.9751710303252
 20
113.7600353374367
 30
0.0
 10
217.937660760004
 20
113.7329948338824
 30
0.0
 10
217.8975269026387
 20
113.7098423528197
 30
0.0
 10
217.8549451178675
 20
113.6906609243989
 30
0.0
 10
217.8101999109914
 20
113.6742617560606
 30
0.0
 10
217.7628372773343
 20
113.662245407364
 30
0.0
 10
217.7132307142176
 20
113.6530470802054
 30
0.0
 10
217.6611974448393
 20
113.6476304390575
 30
0.0
 10
217.6256922208447
 20
113.6470895157479
 30
0.0
 10
217.6075696573988
 20
113.6468134178701
 30
0.0
  0
SPLINE
  5
1E2
330
1F
100
AcDbEntity
  8
0
  6
Continuous
 62
     7
370
     0
100
AcDbSpline
210
0.0
220
0.0
230
1.0
 70
     8
 71
     3
 72
    27
 73
    23
 74
     0
 42
0.000000001
 43
0.00000001
 40
0.0
 40
0.0
 40
0.0
 40
0.0
 40
0.0567243372181501
 40
0.1114372357370104
 40
0.1643678222229013
 40
0.2164353724620895
 40
0.2676414903219246
 40
0.3173597799690278
 40
0.3674730633322804
 40
0.418210397052808
 40
0.4714042826470199
 40
0.5279657201290492
 40
0.5880611158232136
 40
0.6521342629937142
 40
0.6863448363353054
 40
0.7232636803169651
 40
0.7626102507715418
 40
0.8047389366452182
 40
0.8494303387909499
 40
0.8967112583864923
 40
0.9468896380534765
 40
1.0
 40
1.0
 40
1.0
 40
1.0
 10
217.6075696573988
 20
115.7278100958883
 30
0.0
 10
217.6339568465081
 20
115.7270343312035
 30
0.0
 10
217.6857955379309
 20
115.7255103103635
 30
0.0
 10
217.7614802951088
 20
115.713080672938
 30
0.0
 10
217.832808300754
 20
115.6918178624305
 30
0.0
 10
217.8997332135808
 20
115.6631334137838
 30
0.0
 10
217.9611109625724
 20
115.626698643206
 30
0.0
 10
218.0159238794056
 20
115.5824066285574
 30
0.0
 10
218.0635807182343
 20
115.5307224272451
 30
0.0
 10
218.1035613784067
 20
115.4710335984306
 30
0.0
 10
218.1385084661249
 20
115.4049867586181
 30
0.0
 10
218.1695546917001
 20
115.3322854652255
 30
0.0
 10
218.1976195778747
 20
115.2530111882619
 30
0.0
 10
218.2175350320584
 20
115.1820496435866
 30
0.0
 10
218.2317407091752
 20
115.1207931202913
 30
0.0
 10
218.2411437387414
 20
115.0702704727109
 30
0.0
 10
218.2489501383958
 20
115.015756251542
 30
0.0
 10
218.2549308955257
 20
114.9573823413605
 30
0.0
 10
218.2598379656374
 20
114.8952142137009
 30
0.0
 10
218.2636274709955
 20
114.8292131614977
 30
0.0
 10
218.2655510329697
 20
114.7592142263501
 30
0.0
 10
218.2659221064828
 20
114.7111849183209
 30
0.0
 10
218.2661129099361
 20
114.6864885778135
 30
0.0
  0
SPLINE
  5
1E3
330
1F
100
AcDbEntity
  8
0
  6
Continuous
 62
     7
370
     0
100
AcDbSpline
210
0.0
220
0.0
230
1.0
 70
     8
 71
     3
 72
    31
 73
    27
 74
     0
 42
0.000000001
 43
0.00000001
 40
0.0
 40
0.0
 40
0.0
 40
0.0
 40
0.0631144583947934
 40
0.1236146457694899
 40
0.1809737111859575
 40
0.235261455008322
 40
0.2871007018338719
 40
0.3360307363034434
 40
0.3823823485850662
 40
0.426334083659707
 40
0.4682106947981599
 40
0.5082496012618049
 40
0.5466283366065846
 40
0.5836495392304459
 40
0.6189943150301614
 40
0.6535830186205956
 40
0.687156136190331
 40
0.7204221919788075
 40
0.7532302188118168
 40
0.7862601560778997
 40
0.8195039834988835
 40
0.8535452747120185
 40
0.8883082803397299
 40
0.9239958607406945
 40
0.9613503047546447
 40
1.0
 40
1.0
 40
1.0
 40
1.0
 10
216.9490264048613
 20
114.6864885778135
 30
0.0
 10
216.9492917978497
 20
114.7158514830157
 30
0.0
 10
216.9498115909539
 20
114.7733610492488
 30
0.0
 10
216.9530356987192
 20
114.8575078758951
 30
0.0
 10
216.9586647296241
 20
114.9374186329345
 30
0.0
 10
216.9670673231268
 20
115.0130239216084
 30
0.0
 10
216.9770175680692
 20
115.0844943979108
 30
0.0
 10
216.9899529492679
 20
115.1517280661011
 30
0.0
 10
217.0045071336117
 20
115.2148757757457
 30
0.0
 10
217.021969543035
 20
115.2738717055867
 30
0.0
 10
217.0411550143805
 20
115.3292231132269
 30
0.0
 10
217.0629215436986
 20
115.3808412025122
 30
0.0
 10
217.0874118418927
 20
115.4286712461183
 30
0.0
 10
217.1134223630286
 20
115.473209268424
 30
0.0
 10
217.1423223542619
 20
115.5137625198832
 30
0.0
 10
217.172367470071
 20
115.5514690907463
 30
0.0
 10
217.2057412100814
 20
115.584946133932
 30
0.0
 10
217.2410558225918
 20
115.6150550167953
 30
0.0
 10
217.2788313244276
 20
115.641624351268
 30
0.0
 10
217.3188678456801
 20
115.6645504822014
 30
0.0
 10
217.361011336707
 20
115.6847926027517
 30
0.0
 10
217.406065005842
 20
115.7000308658138
 30
0.0
 10
217.4530935475727
 20
115.7124532805762
 30
0.0
 10
217.5024589632253
 20
115.7215913594973
 30
0.0
 10
217.5542156527265
 20
115.7269785654145
 30
0.0
 10
217.5895840747132
 20
115.7275297877805
 30
0.0
 10
217.6075696573988
 20
115.7278100958883
 30
0.0
  0
SPLINE
  5
1E4
330
1F
100
AcDbEntity
  8
0
  6
Continuous
 62
     7
370
     0
100
AcDbSpline
210
0.0
220
0.0
230
1.0
 70
     8
 71
     3
 72
    15
 73
    11
 74
     0
 42
0.000000001
 43
0.00000001
 40
0.0
 40
0.0
 40
0.0
 40
0.0
 40
0.0974206681772145
 40
0.2008855880393207
 40
0.3111719701726504
 40
0.4297979458253728
 40
0.5577399263645871
 40
0.6947152693641585
 40
0.842129910206055
 40
1.0
 40
1.0
 40
1.0
 40
1.0
 10
217.1486473282868
 20
113.8447879831642
 30
0.0
 10
217.1323635713681
 20
113.8682775414121
 30
0.0
 10
217.0987857675479
 20
113.9167140160301
 30
0.0
 10
217.0594858595384
 20
113.9993026983128
 30
0.0
 10
217.0244296457983
 20
114.0902212418125
 30
0.0
 10
216.9969169453864
 20
114.1912534575744
 30
0.0
 10
216.9753676426174
 20
114.3015952433728
 30
0.0
 10
216.9598036658211
 20
114.4214631132958
 30
0.0
 10
216.9509959872123
 20
114.550805280469
 30
0.0
 10
216.9496977530346
 20
114.6402398216947
 30
0.0
 10
216.9490264048613
 20
114.6864885778135
 30
0.0
  0
CIRCLE
  5
1E5
330
1F
100
AcDbEntity
  8
0
  6
Continuous
 62
     7
370
     0
100
AcDbCircle
 10
212.7080078585
 20
116.5547627602
 30
0.0
 40
25.40000000000001
  0
SPLINE
  5
1E6
330
1F
100
AcDbEntity
  8
0
  6
Continuous
 62
     7
370
     0
100
AcDbSpline
210
0.0
220
0.0
230
1.0
 70
     8
 71
     3
 72
    15
 73
    11
 74
     0
 42
0.000000001
 43
0.00000001
 40
0.0
 40
0.0
 40
0.0
 40
0.0
 40
0.1276647678962251
 40
0.2517385630080497
 40
0.372753349387391
 40
0.4921467589723849
 40
0.6140696213092451
 40
0.7371973244121086
 40
0.8656069906011166
 40
1.0
 40
1.0
 40
1.0
 40
1.0
 10
217.6046885306689
 20
115.4907345249748
 30
0.0
 10
217.5910803099486
 20
115.4903773628964
 30
0.0
 10
217.5642466424795
 20
115.4896730850455
 30
0.0
 10
217.5249586390966
 20
115.4829507600907
 30
0.0
 10
217.4877258598337
 20
115.4717095344472
 30
0.0
 10
217.4521217373959
 20
115.4564822028166
 30
0.0
 10
217.4190351097093
 20
115.4359892221179
 30
0.0
 10
217.3871538434018
 20
115.4120622084552
 30
0.0
 10
217.3579711336366
 20
115.3829098129118
 30
0.0
 10
217.340385888771
 20
115.3611159376901
 30
0.0
 10
217.3313930808659
 20
115.3499709047449
 30
0.0
  0
SPLINE
  5
1E7
330
1F
100
AcDbEntity
  8
0
  6
Continuous
 62
     7
370
     0
100
AcDbSpline
210
0.0
220
0.0
230
1.0
 70
     8
 71
     3
 72
    23
 73
    19
 74
     0
 42
0.000000001
 43
0.00000001
 40
0.0
 40
0.0
 40
0.0
 40
0.0
 40
0.1156291309254414
 40
0.2215410391198768
 40
0.3170478562190418
 40
0.4031508756396168
 40
0.4801812167162797
 40
0.5476493661481898
 40
0.6070358428421809
 40
0.6586524080635074
 40
0.705722890353646
 40
0.7498040879796471
 40
0.7925868153452743
 40
0.8338739610102607
 40
0.8747683933034326
 40
0.9152226988916382
 40
0.9568807037304798
 40
1.0
 40
1.0
 40
1.0
 40
1.0
 10
218.0026956089212
 20
114.6873117568792
 30
0.0
 10
218.002446157344
 20
114.7260081674956
 30
0.0
 10
218.0019682175619
 20
114.8001490258549
 30
0.0
 10
217.9965666222235
 20
114.9061419310534
 30
0.0
 10
217.9881018368809
 20
115.0020038378134
 30
0.0
 10
217.9765233552618
 20
115.0878231219241
 30
0.0
 10
217.9611355553369
 20
115.1635066147872
 30
0.0
 10
217.9424722531
 20
115.2292154362721
 30
0.0
 10
217.9202321378843
 20
115.2848094516422
 30
0.0
 10
217.8937887202566
 20
115.3308471038765
 30
0.0
 10
217.8643519054768
 20
115.3686104682095
 30
0.0
 10
217.8336023618605
 20
115.4012979458946
 30
0.0
 10
217.8007713477168
 20
115.4290975807356
 30
0.0
 10
217.7652771962673
 20
115.4513988578976
 30
0.0
 10
217.7282639507691
 20
115.469390698815
 30
0.0
 10
217.6888811409181
 20
115.481773141902
 30
0.0
 10
217.6475158686122
 20
115.4893805276258
 30
0.0
 10
217.6191274188885
 20
115.490278035795
 30
0.0
 10
217.6046885306689
 20
115.4907345249748
 30
0.0
  0
SPLINE
  5
1E8
330
1F
100
AcDbEntity
  8
0
  6
Continuous
 62
     7
370
     0
100
AcDbSpline
210
0.0
220
0.0
230
1.0
 70
     8
 71
     3
 72
    23
 73
    19
 74
     0
 42
0.000000001
 43
0.00000001
 40
0.0
 40
0.0
 40
0.0
 40
0.0
 40
0.0407818458722593
 40
0.0808695887215865
 40
0.1202681657882668
 40
0.1601868504553523
 40
0.2004597376386388
 40
0.2422651778979076
 40
0.286459261549468
 40
0.3329520837492631
 40
0.3844305340495303
 40
0.4433891253601056
 40
0.5116814722136831
 40
0.5890200255490081
 40
0.6762451906507723
 40
0.7737051914728239
 40
0.881567767781983
 40
1.0
 40
1.0
 40
1.0
 40
1.0
 10
217.6075696573988
 20
113.8838889887836
 30
0.0
 10
217.6211753249757
 20
113.8844084168007
 30
0.0
 10
217.6481550929998
 20
113.885438432221
 30
0.0
 10
217.6878717976277
 20
113.8922992019055
 30
0.0
 10
217.7257102150032
 20
113.9051173006221
 30
0.0
 10
217.7620115532432
 20
113.9218770191725
 30
0.0
 10
217.7965883884034
 20
113.9435848788304
 30
0.0
 10
217.8292588785642
 20
113.9703277441421
 30
0.0
 10
217.8605447388396
 20
114.0016537789605
 30
0.0
 10
217.8905536185215
 20
114.0385232886107
 30
0.0
 10
217.9178756708705
 20
114.0834408855565
 30
0.0
 10
217.9405412860138
 20
114.1387966455215
 30
0.0
 10
217.9599706710953
 20
114.2043154319606
 30
0.0
 10
217.975775853177
 20
114.28046921001
 30
0.0
 10
217.9877295897909
 20
114.3671187830105
 30
0.0
 10
217.9966797160646
 20
114.4643467438939
 30
0.0
 10
218.0019454996369
 20
114.5722826589051
 30
0.0
 10
218.0024379061406
 20
114.6477930907089
 30
0.0
 10
218.0026956089212
 20
114.6873117568792
 30
0.0
  0
SPLINE
  5
1E9
330
1F
100
AcDbEntity
  8
0
  6
Continuous
 62
     7
370
     0
100
AcDbSpline
210
0.0
220
0.0
230
1.0
 70
     8
 71
     3
 72
    23
 73
    19
 74
     0
 42
0.000000001
 43
0.00000001
 40
0.0
 40
0.0
 40
0.0
 40
0.0
 40
0.1184055081537694
 40
0.2266543328167021
 40
0.3240923419286017
 40
0.4117048030053216
 40
0.4890259050064154
 40
0.5569093973430753
 40
0.6162333444927065
 40
0.6673492812770746
 40
0.7135123932013472
 40
0.7576965045209778
 40
0.7994925114422906
 40
0.8399760647439392
 40
0.8798857418167756
 40
0.9191486593857411
 40
0.9592273564930826
 40
1.0
 40
1.0
 40
1.0
 40
1.0
 10
217.2124437058763
 20
114.6873117568792
 30
0.0
 10
217.2127052583092
 20
114.647793268989
 30
0.0
 10
217.2132059275189
 20
114.5721461420408
 30
0.0
 10
217.2184367054523
 20
114.4640711698476
 30
0.0
 10
217.2274412743633
 20
114.3665727926177
 30
0.0
 10
217.2393459026127
 20
114.2797860032251
 30
0.0
 10
217.2550648318849
 20
114.2035934053749
 30
0.0
 10
217.2748018067176
 20
114.1381891612626
 30
0.0
 10
217.2970500717278
 20
114.0827882716849
 30
0.0
 10
217.3245818780866
 20
114.038077388031
 30
0.0
 10
217.3547261651403
 20
114.0016314954987
 30
0.0
 10
217.3858480814097
 20
113.9702868492671
 30
0.0
 10
217.4186798180044
 20
113.9436446176825
 30
0.0
 10
217.4530071518109
 20
113.9214304298647
 30
0.0
 10
217.4893626961156
 20
113.9046113063334
 30
0.0
 10
217.5273489090848
 20
113.8924207681454
 30
0.0
 10
217.5669740561939
 20
113.8854053005916
 30
0.0
 10
217.5939605819534
 20
113.8843973099115
 30
0.0
 10
217.6075696573988
 20
113.8838889887836
 30
0.0
  0
SPLINE
  5
1EA
330
1F
100
AcDbEntity
  8
0
  6
Continuous
 62
     7
370
     0
100
AcDbSpline
210
0.0
220
0.0
230
1.0
 70
     8
 71
     3
 72
    15
 73
    11
 74
     0
 42
0.000000001
 43
0.00000001
 40
0.0
 40
0.0
 40
0.0
 40
0.0
 40
0.0838881132795455
 40
0.1771540327539698
 40
0.2825136355617228
 40
0.3993998606601629
 40
0.5294908061912204
 40
0.6728021776758327
 40
0.82953576161967
 40
1.0
 40
1.0
 40
1.0
 40
1.0
 10
217.3313930808659
 20
115.3499709047449
 30
0.0
 10
217.3216026565412
 20
115.3336023033039
 30
0.0
 10
217.3009273417238
 20
115.2990352634401
 30
0.0
 10
217.2777928666231
 20
115.2389563239508
 30
0.0
 10
217.2573567858654
 20
115.1702975318446
 30
0.0
 10
217.2405311159153
 20
115.0920025217376
 30
0.0
 10
217.2283589240837
 20
115.0042056010644
 30
0.0
 10
217.2187494492968
 20
114.9070087293509
 30
0.0
 10
217.2137576848276
 20
114.8002762081357
 30
0.0
 10
217.2128937832257
 20
114.7260054823366
 30
0.0
 10
217.2124437058763
 20
114.6873117568792
 30
0.0
  0
SPLINE
  5
1EB
330
1F
100
AcDbEntity
  8
0
  6
Continuous
 62
     7
370
     0
100
AcDbSpline
210
0.0
220
0.0
230
1.0
 70
     8
 71
     3
 72
    11
 73
     7
 74
     0
 42
0.000000001
 43
0.00000001
 40
0.0
 40
0.0
 40
0.0
 40
0.0
 40
0.247294050035337
 40
0.4956077709090489
 40
0.746359172773196
 40
1.0
 40
1.0
 40
1.0
 40
1.0
 10
215.6319398997866
 20
118.6517421371543
 30
0.0
 10
215.6240811082384
 20
118.6192171512785
 30
0.0
 10
215.6083311208826
 20
118.554033068821
 30
0.0
 10
215.5753544820182
 20
118.4585296434515
 30
0.0
 10
215.5376303524817
 20
118.3638996400139
 30
0.0
 10
215.5069938642211
 20
118.3029207117713
 30
0.0
 10
215.4915878690895
 20
118.2722565878796
 30
0.0
  0
SPLINE
  5
1EC
330
1F
100
AcDbEntity
  8
0
  6
Continuous
 62
     7
370
     0
100
AcDbSpline
210
0.0
220
0.0
230
1.0
 70
     8
 71
     3
 72
    15
 73
    11
 74
     0
 42
0.000000001
 43
0.00000001
 40
0.0
 40
0.0
 40
0.0
 40
0.0
 40
0.1531481085926329
 40
0.2994334688329071
 40
0.4364263514567511
 40
0.5656705729563585
 40
0.686508310287873
 40
0.7992685160630044
 40
0.9033947408013442
 40
1.0
 40
1.0
 40
1.0
 40
1.0
 10
215.7829932583373
 20
118.2434453205811
 30
0.0
 10
215.7753405048371
 20
118.2643103959222
 30
0.0
 10
215.7603779267959
 20
118.3051055578361
 30
0.0
 10
215.7380642150995
 20
118.3643774842798
 30
0.0
 10
215.717678767665
 20
118.4206645384064
 30
0.0
 10
215.6976891624461
 20
118.4731596444831
 30
0.0
 10
215.6796441887679
 20
118.5226253466897
 30
0.0
 10
215.6630116739984
 20
118.5687275266129
 30
0.0
 10
215.6465622572317
 20
118.6111457520343
 30
0.0
 10
215.6366907308348
 20
118.6385522963506
 30
0.0
 10
215.6319398997866
 20
118.6517421371543
 30
0.0
  0
LINE
  5
1ED
330
1F
100
AcDbEntity
  8
0
  6
Continuous
 62
     7
370
     0
100
AcDbLine
 10
215.9826141818
 20
117.7034398535
 30
0.0
 11
215.7829932583
 21
118.2434453206
 31
0.0
  0
LINE
  5
1EE
330
1F
100
AcDbEntity
  8
0
  6
Continuous
 62
     7
370
     0
100
AcDbLine
 10
215.2812656178
 20
117.7034398535
 30
0.0
 11
215.9826141818
 21
117.7034398535
 31
0.0
  0
LINE
  5
1EF
330
1F
100
AcDbEntity
  8
0
  6
Continuous
 62
     7
370
     0
100
AcDbLine
 10
215.4915878691
 20
118.2722565879
 30
0.0
 11
215.2812656178
 21
117.7034398535
 31
0.0
  0
SPLINE
  5
1F0
330
1F
100
AcDbEntity
  8
0
  6
Continuous
 62
     7
370
     0
100
AcDbSpline
210
0.0
220
0.0
230
1.0
 70
     8
 71
     3
 72
    31
 73
    27
 74
     0
 42
0.000000001
 43
0.00000001
 40
0.0
 40
0.0
 40
0.0
 40
0.0
 40
0.0508516157922844
 40
0.0997524678094164
 40
0.1474376477769319
 40
0.1940857839327041
 40
0.239170927084144
 40
0.2833398222454342
 40
0.3265771497238441
 40
0.368936281499902
 40
0.4105718726814497
 40
0.451050593494912
 40
0.490876862992416
 40
0.530044332484386
 40
0.5689366633103307
 40
0.6075778621311337
 40
0.646420096450513
 40
0.6856793513063946
 40
0.7247985849801969
 40
0.7635130084045113
 40
0.8021725263787551
 40
0.8407403615726128
 40
0.8796493769005862
 40
0.9190706128663402
 40
0.9590978622172246
 40
1.0
 40
1.0
 40
1.0
 40
1.0
 10
210.6401820455531
 20
117.8602554655109
 30
0.0
 10
210.6400070967968
 20
117.8805699463825
 30
0.0
 10
210.6396639106479
 20
117.9204196063713
 30
0.0
 10
210.6351189758306
 20
117.9791584611564
 30
0.0
 10
210.6292565931103
 20
118.0360702012352
 30
0.0
 10
210.6203310242795
 20
118.0910813900932
 30
0.0
 10
210.6080304579713
 20
118.1439642138886
 30
0.0
 10
210.5944035193522
 20
118.1951212706426
 30
0.0
 10
210.577363509147
 20
118.2441117169694
 30
0.0
 10
210.5580292428007
 20
118.2911276746817
 30
0.0
 10
210.5363945261403
 20
118.3359277727716
 30
0.0
 10
210.5119934431123
 20
118.3781343285762
 30
0.0
 10
210.4851095843585
 20
118.4175832523596
 30
0.0
 10
210.4564683077348
 20
118.4550224557449
 30
0.0
 10
210.4244836212994
 20
118.4890028882325
 30
0.0
 10
210.3906956066852
 20
118.52095989906
 30
0.0
 10
210.3543367702998
 20
118.5502332493576
 30
0.0
 10
210.3157699599934
 20
118.5768305858042
 30
0.0
 10
210.2755422959782
 20
118.6007723803463
 30
0.0
 10
210.2337367073074
 20
118.6212634500489
 30
0.0
 10
210.191019216504
 20
118.6392622803279
 30
0.0
 10
210.1466747932047
 20
118.6530591391478
 30
0.0
 10
210.1013157484325
 20
118.66418650828
 30
0.0
 10
210.0547587167652
 20
118.6726387814973
 30
0.0
 10
210.0068308908674
 20
118.6770157619239
 30
0.0
 10
209.974512217231
 20
118.6777252754095
 30
0.0
 10
209.9581781896441
 20
118.6780838672558
 30
0.0
  0
SPLINE
  5
1F1
330
1F
100
AcDbEntity
  8
0
  6
Continuous
 62
     7
370
     0
100
AcDbSpline
210
0.0
220
0.0
230
1.0
 70
     8
 71
     3
 72
    23
 73
    19
 74
     0
 42
0.000000001
 43
0.00000001
 40
0.0
 40
0.0
 40
0.0
 40
0.0
 40
0.0610549117432832
 40
0.1195453450847438
 40
0.1768063562451035
 40
0.2329564830316851
 40
0.2885834899465033
 40
0.3446666617213001
 40
0.4016615108374461
 40
0.4605400973082778
 40
0.5204770623221882
 40
0.5812128653554004
 40
0.6434307597220102
 40
0.7079608695212424
 40
0.7753707435336737
 40
0.8464136772813298
 40
0.9211518871893691
 40
1.0
 40
1.0
 40
1.0
 40
1.0
 10
209.9540622943157
 20
117.0448966009631
 30
0.0
 10
209.9785152144232
 20
117.0455086492642
 30
0.0
 10
210.0263939630628
 20
117.0467070381127
 30
0.0
 10
210.0966628210725
 20
117.0567383219297
 30
0.0
 10
210.1634261022656
 20
117.0738161550444
 30
0.0
 10
210.2273455500729
 20
117.09655061952
 30
0.0
 10
210.2872655627164
 20
117.1272837399065
 30
0.0
 10
210.3445874981186
 20
117.1632720557028
 30
0.0
 10
210.3977487529284
 20
117.2072487468059
 30
0.0
 10
210.4480542855302
 20
117.2566477851779
 30
0.0
 10
210.4931749595495
 20
117.3127988650625
 30
0.0
 10
210.5332100590006
 20
117.3743188064595
 30
0.0
 10
210.565731755804
 20
117.4421302520953
 30
0.0
 10
210.5938098515815
 20
117.514739408656
 30
0.0
 10
210.6143702515418
 20
117.5935186168244
 30
0.0
 10
210.6295656470341
 20
117.6775723153481
 30
0.0
 10
210.6387227140611
 20
117.767170878534
 30
0.0
 10
210.6396870004285
 20
117.8286786296683
 30
0.0
 10
210.6401820455531
 20
117.8602554655109
 30
0.0
  0
SPLINE
  5
1F2
330
1F
100
AcDbEntity
  8
0
  6
Continuous
 62
     7
370
     0
100
AcDbSpline
210
0.0
220
0.0
230
1.0
 70
     8
 71
     3
 72
    23
 73
    19
 74
     0
 42
0.000000001
 43
0.00000001
 40
0.0
 40
0.0
 40
0.0
 40
0.0
 40
0.0759644026221998
 40
0.1481252239748712
 40
0.2172006111446031
 40
0.2832999093723612
 40
0.3472018681362411
 40
0.4092995407059241
 40
0.4704256161074027
 40
0.5315880640528347
 40
0.5917391729173697
 40
0.6502577442905726
 40
0.7073030399522856
 40
0.7642084640229152
 40
0.8211475320101304
 40
0.8791188121552541
 40
0.9384228183936666
 40
1.0
 40
1.0
 40
1.0
 40
1.0
 10
209.2704120802753
 20
117.8310326086796
 30
0.0
 10
209.2708561222588
 20
117.8013691681246
 30
0.0
 10
209.2717219727886
 20
117.7435275525204
 30
0.0
 10
209.2816277715052
 20
117.6591975528491
 30
0.0
 10
209.2966582389609
 20
117.5796279036103
 30
0.0
 10
209.3173761517602
 20
117.50459523367
 30
0.0
 10
209.3452261001325
 20
117.4348416050496
 30
0.0
 10
209.3785243193439
 20
117.3696967531575
 30
0.0
 10
209.4183919682584
 20
117.3095937237911
 30
0.0
 10
209.463949447747
 20
117.2547006488661
 30
0.0
 10
209.5140574524859
 20
117.2053888235875
 30
0.0
 10
209.5676029407549
 20
117.162317567362
 30
0.0
 10
209.6245979493151
 20
117.1262484369143
 30
0.0
 10
209.6844105871166
 20
117.0964656698531
 30
0.0
 10
209.7474704603924
 20
117.0732175044414
 30
0.0
 10
209.8135887041744
 20
117.0568932284217
 30
0.0
 10
209.8828138984121
 20
117.0466837189114
 30
0.0
 10
209.9300169439877
 20
117.0454997286068
 30
0.0
 10
209.9540622943157
 20
117.0448966009631
 30
0.0
  0
SPLINE
  5
1F3
330
1F
100
AcDbEntity
  8
0
  6
Continuous
 62
     7
370
     0
100
AcDbSpline
210
0.0
220
0.0
230
1.0
 70
     8
 71
     3
 72
    23
 73
    19
 74
     0
 42
0.000000001
 43
0.00000001
 40
0.0
 40
0.0
 40
0.0
 40
0.0
 40
0.0559431333569187
 40
0.1103820356898407
 40
0.1640478588828499
 40
0.2167594775435861
 40
0.2696011346144475
 40
0.3230085051908687
 40
0.3775814436721363
 40
0.4334493367080539
 40
0.490921858049893
 40
0.5506247708713257
 40
0.6131168723098185
 40
0.6798607463518506
 40
0.7513577440202002
 40
0.8282611012589941
 40
0.9107950320656293
 40
1.0
 40
1.0
 40
1.0
 40
1.0
 10
209.9581781896441
 20
118.6780838672558
 30
0.0
 10
209.9350922698273
 20
118.6776253899977
 30
0.0
 10
209.8895411776335
 20
118.6767207632806
 30
0.0
 10
209.822484547277
 20
118.6666644327504
 30
0.0
 10
209.7578346850403
 20
118.6516389009018
 30
0.0
 10
209.6954912612422
 20
118.6306324067436
 30
0.0
 10
209.6359874896088
 20
118.6028165071517
 30
0.0
 10
209.5790150861716
 20
118.5687041130487
 30
0.0
 10
209.524068337366
 20
118.5292240510432
 30
0.0
 10
209.4720136750784
 20
118.4834143983722
 30
0.0
 10
209.4234873438943
 20
118.4307902900776
 30
0.0
 10
209.3824631991667
 20
118.3687480789682
 30
0.0
 10
209.3478869291756
 20
118.2987688429001
 30
0.0
 10
209.3190163806745
 20
118.2210299629851
 30
0.0
 10
209.2970034376582
 20
118.1349294029774
 30
0.0
 10
209.2817897406217
 20
118.0408376940158
 30
0.0
 10
209.2721841227136
 20
117.9386556866043
 30
0.0
 10
209.2710178618593
 20
117.8678240969701
 30
0.0
 10
209.2704120802753
 20
117.8310326086796
 30
0.0
  0
OLE2FRAME
  5
1F4
330
1F
100
AcDbEntity
  8
0
100
AcDbOle2Frame
 70
     2
  3
Paintbrush Picture
 10
229.0524258301
 20
33.6996297921
 30
0.0
 11
265.1686469208
 21
28.555479607
 31
0.0
 71
     2
 72
     0
 73
     1
 90
     7296
310
80557333EF78ADA16C40002412788DD94040000000000000000041161DC7B292
310
7040002412788DD94040000000000000000041161DC7B2927040F6DD59E9338E
310
3C4000000000000000007333EF78ADA16C40F6DD59E9338E3C40000000000000
310
00000000000001000000000100000100000001000000000001000000001C0000
310
D0CF11E0A1B11AE1000000000000000000000000000000003E000300FEFF0900
310
0600000000000000000000000100000001000000000000000010000002000000
310
01000000FEFFFFFF0000000000000000FFFFFFFFFFFFFFFFFFFFFFFFFFFFFFFF
310
FFFFFFFFFFFFFFFFFFFFFFFFFFFFFFFFFFFFFFFFFFFFFFFFFFFFFFFFFFFFFFFF
310
FFFFFFFFFFFFFFFFFFFFFFFFFFFFFFFFFFFFFFFFFFFFFFFFFFFFFFFFFFFFFFFF
310
FFFFFFFFFFFFFFFFFFFFFFFFFFFFFFFFFFFFFFFFFFFFFFFFFFFFFFFFFFFFFFFF
310
FFFFFFFFFFFFFFFFFFFFFFFFFFFFFFFFFFFFFFFFFFFFFFFFFFFFFFFFFFFFFFFF
310
FFFFFFFFFFFFFFFFFFFFFFFFFFFFFFFFFFFFFFFFFFFFFFFFFFFFFFFFFFFFFFFF
310
FFFFFFFFFFFFFFFFFFFFFFFFFFFFFFFFFFFFFFFFFFFFFFFFFFFFFFFFFFFFFFFF
310
FFFFFFFFFFFFFFFFFFFFFFFFFFFFFFFFFFFFFFFFFFFFFFFFFFFFFFFFFFFFFFFF
310
FFFFFFFFFFFFFFFFFFFFFFFFFFFFFFFFFFFFFFFFFFFFFFFFFFFFFFFFFFFFFFFF
310
FFFFFFFFFFFFFFFFFFFFFFFFFFFFFFFFFFFFFFFFFFFFFFFFFFFFFFFFFFFFFFFF
310
FFFFFFFFFFFFFFFFFFFFFFFFFFFFFFFFFFFFFFFFFFFFFFFFFFFFFFFFFFFFFFFF
310
FFFFFFFFFFFFFFFFFFFFFFFFFFFFFFFFFFFFFFFFFFFFFFFFFFFFFFFFFFFFFFFF
310
FFFFFFFFFFFFFFFFFFFFFFFFFFFFFFFFFFFFFFFFFFFFFFFFFFFFFFFFFFFFFFFF
310
FFFFFFFFFFFFFFFFFFFFFFFFFFFFFFFFFFFFFFFFFFFFFFFFFFFFFFFFFFFFFFFF
310
FDFFFFFFFEFFFFFFFEFFFFFFFEFFFFFF05000000060000000700000008000000
310
090000000A0000000B0000000C000000FEFFFFFFFFFFFFFFFFFFFFFFFFFFFFFF
310
FFFFFFFFFFFFFFFFFFFFFFFFFFFFFFFFFFFFFFFFFFFFFFFFFFFFFFFFFFFFFFFF
310
FFFFFFFFFFFFFFFFFFFFFFFFFFFFFFFFFFFFFFFFFFFFFFFFFFFFFFFFFFFFFFFF
310
FFFFFFFFFFFFFFFFFFFFFFFFFFFFFFFFFFFFFFFFFFFFFFFFFFFFFFFFFFFFFFFF
310
FFFFFFFFFFFFFFFFFFFFFFFFFFFFFFFFFFFFFFFFFFFFFFFFFFFFFFFFFFFFFFFF
310
FFFFFFFFFFFFFFFFFFFFFFFFFFFFFFFFFFFFFFFFFFFFFFFFFFFFFFFFFFFFFFFF
310
FFFFFFFFFFFFFFFFFFFFFFFFFFFFFFFFFFFFFFFFFFFFFFFFFFFFFFFFFFFFFFFF
310
FFFFFFFFFFFFFFFFFFFFFFFFFFFFFFFFFFFFFFFFFFFFFFFFFFFFFFFFFFFFFFFF
310
FFFFFFFFFFFFFFFFFFFFFFFFFFFFFFFFFFFFFFFFFFFFFFFFFFFFFFFFFFFFFFFF
310
FFFFFFFFFFFFFFFFFFFFFFFFFFFFFFFFFFFFFFFFFFFFFFFFFFFFFFFFFFFFFFFF
310
FFFFFFFFFFFFFFFFFFFFFFFFFFFFFFFFFFFFFFFFFFFFFFFFFFFFFFFFFFFFFFFF
310
FFFFFFFFFFFFFFFFFFFFFFFFFFFFFFFFFFFFFFFFFFFFFFFFFFFFFFFFFFFFFFFF
310
FFFFFFFFFFFFFFFFFFFFFFFFFFFFFFFFFFFFFFFFFFFFFFFFFFFFFFFFFFFFFFFF
310
FFFFFFFFFFFFFFFFFFFFFFFFFFFFFFFFFFFFFFFFFFFFFFFFFFFFFFFFFFFFFFFF
310
FFFFFFFFFFFFFFFFFFFFFFFFFFFFFFFFFFFFFFFFFFFFFFFFFFFFFFFFFFFFFFFF
310
52006F006F007400200045006E00740072007900000000000000000000000000
310
0000000000000000000000000000000000000000000000000000000000000000
310
16000500FFFFFFFFFFFFFFFF020000000A00030000000000C000000000000046
310
000000000000000000000000200735D02C01D10103000000C000000000000000
310
01004F006C006500000000000000000000000000000000000000000000000000
310
0000000000000000000000000000000000000000000000000000000000000000
310
0A000200FFFFFFFFFFFFFFFFFFFFFFFF00000000000000000000000000000000
310
0000000000000000000000000000000000000000000000001400000000000000
310
010043006F006D0070004F0062006A0000000000000000000000000000000000
310
0000000000000000000000000000000000000000000000000000000000000000
310
120002010100000003000000FFFFFFFF00000000000000000000000000000000
310
0000000000000000000000000000000000000000010000004D00000000000000
310
01004F006C006500310030004E00610074006900760065000000000000000000
310
0000000000000000000000000000000000000000000000000000000000000000
310
1A000200FFFFFFFFFFFFFFFFFFFFFFFF00000000000000000000000000000000
310
000000000000000000000000000000000000000004000000E411000000000000
310
FEFFFFFF02000000FEFFFFFFFFFFFFFFFFFFFFFFFFFFFFFFFFFFFFFFFFFFFFFF
310
FFFFFFFFFFFFFFFFFFFFFFFFFFFFFFFFFFFFFFFFFFFFFFFFFFFFFFFFFFFFFFFF
310
FFFFFFFFFFFFFFFFFFFFFFFFFFFFFFFFFFFFFFFFFFFFFFFFFFFFFFFFFFFFFFFF
310
FFFFFFFFFFFFFFFFFFFFFFFFFFFFFFFFFFFFFFFFFFFFFFFFFFFFFFFFFFFFFFFF
310
FFFFFFFFFFFFFFFFFFFFFFFFFFFFFFFFFFFFFFFFFFFFFFFFFFFFFFFFFFFFFFFF
310
FFFFFFFFFFFFFFFFFFFFFFFFFFFFFFFFFFFFFFFFFFFFFFFFFFFFFFFFFFFFFFFF
310
FFFFFFFFFFFFFFFFFFFFFFFFFFFFFFFFFFFFFFFFFFFFFFFFFFFFFFFFFFFFFFFF
310
FFFFFFFFFFFFFFFFFFFFFFFFFFFFFFFFFFFFFFFFFFFFFFFFFFFFFFFFFFFFFFFF
310
FFFFFFFFFFFFFFFFFFFFFFFFFFFFFFFFFFFFFFFFFFFFFFFFFFFFFFFFFFFFFFFF
310
FFFFFFFFFFFFFFFFFFFFFFFFFFFFFFFFFFFFFFFFFFFFFFFFFFFFFFFFFFFFFFFF
310
FFFFFFFFFFFFFFFFFFFFFFFFFFFFFFFFFFFFFFFFFFFFFFFFFFFFFFFFFFFFFFFF
310
FFFFFFFFFFFFFFFFFFFFFFFFFFFFFFFFFFFFFFFFFFFFFFFFFFFFFFFFFFFFFFFF
310
FFFFFFFFFFFFFFFFFFFFFFFFFFFFFFFFFFFFFFFFFFFFFFFFFFFFFFFFFFFFFFFF
310
FFFFFFFFFFFFFFFFFFFFFFFFFFFFFFFFFFFFFFFFFFFFFFFFFFFFFFFFFFFFFFFF
310
FFFFFFFFFFFFFFFFFFFFFFFFFFFFFFFFFFFFFFFFFFFFFFFFFFFFFFFFFFFFFFFF
310
FFFFFFFFFFFFFFFFFFFFFFFFFFFFFFFFFFFFFFFFFFFFFFFFFFFFFFFFFFFFFFFF
310
0100000200000000000000000000000000000000000000000000000000000000
310
0000000000000000000000000000000000000000000000000000000000000000
310
0100FEFF030A0000FFFFFFFF0A00030000000000C00000000000004607000000
310
5042727573680007000000504272757368000700000050427275736800F439B2
310
7100000000000000000000000000000000000000000000000000000000000000
310
0000000000000000000000000000000000000000000000000000000000000000
310
0000000000000000000000000000000000000000000000000000000000000000
310
0000000000000000000000000000000000000000000000000000000000000000
310
0000000000000000000000000000000000000000000000000000000000000000
310
0000000000000000000000000000000000000000000000000000000000000000
310
0000000000000000000000000000000000000000000000000000000000000000
310
0000000000000000000000000000000000000000000000000000000000000000
310
0000000000000000000000000000000000000000000000000000000000000000
310
0000000000000000000000000000000000000000000000000000000000000000
310
0000000000000000000000000000000000000000000000000000000000000000
310
0000000000000000000000000000000000000000000000000000000000000000
310
E0110000424DDE11000000000000360400002800000096000000170000000100
310
08000000000000000000E7240000E72400000001000000010000000000FF0101
310
01FF020202FF030303FF040404FF050505FF060606FF070707FF080808FF0909
310
09FF0A0A0AFF0B0B0BFF0C0C0CFF0D0D0DFF0E0E0EFF0F0F0FFF101010FF1111
310
11FF121212FF131313FF141414FF151515FF161616FF171717FF181818FF1919
310
19FF1A1A1AFF1B1B1BFF1C1C1CFF1D1D1DFF1E1E1EFF1F1F1FFF202020FF2121
310
21FF222222FF232323FF242424FF252525FF262626FF272727FF282828FF2929
310
29FF2A2A2AFF2B2B2BFF2C2C2CFF2D2D2DFF2E2E2EFF2F2F2FFF303030FF3131
310
31FF323232FF333333FF343434FF353535FF363636FF373737FF383838FF3939
310
39FF3A3A3AFF3B3B3BFF3C3C3CFF3D3D3DFF3E3E3EFF3F3F3FFF404040FF4141
310
41FF424242FF434343FF444444FF454545FF464646FF474747FF484848FF4949
310
49FF4A4A4AFF4B4B4BFF4C4C4CFF4D4D4DFF4E4E4EFF4F4F4FFF505050FF5151
310
51FF525252FF535353FF545454FF555555FF565656FF575757FF585858FF5959
310
59FF5A5A5AFF5B5B5BFF5C5C5CFF5D5D5DFF5E5E5EFF5F5F5FFF606060FF6161
310
61FF626262FF636363FF646464FF656565FF666666FF676767FF686868FF6969
310
69FF6A6A6AFF6B6B6BFF6C6C6CFF6D6D6DFF6E6E6EFF6F6F6FFF707070FF7171
310
71FF727272FF737373FF747474FF757575FF767676FF777777FF787878FF7979
310
79FF7A7A7AFF7B7B7BFF7C7C7CFF7D7D7DFF7E7E7EFF7F7F7FFF808080FF8181
310
81FF828282FF838383FF848484FF858585FF868686FF878787FF888888FF8989
310
89FF8A8A8AFF8B8B8BFF8C8C8CFF8D8D8DFF8E8E8EFF8F8F8FFF909090FF9191
310
91FF929292FF939393FF949494FF959595FF969696FF979797FF989898FF9999
310
99FF9A9A9AFF9B9B9BFF9C9C9CFF9D9D9DFF9E9E9EFF9F9F9FFFA0A0A0FFA1A1
310
A1FFA2A2A2FFA3A3A3FFA4A4A4FFA5A5A5FFA6A6A6FFA7A7A7FFA8A8A8FFA9A9
310
A9FFAAAAAAFFABABABFFACACACFFADADADFFAEAEAEFFAFAFAFFFB0B0B0FFB1B1
310
B1FFB2B2B2FFB3B3B3FFB4B4B4FFB5B5B5FFB6B6B6FFB7B7B7FFB8B8B8FFB9B9
310
B9FFBABABAFFBBBBBBFFBCBCBCFFBDBDBDFFBEBEBEFFBFBFBFFFC0C0C0FFC1C1
310
C1FFC2C2C2FFC3C3C3FFC4C4C4FFC5C5C5FFC6C6C6FFC7C7C7FFC8C8C8FFC9C9
310
C9FFCACACAFFCBCBCBFFCCCCCCFFCDCDCDFFCECECEFFCFCFCFFFD0D0D0FFD1D1
310
D1FFD2D2D2FFD3D3D3FFD4D4D4FFD5D5D5FFD6D6D6FFD7D7D7FFD8D8D8FFD9D9
310
D9FFDADADAFFDBDBDBFFDCDCDCFFDDDDDDFFDEDEDEFFDFDFDFFFE0E0E0FFE1E1
310
E1FFE2E2E2FFE3E3E3FFE4E4E4FFE5E5E5FFE6E6E6FFE7E7E7FFE8E8E8FFE9E9
310
E9FFEAEAEAFFEBEBEBFFECECECFFEDEDEDFFEEEEEEFFEFEFEFFFF0F0F0FFF1F1
310
F1FFF2F2F2FFF3F3F3FFF4F4F4FFF5F5F5FFF6F6F6FFF7F7F7FFF8F8F8FFF9F9
310
F9FFFAFAFAFFFBFBFBFFFCFCFCFFFDFDFDFFFEFEFEFFFFFFFFFFFFFFFFFFFFFF
310
C94E4E4E4F4E4EFFFFFFFFFFC94E4E4E4E4E72FFFFFFFFFFFFFF734E4D4E4E4E
310
C9FFFFFFFFFFAA683516171616265B9BE9FFFFFFFFFF4E4E4E4D4E4EFFFFFFFF
310
FFFFFFFF4E4E4F4E4D4E4E4E4F4E4E4F4D4E4E4E4E4E4D4E4F4E4D4E4E4EAAFF
310
FFFFFFFFFFEA4E4F4F4E4E4E4E4E4D4D4F4F4E4E4E4E4E5B7FAAFFFFFFFFFFFF
310
C9744E1716171616164D8DEAFFFFFFFF0000FFFFFFFFFFFFBA161617161716FF
310
FFFFFFFFB917171616174FFFFFFFFFFFFFFF4E1716161616B9FFFFFFB9341717
310
1716171617171616268CFFFFFFFF161617161617FFFFFFFFFFFFFFB917161717
310
1617167F807F7F7F7F7F7F807F7F807F7F807F7F7F414EFFFFFFFFFFFF8C167F
310
7F807F7F7F7E7F7F807F807F7F807F4E3417258EFFFFEA4E162674AABAEAEBBA
310
AA74341680FFFFFF0000FFFFFFFFFFFFB9171717171617FFFFFFFFFFBB161616
310
16164EFFFFFFFFFFFFFF4E1717171717B9FFFF9C171617171716161616171616
310
171766FFFFFF161717161617FFFFFFFFFFFFFF8E16171717161616FFFFFFFFFF
310
FFFFFFFFFFFFFFFFFFFFFFFFFFAA16D9FFFFFFFFFF3467FFFFFFFFEAFFFFFFFF
310
FFFFFFFFFFFFFFFFFFCA671667EB26278DFFFFFFFFFFFFFFFFFFFF8C2541EAFF
310
0000FFFFFFFFFFFFB9171717171716FFFFFFFFFFBA16171617174EFFFFFFFFFF
310
FFFF4E1717161616BAFF9B1617161616171716171617161616161667FFFF1616
310
16161716FFFFFFFFFFFFFF7F16161617174017FFFFFFFFFFFFFFFFFFFFFFFFFF
310
FFFFFFFFFFFF344E7F7F7F7E7417DAFFFFFFFF80FFFFFFFFFFFFFFFFFFFFFFFF
310
FFFFFF9B163425CAFFFFFFFFFFFFFFFFFFFFFFFFCA2667FF0000FFFFFFFFFFFF
310
BA171717171617FFFFFFFFFFB916171716164EFFFFFFFFFFFFFF4F1716161717
310
B9C91716171616161716161617171616161617168DFF161716161717FFFFFFFF
310
FFFFFF7F17171716164F16FFFFFFFFFFFFFFFFFFFFFFFFFFFFFFFFFFFFFF9B16
310
17161617174EFFFFFFFFFF34FFFFFFFFD9BABABABABADAFFFFFFFFFF7F16AAFF
310
FFFFFFFFFFFFFFFFFFFFFFFFFF9C16BA0000FFFFFFFFFFFFB9161717161717FF
310
FFFFFFFFB917161716174DFFFFFFFFFFFFFF4E1616161616BA4E161617171716
310
419BEAEAAA4E16161617161726E9171717161616FFFFFFFFFFFFFF4F16161717
310
164E16FFFFFFFFFFBAB9B9B9B9B9BABABACAFFFFFFFFFFFFFFFFFFFFFFFFFFFF
310
FFFFBA16FFFFFFFF7F1617161617174DEAFFFFFFEA41FFFFFFFFFFAA4D16174E
310
9BFFFFFFFFFF34730000FFFFFFFFFFFFB9161617171617FFFFFFFFFFBA161616
310
16164EFFFFFFFFFFFFFF4F16161717169B1617161716175BFFFFFFFFFFFF7417
310
16171616168D171717161617FFFFFFFFFFFFEA2616171717167416FFFFFFFFFF
310
16171616171717171717EAFFFFFFFFFFFFFFFFFFFFFFFFFFFFFF6716FFFFFFFF
310
7F4EFFFFFFFFBA2573FFFFFFFFBAFFFFFFFFAA167FB9BB9B269BFFFFFFFF664F
310
0000FFFFFFFFFFFFB9171616161616FFFFFFFFFFBA16161717164EFFFFFFFFFF
310
FFFF4E16161616174E161617171626EAFFFFFFFFFFFFFF4E16161616164E1716
310
16161617FFFFFFFFFFFF671616161716347F16FFFFFFFFFF16B9FFFFFFFFFFFF
310
D9168DFFFFFFFFFFFFFFFFFFFFFFFFFFFFEA1716FFFFFFFF7F4EFFFFFFFFFF7F
310
4EFFFFFFFFFFFFFFFFFF5B66FFFFFFEA347FFFFFFFFF7F4D0000FFFFFFFFFFFF
310
B9171616171617FFFFFFFFFFBA17161716174EFFFFFFFFFFFFFF4D1716161617
310
17161716161673FFFFFFFFFFFFFFFF9B1617161717161616171616174F4E4E4E
310
4E341616171616167E7F16FFFFFFFFFF16BAFFFFFFFFFFFFFF5B41FFFFFFFF34
310
1616171616BAFFFFFF9B1716FFFFFFFF7F4EFFFFFFFFFF4E4EFFFFFFFF734E4E
310
4E4E267EDA9B67164EEAFFFFFFFF744D0000FFFFFFFFFFFFBA171717161617FF
310
FFFFFFFFBA1616171616347F7F7F7F80807F331616161717161717161716B9FF
310
FFFFFFFFFFFFFFE9161616161616171716161716171616161616171616171734
310
EA7F16FFFFFFFFFF16BAFFFFFFFFFFFFFFAA17C9FFFFFF7326BABA5B25FFFFFF
310
FF401716FFFFFFFF7F264F4E4E4E4217AAFFFFFFEA16677F73261616164173CA
310
FFFFFFFFFFFF417F0000FFFFFFFFFFFFBA171616171617FFFFFFFFFFBA161616
310
17171616161616161616161717161616161616161617EAFFFFFFFFFFFFFFFFFF
310
261717161716161617161616161617161617161616174EEAFF8016FFFFFFFFFF
310
17BAFFFFFFFFFFFFFFFF3467FFFFFFC916C9FF3467FFFFFFDA166716FFFFFFFF
310
9C4D4E4E4E4E67AAFFFFFFFF6834FF7F262567AAEAFFFFFFFFFFFFFFFF9B17D9
310
0000FFFFFFFFFFFFB9161616161616FFFFFFFFFFBA1617161717171616161616
310
1716171716161716161617171716FFFFFFFFFFFFFFFFFFFF4E17161716171616
310
1617171616161716171717161616169BFF7F17FFFFFFFFFF17B9FFFFFFFFFFFF
310
FFFF7326FFFFFFFF3473DA16AAFFFFFF7317AA16FFFFFFFFFFFFFFFFFFFFFFFF
310
FFFFEA6725BA4E167FEAFFFFFFFFFFFFFFFFFFFF9C167FFF0000FFFFFFFFFFFF
310
B9161717171716FFFFFFFFFFBA16161716171616171717161617161716161616
310
171617171617EAFFFFFFFFFFFFFFFFFF26161717161616161616161617171616
310
1616161616171616AA8016FFFFFFFFFF16BAFFFFFFFFFFFFFFFFDA179BFFFFFF
310
74348D26FFFFFFFF2566B917FFFFFFFFD8BAB9BAB9BADAFFFFEA41169B7425C9
310
FFFFFFFFFFFFFFFFFFFFAB4F1680FFFF0000FFFFFFFFFFFFBA161717171617FF
310
FFFFFFFFBA17161717161617171617161616161617171616171716171617BBFF
310
FFFFFFFFFFFFFFE9171616161617161617161716FFFFFFFFFFD9671616161617
310
348017FFFFFFFFFF16BAFFFFFFFFFFFFFFFFFF4E5AFFFFFFC916265AFFFFFFAA
310
16AABA16FFFFFFFF7F1617161616179BFFFFEB4127168DFFFFFFFFFFFFFFD99B
310
6734175AC9FFFFFF0000FFFFFFFFFFFFB9161617171617FFFFFFFFFFBB161616
310
1616347F807F7F7F7F8033171716171617171616161672FFFFFFFFFFFFFFFF9C
310
171617171617161716161617FFFFFFFFFFFFFF4117161616174E17FFFFFFFFFF
310
16BAFFFFFFFFFFFFFFFFFF9B16DAFFFFFF34169BFFFFFF5A26FFB917FFFFFFFF
310
7F4EFFFFFFEA5B26FFFFFFEA2616EAFFFFFFFFDA743416331617414E4E4E4ECA
310
0000FFFFFFFFFFFFBA161716161616FFFFFFFFFFBA17171616164EFFFFFFFFFF
310
FFFF4E16161717174E161717171626EBFFFFFFFFFFFFFF4E16161617165B1616
310
16171617FFFFFFFFFFFFFF6716161616161617FFFFFFFFFF16BAFFFFFFFFFFFF
310
FFFFFFEA268CFFFFFF7316EAFFFFEB1774FFB916FFFFFFFF7F4EFFFFFFFF7316
310
FFFFFFFF6826FFFFFFFFEB264D9CEABA257F807F7F6616BA0000FFFFFFFFFFFF
310
BA161716161616FFFFFFFFFFBA16171616164DFFFFFFFFFFFFFF4E1617161617
310
9B1617171717165BEBFFFFFFFFFF671616161617179B171616161616FFFFFFFF
310
FFFFFF3417161617171617FFFFFFFFFF17BAFFFFFFFFFFFFFFFFFFFF6734FFFF
310
FFEBCAFFFFFF8D17C9FFBA17FFFFFFFF7F357F808066174FFFFFFFFF7F16FFFF
310
FFFFD91673B99B415BFFFFFFFFBA16DA00009B7F7F7F807F671617161616167F
310
80807F7E6617161616164EFFFFFFFFFFFFFF4E1616161617B94E171716161616
310
349BC9D9AA4E16171616161634FF161617161717B9B9BAB9BA9B411716171716
310
163416FFFFFFFFFF16B9FFFFFFFFFFFFFFFFFFFFC917CAFFFFFFFFFFFFFF3342
310
FFFFBA17FFFFFFFF9B4E4E4F4E4E66EAFFFFFFFF5B16C9FFFFFFFFAA4E164E73
310
EAFFFFFFFF8D26FF00004E161716161616171617171616171717171617161616
310
17174EFFFFFFFFFFFFFF4E1717171616B9D92616171716171716171717171716
310
16171716AAFF161717171617161617171616161617161716166717FFFFFFFFFF
310
17B9FFFFFFFFFFFFFFFFFFFFFF3467FFFFFFFFFFFFCA168CFFFFBB17FFFFFFFF
310
FFFFFFFFFFFFFFFFFFFFFFEA26265BFFFFFFFFFFFFFFFFFFFFFFFFFFEA3467FF
310
00004D16161616161617161717161617161616171617171616164EFFFFFFFFFF
310
FFFF4D1617161616BAFF9B1616161616161716161616171717161766FFFF1616
310
16171617161617161716171616171717667F16FFFFFFFFFF17BAFFFFFFFFFFFF
310
FFFFFFFFFF8C26EAFFFFFFFFFF6617EAFFFFBA17FFFFFFFFFFFFFFFFFFFFFFFF
310
FFFFEA5A25BA269BFFFFFFFFFFFFFFFFFFFFFFFF6616DAFF00004E1616171616
310
1616161616161716161617171616171616174EFFFFFFFFFFFFFF4D1717171716
310
B9FFFF9C161616161616161716161717171667FFFFFF17161717171716161617
310
1716161616161641E97E16FFFFFFFFFF16B9FFFFFFFFFFFFFFFFFFFFFFEA169B
310
FFFFFFFFEA265BFFFFFFB916FFFFFFFFFFFFFFFFFFFFFFFFFF9B3416AAFF9B17
310
67EAFFFFFFFFFFFFFFFFEA5B169BFFFF00004D17161716161616161717171616
310
161717161716171716174EFFFFFFFFFFFFFF4D1616161616BAFFFFFFBB411616
310
161716161616171634ABFFFFFFFF161716161617171716171617171617267FFF
310
FF7F164E4E4E4E4F17BAFFFFFFFFFFFFFFFFFFFFFFFF66344D4E4E4F4117AAFF
310
FFFFBA174E4E4E4D4E4D4D4E4E4E4E4116174EBBFFFFFFCA342666ABEAFFFFEA
310
AA6725269CFFFFFF0000724F4E4D4D4D4E4D4D4E4E4E4D4E4E4E4E4E4E4E4E4D
310
4E4E74FFFFFFFFFFFFFF734E4E4E4D4ECAFFFFFFFFFFAA663416171717265B9B
310
FFFFFFFFFFFF7F8080807F80807F7F7F7F7F807FBAFFFFFFFF9B4E4E4F4D4D4E
310
4DC9FFFFFFFFFFFFFFFFFFFFFFFFBA4E4E4E4E4D4E4EFFFFFFFFC94E4E4E4F4E
310
4E4E4D4E4E5A807F9CD9FFFFFFFFFFFFFF9B5B2617171716174E8DEAFFFFFFFF
310
0000000000000000000000000000000000000000000000000000000000000000
  1
OLE
  0
ENDSEC
  0
SECTION
  2
OBJECTS
  0
DICTIONARY
  5
C
330
0
100
AcDbDictionary
281
     1
  3
ACAD_GROUP
350
D
  3
ACAD_LAYOUT
350
1A
  3
ACAD_MLINESTYLE
350
17
  3
ACAD_PLOTSETTINGS
350
19
  3
ACAD_PLOTSTYLENAME
350
E
  3
ACAD_SCALELIST
350
47
  0
DICTIONARY
  5
D
102
{ACAD_REACTORS
330
C
102
}
330
C
100
AcDbDictionary
281
     1
  0
DICTIONARY
  5
1A
102
{ACAD_REACTORS
330
C
102
}
330
C
100
AcDbDictionary
281
     1
  3
Layout1
350
1E
  3
Layout2
350
26
  3
Model
350
22
  0
DICTIONARY
  5
17
102
{ACAD_REACTORS
330
C
102
}
330
C
100
AcDbDictionary
281
     1
  3
Standard
350
18
  0
DICTIONARY
  5
19
102
{ACAD_REACTORS
330
C
102
}
330
C
100
AcDbDictionary
281
     1
  0
ACDBDICTIONARYWDFLT
  5
E
102
{ACAD_REACTORS
330
C
102
}
330
C
100
AcDbDictionary
281
     1
  3
Normal
350
F
100
AcDbDictionaryWithDefault
340
F
  0
DICTIONARY
  5
47
102
{ACAD_REACTORS
330
C
102
}
330
C
100
AcDbDictionary
281
     1
  3
A0
350
48
  3
A1
350
49
  3
A2
350
4A
  3
A3
350
4B
  3
A4
350
4C
  3
A5
350
4D
  3
A6
350
4E
  3
A7
350
4F
  3
A8
350
50
  3
A9
350
51
  3
B0
350
52
  3
B1
350
53
  3
B2
350
54
  3
B3
350
55
  3
B4
350
56
  3
B5
350
57
  3
B6
350
58
  3
B7
350
59
  3
B8
350
5A
  3
B9
350
5B
  3
C0
350
5C
  3
C1
350
5D
  3
C2
350
5E
  3
C3
350
5F
  3
C4
350
60
  3
C5
350
61
  3
C6
350
62
  3
C7
350
63
  3
C8
350
64
  3
C9
350
65
  3
D0
350
66
  3
D1
350
67
  3
D2
350
68
  0
LAYOUT
  5
1E
102
{ACAD_REACTORS
330
1A
102
}
330
1A
100
AcDbPlotSettings
  1

  2
none_device
  4

  6

 40
0.0
 41
0.0
 42
0.0
 43
0.0
 44
0.0
 45
0.0
 46
0.0
 47
0.0
 48
0.0
 49
0.0
140
0.0
141
0.0
142
1.0
143
1.0
 70
   688
 72
     1
 73
     0
 74
     5
  7

 75
    16
147
1.0
148
0.0
149
0.0
100
AcDbLayout
  1
Layout1
 70
     1
 71
     1
 10
0.0
 20
0.0
 11
420.0
 21
297.0
 12
0.0
 22
0.0
 32
0.0
 14
1.0000000000E+20
 24
1.0000000000E+20
 34
1.0000000000E+20
 15
-1.0000000000E+20
 25
-1.0000000000E+20
 35
-1.0000000000E+20
146
0.0
 13
0.0
 23
0.0
 33
0.0
 16
1.0
 26
0.0
 36
0.0
 17
0.0
 27
1.0
 37
0.0
 76
     0
330
1B
  0
LAYOUT
  5
26
102
{ACAD_REACTORS
330
1A
102
}
330
1A
100
AcDbPlotSettings
  1

  2
none_device
  4

  6

 40
0.0
 41
0.0
 42
0.0
 43
0.0
 44
0.0
 45
0.0
 46
0.0
 47
0.0
 48
0.0
 49
0.0
140
0.0
141
0.0
142
1.0
143
1.0
 70
   688
 72
     1
 73
     0
 74
     5
  7

 75
    16
147
1.0
148
0.0
149
0.0
100
AcDbLayout
  1
Layout2
 70
     1
 71
     2
 10
0.0
 20
0.0
 11
0.0
 21
0.0
 12
0.0
 22
0.0
 32
0.0
 14
0.0
 24
0.0
 34
0.0
 15
0.0
 25
0.0
 35
0.0
146
0.0
 13
0.0
 23
0.0
 33
0.0
 16
1.0
 26
0.0
 36
0.0
 17
0.0
 27
1.0
 37
0.0
 76
     0
330
23
  0
LAYOUT
  5
22
102
{ACAD_REACTORS
330
1A
102
}
330
1A
100
AcDbPlotSettings
  1

  2
none_device
  4
Letter_(8.50_x_11.00_Inches)
  6

 40
6.35
 41
6.35
 42
6.35000508
 43
6.35000508
 44
215.9
 45
279.4
 46
0.0
 47
0.0
 48
0.0
 49
0.0
140
0.0
141
0.0
142
1.0
143
1.0
 70
  1712
 72
     1
 73
     0
 74
     0
  7

 75
     0
147
1.0
148
0.0
149
0.0
100
AcDbLayout
  1
Model
 70
     1
 71
     0
 10
0.0
 20
0.0
 11
279.4
 21
215.9
 12
0.0
 22
0.0
 32
0.0
 14
0.0
 24
0.0
 34
0.0
 15
279.4
 25
215.9
 35
0.0
146
0.0
 13
0.0
 23
0.0
 33
0.0
 16
1.0
 26
0.0
 36
0.0
 17
0.0
 27
1.0
 37
0.0
 76
     0
330
1F
331
29
  0
MLINESTYLE
  5
18
102
{ACAD_REACTORS
330
17
102
}
330
17
100
AcDbMlineStyle
  2
Standard
 70
     0
  3

 62
   256
 51
90.0
 52
90.0
 71
     2
 49
0.5
 62
   256
  6
BYLAYER
 49
-0.5
 62
   256
  6
BYLAYER
  0
ACDBPLACEHOLDER
  5
F
102
{ACAD_REACTORS
330
E
102
}
330
E
  0
SCALE
  5
48
102
{ACAD_REACTORS
330
47
102
}
330
47
100
AcDbScale
 70
     0
300
1:1
140
1.0
141
1.0
290
     1
  0
SCALE
  5
49
102
{ACAD_REACTORS
330
47
102
}
330
47
100
AcDbScale
 70
     0
300
1:2
140
1.0
141
2.0
290
     0
  0
SCALE
  5
4A
102
{ACAD_REACTORS
330
47
102
}
330
47
100
AcDbScale
 70
     0
300
1:4
140
1.0
141
4.0
290
     0
  0
SCALE
  5
4B
102
{ACAD_REACTORS
330
47
102
}
330
47
100
AcDbScale
 70
     0
300
1:5
140
1.0
141
5.0
290
     0
  0
SCALE
  5
4C
102
{ACAD_REACTORS
330
47
102
}
330
47
100
AcDbScale
 70
     0
300
1:8
140
1.0
141
8.0
290
     0
  0
SCALE
  5
4D
102
{ACAD_REACTORS
330
47
102
}
330
47
100
AcDbScale
 70
     0
300
1:10
140
1.0
141
10.0
290
     0
  0
SCALE
  5
4E
102
{ACAD_REACTORS
330
47
102
}
330
47
100
AcDbScale
 70
     0
300
1:16
140
1.0
141
16.0
290
     0
  0
SCALE
  5
4F
102
{ACAD_REACTORS
330
47
102
}
330
47
100
AcDbScale
 70
     0
300
1:20
140
1.0
141
20.0
290
     0
  0
SCALE
  5
50
102
{ACAD_REACTORS
330
47
102
}
330
47
100
AcDbScale
 70
     0
300
1:30
140
1.0
141
30.0
290
     0
  0
SCALE
  5
51
102
{ACAD_REACTORS
330
47
102
}
330
47
100
AcDbScale
 70
     0
300
1:40
140
1.0
141
40.0
290
     0
  0
SCALE
  5
52
102
{ACAD_REACTORS
330
47
102
}
330
47
100
AcDbScale
 70
     0
300
1:50
140
1.0
141
50.0
290
     0
  0
SCALE
  5
53
102
{ACAD_REACTORS
330
47
102
}
330
47
100
AcDbScale
 70
     0
300
1:100
140
1.0
141
100.0
290
     0
  0
SCALE
  5
54
102
{ACAD_REACTORS
330
47
102
}
330
47
100
AcDbScale
 70
     0
300
2:1
140
2.0
141
1.0
290
     0
  0
SCALE
  5
55
102
{ACAD_REACTORS
330
47
102
}
330
47
100
AcDbScale
 70
     0
300
4:1
140
4.0
141
1.0
290
     0
  0
SCALE
  5
56
102
{ACAD_REACTORS
330
47
102
}
330
47
100
AcDbScale
 70
     0
300
8:1
140
8.0
141
1.0
290
     0
  0
SCALE
  5
57
102
{ACAD_REACTORS
330
47
102
}
330
47
100
AcDbScale
 70
     0
300
10:1
140
10.0
141
1.0
290
     0
  0
SCALE
  5
58
102
{ACAD_REACTORS
330
47
102
}
330
47
100
AcDbScale
 70
     0
300
100:1
140
100.0
141
1.0
290
     0
  0
SCALE
  5
59
102
{ACAD_REACTORS
330
47
102
}
330
47
100
AcDbScale
 70
     0
300
1/128" = 1'-0"
140
0.0078125
141
12.0
290
     0
  0
SCALE
  5
5A
102
{ACAD_REACTORS
330
47
102
}
330
47
100
AcDbScale
 70
     0
300
1/64" = 1'-0"
140
0.015625
141
12.0
290
     0
  0
SCALE
  5
5B
102
{ACAD_REACTORS
330
47
102
}
330
47
100
AcDbScale
 70
     0
300
1/32" = 1'-0"
140
0.03125
141
12.0
290
     0
  0
SCALE
  5
5C
102
{ACAD_REACTORS
330
47
102
}
330
47
100
AcDbScale
 70
     0
300
1/16" = 1'-0"
140
0.0625
141
12.0
290
     0
  0
SCALE
  5
5D
102
{ACAD_REACTORS
330
47
102
}
330
47
100
AcDbScale
 70
     0
300
3/32" = 1'-0"
140
0.09375
141
12.0
290
     0
  0
SCALE
  5
5E
102
{ACAD_REACTORS
330
47
102
}
330
47
100
AcDbScale
 70
     0
300
1/8" = 1'-0"
140
0.125
141
12.0
290
     0
  0
SCALE
  5
5F
102
{ACAD_REACTORS
330
47
102
}
330
47
100
AcDbScale
 70
     0
300
3/16" = 1'-0"
140
0.1875
141
12.0
290
     0
  0
SCALE
  5
60
102
{ACAD_REACTORS
330
47
102
}
330
47
100
AcDbScale
 70
     0
300
1/4" = 1'-0"
140
0.25
141
12.0
290
     0
  0
SCALE
  5
61
102
{ACAD_REACTORS
330
47
102
}
330
47
100
AcDbScale
 70
     0
300
3/8" = 1'-0"
140
0.375
141
12.0
290
     0
  0
SCALE
  5
62
102
{ACAD_REACTORS
330
47
102
}
330
47
100
AcDbScale
 70
     0
300
1/2" = 1'-0"
140
0.5
141
12.0
290
     0
  0
SCALE
  5
63
102
{ACAD_REACTORS
330
47
102
}
330
47
100
AcDbScale
 70
     0
300
3/4" = 1'-0"
140
0.75
141
12.0
290
     0
  0
SCALE
  5
64
102
{ACAD_REACTORS
330
47
102
}
330
47
100
AcDbScale
 70
     0
300
1" = 1'-0"
140
1.0
141
12.0
290
     0
  0
SCALE
  5
65
102
{ACAD_REACTORS
330
47
102
}
330
47
100
AcDbScale
 70
     0
300
1-1/2" = 1'-0"
140
1.5
141
12.0
290
     0
  0
SCALE
  5
66
102
{ACAD_REACTORS
330
47
102
}
330
47
100
AcDbScale
 70
     0
300
3" = 1'-0"
140
3.0
141
12.0
290
     0
  0
SCALE
  5
67
102
{ACAD_REACTORS
330
47
102
}
330
47
100
AcDbScale
 70
     0
300
6" = 1'-0"
140
6.0
141
12.0
290
     0
  0
SCALE
  5
68
102
{ACAD_REACTORS
330
47
102
}
330
47
100
AcDbScale
 70
     0
300
1'-0" = 1'-0"
140
12.0
141
12.0
290
     0
  0
ENDSEC
  0
EOF
