  0
SECTION
  2
HEADER
  9
$ACADVER
  1
AC1015
  9
$ACADMAINTVER
 70
     6
  9
$DWGCODEPAGE
  3
ANSI_1252
  9
$INSBASE
 10
0.0
 20
0.0
 30
0.0
  9
$EXTMIN
 10
0.0
 20
0.0
 30
0.0
  9
$EXTMAX
 10
279.4
 20
215.9
 30
0.0
  9
$LIMMIN
 10
0.0
 20
0.0
  9
$LIMMAX
 10
279.4
 20
215.9
  9
$ORTHOMODE
 70
     0
  9
$REGENMODE
 70
     1
  9
$FILLMODE
 70
     1
  9
$QTEXTMODE
 70
     0
  9
$MIRRTEXT
 70
     1
  9
$LTSCALE
 40
1.0
  9
$ATTMODE
 70
     1
  9
$TEXTSIZE
 40
2.8222222222
  9
$TRACEWID
 40
1.0
  9
$TEXTSTYLE
  7
Standard
  9
$CLAYER
  8
0
  9
$CELTYPE
  6
ByLayer
  9
$CECOLOR
 62
   256
  9
$CELTSCALE
 40
1.0
  9
$DISPSILH
 70
     0
  9
$DIMSCALE
 40
1.0
  9
$DIMASZ
 40
3.175
  9
$DIMEXO
 40
1.27
  9
$DIMDLI
 40
3.75
  9
$DIMRND
 40
0.0
  9
$DIMDLE
 40
0.0
  9
$DIMEXE
 40
1.778
  9
$DIMTP
 40
0.0
  9
$DIMTM
 40
0.0
  9
$DIMTXT
 40
2.8222222222
  9
$DIMCEN
 40
2.5
  9
$DIMTSZ
 40
0.0
  9
$DIMTOL
 70
     0
  9
$DIMLIM
 70
     0
  9
$DIMTIH
 70
     1
  9
$DIMTOH
 70
     1
  9
$DIMSE1
 70
     0
  9
$DIMSE2
 70
     0
  9
$DIMTAD
 70
     0
  9
$DIMZIN
 70
     1
  9
$DIMBLK
  1

  9
$DIMASO
 70
     1
  9
$DIMSHO
 70
     1
  9
$DIMPOST
  1

  9
$DIMAPOST
  1

  9
$DIMALT
 70
     0
  9
$DIMALTD
 70
     3
  9
$DIMALTF
 40
0.0393700787
  9
$DIMLFAC
 40
1.0
  9
$DIMTOFL
 70
     1
  9
$DIMTVP
 40
0.0
  9
$DIMTIX
 70
     0
  9
$DIMSOXD
 70
     0
  9
$DIMSAH
 70
     0
  9
$DIMBLK1
  1

  9
$DIMBLK2
  1

  9
$DIMSTYLE
  2
ISO-25
  9
$DIMCLRD
 70
     0
  9
$DIMCLRE
 70
     0
  9
$DIMCLRT
 70
     0
  9
$DIMTFAC
 40
1.0
  9
$DIMGAP
 40
2.54
  9
$DIMJUST
 70
     0
  9
$DIMSD1
 70
     0
  9
$DIMSD2
 70
     0
  9
$DIMTOLJ
 70
     0
  9
$DIMTZIN
 70
     1
  9
$DIMALTZ
 70
     0
  9
$DIMALTTZ
 70
     0
  9
$DIMUPT
 70
     0
  9
$DIMDEC
 70
     1
  9
$DIMTDEC
 70
     1
  9
$DIMALTU
 70
     2
  9
$DIMALTTD
 70
     3
  9
$DIMTXSTY
  7
Standard
  9
$DIMAUNIT
 70
     0
  9
$DIMADEC
 70
     0
  9
$DIMALTRND
 40
0.0
  9
$DIMAZIN
 70
     0
  9
$DIMDSEP
 70
    44
  9
$DIMATFIT
 70
     3
  9
$DIMFRAC
 70
     0
  9
$DIMLDRBLK
  1

  9
$DIMLUNIT
 70
     2
  9
$DIMLWD
 70
    -2
  9
$DIMLWE
 70
    -2
  9
$DIMTMOVE
 70
     0
  9
$LUNITS
 70
     2
  9
$LUPREC
 70
     1
  9
$SKETCHINC
 40
1.0
  9
$FILLETRAD
 40
10.0
  9
$AUNITS
 70
     0
  9
$AUPREC
 70
     0
  9
$MENU
  1
.
  9
$ELEVATION
 40
0.0
  9
$PELEVATION
 40
0.0
  9
$THICKNESS
 40
0.0
  9
$LIMCHECK
 70
     0
  9
$CHAMFERA
 40
0.0
  9
$CHAMFERB
 40
0.0
  9
$CHAMFERC
 40
0.0
  9
$CHAMFERD
 40
0.0
  9
$SKPOLY
 70
     0
  9
$TDCREATE
 40
2458397.707228924
  9
$TDUCREATE
 40
2458397.87389559
  9
$TDUPDATE
 40
2458397.707232164
  9
$TDUUPDATE
 40
2458397.873898831
  9
$TDINDWG
 40
0.0000000116
  9
$TDUSRTIMER
 40
0.0000000116
  9
$USRTIMER
 70
     1
  9
$ANGBASE
 50
0.0
  9
$ANGDIR
 70
     0
  9
$PDMODE
 70
     0
  9
$PDSIZE
 40
-1.0
  9
$PLINEWID
 40
0.0
  9
$SPLFRAME
 70
     0
  9
$SPLINETYPE
 70
     6
  9
$SPLINESEGS
 70
     8
  9
$HANDSEED
  5
1FF
  9
$SURFTAB1
 70
     6
  9
$SURFTAB2
 70
     6
  9
$SURFTYPE
 70
     6
  9
$SURFU
 70
     6
  9
$SURFV
 70
     6
  9
$UCSBASE
  2

  9
$UCSNAME
  2

  9
$UCSORG
 10
0.0
 20
0.0
 30
0.0
  9
$UCSXDIR
 10
1.0
 20
0.0
 30
0.0
  9
$UCSYDIR
 10
0.0
 20
1.0
 30
0.0
  9
$UCSORTHOREF
  2

  9
$UCSORTHOVIEW
 70
     0
  9
$UCSORGTOP
 10
0.0
 20
0.0
 30
0.0
  9
$UCSORGBOTTOM
 10
0.0
 20
0.0
 30
0.0
  9
$UCSORGLEFT
 10
0.0
 20
0.0
 30
0.0
  9
$UCSORGRIGHT
 10
0.0
 20
0.0
 30
0.0
  9
$UCSORGFRONT
 10
0.0
 20
0.0
 30
0.0
  9
$UCSORGBACK
 10
0.0
 20
0.0
 30
0.0
  9
$PUCSBASE
  2

  9
$PUCSNAME
  2

  9
$PUCSORG
 10
0.0
 20
0.0
 30
0.0
  9
$PUCSXDIR
 10
1.0
 20
0.0
 30
0.0
  9
$PUCSYDIR
 10
0.0
 20
1.0
 30
0.0
  9
$PUCSORTHOREF
  2

  9
$PUCSORTHOVIEW
 70
     0
  9
$PUCSORGTOP
 10
0.0
 20
0.0
 30
0.0
  9
$PUCSORGBOTTOM
 10
0.0
 20
0.0
 30
0.0
  9
$PUCSORGLEFT
 10
0.0
 20
0.0
 30
0.0
  9
$PUCSORGRIGHT
 10
0.0
 20
0.0
 30
0.0
  9
$PUCSORGFRONT
 10
0.0
 20
0.0
 30
0.0
  9
$PUCSORGBACK
 10
0.0
 20
0.0
 30
0.0
  9
$USERI1
 70
     0
  9
$USERI2
 70
     0
  9
$USERI3
 70
     0
  9
$USERI4
 70
     0
  9
$USERI5
 70
     0
  9
$USERR1
 40
0.0
  9
$USERR2
 40
0.0
  9
$USERR3
 40
0.0
  9
$USERR4
 40
0.0
  9
$USERR5
 40
0.0
  9
$WORLDVIEW
 70
     1
  9
$SHADEDGE
 70
     3
  9
$SHADEDIF
 70
    70
  9
$TILEMODE
 70
     1
  9
$MAXACTVP
 70
    64
  9
$PINSBASE
 10
0.0
 20
0.0
 30
0.0
  9
$PLIMCHECK
 70
     0
  9
$PEXTMIN
 10
1.0000000000E+20
 20
1.0000000000E+20
 30
1.0000000000E+20
  9
$PEXTMAX
 10
-1.0000000000E+20
 20
-1.0000000000E+20
 30
-1.0000000000E+20
  9
$PLIMMIN
 10
0.0
 20
0.0
  9
$PLIMMAX
 10
420.0
 20
297.0
  9
$UNITMODE
 70
     0
  9
$VISRETAIN
 70
     1
  9
$PLINEGEN
 70
     0
  9
$PSLTSCALE
 70
     1
  9
$TREEDEPTH
 70
  3020
  9
$CMLSTYLE
  2
Standard
  9
$CMLJUST
 70
     0
  9
$CMLSCALE
 40
20.0
  9
$PROXYGRAPHICS
 70
     1
  9
$MEASUREMENT
 70
     1
  9
$CELWEIGHT
370
    -1
  9
$ENDCAPS
280
     0
  9
$JOINSTYLE
280
     0
  9
$LWDISPLAY
290
     1
  9
$INSUNITS
 70
     4
  9
$HYPERLINKBASE
  1

  9
$STYLESHEET
  1

  9
$XEDIT
290
     1
  9
$CEPSNTYPE
380
     0
  9
$PSTYLEMODE
290
     1
  9
$FINGERPRINTGUID
  2
{9EA7CFB7-747E-4720-84A9-CB1BB664B43F}
  9
$VERSIONGUID
  2
{FAEB1C32-E019-11D5-929B-00C0DF256EC4}
  9
$EXTNAMES
290
     1
  9
$PSVPSCALE
 40
0.0
  9
$OLESTARTUP
290
     0
  0
ENDSEC
  0
SECTION
  2
CLASSES
  0
CLASS
  1
ACDBDICTIONARYWDFLT
  2
AcDbDictionaryWithDefault
  3
ObjectDBX Classes
 90
        0
280
     0
281
     0
  0
CLASS
  1
VISUALSTYLE
  2
AcDbVisualStyle
  3
ObjectDBX Classes
 90
     4095
280
     0
281
     0
  0
CLASS
  1
MATERIAL
  2
AcDbMaterial
  3
ObjectDBX Classes
 90
     1153
280
     0
281
     0
  0
CLASS
  1
SCALE
  2
AcDbScale
  3
ObjectDBX Classes
 90
     1153
280
     0
281
     0
  0
CLASS
  1
TABLESTYLE
  2
AcDbTableStyle
  3
ObjectDBX Classes
 90
     4095
280
     0
281
     0
  0
CLASS
  1
MLEADERSTYLE
  2
AcDbMLeaderStyle
  3
ACDB_MLEADERSTYLE_CLASS
 90
     4095
280
     0
281
     0
  0
CLASS
  1
SUN
  2
AcDbSun
  3
SCENEOE
 90
     1153
280
     0
281
     0
  0
CLASS
  1
ACDBPLACEHOLDER
  2
AcDbPlaceHolder
  3
ObjectDBX Classes
 90
        0
280
     0
281
     0
  0
CLASS
  1
LAYOUT
  2
AcDbLayout
  3
ObjectDBX Classes
 90
        0
280
     0
281
     0
  0
ENDSEC
  0
SECTION
  2
TABLES
  0
TABLE
  2
VPORT
  5
8
330
0
100
AcDbSymbolTable
 70
     1
  0
VPORT
  5
29
330
8
100
AcDbSymbolTableRecord
100
AcDbViewportTableRecord
  2
*Active
 70
     0
 10
0.0
 20
0.0
 11
1.0
 21
1.0
 12
139.7
 22
107.95
 13
0.0
 23
0.0
 14
10.0
 24
10.0
 15
10.0
 25
10.0
 16
0.0
 26
0.0
 36
1.0
 17
0.0
 27
0.0
 37
0.0
 40
215.9
 41
1.2941176471
 42
50.0
 43
0.0
 44
0.0
 50
0.0
 51
0.0
 71
     0
 72
  2000
 73
     1
 74
     3
 75
     0
 76
     0
 77
     0
 78
     0
281
     0
 65
     1
110
0.0
120
0.0
130
0.0
111
1.0
121
0.0
131
0.0
112
0.0
122
1.0
132
0.0
 79
     0
146
0.0
  0
ENDTAB
  0
TABLE
  2
LTYPE
  5
5
330
0
100
AcDbSymbolTable
 70
     6
  0
LTYPE
  5
14
330
5
100
AcDbSymbolTableRecord
100
AcDbLinetypeTableRecord
  2
ByBlock
 70
     0
  3

 72
    65
 73
     0
 40
0.0
  0
LTYPE
  5
15
330
5
100
AcDbSymbolTableRecord
100
AcDbLinetypeTableRecord
  2
ByLayer
 70
     0
  3

 72
    65
 73
     0
 40
0.0
  0
LTYPE
  5
16
330
5
100
AcDbSymbolTableRecord
100
AcDbLinetypeTableRecord
  2
Continuous
 70
     0
  3
Solid line
 72
    65
 73
     0
 40
0.0
  0
LTYPE
  5
6E
330
5
100
AcDbSymbolTableRecord
100
AcDbLinetypeTableRecord
  2
HIDDEN
 70
     0
  3
Hidden __ __ __ __ __ __ __ __ __ __ __ __ __ __
 72
    65
 73
     2
 40
1.905
 49
1.27
 74
     0
 49
-0.635
 74
     0
  0
LTYPE
  5
6F
330
5
100
AcDbSymbolTableRecord
100
AcDbLinetypeTableRecord
  2
PHANTOM
 70
     0
  3
Phantom ______  __  __  ______  __  __  ______
 72
    65
 73
     6
 40
12.7
 49
6.35
 74
     0
 49
-1.27
 74
     0
 49
1.27
 74
     0
 49
-1.27
 74
     0
 49
1.27
 74
     0
 49
-1.27
 74
     0
  0
LTYPE
  5
70
330
5
100
AcDbSymbolTableRecord
100
AcDbLinetypeTableRecord
  2
CENTER
 70
     0
  3
Center ____ _ ____ _ ____ _ ____ _ ____ _ ____
 72
    65
 73
     4
 40
10.16
 49
6.35
 74
     0
 49
-1.27
 74
     0
 49
1.27
 74
     0
 49
-1.27
 74
     0
  0
LTYPE
  5
71
330
5
100
AcDbSymbolTableRecord
100
AcDbLinetypeTableRecord
  2
CENTERX2
 70
     0
  3
Center (2x) ________  __  ________  __  _____
 72
    65
 73
     4
 40
20.32
 49
12.7
 74
     0
 49
-2.54
 74
     0
 49
2.54
 74
     0
 49
-2.54
 74
     0
  0
LTYPE
  5
72
330
5
100
AcDbSymbolTableRecord
100
AcDbLinetypeTableRecord
  2
DOT2
 70
     0
  3
Dot (.5x) ........................................
 72
    65
 73
     2
 40
0.635
 49
0.0
 74
     0
 49
-0.635
 74
     0
  0
ENDTAB
  0
TABLE
  2
LAYER
  5
2
330
0
100
AcDbSymbolTable
 70
     2
  0
LAYER
  5
10
330
2
100
AcDbSymbolTableRecord
100
AcDbLayerTableRecord
  2
0
 70
     0
 62
     7
  6
Continuous
370
    -3
390
F
  0
LAYER
  5
73
330
2
100
AcDbSymbolTableRecord
100
AcDbLayerTableRecord
  2
FORMAT
 70
     0
 62
     7
  6
Continuous
370
    -3
390
F
  0
ENDTAB
  0
TABLE
  2
STYLE
  5
3
330
0
100
AcDbSymbolTable
 70
     5
  0
STYLE
  5
11
330
3
100
AcDbSymbolTableRecord
100
AcDbTextStyleTableRecord
  2
Standard
 70
     0
 40
0.0
 41
1.0
 50
0.0
 71
     0
 42
2.8222222222
  3
txt
  4

  0
STYLE
  5
9D
330
3
100
AcDbSymbolTableRecord
100
AcDbTextStyleTableRecord
  2
SLDTEXTSTYLE0
 70
     0
 40
0.0
 41
0.75
 50
0.0
 71
     0
 42
2.8222222222
  3
TXT
  4

  0
STYLE
  5
A5
330
3
100
AcDbSymbolTableRecord
100
AcDbTextStyleTableRecord
  2
SLDTEXTSTYLE1
 70
     0
 40
0.0
 41
0.75
 50
0.0
 71
     0
 42
2.8222222222
  3
TXT
  4
bigfont
  0
STYLE
  5
C2
330
3
100
AcDbSymbolTableRecord
100
AcDbTextStyleTableRecord
  2
SLDTEXTSTYLE2
 70
     0
 40
0.0
 41
0.6
 50
0.0
 71
     0
 42
2.8222222222
  3
TXT
  4

  0
STYLE
  5
C7
330
3
100
AcDbSymbolTableRecord
100
AcDbTextStyleTableRecord
  2
SLDTEXTSTYLE3
 70
     0
 40
0.0
 41
0.6875
 50
0.0
 71
     0
 42
2.8222222222
  3
TXT
  4

  0
ENDTAB
  0
TABLE
  2
VIEW
  5
6
330
0
100
AcDbSymbolTable
 70
     0
  0
ENDTAB
  0
TABLE
  2
UCS
  5
7
330
0
100
AcDbSymbolTable
 70
     0
  0
ENDTAB
  0
TABLE
  2
APPID
  5
9
330
0
100
AcDbSymbolTable
 70
     1
  0
APPID
  5
12
330
9
100
AcDbSymbolTableRecord
100
AcDbRegAppTableRecord
  2
ACAD
 70
     0
  0
ENDTAB
  0
TABLE
  2
DIMSTYLE
  5
A
330
0
100
AcDbSymbolTable
 70
     4
100
AcDbDimStyleTable
  0
DIMSTYLE
105
27
330
A
100
AcDbSymbolTableRecord
100
AcDbDimStyleTableRecord
  2
ISO-25
 70
     0
 41
2.5
 42
0.625
 43
3.75
 44
1.25
 73
     0
 74
     0
 77
     1
 78
     8
140
2.5
141
2.5
143
0.0393700787
147
0.625
171
     3
172
     1
178
     0
271
     2
272
     2
274
     3
278
    44
283
     0
284
     8
340
11
  0
DIMSTYLE
105
E7
102
{ACAD_REACTORS
330
E6
102
}
330
A
100
AcDbSymbolTableRecord
100
AcDbDimStyleTableRecord
  2
SLDDIMSTYLE0
 70
     0
 41
3.175
 44
0.0
 45
0.000000001
 78
    12
 79
     3
140
2.1166666667
141
0.0
143
0.0393700787
147
0.5291666667
148
0.000000001
170
     1
173
     1
178
     0
271
     1
272
     1
276
     2
284
    12
340
9D
  0
DIMSTYLE
105
16D
102
{ACAD_REACTORS
330
16C
102
}
330
A
100
AcDbSymbolTableRecord
100
AcDbDimStyleTableRecord
  2
SLDDIMSTYLE1
 70
     0
 41
3.175
 44
0.0
 45
0.000000001
 78
     4
 79
     1
140
2.1166666667
143
0.0393700787
147
0.5291666667
148
0.000000001
170
     1
172
     1
173
     1
178
     0
271
     1
272
     1
276
     2
284
    12
289
     0
340
9D
  0
DIMSTYLE
105
182
330
A
100
AcDbSymbolTableRecord
100
AcDbDimStyleTableRecord
  2
SLDDIMSTYLE2
 70
     0
 41
3.175
 44
0.0
 45
0.000000001
146
3.175
147
0.0
173
     1
178
     0
271
     0
272
     0
276
     2
340
11
  0
ENDTAB
  0
TABLE
  2
BLOCK_RECORD
  5
1
330
0
100
AcDbSymbolTable
 70
    10
  0
BLOCK_RECORD
  5
1F
330
1
100
AcDbSymbolTableRecord
100
AcDbBlockTableRecord
  2
*Model_Space
340
22
  0
BLOCK_RECORD
  5
1B
330
1
100
AcDbSymbolTableRecord
100
AcDbBlockTableRecord
  2
*Paper_Space
340
1E
  0
BLOCK_RECORD
  5
23
330
1
100
AcDbSymbolTableRecord
100
AcDbBlockTableRecord
  2
*Paper_Space0
340
26
  0
BLOCK_RECORD
  5
74
330
1
100
AcDbSymbolTableRecord
100
AcDbBlockTableRecord
  2
Third Angle Projection Block
340
0
102
{BLKREFS
331
99
102
}
  0
BLOCK_RECORD
  5
9A
330
1
100
AcDbSymbolTableRecord
100
AcDbBlockTableRecord
  2
SW_NOTE_0
340
0
102
{BLKREFS
331
B6
102
}
  0
BLOCK_RECORD
  5
C9
330
1
100
AcDbSymbolTableRecord
100
AcDbBlockTableRecord
  2
SW_NOTE_1
340
0
102
{BLKREFS
331
CE
102
}
  0
BLOCK_RECORD
  5
CF
330
1
100
AcDbSymbolTableRecord
100
AcDbBlockTableRecord
  2
SW_NOTE_2
340
0
102
{BLKREFS
331
D4
102
}
  0
BLOCK_RECORD
  5
D6
330
1
100
AcDbSymbolTableRecord
100
AcDbBlockTableRecord
  2
SW_NOTE_3
340
0
102
{BLKREFS
331
DB
102
}
  0
BLOCK_RECORD
  5
DC
330
1
100
AcDbSymbolTableRecord
100
AcDbBlockTableRecord
  2
SW_NOTE_4
340
0
102
{BLKREFS
331
E2
102
}
  0
BLOCK_RECORD
  5
E8
330
1
100
AcDbSymbolTableRecord
100
AcDbBlockTableRecord
  2
_D
340
0
  0
BLOCK_RECORD
  5
16E
330
1
100
AcDbSymbolTableRecord
100
AcDbBlockTableRecord
  2
_D_1
340
0
  0
BLOCK_RECORD
  5
184
330
1
100
AcDbSymbolTableRecord
100
AcDbBlockTableRecord
  2
SW_NOTE_5
340
0
102
{BLKREFS
331
189
102
}
  0
ENDTAB
  0
ENDSEC
  0
SECTION
  2
BLOCKS
  0
BLOCK
  5
20
330
1F
100
AcDbEntity
  8
0
100
AcDbBlockBegin
  2
*Model_Space
 70
     0
 10
0.0
 20
0.0
 30
0.0
  3
*Model_Space
  1

  0
ENDBLK
  5
21
330
1F
100
AcDbEntity
  8
0
100
AcDbBlockEnd
  0
BLOCK
  5
1C
330
1B
100
AcDbEntity
 67
     1
  8
0
100
AcDbBlockBegin
  2
*Paper_Space
 70
     0
 10
0.0
 20
0.0
 30
0.0
  3
*Paper_Space
  1

  0
ENDBLK
  5
1D
330
1B
100
AcDbEntity
 67
     1
  8
0
100
AcDbBlockEnd
  0
BLOCK
  5
24
330
23
100
AcDbEntity
  8
0
100
AcDbBlockBegin
  2
*Paper_Space0
 70
     0
 10
0.0
 20
0.0
 30
0.0
  3
*Paper_Space0
  1

  0
ENDBLK
  5
25
330
23
100
AcDbEntity
  8
0
100
AcDbBlockEnd
  0
BLOCK
  5
75
330
74
100
AcDbEntity
  8
0
100
AcDbBlockBegin
  2
Third Angle Projection Block
 70
     0
 10
0.0
 20
0.0
 30
0.0
  3
Third Angle Projection Block
  1

  0
CIRCLE
  5
77
330
74
100
AcDbEntity
  8
0
  6
Continuous
 62
     7
370
    35
100
AcDbCircle
 10
101.4766388944
 20
18.9404083667
 30
0.0
 40
1.768227153674871
  0
CIRCLE
  5
78
330
74
100
AcDbEntity
  8
0
  6
Continuous
 62
     7
370
    35
100
AcDbCircle
 10
101.4766388944
 20
18.9404083667
 30
0.0
 40
3.901228248531818
  0
LINE
  5
79
330
74
100
AcDbEntity
  8
0
  6
CENTERX2
 62
     7
370
    18
100
AcDbLine
 10
110.1367822585
 20
18.9404083667
 30
0.0
 11
119.4527334874
 21
18.9404083667
 31
0.0
  0
LINE
  5
7A
330
74
100
AcDbEntity
  8
0
  6
Continuous
 62
     7
370
    35
100
AcDbLine
 10
111.0016388944
 20
20.7086355204
 30
0.0
 11
111.0016388944
 21
17.172181213
 31
0.0
  0
LINE
  5
7B
330
74
100
AcDbEntity
  8
0
  6
Continuous
 62
     7
370
    35
100
AcDbLine
 10
111.0016388944
 20
17.172181213
 30
0.0
 11
118.6216388944
 21
15.1304083667
 31
0.0
  0
LINE
  5
7C
330
74
100
AcDbEntity
  8
0
  6
Continuous
 62
     7
370
    35
100
AcDbLine
 10
118.6216388944
 20
15.1304083667
 30
0.0
 11
118.6216388944
 21
22.7504083667
 31
0.0
  0
LINE
  5
7D
330
74
100
AcDbEntity
  8
0
  6
Continuous
 62
     7
370
    35
100
AcDbLine
 10
118.6216388944
 20
22.7504083667
 30
0.0
 11
111.0016388944
 21
20.7086355204
 31
0.0
  0
LINE
  5
7E
330
74
100
AcDbEntity
  8
0
  6
CENTERX2
 62
     7
370
    18
100
AcDbLine
 10
96.6025854619
 20
18.9404083667
 30
0.0
 11
106.3506923269
 21
18.9404083667
 31
0.0
  0
LINE
  5
7F
330
74
100
AcDbEntity
  8
0
  6
CENTERX2
 62
     7
370
    18
100
AcDbLine
 10
101.4766388944
 20
23.8144617992
 30
0.0
 11
101.4766388944
 21
14.0663549342
 31
0.0
  0
POINT
  5
80
330
74
100
AcDbEntity
  8
0
  6
Continuous
 62
     7
370
     0
100
AcDbPoint
 10
101.4766388944
 20
18.9404083667
 30
0.0
  0
ENDBLK
  5
76
330
74
100
AcDbEntity
  8
0
100
AcDbBlockEnd
  0
BLOCK
  5
9B
330
9A
100
AcDbEntity
  8
0
100
AcDbBlockBegin
  2
SW_NOTE_0
 70
     0
 10
0.0
 20
0.0
 30
0.0
  3
SW_NOTE_0
  1

  0
MTEXT
  5
9E
330
9A
100
AcDbEntity
  8
0
  6
Continuous
 62
     0
370
     0
100
AcDbMText
 10
0.0
 20
2.7285267159
 30
0.0
 40
2.1166666667
 41
0.0
 71
     1
 72
     1
  1
NOTES/SPECIFICATIONS:
  7
SLDTEXTSTYLE0
 73
     1
 44
1.0
  0
MTEXT
  5
9F
330
9A
100
AcDbEntity
  8
0
  6
Continuous
 62
     0
370
     0
100
AcDbMText
 10
9.9999997765
 20
-2.9159176604
 30
0.0
 40
2.1166666667
 41
0.0
 71
     1
 72
     1
  1
CLEAR APERTURE: >
  7
SLDTEXTSTYLE0
 73
     1
 44
1.0
  0
MTEXT
  5
A0
330
9A
100
AcDbEntity
  8
0
  6
Continuous
 62
     0
370
     0
100
AcDbMText
 10
36.2231489271
 20
-2.9159176604
 30
0.0
 40
2.1166666667
 41
0.0
 71
     1
 72
     1
  1
%%c
  7
SLDTEXTSTYLE0
 73
     1
 44
1.0
  0
MTEXT
  5
A1
330
9A
100
AcDbEntity
  8
0
  6
Continuous
 62
     0
370
     0
100
AcDbMText
 10
39.4181385636
 20
-2.9159176604
 30
0.0
 40
2.1166666667
 41
0.0
 71
     1
 72
     1
  1
45.72mm
  7
SLDTEXTSTYLE0
 73
     1
 44
1.0
  0
MTEXT
  5
A2
330
9A
100
AcDbEntity
  8
0
  6
Continuous
 62
     0
370
     0
100
AcDbMText
 10
0.0
 20
-2.9159176604
 30
0.0
 40
2.1166666667
 41
0.0
 71
     1
 72
     1
  1
1.
  7
SLDTEXTSTYLE0
 73
     1
 44
1.0
  0
MTEXT
  5
A3
330
9A
100
AcDbEntity
  8
0
  6
Continuous
 62
     0
370
     0
100
AcDbMText
 10
9.9999997765
 20
-5.7381398485
 30
0.0
 40
2.1166666667
 41
0.0
 71
     1
 72
     1
  1
SURFACE QUALITY: 40-20 SCRATCH-DIG
  7
SLDTEXTSTYLE0
 73
     1
 44
1.0
  0
MTEXT
  5
A4
330
9A
100
AcDbEntity
  8
0
  6
Continuous
 62
     0
370
     0
100
AcDbMText
 10
0.0
 20
-5.7381398485
 30
0.0
 40
2.1166666667
 41
0.0
 71
     1
 72
     1
  1
2.
  7
SLDTEXTSTYLE0
 73
     1
 44
1.0
  0
MTEXT
  5
A6
330
9A
100
AcDbEntity
  8
0
  6
Continuous
 62
     0
370
     0
100
AcDbMText
 10
9.9999997765
 20
-8.5603620366
 30
0.0
 40
2.1166666667
 41
0.0
 71
     1
 72
     1
  1
TRANSMITTED WAVEFRONT ERROR: <\M+183C9/4 AT 633nm
  7
SLDTEXTSTYLE1
 73
     1
 44
1.0
  0
MTEXT
  5
A7
330
9A
100
AcDbEntity
  8
0
  6
Continuous
 62
     0
370
     0
100
AcDbMText
 10
0.0
 20
-8.5603620366
 30
0.0
 40
2.1166666667
 41
0.0
 71
     1
 72
     1
  1
3.
  7
SLDTEXTSTYLE0
 73
     1
 44
1.0
  0
MTEXT
  5
A8
330
9A
100
AcDbEntity
  8
0
  6
Continuous
 62
     0
370
     0
100
AcDbMText
 10
9.9999997765
 20
-11.3825842247
 30
0.0
 40
2.1166666667
 41
0.0
 71
     1
 72
     1
  1
PARALLELISM: <3 arcmin
  7
SLDTEXTSTYLE0
 73
     1
 44
1.0
  0
MTEXT
  5
A9
330
9A
100
AcDbEntity
  8
0
  6
Continuous
 62
     0
370
     0
100
AcDbMText
 10
0.0
 20
-11.3825842247
 30
0.0
 40
2.1166666667
 41
0.0
 71
     1
 72
     1
  1
4.
  7
SLDTEXTSTYLE0
 73
     1
 44
1.0
  0
MTEXT
  5
AA
330
9A
100
AcDbEntity
  8
0
  6
Continuous
 62
     0
370
     0
100
AcDbMText
 10
9.9999997765
 20
-14.2048064128
 30
0.0
 40
2.1166666667
 41
0.0
 71
     1
 72
     1
  1
FILTER COATING (S1):
  7
SLDTEXTSTYLE0
 73
     1
 44
1.0
  0
MTEXT
  5
AB
330
9A
100
AcDbEntity
  8
0
  6
Continuous
 62
     0
370
     0
100
AcDbMText
 10
0.0
 20
-14.2048064128
 30
0.0
 40
2.1166666667
 41
0.0
 71
     1
 72
     1
  1
5.
  7
SLDTEXTSTYLE0
 73
     1
 44
1.0
  0
MTEXT
  5
AC
330
9A
100
AcDbEntity
  8
0
  6
Continuous
 62
     0
370
     0
100
AcDbMText
 10
20.0
 20
-17.027028601
 30
0.0
 40
2.1166666667
 41
0.0
 71
     1
 72
     1
  1
REFLECTION BAND (R): >95% AVERAGE, >90% ABSOLUTE 400-785nm
  7
SLDTEXTSTYLE0
 73
     1
 44
1.0
  0
MTEXT
  5
AD
330
9A
100
AcDbEntity
  8
0
  6
Continuous
 62
     0
370
     0
100
AcDbMText
 10
20.0
 20
-19.8492507891
 30
0.0
 40
2.1166666667
 41
0.0
 71
     1
 72
     1
  1
TRANSMISSION BAND (T): >90% AVERAGE, >85% ABSOLUTE 825-1300nm
  7
SLDTEXTSTYLE0
 73
     1
 44
1.0
  0
MTEXT
  5
AE
330
9A
100
AcDbEntity
  8
0
  6
Continuous
 62
     0
370
     0
100
AcDbMText
 10
20.0
 20
-22.6714729772
 30
0.0
 40
2.1166666667
 41
0.0
 71
     1
 72
     1
  1
45
  7
SLDTEXTSTYLE0
 73
     1
 44
1.0
  0
MTEXT
  5
AF
330
9A
100
AcDbEntity
  8
0
  6
Continuous
 62
     0
370
     0
100
AcDbMText
 10
23.1279630493
 20
-22.6714729772
 30
0.0
 40
2.1166666667
 41
0.0
 71
     1
 72
     1
  1
%%d
  7
SLDTEXTSTYLE0
 73
     1
 44
1.0
  0
MTEXT
  5
B0
330
9A
100
AcDbEntity
  8
0
  6
Continuous
 62
     0
370
     0
100
AcDbMText
 10
25.2669724196
 20
-22.6714729772
 30
0.0
 40
2.1166666667
 41
0.0
 71
     1
 72
     1
  1
AOI
  7
SLDTEXTSTYLE0
 73
     1
 44
1.0
  0
MTEXT
  5
B1
330
9A
100
AcDbEntity
  8
0
  6
Continuous
 62
     0
370
     0
100
AcDbMText
 10
9.9999997765
 20
-25.4936951653
 30
0.0
 40
2.1166666667
 41
0.0
 71
     1
 72
     1
  1
AR COATING (S2):
  7
SLDTEXTSTYLE0
 73
     1
 44
1.0
  0
MTEXT
  5
B2
330
9A
100
AcDbEntity
  8
0
  6
Continuous
 62
     0
370
     0
100
AcDbMText
 10
0.0
 20
-25.4936951653
 30
0.0
 40
2.1166666667
 41
0.0
 71
     1
 72
     1
  1
6.
  7
SLDTEXTSTYLE0
 73
     1
 44
1.0
  0
MTEXT
  5
B3
330
9A
100
AcDbEntity
  8
0
  6
Continuous
 62
     0
370
     0
100
AcDbMText
 10
20.0
 20
-28.3159173534
 30
0.0
 40
2.1166666667
 41
0.0
 71
     1
 72
     1
  1
R: <2% ABSOLUTE 823-1300nm 45
  7
SLDTEXTSTYLE0
 73
     1
 44
1.0
  0
MTEXT
  5
B4
330
9A
100
AcDbEntity
  8
0
  6
Continuous
 62
     0
370
     0
100
AcDbMText
 10
63.889477849
 20
-28.3159173534
 30
0.0
 40
2.1166666667
 41
0.0
 71
     1
 72
     1
  1
%%d
  7
SLDTEXTSTYLE0
 73
     1
 44
1.0
  0
MTEXT
  5
B5
330
9A
100
AcDbEntity
  8
0
  6
Continuous
 62
     0
370
     0
100
AcDbMText
 10
66.0284860551
 20
-28.3159173534
 30
0.0
 40
2.1166666667
 41
0.0
 71
     1
 72
     1
  1
AOI
  7
SLDTEXTSTYLE0
 73
     1
 44
1.0
  0
ENDBLK
  5
9C
330
9A
100
AcDbEntity
  8
0
100
AcDbBlockEnd
  0
BLOCK
  5
CA
330
C9
100
AcDbEntity
  8
0
100
AcDbBlockBegin
  2
SW_NOTE_1
 70
     0
 10
0.0
 20
0.0
 30
0.0
  3
SW_NOTE_1
  1

  0
MTEXT
  5
CC
330
C9
100
AcDbEntity
  8
0
  6
Continuous
 62
     0
370
     0
100
AcDbMText
 10
19.90725
 20
1.9645392354
 30
0.0
 40
1.524
 41
0.0
 71
     2
 72
     1
  1
VALUES IN PARENTHESIS ARE CALCULATED
  7
SLDTEXTSTYLE0
 73
     1
 44
1.0
  0
MTEXT
  5
CD
330
C9
100
AcDbEntity
  8
0
  6
Continuous
 62
     0
370
     0
100
AcDbMText
 10
19.8778795174
 20
-0.5594606586
 30
0.0
 40
1.524
 41
0.0
 71
     2
 72
     1
  1
AND MAY CONTAIN ROUNDOFF ERRORS
  7
SLDTEXTSTYLE0
 73
     1
 44
1.0
  0
ENDBLK
  5
CB
330
C9
100
AcDbEntity
  8
0
100
AcDbBlockEnd
  0
BLOCK
  5
D0
330
CF
100
AcDbEntity
  8
0
100
AcDbBlockBegin
  2
SW_NOTE_2
 70
     0
 10
0.0
 20
0.0
 30
0.0
  3
SW_NOTE_2
  1

  0
MTEXT
  5
D2
330
CF
100
AcDbEntity
  8
0
  6
Continuous
 62
     0
370
     0
100
AcDbMText
 10
0.0
 20
2.7285267159
 30
0.0
 40
2.1166666667
 41
0.0
 71
     1
 72
     1
  1
DRAWING
  7
SLDTEXTSTYLE0
 73
     1
 44
1.0
  0
MTEXT
  5
D3
330
CF
100
AcDbEntity
  8
0
  6
Continuous
 62
     0
370
     0
100
AcDbMText
 10
0.0
 20
-0.0936954723
 30
0.0
 40
2.1166666667
 41
0.0
 71
     1
 72
     1
  1
PROJECTION
  7
SLDTEXTSTYLE0
 73
     1
 44
1.0
  0
ENDBLK
  5
D1
330
CF
100
AcDbEntity
  8
0
100
AcDbBlockEnd
  0
BLOCK
  5
D7
330
D6
100
AcDbEntity
  8
0
100
AcDbBlockBegin
  2
SW_NOTE_3
 70
     0
 10
0.0
 20
0.0
 30
0.0
  3
SW_NOTE_3
  1

  0
MTEXT
  5
D9
330
D6
100
AcDbEntity
  8
0
  6
Continuous
 62
     0
370
     0
100
AcDbMText
 10
25.052734375
 20
4.0927900738
 30
0.0
 40
3.175
 41
0.0
 71
     2
 72
     1
  1
FOR INFORMATION ONLY
  7
SLDTEXTSTYLE0
 73
     1
 44
1.0
  0
MTEXT
  5
DA
330
D6
100
AcDbEntity
  8
0
  6
Continuous
 62
     0
370
     0
100
AcDbMText
 10
25.3768468589
 20
-0.1405432084
 30
0.0
 40
3.175
 41
0.0
 71
     2
 72
     1
  1
NOT FOR MANUFACTURING PURPOSES
  7
SLDTEXTSTYLE0
 73
     1
 44
1.0
  0
ENDBLK
  5
D8
330
D6
100
AcDbEntity
  8
0
100
AcDbBlockEnd
  0
BLOCK
  5
DD
330
DC
100
AcDbEntity
  8
0
100
AcDbBlockBegin
  2
SW_NOTE_4
 70
     0
 10
0.0
 20
0.0
 30
0.0
  3
SW_NOTE_4
  1

  0
MTEXT
  5
DF
330
DC
100
AcDbEntity
  8
0
  6
Continuous
 62
     0
370
     0
100
AcDbMText
 10
1.9016927083
 20
3.4106583948
 30
0.0
 40
2.6458333333
 41
0.0
 71
     2
 72
     1
  1
%%c
  7
SLDTEXTSTYLE0
 73
     1
 44
1.0
  0
MTEXT
  5
E0
330
DC
100
AcDbEntity
  8
0
  6
Continuous
 62
     0
370
     0
100
AcDbMText
 10
20.1167853177
 20
3.4106583948
 30
0.0
 40
2.6458333333
 41
0.0
 71
     2
 72
     1
  1
50.8mm LONGPASS
  7
SLDTEXTSTYLE0
 73
     1
 44
1.0
  0
MTEXT
  5
E1
330
DC
100
AcDbEntity
  8
0
  6
Continuous
 62
     0
370
     0
100
AcDbMText
 10
18.233835871
 20
-0.1171193403
 30
0.0
 40
2.6458333333
 41
0.0
 71
     2
 72
     1
  1
DICHROIC MIRROR 805nm
  7
SLDTEXTSTYLE0
 73
     1
 44
1.0
  0
ENDBLK
  5
DE
330
DC
100
AcDbEntity
  8
0
100
AcDbBlockEnd
  0
BLOCK
  5
E9
330
E8
100
AcDbEntity
  8
0
100
AcDbBlockBegin
  2
_D
 70
     0
 10
0.0
 20
0.0
 30
0.0
  3
_D
  1

  0
SOLID
  5
EB
330
E8
100
AcDbEntity
  8
0
  6
Continuous
 62
     7
370
    18
100
AcDbTrace
 10
66.8943021265
 20
120.1609592815
 30
0.0
 11
65.169840656
 21
122.8747981928
 31
0.0
 12
64.4091776057
 22
122.2012644342
 32
0.0
 13
64.4091776057
 23
122.2012644342
 33
0.0
  0
LINE
  5
EC
330
E8
100
AcDbEntity
  8
0
  6
Continuous
 62
     7
370
    18
100
AcDbLine
 10
43.3015287141
 20
126.6226341721
 30
0.0
 11
42.65770926
 21
126.6226341721
 31
0.0
  0
LINE
  5
ED
330
E8
100
AcDbEntity
  8
0
  6
Continuous
 62
     7
370
    18
100
AcDbLine
 10
42.65770926
 20
126.6226341721
 30
0.0
 11
42.65770926
 21
123.2594860956
 31
0.0
  0
LINE
  5
EE
330
E8
100
AcDbEntity
  8
0
  6
Continuous
 62
     7
370
    18
100
AcDbLine
 10
42.65770926
 20
123.2594860956
 30
0.0
 11
43.3015287141
 21
123.2594860956
 31
0.0
  0
LINE
  5
EF
330
E8
100
AcDbEntity
  8
0
  6
Continuous
 62
     7
370
    18
100
AcDbLine
 10
51.0587202604
 20
126.6226341721
 30
0.0
 11
51.7025397145
 21
126.6226341721
 31
0.0
  0
LINE
  5
F0
330
E8
100
AcDbEntity
  8
0
  6
Continuous
 62
     7
370
    18
100
AcDbLine
 10
51.7025397145
 20
126.6226341721
 30
0.0
 11
51.7025397145
 21
123.2594860956
 31
0.0
  0
LINE
  5
F1
330
E8
100
AcDbEntity
  8
0
  6
Continuous
 62
     7
370
    18
100
AcDbLine
 10
51.7025397145
 20
123.2594860956
 30
0.0
 11
51.0587202604
 21
123.2594860956
 31
0.0
  0
LINE
  5
F2
330
E8
100
AcDbEntity
  8
0
  6
Continuous
 62
     7
370
    18
100
AcDbLine
 10
66.8943021265
 20
120.1609592815
 30
0.0
 11
59.7825227519
 21
128.1927286213
 31
0.0
  0
LINE
  5
F3
330
E8
100
AcDbEntity
  8
0
  6
Continuous
 62
     7
370
    18
100
AcDbLine
 10
59.7825227519
 20
128.1927286213
 30
0.0
 11
55.9725227519
 21
128.1927286213
 31
0.0
  0
MTEXT
  5
F4
330
E8
100
AcDbEntity
  8
0
  6
Continuous
 62
     7
370
    18
100
AcDbMText
 10
42.0138898059
 20
129.7803738185
 30
0.0
 40
2.1166666667
 41
0.0
 71
     1
 72
     1
  1
%%c
  7
SLDTEXTSTYLE0
 73
     1
 44
1.0
  0
MTEXT
  5
F5
330
E8
100
AcDbEntity
  8
0
  6
Continuous
 62
     7
370
    18
100
AcDbMText
 10
45.2088806066
 20
129.7803738185
 30
0.0
 40
2.1166666667
 41
0.0
 71
     1
 72
     1
  1
50.8mm
  7
SLDTEXTSTYLE0
 73
     1
 44
1.0
  0
MTEXT
  5
F6
330
E8
100
AcDbEntity
  8
0
  6
Continuous
 62
     7
370
    18
100
AcDbMText
 10
43.3015287141
 20
125.988012695
 30
0.0
 40
2.1166666667
 41
0.0
 71
     1
 72
     1
  1
2.00in
  7
SLDTEXTSTYLE0
 73
     1
 44
1.0
  0
ENDBLK
  5
EA
330
E8
100
AcDbEntity
  8
0
100
AcDbBlockEnd
  0
BLOCK
  5
16F
330
16E
100
AcDbEntity
  8
0
100
AcDbBlockBegin
  2
_D_1
 70
     0
 10
0.0
 20
0.0
 30
0.0
  3
_D_1
  1

  0
SOLID
  5
171
330
16E
100
AcDbEntity
  8
0
  6
Continuous
 62
     7
370
    18
100
AcDbTrace
 10
171.883464194
 20
131.5443830254
 30
0.0
 11
168.708464194
 21
132.0523830254
 31
0.0
 12
168.708464194
 22
131.0363830254
 32
0.0
 13
168.708464194
 23
131.0363830254
 33
0.0
  0
SOLID
  5
172
330
16E
100
AcDbEntity
  8
0
  6
Continuous
 62
     7
370
    18
100
AcDbTrace
 10
176.883464194
 20
131.5443830254
 30
0.0
 11
180.058464194
 21
131.0363830254
 31
0.0
 12
180.058464194
 22
132.0523830254
 32
0.0
 13
180.058464194
 23
132.0523830254
 33
0.0
  0
LINE
  5
173
330
16E
100
AcDbEntity
  8
0
  6
Continuous
 62
     7
370
    18
100
AcDbLine
 10
183.139397676
 20
131.5443827925
 30
0.0
 11
182.4955782218
 21
131.5443827925
 31
0.0
  0
LINE
  5
174
330
16E
100
AcDbEntity
  8
0
  6
Continuous
 62
     7
370
    18
100
AcDbLine
 10
182.4955782218
 20
131.5443827925
 30
0.0
 11
182.4955782218
 21
128.1812347161
 31
0.0
  0
LINE
  5
175
330
16E
100
AcDbEntity
  8
0
  6
Continuous
 62
     7
370
    18
100
AcDbLine
 10
182.4955782218
 20
128.1812347161
 30
0.0
 11
183.139397676
 21
128.1812347161
 31
0.0
  0
LINE
  5
176
330
16E
100
AcDbEntity
  8
0
  6
Continuous
 62
     7
370
    18
100
AcDbLine
 10
190.8965892222
 20
131.5443827925
 30
0.0
 11
191.5404086763
 21
131.5443827925
 31
0.0
  0
LINE
  5
177
330
16E
100
AcDbEntity
  8
0
  6
Continuous
 62
     7
370
    18
100
AcDbLine
 10
191.5404086763
 20
131.5443827925
 30
0.0
 11
191.5404086763
 21
128.1812347161
 31
0.0
  0
LINE
  5
178
330
16E
100
AcDbEntity
  8
0
  6
Continuous
 62
     7
370
    18
100
AcDbLine
 10
191.5404086763
 20
128.1812347161
 30
0.0
 11
190.8965892222
 21
128.1812347161
 31
0.0
  0
LINE
  5
179
330
16E
100
AcDbEntity
  8
0
  6
Continuous
 62
     7
370
    18
100
AcDbLine
 10
171.883464194
 20
127.6143830254
 30
0.0
 11
171.883464194
 21
133.3223830254
 31
0.0
  0
LINE
  5
17A
330
16E
100
AcDbEntity
  8
0
  6
Continuous
 62
     7
370
    18
100
AcDbLine
 10
176.883464194
 20
127.6143830254
 30
0.0
 11
176.883464194
 21
133.3223830254
 31
0.0
  0
LINE
  5
17B
330
16E
100
AcDbEntity
  8
0
  6
Continuous
 62
     7
370
    18
100
AcDbLine
 10
171.883464194
 20
131.5443830254
 30
0.0
 11
165.533464194
 21
131.5443830254
 31
0.0
  0
LINE
  5
17C
330
16E
100
AcDbEntity
  8
0
  6
Continuous
 62
     7
370
    18
100
AcDbLine
 10
176.883464194
 20
131.5443830254
 30
0.0
 11
179.8621520685
 21
131.5443830254
 31
0.0
  0
MTEXT
  5
17D
330
16E
100
AcDbEntity
  8
0
  6
Continuous
 62
     7
370
    18
100
AcDbMText
 10
181.8791970633
 20
134.702122439
 30
0.0
 40
2.1166666667
 41
0.0
 71
     1
 72
     1
  1

  7
SLDTEXTSTYLE0
 73
     1
 44
1.0
  0
MTEXT
  5
17E
330
16E
100
AcDbEntity
  8
0
  6
Continuous
 62
     7
370
    18
100
AcDbMText
 10
182.4181630806
 20
134.702122439
 30
0.0
 40
2.1166666667
 41
0.0
 71
     1
 72
     1
  1
5.0mm
  7
SLDTEXTSTYLE0
 73
     1
 44
1.0
  0
MTEXT
  5
17F
330
16E
100
AcDbEntity
  8
0
  6
Continuous
 62
     7
370
    18
100
AcDbMText
 10
183.139397676
 20
130.9097613155
 30
0.0
 40
2.1166666667
 41
0.0
 71
     1
 72
     1
  1
0.20in
  7
SLDTEXTSTYLE0
 73
     1
 44
1.0
  0
MTEXT
  5
180
330
16E
100
AcDbEntity
  8
0
  6
Continuous
 62
     7
370
    18
100
AcDbMText
 10
193.7717281305
 20
134.702122439
 30
0.0
 40
2.1166666667
 41
0.0
 71
     1
 72
     1
  1

  7
SLDTEXTSTYLE0
 73
     1
 44
1.0
  0
ENDBLK
  5
170
330
16E
100
AcDbEntity
  8
0
100
AcDbBlockEnd
  0
BLOCK
  5
185
330
184
100
AcDbEntity
  8
0
100
AcDbBlockBegin
  2
SW_NOTE_5
 70
     0
 10
0.0
 20
0.0
 30
0.0
  3
SW_NOTE_5
  1

  0
MTEXT
  5
187
330
184
100
AcDbEntity
  8
0
  6
Continuous
 62
     0
370
     0
100
AcDbMText
 10
0.5725927121
 20
1.0869062825
 30
0.0
 40
2.1166666667
 41
0.0
 71
     1
 72
     1
  1
S2
  7
SLDTEXTSTYLE0
 73
     1
 44
1.0
  0
MTEXT
  5
188
330
184
100
AcDbEntity
  8
0
  6
Continuous
 62
     0
370
     0
100
AcDbMText
 10
0.5725927121
 20
-1.7353159056
 30
0.0
 40
2.1166666667
 41
0.0
 71
     1
 72
     1
  1
INDICATED BY ENGRAVED ARROW
  7
SLDTEXTSTYLE0
 73
     1
 44
1.0
  0
ENDBLK
  5
186
330
184
100
AcDbEntity
  8
0
100
AcDbBlockEnd
  0
ENDSEC
  0
SECTION
  2
ENTITIES
  0
LINE
  5
81
330
1F
100
AcDbEntity
  8
0
  6
Continuous
 62
     7
370
    18
100
AcDbLine
 10
1.5793501011
 20
214.6453799966
 30
0.0
 11
277.9892068491
 21
214.6453799966
 31
0.0
  0
LINE
  5
82
330
1F
100
AcDbEntity
  8
0
  6
Continuous
 62
     7
370
    18
100
AcDbLine
 10
1.5793501011
 20
214.6453799966
 30
0.0
 11
1.5793501011
 21
0.9031642596
 31
0.0
  0
LINE
  5
83
330
1F
100
AcDbEntity
  8
0
  6
Continuous
 62
     7
370
    18
100
AcDbLine
 10
277.9892068491
 20
0.9031642596
 30
0.0
 11
1.5793501011
 21
0.9031642596
 31
0.0
  0
LINE
  5
84
330
1F
100
AcDbEntity
  8
0
  6
Continuous
 62
     7
370
    18
100
AcDbLine
 10
277.9892068491
 20
0.9031642596
 30
0.0
 11
277.9892068491
 21
214.6453799966
 31
0.0
  0
LINE
  5
85
330
1F
100
AcDbEntity
  8
0
  6
Continuous
 62
     7
370
    18
100
AcDbLine
 10
215.7427640041
 20
12.2958890132
 30
0.0
 11
171.6327596684
 21
12.2958890132
 31
0.0
  0
LINE
  5
86
330
1F
100
AcDbEntity
  8
0
  6
Continuous
 62
     7
370
    18
100
AcDbLine
 10
171.6327596684
 20
12.2958890132
 30
0.0
 11
171.6327596684
 21
26.1661402506
 31
0.0
  0
LINE
  5
87
330
1F
100
AcDbEntity
  8
0
  6
Continuous
 62
     7
370
    18
100
AcDbLine
 10
171.6327596684
 20
0.9031642596
 30
0.0
 11
171.6327596684
 21
26.1661402506
 31
0.0
  0
LINE
  5
88
330
1F
100
AcDbEntity
  8
0
  6
Continuous
 62
     7
370
    18
100
AcDbLine
 10
215.7427640041
 20
17.1604579552
 30
0.0
 11
277.9892068491
 21
17.1604579552
 31
0.0
  0
LINE
  5
89
330
1F
100
AcDbEntity
  8
0
  6
Continuous
 62
     7
370
    18
100
AcDbLine
 10
215.7427640041
 20
35.2394508358
 30
0.0
 11
215.7427640041
 21
0.9031642596
 31
0.0
  0
LINE
  5
8A
330
1F
100
AcDbEntity
  8
0
  6
Continuous
 62
     7
370
    18
100
AcDbLine
 10
215.7427640041
 20
26.1661402506
 30
0.0
 11
171.6327596684
 21
26.1661402506
 31
0.0
  0
LINE
  5
8B
330
1F
100
AcDbEntity
  8
0
  6
Continuous
 62
     7
370
    18
100
AcDbLine
 10
215.7427640041
 20
9.1409200612
 30
0.0
 11
277.9892068491
 21
9.1409200612
 31
0.0
  0
LINE
  5
8C
330
1F
100
AcDbEntity
  8
0
  6
Continuous
 62
     7
370
    18
100
AcDbLine
 10
215.7427640041
 20
16.9216824031
 30
0.0
 11
171.6327596684
 21
16.9216824031
 31
0.0
  0
LINE
  5
8D
330
1F
100
AcDbEntity
  8
0
  6
Continuous
 62
     7
370
    18
100
AcDbLine
 10
215.7427640041
 20
21.4874005542
 30
0.0
 11
171.6327596684
 21
21.4874005542
 31
0.0
  0
LINE
  5
8E
330
1F
100
AcDbEntity
  8
0
  6
Continuous
 62
     7
370
    18
100
AcDbLine
 10
186.1338100705
 20
26.1661402506
 30
0.0
 11
186.1338100705
 21
12.2958890132
 31
0.0
  0
LINE
  5
8F
330
1F
100
AcDbEntity
  8
0
  6
Continuous
 62
     7
370
    18
100
AcDbLine
 10
198.2145906188
 20
26.1661402506
 30
0.0
 11
198.2145906188
 21
12.2958890132
 31
0.0
  0
LINE
  5
90
330
1F
100
AcDbEntity
  8
0
  6
Continuous
 62
     7
370
    18
100
AcDbLine
 10
253.7490408369
 20
9.1409200612
 30
0.0
 11
253.7490408369
 21
0.9031642596
 31
0.0
  0
LINE
  5
91
330
1F
100
AcDbEntity
  8
0
  6
Continuous
 62
     7
370
    18
100
AcDbLine
 10
171.6327596684
 20
12.2958890132
 30
0.0
 11
171.6327596684
 21
7.5627342528
 31
0.0
  0
LINE
  5
92
330
1F
100
AcDbEntity
  8
0
  6
Continuous
 62
     7
370
    18
100
AcDbLine
 10
171.6327596684
 20
7.5627342528
 30
0.0
 11
215.7427640041
 21
7.5627342528
 31
0.0
  0
LINE
  5
93
330
1F
100
AcDbEntity
  8
0
  6
Continuous
 62
     7
370
    18
100
AcDbLine
 10
171.6327596684
 20
7.5627342528
 30
0.0
 11
171.6327596684
 21
35.2394508358
 31
0.0
  0
LINE
  5
94
330
1F
100
AcDbEntity
  8
0
  6
Continuous
 62
     7
370
    18
100
AcDbLine
 10
171.6327596684
 20
35.2394508358
 30
0.0
 11
215.7427640041
 21
35.2394508358
 31
0.0
  0
LINE
  5
95
330
1F
100
AcDbEntity
  8
0
  6
Continuous
 62
     7
370
    18
100
AcDbLine
 10
270.1683598194
 20
17.1604579552
 30
0.0
 11
270.1683598194
 21
9.1409200612
 31
0.0
  0
LINE
  5
96
330
1F
100
AcDbEntity
  8
0
  6
Continuous
 62
     7
370
    18
100
AcDbLine
 10
215.7427640041
 20
35.2394508358
 30
0.0
 11
277.9892068491
 21
35.2394508358
 31
0.0
  0
LINE
  5
97
330
1F
100
AcDbEntity
  8
0
  6
Continuous
 62
     7
370
    18
100
AcDbLine
 10
277.9892068491
 20
35.2394508358
 30
0.0
 11
277.9892068491
 21
50.0331356147
 31
0.0
  0
LINE
  5
98
330
1F
100
AcDbEntity
  8
0
  6
Continuous
 62
     7
370
    18
100
AcDbLine
 10
215.7427640041
 20
24.8927335446
 30
0.0
 11
277.9892068491
 21
24.8927335446
 31
0.0
  0
INSERT
  5
99
330
1F
100
AcDbEntity
  8
0
  6
Continuous
 62
     7
100
AcDbBlockReference
  2
Third Angle Projection Block
 10
117.7262204235
 20
15.5162339489
 30
0.0
 41
0.8
 42
0.8
 43
0.8
  0
INSERT
  5
B6
330
1F
100
AcDbEntity
  8
0
  6
Continuous
 62
     7
370
     0
100
AcDbBlockReference
  2
SW_NOTE_0
 10
13.8229635922
 20
46.866219443
 30
0.0
  0
MTEXT
  5
B7
330
1F
100
AcDbEntity
  8
0
  6
Continuous
 62
     7
370
     0
100
AcDbMText
 10
274.1458225539
 20
13.2559386876
 30
0.0
 40
3.175
 41
0.0
 71
     2
 72
     1
  1
A
  7
SLDTEXTSTYLE0
 73
     1
 44
1.0
  0
MTEXT
  5
B8
330
1F
100
AcDbEntity
  8
0
  6
Continuous
 62
     7
370
     0
100
AcDbMText
 10
234.5462226204
 20
5.1306563898
 30
0.0
 40
3.175
 41
0.0
 71
     2
 72
     1
  1
DMLP805L
  7
SLDTEXTSTYLE0
 73
     1
 44
1.0
  0
MTEXT
  5
B9
330
1F
100
AcDbEntity
  8
0
  6
Continuous
 62
     7
370
     0
100
AcDbMText
 10
216.4199766059
 20
16.8243178599
 30
0.0
 40
2.1166666667
 41
0.0
 71
     1
 72
     1
  1
MATERIAL
  7
SLDTEXTSTYLE0
 73
     1
 44
1.0
  0
MTEXT
  5
BA
330
1F
100
AcDbEntity
  8
0
  6
Continuous
 62
     7
370
     0
100
AcDbMText
 10
174.230946566
 20
20.054553926
 30
0.0
 40
1.8520833333
 41
0.0
 71
     1
 72
     1
  1
DRAWN
  7
SLDTEXTSTYLE0
 73
     1
 44
1.0
  0
MTEXT
  5
BB
330
1F
100
AcDbEntity
  8
0
  6
Continuous
 62
     7
370
     0
100
AcDbMText
 10
172.3960124543
 20
15.5787169747
 30
0.0
 40
1.8520833333
 41
0.0
 71
     1
 72
     1
  1
APPROVAL
  7
SLDTEXTSTYLE0
 73
     1
 44
1.0
  0
MTEXT
  5
BC
330
1F
100
AcDbEntity
  8
0
  6
Continuous
 62
     7
370
     0
100
AcDbMText
 10
271.7160653675
 20
16.1671746307
 30
0.0
 40
2.1166666667
 41
0.0
 71
     1
 72
     1
  1
REV
  7
SLDTEXTSTYLE0
 73
     1
 44
1.0
  0
MTEXT
  5
BD
330
1F
100
AcDbEntity
  8
0
  6
Continuous
 62
     7
370
     0
100
AcDbMText
 10
190.2958696448
 20
20.3177146903
 30
0.0
 40
2.1166666667
 41
0.0
 71
     1
 72
     1
  1
MG
  7
SLDTEXTSTYLE0
 73
     1
 44
1.0
  0
MTEXT
  5
BE
330
1F
100
AcDbEntity
  8
0
  6
Continuous
 62
     7
370
     0
100
AcDbMText
 10
190.2958696448
 20
15.841877739
 30
0.0
 40
2.1166666667
 41
0.0
 71
     1
 72
     1
  1
DD
  7
SLDTEXTSTYLE0
 73
     1
 44
1.0
  0
MTEXT
  5
BF
330
1F
100
AcDbEntity
  8
0
  6
Continuous
 62
     7
370
     0
100
AcDbMText
 10
199.8662436873
 20
20.3177146903
 30
0.0
 40
2.1166666667
 41
0.0
 71
     1
 72
     1
  1
18/MAY/16
  7
SLDTEXTSTYLE0
 73
     1
 44
1.0
  0
MTEXT
  5
C0
330
1F
100
AcDbEntity
  8
0
  6
Continuous
 62
     7
370
     0
100
AcDbMText
 10
203.6145073853
 20
24.8221395769
 30
0.0
 40
2.1166666667
 41
0.0
 71
     1
 72
     1
  1
DATE
  7
SLDTEXTSTYLE0
 73
     1
 44
1.0
  0
MTEXT
  5
C1
330
1F
100
AcDbEntity
  8
0
  6
Continuous
 62
     7
370
     0
100
AcDbMText
 10
199.8662436873
 20
15.841877739
 30
0.0
 40
2.1166666667
 41
0.0
 71
     1
 72
     1
  1
08/JUNE/16
  7
SLDTEXTSTYLE0
 73
     1
 44
1.0
  0
MTEXT
  5
C3
330
1F
100
AcDbEntity
  8
0
  6
Continuous
 62
     7
370
     0
100
AcDbMText
 10
229.402906477
 20
27.7957480569
 30
0.0
 40
2.1166666667
 41
0.0
 71
     1
 72
     1
  1
w w w . t h o r  l a b s . c o m
  7
SLDTEXTSTYLE2
 73
     1
 44
1.0
  0
MTEXT
  5
C4
330
1F
100
AcDbEntity
  8
0
  6
Continuous
 62
     7
370
     0
100
AcDbMText
 10
216.7004035316
 20
8.3494791871
 30
0.0
 40
2.1166666667
 41
0.0
 71
     1
 72
     1
  1
ITEM #
  7
SLDTEXTSTYLE0
 73
     1
 44
1.0
  0
MTEXT
  5
C5
330
1F
100
AcDbEntity
  8
0
  6
Continuous
 62
     7
370
     0
100
AcDbMText
 10
254.5318000914
 20
8.3494791871
 30
0.0
 40
2.1166666667
 41
0.0
 71
     1
 72
     1
  1
APPROX WEIGHT
  7
SLDTEXTSTYLE0
 73
     1
 44
1.0
  0
MTEXT
  5
C6
330
1F
100
AcDbEntity
  8
0
  6
Continuous
 62
     7
370
     0
100
AcDbMText
 10
243.4409424799
 20
13.8247651814
 30
0.0
 40
3.175
 41
0.0
 71
     2
 72
     1
  1
UV FUSED SILICA
  7
SLDTEXTSTYLE0
 73
     1
 44
1.0
  0
MTEXT
  5
C8
330
1F
100
AcDbEntity
  8
0
  6
Continuous
 62
     7
370
     0
100
AcDbMText
 10
266.2586154088
 20
5.1306563898
 30
0.0
 40
3.175
 41
0.0
 71
     2
 72
     1
  1
10 g
  7
SLDTEXTSTYLE3
 73
     1
 44
1.0
  0
INSERT
  5
CE
330
1F
100
AcDbEntity
  8
0
  6
Continuous
 62
     7
370
     0
100
AcDbBlockReference
  2
SW_NOTE_1
 10
174.8430140051
 20
4.4558554801
 30
0.0
  0
INSERT
  5
D4
330
1F
100
AcDbEntity
  8
0
  6
Continuous
 62
     7
370
     0
100
AcDbBlockReference
  2
SW_NOTE_2
 10
174.5483650337
 20
30.4835322715
 30
0.0
  0
MTEXT
  5
D5
330
1F
100
AcDbEntity
  8
0
  6
Continuous
 62
     7
370
     0
100
AcDbMText
 10
187.9273588276
 20
24.8221395769
 30
0.0
 40
2.1166666667
 41
0.0
 71
     1
 72
     1
  1
NAME
  7
SLDTEXTSTYLE0
 73
     1
 44
1.0
  0
INSERT
  5
DB
330
1F
100
AcDbEntity
  8
0
  6
Continuous
 62
     7
370
     0
100
AcDbBlockReference
  2
SW_NOTE_3
 10
58.6204667508
 20
8.1776609732
 30
0.0
  0
INSERT
  5
E2
330
1F
100
AcDbEntity
  8
0
  6
Continuous
 62
     7
370
     0
100
AcDbBlockReference
  2
SW_NOTE_4
 10
229.9346720245
 20
20.9611555011
 30
0.0
  0
MTEXT
  5
E3
330
1F
100
AcDbEntity
  8
0
  6
Continuous
 62
     7
370
     0
100
AcDbMText
 10
177.6925831922
 20
10.7142101515
 30
0.0
 40
1.5875
 41
0.0
 71
     1
 72
     1
  1
COPYRIGHT © 2016 BY THORLABS
  7
SLDTEXTSTYLE0
 73
     1
 44
1.0
  0
CIRCLE
  5
E4
330
1F
100
AcDbEntity
  8
0
  6
Continuous
 62
     7
370
    18
100
AcDbCircle
 10
83.7326460919
 20
101.1443830254
 30
0.0
 40
25.20000000000002
  0
CIRCLE
  5
E5
330
1F
100
AcDbEntity
  8
0
  6
Continuous
 62
     7
370
    18
100
AcDbCircle
 10
83.7326460919
 20
101.1443830254
 30
0.0
 40
25.39999999999999
  0
DIMENSION
  5
E6
330
1F
100
AcDbEntity
  8
0
  6
Continuous
 62
     7
370
    18
100
AcDbDimension
  2
_D
 10
100.5709900573
 20
82.1278067693
 30
0.0
 11
48.9932062789
 21
128.1927286213
 31
0.0
 70
   163
  1
<>
 71
     1
 42
-1.0
  3
SLDDIMSTYLE0
100
AcDbDiametricDimension
 15
66.8943021265
 25
120.1609592815
 35
0.0
 40
0.0
  0
LINE
  5
F7
330
1F
100
AcDbEntity
  8
0
  6
Continuous
 62
     7
370
    18
100
AcDbLine
 10
176.683464245
 20
75.7443833323
 30
0.0
 11
176.8834641381
 21
75.9443829926
 31
0.0
  0
LINE
  5
F8
330
1F
100
AcDbEntity
  8
0
  6
Continuous
 62
     7
370
    18
100
AcDbLine
 10
176.8834641381
 20
126.3443830582
 30
0.0
 11
176.683464245
 21
126.5443827184
 31
0.0
  0
LINE
  5
F9
330
1F
100
AcDbEntity
  8
0
  6
Continuous
 62
     7
370
    18
100
AcDbLine
 10
176.683464245
 20
126.5443827184
 30
0.0
 11
172.083464143
 21
126.5443827184
 31
0.0
  0
LINE
  5
FA
330
1F
100
AcDbEntity
  8
0
  6
Continuous
 62
     7
370
    18
100
AcDbLine
 10
172.083464143
 20
75.7443833323
 30
0.0
 11
176.683464245
 21
75.7443833323
 31
0.0
  0
LINE
  5
FB
330
1F
100
AcDbEntity
  8
0
  6
Continuous
 62
     7
370
    18
100
AcDbLine
 10
172.083464143
 20
126.5443827184
 30
0.0
 11
171.8834642499
 21
126.3443830582
 31
0.0
  0
LINE
  5
FC
330
1F
100
AcDbEntity
  8
0
  6
Continuous
 62
     7
370
    18
100
AcDbLine
 10
171.8834642499
 20
75.9443829926
 30
0.0
 11
172.083464143
 21
75.7443833323
 31
0.0
  0
LINE
  5
FD
330
1F
100
AcDbEntity
  8
0
  6
Continuous
 62
     7
370
    18
100
AcDbLine
 10
176.683464245
 20
101.1443830254
 30
0.0
 11
176.683464245
 21
126.5443827184
 31
0.0
  0
LINE
  5
FE
330
1F
100
AcDbEntity
  8
0
  6
Continuous
 62
     7
370
    18
100
AcDbLine
 10
176.683464245
 20
75.7443833323
 30
0.0
 11
176.683464245
 21
101.1443830254
 31
0.0
  0
LINE
  5
FF
330
1F
100
AcDbEntity
  8
0
  6
Continuous
 62
     7
370
    18
100
AcDbLine
 10
176.8834641381
 20
101.1443830254
 30
0.0
 11
176.8834641381
 21
75.9443829926
 31
0.0
  0
LINE
  5
100
330
1F
100
AcDbEntity
  8
0
  6
Continuous
 62
     7
370
    18
100
AcDbLine
 10
176.8834641381
 20
126.3443830582
 30
0.0
 11
176.8834641381
 21
101.1443830254
 31
0.0
  0
SPLINE
  5
101
330
1F
100
AcDbEntity
  8
0
  6
Continuous
 62
     7
370
    18
100
AcDbSpline
210
0.0
220
0.0
230
1.0
 70
     8
 71
     3
 72
    14
 73
    10
 74
     0
 42
0.000000001
 43
0.00000001
 40
0.0
 40
0.0
 40
0.0
 40
0.0
 40
0.0626217650531757
 40
0.1251990132228115
 40
0.2501813163236333
 40
0.4995074396535482
 40
0.7494904487996537
 40
0.8747327762471748
 40
1.0
 40
1.0
 40
1.0
 40
1.0
 10
173.2487340803595
 20
94.79598025497276
 30
0.0
 10
173.2586074781678
 20
94.82106783432818
 30
0.0
 10
173.2783472549325
 20
94.87122515865109
 30
0.0
 10
173.334829934952
 20
94.96396475811102
 30
0.0
 10
173.4659599716673
 20
95.10415307402465
 30
0.0
 10
173.711520319187
 20
95.23905376246259
 30
0.0
 10
173.9810285962292
 20
95.30527818712783
 30
0.0
 10
174.2013157846175
 20
95.32803645278587
 30
0.0
 10
174.312077451044
 20
95.32983311482333
 30
0.0
 10
174.3674637881517
 20
95.33073153512059
 30
0.0
  0
SPLINE
  5
102
330
1F
100
AcDbEntity
  8
0
  6
Continuous
 62
     7
370
    18
100
AcDbSpline
210
0.0
220
0.0
230
1.0
 70
     8
 71
     3
 72
    12
 73
     8
 74
     0
 42
0.000000001
 43
0.00000001
 40
0.0
 40
0.0
 40
0.0
 40
0.0
 40
0.2621725735953102
 40
0.5000451414054702
 40
0.7500435138363057
 40
0.8623175480748846
 40
1.0
 40
1.0
 40
1.0
 40
1.0
 10
173.2053391939958
 20
94.43468302610553
 30
0.0
 10
173.2056733190707
 20
94.46653921627204
 30
0.0
 10
173.2063106001486
 20
94.52729893990751
 30
0.0
 10
173.2126164402995
 20
94.6183723656518
 30
0.0
 10
173.2219017485439
 20
94.69098554292158
 30
0.0
 10
173.2348835087449
 20
94.75064516118731
 30
0.0
 10
173.2438146038232
 20
94.77987803649748
 30
0.0
 10
173.2487340803595
 20
94.79598025497276
 30
0.0
  0
LINE
  5
103
330
1F
100
AcDbEntity
  8
0
  6
Continuous
 62
     7
370
    18
100
AcDbLine
 10
173.205339158
 20
94.4346830407
 30
0.0
 11
173.205339158
 21
93.7981967041
 31
0.0
  0
LINE
  5
104
330
1F
100
AcDbEntity
  8
0
  6
Continuous
 62
     7
370
    18
100
AcDbLine
 10
175.5553392406
 20
93.7981967041
 30
0.0
 11
173.205339158
 21
93.7981967041
 31
0.0
  0
LINE
  5
105
330
1F
100
AcDbEntity
  8
0
  6
Continuous
 62
     7
370
    18
100
AcDbLine
 10
175.5553392406
 20
94.4641230786
 30
0.0
 11
175.5553392406
 21
93.7981967041
 31
0.0
  0
SPLINE
  5
106
330
1F
100
AcDbEntity
  8
0
  6
Continuous
 62
     7
370
    18
100
AcDbSpline
210
0.0
220
0.0
230
1.0
 70
     8
 71
     3
 72
    17
 73
    13
 74
     0
 42
0.000000001
 43
0.00000001
 40
0.0
 40
0.0
 40
0.0
 40
0.0
 40
0.0715329195103566
 40
0.1430591690150029
 40
0.2860138941746813
 40
0.4288985810183122
 40
0.5716632366539708
 40
0.6786548293666584
 40
0.7856023341411956
 40
0.8927162757733093
 40
0.9463530387336572
 40
1.0
 40
1.0
 40
1.0
 40
1.0
 10
174.3674637881517
 20
95.33073153512059
 30
0.0
 10
174.4077773407741
 20
95.33020646562358
 30
0.0
 10
174.4884006870277
 20
95.3291563755891
 30
0.0
 10
174.6492119950486
 20
95.31776889057146
 30
0.0
 10
174.8486576733794
 20
95.28593460862974
 30
0.0
 10
175.078605459201
 20
95.2107734419701
 30
0.0
 10
175.2736341307016
 20
95.10529913508753
 30
0.0
 10
175.4207874682029
 20
94.96853882383354
 30
0.0
 10
175.5065277949103
 20
94.81097327599018
 30
0.0
 10
175.5412926394009
 20
94.6678861332806
 30
0.0
 10
175.553693497272
 20
94.55166172419752
 30
0.0
 10
175.5547905936581
 20
94.49330458707732
 30
0.0
 10
175.5553391939958
 20
94.46412324482557
 30
0.0
  0
LINE
  5
107
330
1F
100
AcDbEntity
  8
0
  6
Continuous
 62
     7
370
    18
100
AcDbLine
 10
175.2806638662
 20
99.1263192305
 30
0.0
 11
175.2806638662
 21
98.1545146247
 31
0.0
  0
LINE
  5
108
330
1F
100
AcDbEntity
  8
0
  6
Continuous
 62
     7
370
    18
100
AcDbLine
 10
173.205339158
 20
98.1545146247
 30
0.0
 11
175.2806638662
 21
98.1545146247
 31
0.0
  0
LINE
  5
109
330
1F
100
AcDbEntity
  8
0
  6
Continuous
 62
     7
370
    18
100
AcDbLine
 10
173.205339158
 20
98.1545146247
 30
0.0
 11
173.205339158
 21
97.912197995
 31
0.0
  0
LINE
  5
10A
330
1F
100
AcDbEntity
  8
0
  6
Continuous
 62
     7
370
    18
100
AcDbLine
 10
175.5553392406
 20
97.912197995
 30
0.0
 11
173.205339158
 21
97.912197995
 31
0.0
  0
LINE
  5
10B
330
1F
100
AcDbEntity
  8
0
  6
Continuous
 62
     7
370
    18
100
AcDbLine
 10
175.5553392406
 20
99.1263192305
 30
0.0
 11
175.5553392406
 21
97.912197995
 31
0.0
  0
LINE
  5
10C
330
1F
100
AcDbEntity
  8
0
  6
Continuous
 62
     7
370
    18
100
AcDbLine
 10
175.2806638662
 20
99.1263192305
 30
0.0
 11
175.5553392406
 21
99.1263192305
 31
0.0
  0
SPLINE
  5
10D
330
1F
100
AcDbEntity
  8
0
  6
Continuous
 62
     7
370
    18
100
AcDbSpline
210
0.0
220
0.0
230
1.0
 70
     8
 71
     3
 72
    15
 73
    11
 74
     0
 42
0.000000001
 43
0.00000001
 40
0.0
 40
0.0
 40
0.0
 40
0.0
 40
0.1252841139165662
 40
0.2505070852029876
 40
0.3760311146737928
 40
0.5008012845320652
 40
0.749598052012992
 40
0.8746901554994341
 40
0.9373305165721222
 40
1.0
 40
1.0
 40
1.0
 40
1.0
 10
174.8729426842555
 20
102.3587917216236
 30
0.0
 10
174.9171552530392
 20
102.3573981379487
 30
0.0
 10
175.0055588134676
 20
102.3546116507121
 30
0.0
 10
175.135649872974
 20
102.3255487623553
 30
0.0
 10
175.2589978794392
 20
102.2753248452883
 30
0.0
 10
175.4051782491748
 20
102.1762901629248
 30
0.0
 10
175.5215517049751
 20
102.0360057031332
 30
0.0
 10
175.5704979430075
 20
101.8886492222813
 30
0.0
 10
175.5836939233915
 20
101.8012267071205
 30
0.0
 10
175.5851369790173
 20
101.757067584472
 30
0.0
 10
175.5858586745153
 20
101.7349828917965
 30
0.0
  0
SPLINE
  5
10E
330
1F
100
AcDbEntity
  8
0
  6
Continuous
 62
     7
370
    18
100
AcDbSpline
210
0.0
220
0.0
230
1.0
 70
     8
 71
     3
 72
    14
 73
    10
 74
     0
 42
0.000000001
 43
0.00000001
 40
0.0
 40
0.0
 40
0.0
 40
0.0
 40
0.1251722752078368
 40
0.2502885141552955
 40
0.4995095678191186
 40
0.6994085768239738
 40
0.8196182390316747
 40
0.9098065849270622
 40
1.0
 40
1.0
 40
1.0
 40
1.0
 10
174.2658911420478
 20
101.984760971993
 30
0.0
 10
174.2784743651906
 20
102.0140158627521
 30
0.0
 10
174.3036351783057
 20
102.0725125476428
 30
0.0
 10
174.3765394839371
 20
102.1771927814561
 30
0.0
 10
174.4903273093585
 20
102.2735027059364
 30
0.0
 10
174.6259101858173
 20
102.3284048560799
 30
0.0
 10
174.7282573495219
 20
102.348833704772
 30
0.0
 10
174.8041895457872
 20
102.3577454613352
 30
0.0
 10
174.8500245420735
 20
102.3584429616603
 30
0.0
 10
174.8729426842555
 20
102.3587917216236
 30
0.0
  0
SPLINE
  5
10F
330
1F
100
AcDbEntity
  8
0
  6
Continuous
 62
     7
370
    18
100
AcDbSpline
210
0.0
220
0.0
230
1.0
 70
     8
 71
     3
 72
    13
 73
     9
 74
     0
 42
0.000000001
 43
0.00000001
 40
0.0
 40
0.0
 40
0.0
 40
0.0
 40
0.1252838370402061
 40
0.2504981476881942
 40
0.5001334407371357
 40
0.7495724394556526
 40
0.8747369592469041
 40
1.0
 40
1.0
 40
1.0
 40
1.0
 10
173.7918854602296
 20
102.2673302961746
 30
0.0
 10
173.8163685167977
 20
102.266738786096
 30
0.0
 10
173.8653210430368
 20
102.2655560941977
 30
0.0
 10
173.9619620721141
 20
102.2502524237761
 30
0.0
 10
174.0786363884694
 20
102.2084478635234
 30
0.0
 10
174.1741250610414
 20
102.1287862986353
 30
0.0
 10
174.2328897370466
 20
102.0503858262755
 30
0.0
 10
174.2548877889554
 20
102.0066416598995
 30
0.0
 10
174.2658911420478
 20
101.984760971993
 30
0.0
  0
SPLINE
  5
110
330
1F
100
AcDbEntity
  8
0
  6
Continuous
 62
     7
370
    18
100
AcDbSpline
210
0.0
220
0.0
230
1.0
 70
     8
 71
     3
 72
    14
 73
    10
 74
     0
 42
0.000000001
 43
0.00000001
 40
0.0
 40
0.0
 40
0.0
 40
0.0
 40
0.0627497987395053
 40
0.1254763942149494
 40
0.2506993362379427
 40
0.4997191914055459
 40
0.7491763858690802
 40
0.8745623231220259
 40
1.0
 40
1.0
 40
1.0
 40
1.0
 10
173.1748197134764
 20
101.7311689815034
 30
0.0
 10
173.1754082443898
 20
101.7502397822542
 30
0.0
 10
173.1765850885932
 20
101.7883743318635
 30
0.0
 10
173.1883259652043
 20
101.8637844403615
 30
0.0
 10
173.2300458907858
 20
101.9911510617311
 30
0.0
 10
173.3559949419192
 20
102.1420210654845
 30
0.0
 10
173.527912938443
 20
102.2317014612204
 30
0.0
 10
173.6774463175304
 20
102.2633710091628
 30
0.0
 10
173.7537338338277
 20
102.2660103523571
 30
0.0
 10
173.7918854602296
 20
102.2673302961746
 30
0.0
  0
SPLINE
  5
111
330
1F
100
AcDbEntity
  8
0
  6
Continuous
 62
     7
370
    18
100
AcDbSpline
210
0.0
220
0.0
230
1.0
 70
     8
 71
     3
 72
    13
 73
     9
 74
     0
 42
0.000000001
 43
0.00000001
 40
0.0
 40
0.0
 40
0.0
 40
0.0
 40
0.1254553128248263
 40
0.2508793287066819
 40
0.500341562956352
 40
0.7493812872861663
 40
0.8746368118422037
 40
1.0
 40
1.0
 40
1.0
 40
1.0
 10
173.7823481225672
 20
101.1995145700618
 30
0.0
 10
173.7446584421253
 20
101.2008344520669
 30
0.0
 10
173.6692884835677
 20
101.2034738868103
 30
0.0
 10
173.5216699122663
 20
101.2348623078758
 30
0.0
 10
173.3513719096558
 20
101.3237821063717
 30
0.0
 10
173.2300020605878
 20
101.4744839017143
 30
0.0
 10
173.1806227939897
 20
101.618032645765
 30
0.0
 10
173.1767546275576
 20
101.6934460706086
 30
0.0
 10
173.1748197134764
 20
101.7311689815034
 30
0.0
  0
SPLINE
  5
112
330
1F
100
AcDbEntity
  8
0
  6
Continuous
 62
     7
370
    18
100
AcDbSpline
210
0.0
220
0.0
230
1.0
 70
     8
 71
     3
 72
    13
 73
     9
 74
     0
 42
0.000000001
 43
0.00000001
 40
0.0
 40
0.0
 40
0.0
 40
0.0
 40
0.1252652004268839
 40
0.2504281250300088
 40
0.499811149021703
 40
0.7494995238852705
 40
0.8747149562634904
 40
1.0
 40
1.0
 40
1.0
 40
1.0
 10
174.2658911420478
 20
101.4851476532993
 30
0.0
 10
174.2546845994192
 20
101.4628576469071
 30
0.0
 10
174.2322806640169
 20
101.4182958333414
 30
0.0
 10
174.1729107521072
 20
101.3380540809248
 30
0.0
 10
174.0749008192664
 20
101.2574322225576
 30
0.0
 10
173.9556134109169
 20
101.2163420691714
 30
0.0
 10
173.8571438434369
 20
101.2011079163088
 30
0.0
 10
173.8072846479666
 20
101.2000457838625
 30
0.0
 10
173.7823481225672
 20
101.1995145700618
 30
0.0
  0
SPLINE
  5
113
330
1F
100
AcDbEntity
  8
0
  6
Continuous
 62
     7
370
    18
100
AcDbSpline
210
0.0
220
0.0
230
1.0
 70
     8
 71
     3
 72
    13
 73
     9
 74
     0
 42
0.000000001
 43
0.00000001
 40
0.0
 40
0.0
 40
0.0
 40
0.0
 40
0.1432260789099398
 40
0.286425288331576
 40
0.571262151704933
 40
0.7852720742320178
 40
0.8926053546904282
 40
1.0
 40
1.0
 40
1.0
 40
1.0
 10
174.8648359472426
 20
101.1079561842795
 30
0.0
 10
174.8284860775276
 20
101.1089317319631
 30
0.0
 10
174.7557931574034
 20
101.1108826443156
 30
0.0
 10
174.6129442130408
 20
101.136881782889
 30
0.0
 10
174.4597704500682
 20
101.2032230567802
 30
0.0
 10
174.3491034487867
 20
101.3140672309862
 30
0.0
 10
174.2931982316419
 20
101.4080109965412
 30
0.0
 10
174.2749952392602
 20
101.4594305361622
 30
0.0
 10
174.2658911420478
 20
101.4851476532993
 30
0.0
  0
SPLINE
  5
114
330
1F
100
AcDbEntity
  8
0
  6
Continuous
 62
     7
370
    18
100
AcDbSpline
210
0.0
220
0.0
230
1.0
 70
     8
 71
     3
 72
    16
 73
    12
 74
     0
 42
0.000000001
 43
0.00000001
 40
0.0
 40
0.0
 40
0.0
 40
0.0
 40
0.0625809129198701
 40
0.1251336679627174
 40
0.2500432061260331
 40
0.3927107734020526
 40
0.4998705881986995
 40
0.6231069249152817
 40
0.7498543452301808
 40
0.8749026956027908
 40
1.0
 40
1.0
 40
1.0
 40
1.0
 10
175.5858586745153
 20
101.7349828917965
 30
0.0
 10
175.585145720441
 20
101.7126797397451
 30
0.0
 10
175.5837201330816
 20
101.6680834708014
 30
0.0
 10
175.5705708909837
 20
101.579769987673
 30
0.0
 10
175.5331472133737
 20
101.4669300596846
 30
0.0
 10
175.4580288646898
 20
101.3544765342017
 30
0.0
 10
175.3624468414841
 20
101.261280613328
 30
0.0
 10
175.2558234056825
 20
101.1900242885331
 30
0.0
 10
175.1308910310734
 20
101.1402513361599
 30
0.0
 10
174.9986735376874
 20
101.1126359470654
 30
0.0
 10
174.9094542975211
 20
101.1095163087147
 30
0.0
 10
174.8648359472426
 20
101.1079561842795
 30
0.0
  0
SPLINE
  5
115
330
1F
100
AcDbEntity
  8
0
  6
Continuous
 62
     7
370
    18
100
AcDbSpline
210
0.0
220
0.0
230
1.0
 70
     8
 71
     3
 72
    14
 73
    10
 74
     0
 42
0.000000001
 43
0.00000001
 40
0.0
 40
0.0
 40
0.0
 40
0.0
 40
0.0627133465055531
 40
0.1254006899987359
 40
0.2504473324746774
 40
0.4996124580573731
 40
0.7491976161721003
 40
0.8745628053037982
 40
1.0
 40
1.0
 40
1.0
 40
1.0
 10
173.9988456875023
 20
104.7645995284183
 30
0.0
 10
173.9997148464118
 20
104.7863908381311
 30
0.0
 10
174.0014528038491
 20
104.8299644221643
 30
0.0
 10
174.0193326638301
 20
104.9154986492707
 30
0.0
 10
174.0830416996982
 20
105.0553556822181
 30
0.0
 10
174.2434894587395
 20
105.2131860247621
 30
0.0
 10
174.4493606831187
 20
105.2985172905304
 30
0.0
 10
174.6230462085263
 20
105.3274515703117
 30
0.0
 10
174.7111113510683
 20
105.3297981085249
 30
0.0
 10
174.7551565641257
 20
105.3309717144779
 30
0.0
  0
SPLINE
  5
116
330
1F
100
AcDbEntity
  8
0
  6
Continuous
 62
     7
370
    18
100
AcDbSpline
210
0.0
220
0.0
230
1.0
 70
     8
 71
     3
 72
    11
 73
     7
 74
     0
 42
0.000000001
 43
0.00000001
 40
0.0
 40
0.0
 40
0.0
 40
0.0
 40
0.250076932083182
 40
0.5000174317493266
 40
0.7499383126224671
 40
0.9999999999999999
 40
0.9999999999999999
 40
0.9999999999999999
 40
0.9999999999999999
 10
174.0908809959438
 20
104.4197114711542
 30
0.0
 10
174.0770483844721
 20
104.4465144656919
 30
0.0
 10
174.0493907080728
 20
104.5001058320778
 30
0.0
 10
174.0202170414281
 20
104.5858031401699
 30
0.0
 10
174.0021188175248
 20
104.6744759586661
 30
0.0
 10
173.9999369356657
 20
104.7345526988404
 30
0.0
 10
173.9988456875023
 20
104.7645995284183
 30
0.0
  0
SPLINE
  5
117
330
1F
100
AcDbEntity
  8
0
  6
Continuous
 62
     7
370
    18
100
AcDbSpline
210
0.0
220
0.0
230
1.0
 70
     8
 71
     3
 72
     8
 73
     4
 74
     0
 42
0.000000001
 43
0.00000001
 40
0.0
 40
0.0
 40
0.0
 40
0.0
 40
1.0
 40
1.0
 40
1.0
 40
1.0
 10
173.5105339991906
 20
104.5071753701633
 30
0.0
 10
173.7039829981084
 20
104.4780274396775
 30
0.0
 10
173.8974319970261
 20
104.448872748057
 30
0.0
 10
174.0908809959438
 20
104.4197114711542
 30
0.0
  0
LINE
  5
118
330
1F
100
AcDbEntity
  8
0
  6
Continuous
 62
     7
370
    18
100
AcDbLine
 10
173.5105339732
 20
105.2406386631
 30
0.0
 11
173.5105339732
 21
104.5071753366
 31
0.0
  0
LINE
  5
119
330
1F
100
AcDbEntity
  8
0
  6
Continuous
 62
     7
370
    18
100
AcDbLine
 10
173.2358587152
 20
105.2406386631
 30
0.0
 11
173.5105339732
 21
105.2406386631
 31
0.0
  0
LINE
  5
11A
330
1F
100
AcDbEntity
  8
0
  6
Continuous
 62
     7
370
    18
100
AcDbLine
 10
173.2358587152
 20
105.2406386631
 30
0.0
 11
173.2358587152
 21
104.3042934658
 31
0.0
  0
SPLINE
  5
11B
330
1F
100
AcDbEntity
  8
0
  6
Continuous
 62
     7
370
    18
100
AcDbSpline
210
0.0
220
0.0
230
1.0
 70
     8
 71
     3
 72
     8
 73
     4
 74
     0
 42
0.000000001
 43
0.00000001
 40
0.0
 40
0.0
 40
0.0
 40
0.0
 40
1.0
 40
1.0
 40
1.0
 40
1.0
 10
174.4399475543854
 20
104.1225185634828
 30
0.0
 10
174.0385845944287
 20
104.18313650815
 30
0.0
 10
173.637221634472
 20
104.2437286549099
 30
0.0
 10
173.2358586745153
 20
104.3042934291552
 30
0.0
  0
SPLINE
  5
11C
330
1F
100
AcDbEntity
  8
0
  6
Continuous
 62
     7
370
    18
100
AcDbSpline
210
0.0
220
0.0
230
1.0
 70
     8
 71
     3
 72
     8
 73
     4
 74
     0
 42
0.000000001
 43
0.00000001
 40
0.0
 40
0.0
 40
0.0
 40
0.0
 40
1.0
 40
1.0
 40
1.0
 40
1.0
 10
174.4747588368529
 20
104.3648490209789
 30
0.0
 10
174.4631550760304
 20
104.2841205528213
 30
0.0
 10
174.4515513152079
 20
104.2033424897057
 30
0.0
 10
174.4399475543854
 20
104.1225185634828
 30
0.0
  0
SPLINE
  5
11D
330
1F
100
AcDbEntity
  8
0
  6
Continuous
 62
     7
370
    18
100
AcDbSpline
210
0.0
220
0.0
230
1.0
 70
     8
 71
     3
 72
    13
 73
     9
 74
     0
 42
0.000000001
 43
0.00000001
 40
0.0
 40
0.0
 40
0.0
 40
0.0
 40
0.1251857732062539
 40
0.2502844631579685
 40
0.4998384123132149
 40
0.7496104912811689
 40
0.8747712753911109
 40
1.0
 40
1.0
 40
1.0
 40
1.0
 10
174.2430015316581
 20
104.6970907879059
 30
0.0
 10
174.2438028993353
 20
104.679319732565
 30
0.0
 10
174.2454050772326
 20
104.6437899840015
 30
0.0
 10
174.263453117155
 20
104.5747651579838
 30
0.0
 10
174.3052605713918
 20
104.4949280647708
 30
0.0
 10
174.3684418353657
 20
104.4306430176821
 30
0.0
 10
174.4270191152575
 20
104.3895067878836
 30
0.0
 10
174.4588427179904
 20
104.3730697632837
 30
0.0
 10
174.4747588368529
 20
104.3648490209789
 30
0.0
  0
SPLINE
  5
11E
330
1F
100
AcDbEntity
  8
0
  6
Continuous
 62
     7
370
    18
100
AcDbSpline
210
0.0
220
0.0
230
1.0
 70
     8
 71
     3
 72
    14
 73
    10
 74
     0
 42
0.000000001
 43
0.00000001
 40
0.0
 40
0.0
 40
0.0
 40
0.0
 40
0.1253753764942678
 40
0.2507116442999264
 40
0.3759843889713705
 40
0.5011455318268822
 40
0.7498422054561047
 40
0.8748658854891889
 40
0.9999999999999999
 40
0.9999999999999999
 40
0.9999999999999999
 40
0.9999999999999999
 10
174.768508836853
 20
105.0899655780192
 30
0.0
 10
174.7377157575955
 20
105.0891326453155
 30
0.0
 10
174.676139204451
 20
105.087467039727
 30
0.0
 10
174.5844594035209
 20
105.074244253934
 30
0.0
 10
174.4958735132909
 20
105.0472533782085
 30
0.0
 10
174.3858712703466
 20
104.9926931826285
 30
0.0
 10
174.2963542662496
 20
104.9025370693492
 30
0.0
 10
174.2489103861895
 20
104.7886785700857
 30
0.0
 10
174.2449717294208
 20
104.7276290322606
 30
0.0
 10
174.2430015316581
 20
104.6970907879059
 30
0.0
  0
SPLINE
  5
11F
330
1F
100
AcDbEntity
  8
0
  6
Continuous
 62
     7
370
    18
100
AcDbSpline
210
0.0
220
0.0
230
1.0
 70
     8
 71
     3
 72
    16
 73
    12
 74
     0
 42
0.000000001
 43
0.00000001
 40
0.0
 40
0.0
 40
0.0
 40
0.0
 40
0.0625610874929177
 40
0.1250928754982008
 40
0.249769864765194
 40
0.3746545436190625
 40
0.4996400329585018
 40
0.6246834970050275
 40
0.7497226164574321
 40
0.8748534373134452
 40
1.0
 40
1.0
 40
1.0
 40
1.0
 10
175.3417028303594
 20
104.6909523525973
 30
0.0
 10
175.3410794774986
 20
104.7070471745954
 30
0.0
 10
175.3398330637143
 20
104.7392292808384
 30
0.0
 10
175.3251154879181
 20
104.8020575715774
 30
0.0
 10
175.2887983854693
 20
104.8751346671651
 30
0.0
 10
175.2228660994328
 20
104.9468099060776
 30
0.0
 10
175.1452675532184
 20
105.0058427028123
 30
0.0
 10
175.0564063091086
 20
105.0466144743523
 30
0.0
 10
174.9626840039907
 20
105.073712828459
 30
0.0
 10
174.865949675228
 20
105.0874576897403
 30
0.0
 10
174.8009904782358
 20
105.089129580207
 30
0.0
 10
174.768508836853
 20
105.0899655780192
 30
0.0
  0
SPLINE
  5
120
330
1F
100
AcDbEntity
  8
0
  6
Continuous
 62
     7
370
    18
100
AcDbSpline
210
0.0
220
0.0
230
1.0
 70
     8
 71
     3
 72
    14
 73
    10
 74
     0
 42
0.000000001
 43
0.00000001
 40
0.0
 40
0.0
 40
0.0
 40
0.0
 40
0.1377979488013923
 40
0.2504541919851013
 40
0.5001429767152996
 40
0.6430016293616332
 40
0.7857787203852459
 40
0.892846763617507
 40
1.0
 40
1.0
 40
1.0
 40
1.0
 10
174.8839106225672
 20
104.3345735279582
 30
0.0
 10
174.9129278023739
 20
104.3387576164096
 30
0.0
 10
174.9656678785898
 20
104.3463623921077
 30
0.0
 10
175.0691036084625
 20
104.3707700207549
 30
0.0
 10
175.1702583226871
 20
104.4121659090615
 30
0.0
 10
175.2584988281006
 20
104.4849682595576
 30
0.0
 10
175.3090942640902
 20
104.5519751085637
 30
0.0
 10
175.3370609232218
 20
104.6231174651853
 30
0.0
 10
175.3401551178059
 20
104.6683347293446
 30
0.0
 10
175.3417028303594
 20
104.6909523525973
 30
0.0
  0
SPLINE
  5
121
330
1F
100
AcDbEntity
  8
0
  6
Continuous
 62
     7
370
    18
100
AcDbSpline
210
0.0
220
0.0
230
1.0
 70
     8
 71
     3
 72
     8
 73
     4
 74
     0
 42
0.000000001
 43
0.00000001
 40
0.0
 40
0.0
 40
0.0
 40
0.0
 40
1.0
 40
1.0
 40
1.0
 40
1.0
 10
174.9144301030867
 20
104.0922074486264
 30
0.0
 10
174.9042569429135
 20
104.1730427821882
 30
0.0
 10
174.8940837827404
 20
104.2538327194318
 30
0.0
 10
174.8839106225672
 20
104.3345735279582
 30
0.0
  0
SPLINE
  5
122
330
1F
100
AcDbEntity
  8
0
  6
Continuous
 62
     7
370
    18
100
AcDbSpline
210
0.0
220
0.0
230
1.0
 70
     8
 71
     3
 72
    15
 73
    11
 74
     0
 42
0.000000001
 43
0.00000001
 40
0.0
 40
0.0
 40
0.0
 40
0.0
 40
0.0626620904673415
 40
0.1252926296738054
 40
0.2503789947396946
 40
0.4991573193917617
 40
0.6218210237251726
 40
0.7494608068978317
 40
0.8747179529641239
 40
1.0
 40
1.0
 40
1.0
 40
1.0
 10
175.5858586745153
 20
104.6933133142759
 30
0.0
 10
175.5852546873052
 20
104.6725899271636
 30
0.0
 10
175.5840470170012
 20
104.6311535874614
 30
0.0
 10
175.5714623833684
 20
104.5490896899277
 30
0.0
 10
175.5252358671096
 20
104.4107296203866
 30
0.0
 10
175.4165051548563
 20
104.2785097735574
 30
0.0
 10
175.2783462175707
 20
104.1848889774694
 30
0.0
 10
175.1620829424504
 20
104.1363783058628
 30
0.0
 10
175.0393830602351
 20
104.1049349109835
 30
0.0
 10
174.9560838484923
 20
104.0964502171753
 30
0.0
 10
174.9144301030867
 20
104.0922074486264
 30
0.0
  0
SPLINE
  5
123
330
1F
100
AcDbEntity
  8
0
  6
Continuous
 62
     7
370
    18
100
AcDbSpline
210
0.0
220
0.0
230
1.0
 70
     8
 71
     3
 72
    14
 73
    10
 74
     0
 42
0.000000001
 43
0.00000001
 40
0.0
 40
0.0
 40
0.0
 40
0.0
 40
0.125450821766121
 40
0.2508652089522926
 40
0.5007660647446124
 40
0.7494481876001373
 40
0.874548564185708
 40
0.9372586901485975
 40
1.0
 40
1.0
 40
1.0
 40
1.0
 10
174.7551565641257
 20
105.3309717144779
 30
0.0
 10
174.8041087498297
 20
105.3294586796834
 30
0.0
 10
174.9019989040944
 20
105.3264330495239
 30
0.0
 10
175.0944352544452
 20
105.2892882290312
 30
0.0
 10
175.3206914487343
 20
105.1932465516285
 30
0.0
 10
175.50465773093
 20
105.0209216585978
 30
0.0
 10
175.5666321745525
 20
104.8614631868408
 30
0.0
 10
175.58368742718
 20
104.7660156659891
 30
0.0
 10
175.5851348054769
 20
104.717551447152
 30
0.0
 10
175.5858586745153
 20
104.6933133142759
 30
0.0
  0
SPLINE
  5
124
330
1F
100
AcDbEntity
  8
0
  6
Continuous
 62
     7
370
    18
100
AcDbSpline
210
0.0
220
0.0
230
1.0
 70
     8
 71
     3
 72
    11
 73
     7
 74
     0
 42
0.000000001
 43
0.00000001
 40
0.0
 40
0.0
 40
0.0
 40
0.0
 40
0.4999543933284777
 40
0.7499015403201023
 40
0.874945834261476
 40
0.9999999999999999
 40
0.9999999999999999
 40
0.9999999999999999
 40
0.9999999999999999
 10
175.5796594050348
 20
108.2740089439142
 30
0.0
 10
175.6776867294384
 20
108.1714334546621
 30
0.0
 10
175.8247218241285
 20
108.0175763860659
 30
0.0
 10
176.0257457715785
 20
107.8680070802631
 30
0.0
 10
176.1487544439516
 20
107.7943141414161
 30
0.0
 10
176.213478923556
 20
107.7630515947122
 30
0.0
 10
176.2458424407491
 20
107.7474197043682
 30
0.0
  0
LINE
  5
125
330
1F
100
AcDbEntity
  8
0
  6
Continuous
 62
     7
370
    18
100
AcDbLine
 10
175.4556739881
 20
108.2740089083
 30
0.0
 11
175.579659449
 21
108.2740089083
 31
0.0
  0
SPLINE
  5
126
330
1F
100
AcDbEntity
  8
0
  6
Continuous
 62
     7
370
    18
100
AcDbSpline
210
0.0
220
0.0
230
1.0
 70
     8
 71
     3
 72
    12
 73
     8
 74
     0
 42
0.000000001
 43
0.00000001
 40
0.0
 40
0.0
 40
0.0
 40
0.0
 40
0.1428486546064052
 40
0.2857137848888081
 40
0.4999809151670454
 40
0.7499794168908097
 40
1.0
 40
1.0
 40
1.0
 40
1.0
 10
175.7727904926971
 20
107.7952961379959
 30
0.0
 10
175.7537368730656
 20
107.8153776670865
 30
0.0
 10
175.7156274362231
 20
107.8555430414026
 30
0.0
 10
175.6562373573246
 20
107.9316951281531
 30
0.0
 10
175.5900952716613
 20
108.0280347623897
 30
0.0
 10
175.5199646804697
 20
108.1458934401266
 30
0.0
 10
175.4771048680181
 20
108.2313025187325
 30
0.0
 10
175.4556740154244
 20
108.2740089439142
 30
0.0
  0
LINE
  5
127
330
1F
100
AcDbEntity
  8
0
  6
Continuous
 62
     7
370
    18
100
AcDbLine
 10
173.4003777794
 20
107.7952960665
 30
0.0
 11
175.7727904889
 21
107.7952960665
 31
0.0
  0
LINE
  5
128
330
1F
100
AcDbEntity
  8
0
  6
Continuous
 62
     7
370
    18
100
AcDbLine
 10
173.4003777794
 20
107.7952960665
 30
0.0
 11
173.4003777794
 21
107.6382229263
 31
0.0
  0
LINE
  5
129
330
1F
100
AcDbEntity
  8
0
  6
Continuous
 62
     7
370
    18
100
AcDbLine
 10
175.7727904889
 20
107.6382229263
 30
0.0
 11
173.4003777794
 21
107.6382229263
 31
0.0
  0
SPLINE
  5
12A
330
1F
100
AcDbEntity
  8
0
  6
Continuous
 62
     7
370
    18
100
AcDbSpline
210
0.0
220
0.0
230
1.0
 70
     8
 71
     3
 72
    11
 73
     7
 74
     0
 42
0.000000001
 43
0.00000001
 40
0.0
 40
0.0
 40
0.0
 40
0.0
 40
0.2500305180632262
 40
0.5000067443424676
 40
0.7035402666144872
 40
1.0
 40
1.0
 40
1.0
 40
1.0
 10
175.4585352167231
 20
107.1561662197858
 30
0.0
 10
175.4806928080339
 20
107.1987842445686
 30
0.0
 10
175.5250031793421
 20
107.2840110400296
 30
0.0
 10
175.5902786072311
 20
107.4025927671888
 30
0.0
 10
175.6764523001298
 20
107.518811014707
 30
0.0
 10
175.7369310066053
 20
107.5937748218538
 30
0.0
 10
175.7727904926971
 20
107.6382229219608
 30
0.0
  0
LINE
  5
12B
330
1F
100
AcDbEntity
  8
0
  6
Continuous
 62
     7
370
    18
100
AcDbLine
 10
175.5810899605
 20
107.1561661707
 30
0.0
 11
175.4585352438
 21
107.1561661707
 31
0.0
  0
SPLINE
  5
12C
330
1F
100
AcDbEntity
  8
0
  6
Continuous
 62
     7
370
    18
100
AcDbSpline
210
0.0
220
0.0
230
1.0
 70
     8
 71
     3
 72
    11
 73
     7
 74
     0
 42
0.000000001
 43
0.00000001
 40
0.0
 40
0.0
 40
0.0
 40
0.0
 40
0.1428778200382746
 40
0.2857522926218053
 40
0.5000376817880715
 40
1.0
 40
1.0
 40
1.0
 40
1.0
 10
176.2458424407491
 20
107.6755579113804
 30
0.0
 10
176.2088351630357
 20
107.6585261426815
 30
0.0
 10
176.1348214746448
 20
107.6244630043174
 30
0.0
 10
176.0148604171257
 20
107.5481610585349
 30
0.0
 10
175.819701524495
 20
107.4031615519436
 30
0.0
 10
175.6793405270787
 20
107.257868854627
 30
0.0
 10
175.5810900056841
 20
107.1561662197858
 30
0.0
  0
LINE
  5
12D
330
1F
100
AcDbEntity
  8
0
  6
Continuous
 62
     7
370
    18
100
AcDbLine
 10
176.2458424029
 20
107.7474195669
 30
0.0
 11
176.2458424029
 21
107.6755577857
 31
0.0
  0
LINE
  5
12E
330
1F
100
AcDbEntity
  8
0
  6
Continuous
 62
     7
370
    18
100
AcDbLine
 10
172.083464143
 20
101.1443830254
 30
0.0
 11
172.083464143
 21
75.7443833323
 31
0.0
  0
LINE
  5
12F
330
1F
100
AcDbEntity
  8
0
  6
Continuous
 62
     7
370
    18
100
AcDbLine
 10
172.083464143
 20
126.5443827184
 30
0.0
 11
172.083464143
 21
101.1443830254
 31
0.0
  0
LINE
  5
130
330
1F
100
AcDbEntity
  8
0
  6
Continuous
 62
     7
370
    18
100
AcDbLine
 10
175.2806638662
 20
106.8573578419
 30
0.0
 11
175.2806638662
 21
105.9017701233
 31
0.0
  0
LINE
  5
131
330
1F
100
AcDbEntity
  8
0
  6
Continuous
 62
     7
370
    18
100
AcDbLine
 10
173.205339158
 20
105.9017701233
 30
0.0
 11
175.2806638662
 21
105.9017701233
 31
0.0
  0
LINE
  5
132
330
1F
100
AcDbEntity
  8
0
  6
Continuous
 62
     7
370
    18
100
AcDbLine
 10
173.205339158
 20
105.9017701233
 30
0.0
 11
173.205339158
 21
105.6617189357
 31
0.0
  0
LINE
  5
133
330
1F
100
AcDbEntity
  8
0
  6
Continuous
 62
     7
370
    18
100
AcDbLine
 10
175.5553392406
 20
105.6617189357
 30
0.0
 11
173.205339158
 21
105.6617189357
 31
0.0
  0
LINE
  5
134
330
1F
100
AcDbEntity
  8
0
  6
Continuous
 62
     7
370
    18
100
AcDbLine
 10
175.5553392406
 20
106.8573578419
 30
0.0
 11
175.5553392406
 21
105.6617189357
 31
0.0
  0
LINE
  5
135
330
1F
100
AcDbEntity
  8
0
  6
Continuous
 62
     7
370
    18
100
AcDbLine
 10
175.2806638662
 20
106.8573578419
 30
0.0
 11
175.5553392406
 21
106.8573578419
 31
0.0
  0
SPLINE
  5
136
330
1F
100
AcDbEntity
  8
0
  6
Continuous
 62
     7
370
    18
100
AcDbSpline
210
0.0
220
0.0
230
1.0
 70
     8
 71
     3
 72
    12
 73
     8
 74
     0
 42
0.000000001
 43
0.00000001
 40
0.0
 40
0.0
 40
0.0
 40
0.0
 40
0.1249944231638769
 40
0.2499890121454629
 40
0.4998659696244154
 40
0.7499135593620972
 40
1.0
 40
1.0
 40
1.0
 40
1.0
 10
173.4227904926971
 20
103.6588836004961
 30
0.0
 10
173.4586042077419
 20
103.6793053350704
 30
0.0
 10
173.530231685342
 20
103.7201488313104
 30
0.0
 10
173.6858792862445
 20
103.7758499203226
 30
0.0
 10
173.8876490542453
 20
103.8198325642603
 30
0.0
 10
174.1339205997256
 20
103.8460792395666
 30
0.0
 10
174.298831214944
 20
103.8484056833814
 30
0.0
 10
174.381292927762
 20
103.8495689956491
 30
0.0
  0
SPLINE
  5
137
330
1F
100
AcDbEntity
  8
0
  6
Continuous
 62
     7
370
    18
100
AcDbSpline
210
0.0
220
0.0
230
1.0
 70
     8
 71
     3
 72
    13
 73
     9
 74
     0
 42
0.000000001
 43
0.00000001
 40
0.0
 40
0.0
 40
0.0
 40
0.0
 40
0.1251997679052456
 40
0.2503372878808424
 40
0.4998911747935266
 40
0.7496238029530076
 40
0.8747841606148099
 40
1.0
 40
1.0
 40
1.0
 40
1.0
 10
173.1748197134764
 20
103.2281461969038
 30
0.0
 10
173.1754563877323
 20
103.2498576084264
 30
0.0
 10
173.1767294196969
 20
103.2932696367999
 30
0.0
 10
173.1930715867557
 20
103.3785628440757
 30
0.0
 10
173.2335147409449
 20
103.480588209219
 30
0.0
 10
173.3031614671768
 20
103.5653448975874
 30
0.0
 10
173.3686643372627
 20
103.622443957176
 30
0.0
 10
173.4047457757489
 20
103.6467352584583
 30
0.0
 10
173.4227904926971
 20
103.6588836004961
 30
0.0
  0
SPLINE
  5
138
330
1F
100
AcDbEntity
  8
0
  6
Continuous
 62
     7
370
    18
100
AcDbSpline
210
0.0
220
0.0
230
1.0
 70
     8
 71
     3
 72
    16
 73
    12
 74
     0
 42
0.000000001
 43
0.00000001
 40
0.0
 40
0.0
 40
0.0
 40
0.0
 40
0.125169605889923
 40
0.2503305803863827
 40
0.5002344284267309
 40
0.6344692268565069
 40
0.7499992257119569
 40
0.8127385779135675
 40
0.874972216178242
 40
0.9374591980871736
 40
1.0
 40
1.0
 40
1.0
 40
1.0
 10
174.381292927762
 20
102.6026084847131
 30
0.0
 10
174.3181685461652
 20
102.6032990032301
 30
0.0
 10
174.1919241358763
 20
102.6046799926478
 30
0.0
 10
173.9405965742128
 20
102.62485662407
 30
0.0
 10
173.6856109429662
 20
102.6698257593155
 30
0.0
 10
173.452054722171
 20
102.7680113546834
 30
0.0
 10
173.3233536415656
 20
102.8624727012563
 30
0.0
 10
173.2468511786244
 20
102.9574092872239
 30
0.0
 10
173.2043291566429
 20
103.0422433199325
 30
0.0
 10
173.1787667113429
 20
103.1337317616137
 30
0.0
 10
173.1761357569426
 20
103.1966656882031
 30
0.0
 10
173.1748197134764
 20
103.2281461969038
 30
0.0
  0
SPLINE
  5
139
330
1F
100
AcDbEntity
  8
0
  6
Continuous
 62
     7
370
    18
100
AcDbSpline
210
0.0
220
0.0
230
1.0
 70
     8
 71
     3
 72
    16
 73
    12
 74
     0
 42
0.000000001
 43
0.00000001
 40
0.0
 40
0.0
 40
0.0
 40
0.0
 40
0.0625504672670119
 40
0.1250450729890672
 40
0.249540233350846
 40
0.3495277477999267
 40
0.4992738744144531
 40
0.6244010449096978
 40
0.7495800244049264
 40
0.8747855038494083
 40
0.9999999999999999
 40
0.9999999999999999
 40
0.9999999999999999
 40
0.9999999999999999
 10
175.5858586745153
 20
103.225294626903
 30
0.0
 10
175.5843863158131
 20
103.1938922870802
 30
0.0
 10
175.5814429133186
 20
103.1311156517212
 30
0.0
 10
175.5448772851477
 20
103.0101951076302
 30
0.0
 10
175.461949848636
 20
102.8883376223388
 30
0.0
 10
175.3159635546245
 20
102.7677527024185
 30
0.0
 10
175.1420466470505
 20
102.6887983818486
 30
0.0
 10
174.9457574079814
 20
102.6434761143876
 30
0.0
 10
174.7586484177223
 20
102.6172791302801
 30
0.0
 10
174.5701132214283
 20
102.6048830169845
 30
0.0
 10
174.4442345364609
 20
102.6033666803361
 30
0.0
 10
174.381292927762
 20
102.6026084847131
 30
0.0
  0
SPLINE
  5
13A
330
1F
100
AcDbEntity
  8
0
  6
Continuous
 62
     7
370
    18
100
AcDbSpline
210
0.0
220
0.0
230
1.0
 70
     8
 71
     3
 72
    16
 73
    12
 74
     0
 42
0.000000001
 43
0.00000001
 40
0.0
 40
0.0
 40
0.0
 40
0.0
 40
0.1251714468124815
 40
0.2503345712924424
 40
0.5002432313917586
 40
0.6343687152113107
 40
0.7500270449017109
 40
0.8127090061679884
 40
0.8749750189613901
 40
0.9374562791877795
 40
1.0
 40
1.0
 40
1.0
 40
1.0
 10
174.381292927762
 20
103.8495689956491
 30
0.0
 10
174.4443333458773
 20
103.8488649875925
 30
0.0
 10
174.5704099907099
 20
103.8474570182872
 30
0.0
 10
174.8214286760528
 20
103.8272510481493
 30
0.0
 10
175.0757575244122
 20
103.7816158216151
 30
0.0
 10
175.309326202475
 20
103.6846190708458
 30
0.0
 10
175.4376702153818
 20
103.5901929214474
 30
0.0
 10
175.5138454847032
 20
103.4953654096782
 30
0.0
 10
175.5564575552976
 20
103.4108750693841
 30
0.0
 10
175.5820569150016
 20
103.3195781829129
 30
0.0
 10
175.5845909993473
 20
103.2567329444159
 30
0.0
 10
175.5858586745153
 20
103.225294626903
 30
0.0
  0
LINE
  5
13B
330
1F
100
AcDbEntity
  8
0
  6
Continuous
 62
     7
370
    18
100
AcDbLine
 10
174.6092352961
 20
100.139225197
 30
0.0
 11
174.6092352961
 21
99.6438952321
 31
0.0
  0
SPLINE
  5
13C
330
1F
100
AcDbEntity
  8
0
  6
Continuous
 62
     7
370
    18
100
AcDbSpline
210
0.0
220
0.0
230
1.0
 70
     8
 71
     3
 72
    15
 73
    11
 74
     0
 42
0.000000001
 43
0.00000001
 40
0.0
 40
0.0
 40
0.0
 40
0.0
 40
0.1251267795938247
 40
0.2502087440698726
 40
0.3752035874756854
 40
0.5001276200209023
 40
0.618187158366884
 40
0.7497555672937434
 40
0.8748246125365774
 40
1.0
 40
1.0
 40
1.0
 40
1.0
 10
173.8863051030867
 20
100.8638060340254
 30
0.0
 10
173.9352566820911
 20
100.8622419993299
 30
0.0
 10
174.0331423077155
 20
100.8591144901101
 30
0.0
 10
174.1774612409984
 20
100.8276910858375
 30
0.0
 10
174.312993111458
 20
100.7702281341774
 30
0.0
 10
174.4335751691838
 20
100.6886867680026
 30
0.0
 10
174.5248702394486
 20
100.5712281817684
 30
0.0
 10
174.5787369986612
 20
100.4334475089647
 30
0.0
 10
174.6054085425353
 20
100.2859634178791
 30
0.0
 10
174.6079593514481
 20
100.1881517958726
 30
0.0
 10
174.6092352978919
 20
100.139225202179
 30
0.0
  0
SPLINE
  5
13D
330
1F
100
AcDbEntity
  8
0
  6
Continuous
 62
     7
370
    18
100
AcDbSpline
210
0.0
220
0.0
230
1.0
 70
     8
 71
     3
 72
    14
 73
    10
 74
     0
 42
0.000000001
 43
0.00000001
 40
0.0
 40
0.0
 40
0.0
 40
0.0
 40
0.0715632193436385
 40
0.1431246732572918
 40
0.2503740552462863
 40
0.4997860919222356
 40
0.749541346365666
 40
0.849734988743539
 40
1.0
 40
1.0
 40
1.0
 40
1.0
 10
173.2506415478919
 20
100.4995433176694
 30
0.0
 10
173.257507221048
 20
100.5168636464278
 30
0.0
 10
173.2712383979874
 20
100.5515038766606
 30
0.0
 10
173.3044978969052
 20
100.607719672743
 30
0.0
 10
173.3731044184287
 20
100.6959593715178
 30
0.0
 10
173.5037996796796
 20
100.7906543743389
 30
0.0
 10
173.6532769430806
 20
100.8408038687619
 30
0.0
 10
173.7820096730236
 20
100.8608436090404
 30
0.0
 10
173.8471959729167
 20
100.8626951716963
 30
0.0
 10
173.8863051030867
 20
100.8638060340254
 30
0.0
  0
SPLINE
  5
13E
330
1F
100
AcDbEntity
  8
0
  6
Continuous
 62
     7
370
    18
100
AcDbSpline
210
0.0
220
0.0
230
1.0
 70
     8
 71
     3
 72
    12
 73
     8
 74
     0
 42
0.000000001
 43
0.00000001
 40
0.0
 40
0.0
 40
0.0
 40
0.0
 40
0.2716297071034939
 40
0.5000612463476961
 40
0.7500575439835123
 40
0.8670058443960404
 40
1.0
 40
1.0
 40
1.0
 40
1.0
 10
173.2053391939958
 20
100.1230246344309
 30
0.0
 10
173.2055872937926
 20
100.1575142885748
 30
0.0
 10
173.2060440372575
 20
100.2210085934548
 30
0.0
 10
173.2126438491406
 20
100.3160414010648
 30
0.0
 10
173.2218468810438
 20
100.3911962026334
 30
0.0
 10
173.2357547025804
 20
100.4532218045608
 30
0.0
 10
173.2454713360038
 20
100.4834558234595
 30
0.0
 10
173.2506415478919
 20
100.4995433176694
 30
0.0
  0
LINE
  5
13F
330
1F
100
AcDbEntity
  8
0
  6
Continuous
 62
     7
370
    18
100
AcDbLine
 10
173.205339158
 20
100.123024608
 30
0.0
 11
173.205339158
 21
99.4002387785
 31
0.0
  0
LINE
  5
140
330
1F
100
AcDbEntity
  8
0
  6
Continuous
 62
     7
370
    18
100
AcDbLine
 10
175.5553392406
 20
99.4002387785
 30
0.0
 11
173.205339158
 21
99.4002387785
 31
0.0
  0
LINE
  5
141
330
1F
100
AcDbEntity
  8
0
  6
Continuous
 62
     7
370
    18
100
AcDbLine
 10
175.5553392406
 20
99.6438952321
 30
0.0
 11
175.5553392406
 21
99.4002387785
 31
0.0
  0
LINE
  5
142
330
1F
100
AcDbEntity
  8
0
  6
Continuous
 62
     7
370
    18
100
AcDbLine
 10
174.6092352961
 20
99.6438952321
 30
0.0
 11
175.5553392406
 21
99.6438952321
 31
0.0
  0
SPLINE
  5
143
330
1F
100
AcDbEntity
  8
0
  6
Continuous
 62
     7
370
    18
100
AcDbSpline
210
0.0
220
0.0
230
1.0
 70
     8
 71
     3
 72
     8
 73
     4
 74
     0
 42
0.000000001
 43
0.00000001
 40
0.0
 40
0.0
 40
0.0
 40
0.0
 40
1.0
 40
1.0
 40
1.0
 40
1.0
 10
175.5553391939958
 20
96.47519492599531
 30
0.0
 10
174.8716710392339
 20
96.29191740145586
 30
0.0
 10
174.188002884472
 20
96.10901730256866
 30
0.0
 10
173.5043347297101
 20
95.92653897745936
 30
0.0
  0
LINE
  5
144
330
1F
100
AcDbEntity
  8
0
  6
Continuous
 62
     7
370
    18
100
AcDbLine
 10
175.5553392406
 20
96.7210371206
 30
0.0
 11
175.5553392406
 21
96.4751949692
 31
0.0
  0
SPLINE
  5
145
330
1F
100
AcDbEntity
  8
0
  6
Continuous
 62
     7
370
    18
100
AcDbSpline
210
0.0
220
0.0
230
1.0
 70
     8
 71
     3
 72
     8
 73
     4
 74
     0
 42
0.000000001
 43
0.00000001
 40
0.0
 40
0.0
 40
0.0
 40
0.0
 40
1.0
 40
1.0
 40
1.0
 40
1.0
 10
173.6154447134763
 20
97.27759550654685
 30
0.0
 10
174.2620762069828
 20
97.09174280575323
 30
0.0
 10
174.9087077004893
 20
96.90620802237632
 30
0.0
 10
175.5553391939958
 20
96.7210369136323
 30
0.0
  0
LINE
  5
146
330
1F
100
AcDbEntity
  8
0
  6
Continuous
 62
     7
370
    18
100
AcDbLine
 10
175.5553392406
 20
97.2775954912
 30
0.0
 11
173.6154447255
 21
97.2775954912
 31
0.0
  0
LINE
  5
147
330
1F
100
AcDbEntity
  8
0
  6
Continuous
 62
     7
370
    18
100
AcDbLine
 10
175.5553392406
 20
97.5190804498
 30
0.0
 11
175.5553392406
 21
97.2775954912
 31
0.0
  0
LINE
  5
148
330
1F
100
AcDbEntity
  8
0
  6
Continuous
 62
     7
370
    18
100
AcDbLine
 10
173.205339158
 20
97.5190804498
 30
0.0
 11
175.5553392406
 21
97.5190804498
 31
0.0
  0
LINE
  5
149
330
1F
100
AcDbEntity
  8
0
  6
Continuous
 62
     7
370
    18
100
AcDbLine
 10
173.205339158
 20
97.5190804498
 30
0.0
 11
173.205339158
 21
97.1772380332
 31
0.0
  0
SPLINE
  5
14A
330
1F
100
AcDbEntity
  8
0
  6
Continuous
 62
     7
370
    18
100
AcDbSpline
210
0.0
220
0.0
230
1.0
 70
     8
 71
     3
 72
     8
 73
     4
 74
     0
 42
0.000000001
 43
0.00000001
 40
0.0
 40
0.0
 40
0.0
 40
0.0
 40
1.0
 40
1.0
 40
1.0
 40
1.0
 10
174.8405157362036
 20
96.70507209053187
 30
0.0
 10
174.295456888801
 20
96.86220714389786
 30
0.0
 10
173.7503980413984
 20
97.01960508537422
 30
0.0
 10
173.2053391939958
 20
97.17723795476402
 30
0.0
  0
SPLINE
  5
14B
330
1F
100
AcDbEntity
  8
0
  6
Continuous
 62
     7
370
    18
100
AcDbSpline
210
0.0
220
0.0
230
1.0
 70
     8
 71
     3
 72
     9
 73
     5
 74
     0
 42
0.000000001
 43
0.00000001
 40
0.0
 40
0.0
 40
0.0
 40
0.0
 40
0.4999953013385212
 40
0.9999999999999999
 40
0.9999999999999999
 40
0.9999999999999999
 40
0.9999999999999999
 10
175.217240573866
 20
96.6004067702852
 30
0.0
 10
175.154317881536
 20
96.61737237071564
 30
0.0
 10
175.0284713142555
 20
96.65130389044194
 30
0.0
 10
174.9031679880595
 20
96.6871492448851
 30
0.0
 10
174.8405157362036
 20
96.70507209053187
 30
0.0
  0
SPLINE
  5
14C
330
1F
100
AcDbEntity
  8
0
  6
Continuous
 62
     7
370
    18
100
AcDbSpline
210
0.0
220
0.0
230
1.0
 70
     8
 71
     3
 72
     8
 73
     4
 74
     0
 42
0.000000001
 43
0.00000001
 40
0.0
 40
0.0
 40
0.0
 40
0.0
 40
1.0
 40
1.0
 40
1.0
 40
1.0
 10
174.8691277491906
 20
96.51035507849399
 30
0.0
 10
174.9851653574157
 20
96.54036233863798
 30
0.0
 10
175.1012029656408
 20
96.57037963424038
 30
0.0
 10
175.217240573866
 20
96.60040677028526
 30
0.0
  0
SPLINE
  5
14D
330
1F
100
AcDbEntity
  8
0
  6
Continuous
 62
     7
370
    18
100
AcDbSpline
210
0.0
220
0.0
230
1.0
 70
     8
 71
     3
 72
     8
 73
     4
 74
     0
 42
0.000000001
 43
0.00000001
 40
0.0
 40
0.0
 40
0.0
 40
0.0
 40
1.0
 40
1.0
 40
1.0
 40
1.0
 10
173.2053391939958
 20
96.06149040325495
 30
0.0
 10
173.7599353790607
 20
96.21084542348939
 30
0.0
 10
174.3145315641257
 20
96.3604750655873
 30
0.0
 10
174.8691277491906
 20
96.51035507849399
 30
0.0
  0
LINE
  5
14E
330
1F
100
AcDbEntity
  8
0
  6
Continuous
 62
     7
370
    18
100
AcDbLine
 10
173.205339158
 20
96.0614903057
 30
0.0
 11
173.205339158
 21
95.6878353069
 31
0.0
  0
LINE
  5
14F
330
1F
100
AcDbEntity
  8
0
  6
Continuous
 62
     7
370
    18
100
AcDbLine
 10
175.5553392406
 20
95.6878353069
 30
0.0
 11
173.205339158
 21
95.6878353069
 31
0.0
  0
LINE
  5
150
330
1F
100
AcDbEntity
  8
0
  6
Continuous
 62
     7
370
    18
100
AcDbLine
 10
175.5553392406
 20
95.9265388707
 30
0.0
 11
175.5553392406
 21
95.6878353069
 31
0.0
  0
LINE
  5
151
330
1F
100
AcDbEntity
  8
0
  6
Continuous
 62
     7
370
    18
100
AcDbLine
 10
173.5043347409
 20
95.9265388707
 30
0.0
 11
175.5553392406
 21
95.9265388707
 31
0.0
  0
SPLINE
  5
152
330
1F
100
AcDbEntity
  8
0
  6
Continuous
 62
     7
370
    18
100
AcDbSpline
210
0.0
220
0.0
230
1.0
 70
     8
 71
     3
 72
    13
 73
     9
 74
     0
 42
0.000000001
 43
0.00000001
 40
0.0
 40
0.0
 40
0.0
 40
0.0
 40
0.1254882226959606
 40
0.2508771788381544
 40
0.5005450090960869
 40
0.7495971570815229
 40
0.8746794717871743
 40
1.0
 40
1.0
 40
1.0
 40
1.0
 10
173.7756719862036
 20
101.443663532125
 30
0.0
 10
173.7978118334372
 20
101.4443887841266
 30
0.0
 10
173.8420740143378
 20
101.4458387144246
 30
0.0
 10
173.9295241874006
 20
101.4599105160611
 30
0.0
 10
174.0327360519613
 20
101.504684734764
 30
0.0
 10
174.1122007042457
 20
101.5859755503522
 30
0.0
 10
174.147357728172
 20
101.6684286385617
 30
0.0
 10
174.1500804393996
 20
101.7127840752973
 30
0.0
 10
174.1514430900997
 20
101.7349828917965
 30
0.0
  0
SPLINE
  5
153
330
1F
100
AcDbEntity
  8
0
  6
Continuous
 62
     7
370
    18
100
AcDbSpline
210
0.0
220
0.0
230
1.0
 70
     8
 71
     3
 72
    13
 73
     9
 74
     0
 42
0.000000001
 43
0.00000001
 40
0.0
 40
0.0
 40
0.0
 40
0.0
 40
0.1253047435647259
 40
0.2504027799562251
 40
0.4995369840271979
 40
0.7491839309539594
 40
0.8745340631531408
 40
1.0
 40
1.0
 40
1.0
 40
1.0
 10
174.1514430900997
 20
101.7349828917965
 30
0.0
 10
174.1501184694752
 20
101.7564603299983
 30
0.0
 10
174.1474714133677
 20
101.7993797764539
 30
0.0
 10
174.1135369945853
 20
101.8791493837686
 30
0.0
 10
174.0383568073852
 20
101.9588797119558
 30
0.0
 10
173.9400443692049
 20
102.0056713468922
 30
0.0
 10
173.8556538516514
 20
102.0210720923582
 30
0.0
 10
173.8128302701606
 20
102.0226004993727
 30
0.0
 10
173.7914085933465
 20
102.0233650557215
 30
0.0
  0
SPLINE
  5
154
330
1F
100
AcDbEntity
  8
0
  6
Continuous
 62
     7
370
    18
100
AcDbSpline
210
0.0
220
0.0
230
1.0
 70
     8
 71
     3
 72
    13
 73
     9
 74
     0
 42
0.000000001
 43
0.00000001
 40
0.0
 40
0.0
 40
0.0
 40
0.0
 40
0.1254543875919897
 40
0.2507979436068724
 40
0.5003853269815318
 40
0.7496498539963914
 40
0.8747329887891525
 40
1.0
 40
1.0
 40
1.0
 40
1.0
 10
173.7914085933465
 20
102.0233650557215
 30
0.0
 10
173.7695040096448
 20
102.0226530121683
 30
0.0
 10
173.7257141936537
 20
102.0212295541107
 30
0.0
 10
173.6394566703688
 20
102.0055551132947
 30
0.0
 10
173.5384458206197
 20
101.958941292246
 30
0.0
 10
173.460555120282
 20
101.8786384160869
 30
0.0
 10
173.4237244549343
 20
101.7979535329147
 30
0.0
 10
173.4205592983111
 20
101.7540768933128
 30
0.0
 10
173.4189755576322
 20
101.732122460321
 30
0.0
  0
SPLINE
  5
155
330
1F
100
AcDbEntity
  8
0
  6
Continuous
 62
     7
370
    18
100
AcDbSpline
210
0.0
220
0.0
230
1.0
 70
     8
 71
     3
 72
    13
 73
     9
 74
     0
 42
0.000000001
 43
0.00000001
 40
0.0
 40
0.0
 40
0.0
 40
0.0
 40
0.125283658920328
 40
0.2503466847211209
 40
0.4996202400076377
 40
0.749247593212606
 40
0.8745639213593714
 40
1.0
 40
1.0
 40
1.0
 40
1.0
 10
173.4189755576322
 20
101.732122460321
 30
0.0
 10
173.42029156799
 20
101.7108077635821
 30
0.0
 10
173.4229212711212
 20
101.6682159067476
 30
0.0
 10
173.4570400032925
 20
101.5892442278119
 30
0.0
 10
173.5313182888181
 20
101.5098396918591
 30
0.0
 10
173.6285875208421
 20
101.4632979680817
 30
0.0
 10
173.7118912710802
 20
101.4457774662269
 30
0.0
 10
173.7544049801471
 20
101.4443684011322
 30
0.0
 10
173.7756719862036
 20
101.443663532125
 30
0.0
  0
SPLINE
  5
156
330
1F
100
AcDbEntity
  8
0
  6
Continuous
 62
     7
370
    18
100
AcDbSpline
210
0.0
220
0.0
230
1.0
 70
     8
 71
     3
 72
    14
 73
    10
 74
     0
 42
0.000000001
 43
0.00000001
 40
0.0
 40
0.0
 40
0.0
 40
0.0
 40
0.1253490646657445
 40
0.2506336662639382
 40
0.4999797588697496
 40
0.6997617719270978
 40
0.8496451163550761
 40
0.9248056597613398
 40
1.0
 40
1.0
 40
1.0
 40
1.0
 10
174.8638822134763
 20
101.3521097003079
 30
0.0
 10
174.8923431274321
 20
101.3530458048948
 30
0.0
 10
174.9492503187939
 20
101.3549175326597
 30
0.0
 10
175.0612752718959
 20
101.3754052644207
 30
0.0
 10
175.1822382612109
 20
101.4316979797349
 30
0.0
 10
175.2804455532071
 20
101.5295285582039
 30
0.0
 10
175.3238435386134
 20
101.6171363091464
 30
0.0
 10
175.3400339648612
 20
101.6837182107442
 30
0.0
 10
175.3411464585044
 20
101.7178921042385
 30
0.0
 10
175.3417028303594
 20
101.7349828917965
 30
0.0
  0
SPLINE
  5
157
330
1F
100
AcDbEntity
  8
0
  6
Continuous
 62
     7
370
    18
100
AcDbSpline
210
0.0
220
0.0
230
1.0
 70
     8
 71
     3
 72
    15
 73
    11
 74
     0
 42
0.000000001
 43
0.00000001
 40
0.0
 40
0.0
 40
0.0
 40
0.0
 40
0.0715595944009299
 40
0.1431103527383205
 40
0.2858165697727126
 40
0.4994433945525105
 40
0.6422617854462532
 40
0.7495449571936974
 40
0.8747340845736726
 40
1.0
 40
1.0
 40
1.0
 40
1.0
 10
175.3417028303594
 20
101.7349828917965
 30
0.0
 10
175.3412013847563
 20
101.7510505165045
 30
0.0
 10
175.3401985554677
 20
101.7831837819161
 30
0.0
 10
175.3265107101411
 20
101.8460658448955
 30
0.0
 10
175.2876998063441
 20
101.9352051994049
 30
0.0
 10
175.2072346381028
 20
102.01731320859
 30
0.0
 10
175.116821158243
 20
102.0699883726105
 30
0.0
 10
175.0369120760924
 20
102.0973859203362
 30
0.0
 10
174.9577688135018
 20
102.1127097640189
 30
0.0
 10
174.9015417182255
 20
102.1141449409119
 30
0.0
 10
174.8734195511387
 20
102.1148627493668
 30
0.0
  0
SPLINE
  5
158
330
1F
100
AcDbEntity
  8
0
  6
Continuous
 62
     7
370
    18
100
AcDbSpline
210
0.0
220
0.0
230
1.0
 70
     8
 71
     3
 72
    15
 73
    11
 74
     0
 42
0.000000001
 43
0.00000001
 40
0.0
 40
0.0
 40
0.0
 40
0.0
 40
0.1252712709783428
 40
0.2504790957413632
 40
0.4995625397827431
 40
0.6246838866660387
 40
0.7497103636737954
 40
0.8747474403126863
 40
0.9373568098531686
 40
1.0
 40
1.0
 40
1.0
 40
1.0
 10
174.8734195511387
 20
102.1148627493668
 30
0.0
 10
174.84483986351
 20
102.1140006576207
 30
0.0
 10
174.7876949630242
 20
102.1122769107524
 30
0.0
 10
174.6756119674457
 20
102.0904988254903
 30
0.0
 10
174.5694442747227
 20
102.0415512524893
 30
0.0
 10
174.4853473049753
 20
101.9640765088466
 30
0.0
 10
174.4337163699217
 20
101.8950082609852
 30
0.0
 10
174.4075529140572
 20
101.8278201835241
 30
0.0
 10
174.3967129785986
 20
101.7716453970107
 30
0.0
 10
174.3959703492113
 20
101.7430745577913
 30
0.0
 10
174.3955989342556
 20
101.7287852808429
 30
0.0
  0
SPLINE
  5
159
330
1F
100
AcDbEntity
  8
0
  6
Continuous
 62
     7
370
    18
100
AcDbSpline
210
0.0
220
0.0
230
1.0
 70
     8
 71
     3
 72
    14
 73
    10
 74
     0
 42
0.000000001
 43
0.00000001
 40
0.0
 40
0.0
 40
0.0
 40
0.0
 40
0.062725943390568
 40
0.1254163283407551
 40
0.2505912687829093
 40
0.4996560567309793
 40
0.749212184566376
 40
0.8745545362824474
 40
1.0
 40
1.0
 40
1.0
 40
1.0
 10
174.3955989342556
 20
101.7287852808429
 30
0.0
 10
174.3959654675537
 20
101.7148139874616
 30
0.0
 10
174.3966983263674
 20
101.6868793208255
 30
0.0
 10
174.4072566596422
 20
101.6319139573225
 30
0.0
 10
174.4435602411197
 20
101.5406107389981
 30
0.0
 10
174.541913610869
 20
101.4356707098385
 30
0.0
 10
174.6703311497452
 20
101.3760752732177
 30
0.0
 10
174.7800756991998
 20
101.3545920322909
 30
0.0
 10
174.835939052601
 20
101.3529373710748
 30
0.0
 10
174.8638822134763
 20
101.3521097003079
 30
0.0
  0
LINE
  5
15A
330
1F
100
AcDbEntity
  8
0
  6
Continuous
 62
     7
370
    18
100
AcDbLine
 10
171.8834642499
 20
101.1443830254
 30
0.0
 11
171.8834642499
 21
126.3443830582
 31
0.0
  0
LINE
  5
15B
330
1F
100
AcDbEntity
  8
0
  6
Continuous
 62
     7
370
    18
100
AcDbLine
 10
171.8834642499
 20
75.9443829926
 30
0.0
 11
171.8834642499
 21
101.1443830254
 31
0.0
  0
LINE
  5
15C
330
1F
100
AcDbEntity
  8
0
  6
Continuous
 62
     7
370
    18
100
AcDbLine
 10
174.3345599727
 20
100.1544731595
 30
0.0
 11
174.3345599727
 21
99.6438952321
 31
0.0
  0
SPLINE
  5
15D
330
1F
100
AcDbEntity
  8
0
  6
Continuous
 62
     7
370
    18
100
AcDbSpline
210
0.0
220
0.0
230
1.0
 70
     8
 71
     3
 72
    14
 73
    10
 74
     0
 42
0.000000001
 43
0.00000001
 40
0.0
 40
0.0
 40
0.0
 40
0.0
 40
0.1254334684850679
 40
0.250783722744881
 40
0.4991924195966445
 40
0.6189973935761645
 40
0.749328159918686
 40
0.8746069720799502
 40
1.0
 40
1.0
 40
1.0
 40
1.0
 10
174.3345599732166
 20
100.1544731696042
 30
0.0
 10
174.3337878955181
 20
100.1850601799277
 30
0.0
 10
174.3322442523278
 20
100.2462139087468
 30
0.0
 10
174.3129395560516
 20
100.3662260571404
 30
0.0
 10
174.2617360931308
 20
100.4813805042762
 30
0.0
 10
174.1669696358175
 20
100.5603225694087
 30
0.0
 10
174.0823536092865
 20
100.5975356091103
 30
0.0
 10
173.9909045637081
 20
100.6166879743261
 30
0.0
 10
173.9297644797834
 20
100.6186835607386
 30
0.0
 10
173.8991805089309
 20
100.6196818085779
 30
0.0
  0
SPLINE
  5
15E
330
1F
100
AcDbEntity
  8
0
  6
Continuous
 62
     7
370
    18
100
AcDbSpline
210
0.0
220
0.0
230
1.0
 70
     8
 71
     3
 72
    15
 73
    11
 74
     0
 42
0.000000001
 43
0.00000001
 40
0.0
 40
0.0
 40
0.0
 40
0.0
 40
0.1251494126433992
 40
0.2502382939156032
 40
0.3752400413420984
 40
0.5001576466784731
 40
0.6246526713367503
 40
0.749580694268462
 40
0.8926595291875283
 40
1.0
 40
1.0
 40
1.0
 40
1.0
 10
173.8991805089309
 20
100.6196818085779
 30
0.0
 10
173.8686105152407
 20
100.6186142042346
 30
0.0
 10
173.807485313736
 20
100.6164795119194
 30
0.0
 10
173.7175296383383
 20
100.5953353171268
 30
0.0
 10
173.6346292726427
 20
100.5553342466899
 30
0.0
 10
173.5602897470317
 20
100.5007949162842
 30
0.0
 10
173.5067868122566
 20
100.4234573282014
 30
0.0
 10
173.4885662561174
 20
100.3280918038064
 30
0.0
 10
173.4808562997793
 20
100.237019019872
 30
0.0
 10
173.4802670825042
 20
100.1759044646109
 30
0.0
 10
173.4800145186711
 20
100.1497081411443
 30
0.0
  0
LINE
  5
15F
330
1F
100
AcDbEntity
  8
0
  6
Continuous
 62
     7
370
    18
100
AcDbLine
 10
173.4800145324
 20
100.1497081639
 30
0.0
 11
173.4800145324
 21
99.6438952321
 31
0.0
  0
LINE
  5
160
330
1F
100
AcDbEntity
  8
0
  6
Continuous
 62
     7
370
    18
100
AcDbLine
 10
173.4800145324
 20
99.6438952321
 30
0.0
 11
174.3345599727
 21
99.6438952321
 31
0.0
  0
SPLINE
  5
161
330
1F
100
AcDbEntity
  8
0
  6
Continuous
 62
     7
370
    18
100
AcDbSpline
210
0.0
220
0.0
230
1.0
 70
     8
 71
     3
 72
    14
 73
    10
 74
     0
 42
0.000000001
 43
0.00000001
 40
0.0
 40
0.0
 40
0.0
 40
0.0
 40
0.250459384859402
 40
0.5007737691173237
 40
0.625870340125701
 40
0.750706973223289
 40
0.8751134679239048
 40
0.9375438466361531
 40
0.9999999999999999
 40
0.9999999999999999
 40
0.9999999999999999
 40
0.9999999999999999
 10
174.3803391939958
 20
102.8462905104073
 30
0.0
 10
174.475223525463
 20
102.8474795749035
 30
0.0
 10
174.6649372561968
 20
102.8498570155006
 30
0.0
 10
174.9013129482037
 20
102.8747620705696
 30
0.0
 10
175.0861239224188
 20
102.9206795640679
 30
0.0
 10
175.2126144635823
 20
102.9880357582698
 30
0.0
 10
175.2979215425785
 20
103.0737256226522
 30
0.0
 10
175.3370381807806
 20
103.1613706322475
 30
0.0
 10
175.3401477332453
 20
103.2087359538033
 30
0.0
 10
175.3417028303594
 20
103.2324235023167
 30
0.0
  0
SPLINE
  5
162
330
1F
100
AcDbEntity
  8
0
  6
Continuous
 62
     7
370
    18
100
AcDbSpline
210
0.0
220
0.0
230
1.0
 70
     8
 71
     3
 72
    15
 73
    11
 74
     0
 42
0.000000001
 43
0.00000001
 40
0.0
 40
0.0
 40
0.0
 40
0.0
 40
0.0312901635285473
 40
0.0625537335386487
 40
0.1249650643503538
 40
0.2494571375088223
 40
0.3743031125252768
 40
0.4993924584937469
 40
0.7496226152148614
 40
1.0
 40
1.0
 40
1.0
 40
1.0
 10
175.3417028303594
 20
103.2324235023167
 30
0.0
 10
175.3413218073933
 20
103.2441538175771
 30
0.0
 10
175.3405600852925
 20
103.2676044784997
 30
0.0
 10
175.3297097598816
 20
103.3133246387369
 30
0.0
 10
175.2951182113352
 20
103.3885654524277
 30
0.0
 10
175.2054454978743
 20
103.4688516281144
 30
0.0
 10
175.080109251855
 20
103.5342310876757
 30
0.0
 10
174.8964839208689
 20
103.578521476711
 30
0.0
 10
174.6623857000336
 20
103.6030199836305
 30
0.0
 10
174.4743731274307
 20
103.6054601475807
 30
0.0
 10
174.3803391939958
 20
103.6066805883804
 30
0.0
  0
SPLINE
  5
163
330
1F
100
AcDbEntity
  8
0
  6
Continuous
 62
     7
370
    18
100
AcDbSpline
210
0.0
220
0.0
230
1.0
 70
     8
 71
     3
 72
    14
 73
    10
 74
     0
 42
0.000000001
 43
0.00000001
 40
0.0
 40
0.0
 40
0.0
 40
0.0
 40
0.2504545161899749
 40
0.5007633272324232
 40
0.6258556209242576
 40
0.750676826590453
 40
0.8750919021456424
 40
0.9375290817243964
 40
1.0
 40
1.0
 40
1.0
 40
1.0
 10
174.3803391939958
 20
103.6066805883804
 30
0.0
 10
174.2852238413766
 20
103.6054864336987
 30
0.0
 10
174.0950484707223
 20
103.6030988190503
 30
0.0
 10
173.858068256728
 20
103.5782737075676
 30
0.0
 10
173.6728567269249
 20
103.5322130911233
 30
0.0
 10
173.5460984289805
 20
103.464541798952
 30
0.0
 10
173.4616015620409
 20
103.3775881285457
 30
0.0
 10
173.4234674666924
 20
103.2893857740659
 30
0.0
 10
173.4204731302505
 20
103.241909923533
 30
0.0
 10
173.4189755576322
 20
103.2181655864592
 30
0.0
  0
SPLINE
  5
164
330
1F
100
AcDbEntity
  8
0
  6
Continuous
 62
     7
370
    18
100
AcDbSpline
210
0.0
220
0.0
230
1.0
 70
     8
 71
     3
 72
    16
 73
    12
 74
     0
 42
0.000000001
 43
0.00000001
 40
0.0
 40
0.0
 40
0.0
 40
0.0
 40
0.0312835484950871
 40
0.0625395266465668
 40
0.1249245184145105
 40
0.249341209545203
 40
0.3118907638807573
 40
0.3744409013743348
 40
0.4994832982156788
 40
0.7496712702792642
 40
1.0
 40
1.0
 40
1.0
 40
1.0
 10
173.4189755576322
 20
103.2181655864592
 30
0.0
 10
173.4193447617583
 20
103.2064514861687
 30
0.0
 10
173.4200828446293
 20
103.1830336092816
 30
0.0
 10
173.4310556855808
 20
103.1373846868586
 30
0.0
 10
173.4663626260039
 20
103.0626073710203
 30
0.0
 10
173.5383576632698
 20
102.998659788579
 30
0.0
 10
173.6179827320311
 20
102.9497760651251
 30
0.0
 10
173.704748138897
 20
102.9132167050862
 30
0.0
 10
173.8647822040828
 20
102.8741729591089
 30
0.0
 10
174.0987971638727
 20
102.8500269519571
 30
0.0
 10
174.286474257477
 20
102.8475362244086
 30
0.0
 10
174.3803391939958
 20
102.8462905104073
 30
0.0
  0
LINE
  5
165
330
1F
100
AcDbEntity
  8
0
  6
Continuous
 62
     7
370
    18
100
AcDbLine
 10
175.2806638662
 20
94.4356027218
 30
0.0
 11
175.2806638662
 21
94.0322538996
 31
0.0
  0
SPLINE
  5
166
330
1F
100
AcDbEntity
  8
0
  6
Continuous
 62
     7
370
    18
100
AcDbSpline
210
0.0
220
0.0
230
1.0
 70
     8
 71
     3
 72
    15
 73
    11
 74
     0
 42
0.000000001
 43
0.00000001
 40
0.0
 40
0.0
 40
0.0
 40
0.0
 40
0.1388489419425462
 40
0.2501977506343576
 40
0.3831761862914935
 40
0.5002075727704828
 40
0.6213379654163077
 40
0.7499414540044697
 40
0.8749212798673505
 40
1.0
 40
1.0
 40
1.0
 40
1.0
 10
175.2806638693205
 20
94.43560288653205
 30
0.0
 10
175.2798192968557
 20
94.46832109990456
 30
0.0
 10
175.2782974261956
 20
94.52727742521786
 30
0.0
 10
175.2685782967449
 20
94.61731958044166
 30
0.0
 10
175.2494980044054
 20
94.70089149767233
 30
0.0
 10
175.2169471363745
 20
94.78328627203182
 30
0.0
 10
175.1667357041495
 20
94.85610835827914
 30
0.0
 10
175.1001973526303
 20
94.9177950009951
 30
0.0
 10
175.0228562626266
 20
94.96800170604477
 30
0.0
 10
174.966475151655
 20
94.99106128721071
 30
0.0
 10
174.9382734472426
 20
95.00259563764673
 30
0.0
  0
SPLINE
  5
167
330
1F
100
AcDbEntity
  8
0
  6
Continuous
 62
     7
370
    18
100
AcDbSpline
210
0.0
220
0.0
230
1.0
 70
     8
 71
     3
 72
    12
 73
     8
 74
     0
 42
0.000000001
 43
0.00000001
 40
0.0
 40
0.0
 40
0.0
 40
0.0
 40
0.1384428690900724
 40
0.2499955774680644
 40
0.4999714742338587
 40
0.7499799309452745
 40
1.0
 40
1.0
 40
1.0
 40
1.0
 10
174.9382734472426
 20
95.00259563764673
 30
0.0
 10
174.9128692389353
 20
95.01146290924845
 30
0.0
 10
174.8669951555127
 20
95.02747513652463
 30
0.0
 10
174.7732451805608
 20
95.05363353656575
 30
0.0
 10
174.6559269439232
 20
95.07535969911319
 30
0.0
 10
174.5104141238759
 20
95.09115111974738
 30
0.0
 10
174.4128892762235
 20
95.09260327199695
 30
0.0
 10
174.3641257199698
 20
95.09332936498366
 30
0.0
  0
SPLINE
  5
168
330
1F
100
AcDbEntity
  8
0
  6
Continuous
 62
     7
370
    18
100
AcDbSpline
210
0.0
220
0.0
230
1.0
 70
     8
 71
     3
 72
    15
 73
    11
 74
     0
 42
0.000000001
 43
0.00000001
 40
0.0
 40
0.0
 40
0.0
 40
0.0
 40
0.0834230312274547
 40
0.2502275879770204
 40
0.500078734728548
 40
0.6250851562570121
 40
0.7500916741890117
 40
0.8749580725237445
 40
0.937464338305881
 40
1.0
 40
1.0
 40
1.0
 40
1.0
 10
174.3641257199698
 20
95.09332936498366
 30
0.0
 10
174.3374890784383
 20
95.09312815642204
 30
0.0
 10
174.2575924064502
 20
95.09252463084508
 30
0.0
 10
174.0983471824363
 20
95.08138948238222
 30
0.0
 10
173.9268436795048
 20
95.05012989646976
 30
0.0
 10
173.7792922863987
 20
94.98983074763161
 30
0.0
 10
173.6761097627879
 20
94.92993493230212
 30
0.0
 10
173.602110629587
 20
94.86398242389023
 30
0.0
 10
173.5533358739383
 20
94.80235867499184
 30
0.0
 10
173.5356116623763
 20
94.7676421237628
 30
0.0
 10
173.5267474732166
 20
94.75027976741832
 30
0.0
  0
SPLINE
  5
169
330
1F
100
AcDbEntity
  8
0
  6
Continuous
 62
     7
370
    18
100
AcDbSpline
210
0.0
220
0.0
230
1.0
 70
     8
 71
     3
 72
    12
 73
     8
 74
     0
 42
0.000000001
 43
0.00000001
 40
0.0
 40
0.0
 40
0.0
 40
0.0
 40
0.1264898950856212
 40
0.2499216889095109
 40
0.4999002110562584
 40
0.7499192313532306
 40
1.0
 40
1.0
 40
1.0
 40
1.0
 10
173.5267474732166
 20
94.75027976741832
 30
0.0
 10
173.5216446818983
 20
94.73741032996946
 30
0.0
 10
173.5115624676347
 20
94.71198259488948
 30
0.0
 10
173.497123638165
 20
94.65927584155062
 30
0.0
 10
173.4875359392391
 20
94.59194641214238
 30
0.0
 10
173.480875002965
 20
94.51063554343946
 30
0.0
 10
173.4803013703783
 20
94.45632345798896
 30
0.0
 10
173.4800145186711
 20
94.42916406225125
 30
0.0
  0
LINE
  5
16A
330
1F
100
AcDbEntity
  8
0
  6
Continuous
 62
     7
370
    18
100
AcDbLine
 10
173.4800145324
 20
94.4291640232
 30
0.0
 11
173.4800145324
 21
94.0322538996
 31
0.0
  0
LINE
  5
16B
330
1F
100
AcDbEntity
  8
0
  6
Continuous
 62
     7
370
    18
100
AcDbLine
 10
173.4800145324
 20
94.0322538996
 30
0.0
 11
175.2806638662
 21
94.0322538996
 31
0.0
  0
DIMENSION
  5
16C
330
1F
100
AcDbEntity
  8
0
  6
Continuous
 62
     7
370
    18
100
AcDbDimension
  2
_D_1
 10
176.883464194
 20
131.5443830254
 30
0.0
 11
187.0179936819
 21
131.5443830254
 31
0.0
 70
   160
  1
<>
 71
     2
 42
-1.0
  3
SLDDIMSTYLE1
100
AcDbAlignedDimension
 13
171.883464194
 23
126.3443830254
 33
0.0
 14
176.883464194
 24
126.3443830254
 34
0.0
100
AcDbRotatedDimension
  0
MTEXT
  5
181
330
1F
100
AcDbEntity
  8
0
  6
Continuous
 62
     7
370
     0
100
AcDbMText
 10
147.8338298893
 20
121.2225241264
 30
0.0
 40
2.1166666667
 41
0.0
 71
     1
 72
     1
  1
S1
  7
SLDTEXTSTYLE0
 73
     1
 44
1.0
  0
LEADER
  5
183
330
1F
100
AcDbEntity
  8
0
  6
Continuous
 62
     7
370
     0
100
AcDbLeader
  3
SLDDIMSTYLE2
 76
     3
 10
171.883464194
 20
111.7206138663
 30
0.0
 10
157.5343990036
 20
120.1613250286
 30
0.0
 10
151.1843990036
 20
120.1613250286
 30
0.0
  0
INSERT
  5
189
102
{ACAD_REACTORS
330
18A
102
}
330
1F
100
AcDbEntity
  8
0
  6
Continuous
 62
     7
370
     0
100
AcDbBlockReference
  2
SW_NOTE_5
 10
191.3417799753
 20
107.1823386256
 30
0.0
  0
LEADER
  5
18A
330
1F
100
AcDbEntity
  8
0
  6
Continuous
 62
     7
370
     0
100
AcDbLeader
  3
SLDDIMSTYLE2
 73
     2
 76
     3
 10
176.883464194
 20
110.9918736083
 30
0.0
 10
184.9917799753
 20
107.1823386256
 30
0.0
 10
191.3417799753
 20
107.1823386256
 30
0.0
340
189
  0
LINE
  5
18B
330
1F
100
AcDbEntity
  8
0
  6
Continuous
 62
     7
370
    18
100
AcDbLine
 10
246.3935513096
 20
194.7404975598
 30
0.0
 11
246.3935513096
 21
194.6588567487
 31
0.0
  0
LINE
  5
18C
330
1F
100
AcDbEntity
  8
0
  6
Continuous
 62
     7
370
    18
100
AcDbLine
 10
255.3016487009
 20
179.2279074928
 30
0.0
 11
255.3723478865
 21
179.1870804527
 31
0.0
  0
LINE
  5
18D
330
1F
100
AcDbEntity
  8
0
  6
Continuous
 62
     7
370
    18
100
AcDbLine
 10
250.6506690752
 20
201.4939959306
 30
0.0
 11
249.0243234785
 21
200.555126602
 31
0.0
  0
LINE
  5
18E
330
1F
100
AcDbEntity
  8
0
  6
Continuous
 62
     7
370
    18
100
AcDbLine
 10
261.7232913829
 20
178.5574854975
 30
0.0
 11
263.3496369797
 21
179.4963548261
 31
0.0
  0
LINE
  5
18F
330
1F
100
AcDbEntity
  8
0
  6
Continuous
 62
     7
370
    18
100
AcDbLine
 10
265.9804091485
 20
185.3109838683
 30
0.0
 11
265.9804091485
 21
185.3926246795
 31
0.0
  0
LINE
  5
190
330
1F
100
AcDbEntity
  8
0
  6
Continuous
 62
     7
370
    18
100
AcDbLine
 10
257.0723117573
 20
200.8235739354
 30
0.0
 11
257.0016125716
 21
200.8644009754
 31
0.0
  0
LWPOLYLINE
  5
191
330
1F
100
AcDbEntity
  8
0
  6
Continuous
 62
     7
370
    18
100
AcDbPolyline
 90
      171
 70
   128
 43
0.0
 10
264.2126421955
 20
184.3721145397
 10
264.2065575118
 20
184.7557994849
 10
264.1883117717
 20
185.145985589
 10
264.1579298966
 20
185.5421399045
 10
264.1154533846
 20
185.9437213323
 10
264.0609402534
 20
186.3501813606
 10
263.9944649615
 20
186.7609648138
 10
263.916118306
 20
187.1755106111
 10
263.8260072991
 20
187.5932525328
 10
263.7242550215
 20
188.0136199937
 10
263.6110004548
 20
188.4360388225
 10
263.4863982909
 20
188.8599320458
 10
263.3506187214
 20
189.2847206764
 10
263.2038472049
 20
189.7098245043
 10
263.0462842137
 20
190.1346628886
 10
262.8781449597
 20
190.5586555513
 10
262.6996591012
 20
190.9812233693
 10
262.5110704281
 20
191.401789166
 10
262.31263653
 20
191.8197784989
 10
262.1046284437
 20
192.234620445
 10
261.8873302833
 20
192.64574838
 10
261.6610388519
 20
193.0526007526
 10
261.4260632363
 20
193.4546218515
 10
261.182724385
 20
193.8512625641
 10
260.9313546696
 20
194.241981127
 10
260.6722974309
 20
194.6262438656
 10
260.4059065099
 20
195.0035259232
 10
260.1325457646
 20
195.3733119779
 10
259.8525885728
 20
195.7350969465
 10
259.5664173225
 20
196.0883866742
 10
259.274422889
 20
196.4326986096
 10
258.9770041018
 20
196.7675624643
 10
258.6745671991
 20
197.0925208543
 10
258.3675252732
 20
197.4071299256
 10
258.0562977066
 20
197.7109599601
 10
257.7413095987
 20
198.0035959624
 10
257.4229911853
 20
198.2846382271
 10
257.1017772511
 20
198.5537028842
 10
256.7781065357
 20
198.8104224236
 10
256.4524211344
 20
199.0544461975
 10
256.1251658942
 20
199.2854408987
 10
255.7967878064
 20
199.5030910162
 10
255.4677353961
 20
199.7070992661
 10
255.1384581091
 20
199.8971869977
 10
254.8094056988
 20
200.0730945741
 10
254.481027611
 20
200.2345817265
 10
254.1537723708
 20
200.3814278831
 10
253.8280869695
 20
200.5134324696
 10
253.5044162541
 20
200.6304151837
 10
253.1832023199
 20
200.732216241
 10
252.8648839065
 20
200.8186965934
 10
252.5498957986
 20
200.8897381194
 10
252.238668232
 20
200.9452437846
 10
251.9316263061
 20
200.9851377751
 10
251.6291894034
 20
201.0093656004
 10
251.3317706161
 20
201.0178941682
 10
251.0397761827
 20
201.0107118295
 10
250.7536049324
 20
200.9878283946
 10
250.4736477406
 20
200.9492751195
 10
250.2002869953
 20
200.8951046632
 10
249.9338960743
 20
200.8253910162
 10
249.6748388356
 20
200.7402293989
 10
249.4234691202
 20
200.6397361318
 10
249.1801302689
 20
200.5240484766
 10
248.9451546533
 20
200.3933244488
 10
248.7188632219
 20
200.2477426016
 10
248.5015650614
 20
200.0875017823
 10
248.2935569752
 20
199.9128208607
 10
248.0951230771
 20
199.7239384298
 10
247.906534404
 20
199.5211124803
 10
247.7280485454
 20
199.3046200482
 10
247.5599092915
 20
199.0747568359
 10
247.4023463003
 20
198.831836809
 10
247.2555747838
 20
198.5761917671
 10
247.1197952143
 20
198.3081708904
 10
246.9951930504
 20
198.0281402634
 10
246.8819384836
 20
197.7364823741
 10
246.7801862061
 20
197.4335955922
 10
246.6900751992
 20
197.1198936244
 10
246.6117285437
 20
196.7958049501
 10
246.5452532518
 20
196.4617722354
 10
246.4907401206
 20
196.1182517287
 10
246.4482636085
 20
195.7657126377
 10
246.4178817335
 20
195.4046364885
 10
246.3996359933
 20
195.0355164677
 10
246.3935513096
 20
194.6588567487
 10
246.3996359933
 20
194.2751718034
 10
246.4178817335
 20
193.8849856994
 10
246.4482636085
 20
193.4888313839
 10
246.4907401206
 20
193.087249956
 10
246.5452532518
 20
192.6807899278
 10
246.6117285437
 20
192.2700064746
 10
246.6900751992
 20
191.8554606773
 10
246.7801862061
 20
191.4377187555
 10
246.8819384836
 20
191.0173512946
 10
246.9951930504
 20
190.5949324658
 10
247.1197952143
 20
190.1710392426
 10
247.2555747838
 20
189.7462506119
 10
247.4023463003
 20
189.3211467841
 10
247.5599092915
 20
188.8963083998
 10
247.7280485454
 20
188.4723157371
 10
247.906534404
 20
188.049747919
 10
248.0951230771
 20
187.6291821223
 10
248.2935569752
 20
187.2111927894
 10
248.5015650614
 20
186.7963508433
 10
248.7188632219
 20
186.3852229083
 10
248.9451546533
 20
185.9783705357
 10
249.1801302689
 20
185.5763494368
 10
249.4234691202
 20
185.1797087242
 10
249.6748388356
 20
184.7889901613
 10
249.9338960743
 20
184.4047274227
 10
250.2002869953
 20
184.0274453651
 10
250.4736477406
 20
183.6576593104
 10
250.7536049324
 20
183.2958743418
 10
251.0397761827
 20
182.9425846142
 10
251.3317706161
 20
182.5982726787
 10
251.6291894034
 20
182.2634088241
 10
251.9316263061
 20
181.9384504341
 10
252.238668232
 20
181.6238413628
 10
252.5498957986
 20
181.3200113283
 10
252.8648839065
 20
181.0273753259
 10
253.1832023199
 20
180.7463330612
 10
253.5044162541
 20
180.4772684042
 10
253.8280869695
 20
180.2205488647
 10
254.1537723708
 20
179.9765250908
 10
254.481027611
 20
179.7455303896
 10
254.8094056988
 20
179.5278802722
 10
255.1384581091
 20
179.3238720222
 10
255.4677353961
 20
179.1337842906
 10
255.7967878064
 20
178.9578767143
 10
256.1251658942
 20
178.7963895618
 10
256.4524211344
 20
178.6495434052
 10
256.7781065357
 20
178.5175388187
 10
257.1017772511
 20
178.4005561047
 10
257.4229911853
 20
178.2987550474
 10
257.7413095987
 20
178.2122746949
 10
258.0562977066
 20
178.141233169
 10
258.3675252732
 20
178.0857275037
 10
258.6745671991
 20
178.0458335133
 10
258.9770041018
 20
178.021605688
 10
259.274422889
 20
178.0130771202
 10
259.5664173225
 20
178.0202594588
 10
259.8525885728
 20
178.0431428937
 10
260.1325457646
 20
178.0816961689
 10
260.4059065099
 20
178.1358666251
 10
260.6722974309
 20
178.2055802721
 10
260.9313546696
 20
178.2907418894
 10
261.182724385
 20
178.3912351565
 10
261.4260632363
 20
178.5069228117
 10
261.6610388519
 20
178.6376468396
 10
261.8873302833
 20
178.7832286868
 10
262.1046284437
 20
178.943469506
 10
262.31263653
 20
179.1181504277
 10
262.5110704281
 20
179.3070328585
 10
262.6996591012
 20
179.509858808
 10
262.8781449597
 20
179.7263512402
 10
263.0462842137
 20
179.9562144525
 10
263.2038472049
 20
180.1991344793
 10
263.3506187214
 20
180.4547795213
 10
263.4863982909
 20
180.7228003979
 10
263.6110004548
 20
181.0028310249
 10
263.7242550215
 20
181.2944889142
 10
263.8260072991
 20
181.5973756962
 10
263.916118306
 20
181.9110776639
 10
263.9944649615
 20
182.2351663382
 10
264.0609402534
 20
182.569199053
 10
264.1154533846
 20
182.9127195597
 10
264.1579298966
 20
183.2652586506
 10
264.1883117717
 20
183.6263347998
 10
264.2065575118
 20
183.9954548207
 10
264.2126421955
 20
184.3721145397
  0
LWPOLYLINE
  5
192
330
1F
100
AcDbEntity
  8
0
  6
Continuous
 62
     7
370
    18
100
AcDbPolyline
 90
       44
 70
   128
 43
0.0
 10
264.3540635518
 20
184.3721145397
 10
264.3479305769
 20
183.9924654578
 10
264.3295400294
 20
183.620415913
 10
264.2989170283
 20
183.2564740801
 10
264.2561034011
 20
182.9011370598
 10
264.201157626
 20
182.5548901999
 10
264.1341547523
 20
182.2182064318
 10
264.055186298
 20
181.8915456252
 10
263.9643601244
 20
181.5753539593
 10
263.8618002891
 20
181.270063314
 10
263.7476468765
 20
180.9760906796
 10
263.6220558066
 20
180.6938375873
 10
263.4851986215
 20
180.4236895608
 10
263.3372622517
 20
180.16601559
 10
263.1784487605
 20
179.9211676264
 10
263.0089750681
 20
179.6894801029
 10
262.8290726551
 20
179.4712694768
 10
262.6389872465
 20
179.2668337976
 10
262.4389784762
 20
179.0764522998
 10
262.2293195321
 20
178.9003850216
 10
262.0102967831
 20
178.7388724498
 10
261.7822093879
 20
178.5921351912
 10
261.5453688865
 20
178.460373671
 10
261.3000987745
 20
178.3437678599
 10
261.0467340614
 20
178.2424770271
 10
260.7856208128
 20
178.156639524
 10
260.5171156782
 20
178.086372594
 10
260.2415854031
 20
178.0317722135
 10
259.9594063289
 20
177.99291296
 10
259.6709638781
 20
177.9698479106
 10
259.3766520286
 20
177.9626085692
 10
259.0768727748
 20
177.9712048241
 10
258.7720355791
 20
177.9956249337
 10
258.4625568126
 20
178.0358355431
 10
258.148859186
 20
178.0917817295
 10
257.8313711724
 20
178.1633870771
 10
257.5105264224
 20
178.2505537816
 10
257.1867631713
 20
178.3531627837
 10
256.8605236407
 20
178.471073932
 10
256.5322534346
 20
178.604126174
 10
256.2024009306
 20
178.7521377763
 10
255.8714166675
 20
178.9149065728
 10
255.5397527301
 20
179.092210241
 10
255.3723478865
 20
179.1870804527
  0
LWPOLYLINE
  5
193
330
1F
100
AcDbEntity
  8
0
  6
Continuous
 62
     7
370
    18
100
AcDbPolyline
 90
       86
 70
   128
 43
0.0
 10
246.3935513096
 20
194.7404975598
 10
246.3996842845
 20
195.1201466417
 10
246.4180748321
 20
195.4921961865
 10
246.4486978331
 20
195.8561380195
 10
246.4915114603
 20
196.2114750397
 10
246.5464572354
 20
196.5577218996
 10
246.6134601091
 20
196.8944056677
 10
246.6924285634
 20
197.2210664743
 10
246.783254737
 20
197.5372581402
 10
246.8858145723
 20
197.8425487855
 10
246.9999679849
 20
198.1365214199
 10
247.1255590548
 20
198.4187745123
 10
247.2624162399
 20
198.6889225387
 10
247.4103526097
 20
198.9465965096
 10
247.5691661009
 20
199.1914444732
 10
247.7386397933
 20
199.4231319967
 10
247.9185422064
 20
199.6413426227
 10
248.1086276149
 20
199.8457783019
 10
248.3086363852
 20
200.0361597997
 10
248.5182953293
 20
200.2122270779
 10
248.7373180783
 20
200.3737396497
 10
248.9654054735
 20
200.5204769084
 10
249.2022459749
 20
200.6522384285
 10
249.4475160869
 20
200.7688442397
 10
249.7008808001
 20
200.8701350724
 10
249.9619940486
 20
200.9559725756
 10
250.2304991832
 20
201.0262395055
 10
250.5060294583
 20
201.080839886
 10
250.7882085325
 20
201.1196991395
 10
251.0766509833
 20
201.142764189
 10
251.3709628329
 20
201.1500035303
 10
251.6707420867
 20
201.1414072754
 10
251.9755792823
 20
201.1169871658
 10
252.2850580488
 20
201.0767765564
 10
252.5987556755
 20
201.02083037
 10
252.916243689
 20
200.9492250224
 10
253.237088439
 20
200.862058318
 10
253.5608516901
 20
200.7594493158
 10
253.8870912207
 20
200.6415381675
 10
254.2153614268
 20
200.5084859255
 10
254.5452139309
 20
200.3604743233
 10
254.8761981939
 20
200.1977055267
 10
255.2078621313
 20
200.0204018585
 10
255.5397527301
 20
199.8288054941
 10
255.8714166675
 20
199.6231781311
 10
256.2024009306
 20
199.4038006317
 10
256.5322534346
 20
199.1709726393
 10
256.8605236407
 20
198.9250121688
 10
257.1867631713
 20
198.6662551726
 10
257.5105264224
 20
198.3950550818
 10
257.8313711724
 20
198.1117823229
 10
258.148859186
 20
197.8168238126
 10
258.4625568126
 20
197.5105824286
 10
258.7720355791
 20
197.1934764599
 10
259.0768727748
 20
196.8659390351
 10
259.3766520286
 20
196.5284175308
 10
259.6709638781
 20
196.1813729609
 10
259.9594063289
 20
195.8252793466
 10
260.2415854031
 20
195.4606230687
 10
260.5171156782
 20
195.087902204
 10
260.7856208128
 20
194.7076258444
 10
261.0467340614
 20
194.3203134015
 10
261.3000987745
 20
193.9264938977
 10
261.5453688865
 20
193.5267052429
 10
261.7822093879
 20
193.1214935004
 10
262.0102967831
 20
192.7114121406
 10
262.2293195321
 20
192.2970212855
 10
262.4389784762
 20
191.8788869431
 10
262.6389872465
 20
191.4575802345
 10
262.8290726551
 20
191.033676614
 10
263.0089750681
 20
190.6077550831
 10
263.1784487605
 20
190.1803973993
 10
263.3372622517
 20
189.7521872818
 10
263.4851986215
 20
189.323709614
 10
263.6220558066
 20
188.895549645
 10
263.7476468765
 20
188.4682921898
 10
263.8618002891
 20
188.0425208307
 10
263.9643601244
 20
187.61881712
 10
264.055186298
 20
187.1977597862
 10
264.1341547523
 20
186.7799239429
 10
264.201157626
 20
186.3658803036
 10
264.2561034011
 20
185.9561944021
 10
264.2989170283
 20
185.5514258201
 10
264.3295400294
 20
185.1521274227
 10
264.3479305769
 20
184.7588446036
 10
264.3540635518
 20
184.3721145397
  0
SPLINE
  5
194
330
1F
100
AcDbEntity
  8
0
  6
Continuous
 62
     7
370
    18
100
AcDbSpline
210
0.0
220
0.0
230
1.0
 70
     8
 71
     3
 72
    14
 73
    10
 74
     0
 42
0.000000001
 43
0.00000001
 40
0.0
 40
0.0
 40
0.0
 40
0.0
 40
0.0626217650531757
 40
0.1251990132228115
 40
0.2501813163236333
 40
0.4995074396535482
 40
0.7494904487996537
 40
0.8747327762471748
 40
1.0
 40
1.0
 40
1.0
 40
1.0
 10
264.4810339372705
 20
182.1826190140326
 30
0.0
 10
264.4868056172199
 20
182.1935599713582
 30
0.0
 10
264.4983448741172
 20
182.2154341082453
 30
0.0
 10
264.5266128827413
 20
182.2600346272127
 30
0.0
 10
264.5853056257778
 20
182.3369145813546
 30
0.0
 10
264.6836212382531
 20
182.4354728750255
 30
0.0
 10
264.784442982554
 20
182.5143215654613
 30
0.0
 10
264.8642209489856
 20
182.5674803758694
 30
0.0
 10
264.9035303433905
 20
182.590734430924
 30
0.0
 10
264.9231869939291
 20
182.6023626139763
 30
0.0
  0
SPLINE
  5
195
330
1F
100
AcDbEntity
  8
0
  6
Continuous
 62
     7
370
    18
100
AcDbSpline
210
0.0
220
0.0
230
1.0
 70
     8
 71
     3
 72
    12
 73
     8
 74
     0
 42
0.000000001
 43
0.00000001
 40
0.0
 40
0.0
 40
0.0
 40
0.0
 40
0.2621725735953102
 40
0.5000451414054702
 40
0.7500435138363057
 40
0.8623175480748846
 40
1.0
 40
1.0
 40
1.0
 40
1.0
 10
264.4317139480999
 20
182.0458699028259
 30
0.0
 10
264.4349033024686
 20
182.0571710586411
 30
0.0
 10
264.4409863993176
 20
182.0787258993332
 30
0.0
 10
264.4518321156497
 20
182.1122214545907
 30
0.0
 10
264.461891434003
 20
182.1398504455598
 30
0.0
 10
264.4719900896947
 20
182.1636770794551
 30
0.0
 10
264.4778217235666
 20
182.1758911759839
 30
0.0
 10
264.4810339372705
 20
182.1826190140326
 30
0.0
  0
ARC
  5
196
330
1F
100
AcDbEntity
  8
0
  6
Continuous
 62
     7
370
    18
100
AcDbCircle
 10
257.1684115479
 20
184.041006793
 30
0.0
 40
7.53233914313057
100
AcDbArc
 50
342.8779079531
 51
344.6404070659
  0
LINE
  5
197
330
1F
100
AcDbEntity
  8
0
  6
Continuous
 62
     7
370
    18
100
AcDbLine
 10
265.1977646341
 20
182.3030593514
 30
0.0
 11
264.3669141662
 21
181.8234195857
 31
0.0
  0
ARC
  5
198
330
1F
100
AcDbEntity
  8
0
  6
Continuous
 62
     7
370
    18
100
AcDbCircle
 10
257.9917465104
 20
184.5228758631
 30
0.0
 40
7.54017788546236
100
AcDbArc
 50
342.8785320412
 51
344.7209640263
  0
SPLINE
  5
199
330
1F
100
AcDbEntity
  8
0
  6
Continuous
 62
     7
370
    18
100
AcDbSpline
210
0.0
220
0.0
230
1.0
 70
     8
 71
     3
 72
    17
 73
    13
 74
     0
 42
0.000000001
 43
0.00000001
 40
0.0
 40
0.0
 40
0.0
 40
0.0
 40
0.0715329195103566
 40
0.1430591690150029
 40
0.2860138941746813
 40
0.4288985810183122
 40
0.5716632366539708
 40
0.6786548293666584
 40
0.7856023341411956
 40
0.8927162757733093
 40
0.9463530387336572
 40
1.0
 40
1.0
 40
1.0
 40
1.0
 10
264.9231869939291
 20
182.6023626139763
 30
0.0
 10
264.937396358004
 20
182.6104015080512
 30
0.0
 10
264.965813761218
 20
182.6264785466236
 30
0.0
 10
265.0217216651431
 20
182.6551982557189
 30
0.0
 10
265.0895831236367
 20
182.6844402092238
 30
0.0
 10
265.1645539267089
 20
182.7043400246419
 30
0.0
 10
265.2244813276814
 20
182.7062941290813
 30
0.0
 10
265.2645418462463
 20
182.6874010853903
 30
0.0
 10
265.2807238648311
 20
182.6487296038412
 30
0.0
 10
265.2798021251294
 20
182.6050346175297
 30
0.0
 10
265.2732290320261
 20
182.5664402772115
 30
0.0
 10
265.2680155325021
 20
182.5460723135566
 30
0.0
 10
265.2654085349445
 20
182.5358873636478
 30
0.0
  0
ARC
  5
19A
330
1F
100
AcDbEntity
  8
0
  6
Continuous
 62
     7
370
    18
100
AcDbCircle
 10
255.2259086545
 20
184.9505769336
 30
0.0
 40
10.25640435130756
100
AcDbArc
 50
353.7839516229
 51
355.8992833278
  0
LINE
  5
19B
330
1F
100
AcDbEntity
  8
0
  6
Continuous
 62
     7
370
    18
100
AcDbLine
 10
264.6882741925
 20
183.4164579551
 30
0.0
 11
265.422012268
 21
183.84003593
 31
0.0
  0
ARC
  5
19C
330
1F
100
AcDbEntity
  8
0
  6
Continuous
 62
     7
370
    18
100
AcDbCircle
 10
254.8869476912
 20
184.485806136
 30
0.0
 40
9.859488156915283
100
AcDbArc
 50
353.2305911743
 51
353.7735206659
  0
LINE
  5
19D
330
1F
100
AcDbEntity
  8
0
  6
Continuous
 62
     7
370
    18
100
AcDbLine
 10
265.5085517268
 20
183.8032706596
 30
0.0
 11
264.6777012589
 21
183.3236308939
 31
0.0
  0
ARC
  5
19E
330
1F
100
AcDbEntity
  8
0
  6
Continuous
 62
     7
370
    18
100
AcDbCircle
 10
255.40309675
 20
184.9997813172
 30
0.0
 40
10.17604333920804
100
AcDbArc
 50
353.2474769111
 51
355.9055536547
  0
LINE
  5
19F
330
1F
100
AcDbEntity
  8
0
  6
Continuous
 62
     7
370
    18
100
AcDbLine
 10
265.4560554675
 20
184.2171422727
 30
0.0
 11
265.5531678599
 21
184.2732040635
 31
0.0
  0
SPLINE
  5
1A0
330
1F
100
AcDbEntity
  8
0
  6
Continuous
 62
     7
370
    18
100
AcDbSpline
210
0.0
220
0.0
230
1.0
 70
     8
 71
     3
 72
    15
 73
    11
 74
     0
 42
0.000000001
 43
0.00000001
 40
0.0
 40
0.0
 40
0.0
 40
0.0
 40
0.1252841139165662
 40
0.2505070852029876
 40
0.3760311146737928
 40
0.5008012845320652
 40
0.749598052012992
 40
0.8746901554994341
 40
0.9373305165721222
 40
1.0
 40
1.0
 40
1.0
 40
1.0
 10
265.3300231538327
 20
185.4431886189336
 30
0.0
 10
265.3456783572755
 20
185.451629853283
 30
0.0
 10
265.3769811239242
 20
185.468508202391
 30
0.0
 10
265.4234624521588
 20
185.4829132836607
 30
0.0
 10
265.467887017379
 20
185.4871137455631
 30
0.0
 10
265.5210892181929
 20
185.475639258627
 30
0.0
 10
265.5641585858196
 20
185.4410059652403
 30
0.0
 10
265.5830817606947
 20
185.389900611542
 30
0.0
 10
265.5885911904779
 20
185.3564147123888
 30
0.0
 10
265.5894763699687
 20
185.3384639073753
 30
0.0
 10
265.5899190625732
 20
185.3294864189602
 30
0.0
  0
SPLINE
  5
1A1
330
1F
100
AcDbEntity
  8
0
  6
Continuous
 62
     7
370
    18
100
AcDbSpline
210
0.0
220
0.0
230
1.0
 70
     8
 71
     3
 72
    14
 73
    10
 74
     0
 42
0.000000001
 43
0.00000001
 40
0.0
 40
0.0
 40
0.0
 40
0.0
 40
0.1251722752078368
 40
0.2502885141552955
 40
0.4995095678191186
 40
0.6994085768239738
 40
0.8196182390316747
 40
0.9098065849270622
 40
1.0
 40
1.0
 40
1.0
 40
1.0
 10
265.1207514599775
 20
185.1634920086203
 30
0.0
 10
265.1248470904949
 20
185.1782080802987
 30
0.0
 10
265.1330365180262
 20
185.2076336356661
 30
0.0
 10
265.1573887010047
 20
185.2660730944754
 30
0.0
 10
265.1961580967696
 20
185.3294611425096
 30
0.0
 10
265.2431934789702
 20
185.3800685975408
 30
0.0
 10
265.2790373357471
 20
185.4094954011534
 30
0.0
 10
265.3057329815082
 20
185.4287185698489
 30
0.0
 10
265.3219262780338
 20
185.4383651788741
 30
0.0
 10
265.3300231538327
 20
185.4431886189336
 30
0.0
  0
SPLINE
  5
1A2
330
1F
100
AcDbEntity
  8
0
  6
Continuous
 62
     7
370
    18
100
AcDbSpline
210
0.0
220
0.0
230
1.0
 70
     8
 71
     3
 72
    13
 73
     9
 74
     0
 42
0.000000001
 43
0.00000001
 40
0.0
 40
0.0
 40
0.0
 40
0.0
 40
0.1252838370402061
 40
0.2504981476881942
 40
0.5001334407371357
 40
0.7495724394556526
 40
0.8747369592469041
 40
1.0
 40
1.0
 40
1.0
 40
1.0
 10
264.9493011194219
 20
185.1843418343033
 30
0.0
 10
264.957966482097
 20
185.1890920138424
 30
0.0
 10
264.9752923985953
 20
185.1985897368039
 30
0.0
 10
265.0096981598452
 20
185.2119289379107
 30
0.0
 10
265.0515926386746
 20
185.2183031344506
 30
0.0
 10
265.0864926428486
 20
185.2046111948917
 30
0.0
 10
265.108297462342
 20
185.1840029269471
 30
0.0
 10
265.1165990387884
 20
185.1703307743211
 30
0.0
 10
265.1207514599775
 20
185.1634920086203
 30
0.0
  0
SPLINE
  5
1A3
330
1F
100
AcDbEntity
  8
0
  6
Continuous
 62
     7
370
    18
100
AcDbSpline
210
0.0
220
0.0
230
1.0
 70
     8
 71
     3
 72
    14
 73
    10
 74
     0
 42
0.000000001
 43
0.00000001
 40
0.0
 40
0.0
 40
0.0
 40
0.0
 40
0.0627497987395053
 40
0.1254763942149494
 40
0.2506993362379427
 40
0.4997191914055459
 40
0.7491763858690802
 40
0.8745623231220259
 40
1.0
 40
1.0
 40
1.0
 40
1.0
 10
264.7375193236409
 20
184.8358133244708
 30
0.0
 10
264.7375671680976
 20
184.8438119887239
 30
0.0
 10
264.7376628393195
 20
184.8598063595296
 30
0.0
 10
264.7411046393304
 20
184.893399839737
 30
0.0
 10
264.7545113199645
 20
184.954690592792
 30
0.0
 10
264.7970894000423
 20
185.0431194615467
 30
0.0
 10
264.8565256756464
 20
185.1155991050257
 30
0.0
 10
264.9089029983015
 20
185.1593321912971
 30
0.0
 10
264.9358332273355
 20
185.1760041402773
 30
0.0
 10
264.9493011194219
 20
185.1843418343033
 30
0.0
  0
SPLINE
  5
1A4
330
1F
100
AcDbEntity
  8
0
  6
Continuous
 62
     7
370
    18
100
AcDbSpline
210
0.0
220
0.0
230
1.0
 70
     8
 71
     3
 72
    13
 73
     9
 74
     0
 42
0.000000001
 43
0.00000001
 40
0.0
 40
0.0
 40
0.0
 40
0.0
 40
0.1254553128248263
 40
0.2508793287066819
 40
0.500341562956352
 40
0.7493812872861663
 40
0.8746368118422037
 40
1.0
 40
1.0
 40
1.0
 40
1.0
 10
264.9546885709664
 20
184.7413809848386
 30
0.0
 10
264.9413623541667
 20
184.7342278343852
 30
0.0
 10
264.9147132450168
 20
184.7199233179525
 30
0.0
 10
264.862493004402
 20
184.7026258850589
 30
0.0
 10
264.8021622485406
 20
184.7042410759276
 30
0.0
 10
264.7587222573865
 20
184.7413018675399
 30
0.0
 10
264.7404428706776
 20
184.7903042199743
 30
0.0
 10
264.7384941183754
 20
184.8206392790801
 30
0.0
 10
264.7375193236409
 20
184.8358133244708
 30
0.0
  0
SPLINE
  5
1A5
330
1F
100
AcDbEntity
  8
0
  6
Continuous
 62
     7
370
    18
100
AcDbSpline
210
0.0
220
0.0
230
1.0
 70
     8
 71
     3
 72
    13
 73
     9
 74
     0
 42
0.000000001
 43
0.00000001
 40
0.0
 40
0.0
 40
0.0
 40
0.0
 40
0.1252652004268839
 40
0.2504281250300088
 40
0.499811149021703
 40
0.7494995238852705
 40
0.8747149562634904
 40
1.0
 40
1.0
 40
1.0
 40
1.0
 10
265.1248597971096
 20
184.9571429836392
 30
0.0
 10
265.1209971639798
 20
184.9456979281694
 30
0.0
 10
265.1132750514611
 20
184.9228171618242
 30
0.0
 10
265.0925497807993
 20
184.8777862342335
 30
0.0
 10
265.0580663616951
 20
184.8247695174045
 30
0.0
 10
265.0159328747188
 20
184.7836231641925
 30
0.0
 10
264.9811317582677
 20
184.757298090484
 30
0.0
 10
264.9635045995321
 20
184.7466876695606
 30
0.0
 10
264.9546885709664
 20
184.7413809848386
 30
0.0
  0
SPLINE
  5
1A6
330
1F
100
AcDbEntity
  8
0
  6
Continuous
 62
     7
370
    18
100
AcDbSpline
210
0.0
220
0.0
230
1.0
 70
     8
 71
     3
 72
    13
 73
     9
 74
     0
 42
0.000000001
 43
0.00000001
 40
0.0
 40
0.0
 40
0.0
 40
0.0
 40
0.1432260789099398
 40
0.286425288331576
 40
0.571262151704933
 40
0.7852720742320178
 40
0.8926053546904282
 40
1.0
 40
1.0
 40
1.0
 40
1.0
 10
265.3374177306883
 20
184.9249314850506
 30
0.0
 10
265.32456670888
 20
184.9179103450277
 30
0.0
 10
265.2988670761395
 20
184.9038693821611
 30
0.0
 10
265.2483716690367
 20
184.8853229205864
 30
0.0
 10
265.1942211660365
 20
184.8811423680894
 30
0.0
 10
265.1549104988953
 20
184.9039156104047
 30
0.0
 10
265.1348553488206
 20
184.9310269250206
 30
0.0
 10
265.1281922824027
 20
184.9484359723831
 30
0.0
 10
265.1248597971096
 20
184.9571429836392
 30
0.0
  0
SPLINE
  5
1A7
330
1F
100
AcDbEntity
  8
0
  6
Continuous
 62
     7
370
    18
100
AcDbSpline
210
0.0
220
0.0
230
1.0
 70
     8
 71
     3
 72
    16
 73
    12
 74
     0
 42
0.000000001
 43
0.00000001
 40
0.0
 40
0.0
 40
0.0
 40
0.0
 40
0.0625809129198701
 40
0.1251336679627174
 40
0.2500432061260331
 40
0.3927107734020526
 40
0.4998705881986995
 40
0.6231069249152817
 40
0.7498543452301808
 40
0.8749026956027908
 40
1.0
 40
1.0
 40
1.0
 40
1.0
 10
265.5899190625732
 20
185.3294864189602
 30
0.0
 10
265.5898443455822
 20
185.3201328044744
 30
0.0
 10
265.5896949452185
 20
185.3014297841012
 30
0.0
 10
265.5856446375416
 20
185.2623446213896
 30
0.0
 10
265.5730270652162
 20
185.2082828906555
 30
0.0
 10
265.5468687652965
 20
185.1468086946635
 30
0.0
 10
265.5132783508892
 20
185.0891339221525
 30
0.0
 10
265.4756563363936
 20
185.0382366812253
 30
0.0
 10
265.4314947056726
 20
184.9924119224858
 30
0.0
 10
265.3847391007876
 20
184.9541570954785
 30
0.0
 10
265.3531935785628
 20
184.9346746261131
 30
0.0
 10
265.3374177306883
 20
184.9249314850506
 30
0.0
  0
SPLINE
  5
1A8
330
1F
100
AcDbEntity
  8
0
  6
Continuous
 62
     7
370
    18
100
AcDbSpline
210
0.0
220
0.0
230
1.0
 70
     8
 71
     3
 72
    14
 73
    10
 74
     0
 42
0.000000001
 43
0.00000001
 40
0.0
 40
0.0
 40
0.0
 40
0.0
 40
0.0627133465055531
 40
0.1254006899987359
 40
0.2504473324746774
 40
0.4996124580573731
 40
0.7491976161721003
 40
0.8745628053037982
 40
1.0
 40
1.0
 40
1.0
 40
1.0
 10
264.9395714067086
 20
186.2940018052767
 30
0.0
 10
264.938763322904
 20
186.3037198431819
 30
0.0
 10
264.9371474903531
 20
186.3231518895749
 30
0.0
 10
264.9389896410037
 20
186.3643081636266
 30
0.0
 10
264.9540032952532
 20
186.4387467399698
 30
0.0
 10
265.001828894699
 20
186.5410704931097
 30
0.0
 10
265.0696210057421
 20
186.62081063973
 30
0.0
 10
265.1293231740843
 20
186.6690574576377
 30
0.0
 10
265.1603200531447
 20
186.688069910722
 30
0.0
 10
265.1758229422893
 20
186.6975788665094
 30
0.0
  0
SPLINE
  5
1A9
330
1F
100
AcDbEntity
  8
0
  6
Continuous
 62
     7
370
    18
100
AcDbSpline
210
0.0
220
0.0
230
1.0
 70
     8
 71
     3
 72
    11
 73
     7
 74
     0
 42
0.000000001
 43
0.00000001
 40
0.0
 40
0.0
 40
0.0
 40
0.0
 40
0.250076932083182
 40
0.5000174317493266
 40
0.7499383126224671
 40
0.9999999999999999
 40
0.9999999999999999
 40
0.9999999999999999
 40
0.9999999999999999
 10
264.9888173495394
 20
186.1623343266592
 30
0.0
 10
264.9826860417979
 20
186.1711701966311
 30
0.0
 10
264.9704267713221
 20
186.188837116062
 30
0.0
 10
264.9560166852952
 20
186.2202347473683
 30
0.0
 10
264.9452833276539
 20
186.2552457020455
 30
0.0
 10
264.9414757377917
 20
186.2810806789599
 30
0.0
 10
264.9395714067086
 20
186.2940018052767
 30
0.0
  0
SPLINE
  5
1AA
330
1F
100
AcDbEntity
  8
0
  6
Continuous
 62
     7
370
    18
100
AcDbSpline
210
0.0
220
0.0
230
1.0
 70
     8
 71
     3
 72
     8
 73
     4
 74
     0
 42
0.000000001
 43
0.00000001
 40
0.0
 40
0.0
 40
0.0
 40
0.0
 40
1.0
 40
1.0
 40
1.0
 40
1.0
 10
264.7795579676724
 20
186.0819461200928
 30
0.0
 10
264.8493289942029
 20
186.1087345923755
 30
0.0
 10
264.9190821242235
 20
186.1355306357223
 30
0.0
 10
264.9888173495394
 20
186.1623343266592
 30
0.0
  0
ARC
  5
1AB
330
1F
100
AcDbEntity
  8
0
  6
Continuous
 62
     7
370
    18
100
AcDbCircle
 10
250.189519293
 20
184.4989775656
 30
0.0
 40
14.67566073375242
100
AcDbArc
 50
6.1921719641
 51
7.4570243557
  0
LINE
  5
1AC
330
1F
100
AcDbEntity
  8
0
  6
Continuous
 62
     7
370
    18
100
AcDbLine
 10
264.6439480253
 20
186.3475598021
 30
0.0
 11
264.7410604176
 21
186.4036215929
 31
0.0
  0
ARC
  5
1AD
330
1F
100
AcDbEntity
  8
0
  6
Continuous
 62
     7
370
    18
100
AcDbCircle
 10
250.1662514678
 20
184.4519526961
 30
0.0
 40
14.60126788708929
100
AcDbArc
 50
5.840191452
 51
7.4594699726
  0
SPLINE
  5
1AE
330
1F
100
AcDbEntity
  8
0
  6
Continuous
 62
     7
370
    18
100
AcDbSpline
210
0.0
220
0.0
230
1.0
 70
     8
 71
     3
 72
     8
 73
     4
 74
     0
 42
0.000000001
 43
0.00000001
 40
0.0
 40
0.0
 40
0.0
 40
0.0
 40
1.0
 40
1.0
 40
1.0
 40
1.0
 10
265.1252648968224
 20
186.104720150149
 30
0.0
 10
264.9808313564243
 20
186.0490103829636
 30
0.0
 10
264.8363205617071
 20
185.9933346812253
 30
0.0
 10
264.6917325804336
 20
185.9376923629498
 30
0.0
  0
SPLINE
  5
1AF
330
1F
100
AcDbEntity
  8
0
  6
Continuous
 62
     7
370
    18
100
AcDbSpline
210
0.0
220
0.0
230
1.0
 70
     8
 71
     3
 72
     8
 73
     4
 74
     0
 42
0.000000001
 43
0.00000001
 40
0.0
 40
0.0
 40
0.0
 40
0.0
 40
1.0
 40
1.0
 40
1.0
 40
1.0
 10
265.1270394613679
 20
186.2168421767915
 30
0.0
 10
265.1265851731883
 20
186.179408685078
 30
0.0
 10
265.1259937057424
 20
186.1420341371156
 30
0.0
 10
265.1252648968224
 20
186.104720150149
 30
0.0
  0
SPLINE
  5
1B0
330
1F
100
AcDbEntity
  8
0
  6
Continuous
 62
     7
370
    18
100
AcDbSpline
210
0.0
220
0.0
230
1.0
 70
     8
 71
     3
 72
    13
 73
     9
 74
     0
 42
0.000000001
 43
0.00000001
 40
0.0
 40
0.0
 40
0.0
 40
0.0
 40
0.1251857732062539
 40
0.2502844631579685
 40
0.4998384123132149
 40
0.7496104912811689
 40
0.8747712753911109
 40
1.0
 40
1.0
 40
1.0
 40
1.0
 10
265.0292977797544
 20
186.3143074576325
 30
0.0
 10
265.0304646590202
 20
186.3067055581289
 30
0.0
 10
265.032797605833
 20
186.2915070472478
 30
0.0
 10
265.0425441040924
 20
186.2650670029259
 30
0.0
 10
265.061132023851
 20
186.2388072751876
 30
0.0
 10
265.0864521875945
 20
186.2237354217312
 30
0.0
 10
265.1090443952041
 20
186.2178099958866
 30
0.0
 10
265.1210400210186
 20
186.2171648415085
 30
0.0
 10
265.1270394613679
 20
186.2168421767915
 30
0.0
  0
SPLINE
  5
1B1
330
1F
100
AcDbEntity
  8
0
  6
Continuous
 62
     7
370
    18
100
AcDbSpline
210
0.0
220
0.0
230
1.0
 70
     8
 71
     3
 72
    14
 73
    10
 74
     0
 42
0.000000001
 43
0.00000001
 40
0.0
 40
0.0
 40
0.0
 40
0.0
 40
0.1253753764942678
 40
0.2507116442999264
 40
0.3759843889713705
 40
0.5011455318268822
 40
0.7498422054561047
 40
0.8748658854891889
 40
0.9999999999999999
 40
0.9999999999999999
 40
0.9999999999999999
 40
0.9999999999999999
 10
265.1943624182339
 20
186.5939310335743
 30
0.0
 10
265.1835217317815
 20
186.5872793070339
 30
0.0
 10
265.1618437404417
 20
186.5739779288446
 30
0.0
 10
265.1301642997955
 20
186.5494435419472
 30
0.0
 10
265.1003351763759
 20
186.519482832882
 30
0.0
 10
265.0644320956149
 20
186.4730305653044
 30
0.0
 10
265.0376316178312
 20
186.4151528746947
 30
0.0
 10
265.0267771576172
 20
186.3555671812145
 30
0.0
 10
265.0284573251335
 20
186.3280647458948
 30
0.0
 10
265.0292977797544
 20
186.3143074576325
 30
0.0
  0
SPLINE
  5
1B2
330
1F
100
AcDbEntity
  8
0
  6
Continuous
 62
     7
370
    18
100
AcDbSpline
210
0.0
220
0.0
230
1.0
 70
     8
 71
     3
 72
    16
 73
    12
 74
     0
 42
0.000000001
 43
0.00000001
 40
0.0
 40
0.0
 40
0.0
 40
0.0
 40
0.0625610874929177
 40
0.1250928754982008
 40
0.249769864765194
 40
0.3746545436190625
 40
0.4996400329585018
 40
0.6246834970050275
 40
0.7497226164574321
 40
0.8748534373134452
 40
1.0
 40
1.0
 40
1.0
 40
1.0
 10
265.4180536484135
 20
186.5358716565441
 30
0.0
 10
265.4170276010792
 20
186.5427805654069
 30
0.0
 10
265.4149759869434
 20
186.5565951474553
 30
0.0
 10
265.4065728202181
 20
186.5810893499799
 30
0.0
 10
265.3899388666543
 20
186.6057023539378
 30
0.0
 10
265.362822987291
 20
186.623705070208
 30
0.0
 10
265.3321985196617
 20
186.6338095016487
 30
0.0
 10
265.2985486082808
 20
186.6336075694604
 30
0.0
 10
265.2639163372663
 20
186.6264059849118
 30
0.0
 10
265.2289524111532
 20
186.6127145045712
 30
0.0
 10
265.2058928993359
 20
186.6001924531086
 30
0.0
 10
265.1943624182339
 20
186.5939310335743
 30
0.0
  0
SPLINE
  5
1B3
330
1F
100
AcDbEntity
  8
0
  6
Continuous
 62
     7
370
    18
100
AcDbSpline
210
0.0
220
0.0
230
1.0
 70
     8
 71
     3
 72
    14
 73
    10
 74
     0
 42
0.000000001
 43
0.00000001
 40
0.0
 40
0.0
 40
0.0
 40
0.0
 40
0.1377979488013923
 40
0.2504541919851013
 40
0.5001429767152996
 40
0.6430016293616332
 40
0.7857787203852459
 40
0.892846763617507
 40
1.0
 40
1.0
 40
1.0
 40
1.0
 10
265.2730581297185
 20
186.2872042244039
 30
0.0
 10
265.2831298506713
 20
186.2949431136371
 30
0.0
 10
265.3014356727466
 20
186.3090089053752
 30
0.0
 10
265.3369060479297
 20
186.340720090555
 30
0.0
 10
265.3707930044617
 20
186.3793500476934
 30
0.0
 10
265.3986126945789
 20
186.4290332598308
 30
0.0
 10
265.4133260375651
 20
186.4685496033474
 30
0.0
 10
265.4197749735181
 20
186.5052881343711
 30
0.0
 10
265.4186275755504
 20
186.5256744466917
 30
0.0
 10
265.4180536484135
 20
186.5358716565441
 30
0.0
  0
SPLINE
  5
1B4
330
1F
100
AcDbEntity
  8
0
  6
Continuous
 62
     7
370
    18
100
AcDbSpline
210
0.0
220
0.0
230
1.0
 70
     8
 71
     3
 72
     8
 73
     4
 74
     0
 42
0.000000001
 43
0.00000001
 40
0.0
 40
0.0
 40
0.0
 40
0.0
 40
1.0
 40
1.0
 40
1.0
 40
1.0
 10
265.2942785250808
 20
186.1884612290525
 30
0.0
 10
265.2873423672775
 20
186.2213153369251
 30
0.0
 10
265.2802688486159
 20
186.25423020756
 30
0.0
 10
265.2730581297185
 20
186.2872042244039
 30
0.0
  0
SPLINE
  5
1B5
330
1F
100
AcDbEntity
  8
0
  6
Continuous
 62
     7
370
    18
100
AcDbSpline
210
0.0
220
0.0
230
1.0
 70
     8
 71
     3
 72
    15
 73
    11
 74
     0
 42
0.000000001
 43
0.00000001
 40
0.0
 40
0.0
 40
0.0
 40
0.0
 40
0.0626620904673415
 40
0.1252926296738054
 40
0.2503789947396946
 40
0.4991573193917617
 40
0.6218210237251726
 40
0.7494608068978317
 40
0.8747179529641239
 40
1.0
 40
1.0
 40
1.0
 40
1.0
 10
265.5042580302276
 20
186.5867362428367
 30
0.0
 10
265.5050729731906
 20
186.5775584905803
 30
0.0
 10
265.5067024487813
 20
186.5592076071974
 30
0.0
 10
265.5062338221152
 20
186.5208367803629
 30
0.0
 10
265.4964252657174
 20
186.4511409662593
 30
0.0
 10
265.4638785871185
 20
186.3715639956011
 30
0.0
 10
265.4190606774179
 20
186.3028171851687
 30
0.0
 10
265.380001995475
 20
186.2581006702576
 30
0.0
 10
265.3379301699844
 20
186.2194642209665
 30
0.0
 10
265.3088300374647
 20
186.1987962444172
 30
0.0
 10
265.2942785250808
 20
186.1884612290525
 30
0.0
  0
SPLINE
  5
1B6
330
1F
100
AcDbEntity
  8
0
  6
Continuous
 62
     7
370
    18
100
AcDbSpline
210
0.0
220
0.0
230
1.0
 70
     8
 71
     3
 72
    14
 73
    10
 74
     0
 42
0.000000001
 43
0.00000001
 40
0.0
 40
0.0
 40
0.0
 40
0.0
 40
0.125450821766121
 40
0.2508652089522926
 40
0.5007660647446124
 40
0.7494481876001373
 40
0.874548564185708
 40
0.9372586901485975
 40
1.0
 40
1.0
 40
1.0
 40
1.0
 10
265.1758229422893
 20
186.6975788665094
 30
0.0
 10
265.1932197038138
 20
186.7069006832716
 30
0.0
 10
265.2280081743355
 20
186.7255416094684
 30
0.0
 10
265.2982321002779
 20
186.7483903677041
 30
0.0
 10
265.3838267505483
 20
186.752125349446
 30
0.0
 10
265.4585294468828
 20
186.7137410293039
 30
0.0
 10
265.4888955843889
 20
186.6564070755125
 30
0.0
 10
265.499841221752
 20
186.6180819187745
 30
0.0
 10
265.5027855167779
 20
186.5971865328283
 30
0.0
 10
265.5042580302276
 20
186.5867362428367
 30
0.0
  0
SPLINE
  5
1B7
330
1F
100
AcDbEntity
  8
0
  6
Continuous
 62
     7
370
    18
100
AcDbSpline
210
0.0
220
0.0
230
1.0
 70
     8
 71
     3
 72
    11
 73
     7
 74
     0
 42
0.000000001
 43
0.00000001
 40
0.0
 40
0.0
 40
0.0
 40
0.0
 40
0.4999543933284777
 40
0.7499015403201023
 40
0.874945834261476
 40
0.9999999999999999
 40
0.9999999999999999
 40
0.9999999999999999
 40
0.9999999999999999
 10
265.229124953452
 20
188.2049286785723
 30
0.0
 10
265.2742418782173
 20
188.1770198470731
 30
0.0
 10
265.3419145536202
 20
188.1351582772798
 30
0.0
 10
265.4275446214385
 20
188.106719160831
 30
0.0
 10
265.4781369596386
 20
188.0976388185792
 30
0.0
 10
265.5040018191621
 20
188.0963645754591
 30
0.0
 10
265.5169347593882
 20
188.0957274287508
 30
0.0
  0
LINE
  5
1B8
330
1F
100
AcDbEntity
  8
0
  6
Continuous
 62
     7
370
    18
100
AcDbLine
 10
265.1852894986
 20
188.1796230091
 30
0.0
 11
265.2291249535
 21
188.2049286786
 31
0.0
  0
SPLINE
  5
1B9
330
1F
100
AcDbEntity
  8
0
  6
Continuous
 62
     7
370
    18
100
AcDbSpline
210
0.0
220
0.0
230
1.0
 70
     8
 71
     3
 72
    12
 73
     8
 74
     0
 42
0.000000001
 43
0.00000001
 40
0.0
 40
0.0
 40
0.0
 40
0.0
 40
0.1428486546064052
 40
0.2857137848888081
 40
0.4999809151670454
 40
0.7499794168908097
 40
1.0
 40
1.0
 40
1.0
 40
1.0
 10
265.3451108903878
 20
188.0213640441085
 30
0.0
 10
265.3364429000197
 20
188.0267888976568
 30
0.0
 10
265.3191059195472
 20
188.0376392304376
 30
0.0
 10
265.2906926265574
 20
188.0608892476242
 30
0.0
 10
265.2578033398663
 20
188.0922089826342
 30
0.0
 10
265.2211908212953
 20
188.1328355581494
 30
0.0
 10
265.197256958461
 20
188.1640267329817
 30
0.0
 10
265.1852894985712
 20
188.1796230091159
 30
0.0
  0
LINE
  5
1BA
330
1F
100
AcDbEntity
  8
0
  6
Continuous
 62
     7
370
    18
100
AcDbLine
 10
264.506336321
 20
187.537149792
 30
0.0
 11
265.3451108904
 21
188.0213640441
 31
0.0
  0
ARC
  5
1BB
330
1F
100
AcDbEntity
  8
0
  6
Continuous
 62
     7
370
    18
100
AcDbCircle
 10
248.1200276285
 20
184.1469443866
 30
0.0
 40
16.73333813850035
100
AcDbArc
 50
11.4350086425
 51
11.6891500259
  0
LINE
  5
1BC
330
1F
100
AcDbEntity
  8
0
  6
Continuous
 62
     7
370
    18
100
AcDbLine
 10
265.3599872528
 20
187.9486477572
 30
0.0
 11
264.5212126834
 21
187.4644335051
 31
0.0
  0
SPLINE
  5
1BD
330
1F
100
AcDbEntity
  8
0
  6
Continuous
 62
     7
370
    18
100
AcDbSpline
210
0.0
220
0.0
230
1.0
 70
     8
 71
     3
 72
    11
 73
     7
 74
     0
 42
0.000000001
 43
0.00000001
 40
0.0
 40
0.0
 40
0.0
 40
0.0
 40
0.2500305180632262
 40
0.5000067443424676
 40
0.7035402666144872
 40
1.0
 40
1.0
 40
1.0
 40
1.0
 10
265.292171672316
 20
187.6627070947867
 30
0.0
 10
265.2963114287953
 20
187.686761761161
 30
0.0
 10
265.3045900428447
 20
187.7348658706643
 30
0.0
 10
265.3170900784825
 20
187.8027088579902
 30
0.0
 10
265.3370236931012
 20
187.8738263492598
 30
0.0
 10
265.3514396412241
 20
187.9207973568047
 30
0.0
 10
265.3599872527942
 20
187.9486477572173
 30
0.0
  0
LINE
  5
1BE
330
1F
100
AcDbEntity
  8
0
  6
Continuous
 62
     7
370
    18
100
AcDbLine
 10
265.3355013335
 20
187.6877207757
 30
0.0
 11
265.2921716723
 21
187.6627070948
 31
0.0
  0
SPLINE
  5
1BF
330
1F
100
AcDbEntity
  8
0
  6
Continuous
 62
     7
370
    18
100
AcDbSpline
210
0.0
220
0.0
230
1.0
 70
     8
 71
     3
 72
    11
 73
     7
 74
     0
 42
0.000000001
 43
0.00000001
 40
0.0
 40
0.0
 40
0.0
 40
0.0
 40
0.1428778200382746
 40
0.2857522926218053
 40
0.5000376817880715
 40
1.0
 40
1.0
 40
1.0
 40
1.0
 10
265.5237348918685
 20
188.0624627524345
 30
0.0
 10
265.512250007308
 20
188.0470327471845
 30
0.0
 10
265.489280507264
 20
188.016173098191
 30
0.0
 10
265.4539452866953
 20
187.9564512702195
 30
0.0
 10
265.3982519985224
 20
187.8497386621909
 30
0.0
 10
265.3613395058781
 20
187.7544331536658
 30
0.0
 10
265.3355013334867
 20
187.6877207757493
 30
0.0
  0
ARC
  5
1C0
330
1F
100
AcDbEntity
  8
0
  6
Continuous
 62
     7
370
    18
100
AcDbCircle
 10
249.1297095235
 20
184.7284410085
 30
0.0
 40
16.7296075496812
100
AcDbArc
 50
11.495367249
 51
11.6116486519
  0
LWPOLYLINE
  5
1C1
330
1F
100
AcDbEntity
  8
0
  6
Continuous
 62
     7
370
    18
100
AcDbPolyline
 90
       65
 70
   128
 43
0.0
 10
265.9804091485
 20
185.3109838683
 10
265.9742761737
 20
185.6977139322
 10
265.9558856261
 20
186.0909967513
 10
265.925262625
 20
186.4902951487
 10
265.8824489978
 20
186.8950637307
 10
265.8275032227
 20
187.3047496322
 10
265.7605003491
 20
187.7187932715
 10
265.6815318947
 20
188.1366291148
 10
265.5907057211
 20
188.5576864486
 10
265.4881458858
 20
188.9813901593
 10
265.3739924733
 20
189.4071615184
 10
265.2484014033
 20
189.8344189736
 10
265.1115442182
 20
190.2625789426
 10
264.9636078484
 20
190.6910566104
 10
264.8047943573
 20
191.1192667279
 10
264.6353206648
 20
191.5466244117
 10
264.4554182518
 20
191.9725459426
 10
264.2653328432
 20
192.3964495631
 10
264.0653240729
 20
192.8177562716
 10
263.8556651288
 20
193.2358906141
 10
263.6366423798
 20
193.6502814692
 10
263.4085549847
 20
194.060362829
 10
263.1717144832
 20
194.4655745715
 10
262.9264443712
 20
194.8653632263
 10
262.6730796581
 20
195.2591827301
 10
262.4119664096
 20
195.646495173
 10
262.1434612749
 20
196.0267715326
 10
261.8679309998
 20
196.3994923973
 10
261.5857519256
 20
196.7641486752
 10
261.2973094749
 20
197.1202422895
 10
261.0029976253
 20
197.4672868594
 10
260.7032183715
 20
197.8048083637
 10
260.3983811759
 20
198.1323457885
 10
260.0889024093
 20
198.4494517572
 10
259.7752047827
 20
198.7556931412
 10
259.4577167691
 20
199.0506516515
 10
259.1368720191
 20
199.3339244104
 10
258.813108768
 20
199.6051245012
 10
258.4868692374
 20
199.8638814974
 10
258.1585990313
 20
200.1098419679
 10
257.8287465273
 20
200.3426699603
 10
257.4977622642
 20
200.5620474597
 10
257.1660983268
 20
200.7676748227
 10
256.8342077281
 20
200.9592711871
 10
256.5025437906
 20
201.1365748553
 10
256.1715595276
 20
201.2993436519
 10
255.8417070236
 20
201.4473552541
 10
255.5134368175
 20
201.5804074961
 10
255.1871972869
 20
201.6983186444
 10
254.8634340357
 20
201.8009276465
 10
254.5425892857
 20
201.888094351
 10
254.2251012722
 20
201.9596996986
 10
253.9114036455
 20
202.015645885
 10
253.601924879
 20
202.0558564944
 10
253.2970876834
 20
202.080276604
 10
252.9973084296
 20
202.0888728589
 10
252.70299658
 20
202.0816335176
 10
252.4145541293
 20
202.0585684681
 10
252.132375055
 20
202.0197092146
 10
251.85684478
 20
201.9651088341
 10
251.5883396453
 20
201.8948419042
 10
251.3272263968
 20
201.809004401
 10
251.0738616836
 20
201.7077135683
 10
250.8285915716
 20
201.5911077571
 10
250.6506690752
 20
201.4939959306
  0
LWPOLYLINE
  5
1C2
330
1F
100
AcDbEntity
  8
0
  6
Continuous
 62
     7
370
    18
100
AcDbPolyline
 90
       23
 70
   128
 43
0.0
 10
263.3496369797
 20
179.4963548261
 10
263.4085549847
 20
179.5310045198
 10
263.6366423798
 20
179.6777417784
 10
263.8556651288
 20
179.8392543502
 10
264.0653240729
 20
180.0153216284
 10
264.2653328432
 20
180.2057031262
 10
264.4554182518
 20
180.4101388054
 10
264.6353206648
 20
180.6283494315
 10
264.8047943573
 20
180.860036955
 10
264.9636078484
 20
181.1048849186
 10
265.1115442182
 20
181.3625588894
 10
265.2484014033
 20
181.6327069158
 10
265.3739924733
 20
181.9149600082
 10
265.4881458858
 20
182.2089326426
 10
265.5907057211
 20
182.5142232879
 10
265.6815318947
 20
182.8304149538
 10
265.7605003491
 20
183.1570757604
 10
265.8275032227
 20
183.4937595285
 10
265.8824489978
 20
183.8400063884
 10
265.925262625
 20
184.1953434087
 10
265.9558856261
 20
184.5592852416
 10
265.9742761737
 20
184.9313347864
 10
265.9804091485
 20
185.3109838683
  0
ARC
  5
1C3
330
1F
100
AcDbEntity
  8
0
  6
Continuous
 62
     7
370
    18
100
AcDbCircle
 10
249.7284080449
 20
184.7058274615
 30
0.0
 40
15.77358562173397
100
AcDbArc
 50
8.5786139431
 51
10.1662420674
  0
LINE
  5
1C4
330
1F
100
AcDbEntity
  8
0
  6
Continuous
 62
     7
370
    18
100
AcDbLine
 10
264.5917827231
 20
186.6351364607
 30
0.0
 11
265.3255207986
 21
187.0587144356
 31
0.0
  0
ARC
  5
1C5
330
1F
100
AcDbEntity
  8
0
  6
Continuous
 62
     7
370
    18
100
AcDbCircle
 10
249.4239204389
 20
184.3484897562
 30
0.0
 40
15.33925680799697
100
AcDbArc
 50
8.1687574081
 51
8.5731250502
  0
LINE
  5
1C6
330
1F
100
AcDbEntity
  8
0
  6
Continuous
 62
     7
370
    18
100
AcDbLine
 10
265.4383934268
 20
187.0076722705
 30
0.0
 11
264.6075429589
 21
186.5280325048
 31
0.0
  0
ARC
  5
1C7
330
1F
100
AcDbEntity
  8
0
  6
Continuous
 62
     7
370
    18
100
AcDbCircle
 10
249.9115318522
 20
184.7763915081
 30
0.0
 40
15.68636491340187
100
AcDbArc
 50
8.1776788812
 51
10.1695544631
  0
LINE
  5
1C8
330
1F
100
AcDbEntity
  8
0
  6
Continuous
 62
     7
370
    18
100
AcDbLine
 10
265.2543447945
 20
187.4899415777
 30
0.0
 11
265.3514571869
 21
187.5460033685
 31
0.0
  0
SPLINE
  5
1C9
330
1F
100
AcDbEntity
  8
0
  6
Continuous
 62
     7
370
    18
100
AcDbSpline
210
0.0
220
0.0
230
1.0
 70
     8
 71
     3
 72
    12
 73
     8
 74
     0
 42
0.000000001
 43
0.00000001
 40
0.0
 40
0.0
 40
0.0
 40
0.0
 40
0.1249944231638769
 40
0.2499890121454629
 40
0.4998659696244154
 40
0.7499135593620972
 40
1.0
 40
1.0
 40
1.0
 40
1.0
 10
264.7834742961737
 20
185.6975355913819
 30
0.0
 10
264.7954122386485
 20
185.7136008574869
 30
0.0
 10
264.8192881394348
 20
185.745731411009
 30
0.0
 10
264.8722848679544
 20
185.8014141390576
 30
0.0
 10
264.9419860775998
 20
185.861496536765
 30
0.0
 10
265.0280649704657
 20
185.9230490341462
 30
0.0
 10
265.0862815135017
 20
185.9577083393671
 30
0.0
 10
265.1153920461786
 20
185.9750393381619
 30
0.0
  0
SPLINE
  5
1CA
330
1F
100
AcDbEntity
  8
0
  6
Continuous
 62
     7
370
    18
100
AcDbSpline
210
0.0
220
0.0
230
1.0
 70
     8
 71
     3
 72
    13
 73
     9
 74
     0
 42
0.000000001
 43
0.00000001
 40
0.0
 40
0.0
 40
0.0
 40
0.0
 40
0.1251997679052456
 40
0.2503372878808424
 40
0.4998911747935266
 40
0.7496238029530076
 40
0.8747841606148099
 40
1.0
 40
1.0
 40
1.0
 40
1.0
 10
264.7096454269414
 20
185.463076077942
 30
0.0
 10
264.7092328492507
 20
185.4724382737827
 30
0.0
 10
264.7084078989983
 20
185.4911580106846
 30
0.0
 10
264.7115825320141
 20
185.5308189652886
 30
0.0
 10
264.7226328028873
 20
185.5826027765157
 30
0.0
 10
264.7444177569916
 20
185.6330603138983
 30
0.0
 10
264.7656145491138
 20
185.6708740597506
 30
0.0
 10
264.7775201677514
 20
185.688647101375
 30
0.0
 10
264.7834742961737
 20
185.6975355913819
 30
0.0
  0
SPLINE
  5
1CB
330
1F
100
AcDbEntity
  8
0
  6
Continuous
 62
     7
370
    18
100
AcDbSpline
210
0.0
220
0.0
230
1.0
 70
     8
 71
     3
 72
    16
 73
    12
 74
     0
 42
0.000000001
 43
0.00000001
 40
0.0
 40
0.0
 40
0.0
 40
0.0
 40
0.125169605889923
 40
0.2503305803863827
 40
0.5002344284267309
 40
0.6344692268565069
 40
0.7499992257119569
 40
0.8127385779135675
 40
0.874972216178242
 40
0.9374591980871736
 40
1.0
 40
1.0
 40
1.0
 40
1.0
 10
265.1516571949636
 20
185.4450068393968
 30
0.0
 10
265.1293254263855
 20
185.4324129846666
 30
0.0
 10
265.0846634291743
 20
185.4072261436479
 30
0.0
 10
264.9953923019812
 20
185.3644058598885
 30
0.0
 10
264.9043175111902
 20
185.3312556157205
 30
0.0
 10
264.8195878286451
 20
185.3249166965693
 30
0.0
 10
264.7718862024836
 20
185.3384837284067
 30
0.0
 10
264.7424920838152
 20
185.3629837747537
 30
0.0
 10
264.725262962007
 20
185.3902074981968
 30
0.0
 10
264.7137521268763
 20
185.4237698912475
 30
0.0
 10
264.7110147197051
 20
185.4499702562694
 30
0.0
 10
264.7096454269414
 20
185.463076077942
 30
0.0
  0
SPLINE
  5
1CC
330
1F
100
AcDbEntity
  8
0
  6
Continuous
 62
     7
370
    18
100
AcDbSpline
210
0.0
220
0.0
230
1.0
 70
     8
 71
     3
 72
    16
 73
    12
 74
     0
 42
0.000000001
 43
0.00000001
 40
0.0
 40
0.0
 40
0.0
 40
0.0
 40
0.0625504672670119
 40
0.1250450729890672
 40
0.249540233350846
 40
0.3495277477999267
 40
0.4992738744144531
 40
0.6244010449096978
 40
0.7495800244049264
 40
0.8747855038494083
 40
0.9999999999999999
 40
0.9999999999999999
 40
0.9999999999999999
 40
0.9999999999999999
 10
265.5621593582136
 20
185.9539619322514
 30
0.0
 10
265.5625392624004
 20
185.9403209494116
 30
0.0
 10
265.5632987314954
 20
185.9130511659972
 30
0.0
 10
265.5536361930288
 20
185.8543347133724
 30
0.0
 10
265.5273829189045
 20
185.7858882850088
 30
0.0
 10
265.4785901063898
 20
185.7052323245823
 30
0.0
 10
265.4188279717158
 20
185.6365039710043
 30
0.0
 10
265.3503853265694
 20
185.5773852649756
 30
0.0
 10
265.2847735400893
 20
185.5281880410213
 30
0.0
 10
265.2183690154228
 20
185.4845007591216
 30
0.0
 10
265.1738950022321
 20
185.4581717953082
 30
0.0
 10
265.1516571949636
 20
185.4450068393968
 30
0.0
  0
SPLINE
  5
1CD
330
1F
100
AcDbEntity
  8
0
  6
Continuous
 62
     7
370
    18
100
AcDbSpline
210
0.0
220
0.0
230
1.0
 70
     8
 71
     3
 72
    16
 73
    12
 74
     0
 42
0.000000001
 43
0.00000001
 40
0.0
 40
0.0
 40
0.0
 40
0.0
 40
0.1251714468124815
 40
0.2503345712924424
 40
0.5002432313917586
 40
0.6343687152113107
 40
0.7500270449017109
 40
0.8127090061679884
 40
0.8749750189613901
 40
0.9374562791877795
 40
1.0
 40
1.0
 40
1.0
 40
1.0
 10
265.1153920461786
 20
185.9750393381619
 30
0.0
 10
265.1377069631749
 20
185.9876031394897
 30
0.0
 10
265.1823353135052
 20
186.0127299068099
 30
0.0
 10
265.2718459303227
 20
186.0552738734558
 30
0.0
 10
265.3634820855319
 20
186.0875600020439
 30
0.0
 10
265.4495756706664
 20
186.0936020121636
 30
0.0
 10
265.4982477778157
 20
186.0793433470591
 30
0.0
 10
265.5283519183104
 20
186.0543443838412
 30
0.0
 10
265.5461455800952
 20
186.0269718360571
 30
0.0
 10
265.5580386761847
 20
185.993282043385
 30
0.0
 10
265.5607853401401
 20
185.9670730005095
 30
0.0
 10
265.5621593582136
 20
185.9539619322514
 30
0.0
  0
ARC
  5
1CE
330
1F
100
AcDbEntity
  8
0
  6
Continuous
 62
     7
370
    18
100
AcDbCircle
 10
254.1457515543
 20
184.8689906465
 30
0.0
 40
11.10104387149122
100
AcDbArc
 50
356.9796964112
 51
357.9986802194
  0
SPLINE
  5
1CF
330
1F
100
AcDbEntity
  8
0
  6
Continuous
 62
     7
370
    18
100
AcDbSpline
210
0.0
220
0.0
230
1.0
 70
     8
 71
     3
 72
    15
 73
    11
 74
     0
 42
0.000000001
 43
0.00000001
 40
0.0
 40
0.0
 40
0.0
 40
0.0
 40
0.1251267795938247
 40
0.2502087440698726
 40
0.3752035874756854
 40
0.5001276200209023
 40
0.618187158366884
 40
0.7497555672937434
 40
0.8748246125365774
 40
1.0
 40
1.0
 40
1.0
 40
1.0
 10
264.9909161586132
 20
184.6258430444538
 30
0.0
 10
265.0082171372935
 20
184.6351990860675
 30
0.0
 10
265.0428128981754
 20
184.6539078183566
 30
0.0
 10
265.093709762516
 20
184.6706080118815
 30
0.0
 10
265.1413573626033
 20
184.6749658744666
 30
0.0
 10
265.1835299210242
 20
184.6665513330676
 30
0.0
 10
265.2149841500811
 20
184.6377053464233
 30
0.0
 10
265.2328036502059
 20
184.5931552263386
 30
0.0
 10
265.2406387028947
 20
184.539306189347
 30
0.0
 10
265.2402289875367
 20
184.5006503729101
 30
0.0
 10
265.2400240428027
 20
184.4813142512315
 30
0.0
  0
SPLINE
  5
1D0
330
1F
100
AcDbEntity
  8
0
  6
Continuous
 62
     7
370
    18
100
AcDbSpline
210
0.0
220
0.0
230
1.0
 70
     8
 71
     3
 72
    14
 73
    10
 74
     0
 42
0.000000001
 43
0.00000001
 40
0.0
 40
0.0
 40
0.0
 40
0.0
 40
0.0715632193436385
 40
0.1431246732572918
 40
0.2503740552462863
 40
0.4997860919222356
 40
0.749541346365666
 40
0.849734988743539
 40
1.0
 40
1.0
 40
1.0
 40
1.0
 10
264.7638286207881
 20
184.3487397611059
 30
0.0
 10
264.7664077689221
 20
184.3571248238627
 30
0.0
 10
264.7715660015637
 20
184.3738947425208
 30
0.0
 10
264.7837668635078
 20
184.4033792430864
 30
0.0
 10
264.8086481382496
 20
184.4530467069039
 30
0.0
 10
264.8553741686079
 20
184.518083846717
 30
0.0
 10
264.9084360161314
 20
184.5689436737939
 30
0.0
 10
264.9540308067951
 20
184.6033532167984
 30
0.0
 10
264.9770847373828
 20
184.6174097161982
 30
0.0
 10
264.9909161586132
 20
184.6258430444538
 30
0.0
  0
SPLINE
  5
1D1
330
1F
100
AcDbEntity
  8
0
  6
Continuous
 62
     7
370
    18
100
AcDbSpline
210
0.0
220
0.0
230
1.0
 70
     8
 71
     3
 72
    12
 73
     8
 74
     0
 42
0.000000001
 43
0.00000001
 40
0.0
 40
0.0
 40
0.0
 40
0.0
 40
0.2716297071034939
 40
0.5000612463476961
 40
0.7500575439835123
 40
0.8670058443960404
 40
1.0
 40
1.0
 40
1.0
 40
1.0
 10
264.7434431408697
 20
184.1882940079143
 30
0.0
 10
264.7440073440515
 20
184.2021506807917
 30
0.0
 10
264.745046023323
 20
184.2276603541748
 30
0.0
 10
264.7485300700313
 20
184.2671422097416
 30
0.0
 10
264.7526045003759
 20
184.2992302874644
 30
0.0
 10
264.758140550505
 20
184.3270348405893
 30
0.0
 10
264.7618531499625
 20
184.3412016268848
 30
0.0
 10
264.7638286207881
 20
184.3487397611059
 30
0.0
  0
ARC
  5
1D2
330
1F
100
AcDbEntity
  8
0
  6
Continuous
 62
     7
370
    18
100
AcDbCircle
 10
253.7385919878
 20
184.5786180404
 30
0.0
 40
11.01177105423508
100
AcDbArc
 50
356.4733105922
 51
357.9686641377
  0
LINE
  5
1D3
330
1F
100
AcDbEntity
  8
0
  6
Continuous
 62
     7
370
    18
100
AcDbLine
 10
265.5603599974
 20
184.3808854246
 30
0.0
 11
264.7295095295
 21
183.9012456589
 31
0.0
  0
ARC
  5
1D4
330
1F
100
AcDbEntity
  8
0
  6
Continuous
 62
     7
370
    18
100
AcDbCircle
 10
254.7323491843
 20
185.0491639961
 30
0.0
 40
10.84861347903363
100
AcDbArc
 50
356.468322996
 51
356.9777282547
  0
LINE
  5
1D5
330
1F
100
AcDbEntity
  8
0
  6
Continuous
 62
     7
370
    18
100
AcDbLine
 10
265.2313752549
 20
184.2840785124
 30
0.0
 11
265.5658734952
 21
184.4771802362
 31
0.0
  0
SPLINE
  5
1D6
330
1F
100
AcDbEntity
  8
0
  6
Continuous
 62
     7
370
    18
100
AcDbSpline
210
0.0
220
0.0
230
1.0
 70
     8
 71
     3
 72
     8
 73
     4
 74
     0
 42
0.000000001
 43
0.00000001
 40
0.0
 40
0.0
 40
0.0
 40
0.0
 40
1.0
 40
1.0
 40
1.0
 40
1.0
 10
265.4285218765243
 20
183.2627850875279
 30
0.0
 10
265.1746905252135
 20
183.0554159045666
 30
0.0
 10
264.9201456423186
 20
182.8486127263451
 30
0.0
 10
264.664890339163
 20
182.6423918627622
 30
0.0
  0
ARC
  5
1D7
330
1F
100
AcDbEntity
  8
0
  6
Continuous
 62
     7
370
    18
100
AcDbCircle
 10
256.6122623856
 20
184.8376946299
 30
0.0
 40
8.955823327785106
100
AcDbArc
 50
349.8716913246
 51
350.4641218748
  0
SPLINE
  5
1D8
330
1F
100
AcDbEntity
  8
0
  6
Continuous
 62
     7
370
    18
100
AcDbSpline
210
0.0
220
0.0
230
1.0
 70
     8
 71
     3
 72
     8
 73
     4
 74
     0
 42
0.000000001
 43
0.00000001
 40
0.0
 40
0.0
 40
0.0
 40
0.0
 40
1.0
 40
1.0
 40
1.0
 40
1.0
 10
264.7910285035687
 20
183.1665257940336
 30
0.0
 10
265.0095260548713
 20
183.2284692832767
 30
0.0
 10
265.2272938800309
 20
183.2909638307279
 30
0.0
 10
265.4443346551412
 20
183.3540265728288
 30
0.0
  0
LINE
  5
1D9
330
1F
100
AcDbEntity
  8
0
  6
Continuous
 62
     7
370
    18
100
AcDbLine
 10
265.4768847745
 20
183.5624621915
 30
0.0
 11
264.7910285036
 21
183.166525794
 31
0.0
  0
ARC
  5
1DA
330
1F
100
AcDbEntity
  8
0
  6
Continuous
 62
     7
370
    18
100
AcDbCircle
 10
256.1209541024
 20
184.9144160845
 30
0.0
 40
9.453106265706813
100
AcDbArc
 50
351.7775412946
 51
352.3359215219
  0
LINE
  5
1DB
330
1F
100
AcDbEntity
  8
0
  6
Continuous
 62
     7
370
    18
100
AcDbLine
 10
264.6587653722
 20
183.1740640933
 30
0.0
 11
265.4896158401
 21
183.6537038589
 31
0.0
  0
ARC
  5
1DC
330
1F
100
AcDbEntity
  8
0
  6
Continuous
 62
     7
370
    18
100
AcDbCircle
 10
255.3215237843
 20
184.4304225914
 30
0.0
 40
9.421386158412872
100
AcDbArc
 50
351.544229324
 51
352.3366786127
  0
SPLINE
  5
1DD
330
1F
100
AcDbEntity
  8
0
  6
Continuous
 62
     7
370
    18
100
AcDbSpline
210
0.0
220
0.0
230
1.0
 70
     8
 71
     3
 72
     8
 73
     4
 74
     0
 42
0.000000001
 43
0.00000001
 40
0.0
 40
0.0
 40
0.0
 40
0.0
 40
1.0
 40
1.0
 40
1.0
 40
1.0
 10
265.1906063258135
 20
183.2021890200184
 30
0.0
 10
265.0077605016399
 20
183.1494020273254
 30
0.0
 10
264.8243910672365
 20
183.0970246378196
 30
0.0
 10
264.6404963638049
 20
183.0450463937838
 30
0.0
  0
SPLINE
  5
1DE
330
1F
100
AcDbEntity
  8
0
  6
Continuous
 62
     7
370
    18
100
AcDbSpline
210
0.0
220
0.0
230
1.0
 70
     8
 71
     3
 72
     9
 73
     5
 74
     0
 42
0.000000001
 43
0.00000001
 40
0.0
 40
0.0
 40
0.0
 40
0.0
 40
0.4999953013385212
 40
0.9999999999999999
 40
0.9999999999999999
 40
0.9999999999999999
 40
0.9999999999999999
 10
265.3171500842856
 20
183.2401857171223
 30
0.0
 10
265.2959912397181
 20
183.2336417124499
 30
0.0
 10
265.2536731529063
 20
183.2205535801118
 30
0.0
 10
265.2116287332128
 20
183.2083105784
 30
0.0
 10
265.1906063258135
 20
183.2021890200184
 30
0.0
  0
SPLINE
  5
1DF
330
1F
100
AcDbEntity
  8
0
  6
Continuous
 62
     7
370
    18
100
AcDbSpline
210
0.0
220
0.0
230
1.0
 70
     8
 71
     3
 72
     8
 73
     4
 74
     0
 42
0.000000001
 43
0.00000001
 40
0.0
 40
0.0
 40
0.0
 40
0.0
 40
1.0
 40
1.0
 40
1.0
 40
1.0
 10
265.188225196767
 20
183.1357459627581
 30
0.0
 10
265.2312192847547
 20
183.1705441026665
 30
0.0
 10
265.2741942514827
 20
183.2053573782238
 30
0.0
 10
265.3171500842856
 20
183.2401857171223
 30
0.0
  0
SPLINE
  5
1E0
330
1F
100
AcDbEntity
  8
0
  6
Continuous
 62
     7
370
    18
100
AcDbSpline
210
0.0
220
0.0
230
1.0
 70
     8
 71
     3
 72
     8
 73
     4
 74
     0
 42
0.000000001
 43
0.00000001
 40
0.0
 40
0.0
 40
0.0
 40
0.0
 40
1.0
 40
1.0
 40
1.0
 40
1.0
 10
264.569059424298
 20
182.6307593553658
 30
0.0
 10
264.7759239496206
 20
182.7987046537079
 30
0.0
 10
264.9823130974258
 20
182.9670365016289
 30
0.0
 10
265.188225196767
 20
183.1357459627581
 30
0.0
  0
ARC
  5
1E1
330
1F
100
AcDbEntity
  8
0
  6
Continuous
 62
     7
370
    18
100
AcDbCircle
 10
256.2081901368
 20
184.2774232869
 30
0.0
 40
8.52148093624327
100
AcDbArc
 50
347.9221348573
 51
348.8582577339
  0
LINE
  5
1E2
330
1F
100
AcDbEntity
  8
0
  6
Continuous
 62
     7
370
    18
100
AcDbLine
 10
265.3718912738
 20
182.9740215298
 30
0.0
 11
264.5410408059
 21
182.4943817642
 31
0.0
  0
ARC
  5
1E3
330
1F
100
AcDbEntity
  8
0
  6
Continuous
 62
     7
370
    18
100
AcDbCircle
 10
257.0778719808
 20
184.7489348294
 30
0.0
 40
8.481808371743108
100
AcDbArc
 50
347.9209404791
 51
348.5211748712
  0
LINE
  5
1E4
330
1F
100
AcDbEntity
  8
0
  6
Continuous
 62
     7
370
    18
100
AcDbLine
 10
264.6648903392
 20
182.6423918628
 30
0.0
 11
265.3900299216
 21
183.0610060333
 31
0.0
  0
ARC
  5
1E5
330
1F
100
AcDbEntity
  8
0
  6
Continuous
 62
     7
370
    18
100
AcDbCircle
 10
246.6591795751
 20
184.5254584733
 30
0.0
 40
19.34067965345266
100
AcDbArc
 50
2.5697972707
 51
57.4248261966
  0
SPLINE
  5
1E6
330
1F
100
AcDbEntity
  8
0
  6
Continuous
 62
     7
370
    18
100
AcDbSpline
210
0.0
220
0.0
230
1.0
 70
     8
 71
     3
 72
    14
 73
    10
 74
     0
 42
0.000000001
 43
0.00000001
 40
0.0
 40
0.0
 40
0.0
 40
0.0
 40
0.250459384859402
 40
0.5007737691173237
 40
0.625870340125701
 40
0.750706973223289
 40
0.8751134679239048
 40
0.9375438466361531
 40
0.9999999999999999
 40
0.9999999999999999
 40
0.9999999999999999
 40
0.9999999999999999
 10
265.1459500878111
 20
185.547400323787
 30
0.0
 10
265.1794685168882
 20
185.5672681753443
 30
0.0
 10
265.2464859699305
 20
185.606992376193
 30
0.0
 10
265.3294640633584
 20
185.6657476556239
 30
0.0
 10
265.3936828914445
 20
185.7228622582472
 30
0.0
 10
265.4367143151209
 20
185.7771542388123
 30
0.0
 10
265.4646211088528
 20
185.8308513210679
 30
0.0
 10
265.476031585323
 20
185.8760146272266
 30
0.0
 10
265.4757636731258
 20
185.8967764806334
 30
0.0
 10
265.4756296893806
 20
185.9071595497998
 30
0.0
  0
SPLINE
  5
1E7
330
1F
100
AcDbEntity
  8
0
  6
Continuous
 62
     7
370
    18
100
AcDbSpline
210
0.0
220
0.0
230
1.0
 70
     8
 71
     3
 72
    15
 73
    11
 74
     0
 42
0.000000001
 43
0.00000001
 40
0.0
 40
0.0
 40
0.0
 40
0.0
 40
0.0312901635285473
 40
0.0625537335386487
 40
0.1249650643503538
 40
0.2494571375088223
 40
0.3743031125252768
 40
0.4993924584937469
 40
0.7496226152148614
 40
1.0
 40
1.0
 40
1.0
 40
1.0
 10
265.4756296893806
 20
185.9071595497998
 30
0.0
 10
265.4751511822009
 20
185.9120693915678
 30
0.0
 10
265.4741945745247
 20
185.921884902228
 30
0.0
 10
265.4689901010847
 20
185.9391264223319
 30
0.0
 10
265.45445466692
 20
185.9641157369972
 30
0.0
 10
265.4201813284068
 20
185.9800750183729
 30
0.0
 10
265.3737050554602
 20
185.9824349341662
 30
0.0
 10
265.3072877279617
 20
185.9639026914348
 30
0.0
 10
265.2236804157324
 20
185.9266103375637
 30
0.0
 10
265.1571238549263
 20
185.8892813743034
 30
0.0
 10
265.1238357874219
 20
185.8706114034721
 30
0.0
  0
SPLINE
  5
1E8
330
1F
100
AcDbEntity
  8
0
  6
Continuous
 62
     7
370
    18
100
AcDbSpline
210
0.0
220
0.0
230
1.0
 70
     8
 71
     3
 72
    14
 73
    10
 74
     0
 42
0.000000001
 43
0.00000001
 40
0.0
 40
0.0
 40
0.0
 40
0.0
 40
0.2504545161899749
 40
0.5007633272324232
 40
0.6258556209242576
 40
0.750676826590453
 40
0.8750919021456424
 40
0.9375290817243964
 40
1.0
 40
1.0
 40
1.0
 40
1.0
 10
265.1238357874219
 20
185.8706114034721
 30
0.0
 10
265.0902485302561
 20
185.8506869035813
 30
0.0
 10
265.023093555745
 20
185.8108494951346
 30
0.0
 10
264.9401613376194
 20
185.7518536027287
 30
0.0
 10
264.8762334128264
 20
185.69434912393
 30
0.0
 10
264.8336565449514
 20
185.6395567893066
 30
0.0
 10
264.8065516116901
 20
185.5852115601037
 30
0.0
 10
264.7957616366635
 20
185.5398635766419
 30
0.0
 10
264.7960920609506
 20
185.5190675417113
 30
0.0
 10
264.7962573177192
 20
185.5086667156566
 30
0.0
  0
SPLINE
  5
1E9
330
1F
100
AcDbEntity
  8
0
  6
Continuous
 62
     7
370
    18
100
AcDbSpline
210
0.0
220
0.0
230
1.0
 70
     8
 71
     3
 72
    16
 73
    12
 74
     0
 42
0.000000001
 43
0.00000001
 40
0.0
 40
0.0
 40
0.0
 40
0.0
 40
0.0312835484950871
 40
0.0625395266465668
 40
0.1249245184145105
 40
0.249341209545203
 40
0.3118907638807573
 40
0.3744409013743348
 40
0.4994832982156788
 40
0.7496712702792642
 40
1.0
 40
1.0
 40
1.0
 40
1.0
 10
264.7962573177192
 20
185.5086667156566
 30
0.0
 10
264.7967254237035
 20
185.5037646739648
 30
0.0
 10
264.7976612231281
 20
185.4939649107745
 30
0.0
 10
264.8028279525655
 20
185.4768242754515
 30
0.0
 10
264.8173664065295
 20
185.4523144758152
 30
0.0
 10
264.8444921736222
 20
185.4399358645668
 30
0.0
 10
264.8738867742558
 20
185.4355122212214
 30
0.0
 10
264.9054752031598
 20
185.4377684956023
 30
0.0
 10
264.9630092409247
 20
185.4539409510472
 30
0.0
 10
265.0463211405628
 20
185.491513770704
 30
0.0
 10
265.112734213063
 20
185.5287679804914
 30
0.0
 10
265.1459500878111
 20
185.547400323787
 30
0.0
  0
SPLINE
  5
1EA
330
1F
100
AcDbEntity
  8
0
  6
Continuous
 62
     7
370
    18
100
AcDbSpline
210
0.0
220
0.0
230
1.0
 70
     8
 71
     3
 72
    13
 73
     9
 74
     0
 42
0.000000001
 43
0.00000001
 40
0.0
 40
0.0
 40
0.0
 40
0.0
 40
0.1254882226959606
 40
0.2508771788381544
 40
0.5005450090960869
 40
0.7495971570815229
 40
0.8746794717871743
 40
1.0
 40
1.0
 40
1.0
 40
1.0
 10
264.9517259594228
 20
184.8400448339889
 30
0.0
 10
264.9595505787332
 20
184.8448614517765
 30
0.0
 10
264.975193627745
 20
184.8544908772008
 30
0.0
 10
265.0060521448241
 20
184.8781192499787
 30
0.0
 10
265.0423450346077
 20
184.9175793008481
 30
0.0
 10
265.0699902289235
 20
184.967246497515
 30
0.0
 10
265.0818611734766
 20
185.0084079426487
 30
0.0
 10
265.0824712438234
 20
185.027276190462
 30
0.0
 10
265.0827765691832
 20
185.0367192892498
 30
0.0
  0
SPLINE
  5
1EB
330
1F
100
AcDbEntity
  8
0
  6
Continuous
 62
     7
370
    18
100
AcDbSpline
210
0.0
220
0.0
230
1.0
 70
     8
 71
     3
 72
    13
 73
     9
 74
     0
 42
0.000000001
 43
0.00000001
 40
0.0
 40
0.0
 40
0.0
 40
0.0
 40
0.1253047435647259
 40
0.2504027799562251
 40
0.4995369840271979
 40
0.7491839309539594
 40
0.8745340631531408
 40
1.0
 40
1.0
 40
1.0
 40
1.0
 10
265.0827765691832
 20
185.0367192892498
 30
0.0
 10
265.0821259236617
 20
185.045322785816
 30
0.0
 10
265.0808257059468
 20
185.0625155863139
 30
0.0
 10
265.0680607079196
 20
185.088600065398
 30
0.0
 10
265.0406177566186
 20
185.1063052200832
 30
0.0
 10
265.0053004462223
 20
185.1056655731773
 30
0.0
 10
264.9752765989458
 20
185.0948370883371
 30
0.0
 10
264.9601174227066
 20
185.0867315382043
 30
0.0
 10
264.9525343350045
 20
185.0826768919253
 30
0.0
  0
SPLINE
  5
1EC
330
1F
100
AcDbEntity
  8
0
  6
Continuous
 62
     7
370
    18
100
AcDbSpline
210
0.0
220
0.0
230
1.0
 70
     8
 71
     3
 72
    13
 73
     9
 74
     0
 42
0.000000001
 43
0.00000001
 40
0.0
 40
0.0
 40
0.0
 40
0.0
 40
0.1254543875919897
 40
0.2507979436068724
 40
0.5003853269815318
 40
0.7496498539963914
 40
0.8747329887891525
 40
1.0
 40
1.0
 40
1.0
 40
1.0
 10
264.9525343350045
 20
185.0826768919253
 30
0.0
 10
264.9447986374047
 20
185.0779103688736
 30
0.0
 10
264.9293340762391
 20
185.0683815337131
 30
0.0
 10
264.8990280442974
 20
185.0442667523824
 30
0.0
 10
264.863871897202
 20
185.0042978819041
 30
0.0
 10
264.8372022387261
 20
184.9551133603843
 30
0.0
 10
264.8249559453131
 20
184.9142073181072
 30
0.0
 10
264.8242079342455
 20
184.8954335724722
 30
0.0
 10
264.8238336540132
 20
184.8860398052127
 30
0.0
  0
SPLINE
  5
1ED
330
1F
100
AcDbEntity
  8
0
  6
Continuous
 62
     7
370
    18
100
AcDbSpline
210
0.0
220
0.0
230
1.0
 70
     8
 71
     3
 72
    13
 73
     9
 74
     0
 42
0.000000001
 43
0.00000001
 40
0.0
 40
0.0
 40
0.0
 40
0.0
 40
0.125283658920328
 40
0.2503466847211209
 40
0.4996202400076377
 40
0.749247593212606
 40
0.8745639213593714
 40
1.0
 40
1.0
 40
1.0
 40
1.0
 10
264.8238336540132
 20
184.8860398052127
 30
0.0
 10
264.8244677188674
 20
184.8775088082392
 30
0.0
 10
264.8257347319441
 20
184.8604618379633
 30
0.0
 10
264.8383344493358
 20
184.8348737813752
 30
0.0
 10
264.8650411210999
 20
184.8173585232256
 30
0.0
 10
264.8996404708276
 20
184.8180888303493
 30
0.0
 10
264.9291673721426
 20
184.8278951393595
 30
0.0
 10
264.9442040366695
 20
184.8359936465921
 30
0.0
 10
264.9517259594228
 20
184.8400448339889
 30
0.0
  0
SPLINE
  5
1EE
330
1F
100
AcDbEntity
  8
0
  6
Continuous
 62
     7
370
    18
100
AcDbSpline
210
0.0
220
0.0
230
1.0
 70
     8
 71
     3
 72
    14
 73
    10
 74
     0
 42
0.000000001
 43
0.00000001
 40
0.0
 40
0.0
 40
0.0
 40
0.0
 40
0.1253490646657445
 40
0.2506336662639382
 40
0.4999797588697496
 40
0.6997617719270978
 40
0.8496451163550761
 40
0.9248056597613398
 40
1.0
 40
1.0
 40
1.0
 40
1.0
 10
265.3367894506337
 20
185.0245855205155
 30
0.0
 10
265.3468492320595
 20
185.0307781766236
 30
0.0
 10
265.3669636214831
 20
185.043160304152
 30
0.0
 10
265.4065091355322
 20
185.0744247396057
 30
0.0
 10
265.4490900248142
 20
185.1222035480401
 30
0.0
 10
265.4833587241474
 20
185.182450593904
 30
0.0
 10
265.4981673418615
 20
185.2273846465669
 30
0.0
 10
265.503417742049
 20
185.2581460727102
 30
0.0
 10
265.5035371957586
 20
185.2724834273384
 30
0.0
 10
265.5035969360387
 20
185.2796537160308
 30
0.0
  0
SPLINE
  5
1EF
330
1F
100
AcDbEntity
  8
0
  6
Continuous
 62
     7
370
    18
100
AcDbSpline
210
0.0
220
0.0
230
1.0
 70
     8
 71
     3
 72
    15
 73
    11
 74
     0
 42
0.000000001
 43
0.00000001
 40
0.0
 40
0.0
 40
0.0
 40
0.0
 40
0.0715595944009299
 40
0.1431103527383205
 40
0.2858165697727126
 40
0.4994433945525105
 40
0.6422617854462532
 40
0.7495449571936974
 40
0.8747340845736726
 40
1.0
 40
1.0
 40
1.0
 40
1.0
 10
265.5035969360387
 20
185.2796537160308
 30
0.0
 10
265.5032843666406
 20
185.2861894020365
 30
0.0
 10
265.50265926644
 20
185.299259967032
 30
0.0
 10
265.4972374302222
 20
185.3224753778576
 30
0.0
 10
265.4826042876861
 20
185.3514731033404
 30
0.0
 10
265.4531895291364
 20
185.3691299442106
 30
0.0
 10
265.4205550456495
 20
185.3725679919278
 30
0.0
 10
265.3919428616387
 20
185.367651850667
 30
0.0
 10
265.3637556398081
 20
185.3578736585609
 30
0.0
 10
265.3438568880262
 20
185.3469947753593
 30
0.0
 10
265.3339044617149
 20
185.3415536660577
 30
0.0
  0
SPLINE
  5
1F0
330
1F
100
AcDbEntity
  8
0
  6
Continuous
 62
     7
370
    18
100
AcDbSpline
210
0.0
220
0.0
230
1.0
 70
     8
 71
     3
 72
    15
 73
    11
 74
     0
 42
0.000000001
 43
0.00000001
 40
0.0
 40
0.0
 40
0.0
 40
0.0
 40
0.1252712709783428
 40
0.2504790957413632
 40
0.4995625397827431
 40
0.6246838866660387
 40
0.7497103636737954
 40
0.8747474403126863
 40
0.9373568098531686
 40
1.0
 40
1.0
 40
1.0
 40
1.0
 10
265.3339044617149
 20
185.3415536660577
 30
0.0
 10
265.3238117248127
 20
185.3353617680988
 30
0.0
 10
265.3036313626827
 20
185.3229811081953
 30
0.0
 10
265.2642960305911
 20
185.2910448309581
 30
0.0
 10
265.2274015287418
 20
185.2490216452438
 30
0.0
 10
265.1985894431734
 20
185.199695139024
 30
0.0
 10
265.1810942994883
 20
185.160520391803
 30
0.0
 10
265.1725105364904
 20
185.1273647602451
 30
0.0
 10
265.16918704928
 20
185.1019239600593
 30
0.0
 10
265.1691619462464
 20
185.089970679278
 30
0.0
 10
265.1691493913405
 20
185.0839924250792
 30
0.0
  0
SPLINE
  5
1F1
330
1F
100
AcDbEntity
  8
0
  6
Continuous
 62
     7
370
    18
100
AcDbSpline
210
0.0
220
0.0
230
1.0
 70
     8
 71
     3
 72
    14
 73
    10
 74
     0
 42
0.000000001
 43
0.00000001
 40
0.0
 40
0.0
 40
0.0
 40
0.0
 40
0.062725943390568
 40
0.1254163283407551
 40
0.2505912687829093
 40
0.4996560567309793
 40
0.749212184566376
 40
0.8745545362824474
 40
1.0
 40
1.0
 40
1.0
 40
1.0
 10
265.1691493913405
 20
185.0839924250792
 30
0.0
 10
265.1693902820836
 20
185.0782989165718
 30
0.0
 10
265.1698719270121
 20
185.0669151271257
 30
0.0
 10
265.1740023514922
 20
185.046399907024
 30
0.0
 10
265.1874218386051
 20
185.0161958692052
 30
0.0
 10
265.222687972555
 20
184.9931414995627
 30
0.0
 10
265.2682873971989
 20
184.9949070191556
 30
0.0
 10
265.3071523483094
 20
185.0084979591561
 30
0.0
 10
265.3269077090379
 20
185.0192215303885
 30
0.0
 10
265.3367894506337
 20
185.0245855205155
 30
0.0
  0
ARC
  5
1F2
330
1F
100
AcDbEntity
  8
0
  6
Continuous
 62
     7
370
    18
100
AcDbCircle
 10
254.0434166726
 20
184.8131729216
 30
0.0
 40
11.10627196622481
100
AcDbArc
 50
356.979858633
 51
358.0298661841
  0
SPLINE
  5
1F3
330
1F
100
AcDbEntity
  8
0
  6
Continuous
 62
     7
370
    18
100
AcDbSpline
210
0.0
220
0.0
230
1.0
 70
     8
 71
     3
 72
    14
 73
    10
 74
     0
 42
0.000000001
 43
0.00000001
 40
0.0
 40
0.0
 40
0.0
 40
0.0
 40
0.1254334684850679
 40
0.250783722744881
 40
0.4991924195966445
 40
0.6189973935761645
 40
0.749328159918686
 40
0.8746069720799502
 40
1.0
 40
1.0
 40
1.0
 40
1.0
 10
265.1431235334359
 20
184.431355436843
 30
0.0
 10
265.1432608126992
 20
184.4434487930846
 30
0.0
 10
265.1435352801527
 20
184.4676274826751
 30
0.0
 10
265.1381291574412
 20
184.5118655241111
 30
0.0
 10
265.1211644035658
 20
184.5477717596992
 30
0.0
 10
265.0883244390654
 20
184.5602755244086
 30
0.0
 10
265.0586979131205
 20
184.5580309313886
 30
0.0
 10
265.0265074845167
 20
184.5471035428754
 30
0.0
 10
265.0049057216258
 20
184.5354310837897
 30
0.0
 10
264.9940999188821
 20
184.5295921950355
 30
0.0
  0
SPLINE
  5
1F4
330
1F
100
AcDbEntity
  8
0
  6
Continuous
 62
     7
370
    18
100
AcDbSpline
210
0.0
220
0.0
230
1.0
 70
     8
 71
     3
 72
    15
 73
    11
 74
     0
 42
0.000000001
 43
0.00000001
 40
0.0
 40
0.0
 40
0.0
 40
0.0
 40
0.1251494126433992
 40
0.2502382939156032
 40
0.3752400413420984
 40
0.5001576466784731
 40
0.6246526713367503
 40
0.749580694268462
 40
0.8926595291875283
 40
1.0
 40
1.0
 40
1.0
 40
1.0
 10
264.9940999188821
 20
184.5295921950355
 30
0.0
 10
264.9832840226154
 20
184.5229214123734
 30
0.0
 10
264.9616574614373
 20
184.5095830735254
 30
0.0
 10
264.9296968504933
 20
184.4826807209532
 30
0.0
 10
264.90007294392
 20
184.4496107194231
 30
0.0
 10
264.8733267970004
 20
184.4124384509518
 30
0.0
 10
264.8536838845822
 20
184.3703632994609
 30
0.0
 10
264.8462248164237
 20
184.3282967015777
 30
0.0
 10
264.8424092264967
 20
184.2901698368416
 30
0.0
 10
264.841373977315
 20
184.2655756883061
 30
0.0
 10
264.8409302250482
 20
184.25503357984
 30
0.0
  0
ARC
  5
1F5
330
1F
100
AcDbEntity
  8
0
  6
Continuous
 62
     7
370
    18
100
AcDbCircle
 10
253.7429213579
 20
184.638682289
 30
0.0
 40
11.10463809166121
100
AcDbArc
 50
356.9798074219
 51
358.0201221454
  0
LINE
  5
1F6
330
1F
100
AcDbEntity
  8
0
  6
Continuous
 62
     7
370
    18
100
AcDbLine
 10
264.8321354197
 20
184.0536022613
 30
0.0
 11
265.1342628626
 21
184.2280167216
 31
0.0
  0
ARC
  5
1F7
330
1F
100
AcDbEntity
  8
0
  6
Continuous
 62
     7
370
    18
100
AcDbCircle
 10
257.8414213223
 20
184.4818162364
 30
0.0
 40
7.595462616441863
100
AcDbArc
 50
343.5297735588
 51
344.6389408047
  0
SPLINE
  5
1F8
330
1F
100
AcDbEntity
  8
0
  6
Continuous
 62
     7
370
    18
100
AcDbSpline
210
0.0
220
0.0
230
1.0
 70
     8
 71
     3
 72
    15
 73
    11
 74
     0
 42
0.000000001
 43
0.00000001
 40
0.0
 40
0.0
 40
0.0
 40
0.0
 40
0.1388489419425462
 40
0.2501977506343576
 40
0.3831761862914935
 40
0.5002075727704828
 40
0.6213379654163077
 40
0.7499414540044697
 40
0.8749212798673505
 40
1.0
 40
1.0
 40
1.0
 40
1.0
 10
265.1655410916592
 20
182.4697720116444
 30
0.0
 10
265.1683961129336
 20
182.4811369632947
 30
0.0
 10
265.1735406958945
 20
182.50161594786
 30
0.0
 10
265.1786238950602
 20
182.5314756386471
 30
0.0
 10
265.1796824974269
 20
182.557195808361
 30
0.0
 10
265.1757572884279
 20
182.5798137349052
 30
0.0
 10
265.1646216007364
 20
182.5954768230016
 30
0.0
 10
265.1466364848251
 20
182.6038830151167
 30
0.0
 10
265.1237585074704
 20
182.6060171555445
 30
0.0
 10
265.1058591784485
 20
182.6027497646316
 30
0.0
 10
265.0969059744843
 20
182.6011154230739
 30
0.0
  0
SPLINE
  5
1F9
330
1F
100
AcDbEntity
  8
0
  6
Continuous
 62
     7
370
    18
100
AcDbSpline
210
0.0
220
0.0
230
1.0
 70
     8
 71
     3
 72
    12
 73
     8
 74
     0
 42
0.000000001
 43
0.00000001
 40
0.0
 40
0.0
 40
0.0
 40
0.0
 40
0.1384428690900724
 40
0.2499955774680644
 40
0.4999714742338587
 40
0.7499799309452745
 40
1.0
 40
1.0
 40
1.0
 40
1.0
 10
265.0969059744843
 20
182.6011154230739
 30
0.0
 10
265.0887043744621
 20
182.5991002496943
 30
0.0
 10
265.07389419502
 20
182.5954613159158
 30
0.0
 10
265.0430380435058
 20
182.5856847736139
 30
0.0
 10
265.0034530469177
 20
182.5695170749021
 30
0.0
 10
264.9533774703484
 20
182.5454733363135
 30
0.0
 10
264.9190230895435
 20
182.5260885306331
 30
0.0
 10
264.9018455002289
 20
182.5163959027027
 30
0.0
  0
SPLINE
  5
1FA
330
1F
100
AcDbEntity
  8
0
  6
Continuous
 62
     7
370
    18
100
AcDbSpline
210
0.0
220
0.0
230
1.0
 70
     8
 71
     3
 72
    15
 73
    11
 74
     0
 42
0.000000001
 43
0.00000001
 40
0.0
 40
0.0
 40
0.0
 40
0.0
 40
0.0834230312274547
 40
0.2502275879770204
 40
0.500078734728548
 40
0.6250851562570121
 40
0.7500916741890117
 40
0.8749580725237445
 40
0.937464338305881
 40
1.0
 40
1.0
 40
1.0
 40
1.0
 10
264.9018455002289
 20
182.5163959027027
 30
0.0
 10
264.8924105921438
 20
182.5108872265947
 30
0.0
 10
264.8641105620662
 20
182.4943639390185
 30
0.0
 10
264.8068422152951
 20
182.4578735539907
 30
0.0
 10
264.7434910358396
 20
182.4116746221068
 30
0.0
 10
264.686025170583
 20
182.3599995248883
 30
0.0
 10
264.6442341623282
 20
182.3175517469536
 30
0.0
 10
264.6121526522099
 20
182.2789388048411
 30
0.0
 10
264.5893168805426
 20
182.2470524091604
 30
0.0
 10
264.5798662004711
 20
182.2310993351259
 30
0.0
 10
264.5751397495625
 20
182.2231209229169
 30
0.0
  0
SPLINE
  5
1FB
330
1F
100
AcDbEntity
  8
0
  6
Continuous
 62
     7
370
    18
100
AcDbSpline
210
0.0
220
0.0
230
1.0
 70
     8
 71
     3
 72
    12
 73
     8
 74
     0
 42
0.000000001
 43
0.00000001
 40
0.0
 40
0.0
 40
0.0
 40
0.0
 40
0.1264898950856212
 40
0.2499216889095109
 40
0.4999002110562584
 40
0.7499192313532306
 40
1.0
 40
1.0
 40
1.0
 40
1.0
 10
264.5751397495625
 20
182.2231209229169
 30
0.0
 10
264.5721499388603
 20
182.2175097133326
 30
0.0
 10
264.5662426010472
 20
182.206422954385
 30
0.0
 10
264.556242508047
 20
182.18478328886
 30
0.0
 10
264.5465385733672
 20
182.1589829000447
 30
0.0
 10
264.5364623511921
 20
182.1288839367145
 30
0.0
 10
264.5310154585209
 20
182.1096201845997
 30
0.0
 10
264.5282916759157
 20
182.0999871192747
 30
0.0
  0
ARC
  5
1FC
330
1F
100
AcDbEntity
  8
0
  6
Continuous
 62
     7
370
    18
100
AcDbCircle
 10
257.2064561105
 20
184.1138206633
 30
0.0
 40
7.593734363958296
100
AcDbArc
 50
343.5296901577
 51
344.6213569756
  0
LINE
  5
1FD
330
1F
100
AcDbEntity
  8
0
  6
Continuous
 62
     7
370
    18
100
AcDbLine
 10
264.4885951041
 20
181.96085683
 30
0.0
 11
265.1252207873
 21
182.3283730141
 31
0.0
  0
OLE2FRAME
  5
1FE
330
1F
100
AcDbEntity
  8
0
100
AcDbOle2Frame
 70
     2
  3
Paintbrush Picture
 10
229.0524258301
 20
33.6996297921
 30
0.0
 11
265.1686469208
 21
28.555479607
 31
0.0
 71
     2
 72
     0
 73
     1
 90
     7296
310
80557333EF78ADA16C40002412788DD94040000000000000000041161DC7B292
310
7040002412788DD94040000000000000000041161DC7B2927040F6DD59E9338E
310
3C4000000000000000007333EF78ADA16C40F6DD59E9338E3C40000000000000
310
00000000000001000000000100000100000001000000000001000000001C0000
310
D0CF11E0A1B11AE1000000000000000000000000000000003E000300FEFF0900
310
0600000000000000000000000100000001000000000000000010000002000000
310
01000000FEFFFFFF0000000000000000FFFFFFFFFFFFFFFFFFFFFFFFFFFFFFFF
310
FFFFFFFFFFFFFFFFFFFFFFFFFFFFFFFFFFFFFFFFFFFFFFFFFFFFFFFFFFFFFFFF
310
FFFFFFFFFFFFFFFFFFFFFFFFFFFFFFFFFFFFFFFFFFFFFFFFFFFFFFFFFFFFFFFF
310
FFFFFFFFFFFFFFFFFFFFFFFFFFFFFFFFFFFFFFFFFFFFFFFFFFFFFFFFFFFFFFFF
310
FFFFFFFFFFFFFFFFFFFFFFFFFFFFFFFFFFFFFFFFFFFFFFFFFFFFFFFFFFFFFFFF
310
FFFFFFFFFFFFFFFFFFFFFFFFFFFFFFFFFFFFFFFFFFFFFFFFFFFFFFFFFFFFFFFF
310
FFFFFFFFFFFFFFFFFFFFFFFFFFFFFFFFFFFFFFFFFFFFFFFFFFFFFFFFFFFFFFFF
310
FFFFFFFFFFFFFFFFFFFFFFFFFFFFFFFFFFFFFFFFFFFFFFFFFFFFFFFFFFFFFFFF
310
FFFFFFFFFFFFFFFFFFFFFFFFFFFFFFFFFFFFFFFFFFFFFFFFFFFFFFFFFFFFFFFF
310
FFFFFFFFFFFFFFFFFFFFFFFFFFFFFFFFFFFFFFFFFFFFFFFFFFFFFFFFFFFFFFFF
310
FFFFFFFFFFFFFFFFFFFFFFFFFFFFFFFFFFFFFFFFFFFFFFFFFFFFFFFFFFFFFFFF
310
FFFFFFFFFFFFFFFFFFFFFFFFFFFFFFFFFFFFFFFFFFFFFFFFFFFFFFFFFFFFFFFF
310
FFFFFFFFFFFFFFFFFFFFFFFFFFFFFFFFFFFFFFFFFFFFFFFFFFFFFFFFFFFFFFFF
310
FFFFFFFFFFFFFFFFFFFFFFFFFFFFFFFFFFFFFFFFFFFFFFFFFFFFFFFFFFFFFFFF
310
FDFFFFFFFEFFFFFFFEFFFFFFFEFFFFFF05000000060000000700000008000000
310
090000000A0000000B0000000C000000FEFFFFFFFFFFFFFFFFFFFFFFFFFFFFFF
310
FFFFFFFFFFFFFFFFFFFFFFFFFFFFFFFFFFFFFFFFFFFFFFFFFFFFFFFFFFFFFFFF
310
FFFFFFFFFFFFFFFFFFFFFFFFFFFFFFFFFFFFFFFFFFFFFFFFFFFFFFFFFFFFFFFF
310
FFFFFFFFFFFFFFFFFFFFFFFFFFFFFFFFFFFFFFFFFFFFFFFFFFFFFFFFFFFFFFFF
310
FFFFFFFFFFFFFFFFFFFFFFFFFFFFFFFFFFFFFFFFFFFFFFFFFFFFFFFFFFFFFFFF
310
FFFFFFFFFFFFFFFFFFFFFFFFFFFFFFFFFFFFFFFFFFFFFFFFFFFFFFFFFFFFFFFF
310
FFFFFFFFFFFFFFFFFFFFFFFFFFFFFFFFFFFFFFFFFFFFFFFFFFFFFFFFFFFFFFFF
310
FFFFFFFFFFFFFFFFFFFFFFFFFFFFFFFFFFFFFFFFFFFFFFFFFFFFFFFFFFFFFFFF
310
FFFFFFFFFFFFFFFFFFFFFFFFFFFFFFFFFFFFFFFFFFFFFFFFFFFFFFFFFFFFFFFF
310
FFFFFFFFFFFFFFFFFFFFFFFFFFFFFFFFFFFFFFFFFFFFFFFFFFFFFFFFFFFFFFFF
310
FFFFFFFFFFFFFFFFFFFFFFFFFFFFFFFFFFFFFFFFFFFFFFFFFFFFFFFFFFFFFFFF
310
FFFFFFFFFFFFFFFFFFFFFFFFFFFFFFFFFFFFFFFFFFFFFFFFFFFFFFFFFFFFFFFF
310
FFFFFFFFFFFFFFFFFFFFFFFFFFFFFFFFFFFFFFFFFFFFFFFFFFFFFFFFFFFFFFFF
310
FFFFFFFFFFFFFFFFFFFFFFFFFFFFFFFFFFFFFFFFFFFFFFFFFFFFFFFFFFFFFFFF
310
FFFFFFFFFFFFFFFFFFFFFFFFFFFFFFFFFFFFFFFFFFFFFFFFFFFFFFFFFFFFFFFF
310
52006F006F007400200045006E00740072007900000000000000000000000000
310
0000000000000000000000000000000000000000000000000000000000000000
310
16000500FFFFFFFFFFFFFFFF020000000A00030000000000C000000000000046
310
00000000000000000000000010E44928EE5CD40103000000C000000000000000
310
01004F006C006500000000000000000000000000000000000000000000000000
310
0000000000000000000000000000000000000000000000000000000000000000
310
0A000200FFFFFFFFFFFFFFFFFFFFFFFF00000000000000000000000000000000
310
0000000000000000000000000000000000000000000000001400000000000000
310
010043006F006D0070004F0062006A0000000000000000000000000000000000
310
0000000000000000000000000000000000000000000000000000000000000000
310
120002010100000003000000FFFFFFFF00000000000000000000000000000000
310
0000000000000000000000000000000000000000010000004D00000000000000
310
01004F006C006500310030004E00610074006900760065000000000000000000
310
0000000000000000000000000000000000000000000000000000000000000000
310
1A000200FFFFFFFFFFFFFFFFFFFFFFFF00000000000000000000000000000000
310
000000000000000000000000000000000000000004000000E411000000000000
310
FEFFFFFF02000000FEFFFFFFFFFFFFFFFFFFFFFFFFFFFFFFFFFFFFFFFFFFFFFF
310
FFFFFFFFFFFFFFFFFFFFFFFFFFFFFFFFFFFFFFFFFFFFFFFFFFFFFFFFFFFFFFFF
310
FFFFFFFFFFFFFFFFFFFFFFFFFFFFFFFFFFFFFFFFFFFFFFFFFFFFFFFFFFFFFFFF
310
FFFFFFFFFFFFFFFFFFFFFFFFFFFFFFFFFFFFFFFFFFFFFFFFFFFFFFFFFFFFFFFF
310
FFFFFFFFFFFFFFFFFFFFFFFFFFFFFFFFFFFFFFFFFFFFFFFFFFFFFFFFFFFFFFFF
310
FFFFFFFFFFFFFFFFFFFFFFFFFFFFFFFFFFFFFFFFFFFFFFFFFFFFFFFFFFFFFFFF
310
FFFFFFFFFFFFFFFFFFFFFFFFFFFFFFFFFFFFFFFFFFFFFFFFFFFFFFFFFFFFFFFF
310
FFFFFFFFFFFFFFFFFFFFFFFFFFFFFFFFFFFFFFFFFFFFFFFFFFFFFFFFFFFFFFFF
310
FFFFFFFFFFFFFFFFFFFFFFFFFFFFFFFFFFFFFFFFFFFFFFFFFFFFFFFFFFFFFFFF
310
FFFFFFFFFFFFFFFFFFFFFFFFFFFFFFFFFFFFFFFFFFFFFFFFFFFFFFFFFFFFFFFF
310
FFFFFFFFFFFFFFFFFFFFFFFFFFFFFFFFFFFFFFFFFFFFFFFFFFFFFFFFFFFFFFFF
310
FFFFFFFFFFFFFFFFFFFFFFFFFFFFFFFFFFFFFFFFFFFFFFFFFFFFFFFFFFFFFFFF
310
FFFFFFFFFFFFFFFFFFFFFFFFFFFFFFFFFFFFFFFFFFFFFFFFFFFFFFFFFFFFFFFF
310
FFFFFFFFFFFFFFFFFFFFFFFFFFFFFFFFFFFFFFFFFFFFFFFFFFFFFFFFFFFFFFFF
310
FFFFFFFFFFFFFFFFFFFFFFFFFFFFFFFFFFFFFFFFFFFFFFFFFFFFFFFFFFFFFFFF
310
FFFFFFFFFFFFFFFFFFFFFFFFFFFFFFFFFFFFFFFFFFFFFFFFFFFFFFFFFFFFFFFF
310
0100000200000000000000000000000000000000000000000000000000000000
310
0000000000000000000000000000000000000000000000000000000000000000
310
0100FEFF030A0000FFFFFFFF0A00030000000000C00000000000004607000000
310
5042727573680007000000504272757368000700000050427275736800F439B2
310
7100000000000000000000000000000000000000000000000000000000000000
310
0000000000000000000000000000000000000000000000000000000000000000
310
0000000000000000000000000000000000000000000000000000000000000000
310
0000000000000000000000000000000000000000000000000000000000000000
310
0000000000000000000000000000000000000000000000000000000000000000
310
0000000000000000000000000000000000000000000000000000000000000000
310
0000000000000000000000000000000000000000000000000000000000000000
310
0000000000000000000000000000000000000000000000000000000000000000
310
0000000000000000000000000000000000000000000000000000000000000000
310
0000000000000000000000000000000000000000000000000000000000000000
310
0000000000000000000000000000000000000000000000000000000000000000
310
0000000000000000000000000000000000000000000000000000000000000000
310
E0110000424DDE11000000000000360400002800000096000000170000000100
310
08000000000000000000E7240000E72400000001000000010000000000FF0101
310
01FF020202FF030303FF040404FF050505FF060606FF070707FF080808FF0909
310
09FF0A0A0AFF0B0B0BFF0C0C0CFF0D0D0DFF0E0E0EFF0F0F0FFF101010FF1111
310
11FF121212FF131313FF141414FF151515FF161616FF171717FF181818FF1919
310
19FF1A1A1AFF1B1B1BFF1C1C1CFF1D1D1DFF1E1E1EFF1F1F1FFF202020FF2121
310
21FF222222FF232323FF242424FF252525FF262626FF272727FF282828FF2929
310
29FF2A2A2AFF2B2B2BFF2C2C2CFF2D2D2DFF2E2E2EFF2F2F2FFF303030FF3131
310
31FF323232FF333333FF343434FF353535FF363636FF373737FF383838FF3939
310
39FF3A3A3AFF3B3B3BFF3C3C3CFF3D3D3DFF3E3E3EFF3F3F3FFF404040FF4141
310
41FF424242FF434343FF444444FF454545FF464646FF474747FF484848FF4949
310
49FF4A4A4AFF4B4B4BFF4C4C4CFF4D4D4DFF4E4E4EFF4F4F4FFF505050FF5151
310
51FF525252FF535353FF545454FF555555FF565656FF575757FF585858FF5959
310
59FF5A5A5AFF5B5B5BFF5C5C5CFF5D5D5DFF5E5E5EFF5F5F5FFF606060FF6161
310
61FF626262FF636363FF646464FF656565FF666666FF676767FF686868FF6969
310
69FF6A6A6AFF6B6B6BFF6C6C6CFF6D6D6DFF6E6E6EFF6F6F6FFF707070FF7171
310
71FF727272FF737373FF747474FF757575FF767676FF777777FF787878FF7979
310
79FF7A7A7AFF7B7B7BFF7C7C7CFF7D7D7DFF7E7E7EFF7F7F7FFF808080FF8181
310
81FF828282FF838383FF848484FF858585FF868686FF878787FF888888FF8989
310
89FF8A8A8AFF8B8B8BFF8C8C8CFF8D8D8DFF8E8E8EFF8F8F8FFF909090FF9191
310
91FF929292FF939393FF949494FF959595FF969696FF979797FF989898FF9999
310
99FF9A9A9AFF9B9B9BFF9C9C9CFF9D9D9DFF9E9E9EFF9F9F9FFFA0A0A0FFA1A1
310
A1FFA2A2A2FFA3A3A3FFA4A4A4FFA5A5A5FFA6A6A6FFA7A7A7FFA8A8A8FFA9A9
310
A9FFAAAAAAFFABABABFFACACACFFADADADFFAEAEAEFFAFAFAFFFB0B0B0FFB1B1
310
B1FFB2B2B2FFB3B3B3FFB4B4B4FFB5B5B5FFB6B6B6FFB7B7B7FFB8B8B8FFB9B9
310
B9FFBABABAFFBBBBBBFFBCBCBCFFBDBDBDFFBEBEBEFFBFBFBFFFC0C0C0FFC1C1
310
C1FFC2C2C2FFC3C3C3FFC4C4C4FFC5C5C5FFC6C6C6FFC7C7C7FFC8C8C8FFC9C9
310
C9FFCACACAFFCBCBCBFFCCCCCCFFCDCDCDFFCECECEFFCFCFCFFFD0D0D0FFD1D1
310
D1FFD2D2D2FFD3D3D3FFD4D4D4FFD5D5D5FFD6D6D6FFD7D7D7FFD8D8D8FFD9D9
310
D9FFDADADAFFDBDBDBFFDCDCDCFFDDDDDDFFDEDEDEFFDFDFDFFFE0E0E0FFE1E1
310
E1FFE2E2E2FFE3E3E3FFE4E4E4FFE5E5E5FFE6E6E6FFE7E7E7FFE8E8E8FFE9E9
310
E9FFEAEAEAFFEBEBEBFFECECECFFEDEDEDFFEEEEEEFFEFEFEFFFF0F0F0FFF1F1
310
F1FFF2F2F2FFF3F3F3FFF4F4F4FFF5F5F5FFF6F6F6FFF7F7F7FFF8F8F8FFF9F9
310
F9FFFAFAFAFFFBFBFBFFFCFCFCFFFDFDFDFFFEFEFEFFFFFFFFFFFFFFFFFFFFFF
310
C94E4E4E4F4E4EFFFFFFFFFFC94E4E4E4E4E72FFFFFFFFFFFFFF734E4D4E4E4E
310
C9FFFFFFFFFFAA683516171616265B9BE9FFFFFFFFFF4E4E4E4D4E4EFFFFFFFF
310
FFFFFFFF4E4E4F4E4D4E4E4E4F4E4E4F4D4E4E4E4E4E4D4E4F4E4D4E4E4EAAFF
310
FFFFFFFFFFEA4E4F4F4E4E4E4E4E4D4D4F4F4E4E4E4E4E5B7FAAFFFFFFFFFFFF
310
C9744E1716171616164D8DEAFFFFFFFF0000FFFFFFFFFFFFBA161617161716FF
310
FFFFFFFFB917171616174FFFFFFFFFFFFFFF4E1716161616B9FFFFFFB9341717
310
1716171617171616268CFFFFFFFF161617161617FFFFFFFFFFFFFFB917161717
310
1617167F807F7F7F7F7F7F807F7F807F7F807F7F7F414EFFFFFFFFFFFF8C167F
310
7F807F7F7F7E7F7F807F807F7F807F4E3417258EFFFFEA4E162674AABAEAEBBA
310
AA74341680FFFFFF0000FFFFFFFFFFFFB9171717171617FFFFFFFFFFBB161616
310
16164EFFFFFFFFFFFFFF4E1717171717B9FFFF9C171617171716161616171616
310
171766FFFFFF161717161617FFFFFFFFFFFFFF8E16171717161616FFFFFFFFFF
310
FFFFFFFFFFFFFFFFFFFFFFFFFFAA16D9FFFFFFFFFF3467FFFFFFFFEAFFFFFFFF
310
FFFFFFFFFFFFFFFFFFCA671667EB26278DFFFFFFFFFFFFFFFFFFFF8C2541EAFF
310
0000FFFFFFFFFFFFB9171717171716FFFFFFFFFFBA16171617174EFFFFFFFFFF
310
FFFF4E1717161616BAFF9B1617161616171716171617161616161667FFFF1616
310
16161716FFFFFFFFFFFFFF7F16161617174017FFFFFFFFFFFFFFFFFFFFFFFFFF
310
FFFFFFFFFFFF344E7F7F7F7E7417DAFFFFFFFF80FFFFFFFFFFFFFFFFFFFFFFFF
310
FFFFFF9B163425CAFFFFFFFFFFFFFFFFFFFFFFFFCA2667FF0000FFFFFFFFFFFF
310
BA171717171617FFFFFFFFFFB916171716164EFFFFFFFFFFFFFF4F1716161717
310
B9C91716171616161716161617171616161617168DFF161716161717FFFFFFFF
310
FFFFFF7F17171716164F16FFFFFFFFFFFFFFFFFFFFFFFFFFFFFFFFFFFFFF9B16
310
17161617174EFFFFFFFFFF34FFFFFFFFD9BABABABABADAFFFFFFFFFF7F16AAFF
310
FFFFFFFFFFFFFFFFFFFFFFFFFF9C16BA0000FFFFFFFFFFFFB9161717161717FF
310
FFFFFFFFB917161716174DFFFFFFFFFFFFFF4E1616161616BA4E161617171716
310
419BEAEAAA4E16161617161726E9171717161616FFFFFFFFFFFFFF4F16161717
310
164E16FFFFFFFFFFBAB9B9B9B9B9BABABACAFFFFFFFFFFFFFFFFFFFFFFFFFFFF
310
FFFFBA16FFFFFFFF7F1617161617174DEAFFFFFFEA41FFFFFFFFFFAA4D16174E
310
9BFFFFFFFFFF34730000FFFFFFFFFFFFB9161617171617FFFFFFFFFFBA161616
310
16164EFFFFFFFFFFFFFF4F16161717169B1617161716175BFFFFFFFFFFFF7417
310
16171616168D171717161617FFFFFFFFFFFFEA2616171717167416FFFFFFFFFF
310
16171616171717171717EAFFFFFFFFFFFFFFFFFFFFFFFFFFFFFF6716FFFFFFFF
310
7F4EFFFFFFFFBA2573FFFFFFFFBAFFFFFFFFAA167FB9BB9B269BFFFFFFFF664F
310
0000FFFFFFFFFFFFB9171616161616FFFFFFFFFFBA16161717164EFFFFFFFFFF
310
FFFF4E16161616174E161617171626EAFFFFFFFFFFFFFF4E16161616164E1716
310
16161617FFFFFFFFFFFF671616161716347F16FFFFFFFFFF16B9FFFFFFFFFFFF
310
D9168DFFFFFFFFFFFFFFFFFFFFFFFFFFFFEA1716FFFFFFFF7F4EFFFFFFFFFF7F
310
4EFFFFFFFFFFFFFFFFFF5B66FFFFFFEA347FFFFFFFFF7F4D0000FFFFFFFFFFFF
310
B9171616171617FFFFFFFFFFBA17161716174EFFFFFFFFFFFFFF4D1716161617
310
17161716161673FFFFFFFFFFFFFFFF9B1617161717161616171616174F4E4E4E
310
4E341616171616167E7F16FFFFFFFFFF16BAFFFFFFFFFFFFFF5B41FFFFFFFF34
310
1616171616BAFFFFFF9B1716FFFFFFFF7F4EFFFFFFFFFF4E4EFFFFFFFF734E4E
310
4E4E267EDA9B67164EEAFFFFFFFF744D0000FFFFFFFFFFFFBA171717161617FF
310
FFFFFFFFBA1616171616347F7F7F7F80807F331616161717161717161716B9FF
310
FFFFFFFFFFFFFFE9161616161616171716161716171616161616171616171734
310
EA7F16FFFFFFFFFF16BAFFFFFFFFFFFFFFAA17C9FFFFFF7326BABA5B25FFFFFF
310
FF401716FFFFFFFF7F264F4E4E4E4217AAFFFFFFEA16677F73261616164173CA
310
FFFFFFFFFFFF417F0000FFFFFFFFFFFFBA171616171617FFFFFFFFFFBA161616
310
17171616161616161616161717161616161616161617EAFFFFFFFFFFFFFFFFFF
310
261717161716161617161616161617161617161616174EEAFF8016FFFFFFFFFF
310
17BAFFFFFFFFFFFFFFFF3467FFFFFFC916C9FF3467FFFFFFDA166716FFFFFFFF
310
9C4D4E4E4E4E67AAFFFFFFFF6834FF7F262567AAEAFFFFFFFFFFFFFFFF9B17D9
310
0000FFFFFFFFFFFFB9161616161616FFFFFFFFFFBA1617161717171616161616
310
1716171716161716161617171716FFFFFFFFFFFFFFFFFFFF4E17161716171616
310
1617171616161716171717161616169BFF7F17FFFFFFFFFF17B9FFFFFFFFFFFF
310
FFFF7326FFFFFFFF3473DA16AAFFFFFF7317AA16FFFFFFFFFFFFFFFFFFFFFFFF
310
FFFFEA6725BA4E167FEAFFFFFFFFFFFFFFFFFFFF9C167FFF0000FFFFFFFFFFFF
310
B9161717171716FFFFFFFFFFBA16161716171616171717161617161716161616
310
171617171617EAFFFFFFFFFFFFFFFFFF26161717161616161616161617171616
310
1616161616171616AA8016FFFFFFFFFF16BAFFFFFFFFFFFFFFFFDA179BFFFFFF
310
74348D26FFFFFFFF2566B917FFFFFFFFD8BAB9BAB9BADAFFFFEA41169B7425C9
310
FFFFFFFFFFFFFFFFFFFFAB4F1680FFFF0000FFFFFFFFFFFFBA161717171617FF
310
FFFFFFFFBA17161717161617171617161616161617171616171716171617BBFF
310
FFFFFFFFFFFFFFE9171616161617161617161716FFFFFFFFFFD9671616161617
310
348017FFFFFFFFFF16BAFFFFFFFFFFFFFFFFFF4E5AFFFFFFC916265AFFFFFFAA
310
16AABA16FFFFFFFF7F1617161616179BFFFFEB4127168DFFFFFFFFFFFFFFD99B
310
6734175AC9FFFFFF0000FFFFFFFFFFFFB9161617171617FFFFFFFFFFBB161616
310
1616347F807F7F7F7F8033171716171617171616161672FFFFFFFFFFFFFFFF9C
310
171617171617161716161617FFFFFFFFFFFFFF4117161616174E17FFFFFFFFFF
310
16BAFFFFFFFFFFFFFFFFFF9B16DAFFFFFF34169BFFFFFF5A26FFB917FFFFFFFF
310
7F4EFFFFFFEA5B26FFFFFFEA2616EAFFFFFFFFDA743416331617414E4E4E4ECA
310
0000FFFFFFFFFFFFBA161716161616FFFFFFFFFFBA17171616164EFFFFFFFFFF
310
FFFF4E16161717174E161717171626EBFFFFFFFFFFFFFF4E16161617165B1616
310
16171617FFFFFFFFFFFFFF6716161616161617FFFFFFFFFF16BAFFFFFFFFFFFF
310
FFFFFFEA268CFFFFFF7316EAFFFFEB1774FFB916FFFFFFFF7F4EFFFFFFFF7316
310
FFFFFFFF6826FFFFFFFFEB264D9CEABA257F807F7F6616BA0000FFFFFFFFFFFF
310
BA161716161616FFFFFFFFFFBA16171616164DFFFFFFFFFFFFFF4E1617161617
310
9B1617171717165BEBFFFFFFFFFF671616161617179B171616161616FFFFFFFF
310
FFFFFF3417161617171617FFFFFFFFFF17BAFFFFFFFFFFFFFFFFFFFF6734FFFF
310
FFEBCAFFFFFF8D17C9FFBA17FFFFFFFF7F357F808066174FFFFFFFFF7F16FFFF
310
FFFFD91673B99B415BFFFFFFFFBA16DA00009B7F7F7F807F671617161616167F
310
80807F7E6617161616164EFFFFFFFFFFFFFF4E1616161617B94E171716161616
310
349BC9D9AA4E16171616161634FF161617161717B9B9BAB9BA9B411716171716
310
163416FFFFFFFFFF16B9FFFFFFFFFFFFFFFFFFFFC917CAFFFFFFFFFFFFFF3342
310
FFFFBA17FFFFFFFF9B4E4E4F4E4E66EAFFFFFFFF5B16C9FFFFFFFFAA4E164E73
310
EAFFFFFFFF8D26FF00004E161716161616171617171616171717171617161616
310
17174EFFFFFFFFFFFFFF4E1717171616B9D92616171716171716171717171716
310
16171716AAFF161717171617161617171616161617161716166717FFFFFFFFFF
310
17B9FFFFFFFFFFFFFFFFFFFFFF3467FFFFFFFFFFFFCA168CFFFFBB17FFFFFFFF
310
FFFFFFFFFFFFFFFFFFFFFFEA26265BFFFFFFFFFFFFFFFFFFFFFFFFFFEA3467FF
310
00004D16161616161617161717161617161616171617171616164EFFFFFFFFFF
310
FFFF4D1617161616BAFF9B1616161616161716161616171717161766FFFF1616
310
16171617161617161716171616171717667F16FFFFFFFFFF17BAFFFFFFFFFFFF
310
FFFFFFFFFF8C26EAFFFFFFFFFF6617EAFFFFBA17FFFFFFFFFFFFFFFFFFFFFFFF
310
FFFFEA5A25BA269BFFFFFFFFFFFFFFFFFFFFFFFF6616DAFF00004E1616171616
310
1616161616161716161617171616171616174EFFFFFFFFFFFFFF4D1717171716
310
B9FFFF9C161616161616161716161717171667FFFFFF17161717171716161617
310
1716161616161641E97E16FFFFFFFFFF16B9FFFFFFFFFFFFFFFFFFFFFFEA169B
310
FFFFFFFFEA265BFFFFFFB916FFFFFFFFFFFFFFFFFFFFFFFFFF9B3416AAFF9B17
310
67EAFFFFFFFFFFFFFFFFEA5B169BFFFF00004D17161716161616161717171616
310
161717161716171716174EFFFFFFFFFFFFFF4D1616161616BAFFFFFFBB411616
310
161716161616171634ABFFFFFFFF161716161617171716171617171617267FFF
310
FF7F164E4E4E4E4F17BAFFFFFFFFFFFFFFFFFFFFFFFF66344D4E4E4F4117AAFF
310
FFFFBA174E4E4E4D4E4D4D4E4E4E4E4116174EBBFFFFFFCA342666ABEAFFFFEA
310
AA6725269CFFFFFF0000724F4E4D4D4D4E4D4D4E4E4E4D4E4E4E4E4E4E4E4E4D
310
4E4E74FFFFFFFFFFFFFF734E4E4E4D4ECAFFFFFFFFFFAA663416171717265B9B
310
FFFFFFFFFFFF7F8080807F80807F7F7F7F7F807FBAFFFFFFFF9B4E4E4F4D4D4E
310
4DC9FFFFFFFFFFFFFFFFFFFFFFFFBA4E4E4E4E4D4E4EFFFFFFFFC94E4E4E4F4E
310
4E4E4D4E4E5A807F9CD9FFFFFFFFFFFFFF9B5B2617171716174E8DEAFFFFFFFF
310
0000000000000000000000000000000000000000000000000000000000000000
  1
OLE
  0
ENDSEC
  0
SECTION
  2
OBJECTS
  0
DICTIONARY
  5
C
330
0
100
AcDbDictionary
281
     1
  3
ACAD_GROUP
350
D
  3
ACAD_LAYOUT
350
1A
  3
ACAD_MLINESTYLE
350
17
  3
ACAD_PLOTSETTINGS
350
19
  3
ACAD_PLOTSTYLENAME
350
E
  3
ACAD_SCALELIST
350
47
  0
DICTIONARY
  5
D
102
{ACAD_REACTORS
330
C
102
}
330
C
100
AcDbDictionary
281
     1
  0
DICTIONARY
  5
1A
102
{ACAD_REACTORS
330
C
102
}
330
C
100
AcDbDictionary
281
     1
  3
Layout1
350
1E
  3
Layout2
350
26
  3
Model
350
22
  0
DICTIONARY
  5
17
102
{ACAD_REACTORS
330
C
102
}
330
C
100
AcDbDictionary
281
     1
  3
Standard
350
18
  0
DICTIONARY
  5
19
102
{ACAD_REACTORS
330
C
102
}
330
C
100
AcDbDictionary
281
     1
  0
ACDBDICTIONARYWDFLT
  5
E
102
{ACAD_REACTORS
330
C
102
}
330
C
100
AcDbDictionary
281
     1
  3
Normal
350
F
100
AcDbDictionaryWithDefault
340
F
  0
DICTIONARY
  5
47
102
{ACAD_REACTORS
330
C
102
}
330
C
100
AcDbDictionary
281
     1
  3
A0
350
48
  3
A1
350
49
  3
A2
350
4A
  3
A3
350
4B
  3
A4
350
4C
  3
A5
350
4D
  3
A6
350
4E
  3
A7
350
4F
  3
A8
350
50
  3
A9
350
51
  3
B0
350
52
  3
B1
350
53
  3
B2
350
54
  3
B3
350
55
  3
B4
350
56
  3
B5
350
57
  3
B6
350
58
  3
B7
350
59
  3
B8
350
5A
  3
B9
350
5B
  3
C0
350
5C
  3
C1
350
5D
  3
C2
350
5E
  3
C3
350
5F
  3
C4
350
60
  3
C5
350
61
  3
C6
350
62
  3
C7
350
63
  3
C8
350
64
  3
C9
350
65
  3
D0
350
66
  3
D1
350
67
  3
D2
350
68
  0
LAYOUT
  5
1E
102
{ACAD_REACTORS
330
1A
102
}
330
1A
100
AcDbPlotSettings
  1

  2
none_device
  4

  6

 40
0.0
 41
0.0
 42
0.0
 43
0.0
 44
0.0
 45
0.0
 46
0.0
 47
0.0
 48
0.0
 49
0.0
140
0.0
141
0.0
142
1.0
143
1.0
 70
   688
 72
     1
 73
     0
 74
     5
  7

 75
    16
147
1.0
148
0.0
149
0.0
100
AcDbLayout
  1
Layout1
 70
     1
 71
     1
 10
0.0
 20
0.0
 11
420.0
 21
297.0
 12
0.0
 22
0.0
 32
0.0
 14
1.0000000000E+20
 24
1.0000000000E+20
 34
1.0000000000E+20
 15
-1.0000000000E+20
 25
-1.0000000000E+20
 35
-1.0000000000E+20
146
0.0
 13
0.0
 23
0.0
 33
0.0
 16
1.0
 26
0.0
 36
0.0
 17
0.0
 27
1.0
 37
0.0
 76
     0
330
1B
  0
LAYOUT
  5
26
102
{ACAD_REACTORS
330
1A
102
}
330
1A
100
AcDbPlotSettings
  1

  2
none_device
  4

  6

 40
0.0
 41
0.0
 42
0.0
 43
0.0
 44
0.0
 45
0.0
 46
0.0
 47
0.0
 48
0.0
 49
0.0
140
0.0
141
0.0
142
1.0
143
1.0
 70
   688
 72
     1
 73
     0
 74
     5
  7

 75
    16
147
1.0
148
0.0
149
0.0
100
AcDbLayout
  1
Layout2
 70
     1
 71
     2
 10
0.0
 20
0.0
 11
0.0
 21
0.0
 12
0.0
 22
0.0
 32
0.0
 14
0.0
 24
0.0
 34
0.0
 15
0.0
 25
0.0
 35
0.0
146
0.0
 13
0.0
 23
0.0
 33
0.0
 16
1.0
 26
0.0
 36
0.0
 17
0.0
 27
1.0
 37
0.0
 76
     0
330
23
  0
LAYOUT
  5
22
102
{ACAD_REACTORS
330
1A
102
}
330
1A
100
AcDbPlotSettings
  1

  2
none_device
  4
Letter_(8.50_x_11.00_Inches)
  6

 40
6.35
 41
6.35
 42
6.35000508
 43
6.35000508
 44
215.9
 45
279.4
 46
0.0
 47
0.0
 48
0.0
 49
0.0
140
0.0
141
0.0
142
1.0
143
1.0
 70
  1712
 72
     1
 73
     0
 74
     0
  7

 75
     0
147
1.0
148
0.0
149
0.0
100
AcDbLayout
  1
Model
 70
     1
 71
     0
 10
0.0
 20
0.0
 11
279.4
 21
215.9
 12
0.0
 22
0.0
 32
0.0
 14
0.0
 24
0.0
 34
0.0
 15
279.4
 25
215.9
 35
0.0
146
0.0
 13
0.0
 23
0.0
 33
0.0
 16
1.0
 26
0.0
 36
0.0
 17
0.0
 27
1.0
 37
0.0
 76
     0
330
1F
331
29
  0
MLINESTYLE
  5
18
102
{ACAD_REACTORS
330
17
102
}
330
17
100
AcDbMlineStyle
  2
Standard
 70
     0
  3

 62
   256
 51
90.0
 52
90.0
 71
     2
 49
0.5
 62
   256
  6
BYLAYER
 49
-0.5
 62
   256
  6
BYLAYER
  0
ACDBPLACEHOLDER
  5
F
102
{ACAD_REACTORS
330
E
102
}
330
E
  0
SCALE
  5
48
102
{ACAD_REACTORS
330
47
102
}
330
47
100
AcDbScale
 70
     0
300
1:1
140
1.0
141
1.0
290
     1
  0
SCALE
  5
49
102
{ACAD_REACTORS
330
47
102
}
330
47
100
AcDbScale
 70
     0
300
1:2
140
1.0
141
2.0
290
     0
  0
SCALE
  5
4A
102
{ACAD_REACTORS
330
47
102
}
330
47
100
AcDbScale
 70
     0
300
1:4
140
1.0
141
4.0
290
     0
  0
SCALE
  5
4B
102
{ACAD_REACTORS
330
47
102
}
330
47
100
AcDbScale
 70
     0
300
1:5
140
1.0
141
5.0
290
     0
  0
SCALE
  5
4C
102
{ACAD_REACTORS
330
47
102
}
330
47
100
AcDbScale
 70
     0
300
1:8
140
1.0
141
8.0
290
     0
  0
SCALE
  5
4D
102
{ACAD_REACTORS
330
47
102
}
330
47
100
AcDbScale
 70
     0
300
1:10
140
1.0
141
10.0
290
     0
  0
SCALE
  5
4E
102
{ACAD_REACTORS
330
47
102
}
330
47
100
AcDbScale
 70
     0
300
1:16
140
1.0
141
16.0
290
     0
  0
SCALE
  5
4F
102
{ACAD_REACTORS
330
47
102
}
330
47
100
AcDbScale
 70
     0
300
1:20
140
1.0
141
20.0
290
     0
  0
SCALE
  5
50
102
{ACAD_REACTORS
330
47
102
}
330
47
100
AcDbScale
 70
     0
300
1:30
140
1.0
141
30.0
290
     0
  0
SCALE
  5
51
102
{ACAD_REACTORS
330
47
102
}
330
47
100
AcDbScale
 70
     0
300
1:40
140
1.0
141
40.0
290
     0
  0
SCALE
  5
52
102
{ACAD_REACTORS
330
47
102
}
330
47
100
AcDbScale
 70
     0
300
1:50
140
1.0
141
50.0
290
     0
  0
SCALE
  5
53
102
{ACAD_REACTORS
330
47
102
}
330
47
100
AcDbScale
 70
     0
300
1:100
140
1.0
141
100.0
290
     0
  0
SCALE
  5
54
102
{ACAD_REACTORS
330
47
102
}
330
47
100
AcDbScale
 70
     0
300
2:1
140
2.0
141
1.0
290
     0
  0
SCALE
  5
55
102
{ACAD_REACTORS
330
47
102
}
330
47
100
AcDbScale
 70
     0
300
4:1
140
4.0
141
1.0
290
     0
  0
SCALE
  5
56
102
{ACAD_REACTORS
330
47
102
}
330
47
100
AcDbScale
 70
     0
300
8:1
140
8.0
141
1.0
290
     0
  0
SCALE
  5
57
102
{ACAD_REACTORS
330
47
102
}
330
47
100
AcDbScale
 70
     0
300
10:1
140
10.0
141
1.0
290
     0
  0
SCALE
  5
58
102
{ACAD_REACTORS
330
47
102
}
330
47
100
AcDbScale
 70
     0
300
100:1
140
100.0
141
1.0
290
     0
  0
SCALE
  5
59
102
{ACAD_REACTORS
330
47
102
}
330
47
100
AcDbScale
 70
     0
300
1/128" = 1'-0"
140
0.0078125
141
12.0
290
     0
  0
SCALE
  5
5A
102
{ACAD_REACTORS
330
47
102
}
330
47
100
AcDbScale
 70
     0
300
1/64" = 1'-0"
140
0.015625
141
12.0
290
     0
  0
SCALE
  5
5B
102
{ACAD_REACTORS
330
47
102
}
330
47
100
AcDbScale
 70
     0
300
1/32" = 1'-0"
140
0.03125
141
12.0
290
     0
  0
SCALE
  5
5C
102
{ACAD_REACTORS
330
47
102
}
330
47
100
AcDbScale
 70
     0
300
1/16" = 1'-0"
140
0.0625
141
12.0
290
     0
  0
SCALE
  5
5D
102
{ACAD_REACTORS
330
47
102
}
330
47
100
AcDbScale
 70
     0
300
3/32" = 1'-0"
140
0.09375
141
12.0
290
     0
  0
SCALE
  5
5E
102
{ACAD_REACTORS
330
47
102
}
330
47
100
AcDbScale
 70
     0
300
1/8" = 1'-0"
140
0.125
141
12.0
290
     0
  0
SCALE
  5
5F
102
{ACAD_REACTORS
330
47
102
}
330
47
100
AcDbScale
 70
     0
300
3/16" = 1'-0"
140
0.1875
141
12.0
290
     0
  0
SCALE
  5
60
102
{ACAD_REACTORS
330
47
102
}
330
47
100
AcDbScale
 70
     0
300
1/4" = 1'-0"
140
0.25
141
12.0
290
     0
  0
SCALE
  5
61
102
{ACAD_REACTORS
330
47
102
}
330
47
100
AcDbScale
 70
     0
300
3/8" = 1'-0"
140
0.375
141
12.0
290
     0
  0
SCALE
  5
62
102
{ACAD_REACTORS
330
47
102
}
330
47
100
AcDbScale
 70
     0
300
1/2" = 1'-0"
140
0.5
141
12.0
290
     0
  0
SCALE
  5
63
102
{ACAD_REACTORS
330
47
102
}
330
47
100
AcDbScale
 70
     0
300
3/4" = 1'-0"
140
0.75
141
12.0
290
     0
  0
SCALE
  5
64
102
{ACAD_REACTORS
330
47
102
}
330
47
100
AcDbScale
 70
     0
300
1" = 1'-0"
140
1.0
141
12.0
290
     0
  0
SCALE
  5
65
102
{ACAD_REACTORS
330
47
102
}
330
47
100
AcDbScale
 70
     0
300
1-1/2" = 1'-0"
140
1.5
141
12.0
290
     0
  0
SCALE
  5
66
102
{ACAD_REACTORS
330
47
102
}
330
47
100
AcDbScale
 70
     0
300
3" = 1'-0"
140
3.0
141
12.0
290
     0
  0
SCALE
  5
67
102
{ACAD_REACTORS
330
47
102
}
330
47
100
AcDbScale
 70
     0
300
6" = 1'-0"
140
6.0
141
12.0
290
     0
  0
SCALE
  5
68
102
{ACAD_REACTORS
330
47
102
}
330
47
100
AcDbScale
 70
     0
300
1'-0" = 1'-0"
140
12.0
141
12.0
290
     0
  0
ENDSEC
  0
EOF
