  0
SECTION
  2
HEADER
  9
$ACADVER
  1
AC1015
  9
$ACADMAINTVER
 70
     6
  9
$DWGCODEPAGE
  3
ANSI_1252
  9
$INSBASE
 10
0.0
 20
0.0
 30
0.0
  9
$EXTMIN
 10
0.0
 20
0.0
 30
0.0
  9
$EXTMAX
 10
11.0
 20
8.5
 30
0.0
  9
$LIMMIN
 10
0.0
 20
0.0
  9
$LIMMAX
 10
11.0
 20
8.5
  9
$ORTHOMODE
 70
     0
  9
$REGENMODE
 70
     1
  9
$FILLMODE
 70
     1
  9
$QTEXTMODE
 70
     0
  9
$MIRRTEXT
 70
     1
  9
$LTSCALE
 40
1.0
  9
$ATTMODE
 70
     1
  9
$TEXTSIZE
 40
0.1111111111
  9
$TRACEWID
 40
0.05
  9
$TEXTSTYLE
  7
Standard
  9
$CLAYER
  8
0
  9
$CELTYPE
  6
ByLayer
  9
$CECOLOR
 62
   256
  9
$CELTSCALE
 40
1.0
  9
$DISPSILH
 70
     0
  9
$DIMSCALE
 40
1.0
  9
$DIMASZ
 40
0.125
  9
$DIMEXO
 40
0.05
  9
$DIMDLI
 40
0.38
  9
$DIMRND
 40
0.0
  9
$DIMDLE
 40
0.0
  9
$DIMEXE
 40
0.07
  9
$DIMTP
 40
0.0
  9
$DIMTM
 40
0.0
  9
$DIMTXT
 40
0.1111111111
  9
$DIMCEN
 40
0.09
  9
$DIMTSZ
 40
0.0
  9
$DIMTOL
 70
     0
  9
$DIMLIM
 70
     0
  9
$DIMTIH
 70
     1
  9
$DIMTOH
 70
     1
  9
$DIMSE1
 70
     0
  9
$DIMSE2
 70
     0
  9
$DIMTAD
 70
     0
  9
$DIMZIN
 70
     1
  9
$DIMBLK
  1

  9
$DIMASO
 70
     1
  9
$DIMSHO
 70
     1
  9
$DIMPOST
  1

  9
$DIMAPOST
  1

  9
$DIMALT
 70
     0
  9
$DIMALTD
 70
     2
  9
$DIMALTF
 40
25.4
  9
$DIMLFAC
 40
1.0
  9
$DIMTOFL
 70
     0
  9
$DIMTVP
 40
0.0
  9
$DIMTIX
 70
     0
  9
$DIMSOXD
 70
     0
  9
$DIMSAH
 70
     0
  9
$DIMBLK1
  1

  9
$DIMBLK2
  1

  9
$DIMSTYLE
  2
Standard
  9
$DIMCLRD
 70
     0
  9
$DIMCLRE
 70
     0
  9
$DIMCLRT
 70
     0
  9
$DIMTFAC
 40
1.0
  9
$DIMGAP
 40
0.1
  9
$DIMJUST
 70
     0
  9
$DIMSD1
 70
     0
  9
$DIMSD2
 70
     0
  9
$DIMTOLJ
 70
     1
  9
$DIMTZIN
 70
     1
  9
$DIMALTZ
 70
     0
  9
$DIMALTTZ
 70
     0
  9
$DIMUPT
 70
     0
  9
$DIMDEC
 70
     2
  9
$DIMTDEC
 70
     2
  9
$DIMALTU
 70
     2
  9
$DIMALTTD
 70
     2
  9
$DIMTXSTY
  7
Standard
  9
$DIMAUNIT
 70
     0
  9
$DIMADEC
 70
     0
  9
$DIMALTRND
 40
0.0
  9
$DIMAZIN
 70
     0
  9
$DIMDSEP
 70
    46
  9
$DIMATFIT
 70
     3
  9
$DIMFRAC
 70
     0
  9
$DIMLDRBLK
  1

  9
$DIMLUNIT
 70
     2
  9
$DIMLWD
 70
    -2
  9
$DIMLWE
 70
    -2
  9
$DIMTMOVE
 70
     0
  9
$LUNITS
 70
     2
  9
$LUPREC
 70
     2
  9
$SKETCHINC
 40
0.1
  9
$FILLETRAD
 40
0.5
  9
$AUNITS
 70
     0
  9
$AUPREC
 70
     0
  9
$MENU
  1
.
  9
$ELEVATION
 40
0.0
  9
$PELEVATION
 40
0.0
  9
$THICKNESS
 40
0.0
  9
$LIMCHECK
 70
     0
  9
$CHAMFERA
 40
0.0
  9
$CHAMFERB
 40
0.0
  9
$CHAMFERC
 40
0.0
  9
$CHAMFERD
 40
0.0
  9
$SKPOLY
 70
     0
  9
$TDCREATE
 40
2458505.684690035
  9
$TDUCREATE
 40
2458505.893023368
  9
$TDUPDATE
 40
2458505.684692523
  9
$TDUUPDATE
 40
2458505.893025856
  9
$TDINDWG
 40
0.0000000116
  9
$TDUSRTIMER
 40
0.0000000116
  9
$USRTIMER
 70
     1
  9
$ANGBASE
 50
0.0
  9
$ANGDIR
 70
     0
  9
$PDMODE
 70
     0
  9
$PDSIZE
 40
-1.0
  9
$PLINEWID
 40
0.0
  9
$SPLFRAME
 70
     0
  9
$SPLINETYPE
 70
     6
  9
$SPLINESEGS
 70
     8
  9
$HANDSEED
  5
35C
  9
$SURFTAB1
 70
     6
  9
$SURFTAB2
 70
     6
  9
$SURFTYPE
 70
     6
  9
$SURFU
 70
     6
  9
$SURFV
 70
     6
  9
$UCSBASE
  2

  9
$UCSNAME
  2

  9
$UCSORG
 10
0.0
 20
0.0
 30
0.0
  9
$UCSXDIR
 10
1.0
 20
0.0
 30
0.0
  9
$UCSYDIR
 10
0.0
 20
1.0
 30
0.0
  9
$UCSORTHOREF
  2

  9
$UCSORTHOVIEW
 70
     0
  9
$UCSORGTOP
 10
0.0
 20
0.0
 30
0.0
  9
$UCSORGBOTTOM
 10
0.0
 20
0.0
 30
0.0
  9
$UCSORGLEFT
 10
0.0
 20
0.0
 30
0.0
  9
$UCSORGRIGHT
 10
0.0
 20
0.0
 30
0.0
  9
$UCSORGFRONT
 10
0.0
 20
0.0
 30
0.0
  9
$UCSORGBACK
 10
0.0
 20
0.0
 30
0.0
  9
$PUCSBASE
  2

  9
$PUCSNAME
  2

  9
$PUCSORG
 10
0.0
 20
0.0
 30
0.0
  9
$PUCSXDIR
 10
1.0
 20
0.0
 30
0.0
  9
$PUCSYDIR
 10
0.0
 20
1.0
 30
0.0
  9
$PUCSORTHOREF
  2

  9
$PUCSORTHOVIEW
 70
     0
  9
$PUCSORGTOP
 10
0.0
 20
0.0
 30
0.0
  9
$PUCSORGBOTTOM
 10
0.0
 20
0.0
 30
0.0
  9
$PUCSORGLEFT
 10
0.0
 20
0.0
 30
0.0
  9
$PUCSORGRIGHT
 10
0.0
 20
0.0
 30
0.0
  9
$PUCSORGFRONT
 10
0.0
 20
0.0
 30
0.0
  9
$PUCSORGBACK
 10
0.0
 20
0.0
 30
0.0
  9
$USERI1
 70
     0
  9
$USERI2
 70
     0
  9
$USERI3
 70
     0
  9
$USERI4
 70
     0
  9
$USERI5
 70
     0
  9
$USERR1
 40
0.0
  9
$USERR2
 40
0.0
  9
$USERR3
 40
0.0
  9
$USERR4
 40
0.0
  9
$USERR5
 40
0.0
  9
$WORLDVIEW
 70
     1
  9
$SHADEDGE
 70
     3
  9
$SHADEDIF
 70
    70
  9
$TILEMODE
 70
     1
  9
$MAXACTVP
 70
    64
  9
$PINSBASE
 10
0.0
 20
0.0
 30
0.0
  9
$PLIMCHECK
 70
     0
  9
$PEXTMIN
 10
1.0000000000E+20
 20
1.0000000000E+20
 30
1.0000000000E+20
  9
$PEXTMAX
 10
-1.0000000000E+20
 20
-1.0000000000E+20
 30
-1.0000000000E+20
  9
$PLIMMIN
 10
0.0
 20
0.0
  9
$PLIMMAX
 10
12.0
 20
9.0
  9
$UNITMODE
 70
     0
  9
$VISRETAIN
 70
     1
  9
$PLINEGEN
 70
     0
  9
$PSLTSCALE
 70
     1
  9
$TREEDEPTH
 70
  3020
  9
$CMLSTYLE
  2
Standard
  9
$CMLJUST
 70
     0
  9
$CMLSCALE
 40
1.0
  9
$PROXYGRAPHICS
 70
     1
  9
$MEASUREMENT
 70
     0
  9
$CELWEIGHT
370
    -1
  9
$ENDCAPS
280
     0
  9
$JOINSTYLE
280
     0
  9
$LWDISPLAY
290
     1
  9
$INSUNITS
 70
     1
  9
$HYPERLINKBASE
  1

  9
$STYLESHEET
  1

  9
$XEDIT
290
     1
  9
$CEPSNTYPE
380
     0
  9
$PSTYLEMODE
290
     1
  9
$FINGERPRINTGUID
  2
{E67D1C1C-9701-4F5D-8A98-11509634BD07}
  9
$VERSIONGUID
  2
{FAEB1C32-E019-11D5-929B-00C0DF256EC4}
  9
$EXTNAMES
290
     1
  9
$PSVPSCALE
 40
0.0
  9
$OLESTARTUP
290
     0
  0
ENDSEC
  0
SECTION
  2
CLASSES
  0
CLASS
  1
ACDBDICTIONARYWDFLT
  2
AcDbDictionaryWithDefault
  3
ObjectDBX Classes
 90
        0
280
     0
281
     0
  0
CLASS
  1
VISUALSTYLE
  2
AcDbVisualStyle
  3
ObjectDBX Classes
 90
     4095
280
     0
281
     0
  0
CLASS
  1
MATERIAL
  2
AcDbMaterial
  3
ObjectDBX Classes
 90
     1153
280
     0
281
     0
  0
CLASS
  1
SCALE
  2
AcDbScale
  3
ObjectDBX Classes
 90
     1153
280
     0
281
     0
  0
CLASS
  1
TABLESTYLE
  2
AcDbTableStyle
  3
ObjectDBX Classes
 90
     4095
280
     0
281
     0
  0
CLASS
  1
MLEADERSTYLE
  2
AcDbMLeaderStyle
  3
ACDB_MLEADERSTYLE_CLASS
 90
     4095
280
     0
281
     0
  0
CLASS
  1
SUN
  2
AcDbSun
  3
SCENEOE
 90
     1153
280
     0
281
     0
  0
CLASS
  1
ACDBPLACEHOLDER
  2
AcDbPlaceHolder
  3
ObjectDBX Classes
 90
        0
280
     0
281
     0
  0
CLASS
  1
LAYOUT
  2
AcDbLayout
  3
ObjectDBX Classes
 90
        0
280
     0
281
     0
  0
ENDSEC
  0
SECTION
  2
TABLES
  0
TABLE
  2
VPORT
  5
8
330
0
100
AcDbSymbolTable
 70
     1
  0
VPORT
  5
29
330
8
100
AcDbSymbolTableRecord
100
AcDbViewportTableRecord
  2
*Active
 70
     0
 10
0.0
 20
0.0
 11
1.0
 21
1.0
 12
5.5
 22
4.25
 13
0.0
 23
0.0
 14
0.5
 24
0.5
 15
0.5
 25
0.5
 16
0.0
 26
0.0
 36
1.0
 17
0.0
 27
0.0
 37
0.0
 40
8.5
 41
1.2941176471
 42
50.0
 43
0.0
 44
0.0
 50
0.0
 51
0.0
 71
     0
 72
  2000
 73
     1
 74
     3
 75
     0
 76
     0
 77
     0
 78
     0
281
     0
 65
     1
110
0.0
120
0.0
130
0.0
111
1.0
121
0.0
131
0.0
112
0.0
122
1.0
132
0.0
 79
     0
146
0.0
  0
ENDTAB
  0
TABLE
  2
LTYPE
  5
5
330
0
100
AcDbSymbolTable
 70
     6
  0
LTYPE
  5
14
330
5
100
AcDbSymbolTableRecord
100
AcDbLinetypeTableRecord
  2
ByBlock
 70
     0
  3

 72
    65
 73
     0
 40
0.0
  0
LTYPE
  5
15
330
5
100
AcDbSymbolTableRecord
100
AcDbLinetypeTableRecord
  2
ByLayer
 70
     0
  3

 72
    65
 73
     0
 40
0.0
  0
LTYPE
  5
16
330
5
100
AcDbSymbolTableRecord
100
AcDbLinetypeTableRecord
  2
Continuous
 70
     0
  3
Solid line
 72
    65
 73
     0
 40
0.0
  0
LTYPE
  5
6E
330
5
100
AcDbSymbolTableRecord
100
AcDbLinetypeTableRecord
  2
HIDDEN
 70
     0
  3
Hidden __ __ __ __ __ __ __ __ __ __ __ __ __ __
 72
    65
 73
     2
 40
0.075
 49
0.05
 74
     0
 49
-0.025
 74
     0
  0
LTYPE
  5
6F
330
5
100
AcDbSymbolTableRecord
100
AcDbLinetypeTableRecord
  2
PHANTOM
 70
     0
  3
Phantom ______  __  __  ______  __  __  ______
 72
    65
 73
     6
 40
0.5
 49
0.25
 74
     0
 49
-0.05
 74
     0
 49
0.05
 74
     0
 49
-0.05
 74
     0
 49
0.05
 74
     0
 49
-0.05
 74
     0
  0
LTYPE
  5
70
330
5
100
AcDbSymbolTableRecord
100
AcDbLinetypeTableRecord
  2
CENTER
 70
     0
  3
Center ____ _ ____ _ ____ _ ____ _ ____ _ ____
 72
    65
 73
     4
 40
0.4
 49
0.25
 74
     0
 49
-0.05
 74
     0
 49
0.05
 74
     0
 49
-0.05
 74
     0
  0
LTYPE
  5
71
330
5
100
AcDbSymbolTableRecord
100
AcDbLinetypeTableRecord
  2
CENTERX2
 70
     0
  3
Center (2x) ________  __  ________  __  _____
 72
    65
 73
     4
 40
0.8
 49
0.5
 74
     0
 49
-0.1
 74
     0
 49
0.1
 74
     0
 49
-0.1
 74
     0
  0
LTYPE
  5
72
330
5
100
AcDbSymbolTableRecord
100
AcDbLinetypeTableRecord
  2
DOT2
 70
     0
  3
Dot (.5x) ........................................
 72
    65
 73
     2
 40
0.025
 49
0.0
 74
     0
 49
-0.025
 74
     0
  0
ENDTAB
  0
TABLE
  2
LAYER
  5
2
330
0
100
AcDbSymbolTable
 70
     2
  0
LAYER
  5
10
330
2
100
AcDbSymbolTableRecord
100
AcDbLayerTableRecord
  2
0
 70
     0
 62
     7
  6
Continuous
370
    -3
390
F
  0
LAYER
  5
73
330
2
100
AcDbSymbolTableRecord
100
AcDbLayerTableRecord
  2
FORMAT
 70
     0
 62
     7
  6
Continuous
370
    -3
390
F
  0
ENDTAB
  0
TABLE
  2
STYLE
  5
3
330
0
100
AcDbSymbolTable
 70
     3
  0
STYLE
  5
11
330
3
100
AcDbSymbolTableRecord
100
AcDbTextStyleTableRecord
  2
Standard
 70
     0
 40
0.0
 41
1.0
 50
0.0
 71
     0
 42
0.1111111111
  3
txt
  4

  0
STYLE
  5
9D
330
3
100
AcDbSymbolTableRecord
100
AcDbTextStyleTableRecord
  2
SLDTEXTSTYLE0
 70
     0
 40
0.0
 41
0.75
 50
0.0
 71
     0
 42
0.1111111111
  3
TXT
  4

  0
STYLE
  5
AE
330
3
100
AcDbSymbolTableRecord
100
AcDbTextStyleTableRecord
  2
SLDTEXTSTYLE1
 70
     0
 40
0.0
 41
0.6
 50
0.0
 71
     0
 42
0.1111111111
  3
TXT
  4

  0
ENDTAB
  0
TABLE
  2
VIEW
  5
6
330
0
100
AcDbSymbolTable
 70
     0
  0
ENDTAB
  0
TABLE
  2
UCS
  5
7
330
0
100
AcDbSymbolTable
 70
     0
  0
ENDTAB
  0
TABLE
  2
APPID
  5
9
330
0
100
AcDbSymbolTable
 70
     1
  0
APPID
  5
12
330
9
100
AcDbSymbolTableRecord
100
AcDbRegAppTableRecord
  2
ACAD
 70
     0
  0
ENDTAB
  0
TABLE
  2
DIMSTYLE
  5
A
330
0
100
AcDbSymbolTable
 70
     6
100
AcDbDimStyleTable
  0
DIMSTYLE
105
27
330
A
100
AcDbSymbolTableRecord
100
AcDbDimStyleTableRecord
  2
Standard
 70
     0
178
     0
340
11
  0
DIMSTYLE
105
D3
102
{ACAD_REACTORS
330
D2
330
1EF
330
203
102
}
330
A
100
AcDbSymbolTableRecord
100
AcDbDimStyleTableRecord
  2
SLDDIMSTYLE0
 70
     0
 41
0.125
 44
0.0
 45
0.000000001
 78
     4
 79
     1
140
0.0833333333
147
0.0208333333
148
0.000000001
170
     1
171
     1
173
     1
178
     0
271
     2
272
     2
274
     1
276
     2
284
    12
340
9D
  0
DIMSTYLE
105
E8
102
{ACAD_REACTORS
330
E7
102
}
330
A
100
AcDbSymbolTableRecord
100
AcDbDimStyleTableRecord
  2
SLDDIMSTYLE1
 70
     0
 41
0.125
 44
0.0
 45
0.000000001
140
0.0833333333
147
0.0208333333
148
0.000000001
170
     1
171
     1
172
     1
173
     1
178
     0
271
     2
272
     2
274
     1
276
     2
284
    12
289
     0
340
9D
  0
DIMSTYLE
105
218
102
{ACAD_REACTORS
330
217
102
}
330
A
100
AcDbSymbolTableRecord
100
AcDbDimStyleTableRecord
  2
SLDDIMSTYLE2
 70
     0
 41
0.125
 44
0.0
 45
0.000000001
 78
     8
 79
     2
140
0.0833333333
147
0.0208333333
148
0.000000001
170
     1
171
     1
172
     1
173
     1
178
     0
271
     2
272
     2
274
     1
276
     2
284
    12
289
     0
340
9D
  0
DIMSTYLE
105
22D
102
{ACAD_REACTORS
330
22C
102
}
330
A
100
AcDbSymbolTableRecord
100
AcDbDimStyleTableRecord
  2
SLDDIMSTYLE3
 70
     0
 41
0.125
 44
0.0
 45
0.000000001
 78
    12
 79
     3
140
0.0833333333
147
0.0208333333
148
0.000000001
170
     1
171
     1
173
     1
178
     0
271
     2
272
     2
274
     1
276
     2
284
    12
340
9D
  0
DIMSTYLE
105
242
330
A
100
AcDbSymbolTableRecord
100
AcDbDimStyleTableRecord
  2
SLDDIMSTYLE4
 70
     0
 41
0.125
 44
0.0
 45
0.000000001
146
0.125
147
0.0
173
     1
178
     0
271
     0
272
     0
276
     2
340
11
  0
ENDTAB
  0
TABLE
  2
BLOCK_RECORD
  5
1
330
0
100
AcDbSymbolTable
 70
    17
  0
BLOCK_RECORD
  5
1F
330
1
100
AcDbSymbolTableRecord
100
AcDbBlockTableRecord
  2
*Model_Space
340
22
  0
BLOCK_RECORD
  5
1B
330
1
100
AcDbSymbolTableRecord
100
AcDbBlockTableRecord
  2
*Paper_Space
340
1E
  0
BLOCK_RECORD
  5
23
330
1
100
AcDbSymbolTableRecord
100
AcDbBlockTableRecord
  2
*Paper_Space0
340
26
  0
BLOCK_RECORD
  5
74
330
1
100
AcDbSymbolTableRecord
100
AcDbBlockTableRecord
  2
Third Angle Projection Block
340
0
102
{BLKREFS
331
99
102
}
  0
BLOCK_RECORD
  5
9A
330
1
100
AcDbSymbolTableRecord
100
AcDbBlockTableRecord
  2
SW_NOTE_0
340
0
102
{BLKREFS
331
A2
102
}
  0
BLOCK_RECORD
  5
B4
330
1
100
AcDbSymbolTableRecord
100
AcDbBlockTableRecord
  2
SW_NOTE_1
340
0
102
{BLKREFS
331
B9
102
}
  0
BLOCK_RECORD
  5
BA
330
1
100
AcDbSymbolTableRecord
100
AcDbBlockTableRecord
  2
SW_NOTE_2
340
0
102
{BLKREFS
331
BF
102
}
  0
BLOCK_RECORD
  5
C1
330
1
100
AcDbSymbolTableRecord
100
AcDbBlockTableRecord
  2
SW_NOTE_3
340
0
102
{BLKREFS
331
C6
102
}
  0
BLOCK_RECORD
  5
C7
330
1
100
AcDbSymbolTableRecord
100
AcDbBlockTableRecord
  2
SW_NOTE_4
340
0
102
{BLKREFS
331
CC
102
}
  0
BLOCK_RECORD
  5
D4
330
1
100
AcDbSymbolTableRecord
100
AcDbBlockTableRecord
  2
_D
340
0
  0
BLOCK_RECORD
  5
E9
330
1
100
AcDbSymbolTableRecord
100
AcDbBlockTableRecord
  2
_D_1
340
0
  0
BLOCK_RECORD
  5
1F0
330
1
100
AcDbSymbolTableRecord
100
AcDbBlockTableRecord
  2
_D_2
340
0
  0
BLOCK_RECORD
  5
204
330
1
100
AcDbSymbolTableRecord
100
AcDbBlockTableRecord
  2
_D_3
340
0
  0
BLOCK_RECORD
  5
219
330
1
100
AcDbSymbolTableRecord
100
AcDbBlockTableRecord
  2
_D_4
340
0
  0
BLOCK_RECORD
  5
22E
330
1
100
AcDbSymbolTableRecord
100
AcDbBlockTableRecord
  2
_D_5
340
0
  0
BLOCK_RECORD
  5
244
330
1
100
AcDbSymbolTableRecord
100
AcDbBlockTableRecord
  2
SW_NOTE_5
340
0
102
{BLKREFS
331
249
102
}
  0
BLOCK_RECORD
  5
24B
330
1
100
AcDbSymbolTableRecord
100
AcDbBlockTableRecord
  2
SW_CENTERMARKSYMBOL_0
340
0
102
{BLKREFS
331
252
102
}
  0
BLOCK_RECORD
  5
253
330
1
100
AcDbSymbolTableRecord
100
AcDbBlockTableRecord
  2
SW_CENTERMARKSYMBOL_1
340
0
102
{BLKREFS
331
25A
102
}
  0
BLOCK_RECORD
  5
25B
330
1
100
AcDbSymbolTableRecord
100
AcDbBlockTableRecord
  2
SW_CENTERMARKSYMBOL_2
340
0
102
{BLKREFS
331
262
102
}
  0
ENDTAB
  0
ENDSEC
  0
SECTION
  2
BLOCKS
  0
BLOCK
  5
20
330
1F
100
AcDbEntity
  8
0
100
AcDbBlockBegin
  2
*Model_Space
 70
     0
 10
0.0
 20
0.0
 30
0.0
  3
*Model_Space
  1

  0
ENDBLK
  5
21
330
1F
100
AcDbEntity
  8
0
100
AcDbBlockEnd
  0
BLOCK
  5
1C
330
1B
100
AcDbEntity
 67
     1
  8
0
100
AcDbBlockBegin
  2
*Paper_Space
 70
     0
 10
0.0
 20
0.0
 30
0.0
  3
*Paper_Space
  1

  0
ENDBLK
  5
1D
330
1B
100
AcDbEntity
 67
     1
  8
0
100
AcDbBlockEnd
  0
BLOCK
  5
24
330
23
100
AcDbEntity
  8
0
100
AcDbBlockBegin
  2
*Paper_Space0
 70
     0
 10
0.0
 20
0.0
 30
0.0
  3
*Paper_Space0
  1

  0
ENDBLK
  5
25
330
23
100
AcDbEntity
  8
0
100
AcDbBlockEnd
  0
BLOCK
  5
75
330
74
100
AcDbEntity
  8
0
100
AcDbBlockBegin
  2
Third Angle Projection Block
 70
     0
 10
0.0
 20
0.0
 30
0.0
  3
Third Angle Projection Block
  1

  0
CIRCLE
  5
77
330
74
100
AcDbEntity
  8
0
  6
Continuous
 62
     7
370
    35
100
AcDbCircle
 10
3.9951432636
 20
0.7456853688
 30
0.0
 40
0.0696152422706639
  0
CIRCLE
  5
78
330
74
100
AcDbEntity
  8
0
  6
Continuous
 62
     7
370
    35
100
AcDbCircle
 10
3.9951432636
 20
0.7456853688
 30
0.0
 40
0.1535916633280245
  0
LINE
  5
79
330
74
100
AcDbEntity
  8
0
  6
CENTERX2
 62
     7
370
    18
100
AcDbLine
 10
4.3360937897
 20
0.7456853688
 30
0.0
 11
4.7028635231
 21
0.7456853688
 31
0.0
  0
LINE
  5
7A
330
74
100
AcDbEntity
  8
0
  6
Continuous
 62
     7
370
    35
100
AcDbLine
 10
4.3701432636
 20
0.815300611
 30
0.0
 11
4.3701432636
 21
0.6760701265
 31
0.0
  0
LINE
  5
7B
330
74
100
AcDbEntity
  8
0
  6
Continuous
 62
     7
370
    35
100
AcDbLine
 10
4.3701432636
 20
0.6760701265
 30
0.0
 11
4.6701432636
 21
0.5956853688
 31
0.0
  0
LINE
  5
7C
330
74
100
AcDbEntity
  8
0
  6
Continuous
 62
     7
370
    35
100
AcDbLine
 10
4.6701432636
 20
0.5956853688
 30
0.0
 11
4.6701432636
 21
0.8956853688
 31
0.0
  0
LINE
  5
7D
330
74
100
AcDbEntity
  8
0
  6
Continuous
 62
     7
370
    35
100
AcDbLine
 10
4.6701432636
 20
0.8956853688
 30
0.0
 11
4.3701432636
 21
0.815300611
 31
0.0
  0
LINE
  5
7E
330
74
100
AcDbEntity
  8
0
  6
CENTERX2
 62
     7
370
    18
100
AcDbLine
 10
3.8032513961
 20
0.7456853688
 30
0.0
 11
4.187035131
 21
0.7456853688
 31
0.0
  0
LINE
  5
7F
330
74
100
AcDbEntity
  8
0
  6
CENTERX2
 62
     7
370
    18
100
AcDbLine
 10
3.9951432636
 20
0.9375772362
 30
0.0
 11
3.9951432636
 21
0.5537935013
 31
0.0
  0
POINT
  5
80
330
74
100
AcDbEntity
  8
0
  6
Continuous
 62
     7
370
     0
100
AcDbPoint
 10
3.9951432636
 20
0.7456853688
 30
0.0
  0
ENDBLK
  5
76
330
74
100
AcDbEntity
  8
0
100
AcDbBlockEnd
  0
BLOCK
  5
9B
330
9A
100
AcDbEntity
  8
0
100
AcDbBlockBegin
  2
SW_NOTE_0
 70
     0
 10
0.0
 20
0.0
 30
0.0
  3
SW_NOTE_0
  1

  0
MTEXT
  5
9E
330
9A
100
AcDbEntity
  8
0
  6
Continuous
 62
     0
370
     0
100
AcDbMText
 10
0.0
 20
0.1074223116
 30
0.0
 40
0.0833333333
 41
0.0
 71
     1
 72
     1
  1
NOTES/SPECIFICATIONS:
  7
SLDTEXTSTYLE0
 73
     1
 44
1.0
  0
MTEXT
  5
9F
330
9A
100
AcDbEntity
  8
0
  6
Continuous
 62
     0
370
     0
100
AcDbMText
 10
0.3937007786
 20
-0.1147999079
 30
0.0
 40
0.0833333333
 41
0.0
 71
     1
 72
     1
  1
SHIPS WITH: (2) #4-40 X 5/16 FLAT HEAD SOCKET CAP SCREWS
  7
SLDTEXTSTYLE0
 73
     1
 44
1.0
  0
MTEXT
  5
A0
330
9A
100
AcDbEntity
  8
0
  6
Continuous
 62
     0
370
     0
100
AcDbMText
 10
0.0
 20
-0.1147999079
 30
0.0
 40
0.0833333333
 41
0.0
 71
     1
 72
     1
  1
1.
  7
SLDTEXTSTYLE0
 73
     1
 44
1.0
  0
MTEXT
  5
A1
330
9A
100
AcDbEntity
  8
0
  6
Continuous
 62
     0
370
     0
100
AcDbMText
 10
1.0061515748
 20
-0.2259110177
 30
0.0
 40
0.0833333333
 41
0.0
 71
     1
 72
     1
  1
(1) 1/16 SHORT ARM HEX KEY
  7
SLDTEXTSTYLE0
 73
     1
 44
1.0
  0
ENDBLK
  5
9C
330
9A
100
AcDbEntity
  8
0
100
AcDbBlockEnd
  0
BLOCK
  5
B5
330
B4
100
AcDbEntity
  8
0
100
AcDbBlockBegin
  2
SW_NOTE_1
 70
     0
 10
0.0
 20
0.0
 30
0.0
  3
SW_NOTE_1
  1

  0
MTEXT
  5
B7
330
B4
100
AcDbEntity
  8
0
  6
Continuous
 62
     0
370
     0
100
AcDbMText
 10
0.78375
 20
0.0773440644
 30
0.0
 40
0.06
 41
0.0
 71
     2
 72
     1
  1
VALUES IN PARENTHESIS ARE CALCULATED
  7
SLDTEXTSTYLE0
 73
     1
 44
1.0
  0
MTEXT
  5
B8
330
B4
100
AcDbEntity
  8
0
  6
Continuous
 62
     0
370
     0
100
AcDbMText
 10
0.7825936818
 20
-0.0220260102
 30
0.0
 40
0.06
 41
0.0
 71
     2
 72
     1
  1
AND MAY CONTAIN ROUNDOFF ERRORS
  7
SLDTEXTSTYLE0
 73
     1
 44
1.0
  0
ENDBLK
  5
B6
330
B4
100
AcDbEntity
  8
0
100
AcDbBlockEnd
  0
BLOCK
  5
BB
330
BA
100
AcDbEntity
  8
0
100
AcDbBlockBegin
  2
SW_NOTE_2
 70
     0
 10
0.0
 20
0.0
 30
0.0
  3
SW_NOTE_2
  1

  0
MTEXT
  5
BD
330
BA
100
AcDbEntity
  8
0
  6
Continuous
 62
     0
370
     0
100
AcDbMText
 10
0.0
 20
0.1074223116
 30
0.0
 40
0.0833333333
 41
0.0
 71
     1
 72
     1
  1
DRAWING
  7
SLDTEXTSTYLE0
 73
     1
 44
1.0
  0
MTEXT
  5
BE
330
BA
100
AcDbEntity
  8
0
  6
Continuous
 62
     0
370
     0
100
AcDbMText
 10
0.0
 20
-0.0036887981
 30
0.0
 40
0.0833333333
 41
0.0
 71
     1
 72
     1
  1
PROJECTION
  7
SLDTEXTSTYLE0
 73
     1
 44
1.0
  0
ENDBLK
  5
BC
330
BA
100
AcDbEntity
  8
0
100
AcDbBlockEnd
  0
BLOCK
  5
C2
330
C1
100
AcDbEntity
  8
0
100
AcDbBlockBegin
  2
SW_NOTE_3
 70
     0
 10
0.0
 20
0.0
 30
0.0
  3
SW_NOTE_3
  1

  0
MTEXT
  5
C4
330
C1
100
AcDbEntity
  8
0
  6
Continuous
 62
     0
370
     0
100
AcDbMText
 10
0.986328125
 20
0.1611334675
 30
0.0
 40
0.125
 41
0.0
 71
     2
 72
     1
  1
FOR INFORMATION ONLY
  7
SLDTEXTSTYLE0
 73
     1
 44
1.0
  0
MTEXT
  5
C5
330
C1
100
AcDbEntity
  8
0
  6
Continuous
 62
     0
370
     0
100
AcDbMText
 10
0.999088459
 20
-0.0055331972
 30
0.0
 40
0.125
 41
0.0
 71
     2
 72
     1
  1
NOT FOR MANUFACTURING PURPOSES
  7
SLDTEXTSTYLE0
 73
     1
 44
1.0
  0
ENDBLK
  5
C3
330
C1
100
AcDbEntity
  8
0
100
AcDbBlockEnd
  0
BLOCK
  5
C8
330
C7
100
AcDbEntity
  8
0
100
AcDbBlockBegin
  2
SW_NOTE_4
 70
     0
 10
0.0
 20
0.0
 30
0.0
  3
SW_NOTE_4
  1

  0
MTEXT
  5
CA
330
C7
100
AcDbEntity
  8
0
  6
Continuous
 62
     0
370
     0
100
AcDbMText
 10
0.9065755208
 20
0.1342778896
 30
0.0
 40
0.1041666667
 41
0.0
 71
     2
 72
     1
  1
SHEARING INTERFEROMETER
  7
SLDTEXTSTYLE0
 73
     1
 44
1.0
  0
MTEXT
  5
CB
330
C7
100
AcDbEntity
  8
0
  6
Continuous
 62
     0
370
     0
100
AcDbMText
 10
0.8919631682
 20
-0.0046109977
 30
0.0
 40
0.1041666667
 41
0.0
 71
     2
 72
     1
  1
SM1 THREADED ACCESSORY PLATE
  7
SLDTEXTSTYLE0
 73
     1
 44
1.0
  0
ENDBLK
  5
C9
330
C7
100
AcDbEntity
  8
0
100
AcDbBlockEnd
  0
BLOCK
  5
D5
330
D4
100
AcDbEntity
  8
0
100
AcDbBlockBegin
  2
_D
 70
     0
 10
0.0
 20
0.0
 30
0.0
  3
_D
  1

  0
SOLID
  5
D7
330
D4
100
AcDbEntity
  8
0
  6
Continuous
 62
     7
370
    18
100
AcDbTrace
 10
2.334890286
 20
3.1094204232
 30
0.0
 11
2.459890286
 21
3.0894204232
 31
0.0
 12
2.459890286
 22
3.1294204232
 32
0.0
 13
2.459890286
 23
3.1294204232
 33
0.0
  0
SOLID
  5
D8
330
D4
100
AcDbEntity
  8
0
  6
Continuous
 62
     7
370
    18
100
AcDbTrace
 10
4.234890286
 20
3.1094204232
 30
0.0
 11
4.109890286
 21
3.1294204232
 31
0.0
 12
4.109890286
 22
3.0894204232
 32
0.0
 13
4.109890286
 23
3.0894204232
 33
0.0
  0
LINE
  5
D9
330
D4
100
AcDbEntity
  8
0
  6
Continuous
 62
     7
370
    18
100
AcDbLine
 10
3.0730075528
 20
3.109420414
 30
0.0
 11
3.0476603302
 21
3.109420414
 31
0.0
  0
LINE
  5
DA
330
D4
100
AcDbEntity
  8
0
  6
Continuous
 62
     7
370
    18
100
AcDbLine
 10
3.0476603302
 20
3.109420414
 30
0.0
 11
3.0476603302
 21
2.9770130094
 31
0.0
  0
LINE
  5
DB
330
D4
100
AcDbEntity
  8
0
  6
Continuous
 62
     7
370
    18
100
AcDbLine
 10
3.0476603302
 20
2.9770130094
 30
0.0
 11
3.0730075528
 21
2.9770130094
 31
0.0
  0
LINE
  5
DC
330
D4
100
AcDbEntity
  8
0
  6
Continuous
 62
     7
370
    18
100
AcDbLine
 10
3.4967730008
 20
3.109420414
 30
0.0
 11
3.5221202234
 21
3.109420414
 31
0.0
  0
LINE
  5
DD
330
D4
100
AcDbEntity
  8
0
  6
Continuous
 62
     7
370
    18
100
AcDbLine
 10
3.5221202234
 20
3.109420414
 30
0.0
 11
3.5221202234
 21
2.9770130094
 31
0.0
  0
LINE
  5
DE
330
D4
100
AcDbEntity
  8
0
  6
Continuous
 62
     7
370
    18
100
AcDbLine
 10
3.5221202234
 20
2.9770130094
 30
0.0
 11
3.4967730008
 21
2.9770130094
 31
0.0
  0
LINE
  5
DF
330
D4
100
AcDbEntity
  8
0
  6
Continuous
 62
     7
370
    18
100
AcDbLine
 10
2.334890286
 20
2.8003705407
 30
0.0
 11
2.334890286
 21
3.1794204232
 31
0.0
  0
LINE
  5
E0
330
D4
100
AcDbEntity
  8
0
  6
Continuous
 62
     7
370
    18
100
AcDbLine
 10
4.234890286
 20
2.8003705407
 30
0.0
 11
4.234890286
 21
3.1794204232
 31
0.0
  0
LINE
  5
E1
330
D4
100
AcDbEntity
  8
0
  6
Continuous
 62
     7
370
    18
100
AcDbLine
 10
2.334890286
 20
3.1094204232
 30
0.0
 11
2.9439866755
 21
3.1094204232
 31
0.0
  0
LINE
  5
E2
330
D4
100
AcDbEntity
  8
0
  6
Continuous
 62
     7
370
    18
100
AcDbLine
 10
4.234890286
 20
3.1094204232
 30
0.0
 11
3.6257938964
 21
3.1094204232
 31
0.0
  0
MTEXT
  5
E3
330
D4
100
AcDbEntity
  8
0
  6
Continuous
 62
     7
370
    18
100
AcDbMText
 10
3.0233933555
 20
3.2337408725
 30
0.0
 40
0.0833333333
 41
0.0
 71
     1
 72
     1
  1

  7
SLDTEXTSTYLE0
 73
     1
 44
1.0
  0
MTEXT
  5
E4
330
D4
100
AcDbEntity
  8
0
  6
Continuous
 62
     7
370
    18
100
AcDbMText
 10
3.1321896466
 20
3.2337408725
 30
0.0
 40
0.0833333333
 41
0.0
 71
     1
 72
     1
  1
1.90in
  7
SLDTEXTSTYLE0
 73
     1
 44
1.0
  0
MTEXT
  5
E5
330
D4
100
AcDbEntity
  8
0
  6
Continuous
 62
     7
370
    18
100
AcDbMText
 10
3.0730075528
 20
3.0844353165
 30
0.0
 40
0.0833333333
 41
0.0
 71
     1
 72
     1
  1
48.3mm
  7
SLDTEXTSTYLE0
 73
     1
 44
1.0
  0
MTEXT
  5
E6
330
D4
100
AcDbEntity
  8
0
  6
Continuous
 62
     7
370
    18
100
AcDbMText
 10
3.609967446
 20
3.2337408725
 30
0.0
 40
0.0833333333
 41
0.0
 71
     1
 72
     1
  1

  7
SLDTEXTSTYLE0
 73
     1
 44
1.0
  0
ENDBLK
  5
D6
330
D4
100
AcDbEntity
  8
0
100
AcDbBlockEnd
  0
BLOCK
  5
EA
330
E9
100
AcDbEntity
  8
0
100
AcDbBlockBegin
  2
_D_1
 70
     0
 10
0.0
 20
0.0
 30
0.0
  3
_D_1
  1

  0
SOLID
  5
EC
330
E9
100
AcDbEntity
  8
0
  6
Continuous
 62
     7
370
    18
100
AcDbTrace
 10
4.6285910734
 20
2.7503705407
 30
0.0
 11
4.6485910734
 21
2.8753705407
 31
0.0
 12
4.6085910734
 22
2.8753705407
 32
0.0
 13
4.6085910734
 23
2.8753705407
 33
0.0
  0
SOLID
  5
ED
330
E9
100
AcDbEntity
  8
0
  6
Continuous
 62
     7
370
    18
100
AcDbTrace
 10
4.6285910734
 20
2.5503705407
 30
0.0
 11
4.6085910734
 21
2.4253705407
 31
0.0
 12
4.6485910734
 22
2.4253705407
 32
0.0
 13
4.6485910734
 23
2.4253705407
 33
0.0
  0
LINE
  5
EE
330
E9
100
AcDbEntity
  8
0
  6
Continuous
 62
     7
370
    18
100
AcDbLine
 10
4.9414253106
 20
2.1566697442
 30
0.0
 11
4.916078088
 21
2.1566697442
 31
0.0
  0
LINE
  5
EF
330
E9
100
AcDbEntity
  8
0
  6
Continuous
 62
     7
370
    18
100
AcDbLine
 10
4.916078088
 20
2.1566697442
 30
0.0
 11
4.916078088
 21
2.0242623396
 31
0.0
  0
LINE
  5
F0
330
E9
100
AcDbEntity
  8
0
  6
Continuous
 62
     7
370
    18
100
AcDbLine
 10
4.916078088
 20
2.0242623396
 30
0.0
 11
4.9414253106
 21
2.0242623396
 31
0.0
  0
LINE
  5
F1
330
E9
100
AcDbEntity
  8
0
  6
Continuous
 62
     7
370
    18
100
AcDbLine
 10
5.3036166599
 20
2.1566697442
 30
0.0
 11
5.3289638825
 21
2.1566697442
 31
0.0
  0
LINE
  5
F2
330
E9
100
AcDbEntity
  8
0
  6
Continuous
 62
     7
370
    18
100
AcDbLine
 10
5.3289638825
 20
2.1566697442
 30
0.0
 11
5.3289638825
 21
2.0242623396
 31
0.0
  0
LINE
  5
F3
330
E9
100
AcDbEntity
  8
0
  6
Continuous
 62
     7
370
    18
100
AcDbLine
 10
5.3289638825
 20
2.0242623396
 30
0.0
 11
5.3036166599
 21
2.0242623396
 31
0.0
  0
LINE
  5
F4
330
E9
100
AcDbEntity
  8
0
  6
Continuous
 62
     7
370
    18
100
AcDbLine
 10
4.284890286
 20
2.7503705407
 30
0.0
 11
4.6985910734
 21
2.7503705407
 31
0.0
  0
LINE
  5
F5
330
E9
100
AcDbEntity
  8
0
  6
Continuous
 62
     7
370
    18
100
AcDbLine
 10
4.284890286
 20
2.5503705407
 30
0.0
 11
4.6985910734
 21
2.5503705407
 31
0.0
  0
LINE
  5
F6
330
E9
100
AcDbEntity
  8
0
  6
Continuous
 62
     7
370
    18
100
AcDbLine
 10
4.7785910734
 20
2.1566697533
 30
0.0
 11
4.6285910734
 21
2.1566697533
 31
0.0
  0
LINE
  5
F7
330
E9
100
AcDbEntity
  8
0
  6
Continuous
 62
     7
370
    18
100
AcDbLine
 10
4.6285910734
 20
2.1566697533
 30
0.0
 11
4.6285910734
 21
2.5503705407
 31
0.0
  0
LINE
  5
F8
330
E9
100
AcDbEntity
  8
0
  6
Continuous
 62
     7
370
    18
100
AcDbLine
 10
4.6285910734
 20
2.7503705407
 30
0.0
 11
4.6285910734
 21
3.0003705407
 31
0.0
  0
MTEXT
  5
F9
330
E9
100
AcDbEntity
  8
0
  6
Continuous
 62
     7
370
    18
100
AcDbMText
 10
4.8918111133
 20
2.2809902027
 30
0.0
 40
0.0833333333
 41
0.0
 71
     1
 72
     1
  1

  7
SLDTEXTSTYLE0
 73
     1
 44
1.0
  0
MTEXT
  5
FA
330
E9
100
AcDbEntity
  8
0
  6
Continuous
 62
     7
370
    18
100
AcDbMText
 10
4.9698203551
 20
2.2809902027
 30
0.0
 40
0.0833333333
 41
0.0
 71
     1
 72
     1
  1
0.20in
  7
SLDTEXTSTYLE0
 73
     1
 44
1.0
  0
MTEXT
  5
FB
330
E9
100
AcDbEntity
  8
0
  6
Continuous
 62
     7
370
    18
100
AcDbMText
 10
4.9414253106
 20
2.1316846466
 30
0.0
 40
0.0833333333
 41
0.0
 71
     1
 72
     1
  1
5.1mm
  7
SLDTEXTSTYLE0
 73
     1
 44
1.0
  0
MTEXT
  5
FC
330
E9
100
AcDbEntity
  8
0
  6
Continuous
 62
     7
370
    18
100
AcDbMText
 10
5.4168110684
 20
2.2809902027
 30
0.0
 40
0.0833333333
 41
0.0
 71
     1
 72
     1
  1

  7
SLDTEXTSTYLE0
 73
     1
 44
1.0
  0
ENDBLK
  5
EB
330
E9
100
AcDbEntity
  8
0
100
AcDbBlockEnd
  0
BLOCK
  5
1F1
330
1F0
100
AcDbEntity
  8
0
100
AcDbBlockBegin
  2
_D_2
 70
     0
 10
0.0
 20
0.0
 30
0.0
  3
_D_2
  1

  0
SOLID
  5
1F3
330
1F0
100
AcDbEntity
  8
0
  6
Continuous
 62
     7
370
    18
100
AcDbTrace
 10
4.034890286
 20
7.342495178
 30
0.0
 11
3.909890286
 21
7.362495178
 31
0.0
 12
3.909890286
 22
7.322495178
 32
0.0
 13
3.909890286
 23
7.322495178
 33
0.0
  0
SOLID
  5
1F4
330
1F0
100
AcDbEntity
  8
0
  6
Continuous
 62
     7
370
    18
100
AcDbTrace
 10
2.534890286
 20
7.342495178
 30
0.0
 11
2.659890286
 21
7.322495178
 31
0.0
 12
2.659890286
 22
7.362495178
 32
0.0
 13
2.659890286
 23
7.362495178
 33
0.0
  0
LINE
  5
1F5
330
1F0
100
AcDbEntity
  8
0
  6
Continuous
 62
     7
370
    18
100
AcDbLine
 10
3.0730075528
 20
7.3424951688
 30
0.0
 11
3.0476603302
 21
7.3424951688
 31
0.0
  0
LINE
  5
1F6
330
1F0
100
AcDbEntity
  8
0
  6
Continuous
 62
     7
370
    18
100
AcDbLine
 10
3.0476603302
 20
7.3424951688
 30
0.0
 11
3.0476603302
 21
7.2100877643
 31
0.0
  0
LINE
  5
1F7
330
1F0
100
AcDbEntity
  8
0
  6
Continuous
 62
     7
370
    18
100
AcDbLine
 10
3.0476603302
 20
7.2100877643
 30
0.0
 11
3.0730075528
 21
7.2100877643
 31
0.0
  0
LINE
  5
1F8
330
1F0
100
AcDbEntity
  8
0
  6
Continuous
 62
     7
370
    18
100
AcDbLine
 10
3.4967730008
 20
7.3424951688
 30
0.0
 11
3.5221202234
 21
7.3424951688
 31
0.0
  0
LINE
  5
1F9
330
1F0
100
AcDbEntity
  8
0
  6
Continuous
 62
     7
370
    18
100
AcDbLine
 10
3.5221202234
 20
7.3424951688
 30
0.0
 11
3.5221202234
 21
7.2100877643
 31
0.0
  0
LINE
  5
1FA
330
1F0
100
AcDbEntity
  8
0
  6
Continuous
 62
     7
370
    18
100
AcDbLine
 10
3.5221202234
 20
7.2100877643
 30
0.0
 11
3.4967730008
 21
7.2100877643
 31
0.0
  0
LINE
  5
1FB
330
1F0
100
AcDbEntity
  8
0
  6
Continuous
 62
     7
370
    18
100
AcDbLine
 10
4.034890286
 20
7.0487777778
 30
0.0
 11
4.034890286
 21
7.412495178
 31
0.0
  0
LINE
  5
1FC
330
1F0
100
AcDbEntity
  8
0
  6
Continuous
 62
     7
370
    18
100
AcDbLine
 10
2.534890286
 20
7.0487777778
 30
0.0
 11
2.534890286
 21
7.412495178
 31
0.0
  0
LINE
  5
1FD
330
1F0
100
AcDbEntity
  8
0
  6
Continuous
 62
     7
370
    18
100
AcDbLine
 10
4.034890286
 20
7.342495178
 30
0.0
 11
3.6257938964
 21
7.342495178
 31
0.0
  0
LINE
  5
1FE
330
1F0
100
AcDbEntity
  8
0
  6
Continuous
 62
     7
370
    18
100
AcDbLine
 10
2.534890286
 20
7.342495178
 30
0.0
 11
2.9439866755
 21
7.342495178
 31
0.0
  0
MTEXT
  5
1FF
330
1F0
100
AcDbEntity
  8
0
  6
Continuous
 62
     7
370
    18
100
AcDbMText
 10
3.0233933555
 20
7.4668156274
 30
0.0
 40
0.0833333333
 41
0.0
 71
     1
 72
     1
  1

  7
SLDTEXTSTYLE0
 73
     1
 44
1.0
  0
MTEXT
  5
200
330
1F0
100
AcDbEntity
  8
0
  6
Continuous
 62
     7
370
    18
100
AcDbMText
 10
3.1321896466
 20
7.4668156274
 30
0.0
 40
0.0833333333
 41
0.0
 71
     1
 72
     1
  1
1.50in
  7
SLDTEXTSTYLE0
 73
     1
 44
1.0
  0
MTEXT
  5
201
330
1F0
100
AcDbEntity
  8
0
  6
Continuous
 62
     7
370
    18
100
AcDbMText
 10
3.0730075528
 20
7.3175100713
 30
0.0
 40
0.0833333333
 41
0.0
 71
     1
 72
     1
  1
38.1mm
  7
SLDTEXTSTYLE0
 73
     1
 44
1.0
  0
MTEXT
  5
202
330
1F0
100
AcDbEntity
  8
0
  6
Continuous
 62
     7
370
    18
100
AcDbMText
 10
3.609967446
 20
7.4668156274
 30
0.0
 40
0.0833333333
 41
0.0
 71
     1
 72
     1
  1

  7
SLDTEXTSTYLE0
 73
     1
 44
1.0
  0
ENDBLK
  5
1F2
330
1F0
100
AcDbEntity
  8
0
100
AcDbBlockEnd
  0
BLOCK
  5
205
330
204
100
AcDbEntity
  8
0
100
AcDbBlockBegin
  2
_D_3
 70
     0
 10
0.0
 20
0.0
 30
0.0
  3
_D_3
  1

  0
SOLID
  5
207
330
204
100
AcDbEntity
  8
0
  6
Continuous
 62
     7
370
    18
100
AcDbTrace
 10
5.1925321958
 20
5.1177777778
 30
0.0
 11
5.2125321958
 21
5.2427777778
 31
0.0
 12
5.1725321958
 22
5.2427777778
 32
0.0
 13
5.1725321958
 23
5.2427777778
 33
0.0
  0
SOLID
  5
208
330
204
100
AcDbEntity
  8
0
  6
Continuous
 62
     7
370
    18
100
AcDbTrace
 10
5.1925321958
 20
7.1177777778
 30
0.0
 11
5.1725321958
 21
6.9927777778
 31
0.0
 12
5.2125321958
 22
6.9927777778
 32
0.0
 13
5.2125321958
 23
6.9927777778
 33
0.0
  0
LINE
  5
209
330
204
100
AcDbEntity
  8
0
  6
Continuous
 62
     7
370
    18
100
AcDbLine
 10
4.9806494627
 20
6.1177777686
 30
0.0
 11
4.95530224
 21
6.1177777686
 31
0.0
  0
LINE
  5
20A
330
204
100
AcDbEntity
  8
0
  6
Continuous
 62
     7
370
    18
100
AcDbLine
 10
4.95530224
 20
6.1177777686
 30
0.0
 11
4.95530224
 21
5.985370364
 31
0.0
  0
LINE
  5
20B
330
204
100
AcDbEntity
  8
0
  6
Continuous
 62
     7
370
    18
100
AcDbLine
 10
4.95530224
 20
5.985370364
 30
0.0
 11
4.9806494627
 21
5.985370364
 31
0.0
  0
LINE
  5
20C
330
204
100
AcDbEntity
  8
0
  6
Continuous
 62
     7
370
    18
100
AcDbLine
 10
5.4044149106
 20
6.1177777686
 30
0.0
 11
5.4297621332
 21
6.1177777686
 31
0.0
  0
LINE
  5
20D
330
204
100
AcDbEntity
  8
0
  6
Continuous
 62
     7
370
    18
100
AcDbLine
 10
5.4297621332
 20
6.1177777686
 30
0.0
 11
5.4297621332
 21
5.985370364
 31
0.0
  0
LINE
  5
20E
330
204
100
AcDbEntity
  8
0
  6
Continuous
 62
     7
370
    18
100
AcDbLine
 10
5.4297621332
 20
5.985370364
 30
0.0
 11
5.4044149106
 21
5.985370364
 31
0.0
  0
LINE
  5
20F
330
204
100
AcDbEntity
  8
0
  6
Continuous
 62
     7
370
    18
100
AcDbLine
 10
4.284890286
 20
5.1177777778
 30
0.0
 11
5.2625321958
 21
5.1177777778
 31
0.0
  0
LINE
  5
210
330
204
100
AcDbEntity
  8
0
  6
Continuous
 62
     7
370
    18
100
AcDbLine
 10
4.284890286
 20
7.1177777778
 30
0.0
 11
5.2625321958
 21
7.1177777778
 31
0.0
  0
LINE
  5
211
330
204
100
AcDbEntity
  8
0
  6
Continuous
 62
     7
370
    18
100
AcDbLine
 10
5.1925321958
 20
5.1177777778
 30
0.0
 11
5.1925321958
 21
5.9684722309
 31
0.0
  0
LINE
  5
212
330
204
100
AcDbEntity
  8
0
  6
Continuous
 62
     7
370
    18
100
AcDbLine
 10
5.1925321958
 20
7.1177777778
 30
0.0
 11
5.1925321958
 21
6.2670833247
 31
0.0
  0
MTEXT
  5
213
330
204
100
AcDbEntity
  8
0
  6
Continuous
 62
     7
370
    18
100
AcDbMText
 10
4.9310352653
 20
6.2420982271
 30
0.0
 40
0.0833333333
 41
0.0
 71
     1
 72
     1
  1

  7
SLDTEXTSTYLE0
 73
     1
 44
1.0
  0
MTEXT
  5
214
330
204
100
AcDbEntity
  8
0
  6
Continuous
 62
     7
370
    18
100
AcDbMText
 10
5.0398315565
 20
6.2420982271
 30
0.0
 40
0.0833333333
 41
0.0
 71
     1
 72
     1
  1
2.00in
  7
SLDTEXTSTYLE0
 73
     1
 44
1.0
  0
MTEXT
  5
215
330
204
100
AcDbEntity
  8
0
  6
Continuous
 62
     7
370
    18
100
AcDbMText
 10
4.9806494627
 20
6.0927926711
 30
0.0
 40
0.0833333333
 41
0.0
 71
     1
 72
     1
  1
50.8mm
  7
SLDTEXTSTYLE0
 73
     1
 44
1.0
  0
MTEXT
  5
216
330
204
100
AcDbEntity
  8
0
  6
Continuous
 62
     7
370
    18
100
AcDbMText
 10
5.5176093558
 20
6.2420982271
 30
0.0
 40
0.0833333333
 41
0.0
 71
     1
 72
     1
  1

  7
SLDTEXTSTYLE0
 73
     1
 44
1.0
  0
ENDBLK
  5
206
330
204
100
AcDbEntity
  8
0
100
AcDbBlockEnd
  0
BLOCK
  5
21A
330
219
100
AcDbEntity
  8
0
100
AcDbBlockBegin
  2
_D_4
 70
     0
 10
0.0
 20
0.0
 30
0.0
  3
_D_4
  1

  0
SOLID
  5
21C
330
219
100
AcDbEntity
  8
0
  6
Continuous
 62
     7
370
    18
100
AcDbTrace
 10
4.234890286
 20
4.8705423093
 30
0.0
 11
4.359890286
 21
4.8505423093
 31
0.0
 12
4.359890286
 22
4.8905423093
 32
0.0
 13
4.359890286
 23
4.8905423093
 33
0.0
  0
SOLID
  5
21D
330
219
100
AcDbEntity
  8
0
  6
Continuous
 62
     7
370
    18
100
AcDbTrace
 10
3.284890286
 20
4.8705423093
 30
0.0
 11
3.159890286
 21
4.8905423093
 31
0.0
 12
3.159890286
 22
4.8505423093
 32
0.0
 13
3.159890286
 23
4.8505423093
 33
0.0
  0
LINE
  5
21E
330
219
100
AcDbEntity
  8
0
  6
Continuous
 62
     7
370
    18
100
AcDbLine
 10
3.5480075528
 20
4.8705423001
 30
0.0
 11
3.5226603302
 21
4.8705423001
 31
0.0
  0
LINE
  5
21F
330
219
100
AcDbEntity
  8
0
  6
Continuous
 62
     7
370
    18
100
AcDbLine
 10
3.5226603302
 20
4.8705423001
 30
0.0
 11
3.5226603302
 21
4.7381348955
 31
0.0
  0
LINE
  5
220
330
219
100
AcDbEntity
  8
0
  6
Continuous
 62
     7
370
    18
100
AcDbLine
 10
3.5226603302
 20
4.7381348955
 30
0.0
 11
3.5480075528
 21
4.7381348955
 31
0.0
  0
LINE
  5
221
330
219
100
AcDbEntity
  8
0
  6
Continuous
 62
     7
370
    18
100
AcDbLine
 10
3.9717730008
 20
4.8705423001
 30
0.0
 11
3.9971202234
 21
4.8705423001
 31
0.0
  0
LINE
  5
222
330
219
100
AcDbEntity
  8
0
  6
Continuous
 62
     7
370
    18
100
AcDbLine
 10
3.9971202234
 20
4.8705423001
 30
0.0
 11
3.9971202234
 21
4.7381348955
 31
0.0
  0
LINE
  5
223
330
219
100
AcDbEntity
  8
0
  6
Continuous
 62
     7
370
    18
100
AcDbLine
 10
3.9971202234
 20
4.7381348955
 30
0.0
 11
3.9717730008
 21
4.7381348955
 31
0.0
  0
LINE
  5
224
330
219
100
AcDbEntity
  8
0
  6
Continuous
 62
     7
370
    18
100
AcDbLine
 10
4.234890286
 20
5.0677777778
 30
0.0
 11
4.234890286
 21
4.8005423093
 31
0.0
  0
LINE
  5
225
330
219
100
AcDbEntity
  8
0
  6
Continuous
 62
     7
370
    18
100
AcDbLine
 10
3.284890286
 20
5.7677777778
 30
0.0
 11
3.284890286
 21
4.8005423093
 31
0.0
  0
LINE
  5
226
330
219
100
AcDbEntity
  8
0
  6
Continuous
 62
     7
370
    18
100
AcDbLine
 10
4.234890286
 20
4.8705423093
 30
0.0
 11
4.484890286
 21
4.8705423093
 31
0.0
  0
LINE
  5
227
330
219
100
AcDbEntity
  8
0
  6
Continuous
 62
     7
370
    18
100
AcDbLine
 10
3.284890286
 20
4.8705423093
 30
0.0
 11
3.034890286
 21
4.8705423093
 31
0.0
  0
MTEXT
  5
228
330
219
100
AcDbEntity
  8
0
  6
Continuous
 62
     7
370
    18
100
AcDbMText
 10
3.4983933555
 20
4.9948627586
 30
0.0
 40
0.0833333333
 41
0.0
 71
     1
 72
     1
  1

  7
SLDTEXTSTYLE0
 73
     1
 44
1.0
  0
MTEXT
  5
229
330
219
100
AcDbEntity
  8
0
  6
Continuous
 62
     7
370
    18
100
AcDbMText
 10
3.6071896466
 20
4.9948627586
 30
0.0
 40
0.0833333333
 41
0.0
 71
     1
 72
     1
  1
0.95in
  7
SLDTEXTSTYLE0
 73
     1
 44
1.0
  0
MTEXT
  5
22A
330
219
100
AcDbEntity
  8
0
  6
Continuous
 62
     7
370
    18
100
AcDbMText
 10
3.5480075528
 20
4.8455572026
 30
0.0
 40
0.0833333333
 41
0.0
 71
     1
 72
     1
  1
24.1mm
  7
SLDTEXTSTYLE0
 73
     1
 44
1.0
  0
MTEXT
  5
22B
330
219
100
AcDbEntity
  8
0
  6
Continuous
 62
     7
370
    18
100
AcDbMText
 10
4.084967446
 20
4.9948627586
 30
0.0
 40
0.0833333333
 41
0.0
 71
     1
 72
     1
  1

  7
SLDTEXTSTYLE0
 73
     1
 44
1.0
  0
ENDBLK
  5
21B
330
219
100
AcDbEntity
  8
0
100
AcDbBlockEnd
  0
BLOCK
  5
22F
330
22E
100
AcDbEntity
  8
0
100
AcDbBlockBegin
  2
_D_5
 70
     0
 10
0.0
 20
0.0
 30
0.0
  3
_D_5
  1

  0
SOLID
  5
231
330
22E
100
AcDbEntity
  8
0
  6
Continuous
 62
     7
370
    18
100
AcDbTrace
 10
4.6285910734
 20
7.1177777778
 30
0.0
 11
4.6085910734
 21
6.9927777778
 31
0.0
 12
4.6485910734
 22
6.9927777778
 32
0.0
 13
4.6485910734
 23
6.9927777778
 33
0.0
  0
SOLID
  5
232
330
22E
100
AcDbEntity
  8
0
  6
Continuous
 62
     7
370
    18
100
AcDbTrace
 10
4.6285910734
 20
5.8677777778
 30
0.0
 11
4.6485910734
 21
5.9927777778
 31
0.0
 12
4.6085910734
 22
5.9927777778
 32
0.0
 13
4.6085910734
 23
5.9927777778
 33
0.0
  0
LINE
  5
233
330
22E
100
AcDbEntity
  8
0
  6
Continuous
 62
     7
370
    18
100
AcDbLine
 10
4.4167083402
 20
6.4927777686
 30
0.0
 11
4.3913611176
 21
6.4927777686
 31
0.0
  0
LINE
  5
234
330
22E
100
AcDbEntity
  8
0
  6
Continuous
 62
     7
370
    18
100
AcDbLine
 10
4.3913611176
 20
6.4927777686
 30
0.0
 11
4.3913611176
 21
6.360370364
 31
0.0
  0
LINE
  5
235
330
22E
100
AcDbEntity
  8
0
  6
Continuous
 62
     7
370
    18
100
AcDbLine
 10
4.3913611176
 20
6.360370364
 30
0.0
 11
4.4167083402
 21
6.360370364
 31
0.0
  0
LINE
  5
236
330
22E
100
AcDbEntity
  8
0
  6
Continuous
 62
     7
370
    18
100
AcDbLine
 10
4.8404737882
 20
6.4927777686
 30
0.0
 11
4.8658210108
 21
6.4927777686
 31
0.0
  0
LINE
  5
237
330
22E
100
AcDbEntity
  8
0
  6
Continuous
 62
     7
370
    18
100
AcDbLine
 10
4.8658210108
 20
6.4927777686
 30
0.0
 11
4.8658210108
 21
6.360370364
 31
0.0
  0
LINE
  5
238
330
22E
100
AcDbEntity
  8
0
  6
Continuous
 62
     7
370
    18
100
AcDbLine
 10
4.8658210108
 20
6.360370364
 30
0.0
 11
4.8404737882
 21
6.360370364
 31
0.0
  0
LINE
  5
239
330
22E
100
AcDbEntity
  8
0
  6
Continuous
 62
     7
370
    18
100
AcDbLine
 10
4.284890286
 20
7.1177777778
 30
0.0
 11
4.6985910734
 21
7.1177777778
 31
0.0
  0
LINE
  5
23A
330
22E
100
AcDbEntity
  8
0
  6
Continuous
 62
     7
370
    18
100
AcDbLine
 10
3.384890286
 20
5.8677777778
 30
0.0
 11
4.6985910734
 21
5.8677777778
 31
0.0
  0
LINE
  5
23B
330
22E
100
AcDbEntity
  8
0
  6
Continuous
 62
     7
370
    18
100
AcDbLine
 10
4.6285910734
 20
7.1177777778
 30
0.0
 11
4.6285910734
 21
6.6420833247
 31
0.0
  0
LINE
  5
23C
330
22E
100
AcDbEntity
  8
0
  6
Continuous
 62
     7
370
    18
100
AcDbLine
 10
4.6285910734
 20
5.8677777778
 30
0.0
 11
4.6285910734
 21
6.3434722309
 31
0.0
  0
MTEXT
  5
23D
330
22E
100
AcDbEntity
  8
0
  6
Continuous
 62
     7
370
    18
100
AcDbMText
 10
4.3670941429
 20
6.6170982271
 30
0.0
 40
0.0833333333
 41
0.0
 71
     1
 72
     1
  1

  7
SLDTEXTSTYLE0
 73
     1
 44
1.0
  0
MTEXT
  5
23E
330
22E
100
AcDbEntity
  8
0
  6
Continuous
 62
     7
370
    18
100
AcDbMText
 10
4.475890434
 20
6.6170982271
 30
0.0
 40
0.0833333333
 41
0.0
 71
     1
 72
     1
  1
1.25in
  7
SLDTEXTSTYLE0
 73
     1
 44
1.0
  0
MTEXT
  5
23F
330
22E
100
AcDbEntity
  8
0
  6
Continuous
 62
     7
370
    18
100
AcDbMText
 10
4.4167083402
 20
6.4677926711
 30
0.0
 40
0.0833333333
 41
0.0
 71
     1
 72
     1
  1
31.8mm
  7
SLDTEXTSTYLE0
 73
     1
 44
1.0
  0
MTEXT
  5
240
330
22E
100
AcDbEntity
  8
0
  6
Continuous
 62
     7
370
    18
100
AcDbMText
 10
4.9536682334
 20
6.6170982271
 30
0.0
 40
0.0833333333
 41
0.0
 71
     1
 72
     1
  1

  7
SLDTEXTSTYLE0
 73
     1
 44
1.0
  0
ENDBLK
  5
230
330
22E
100
AcDbEntity
  8
0
100
AcDbBlockEnd
  0
BLOCK
  5
245
330
244
100
AcDbEntity
  8
0
100
AcDbBlockBegin
  2
SW_NOTE_5
 70
     0
 10
0.0
 20
0.0
 30
0.0
  3
SW_NOTE_5
  1

  0
MTEXT
  5
247
330
244
100
AcDbEntity
  8
0
  6
Continuous
 62
     0
370
     0
100
AcDbMText
 10
0.0208908077
 20
0.038892789
 30
0.0
 40
0.0833333333
 41
0.0
 71
     1
 72
     1
  1
COUNTERSINK HOLE
  7
SLDTEXTSTYLE0
 73
     1
 44
1.0
  0
MTEXT
  5
248
330
244
100
AcDbEntity
  8
0
  6
Continuous
 62
     0
370
     0
100
AcDbMText
 10
0.0208908077
 20
-0.0722183207
 30
0.0
 40
0.0833333333
 41
0.0
 71
     1
 72
     1
  1
FOR 4-40 SCREW
  7
SLDTEXTSTYLE0
 73
     1
 44
1.0
  0
ENDBLK
  5
246
330
244
100
AcDbEntity
  8
0
100
AcDbBlockEnd
  0
BLOCK
  5
24C
330
24B
100
AcDbEntity
  8
0
100
AcDbBlockBegin
  2
SW_CENTERMARKSYMBOL_0
 70
     0
 10
0.0
 20
0.0
 30
0.0
  3
SW_CENTERMARKSYMBOL_0
  1

  0
LINE
  5
24E
330
24B
100
AcDbEntity
  8
0
  6
Continuous
 62
     0
370
     0
100
AcDbLine
 10
0.0
 20
0.0
 30
0.0
 11
0.0
 21
0.05
 31
0.0
  0
LINE
  5
24F
330
24B
100
AcDbEntity
  8
0
  6
Continuous
 62
     0
370
     0
100
AcDbLine
 10
0.0
 20
0.0
 30
0.0
 11
-0.05
 21
0.0
 31
0.0
  0
LINE
  5
250
330
24B
100
AcDbEntity
  8
0
  6
Continuous
 62
     0
370
     0
100
AcDbLine
 10
0.0
 20
0.0
 30
0.0
 11
0.0
 21
-0.05
 31
0.0
  0
LINE
  5
251
330
24B
100
AcDbEntity
  8
0
  6
Continuous
 62
     0
370
     0
100
AcDbLine
 10
0.0
 20
0.0
 30
0.0
 11
0.05
 21
0.0
 31
0.0
  0
ENDBLK
  5
24D
330
24B
100
AcDbEntity
  8
0
100
AcDbBlockEnd
  0
BLOCK
  5
254
330
253
100
AcDbEntity
  8
0
100
AcDbBlockBegin
  2
SW_CENTERMARKSYMBOL_1
 70
     0
 10
0.0
 20
0.0
 30
0.0
  3
SW_CENTERMARKSYMBOL_1
  1

  0
LINE
  5
256
330
253
100
AcDbEntity
  8
0
  6
Continuous
 62
     0
370
     0
100
AcDbLine
 10
0.0
 20
0.0
 30
0.0
 11
0.0
 21
0.05
 31
0.0
  0
LINE
  5
257
330
253
100
AcDbEntity
  8
0
  6
Continuous
 62
     0
370
     0
100
AcDbLine
 10
0.0
 20
0.0
 30
0.0
 11
-0.05
 21
0.0
 31
0.0
  0
LINE
  5
258
330
253
100
AcDbEntity
  8
0
  6
Continuous
 62
     0
370
     0
100
AcDbLine
 10
0.0
 20
0.0
 30
0.0
 11
0.0
 21
-0.05
 31
0.0
  0
LINE
  5
259
330
253
100
AcDbEntity
  8
0
  6
Continuous
 62
     0
370
     0
100
AcDbLine
 10
0.0
 20
0.0
 30
0.0
 11
0.05
 21
0.0
 31
0.0
  0
ENDBLK
  5
255
330
253
100
AcDbEntity
  8
0
100
AcDbBlockEnd
  0
BLOCK
  5
25C
330
25B
100
AcDbEntity
  8
0
100
AcDbBlockBegin
  2
SW_CENTERMARKSYMBOL_2
 70
     0
 10
0.0
 20
0.0
 30
0.0
  3
SW_CENTERMARKSYMBOL_2
  1

  0
LINE
  5
25E
330
25B
100
AcDbEntity
  8
0
  6
Continuous
 62
     0
370
     0
100
AcDbLine
 10
0.0
 20
0.0
 30
0.0
 11
0.0
 21
0.05
 31
0.0
  0
LINE
  5
25F
330
25B
100
AcDbEntity
  8
0
  6
Continuous
 62
     0
370
     0
100
AcDbLine
 10
0.0
 20
0.0
 30
0.0
 11
-0.05
 21
0.0
 31
0.0
  0
LINE
  5
260
330
25B
100
AcDbEntity
  8
0
  6
Continuous
 62
     0
370
     0
100
AcDbLine
 10
0.0
 20
0.0
 30
0.0
 11
0.0
 21
-0.05
 31
0.0
  0
LINE
  5
261
330
25B
100
AcDbEntity
  8
0
  6
Continuous
 62
     0
370
     0
100
AcDbLine
 10
0.0
 20
0.0
 30
0.0
 11
0.05
 21
0.0
 31
0.0
  0
ENDBLK
  5
25D
330
25B
100
AcDbEntity
  8
0
100
AcDbBlockEnd
  0
ENDSEC
  0
SECTION
  2
ENTITIES
  0
LINE
  5
81
330
1F
100
AcDbEntity
  8
0
  6
Continuous
 62
     7
370
    18
100
AcDbLine
 10
0.0621791378
 20
8.4506055117
 30
0.0
 11
10.9444569626
 21
8.4506055117
 31
0.0
  0
LINE
  5
82
330
1F
100
AcDbEntity
  8
0
  6
Continuous
 62
     7
370
    18
100
AcDbLine
 10
0.0621791378
 20
8.4506055117
 30
0.0
 11
0.0621791378
 21
0.035557648
 31
0.0
  0
LINE
  5
83
330
1F
100
AcDbEntity
  8
0
  6
Continuous
 62
     7
370
    18
100
AcDbLine
 10
10.9444569626
 20
0.035557648
 30
0.0
 11
0.0621791378
 21
0.035557648
 31
0.0
  0
LINE
  5
84
330
1F
100
AcDbEntity
  8
0
  6
Continuous
 62
     7
370
    18
100
AcDbLine
 10
10.9444569626
 20
0.035557648
 30
0.0
 11
10.9444569626
 21
8.4506055117
 31
0.0
  0
LINE
  5
85
330
1F
100
AcDbEntity
  8
0
  6
Continuous
 62
     7
370
    18
100
AcDbLine
 10
8.4938096065
 20
0.4840901186
 30
0.0
 11
6.7571952625
 21
0.4840901186
 31
0.0
  0
LINE
  5
86
330
1F
100
AcDbEntity
  8
0
  6
Continuous
 62
     7
370
    18
100
AcDbLine
 10
6.7571952625
 20
0.4840901186
 30
0.0
 11
6.7571952625
 21
1.030163002
 31
0.0
  0
LINE
  5
87
330
1F
100
AcDbEntity
  8
0
  6
Continuous
 62
     7
370
    18
100
AcDbLine
 10
6.7571952625
 20
0.035557648
 30
0.0
 11
6.7571952625
 21
1.030163002
 31
0.0
  0
LINE
  5
88
330
1F
100
AcDbEntity
  8
0
  6
Continuous
 62
     7
370
    18
100
AcDbLine
 10
8.4938096065
 20
0.6756085809
 30
0.0
 11
10.9444569626
 21
0.6756085809
 31
0.0
  0
LINE
  5
89
330
1F
100
AcDbEntity
  8
0
  6
Continuous
 62
     7
370
    18
100
AcDbLine
 10
8.4938096065
 20
1.3873799542
 30
0.0
 11
8.4938096065
 21
0.035557648
 31
0.0
  0
LINE
  5
8A
330
1F
100
AcDbEntity
  8
0
  6
Continuous
 62
     7
370
    18
100
AcDbLine
 10
8.4938096065
 20
1.030163002
 30
0.0
 11
6.7571952625
 21
1.030163002
 31
0.0
  0
LINE
  5
8B
330
1F
100
AcDbEntity
  8
0
  6
Continuous
 62
     7
370
    18
100
AcDbLine
 10
8.4938096065
 20
0.3598787426
 30
0.0
 11
10.9444569626
 21
0.3598787426
 31
0.0
  0
LINE
  5
8C
330
1F
100
AcDbEntity
  8
0
  6
Continuous
 62
     7
370
    18
100
AcDbLine
 10
8.4938096065
 20
0.6662079686
 30
0.0
 11
6.7571952625
 21
0.6662079686
 31
0.0
  0
LINE
  5
8D
330
1F
100
AcDbEntity
  8
0
  6
Continuous
 62
     7
370
    18
100
AcDbLine
 10
8.4938096065
 20
0.8459606517
 30
0.0
 11
6.7571952625
 21
0.8459606517
 31
0.0
  0
LINE
  5
8E
330
1F
100
AcDbEntity
  8
0
  6
Continuous
 62
     7
370
    18
100
AcDbLine
 10
7.3281027587
 20
1.030163002
 30
0.0
 11
7.3281027587
 21
0.4840901186
 31
0.0
  0
LINE
  5
8F
330
1F
100
AcDbEntity
  8
0
  6
Continuous
 62
     7
370
    18
100
AcDbLine
 10
7.8037240401
 20
1.030163002
 30
0.0
 11
7.8037240401
 21
0.4840901186
 31
0.0
  0
LINE
  5
90
330
1F
100
AcDbEntity
  8
0
  6
Continuous
 62
     7
370
    18
100
AcDbLine
 10
9.990119718
 20
0.3598787426
 30
0.0
 11
9.990119718
 21
0.035557648
 31
0.0
  0
LINE
  5
91
330
1F
100
AcDbEntity
  8
0
  6
Continuous
 62
     7
370
    18
100
AcDbLine
 10
6.7571952625
 20
0.4840901186
 30
0.0
 11
6.7571952625
 21
0.297745443
 31
0.0
  0
LINE
  5
92
330
1F
100
AcDbEntity
  8
0
  6
Continuous
 62
     7
370
    18
100
AcDbLine
 10
6.7571952625
 20
0.297745443
 30
0.0
 11
8.4938096065
 21
0.297745443
 31
0.0
  0
LINE
  5
93
330
1F
100
AcDbEntity
  8
0
  6
Continuous
 62
     7
370
    18
100
AcDbLine
 10
6.7571952625
 20
0.297745443
 30
0.0
 11
6.7571952625
 21
1.3873799542
 31
0.0
  0
LINE
  5
94
330
1F
100
AcDbEntity
  8
0
  6
Continuous
 62
     7
370
    18
100
AcDbLine
 10
6.7571952625
 20
1.3873799542
 30
0.0
 11
8.4938096065
 21
1.3873799542
 31
0.0
  0
LINE
  5
95
330
1F
100
AcDbEntity
  8
0
  6
Continuous
 62
     7
370
    18
100
AcDbLine
 10
10.6365495992
 20
0.6756085809
 30
0.0
 11
10.6365495992
 21
0.3598787426
 31
0.0
  0
LINE
  5
96
330
1F
100
AcDbEntity
  8
0
  6
Continuous
 62
     7
370
    18
100
AcDbLine
 10
8.4938096065
 20
1.3873799542
 30
0.0
 11
10.9444569626
 21
1.3873799542
 31
0.0
  0
LINE
  5
97
330
1F
100
AcDbEntity
  8
0
  6
Continuous
 62
     7
370
    18
100
AcDbLine
 10
10.9444569626
 20
1.3873799542
 30
0.0
 11
10.9444569626
 21
1.9698084888
 31
0.0
  0
LINE
  5
98
330
1F
100
AcDbEntity
  8
0
  6
Continuous
 62
     7
370
    18
100
AcDbLine
 10
8.4938096065
 20
0.9800288797
 30
0.0
 11
10.9444569626
 21
0.9800288797
 31
0.0
  0
INSERT
  5
99
330
1F
100
AcDbEntity
  8
0
  6
Continuous
 62
     7
100
AcDbBlockReference
  2
Third Angle Projection Block
 10
4.6348905679
 20
0.6108753523
 30
0.0
 41
0.8
 42
0.8
 43
0.8
  0
INSERT
  5
A2
330
1F
100
AcDbEntity
  8
0
  6
Continuous
 62
     7
370
     0
100
AcDbBlockReference
  2
SW_NOTE_0
 10
0.2564305428
 20
0.8823019491
 30
0.0
  0
MTEXT
  5
A3
330
1F
100
AcDbEntity
  8
0
  6
Continuous
 62
     7
370
     0
100
AcDbMText
 10
10.7937728813
 20
0.5227176726
 30
0.0
 40
0.125
 41
0.0
 71
     2
 72
     1
  1
D
  7
SLDTEXTSTYLE0
 73
     1
 44
1.0
  0
MTEXT
  5
A4
330
1F
100
AcDbEntity
  8
0
  6
Continuous
 62
     7
370
     0
100
AcDbMText
 10
9.2431020894
 20
0.2019943461
 30
0.0
 40
0.125
 41
0.0
 71
     2
 72
     1
  1
SITST
  7
SLDTEXTSTYLE0
 73
     1
 44
1.0
  0
MTEXT
  5
A5
330
1F
100
AcDbEntity
  8
0
  6
Continuous
 62
     7
370
     0
100
AcDbMText
 10
8.5204715199
 20
0.6623747189
 30
0.0
 40
0.0833333333
 41
0.0
 71
     1
 72
     1
  1
MATERIAL
  7
SLDTEXTSTYLE0
 73
     1
 44
1.0
  0
MTEXT
  5
A6
330
1F
100
AcDbEntity
  8
0
  6
Continuous
 62
     7
370
     0
100
AcDbMText
 10
6.8594860853
 20
0.7895493672
 30
0.0
 40
0.0729166667
 41
0.0
 71
     1
 72
     1
  1
DRAWN
  7
SLDTEXTSTYLE0
 73
     1
 44
1.0
  0
MTEXT
  5
A7
330
1F
100
AcDbEntity
  8
0
  6
Continuous
 62
     7
370
     0
100
AcDbMText
 10
6.7872445848
 20
0.613335314
 30
0.0
 40
0.0729166667
 41
0.0
 71
     1
 72
     1
  1
APPROVAL
  7
SLDTEXTSTYLE0
 73
     1
 44
1.0
  0
MTEXT
  5
A8
330
1F
100
AcDbEntity
  8
0
  6
Continuous
 62
     7
370
     0
100
AcDbMText
 10
10.6936137314
 20
0.6373332609
 30
0.0
 40
0.0833333333
 41
0.0
 71
     1
 72
     1
  1
REV
  7
SLDTEXTSTYLE0
 73
     1
 44
1.0
  0
MTEXT
  5
A9
330
1F
100
AcDbEntity
  8
0
  6
Continuous
 62
     7
370
     0
100
AcDbMText
 10
7.4919633718
 20
0.7999100272
 30
0.0
 40
0.0833333333
 41
0.0
 71
     1
 72
     1
  1
DT
  7
SLDTEXTSTYLE0
 73
     1
 44
1.0
  0
MTEXT
  5
AA
330
1F
100
AcDbEntity
  8
0
  6
Continuous
 62
     7
370
     0
100
AcDbMText
 10
7.4919633718
 20
0.623695974
 30
0.0
 40
0.0833333333
 41
0.0
 71
     1
 72
     1
  1
BW
  7
SLDTEXTSTYLE0
 73
     1
 44
1.0
  0
MTEXT
  5
AB
330
1F
100
AcDbEntity
  8
0
  6
Continuous
 62
     7
370
     0
100
AcDbMText
 10
7.8687497515
 20
0.7999100272
 30
0.0
 40
0.0833333333
 41
0.0
 71
     1
 72
     1
  1
21/JAN/19
  7
SLDTEXTSTYLE0
 73
     1
 44
1.0
  0
MTEXT
  5
AC
330
1F
100
AcDbEntity
  8
0
  6
Continuous
 62
     7
370
     0
100
AcDbMText
 10
8.0163191884
 20
0.9772495896
 30
0.0
 40
0.0833333333
 41
0.0
 71
     1
 72
     1
  1
DATE
  7
SLDTEXTSTYLE0
 73
     1
 44
1.0
  0
MTEXT
  5
AD
330
1F
100
AcDbEntity
  8
0
  6
Continuous
 62
     7
370
     0
100
AcDbMText
 10
7.8687497515
 20
0.623695974
 30
0.0
 40
0.0833333333
 41
0.0
 71
     1
 72
     1
  1
21/JAN/19
  7
SLDTEXTSTYLE0
 73
     1
 44
1.0
  0
MTEXT
  5
AF
330
1F
100
AcDbEntity
  8
0
  6
Continuous
 62
     7
370
     0
100
AcDbMText
 10
9.0316104912
 20
1.0943207896
 30
0.0
 40
0.0833333333
 41
0.0
 71
     1
 72
     1
  1
w w w . t h o r  l a b s . c o m
  7
SLDTEXTSTYLE1
 73
     1
 44
1.0
  0
MTEXT
  5
B0
330
1F
100
AcDbEntity
  8
0
  6
Continuous
 62
     7
370
     0
100
AcDbMText
 10
8.5315119501
 20
0.328719653
 30
0.0
 40
0.0833333333
 41
0.0
 71
     1
 72
     1
  1
ITEM #
  7
SLDTEXTSTYLE0
 73
     1
 44
1.0
  0
MTEXT
  5
B1
330
1F
100
AcDbEntity
  8
0
  6
Continuous
 62
     7
370
     0
100
AcDbMText
 10
10.0209370115
 20
0.328719653
 30
0.0
 40
0.0833333333
 41
0.0
 71
     1
 72
     1
  1
APPROX WEIGHT
  7
SLDTEXTSTYLE0
 73
     1
 44
1.0
  0
MTEXT
  5
B2
330
1F
100
AcDbEntity
  8
0
  6
Continuous
 62
     7
370
     0
100
AcDbMText
 10
9.5778321492
 20
0.5423937234
 30
0.0
 40
0.1041666667
 41
0.0
 71
     2
 72
     1
  1
BLACK ANODIZED ALUMINUM
  7
SLDTEXTSTYLE0
 73
     1
 44
1.0
  0
MTEXT
  5
B3
330
1F
100
AcDbEntity
  8
0
  6
Continuous
 62
     7
370
     0
100
AcDbMText
 10
10.4790491378
 20
0.2019943461
 30
0.0
 40
0.125
 41
0.0
 71
     2
 72
     1
  1
0.03 kg
  7
SLDTEXTSTYLE0
 73
     1
 44
1.0
  0
INSERT
  5
B9
330
1F
100
AcDbEntity
  8
0
  6
Continuous
 62
     7
370
     0
100
AcDbBlockReference
  2
SW_NOTE_1
 10
6.8835832285
 20
0.1754273811
 30
0.0
  0
INSERT
  5
BF
330
1F
100
AcDbEntity
  8
0
  6
Continuous
 62
     7
370
     0
100
AcDbBlockReference
  2
SW_NOTE_2
 10
6.8719828753
 20
1.2001390658
 30
0.0
  0
MTEXT
  5
C0
330
1F
100
AcDbEntity
  8
0
  6
Continuous
 62
     7
370
     0
100
AcDbMText
 10
7.3987149145
 20
0.9772495896
 30
0.0
 40
0.0833333333
 41
0.0
 71
     1
 72
     1
  1
NAME
  7
SLDTEXTSTYLE0
 73
     1
 44
1.0
  0
INSERT
  5
C6
330
1F
100
AcDbEntity
  8
0
  6
Continuous
 62
     7
370
     0
100
AcDbBlockReference
  2
SW_NOTE_3
 10
2.3078923918
 20
0.3219551564
 30
0.0
  0
INSERT
  5
CC
330
1F
100
AcDbEntity
  8
0
  6
Continuous
 62
     7
370
     0
100
AcDbBlockReference
  2
SW_NOTE_4
 10
8.832157025
 20
0.8178241236
 30
0.0
  0
MTEXT
  5
CD
330
1F
100
AcDbEntity
  8
0
  6
Continuous
 62
     7
370
     0
100
AcDbMText
 10
7.0281258754
 20
0.4200025137
 30
0.0
 40
0.0625
 41
0.0
 71
     1
 72
     1
  1
COPYRIGHT © 2019 BY THORLABS
  7
SLDTEXTSTYLE0
 73
     1
 44
1.0
  0
LINE
  5
CE
330
1F
100
AcDbEntity
  8
0
  6
Continuous
 62
     7
370
    18
100
AcDbLine
 10
2.3348902927
 20
2.7503705256
 30
0.0
 11
2.3348902927
 21
2.5503705427
 31
0.0
  0
LINE
  5
CF
330
1F
100
AcDbEntity
  8
0
  6
Continuous
 62
     7
370
    18
100
AcDbLine
 10
4.234890277
 20
2.5503705427
 30
0.0
 11
4.234890277
 21
2.7503705256
 31
0.0
  0
LINE
  5
D0
330
1F
100
AcDbEntity
  8
0
  6
Continuous
 62
     7
370
    18
100
AcDbLine
 10
2.3348902927
 20
2.5503705427
 30
0.0
 11
4.234890277
 21
2.5503705427
 31
0.0
  0
LINE
  5
D1
330
1F
100
AcDbEntity
  8
0
  6
Continuous
 62
     7
370
    18
100
AcDbLine
 10
4.234890277
 20
2.7503705256
 30
0.0
 11
2.3348902927
 21
2.7503705256
 31
0.0
  0
DIMENSION
  5
D2
330
1F
100
AcDbEntity
  8
0
  6
Continuous
 62
     7
370
    18
100
AcDbDimension
  2
_D
 10
4.234890286
 20
3.1094204232
 30
0.0
 11
3.284890286
 21
3.1094204232
 31
0.0
 70
   160
  1
<>
 71
     2
 42
-1.0
  3
SLDDIMSTYLE0
100
AcDbAlignedDimension
 13
2.334890286
 23
2.7503705407
 33
0.0
 14
4.234890286
 24
2.7503705407
 34
0.0
100
AcDbRotatedDimension
  0
DIMENSION
  5
E7
330
1F
100
AcDbEntity
  8
0
  6
Continuous
 62
     7
370
    18
100
AcDbDimension
  2
_D_1
 10
4.6285910734
 20
2.5503705407
 30
0.0
 11
4.6285910734
 21
2.1566697533
 31
0.0
 70
   160
  1
<>
 71
     2
 42
-1.0
  3
SLDDIMSTYLE1
100
AcDbAlignedDimension
 13
4.234890286
 23
2.7503705407
 33
0.0
 14
4.234890286
 24
2.5503705407
 34
0.0
 50
90.0
100
AcDbRotatedDimension
  0
LINE
  5
FD
330
1F
100
AcDbEntity
  8
0
  6
Continuous
 62
     7
370
    18
100
AcDbLine
 10
3.9855232311
 20
6.2411322168
 30
0.0
 11
4.0234978724
 21
6.2411322168
 31
0.0
  0
LINE
  5
FE
330
1F
100
AcDbEntity
  8
0
  6
Continuous
 62
     7
370
    18
100
AcDbLine
 10
3.9855232311
 20
6.2930309373
 30
0.0
 11
3.9855232311
 21
6.2411322168
 31
0.0
  0
LINE
  5
FF
330
1F
100
AcDbEntity
  8
0
  6
Continuous
 62
     7
370
    18
100
AcDbLine
 10
3.9741308094
 20
6.2930309373
 30
0.0
 11
3.9855232311
 21
6.2930309373
 31
0.0
  0
LINE
  5
100
330
1F
100
AcDbEntity
  8
0
  6
Continuous
 62
     7
370
    18
100
AcDbLine
 10
3.9741308094
 20
6.2411322168
 30
0.0
 11
3.9741308094
 21
6.2930309373
 31
0.0
  0
LINE
  5
101
330
1F
100
AcDbEntity
  8
0
  6
Continuous
 62
     7
370
    18
100
AcDbLine
 10
3.9462827244
 20
6.2411322168
 30
0.0
 11
3.9741308094
 21
6.2411322168
 31
0.0
  0
LINE
  5
102
330
1F
100
AcDbEntity
  8
0
  6
Continuous
 62
     7
370
    18
100
AcDbLine
 10
3.9462827244
 20
6.2930309373
 30
0.0
 11
3.9462827244
 21
6.2411322168
 31
0.0
  0
LINE
  5
103
330
1F
100
AcDbEntity
  8
0
  6
Continuous
 62
     7
370
    18
100
AcDbLine
 10
3.9348903027
 20
6.2930309373
 30
0.0
 11
3.9462827244
 21
6.2930309373
 31
0.0
  0
LINE
  5
104
330
1F
100
AcDbEntity
  8
0
  6
Continuous
 62
     7
370
    18
100
AcDbLine
 10
3.9348903027
 20
6.2284739847
 30
0.0
 11
3.9348903027
 21
6.2930309373
 31
0.0
  0
LINE
  5
105
330
1F
100
AcDbEntity
  8
0
  6
Continuous
 62
     7
370
    18
100
AcDbLine
 10
4.0348902941
 20
6.2284739847
 30
0.0
 11
3.9348903027
 21
6.2284739847
 31
0.0
  0
LINE
  5
106
330
1F
100
AcDbEntity
  8
0
  6
Continuous
 62
     7
370
    18
100
AcDbLine
 10
4.0348902941
 20
6.2930309373
 30
0.0
 11
4.0348902941
 21
6.2284739847
 31
0.0
  0
LINE
  5
107
330
1F
100
AcDbEntity
  8
0
  6
Continuous
 62
     7
370
    18
100
AcDbLine
 10
4.0234978724
 20
6.2930309373
 30
0.0
 11
4.0348902941
 21
6.2930309373
 31
0.0
  0
LINE
  5
108
330
1F
100
AcDbEntity
  8
0
  6
Continuous
 62
     7
370
    18
100
AcDbLine
 10
4.0234978724
 20
6.2411322168
 30
0.0
 11
4.0234978724
 21
6.2930309373
 31
0.0
  0
LINE
  5
109
330
1F
100
AcDbEntity
  8
0
  6
Continuous
 62
     7
370
    18
100
AcDbLine
 10
4.0348902941
 20
6.0373347478
 30
0.0
 11
3.9348903027
 21
6.0739842711
 31
0.0
  0
LINE
  5
10A
330
1F
100
AcDbEntity
  8
0
  6
Continuous
 62
     7
370
    18
100
AcDbLine
 10
4.0348902941
 20
6.0508236719
 30
0.0
 11
4.0348902941
 21
6.0373347478
 31
0.0
  0
LINE
  5
10B
330
1F
100
AcDbEntity
  8
0
  6
Continuous
 62
     7
370
    18
100
AcDbLine
 10
4.0070422092
 20
6.0606931246
 30
0.0
 11
4.0348902941
 21
6.0508236719
 31
0.0
  0
LINE
  5
10C
330
1F
100
AcDbEntity
  8
0
  6
Continuous
 62
     7
370
    18
100
AcDbLine
 10
4.0070422092
 20
6.1051155981
 30
0.0
 11
4.0070422092
 21
6.0606931246
 31
0.0
  0
LINE
  5
10D
330
1F
100
AcDbEntity
  8
0
  6
Continuous
 62
     7
370
    18
100
AcDbLine
 10
4.0348902941
 20
6.1149850507
 30
0.0
 11
4.0070422092
 21
6.1051155981
 31
0.0
  0
LINE
  5
10E
330
1F
100
AcDbEntity
  8
0
  6
Continuous
 62
     7
370
    18
100
AcDbLine
 10
4.0348902941
 20
6.1284739749
 30
0.0
 11
4.0348902941
 21
6.1149850507
 31
0.0
  0
LINE
  5
10F
330
1F
100
AcDbEntity
  8
0
  6
Continuous
 62
     7
370
    18
100
AcDbLine
 10
3.9348903027
 20
6.0918244516
 30
0.0
 11
4.0348902941
 21
6.1284739749
 31
0.0
  0
LINE
  5
110
330
1F
100
AcDbEntity
  8
0
  6
Continuous
 62
     7
370
    18
100
AcDbLine
 10
3.9348903027
 20
6.0739842711
 30
0.0
 11
3.9348903027
 21
6.0918244516
 31
0.0
  0
LINE
  5
111
330
1F
100
AcDbEntity
  8
0
  6
Continuous
 62
     7
370
    18
100
AcDbLine
 10
3.9348903027
 20
5.8917651061
 30
0.0
 11
3.9348903027
 21
5.9185451767
 31
0.0
  0
LINE
  5
112
330
1F
100
AcDbEntity
  8
0
  6
Continuous
 62
     7
370
    18
100
AcDbLine
 10
4.0348902941
 20
5.8917651061
 30
0.0
 11
3.9348903027
 21
5.8917651061
 31
0.0
  0
LINE
  5
113
330
1F
100
AcDbEntity
  8
0
  6
Continuous
 62
     7
370
    18
100
AcDbLine
 10
4.0348902941
 20
5.9044233565
 30
0.0
 11
4.0348902941
 21
5.8917651061
 31
0.0
  0
LINE
  5
114
330
1F
100
AcDbEntity
  8
0
  6
Continuous
 62
     7
370
    18
100
AcDbLine
 10
3.9981814449
 20
5.9044233565
 30
0.0
 11
4.0348902941
 21
5.9044233565
 31
0.0
  0
LINE
  5
115
330
1F
100
AcDbEntity
  8
0
  6
Continuous
 62
     7
370
    18
100
AcDbLine
 10
3.9981814449
 20
5.9176749401
 30
0.0
 11
3.9981814449
 21
5.9044233565
 31
0.0
  0
SPLINE
  5
116
330
1F
100
AcDbEntity
  8
0
  6
Continuous
 62
     7
370
    18
100
AcDbSpline
210
0.0
220
0.0
230
1.0
 70
     8
 71
     3
 72
    11
 73
     7
 74
     0
 42
0.000000001
 43
0.00000001
 40
0.0
 40
0.0
 40
0.0
 40
0.0
 40
0.2797075912418865
 40
0.5594456457592603
 40
0.7797053712115147
 40
1.0
 40
1.0
 40
1.0
 40
1.0
 10
3.987738385491084
 20
5.947560201517164
 30
0.0
 10
3.989737259279224
 20
5.945252290784316
 30
0.0
 10
3.993735224555149
 20
5.940636217961409
 30
0.0
 10
3.996760819254882
 20
5.932570826218075
 30
0.0
 10
3.998020610858689
 20
5.924846416854763
 30
0.0
 10
3.998127830689347
 20
5.920065558599322
 30
0.0
 10
3.998181444851971
 20
5.917674940087587
 30
0.0
  0
SPLINE
  5
117
330
1F
100
AcDbEntity
  8
0
  6
Continuous
 62
     7
370
    18
100
AcDbSpline
210
0.0
220
0.0
230
1.0
 70
     8
 71
     3
 72
    11
 73
     7
 74
     0
 42
0.000000001
 43
0.00000001
 40
0.0
 40
0.0
 40
0.0
 40
0.0
 40
0.2799951799661321
 40
0.5598656031783384
 40
0.7799245596299537
 40
1.0
 40
1.0
 40
1.0
 40
1.0
 10
3.965388697009925
 20
5.956322076965898
 30
0.0
 10
3.967690633132816
 20
5.956206504961687
 30
0.0
 10
3.972293479710661
 20
5.955975412448393
 30
0.0
 10
3.978437893421665
 20
5.953974173300961
 30
0.0
 10
3.983683514963713
 20
5.951174859316484
 30
0.0
 10
3.986386728235035
 20
5.948765117533497
 30
0.0
 10
3.987738385491084
 20
5.947560201517164
 30
0.0
  0
SPLINE
  5
118
330
1F
100
AcDbEntity
  8
0
  6
Continuous
 62
     7
370
    18
100
AcDbSpline
210
0.0
220
0.0
230
1.0
 70
     8
 71
     3
 72
    11
 73
     7
 74
     0
 42
0.000000001
 43
0.00000001
 40
0.0
 40
0.0
 40
0.0
 40
0.0
 40
0.2798422938350513
 40
0.5594436426226382
 40
0.7796355644997298
 40
1.0
 40
1.0
 40
1.0
 40
1.0
 10
3.941199609777659
 20
5.944514336703254
 30
0.0
 10
3.94284634307677
 20
5.946573601221684
 30
0.0
 10
3.946138391832725
 20
5.950690357225667
 30
0.0
 10
3.952604065006073
 20
5.95444588651841
 30
0.0
 10
3.9591927349822
 20
5.956109538609271
 30
0.0
 10
3.963322837243771
 20
5.95625121235476
 30
0.0
 10
3.965388697009925
 20
5.956322076965898
 30
0.0
  0
SPLINE
  5
119
330
1F
100
AcDbEntity
  8
0
  6
Continuous
 62
     7
370
    18
100
AcDbSpline
210
0.0
220
0.0
230
1.0
 70
     8
 71
     3
 72
    11
 73
     7
 74
     0
 42
0.000000001
 43
0.00000001
 40
0.0
 40
0.0
 40
0.0
 40
0.0
 40
0.2801440215856653
 40
0.5601314238438331
 40
0.7800971670150464
 40
1.0
 40
1.0
 40
1.0
 40
1.0
 10
3.934890302663313
 20
5.918545176701207
 30
0.0
 10
3.934939033765288
 20
5.921079635837474
 30
0.0
 10
3.935036468725278
 20
5.926147137177093
 30
0.0
 10
3.936122850072599
 20
5.933140311630547
 30
0.0
 10
3.93811663922503
 20
5.939386682334606
 30
0.0
 10
3.940172050915394
 20
5.942805281556865
 30
0.0
 10
3.941199609777659
 20
5.944514336703254
 30
0.0
  0
SPLINE
  5
11A
330
1F
100
AcDbEntity
  8
0
  6
Continuous
 62
     7
370
    18
100
AcDbSpline
210
0.0
220
0.0
230
1.0
 70
     8
 71
     3
 72
    11
 73
     7
 74
     0
 42
0.000000001
 43
0.00000001
 40
0.0
 40
0.0
 40
0.0
 40
0.0
 40
0.279896303163953
 40
0.5594783505821204
 40
0.7796244625057835
 40
1.0
 40
1.0
 40
1.0
 40
1.0
 10
3.940309573392768
 20
5.78798742824879
 30
0.0
 10
3.941773982927737
 20
5.789930203852006
 30
0.0
 10
3.944701157820509
 20
5.793813573792054
 30
0.0
 10
3.950545032198098
 20
5.797487666086173
 30
0.0
 10
3.956603660605071
 20
5.79914773634188
 30
0.0
 10
3.960415913338977
 20
5.799289254349315
 30
0.0
 10
3.962323032424745
 20
5.799360050204625
 30
0.0
  0
SPLINE
  5
11B
330
1F
100
AcDbEntity
  8
0
  6
Continuous
 62
     7
370
    18
100
AcDbSpline
210
0.0
220
0.0
230
1.0
 70
     8
 71
     3
 72
    11
 73
     7
 74
     0
 42
0.000000001
 43
0.00000001
 40
0.0
 40
0.0
 40
0.0
 40
0.0
 40
0.2801409577104492
 40
0.560185283402923
 40
0.7801222241595999
 40
1.0
 40
1.0
 40
1.0
 40
1.0
 10
3.934890302663313
 20
5.762394097238468
 30
0.0
 10
3.93492926020975
 20
5.76487102554096
 30
0.0
 10
3.93500716186458
 20
5.769824027752563
 30
0.0
 10
3.93580301749072
 20
5.776683651406251
 30
0.0
 10
3.937437505763477
 20
5.782888168664705
 30
0.0
 10
3.939352303377373
 20
5.786287827497479
 30
0.0
 10
3.940309573392768
 20
5.78798742824879
 30
0.0
  0
LINE
  5
11C
330
1F
100
AcDbEntity
  8
0
  6
Continuous
 62
     7
370
    18
100
AcDbLine
 10
3.9348903027
 20
5.734803116
 30
0.0
 11
3.9348903027
 21
5.7623940972
 31
0.0
  0
LINE
  5
11D
330
1F
100
AcDbEntity
  8
0
  6
Continuous
 62
     7
370
    18
100
AcDbLine
 10
4.0348902941
 20
5.734803116
 30
0.0
 11
3.9348903027
 21
5.734803116
 31
0.0
  0
LINE
  5
11E
330
1F
100
AcDbEntity
  8
0
  6
Continuous
 62
     7
370
    18
100
AcDbLine
 10
4.0348902941
 20
5.7474613297
 30
0.0
 11
4.0348902941
 21
5.734803116
 31
0.0
  0
LINE
  5
11F
330
1F
100
AcDbEntity
  8
0
  6
Continuous
 62
     7
370
    18
100
AcDbLine
 10
3.9956497874
 20
5.7474613297
 30
0.0
 11
4.0348902941
 21
5.7474613297
 31
0.0
  0
LINE
  5
120
330
1F
100
AcDbEntity
  8
0
  6
Continuous
 62
     7
370
    18
100
AcDbLine
 10
3.9956497874
 20
5.7683473751
 30
0.0
 11
3.9956497874
 21
5.7474613297
 31
0.0
  0
LINE
  5
121
330
1F
100
AcDbEntity
  8
0
  6
Continuous
 62
     7
370
    18
100
AcDbLine
 10
4.0348902941
 20
5.8018521814
 30
0.0
 11
3.9956497874
 21
5.7683473751
 31
0.0
  0
LINE
  5
122
330
1F
100
AcDbEntity
  8
0
  6
Continuous
 62
     7
370
    18
100
AcDbLine
 10
4.0348902941
 20
5.8170815788
 30
0.0
 11
4.0348902941
 21
5.8018521814
 31
0.0
  0
LINE
  5
123
330
1F
100
AcDbEntity
  8
0
  6
Continuous
 62
     7
370
    18
100
AcDbLine
 10
3.9916545603
 20
5.7793837676
 30
0.0
 11
4.0348902941
 21
5.8170815788
 31
0.0
  0
SPLINE
  5
124
330
1F
100
AcDbEntity
  8
0
  6
Continuous
 62
     7
370
    18
100
AcDbSpline
210
0.0
220
0.0
230
1.0
 70
     8
 71
     3
 72
    12
 73
     8
 74
     0
 42
0.000000001
 43
0.00000001
 40
0.0
 40
0.0
 40
0.0
 40
0.0
 40
0.1868303494604678
 40
0.3734924194818335
 40
0.5601004321674723
 40
0.7799551746922098
 40
0.9999999999999999
 40
0.9999999999999999
 40
0.9999999999999999
 40
0.9999999999999999
 10
3.962323032424744
 20
5.799360050204625
 30
0.0
 10
3.964684607838532
 20
5.799248480703907
 30
0.0
 10
3.969405631578153
 20
5.799025442193924
 30
0.0
 10
3.976261711305696
 20
5.796926527635716
 30
0.0
 10
3.982630592001559
 20
5.79286215081926
 30
0.0
 10
3.988101316653776
 20
5.786960766397748
 30
0.0
 10
3.990469804573536
 20
5.781910161355746
 30
0.0
 10
3.991654560251098
 20
5.779383767639012
 30
0.0
  0
LINE
  5
125
330
1F
100
AcDbEntity
  8
0
  6
Continuous
 62
     7
370
    18
100
AcDbLine
 10
3.9855232311
 20
5.5677144595
 30
0.0
 11
4.0234978724
 21
5.5677144595
 31
0.0
  0
LINE
  5
126
330
1F
100
AcDbEntity
  8
0
  6
Continuous
 62
     7
370
    18
100
AcDbLine
 10
3.9855232311
 20
5.6196132533
 30
0.0
 11
3.9855232311
 21
5.5677144595
 31
0.0
  0
LINE
  5
127
330
1F
100
AcDbEntity
  8
0
  6
Continuous
 62
     7
370
    18
100
AcDbLine
 10
3.9741308094
 20
5.6196132533
 30
0.0
 11
3.9855232311
 21
5.6196132533
 31
0.0
  0
LINE
  5
128
330
1F
100
AcDbEntity
  8
0
  6
Continuous
 62
     7
370
    18
100
AcDbLine
 10
3.9741308094
 20
5.5677144595
 30
0.0
 11
3.9741308094
 21
5.6196132533
 31
0.0
  0
LINE
  5
129
330
1F
100
AcDbEntity
  8
0
  6
Continuous
 62
     7
370
    18
100
AcDbLine
 10
3.9462827244
 20
5.5677144595
 30
0.0
 11
3.9741308094
 21
5.5677144595
 31
0.0
  0
LINE
  5
12A
330
1F
100
AcDbEntity
  8
0
  6
Continuous
 62
     7
370
    18
100
AcDbLine
 10
3.9462827244
 20
5.6196132533
 30
0.0
 11
3.9462827244
 21
5.5677144595
 31
0.0
  0
LINE
  5
12B
330
1F
100
AcDbEntity
  8
0
  6
Continuous
 62
     7
370
    18
100
AcDbLine
 10
3.9348903027
 20
5.6196132533
 30
0.0
 11
3.9462827244
 21
5.6196132533
 31
0.0
  0
LINE
  5
12C
330
1F
100
AcDbEntity
  8
0
  6
Continuous
 62
     7
370
    18
100
AcDbLine
 10
3.9348903027
 20
5.5550562458
 30
0.0
 11
3.9348903027
 21
5.6196132533
 31
0.0
  0
LINE
  5
12D
330
1F
100
AcDbEntity
  8
0
  6
Continuous
 62
     7
370
    18
100
AcDbLine
 10
4.0348902941
 20
5.5550562458
 30
0.0
 11
3.9348903027
 21
5.5550562458
 31
0.0
  0
LINE
  5
12E
330
1F
100
AcDbEntity
  8
0
  6
Continuous
 62
     7
370
    18
100
AcDbLine
 10
4.0348902941
 20
5.6196132533
 30
0.0
 11
4.0348902941
 21
5.5550562458
 31
0.0
  0
LINE
  5
12F
330
1F
100
AcDbEntity
  8
0
  6
Continuous
 62
     7
370
    18
100
AcDbLine
 10
4.0234978724
 20
5.6196132533
 30
0.0
 11
4.0348902941
 21
5.6196132533
 31
0.0
  0
LINE
  5
130
330
1F
100
AcDbEntity
  8
0
  6
Continuous
 62
     7
370
    18
100
AcDbLine
 10
4.0234978724
 20
5.5677144595
 30
0.0
 11
4.0234978724
 21
5.6196132533
 31
0.0
  0
SPLINE
  5
131
330
1F
100
AcDbEntity
  8
0
  6
Continuous
 62
     7
370
    18
100
AcDbSpline
210
0.0
220
0.0
230
1.0
 70
     8
 71
     3
 72
    12
 73
     8
 74
     0
 42
0.000000001
 43
0.00000001
 40
0.0
 40
0.0
 40
0.0
 40
0.0
 40
0.1869159238114179
 40
0.3735111298443346
 40
0.5596398798312073
 40
0.7795862635555502
 40
0.9999999999999999
 40
0.9999999999999999
 40
0.9999999999999999
 40
0.9999999999999999
 10
3.960068278471854
 20
5.367714476611124
 30
0.0
 10
3.961539066437565
 20
5.367783165877363
 30
0.0
 10
3.964478118732481
 20
5.367920426550062
 30
0.0
 10
3.968664894159557
 20
5.369586661175776
 30
0.0
 10
3.972070775824832
 20
5.372912641289094
 30
0.0
 10
3.974198082309481
 20
5.377421974549295
 30
0.0
 10
3.975089080986315
 20
5.380759255314796
 30
0.0
 10
3.975535053131687
 20
5.382429666619994
 30
0.0
  0
SPLINE
  5
132
330
1F
100
AcDbEntity
  8
0
  6
Continuous
 62
     7
370
    18
100
AcDbSpline
210
0.0
220
0.0
230
1.0
 70
     8
 71
     3
 72
    13
 73
     9
 74
     0
 42
0.000000001
 43
0.00000001
 40
0.0
 40
0.0
 40
0.0
 40
0.0
 40
0.2502804965434579
 40
0.5000204256407547
 40
0.6251978915569051
 40
0.7502069278013935
 40
0.8750692791600185
 40
1.0
 40
1.0
 40
1.0
 40
1.0
 10
3.943751066969674
 20
5.391705786128137
 30
0.0
 10
3.943864500032828
 20
5.38901067861712
 30
0.0
 10
3.944091121161134
 20
5.383626284613523
 30
0.0
 10
3.946337732568219
 20
5.377139017104883
 30
0.0
 10
3.949387695560245
 20
5.372682878285454
 30
0.0
 10
3.952323954748058
 20
5.36986757821356
 30
0.0
 10
3.95602383272198
 20
5.368030287403469
 30
0.0
 10
3.958719883914806
 20
5.367819766082116
 30
0.0
 10
3.960068278471854
 20
5.367714476611124
 30
0.0
  0
SPLINE
  5
133
330
1F
100
AcDbEntity
  8
0
  6
Continuous
 62
     7
370
    18
100
AcDbSpline
210
0.0
220
0.0
230
1.0
 70
     8
 71
     3
 72
    11
 73
     7
 74
     0
 42
0.000000001
 43
0.00000001
 40
0.0
 40
0.0
 40
0.0
 40
0.0
 40
0.2796704024520278
 40
0.5597311629745194
 40
0.7798815967500811
 40
0.9999999999999999
 40
0.9999999999999999
 40
0.9999999999999999
 40
0.9999999999999999
 10
3.955143415364293
 20
5.426258806968691
 30
0.0
 10
3.953162828850186
 20
5.423415762052786
 30
0.0
 10
3.949198891360934
 20
5.417725703958627
 30
0.0
 10
3.946009926302307
 20
5.408557458266571
 30
0.0
 10
3.944058820221699
 20
5.399863610148595
 30
0.0
 10
3.943853646411401
 20
5.394424928909618
 30
0.0
 10
3.943751066969674
 20
5.391705786128137
 30
0.0
  0
LINE
  5
134
330
1F
100
AcDbEntity
  8
0
  6
Continuous
 62
     7
370
    18
100
AcDbLine
 10
3.9551434154
 20
5.4272081693
 30
0.0
 11
3.9551434154
 21
5.426258807
 31
0.0
  0
LINE
  5
135
330
1F
100
AcDbEntity
  8
0
  6
Continuous
 62
     7
370
    18
100
AcDbLine
 10
3.939360211
 20
5.4272081693
 30
0.0
 11
3.9551434154
 21
5.4272081693
 31
0.0
  0
SPLINE
  5
136
330
1F
100
AcDbEntity
  8
0
  6
Continuous
 62
     7
370
    18
100
AcDbSpline
210
0.0
220
0.0
230
1.0
 70
     8
 71
     3
 72
    11
 73
     7
 74
     0
 42
0.000000001
 43
0.00000001
 40
0.0
 40
0.0
 40
0.0
 40
0.0
 40
0.2800078497942246
 40
0.5599553788098786
 40
0.7799946977705481
 40
1.0
 40
1.0
 40
1.0
 40
1.0
 10
3.932358645242569
 20
5.391824438090792
 30
0.0
 10
3.932434923216462
 20
5.395216422615166
 30
0.0
 10
3.932587462732042
 20
5.401999660944588
 30
0.0
 10
3.934227068882434
 20
5.411325222845435
 30
0.0
 10
3.936448570366438
 20
5.419763246109234
 30
0.0
 10
3.938389714158536
 20
5.424726656155037
 30
0.0
 10
3.93936021102655
 20
5.427208169334909
 30
0.0
  0
SPLINE
  5
137
330
1F
100
AcDbEntity
  8
0
  6
Continuous
 62
     7
370
    18
100
AcDbSpline
210
0.0
220
0.0
230
1.0
 70
     8
 71
     3
 72
    13
 73
     9
 74
     0
 42
0.000000001
 43
0.00000001
 40
0.0
 40
0.0
 40
0.0
 40
0.0
 40
0.139954273626634
 40
0.2797946425650643
 40
0.4197951755532106
 40
0.5599517359892818
 40
0.7798191018647738
 40
1.0
 40
1.0
 40
1.0
 40
1.0
 10
3.961373670058526
 20
5.353790470795762
 30
0.0
 10
3.958877771881359
 20
5.353971842704015
 30
0.0
 10
3.953888006865521
 20
5.354334438907236
 30
0.0
 10
3.947027761742401
 20
5.357685427249623
 30
0.0
 10
3.941521971155298
 20
5.362818990286397
 30
0.0
 10
3.936525419600084
 20
5.37021763728796
 30
0.0
 10
3.932936778609627
 20
5.380074641876087
 30
0.0
 10
3.932551447880348
 20
5.387905979422515
 30
0.0
 10
3.932358645242569
 20
5.391824438090792
 30
0.0
  0
SPLINE
  5
138
330
1F
100
AcDbEntity
  8
0
  6
Continuous
 62
     7
370
    18
100
AcDbSpline
210
0.0
220
0.0
230
1.0
 70
     8
 71
     3
 72
    13
 73
     9
 74
     0
 42
0.000000001
 43
0.00000001
 40
0.0
 40
0.0
 40
0.0
 40
0.0
 40
0.1869144614060516
 40
0.3736580469256596
 40
0.5599935703452458
 40
0.7065488217122267
 40
0.8532186937695134
 40
1.0
 40
1.0
 40
1.0
 40
1.0
 10
3.98914262926914
 20
5.380174912667104
 30
0.0
 10
3.988514575345671
 20
5.377628152514021
 30
0.0
 10
3.987259041661213
 20
5.372536960438083
 30
0.0
 10
3.983937424705107
 20
5.36535789310917
 30
0.0
 10
3.97923876085575
 20
5.359634239877404
 30
0.0
 10
3.973506366480922
 20
5.35597528010577
 30
0.0
 10
3.967556304081801
 20
5.354069090615149
 30
0.0
 10
3.963435069727554
 20
5.353883367577507
 30
0.0
 10
3.961373670058526
 20
5.353790470795762
 30
0.0
  0
SPLINE
  5
139
330
1F
100
AcDbEntity
  8
0
  6
Continuous
 62
     7
370
    18
100
AcDbSpline
210
0.0
220
0.0
230
1.0
 70
     8
 71
     3
 72
     9
 73
     5
 74
     0
 42
0.000000001
 43
0.00000001
 40
0.0
 40
0.0
 40
0.0
 40
0.0
 40
0.5599139154404302
 40
1.0
 40
1.0
 40
1.0
 40
1.0
 10
3.993632410736134
 20
5.403790466524877
 30
0.0
 10
3.992757001728024
 20
5.399389999118016
 30
0.0
 10
3.991193531015883
 20
5.391530813472666
 30
0.0
 10
3.989769378828918
 20
5.38364524265345
 30
0.0
 10
3.98914262926914
 20
5.380174912667104
 30
0.0
  0
SPLINE
  5
13A
330
1F
100
AcDbEntity
  8
0
  6
Continuous
 62
     7
370
    18
100
AcDbSpline
210
0.0
220
0.0
230
1.0
 70
     8
 71
     3
 72
    12
 73
     8
 74
     0
 42
0.000000001
 43
0.00000001
 40
0.0
 40
0.0
 40
0.0
 40
0.0
 40
0.1869121434481151
 40
0.3733678496515983
 40
0.5594134661111584
 40
0.7796271375570892
 40
1.0
 40
1.0
 40
1.0
 40
1.0
 10
4.008545378460258
 20
5.417081539651933
 30
0.0
 10
4.007175296010045
 20
5.417027727925893
 30
0.0
 10
4.004438476834763
 20
5.416920235881412
 30
0.0
 10
4.000441164075446
 20
5.415601055278063
 30
0.0
 10
3.997213814296424
 20
5.412529497764209
 30
0.0
 10
3.995024549779294
 20
5.408434022231443
 30
0.0
 10
3.994096568848664
 20
5.405338691224682
 30
0.0
 10
3.993632410736134
 20
5.403790466524877
 30
0.0
  0
SPLINE
  5
13B
330
1F
100
AcDbEntity
  8
0
  6
Continuous
 62
     7
370
    18
100
AcDbSpline
210
0.0
220
0.0
230
1.0
 70
     8
 71
     3
 72
    13
 73
     9
 74
     0
 42
0.000000001
 43
0.00000001
 40
0.0
 40
0.0
 40
0.0
 40
0.0
 40
0.2503388135556074
 40
0.5000282096642558
 40
0.6251568340033632
 40
0.7501844395505453
 40
0.8750437897385632
 40
1.0
 40
1.0
 40
1.0
 40
1.0
 10
4.026029529815183
 20
5.390954201477173
 30
0.0
 10
4.025919932953172
 20
5.393888186397846
 30
0.0
 10
4.025701023540292
 20
5.399748545030328
 30
0.0
 10
4.023487791053929
 20
5.406879342951283
 30
0.0
 10
4.020260428896262
 20
5.411809893885901
 30
0.0
 10
4.017011419389642
 20
5.414835668939706
 30
0.0
 10
4.012951214128661
 20
5.416764298927584
 30
0.0
 10
4.010014369913681
 20
5.416975765413441
 30
0.0
 10
4.008545378460258
 20
5.417081539651933
 30
0.0
  0
SPLINE
  5
13C
330
1F
100
AcDbEntity
  8
0
  6
Continuous
 62
     7
370
    18
100
AcDbSpline
210
0.0
220
0.0
230
1.0
 70
     8
 71
     3
 72
    11
 73
     7
 74
     0
 42
0.000000001
 43
0.00000001
 40
0.0
 40
0.0
 40
0.0
 40
0.0
 40
0.2798885925747798
 40
0.5598817751823378
 40
0.7799943998746627
 40
1.0
 40
1.0
 40
1.0
 40
1.0
 10
4.013371316043949
 20
5.35473983316198
 30
0.0
 10
4.015476475028143
 20
5.357723557496763
 30
0.0
 10
4.019687579661843
 20
5.36369212113791
 30
0.0
 10
4.023266527730325
 20
5.373261846267416
 30
0.0
 10
4.02555605223794
 20
5.382367981876518
 30
0.0
 10
4.025871729544097
 20
5.388092592299209
 30
0.0
 10
4.026029529815183
 20
5.390954201477173
 30
0.0
  0
LINE
  5
13D
330
1F
100
AcDbEntity
  8
0
  6
Continuous
 62
     7
370
    18
100
AcDbLine
 10
4.013371316
 20
5.3537904708
 30
0.0
 11
4.013371316
 21
5.3547398332
 31
0.0
  0
LINE
  5
13E
330
1F
100
AcDbEntity
  8
0
  6
Continuous
 62
     7
370
    18
100
AcDbLine
 10
4.0296292016
 20
5.3537904708
 30
0.0
 11
4.013371316
 21
5.3537904708
 31
0.0
  0
SPLINE
  5
13F
330
1F
100
AcDbEntity
  8
0
  6
Continuous
 62
     7
370
    18
100
AcDbSpline
210
0.0
220
0.0
230
1.0
 70
     8
 71
     3
 72
    11
 73
     7
 74
     0
 42
0.000000001
 43
0.00000001
 40
0.0
 40
0.0
 40
0.0
 40
0.0
 40
0.2800016107312222
 40
0.5599109730082309
 40
0.7799625211043811
 40
1.0
 40
1.0
 40
1.0
 40
1.0
 10
4.037421951542289
 20
5.390855275953302
 30
0.0
 10
4.03733350801195
 20
5.387291520849645
 30
0.0
 10
4.037156650089602
 20
5.380165184745929
 30
0.0
 10
4.035410023412755
 20
5.370360113563034
 30
0.0
 10
4.032793851764179
 20
5.361570650153358
 30
0.0
 10
4.030684062481986
 20
5.35638380864227
 30
0.0
 10
4.029629201564802
 20
5.353790470795762
 30
0.0
  0
SPLINE
  5
140
330
1F
100
AcDbEntity
  8
0
  6
Continuous
 62
     7
370
    18
100
AcDbSpline
210
0.0
220
0.0
230
1.0
 70
     8
 71
     3
 72
    11
 73
     7
 74
     0
 42
0.000000001
 43
0.00000001
 40
0.0
 40
0.0
 40
0.0
 40
0.0
 40
0.2797967591430519
 40
0.5596610497081785
 40
0.7798001340776685
 40
1.0
 40
1.0
 40
1.0
 40
1.0
 10
4.028165631805417
 20
5.420641685191494
 30
0.0
 10
4.029865598104998
 20
5.418198195376699
 30
0.0
 10
4.033265941006056
 20
5.413310625989236
 30
0.0
 10
4.036009670671373
 20
5.405411539475537
 30
0.0
 10
4.037257453712947
 20
5.39786099563058
 30
0.0
 10
4.037367113886913
 20
5.393190730730159
 30
0.0
 10
4.037421951542289
 20
5.390855275953302
 30
0.0
  0
SPLINE
  5
141
330
1F
100
AcDbEntity
  8
0
  6
Continuous
 62
     7
370
    18
100
AcDbSpline
210
0.0
220
0.0
230
1.0
 70
     8
 71
     3
 72
    11
 73
     7
 74
     0
 42
0.000000001
 43
0.00000001
 40
0.0
 40
0.0
 40
0.0
 40
0.0
 40
0.279830116533039
 40
0.5597985707152984
 40
0.7799530603697387
 40
1.0
 40
1.0
 40
1.0
 40
1.0
 10
4.006646580395336
 20
5.431005618799783
 30
0.0
 10
4.008948454270761
 20
5.430822511811618
 30
0.0
 10
4.01355333998283
 20
5.430456207313973
 30
0.0
 10
4.019530201450332
 20
5.427927895824838
 30
0.0
 10
4.024503312724418
 20
5.424661145909321
 30
0.0
 10
4.026945057634143
 20
5.421981287183054
 30
0.0
 10
4.028165631805417
 20
5.420641685191494
 30
0.0
  0
SPLINE
  5
142
330
1F
100
AcDbEntity
  8
0
  6
Continuous
 62
     7
370
    18
100
AcDbSpline
210
0.0
220
0.0
230
1.0
 70
     8
 71
     3
 72
    13
 73
     9
 74
     0
 42
0.000000001
 43
0.00000001
 40
0.0
 40
0.0
 40
0.0
 40
0.0
 40
0.1868914361451758
 40
0.3736307074905861
 40
0.5599746074822076
 40
0.7064884695237607
 40
0.8531696947842249
 40
1.0
 40
1.0
 40
1.0
 40
1.0
 10
3.980637894183232
 20
5.408339500640714
 30
0.0
 10
3.98131159760563
 20
5.41059620812323
 30
0.0
 10
3.982658455929057
 20
5.415107785703683
 30
0.0
 10
3.985991368805746
 20
5.421364338324995
 30
0.0
 10
3.990359581751094
 20
5.426377382492041
 30
0.0
 10
3.995699229922784
 20
5.429360565993282
 30
0.0
 10
4.001100971510669
 20
5.430793813197389
 30
0.0
 10
4.004797418269137
 20
5.430934993029699
 30
0.0
 10
4.006646580395336
 20
5.431005618799783
 30
0.0
  0
SPLINE
  5
143
330
1F
100
AcDbEntity
  8
0
  6
Continuous
 62
     7
370
    18
100
AcDbSpline
210
0.0
220
0.0
230
1.0
 70
     8
 71
     3
 72
     9
 73
     5
 74
     0
 42
0.000000001
 43
0.00000001
 40
0.0
 40
0.0
 40
0.0
 40
0.0
 40
0.5600406124817374
 40
1.0
 40
1.0
 40
1.0
 40
1.0
 10
3.975535053131687
 20
5.382429666619994
 30
0.0
 10
3.976396110689825
 20
5.387284698711944
 30
0.0
 10
3.977933601969827
 20
5.395953770175237
 30
0.0
 10
3.979811635639975
 20
5.404555214474873
 30
0.0
 10
3.980637894183232
 20
5.408339500640714
 30
0.0
  0
SPLINE
  5
144
330
1F
100
AcDbEntity
  8
0
  6
Continuous
 62
     7
370
    18
100
AcDbSpline
210
0.0
220
0.0
230
1.0
 70
     8
 71
     3
 72
     9
 73
     5
 74
     0
 42
0.000000001
 43
0.00000001
 40
0.0
 40
0.0
 40
0.0
 40
0.0
 40
0.5600954412941137
 40
1.0
 40
1.0
 40
1.0
 40
1.0
 10
2.633350101500115
 20
6.147934033448225
 30
0.0
 10
2.633740984080692
 20
6.145106199837311
 30
0.0
 10
2.634438869747594
 20
6.140057357439343
 30
0.0
 10
2.634752373600417
 20
6.134970748276268
 30
0.0
 10
2.634890285374446
 20
6.132733125717075
 30
0.0
  0
SPLINE
  5
145
330
1F
100
AcDbEntity
  8
0
  6
Continuous
 62
     7
370
    18
100
AcDbSpline
210
0.0
220
0.0
230
1.0
 70
     8
 71
     3
 72
     9
 73
     5
 74
     0
 42
0.000000001
 43
0.00000001
 40
0.0
 40
0.0
 40
0.0
 40
0.0
 40
0.5594099328302846
 40
1.0
 40
1.0
 40
1.0
 40
1.0
 10
2.629644757637896
 20
6.160813491330296
 30
0.0
 10
2.630642659113842
 20
6.158496688194681
 30
0.0
 10
2.632426505658891
 20
6.154355175862404
 30
0.0
 10
2.633067628947376
 20
6.149897875648754
 30
0.0
 10
2.633350101500115
 20
6.147934033448225
 30
0.0
  0
SPLINE
  5
146
330
1F
100
AcDbEntity
  8
0
  6
Continuous
 62
     7
370
    18
100
AcDbSpline
210
0.0
220
0.0
230
1.0
 70
     8
 71
     3
 72
    11
 73
     7
 74
     0
 42
0.000000001
 43
0.00000001
 40
0.0
 40
0.0
 40
0.0
 40
0.0
 40
0.2799546179747808
 40
0.5597741833465102
 40
0.7799023859682586
 40
1.0
 40
1.0
 40
1.0
 40
1.0
 10
2.602792069509108
 20
6.175634921778533
 30
0.0
 10
2.605798276671043
 20
6.17543432677028
 30
0.0
 10
2.611809240773784
 20
6.175033233522593
 30
0.0
 10
2.619540879445882
 20
6.171502800713276
 30
0.0
 10
2.625649376789478
 20
6.166676150256261
 30
0.0
 10
2.628313025715295
 20
6.162767620445702
 30
0.0
 10
2.629644757637896
 20
6.160813491330296
 30
0.0
  0
SPLINE
  5
147
330
1F
100
AcDbEntity
  8
0
  6
Continuous
 62
     7
370
    18
100
AcDbSpline
210
0.0
220
0.0
230
1.0
 70
     8
 71
     3
 72
    12
 73
     8
 74
     0
 42
0.000000001
 43
0.00000001
 40
0.0
 40
0.0
 40
0.0
 40
0.0
 40
0.1870566418362594
 40
0.3739233820078818
 40
0.5604413663154064
 40
0.780015909629173
 40
1.0
 40
1.0
 40
1.0
 40
1.0
 10
2.574845627348792
 20
6.151460812706571
 30
0.0
 10
2.575514513367203
 20
6.153890694015104
 30
0.0
 10
2.576851606344638
 20
6.158747989793778
 30
0.0
 10
2.580430485471868
 20
6.165485368793262
 30
0.0
 10
2.586065037831248
 20
6.171289775401348
 30
0.0
 10
2.593882664548715
 20
6.175050910671471
 30
0.0
 10
2.599820423739284
 20
6.175440130527766
 30
0.0
 10
2.602792069509108
 20
6.175634921778533
 30
0.0
  0
SPLINE
  5
148
330
1F
100
AcDbEntity
  8
0
  6
Continuous
 62
     7
370
    18
100
AcDbSpline
210
0.0
220
0.0
230
1.0
 70
     8
 71
     3
 72
    10
 73
     6
 74
     0
 42
0.000000001
 43
0.00000001
 40
0.0
 40
0.0
 40
0.0
 40
0.0
 40
0.2798752182578376
 40
0.5602079098812272
 40
1.0
 40
1.0
 40
1.0
 40
1.0
 10
2.567702786530166
 20
6.163670634990995
 30
0.0
 10
2.568628335248392
 20
6.162706750035352
 30
0.0
 10
2.570480945551505
 20
6.160777404594452
 30
0.0
 10
2.572918232770974
 20
6.156642237415308
 30
0.0
 10
2.574114839729071
 20
6.153425392805136
 30
0.0
 10
2.574845627348792
 20
6.151460812706571
 30
0.0
  0
SPLINE
  5
149
330
1F
100
AcDbEntity
  8
0
  6
Continuous
 62
     7
370
    18
100
AcDbSpline
210
0.0
220
0.0
230
1.0
 70
     8
 71
     3
 72
    10
 73
     6
 74
     0
 42
0.000000001
 43
0.00000001
 40
0.0
 40
0.0
 40
0.0
 40
0.0
 40
0.280393826593715
 40
0.560657282190243
 40
1.0
 40
1.0
 40
1.0
 40
1.0
 10
2.551475113993623
 20
6.169920634457134
 30
0.0
 10
2.553135113389269
 20
6.169826434365308
 30
0.0
 10
2.556454340352665
 20
6.169638077980621
 30
0.0
 10
2.562227974351673
 20
6.16792255545097
 30
0.0
 10
2.565627355180063
 20
6.165282483714399
 30
0.0
 10
2.567702786530166
 20
6.163670634990995
 30
0.0
  0
SPLINE
  5
14A
330
1F
100
AcDbEntity
  8
0
  6
Continuous
 62
     7
370
    18
100
AcDbSpline
210
0.0
220
0.0
230
1.0
 70
     8
 71
     3
 72
    13
 73
     9
 74
     0
 42
0.000000001
 43
0.00000001
 40
0.0
 40
0.0
 40
0.0
 40
0.0
 40
0.1869565877837394
 40
0.3736786222198915
 40
0.5600639354964329
 40
0.7067261583707554
 40
0.853297750730703
 40
0.9999999999999999
 40
0.9999999999999999
 40
0.9999999999999999
 40
0.9999999999999999
 10
2.524890291103766
 20
6.13726437670501
 30
0.0
 10
2.525000141709503
 20
6.140212262988502
 30
0.0
 10
2.525219705103808
 20
6.146104337174998
 30
0.0
 10
2.527648304829151
 20
6.154702248336515
 30
0.0
 10
2.532192464658508
 20
6.161694303233888
 30
0.0
 10
2.538075435085897
 20
6.16654473305089
 30
0.0
 10
2.544516573051161
 20
6.169456737346774
 30
0.0
 10
2.549154911534879
 20
6.16976595616682
 30
0.0
 10
2.551475113993623
 20
6.169920634457134
 30
0.0
  0
LINE
  5
14B
330
1F
100
AcDbEntity
  8
0
  6
Continuous
 62
     7
370
    18
100
AcDbLine
 10
2.5248902911
 20
6.0742063585
 30
0.0
 11
2.5248902911
 21
6.1372643767
 31
0.0
  0
LINE
  5
14C
330
1F
100
AcDbEntity
  8
0
  6
Continuous
 62
     7
370
    18
100
AcDbLine
 10
2.6348902854
 20
6.0742063585
 30
0.0
 11
2.5248902911
 21
6.0742063585
 31
0.0
  0
LINE
  5
14D
330
1F
100
AcDbEntity
  8
0
  6
Continuous
 62
     7
370
    18
100
AcDbLine
 10
2.6348902854
 20
6.1327331257
 30
0.0
 11
2.6348902854
 21
6.0742063585
 31
0.0
  0
LINE
  5
14E
330
1F
100
AcDbEntity
  8
0
  6
Continuous
 62
     7
370
    18
100
AcDbLine
 10
2.6077474206
 20
5.9384920529
 30
0.0
 11
2.6348902854
 21
5.9384920529
 31
0.0
  0
LINE
  5
14F
330
1F
100
AcDbEntity
  8
0
  6
Continuous
 62
     7
370
    18
100
AcDbLine
 10
2.6077474206
 20
5.8856349136
 30
0.0
 11
2.6077474206
 21
5.9384920529
 31
0.0
  0
LINE
  5
150
330
1F
100
AcDbEntity
  8
0
  6
Continuous
 62
     7
370
    18
100
AcDbLine
 10
2.5248902911
 20
5.8856349136
 30
0.0
 11
2.6077474206
 21
5.8856349136
 31
0.0
  0
LINE
  5
151
330
1F
100
AcDbEntity
  8
0
  6
Continuous
 62
     7
370
    18
100
AcDbLine
 10
2.5248902911
 20
5.8513491896
 30
0.0
 11
2.5248902911
 21
5.8856349136
 31
0.0
  0
LINE
  5
152
330
1F
100
AcDbEntity
  8
0
  6
Continuous
 62
     7
370
    18
100
AcDbLine
 10
2.6348902854
 20
5.8513491896
 30
0.0
 11
2.5248902911
 21
5.8513491896
 31
0.0
  0
LINE
  5
153
330
1F
100
AcDbEntity
  8
0
  6
Continuous
 62
     7
370
    18
100
AcDbLine
 10
2.6348902854
 20
5.9384920529
 30
0.0
 11
2.6348902854
 21
5.8513491896
 31
0.0
  0
SPLINE
  5
154
330
1F
100
AcDbEntity
  8
0
  6
Continuous
 62
     7
370
    18
100
AcDbSpline
210
0.0
220
0.0
230
1.0
 70
     8
 71
     3
 72
    15
 73
    11
 74
     0
 42
0.000000001
 43
0.00000001
 40
0.0
 40
0.0
 40
0.0
 40
0.0
 40
0.1401010265022293
 40
0.2801141272983553
 40
0.419982387823963
 40
0.5597875545816778
 40
0.6697649749366894
 40
0.7798010209796847
 40
0.8898981732753832
 40
0.9999999999999999
 40
0.9999999999999999
 40
0.9999999999999999
 40
0.9999999999999999
 10
2.523461700940295
 20
5.65545633925924
 30
0.0
 10
2.523611049984891
 20
5.659697400270353
 30
0.0
 10
2.523909654344431
 20
5.668176860654093
 30
0.0
 10
2.526897438901479
 20
5.680626203524039
 30
0.0
 10
2.532576160620029
 20
5.692126932946759
 30
0.0
 10
2.540664967610965
 20
5.700927194550241
 30
0.0
 10
2.549847353753494
 20
5.706917948065518
 30
0.0
 10
2.559226676976505
 20
5.710502518806735
 30
0.0
 10
2.5690682352415
 20
5.712476841204658
 30
0.0
 10
2.575732303667146
 20
5.7126774637
 30
0.0
 10
2.579064408613071
 20
5.712777777077099
 30
0.0
  0
SPLINE
  5
155
330
1F
100
AcDbEntity
  8
0
  6
Continuous
 62
     7
370
    18
100
AcDbSpline
210
0.0
220
0.0
230
1.0
 70
     8
 71
     3
 72
    15
 73
    11
 74
     0
 42
0.000000001
 43
0.00000001
 40
0.0
 40
0.0
 40
0.0
 40
0.0
 40
0.140090536268067
 40
0.2800792050568033
 40
0.4199477748177436
 40
0.5597704443658155
 40
0.6697571472095237
 40
0.7797952911653993
 40
0.8898967717982286
 40
1.0
 40
1.0
 40
1.0
 40
1.0
 10
2.57995726829868
 20
5.598492030649127
 30
0.0
 10
2.575703285773952
 20
5.598656942428269
 30
0.0
 10
2.567198414027501
 20
5.598986646070192
 30
0.0
 10
2.554752219195628
 20
5.602230281323057
 30
0.0
 10
2.543430628058605
 20
5.608353083801129
 30
0.0
 10
2.534871317890449
 20
5.616735159120584
 30
0.0
 10
2.529097303833865
 20
5.626089191477843
 30
0.0
 10
2.525654913142518
 20
5.635548180528229
 30
0.0
 10
2.52374868168614
 20
5.645430008244755
 30
0.0
 10
2.523557361695023
 20
5.652114211238887
 30
0.0
 10
2.523461700940295
 20
5.65545633925924
 30
0.0
  0
SPLINE
  5
156
330
1F
100
AcDbEntity
  8
0
  6
Continuous
 62
     7
370
    18
100
AcDbSpline
210
0.0
220
0.0
230
1.0
 70
     8
 71
     3
 72
    14
 73
    10
 74
     0
 42
0.000000001
 43
0.00000001
 40
0.0
 40
0.0
 40
0.0
 40
0.0
 40
0.1401910867409647
 40
0.2802819271862672
 40
0.4201311324958855
 40
0.5599915714161382
 40
0.7065519886920681
 40
0.8531968227892912
 40
1.0
 40
1.0
 40
1.0
 40
1.0
 10
2.636318857204795
 20
5.656795610454531
 30
0.0
 10
2.636183319840505
 20
5.652481277528866
 30
0.0
 10
2.635912342030486
 20
5.643855696723123
 30
0.0
 10
2.633135519090628
 20
5.631139171360775
 30
0.0
 10
2.627400624330634
 20
5.619375584289883
 30
0.0
 10
2.618191664379108
 20
5.609789718568003
 30
0.0
 10
2.606693022019054
 20
5.602787290225547
 30
0.0
 10
2.593513287612256
 20
5.599034104421013
 30
0.0
 10
2.58447756661351
 20
5.598672786894814
 30
0.0
 10
2.57995726829868
 20
5.598492030649127
 30
0.0
  0
SPLINE
  5
157
330
1F
100
AcDbEntity
  8
0
  6
Continuous
 62
     7
370
    18
100
AcDbSpline
210
0.0
220
0.0
230
1.0
 70
     8
 71
     3
 72
    14
 73
    10
 74
     0
 42
0.000000001
 43
0.00000001
 40
0.0
 40
0.0
 40
0.0
 40
0.0
 40
0.1401967921917851
 40
0.2802695496285799
 40
0.420150522684481
 40
0.56000018198965
 40
0.7065201955756535
 40
0.8531713298554652
 40
1.0
 40
1.0
 40
1.0
 40
1.0
 10
2.579064408613071
 20
5.712777777077099
 30
0.0
 10
2.58332422747266
 20
5.712639289878214
 30
0.0
 10
2.591840096449484
 20
5.712362438002688
 30
0.0
 10
2.604384615696905
 20
5.709498286593357
 30
0.0
 10
2.615887334322138
 20
5.703660811978847
 30
0.0
 10
2.625446048154602
 20
5.694674225988112
 30
0.0
 10
2.632216840492372
 20
5.68321118895877
 30
0.0
 10
2.635807745068341
 20
5.67018205131127
 30
0.0
 10
2.636148417797824
 20
5.661259556579775
 30
0.0
 10
2.636318857204795
 20
5.656795610454531
 30
0.0
  0
LINE
  5
158
330
1F
100
AcDbEntity
  8
0
  6
Continuous
 62
     7
370
    18
100
AcDbLine
 10
2.6348902854
 20
5.3899206534
 30
0.0
 11
2.5506045841
 21
5.3899206534
 31
0.0
  0
LINE
  5
159
330
1F
100
AcDbEntity
  8
0
  6
Continuous
 62
     7
370
    18
100
AcDbLine
 10
2.6348902854
 20
5.4242063773
 30
0.0
 11
2.6348902854
 21
5.3899206534
 31
0.0
  0
LINE
  5
15A
330
1F
100
AcDbEntity
  8
0
  6
Continuous
 62
     7
370
    18
100
AcDbLine
 10
2.5506045841
 20
5.4242063773
 30
0.0
 11
2.6348902854
 21
5.4242063773
 31
0.0
  0
LINE
  5
15B
330
1F
100
AcDbEntity
  8
0
  6
Continuous
 62
     7
370
    18
100
AcDbLine
 10
2.5506045841
 20
5.4584920279
 30
0.0
 11
2.5506045841
 21
5.4242063773
 31
0.0
  0
LINE
  5
15C
330
1F
100
AcDbEntity
  8
0
  6
Continuous
 62
     7
370
    18
100
AcDbLine
 10
2.5248902911
 20
5.4584920279
 30
0.0
 11
2.5506045841
 21
5.4584920279
 31
0.0
  0
LINE
  5
15D
330
1F
100
AcDbEntity
  8
0
  6
Continuous
 62
     7
370
    18
100
AcDbLine
 10
2.5248902911
 20
5.3556349295
 30
0.0
 11
2.5248902911
 21
5.4584920279
 31
0.0
  0
LINE
  5
15E
330
1F
100
AcDbEntity
  8
0
  6
Continuous
 62
     7
370
    18
100
AcDbLine
 10
2.5506045841
 20
5.3556349295
 30
0.0
 11
2.5248902911
 21
5.3556349295
 31
0.0
  0
LINE
  5
15F
330
1F
100
AcDbEntity
  8
0
  6
Continuous
 62
     7
370
    18
100
AcDbLine
 10
2.5506045841
 20
5.3899206534
 30
0.0
 11
2.5506045841
 21
5.3556349295
 31
0.0
  0
CIRCLE
  5
160
330
1F
100
AcDbEntity
  8
0
  6
Continuous
 62
     7
370
    18
100
AcDbCircle
 10
3.284890286
 20
5.8677777778
 30
0.0
 40
0.5
  0
CIRCLE
  5
161
330
1F
100
AcDbEntity
  8
0
  6
Continuous
 62
     7
370
    18
100
AcDbCircle
 10
2.534890286
 20
6.9487777778
 30
0.0
 40
0.1274999999999986
  0
CIRCLE
  5
162
330
1F
100
AcDbEntity
  8
0
  6
Continuous
 62
     7
370
    18
100
AcDbCircle
 10
4.034890286
 20
6.9487777778
 30
0.0
 40
0.1274999999999986
  0
LINE
  5
163
330
1F
100
AcDbEntity
  8
0
  6
Continuous
 62
     7
370
    18
100
AcDbLine
 10
4.234890277
 20
5.1177777106
 30
0.0
 11
4.234890277
 21
7.1177777597
 31
0.0
  0
LINE
  5
164
330
1F
100
AcDbEntity
  8
0
  6
Continuous
 62
     7
370
    18
100
AcDbLine
 10
4.234890277
 20
5.1177777106
 30
0.0
 11
2.3348902927
 21
5.1177777106
 31
0.0
  0
LINE
  5
165
330
1F
100
AcDbEntity
  8
0
  6
Continuous
 62
     7
370
    18
100
AcDbLine
 10
2.3348902927
 20
5.1177777106
 30
0.0
 11
2.3348902927
 21
7.1177777597
 31
0.0
  0
LINE
  5
166
330
1F
100
AcDbEntity
  8
0
  6
Continuous
 62
     7
370
    18
100
AcDbLine
 10
4.234890277
 20
7.1177777597
 30
0.0
 11
2.3348902927
 21
7.1177777597
 31
0.0
  0
LINE
  5
167
330
1F
100
AcDbEntity
  8
0
  6
Continuous
 62
     7
370
    18
100
AcDbLine
 10
2.5906045586
 20
5.508492097
 30
0.0
 11
2.6348902854
 21
5.508492097
 31
0.0
  0
LINE
  5
168
330
1F
100
AcDbEntity
  8
0
  6
Continuous
 62
     7
370
    18
100
AcDbLine
 10
2.5906045586
 20
5.5456349279
 30
0.0
 11
2.5906045586
 21
5.508492097
 31
0.0
  0
LINE
  5
169
330
1F
100
AcDbEntity
  8
0
  6
Continuous
 62
     7
370
    18
100
AcDbLine
 10
2.6348902854
 20
5.5456349279
 30
0.0
 11
2.5906045586
 21
5.5456349279
 31
0.0
  0
LINE
  5
16A
330
1F
100
AcDbEntity
  8
0
  6
Continuous
 62
     7
370
    18
100
AcDbLine
 10
2.6348902854
 20
5.5799206519
 30
0.0
 11
2.6348902854
 21
5.5456349279
 31
0.0
  0
LINE
  5
16B
330
1F
100
AcDbEntity
  8
0
  6
Continuous
 62
     7
370
    18
100
AcDbLine
 10
2.5248902911
 20
5.5799206519
 30
0.0
 11
2.6348902854
 21
5.5799206519
 31
0.0
  0
LINE
  5
16C
330
1F
100
AcDbEntity
  8
0
  6
Continuous
 62
     7
370
    18
100
AcDbLine
 10
2.5248902911
 20
5.5456349279
 30
0.0
 11
2.5248902911
 21
5.5799206519
 31
0.0
  0
LINE
  5
16D
330
1F
100
AcDbEntity
  8
0
  6
Continuous
 62
     7
370
    18
100
AcDbLine
 10
2.5634617122
 20
5.5456349279
 30
0.0
 11
2.5248902911
 21
5.5456349279
 31
0.0
  0
LINE
  5
16E
330
1F
100
AcDbEntity
  8
0
  6
Continuous
 62
     7
370
    18
100
AcDbLine
 10
2.5634617122
 20
5.508492097
 30
0.0
 11
2.5634617122
 21
5.5456349279
 31
0.0
  0
LINE
  5
16F
330
1F
100
AcDbEntity
  8
0
  6
Continuous
 62
     7
370
    18
100
AcDbLine
 10
2.5248902911
 20
5.508492097
 30
0.0
 11
2.5634617122
 21
5.508492097
 31
0.0
  0
LINE
  5
170
330
1F
100
AcDbEntity
  8
0
  6
Continuous
 62
     7
370
    18
100
AcDbLine
 10
2.5248902911
 20
5.4742063731
 30
0.0
 11
2.5248902911
 21
5.508492097
 31
0.0
  0
LINE
  5
171
330
1F
100
AcDbEntity
  8
0
  6
Continuous
 62
     7
370
    18
100
AcDbLine
 10
2.6348902854
 20
5.4742063731
 30
0.0
 11
2.5248902911
 21
5.4742063731
 31
0.0
  0
LINE
  5
172
330
1F
100
AcDbEntity
  8
0
  6
Continuous
 62
     7
370
    18
100
AcDbLine
 10
2.6348902854
 20
5.508492097
 30
0.0
 11
2.6348902854
 21
5.4742063731
 31
0.0
  0
LINE
  5
173
330
1F
100
AcDbEntity
  8
0
  6
Continuous
 62
     7
370
    18
100
AcDbLine
 10
2.5906045586
 20
5.7686483317
 30
0.0
 11
2.5906045586
 21
5.7656349531
 31
0.0
  0
SPLINE
  5
174
330
1F
100
AcDbEntity
  8
0
  6
Continuous
 62
     7
370
    18
100
AcDbSpline
210
0.0
220
0.0
230
1.0
 70
     8
 71
     3
 72
     9
 73
     5
 74
     0
 42
0.000000001
 43
0.00000001
 40
0.0
 40
0.0
 40
0.0
 40
0.0
 40
0.5595423255141508
 40
0.9999999999999999
 40
0.9999999999999999
 40
0.9999999999999999
 40
0.9999999999999999
 10
2.593126902828605
 20
5.776996501883577
 30
0.0
 10
2.592305188473196
 20
5.775538509612463
 30
0.0
 10
2.590836641201719
 20
5.772932822420214
 30
0.0
 10
2.590675523959455
 20
5.769958426962146
 30
0.0
 10
2.590604558633607
 20
5.768648331655685
 30
0.0
  0
SPLINE
  5
175
330
1F
100
AcDbEntity
  8
0
  6
Continuous
 62
     7
370
    18
100
AcDbSpline
210
0.0
220
0.0
230
1.0
 70
     8
 71
     3
 72
     9
 73
     5
 74
     0
 42
0.000000001
 43
0.00000001
 40
0.0
 40
0.0
 40
0.0
 40
0.0
 40
0.5607007228919365
 40
1.0
 40
1.0
 40
1.0
 40
1.0
 10
2.601542080615753
 20
5.783157237380901
 30
0.0
 10
2.599805793272892
 20
5.782223674133943
 30
0.0
 10
2.596709154955918
 20
5.78055868029883
 30
0.0
 10
2.594220268742823
 20
5.778083740950281
 30
0.0
 10
2.593126902828605
 20
5.776996501883577
 30
0.0
  0
LINE
  5
176
330
1F
100
AcDbEntity
  8
0
  6
Continuous
 62
     7
370
    18
100
AcDbLine
 10
2.6348902854
 20
5.8012375818
 30
0.0
 11
2.6015420806
 21
5.7831572374
 31
0.0
  0
LINE
  5
177
330
1F
100
AcDbEntity
  8
0
  6
Continuous
 62
     7
370
    18
100
AcDbLine
 10
2.6348902854
 20
5.839920615
 30
0.0
 11
2.6348902854
 21
5.8012375818
 31
0.0
  0
LINE
  5
178
330
1F
100
AcDbEntity
  8
0
  6
Continuous
 62
     7
370
    18
100
AcDbLine
 10
2.603528676
 20
5.8229340245
 30
0.0
 11
2.6348902854
 21
5.839920615
 31
0.0
  0
SPLINE
  5
179
330
1F
100
AcDbEntity
  8
0
  6
Continuous
 62
     7
370
    18
100
AcDbSpline
210
0.0
220
0.0
230
1.0
 70
     8
 71
     3
 72
    10
 73
     6
 74
     0
 42
0.000000001
 43
0.00000001
 40
0.0
 40
0.0
 40
0.0
 40
0.0
 40
0.2798343753333433
 40
0.5600939283206212
 40
1.0
 40
1.0
 40
1.0
 40
1.0
 10
2.590716170677588
 20
5.812822428019421
 30
0.0
 10
2.591772609598625
 20
5.813928057686319
 30
0.0
 10
2.593887092583818
 20
5.81614099690318
 30
0.0
 10
2.598175055531251
 20
5.819545560934381
 30
0.0
 10
2.60149855134714
 20
5.821649099033666
 30
0.0
 10
2.603528675999767
 20
5.822934024542728
 30
0.0
  0
SPLINE
  5
17A
330
1F
100
AcDbEntity
  8
0
  6
Continuous
 62
     7
370
    18
100
AcDbSpline
210
0.0
220
0.0
230
1.0
 70
     8
 71
     3
 72
     9
 73
     5
 74
     0
 42
0.000000001
 43
0.00000001
 40
0.0
 40
0.0
 40
0.0
 40
0.0
 40
0.5601678523538908
 40
1.0
 40
1.0
 40
1.0
 40
1.0
 10
2.586586708381489
 20
5.804050102691405
 30
0.0
 10
2.587182252232501
 20
5.805772654898688
 30
0.0
 10
2.588245404729578
 20
5.808847719274562
 30
0.0
 10
2.589961414440884
 20
5.811608255460225
 30
0.0
 10
2.590716170677588
 20
5.812822428019421
 30
0.0
  0
SPLINE
  5
17B
330
1F
100
AcDbEntity
  8
0
  6
Continuous
 62
     7
370
    18
100
AcDbSpline
210
0.0
220
0.0
230
1.0
 70
     8
 71
     3
 72
     9
 73
     5
 74
     0
 42
0.000000001
 43
0.00000001
 40
0.0
 40
0.0
 40
0.0
 40
0.0
 40
0.5596454666628501
 40
1.0
 40
1.0
 40
1.0
 40
1.0
 10
2.582211728921625
 20
5.816304547793676
 30
0.0
 10
2.583266031998268
 20
5.814101221731159
 30
0.0
 10
2.585149908737107
 20
5.81016421840715
 30
0.0
 10
2.586147440671868
 20
5.805919349818041
 30
0.0
 10
2.586586708381489
 20
5.804050102691405
 30
0.0
  0
SPLINE
  5
17C
330
1F
100
AcDbEntity
  8
0
  6
Continuous
 62
     7
370
    18
100
AcDbSpline
210
0.0
220
0.0
230
1.0
 70
     8
 71
     3
 72
    11
 73
     7
 74
     0
 42
0.000000001
 43
0.00000001
 40
0.0
 40
0.0
 40
0.0
 40
0.0
 40
0.2800121059654481
 40
0.5596304604893418
 40
0.7798000425453425
 40
0.9999999999999999
 40
0.9999999999999999
 40
0.9999999999999999
 40
0.9999999999999999
 10
2.555559916805633
 20
5.831349220662998
 30
0.0
 10
2.558568412868144
 20
5.831166444195278
 30
0.0
 10
2.564581174463
 20
5.830801148279073
 30
0.0
 10
2.572323050836753
 20
5.827222920837619
 30
0.0
 10
2.578255857795248
 20
5.822187858813687
 30
0.0
 10
2.580893044577698
 20
5.818265741645724
 30
0.0
 10
2.582211728921625
 20
5.816304547793676
 30
0.0
  0
SPLINE
  5
17D
330
1F
100
AcDbEntity
  8
0
  6
Continuous
 62
     7
370
    18
100
AcDbSpline
210
0.0
220
0.0
230
1.0
 70
     8
 71
     3
 72
    15
 73
    11
 74
     0
 42
0.000000001
 43
0.00000001
 40
0.0
 40
0.0
 40
0.0
 40
0.0
 40
0.125203633484007
 40
0.2503848857481977
 40
0.3755314350356143
 40
0.500394632852889
 40
0.6251831001845309
 40
0.7500458543497034
 40
0.8749745290644796
 40
1.0
 40
1.0
 40
1.0
 40
1.0
 10
2.524890291103766
 20
5.788425076526374
 30
0.0
 10
2.524923577530405
 20
5.790949316863848
 30
0.0
 10
2.524990144433448
 20
5.795997346309257
 30
0.0
 10
2.525588904038138
 20
5.80355017996971
 30
0.0
 10
2.526844246202378
 20
5.811027464752295
 30
0.0
 10
2.529609719556067
 20
5.818163496331764
 30
0.0
 10
2.534470339499653
 20
5.824096620053459
 30
0.0
 10
2.54072565626276
 20
5.828475933898355
 30
0.0
 10
2.547982707755662
 20
5.830981184380197
 30
0.0
 10
2.553033528468915
 20
5.831226510234102
 30
0.0
 10
2.555559916805633
 20
5.831349220662998
 30
0.0
  0
LINE
  5
17E
330
1F
100
AcDbEntity
  8
0
  6
Continuous
 62
     7
370
    18
100
AcDbLine
 10
2.5248902911
 20
5.7313492292
 30
0.0
 11
2.5248902911
 21
5.7884250765
 31
0.0
  0
LINE
  5
17F
330
1F
100
AcDbEntity
  8
0
  6
Continuous
 62
     7
370
    18
100
AcDbLine
 10
2.6348902854
 20
5.7313492292
 30
0.0
 11
2.5248902911
 21
5.7313492292
 31
0.0
  0
LINE
  5
180
330
1F
100
AcDbEntity
  8
0
  6
Continuous
 62
     7
370
    18
100
AcDbLine
 10
2.6348902854
 20
5.7656349531
 30
0.0
 11
2.6348902854
 21
5.7313492292
 31
0.0
  0
LINE
  5
181
330
1F
100
AcDbEntity
  8
0
  6
Continuous
 62
     7
370
    18
100
AcDbLine
 10
2.5906045586
 20
5.7656349531
 30
0.0
 11
2.6348902854
 21
5.7656349531
 31
0.0
  0
LINE
  5
182
330
1F
100
AcDbEntity
  8
0
  6
Continuous
 62
     7
370
    18
100
AcDbLine
 10
2.5248902911
 20
6.0217733009
 30
0.0
 11
2.6348902854
 21
6.0627777838
 31
0.0
  0
LINE
  5
183
330
1F
100
AcDbEntity
  8
0
  6
Continuous
 62
     7
370
    18
100
AcDbLine
 10
2.5248902911
 20
5.9830902677
 30
0.0
 11
2.5248902911
 21
6.0217733009
 31
0.0
  0
LINE
  5
184
330
1F
100
AcDbEntity
  8
0
  6
Continuous
 62
     7
370
    18
100
AcDbLine
 10
2.6348902854
 20
5.9427777868
 30
0.0
 11
2.5248902911
 21
5.9830902677
 31
0.0
  0
LINE
  5
185
330
1F
100
AcDbEntity
  8
0
  6
Continuous
 62
     7
370
    18
100
AcDbLine
 10
2.6348902854
 20
5.9775992045
 30
0.0
 11
2.6348902854
 21
5.9427777868
 31
0.0
  0
LINE
  5
186
330
1F
100
AcDbEntity
  8
0
  6
Continuous
 62
     7
370
    18
100
AcDbLine
 10
2.6163188516
 20
5.983157257
 30
0.0
 11
2.6348902854
 21
5.9775992045
 31
0.0
  0
LINE
  5
187
330
1F
100
AcDbEntity
  8
0
  6
Continuous
 62
     7
370
    18
100
AcDbLine
 10
2.6163188516
 20
6.0214608311
 30
0.0
 11
2.6163188516
 21
5.983157257
 31
0.0
  0
LINE
  5
188
330
1F
100
AcDbEntity
  8
0
  6
Continuous
 62
     7
370
    18
100
AcDbLine
 10
2.6348902854
 20
6.0270188469
 30
0.0
 11
2.6163188516
 21
6.0214608311
 31
0.0
  0
LINE
  5
189
330
1F
100
AcDbEntity
  8
0
  6
Continuous
 62
     7
370
    18
100
AcDbLine
 10
2.6348902854
 20
6.0627777838
 30
0.0
 11
2.6348902854
 21
6.0270188469
 31
0.0
  0
SPLINE
  5
18A
330
1F
100
AcDbEntity
  8
0
  6
Continuous
 62
     7
370
    18
100
AcDbSpline
210
0.0
220
0.0
230
1.0
 70
     8
 71
     3
 72
    14
 73
    10
 74
     0
 42
0.000000001
 43
0.00000001
 40
0.0
 40
0.0
 40
0.0
 40
0.0
 40
0.1669123467838808
 40
0.3338046281580387
 40
0.5005336741208137
 40
0.6255034532047355
 40
0.7502315370049093
 40
0.8750954719631133
 40
1.0
 40
1.0
 40
1.0
 40
1.0
 10
2.560827792617349
 20
6.238112605031004
 30
0.0
 10
2.561663667858356
 20
6.241868562633194
 30
0.0
 10
2.563335317855419
 20
6.249380026314187
 30
0.0
 10
2.566461021076077
 20
6.260488369079565
 30
0.0
 10
2.570268376993893
 20
6.270398521210375
 30
0.0
 10
2.575557959623296
 20
6.278514878839989
 30
0.0
 10
2.582120670705118
 20
6.284293261944323
 30
0.0
 10
2.590173973839202
 20
6.287894648020154
 30
0.0
 10
2.595951792815149
 20
6.28829290090493
 30
0.0
 10
2.598841171816882
 20
6.288492059709911
 30
0.0
  0
SPLINE
  5
18B
330
1F
100
AcDbEntity
  8
0
  6
Continuous
 62
     7
370
    18
100
AcDbSpline
210
0.0
220
0.0
230
1.0
 70
     8
 71
     3
 72
    10
 73
     6
 74
     0
 42
0.000000001
 43
0.00000001
 40
0.0
 40
0.0
 40
0.0
 40
0.0
 40
0.2792358742019672
 40
0.5595026361451004
 40
1.0
 40
1.0
 40
1.0
 40
1.0
 10
2.556787612623186
 20
6.22670634179713
 30
0.0
 10
2.557395297540706
 20
6.227670115154328
 30
0.0
 10
2.55861291083724
 20
6.229601219943566
 30
0.0
 10
2.559767720885869
 20
6.233525589852962
 30
0.0
 10
2.560425679219656
 20
6.236372628193838
 30
0.0
 10
2.560827792617349
 20
6.238112605031004
 30
0.0
  0
SPLINE
  5
18C
330
1F
100
AcDbEntity
  8
0
  6
Continuous
 62
     7
370
    18
100
AcDbSpline
210
0.0
220
0.0
230
1.0
 70
     8
 71
     3
 72
     9
 73
     5
 74
     0
 42
0.000000001
 43
0.00000001
 40
0.0
 40
0.0
 40
0.0
 40
0.0
 40
0.5581031594741593
 40
1.0
 40
1.0
 40
1.0
 40
1.0
 10
2.552077797031377
 20
6.224206345677299
 30
0.0
 10
2.553112311305358
 20
6.224391114888562
 30
0.0
 10
2.55496593685185
 20
6.224722181301869
 30
0.0
 10
2.556229325271976
 20
6.226098257897291
 30
0.0
 10
2.556787612623186
 20
6.22670634179713
 30
0.0
  0
SPLINE
  5
18D
330
1F
100
AcDbEntity
  8
0
  6
Continuous
 62
     7
370
    18
100
AcDbSpline
210
0.0
220
0.0
230
1.0
 70
     8
 71
     3
 72
    11
 73
     7
 74
     0
 42
0.000000001
 43
0.00000001
 40
0.0
 40
0.0
 40
0.0
 40
0.0
 40
0.2807954041336141
 40
0.5600522853379195
 40
0.7799901804949279
 40
0.9999999999999999
 40
0.9999999999999999
 40
0.9999999999999999
 40
0.9999999999999999
 10
2.54346170656519
 20
6.234942954980405
 30
0.0
 10
2.543523773447874
 20
6.233489245243992
 30
0.0
 10
2.543647567138864
 20
6.230589790879313
 30
0.0
 10
2.545597637040167
 20
6.226922585635194
 30
0.0
 10
2.548653145025361
 20
6.224576976645025
 30
0.0
 10
2.55093612195275
 20
6.224329902797403
 30
0.0
 10
2.552077797031377
 20
6.224206345677299
 30
0.0
  0
SPLINE
  5
18E
330
1F
100
AcDbEntity
  8
0
  6
Continuous
 62
     7
370
    18
100
AcDbSpline
210
0.0
220
0.0
230
1.0
 70
     8
 71
     3
 72
    12
 73
     8
 74
     0
 42
0.000000001
 43
0.00000001
 40
0.0
 40
0.0
 40
0.0
 40
0.0
 40
0.1870482874278353
 40
0.3740432679144173
 40
0.5604600018556297
 40
0.7798265448615843
 40
1.0
 40
1.0
 40
1.0
 40
1.0
 10
2.557747424868686
 20
6.249920638623593
 30
0.0
 10
2.556336296222429
 20
6.249653575324697
 30
0.0
 10
2.553514441087843
 20
6.249119524837345
 30
0.0
 10
2.549496761180395
 20
6.24746400477233
 30
0.0
 10
2.545927187979739
 20
6.244501418227382
 30
0.0
 10
2.543743152655741
 20
6.24002454197874
 30
0.0
 10
2.54355563667664
 20
6.236638889118844
 30
0.0
 10
2.54346170656519
 20
6.234942954980405
 30
0.0
  0
LINE
  5
18F
330
1F
100
AcDbEntity
  8
0
  6
Continuous
 62
     7
370
    18
100
AcDbLine
 10
2.5558500935
 20
6.2842063442
 30
0.0
 11
2.5577474249
 21
6.2499206386
 31
0.0
  0
SPLINE
  5
190
330
1F
100
AcDbEntity
  8
0
  6
Continuous
 62
     7
370
    18
100
AcDbSpline
210
0.0
220
0.0
230
1.0
 70
     8
 71
     3
 72
    14
 73
    10
 74
     0
 42
0.000000001
 43
0.00000001
 40
0.0
 40
0.0
 40
0.0
 40
0.0
 40
0.1401932467506885
 40
0.280370562858331
 40
0.420467207164324
 40
0.5603821104890357
 40
0.7067310787071744
 40
0.8532805600297929
 40
1.0
 40
1.0
 40
1.0
 40
1.0
 10
2.523461700940295
 20
6.239206340729409
 30
0.0
 10
2.523526048866066
 20
6.242105004977249
 30
0.0
 10
2.52365473740553
 20
6.247902004087693
 30
0.0
 10
2.524928030473891
 20
6.256526244200984
 30
0.0
 10
2.527405191387884
 20
6.264889290913031
 30
0.0
 10
2.531748877730975
 20
6.272690728201108
 30
0.0
 10
2.538486637763136
 20
6.278816324235021
 30
0.0
 10
2.546854276748024
 20
6.282700658225508
 30
0.0
 10
2.552850329584027
 20
6.283704255015681
 30
0.0
 10
2.555850093453488
 20
6.284206344218862
 30
0.0
  0
SPLINE
  5
191
330
1F
100
AcDbEntity
  8
0
  6
Continuous
 62
     7
370
    18
100
AcDbSpline
210
0.0
220
0.0
230
1.0
 70
     8
 71
     3
 72
    14
 73
    10
 74
     0
 42
0.000000001
 43
0.00000001
 40
0.0
 40
0.0
 40
0.0
 40
0.0
 40
0.1249334727912294
 40
0.249906458547682
 40
0.3747473123750318
 40
0.4996952338243377
 40
0.6662609892673856
 40
0.8330769901754966
 40
1.0
 40
1.0
 40
1.0
 40
1.0
 10
2.555336729383913
 20
6.192777783742729
 30
0.0
 10
2.552697352776259
 20
6.192996072965484
 30
0.0
 10
2.547417764799906
 20
6.193432720449776
 30
0.0
 10
2.540152947847349
 20
6.196869027474979
 30
0.0
 10
2.533963009274693
 20
6.201877022355927
 30
0.0
 10
2.528863190753943
 20
6.209122746423326
 30
0.0
 10
2.5253406911697
 20
6.218208240602947
 30
0.0
 10
2.523699623331426
 20
6.228666054356917
 30
0.0
 10
2.523541025354774
 20
6.235692160996442
 30
0.0
 10
2.523461700940295
 20
6.239206340729409
 30
0.0
  0
SPLINE
  5
192
330
1F
100
AcDbEntity
  8
0
  6
Continuous
 62
     7
370
    18
100
AcDbSpline
210
0.0
220
0.0
230
1.0
 70
     8
 71
     3
 72
    11
 73
     7
 74
     0
 42
0.000000001
 43
0.00000001
 40
0.0
 40
0.0
 40
0.0
 40
0.0
 40
0.2799936838191671
 40
0.5597513321390899
 40
0.7798346918013207
 40
1.0
 40
1.0
 40
1.0
 40
1.0
 10
2.5763634998142
 20
6.202398309272263
 30
0.0
 10
2.574811576103819
 20
6.200784569112156
 30
0.0
 10
2.57170903695931
 20
6.197558449179643
 30
0.0
 10
2.56614618092815
 20
6.194602177820165
 30
0.0
 10
2.560601057248578
 20
6.193012210530735
 30
0.0
 10
2.557091723083014
 20
6.192855935701806
 30
0.0
 10
2.555336729383913
 20
6.192777783742729
 30
0.0
  0
SPLINE
  5
193
330
1F
100
AcDbEntity
  8
0
  6
Continuous
 62
     7
370
    18
100
AcDbSpline
210
0.0
220
0.0
230
1.0
 70
     8
 71
     3
 72
    11
 73
     7
 74
     0
 42
0.000000001
 43
0.00000001
 40
0.0
 40
0.0
 40
0.0
 40
0.0
 40
0.2801029229473568
 40
0.5601560680943493
 40
0.7801746162451685
 40
1.0
 40
1.0
 40
1.0
 40
1.0
 10
2.58960012357026
 20
6.234295630791683
 30
0.0
 10
2.588842850969359
 20
6.231131166760369
 30
0.0
 10
2.587328440344391
 20
6.224802801062662
 30
0.0
 10
2.584381705295107
 20
6.216231444693716
 30
0.0
 10
2.580933953759962
 20
6.208569766738943
 30
0.0
 10
2.577886538355951
 20
6.20445485938568
 30
0.0
 10
2.5763634998142
 20
6.202398309272263
 30
0.0
  0
SPLINE
  5
194
330
1F
100
AcDbEntity
  8
0
  6
Continuous
 62
     7
370
    18
100
AcDbSpline
210
0.0
220
0.0
230
1.0
 70
     8
 71
     3
 72
    10
 73
     6
 74
     0
 42
0.000000001
 43
0.00000001
 40
0.0
 40
0.0
 40
0.0
 40
0.0
 40
0.2789770749960421
 40
0.5593536582279289
 40
1.0
 40
1.0
 40
1.0
 40
1.0
 10
2.595961716747259
 20
6.251081345215011
 30
0.0
 10
2.594987298221492
 20
6.249695630229371
 30
0.0
 10
2.593033572930477
 20
6.246917248720816
 30
0.0
 10
2.591246803116797
 20
6.24109367316685
 30
0.0
 10
2.590224744827794
 20
6.236874275668931
 30
0.0
 10
2.58960012357026
 20
6.234295630791683
 30
0.0
  0
SPLINE
  5
195
330
1F
100
AcDbEntity
  8
0
  6
Continuous
 62
     7
370
    18
100
AcDbSpline
210
0.0
220
0.0
230
1.0
 70
     8
 71
     3
 72
     9
 73
     5
 74
     0
 42
0.000000001
 43
0.00000001
 40
0.0
 40
0.0
 40
0.0
 40
0.0
 40
0.5590599571240982
 40
1.0
 40
1.0
 40
1.0
 40
1.0
 10
2.60359564689278
 20
6.254206354114642
 30
0.0
 10
2.602000617565969
 20
6.254019044865088
 30
0.0
 10
2.599147561634337
 20
6.253684001642681
 30
0.0
 10
2.596936612675823
 20
6.251877780460519
 30
0.0
 10
2.595961716747259
 20
6.251081345215011
 30
0.0
  0
SPLINE
  5
196
330
1F
100
AcDbEntity
  8
0
  6
Continuous
 62
     7
370
    18
100
AcDbSpline
210
0.0
220
0.0
230
1.0
 70
     8
 71
     3
 72
    11
 73
     7
 74
     0
 42
0.000000001
 43
0.00000001
 40
0.0
 40
0.0
 40
0.0
 40
0.0
 40
0.28071579114586
 40
0.5599869965043092
 40
0.7802623579434219
 40
1.0
 40
1.0
 40
1.0
 40
1.0
 10
2.614890279749551
 20
6.24036706565395
 30
0.0
 10
2.61478965498219
 20
6.242244779604373
 30
0.0
 10
2.614588923270523
 20
6.245990544639888
 30
0.0
 10
2.611920285000829
 20
6.250634497518638
 30
0.0
 10
2.608003801973688
 20
6.253660333856836
 30
0.0
 10
2.605063834320604
 20
6.25402449570378
 30
0.0
 10
2.60359564689278
 20
6.254206354114642
 30
0.0
  0
SPLINE
  5
197
330
1F
100
AcDbEntity
  8
0
  6
Continuous
 62
     7
370
    18
100
AcDbSpline
210
0.0
220
0.0
230
1.0
 70
     8
 71
     3
 72
    10
 73
     6
 74
     0
 42
0.000000001
 43
0.00000001
 40
0.0
 40
0.0
 40
0.0
 40
0.0
 40
0.2803950161544561
 40
0.5605820686375746
 40
1.0
 40
1.0
 40
1.0
 40
1.0
 10
2.60826082133362
 20
6.226684030388207
 30
0.0
 10
2.609395135563172
 20
6.227635658268279
 30
0.0
 10
2.611662922722902
 20
6.229538208224054
 30
0.0
 10
2.614363616704314
 20
6.234221528509995
 30
0.0
 10
2.61469060709181
 20
6.238037121022594
 30
0.0
 10
2.614890279749551
 20
6.24036706565395
 30
0.0
  0
SPLINE
  5
198
330
1F
100
AcDbEntity
  8
0
  6
Continuous
 62
     7
370
    18
100
AcDbSpline
210
0.0
220
0.0
230
1.0
 70
     8
 71
     3
 72
     9
 73
     5
 74
     0
 42
0.000000001
 43
0.00000001
 40
0.0
 40
0.0
 40
0.0
 40
0.0
 40
0.5603818151175619
 40
1.0
 40
1.0
 40
1.0
 40
1.0
 10
2.596318845955005
 20
6.22277777384695
 30
0.0
 10
2.598685334958917
 20
6.223112344162645
 30
0.0
 10
2.602908328889252
 20
6.223709384085553
 30
0.0
 10
2.606626323355129
 20
6.225775658556028
 30
0.0
 10
2.60826082133362
 20
6.226684030388207
 30
0.0
  0
LINE
  5
199
330
1F
100
AcDbEntity
  8
0
  6
Continuous
 62
     7
370
    18
100
AcDbLine
 10
2.5983277894
 20
6.1884920683
 30
0.0
 11
2.596318846
 21
6.2227777738
 31
0.0
  0
SPLINE
  5
19A
330
1F
100
AcDbEntity
  8
0
  6
Continuous
 62
     7
370
    18
100
AcDbSpline
210
0.0
220
0.0
230
1.0
 70
     8
 71
     3
 72
    15
 73
    11
 74
     0
 42
0.000000001
 43
0.00000001
 40
0.0
 40
0.0
 40
0.0
 40
0.0
 40
0.1121564576577563
 40
0.2242936853174542
 40
0.3364207534900858
 40
0.4484898275212165
 40
0.5603593033804002
 40
0.7068535941854691
 40
0.8533578117683546
 40
1.0
 40
1.0
 40
1.0
 40
1.0
 10
2.636318857204795
 20
6.239697411723182
 30
0.0
 10
2.636274804845357
 20
6.237013126086199
 30
0.0
 10
2.636186707679562
 20
6.231645015051516
 30
0.0
 10
2.635367527470316
 20
6.223624313905055
 30
0.0
 10
2.63378963268563
 20
6.215717178081843
 30
0.0
 10
2.631085882246585
 20
6.208093556407109
 30
0.0
 10
2.626157429100044
 20
6.200583774603621
 30
0.0
 10
2.618447242638584
 20
6.194489034421061
 30
0.0
 10
2.608801591253571
 20
6.189959195064914
 30
0.0
 10
2.60182015197571
 20
6.188981263945289
 30
0.0
 10
2.598327789414186
 20
6.18849206825168
 30
0.0
  0
SPLINE
  5
19B
330
1F
100
AcDbEntity
  8
0
  6
Continuous
 62
     7
370
    18
100
AcDbSpline
210
0.0
220
0.0
230
1.0
 70
     8
 71
     3
 72
    14
 73
    10
 74
     0
 42
0.000000001
 43
0.00000001
 40
0.0
 40
0.0
 40
0.0
 40
0.0
 40
0.1398593503688906
 40
0.279722218170576
 40
0.4196108043636897
 40
0.5595267335600934
 40
0.7062276869434695
 40
0.8530792644137491
 40
1.0
 40
1.0
 40
1.0
 40
1.0
 10
2.598841171816882
 20
6.288492059709911
 30
0.0
 10
2.602073008090262
 20
6.288239843335026
 30
0.0
 10
2.608536761917013
 20
6.287735404242065
 30
0.0
 10
2.617481993259604
 20
6.283620707698453
 30
0.0
 10
2.625050540267387
 20
6.27745917429548
 30
0.0
 10
2.63071816739917
 20
6.269288867233128
 30
0.0
 10
2.634299197679128
 20
6.259890944105591
 30
0.0
 10
2.636039522398206
 20
6.249847440851402
 30
0.0
 10
2.636225730990562
 20
6.243081285715142
 30
0.0
 10
2.636318857204795
 20
6.239697411723182
 30
0.0
  0
LINE
  5
19C
330
1F
100
AcDbEntity
  8
0
  6
Continuous
 62
     7
370
    18
100
AcDbLine
 10
3.9741308094
 20
5.514549947
 30
0.0
 11
3.9348903027
 21
5.514549947
 31
0.0
  0
LINE
  5
19D
330
1F
100
AcDbEntity
  8
0
  6
Continuous
 62
     7
370
    18
100
AcDbLine
 10
3.9741308094
 20
5.4651828106
 30
0.0
 11
3.9741308094
 21
5.514549947
 31
0.0
  0
LINE
  5
19E
330
1F
100
AcDbEntity
  8
0
  6
Continuous
 62
     7
370
    18
100
AcDbLine
 10
3.9348903027
 20
5.4651828106
 30
0.0
 11
3.9741308094
 21
5.4651828106
 31
0.0
  0
LINE
  5
19F
330
1F
100
AcDbEntity
  8
0
  6
Continuous
 62
     7
370
    18
100
AcDbLine
 10
3.9348903027
 20
5.4525245969
 30
0.0
 11
3.9348903027
 21
5.4651828106
 31
0.0
  0
LINE
  5
1A0
330
1F
100
AcDbEntity
  8
0
  6
Continuous
 62
     7
370
    18
100
AcDbLine
 10
4.0348902941
 20
5.4525245969
 30
0.0
 11
3.9348903027
 21
5.4525245969
 31
0.0
  0
LINE
  5
1A1
330
1F
100
AcDbEntity
  8
0
  6
Continuous
 62
     7
370
    18
100
AcDbLine
 10
4.0348902941
 20
5.4651828106
 30
0.0
 11
4.0348902941
 21
5.4525245969
 31
0.0
  0
LINE
  5
1A2
330
1F
100
AcDbEntity
  8
0
  6
Continuous
 62
     7
370
    18
100
AcDbLine
 10
3.9855232311
 20
5.4651828106
 30
0.0
 11
4.0348902941
 21
5.4651828106
 31
0.0
  0
LINE
  5
1A3
330
1F
100
AcDbEntity
  8
0
  6
Continuous
 62
     7
370
    18
100
AcDbLine
 10
3.9855232311
 20
5.514549947
 30
0.0
 11
3.9855232311
 21
5.4651828106
 31
0.0
  0
LINE
  5
1A4
330
1F
100
AcDbEntity
  8
0
  6
Continuous
 62
     7
370
    18
100
AcDbLine
 10
4.0348902941
 20
5.514549947
 30
0.0
 11
3.9855232311
 21
5.514549947
 31
0.0
  0
LINE
  5
1A5
330
1F
100
AcDbEntity
  8
0
  6
Continuous
 62
     7
370
    18
100
AcDbLine
 10
4.0348902941
 20
5.5272081608
 30
0.0
 11
4.0348902941
 21
5.514549947
 31
0.0
  0
LINE
  5
1A6
330
1F
100
AcDbEntity
  8
0
  6
Continuous
 62
     7
370
    18
100
AcDbLine
 10
3.9348903027
 20
5.5272081608
 30
0.0
 11
4.0348902941
 21
5.5272081608
 31
0.0
  0
LINE
  5
1A7
330
1F
100
AcDbEntity
  8
0
  6
Continuous
 62
     7
370
    18
100
AcDbLine
 10
3.9348903027
 20
5.514549947
 30
0.0
 11
3.9348903027
 21
5.5272081608
 31
0.0
  0
LINE
  5
1A8
330
1F
100
AcDbEntity
  8
0
  6
Continuous
 62
     7
370
    18
100
AcDbLine
 10
4.0348902941
 20
5.6284739443
 30
0.0
 11
3.9348903027
 21
5.6651235409
 31
0.0
  0
LINE
  5
1A9
330
1F
100
AcDbEntity
  8
0
  6
Continuous
 62
     7
370
    18
100
AcDbLine
 10
4.0348902941
 20
5.6419628685
 30
0.0
 11
4.0348902941
 21
5.6284739443
 31
0.0
  0
LINE
  5
1AA
330
1F
100
AcDbEntity
  8
0
  6
Continuous
 62
     7
370
    18
100
AcDbLine
 10
4.0070422092
 20
5.6518323945
 30
0.0
 11
4.0348902941
 21
5.6419628685
 31
0.0
  0
LINE
  5
1AB
330
1F
100
AcDbEntity
  8
0
  6
Continuous
 62
     7
370
    18
100
AcDbLine
 10
4.0070422092
 20
5.696254868
 30
0.0
 11
4.0070422092
 21
5.6518323945
 31
0.0
  0
LINE
  5
1AC
330
1F
100
AcDbEntity
  8
0
  6
Continuous
 62
     7
370
    18
100
AcDbLine
 10
4.0348902941
 20
5.7061243206
 30
0.0
 11
4.0070422092
 21
5.696254868
 31
0.0
  0
LINE
  5
1AD
330
1F
100
AcDbEntity
  8
0
  6
Continuous
 62
     7
370
    18
100
AcDbLine
 10
4.0348902941
 20
5.7196132448
 30
0.0
 11
4.0348902941
 21
5.7061243206
 31
0.0
  0
LINE
  5
1AE
330
1F
100
AcDbEntity
  8
0
  6
Continuous
 62
     7
370
    18
100
AcDbLine
 10
3.9348903027
 20
5.6829637215
 30
0.0
 11
4.0348902941
 21
5.7196132448
 31
0.0
  0
LINE
  5
1AF
330
1F
100
AcDbEntity
  8
0
  6
Continuous
 62
     7
370
    18
100
AcDbLine
 10
3.9348903027
 20
5.6651235409
 30
0.0
 11
3.9348903027
 21
5.6829637215
 31
0.0
  0
LINE
  5
1B0
330
1F
100
AcDbEntity
  8
0
  6
Continuous
 62
     7
370
    18
100
AcDbLine
 10
3.9969155795
 20
5.8259423431
 30
0.0
 11
3.9855232311
 21
5.8259423431
 31
0.0
  0
LINE
  5
1B1
330
1F
100
AcDbEntity
  8
0
  6
Continuous
 62
     7
370
    18
100
AcDbLine
 10
3.9969155795
 20
5.8677144706
 30
0.0
 11
3.9969155795
 21
5.8259423431
 31
0.0
  0
LINE
  5
1B2
330
1F
100
AcDbEntity
  8
0
  6
Continuous
 62
     7
370
    18
100
AcDbLine
 10
3.9855232311
 20
5.8677144706
 30
0.0
 11
3.9969155795
 21
5.8677144706
 31
0.0
  0
LINE
  5
1B3
330
1F
100
AcDbEntity
  8
0
  6
Continuous
 62
     7
370
    18
100
AcDbLine
 10
3.9855232311
 20
5.8259423431
 30
0.0
 11
3.9855232311
 21
5.8677144706
 31
0.0
  0
LINE
  5
1B4
330
1F
100
AcDbEntity
  8
0
  6
Continuous
 62
     7
370
    18
100
AcDbLine
 10
3.9348903027
 20
5.9867018193
 30
0.0
 11
4.0234978724
 21
5.9867018193
 31
0.0
  0
LINE
  5
1B5
330
1F
100
AcDbEntity
  8
0
  6
Continuous
 62
     7
370
    18
100
AcDbLine
 10
3.9348903027
 20
5.9740436056
 30
0.0
 11
3.9348903027
 21
5.9867018193
 31
0.0
  0
LINE
  5
1B6
330
1F
100
AcDbEntity
  8
0
  6
Continuous
 62
     7
370
    18
100
AcDbLine
 10
4.0348902941
 20
5.9740436056
 30
0.0
 11
3.9348903027
 21
5.9740436056
 31
0.0
  0
LINE
  5
1B7
330
1F
100
AcDbEntity
  8
0
  6
Continuous
 62
     7
370
    18
100
AcDbLine
 10
4.0348902941
 20
6.0360689191
 30
0.0
 11
4.0348902941
 21
5.9740436056
 31
0.0
  0
LINE
  5
1B8
330
1F
100
AcDbEntity
  8
0
  6
Continuous
 62
     7
370
    18
100
AcDbLine
 10
4.0234978724
 20
6.0360689191
 30
0.0
 11
4.0348902941
 21
6.0360689191
 31
0.0
  0
LINE
  5
1B9
330
1F
100
AcDbEntity
  8
0
  6
Continuous
 62
     7
370
    18
100
AcDbLine
 10
4.0234978724
 20
5.9867018193
 30
0.0
 11
4.0234978724
 21
6.0360689191
 31
0.0
  0
LINE
  5
1BA
330
1F
100
AcDbEntity
  8
0
  6
Continuous
 62
     7
370
    18
100
AcDbLine
 10
3.9462827244
 20
6.1297398036
 30
0.0
 11
3.9348903027
 21
6.1297398036
 31
0.0
  0
LINE
  5
1BB
330
1F
100
AcDbEntity
  8
0
  6
Continuous
 62
     7
370
    18
100
AcDbLine
 10
3.9462827244
 20
6.1651828242
 30
0.0
 11
3.9462827244
 21
6.1297398036
 31
0.0
  0
LINE
  5
1BC
330
1F
100
AcDbEntity
  8
0
  6
Continuous
 62
     7
370
    18
100
AcDbLine
 10
4.0348902941
 20
6.1651828242
 30
0.0
 11
3.9462827244
 21
6.1651828242
 31
0.0
  0
LINE
  5
1BD
330
1F
100
AcDbEntity
  8
0
  6
Continuous
 62
     7
370
    18
100
AcDbLine
 10
4.0348902941
 20
6.1778410746
 30
0.0
 11
4.0348902941
 21
6.1651828242
 31
0.0
  0
LINE
  5
1BE
330
1F
100
AcDbEntity
  8
0
  6
Continuous
 62
     7
370
    18
100
AcDbLine
 10
3.9462827244
 20
6.1778410746
 30
0.0
 11
4.0348902941
 21
6.1778410746
 31
0.0
  0
LINE
  5
1BF
330
1F
100
AcDbEntity
  8
0
  6
Continuous
 62
     7
370
    18
100
AcDbLine
 10
3.9462827244
 20
6.2132841135
 30
0.0
 11
3.9462827244
 21
6.1778410746
 31
0.0
  0
LINE
  5
1C0
330
1F
100
AcDbEntity
  8
0
  6
Continuous
 62
     7
370
    18
100
AcDbLine
 10
3.9348903027
 20
6.2132841135
 30
0.0
 11
3.9462827244
 21
6.2132841135
 31
0.0
  0
LINE
  5
1C1
330
1F
100
AcDbEntity
  8
0
  6
Continuous
 62
     7
370
    18
100
AcDbLine
 10
3.9348903027
 20
6.1297398036
 30
0.0
 11
3.9348903027
 21
6.2132841135
 31
0.0
  0
CIRCLE
  5
1C2
330
1F
100
AcDbEntity
  8
0
  6
Continuous
 62
     7
370
    18
100
AcDbCircle
 10
2.534890286
 20
6.9487777778
 30
0.0
 40
0.0642499999999995
  0
CIRCLE
  5
1C3
330
1F
100
AcDbEntity
  8
0
  6
Continuous
 62
     7
370
    18
100
AcDbCircle
 10
4.034890286
 20
6.9487777778
 30
0.0
 40
0.0642499999999995
  0
LINE
  5
1C4
330
1F
100
AcDbEntity
  8
0
  6
Continuous
 62
     7
370
    18
100
AcDbLine
 10
2.5663188559
 20
6.1084920458
 30
0.0
 11
2.5663188559
 21
6.1223536823
 31
0.0
  0
SPLINE
  5
1C5
330
1F
100
AcDbEntity
  8
0
  6
Continuous
 62
     7
370
    18
100
AcDbSpline
210
0.0
220
0.0
230
1.0
 70
     8
 71
     3
 72
    12
 73
     8
 74
     0
 42
0.000000001
 43
0.00000001
 40
0.0
 40
0.0
 40
0.0
 40
0.0
 40
0.2506865530276496
 40
0.500636466634444
 40
0.6258619020602509
 40
0.7510083805091621
 40
1.0
 40
1.0
 40
1.0
 40
1.0
 10
2.566318855850784
 20
6.122353682287958
 30
0.0
 10
2.566272606751481
 20
6.123908525952926
 30
0.0
 10
2.566180244455295
 20
6.12701364439345
 30
0.0
 10
2.565270471192056
 20
6.130907162668938
 30
0.0
 10
2.563399049316504
 20
6.133453655201306
 30
0.0
 10
2.560770276818218
 20
6.13525244459375
 30
0.0
 10
2.558405807159247
 20
6.135482094909826
 30
0.0
 10
2.556832235441033
 20
6.135634928861864
 30
0.0
  0
SPLINE
  5
1C6
330
1F
100
AcDbEntity
  8
0
  6
Continuous
 62
     7
370
    18
100
AcDbSpline
210
0.0
220
0.0
230
1.0
 70
     8
 71
     3
 72
    12
 73
     8
 74
     0
 42
0.000000001
 43
0.00000001
 40
0.0
 40
0.0
 40
0.0
 40
0.0
 40
0.2486670559908426
 40
0.3738796842019368
 40
0.4991402608266887
 40
0.7492325922652663
 40
1.0
 40
1.0
 40
1.0
 40
1.0
 10
2.556832235441033
 20
6.135634928861864
 30
0.0
 10
2.555305397354613
 20
6.135465284918478
 30
0.0
 10
2.553009742470601
 20
6.135210219269641
 30
0.0
 10
2.550539827157719
 20
6.133349376687174
 30
0.0
 10
2.548799908461108
 20
6.130837577127703
 30
0.0
 10
2.547878578392172
 20
6.127080448834338
 30
0.0
 10
2.547791192317635
 20
6.124064555676168
 30
0.0
 10
2.54774744038936
 20
6.122554576633876
 30
0.0
  0
LINE
  5
1C7
330
1F
100
AcDbEntity
  8
0
  6
Continuous
 62
     7
370
    18
100
AcDbLine
 10
2.5477474404
 20
6.1225545766
 30
0.0
 11
2.5477474404
 21
6.1084920458
 31
0.0
  0
LINE
  5
1C8
330
1F
100
AcDbEntity
  8
0
  6
Continuous
 62
     7
370
    18
100
AcDbLine
 10
2.5477474404
 20
6.1084920458
 30
0.0
 11
2.5663188559
 21
6.1084920458
 31
0.0
  0
LINE
  5
1C9
330
1F
100
AcDbEntity
  8
0
  6
Continuous
 62
     7
370
    18
100
AcDbLine
 10
2.6091759924
 20
6.1084920458
 30
0.0
 11
2.6091759924
 21
6.1255902849
 31
0.0
  0
SPLINE
  5
1CA
330
1F
100
AcDbEntity
  8
0
  6
Continuous
 62
     7
370
    18
100
AcDbSpline
210
0.0
220
0.0
230
1.0
 70
     8
 71
     3
 72
    12
 73
     8
 74
     0
 42
0.000000001
 43
0.00000001
 40
0.0
 40
0.0
 40
0.0
 40
0.0
 40
0.2507692134694285
 40
0.5006548683572275
 40
0.6258732668673607
 40
0.7511904714527368
 40
1.0
 40
1.0
 40
1.0
 40
1.0
 10
2.609175992428152
 20
6.125590284898449
 30
0.0
 10
2.60912026156398
 20
6.127409831287975
 30
0.0
 10
2.609008996197393
 20
6.131042513089361
 30
0.0
 10
2.607863370841217
 20
6.135576509369048
 30
0.0
 10
2.605691201631965
 20
6.138544257088365
 30
0.0
 10
2.60274088306381
 20
6.140814253382267
 30
0.0
 10
2.599969786947443
 20
6.141135544495653
 30
0.0
 10
2.598126895068268
 20
6.141349216183263
 30
0.0
  0
SPLINE
  5
1CB
330
1F
100
AcDbEntity
  8
0
  6
Continuous
 62
     7
370
    18
100
AcDbSpline
210
0.0
220
0.0
230
1.0
 70
     8
 71
     3
 72
    13
 73
     9
 74
     0
 42
0.000000001
 43
0.00000001
 40
0.0
 40
0.0
 40
0.0
 40
0.0
 40
0.1251161325231998
 40
0.2501879050515833
 40
0.3752533703699173
 40
0.5001254464474685
 40
0.7497162822758606
 40
1.0
 40
1.0
 40
1.0
 40
1.0
 10
2.598126895068268
 20
6.141349216183263
 30
0.0
 10
2.597230113503741
 20
6.141294782628336
 30
0.0
 10
2.595436868329092
 20
6.141185934817926
 30
0.0
 10
2.592928819088289
 20
6.140097040067195
 30
0.0
 10
2.590854996579611
 20
6.138349493272812
 30
0.0
 10
2.588895661546749
 20
6.135313167587785
 30
0.0
 10
2.587902433220834
 20
6.130868803742074
 30
0.0
 10
2.587799135449628
 20
6.127306777484154
 30
0.0
 10
2.587747414972907
 20
6.125523295672314
 30
0.0
  0
LINE
  5
1CC
330
1F
100
AcDbEntity
  8
0
  6
Continuous
 62
     7
370
    18
100
AcDbLine
 10
2.587747415
 20
6.1255232957
 30
0.0
 11
2.587747415
 21
6.1084920458
 31
0.0
  0
LINE
  5
1CD
330
1F
100
AcDbEntity
  8
0
  6
Continuous
 62
     7
370
    18
100
AcDbLine
 10
2.587747415
 20
6.1084920458
 30
0.0
 11
2.6091759924
 21
6.1084920458
 31
0.0
  0
LINE
  5
1CE
330
1F
100
AcDbEntity
  8
0
  6
Continuous
 62
     7
370
    18
100
AcDbLine
 10
2.5920331488
 20
6.0141840119
 30
0.0
 11
2.5530152795
 21
6.0020635086
 31
0.0
  0
LINE
  5
1CF
330
1F
100
AcDbEntity
  8
0
  6
Continuous
 62
     7
370
    18
100
AcDbLine
 10
2.5530152795
 20
6.0020635086
 30
0.0
 11
2.5920331488
 21
5.9904117098
 31
0.0
  0
LINE
  5
1D0
330
1F
100
AcDbEntity
  8
0
  6
Continuous
 62
     7
370
    18
100
AcDbLine
 10
2.5920331488
 20
5.9904117098
 30
0.0
 11
2.5920331488
 21
6.0141840119
 31
0.0
  0
LINE
  5
1D1
330
1F
100
AcDbEntity
  8
0
  6
Continuous
 62
     7
370
    18
100
AcDbLine
 10
3.9956497874
 20
6.1009621194
 30
0.0
 11
3.945392688
 21
6.0829043613
 31
0.0
  0
LINE
  5
1D2
330
1F
100
AcDbEntity
  8
0
  6
Continuous
 62
     7
370
    18
100
AcDbLine
 10
3.945392688
 20
6.0829043613
 30
0.0
 11
3.9956497874
 21
6.0647872773
 31
0.0
  0
LINE
  5
1D3
330
1F
100
AcDbEntity
  8
0
  6
Continuous
 62
     7
370
    18
100
AcDbLine
 10
3.9956497874
 20
6.0647872773
 30
0.0
 11
3.9956497874
 21
6.1009621194
 31
0.0
  0
LINE
  5
1D4
330
1F
100
AcDbEntity
  8
0
  6
Continuous
 62
     7
370
    18
100
AcDbLine
 10
2.5691759995
 20
5.7656349531
 30
0.0
 11
2.5691759995
 21
5.7801661519
 31
0.0
  0
SPLINE
  5
1D5
330
1F
100
AcDbEntity
  8
0
  6
Continuous
 62
     7
370
    18
100
AcDbSpline
210
0.0
220
0.0
230
1.0
 70
     8
 71
     3
 72
     9
 73
     5
 74
     0
 42
0.000000001
 43
0.00000001
 40
0.0
 40
0.0
 40
0.0
 40
0.0
 40
0.559813768676549
 40
1.0
 40
1.0
 40
1.0
 40
1.0
 10
2.569175999511484
 20
5.780166151934175
 30
0.0
 10
2.568996336410763
 20
5.781883727568675
 30
0.0
 10
2.568675402716786
 20
5.784951847237401
 30
0.0
 10
2.568031071669629
 20
5.787967956639132
 30
0.0
 10
2.567747446014256
 20
5.789295606469937
 30
0.0
  0
SPLINE
  5
1D6
330
1F
100
AcDbEntity
  8
0
  6
Continuous
 62
     7
370
    18
100
AcDbSpline
210
0.0
220
0.0
230
1.0
 70
     8
 71
     3
 72
    11
 73
     7
 74
     0
 42
0.000000001
 43
0.00000001
 40
0.0
 40
0.0
 40
0.0
 40
0.0
 40
0.2797333325839549
 40
0.5592713692795668
 40
0.7796585111311037
 40
0.9999999999999999
 40
0.9999999999999999
 40
0.9999999999999999
 40
0.9999999999999999
 10
2.567747446014256
 20
5.789295606469937
 30
0.0
 10
2.567390546854652
 20
5.790492788169725
 30
0.0
 10
2.566676997704672
 20
5.792886315756628
 30
0.0
 10
2.564116415596744
 20
5.79534848807702
 30
0.0
 10
2.561256084698073
 20
5.796839282508698
 30
0.0
 10
2.559303812933439
 20
5.796988763820657
 30
0.0
 10
2.558327778164396
 20
5.797063496734606
 30
0.0
  0
SPLINE
  5
1D7
330
1F
100
AcDbEntity
  8
0
  6
Continuous
 62
     7
370
    18
100
AcDbSpline
210
0.0
220
0.0
230
1.0
 70
     8
 71
     3
 72
    12
 73
     8
 74
     0
 42
0.000000001
 43
0.00000001
 40
0.0
 40
0.0
 40
0.0
 40
0.0
 40
0.2486072109012033
 40
0.3739152795581553
 40
0.4989531707429725
 40
0.7491440245097584
 40
1.0
 40
1.0
 40
1.0
 40
1.0
 10
2.558327778164396
 20
5.797063496734606
 30
0.0
 10
2.556451466420183
 20
5.796859838801764
 30
0.0
 10
2.553629417824599
 20
5.796553529050664
 30
0.0
 10
2.550695236629541
 20
5.794139377516863
 30
0.0
 10
2.548764444369638
 20
5.790936091684732
 30
0.0
 10
2.547887384752211
 20
5.786305036178946
 30
0.0
 10
2.547794129774525
 20
5.782615892220597
 30
0.0
 10
2.54774744038936
 20
5.780768871638172
 30
0.0
  0
LINE
  5
1D8
330
1F
100
AcDbEntity
  8
0
  6
Continuous
 62
     7
370
    18
100
AcDbLine
 10
2.5477474404
 20
5.7807688716
 30
0.0
 11
2.5477474404
 21
5.7656349531
 31
0.0
  0
LINE
  5
1D9
330
1F
100
AcDbEntity
  8
0
  6
Continuous
 62
     7
370
    18
100
AcDbLine
 10
2.5477474404
 20
5.7656349531
 30
0.0
 11
2.5691759995
 21
5.7656349531
 31
0.0
  0
SPLINE
  5
1DA
330
1F
100
AcDbEntity
  8
0
  6
Continuous
 62
     7
370
    18
100
AcDbSpline
210
0.0
220
0.0
230
1.0
 70
     8
 71
     3
 72
    11
 73
     7
 74
     0
 42
0.000000001
 43
0.00000001
 40
0.0
 40
0.0
 40
0.0
 40
0.0
 40
0.2802691617220482
 40
0.560147564759237
 40
0.7800853588110007
 40
1.0
 40
1.0
 40
1.0
 40
1.0
 10
3.965685400249051
 20
5.942398034484291
 30
0.0
 10
3.96401999665389
 20
5.942318416190199
 30
0.0
 10
3.960691511413351
 20
5.942159290607947
 30
0.0
 10
3.956238848835556
 20
5.940672334000182
 30
0.0
 10
3.952644818117316
 20
5.938250395251585
 30
0.0
 10
3.951040479241487
 20
5.936176314250501
 30
0.0
 10
3.950238352028004
 20
5.935139328337484
 30
0.0
  0
SPLINE
  5
1DB
330
1F
100
AcDbEntity
  8
0
  6
Continuous
 62
     7
370
    18
100
AcDbSpline
210
0.0
220
0.0
230
1.0
 70
     8
 71
     3
 72
    10
 73
     6
 74
     0
 42
0.000000001
 43
0.00000001
 40
0.0
 40
0.0
 40
0.0
 40
0.0
 40
0.2796987103577598
 40
0.5597319572519355
 40
1.0
 40
1.0
 40
1.0
 40
1.0
 10
3.950238352028003
 20
5.935139328337484
 30
0.0
 10
3.949404698807817
 20
5.933636107288933
 30
0.0
 10
3.947736395267885
 20
5.930627867248743
 30
0.0
 10
3.946446582598981
 20
5.924576135371315
 30
0.0
 10
3.946344884858353
 20
5.920170194887112
 30
0.0
 10
3.946282724390418
 20
5.917477162372332
 30
0.0
  0
LINE
  5
1DC
330
1F
100
AcDbEntity
  8
0
  6
Continuous
 62
     7
370
    18
100
AcDbLine
 10
3.9462827244
 20
5.9174771624
 30
0.0
 11
3.9462827244
 21
5.9044233565
 31
0.0
  0
LINE
  5
1DD
330
1F
100
AcDbEntity
  8
0
  6
Continuous
 62
     7
370
    18
100
AcDbLine
 10
3.9462827244
 20
5.9044233565
 30
0.0
 11
3.9867890231
 21
5.9044233565
 31
0.0
  0
LINE
  5
1DE
330
1F
100
AcDbEntity
  8
0
  6
Continuous
 62
     7
370
    18
100
AcDbLine
 10
3.9867890231
 20
5.9044233565
 30
0.0
 11
3.9867890231
 21
5.9155586379
 31
0.0
  0
SPLINE
  5
1DF
330
1F
100
AcDbEntity
  8
0
  6
Continuous
 62
     7
370
    18
100
AcDbSpline
210
0.0
220
0.0
230
1.0
 70
     8
 71
     3
 72
    11
 73
     7
 74
     0
 42
0.000000001
 43
0.00000001
 40
0.0
 40
0.0
 40
0.0
 40
0.0
 40
0.2802910923796758
 40
0.5604151580897678
 40
0.780336260709364
 40
1.0
 40
1.0
 40
1.0
 40
1.0
 10
3.986789023124865
 20
5.915558637868624
 30
0.0
 10
3.986741882221004
 20
5.917665670151377
 30
0.0
 10
3.98664762850475
 20
5.921878479127268
 30
0.0
 10
3.985752860967581
 20
5.927687855205358
 30
0.0
 10
3.983879278414922
 20
5.932853287630418
 30
0.0
 10
3.981731136217705
 20
5.935393098700041
 30
0.0
 10
3.980657693954503
 20
5.936662260744439
 30
0.0
  0
SPLINE
  5
1E0
330
1F
100
AcDbEntity
  8
0
  6
Continuous
 62
     7
370
    18
100
AcDbSpline
210
0.0
220
0.0
230
1.0
 70
     8
 71
     3
 72
    10
 73
     6
 74
     0
 42
0.000000001
 43
0.00000001
 40
0.0
 40
0.0
 40
0.0
 40
0.0
 40
0.2803245123967777
 40
0.560315947089509
 40
1.0
 40
1.0
 40
1.0
 40
1.0
 10
3.980657693954503
 20
5.936662260744439
 30
0.0
 10
3.979498192954428
 20
5.937678587971666
 30
0.0
 10
3.977180568657309
 20
5.939710034840182
 30
0.0
 10
3.972078871996863
 20
5.941995936713015
 30
0.0
 10
3.968110107574098
 20
5.94224553996334
 30
0.0
 10
3.965685400249051
 20
5.942398034484291
 30
0.0
  0
SPLINE
  5
1E1
330
1F
100
AcDbEntity
  8
0
  6
Continuous
 62
     7
370
    18
100
AcDbSpline
210
0.0
220
0.0
230
1.0
 70
     8
 71
     3
 72
    13
 73
     9
 74
     0
 42
0.000000001
 43
0.00000001
 40
0.0
 40
0.0
 40
0.0
 40
0.0
 40
0.1870836222545522
 40
0.3739984526160478
 40
0.5601738951230614
 40
0.7067223268750917
 40
0.853243882386183
 40
1.0
 40
1.0
 40
1.0
 40
1.0
 10
2.57995726829868
 20
5.632777754577519
 30
0.0
 10
2.582670464798887
 20
5.632848558174566
 30
0.0
 10
2.588094409880193
 20
5.632990101487744
 30
0.0
 10
2.596107025057779
 20
5.634561740677618
 30
0.0
 10
2.603023547109506
 20
5.637965754516038
 30
0.0
 10
2.60768819019067
 20
5.643286492028933
 30
0.0
 10
2.610232985301692
 20
5.649277541134227
 30
0.0
 10
2.610480638582256
 20
5.653544418400092
 30
0.0
 10
2.610604564258502
 20
5.655679563347203
 30
0.0
  0
SPLINE
  5
1E2
330
1F
100
AcDbEntity
  8
0
  6
Continuous
 62
     7
370
    18
100
AcDbSpline
210
0.0
220
0.0
230
1.0
 70
     8
 71
     3
 72
    14
 73
    10
 74
     0
 42
0.000000001
 43
0.00000001
 40
0.0
 40
0.0
 40
0.0
 40
0.0
 40
0.1250722011157064
 40
0.2499872613407613
 40
0.3748378467994605
 40
0.4995861305714585
 40
0.6661752251101694
 40
0.8330607134725139
 40
1.0
 40
1.0
 40
1.0
 40
1.0
 10
2.610604564258502
 20
5.655679563347203
 30
0.0
 10
2.610509964480889
 20
5.657562022008083
 30
0.0
 10
2.610320883780957
 20
5.661324574206114
 30
0.0
 10
2.608515409740614
 20
5.666749879485882
 30
0.0
 10
2.60523211387031
 20
5.671420818330618
 30
0.0
 10
2.60014277157094
 20
5.675244432293716
 30
0.0
 10
2.59346217991104
 20
5.677274587430468
 30
0.0
 10
2.586013926684843
 20
5.678348228259904
 30
0.0
 10
2.580994257647124
 20
5.678444106368635
 30
0.0
 10
2.578484018651119
 20
5.678492053148707
 30
0.0
  0
SPLINE
  5
1E3
330
1F
100
AcDbEntity
  8
0
  6
Continuous
 62
     7
370
    18
100
AcDbSpline
210
0.0
220
0.0
230
1.0
 70
     8
 71
     3
 72
    13
 73
     9
 74
     0
 42
0.000000001
 43
0.00000001
 40
0.0
 40
0.0
 40
0.0
 40
0.0
 40
0.1870485972159107
 40
0.3738908849571622
 40
0.5600403896444021
 40
0.7066005638107042
 40
0.8531793821748399
 40
1.0
 40
1.0
 40
1.0
 40
1.0
 10
2.578484018651119
 20
5.678492053148707
 30
0.0
 10
2.575838021200873
 20
5.678416675513859
 30
0.0
 10
2.570548944763027
 20
5.678266003383623
 30
0.0
 10
2.56275873835589
 20
5.676518112773155
 30
0.0
 10
2.556197308073155
 20
5.672847031638058
 30
0.0
 10
2.551852338456436
 20
5.667500770583782
 30
0.0
 10
2.549514449036551
 20
5.661610461552506
 30
0.0
 10
2.54928887423761
 20
5.657449359363784
 30
0.0
 10
2.549175993886589
 20
5.655367093623546
 30
0.0
  0
SPLINE
  5
1E4
330
1F
100
AcDbEntity
  8
0
  6
Continuous
 62
     7
370
    18
100
AcDbSpline
210
0.0
220
0.0
230
1.0
 70
     8
 71
     3
 72
    13
 73
     9
 74
     0
 42
0.000000001
 43
0.00000001
 40
0.0
 40
0.0
 40
0.0
 40
0.0
 40
0.1400406500068191
 40
0.2798980770794322
 40
0.4198096271380963
 40
0.5596987168236809
 40
0.779645962944905
 40
1.0
 40
1.0
 40
1.0
 40
1.0
 10
2.549175993886589
 20
5.655367093623546
 30
0.0
 10
2.549298312685943
 20
5.653338369831945
 30
0.0
 10
2.549542790248195
 20
5.649283576540374
 30
0.0
 10
2.551964011842957
 20
5.643595704315188
 30
0.0
 10
2.555924906358843
 20
5.638895338130967
 30
0.0
 10
2.56215030373493
 20
5.63504954378587
 30
0.0
 10
2.570427014247013
 20
5.633073725649456
 30
0.0
 10
2.576778560899927
 20
5.632876472348428
 30
0.0
 10
2.57995726829868
 20
5.632777754577519
 30
0.0
  0
SPLINE
  5
1E5
330
1F
100
AcDbEntity
  8
0
  6
Continuous
 62
     7
370
    18
100
AcDbSpline
210
0.0
220
0.0
230
1.0
 70
     8
 71
     3
 72
    11
 73
     7
 74
     0
 42
0.000000001
 43
0.00000001
 40
0.0
 40
0.0
 40
0.0
 40
0.0
 40
0.2801938343727677
 40
0.5599610983041589
 40
0.779909238471146
 40
1.0
 40
1.0
 40
1.0
 40
1.0
 10
3.963114143285764
 20
5.785435971056775
 30
0.0
 10
3.961669043033955
 20
5.785362000422436
 30
0.0
 10
3.958781042568225
 20
5.785214171767532
 30
0.0
 10
3.954909763221475
 20
5.783915895301783
 30
0.0
 10
3.951843095741696
 20
5.781728024303321
 30
0.0
 10
3.950483359073972
 20
5.779901680219392
 30
0.0
 10
3.949803270387437
 20
5.778988212208502
 30
0.0
  0
SPLINE
  5
1E6
330
1F
100
AcDbEntity
  8
0
  6
Continuous
 62
     7
370
    18
100
AcDbSpline
210
0.0
220
0.0
230
1.0
 70
     8
 71
     3
 72
    10
 73
     6
 74
     0
 42
0.000000001
 43
0.00000001
 40
0.0
 40
0.0
 40
0.0
 40
0.0
 40
0.2796452793370903
 40
0.5597204065945132
 40
1.0
 40
1.0
 40
1.0
 40
1.0
 10
3.949803270387437
 20
5.778988212208502
 30
0.0
 10
3.949041070949441
 20
5.777625840712603
 30
0.0
 10
3.947515500482626
 20
5.774899003594432
 30
0.0
 10
3.946470147987723
 20
5.769380065503348
 30
0.0
 10
3.946353822396238
 20
5.765387905594434
 30
0.0
 10
3.946282724390418
 20
5.762947904174176
 30
0.0
  0
LINE
  5
1E7
330
1F
100
AcDbEntity
  8
0
  6
Continuous
 62
     7
370
    18
100
AcDbLine
 10
3.9462827244
 20
5.7629479042
 30
0.0
 11
3.9462827244
 21
5.7474613297
 31
0.0
  0
LINE
  5
1E8
330
1F
100
AcDbEntity
  8
0
  6
Continuous
 62
     7
370
    18
100
AcDbLine
 10
3.9462827244
 20
5.7474613297
 30
0.0
 11
3.9842573657
 21
5.7474613297
 31
0.0
  0
LINE
  5
1E9
330
1F
100
AcDbEntity
  8
0
  6
Continuous
 62
     7
370
    18
100
AcDbLine
 10
3.9842573657
 20
5.7474613297
 30
0.0
 11
3.9842573657
 21
5.760772276
 31
0.0
  0
SPLINE
  5
1EA
330
1F
100
AcDbEntity
  8
0
  6
Continuous
 62
     7
370
    18
100
AcDbSpline
210
0.0
220
0.0
230
1.0
 70
     8
 71
     3
 72
    11
 73
     7
 74
     0
 42
0.000000001
 43
0.00000001
 40
0.0
 40
0.0
 40
0.0
 40
0.0
 40
0.2802227549008949
 40
0.5603272094359381
 40
0.7802127754812265
 40
1.0
 40
1.0
 40
1.0
 40
1.0
 10
3.984257365704121
 20
5.760772275973886
 30
0.0
 10
3.984212853699536
 20
5.762639772210605
 30
0.0
 10
3.984123848481796
 20
5.766373976291652
 30
0.0
 10
3.983348307631699
 20
5.771526024716272
 30
0.0
 10
3.981744035597716
 20
5.776118119406425
 30
0.0
 10
3.979912057378089
 20
5.778427242198666
 30
0.0
 10
3.978996273147378
 20
5.779581545354267
 30
0.0
  0
SPLINE
  5
1EB
330
1F
100
AcDbEntity
  8
0
  6
Continuous
 62
     7
370
    18
100
AcDbSpline
210
0.0
220
0.0
230
1.0
 70
     8
 71
     3
 72
    10
 73
     6
 74
     0
 42
0.000000001
 43
0.00000001
 40
0.0
 40
0.0
 40
0.0
 40
0.0
 40
0.2801117863663304
 40
0.5598975400447632
 40
1.0
 40
1.0
 40
1.0
 40
1.0
 10
3.978996273147378
 20
5.779581545354267
 30
0.0
 10
3.977785890546961
 20
5.780679753450471
 30
0.0
 10
3.975366534156149
 20
5.782874891396996
 30
0.0
 10
3.969888064563094
 20
5.785155919327599
 30
0.0
 10
3.965684180688283
 20
5.785329718948262
 30
0.0
 10
3.963114143285765
 20
5.785435971056775
 30
0.0
  0
LINE
  5
1EC
330
1F
100
AcDbEntity
  8
0
  6
Continuous
 62
     7
370
    18
100
AcDbLine
 10
3.9956497874
 20
5.6921013893
 30
0.0
 11
3.945392688
 21
5.6740436312
 31
0.0
  0
LINE
  5
1ED
330
1F
100
AcDbEntity
  8
0
  6
Continuous
 62
     7
370
    18
100
AcDbLine
 10
3.945392688
 20
5.6740436312
 30
0.0
 11
3.9956497874
 21
5.6559265472
 31
0.0
  0
LINE
  5
1EE
330
1F
100
AcDbEntity
  8
0
  6
Continuous
 62
     7
370
    18
100
AcDbLine
 10
3.9956497874
 20
5.6559265472
 30
0.0
 11
3.9956497874
 21
5.6921013893
 31
0.0
  0
DIMENSION
  5
1EF
330
1F
100
AcDbEntity
  8
0
  6
Continuous
 62
     7
370
    18
100
AcDbDimension
  2
_D_2
 10
2.534890286
 20
7.342495178
 30
0.0
 11
3.284890286
 21
7.342495178
 31
0.0
 70
   160
  1
<>
 71
     2
 42
-1.0
  3
SLDDIMSTYLE0
100
AcDbAlignedDimension
 13
4.034890286
 23
6.9987777778
 33
0.0
 14
2.534890286
 24
6.9987777778
 34
0.0
100
AcDbRotatedDimension
  0
DIMENSION
  5
203
330
1F
100
AcDbEntity
  8
0
  6
Continuous
 62
     7
370
    18
100
AcDbDimension
  2
_D_3
 10
5.1925321958
 20
7.1177777778
 30
0.0
 11
5.1925321958
 21
6.1177777778
 31
0.0
 70
   160
  1
<>
 71
     2
 42
-1.0
  3
SLDDIMSTYLE0
100
AcDbAlignedDimension
 13
4.234890286
 23
5.1177777778
 33
0.0
 14
4.234890286
 24
7.1177777778
 34
0.0
 50
90.0
100
AcDbRotatedDimension
  0
DIMENSION
  5
217
330
1F
100
AcDbEntity
  8
0
  6
Continuous
 62
     7
370
    18
100
AcDbDimension
  2
_D_4
 10
3.284890286
 20
4.8705423093
 30
0.0
 11
3.759890286
 21
4.8705423093
 31
0.0
 70
   160
  1
<>
 71
     2
 42
-1.0
  3
SLDDIMSTYLE2
100
AcDbAlignedDimension
 13
4.234890286
 23
5.1177777778
 33
0.0
 14
3.284890286
 24
5.8177777778
 34
0.0
100
AcDbRotatedDimension
  0
DIMENSION
  5
22C
330
1F
100
AcDbEntity
  8
0
  6
Continuous
 62
     7
370
    18
100
AcDbDimension
  2
_D_5
 10
4.6285910734
 20
5.8677777778
 30
0.0
 11
4.6285910734
 21
6.4927777778
 31
0.0
 70
   160
  1
<>
 71
     2
 42
-1.0
  3
SLDDIMSTYLE3
100
AcDbAlignedDimension
 13
4.234890286
 23
7.1177777778
 33
0.0
 14
3.334890286
 24
5.8677777778
 34
0.0
 50
90.0
100
AcDbRotatedDimension
  0
MTEXT
  5
241
330
1F
100
AcDbEntity
  8
0
  6
Continuous
 62
     7
370
     0
100
AcDbMText
 10
1.0120557494
 20
4.9869274931
 30
0.0
 40
0.0833333333
 41
0.0
 71
     1
 72
     1
  1
SM1 (1.035-40) THREAD
  7
SLDTEXTSTYLE0
 73
     1
 44
1.0
  0
LEADER
  5
243
330
1F
100
AcDbEntity
  8
0
  6
Continuous
 62
     7
370
     0
100
AcDbLeader
  3
SLDDIMSTYLE4
 76
     3
 10
3.0280666554
 20
5.4387770519
 30
0.0
 10
2.4933654127
 20
4.9442832804
 30
0.0
 10
2.2433654127
 20
4.9442832804
 30
0.0
  0
INSERT
  5
249
102
{ACAD_REACTORS
330
24A
102
}
330
1F
100
AcDbEntity
  8
0
  6
Continuous
 62
     7
370
     0
100
AcDbBlockReference
  2
SW_NOTE_5
 10
4.7135500606
 20
7.4730242053
 30
0.0
  0
LEADER
  5
24A
330
1F
100
AcDbEntity
  8
0
  6
Continuous
 62
     7
370
     0
100
AcDbLeader
  3
SLDDIMSTYLE4
 73
     2
 76
     3
 10
4.1195919719
 20
7.0440766466
 30
0.0
 10
4.4635500606
 20
7.4730242053
 30
0.0
 10
4.7135500606
 20
7.4730242053
 30
0.0
340
249
  0
INSERT
  5
252
330
1F
100
AcDbEntity
  8
0
  6
Continuous
 62
     7
370
     0
100
AcDbBlockReference
  2
SW_CENTERMARKSYMBOL_0
 10
3.284890286
 20
5.8677777778
 30
0.0
  0
INSERT
  5
25A
330
1F
100
AcDbEntity
  8
0
  6
Continuous
 62
     7
370
     0
100
AcDbBlockReference
  2
SW_CENTERMARKSYMBOL_1
 10
2.534890286
 20
6.9487777778
 30
0.0
  0
INSERT
  5
262
330
1F
100
AcDbEntity
  8
0
  6
Continuous
 62
     7
370
     0
100
AcDbBlockReference
  2
SW_CENTERMARKSYMBOL_2
 10
4.034890286
 20
6.9487777778
 30
0.0
  0
LINE
  5
263
330
1F
100
AcDbEntity
  8
0
  6
Continuous
 62
     7
370
    18
100
AcDbLine
 10
9.7887881321
 20
7.0372711022
 30
0.0
 11
9.8156402884
 21
7.0217696823
 31
0.0
  0
LINE
  5
264
330
1F
100
AcDbEntity
  8
0
  6
Continuous
 62
     7
370
    18
100
AcDbLine
 10
9.825486079
 20
7.0584563759
 30
0.0
 11
9.7887881321
 21
7.0372711022
 31
0.0
  0
LINE
  5
265
330
1F
100
AcDbEntity
  8
0
  6
Continuous
 62
     7
370
    18
100
AcDbLine
 10
9.8174304321
 20
7.0631068019
 30
0.0
 11
9.825486079
 21
7.0584563759
 31
0.0
  0
LINE
  5
266
330
1F
100
AcDbEntity
  8
0
  6
Continuous
 62
     7
370
    18
100
AcDbLine
 10
9.7807324852
 20
7.0419215281
 30
0.0
 11
9.8174304321
 21
7.0631068019
 31
0.0
  0
LINE
  5
267
330
1F
100
AcDbEntity
  8
0
  6
Continuous
 62
     7
370
    18
100
AcDbLine
 10
9.761040904
 20
7.053289236
 30
0.0
 11
9.7807324852
 21
7.0419215281
 31
0.0
  0
LINE
  5
268
330
1F
100
AcDbEntity
  8
0
  6
Continuous
 62
     7
370
    18
100
AcDbLine
 10
9.7977388509
 20
7.0744745098
 30
0.0
 11
9.761040904
 21
7.053289236
 31
0.0
  0
LINE
  5
269
330
1F
100
AcDbEntity
  8
0
  6
Continuous
 62
     7
370
    18
100
AcDbLine
 10
9.789683204
 20
7.0791249357
 30
0.0
 11
9.7977388509
 21
7.0744745098
 31
0.0
  0
LINE
  5
26A
330
1F
100
AcDbEntity
  8
0
  6
Continuous
 62
     7
370
    18
100
AcDbLine
 10
9.7440345384
 20
7.052772522
 30
0.0
 11
9.789683204
 21
7.0791249357
 31
0.0
  0
LINE
  5
26B
330
1F
100
AcDbEntity
  8
0
  6
Continuous
 62
     7
370
    18
100
AcDbLine
 10
9.8147452165
 20
7.0119521164
 30
0.0
 11
9.7440345384
 21
7.052772522
 31
0.0
  0
LINE
  5
26C
330
1F
100
AcDbEntity
  8
0
  6
Continuous
 62
     7
370
    18
100
AcDbLine
 10
9.8603938821
 20
7.0383045301
 30
0.0
 11
9.8147452165
 21
7.0119521164
 31
0.0
  0
LINE
  5
26D
330
1F
100
AcDbEntity
  8
0
  6
Continuous
 62
     7
370
    18
100
AcDbLine
 10
9.8523382352
 20
7.0429549561
 30
0.0
 11
9.8603938821
 21
7.0383045301
 31
0.0
  0
LINE
  5
26E
330
1F
100
AcDbEntity
  8
0
  6
Continuous
 62
     7
370
    18
100
AcDbLine
 10
9.8156402884
 20
7.0217696823
 30
0.0
 11
9.8523382352
 21
7.0429549561
 31
0.0
  0
LINE
  5
26F
330
1F
100
AcDbEntity
  8
0
  6
Continuous
 62
     7
370
    18
100
AcDbLine
 10
9.6795893634
 20
6.9339283032
 30
0.0
 11
9.6347938131
 21
6.9897091937
 31
0.0
  0
LINE
  5
270
330
1F
100
AcDbEntity
  8
0
  6
Continuous
 62
     7
370
    18
100
AcDbLine
 10
9.689127473
 20
6.9394345367
 30
0.0
 11
9.6795893634
 21
6.9339283032
 31
0.0
  0
LINE
  5
271
330
1F
100
AcDbEntity
  8
0
  6
Continuous
 62
     7
370
    18
100
AcDbLine
 10
9.6764146553
 20
6.954830999
 30
0.0
 11
9.689127473
 21
6.9394345367
 31
0.0
  0
LINE
  5
272
330
1F
100
AcDbEntity
  8
0
  6
Continuous
 62
     7
370
    18
100
AcDbLine
 10
9.7078260839
 20
6.9729644308
 30
0.0
 11
9.6764146553
 21
6.954830999
 31
0.0
  0
LINE
  5
273
330
1F
100
AcDbEntity
  8
0
  6
Continuous
 62
     7
370
    18
100
AcDbLine
 10
9.7344964287
 20
6.9656254773
 30
0.0
 11
9.7078260839
 21
6.9729644308
 31
0.0
  0
LINE
  5
274
330
1F
100
AcDbEntity
  8
0
  6
Continuous
 62
     7
370
    18
100
AcDbLine
 10
9.7440345384
 20
6.9711317108
 30
0.0
 11
9.7344964287
 21
6.9656254773
 31
0.0
  0
LINE
  5
275
330
1F
100
AcDbEntity
  8
0
  6
Continuous
 62
     7
370
    18
100
AcDbLine
 10
9.6474087324
 20
6.9969916315
 30
0.0
 11
9.7440345384
 21
6.9711317108
 31
0.0
  0
LINE
  5
276
330
1F
100
AcDbEntity
  8
0
  6
Continuous
 62
     7
370
    18
100
AcDbLine
 10
9.6347938131
 20
6.9897091937
 30
0.0
 11
9.6474087324
 21
6.9969916315
 31
0.0
  0
LINE
  5
277
330
1F
100
AcDbEntity
  8
0
  6
Continuous
 62
     7
370
    18
100
AcDbLine
 10
9.5059454196
 20
6.9153265994
 30
0.0
 11
9.524881784
 21
6.9262583298
 31
0.0
  0
LINE
  5
278
330
1F
100
AcDbEntity
  8
0
  6
Continuous
 62
     7
370
    18
100
AcDbLine
 10
9.5766560978
 20
6.8745061938
 30
0.0
 11
9.5059454196
 21
6.9153265994
 31
0.0
  0
LINE
  5
279
330
1F
100
AcDbEntity
  8
0
  6
Continuous
 62
     7
370
    18
100
AcDbLine
 10
9.5856068165
 20
6.8796733337
 30
0.0
 11
9.5766560978
 21
6.8745061938
 31
0.0
  0
LINE
  5
27A
330
1F
100
AcDbEntity
  8
0
  6
Continuous
 62
     7
370
    18
100
AcDbLine
 10
9.5596497321
 20
6.8946580396
 30
0.0
 11
9.5856068165
 21
6.8796733337
 31
0.0
  0
LINE
  5
27B
330
1F
100
AcDbEntity
  8
0
  6
Continuous
 62
     7
370
    18
100
AcDbLine
 10
9.5690200158
 20
6.9000673892
 30
0.0
 11
9.5596497321
 21
6.8946580396
 31
0.0
  0
SPLINE
  5
27C
330
1F
100
AcDbEntity
  8
0
  6
Continuous
 62
     7
370
    18
100
AcDbSpline
210
0.0
220
0.0
230
1.0
 70
     8
 71
     3
 72
    10
 73
     6
 74
     0
 42
0.000000001
 43
0.00000001
 40
0.0
 40
0.0
 40
0.0
 40
0.0
 40
0.2799377899913772
 40
0.5599057812773998
 40
1.0
 40
1.0
 40
1.0
 40
1.0
 10
9.582767760410896
 20
6.916529574150835
 30
0.0
 10
9.582546347184472
 20
6.914773177159392
 30
0.0
 10
9.582103496844299
 20
6.911260193686322
 30
0.0
 10
9.577588109636919
 20
6.905428965367992
 30
0.0
 10
9.572270240073896
 20
6.902101251731087
 30
0.0
 10
9.56902001583205
 20
6.900067389221974
 30
0.0
  0
SPLINE
  5
27D
330
1F
100
AcDbEntity
  8
0
  6
Continuous
 62
     7
370
    18
100
AcDbSpline
210
0.0
220
0.0
230
1.0
 70
     8
 71
     3
 72
    10
 73
     6
 74
     0
 42
0.000000001
 43
0.00000001
 40
0.0
 40
0.0
 40
0.0
 40
0.0
 40
0.2805202071100399
 40
0.5609195485982645
 40
1.0
 40
1.0
 40
1.0
 40
1.0
 10
9.573159723253555
 20
6.929229435304881
 30
0.0
 10
9.574696171237306
 20
6.928241947568258
 30
0.0
 10
9.577768405207078
 20
6.926267397566392
 30
0.0
 10
9.581687520484321
 20
6.92202370630834
 30
0.0
 10
9.582358362421521
 20
6.918611784411082
 30
0.0
 10
9.582767760410896
 20
6.916529574150835
 30
0.0
  0
SPLINE
  5
27E
330
1F
100
AcDbEntity
  8
0
  6
Continuous
 62
     7
370
    18
100
AcDbSpline
210
0.0
220
0.0
230
1.0
 70
     8
 71
     3
 72
    11
 73
     7
 74
     0
 42
0.000000001
 43
0.00000001
 40
0.0
 40
0.0
 40
0.0
 40
0.0
 40
0.2798416955920396
 40
0.5594435805415612
 40
0.7796356073270841
 40
1.0
 40
1.0
 40
1.0
 40
1.0
 10
9.547706116810526
 20
6.934283544066759
 30
0.0
 10
9.550326647489541
 20
6.934451950408412
 30
0.0
 10
9.555565463180983
 20
6.934788618775722
 30
0.0
 10
9.562792957843008
 20
6.93368232272843
 30
0.0
 10
9.568628210261384
 20
6.931671882858937
 30
0.0
 10
9.571648824988467
 20
6.930043796816889
 30
0.0
 10
9.573159723253555
 20
6.929229435304881
 30
0.0
  0
SPLINE
  5
27F
330
1F
100
AcDbEntity
  8
0
  6
Continuous
 62
     7
370
    18
100
AcDbSpline
210
0.0
220
0.0
230
1.0
 70
     8
 71
     3
 72
    11
 73
     7
 74
     0
 42
0.000000001
 43
0.00000001
 40
0.0
 40
0.0
 40
0.0
 40
0.0
 40
0.2801440642798737
 40
0.5601309698411003
 40
0.7800972813530003
 40
1.0
 40
1.0
 40
1.0
 40
1.0
 10
9.524881784000074
 20
6.926258329834641
 30
0.0
 10
9.526708384409504
 20
6.927273008204658
 30
0.0
 10
9.530360560519236
 20
6.929301795717738
 30
0.0
 10
9.536073627135623
 20
6.931713007151161
 30
0.0
 10
9.541900320184848
 20
6.933448909702232
 30
0.0
 10
9.545771037801446
 20
6.93400535942765
 30
0.0
 10
9.547706116810526
 20
6.934283544066759
 30
0.0
  0
SPLINE
  5
280
330
1F
100
AcDbEntity
  8
0
  6
Continuous
 62
     7
370
    18
100
AcDbSpline
210
0.0
220
0.0
230
1.0
 70
     8
 71
     3
 72
    11
 73
     7
 74
     0
 42
0.000000001
 43
0.00000001
 40
0.0
 40
0.0
 40
0.0
 40
0.0
 40
0.2798970336271973
 40
0.5594786751449039
 40
0.779625543651431
 40
1.0
 40
1.0
 40
1.0
 40
1.0
 10
9.436395537865437
 20
6.870751943671854
 30
0.0
 10
9.43880478835767
 20
6.870947225115154
 30
0.0
 10
9.44362057456312
 20
6.871337567955742
 30
0.0
 10
9.45035078668624
 20
6.870451811042736
 30
0.0
 10
9.455808741638148
 20
6.868656323718626
 30
0.0
 10
9.458604471468274
 20
6.867157910384694
 30
0.0
 10
9.460003058566443
 20
6.866408316652859
 30
0.0
  0
SPLINE
  5
281
330
1F
100
AcDbEntity
  8
0
  6
Continuous
 62
     7
370
    18
100
AcDbSpline
210
0.0
220
0.0
230
1.0
 70
     8
 71
     3
 72
    10
 73
     6
 74
     0
 42
0.000000001
 43
0.00000001
 40
0.0
 40
0.0
 40
0.0
 40
0.0
 40
0.5599169216617819
 40
0.77998949062492
 40
1.0
 40
1.0
 40
1.0
 40
1.0
 10
9.414466276929904
 20
6.862516814379338
 30
0.0
 10
9.418053938727848
 20
6.864497956935169
 30
0.0
 10
9.42305171320126
 20
6.867257777746426
 30
0.0
 10
9.430760735080137
 20
6.869842068306372
 30
0.0
 10
9.434517446858194
 20
6.870448680397746
 30
0.0
 10
9.436395537865437
 20
6.870751943671854
 30
0.0
  0
LINE
  5
282
330
1F
100
AcDbEntity
  8
0
  6
Continuous
 62
     7
370
    18
100
AcDbLine
 10
9.3949565072
 20
6.851254064
 30
0.0
 11
9.4144662769
 21
6.8625168144
 31
0.0
  0
LINE
  5
283
330
1F
100
AcDbEntity
  8
0
  6
Continuous
 62
     7
370
    18
100
AcDbLine
 10
9.4656671853
 20
6.8104336584
 30
0.0
 11
9.3949565072
 21
6.851254064
 31
0.0
  0
LINE
  5
284
330
1F
100
AcDbEntity
  8
0
  6
Continuous
 62
     7
370
    18
100
AcDbLine
 10
9.474617904
 20
6.8156007984
 30
0.0
 11
9.4656671853
 21
6.8104336584
 31
0.0
  0
LINE
  5
285
330
1F
100
AcDbEntity
  8
0
  6
Continuous
 62
     7
370
    18
100
AcDbLine
 10
9.4468706759
 20
6.8316189322
 30
0.0
 11
9.474617904
 21
6.8156007984
 31
0.0
  0
LINE
  5
286
330
1F
100
AcDbEntity
  8
0
  6
Continuous
 62
     7
370
    18
100
AcDbLine
 10
9.4616393618
 20
6.8401447131
 30
0.0
 11
9.4468706759
 21
6.8316189322
 31
0.0
  0
LINE
  5
287
330
1F
100
AcDbEntity
  8
0
  6
Continuous
 62
     7
370
    18
100
AcDbLine
 10
9.5130780236
 20
6.8378033528
 30
0.0
 11
9.4616393618
 21
6.8401447131
 31
0.0
  0
LINE
  5
288
330
1F
100
AcDbEntity
  8
0
  6
Continuous
 62
     7
370
    18
100
AcDbLine
 10
9.5238468571
 20
6.8440200681
 30
0.0
 11
9.5130780236
 21
6.8378033528
 31
0.0
  0
LINE
  5
289
330
1F
100
AcDbEntity
  8
0
  6
Continuous
 62
     7
370
    18
100
AcDbLine
 10
9.4666181991
 20
6.8462806918
 30
0.0
 11
9.5238468571
 21
6.8440200681
 31
0.0
  0
SPLINE
  5
28A
330
1F
100
AcDbEntity
  8
0
  6
Continuous
 62
     7
370
    18
100
AcDbSpline
210
0.0
220
0.0
230
1.0
 70
     8
 71
     3
 72
    11
 73
     7
 74
     0
 42
0.000000001
 43
0.00000001
 40
0.0
 40
0.0
 40
0.0
 40
0.0
 40
0.2800765649969833
 40
0.5593967990984203
 40
0.7796037237126848
 40
1.0
 40
1.0
 40
1.0
 40
1.0
 10
9.460003058566443
 20
6.866408316652859
 30
0.0
 10
9.46235511532189
 20
6.864861102717597
 30
0.0
 10
9.467052877236776
 20
6.861770853010645
 30
0.0
 10
9.469823107183036
 20
6.856135050897885
 30
0.0
 10
9.469461119836085
 20
6.850827416988188
 30
0.0
 10
9.467566110836923
 20
6.847796701033876
 30
0.0
 10
9.46661819914202
 20
6.846280691823212
 30
0.0
  0
LINE
  5
28B
330
1F
100
AcDbEntity
  8
0
  6
Continuous
 62
     7
370
    18
100
AcDbLine
 10
9.3126098947
 20
6.7623792569
 30
0.0
 11
9.3394620509
 21
6.7468778371
 31
0.0
  0
LINE
  5
28C
330
1F
100
AcDbEntity
  8
0
  6
Continuous
 62
     7
370
    18
100
AcDbLine
 10
9.3493078415
 20
6.7835645307
 30
0.0
 11
9.3126098947
 21
6.7623792569
 31
0.0
  0
LINE
  5
28D
330
1F
100
AcDbEntity
  8
0
  6
Continuous
 62
     7
370
    18
100
AcDbLine
 10
9.3412521947
 20
6.7882149567
 30
0.0
 11
9.3493078415
 21
6.7835645307
 31
0.0
  0
LINE
  5
28E
330
1F
100
AcDbEntity
  8
0
  6
Continuous
 62
     7
370
    18
100
AcDbLine
 10
9.3045542478
 20
6.7670296829
 30
0.0
 11
9.3412521947
 21
6.7882149567
 31
0.0
  0
LINE
  5
28F
330
1F
100
AcDbEntity
  8
0
  6
Continuous
 62
     7
370
    18
100
AcDbLine
 10
9.2848626665
 20
6.7783973908
 30
0.0
 11
9.3045542478
 21
6.7670296829
 31
0.0
  0
LINE
  5
290
330
1F
100
AcDbEntity
  8
0
  6
Continuous
 62
     7
370
    18
100
AcDbLine
 10
9.3215606134
 20
6.7995826645
 30
0.0
 11
9.2848626665
 21
6.7783973908
 31
0.0
  0
LINE
  5
291
330
1F
100
AcDbEntity
  8
0
  6
Continuous
 62
     7
370
    18
100
AcDbLine
 10
9.3135049665
 20
6.8042330905
 30
0.0
 11
9.3215606134
 21
6.7995826645
 31
0.0
  0
LINE
  5
292
330
1F
100
AcDbEntity
  8
0
  6
Continuous
 62
     7
370
    18
100
AcDbLine
 10
9.2678563009
 20
6.7778806768
 30
0.0
 11
9.3135049665
 21
6.8042330905
 31
0.0
  0
LINE
  5
293
330
1F
100
AcDbEntity
  8
0
  6
Continuous
 62
     7
370
    18
100
AcDbLine
 10
9.338566979
 20
6.7370602712
 30
0.0
 11
9.2678563009
 21
6.7778806768
 31
0.0
  0
LINE
  5
294
330
1F
100
AcDbEntity
  8
0
  6
Continuous
 62
     7
370
    18
100
AcDbLine
 10
9.3842156447
 20
6.7634126849
 30
0.0
 11
9.338566979
 21
6.7370602712
 31
0.0
  0
LINE
  5
295
330
1F
100
AcDbEntity
  8
0
  6
Continuous
 62
     7
370
    18
100
AcDbLine
 10
9.3761599978
 20
6.7680631109
 30
0.0
 11
9.3842156447
 21
6.7634126849
 31
0.0
  0
LINE
  5
296
330
1F
100
AcDbEntity
  8
0
  6
Continuous
 62
     7
370
    18
100
AcDbLine
 10
9.3394620509
 20
6.7468778371
 30
0.0
 11
9.3761599978
 21
6.7680631109
 31
0.0
  0
SPLINE
  5
297
330
1F
100
AcDbEntity
  8
0
  6
Continuous
 62
     7
370
    18
100
AcDbSpline
210
0.0
220
0.0
230
1.0
 70
     8
 71
     3
 72
    11
 73
     7
 74
     0
 42
0.000000001
 43
0.00000001
 40
0.0
 40
0.0
 40
0.0
 40
0.0
 40
0.2801545988346785
 40
0.5582159285805197
 40
0.7788723627359477
 40
1.0
 40
1.0
 40
1.0
 40
1.0
 10
9.153189202441629
 20
6.691129241220986
 30
0.0
 10
9.154870234601026
 20
6.690281474188576
 30
0.0
 10
9.158219738523982
 20
6.688592274499599
 30
0.0
 10
9.16469472454596
 20
6.688198192864839
 30
0.0
 10
9.17003911047603
 20
6.689326799477903
 30
0.0
 10
9.173032687490302
 20
6.690323540311927
 30
0.0
 10
9.174531072459247
 20
6.69082244228656
 30
0.0
  0
SPLINE
  5
298
330
1F
100
AcDbEntity
  8
0
  6
Continuous
 62
     7
370
    18
100
AcDbSpline
210
0.0
220
0.0
230
1.0
 70
     8
 71
     3
 72
    12
 73
     8
 74
     0
 42
0.000000001
 43
0.00000001
 40
0.0
 40
0.0
 40
0.0
 40
0.0
 40
0.2506534365188004
 40
0.5007672760969905
 40
0.7498327700894417
 40
0.8748826283052257
 40
1.0
 40
1.0
 40
1.0
 40
1.0
 10
9.158615575683331
 20
6.707583352493679
 30
0.0
 10
9.156787919794203
 20
6.706435336023823
 30
0.0
 10
9.153136542522255
 20
6.704141774489184
 30
0.0
 10
9.149577717913846
 20
6.699895495237368
 30
0.0
 10
9.148812663788055
 20
6.695914379137578
 30
0.0
 10
9.150550588153882
 20
6.692909287939143
 30
0.0
 10
9.152309506117328
 20
6.691722696870158
 30
0.0
 10
9.153189202441629
 20
6.691129241220986
 30
0.0
  0
SPLINE
  5
299
330
1F
100
AcDbEntity
  8
0
  6
Continuous
 62
     7
370
    18
100
AcDbSpline
210
0.0
220
0.0
230
1.0
 70
     8
 71
     3
 72
    11
 73
     7
 74
     0
 42
0.000000001
 43
0.00000001
 40
0.0
 40
0.0
 40
0.0
 40
0.0
 40
0.2796705479828445
 40
0.5597317812907786
 40
0.7798817310881709
 40
1.0
 40
1.0
 40
1.0
 40
1.0
 10
9.191103887643306
 20
6.717037603867733
 30
0.0
 10
9.187693050936865
 20
6.716685568553741
 30
0.0
 10
9.180866612761093
 20
6.715981006150586
 30
0.0
 10
9.172128809692458
 20
6.713540147159796
 30
0.0
 10
9.164601656304356
 20
6.710787770581335
 30
0.0
 10
9.160610840166427
 20
6.708651440614115
 30
0.0
 10
9.158615575683331
 20
6.707583352493679
 30
0.0
  0
LINE
  5
29A
330
1F
100
AcDbEntity
  8
0
  6
Continuous
 62
     7
370
    18
100
AcDbLine
 10
9.1917751915
 20
6.7174251394
 30
0.0
 11
9.1911038876
 21
6.7170376039
 31
0.0
  0
LINE
  5
29B
330
1F
100
AcDbEntity
  8
0
  6
Continuous
 62
     7
370
    18
100
AcDbLine
 10
9.1806147641
 20
6.723867917
 30
0.0
 11
9.1917751915
 21
6.7174251394
 31
0.0
  0
SPLINE
  5
29C
330
1F
100
AcDbEntity
  8
0
  6
Continuous
 62
     7
370
    18
100
AcDbSpline
210
0.0
220
0.0
230
1.0
 70
     8
 71
     3
 72
    10
 73
     6
 74
     0
 42
0.000000001
 43
0.00000001
 40
0.0
 40
0.0
 40
0.0
 40
0.0
 40
0.2801302860831996
 40
0.5602009526263659
 40
1.0
 40
1.0
 40
1.0
 40
1.0
 10
9.150643841797327
 20
6.712282220384115
 30
0.0
 10
9.153099254038358
 20
6.713632147617889
 30
0.0
 10
9.158009555940188
 20
6.716331714783263
 30
0.0
 10
9.167892593560506
 20
6.720415702957934
 30
0.0
 10
9.175789939405211
 20
6.722558680684253
 30
0.0
 10
9.180614764109091
 20
6.72386791698682
 30
0.0
  0
SPLINE
  5
29D
330
1F
100
AcDbEntity
  8
0
  6
Continuous
 62
     7
370
    18
100
AcDbSpline
210
0.0
220
0.0
230
1.0
 70
     8
 71
     3
 72
    12
 73
     8
 74
     0
 42
0.000000001
 43
0.00000001
 40
0.0
 40
0.0
 40
0.0
 40
0.0
 40
0.1862804311978547
 40
0.3725754159368307
 40
0.5593777976147164
 40
0.7795316266980072
 40
1.0
 40
1.0
 40
1.0
 40
1.0
 10
9.144266454688525
 20
6.684912525970755
 30
0.0
 10
9.142138306898273
 20
6.686408815420606
 30
0.0
 10
9.137881845051853
 20
6.689401511220993
 30
0.0
 10
9.13625136113283
 20
6.695285825447116
 30
0.0
 10
9.137962963299634
 20
6.701319447116963
 30
0.0
 10
9.142742745947961
 20
6.707250696783239
 30
0.0
 10
9.148008890077737
 20
6.710604247857638
 30
0.0
 10
9.150643841797327
 20
6.712282220384115
 30
0.0
  0
SPLINE
  5
29E
330
1F
100
AcDbEntity
  8
0
  6
Continuous
 62
     7
370
    18
100
AcDbSpline
210
0.0
220
0.0
230
1.0
 70
     8
 71
     3
 72
    12
 73
     8
 74
     0
 42
0.000000001
 43
0.00000001
 40
0.0
 40
0.0
 40
0.0
 40
0.0
 40
0.1871724281248219
 40
0.3741733461020315
 40
0.5607642276756493
 40
0.7800802220986115
 40
1.0
 40
1.0
 40
1.0
 40
1.0
 10
9.182558748337433
 20
6.684347370038916
 30
0.0
 10
9.18031431784065
 20
6.683564204612146
 30
0.0
 10
9.175827513467338
 20
6.681998591390039
 30
0.0
 10
9.16839474956786
 20
6.680422991151858
 30
0.0
 10
9.160027980571337
 20
6.679950338653042
 30
0.0
 10
9.151285367019169
 20
6.681384932738757
 30
0.0
 10
9.146608235229301
 20
6.68373558447365
 30
0.0
 10
9.144266454688525
 20
6.684912525970755
 30
0.0
  0
SPLINE
  5
29F
330
1F
100
AcDbEntity
  8
0
  6
Continuous
 62
     7
370
    18
100
AcDbSpline
210
0.0
220
0.0
230
1.0
 70
     8
 71
     3
 72
     9
 73
     5
 74
     0
 42
0.000000001
 43
0.00000001
 40
0.0
 40
0.0
 40
0.0
 40
0.0
 40
0.5599121862697017
 40
1.0
 40
1.0
 40
1.0
 40
1.0
 10
9.202432141060259
 20
6.692154595554467
 30
0.0
 10
9.198701562376991
 20
6.690715653004339
 30
0.0
 10
9.192038769934268
 20
6.688145709742852
 30
0.0
 10
9.185455823042801
 20
6.685508134681302
 30
0.0
 10
9.182558748337433
 20
6.684347370038916
 30
0.0
  0
SPLINE
  5
2A0
330
1F
100
AcDbEntity
  8
0
  6
Continuous
 62
     7
370
    18
100
AcDbSpline
210
0.0
220
0.0
230
1.0
 70
     8
 71
     3
 72
    11
 73
     7
 74
     0
 42
0.000000001
 43
0.00000001
 40
0.0
 40
0.0
 40
0.0
 40
0.0
 40
0.2803814714128406
 40
0.5578128678778949
 40
0.778825431002352
 40
1.0
 40
1.0
 40
1.0
 40
1.0
 10
9.222375461273312
 20
6.691492555748598
 30
0.0
 10
9.220834069097876
 20
6.692301749962296
 30
0.0
 10
9.2177675027318
 20
6.693911624333593
 30
0.0
 10
9.211769002042427
 20
6.694401934563818
 30
0.0
 10
9.206703726104392
 20
6.693475090593199
 30
0.0
 10
9.203856350476446
 20
6.692594868064264
 30
0.0
 10
9.202432141060259
 20
6.692154595554467
 30
0.0
  0
SPLINE
  5
2A1
330
1F
100
AcDbEntity
  8
0
  6
Continuous
 62
     7
370
    18
100
AcDbSpline
210
0.0
220
0.0
230
1.0
 70
     8
 71
     3
 72
    13
 73
     9
 74
     0
 42
0.000000001
 43
0.00000001
 40
0.0
 40
0.0
 40
0.0
 40
0.0
 40
0.2503386974819485
 40
0.5000274827375607
 40
0.6251568810570992
 40
0.7501835571911913
 40
0.8750423496862452
 40
0.9999999999999999
 40
0.9999999999999999
 40
0.9999999999999999
 40
0.9999999999999999
 10
9.216263798627375
 20
6.67369014389566
 30
0.0
 10
9.218260936624954
 20
6.674932548888255
 30
0.0
 10
9.222250027786858
 20
6.677414133426468
 30
0.0
 10
9.225727348761467
 20
6.681228391902317
 30
0.0
 10
9.226931618229827
 20
6.684558492001059
 30
0.0
 10
9.226773780920805
 20
6.687119881288217
 30
0.0
 10
9.225266517806707
 20
6.689564546447985
 30
0.0
 10
9.223339400985173
 20
6.690849716458453
 30
0.0
 10
9.222375461273312
 20
6.691492555748598
 30
0.0
  0
SPLINE
  5
2A2
330
1F
100
AcDbEntity
  8
0
  6
Continuous
 62
     7
370
    18
100
AcDbSpline
210
0.0
220
0.0
230
1.0
 70
     8
 71
     3
 72
    11
 73
     7
 74
     0
 42
0.000000001
 43
0.00000001
 40
0.0
 40
0.0
 40
0.0
 40
0.0
 40
0.2798893872035134
 40
0.559881931907315
 40
0.7799938016788394
 40
1.0
 40
1.0
 40
1.0
 40
1.0
 10
9.18170563295665
 20
6.664074419398222
 30
0.0
 10
9.185304029914038
 20
6.664433054398543
 30
0.0
 10
9.192502150072865
 20
6.665150456579583
 30
0.0
 10
9.201799660637874
 20
6.667595924487948
 30
0.0
 10
9.20985759468886
 20
6.670378500068707
 30
0.0
 10
9.214128739145561
 20
6.672586439327246
 30
0.0
 10
9.216263798627375
 20
6.67369014389566
 30
0.0
  0
LINE
  5
2A3
330
1F
100
AcDbEntity
  8
0
  6
Continuous
 62
     7
370
    18
100
AcDbLine
 10
9.1810343291
 20
6.6636868839
 30
0.0
 11
9.181705633
 21
6.6640744194
 31
0.0
  0
LINE
  5
2A4
330
1F
100
AcDbEntity
  8
0
  6
Continuous
 62
     7
370
    18
100
AcDbLine
 10
9.1925304084
 20
6.6570503385
 30
0.0
 11
9.1810343291
 21
6.6636868839
 31
0.0
  0
SPLINE
  5
2A5
330
1F
100
AcDbEntity
  8
0
  6
Continuous
 62
     7
370
    18
100
AcDbSpline
210
0.0
220
0.0
230
1.0
 70
     8
 71
     3
 72
    10
 73
     6
 74
     0
 42
0.000000001
 43
0.00000001
 40
0.0
 40
0.0
 40
0.0
 40
0.0
 40
0.2801039227750463
 40
0.5601155854408271
 40
1.0
 40
1.0
 40
1.0
 40
1.0
 10
9.224249518011424
 20
6.668999349661394
 30
0.0
 10
9.2216654466525
 20
6.667583027689846
 30
0.0
 10
9.21649815507127
 20
6.664750850252251
 30
0.0
 10
9.206057467208208
 20
6.660493376842114
 30
0.0
 10
9.197660984761953
 20
6.658356222620768
 30
0.0
 10
9.19253040844396
 20
6.657050338531077
 30
0.0
  0
SPLINE
  5
2A6
330
1F
100
AcDbEntity
  8
0
  6
Continuous
 62
     7
370
    18
100
AcDbSpline
210
0.0
220
0.0
230
1.0
 70
     8
 71
     3
 72
    10
 73
     6
 74
     0
 42
0.000000001
 43
0.00000001
 40
0.0
 40
0.0
 40
0.0
 40
0.0
 40
0.280014993694858
 40
0.5600975172113067
 40
0.9999999999999999
 40
0.9999999999999999
 40
0.9999999999999999
 40
0.9999999999999999
 10
9.23876646498278
 20
6.684936746939262
 30
0.0
 10
9.238237168484961
 20
6.683247389255343
 30
0.0
 10
9.237178447841524
 20
6.679868266473528
 30
0.0
 10
9.232570638425674
 20
6.674265247663243
 30
0.0
 10
9.227405411634066
 20
6.670996510271286
 30
0.0
 10
9.224249518011424
 20
6.668999349661394
 30
0.0
  0
SPLINE
  5
2A7
330
1F
100
AcDbEntity
  8
0
  6
Continuous
 62
     7
370
    18
100
AcDbSpline
210
0.0
220
0.0
230
1.0
 70
     8
 71
     3
 72
    11
 73
     7
 74
     0
 42
0.000000001
 43
0.00000001
 40
0.0
 40
0.0
 40
0.0
 40
0.0
 40
0.2798287272243071
 40
0.5598000052458644
 40
0.7799526828515598
 40
1.0
 40
1.0
 40
1.0
 40
1.0
 10
9.230878644085049
 20
6.697951480683904
 30
0.0
 10
9.232376809354415
 20
6.696937102505583
 30
0.0
 10
9.235373903090895
 20
6.69490782940279
 30
0.0
 10
9.237812431370386
 20
6.691436008319915
 30
0.0
 10
9.239019011269301
 20
6.688072465786057
 30
0.0
 10
9.238850633644738
 20
6.685981819758386
 30
0.0
 10
9.23876646498278
 20
6.684936746939262
 30
0.0
  0
SPLINE
  5
2A8
330
1F
100
AcDbEntity
  8
0
  6
Continuous
 62
     7
370
    18
100
AcDbSpline
210
0.0
220
0.0
230
1.0
 70
     8
 71
     3
 72
    12
 73
     8
 74
     0
 42
0.000000001
 43
0.00000001
 40
0.0
 40
0.0
 40
0.0
 40
0.0
 40
0.187113840518277
 40
0.3740755785833326
 40
0.5606406757662463
 40
0.7798707119720911
 40
0.9999999999999999
 40
0.9999999999999999
 40
0.9999999999999999
 40
0.9999999999999999
 10
9.196460333394779
 20
6.699315928576487
 30
0.0
 10
9.198532172418727
 20
6.699962086822632
 30
0.0
 10
9.202674166295116
 20
6.701253878061131
 30
0.0
 10
9.209458926026269
 20
6.702447942636789
 30
0.0
 10
9.217001648859368
 20
6.702745125997523
 30
0.0
 10
9.224676353131011
 20
6.701161247369774
 30
0.0
 10
9.228808394703226
 20
6.699022861814919
 30
0.0
 10
9.230878644085049
 20
6.697951480683904
 30
0.0
  0
SPLINE
  5
2A9
330
1F
100
AcDbEntity
  8
0
  6
Continuous
 62
     7
370
    18
100
AcDbSpline
210
0.0
220
0.0
230
1.0
 70
     8
 71
     3
 72
     9
 73
     5
 74
     0
 42
0.000000001
 43
0.00000001
 40
0.0
 40
0.0
 40
0.0
 40
0.0
 40
0.5600414057645342
 40
1.0
 40
1.0
 40
1.0
 40
1.0
 10
9.174531072459247
 20
6.69082244228656
 30
0.0
 10
9.17857296323436
 20
6.69245279756966
 30
0.0
 10
9.18579009170649
 20
6.695363931043577
 30
0.0
 10
9.19320019483793
 20
6.698108452690749
 30
0.0
 10
9.196460333394779
 20
6.699315928576487
 30
0.0
  0
SPLINE
  5
2AA
330
1F
100
AcDbEntity
  8
0
  6
Continuous
 62
     7
370
    18
100
AcDbSpline
210
0.0
220
0.0
230
1.0
 70
     8
 71
     3
 72
     9
 73
     5
 74
     0
 42
0.000000001
 43
0.00000001
 40
0.0
 40
0.0
 40
0.0
 40
0.0
 40
0.5600947397899046
 40
1.0
 40
1.0
 40
1.0
 40
1.0
 10
8.766756305528766
 20
7.551189766543073
 30
0.0
 10
8.765033123143288
 20
7.549875877281892
 30
0.0
 10
8.761956532232748
 20
7.547530043322312
 30
0.0
 10
8.758581441839263
 20
7.545325696880642
 30
0.0
 10
8.757096721821485
 20
7.544355993285627
 30
0.0
  0
SPLINE
  5
2AB
330
1F
100
AcDbEntity
  8
0
  6
Continuous
 62
     7
370
    18
100
AcDbSpline
210
0.0
220
0.0
230
1.0
 70
     8
 71
     3
 72
     9
 73
     5
 74
     0
 42
0.000000001
 43
0.00000001
 40
0.0
 40
0.0
 40
0.0
 40
0.0
 40
0.5594095015484273
 40
1.0
 40
1.0
 40
1.0
 40
1.0
 10
8.773243378900812
 20
7.55795975791678
 30
0.0
 10
8.77231077606032
 20
7.556606681841274
 30
0.0
 10
8.77064365593113
 20
7.554187924076589
 30
0.0
 10
8.76794521358645
 20
7.552106723668326
 30
0.0
 10
8.766756305528766
 20
7.551189766543073
 30
0.0
  0
SPLINE
  5
2AC
330
1F
100
AcDbEntity
  8
0
  6
Continuous
 62
     7
370
    18
100
AcDbSpline
210
0.0
220
0.0
230
1.0
 70
     8
 71
     3
 72
    11
 73
     7
 74
     0
 42
0.000000001
 43
0.00000001
 40
0.0
 40
0.0
 40
0.0
 40
0.0
 40
0.2799546052748808
 40
0.5597742619781223
 40
0.779902330205417
 40
1.0
 40
1.0
 40
1.0
 40
1.0
 10
8.76473600043966
 20
7.57497129747898
 30
0.0
 10
8.766719864763001
 20
7.573662267506449
 30
0.0
 10
8.770686637113009
 20
7.571044838562705
 30
0.0
 10
8.773657354415732
 20
7.566447620155232
 30
0.0
 10
8.774563739764282
 20
7.56198384825413
 30
0.0
 10
8.773683478927401
 20
7.559301059611994
 30
0.0
 10
8.773243378900812
 20
7.55795975791678
 30
0.0
  0
SPLINE
  5
2AD
330
1F
100
AcDbEntity
  8
0
  6
Continuous
 62
     7
370
    18
100
AcDbSpline
210
0.0
220
0.0
230
1.0
 70
     8
 71
     3
 72
    11
 73
     7
 74
     0
 42
0.000000001
 43
0.00000001
 40
0.0
 40
0.0
 40
0.0
 40
0.0
 40
0.2805851754914566
 40
0.559655222919096
 40
0.7796225874770012
 40
1.0
 40
1.0
 40
1.0
 40
1.0
 10
8.727881216197014
 20
7.576511174386324
 30
0.0
 10
8.7312022410652
 20
7.57756776085646
 30
0.0
 10
8.73782635764466
 20
7.579675228349858
 30
0.0
 10
8.748650316569062
 20
7.580272286720168
 30
0.0
 10
8.758018999200397
 20
7.578369035305356
 30
0.0
 10
8.762495610490127
 20
7.576104579639606
 30
0.0
 10
8.76473600043966
 20
7.57497129747898
 30
0.0
  0
SPLINE
  5
2AE
330
1F
100
AcDbEntity
  8
0
  6
Continuous
 62
     7
370
    18
100
AcDbSpline
210
0.0
220
0.0
230
1.0
 70
     8
 71
     3
 72
     9
 73
     5
 74
     0
 42
0.000000001
 43
0.00000001
 40
0.0
 40
0.0
 40
0.0
 40
0.0
 40
0.5592293120448232
 40
0.9999999999999999
 40
0.9999999999999999
 40
0.9999999999999999
 40
0.9999999999999999
 10
8.731464101003473
 20
7.584411016271929
 30
0.0
 10
8.731247144509142
 20
7.582866177466408
 30
0.0
 10
8.730859188281423
 20
7.580103734990219
 30
0.0
 10
8.728792258332538
 20
7.577610235758224
 30
0.0
 10
8.727881216197014
 20
7.576511174386324
 30
0.0
  0
SPLINE
  5
2AF
330
1F
100
AcDbEntity
  8
0
  6
Continuous
 62
     7
370
    18
100
AcDbSpline
210
0.0
220
0.0
230
1.0
 70
     8
 71
     3
 72
     9
 73
     5
 74
     0
 42
0.000000001
 43
0.00000001
 40
0.0
 40
0.0
 40
0.0
 40
0.0
 40
0.5593952492117347
 40
1.0
 40
1.0
 40
1.0
 40
1.0
 10
8.724408816825116
 20
7.593586495832259
 30
0.0
 10
8.726572094127015
 20
7.592079277108874
 30
0.0
 10
8.730439265514239
 20
7.589384905418179
 30
0.0
 10
8.731150658065646
 20
7.585932265723962
 30
0.0
 10
8.731464101003473
 20
7.584411016271929
 30
0.0
  0
SPLINE
  5
2B0
330
1F
100
AcDbEntity
  8
0
  6
Continuous
 62
     7
370
    18
100
AcDbSpline
210
0.0
220
0.0
230
1.0
 70
     8
 71
     3
 72
    12
 73
     8
 74
     0
 42
0.000000001
 43
0.00000001
 40
0.0
 40
0.0
 40
0.0
 40
0.0
 40
0.187280687524343
 40
0.3743269463808153
 40
0.5610358217708553
 40
0.7805269148285741
 40
1.0
 40
1.0
 40
1.0
 40
1.0
 10
8.682519053493216
 20
7.591108114064226
 30
0.0
 10
8.68468011970515
 20
7.592266204996022
 30
0.0
 10
8.688999547013616
 20
7.594580937218879
 30
0.0
 10
8.696812550045781
 20
7.597105324211292
 30
0.0
 10
8.706042372399292
 20
7.598219510048108
 30
0.0
 10
8.716226471241187
 20
7.597396594367796
 30
0.0
 10
8.721681442891313
 20
7.594856493942759
 30
0.0
 10
8.724408816825116
 20
7.593586495832259
 30
0.0
  0
LINE
  5
2B1
330
1F
100
AcDbEntity
  8
0
  6
Continuous
 62
     7
370
    18
100
AcDbLine
 10
8.6379302888
 20
7.5653675681
 30
0.0
 11
8.6825190535
 21
7.5911081141
 31
0.0
  0
LINE
  5
2B2
330
1F
100
AcDbEntity
  8
0
  6
Continuous
 62
     7
370
    18
100
AcDbLine
 10
8.7157120348
 20
7.520465122
 30
0.0
 11
8.6379302888
 21
7.5653675681
 31
0.0
  0
LINE
  5
2B3
330
1F
100
AcDbEntity
  8
0
  6
Continuous
 62
     7
370
    18
100
AcDbLine
 10
8.7570967218
 20
7.5443559933
 30
0.0
 11
8.7157120348
 21
7.520465122
 31
0.0
  0
LINE
  5
2B4
330
1F
100
AcDbEntity
  8
0
  6
Continuous
 62
     7
370
    18
100
AcDbLine
 10
8.6005546447
 20
7.4761458245
 30
0.0
 11
8.619747543
 21
7.4650660001
 31
0.0
  0
LINE
  5
2B5
330
1F
100
AcDbEntity
  8
0
  6
Continuous
 62
     7
370
    18
100
AcDbLine
 10
8.5631790005
 20
7.4545693244
 30
0.0
 11
8.6005546447
 21
7.4761458245
 31
0.0
  0
LINE
  5
2B6
330
1F
100
AcDbEntity
  8
0
  6
Continuous
 62
     7
370
    18
100
AcDbLine
 10
8.504590153
 20
7.4883919462
 30
0.0
 11
8.5631790005
 21
7.4545693244
 31
0.0
  0
LINE
  5
2B7
330
1F
100
AcDbEntity
  8
0
  6
Continuous
 62
     7
370
    18
100
AcDbLine
 10
8.4803464919
 20
7.4743963785
 30
0.0
 11
8.504590153
 21
7.4883919462
 31
0.0
  0
LINE
  5
2B8
330
1F
100
AcDbEntity
  8
0
  6
Continuous
 62
     7
370
    18
100
AcDbLine
 10
8.5581282378
 20
7.4294939324
 30
0.0
 11
8.4803464919
 21
7.4743963785
 31
0.0
  0
LINE
  5
2B9
330
1F
100
AcDbEntity
  8
0
  6
Continuous
 62
     7
370
    18
100
AcDbLine
 10
8.619747543
 20
7.4650660001
 30
0.0
 11
8.5581282378
 21
7.4294939324
 31
0.0
  0
SPLINE
  5
2BA
330
1F
100
AcDbEntity
  8
0
  6
Continuous
 62
     7
370
    18
100
AcDbSpline
210
0.0
220
0.0
230
1.0
 70
     8
 71
     3
 72
    14
 73
    10
 74
     0
 42
0.000000001
 43
0.00000001
 40
0.0
 40
0.0
 40
0.0
 40
0.0
 40
0.1401676759034222
 40
0.280247268605316
 40
0.4201820662032592
 40
0.560054084658658
 40
0.706555392891531
 40
0.8532074415707186
 40
1.0
 40
1.0
 40
1.0
 40
1.0
 10
8.340819171664922
 20
7.395015268366273
 30
0.0
 10
8.343923657207839
 20
7.396685479261071
 30
0.0
 10
8.350130677394336
 20
7.400024851468289
 30
0.0
 10
8.361046383305982
 20
7.403887730118702
 30
0.0
 10
8.373193959240574
 20
7.406261956201297
 30
0.0
 10
8.38625417566325
 20
7.406588347373429
 30
0.0
 10
8.39910524767741
 20
7.404711197472709
 30
0.0
 10
8.410853045176914
 20
7.400928727145081
 30
0.0
 10
8.41739568651383
 20
7.397454709593243
 30
0.0
 10
8.420668573585074
 20
7.39571686908737
 30
0.0
  0
SPLINE
  5
2BB
330
1F
100
AcDbEntity
  8
0
  6
Continuous
 62
     7
370
    18
100
AcDbSpline
210
0.0
220
0.0
230
1.0
 70
     8
 71
     3
 72
    14
 73
    10
 74
     0
 42
0.000000001
 43
0.00000001
 40
0.0
 40
0.0
 40
0.0
 40
0.0
 40
0.140150367089296
 40
0.2801986195270204
 40
0.420127136920002
 40
0.5600096466374651
 40
0.706536049131892
 40
0.8532073062149846
 40
1.0
 40
1.0
 40
1.0
 40
1.0
 10
8.34048771536124
 20
7.348700509076152
 30
0.0
 10
8.33759635324084
 20
7.350504311547171
 30
0.0
 10
8.33181573566905
 20
7.354110602224647
 30
0.0
 10
8.325307716554308
 20
7.360515289260089
 30
0.0
 10
8.321634839447684
 20
7.367636043524657
 30
0.0
 10
8.32148556103793
 20
7.375199378970786
 30
0.0
 10
8.325043686447499
 20
7.382589533623555
 30
0.0
 10
8.331749434463992
 20
7.389340300813882
 30
0.0
 10
8.337795092024521
 20
7.393123090736986
 30
0.0
 10
8.340819171664922
 20
7.395015268366273
 30
0.0
  0
SPLINE
  5
2BC
330
1F
100
AcDbEntity
  8
0
  6
Continuous
 62
     7
370
    18
100
AcDbSpline
210
0.0
220
0.0
230
1.0
 70
     8
 71
     3
 72
    14
 73
    10
 74
     0
 42
0.000000001
 43
0.00000001
 40
0.0
 40
0.0
 40
0.0
 40
0.0
 40
0.1401913093483698
 40
0.2802821850108054
 40
0.4201309685076051
 40
0.5599913608076643
 40
0.7065517312449432
 40
0.8531968023487073
 40
1.0
 40
1.0
 40
1.0
 40
1.0
 10
8.421568240695064
 20
7.349493226774016
 30
0.0
 10
8.41842170199515
 20
7.347787421847809
 30
0.0
 10
8.412130878789831
 20
7.344377034041732
 30
0.0
 10
8.401175434638482
 20
7.340319597596347
 30
0.0
 10
8.388802136882326
 20
7.337858682281249
 30
0.0
 10
8.375512199106787
 20
7.337704824092151
 30
0.0
 10
8.362429968022452
 20
7.339540205422661
 30
0.0
 10
8.350456522463306
 20
7.343388114966324
 30
0.0
 10
8.343811844571524
 20
7.346929075016267
 30
0.0
 10
8.34048771536124
 20
7.348700509076152
 30
0.0
  0
SPLINE
  5
2BD
330
1F
100
AcDbEntity
  8
0
  6
Continuous
 62
     7
370
    18
100
AcDbSpline
210
0.0
220
0.0
230
1.0
 70
     8
 71
     3
 72
    14
 73
    10
 74
     0
 42
0.000000001
 43
0.00000001
 40
0.0
 40
0.0
 40
0.0
 40
0.0
 40
0.1401968668162475
 40
0.2802697260561927
 40
0.4201506059410508
 40
0.5600005133252286
 40
0.706520423751997
 40
0.8531714798354088
 40
1.0
 40
1.0
 40
1.0
 40
1.0
 10
8.420668573585074
 20
7.39571686908737
 30
0.0
 10
8.423582789513956
 20
7.393921458566571
 30
0.0
 10
8.429408643676073
 20
7.390332225609725
 30
0.0
 10
8.436253688014432
 20
7.38404234551903
 30
0.0
 10
8.440259689270162
 20
7.376964015414362
 30
0.0
 10
8.440664175949752
 20
7.369393746103665
 30
0.0
 10
8.437346284241249
 20
7.361950624978156
 30
0.0
 10
8.430672466802537
 20
7.355166255893297
 30
0.0
 10
8.424604205869212
 20
7.351384998642899
 30
0.0
 10
8.421568240695064
 20
7.349493226774016
 30
0.0
  0
LINE
  5
2BE
330
1F
100
AcDbEntity
  8
0
  6
Continuous
 62
     7
370
    18
100
AcDbLine
 10
8.2318489659
 20
7.241136918
 30
0.0
 11
8.1722499658
 21
7.2755426884
 31
0.0
  0
LINE
  5
2BF
330
1F
100
AcDbEntity
  8
0
  6
Continuous
 62
     7
370
    18
100
AcDbLine
 10
8.256092627
 20
7.2551324856
 30
0.0
 11
8.2318489659
 21
7.241136918
 31
0.0
  0
LINE
  5
2C0
330
1F
100
AcDbEntity
  8
0
  6
Continuous
 62
     7
370
    18
100
AcDbLine
 10
8.1964936269
 20
7.2895382561
 30
0.0
 11
8.256092627
 21
7.2551324856
 31
0.0
  0
LINE
  5
2C1
330
1F
100
AcDbEntity
  8
0
  6
Continuous
 62
     7
370
    18
100
AcDbLine
 10
8.2207372879
 20
7.3035338237
 30
0.0
 11
8.1964936269
 21
7.2895382561
 31
0.0
  0
LINE
  5
2C2
330
1F
100
AcDbEntity
  8
0
  6
Continuous
 62
     7
370
    18
100
AcDbLine
 10
8.2025545421
 20
7.3140304994
 30
0.0
 11
8.2207372879
 21
7.3035338237
 31
0.0
  0
LINE
  5
2C3
330
1F
100
AcDbEntity
  8
0
  6
Continuous
 62
     7
370
    18
100
AcDbLine
 10
8.1298235589
 20
7.2720437965
 30
0.0
 11
8.2025545421
 21
7.3140304994
 31
0.0
  0
LINE
  5
2C4
330
1F
100
AcDbEntity
  8
0
  6
Continuous
 62
     7
370
    18
100
AcDbLine
 10
8.1480063047
 20
7.2615471208
 30
0.0
 11
8.1298235589
 21
7.2720437965
 31
0.0
  0
LINE
  5
2C5
330
1F
100
AcDbEntity
  8
0
  6
Continuous
 62
     7
370
    18
100
AcDbLine
 10
8.1722499658
 20
7.2755426884
 30
0.0
 11
8.1480063047
 21
7.2615471208
 31
0.0
  0
LWPOLYLINE
  5
2C6
330
1F
100
AcDbEntity
  8
0
  6
Continuous
 62
     7
370
    18
100
AcDbPolyline
 90
      118
 70
   128
 43
0.0
 10
8.6758110093
 20
6.9667654776
 10
8.6952982567
 20
6.9561042081
 10
8.7157487032
 20
6.9460621568
 10
8.737103385
 20
6.9366682775
 10
8.759300731
 20
6.9279496552
 10
8.7822767405
 20
6.919931428
 10
8.8059651676
 20
6.9126367144
 10
8.8302977125
 20
6.9060865471
 10
8.8552042183
 20
6.9002998118
 10
8.8806128729
 20
6.8952931932
 10
8.9064504167
 20
6.8910811267
 10
8.9326423533
 20
6.8876757567
 10
8.9591131647
 20
6.8850869019
 10
8.9857865285
 20
6.8833220265
 10
9.0125855386
 20
6.8823862192
 10
9.0394329265
 20
6.8822821781
 10
9.0662512842
 20
6.8830102032
 10
9.0929632875
 20
6.8845681954
 10
9.1194919188
 20
6.8869516627
 10
9.145760689
 20
6.8901537328
 10
9.1716938587
 20
6.8941651734
 10
9.1972166556
 20
6.8989744185
 10
9.2222554911
 20
6.9045676017
 10
9.2467381716
 20
6.9109285965
 10
9.2705941072
 20
6.9180390625
 10
9.2937545152
 20
6.9258784982
 10
9.316152618
 20
6.9344243008
 10
9.3377238362
 20
6.9436518303
 10
9.3584059742
 20
6.9535344814
 10
9.3781394002
 20
6.9640437598
 10
9.3968672176
 20
6.9751493647
 10
9.4145354293
 20
6.9868192757
 10
9.4310930931
 20
6.9990198453
 10
9.4464924692
 20
7.0117158962
 10
9.460689157
 20
7.0248708224
 10
9.4736422239
 20
7.0384466949
 10
9.4853143228
 20
7.0524043708
 10
9.4956718001
 20
7.0667036066
 10
9.5046847924
 20
7.0813031739
 10
9.512327313
 20
7.0961609783
 10
9.5185773265
 20
7.111234181
 10
9.5234168124
 20
7.126479322
 10
9.5268318174
 20
7.1418524457
 10
9.528812495
 20
7.1573092272
 10
9.5293531345
 20
7.1728051008
 10
9.528452177
 20
7.1882953878
 10
9.5261122202
 20
7.2037354257
 10
9.5223400109
 20
7.2190806969
 10
9.5171464253
 20
7.234286957
 10
9.5105464378
 20
7.2493103624
 10
9.5025590779
 20
7.2641075967
 10
9.4932073753
 20
7.2786359957
 10
9.4825182934
 20
7.2928536702
 10
9.4705226514
 20
7.3067196271
 10
9.457255036
 20
7.3201938871
 10
9.4427537011
 20
7.3332376005
 10
9.4270604579
 20
7.3458131589
 10
9.4102205539
 20
7.3578843036
 10
9.3922825431
 20
7.3694162306
 10
9.3732981453
 20
7.3803756901
 10
9.3533220975
 20
7.3907310833
 10
9.3324119958
 20
7.400452553
 10
9.3106281295
 20
7.4095120695
 10
9.2880333069
 20
7.4178835119
 10
9.264692675
 20
7.4255427432
 10
9.2406735307
 20
7.4324676799
 10
9.2160451275
 20
7.4386383556
 10
9.1908784754
 20
7.4440369786
 10
9.1652461365
 20
7.4486479833
 10
9.1392220153
 20
7.452458075
 10
9.1128811462
 20
7.4554562681
 10
9.0862994766
 20
7.4576339182
 10
9.0595536486
 20
7.4589847465
 10
9.032720777
 20
7.4595048582
 10
9.0058782282
 20
7.4591927537
 10
8.9791033961
 20
7.4580493328
 10
8.9524734795
 20
7.4560778924
 10
8.9260652593
 20
7.4532841167
 10
8.8999548773
 20
7.4496760607
 10
8.8742176164
 20
7.4452641275
 10
8.8489276839
 20
7.4400610377
 10
8.8241579971
 20
7.4340817934
 10
8.7999799735
 20
7.4273436341
 10
8.7764633246
 20
7.4198659878
 10
8.753675855
 20
7.4116704143
 10
8.7316832668
 20
7.4027805438
 10
8.7105489704
 20
7.3932220079
 10
8.6903339013
 20
7.3830223664
 10
8.671096345
 20
7.3722110275
 10
8.6528917683
 20
7.3608191632
 10
8.6357726595
 20
7.348879619
 10
8.6197883777
 20
7.3364268198
 10
8.6049850096
 20
7.3234966703
 10
8.5914052371
 20
7.3101264514
 10
8.5790882142
 20
7.2963547129
 10
8.5680694542
 20
7.2822211623
 10
8.5583807268
 20
7.2677665502
 10
8.5500499674
 20
7.2530325532
 10
8.5431011955
 20
7.238061653
 10
8.5375544464
 20
7.2228970147
 10
8.5334257126
 20
7.2075823619
 10
8.5307268985
 20
7.1921618506
 10
8.5294657854
 20
7.1766799422
 10
8.5296460093
 20
7.1611812751
 10
8.5312670508
 20
7.1457105359
 10
8.5343242359
 20
7.1303123307
 10
8.5388087499
 20
7.1150310566
 10
8.5447076628
 20
7.0999107734
 10
8.5520039666
 20
7.0849950769
 10
8.5606766241
 20
7.0703269728
 10
8.5707006297
 20
7.0559487531
 10
8.5820470818
 20
7.0419018739
 10
8.5946832655
 20
7.028226836
 10
8.6085727474
 20
7.014963068
 10
8.6236754806
 20
7.002148813
 10
8.6399479199
 20
6.9898210175
 10
8.6573431478
 20
6.978015226
 10
8.6758110093
 20
6.9667654776
  0
LWPOLYLINE
  5
2C7
330
1F
100
AcDbEntity
  8
0
  6
Continuous
 62
     7
370
    18
100
AcDbPolyline
 90
       60
 70
   128
 43
0.0
 10
9.1732606298
 20
7.8662431148
 10
9.1833543899
 20
7.8610058133
 10
9.1943552884
 20
7.8564175547
 10
9.2061386809
 20
7.8525303258
 10
9.2185710567
 20
7.8493881704
 10
9.231511552
 20
7.8470266905
 10
9.2448135459
 20
7.8454726425
 10
9.2583263215
 20
7.8447436344
 10
9.2718967736
 20
7.8448479262
 10
9.2853711436
 20
7.8457843362
 10
9.2985967615
 20
7.8475422545
 10
9.3114237758
 20
7.8501017632
 10
9.3237068511
 20
7.8534338621
 10
9.3353068155
 20
7.857500797
 10
9.3460922367
 20
7.8622564881
 10
9.3559409115
 20
7.8676470514
 10
9.3647412505
 20
7.8736114097
 10
9.3723935424
 20
7.8800819845
 10
9.3788110836
 20
7.8869854615
 10
9.3839211608
 20
7.8942436217
 10
9.3876658748
 20
7.901774227
 10
9.3900027966
 20
7.9094919528
 10
9.3909054478
 20
7.9173093542
 10
9.390363601
 20
7.9251378569
 10
9.3883833957
 20
7.9328887607
 10
9.3849872682
 20
7.940474245
 10
9.3802136981
 20
7.947808363
 10
9.3741167719
 20
7.9548080164
 10
9.3667655701
 20
7.9613938962
 10
9.3582433849
 20
7.9674913818
 10
9.3486467759
 20
7.9730313862
 10
9.3380844766
 20
7.977951139
 10
9.326676162
 20
7.9821948975
 10
9.314551093
 20
7.9857145781
 10
9.3018466514
 20
7.9884703014
 10
9.2887067836
 20
7.9904308441
 10
9.2752803695
 20
7.9915739923
 10
9.2617195358
 20
7.9918867938
 10
9.2481779322
 20
7.9913657043
 10
9.2348089904
 20
7.9900166281
 10
9.2217641858
 20
7.9878548507
 10
9.2091913215
 20
7.9849048659
 10
9.1972328528
 20
7.9812000982
 10
9.186024274
 20
7.9767825242
 10
9.1756925829
 20
7.9717021966
 10
9.1663548416
 20
7.9660166777
 10
9.1581168504
 20
7.9597903866
 10
9.1510719491
 20
7.9530938697
 10
9.1452999592
 20
7.9460030012
 10
9.1408662797
 20
7.9385981235
 10
9.1378211459
 20
7.9309631368
 10
9.1361990605
 20
7.9231845486
 10
9.1360184022
 20
7.9153504933
 10
9.1372812181
 20
7.907549734
 10
9.1399731998
 20
7.8998706564
 10
9.1440638463
 20
7.8924002674
 10
9.1495068088
 20
7.8852232096
 10
9.1562404164
 20
7.878420802
 10
9.1641883745
 20
7.8720701184
 10
9.1732606298
 20
7.8662431148
  0
LWPOLYLINE
  5
2C8
330
1F
100
AcDbEntity
  8
0
  6
Continuous
 62
     7
370
    18
100
AcDbPolyline
 90
       60
 70
   128
 43
0.0
 10
10.2339208016
 20
7.2539370309
 10
10.2440145617
 20
7.2486997294
 10
10.2550154602
 20
7.2441114708
 10
10.2667988526
 20
7.2402242419
 10
10.2792312284
 20
7.2370820865
 10
10.2921717238
 20
7.2347206066
 10
10.3054737177
 20
7.2331665586
 10
10.3189864933
 20
7.2324375505
 10
10.3325569454
 20
7.2325418423
 10
10.3460313154
 20
7.2334782523
 10
10.3592569333
 20
7.2352361707
 10
10.3720839475
 20
7.2377956794
 10
10.3843670229
 20
7.2411277782
 10
10.3959669873
 20
7.2451947131
 10
10.4067524085
 20
7.2499504042
 10
10.4166010833
 20
7.2553409675
 10
10.4254014223
 20
7.2613053259
 10
10.4330537141
 20
7.2677759007
 10
10.4394712553
 20
7.2746793777
 10
10.4445813326
 20
7.2819375378
 10
10.4483260466
 20
7.2894681431
 10
10.4506629684
 20
7.297185869
 10
10.4515656196
 20
7.3050032703
 10
10.4510237728
 20
7.312831773
 10
10.4490435674
 20
7.3205826769
 10
10.44564744
 20
7.3281681611
 10
10.4408738699
 20
7.3355022791
 10
10.4347769437
 20
7.3425019325
 10
10.4274257419
 20
7.3490878123
 10
10.4189035566
 20
7.3551852979
 10
10.4093069477
 20
7.3607253023
 10
10.3987446484
 20
7.3656450552
 10
10.3873363338
 20
7.3698888136
 10
10.3752112648
 20
7.3734084942
 10
10.3625068232
 20
7.3761642176
 10
10.3493669553
 20
7.3781247602
 10
10.3359405413
 20
7.3792679084
 10
10.3223797076
 20
7.3795807099
 10
10.3088381039
 20
7.3790596205
 10
10.2954691621
 20
7.3777105443
 10
10.2824243576
 20
7.3755487669
 10
10.2698514932
 20
7.3725987821
 10
10.2578930246
 20
7.3688940144
 10
10.2466844458
 20
7.3644764403
 10
10.2363527547
 20
7.3593961127
 10
10.2270150134
 20
7.3537105938
 10
10.2187770222
 20
7.3474843027
 10
10.2117321209
 20
7.3407877858
 10
10.205960131
 20
7.3336969173
 10
10.2015264515
 20
7.3262920396
 10
10.1984813177
 20
7.3186570529
 10
10.1968592323
 20
7.3108784647
 10
10.196678574
 20
7.3030444094
 10
10.1979413899
 20
7.2952436501
 10
10.2006333716
 20
7.2875645725
 10
10.2047240181
 20
7.2800941835
 10
10.2101669806
 20
7.2729171258
 10
10.2169005881
 20
7.2661147181
 10
10.2248485463
 20
7.2597640346
 10
10.2339208016
 20
7.2539370309
  0
LINE
  5
2C9
330
1F
100
AcDbEntity
  8
0
  6
Continuous
 62
     7
370
    18
100
AcDbLine
 10
9.1707857561
 20
6.4769206105
 30
0.0
 11
10.5849993185
 21
7.2933287223
 31
0.0
  0
LINE
  5
2CA
330
1F
100
AcDbEntity
  8
0
  6
Continuous
 62
     7
370
    18
100
AcDbLine
 10
9.1707857561
 20
6.4769206105
 30
0.0
 11
7.8272828718
 21
7.2525083167
 31
0.0
  0
LINE
  5
2CB
330
1F
100
AcDbEntity
  8
0
  6
Continuous
 62
     7
370
    18
100
AcDbLine
 10
7.8272828718
 20
7.2525083167
 30
0.0
 11
9.2414964342
 21
8.0689164285
 31
0.0
  0
LINE
  5
2CC
330
1F
100
AcDbEntity
  8
0
  6
Continuous
 62
     7
370
    18
100
AcDbLine
 10
10.5849993185
 20
7.2933287223
 30
0.0
 11
9.2414964342
 21
8.0689164285
 31
0.0
  0
LINE
  5
2CD
330
1F
100
AcDbEntity
  8
0
  6
Continuous
 62
     7
370
    18
100
AcDbLine
 10
8.2843768982
 20
7.3076158643
 30
0.0
 11
8.3156916271
 21
7.2895382561
 31
0.0
  0
LINE
  5
2CE
330
1F
100
AcDbEntity
  8
0
  6
Continuous
 62
     7
370
    18
100
AcDbLine
 10
8.3106408644
 20
7.3227777292
 30
0.0
 11
8.2843768982
 21
7.3076158643
 31
0.0
  0
LINE
  5
2CF
330
1F
100
AcDbEntity
  8
0
  6
Continuous
 62
     7
370
    18
100
AcDbLine
 10
8.3419555933
 20
7.304700121
 30
0.0
 11
8.3106408644
 21
7.3227777292
 31
0.0
  0
LINE
  5
2D0
330
1F
100
AcDbEntity
  8
0
  6
Continuous
 62
     7
370
    18
100
AcDbLine
 10
8.3661992543
 20
7.3186956886
 30
0.0
 11
8.3419555933
 21
7.304700121
 31
0.0
  0
LINE
  5
2D1
330
1F
100
AcDbEntity
  8
0
  6
Continuous
 62
     7
370
    18
100
AcDbLine
 10
8.2884175084
 20
7.3635981348
 30
0.0
 11
8.3661992543
 21
7.3186956886
 31
0.0
  0
LINE
  5
2D2
330
1F
100
AcDbEntity
  8
0
  6
Continuous
 62
     7
370
    18
100
AcDbLine
 10
8.2641738473
 20
7.3496025671
 30
0.0
 11
8.2884175084
 21
7.3635981348
 31
0.0
  0
LINE
  5
2D3
330
1F
100
AcDbEntity
  8
0
  6
Continuous
 62
     7
370
    18
100
AcDbLine
 10
8.291447966
 20
7.3338575536
 30
0.0
 11
8.2641738473
 21
7.3496025671
 31
0.0
  0
LINE
  5
2D4
330
1F
100
AcDbEntity
  8
0
  6
Continuous
 62
     7
370
    18
100
AcDbLine
 10
8.2651839999
 20
7.3186956886
 30
0.0
 11
8.291447966
 21
7.3338575536
 31
0.0
  0
LINE
  5
2D5
330
1F
100
AcDbEntity
  8
0
  6
Continuous
 62
     7
370
    18
100
AcDbLine
 10
8.2379098812
 20
7.3344407022
 30
0.0
 11
8.2651839999
 21
7.3186956886
 31
0.0
  0
LINE
  5
2D6
330
1F
100
AcDbEntity
  8
0
  6
Continuous
 62
     7
370
    18
100
AcDbLine
 10
8.2136662201
 20
7.3204451346
 30
0.0
 11
8.2379098812
 21
7.3344407022
 31
0.0
  0
LINE
  5
2D7
330
1F
100
AcDbEntity
  8
0
  6
Continuous
 62
     7
370
    18
100
AcDbLine
 10
8.291447966
 20
7.2755426884
 30
0.0
 11
8.2136662201
 21
7.3204451346
 31
0.0
  0
LINE
  5
2D8
330
1F
100
AcDbEntity
  8
0
  6
Continuous
 62
     7
370
    18
100
AcDbLine
 10
8.3156916271
 20
7.2895382561
 30
0.0
 11
8.291447966
 21
7.2755426884
 31
0.0
  0
LINE
  5
2D9
330
1F
100
AcDbEntity
  8
0
  6
Continuous
 62
     7
370
    18
100
AcDbLine
 10
8.4683351468
 20
7.4138127007
 30
0.0
 11
8.4662043563
 21
7.4125826215
 31
0.0
  0
SPLINE
  5
2DA
330
1F
100
AcDbEntity
  8
0
  6
Continuous
 62
     7
370
    18
100
AcDbSpline
210
0.0
220
0.0
230
1.0
 70
     8
 71
     3
 72
     9
 73
     5
 74
     0
 42
0.000000001
 43
0.00000001
 40
0.0
 40
0.0
 40
0.0
 40
0.0
 40
0.5595454497439576
 40
1.0
 40
1.0
 40
1.0
 40
1.0
 10
8.476021776299831
 20
7.416190853766675
 30
0.0
 10
8.47440977183165
 20
7.415931110645806
 30
0.0
 10
8.471528853992147
 20
7.41546690685148
 30
0.0
 10
8.469311701628367
 20
7.414318515062164
 30
0.0
 10
8.46833514678113
 20
7.413812700673084
 30
0.0
  0
SPLINE
  5
2DB
330
1F
100
AcDbEntity
  8
0
  6
Continuous
 62
     7
370
    18
100
AcDbSpline
210
0.0
220
0.0
230
1.0
 70
     8
 71
     3
 72
     9
 73
     5
 74
     0
 42
0.000000001
 43
0.00000001
 40
0.0
 40
0.0
 40
0.0
 40
0.0
 40
0.5607004648622407
 40
1.0
 40
1.0
 40
1.0
 40
1.0
 10
8.486328488980966
 20
7.415270572301338
 30
0.0
 10
8.484440620787877
 20
7.415598236780907
 30
0.0
 10
8.481073639108002
 20
7.416182620957667
 30
0.0
 10
8.477563693690222
 20
7.416188340968551
 30
0.0
 10
8.476021776299831
 20
7.416190853766675
 30
0.0
  0
LINE
  5
2DC
330
1F
100
AcDbEntity
  8
0
  6
Continuous
 62
     7
370
    18
100
AcDbLine
 10
8.5226939806
 20
7.4090381711
 30
0.0
 11
8.486328489
 21
7.4152705723
 31
0.0
  0
LINE
  5
2DD
330
1F
100
AcDbEntity
  8
0
  6
Continuous
 62
     7
370
    18
100
AcDbLine
 10
8.5500470175
 20
7.4248287432
 30
0.0
 11
8.5226939806
 21
7.4090381711
 31
0.0
  0
LINE
  5
2DE
330
1F
100
AcDbEntity
  8
0
  6
Continuous
 62
     7
370
    18
100
AcDbLine
 10
8.5158596673
 20
7.4306966765
 30
0.0
 11
8.5500470175
 21
7.4248287432
 31
0.0
  0
SPLINE
  5
2DF
330
1F
100
AcDbEntity
  8
0
  6
Continuous
 62
     7
370
    18
100
AcDbSpline
210
0.0
220
0.0
230
1.0
 70
     8
 71
     3
 72
     9
 73
     5
 74
     0
 42
0.000000001
 43
0.00000001
 40
0.0
 40
0.0
 40
0.0
 40
0.0
 40
0.5597522619867087
 40
1.0
 40
1.0
 40
1.0
 40
1.0
 10
8.499649875662248
 20
7.431799191886678
 30
0.0
 10
8.502714853894094
 20
7.431777925351993
 30
0.0
 10
8.508190451654016
 20
7.431739932589607
 30
0.0
 10
8.513515379733523
 20
7.431015573790588
 30
0.0
 10
8.51585966727561
 20
7.43069667646781
 30
0.0
  0
SPLINE
  5
2E0
330
1F
100
AcDbEntity
  8
0
  6
Continuous
 62
     7
370
    18
100
AcDbSpline
210
0.0
220
0.0
230
1.0
 70
     8
 71
     3
 72
     9
 73
     5
 74
     0
 42
0.000000001
 43
0.00000001
 40
0.0
 40
0.0
 40
0.0
 40
0.0
 40
0.560169640892262
 40
1.0
 40
1.0
 40
1.0
 40
1.0
 10
8.49052693549426
 20
7.429903958769947
 30
0.0
 10
8.492166077220524
 20
7.430364017378574
 30
0.0
 10
8.495092229597601
 20
7.431185301816437
 30
0.0
 10
8.498257634491182
 20
7.431611664593384
 30
0.0
 10
8.499649875662248
 20
7.431799191886678
 30
0.0
  0
SPLINE
  5
2E1
330
1F
100
AcDbEntity
  8
0
  6
Continuous
 62
     7
370
    18
100
AcDbSpline
210
0.0
220
0.0
230
1.0
 70
     8
 71
     3
 72
     9
 73
     5
 74
     0
 42
0.000000001
 43
0.00000001
 40
0.0
 40
0.0
 40
0.0
 40
0.0
 40
0.5596449196502418
 40
1.0
 40
1.0
 40
1.0
 40
1.0
 10
8.496098558122807
 20
7.436692173539008
 30
0.0
 10
8.495286080933667
 20
7.435362393482404
 30
0.0
 10
8.493834308281734
 20
7.432986279611069
 30
0.0
 10
8.491538087834016
 20
7.430846306709127
 30
0.0
 10
8.49052693549426
 20
7.429903958769947
 30
0.0
  0
SPLINE
  5
2E2
330
1F
100
AcDbEntity
  8
0
  6
Continuous
 62
     7
370
    18
100
AcDbSpline
210
0.0
220
0.0
230
1.0
 70
     8
 71
     3
 72
    11
 73
     7
 74
     0
 42
0.000000001
 43
0.00000001
 40
0.0
 40
0.0
 40
0.0
 40
0.0
 40
0.2800118945603555
 40
0.5596299346707253
 40
0.7798011822510873
 40
1.0
 40
1.0
 40
1.0
 40
1.0
 10
8.487891068698321
 20
7.453712824798884
 30
0.0
 10
8.489889159792716
 20
7.452410140845361
 30
0.0
 10
8.493882531539935
 20
7.449806605245736
 30
0.0
 10
8.496826701740805
 20
7.445185690158564
 30
0.0
 10
8.497461449348037
 20
7.440708560685226
 30
0.0
 10
8.496552874158883
 20
7.438031025131742
 30
0.0
 10
8.496098558122807
 20
7.436692173539008
 30
0.0
  0
SPLINE
  5
2E3
330
1F
100
AcDbEntity
  8
0
  6
Continuous
 62
     7
370
    18
100
AcDbSpline
210
0.0
220
0.0
230
1.0
 70
     8
 71
     3
 72
    14
 73
    10
 74
     0
 42
0.000000001
 43
0.00000001
 40
0.0
 40
0.0
 40
0.0
 40
0.0
 40
0.1669984493988577
 40
0.3339061467909923
 40
0.5001722084098981
 40
0.6250159338038273
 40
0.7499346931766496
 40
0.8749185222881872
 40
1.0
 40
1.0
 40
1.0
 40
1.0
 10
8.435852429020372
 20
7.448710502774434
 30
0.0
 10
8.438271592905041
 20
7.45006255888638
 30
0.0
 10
8.443108606027577
 20
7.452765936362101
 30
0.0
 10
8.451000485672955
 20
7.456391397007305
 30
0.0
 10
8.459366147969753
 20
7.458881328066814
 30
0.0
 10
8.4678523526312
 20
7.459359643603417
 30
0.0
 10
8.47536937147371
 20
7.458595766522342
 30
0.0
 10
8.482273107056633
 20
7.456655560308151
 30
0.0
 10
8.486017927376475
 20
7.454693991961147
 30
0.0
 10
8.487891068698321
 20
7.453712824798884
 30
0.0
  0
LINE
  5
2E4
330
1F
100
AcDbEntity
  8
0
  6
Continuous
 62
     7
370
    18
100
AcDbLine
 10
8.3954936781
 20
7.4254118918
 30
0.0
 11
8.435852429
 21
7.4487105028
 31
0.0
  0
LINE
  5
2E5
330
1F
100
AcDbEntity
  8
0
  6
Continuous
 62
     7
370
    18
100
AcDbLine
 10
8.4732754241
 20
7.3805094457
 30
0.0
 11
8.3954936781
 21
7.4254118918
 31
0.0
  0
LINE
  5
2E6
330
1F
100
AcDbEntity
  8
0
  6
Continuous
 62
     7
370
    18
100
AcDbLine
 10
8.4975190851
 20
7.3945050133
 30
0.0
 11
8.4732754241
 21
7.3805094457
 31
0.0
  0
LINE
  5
2E7
330
1F
100
AcDbEntity
  8
0
  6
Continuous
 62
     7
370
    18
100
AcDbLine
 10
8.4662043563
 20
7.4125826215
 30
0.0
 11
8.4975190851
 21
7.3945050133
 31
0.0
  0
LINE
  5
2E8
330
1F
100
AcDbEntity
  8
0
  6
Continuous
 62
     7
370
    18
100
AcDbLine
 10
8.6008545337
 20
7.5439641903
 30
0.0
 11
8.7076308144
 21
7.5157999328
 31
0.0
  0
LINE
  5
2E9
330
1F
100
AcDbEntity
  8
0
  6
Continuous
 62
     7
370
    18
100
AcDbLine
 10
8.5735014968
 20
7.5281736182
 30
0.0
 11
8.6008545337
 21
7.5439641903
 31
0.0
  0
LINE
  5
2EA
330
1F
100
AcDbEntity
  8
0
  6
Continuous
 62
     7
370
    18
100
AcDbLine
 10
8.6227780007
 20
7.4668154461
 30
0.0
 11
8.5735014968
 21
7.5281736182
 31
0.0
  0
LINE
  5
2EB
330
1F
100
AcDbEntity
  8
0
  6
Continuous
 62
     7
370
    18
100
AcDbLine
 10
8.6474004689
 20
7.4810296944
 30
0.0
 11
8.6227780007
 21
7.4668154461
 31
0.0
  0
LINE
  5
2EC
330
1F
100
AcDbEntity
  8
0
  6
Continuous
 62
     7
370
    18
100
AcDbLine
 10
8.6381986106
 20
7.4908794396
 30
0.0
 11
8.6474004689
 21
7.4810296944
 31
0.0
  0
LINE
  5
2ED
330
1F
100
AcDbEntity
  8
0
  6
Continuous
 62
     7
370
    18
100
AcDbLine
 10
8.6652833257
 20
7.5065151128
 30
0.0
 11
8.6381986106
 21
7.4908794396
 31
0.0
  0
LINE
  5
2EE
330
1F
100
AcDbEntity
  8
0
  6
Continuous
 62
     7
370
    18
100
AcDbLine
 10
8.6823454335
 20
7.5012029931
 30
0.0
 11
8.6652833257
 21
7.5065151128
 31
0.0
  0
LINE
  5
2EF
330
1F
100
AcDbEntity
  8
0
  6
Continuous
 62
     7
370
    18
100
AcDbLine
 10
8.7076308144
 20
7.5157999328
 30
0.0
 11
8.6823454335
 21
7.5012029931
 31
0.0
  0
SPLINE
  5
2F0
330
1F
100
AcDbEntity
  8
0
  6
Continuous
 62
     7
370
    18
100
AcDbSpline
210
0.0
220
0.0
230
1.0
 70
     8
 71
     3
 72
    14
 73
    10
 74
     0
 42
0.000000001
 43
0.00000001
 40
0.0
 40
0.0
 40
0.0
 40
0.0
 40
0.1669123681630604
 40
0.333804513720938
 40
0.5005335188715351
 40
0.6255032368066369
 40
0.750231490951666
 40
0.8750951717736689
 40
1.0
 40
1.0
 40
1.0
 40
1.0
 10
8.77924115963409
 20
7.617604930907757
 30
0.0
 10
8.782488077536996
 20
7.61879692054816
 30
0.0
 10
8.788981519955907
 20
7.621180755411053
 30
0.0
 10
8.799046513645864
 20
7.624439299693353
 30
0.0
 10
8.808746256159772
 20
7.626930477906654
 30
0.0
 10
8.818225685823329
 20
7.62808440291115
 30
0.0
 10
8.826952155938198
 20
7.627764221978806
 30
0.0
 10
8.835193279221079
 20
7.625946942219008
 30
0.0
 10
8.839560418808526
 20
7.623750975609491
 30
0.0
 10
8.841744348328259
 20
7.62265281142059
 30
0.0
  0
SPLINE
  5
2F1
330
1F
100
AcDbEntity
  8
0
  6
Continuous
 62
     7
370
    18
100
AcDbSpline
210
0.0
220
0.0
230
1.0
 70
     8
 71
     3
 72
     9
 73
     5
 74
     0
 42
0.000000001
 43
0.00000001
 40
0.0
 40
0.0
 40
0.0
 40
0.0
 40
0.5583587735001877
 40
1.0
 40
1.0
 40
1.0
 40
1.0
 10
8.76831888524612
 20
7.614598070674482
 30
0.0
 10
8.770481484142447
 20
7.615004829925886
 30
0.0
 10
8.774354619121182
 20
7.615733320764946
 30
0.0
 10
8.777744186804934
 20
7.617031570362979
 30
0.0
 10
8.77924115963409
 20
7.617604930907757
 30
0.0
  0
SPLINE
  5
2F2
330
1F
100
AcDbEntity
  8
0
  6
Continuous
 62
     7
370
    18
100
AcDbSpline
210
0.0
220
0.0
230
1.0
 70
     8
 71
     3
 72
     9
 73
     5
 74
     0
 42
0.000000001
 43
0.00000001
 40
0.0
 40
0.0
 40
0.0
 40
0.0
 40
0.5581060668461464
 40
1.0
 40
1.0
 40
1.0
 40
1.0
 10
8.763220771622834
 20
7.615500128744465
 30
0.0
 10
8.76408294023051
 20
7.615153254485929
 30
0.0
 10
8.765627751618332
 20
7.614531734170809
 30
0.0
 10
8.7674941396833
 20
7.614577740678047
 30
0.0
 10
8.76831888524612
 20
7.614598070674482
 30
0.0
  0
SPLINE
  5
2F3
330
1F
100
AcDbEntity
  8
0
  6
Continuous
 62
     7
370
    18
100
AcDbSpline
210
0.0
220
0.0
230
1.0
 70
     8
 71
     3
 72
    11
 73
     7
 74
     0
 42
0.000000001
 43
0.00000001
 40
0.0
 40
0.0
 40
0.0
 40
0.0
 40
0.2807954587775419
 40
0.5600539481733688
 40
0.7799920071015806
 40
1.0
 40
1.0
 40
1.0
 40
1.0
 10
8.764720216806152
 20
7.62339997063007
 30
0.0
 10
8.763736169389915
 20
7.622781227835689
 30
0.0
 10
8.761773460865165
 20
7.621547129013702
 30
0.0
 10
8.76055929419422
 20
7.61925412349137
 30
0.0
 10
8.76106126269869
 20
7.617049368625398
 30
0.0
 10
8.762500859035214
 20
7.616016596761361
 30
0.0
 10
8.763220771622834
 20
7.615500128744465
 30
0.0
  0
SPLINE
  5
2F4
330
1F
100
AcDbEntity
  8
0
  6
Continuous
 62
     7
370
    18
100
AcDbSpline
210
0.0
220
0.0
230
1.0
 70
     8
 71
     3
 72
    11
 73
     7
 74
     0
 42
0.000000001
 43
0.00000001
 40
0.0
 40
0.0
 40
0.0
 40
0.0
 40
0.2807318136568541
 40
0.5595399185376037
 40
0.7793658109866064
 40
1.0
 40
1.0
 40
1.0
 40
1.0
 10
8.785412560335965
 20
7.623682433258044
 30
0.0
 10
8.783618649839854
 20
7.624373931943343
 30
0.0
 10
8.78004312158111
 20
7.625752190833922
 30
0.0
 10
8.773908635306904
 20
7.626436440833404
 30
0.0
 10
8.768513506004352
 20
7.625358541750995
 30
0.0
 10
8.765986192512363
 20
7.624053625895573
 30
0.0
 10
8.764720216806152
 20
7.62339997063007
 30
0.0
  0
LINE
  5
2F5
330
1F
100
AcDbEntity
  8
0
  6
Continuous
 62
     7
370
    18
100
AcDbLine
 10
8.8083146126
 20
7.6384524952
 30
0.0
 11
8.7854125603
 21
7.6236824333
 31
0.0
  0
SPLINE
  5
2F6
330
1F
100
AcDbEntity
  8
0
  6
Continuous
 62
     7
370
    18
100
AcDbSpline
210
0.0
220
0.0
230
1.0
 70
     8
 71
     3
 72
    13
 73
     9
 74
     0
 42
0.000000001
 43
0.00000001
 40
0.0
 40
0.0
 40
0.0
 40
0.0
 40
0.1869853111847752
 40
0.3737976793715861
 40
0.5601092415084423
 40
0.7065491843075049
 40
0.8531891161013766
 40
1.0
 40
1.0
 40
1.0
 40
1.0
 10
8.75359275518257
 20
7.633304386004526
 30
0.0
 10
8.75640869769327
 20
7.634835186938934
 30
0.0
 10
8.76203797824517
 20
7.637895372967645
 30
0.0
 10
8.771792234746554
 20
7.641558569515833
 30
0.0
 10
8.782152866797599
 20
7.643619336805774
 30
0.0
 10
8.792226470710498
 20
7.643339466576054
 30
0.0
 10
8.800888669750332
 20
7.641510159374467
 30
0.0
 10
8.805838337132077
 20
7.639472112346188
 30
0.0
 10
8.808314612556984
 20
7.638452495191801
 30
0.0
  0
SPLINE
  5
2F7
330
1F
100
AcDbEntity
  8
0
  6
Continuous
 62
     7
370
    18
100
AcDbSpline
210
0.0
220
0.0
230
1.0
 70
     8
 71
     3
 72
    14
 73
    10
 74
     0
 42
0.000000001
 43
0.00000001
 40
0.0
 40
0.0
 40
0.0
 40
0.0
 40
0.1249334125437134
 40
0.2499061521272449
 40
0.3747470829388715
 40
0.4996951011589128
 40
0.6662607787073245
 40
0.8330768967751937
 40
1.0
 40
1.0
 40
1.0
 40
1.0
 10
8.743301826134944
 20
7.601340550555039
 30
0.0
 10
8.741589865798346
 20
7.602507062726001
 30
0.0
 10
8.738165406227425
 20
7.604840454267299
 30
0.0
 10
8.735458213294311
 20
7.609208688891497
 30
0.0
 10
8.734622506723897
 20
7.613779730723643
 30
0.0
 10
8.7361398127433
 20
7.618819238820553
 30
0.0
 10
8.740073508076643
 20
7.62396586218256
 30
0.0
 10
8.7463078599799
 20
7.628904684307726
 30
0.0
 10
8.751163937885265
 20
7.631837505385535
 30
0.0
 10
8.75359275518257
 20
7.633304386004526
 30
0.0
  0
SPLINE
  5
2F8
330
1F
100
AcDbEntity
  8
0
  6
Continuous
 62
     7
370
    18
100
AcDbSpline
210
0.0
220
0.0
230
1.0
 70
     8
 71
     3
 72
    10
 73
     6
 74
     0
 42
0.000000001
 43
0.00000001
 40
0.0
 40
0.0
 40
0.0
 40
0.0
 40
0.2805374891881267
 40
0.5608387519697148
 40
1.0
 40
1.0
 40
1.0
 40
1.0
 10
8.76497275494229
 20
7.596684473042299
 30
0.0
 10
8.762739668207846
 20
7.596662876873669
 30
0.0
 10
8.758275375108157
 20
7.596619702721447
 30
0.0
 10
8.750469934704098
 20
7.597916661022913
 30
0.0
 10
8.746018804343981
 20
7.600042769814251
 30
0.0
 10
8.743301826134944
 20
7.601340550555039
 30
0.0
  0
SPLINE
  5
2F9
330
1F
100
AcDbEntity
  8
0
  6
Continuous
 62
     7
370
    18
100
AcDbSpline
210
0.0
220
0.0
230
1.0
 70
     8
 71
     3
 72
    10
 73
     6
 74
     0
 42
0.000000001
 43
0.00000001
 40
0.0
 40
0.0
 40
0.0
 40
0.0
 40
0.559952222712261
 40
0.7800730482245388
 40
0.9999999999999999
 40
0.9999999999999999
 40
0.9999999999999999
 40
0.9999999999999999
 10
8.796887261896737
 20
7.604301852299931
 30
0.0
 10
8.791291446884705
 20
7.602381237996836
 30
0.0
 10
8.783495880947681
 20
7.599705617840133
 30
0.0
 10
8.772565311299566
 20
7.59734116535066
 30
0.0
 10
8.76750286359995
 20
7.596903306175255
 30
0.0
 10
8.76497275494229
 20
7.596684473042299
 30
0.0
  0
SPLINE
  5
2FA
330
1F
100
AcDbEntity
  8
0
  6
Continuous
 62
     7
370
    18
100
AcDbSpline
210
0.0
220
0.0
230
1.0
 70
     8
 71
     3
 72
    10
 73
     6
 74
     0
 42
0.000000001
 43
0.00000001
 40
0.0
 40
0.0
 40
0.0
 40
0.0
 40
0.2789774828623236
 40
0.559353620788006
 40
1.0
 40
1.0
 40
1.0
 40
1.0
 10
8.813254889845185
 20
7.6085570151149
 30
0.0
 10
8.811586019828512
 20
7.608389123568389
 30
0.0
 10
8.808239912906647
 20
7.608052498750227
 30
0.0
 10
8.802858581801535
 20
7.606404659934534
 30
0.0
 10
8.799152313929579
 20
7.605099493153774
 30
0.0
 10
8.796887261896737
 20
7.604301852299931
 30
0.0
  0
SPLINE
  5
2FB
330
1F
100
AcDbEntity
  8
0
  6
Continuous
 62
     7
370
    18
100
AcDbSpline
210
0.0
220
0.0
230
1.0
 70
     8
 71
     3
 72
     9
 73
     5
 74
     0
 42
0.000000001
 43
0.00000001
 40
0.0
 40
0.0
 40
0.0
 40
0.0
 40
0.559060690544796
 40
1.0
 40
1.0
 40
1.0
 40
1.0
 10
8.820862601196342
 20
7.606716452184228
 30
0.0
 10
8.819602296138761
 20
7.607291088374845
 30
0.0
 10
8.81734797012569
 20
7.608318948498686
 30
0.0
 10
8.814507406159084
 20
7.608484164767444
 30
0.0
 10
8.813254889845185
 20
7.6085570151149
 30
0.0
  0
SPLINE
  5
2FC
330
1F
100
AcDbEntity
  8
0
  6
Continuous
 62
     7
370
    18
100
AcDbSpline
210
0.0
220
0.0
230
1.0
 70
     8
 71
     3
 72
    11
 73
     7
 74
     0
 42
0.000000001
 43
0.00000001
 40
0.0
 40
0.0
 40
0.0
 40
0.0
 40
0.2807162403596086
 40
0.5599866463508465
 40
0.7802623121998771
 40
1.0
 40
1.0
 40
1.0
 40
1.0
 10
8.81906326697636
 20
7.596456680600385
 30
0.0
 10
8.820319860809075
 20
7.597264248483857
 30
0.0
 10
8.822826576363923
 20
7.59887522485696
 30
0.0
 10
8.824223324158458
 20
7.601860254946545
 30
0.0
 10
8.82359355185176
 20
7.604694138047826
 30
0.0
 10
8.821772175785568
 20
7.606042897154497
 30
0.0
 10
8.820862601196342
 20
7.606716452184228
 30
0.0
  0
SPLINE
  5
2FD
330
1F
100
AcDbEntity
  8
0
  6
Continuous
 62
     7
370
    18
100
AcDbSpline
210
0.0
220
0.0
230
1.0
 70
     8
 71
     3
 72
    10
 73
     6
 74
     0
 42
0.000000001
 43
0.00000001
 40
0.0
 40
0.0
 40
0.0
 40
0.0
 40
0.2803949580400193
 40
0.5605816891340748
 40
1.0
 40
1.0
 40
1.0
 40
1.0
 10
8.804700160483508
 20
7.593577384134583
 30
0.0
 10
8.806175144490481
 20
7.593502807844297
 30
0.0
 10
8.809124017151586
 20
7.593353710645581
 30
0.0
 10
8.81434529568931
 20
7.594163044679986
 30
0.0
 10
8.817274551530192
 20
7.595587098793059
 30
0.0
 10
8.81906326697636
 20
7.596456680600385
 30
0.0
  0
SPLINE
  5
2FE
330
1F
100
AcDbEntity
  8
0
  6
Continuous
 62
     7
370
    18
100
AcDbSpline
210
0.0
220
0.0
230
1.0
 70
     8
 71
     3
 72
     9
 73
     5
 74
     0
 42
0.000000001
 43
0.00000001
 40
0.0
 40
0.0
 40
0.0
 40
0.0
 40
0.5603812392076915
 40
0.9999999999999999
 40
0.9999999999999999
 40
0.9999999999999999
 40
0.9999999999999999
 10
8.793493780692382
 20
7.596857595298155
 30
0.0
 10
8.795403714890995
 20
7.596028160635417
 30
0.0
 10
8.798811991373112
 20
7.594548034955423
 30
0.0
 10
8.802902080548636
 20
7.593873793380308
 30
0.0
 10
8.804700160483508
 20
7.593577384134583
 30
0.0
  0
LINE
  5
2FF
330
1F
100
AcDbEntity
  8
0
  6
Continuous
 62
     7
370
    18
100
AcDbLine
 10
8.7706706466
 20
7.5820419749
 30
0.0
 11
8.7934937807
 21
7.5968575953
 31
0.0
  0
SPLINE
  5
300
330
1F
100
AcDbEntity
  8
0
  6
Continuous
 62
     7
370
    18
100
AcDbSpline
210
0.0
220
0.0
230
1.0
 70
     8
 71
     3
 72
    14
 73
    10
 74
     0
 42
0.000000001
 43
0.00000001
 40
0.0
 40
0.0
 40
0.0
 40
0.0
 40
0.1402395994802621
 40
0.2804382906287165
 40
0.4205104361650943
 40
0.560189599215721
 40
0.7067404601997798
 40
0.8533012494915174
 40
1.0
 40
1.0
 40
1.0
 40
1.0
 10
8.833742046139385
 20
7.587436099900558
 30
0.0
 10
8.831324203905922
 20
7.586091932551154
 30
0.0
 10
8.826489224731175
 20
7.583403989950186
 30
0.0
 10
8.818458222806749
 20
7.579883765057128
 30
0.0
 10
8.809660254971204
 20
7.577019713321374
 30
0.0
 10
8.799571107709497
 20
7.575563928606661
 30
0.0
 10
8.789137038857094
 20
7.576279435673283
 30
0.0
 10
8.779114343399467
 20
7.578364838996091
 30
0.0
 10
8.773486094811453
 20
7.580815878559802
 30
0.0
 10
8.770670646638905
 20
7.582041974876015
 30
0.0
  0
SPLINE
  5
301
330
1F
100
AcDbEntity
  8
0
  6
Continuous
 62
     7
370
    18
100
AcDbSpline
210
0.0
220
0.0
230
1.0
 70
     8
 71
     3
 72
    12
 73
     8
 74
     0
 42
0.000000001
 43
0.00000001
 40
0.0
 40
0.0
 40
0.0
 40
0.0
 40
0.1864031444591886
 40
0.3728771223738521
 40
0.5593591973529108
 40
0.7793763378407591
 40
1.0
 40
1.0
 40
1.0
 40
1.0
 10
8.841744348328259
 20
7.62265281142059
 30
0.0
 10
8.84447445213242
 20
7.620710181340914
 30
0.0
 10
8.849935697184007
 20
7.616824182979418
 30
0.0
 10
8.852761600505366
 20
7.609317049954128
 30
0.0
 10
8.850931880888984
 20
7.601397927767962
 30
0.0
 10
8.844115648964465
 20
7.59386963070239
 30
0.0
 10
8.837203085355705
 20
7.589582577144773
 30
0.0
 10
8.833742046139385
 20
7.587436099900558
 30
0.0
  0
LINE
  5
302
330
1F
100
AcDbEntity
  8
0
  6
Continuous
 62
     7
370
    18
100
AcDbLine
 10
9.266961229
 20
6.7453276951
 30
0.0
 11
9.2392140009
 21
6.7613458289
 31
0.0
  0
LINE
  5
303
330
1F
100
AcDbEntity
  8
0
  6
Continuous
 62
     7
370
    18
100
AcDbLine
 10
9.2320534259
 20
6.7251758493
 30
0.0
 11
9.266961229
 21
6.7453276951
 31
0.0
  0
LINE
  5
304
330
1F
100
AcDbEntity
  8
0
  6
Continuous
 62
     7
370
    18
100
AcDbLine
 10
9.2043061978
 20
6.7411939831
 30
0.0
 11
9.2320534259
 21
6.7251758493
 31
0.0
  0
LINE
  5
305
330
1F
100
AcDbEntity
  8
0
  6
Continuous
 62
     7
370
    18
100
AcDbLine
 10
9.195355479
 20
6.7360268432
 30
0.0
 11
9.2043061978
 21
6.7411939831
 31
0.0
  0
LINE
  5
306
330
1F
100
AcDbEntity
  8
0
  6
Continuous
 62
     7
370
    18
100
AcDbLine
 10
9.2660661572
 20
6.6952064376
 30
0.0
 11
9.195355479
 21
6.7360268432
 31
0.0
  0
LINE
  5
307
330
1F
100
AcDbEntity
  8
0
  6
Continuous
 62
     7
370
    18
100
AcDbLine
 10
9.2750168759
 20
6.7003735775
 30
0.0
 11
9.2660661572
 21
6.6952064376
 31
0.0
  0
LINE
  5
308
330
1F
100
AcDbEntity
  8
0
  6
Continuous
 62
     7
370
    18
100
AcDbLine
 10
9.2401090728
 20
6.7205254233
 30
0.0
 11
9.2750168759
 21
6.7003735775
 31
0.0
  0
LINE
  5
309
330
1F
100
AcDbEntity
  8
0
  6
Continuous
 62
     7
370
    18
100
AcDbLine
 10
9.2750168759
 20
6.7406772691
 30
0.0
 11
9.2401090728
 21
6.7205254233
 31
0.0
  0
LINE
  5
30A
330
1F
100
AcDbEntity
  8
0
  6
Continuous
 62
     7
370
    18
100
AcDbLine
 10
9.309924679
 20
6.7205254233
 30
0.0
 11
9.2750168759
 21
6.7406772691
 31
0.0
  0
LINE
  5
30B
330
1F
100
AcDbEntity
  8
0
  6
Continuous
 62
     7
370
    18
100
AcDbLine
 10
9.3188753978
 20
6.7256925633
 30
0.0
 11
9.309924679
 21
6.7205254233
 31
0.0
  0
LINE
  5
30C
330
1F
100
AcDbEntity
  8
0
  6
Continuous
 62
     7
370
    18
100
AcDbLine
 10
9.2481647197
 20
6.7665129689
 30
0.0
 11
9.3188753978
 21
6.7256925633
 31
0.0
  0
LINE
  5
30D
330
1F
100
AcDbEntity
  8
0
  6
Continuous
 62
     7
370
    18
100
AcDbLine
 10
9.2392140009
 20
6.7613458289
 30
0.0
 11
9.2481647197
 21
6.7665129689
 31
0.0
  0
LINE
  5
30E
330
1F
100
AcDbEntity
  8
0
  6
Continuous
 62
     7
370
    18
100
AcDbLine
 10
9.3904811478
 20
6.7670296829
 30
0.0
 11
9.3456855975
 21
6.8228105733
 31
0.0
  0
LINE
  5
30F
330
1F
100
AcDbEntity
  8
0
  6
Continuous
 62
     7
370
    18
100
AcDbLine
 10
9.4000192574
 20
6.7725359164
 30
0.0
 11
9.3904811478
 21
6.7670296829
 31
0.0
  0
LINE
  5
310
330
1F
100
AcDbEntity
  8
0
  6
Continuous
 62
     7
370
    18
100
AcDbLine
 10
9.3873064397
 20
6.7879323787
 30
0.0
 11
9.4000192574
 21
6.7725359164
 31
0.0
  0
LINE
  5
311
330
1F
100
AcDbEntity
  8
0
  6
Continuous
 62
     7
370
    18
100
AcDbLine
 10
9.4187178683
 20
6.8060658104
 30
0.0
 11
9.3873064397
 21
6.7879323787
 31
0.0
  0
LINE
  5
312
330
1F
100
AcDbEntity
  8
0
  6
Continuous
 62
     7
370
    18
100
AcDbLine
 10
9.4453882131
 20
6.798726857
 30
0.0
 11
9.4187178683
 21
6.8060658104
 31
0.0
  0
LINE
  5
313
330
1F
100
AcDbEntity
  8
0
  6
Continuous
 62
     7
370
    18
100
AcDbLine
 10
9.4549263228
 20
6.8042330905
 30
0.0
 11
9.4453882131
 21
6.798726857
 31
0.0
  0
LINE
  5
314
330
1F
100
AcDbEntity
  8
0
  6
Continuous
 62
     7
370
    18
100
AcDbLine
 10
9.3583005168
 20
6.8300930112
 30
0.0
 11
9.4549263228
 21
6.8042330905
 31
0.0
  0
LINE
  5
315
330
1F
100
AcDbEntity
  8
0
  6
Continuous
 62
     7
370
    18
100
AcDbLine
 10
9.3456855975
 20
6.8228105733
 30
0.0
 11
9.3583005168
 21
6.8300930112
 31
0.0
  0
LINE
  5
316
330
1F
100
AcDbEntity
  8
0
  6
Continuous
 62
     7
370
    18
100
AcDbLine
 10
9.503260204
 20
6.8631384859
 30
0.0
 11
9.4952045571
 21
6.8677889119
 31
0.0
  0
LINE
  5
317
330
1F
100
AcDbEntity
  8
0
  6
Continuous
 62
     7
370
    18
100
AcDbLine
 10
9.5327975759
 20
6.8801900477
 30
0.0
 11
9.503260204
 21
6.8631384859
 31
0.0
  0
LINE
  5
318
330
1F
100
AcDbEntity
  8
0
  6
Continuous
 62
     7
370
    18
100
AcDbLine
 10
9.524741929
 20
6.8848404737
 30
0.0
 11
9.5327975759
 21
6.8801900477
 31
0.0
  0
LINE
  5
319
330
1F
100
AcDbEntity
  8
0
  6
Continuous
 62
     7
370
    18
100
AcDbLine
 10
9.4952045571
 20
6.8677889119
 30
0.0
 11
9.524741929
 21
6.8848404737
 31
0.0
  0
LINE
  5
31A
330
1F
100
AcDbEntity
  8
0
  6
Continuous
 62
     7
370
    18
100
AcDbLine
 10
9.5730758103
 20
6.954080149
 30
0.0
 11
9.6357308415
 21
6.9179101694
 31
0.0
  0
LINE
  5
31B
330
1F
100
AcDbEntity
  8
0
  6
Continuous
 62
     7
370
    18
100
AcDbLine
 10
9.5641250915
 20
6.948913009
 30
0.0
 11
9.5730758103
 21
6.954080149
 31
0.0
  0
LINE
  5
31C
330
1F
100
AcDbEntity
  8
0
  6
Continuous
 62
     7
370
    18
100
AcDbLine
 10
9.6348357696
 20
6.9080926035
 30
0.0
 11
9.5641250915
 21
6.948913009
 31
0.0
  0
LINE
  5
31D
330
1F
100
AcDbEntity
  8
0
  6
Continuous
 62
     7
370
    18
100
AcDbLine
 10
9.6786942915
 20
6.9334115892
 30
0.0
 11
9.6348357696
 21
6.9080926035
 31
0.0
  0
LINE
  5
31E
330
1F
100
AcDbEntity
  8
0
  6
Continuous
 62
     7
370
    18
100
AcDbLine
 10
9.6706386446
 20
6.9380620152
 30
0.0
 11
9.6786942915
 21
6.9334115892
 31
0.0
  0
LINE
  5
31F
330
1F
100
AcDbEntity
  8
0
  6
Continuous
 62
     7
370
    18
100
AcDbLine
 10
9.6357308415
 20
6.9179101694
 30
0.0
 11
9.6706386446
 21
6.9380620152
 31
0.0
  0
LINE
  5
320
330
1F
100
AcDbEntity
  8
0
  6
Continuous
 62
     7
370
    18
100
AcDbLine
 10
9.682274579
 20
7.0078184045
 30
0.0
 11
9.6742189321
 21
7.0124688304
 31
0.0
  0
LINE
  5
321
330
1F
100
AcDbEntity
  8
0
  6
Continuous
 62
     7
370
    18
100
AcDbLine
 10
9.7073365915
 20
7.0222863963
 30
0.0
 11
9.682274579
 21
7.0078184045
 31
0.0
  0
LINE
  5
322
330
1F
100
AcDbEntity
  8
0
  6
Continuous
 62
     7
370
    18
100
AcDbLine
 10
9.7699916227
 20
6.9861164167
 30
0.0
 11
9.7073365915
 21
7.0222863963
 31
0.0
  0
LINE
  5
323
330
1F
100
AcDbEntity
  8
0
  6
Continuous
 62
     7
370
    18
100
AcDbLine
 10
9.7789423415
 20
6.9912835566
 30
0.0
 11
9.7699916227
 21
6.9861164167
 31
0.0
  0
LINE
  5
324
330
1F
100
AcDbEntity
  8
0
  6
Continuous
 62
     7
370
    18
100
AcDbLine
 10
9.7162873103
 20
7.0274535363
 30
0.0
 11
9.7789423415
 21
6.9912835566
 31
0.0
  0
LINE
  5
325
330
1F
100
AcDbEntity
  8
0
  6
Continuous
 62
     7
370
    18
100
AcDbLine
 10
9.7413493228
 20
7.0419215281
 30
0.0
 11
9.7162873103
 21
7.0274535363
 31
0.0
  0
LINE
  5
326
330
1F
100
AcDbEntity
  8
0
  6
Continuous
 62
     7
370
    18
100
AcDbLine
 10
9.7332936759
 20
7.0465719541
 30
0.0
 11
9.7413493228
 21
7.0419215281
 31
0.0
  0
LINE
  5
327
330
1F
100
AcDbEntity
  8
0
  6
Continuous
 62
     7
370
    18
100
AcDbLine
 10
9.6742189321
 20
7.0124688304
 30
0.0
 11
9.7332936759
 21
7.0465719541
 31
0.0
  0
LINE
  5
328
330
1F
100
AcDbEntity
  8
0
  6
Continuous
 62
     7
370
    18
100
AcDbLine
 10
9.1707857561
 20
6.3136124481
 30
0.0
 11
10.5849993185
 21
7.1300205599
 31
0.0
  0
LINE
  5
329
330
1F
100
AcDbEntity
  8
0
  6
Continuous
 62
     7
370
    18
100
AcDbLine
 10
9.1707857561
 20
6.3136124481
 30
0.0
 11
9.1707857561
 21
6.4769206105
 31
0.0
  0
LINE
  5
32A
330
1F
100
AcDbEntity
  8
0
  6
Continuous
 62
     7
370
    18
100
AcDbLine
 10
10.5849993185
 20
7.1300205599
 30
0.0
 11
10.5849993185
 21
7.2933287223
 31
0.0
  0
LINE
  5
32B
330
1F
100
AcDbEntity
  8
0
  6
Continuous
 62
     7
370
    18
100
AcDbLine
 10
7.8272828718
 20
7.0892001543
 30
0.0
 11
9.1707857561
 21
6.3136124481
 31
0.0
  0
LINE
  5
32C
330
1F
100
AcDbEntity
  8
0
  6
Continuous
 62
     7
370
    18
100
AcDbLine
 10
7.8272828718
 20
7.2525083167
 30
0.0
 11
7.8272828718
 21
7.0892001543
 31
0.0
  0
LWPOLYLINE
  5
32D
330
1F
100
AcDbEntity
  8
0
  6
Continuous
 62
     7
370
    18
100
AcDbPolyline
 90
       50
 70
   128
 43
0.0
 10
9.5089407731
 20
7.0892134243
 10
9.5025590779
 20
7.1007994343
 10
9.4932073753
 20
7.1153278333
 10
9.4825182934
 20
7.1295455078
 10
9.4705226514
 20
7.1434114647
 10
9.457255036
 20
7.1568857247
 10
9.4427537011
 20
7.1699294381
 10
9.4270604579
 20
7.1825049965
 10
9.4102205539
 20
7.1945761413
 10
9.3922825431
 20
7.2061080682
 10
9.3732981453
 20
7.2170675277
 10
9.3533220975
 20
7.227422921
 10
9.3324119958
 20
7.2371443906
 10
9.3106281295
 20
7.2462039071
 10
9.2880333069
 20
7.2545753495
 10
9.264692675
 20
7.2622345809
 10
9.2406735307
 20
7.2691595176
 10
9.2160451275
 20
7.2753301932
 10
9.1908784754
 20
7.2807288162
 10
9.1652461365
 20
7.2853398209
 10
9.1392220153
 20
7.2891499126
 10
9.1128811462
 20
7.2921481058
 10
9.0862994766
 20
7.2943257558
 10
9.0595536486
 20
7.2956765841
 10
9.032720777
 20
7.2961966958
 10
9.0058782282
 20
7.2958845913
 10
8.9791033961
 20
7.2947411704
 10
8.9524734795
 20
7.29276973
 10
8.9260652593
 20
7.2899759543
 10
8.8999548773
 20
7.2863678983
 10
8.8742176164
 20
7.2819559651
 10
8.8489276839
 20
7.2767528754
 10
8.8241579971
 20
7.270773631
 10
8.7999799735
 20
7.2640354717
 10
8.7764633246
 20
7.2565578254
 10
8.753675855
 20
7.2483622519
 10
8.7316832668
 20
7.2394723814
 10
8.7105489704
 20
7.2299138455
 10
8.6903339013
 20
7.219714204
 10
8.671096345
 20
7.2089028652
 10
8.6528917683
 20
7.1975110008
 10
8.6357726595
 20
7.1855714566
 10
8.6197883777
 20
7.1731186575
 10
8.6049850096
 20
7.1601885079
 10
8.5914052371
 20
7.146818289
 10
8.5790882142
 20
7.1330465505
 10
8.5680694542
 20
7.1189129999
 10
8.5583807268
 20
7.1044583879
 10
8.5500499674
 20
7.0897243908
 10
8.5497880266
 20
7.0892134243
  0
LINE
  5
32E
330
1F
100
AcDbEntity
  8
0
  6
Continuous
 62
     7
370
    18
100
AcDbLine
 10
9.4077252669
 20
6.8090207686
 30
0.0
 11
9.3594193566
 21
6.8221646808
 31
0.0
  0
LINE
  5
32F
330
1F
100
AcDbEntity
  8
0
  6
Continuous
 62
     7
370
    18
100
AcDbLine
 10
9.3594193566
 20
6.8221646808
 30
0.0
 11
9.3821457909
 21
6.7942540515
 31
0.0
  0
LINE
  5
330
330
1F
100
AcDbEntity
  8
0
  6
Continuous
 62
     7
370
    18
100
AcDbLine
 10
9.3821457909
 20
6.7942540515
 30
0.0
 11
9.4077252669
 21
6.8090207686
 31
0.0
  0
SPLINE
  5
331
330
1F
100
AcDbEntity
  8
0
  6
Continuous
 62
     7
370
    18
100
AcDbSpline
210
0.0
220
0.0
230
1.0
 70
     8
 71
     3
 72
    10
 73
     6
 74
     0
 42
0.000000001
 43
0.00000001
 40
0.0
 40
0.0
 40
0.0
 40
0.0
 40
0.2811704835727645
 40
0.5619150043045096
 40
0.9999999999999999
 40
0.9999999999999999
 40
0.9999999999999999
 40
0.9999999999999999
 10
9.450716687864151
 20
6.860401516463025
 30
0.0
 10
9.449643727793598
 20
6.860957156363046
 30
0.0
 10
9.447499433147149
 20
6.862067594389273
 30
0.0
 10
9.442807543085973
 20
6.863481710748975
 30
0.0
 10
9.439040792088889
 20
6.86330858517392
 30
0.0
 10
9.436745175316576
 20
6.863203075153713
 30
0.0
  0
SPLINE
  5
332
330
1F
100
AcDbEntity
  8
0
  6
Continuous
 62
     7
370
    18
100
AcDbSpline
210
0.0
220
0.0
230
1.0
 70
     8
 71
     3
 72
     9
 73
     5
 74
     0
 42
0.000000001
 43
0.00000001
 40
0.0
 40
0.0
 40
0.0
 40
0.0
 40
0.5579932700304372
 40
1.0
 40
1.0
 40
1.0
 40
1.0
 10
9.436745175316576
 20
6.863203075153713
 30
0.0
 10
9.433833777701793
 20
6.862547442844745
 30
0.0
 10
9.428616156323267
 20
6.861372460377781
 30
0.0
 10
9.424661501705303
 20
6.859097845765409
 30
0.0
 10
9.422913517749459
 20
6.858092450798653
 30
0.0
  0
LINE
  5
333
330
1F
100
AcDbEntity
  8
0
  6
Continuous
 62
     7
370
    18
100
AcDbLine
 10
9.4229135177
 20
6.8580924508
 30
0.0
 11
9.4119628728
 21
6.851770778
 31
0.0
  0
LINE
  5
334
330
1F
100
AcDbEntity
  8
0
  6
Continuous
 62
     7
370
    18
100
AcDbLine
 10
9.4119628728
 20
6.851770778
 30
0.0
 11
9.438815029
 21
6.8362693582
 31
0.0
  0
LINE
  5
335
330
1F
100
AcDbEntity
  8
0
  6
Continuous
 62
     7
370
    18
100
AcDbLine
 10
9.438815029
 20
6.8362693582
 30
0.0
 11
9.4482272692
 21
6.8417029288
 31
0.0
  0
SPLINE
  5
336
330
1F
100
AcDbEntity
  8
0
  6
Continuous
 62
     7
370
    18
100
AcDbSpline
210
0.0
220
0.0
230
1.0
 70
     8
 71
     3
 72
    10
 73
     6
 74
     0
 42
0.000000001
 43
0.00000001
 40
0.0
 40
0.0
 40
0.0
 40
0.0
 40
0.5598906512135453
 40
0.7799968915561253
 40
1.0
 40
1.0
 40
1.0
 40
1.0
 10
9.448227269212031
 20
6.841702928775313
 30
0.0
 10
9.450796080018856
 20
6.843279778270853
 30
0.0
 10
9.454374751032518
 20
6.845476524550341
 30
0.0
 10
9.457300345152927
 20
6.848994047964556
 30
0.0
 10
9.457638365036171
 20
6.850683860202894
 30
0.0
 10
9.45780733537328
 20
6.851528568333148
 30
0.0
  0
SPLINE
  5
337
330
1F
100
AcDbEntity
  8
0
  6
Continuous
 62
     7
370
    18
100
AcDbSpline
210
0.0
220
0.0
230
1.0
 70
     8
 71
     3
 72
    10
 73
     6
 74
     0
 42
0.000000001
 43
0.00000001
 40
0.0
 40
0.0
 40
0.0
 40
0.0
 40
0.2801131267438404
 40
0.5599002873234176
 40
0.9999999999999999
 40
0.9999999999999999
 40
0.9999999999999999
 40
0.9999999999999999
 10
9.45780733537328
 20
6.851528568333148
 30
0.0
 10
9.457728004841664
 20
6.852470947201275
 30
0.0
 10
9.457569436094953
 20
6.854354608296223
 30
0.0
 10
9.455308508309383
 20
6.857522061327447
 30
0.0
 10
9.452458827715693
 20
6.859309049193833
 30
0.0
 10
9.450716687864151
 20
6.860401516463025
 30
0.0
  0
SPLINE
  5
338
330
1F
100
AcDbEntity
  8
0
  6
Continuous
 62
     7
370
    18
100
AcDbSpline
210
0.0
220
0.0
230
1.0
 70
     8
 71
     3
 72
    10
 73
     6
 74
     0
 42
0.000000001
 43
0.00000001
 40
0.0
 40
0.0
 40
0.0
 40
0.0
 40
0.5584559064072897
 40
0.7792400062071991
 40
1.0
 40
1.0
 40
1.0
 40
1.0
 10
9.563523715100121
 20
6.923424476519275
 30
0.0
 10
9.560928429784083
 20
6.924673266745967
 30
0.0
 10
9.557307105123394
 20
6.926415762962471
 30
0.0
 10
9.551362286752806
 20
6.927051047202709
 30
0.0
 10
9.548766290570814
 20
6.9268616590699
 30
0.0
 10
9.54746836334375
 20
6.926766970173296
 30
0.0
  0
SPLINE
  5
339
330
1F
100
AcDbEntity
  8
0
  6
Continuous
 62
     7
370
    18
100
AcDbSpline
210
0.0
220
0.0
230
1.0
 70
     8
 71
     3
 72
    10
 73
     6
 74
     0
 42
0.000000001
 43
0.00000001
 40
0.0
 40
0.0
 40
0.0
 40
0.0
 40
0.2796984842883761
 40
0.5597320891371833
 40
0.9999999999999999
 40
0.9999999999999999
 40
0.9999999999999999
 40
0.9999999999999999
 10
9.54746836334375
 20
6.926766970173296
 30
0.0
 10
9.545815934186244
 20
6.926493661288377
 30
0.0
 10
9.542509096014289
 20
6.925946716053673
 30
0.0
 10
9.53731783610587
 20
6.924002865006933
 30
0.0
 10
9.534130438336497
 20
6.922245857379357
 30
0.0
 10
9.532182213979887
 20
6.921171926448087
 30
0.0
  0
LINE
  5
33A
330
1F
100
AcDbEntity
  8
0
  6
Continuous
 62
     7
370
    18
100
AcDbLine
 10
9.532182214
 20
6.9211719264
 30
0.0
 11
9.5229517853
 21
6.9158433134
 31
0.0
  0
LINE
  5
33B
330
1F
100
AcDbEntity
  8
0
  6
Continuous
 62
     7
370
    18
100
AcDbLine
 10
9.5229517853
 20
6.9158433134
 30
0.0
 11
9.5515940853
 21
6.8993084655
 31
0.0
  0
LINE
  5
33C
330
1F
100
AcDbEntity
  8
0
  6
Continuous
 62
     7
370
    18
100
AcDbLine
 10
9.5515940853
 20
6.8993084655
 30
0.0
 11
9.5594679207
 21
6.903853934
 31
0.0
  0
SPLINE
  5
33D
330
1F
100
AcDbEntity
  8
0
  6
Continuous
 62
     7
370
    18
100
AcDbSpline
210
0.0
220
0.0
230
1.0
 70
     8
 71
     3
 72
    11
 73
     7
 74
     0
 42
0.000000001
 43
0.00000001
 40
0.0
 40
0.0
 40
0.0
 40
0.0
 40
0.280290703593171
 40
0.5604152832749218
 40
0.7803356745740926
 40
1.0
 40
1.0
 40
1.0
 40
1.0
 10
9.559467920666892
 20
6.903853933965298
 30
0.0
 10
9.560924476154371
 20
6.904733278563081
 30
0.0
 10
9.563836723851699
 20
6.906491446584874
 30
0.0
 10
9.567311957037646
 20
6.909228076801503
 30
0.0
 10
9.569639571271242
 20
6.912101456258713
 30
0.0
 10
9.569916539328297
 20
6.9140150960027
 30
0.0
 10
9.570054942687428
 20
6.914971358510194
 30
0.0
  0
SPLINE
  5
33E
330
1F
100
AcDbEntity
  8
0
  6
Continuous
 62
     7
370
    18
100
AcDbSpline
210
0.0
220
0.0
230
1.0
 70
     8
 71
     3
 72
    10
 73
     6
 74
     0
 42
0.000000001
 43
0.00000001
 40
0.0
 40
0.0
 40
0.0
 40
0.0
 40
0.2803237785780693
 40
0.5603132023140645
 40
1.0
 40
1.0
 40
1.0
 40
1.0
 10
9.570054942687428
 20
6.914971358510194
 30
0.0
 10
9.569953709538051
 20
6.915859539458783
 30
0.0
 10
9.569751363984656
 20
6.917634841982395
 30
0.0
 10
9.56776027147672
 20
6.920650487564834
 30
0.0
 10
9.565130423159411
 20
6.922372445101943
 30
0.0
 10
9.563523715100121
 20
6.923424476519275
 30
0.0
  0
LINE
  5
33F
330
1F
100
AcDbEntity
  8
0
  6
Continuous
 62
     7
370
    18
100
AcDbLine
 10
9.6968334825
 20
6.9759193889
 30
0.0
 11
9.6485275722
 21
6.9890633012
 31
0.0
  0
LINE
  5
340
330
1F
100
AcDbEntity
  8
0
  6
Continuous
 62
     7
370
    18
100
AcDbLine
 10
9.6485275722
 20
6.9890633012
 30
0.0
 11
9.6712540065
 21
6.9611526718
 31
0.0
  0
LINE
  5
341
330
1F
100
AcDbEntity
  8
0
  6
Continuous
 62
     7
370
    18
100
AcDbLine
 10
9.6712540065
 20
6.9611526718
 30
0.0
 11
9.6968334825
 21
6.9759193889
 31
0.0
  0
LWPOLYLINE
  5
342
330
1F
100
AcDbEntity
  8
0
  6
Continuous
 62
     7
370
    18
100
AcDbPolyline
 90
       25
 70
   128
 43
0.0
 10
10.3878918096
 20
7.2422615989
 10
10.3879229257
 20
7.2424180391
 10
10.3882819865
 20
7.2479577508
 10
10.3872068121
 20
7.2534664821
 10
10.3847214202
 20
7.2588211772
 10
10.3808813302
 20
7.263902221
 10
10.3757723235
 20
7.2685961113
 10
10.3695085269
 20
7.2727979945
 10
10.3622298631
 20
7.2764140073
 10
10.3540989256
 20
7.2793633741
 10
10.3452973459
 20
7.2815802108
 10
10.336021737
 20
7.2830149971
 10
10.3264793004
 20
7.283635682
 10
10.3168831986
 20
7.2834284006
 10
10.3074477926
 20
7.2823977832
 10
10.2983838536
 20
7.2805668521
 10
10.2898938553
 20
7.2779765072
 10
10.28216745
 20
7.2746846126
 10
10.275377233
 20
7.2707647037
 10
10.2696748864
 20
7.2663043449
 10
10.2651877913
 20
7.2614031732
 10
10.2620161819
 20
7.2561706726
 10
10.2602309067
 20
7.2507237287
 10
10.2598718459
 20
7.245184017
 10
10.2602620228
 20
7.2422615989
  0
SPLINE
  5
343
330
1F
100
AcDbEntity
  8
0
  6
Continuous
 62
     7
370
    18
100
AcDbSpline
210
0.0
220
0.0
230
1.0
 70
     8
 71
     3
 72
    12
 73
     8
 74
     0
 42
0.000000001
 43
0.00000001
 40
0.0
 40
0.0
 40
0.0
 40
0.0
 40
0.1874661867188381
 40
0.3747630564679414
 40
0.5613191243355397
 40
0.7803156052409524
 40
1.0
 40
1.0
 40
1.0
 40
1.0
 10
8.364731376430493
 20
7.362696076707399
 30
0.0
 10
8.366699137035333
 20
7.361617623700839
 30
0.0
 10
8.37063288098977
 20
7.359461691732149
 30
0.0
 10
8.377422204549871
 20
7.356829594642294
 30
0.0
 10
8.385682218388366
 20
7.355208602352698
 30
0.0
 10
8.395182174318334
 20
7.355955089381191
 30
0.0
 10
8.400122351285106
 20
7.358339994912729
 30
0.0
 10
8.402596313217693
 20
7.359534317613621
 30
0.0
  0
SPLINE
  5
344
330
1F
100
AcDbEntity
  8
0
  6
Continuous
 62
     7
370
    18
100
AcDbSpline
210
0.0
220
0.0
230
1.0
 70
     8
 71
     3
 72
    13
 73
     9
 74
     0
 42
0.000000001
 43
0.00000001
 40
0.0
 40
0.0
 40
0.0
 40
0.0
 40
0.1251642119993082
 40
0.2501693125931809
 40
0.3751109756086717
 40
0.4999506427604761
 40
0.7495394078236739
 40
1.0
 40
1.0
 40
1.0
 40
1.0
 10
8.402596313217693
 20
7.359534317613621
 30
0.0
 10
8.403860646991205
 20
7.360341386329942
 30
0.0
 10
8.406387707290278
 20
7.361954497799688
 30
0.0
 10
8.408945529769316
 20
7.364905821655308
 30
0.0
 10
8.409933395693711
 20
7.368153960178619
 30
0.0
 10
8.408827197903245
 20
7.372510306659382
 30
0.0
 10
8.403706855591595
 20
7.377226973769989
 30
0.0
 10
8.398581622477693
 20
7.380379296314477
 30
0.0
 10
8.396014538044595
 20
7.381958205595716
 30
0.0
  0
SPLINE
  5
345
330
1F
100
AcDbEntity
  8
0
  6
Continuous
 62
     7
370
    18
100
AcDbSpline
210
0.0
220
0.0
230
1.0
 70
     8
 71
     3
 72
    12
 73
     8
 74
     0
 42
0.000000001
 43
0.00000001
 40
0.0
 40
0.0
 40
0.0
 40
0.0
 40
0.1874136991405966
 40
0.3746201373854414
 40
0.5611324352198208
 40
0.7802198633462364
 40
1.0
 40
1.0
 40
1.0
 40
1.0
 10
8.396014538044595
 20
7.381958205595716
 30
0.0
 10
8.394090945598672
 20
7.383007419643813
 30
0.0
 10
8.390245888008593
 20
7.385104687413711
 30
0.0
 10
8.38349070023748
 20
7.387573059659049
 30
0.0
 10
8.375294078499497
 20
7.388909126879415
 30
0.0
 10
8.366131585824704
 20
7.387987372543994
 30
0.0
 10
8.361338905485534
 20
7.385651783580562
 30
0.0
 10
8.358938782932826
 20
7.384482145852133
 30
0.0
  0
SPLINE
  5
346
330
1F
100
AcDbEntity
  8
0
  6
Continuous
 62
     7
370
    18
100
AcDbSpline
210
0.0
220
0.0
230
1.0
 70
     8
 71
     3
 72
    12
 73
     8
 74
     0
 42
0.000000001
 43
0.00000001
 40
0.0
 40
0.0
 40
0.0
 40
0.0
 40
0.1865713499357203
 40
0.3727595003583562
 40
0.5589971455058815
 40
0.7792949439402217
 40
1.0
 40
1.0
 40
1.0
 40
1.0
 10
8.358938782932826
 20
7.384482145852133
 30
0.0
 10
8.357178944962943
 20
7.383285797701259
 30
0.0
 10
8.353662883560203
 20
7.380895558582938
 30
0.0
 10
8.351797221189655
 20
7.376178887538084
 30
0.0
 10
8.353370013104307
 20
7.371221413359261
 30
0.0
 10
8.358207811528601
 20
7.366707985986211
 30
0.0
 10
8.362555516455997
 20
7.364034202862708
 30
0.0
 10
8.364731376430493
 20
7.362696076707399
 30
0.0
  0
LINE
  5
347
330
1F
100
AcDbEntity
  8
0
  6
Continuous
 62
     7
370
    18
100
AcDbLine
 10
8.4510520681
 20
7.4213298513
 30
0.0
 11
8.4613272135
 21
7.4272615664
 31
0.0
  0
SPLINE
  5
348
330
1F
100
AcDbEntity
  8
0
  6
Continuous
 62
     7
370
    18
100
AcDbSpline
210
0.0
220
0.0
230
1.0
 70
     8
 71
     3
 72
     9
 73
     5
 74
     0
 42
0.000000001
 43
0.00000001
 40
0.0
 40
0.0
 40
0.0
 40
0.0
 40
0.5598127168888596
 40
1.0
 40
1.0
 40
1.0
 40
1.0
 10
8.4613272135033
 20
7.427261566443734
 30
0.0
 10
8.462414685421532
 20
7.428036024994007
 30
0.0
 10
8.464357249220864
 20
7.429419449355241
 30
0.0
 10
8.466034335160474
 20
7.430913664805383
 30
0.0
 10
8.466772567063776
 20
7.431571399444764
 30
0.0
  0
SPLINE
  5
349
330
1F
100
AcDbEntity
  8
0
  6
Continuous
 62
     7
370
    18
100
AcDbSpline
210
0.0
220
0.0
230
1.0
 70
     8
 71
     3
 72
    11
 73
     7
 74
     0
 42
0.000000001
 43
0.00000001
 40
0.0
 40
0.0
 40
0.0
 40
0.0
 40
0.2797326981239683
 40
0.5592718802498978
 40
0.7796589455822129
 40
1.0
 40
1.0
 40
1.0
 40
1.0
 10
8.466772567063776
 20
7.431571399444764
 30
0.0
 10
8.467366745602053
 20
7.432205776721701
 30
0.0
 10
8.468554691632441
 20
7.433474092420367
 30
0.0
 10
8.468485052783148
 20
7.435524398260829
 30
0.0
 10
8.46751667727335
 20
7.437300548252796
 30
0.0
 10
8.466241900186027
 20
7.438158483710198
 30
0.0
 10
8.465604578184138
 20
7.438587406655739
 30
0.0
  0
SPLINE
  5
34A
330
1F
100
AcDbEntity
  8
0
  6
Continuous
 62
     7
370
    18
100
AcDbSpline
210
0.0
220
0.0
230
1.0
 70
     8
 71
     3
 72
    12
 73
     8
 74
     0
 42
0.000000001
 43
0.00000001
 40
0.0
 40
0.0
 40
0.0
 40
0.0
 40
0.2486070575637256
 40
0.3739144541623464
 40
0.4989522973721405
 40
0.7491421589243044
 40
1.0
 40
1.0
 40
1.0
 40
1.0
 10
8.465604578184138
 20
7.438587406655739
 30
0.0
 10
8.464133813361352
 20
7.439270182903603
 30
0.0
 10
8.461921727223084
 20
7.440297104305338
 30
0.0
 10
8.458139892981436
 20
7.440509426029314
 30
0.0
 10
8.454509565546521
 20
7.439989962319594
 30
0.0
 10
8.450614712842647
 20
7.438457589119563
 30
0.0
 10
8.44794014845306
 20
7.436989723376211
 30
0.0
 10
8.446601083439749
 20
7.436254812050533
 30
0.0
  0
LINE
  5
34B
330
1F
100
AcDbEntity
  8
0
  6
Continuous
 62
     7
370
    18
100
AcDbLine
 10
8.4466010834
 20
7.4362548121
 30
0.0
 11
8.4358997799
 21
7.430077081
 31
0.0
  0
LINE
  5
34C
330
1F
100
AcDbEntity
  8
0
  6
Continuous
 62
     7
370
    18
100
AcDbLine
 10
8.4358997799
 20
7.430077081
 30
0.0
 11
8.4510520681
 21
7.4213298513
 31
0.0
  0
LINE
  5
34D
330
1F
100
AcDbEntity
  8
0
  6
Continuous
 62
     7
370
    18
100
AcDbLine
 10
8.6429652679
 20
7.5134582265
 30
0.0
 11
8.6068049636
 21
7.5244378222
 31
0.0
  0
LINE
  5
34E
330
1F
100
AcDbEntity
  8
0
  6
Continuous
 62
     7
370
    18
100
AcDbLine
 10
8.6068049636
 20
7.5244378222
 30
0.0
 11
8.6261556982
 21
7.5037542684
 31
0.0
  0
LINE
  5
34F
330
1F
100
AcDbEntity
  8
0
  6
Continuous
 62
     7
370
    18
100
AcDbLine
 10
8.6261556982
 20
7.5037542684
 30
0.0
 11
8.6429652679
 21
7.5134582265
 31
0.0
  0
LINE
  5
350
330
1F
100
AcDbEntity
  8
0
  6
Continuous
 62
     7
370
    18
100
AcDbLine
 10
8.6914683737
 20
7.5624518249
 30
0.0
 11
8.7012700101
 21
7.5681101891
 31
0.0
  0
SPLINE
  5
351
330
1F
100
AcDbEntity
  8
0
  6
Continuous
 62
     7
370
    18
100
AcDbSpline
210
0.0
220
0.0
230
1.0
 70
     8
 71
     3
 72
    12
 73
     8
 74
     0
 42
0.000000001
 43
0.00000001
 40
0.0
 40
0.0
 40
0.0
 40
0.0
 40
0.2506876382313244
 40
0.500637201112982
 40
0.6258636652327265
 40
0.7510088047311873
 40
1.0
 40
1.0
 40
1.0
 40
1.0
 10
8.701270010101467
 20
7.568110189128505
 30
0.0
 10
8.702336756814368
 20
7.568763762608958
 30
0.0
 10
8.70446710952107
 20
7.570068985316722
 30
0.0
 10
8.706576905885308
 20
7.572029719198651
 30
0.0
 10
8.70705428689009
 20
7.573833126043216
 30
0.0
 10
8.706467347958716
 20
7.575640465828942
 30
0.0
 10
8.704957827584828
 20
7.576699394153212
 30
0.0
 10
8.703953227797934
 20
7.57740412075863
 30
0.0
  0
SPLINE
  5
352
330
1F
100
AcDbEntity
  8
0
  6
Continuous
 62
     7
370
    18
100
AcDbSpline
210
0.0
220
0.0
230
1.0
 70
     8
 71
     3
 72
    12
 73
     8
 74
     0
 42
0.000000001
 43
0.00000001
 40
0.0
 40
0.0
 40
0.0
 40
0.0
 40
0.2486674076866428
 40
0.3738797320284329
 40
0.4991410985381945
 40
0.7492319003065946
 40
0.9999999999999999
 40
0.9999999999999999
 40
0.9999999999999999
 40
0.9999999999999999
 10
8.703953227797934
 20
7.57740412075863
 30
0.0
 10
8.702753632109847
 20
7.577958133157175
 30
0.0
 10
8.700950000027229
 20
7.578791109255793
 30
0.0
 10
8.697887683148858
 20
7.579039761526874
 30
0.0
 10
8.694881274980164
 20
7.578724640073783
 30
0.0
 10
8.691573079306385
 20
7.577567088884614
 30
0.0
 10
8.689378735368662
 20
7.576371653063045
 30
0.0
 10
8.688280079723866
 20
7.575773126874521
 30
0.0
  0
LINE
  5
353
330
1F
100
AcDbEntity
  8
0
  6
Continuous
 62
     7
370
    18
100
AcDbLine
 10
8.6882800797
 20
7.5757731269
 30
0.0
 11
8.6783363906
 21
7.5700327573
 31
0.0
  0
LINE
  5
354
330
1F
100
AcDbEntity
  8
0
  6
Continuous
 62
     7
370
    18
100
AcDbLine
 10
8.6783363906
 20
7.5700327573
 30
0.0
 11
8.6914683737
 21
7.5624518249
 31
0.0
  0
LINE
  5
355
330
1F
100
AcDbEntity
  8
0
  6
Continuous
 62
     7
370
    18
100
AcDbLine
 10
8.72177295
 20
7.5449573653
 30
0.0
 11
8.7338632133
 21
7.5519369258
 31
0.0
  0
SPLINE
  5
356
330
1F
100
AcDbEntity
  8
0
  6
Continuous
 62
     7
370
    18
100
AcDbSpline
210
0.0
220
0.0
230
1.0
 70
     8
 71
     3
 72
    12
 73
     8
 74
     0
 42
0.000000001
 43
0.00000001
 40
0.0
 40
0.0
 40
0.0
 40
0.0
 40
0.2507691006344099
 40
0.5006544206427109
 40
0.6258741638105685
 40
0.7511902121444974
 40
1.0
 40
1.0
 40
1.0
 40
1.0
 10
8.733863213296784
 20
7.551936925752553
 30
0.0
 10
8.735110416814178
 20
7.552702423038149
 30
0.0
 10
8.737600428354055
 20
7.554230719782263
 30
0.0
 10
8.739996364958628
 20
7.55654916721831
 30
0.0
 10
8.74055894684188
 20
7.55864730136117
 30
0.0
 10
8.740077870003283
 20
7.560778256868819
 30
0.0
 10
8.738345596454522
 20
7.562040577258104
 30
0.0
 10
8.737193559967105
 20
7.562880074662141
 30
0.0
  0
SPLINE
  5
357
330
1F
100
AcDbEntity
  8
0
  6
Continuous
 62
     7
370
    18
100
AcDbSpline
210
0.0
220
0.0
230
1.0
 70
     8
 71
     3
 72
    12
 73
     8
 74
     0
 42
0.000000001
 43
0.00000001
 40
0.0
 40
0.0
 40
0.0
 40
0.0
 40
0.2483248396152054
 40
0.3737003749082064
 40
0.4988835088019211
 40
0.749094174249321
 40
1.0
 40
1.0
 40
1.0
 40
1.0
 10
8.737193559967105
 20
7.562880074662141
 30
0.0
 10
8.735745374971723
 20
7.563518105302376
 30
0.0
 10
8.733566022811264
 20
7.564478268167388
 30
0.0
 10
8.729921208596227
 20
7.564618247973105
 30
0.0
 10
8.7264032775778
 20
7.564187661602647
 30
0.0
 10
8.722551323404025
 20
7.56277456514019
 30
0.0
 10
8.719960688549378
 20
7.561363387871934
 30
0.0
 10
8.718663574227975
 20
7.560656820429053
 30
0.0
  0
LINE
  5
358
330
1F
100
AcDbEntity
  8
0
  6
Continuous
 62
     7
370
    18
100
AcDbLine
 10
8.7186635742
 20
7.5606568204
 30
0.0
 11
8.7066206619
 21
7.5537045951
 31
0.0
  0
LINE
  5
359
330
1F
100
AcDbEntity
  8
0
  6
Continuous
 62
     7
370
    18
100
AcDbLine
 10
8.7066206619
 20
7.5537045951
 30
0.0
 11
8.72177295
 21
7.5449573653
 31
0.0
  0
LWPOLYLINE
  5
35A
330
1F
100
AcDbEntity
  8
0
  6
Continuous
 62
     7
370
    18
100
AcDbPolyline
 90
       25
 70
   128
 43
0.0
 10
9.3272316378
 20
7.8545676828
 10
9.3272627539
 20
7.854724123
 10
9.3276218147
 20
7.8602638347
 10
9.3265466403
 20
7.865772566
 10
9.3240612484
 20
7.8711272611
 10
9.3202211585
 20
7.8762083049
 10
9.3151121518
 20
7.8809021952
 10
9.3088483551
 20
7.8851040783
 10
9.3015696913
 20
7.8887200912
 10
9.2934387538
 20
7.891669458
 10
9.2846371741
 20
7.8938862947
 10
9.2753615652
 20
7.8953210809
 10
9.2658191287
 20
7.8959417659
 10
9.2562230268
 20
7.8957344845
 10
9.2467876208
 20
7.8947038671
 10
9.2377236819
 20
7.892872936
 10
9.2292336835
 20
7.8902825911
 10
9.2215072782
 20
7.8869906965
 10
9.2147170612
 20
7.8830707876
 10
9.2090147146
 20
7.8786104288
 10
9.2045276195
 20
7.8737092571
 10
9.2013560101
 20
7.8684767565
 10
9.1995707349
 20
7.8630298125
 10
9.1992116741
 20
7.8574901009
 10
9.1996018511
 20
7.8545676828
  0
OLE2FRAME
  5
35B
330
1F
100
AcDbEntity
  8
0
100
AcDbOle2Frame
 70
     2
  3
Paintbrush Picture
 10
9.0178120406
 20
1.3267570784
 30
0.0
 11
10.4397105087
 21
1.1242314806
 31
0.0
 71
     2
 72
     0
 73
     1
 90
     7296
310
8055C64EE7A81E092240C05F59A1653AF53F0000000000000000FD155DBC21E1
310
2440C05F59A1653AF53F0000000000000000FD155DBC21E12440A1732426DAFC
310
F13F0000000000000000C64EE7A81E092240A1732426DAFCF13F000000000000
310
00000000000001000000000100000100000001000000000001000000001C0000
310
D0CF11E0A1B11AE1000000000000000000000000000000003E000300FEFF0900
310
0600000000000000000000000100000001000000000000000010000002000000
310
01000000FEFFFFFF0000000000000000FFFFFFFFFFFFFFFFFFFFFFFFFFFFFFFF
310
FFFFFFFFFFFFFFFFFFFFFFFFFFFFFFFFFFFFFFFFFFFFFFFFFFFFFFFFFFFFFFFF
310
FFFFFFFFFFFFFFFFFFFFFFFFFFFFFFFFFFFFFFFFFFFFFFFFFFFFFFFFFFFFFFFF
310
FFFFFFFFFFFFFFFFFFFFFFFFFFFFFFFFFFFFFFFFFFFFFFFFFFFFFFFFFFFFFFFF
310
FFFFFFFFFFFFFFFFFFFFFFFFFFFFFFFFFFFFFFFFFFFFFFFFFFFFFFFFFFFFFFFF
310
FFFFFFFFFFFFFFFFFFFFFFFFFFFFFFFFFFFFFFFFFFFFFFFFFFFFFFFFFFFFFFFF
310
FFFFFFFFFFFFFFFFFFFFFFFFFFFFFFFFFFFFFFFFFFFFFFFFFFFFFFFFFFFFFFFF
310
FFFFFFFFFFFFFFFFFFFFFFFFFFFFFFFFFFFFFFFFFFFFFFFFFFFFFFFFFFFFFFFF
310
FFFFFFFFFFFFFFFFFFFFFFFFFFFFFFFFFFFFFFFFFFFFFFFFFFFFFFFFFFFFFFFF
310
FFFFFFFFFFFFFFFFFFFFFFFFFFFFFFFFFFFFFFFFFFFFFFFFFFFFFFFFFFFFFFFF
310
FFFFFFFFFFFFFFFFFFFFFFFFFFFFFFFFFFFFFFFFFFFFFFFFFFFFFFFFFFFFFFFF
310
FFFFFFFFFFFFFFFFFFFFFFFFFFFFFFFFFFFFFFFFFFFFFFFFFFFFFFFFFFFFFFFF
310
FFFFFFFFFFFFFFFFFFFFFFFFFFFFFFFFFFFFFFFFFFFFFFFFFFFFFFFFFFFFFFFF
310
FFFFFFFFFFFFFFFFFFFFFFFFFFFFFFFFFFFFFFFFFFFFFFFFFFFFFFFFFFFFFFFF
310
FDFFFFFFFEFFFFFFFEFFFFFFFEFFFFFF05000000060000000700000008000000
310
090000000A0000000B0000000C000000FEFFFFFFFFFFFFFFFFFFFFFFFFFFFFFF
310
FFFFFFFFFFFFFFFFFFFFFFFFFFFFFFFFFFFFFFFFFFFFFFFFFFFFFFFFFFFFFFFF
310
FFFFFFFFFFFFFFFFFFFFFFFFFFFFFFFFFFFFFFFFFFFFFFFFFFFFFFFFFFFFFFFF
310
FFFFFFFFFFFFFFFFFFFFFFFFFFFFFFFFFFFFFFFFFFFFFFFFFFFFFFFFFFFFFFFF
310
FFFFFFFFFFFFFFFFFFFFFFFFFFFFFFFFFFFFFFFFFFFFFFFFFFFFFFFFFFFFFFFF
310
FFFFFFFFFFFFFFFFFFFFFFFFFFFFFFFFFFFFFFFFFFFFFFFFFFFFFFFFFFFFFFFF
310
FFFFFFFFFFFFFFFFFFFFFFFFFFFFFFFFFFFFFFFFFFFFFFFFFFFFFFFFFFFFFFFF
310
FFFFFFFFFFFFFFFFFFFFFFFFFFFFFFFFFFFFFFFFFFFFFFFFFFFFFFFFFFFFFFFF
310
FFFFFFFFFFFFFFFFFFFFFFFFFFFFFFFFFFFFFFFFFFFFFFFFFFFFFFFFFFFFFFFF
310
FFFFFFFFFFFFFFFFFFFFFFFFFFFFFFFFFFFFFFFFFFFFFFFFFFFFFFFFFFFFFFFF
310
FFFFFFFFFFFFFFFFFFFFFFFFFFFFFFFFFFFFFFFFFFFFFFFFFFFFFFFFFFFFFFFF
310
FFFFFFFFFFFFFFFFFFFFFFFFFFFFFFFFFFFFFFFFFFFFFFFFFFFFFFFFFFFFFFFF
310
FFFFFFFFFFFFFFFFFFFFFFFFFFFFFFFFFFFFFFFFFFFFFFFFFFFFFFFFFFFFFFFF
310
FFFFFFFFFFFFFFFFFFFFFFFFFFFFFFFFFFFFFFFFFFFFFFFFFFFFFFFFFFFFFFFF
310
FFFFFFFFFFFFFFFFFFFFFFFFFFFFFFFFFFFFFFFFFFFFFFFFFFFFFFFFFFFFFFFF
310
52006F006F007400200045006E00740072007900000000000000000000000000
310
0000000000000000000000000000000000000000000000000000000000000000
310
16000500FFFFFFFFFFFFFFFF020000000A00030000000000C000000000000046
310
000000000000000000000000A059EBE5CFB1D40103000000C000000000000000
310
01004F006C006500000000000000000000000000000000000000000000000000
310
0000000000000000000000000000000000000000000000000000000000000000
310
0A000200FFFFFFFFFFFFFFFFFFFFFFFF00000000000000000000000000000000
310
0000000000000000000000000000000000000000000000001400000000000000
310
010043006F006D0070004F0062006A0000000000000000000000000000000000
310
0000000000000000000000000000000000000000000000000000000000000000
310
120002010100000003000000FFFFFFFF00000000000000000000000000000000
310
0000000000000000000000000000000000000000010000004D00000000000000
310
01004F006C006500310030004E00610074006900760065000000000000000000
310
0000000000000000000000000000000000000000000000000000000000000000
310
1A000200FFFFFFFFFFFFFFFFFFFFFFFF00000000000000000000000000000000
310
000000000000000000000000000000000000000004000000E411000000000000
310
FEFFFFFF02000000FEFFFFFFFFFFFFFFFFFFFFFFFFFFFFFFFFFFFFFFFFFFFFFF
310
FFFFFFFFFFFFFFFFFFFFFFFFFFFFFFFFFFFFFFFFFFFFFFFFFFFFFFFFFFFFFFFF
310
FFFFFFFFFFFFFFFFFFFFFFFFFFFFFFFFFFFFFFFFFFFFFFFFFFFFFFFFFFFFFFFF
310
FFFFFFFFFFFFFFFFFFFFFFFFFFFFFFFFFFFFFFFFFFFFFFFFFFFFFFFFFFFFFFFF
310
FFFFFFFFFFFFFFFFFFFFFFFFFFFFFFFFFFFFFFFFFFFFFFFFFFFFFFFFFFFFFFFF
310
FFFFFFFFFFFFFFFFFFFFFFFFFFFFFFFFFFFFFFFFFFFFFFFFFFFFFFFFFFFFFFFF
310
FFFFFFFFFFFFFFFFFFFFFFFFFFFFFFFFFFFFFFFFFFFFFFFFFFFFFFFFFFFFFFFF
310
FFFFFFFFFFFFFFFFFFFFFFFFFFFFFFFFFFFFFFFFFFFFFFFFFFFFFFFFFFFFFFFF
310
FFFFFFFFFFFFFFFFFFFFFFFFFFFFFFFFFFFFFFFFFFFFFFFFFFFFFFFFFFFFFFFF
310
FFFFFFFFFFFFFFFFFFFFFFFFFFFFFFFFFFFFFFFFFFFFFFFFFFFFFFFFFFFFFFFF
310
FFFFFFFFFFFFFFFFFFFFFFFFFFFFFFFFFFFFFFFFFFFFFFFFFFFFFFFFFFFFFFFF
310
FFFFFFFFFFFFFFFFFFFFFFFFFFFFFFFFFFFFFFFFFFFFFFFFFFFFFFFFFFFFFFFF
310
FFFFFFFFFFFFFFFFFFFFFFFFFFFFFFFFFFFFFFFFFFFFFFFFFFFFFFFFFFFFFFFF
310
FFFFFFFFFFFFFFFFFFFFFFFFFFFFFFFFFFFFFFFFFFFFFFFFFFFFFFFFFFFFFFFF
310
FFFFFFFFFFFFFFFFFFFFFFFFFFFFFFFFFFFFFFFFFFFFFFFFFFFFFFFFFFFFFFFF
310
FFFFFFFFFFFFFFFFFFFFFFFFFFFFFFFFFFFFFFFFFFFFFFFFFFFFFFFFFFFFFFFF
310
0100000200000000000000000000000000000000000000000000000000000000
310
0000000000000000000000000000000000000000000000000000000000000000
310
0100FEFF030A0000FFFFFFFF0A00030000000000C00000000000004607000000
310
5042727573680007000000504272757368000700000050427275736800F439B2
310
7100000000000000000000000000000000000000000000000000000000000000
310
0000000000000000000000000000000000000000000000000000000000000000
310
0000000000000000000000000000000000000000000000000000000000000000
310
0000000000000000000000000000000000000000000000000000000000000000
310
0000000000000000000000000000000000000000000000000000000000000000
310
0000000000000000000000000000000000000000000000000000000000000000
310
0000000000000000000000000000000000000000000000000000000000000000
310
0000000000000000000000000000000000000000000000000000000000000000
310
0000000000000000000000000000000000000000000000000000000000000000
310
0000000000000000000000000000000000000000000000000000000000000000
310
0000000000000000000000000000000000000000000000000000000000000000
310
0000000000000000000000000000000000000000000000000000000000000000
310
E0110000424DDE11000000000000360400002800000096000000170000000100
310
08000000000000000000E7240000E72400000001000000010000000000FF0101
310
01FF020202FF030303FF040404FF050505FF060606FF070707FF080808FF0909
310
09FF0A0A0AFF0B0B0BFF0C0C0CFF0D0D0DFF0E0E0EFF0F0F0FFF101010FF1111
310
11FF121212FF131313FF141414FF151515FF161616FF171717FF181818FF1919
310
19FF1A1A1AFF1B1B1BFF1C1C1CFF1D1D1DFF1E1E1EFF1F1F1FFF202020FF2121
310
21FF222222FF232323FF242424FF252525FF262626FF272727FF282828FF2929
310
29FF2A2A2AFF2B2B2BFF2C2C2CFF2D2D2DFF2E2E2EFF2F2F2FFF303030FF3131
310
31FF323232FF333333FF343434FF353535FF363636FF373737FF383838FF3939
310
39FF3A3A3AFF3B3B3BFF3C3C3CFF3D3D3DFF3E3E3EFF3F3F3FFF404040FF4141
310
41FF424242FF434343FF444444FF454545FF464646FF474747FF484848FF4949
310
49FF4A4A4AFF4B4B4BFF4C4C4CFF4D4D4DFF4E4E4EFF4F4F4FFF505050FF5151
310
51FF525252FF535353FF545454FF555555FF565656FF575757FF585858FF5959
310
59FF5A5A5AFF5B5B5BFF5C5C5CFF5D5D5DFF5E5E5EFF5F5F5FFF606060FF6161
310
61FF626262FF636363FF646464FF656565FF666666FF676767FF686868FF6969
310
69FF6A6A6AFF6B6B6BFF6C6C6CFF6D6D6DFF6E6E6EFF6F6F6FFF707070FF7171
310
71FF727272FF737373FF747474FF757575FF767676FF777777FF787878FF7979
310
79FF7A7A7AFF7B7B7BFF7C7C7CFF7D7D7DFF7E7E7EFF7F7F7FFF808080FF8181
310
81FF828282FF838383FF848484FF858585FF868686FF878787FF888888FF8989
310
89FF8A8A8AFF8B8B8BFF8C8C8CFF8D8D8DFF8E8E8EFF8F8F8FFF909090FF9191
310
91FF929292FF939393FF949494FF959595FF969696FF979797FF989898FF9999
310
99FF9A9A9AFF9B9B9BFF9C9C9CFF9D9D9DFF9E9E9EFF9F9F9FFFA0A0A0FFA1A1
310
A1FFA2A2A2FFA3A3A3FFA4A4A4FFA5A5A5FFA6A6A6FFA7A7A7FFA8A8A8FFA9A9
310
A9FFAAAAAAFFABABABFFACACACFFADADADFFAEAEAEFFAFAFAFFFB0B0B0FFB1B1
310
B1FFB2B2B2FFB3B3B3FFB4B4B4FFB5B5B5FFB6B6B6FFB7B7B7FFB8B8B8FFB9B9
310
B9FFBABABAFFBBBBBBFFBCBCBCFFBDBDBDFFBEBEBEFFBFBFBFFFC0C0C0FFC1C1
310
C1FFC2C2C2FFC3C3C3FFC4C4C4FFC5C5C5FFC6C6C6FFC7C7C7FFC8C8C8FFC9C9
310
C9FFCACACAFFCBCBCBFFCCCCCCFFCDCDCDFFCECECEFFCFCFCFFFD0D0D0FFD1D1
310
D1FFD2D2D2FFD3D3D3FFD4D4D4FFD5D5D5FFD6D6D6FFD7D7D7FFD8D8D8FFD9D9
310
D9FFDADADAFFDBDBDBFFDCDCDCFFDDDDDDFFDEDEDEFFDFDFDFFFE0E0E0FFE1E1
310
E1FFE2E2E2FFE3E3E3FFE4E4E4FFE5E5E5FFE6E6E6FFE7E7E7FFE8E8E8FFE9E9
310
E9FFEAEAEAFFEBEBEBFFECECECFFEDEDEDFFEEEEEEFFEFEFEFFFF0F0F0FFF1F1
310
F1FFF2F2F2FFF3F3F3FFF4F4F4FFF5F5F5FFF6F6F6FFF7F7F7FFF8F8F8FFF9F9
310
F9FFFAFAFAFFFBFBFBFFFCFCFCFFFDFDFDFFFEFEFEFFFFFFFFFFFFFFFFFFFFFF
310
C94E4E4E4F4E4EFFFFFFFFFFC94E4E4E4E4E72FFFFFFFFFFFFFF734E4D4E4E4E
310
C9FFFFFFFFFFAA683516171616265B9BE9FFFFFFFFFF4E4E4E4D4E4EFFFFFFFF
310
FFFFFFFF4E4E4F4E4D4E4E4E4F4E4E4F4D4E4E4E4E4E4D4E4F4E4D4E4E4EAAFF
310
FFFFFFFFFFEA4E4F4F4E4E4E4E4E4D4D4F4F4E4E4E4E4E5B7FAAFFFFFFFFFFFF
310
C9744E1716171616164D8DEAFFFFFFFF0000FFFFFFFFFFFFBA161617161716FF
310
FFFFFFFFB917171616174FFFFFFFFFFFFFFF4E1716161616B9FFFFFFB9341717
310
1716171617171616268CFFFFFFFF161617161617FFFFFFFFFFFFFFB917161717
310
1617167F807F7F7F7F7F7F807F7F807F7F807F7F7F414EFFFFFFFFFFFF8C167F
310
7F807F7F7F7E7F7F807F807F7F807F4E3417258EFFFFEA4E162674AABAEAEBBA
310
AA74341680FFFFFF0000FFFFFFFFFFFFB9171717171617FFFFFFFFFFBB161616
310
16164EFFFFFFFFFFFFFF4E1717171717B9FFFF9C171617171716161616171616
310
171766FFFFFF161717161617FFFFFFFFFFFFFF8E16171717161616FFFFFFFFFF
310
FFFFFFFFFFFFFFFFFFFFFFFFFFAA16D9FFFFFFFFFF3467FFFFFFFFEAFFFFFFFF
310
FFFFFFFFFFFFFFFFFFCA671667EB26278DFFFFFFFFFFFFFFFFFFFF8C2541EAFF
310
0000FFFFFFFFFFFFB9171717171716FFFFFFFFFFBA16171617174EFFFFFFFFFF
310
FFFF4E1717161616BAFF9B1617161616171716171617161616161667FFFF1616
310
16161716FFFFFFFFFFFFFF7F16161617174017FFFFFFFFFFFFFFFFFFFFFFFFFF
310
FFFFFFFFFFFF344E7F7F7F7E7417DAFFFFFFFF80FFFFFFFFFFFFFFFFFFFFFFFF
310
FFFFFF9B163425CAFFFFFFFFFFFFFFFFFFFFFFFFCA2667FF0000FFFFFFFFFFFF
310
BA171717171617FFFFFFFFFFB916171716164EFFFFFFFFFFFFFF4F1716161717
310
B9C91716171616161716161617171616161617168DFF161716161717FFFFFFFF
310
FFFFFF7F17171716164F16FFFFFFFFFFFFFFFFFFFFFFFFFFFFFFFFFFFFFF9B16
310
17161617174EFFFFFFFFFF34FFFFFFFFD9BABABABABADAFFFFFFFFFF7F16AAFF
310
FFFFFFFFFFFFFFFFFFFFFFFFFF9C16BA0000FFFFFFFFFFFFB9161717161717FF
310
FFFFFFFFB917161716174DFFFFFFFFFFFFFF4E1616161616BA4E161617171716
310
419BEAEAAA4E16161617161726E9171717161616FFFFFFFFFFFFFF4F16161717
310
164E16FFFFFFFFFFBAB9B9B9B9B9BABABACAFFFFFFFFFFFFFFFFFFFFFFFFFFFF
310
FFFFBA16FFFFFFFF7F1617161617174DEAFFFFFFEA41FFFFFFFFFFAA4D16174E
310
9BFFFFFFFFFF34730000FFFFFFFFFFFFB9161617171617FFFFFFFFFFBA161616
310
16164EFFFFFFFFFFFFFF4F16161717169B1617161716175BFFFFFFFFFFFF7417
310
16171616168D171717161617FFFFFFFFFFFFEA2616171717167416FFFFFFFFFF
310
16171616171717171717EAFFFFFFFFFFFFFFFFFFFFFFFFFFFFFF6716FFFFFFFF
310
7F4EFFFFFFFFBA2573FFFFFFFFBAFFFFFFFFAA167FB9BB9B269BFFFFFFFF664F
310
0000FFFFFFFFFFFFB9171616161616FFFFFFFFFFBA16161717164EFFFFFFFFFF
310
FFFF4E16161616174E161617171626EAFFFFFFFFFFFFFF4E16161616164E1716
310
16161617FFFFFFFFFFFF671616161716347F16FFFFFFFFFF16B9FFFFFFFFFFFF
310
D9168DFFFFFFFFFFFFFFFFFFFFFFFFFFFFEA1716FFFFFFFF7F4EFFFFFFFFFF7F
310
4EFFFFFFFFFFFFFFFFFF5B66FFFFFFEA347FFFFFFFFF7F4D0000FFFFFFFFFFFF
310
B9171616171617FFFFFFFFFFBA17161716174EFFFFFFFFFFFFFF4D1716161617
310
17161716161673FFFFFFFFFFFFFFFF9B1617161717161616171616174F4E4E4E
310
4E341616171616167E7F16FFFFFFFFFF16BAFFFFFFFFFFFFFF5B41FFFFFFFF34
310
1616171616BAFFFFFF9B1716FFFFFFFF7F4EFFFFFFFFFF4E4EFFFFFFFF734E4E
310
4E4E267EDA9B67164EEAFFFFFFFF744D0000FFFFFFFFFFFFBA171717161617FF
310
FFFFFFFFBA1616171616347F7F7F7F80807F331616161717161717161716B9FF
310
FFFFFFFFFFFFFFE9161616161616171716161716171616161616171616171734
310
EA7F16FFFFFFFFFF16BAFFFFFFFFFFFFFFAA17C9FFFFFF7326BABA5B25FFFFFF
310
FF401716FFFFFFFF7F264F4E4E4E4217AAFFFFFFEA16677F73261616164173CA
310
FFFFFFFFFFFF417F0000FFFFFFFFFFFFBA171616171617FFFFFFFFFFBA161616
310
17171616161616161616161717161616161616161617EAFFFFFFFFFFFFFFFFFF
310
261717161716161617161616161617161617161616174EEAFF8016FFFFFFFFFF
310
17BAFFFFFFFFFFFFFFFF3467FFFFFFC916C9FF3467FFFFFFDA166716FFFFFFFF
310
9C4D4E4E4E4E67AAFFFFFFFF6834FF7F262567AAEAFFFFFFFFFFFFFFFF9B17D9
310
0000FFFFFFFFFFFFB9161616161616FFFFFFFFFFBA1617161717171616161616
310
1716171716161716161617171716FFFFFFFFFFFFFFFFFFFF4E17161716171616
310
1617171616161716171717161616169BFF7F17FFFFFFFFFF17B9FFFFFFFFFFFF
310
FFFF7326FFFFFFFF3473DA16AAFFFFFF7317AA16FFFFFFFFFFFFFFFFFFFFFFFF
310
FFFFEA6725BA4E167FEAFFFFFFFFFFFFFFFFFFFF9C167FFF0000FFFFFFFFFFFF
310
B9161717171716FFFFFFFFFFBA16161716171616171717161617161716161616
310
171617171617EAFFFFFFFFFFFFFFFFFF26161717161616161616161617171616
310
1616161616171616AA8016FFFFFFFFFF16BAFFFFFFFFFFFFFFFFDA179BFFFFFF
310
74348D26FFFFFFFF2566B917FFFFFFFFD8BAB9BAB9BADAFFFFEA41169B7425C9
310
FFFFFFFFFFFFFFFFFFFFAB4F1680FFFF0000FFFFFFFFFFFFBA161717171617FF
310
FFFFFFFFBA17161717161617171617161616161617171616171716171617BBFF
310
FFFFFFFFFFFFFFE9171616161617161617161716FFFFFFFFFFD9671616161617
310
348017FFFFFFFFFF16BAFFFFFFFFFFFFFFFFFF4E5AFFFFFFC916265AFFFFFFAA
310
16AABA16FFFFFFFF7F1617161616179BFFFFEB4127168DFFFFFFFFFFFFFFD99B
310
6734175AC9FFFFFF0000FFFFFFFFFFFFB9161617171617FFFFFFFFFFBB161616
310
1616347F807F7F7F7F8033171716171617171616161672FFFFFFFFFFFFFFFF9C
310
171617171617161716161617FFFFFFFFFFFFFF4117161616174E17FFFFFFFFFF
310
16BAFFFFFFFFFFFFFFFFFF9B16DAFFFFFF34169BFFFFFF5A26FFB917FFFFFFFF
310
7F4EFFFFFFEA5B26FFFFFFEA2616EAFFFFFFFFDA743416331617414E4E4E4ECA
310
0000FFFFFFFFFFFFBA161716161616FFFFFFFFFFBA17171616164EFFFFFFFFFF
310
FFFF4E16161717174E161717171626EBFFFFFFFFFFFFFF4E16161617165B1616
310
16171617FFFFFFFFFFFFFF6716161616161617FFFFFFFFFF16BAFFFFFFFFFFFF
310
FFFFFFEA268CFFFFFF7316EAFFFFEB1774FFB916FFFFFFFF7F4EFFFFFFFF7316
310
FFFFFFFF6826FFFFFFFFEB264D9CEABA257F807F7F6616BA0000FFFFFFFFFFFF
310
BA161716161616FFFFFFFFFFBA16171616164DFFFFFFFFFFFFFF4E1617161617
310
9B1617171717165BEBFFFFFFFFFF671616161617179B171616161616FFFFFFFF
310
FFFFFF3417161617171617FFFFFFFFFF17BAFFFFFFFFFFFFFFFFFFFF6734FFFF
310
FFEBCAFFFFFF8D17C9FFBA17FFFFFFFF7F357F808066174FFFFFFFFF7F16FFFF
310
FFFFD91673B99B415BFFFFFFFFBA16DA00009B7F7F7F807F671617161616167F
310
80807F7E6617161616164EFFFFFFFFFFFFFF4E1616161617B94E171716161616
310
349BC9D9AA4E16171616161634FF161617161717B9B9BAB9BA9B411716171716
310
163416FFFFFFFFFF16B9FFFFFFFFFFFFFFFFFFFFC917CAFFFFFFFFFFFFFF3342
310
FFFFBA17FFFFFFFF9B4E4E4F4E4E66EAFFFFFFFF5B16C9FFFFFFFFAA4E164E73
310
EAFFFFFFFF8D26FF00004E161716161616171617171616171717171617161616
310
17174EFFFFFFFFFFFFFF4E1717171616B9D92616171716171716171717171716
310
16171716AAFF161717171617161617171616161617161716166717FFFFFFFFFF
310
17B9FFFFFFFFFFFFFFFFFFFFFF3467FFFFFFFFFFFFCA168CFFFFBB17FFFFFFFF
310
FFFFFFFFFFFFFFFFFFFFFFEA26265BFFFFFFFFFFFFFFFFFFFFFFFFFFEA3467FF
310
00004D16161616161617161717161617161616171617171616164EFFFFFFFFFF
310
FFFF4D1617161616BAFF9B1616161616161716161616171717161766FFFF1616
310
16171617161617161716171616171717667F16FFFFFFFFFF17BAFFFFFFFFFFFF
310
FFFFFFFFFF8C26EAFFFFFFFFFF6617EAFFFFBA17FFFFFFFFFFFFFFFFFFFFFFFF
310
FFFFEA5A25BA269BFFFFFFFFFFFFFFFFFFFFFFFF6616DAFF00004E1616171616
310
1616161616161716161617171616171616174EFFFFFFFFFFFFFF4D1717171716
310
B9FFFF9C161616161616161716161717171667FFFFFF17161717171716161617
310
1716161616161641E97E16FFFFFFFFFF16B9FFFFFFFFFFFFFFFFFFFFFFEA169B
310
FFFFFFFFEA265BFFFFFFB916FFFFFFFFFFFFFFFFFFFFFFFFFF9B3416AAFF9B17
310
67EAFFFFFFFFFFFFFFFFEA5B169BFFFF00004D17161716161616161717171616
310
161717161716171716174EFFFFFFFFFFFFFF4D1616161616BAFFFFFFBB411616
310
161716161616171634ABFFFFFFFF161716161617171716171617171617267FFF
310
FF7F164E4E4E4E4F17BAFFFFFFFFFFFFFFFFFFFFFFFF66344D4E4E4F4117AAFF
310
FFFFBA174E4E4E4D4E4D4D4E4E4E4E4116174EBBFFFFFFCA342666ABEAFFFFEA
310
AA6725269CFFFFFF0000724F4E4D4D4D4E4D4D4E4E4E4D4E4E4E4E4E4E4E4E4D
310
4E4E74FFFFFFFFFFFFFF734E4E4E4D4ECAFFFFFFFFFFAA663416171717265B9B
310
FFFFFFFFFFFF7F8080807F80807F7F7F7F7F807FBAFFFFFFFF9B4E4E4F4D4D4E
310
4DC9FFFFFFFFFFFFFFFFFFFFFFFFBA4E4E4E4E4D4E4EFFFFFFFFC94E4E4E4F4E
310
4E4E4D4E4E5A807F9CD9FFFFFFFFFFFFFF9B5B2617171716174E8DEAFFFFFFFF
310
0000000000000000000000000000000000000000000000000000000000000000
  1
OLE
  0
ENDSEC
  0
SECTION
  2
OBJECTS
  0
DICTIONARY
  5
C
330
0
100
AcDbDictionary
281
     1
  3
ACAD_GROUP
350
D
  3
ACAD_LAYOUT
350
1A
  3
ACAD_MLINESTYLE
350
17
  3
ACAD_PLOTSETTINGS
350
19
  3
ACAD_PLOTSTYLENAME
350
E
  3
ACAD_SCALELIST
350
47
  0
DICTIONARY
  5
D
102
{ACAD_REACTORS
330
C
102
}
330
C
100
AcDbDictionary
281
     1
  0
DICTIONARY
  5
1A
102
{ACAD_REACTORS
330
C
102
}
330
C
100
AcDbDictionary
281
     1
  3
Layout1
350
1E
  3
Layout2
350
26
  3
Model
350
22
  0
DICTIONARY
  5
17
102
{ACAD_REACTORS
330
C
102
}
330
C
100
AcDbDictionary
281
     1
  3
Standard
350
18
  0
DICTIONARY
  5
19
102
{ACAD_REACTORS
330
C
102
}
330
C
100
AcDbDictionary
281
     1
  0
ACDBDICTIONARYWDFLT
  5
E
102
{ACAD_REACTORS
330
C
102
}
330
C
100
AcDbDictionary
281
     1
  3
Normal
350
F
100
AcDbDictionaryWithDefault
340
F
  0
DICTIONARY
  5
47
102
{ACAD_REACTORS
330
C
102
}
330
C
100
AcDbDictionary
281
     1
  3
A0
350
48
  3
A1
350
49
  3
A2
350
4A
  3
A3
350
4B
  3
A4
350
4C
  3
A5
350
4D
  3
A6
350
4E
  3
A7
350
4F
  3
A8
350
50
  3
A9
350
51
  3
B0
350
52
  3
B1
350
53
  3
B2
350
54
  3
B3
350
55
  3
B4
350
56
  3
B5
350
57
  3
B6
350
58
  3
B7
350
59
  3
B8
350
5A
  3
B9
350
5B
  3
C0
350
5C
  3
C1
350
5D
  3
C2
350
5E
  3
C3
350
5F
  3
C4
350
60
  3
C5
350
61
  3
C6
350
62
  3
C7
350
63
  3
C8
350
64
  3
C9
350
65
  3
D0
350
66
  3
D1
350
67
  3
D2
350
68
  0
LAYOUT
  5
1E
102
{ACAD_REACTORS
330
1A
102
}
330
1A
100
AcDbPlotSettings
  1

  2
none_device
  4

  6

 40
0.0
 41
0.0
 42
0.0
 43
0.0
 44
0.0
 45
0.0
 46
0.0
 47
0.0
 48
0.0
 49
0.0
140
0.0
141
0.0
142
1.0
143
1.0
 70
   688
 72
     0
 73
     0
 74
     5
  7

 75
    16
147
1.0
148
0.0
149
0.0
100
AcDbLayout
  1
Layout1
 70
     1
 71
     1
 10
0.0
 20
0.0
 11
12.0
 21
9.0
 12
0.0
 22
0.0
 32
0.0
 14
1.0000000000E+20
 24
1.0000000000E+20
 34
1.0000000000E+20
 15
-1.0000000000E+20
 25
-1.0000000000E+20
 35
-1.0000000000E+20
146
0.0
 13
0.0
 23
0.0
 33
0.0
 16
1.0
 26
0.0
 36
0.0
 17
0.0
 27
1.0
 37
0.0
 76
     0
330
1B
  0
LAYOUT
  5
26
102
{ACAD_REACTORS
330
1A
102
}
330
1A
100
AcDbPlotSettings
  1

  2
none_device
  4

  6

 40
0.0
 41
0.0
 42
0.0
 43
0.0
 44
0.0
 45
0.0
 46
0.0
 47
0.0
 48
0.0
 49
0.0
140
0.0
141
0.0
142
1.0
143
1.0
 70
   688
 72
     0
 73
     0
 74
     5
  7

 75
    16
147
1.0
148
0.0
149
0.0
100
AcDbLayout
  1
Layout2
 70
     1
 71
     2
 10
0.0
 20
0.0
 11
0.0
 21
0.0
 12
0.0
 22
0.0
 32
0.0
 14
0.0
 24
0.0
 34
0.0
 15
0.0
 25
0.0
 35
0.0
146
0.0
 13
0.0
 23
0.0
 33
0.0
 16
1.0
 26
0.0
 36
0.0
 17
0.0
 27
1.0
 37
0.0
 76
     0
330
23
  0
LAYOUT
  5
22
102
{ACAD_REACTORS
330
1A
102
}
330
1A
100
AcDbPlotSettings
  1

  2
none_device
  4
Letter_(8.50_x_11.00_Inches)
  6

 40
6.35
 41
6.35
 42
6.35000508
 43
6.35000508
 44
215.9
 45
279.4
 46
0.0
 47
0.0
 48
0.0
 49
0.0
140
0.0
141
0.0
142
1.0
143
1.0
 70
  1712
 72
     0
 73
     0
 74
     0
  7

 75
     0
147
1.0
148
0.0
149
0.0
100
AcDbLayout
  1
Model
 70
     1
 71
     0
 10
0.0
 20
0.0
 11
11.0
 21
8.5
 12
0.0
 22
0.0
 32
0.0
 14
0.0
 24
0.0
 34
0.0
 15
11.0
 25
8.5
 35
0.0
146
0.0
 13
0.0
 23
0.0
 33
0.0
 16
1.0
 26
0.0
 36
0.0
 17
0.0
 27
1.0
 37
0.0
 76
     0
330
1F
331
29
  0
MLINESTYLE
  5
18
102
{ACAD_REACTORS
330
17
102
}
330
17
100
AcDbMlineStyle
  2
Standard
 70
     0
  3

 62
   256
 51
90.0
 52
90.0
 71
     2
 49
0.5
 62
   256
  6
BYLAYER
 49
-0.5
 62
   256
  6
BYLAYER
  0
ACDBPLACEHOLDER
  5
F
102
{ACAD_REACTORS
330
E
102
}
330
E
  0
SCALE
  5
48
102
{ACAD_REACTORS
330
47
102
}
330
47
100
AcDbScale
 70
     0
300
1:1
140
1.0
141
1.0
290
     1
  0
SCALE
  5
49
102
{ACAD_REACTORS
330
47
102
}
330
47
100
AcDbScale
 70
     0
300
1:2
140
1.0
141
2.0
290
     0
  0
SCALE
  5
4A
102
{ACAD_REACTORS
330
47
102
}
330
47
100
AcDbScale
 70
     0
300
1:4
140
1.0
141
4.0
290
     0
  0
SCALE
  5
4B
102
{ACAD_REACTORS
330
47
102
}
330
47
100
AcDbScale
 70
     0
300
1:5
140
1.0
141
5.0
290
     0
  0
SCALE
  5
4C
102
{ACAD_REACTORS
330
47
102
}
330
47
100
AcDbScale
 70
     0
300
1:8
140
1.0
141
8.0
290
     0
  0
SCALE
  5
4D
102
{ACAD_REACTORS
330
47
102
}
330
47
100
AcDbScale
 70
     0
300
1:10
140
1.0
141
10.0
290
     0
  0
SCALE
  5
4E
102
{ACAD_REACTORS
330
47
102
}
330
47
100
AcDbScale
 70
     0
300
1:16
140
1.0
141
16.0
290
     0
  0
SCALE
  5
4F
102
{ACAD_REACTORS
330
47
102
}
330
47
100
AcDbScale
 70
     0
300
1:20
140
1.0
141
20.0
290
     0
  0
SCALE
  5
50
102
{ACAD_REACTORS
330
47
102
}
330
47
100
AcDbScale
 70
     0
300
1:30
140
1.0
141
30.0
290
     0
  0
SCALE
  5
51
102
{ACAD_REACTORS
330
47
102
}
330
47
100
AcDbScale
 70
     0
300
1:40
140
1.0
141
40.0
290
     0
  0
SCALE
  5
52
102
{ACAD_REACTORS
330
47
102
}
330
47
100
AcDbScale
 70
     0
300
1:50
140
1.0
141
50.0
290
     0
  0
SCALE
  5
53
102
{ACAD_REACTORS
330
47
102
}
330
47
100
AcDbScale
 70
     0
300
1:100
140
1.0
141
100.0
290
     0
  0
SCALE
  5
54
102
{ACAD_REACTORS
330
47
102
}
330
47
100
AcDbScale
 70
     0
300
2:1
140
2.0
141
1.0
290
     0
  0
SCALE
  5
55
102
{ACAD_REACTORS
330
47
102
}
330
47
100
AcDbScale
 70
     0
300
4:1
140
4.0
141
1.0
290
     0
  0
SCALE
  5
56
102
{ACAD_REACTORS
330
47
102
}
330
47
100
AcDbScale
 70
     0
300
8:1
140
8.0
141
1.0
290
     0
  0
SCALE
  5
57
102
{ACAD_REACTORS
330
47
102
}
330
47
100
AcDbScale
 70
     0
300
10:1
140
10.0
141
1.0
290
     0
  0
SCALE
  5
58
102
{ACAD_REACTORS
330
47
102
}
330
47
100
AcDbScale
 70
     0
300
100:1
140
100.0
141
1.0
290
     0
  0
SCALE
  5
59
102
{ACAD_REACTORS
330
47
102
}
330
47
100
AcDbScale
 70
     0
300
1/128" = 1'-0"
140
0.0078125
141
12.0
290
     0
  0
SCALE
  5
5A
102
{ACAD_REACTORS
330
47
102
}
330
47
100
AcDbScale
 70
     0
300
1/64" = 1'-0"
140
0.015625
141
12.0
290
     0
  0
SCALE
  5
5B
102
{ACAD_REACTORS
330
47
102
}
330
47
100
AcDbScale
 70
     0
300
1/32" = 1'-0"
140
0.03125
141
12.0
290
     0
  0
SCALE
  5
5C
102
{ACAD_REACTORS
330
47
102
}
330
47
100
AcDbScale
 70
     0
300
1/16" = 1'-0"
140
0.0625
141
12.0
290
     0
  0
SCALE
  5
5D
102
{ACAD_REACTORS
330
47
102
}
330
47
100
AcDbScale
 70
     0
300
3/32" = 1'-0"
140
0.09375
141
12.0
290
     0
  0
SCALE
  5
5E
102
{ACAD_REACTORS
330
47
102
}
330
47
100
AcDbScale
 70
     0
300
1/8" = 1'-0"
140
0.125
141
12.0
290
     0
  0
SCALE
  5
5F
102
{ACAD_REACTORS
330
47
102
}
330
47
100
AcDbScale
 70
     0
300
3/16" = 1'-0"
140
0.1875
141
12.0
290
     0
  0
SCALE
  5
60
102
{ACAD_REACTORS
330
47
102
}
330
47
100
AcDbScale
 70
     0
300
1/4" = 1'-0"
140
0.25
141
12.0
290
     0
  0
SCALE
  5
61
102
{ACAD_REACTORS
330
47
102
}
330
47
100
AcDbScale
 70
     0
300
3/8" = 1'-0"
140
0.375
141
12.0
290
     0
  0
SCALE
  5
62
102
{ACAD_REACTORS
330
47
102
}
330
47
100
AcDbScale
 70
     0
300
1/2" = 1'-0"
140
0.5
141
12.0
290
     0
  0
SCALE
  5
63
102
{ACAD_REACTORS
330
47
102
}
330
47
100
AcDbScale
 70
     0
300
3/4" = 1'-0"
140
0.75
141
12.0
290
     0
  0
SCALE
  5
64
102
{ACAD_REACTORS
330
47
102
}
330
47
100
AcDbScale
 70
     0
300
1" = 1'-0"
140
1.0
141
12.0
290
     0
  0
SCALE
  5
65
102
{ACAD_REACTORS
330
47
102
}
330
47
100
AcDbScale
 70
     0
300
1-1/2" = 1'-0"
140
1.5
141
12.0
290
     0
  0
SCALE
  5
66
102
{ACAD_REACTORS
330
47
102
}
330
47
100
AcDbScale
 70
     0
300
3" = 1'-0"
140
3.0
141
12.0
290
     0
  0
SCALE
  5
67
102
{ACAD_REACTORS
330
47
102
}
330
47
100
AcDbScale
 70
     0
300
6" = 1'-0"
140
6.0
141
12.0
290
     0
  0
SCALE
  5
68
102
{ACAD_REACTORS
330
47
102
}
330
47
100
AcDbScale
 70
     0
300
1'-0" = 1'-0"
140
12.0
141
12.0
290
     0
  0
ENDSEC
  0
EOF
