  0
SECTION
  2
HEADER
  9
$ACADVER
  1
AC1012
  9
$DWGCODEPAGE
  3
ansi_1252
  9
$INSBASE
 10
0.0
 20
0.0
 30
0.0
  9
$EXTMIN
 10
0.0
 20
0.0
 30
0.0
  9
$EXTMAX
 10
11.0
 20
8.5
 30
0.0
  9
$LIMMIN
 10
0.0
 20
0.0
  9
$LIMMAX
 10
0.0
 20
0.0
  9
$ORTHOMODE
 70
         0
  9
$REGENMODE
 70
         1
  9
$FILLMODE
 70
         1
  9
$QTEXTMODE
 70
         0
  9
$MIRRTEXT
 70
         1
  9
$DRAGMODE
 70
         2
  9
$LTSCALE
 40
1.0
  9
$OSMODE
 70
         0
  9
$ATTMODE
 70
         1
  9
$TEXTSIZE
 40
0.125
  9
$TRACEWID
 40
0.05
  9
$TEXTSTYLE
  7
STANDARD
  9
$CLAYER
  8
0
  9
$CELTYPE
  6
CONTINUOUS
  9
$CECOLOR
 62
       256
  9
$CELTSCALE
 40
1.0
  9
$DELOBJ
 70
         1
  9
$DISPSILH
 70
         0
  9
$DIMSCALE
 40
1.0
  9
$DIMASZ
 40
39.3700787402
  9
$DIMEXO
 40
0.0
  9
$DIMDLI
 40
0.38
  9
$DIMRND
 40
0.0
  9
$DIMDLE
 40
39.3700787402
  9
$DIMEXE
 40
0.18
  9
$DIMTP
 40
0.0
  9
$DIMTM
 40
0.0
  9
$DIMTXT
 40
0.125
  9
$DIMCEN
 40
0.09
  9
$DIMTSZ
 40
0.0
  9
$DIMTOL
 70
         0
  9
$DIMLIM
 70
         0
  9
$DIMTIH
 70
         1
  9
$DIMTOH
 70
         1
  9
$DIMSE1
 70
         0
  9
$DIMSE2
 70
         0
  9
$DIMTAD
 70
         0
  9
$DIMZIN
 70
         1
  9
$DIMBLK
  1

  9
$DIMASO
 70
         1
  9
$DIMSHO
 70
         1
  9
$DIMPOST
  1

  9
$DIMAPOST
  1

  9
$DIMALT
 70
         0
  9
$DIMALTD
 70
         2
  9
$DIMALTF
 40
25.4
  9
$DIMLFAC
 40
1.0
  9
$DIMTOFL
 70
         0
  9
$DIMTVP
 40
0.0
  9
$DIMTIX
 70
         0
  9
$DIMSOXD
 70
         0
  9
$DIMSAH
 70
         0
  9
$DIMBLK1
  1

  9
$DIMBLK2
  1

  9
$DIMSTYLE
  2
STANDARD
  9
$DIMCLRD
 70
         0
  9
$DIMCLRE
 70
         0
  9
$DIMCLRT
 70
         0
  9
$DIMTFAC
 40
1.0
  9
$DIMGAP
 40
0.0
  9
$DIMJUST
 70
         0
  9
$DIMSD1
 70
         0
  9
$DIMSD2
 70
         0
  9
$DIMTOLJ
 70
         1
  9
$DIMTZIN
 70
         1
  9
$DIMALTZ
 70
         0
  9
$DIMALTTZ
 70
         0
  9
$DIMFIT
 70
         3
  9
$DIMUPT
 70
         0
  9
$DIMUNIT
 70
         2
  9
$DIMDEC
 70
         4
  9
$DIMTDEC
 70
         4
  9
$DIMALTU
 70
         2
  9
$DIMALTTD
 70
         2
  9
$DIMTXSTY
  7
STANDARD
  9
$DIMAUNIT
 70
         0
  9
$LUNITS
 70
         2
  9
$LUPREC
 70
         2
  9
$SKETCHINC
 40
0.1
  9
$FILLETRAD
 40
0.0
  9
$AUNITS
 70
         0
  9
$AUPREC
 70
         2
  9
$MENU
  1
acad
  9
$ELEVATION
 40
0.0
  9
$PELEVATION
 40
0.0
  9
$THICKNESS
 40
0.0
  9
$LIMCHECK
 70
         0
  9
$BLIPMODE
 70
         1
  9
$CHAMFERA
 40
0.0
  9
$CHAMFERB
 40
0.0
  9
$CHAMFERC
 40
0.0
  9
$CHAMFERD
 40
0.0
  9
$SKPOLY
 70
         0
  9
$TDCREATE
 40
0.000000000
  9
$TDUPDATE
 40
0.000000000
  9
$TDINDWG
 40
0.0000000000
  9
$TDUSRTIMER
 40
0.0000000000
  9
$USRTIMER
 70
         1
  9
$ANGBASE
 50
0.0
  9
$ANGDIR
 70
         0
  9
$PDMODE
 70
         0
  9
$PDSIZE
 40
-1.0
  9
$PLINEWID
 40
0.0
  9
$COORDS
 70
         0
  9
$SPLFRAME
 70
         0
  9
$SPLINETYPE
 70
         6
  9
$SPLINESEGS
 70
         8
  9
$ATTDIA
 70
         0
  9
$ATTREQ
 70
         1
  9
$HANDLING
 70
         1
  9
$HANDSEED
  5
885
  9
$SURFTAB1
 70
         6
  9
$SURFTAB2
 70
         6
  9
$SURFTYPE
 70
         6
  9
$SURFU
 70
         6
  9
$SURFV
 70
         6
  9
$UCSNAME
  2

  9
$UCSORG
 10
0.0
 20
0.0
 30
0.0
  9
$UCSXDIR
 10
1.0
 20
0.0
 30
0.0
  9
$UCSYDIR
 10
0.0
 20
1.0
 30
0.0
  9
$PUCSNAME
  2

  9
$PUCSORG
 10
0.0
 20
0.0
 30
0.0
  9
$PUCSXDIR
 10
1.0
 20
0.0
 30
0.0
  9
$PUCSYDIR
 10
0.0
 20
1.0
 30
0.0
  9
$USERI1
 70
         0
  9
$USERI2
 70
         0
  9
$USERI3
 70
         0
  9
$USERI4
 70
         0
  9
$USERI5
 70
         0
  9
$USERR1
 40
0.0
  9
$USERR2
 40
0.0
  9
$USERR3
 40
0.0
  9
$USERR4
 40
0.0
  9
$USERR5
 40
0.0
  9
$WORLDVIEW
 70
         1
  9
$SHADEDGE
 70
         3
  9
$SHADEDIF
 70
        70
  9
$TILEMODE
 70
         1
  9
$MAXACTVP
 70
        16
  9
$PINSBASE
 10
0.0
 20
0.0
 30
0.0
  9
$PLIMCHECK
 70
         0
  9
$PEXTMIN
 10
1.0000000000E+20
 20
1.0000000000E+20
 30
1.0000000000E+20
  9
$PEXTMAX
 10
-1.0000000000E+20
 20
-1.0000000000E+20
 30
-1.0000000000E+20
  9
$PLIMMIN
 10
0.0
 20
0.0
  9
$PLIMMAX
 10
12.0
 20
9.0
  9
$UNITMODE
 70
         0
  9
$VISRETAIN
 70
         0
  9
$PLINEGEN
 70
         1
  9
$PSLTSCALE
 70
         1
  9
$TREEDEPTH
 70
      3020
  9
$PICKSTYLE
 70
         1
  9
$CMLSTYLE
  2
STANDARD
  9
$CMLJUST
 70
         0
  9
$CMLSCALE
 40
1.0
  9
$SAVEIMAGES
 70
         0
  0
ENDSEC
  0
SECTION
  2
CLASSES
  0
CLASS
  1
LWPOLYLINE
  2
AcDbPolyline
  3
"AutoCAD"
 90
    32768
280
         0
281
         1
  0
CLASS
  1
IMAGE
  2
AcDbRasterImage
  3
ISM
 90
    32895
280
         0
281
         1
  0
CLASS
  1
OLE2FRAME
  2
AcDbOle2Frame
  3
""
 90
    32768
280
         0
281
         1
  0
CLASS
  1
HATCH
  2
AcDbHatch
  3
"ACAD_SEDONA"
 90
    32768
280
         0
281
         1
  0
CLASS
  1
DICTIONARYVAR
  2
AcDbDictionaryVar
  3
"AutoCAD"
 90
    32768
280
         0
281
         0
  0
CLASS
  1
RASTERVARIABLES
  2
AcDbRasterVariables
  3
ISM
 90
    32768
280
         0
281
         0
  0
CLASS
  1
IMAGEDEF
  2
AcDbRasterImageDef
  3
ISM
 90
    32768
280
         0
281
         0
  0
CLASS
  1
IMAGEDEF_REACTOR
  2
AcDbRasterImageDefReactor
  3
ISM
 90
    32769
280
         0
281
         0
  0
CLASS
  1
IDBUFFER
  2
AcDbIdBuffer
  3
"Acad"
 90
    32768
280
         0
281
         0
  0
CLASS
  1
SPATIAL_FILTER
  2
AcDbSpatialFilter
  3
"Acad"
 90
    32768
280
         0
281
         0
  0
CLASS
  1
XRECORD
  2
AcDbXrecord
  3
"<Built In>"
 90
    32768
280
         0
281
         0
  0
CLASS
  1
SORTENTSTABLE
  2
AcDbSortentsTable
  3
"AutoCAD"
 90
    32768
280
         0
281
         0
  0
CLASS
  1
LAYER_INDEX
  2
AcDbLayerIndex
  3
"Acad"
 90
    32768
280
         0
281
         0
  0
CLASS
  1
SPATIAL_INDEX
  2
AcDbSpatialIndex
  3
"Acad"
 90
    32768
280
         0
281
         0
  0
CLASS
  1
OBJECT_PTR
  2
CAseDLPNTableRecord
  3
"ASE-LPNTableRecord"
 90
    32769
280
         0
281
         0
  0
CLASS
  1
LAYOUT
  2
AcDbLayout
  3
"AutoCAD 2000"
 90
    32768
280
         0
281
         0
  0
CLASS
  1
PLOTSETTINGS
  2
AcDbPlotSettings
  3
"AutoCAD 2000"
 90
    32768
280
         0
281
         0
  0
CLASS
  1
ACDBDICTIONARYWDFLT
  2
AcDbDictionaryWithDefault
  3
"AutoCAD 2000"
 90
    32768
280
         0
281
         0
  0
CLASS
  1
ACDBPLACEHOLDER
  2
AcDbPlaceHolder
  3
"AutoCAD 2000"
 90
    32768
280
         0
281
         0
  0
CLASS
  1
VBA_PROJECT
  2
AcDbVbaProject
  3
"acadvba"
 90
    32768
280
         0
281
         0
  0
CLASS
  1
WIPEOUT
  2
AcDbWipeout
  3
WipeOut|AutoCAD Express Tool|expresstools@autodesk.com
 90
    32895
280
         0
281
         1
  0
CLASS
  1
WIPEOUTVARIABLES
  2
AcDbWipeoutVariables
  3
WipeOut|AutoCAD Express Tool|expresstools@autodesk.com
 90
    32768
280
         0
281
         0
  0
CLASS
  1
RTEXT
  2
RText
  3
RText|AutoCAD Express Tool|expresstools@autodesk.com
 90
    32768
280
         0
281
         1
  0
CLASS
  1
ARCALIGNEDTEXT
  2
AcDbArcAlignedText
  3
ATEXT|AutoCAD Express Tool|expresstools@autodesk.com
 90
    32768
280
         0
281
         1
  0
ENDSEC
  0
SECTION
  2
TABLES
  0
TABLE
  2
VPORT
  5
7
100
AcDbSymbolTable
 70
         1
  0
VPORT
  5
15
100
AcDbSymbolTableRecord
100
AcDbViewportTableRecord
  2
*ACTIVE
 70
         0
 10
0.0
 20
0.0
 11
1.0
 21
1.0
 12
5.5
 22
4.25
 13
0.0
 23
0.0
 14
1.0
 24
1.0
 15
0.0
 25
0.0
 16
0.0
 26
0.0
 36
1.0
 17
0.0
 27
0.0
 37
0.0
 40
8.5
 41
0.7727272727
 42
50.0
 43
0.0
 44
0.0
 50
0.0
 51
0.0
 71
         0
 72
      2000
 73
         1
 74
         1
 75
         0
 76
         0
 77
         0
 78
         0
  0
ENDTAB
  0
TABLE
  2
LTYPE
  5
4
100
AcDbSymbolTable
 70
         8
  0
LTYPE
  5
11
100
AcDbSymbolTableRecord
100
AcDbLinetypeTableRecord
  2
BYBLOCK
 70
        64
  3

 72
        65
 73
         0
 40
0.0
  0
LTYPE
  5
12
100
AcDbSymbolTableRecord
100
AcDbLinetypeTableRecord
  2
BYLAYER
 70
        64
  3

 72
        65
 73
         0
 40
0.0
  0
LTYPE
  5
13
100
AcDbSymbolTableRecord
100
AcDbLinetypeTableRecord
  2
CONTINUOUS
 70
        64
  3
Solid line
 72
        65
 73
         0
 40
0.0
  0
LTYPE
  5
1D
100
AcDbSymbolTableRecord
100
AcDbLinetypeTableRecord
  2
HIDDEN
 70
        64
  3
Hidden __ __ __ __ __ __ __ __ __ __ __ __ __ __
 72
        65
 73
         2
 40
0.075
 49
0.05
 74
         0
 49
-0.025
 74
         0
  0
LTYPE
  5
1E
100
AcDbSymbolTableRecord
100
AcDbLinetypeTableRecord
  2
PHANTOM
 70
        64
  3
Phantom ______  __  __  ______  __  __  ______
 72
        65
 73
         6
 40
0.5
 49
0.25
 74
         0
 49
-0.05
 74
         0
 49
0.05
 74
         0
 49
-0.05
 74
         0
 49
0.05
 74
         0
 49
-0.05
 74
         0
  0
LTYPE
  5
1F
100
AcDbSymbolTableRecord
100
AcDbLinetypeTableRecord
  2
CENTER
 70
        64
  3
Center ____ _ ____ _ ____ _ ____ _ ____ _ ____
 72
        65
 73
         4
 40
0.4
 49
0.25
 74
         0
 49
-0.05
 74
         0
 49
0.05
 74
         0
 49
-0.05
 74
         0
  0
LTYPE
  5
20
100
AcDbSymbolTableRecord
100
AcDbLinetypeTableRecord
  2
CENTERX2
 70
        64
  3
Center (2x) ________  __  ________  __  _____
 72
        65
 73
         4
 40
0.8
 49
0.5
 74
         0
 49
-0.1
 74
         0
 49
0.1
 74
         0
 49
-0.1
 74
         0
  0
LTYPE
  5
21
100
AcDbSymbolTableRecord
100
AcDbLinetypeTableRecord
  2
DOT2
 70
        64
  3
Dot (.5x) ........................................
 72
        65
 73
         2
 40
0.025
 49
0.0
 74
         0
 49
-0.025
 74
         0
  0
ENDTAB
  0
TABLE
  2
LAYER
  5
2
100
AcDbSymbolTable
 70
         3
  0
LAYER
  5
14
100
AcDbSymbolTableRecord
100
AcDbLayerTableRecord
  2
0
 70
         0
 62
         7
  6
CONTINUOUS
  0
LAYER
  5
23
100
AcDbSymbolTableRecord
100
AcDbLayerTableRecord
  2
DEFPOINTS
 70
         0
 62
         7
  6
CONTINUOUS
  0
LAYER
  5
24
100
AcDbSymbolTableRecord
100
AcDbLayerTableRecord
  2
FORMAT
 70
         0
 62
         7
  6
CONTINUOUS
  0
ENDTAB
  0
TABLE
  2
STYLE
  5
3
100
AcDbSymbolTable
 70
         2
  0
STYLE
  5
17
100
AcDbSymbolTableRecord
100
AcDbTextStyleTableRecord
  2
STANDARD
 70
         0
 40
0.0
 41
1.0
 50
0.0
 71
         0
 42
0.0
  3
txt
  4

  0
STYLE
  5
49
100
AcDbSymbolTableRecord
100
AcDbTextStyleTableRecord
  2
SLDTEXTSTYLE0
 70
         0
 40
0.0
 41
0.75
 50
0.0
 71
         0
 42
0.0
  3
TXT
  4

  0
ENDTAB
  0
TABLE
  2
VIEW
  5
5
100
AcDbSymbolTable
 70
         0
  0
ENDTAB
  0
TABLE
  2
UCS
  5
6
100
AcDbSymbolTable
 70
         0
  0
ENDTAB
  0
TABLE
  2
APPID
  5
8
100
AcDbSymbolTable
 70
         1
  0
APPID
  5
16
100
AcDbSymbolTableRecord
100
AcDbRegAppTableRecord
  2
ACAD
 70
         0
  0
ENDTAB
  0
TABLE
  2
DIMSTYLE
  5
9
100
AcDbSymbolTable
 70
         5
  0
DIMSTYLE
105
18
100
AcDbSymbolTableRecord
100
AcDbDimStyleTableRecord
  2
STANDARD
 70
         0
  3

  4

  5

  6

  7

 40
1.0
 41
0.18
 42
0.0625
 43
0.38
 44
0.18
 45
0.0
 46
0.0
 47
0.0
 48
0.0
 71
         0
 72
         0
 73
         1
 74
         1
 75
         0
 76
         0
 77
         0
 78
         0
140
0.18
141
0.09
142
0.0
143
25.4
144
1.0
145
0.0
146
1.0
147
0.09
170
         0
171
         2
172
         0
173
         0
174
         0
175
         0
176
         0
177
         0
178
         0
270
         2
271
         4
272
         4
273
         2
274
         2
275
         0
280
         0
281
         0
282
         0
283
         1
284
         0
285
         0
286
         0
287
         3
288
         0
340
17
  0
DIMSTYLE
105
308
100
AcDbSymbolTableRecord
100
AcDbDimStyleTableRecord
  2
SLDDIMSTYLE0
 70
         0
  3

  4

  5

  6

  7

 40
1.0
 41
0.156
 42
0.0625
 43
0.38
 44
0.07
 45
0.0
 46
0.0
 47
0.0
 48
0.0
 71
         0
 72
         0
 73
         1
 74
         1
 75
         0
 76
         0
 77
         0
 78
        12
140
0.125
141
0.09
142
0.0
143
25.4
144
1.0
145
0.0
146
1.0
147
0.03125
170
         0
171
         2
172
         0
173
         1
174
         0
175
         0
176
         7
177
         7
178
         7
270
         2
271
         2
272
         4
273
         2
274
         2
275
         0
280
         0
281
         0
282
         0
283
         1
284
        12
285
         0
286
         0
287
         3
288
         0
340
49
  0
DIMSTYLE
105
327
100
AcDbSymbolTableRecord
100
AcDbDimStyleTableRecord
  2
SLDDIMSTYLE1
 70
         0
  3

  4

  5

  6

  7

 40
1.0
 41
0.156
 42
0.0625
 43
0.38
 44
0.07
 45
0.0
 46
0.0
 47
0.0
 48
0.0
 71
         0
 72
         0
 73
         1
 74
         1
 75
         0
 76
         0
 77
         0
 78
         8
140
0.125
141
0.09
142
0.0
143
25.4
144
1.0
145
0.0
146
1.0
147
0.03125
170
         0
171
         2
172
         0
173
         1
174
         0
175
         0
176
         7
177
         7
178
         7
270
         2
271
         2
272
         4
273
         2
274
         2
275
         0
280
         0
281
         0
282
         0
283
         1
284
        12
285
         0
286
         0
287
         3
288
         0
340
49
  0
DIMSTYLE
105
345
100
AcDbSymbolTableRecord
100
AcDbDimStyleTableRecord
  2
SLDDIMSTYLE2
 70
         0
  3

  4

  5

  6

  7

 40
1.0
 41
0.156
 42
0.0625
 43
0.38
 44
0.07
 45
0.0
 46
0.0
 47
0.0
 48
0.0
 71
         0
 72
         0
 73
         1
 74
         1
 75
         0
 76
         0
 77
         0
 78
         0
140
0.125
141
0.09
142
0.0
143
25.4
144
1.0
145
0.0
146
1.0
147
0.03125
170
         0
171
         2
172
         0
173
         1
174
         0
175
         0
176
         7
177
         7
178
         7
270
         2
271
         2
272
         4
273
         2
274
         2
275
         0
280
         0
281
         0
282
         0
283
         1
284
        12
285
         0
286
         0
287
         3
288
         0
340
49
  0
DIMSTYLE
105
369
100
AcDbSymbolTableRecord
100
AcDbDimStyleTableRecord
  2
SLDDIMSTYLE3
 70
         0
  3

  4

  5

  6

  7

 40
1.0
 41
0.156
 42
0.0625
 43
0.38
 44
0.0
 45
0.0
 46
0.0
 47
0.0
 48
0.0
 71
         0
 72
         0
 73
         1
 74
         1
 75
         0
 76
         0
 77
         0
 78
         0
140
0.156
141
0.09
142
0.0
143
25.4
144
1.0
145
0.0
146
1.0
147
0.039
170
         0
171
         2
172
         0
173
         1
174
         0
175
         0
176
         0
177
         0
178
         0
270
         2
271
         0
272
         0
273
         2
274
         2
275
         0
280
         0
281
         0
282
         0
283
         1
284
         0
285
         0
286
         0
287
         3
288
         0
340
17
  0
ENDTAB
  0
TABLE
  2
BLOCK_RECORD
  5
1
100
AcDbSymbolTable
 70
        26
  0
BLOCK_RECORD
  5
A
100
AcDbSymbolTableRecord
100
AcDbBlockTableRecord
  2
*MODEL_SPACE
  0
BLOCK_RECORD
  5
B
100
AcDbSymbolTableRecord
100
AcDbBlockTableRecord
  2
*PAPER_SPACE
  0
BLOCK_RECORD
  5
45
100
AcDbSymbolTableRecord
100
AcDbBlockTableRecord
  2
NOTE0
  0
BLOCK_RECORD
  5
4C
100
AcDbSymbolTableRecord
100
AcDbBlockTableRecord
  2
NOTE3
  0
BLOCK_RECORD
  5
5A
100
AcDbSymbolTableRecord
100
AcDbBlockTableRecord
  2
NOTE14
  0
BLOCK_RECORD
  5
74
100
AcDbSymbolTableRecord
100
AcDbBlockTableRecord
  2
NOTE19
  0
BLOCK_RECORD
  5
7C
100
AcDbSymbolTableRecord
100
AcDbBlockTableRecord
  2
NOTE24
  0
BLOCK_RECORD
  5
82
100
AcDbSymbolTableRecord
100
AcDbBlockTableRecord
  2
NOTE25
  0
BLOCK_RECORD
  5
86
100
AcDbSymbolTableRecord
100
AcDbBlockTableRecord
  2
NOTE26
  0
BLOCK_RECORD
  5
8A
100
AcDbSymbolTableRecord
100
AcDbBlockTableRecord
  2
NOTE27
  0
BLOCK_RECORD
  5
8E
100
AcDbSymbolTableRecord
100
AcDbBlockTableRecord
  2
NOTE28
  0
BLOCK_RECORD
  5
92
100
AcDbSymbolTableRecord
100
AcDbBlockTableRecord
  2
NOTE29
  0
BLOCK_RECORD
  5
96
100
AcDbSymbolTableRecord
100
AcDbBlockTableRecord
  2
NOTE30
  0
BLOCK_RECORD
  5
9A
100
AcDbSymbolTableRecord
100
AcDbBlockTableRecord
  2
NOTE31
  0
BLOCK_RECORD
  5
9E
100
AcDbSymbolTableRecord
100
AcDbBlockTableRecord
  2
NOTE32
  0
BLOCK_RECORD
  5
A2
100
AcDbSymbolTableRecord
100
AcDbBlockTableRecord
  2
NOTE33
  0
BLOCK_RECORD
  5
A6
100
AcDbSymbolTableRecord
100
AcDbBlockTableRecord
  2
NOTE34
  0
BLOCK_RECORD
  5
AA
100
AcDbSymbolTableRecord
100
AcDbBlockTableRecord
  2
NOTE35
  0
BLOCK_RECORD
  5
B3
100
AcDbSymbolTableRecord
100
AcDbBlockTableRecord
  2
NOTE37
  0
BLOCK_RECORD
  5
C7
100
AcDbSymbolTableRecord
100
AcDbBlockTableRecord
  2
NOTE48
  0
BLOCK_RECORD
  5
CD
100
AcDbSymbolTableRecord
100
AcDbBlockTableRecord
  2
NOTE49
  0
BLOCK_RECORD
  5
2FD
100
AcDbSymbolTableRecord
100
AcDbBlockTableRecord
  2
*D19
  0
BLOCK_RECORD
  5
30D
100
AcDbSymbolTableRecord
100
AcDbBlockTableRecord
  2
*D20
  0
BLOCK_RECORD
  5
31C
100
AcDbSymbolTableRecord
100
AcDbBlockTableRecord
  2
*D21
  0
BLOCK_RECORD
  5
32C
100
AcDbSymbolTableRecord
100
AcDbBlockTableRecord
  2
*D22
  0
BLOCK_RECORD
  5
33A
100
AcDbSymbolTableRecord
100
AcDbBlockTableRecord
  2
*D23
  0
BLOCK_RECORD
  5
34A
100
AcDbSymbolTableRecord
100
AcDbBlockTableRecord
  2
*D24
  0
BLOCK_RECORD
  5
359
100
AcDbSymbolTableRecord
100
AcDbBlockTableRecord
  2
*D25
  0
ENDTAB
  0
ENDSEC
  0
SECTION
  2
BLOCKS
  0
BLOCK
  5
D
100
AcDbEntity
  8
0
100
AcDbBlockBegin
  2
*MODEL_SPACE
 70
         0
 10
0.0
 20
0.0
 30
0.0
  3
*MODEL_SPACE
  1

  0
ENDBLK
  5
E
100
AcDbEntity
  8
0
100
AcDbBlockEnd
  0
BLOCK
  5
F
100
AcDbEntity
 67
         1
  8
0
100
AcDbBlockBegin
  2
*PAPER_SPACE
 70
         0
 10
0.0
 20
0.0
 30
0.0
  3
*PAPER_SPACE
  1

  0
ENDBLK
  5
10
100
AcDbEntity
 67
         1
  8
0
100
AcDbBlockEnd
  0
BLOCK
  5
46
100
AcDbEntity
  8
0
 62
         0
100
AcDbBlockBegin
  2
NOTE0
 70
         0
 10
0.0
 20
0.0
 30
0.0
  3
NOTE0
  1

  0
ENDBLK
  5
47
100
AcDbEntity
  8
0
100
AcDbBlockEnd
  0
BLOCK
  5
4D
100
AcDbEntity
  8
0
 62
         0
100
AcDbBlockBegin
  2
NOTE3
 70
         0
 10
0.0
 20
0.0
 30
0.0
  3
NOTE3
  1

  0
ENDBLK
  5
4E
100
AcDbEntity
  8
0
100
AcDbBlockEnd
  0
BLOCK
  5
5B
100
AcDbEntity
  8
0
 62
         0
100
AcDbBlockBegin
  2
NOTE14
 70
         0
 10
0.0
 20
0.0
 30
0.0
  3
NOTE14
  1

  0
MTEXT
  5
5C
100
AcDbEntity
  8
0
 62
         7
100
AcDbMText
 10
0.0
 20
0.1018700787
 30
0.0
 40
0.0625
 41
0.0
 71
         1
 72
         1
  1
DIMENSIONS ARE IN INCHES
  7
SLDTEXTSTYLE0
  0
MTEXT
  5
5D
100
AcDbEntity
  8
0
 62
         7
100
AcDbMText
 10
0.0
 20
0.0185367464
 30
0.0
 40
0.0625
 41
0.0
 71
         1
 72
         1
  1
LINEAR TOLERANCES: 
  7
SLDTEXTSTYLE0
  0
MTEXT
  5
5E
100
AcDbEntity
  8
0
 62
         7
100
AcDbMText
 10
0.0
 20
-0.0647965859
 30
0.0
 40
0.0625
 41
0.0
 71
         1
 72
         1
  1
    TWO PLACE DECIMAL: 
  7
SLDTEXTSTYLE0
  0
MTEXT
  5
5F
100
AcDbEntity
  8
0
 62
         7
100
AcDbMText
 10
0.9860966619
 20
-0.0647965859
 30
0.0
 40
0.0625
 41
0.0
 71
         1
 72
         1
  1
%%p
  7
SLDTEXTSTYLE0
  0
MTEXT
  5
60
100
AcDbEntity
  8
0
 62
         7
100
AcDbMText
 10
1.0456799669
 20
-0.0647965859
 30
0.0
 40
0.0625
 41
0.0
 71
         1
 72
         1
  1
0.010
  7
SLDTEXTSTYLE0
  0
MTEXT
  5
61
100
AcDbEntity
  8
0
 62
         7
100
AcDbMText
 10
0.0
 20
-0.1481299182
 30
0.0
 40
0.0625
 41
0.0
 71
         1
 72
         1
  1
    THREE PLACE DECIMAL: 
  7
SLDTEXTSTYLE0
  0
MTEXT
  5
62
100
AcDbEntity
  8
0
 62
         7
100
AcDbMText
 10
1.0267939917
 20
-0.1481299182
 30
0.0
 40
0.0625
 41
0.0
 71
         1
 72
         1
  1
%%p
  7
SLDTEXTSTYLE0
  0
MTEXT
  5
63
100
AcDbEntity
  8
0
 62
         7
100
AcDbMText
 10
1.0863772967
 20
-0.1481299182
 30
0.0
 40
0.0625
 41
0.0
 71
         1
 72
         1
  1
0.005
  7
SLDTEXTSTYLE0
  0
MTEXT
  5
64
100
AcDbEntity
  8
0
 62
         7
100
AcDbMText
 10
0.0
 20
-0.2314632506
 30
0.0
 40
0.0625
 41
0.0
 71
         1
 72
         1
  1
ANGULAR: 
  7
SLDTEXTSTYLE0
  0
MTEXT
  5
65
100
AcDbEntity
  8
0
 62
         7
100
AcDbMText
 10
0.4373119015
 20
-0.2314632506
 30
0.0
 40
0.0625
 41
0.0
 71
         1
 72
         1
  1
%%p
  7
SLDTEXTSTYLE0
  0
MTEXT
  5
66
100
AcDbEntity
  8
0
 62
         7
100
AcDbMText
 10
0.4968952432
 20
-0.2314632506
 30
0.0
 40
0.0625
 41
0.0
 71
         1
 72
         1
  1
30'     
  7
SLDTEXTSTYLE0
  0
MTEXT
  5
67
100
AcDbEntity
  8
0
 62
         7
100
AcDbMText
 10
0.0
 20
-0.3147965829
 30
0.0
 40
0.0625
 41
0.0
 71
         1
 72
         1
  1
SURFACE FINISH: 32 MICROINCHES
  7
SLDTEXTSTYLE0
  0
MTEXT
  5
68
100
AcDbEntity
  8
0
 62
         7
100
AcDbMText
 10
0.0
 20
-0.3981299152
 30
0.0
 40
0.0625
 41
0.0
 71
         1
 72
         1
  1
PARALLESISM: 0.002
  7
SLDTEXTSTYLE0
  0
MTEXT
  5
69
100
AcDbEntity
  8
0
 62
         7
100
AcDbMText
 10
0.0
 20
-0.4814632475
 30
0.0
 40
0.0625
 41
0.0
 71
         1
 72
         1
  1
FLATNESS: 0.002
  7
SLDTEXTSTYLE0
  0
MTEXT
  5
6A
100
AcDbEntity
  8
0
 62
         7
100
AcDbMText
 10
0.0
 20
-0.5647965799
 30
0.0
 40
0.0625
 41
0.0
 71
         1
 72
         1
  1
THREAD: CLASS 2 FIT
  7
SLDTEXTSTYLE0
  0
MTEXT
  5
6B
100
AcDbEntity
  8
0
 62
         7
100
AcDbMText
 10
0.0
 20
-0.6481299122
 30
0.0
 40
0.0625
 41
0.0
 71
         1
 72
         1
  1
STRAIGHTNESS: 0.002
  7
SLDTEXTSTYLE0
  0
MTEXT
  5
6C
100
AcDbEntity
  8
0
 62
         7
100
AcDbMText
 10
0.0
 20
-0.7314632445
 30
0.0
 40
0.0625
 41
0.0
 71
         1
 72
         1
  1
CONCENTRICITY: 0.002
  7
SLDTEXTSTYLE0
  0
MTEXT
  5
6D
100
AcDbEntity
  8
0
 62
         7
100
AcDbMText
 10
0.0
 20
-0.8147965768
 30
0.0
 40
0.0625
 41
0.0
 71
         1
 72
         1
  1
PERPENDICULARITY: 0.002
  7
SLDTEXTSTYLE0
  0
ENDBLK
  5
6E
100
AcDbEntity
  8
0
100
AcDbBlockEnd
  0
BLOCK
  5
75
100
AcDbEntity
  8
0
 62
         0
100
AcDbBlockBegin
  2
NOTE19
 70
         0
 10
0.0
 20
0.0
 30
0.0
  3
NOTE19
  1

  0
ENDBLK
  5
76
100
AcDbEntity
  8
0
100
AcDbBlockEnd
  0
BLOCK
  5
7D
100
AcDbEntity
  8
0
 62
         0
100
AcDbBlockBegin
  2
NOTE24
 70
         0
 10
0.0
 20
0.0
 30
0.0
  3
NOTE24
  1

  0
MTEXT
  5
7E
100
AcDbEntity
  8
0
 62
         7
100
AcDbMText
 10
0.0
 20
0.1227034121
 30
0.0
 40
0.0833333333
 41
0.0
 71
         1
 72
         1
  1
SCALE: 
  7
SLDTEXTSTYLE0
  0
MTEXT
  5
7F
100
AcDbEntity
  8
0
 62
         7
100
AcDbMText
 10
0.3914930674
 20
0.1227034121
 30
0.0
 40
0.0833333333
 41
0.0
 71
         1
 72
         1
  1
1:1
  7
SLDTEXTSTYLE0
  0
ENDBLK
  5
80
100
AcDbEntity
  8
0
100
AcDbBlockEnd
  0
BLOCK
  5
83
100
AcDbEntity
  8
0
 62
         0
100
AcDbBlockBegin
  2
NOTE25
 70
         0
 10
0.0
 20
0.0
 30
0.0
  3
NOTE25
  1

  0
ENDBLK
  5
84
100
AcDbEntity
  8
0
100
AcDbBlockEnd
  0
BLOCK
  5
87
100
AcDbEntity
  8
0
 62
         0
100
AcDbBlockBegin
  2
NOTE26
 70
         0
 10
0.0
 20
0.0
 30
0.0
  3
NOTE26
  1

  0
ENDBLK
  5
88
100
AcDbEntity
  8
0
100
AcDbBlockEnd
  0
BLOCK
  5
8B
100
AcDbEntity
  8
0
 62
         0
100
AcDbBlockBegin
  2
NOTE27
 70
         0
 10
0.0
 20
0.0
 30
0.0
  3
NOTE27
  1

  0
ENDBLK
  5
8C
100
AcDbEntity
  8
0
100
AcDbBlockEnd
  0
BLOCK
  5
8F
100
AcDbEntity
  8
0
 62
         0
100
AcDbBlockBegin
  2
NOTE28
 70
         0
 10
0.0
 20
0.0
 30
0.0
  3
NOTE28
  1

  0
ENDBLK
  5
90
100
AcDbEntity
  8
0
100
AcDbBlockEnd
  0
BLOCK
  5
93
100
AcDbEntity
  8
0
 62
         0
100
AcDbBlockBegin
  2
NOTE29
 70
         0
 10
0.0
 20
0.0
 30
0.0
  3
NOTE29
  1

  0
ENDBLK
  5
94
100
AcDbEntity
  8
0
100
AcDbBlockEnd
  0
BLOCK
  5
97
100
AcDbEntity
  8
0
 62
         0
100
AcDbBlockBegin
  2
NOTE30
 70
         0
 10
0.0
 20
0.0
 30
0.0
  3
NOTE30
  1

  0
ENDBLK
  5
98
100
AcDbEntity
  8
0
100
AcDbBlockEnd
  0
BLOCK
  5
9B
100
AcDbEntity
  8
0
 62
         0
100
AcDbBlockBegin
  2
NOTE31
 70
         0
 10
0.0
 20
0.0
 30
0.0
  3
NOTE31
  1

  0
ENDBLK
  5
9C
100
AcDbEntity
  8
0
100
AcDbBlockEnd
  0
BLOCK
  5
9F
100
AcDbEntity
  8
0
 62
         0
100
AcDbBlockBegin
  2
NOTE32
 70
         0
 10
0.0
 20
0.0
 30
0.0
  3
NOTE32
  1

  0
ENDBLK
  5
A0
100
AcDbEntity
  8
0
100
AcDbBlockEnd
  0
BLOCK
  5
A3
100
AcDbEntity
  8
0
 62
         0
100
AcDbBlockBegin
  2
NOTE33
 70
         0
 10
0.0
 20
0.0
 30
0.0
  3
NOTE33
  1

  0
ENDBLK
  5
A4
100
AcDbEntity
  8
0
100
AcDbBlockEnd
  0
BLOCK
  5
A7
100
AcDbEntity
  8
0
 62
         0
100
AcDbBlockBegin
  2
NOTE34
 70
         0
 10
0.0
 20
0.0
 30
0.0
  3
NOTE34
  1

  0
ENDBLK
  5
A8
100
AcDbEntity
  8
0
100
AcDbBlockEnd
  0
BLOCK
  5
AB
100
AcDbEntity
  8
0
 62
         0
100
AcDbBlockBegin
  2
NOTE35
 70
         0
 10
0.0
 20
0.0
 30
0.0
  3
NOTE35
  1

  0
MTEXT
  5
AC
100
AcDbEntity
  8
0
 62
         7
100
AcDbMText
 10
0.0
 20
0.1227034121
 30
0.0
 40
0.0833333333
 41
0.0
 71
         1
 72
         1
  1
SHEET 
  7
SLDTEXTSTYLE0
  0
MTEXT
  5
AD
100
AcDbEntity
  8
0
 62
         7
100
AcDbMText
 10
0.3211612733
 20
0.1227034121
 30
0.0
 40
0.0833333333
 41
0.0
 71
         1
 72
         1
  1
1
  7
SLDTEXTSTYLE0
  0
MTEXT
  5
AE
100
AcDbEntity
  8
0
 62
         7
100
AcDbMText
 10
0.3776041512
 20
0.1227034121
 30
0.0
 40
0.0833333333
 41
0.0
 71
         1
 72
         1
  1
 OF 
  7
SLDTEXTSTYLE0
  0
MTEXT
  5
AF
100
AcDbEntity
  8
0
 62
         7
100
AcDbMText
 10
0.5861689652
 20
0.1227034121
 30
0.0
 40
0.0833333333
 41
0.0
 71
         1
 72
         1
  1
1
  7
SLDTEXTSTYLE0
  0
ENDBLK
  5
B0
100
AcDbEntity
  8
0
100
AcDbBlockEnd
  0
BLOCK
  5
B4
100
AcDbEntity
  8
0
 62
         0
100
AcDbBlockBegin
  2
NOTE37
 70
         0
 10
0.0
 20
0.0
 30
0.0
  3
NOTE37
  1

  0
MTEXT
  5
B5
100
AcDbEntity
  8
0
 62
         7
100
AcDbMText
 10
0.0
 20
0.0993700787
 30
0.0
 40
0.06
 41
0.0
 71
         1
 72
         1
  1
THE INFORMATION CONTAINED IN THIS
  7
SLDTEXTSTYLE0
  0
MTEXT
  5
B6
100
AcDbEntity
  8
0
 62
         7
100
AcDbMText
 10
0.0
 20
0.0000000042
 30
0.0
 40
0.06
 41
0.0
 71
         1
 72
         1
  1
DRAWING IS THE SOLE PROPERTY OF
  7
SLDTEXTSTYLE0
  0
MTEXT
  5
B7
100
AcDbEntity
  8
0
 62
         7
100
AcDbMText
 10
0.0
 20
-0.0993700704
 30
0.0
 40
0.06
 41
0.0
 71
         1
 72
         1
  1
THORLABS, INC.  ANY REPRODUCTION 
  7
SLDTEXTSTYLE0
  0
MTEXT
  5
B8
100
AcDbEntity
  8
0
 62
         7
100
AcDbMText
 10
0.0
 20
-0.198740145
 30
0.0
 40
0.06
 41
0.0
 71
         1
 72
         1
  1
IN PART OR AS A WHOLE WITHOUT
  7
SLDTEXTSTYLE0
  0
MTEXT
  5
B9
100
AcDbEntity
  8
0
 62
         7
100
AcDbMText
 10
0.0
 20
-0.2981102195
 30
0.0
 40
0.06
 41
0.0
 71
         1
 72
         1
  1
THE WRITTEN PERMISSION OF
  7
SLDTEXTSTYLE0
  0
MTEXT
  5
BA
100
AcDbEntity
  8
0
 62
         7
100
AcDbMText
 10
0.0
 20
-0.3974802941
 30
0.0
 40
0.06
 41
0.0
 71
         1
 72
         1
  1
THORLABS, INC. IS PROHIBITED.
  7
SLDTEXTSTYLE0
  0
ENDBLK
  5
BB
100
AcDbEntity
  8
0
100
AcDbBlockEnd
  0
BLOCK
  5
C8
100
AcDbEntity
  8
0
 62
         0
100
AcDbBlockBegin
  2
NOTE48
 70
         0
 10
0.0
 20
0.0
 30
0.0
  3
NOTE48
  1

  0
MTEXT
  5
C9
100
AcDbEntity
  8
0
 62
         7
100
AcDbMText
 10
0.0
 20
0.1331200787
 30
0.0
 40
0.09375
 41
0.0
 71
         1
 72
         1
  1
PO BOX 366
  7
SLDTEXTSTYLE0
  0
MTEXT
  5
CA
100
AcDbEntity
  8
0
 62
         7
100
AcDbMText
 10
0.0
 20
0.0081200803
 30
0.0
 40
0.09375
 41
0.0
 71
         1
 72
         1
  1
NEWTON NJ
  7
SLDTEXTSTYLE0
  0
ENDBLK
  5
CB
100
AcDbEntity
  8
0
100
AcDbBlockEnd
  0
BLOCK
  5
CE
100
AcDbEntity
  8
0
 62
         0
100
AcDbBlockBegin
  2
NOTE49
 70
         0
 10
0.0
 20
0.0
 30
0.0
  3
NOTE49
  1

  0
MTEXT
  5
CF
100
AcDbEntity
  8
0
 62
         7
100
AcDbMText
 10
0.0
 20
0.1331200787
 30
0.0
 40
0.09375
 41
0.0
 71
         1
 72
         1
  1
1"(25mm) TRAVEL DIFFERENTIAL DRIVE,
  7
SLDTEXTSTYLE0
  0
MTEXT
  5
D0
100
AcDbEntity
  8
0
 62
         7
100
AcDbMText
 10
0.0
 20
0.0081200803
 30
0.0
 40
0.09375
 41
0.0
 71
         1
 72
         1
  1
NON-ROTATING TIP, 
  7
SLDTEXTSTYLE0
  0
MTEXT
  5
D1
100
AcDbEntity
  8
0
 62
         7
100
AcDbMText
 10
1.2079860986
 20
0.0081200803
 30
0.0
 40
0.09375
 41
0.0
 71
         1
 72
         1
  1
%%c
  7
SLDTEXTSTYLE0
  0
MTEXT
  5
D2
100
AcDbEntity
  8
0
 62
         7
100
AcDbMText
 10
1.3494965305
 20
0.0081200803
 30
0.0
 40
0.09375
 41
0.0
 71
         1
 72
         1
  1
 1/2" BUSHING
  7
SLDTEXTSTYLE0
  0
ENDBLK
  5
D3
100
AcDbEntity
  8
0
100
AcDbBlockEnd
  0
BLOCK
  5
2FE
100
AcDbEntity
  8
0
 62
         7
100
AcDbBlockBegin
  2
*D19
 70
         1
 10
0.0
 20
0.0
 30
0.0
  3
*D19
  1

  0
MTEXT
  5
2FF
100
AcDbEntity
  8
0
 62
         7
100
AcDbMText
 10
4.3847075215
 20
5.2346766411
 30
0.0
 40
0.09375
 41
0.0
 71
         1
 72
         1
  1
3.94
  7
SLDTEXTSTYLE0
  0
MTEXT
  5
300
100
AcDbEntity
  8
0
 62
         7
100
AcDbMText
 10
4.6270417386
 20
5.2346766411
 30
0.0
 40
0.09375
 41
0.0
 71
         1
 72
         1
  1
(100mm)
  7
SLDTEXTSTYLE0
  0
MTEXT
  5
301
100
AcDbEntity
  8
0
 62
         7
100
AcDbMText
 10
4.6134477701
 20
5.0857852638
 30
0.0
 40
0.09375
 41
0.0
 71
         1
 72
         1
  1
NOM.
  7
SLDTEXTSTYLE0
  0
LINE
  5
302
100
AcDbEntity
  8
0
 62
         7
100
AcDbLine
 10
6.7408107896
 20
4.0783761482
 30
0.0
 11
6.7408107896
 21
5.1715565578
 31
0.0
  0
LINE
  5
303
100
AcDbEntity
  8
0
 62
         7
100
AcDbLine
 10
2.8054623722
 20
3.663998731
 30
0.0
 11
2.8054623722
 21
5.1715565578
 31
0.0
  0
LINE
  5
304
100
AcDbEntity
  8
0
 62
         7
100
AcDbLine
 10
6.7408107896
 20
5.1015565578
 30
0.0
 11
5.2240656404
 21
5.1015565578
 31
0.0
  0
LINE
  5
305
100
AcDbEntity
  8
0
 62
         7
100
AcDbLine
 10
2.8054623722
 20
5.1015565578
 30
0.0
 11
4.3222075215
 21
5.1015565578
 31
0.0
  0
SOLID
  5
306
100
AcDbEntity
  8
0
 62
         7
100
AcDbTrace
 10
6.7408107896
 20
5.1015565578
 30
0.0
 11
6.5848107896
 21
5.1275565578
 31
0.0
 12
6.5848107896
 22
5.0755565578
 32
0.0
 13
6.5848107896
 23
5.0755565578
 33
0.0
  0
SOLID
  5
307
100
AcDbEntity
  8
0
 62
         7
100
AcDbTrace
 10
2.8054623722
 20
5.1015565578
 30
0.0
 11
2.9614623722
 21
5.0755565578
 31
0.0
 12
2.9614623722
 22
5.1275565578
 32
0.0
 13
2.9614623722
 23
5.1275565578
 33
0.0
  0
POINT
  5
309
100
AcDbEntity
  8
DEFPOINTS
 62
         7
100
AcDbPoint
 10
6.7408107896
 20
4.0283761482
 30
0.0
  0
POINT
  5
30A
100
AcDbEntity
  8
DEFPOINTS
 62
         7
100
AcDbPoint
 10
2.8054623722
 20
3.613998731
 30
0.0
  0
ENDBLK
  5
30B
100
AcDbEntity
  8
0
 62
         7
100
AcDbBlockEnd
  0
BLOCK
  5
30E
100
AcDbEntity
  8
0
 62
         7
100
AcDbBlockBegin
  2
*D20
 70
         1
 10
0.0
 20
0.0
 30
0.0
  3
*D20
  1

  0
MTEXT
  5
30F
100
AcDbEntity
  8
0
 62
         7
100
AcDbMText
 10
3.4817454636
 20
4.7367518386
 30
0.0
 40
0.09375
 41
0.0
 71
         1
 72
         1
  1
2.06
  7
SLDTEXTSTYLE0
  0
MTEXT
  5
310
100
AcDbEntity
  8
0
 62
         7
100
AcDbMText
 10
3.7240796807
 20
4.7367518386
 30
0.0
 40
0.09375
 41
0.0
 71
         1
 72
         1
  1
(52mm)
  7
SLDTEXTSTYLE0
  0
MTEXT
  5
311
100
AcDbEntity
  8
0
 62
         7
100
AcDbMText
 10
3.6758183223
 20
4.5878604613
 30
0.0
 40
0.09375
 41
0.0
 71
         1
 72
         1
  1
NOM.
  7
SLDTEXTSTYLE0
  0
LINE
  5
312
100
AcDbEntity
  8
0
 62
         7
100
AcDbLine
 10
2.8054623722
 20
3.6496428432
 30
0.0
 11
2.8054623722
 21
4.6736317552
 31
0.0
  0
LINE
  5
313
100
AcDbEntity
  8
0
 62
         7
100
AcDbLine
 10
4.8655518939
 20
4.0630286699
 30
0.0
 11
4.8655518939
 21
4.6736317552
 31
0.0
  0
LINE
  5
314
100
AcDbEntity
  8
0
 62
         7
100
AcDbLine
 10
2.8054623722
 20
4.6036317552
 30
0.0
 11
3.4192454636
 21
4.6036317552
 31
0.0
  0
LINE
  5
315
100
AcDbEntity
  8
0
 62
         7
100
AcDbLine
 10
4.8655518939
 20
4.6036317552
 30
0.0
 11
4.2517688025
 21
4.6036317552
 31
0.0
  0
SOLID
  5
316
100
AcDbEntity
  8
0
 62
         7
100
AcDbTrace
 10
2.8054623722
 20
4.6036317552
 30
0.0
 11
2.9614623722
 21
4.5776317552
 31
0.0
 12
2.9614623722
 22
4.6296317552
 32
0.0
 13
2.9614623722
 23
4.6296317552
 33
0.0
  0
SOLID
  5
317
100
AcDbEntity
  8
0
 62
         7
100
AcDbTrace
 10
4.8655518939
 20
4.6036317552
 30
0.0
 11
4.7095518939
 21
4.6296317552
 31
0.0
 12
4.7095518939
 22
4.5776317552
 32
0.0
 13
4.7095518939
 23
4.5776317552
 33
0.0
  0
POINT
  5
318
100
AcDbEntity
  8
DEFPOINTS
 62
         7
100
AcDbPoint
 10
2.8054623722
 20
3.5996428432
 30
0.0
  0
POINT
  5
319
100
AcDbEntity
  8
DEFPOINTS
 62
         7
100
AcDbPoint
 10
4.8655518939
 20
4.0130286699
 30
0.0
  0
ENDBLK
  5
31A
100
AcDbEntity
  8
0
 62
         7
100
AcDbBlockEnd
  0
BLOCK
  5
31D
100
AcDbEntity
  8
0
 62
         7
100
AcDbBlockBegin
  2
*D21
 70
         1
 10
0.0
 20
0.0
 30
0.0
  3
*D21
  1

  0
MTEXT
  5
31E
100
AcDbEntity
  8
0
 62
         7
100
AcDbMText
 10
7.0620170442
 20
3.7327629173
 30
0.0
 40
0.09375
 41
0.0
 71
         1
 72
         1
  1
%%c
  7
SLDTEXTSTYLE0
  0
MTEXT
  5
31F
100
AcDbEntity
  8
0
 62
         7
100
AcDbMText
 10
7.2034831391
 20
3.7327629265
 30
0.0
 40
0.09375
 41
0.0
 71
         1
 72
         1
  1
0.98
  7
SLDTEXTSTYLE0
  0
MTEXT
  5
320
100
AcDbEntity
  8
0
 62
         7
100
AcDbMText
 10
7.0369476393
 20
3.5838715492
 30
0.0
 40
0.09375
 41
0.0
 71
         1
 72
         1
  1
(25mm)
  7
SLDTEXTSTYLE0
  0
LINE
  5
321
100
AcDbEntity
  8
0
 62
         7
100
AcDbLine
 10
6.5123006397
 20
3.1075933982
 30
0.0
 11
7.3239172002
 21
3.1075933982
 31
0.0
  0
LINE
  5
322
100
AcDbEntity
  8
0
 62
         7
100
AcDbLine
 10
6.5123006397
 20
4.0916922881
 30
0.0
 11
7.3239172002
 21
4.0916922881
 31
0.0
  0
LINE
  5
323
100
AcDbEntity
  8
0
 62
         7
100
AcDbLine
 10
7.2539172002
 20
3.1075933982
 30
0.0
 11
7.2539172002
 21
3.4507514659
 31
0.0
  0
LINE
  5
324
100
AcDbEntity
  8
0
 62
         7
100
AcDbLine
 10
7.2539172002
 20
4.0916922881
 30
0.0
 11
7.2539172002
 21
3.7485342205
 31
0.0
  0
SOLID
  5
325
100
AcDbEntity
  8
0
 62
         7
100
AcDbTrace
 10
7.2539172002
 20
3.1075933982
 30
0.0
 11
7.2799172002
 21
3.2635933982
 31
0.0
 12
7.2279172002
 22
3.2635933982
 32
0.0
 13
7.2279172002
 23
3.2635933982
 33
0.0
  0
SOLID
  5
326
100
AcDbEntity
  8
0
 62
         7
100
AcDbTrace
 10
7.2539172002
 20
4.0916922881
 30
0.0
 11
7.2279172002
 21
3.9356922881
 31
0.0
 12
7.2799172002
 22
3.9356922881
 32
0.0
 13
7.2799172002
 23
3.9356922881
 33
0.0
  0
POINT
  5
328
100
AcDbEntity
  8
DEFPOINTS
 62
         7
100
AcDbPoint
 10
6.4623006397
 20
3.1075933982
 30
0.0
  0
POINT
  5
329
100
AcDbEntity
  8
DEFPOINTS
 62
         7
100
AcDbPoint
 10
6.4623006397
 20
4.0916922881
 30
0.0
  0
ENDBLK
  5
32A
100
AcDbEntity
  8
0
 62
         7
100
AcDbBlockEnd
  0
BLOCK
  5
32D
100
AcDbEntity
  8
0
 62
         7
100
AcDbBlockBegin
  2
*D22
 70
         1
 10
0.0
 20
0.0
 30
0.0
  3
*D22
  1

  0
MTEXT
  5
32E
100
AcDbEntity
  8
0
 62
         7
100
AcDbMText
 10
3.7798178563
 20
2.727778781
 30
0.0
 40
0.09375
 41
0.0
 71
         1
 72
         1
  1
0.98
  7
SLDTEXTSTYLE0
  0
MTEXT
  5
32F
100
AcDbEntity
  8
0
 62
         7
100
AcDbMText
 10
3.6840154039
 20
2.5788874037
 30
0.0
 40
0.09375
 41
0.0
 71
         1
 72
         1
  1
(25mm)
  7
SLDTEXTSTYLE0
  0
LINE
  5
330
100
AcDbEntity
  8
0
 62
         7
100
AcDbLine
 10
3.4088589806
 20
3.2996428432
 30
0.0
 11
3.4088589806
 21
2.5246586977
 31
0.0
  0
LINE
  5
331
100
AcDbEntity
  8
0
 62
         7
100
AcDbLine
 10
4.3931109491
 20
3.2996428432
 30
0.0
 11
4.3931109491
 21
2.5246586977
 31
0.0
  0
LINE
  5
332
100
AcDbEntity
  8
0
 62
         7
100
AcDbLine
 10
3.4088589806
 20
2.5946586977
 30
0.0
 11
3.6058904039
 21
2.5946586977
 31
0.0
  0
LINE
  5
333
100
AcDbEntity
  8
0
 62
         7
100
AcDbLine
 10
4.3931109491
 20
2.5946586977
 30
0.0
 11
4.1960795257
 21
2.5946586977
 31
0.0
  0
SOLID
  5
334
100
AcDbEntity
  8
0
 62
         7
100
AcDbTrace
 10
3.4088589806
 20
2.5946586977
 30
0.0
 11
3.5648589806
 21
2.5686586977
 31
0.0
 12
3.5648589806
 22
2.6206586977
 32
0.0
 13
3.5648589806
 23
2.6206586977
 33
0.0
  0
SOLID
  5
335
100
AcDbEntity
  8
0
 62
         7
100
AcDbTrace
 10
4.3931109491
 20
2.5946586977
 30
0.0
 11
4.2371109491
 21
2.6206586977
 31
0.0
 12
4.2371109491
 22
2.5686586977
 32
0.0
 13
4.2371109491
 23
2.5686586977
 33
0.0
  0
POINT
  5
336
100
AcDbEntity
  8
DEFPOINTS
 62
         7
100
AcDbPoint
 10
3.4088589806
 20
3.3496428432
 30
0.0
  0
POINT
  5
337
100
AcDbEntity
  8
DEFPOINTS
 62
         7
100
AcDbPoint
 10
4.3931109491
 20
3.3496428432
 30
0.0
  0
ENDBLK
  5
338
100
AcDbEntity
  8
0
 62
         7
100
AcDbBlockEnd
  0
BLOCK
  5
33B
100
AcDbEntity
  8
0
 62
         7
100
AcDbBlockBegin
  2
*D23
 70
         1
 10
0.0
 20
0.0
 30
0.0
  3
*D23
  1

  0
MTEXT
  5
33C
100
AcDbEntity
  8
0
 62
         7
100
AcDbMText
 10
1.3134386345
 20
3.7327629173
 30
0.0
 40
0.09375
 41
0.0
 71
         1
 72
         1
  1
%%c
  7
SLDTEXTSTYLE0
  0
MTEXT
  5
33D
100
AcDbEntity
  8
0
 62
         7
100
AcDbMText
 10
1.4549047293
 20
3.7327629265
 30
0.0
 40
0.09375
 41
0.0
 71
         1
 72
         1
  1
0.50
  7
SLDTEXTSTYLE0
  0
MTEXT
  5
33E
100
AcDbEntity
  8
0
 62
         7
100
AcDbMText
 10
1.2883692295
 20
3.5838715492
 30
0.0
 40
0.09375
 41
0.0
 71
         1
 72
         1
  1
(13mm)
  7
SLDTEXTSTYLE0
  0
LINE
  5
33F
100
AcDbEntity
  8
0
 62
         7
100
AcDbLine
 10
3.3588589806
 20
3.8496428432
 30
0.0
 11
1.4353387904
 21
3.8496428432
 31
0.0
  0
LINE
  5
340
100
AcDbEntity
  8
0
 62
         7
100
AcDbLine
 10
3.3588589806
 20
3.3496428432
 30
0.0
 11
1.4353387904
 21
3.3496428432
 31
0.0
  0
LINE
  5
341
100
AcDbEntity
  8
0
 62
         7
100
AcDbLine
 10
1.5053387904
 20
3.8496428432
 30
0.0
 11
1.5053387904
 21
4.3496428432
 31
0.0
  0
LINE
  5
342
100
AcDbEntity
  8
0
 62
         7
100
AcDbLine
 10
1.5053387904
 20
3.3496428432
 30
0.0
 11
1.5053387904
 21
2.8496428432
 31
0.0
  0
SOLID
  5
343
100
AcDbEntity
  8
0
 62
         7
100
AcDbTrace
 10
1.5053387904
 20
3.8496428432
 30
0.0
 11
1.5313387904
 21
4.0056428432
 31
0.0
 12
1.4793387904
 22
4.0056428432
 32
0.0
 13
1.4793387904
 23
4.0056428432
 33
0.0
  0
SOLID
  5
344
100
AcDbEntity
  8
0
 62
         7
100
AcDbTrace
 10
1.5053387904
 20
3.3496428432
 30
0.0
 11
1.4793387904
 21
3.1936428432
 31
0.0
 12
1.5313387904
 22
3.1936428432
 32
0.0
 13
1.5313387904
 23
3.1936428432
 33
0.0
  0
POINT
  5
346
100
AcDbEntity
  8
DEFPOINTS
 62
         7
100
AcDbPoint
 10
3.4088589806
 20
3.8496428432
 30
0.0
  0
POINT
  5
347
100
AcDbEntity
  8
DEFPOINTS
 62
         7
100
AcDbPoint
 10
3.4088589806
 20
3.3496428432
 30
0.0
  0
ENDBLK
  5
348
100
AcDbEntity
  8
0
 62
         7
100
AcDbBlockEnd
  0
BLOCK
  5
34B
100
AcDbEntity
  8
0
 62
         7
100
AcDbBlockBegin
  2
*D24
 70
         1
 10
0.0
 20
0.0
 30
0.0
  3
*D24
  1

  0
MTEXT
  5
34C
100
AcDbEntity
  8
0
 62
         7
100
AcDbMText
 10
1.609300487
 20
4.5532636139
 30
0.0
 40
0.09375
 41
0.0
 71
         1
 72
         1
  1
0.24
  7
SLDTEXTSTYLE0
  0
MTEXT
  5
34D
100
AcDbEntity
  8
0
 62
         7
100
AcDbMText
 10
1.5481172085
 20
4.4043722366
 30
0.0
 40
0.09375
 41
0.0
 71
         1
 72
         1
  1
(6mm)
  7
SLDTEXTSTYLE0
  0
LINE
  5
34E
100
AcDbEntity
  8
0
 62
         7
100
AcDbLine
 10
2.9061030751
 20
3.7177530794
 30
0.0
 11
2.0459429826
 21
3.7177530794
 31
0.0
  0
LINE
  5
34F
100
AcDbEntity
  8
0
 62
         7
100
AcDbLine
 10
2.9061030751
 20
3.4815326069
 30
0.0
 11
2.0459429826
 21
3.4815326069
 31
0.0
  0
LINE
  5
350
100
AcDbEntity
  8
0
 62
         7
100
AcDbLine
 10
1.9909429826
 20
4.4201435306
 30
0.0
 11
2.1159429826
 21
4.4201435306
 31
0.0
  0
LINE
  5
351
100
AcDbEntity
  8
0
 62
         7
100
AcDbLine
 10
2.1159429826
 20
4.4201435306
 30
0.0
 11
2.1159429826
 21
3.7177530794
 31
0.0
  0
LINE
  5
352
100
AcDbEntity
  8
0
 62
         7
100
AcDbLine
 10
2.1159429826
 20
3.4815326069
 30
0.0
 11
2.1159429826
 21
2.9815326069
 31
0.0
  0
SOLID
  5
353
100
AcDbEntity
  8
0
 62
         7
100
AcDbTrace
 10
2.1159429826
 20
3.7177530794
 30
0.0
 11
2.1419429826
 21
3.8737530794
 31
0.0
 12
2.0899429826
 22
3.8737530794
 32
0.0
 13
2.0899429826
 23
3.8737530794
 33
0.0
  0
SOLID
  5
354
100
AcDbEntity
  8
0
 62
         7
100
AcDbTrace
 10
2.1159429826
 20
3.4815326069
 30
0.0
 11
2.0899429826
 21
3.3255326069
 31
0.0
 12
2.1419429826
 22
3.3255326069
 32
0.0
 13
2.1419429826
 23
3.3255326069
 33
0.0
  0
POINT
  5
355
100
AcDbEntity
  8
DEFPOINTS
 62
         7
100
AcDbPoint
 10
2.9561030751
 20
3.7177530794
 30
0.0
  0
POINT
  5
356
100
AcDbEntity
  8
DEFPOINTS
 62
         7
100
AcDbPoint
 10
2.9561030751
 20
3.4815326069
 30
0.0
  0
ENDBLK
  5
357
100
AcDbEntity
  8
0
 62
         7
100
AcDbBlockEnd
  0
BLOCK
  5
35A
100
AcDbEntity
  8
0
 62
         7
100
AcDbBlockBegin
  2
*D25
 70
         1
 10
0.0
 20
0.0
 30
0.0
  3
*D25
  1

  0
MTEXT
  5
35B
100
AcDbEntity
  8
0
 62
         7
100
AcDbMText
 10
2.164952889
 20
2.982524786
 30
0.0
 40
0.09375
 41
0.0
 71
         1
 72
         1
  1
0.12
  7
SLDTEXTSTYLE0
  0
MTEXT
  5
35C
100
AcDbEntity
  8
0
 62
         7
100
AcDbMText
 10
2.1037696105
 20
2.8336334087
 30
0.0
 40
0.09375
 41
0.0
 71
         1
 72
         1
  1
(3mm)
  7
SLDTEXTSTYLE0
  0
LINE
  5
35D
100
AcDbEntity
  8
0
 62
         7
100
AcDbLine
 10
2.7946660249
 20
3.5405877251
 30
0.0
 11
2.6015953846
 21
3.5405877251
 31
0.0
  0
LINE
  5
35E
100
AcDbEntity
  8
0
 62
         7
100
AcDbLine
 10
2.7946660249
 20
3.6586979613
 30
0.0
 11
2.6015953846
 21
3.6586979613
 31
0.0
  0
LINE
  5
35F
100
AcDbEntity
  8
0
 62
         7
100
AcDbLine
 10
2.5465953846
 20
2.8494047027
 30
0.0
 11
2.6715953846
 21
2.8494047027
 31
0.0
  0
LINE
  5
360
100
AcDbEntity
  8
0
 62
         7
100
AcDbLine
 10
2.6715953846
 20
2.8494047027
 30
0.0
 11
2.6715953846
 21
3.5405877251
 31
0.0
  0
LINE
  5
361
100
AcDbEntity
  8
0
 62
         7
100
AcDbLine
 10
2.6715953846
 20
3.6586979613
 30
0.0
 11
2.6715953846
 21
4.1586979613
 31
0.0
  0
SOLID
  5
362
100
AcDbEntity
  8
0
 62
         7
100
AcDbTrace
 10
2.6715953846
 20
3.5405877251
 30
0.0
 11
2.6455953846
 21
3.3845877251
 31
0.0
 12
2.6975953846
 22
3.3845877251
 32
0.0
 13
2.6975953846
 23
3.3845877251
 33
0.0
  0
SOLID
  5
363
100
AcDbEntity
  8
0
 62
         7
100
AcDbTrace
 10
2.6715953846
 20
3.6586979613
 30
0.0
 11
2.6975953846
 21
3.8146979613
 31
0.0
 12
2.6455953846
 22
3.8146979613
 32
0.0
 13
2.6455953846
 23
3.8146979613
 33
0.0
  0
POINT
  5
364
100
AcDbEntity
  8
DEFPOINTS
 62
         7
100
AcDbPoint
 10
2.8446660249
 20
3.5405877251
 30
0.0
  0
POINT
  5
365
100
AcDbEntity
  8
DEFPOINTS
 62
         7
100
AcDbPoint
 10
2.8446660249
 20
3.6586979613
 30
0.0
  0
ENDBLK
  5
366
100
AcDbEntity
  8
0
 62
         7
100
AcDbBlockEnd
  0
ENDSEC
  0
SECTION
  2
ENTITIES
  0
LINE
  5
25
100
AcDbEntity
  8
0
  6
CONTINUOUS
 62
         7
100
AcDbLine
 10
0.329927
 20
8.1920731707
 30
0.0
 11
10.629927
 21
8.1920731707
 31
0.0
  0
LINE
  5
26
100
AcDbEntity
  8
0
  6
CONTINUOUS
 62
         7
100
AcDbLine
 10
0.329927
 20
8.1920731707
 30
0.0
 11
0.329927
 21
0.3920731707
 31
0.0
  0
LINE
  5
27
100
AcDbEntity
  8
0
  6
CONTINUOUS
 62
         7
100
AcDbLine
 10
10.629927
 20
0.3920731707
 30
0.0
 11
0.329927
 21
0.3920731707
 31
0.0
  0
LINE
  5
28
100
AcDbEntity
  8
0
  6
CONTINUOUS
 62
         7
100
AcDbLine
 10
10.629927
 20
0.3920731707
 30
0.0
 11
10.629927
 21
8.1920731707
 31
0.0
  0
LINE
  5
29
100
AcDbEntity
  8
0
  6
CONTINUOUS
 62
         7
100
AcDbLine
 10
8.4937754816
 20
0.96139916
 30
0.0
 11
8.4937754816
 21
0.7890359178
 31
0.0
  0
LINE
  5
2A
100
AcDbEntity
  8
0
  6
CONTINUOUS
 62
         7
100
AcDbLine
 10
7.8832069922
 20
1.2010186622
 30
0.0
 11
6.3491817542
 21
1.2010186622
 31
0.0
  0
LINE
  5
2B
100
AcDbEntity
  8
0
  6
CONTINUOUS
 62
         7
100
AcDbLine
 10
6.3491817542
 20
0.3920731707
 30
0.0
 11
6.3491817542
 21
1.6988536355
 31
0.0
  0
LINE
  5
2C
100
AcDbEntity
  8
0
  6
CONTINUOUS
 62
         7
100
AcDbLine
 10
7.8832069922
 20
1.270166923
 30
0.0
 11
10.629927
 21
1.270166923
 31
0.0
  0
LINE
  5
2D
100
AcDbEntity
  8
0
  6
CONTINUOUS
 62
         7
100
AcDbLine
 10
7.8832069922
 20
2.0165420879
 30
0.0
 11
7.8832069922
 21
0.3920731707
 31
0.0
  0
LINE
  5
2E
100
AcDbEntity
  8
0
  6
CONTINUOUS
 62
         7
100
AcDbLine
 10
7.8832069922
 20
1.323339557
 30
0.0
 11
6.3491817542
 21
1.323339557
 31
0.0
  0
LINE
  5
2F
100
AcDbEntity
  8
0
  6
CONTINUOUS
 62
         7
100
AcDbLine
 10
10.629927
 20
1.6988536355
 30
0.0
 11
4.9283800522
 21
1.6988536355
 31
0.0
  0
LINE
  5
30
100
AcDbEntity
  8
0
  6
CONTINUOUS
 62
         7
100
AcDbLine
 10
7.8832069922
 20
0.7890359178
 30
0.0
 11
10.629927
 21
0.7890359178
 31
0.0
  0
LINE
  5
31
100
AcDbEntity
  8
0
  6
CONTINUOUS
 62
         7
100
AcDbLine
 10
7.8832069922
 20
1.4456604517
 30
0.0
 11
6.3491817542
 21
1.4456604517
 31
0.0
  0
LINE
  5
32
100
AcDbEntity
  8
0
  6
CONTINUOUS
 62
         7
100
AcDbLine
 10
7.8832069922
 20
1.5679813464
 30
0.0
 11
6.3491817542
 21
1.5679813464
 31
0.0
  0
LINE
  5
33
100
AcDbEntity
  8
0
  6
CONTINUOUS
 62
         7
100
AcDbLine
 10
6.9294188505
 20
1.6988536355
 30
0.0
 11
6.9294188505
 21
1.2010186622
 31
0.0
  0
LINE
  5
34
100
AcDbEntity
  8
0
  6
CONTINUOUS
 62
         7
100
AcDbLine
 10
7.2989435727
 20
1.6988536355
 30
0.0
 11
7.2989435727
 21
1.2010186622
 31
0.0
  0
LINE
  5
35
100
AcDbEntity
  8
0
  6
CONTINUOUS
 62
         7
100
AcDbLine
 10
8.9000563418
 20
0.7890359178
 30
0.0
 11
8.9000563418
 21
0.3920731707
 31
0.0
  0
LINE
  5
36
100
AcDbEntity
  8
0
  6
CONTINUOUS
 62
         7
100
AcDbLine
 10
9.3113942988
 20
0.96139916
 30
0.0
 11
9.3113942988
 21
0.7890359178
 31
0.0
  0
LINE
  5
37
100
AcDbEntity
  8
0
  6
CONTINUOUS
 62
         7
100
AcDbLine
 10
10.0324602448
 20
1.270166923
 30
0.0
 11
10.0324602448
 21
0.96139916
 31
0.0
  0
LINE
  5
38
100
AcDbEntity
  8
0
  6
CONTINUOUS
 62
         7
100
AcDbLine
 10
4.9283800522
 20
1.6988536355
 30
0.0
 11
4.9283800522
 21
0.3920731707
 31
0.0
  0
LINE
  5
39
100
AcDbEntity
  8
0
  6
CONTINUOUS
 62
         7
100
AcDbLine
 10
4.9283800522
 20
1.540040151
 30
0.0
 11
6.3491817542
 21
1.540040151
 31
0.0
  0
LINE
  5
3A
100
AcDbEntity
  8
0
  6
CONTINUOUS
 62
         7
100
AcDbLine
 10
4.9283800522
 20
1.4356947803
 30
0.0
 11
6.3491817542
 21
1.4356947803
 31
0.0
  0
LINE
  5
3B
100
AcDbEntity
  8
0
  6
CONTINUOUS
 62
         7
100
AcDbLine
 10
6.3491817542
 20
1.0381709011
 30
0.0
 11
7.8832069922
 21
1.0381709011
 31
0.0
  0
LINE
  5
3C
100
AcDbEntity
  8
0
  6
CONTINUOUS
 62
         7
100
AcDbLine
 10
7.8832069922
 20
2.0165420879
 30
0.0
 11
10.629927
 21
2.0165420879
 31
0.0
  0
LINE
  5
3D
100
AcDbEntity
  8
0
  6
CONTINUOUS
 62
         7
100
AcDbLine
 10
10.315241862
 20
1.2693980507
 30
0.0
 11
10.315241862
 21
0.96139916
 31
0.0
  0
LINE
  5
3E
100
AcDbEntity
  8
0
  6
CONTINUOUS
 62
         7
100
AcDbLine
 10
7.8832069922
 20
0.96139916
 30
0.0
 11
10.629927
 21
0.96139916
 31
0.0
  0
LINE
  5
3F
100
AcDbEntity
  8
0
  6
CONTINUOUS
 62
         7
100
AcDbLine
 10
10.629927
 20
2.0165420879
 30
0.0
 11
10.629927
 21
1.9698084888
 31
0.0
  0
LINE
  5
40
100
AcDbEntity
  8
0
  6
CONTINUOUS
 62
         7
100
AcDbLine
 10
6.692177
 20
0.3920731707
 30
0.0
 11
6.692177
 21
0.3072739649
 31
0.0
  0
LINE
  5
41
100
AcDbEntity
  8
0
  6
CONTINUOUS
 62
         7
100
AcDbLine
 10
2.754677
 20
0.3920731707
 30
0.0
 11
2.754677
 21
0.3072739649
 31
0.0
  0
LINE
  5
42
100
AcDbEntity
  8
0
  6
CONTINUOUS
 62
         7
100
AcDbLine
 10
2.754677
 20
0.3920731707
 30
0.0
 11
2.7672319738
 21
0.3575
 31
0.0
  0
LINE
  5
43
100
AcDbEntity
  8
0
  6
CONTINUOUS
 62
         7
100
AcDbLine
 10
2.7672319738
 20
0.3575
 30
0.0
 11
2.7414258825
 21
0.3575
 31
0.0
  0
LINE
  5
44
100
AcDbEntity
  8
0
  6
CONTINUOUS
 62
         7
100
AcDbLine
 10
2.7414258825
 20
0.3575
 30
0.0
 11
2.754677
 21
0.3920731707
 31
0.0
  0
INSERT
  5
48
100
AcDbEntity
  8
0
100
AcDbBlockReference
  2
NOTE0
 10
0.0
 20
0.0
 30
0.0
  0
MTEXT
  5
4A
100
AcDbEntity
  8
0
 62
         7
100
AcDbMText
 10
10.4087758717
 20
1.1307921136
 30
0.0
 40
0.1041666667
 41
0.0
 71
         1
 72
         1
  1
A
  7
SLDTEXTSTYLE0
  0
MTEXT
  5
4B
100
AcDbEntity
  8
0
 62
         7
100
AcDbMText
 10
8.5044054692
 20
0.9369270516
 30
0.0
 40
0.0833333333
 41
0.0
 71
         1
 72
         1
  1
WEIGHT: 
  7
SLDTEXTSTYLE0
  0
INSERT
  5
4F
100
AcDbEntity
  8
0
100
AcDbBlockReference
  2
NOTE3
 10
0.0
 20
0.0
 30
0.0
  0
MTEXT
  5
50
100
AcDbEntity
  8
0
 62
         7
100
AcDbMText
 10
1.7387909509
 20
0.3228564029
 30
0.0
 40
0.09375
 41
0.0
 71
         1
 72
         1
  1
5
  7
SLDTEXTSTYLE0
  0
MTEXT
  5
51
100
AcDbEntity
  8
0
 62
         7
100
AcDbMText
 10
3.723800327
 20
0.32599373
 30
0.0
 40
0.09375
 41
0.0
 71
         1
 72
         1
  1
4
  7
SLDTEXTSTYLE0
  0
MTEXT
  5
52
100
AcDbEntity
  8
0
 62
         7
100
AcDbMText
 10
5.6324457277
 20
0.3238891623
 30
0.0
 40
0.09375
 41
0.0
 71
         1
 72
         1
  1
3
  7
SLDTEXTSTYLE0
  0
MTEXT
  5
53
100
AcDbEntity
  8
0
 62
         7
100
AcDbMText
 10
7.6059721724
 20
0.3247091132
 30
0.0
 40
0.09375
 41
0.0
 71
         1
 72
         1
  1
2
  7
SLDTEXTSTYLE0
  0
MTEXT
  5
54
100
AcDbEntity
  8
0
 62
         7
100
AcDbMText
 10
9.6619921328
 20
0.3136419902
 30
0.0
 40
0.09375
 41
0.0
 71
         1
 72
         1
  1
1
  7
SLDTEXTSTYLE0
  0
MTEXT
  5
55
100
AcDbEntity
  8
0
 62
         7
100
AcDbMText
 10
9.0540106755
 20
0.608503423
 30
0.0
 40
0.125
 41
0.0
 71
         1
 72
         1
  1
DRV007
  7
SLDTEXTSTYLE0
  0
MTEXT
  5
56
100
AcDbEntity
  8
0
 62
         7
100
AcDbMText
 10
7.9301743649
 20
1.2662311489
 30
0.0
 40
0.0833333333
 41
0.0
 71
         1
 72
         1
  1
MATERIAL:
  7
SLDTEXTSTYLE0
  0
MTEXT
  5
57
100
AcDbEntity
  8
0
 62
         7
100
AcDbMText
 10
8.9438302275
 20
0.7619922188
 30
0.0
 40
0.0833333333
 41
0.0
 71
         1
 72
         1
  1
PART  NO.
  7
SLDTEXTSTYLE0
  0
MTEXT
  5
58
100
AcDbEntity
  8
0
 62
         7
100
AcDbMText
 10
4.9872272808
 20
1.678787395
 30
0.0
 40
0.1
 41
0.0
 71
         1
 72
         1
  1
TOLERANCES
  7
SLDTEXTSTYLE0
  0
MTEXT
  5
59
100
AcDbEntity
  8
0
 62
         7
100
AcDbMText
 10
6.3927073562
 20
1.1667586129
 30
0.0
 40
0.06
 41
0.0
 71
         1
 72
         1
  1
PROPRIETARY AND CONFIDENTIAL
  7
SLDTEXTSTYLE0
  0
INSERT
  5
6F
100
AcDbEntity
  8
0
100
AcDbBlockReference
  2
NOTE14
 10
4.9730262909
 20
1.3359640064
 30
0.0
  0
MTEXT
  5
70
100
AcDbEntity
  8
0
 62
         7
100
AcDbMText
 10
6.4985660702
 20
1.5619929057
 30
0.0
 40
0.065
 41
0.0
 71
         1
 72
         1
  1
DRAWN
  7
SLDTEXTSTYLE0
  0
MTEXT
  5
71
100
AcDbEntity
  8
0
 62
         7
100
AcDbMText
 10
6.4369653776
 20
1.4397369011
 30
0.0
 40
0.065
 41
0.0
 71
         1
 72
         1
  1
ENG APPR.
  7
SLDTEXTSTYLE0
  0
MTEXT
  5
72
100
AcDbEntity
  8
0
 62
         7
100
AcDbMText
 10
6.4273055419
 20
1.3196390079
 30
0.0
 40
0.065
 41
0.0
 71
         1
 72
         1
  1
MFG APPR.
  7
SLDTEXTSTYLE0
  0
MTEXT
  5
73
100
AcDbEntity
  8
0
 62
         7
100
AcDbMText
 10
6.9752663896
 20
1.6821505696
 30
0.0
 40
0.065
 41
0.0
 71
         1
 72
         1
  1
NAME
  7
SLDTEXTSTYLE0
  0
INSERT
  5
77
100
AcDbEntity
  8
0
100
AcDbBlockReference
  2
NOTE19
 10
0.0
 20
0.0
 30
0.0
  0
MTEXT
  5
78
100
AcDbEntity
  8
0
 62
         7
100
AcDbMText
 10
7.9309626079
 20
1.6771678405
 30
0.0
 40
0.1
 41
0.0
 71
         1
 72
         1
  1
TITLE:
  7
SLDTEXTSTYLE0
  0
MTEXT
  5
79
100
AcDbEntity
  8
0
 62
         7
100
AcDbMText
 10
10.0657693915
 20
1.2425575667
 30
0.0
 40
0.0833333333
 41
0.0
 71
         1
 72
         1
  1
SIZE
  7
SLDTEXTSTYLE0
  0
MTEXT
  5
7A
100
AcDbEntity
  8
0
 62
         7
100
AcDbMText
 10
10.1162261111
 20
1.1269262436
 30
0.0
 40
0.1041666667
 41
0.0
 71
         1
 72
         1
  1
A
  7
SLDTEXTSTYLE0
  0
MTEXT
  5
7B
100
AcDbEntity
  8
0
 62
         7
100
AcDbMText
 10
10.335100974
 20
1.24415745
 30
0.0
 40
0.0833333333
 41
0.0
 71
         1
 72
         1
  1
REV.
  7
SLDTEXTSTYLE0
  0
INSERT
  5
81
100
AcDbEntity
  8
0
100
AcDbBlockReference
  2
NOTE24
 10
7.9159099546
 20
0.8173954007
 30
0.0
  0
INSERT
  5
85
100
AcDbEntity
  8
0
100
AcDbBlockReference
  2
NOTE25
 10
0.0
 20
0.0
 30
0.0
  0
INSERT
  5
89
100
AcDbEntity
  8
0
100
AcDbBlockReference
  2
NOTE26
 10
0.0
 20
0.0
 30
0.0
  0
INSERT
  5
8D
100
AcDbEntity
  8
0
100
AcDbBlockReference
  2
NOTE27
 10
0.0
 20
0.0
 30
0.0
  0
INSERT
  5
91
100
AcDbEntity
  8
0
100
AcDbBlockReference
  2
NOTE28
 10
0.0
 20
0.0
 30
0.0
  0
INSERT
  5
95
100
AcDbEntity
  8
0
100
AcDbBlockReference
  2
NOTE29
 10
0.0
 20
0.0
 30
0.0
  0
INSERT
  5
99
100
AcDbEntity
  8
0
100
AcDbBlockReference
  2
NOTE30
 10
0.0
 20
0.0
 30
0.0
  0
INSERT
  5
9D
100
AcDbEntity
  8
0
100
AcDbBlockReference
  2
NOTE31
 10
0.0
 20
0.0
 30
0.0
  0
INSERT
  5
A1
100
AcDbEntity
  8
0
100
AcDbBlockReference
  2
NOTE32
 10
0.0
 20
0.0
 30
0.0
  0
INSERT
  5
A5
100
AcDbEntity
  8
0
100
AcDbBlockReference
  2
NOTE33
 10
0.0
 20
0.0
 30
0.0
  0
INSERT
  5
A9
100
AcDbEntity
  8
0
100
AcDbBlockReference
  2
NOTE34
 10
0.0
 20
0.0
 30
0.0
  0
INSERT
  5
B1
100
AcDbEntity
  8
0
100
AcDbBlockReference
  2
NOTE35
 10
9.3533609271
 20
0.8201337505
 30
0.0
  0
MTEXT
  5
B2
100
AcDbEntity
  8
0
 62
         7
100
AcDbMText
 10
7.9965490969
 20
0.6079408784
 30
0.0
 40
0.125
 41
0.0
 71
         1
 72
         1
  1
12858-E01
  7
SLDTEXTSTYLE0
  0
INSERT
  5
BC
100
AcDbEntity
  8
0
100
AcDbBlockReference
  2
NOTE37
 10
6.3891646717
 20
0.9312082413
 30
0.0
  0
MTEXT
  5
BD
100
AcDbEntity
  8
0
 62
         7
100
AcDbMText
 10
4.9869424832
 20
1.5430724242
 30
0.0
 40
0.0625
 41
0.0
 71
         1
 72
         1
  1
UNLESS OTHERWISE SPECIFIED:
  7
SLDTEXTSTYLE0
  0
MTEXT
  5
BE
100
AcDbEntity
  8
0
 62
         7
100
AcDbMText
 10
7.9076399399
 20
0.763088683
 30
0.0
 40
0.0833333333
 41
0.0
 71
         1
 72
         1
  1
DWG.  NO.
  7
SLDTEXTSTYLE0
  0
MTEXT
  5
BF
100
AcDbEntity
  8
0
 62
         7
100
AcDbMText
 10
7.0592138229
 20
1.5647861468
 30
0.0
 40
0.065
 41
0.0
 71
         1
 72
         1
  1
JPS
  7
SLDTEXTSTYLE0
  0
MTEXT
  5
C0
100
AcDbEntity
  8
0
 62
         7
100
AcDbMText
 10
7.0628716471
 20
1.4480432518
 30
0.0
 40
0.065
 41
0.0
 71
         1
 72
         1
  1
JMM
  7
SLDTEXTSTYLE0
  0
MTEXT
  5
C1
100
AcDbEntity
  8
0
 62
         7
100
AcDbMText
 10
7.0636219211
 20
1.3254688473
 30
0.0
 40
0.065
 41
0.0
 71
         1
 72
         1
  1
JMM
  7
SLDTEXTSTYLE0
  0
MTEXT
  5
C2
100
AcDbEntity
  8
0
 62
         7
100
AcDbMText
 10
7.3775562039
 20
1.5664735411
 30
0.0
 40
0.065
 41
0.0
 71
         1
 72
         1
  1
10/17/05
  7
SLDTEXTSTYLE0
  0
MTEXT
  5
C3
100
AcDbEntity
  8
0
 62
         7
100
AcDbMText
 10
7.4731545031
 20
1.6796112043
 30
0.0
 40
0.065
 41
0.0
 71
         1
 72
         1
  1
DATE
  7
SLDTEXTSTYLE0
  0
MTEXT
  5
C4
100
AcDbEntity
  8
0
 62
         7
100
AcDbMText
 10
7.3821011998
 20
1.4397569559
 30
0.0
 40
0.065
 41
0.0
 71
         1
 72
         1
  1
10/17/05
  7
SLDTEXTSTYLE0
  0
MTEXT
  5
C5
100
AcDbEntity
  8
0
 62
         7
100
AcDbMText
 10
7.3821011998
 20
1.3192883921
 30
0.0
 40
0.065
 41
0.0
 71
         1
 72
         1
  1
10/17/05
  7
SLDTEXTSTYLE0
  0
MTEXT
  5
C6
100
AcDbEntity
  8
0
 62
         7
100
AcDbMText
 10
7.9866599369
 20
1.9390857479
 30
0.0
 40
0.1354166667
 41
0.0
 71
         1
 72
         1
  1
THORLABS INC.
  7
SLDTEXTSTYLE0
  0
INSERT
  5
CC
100
AcDbEntity
  8
0
100
AcDbBlockReference
  2
NOTE48
 10
9.6980203408
 20
1.8476815558
 30
0.0
  0
INSERT
  5
D4
100
AcDbEntity
  8
0
100
AcDbBlockReference
  2
NOTE49
 10
8.2973947528
 20
1.4812927431
 30
0.0
  0
MTEXT
  5
D5
100
AcDbEntity
  8
0
 62
         7
100
AcDbMText
 10
8.4782702427
 20
1.2248594547
 30
0.0
 40
0.1354166667
 41
0.0
 71
         1
 72
         1
  1
STAINLESS STEEL
  7
SLDTEXTSTYLE0
  0
LINE
  5
D6
100
AcDbEntity
  8
0
  6
CONTINUOUS
 62
         7
100
AcDbLine
 10
2.8054623722
 20
3.5996428432
 30
0.0
 11
2.8054623722
 21
3.613998731
 31
0.0
  0
LINE
  5
D7
100
AcDbEntity
  8
0
  6
CONTINUOUS
 62
         7
100
AcDbLine
 10
6.7408107896
 20
3.9861002943
 30
0.0
 11
6.7408107896
 21
4.0283761482
 31
0.0
  0
LINE
  5
D8
100
AcDbEntity
  8
0
  6
CONTINUOUS
 62
         7
100
AcDbLine
 10
2.9561030751
 20
3.7168007883
 30
0.0
 11
2.9364180357
 21
3.69806804
 31
0.0
  0
LINE
  5
D9
100
AcDbEntity
  8
0
  6
CONTINUOUS
 62
         7
100
AcDbLine
 10
2.9364180357
 20
3.5012176463
 30
0.0
 11
2.9561030751
 21
3.4815326069
 31
0.0
  0
LINE
  5
DA
100
AcDbEntity
  8
0
  6
CONTINUOUS
 62
         7
100
AcDbLine
 10
2.9561030751
 20
3.4815326069
 30
0.0
 11
3.4088589806
 21
3.4815326069
 31
0.0
  0
LINE
  5
DB
100
AcDbEntity
  8
0
  6
CONTINUOUS
 62
         7
100
AcDbLine
 10
4.3931109491
 20
3.4815326069
 30
0.0
 11
4.8655518939
 21
3.4815326069
 31
0.0
  0
LINE
  5
DC
100
AcDbEntity
  8
0
  6
CONTINUOUS
 62
         7
100
AcDbLine
 10
4.8655518939
 20
3.7177530794
 30
0.0
 11
4.3931109491
 21
3.7177530794
 31
0.0
  0
LINE
  5
DD
100
AcDbEntity
  8
0
  6
CONTINUOUS
 62
         7
100
AcDbLine
 10
3.4088589806
 20
3.7177530794
 30
0.0
 11
2.9561030751
 21
3.7168007883
 31
0.0
  0
ARC
  5
DE
100
AcDbEntity
  8
0
  6
CONTINUOUS
 62
         7
100
AcDbCircle
 10
2.844832451
 20
3.5996428432
 30
0.0
 40
0.0393700787
100
AcDbArc
 50
180.0
 51
269.7577973098
  0
ARC
  5
DF
100
AcDbEntity
  8
0
  6
CONTINUOUS
 62
         7
100
AcDbCircle
 10
2.844832451
 20
3.5996428432
 30
0.0
 40
0.0393700787
100
AcDbArc
 50
90.2422026902
 51
180.0
  0
ARC
  5
E0
100
AcDbEntity
  8
0
  6
CONTINUOUS
 62
         7
100
AcDbCircle
 10
5.2789377207
 20
4.072083788
 30
0.0
 40
0.9842519685
100
AcDbArc
 50
253.7397952917
 51
286.2602047083
  0
ARC
  5
E1
100
AcDbEntity
  8
0
  6
CONTINUOUS
 62
         7
100
AcDbCircle
 10
5.2789377207
 20
3.1272018983
 30
0.0
 40
0.9842519685
100
AcDbArc
 50
73.7397952917
 51
106.2602047083
  0
LINE
  5
E2
100
AcDbEntity
  8
0
  6
CONTINUOUS
 62
         7
100
AcDbLine
 10
2.9364180357
 20
3.6586979613
 30
0.0
 11
2.8446660249
 21
3.6586979613
 31
0.0
  0
LINE
  5
E3
100
AcDbEntity
  8
0
  6
CONTINUOUS
 62
         7
100
AcDbLine
 10
2.8446660249
 20
3.5405877251
 30
0.0
 11
2.9364180357
 21
3.5405877251
 31
0.0
  0
LINE
  5
E4
100
AcDbEntity
  8
0
  6
CONTINUOUS
 62
         7
100
AcDbLine
 10
3.4088589806
 20
3.3496428432
 30
0.0
 11
4.3931109491
 21
3.3496428432
 31
0.0
  0
LINE
  5
E5
100
AcDbEntity
  8
0
  6
CONTINUOUS
 62
         7
100
AcDbLine
 10
4.3931109491
 20
3.8496428432
 30
0.0
 11
3.4088589806
 21
3.8496428432
 31
0.0
  0
LINE
  5
E6
100
AcDbEntity
  8
0
  6
CONTINUOUS
 62
         7
100
AcDbLine
 10
4.9246070121
 20
3.1272018983
 30
0.0
 11
5.0033471695
 21
3.1272018983
 31
0.0
  0
LINE
  5
E7
100
AcDbEntity
  8
0
  6
CONTINUOUS
 62
         7
100
AcDbLine
 10
5.0033471695
 20
4.072083788
 30
0.0
 11
4.9246070121
 21
4.072083788
 31
0.0
  0
ARC
  5
E8
100
AcDbEntity
  8
0
  6
CONTINUOUS
 62
         7
100
AcDbCircle
 10
4.9246070121
 20
3.1862570164
 30
0.0
 40
0.0590551181
100
AcDbArc
 50
180.0
 51
270.0
  0
ARC
  5
E9
100
AcDbEntity
  8
0
  6
CONTINUOUS
 62
         7
100
AcDbCircle
 10
4.9246070121
 20
4.0130286699
 30
0.0
 40
0.0590551181
100
AcDbArc
 50
90.0
 51
180.0
  0
LINE
  5
EA
100
AcDbEntity
  8
0
  6
CONTINUOUS
 62
         7
100
AcDbLine
 10
5.5545282719
 20
3.1272018983
 30
0.0
 11
5.5781503191
 21
3.1272018983
 31
0.0
  0
LINE
  5
EB
100
AcDbEntity
  8
0
  6
CONTINUOUS
 62
         7
100
AcDbLine
 10
5.5781503191
 20
4.072083788
 30
0.0
 11
5.5545282719
 21
4.072083788
 31
0.0
  0
ARC
  5
EC
100
AcDbEntity
  8
0
  6
CONTINUOUS
 62
         7
100
AcDbCircle
 10
5.5781503191
 20
4.0563357566
 30
0.0
 40
0.0157480315
100
AcDbArc
 50
0.0
 51
90.0
  0
ARC
  5
ED
100
AcDbEntity
  8
0
  6
CONTINUOUS
 62
         7
100
AcDbCircle
 10
5.5781503191
 20
3.1429499298
 30
0.0
 40
0.0157480315
100
AcDbArc
 50
270.0
 51
0.0
  0
LINE
  5
EE
100
AcDbEntity
  8
0
  6
CONTINUOUS
 62
         7
100
AcDbLine
 10
5.6906470964
 20
4.0268081975
 30
0.0
 11
5.5938983506
 21
4.0268081975
 31
0.0
  0
LINE
  5
EF
100
AcDbEntity
  8
0
  6
CONTINUOUS
 62
         7
100
AcDbLine
 10
5.5938983506
 20
3.1724774888
 30
0.0
 11
5.6906470964
 21
3.1724774888
 31
0.0
  0
LINE
  5
F0
100
AcDbEntity
  8
0
  6
CONTINUOUS
 62
         7
100
AcDbLine
 10
6.4711257462
 20
3.1163419653
 30
0.0
 11
6.4780486712
 21
3.1232648904
 31
0.0
  0
LINE
  5
F1
100
AcDbEntity
  8
0
  6
CONTINUOUS
 62
         7
100
AcDbLine
 10
6.4780486712
 20
4.0760207959
 30
0.0
 11
6.4711285124
 21
4.0829409548
 31
0.0
  0
LINE
  5
F2
100
AcDbEntity
  8
0
  6
CONTINUOUS
 62
         7
100
AcDbLine
 10
6.1897013872
 20
4.0829491024
 30
0.0
 11
6.1827730807
 21
4.0760207959
 31
0.0
  0
LINE
  5
F3
100
AcDbEntity
  8
0
  6
CONTINUOUS
 62
         7
100
AcDbLine
 10
6.1827730807
 20
3.1232648904
 30
0.0
 11
6.1897013872
 21
3.1163365839
 31
0.0
  0
LINE
  5
F4
100
AcDbEntity
  8
0
  6
CONTINUOUS
 62
         7
100
AcDbLine
 10
6.1827730807
 20
4.072083788
 30
0.0
 11
5.828442372
 21
4.072083788
 31
0.0
  0
LINE
  5
F5
100
AcDbEntity
  8
0
  6
CONTINUOUS
 62
         7
100
AcDbLine
 10
5.828442372
 20
3.1272018983
 30
0.0
 11
6.1827730807
 21
3.1272018983
 31
0.0
  0
ARC
  5
F6
100
AcDbEntity
  8
0
  6
CONTINUOUS
 62
         7
100
AcDbCircle
 10
6.4659842579
 20
4.1113799246
 30
0.0
 40
0.9842519685
100
AcDbArc
 50
270.7023173954
 51
284.4933817153
  0
ARC
  5
F7
100
AcDbEntity
  8
0
  6
CONTINUOUS
 62
         7
100
AcDbCircle
 10
6.4659842579
 20
3.0879057618
 30
0.0
 40
0.9842519685
100
AcDbArc
 50
75.5066182847
 51
89.2976826046
  0
ARC
  5
F8
100
AcDbEntity
  8
0
  6
CONTINUOUS
 62
         7
100
AcDbCircle
 10
5.8493467549
 20
3.7380916762
 30
0.0
 40
0.3346456693
100
AcDbArc
 50
93.5814395665
 51
118.3093522353
  0
ARC
  5
F9
100
AcDbEntity
  8
0
  6
CONTINUOUS
 62
         7
100
AcDbCircle
 10
5.8493467549
 20
3.4611940101
 30
0.0
 40
0.3346456693
100
AcDbArc
 50
241.6906477647
 51
266.4185604335
  0
ARC
  5
FA
100
AcDbEntity
  8
0
  6
CONTINUOUS
 62
         7
100
AcDbCircle
 10
6.70245812
 20
4.0027182552
 30
0.0
 40
0.0393700787
100
AcDbArc
 50
360.0
 51
75.5066182847
  0
ARC
  5
FB
100
AcDbEntity
  8
0
  6
CONTINUOUS
 62
         7
100
AcDbCircle
 10
6.70245812
 20
3.1965674312
 30
0.0
 40
0.0393700787
100
AcDbArc
 50
284.4933817153
 51
0.0
  0
LINE
  5
FC
100
AcDbEntity
  8
0
  6
CONTINUOUS
 62
         7
100
AcDbLine
 10
6.7418281988
 20
3.1965674312
 30
0.0
 11
6.7418281988
 21
4.0027182552
 31
0.0
  0
LINE
  5
FD
100
AcDbEntity
  8
0
  6
CONTINUOUS
 62
         7
100
AcDbLine
 10
2.9561030751
 20
3.4815925906
 30
0.0
 11
2.9561030751
 21
3.7168007883
 31
0.0
  0
LINE
  5
FE
100
AcDbEntity
  8
0
  6
CONTINUOUS
 62
         7
100
AcDbLine
 10
2.9561030751
 20
3.6586979613
 30
0.0
 11
2.9561030751
 21
3.7168007883
 31
0.0
  0
LINE
  5
FF
100
AcDbEntity
  8
0
  6
CONTINUOUS
 62
         7
100
AcDbLine
 10
2.9364180357
 20
3.5012176463
 30
0.0
 11
2.9364180357
 21
3.69806804
 31
0.0
  0
LINE
  5
100
100
AcDbEntity
  8
0
  6
CONTINUOUS
 62
         7
100
AcDbLine
 10
5.5545282719
 20
4.072083788
 30
0.0
 11
5.5545282719
 21
3.1272018983
 31
0.0
  0
LINE
  5
101
100
AcDbEntity
  8
0
  6
CONTINUOUS
 62
         7
100
AcDbLine
 10
5.0033471695
 20
4.072083788
 30
0.0
 11
5.0033471695
 21
3.1272018983
 31
0.0
  0
LINE
  5
102
100
AcDbEntity
  8
0
  6
CONTINUOUS
 62
         7
100
AcDbLine
 10
2.8446660249
 20
3.5405877251
 30
0.0
 11
2.8446660249
 21
3.6586979613
 31
0.0
  0
LINE
  5
103
100
AcDbEntity
  8
0
  6
CONTINUOUS
 62
         7
100
AcDbLine
 10
3.4088589806
 20
3.3535853471
 30
0.0
 11
3.4088589806
 21
3.8496428432
 31
0.0
  0
LINE
  5
104
100
AcDbEntity
  8
0
  6
CONTINUOUS
 62
         7
100
AcDbLine
 10
3.4088589806
 20
3.3496428432
 30
0.0
 11
3.4088589806
 21
3.3535853471
 31
0.0
  0
LINE
  5
105
100
AcDbEntity
  8
0
  6
CONTINUOUS
 62
         7
100
AcDbLine
 10
4.3931109491
 20
3.3535853471
 30
0.0
 11
4.3931109491
 21
3.8496428432
 31
0.0
  0
LINE
  5
106
100
AcDbEntity
  8
0
  6
CONTINUOUS
 62
         7
100
AcDbLine
 10
4.3931109491
 20
3.3496428432
 30
0.0
 11
4.3931109491
 21
3.3535853471
 31
0.0
  0
LINE
  5
107
100
AcDbEntity
  8
0
  6
CONTINUOUS
 62
         7
100
AcDbLine
 10
5.0033471695
 20
3.1642606
 30
0.0
 11
5.0033471695
 21
4.072083788
 31
0.0
  0
LINE
  5
108
100
AcDbEntity
  8
0
  6
CONTINUOUS
 62
         7
100
AcDbLine
 10
5.0033471695
 20
3.1272018983
 30
0.0
 11
5.0033471695
 21
3.1642606
 31
0.0
  0
LINE
  5
109
100
AcDbEntity
  8
0
  6
CONTINUOUS
 62
         7
100
AcDbLine
 10
4.8655518939
 20
3.2186833804
 30
0.0
 11
4.8655518939
 21
4.0130286699
 31
0.0
  0
LINE
  5
10A
100
AcDbEntity
  8
0
  6
CONTINUOUS
 62
         7
100
AcDbLine
 10
4.8655518939
 20
3.1862570164
 30
0.0
 11
4.8655518939
 21
3.2186833804
 31
0.0
  0
LINE
  5
10B
100
AcDbEntity
  8
0
  6
CONTINUOUS
 62
         7
100
AcDbLine
 10
5.5545282719
 20
3.1642606
 30
0.0
 11
5.5545282719
 21
4.072083788
 31
0.0
  0
LINE
  5
10C
100
AcDbEntity
  8
0
  6
CONTINUOUS
 62
         7
100
AcDbLine
 10
5.5545282719
 20
3.1272018983
 30
0.0
 11
5.5545282719
 21
3.1642606
 31
0.0
  0
LINE
  5
10D
100
AcDbEntity
  8
0
  6
CONTINUOUS
 62
         7
100
AcDbLine
 10
5.5781503191
 20
4.072083788
 30
0.0
 11
5.5781503191
 21
3.1272018983
 31
0.0
  0
LINE
  5
10E
100
AcDbEntity
  8
0
  6
CONTINUOUS
 62
         7
100
AcDbLine
 10
5.5938983506
 20
4.0563357566
 30
0.0
 11
5.5938983506
 21
3.1429499298
 31
0.0
  0
LINE
  5
10F
100
AcDbEntity
  8
0
  6
CONTINUOUS
 62
         7
100
AcDbLine
 10
6.4780486712
 20
3.8745106152
 30
0.0
 11
6.4780486712
 21
3.1232648904
 31
0.0
  0
LINE
  5
110
100
AcDbEntity
  8
0
  6
CONTINUOUS
 62
         7
100
AcDbLine
 10
6.4780486712
 20
4.0760207959
 30
0.0
 11
6.4780486712
 21
3.8745106152
 31
0.0
  0
LINE
  5
111
100
AcDbEntity
  8
0
  6
CONTINUOUS
 62
         7
100
AcDbLine
 10
6.4731534242
 20
3.1948254838
 30
0.0
 11
6.4623006397
 21
3.1916013638
 31
0.0
  0
LINE
  5
112
100
AcDbEntity
  8
0
  6
CONTINUOUS
 62
         7
100
AcDbLine
 10
6.4623006397
 20
3.1916013638
 30
0.0
 11
6.4731534242
 21
3.2065641282
 31
0.0
  0
LINE
  5
113
100
AcDbEntity
  8
0
  6
CONTINUOUS
 62
         7
100
AcDbLine
 10
6.4731534242
 20
3.2065641282
 30
0.0
 11
6.4623006397
 21
3.203990225
 31
0.0
  0
LINE
  5
114
100
AcDbEntity
  8
0
  6
CONTINUOUS
 62
         7
100
AcDbLine
 10
6.4623006397
 20
3.203990225
 30
0.0
 11
6.4731534242
 21
3.2190510203
 31
0.0
  0
LINE
  5
115
100
AcDbEntity
  8
0
  6
CONTINUOUS
 62
         7
100
AcDbLine
 10
6.4731534242
 20
3.2190510203
 30
0.0
 11
6.4623006397
 21
3.2171322335
 31
0.0
  0
LINE
  5
116
100
AcDbEntity
  8
0
  6
CONTINUOUS
 62
         7
100
AcDbLine
 10
6.4623006397
 20
3.2171322335
 30
0.0
 11
6.4731534242
 21
3.2322623906
 31
0.0
  0
LINE
  5
117
100
AcDbEntity
  8
0
  6
CONTINUOUS
 62
         7
100
AcDbLine
 10
6.4731534242
 20
3.2322623906
 30
0.0
 11
6.4623006397
 21
3.2310023727
 31
0.0
  0
LINE
  5
118
100
AcDbEntity
  8
0
  6
CONTINUOUS
 62
         7
100
AcDbLine
 10
6.4623006397
 20
3.2310023727
 30
0.0
 11
6.4731534242
 21
3.2461730904
 31
0.0
  0
LINE
  5
119
100
AcDbEntity
  8
0
  6
CONTINUOUS
 62
         7
100
AcDbLine
 10
6.4731534242
 20
3.2461730904
 30
0.0
 11
6.4623006397
 21
3.24557424
 31
0.0
  0
LINE
  5
11A
100
AcDbEntity
  8
0
  6
CONTINUOUS
 62
         7
100
AcDbLine
 10
6.4623006397
 20
3.24557424
 30
0.0
 11
6.4731534242
 21
3.26075664
 31
0.0
  0
LINE
  5
11B
100
AcDbEntity
  8
0
  6
CONTINUOUS
 62
         7
100
AcDbLine
 10
6.4731534242
 20
3.26075664
 30
0.0
 11
6.4623006397
 21
3.260820097
 31
0.0
  0
LINE
  5
11C
100
AcDbEntity
  8
0
  6
CONTINUOUS
 62
         7
100
AcDbLine
 10
6.4623006397
 20
3.260820097
 30
0.0
 11
6.4731534242
 21
3.2759852787
 31
0.0
  0
LINE
  5
11D
100
AcDbEntity
  8
0
  6
CONTINUOUS
 62
         7
100
AcDbLine
 10
6.4731534242
 20
3.2759852787
 30
0.0
 11
6.4623006397
 21
3.2767109223
 31
0.0
  0
LINE
  5
11E
100
AcDbEntity
  8
0
  6
CONTINUOUS
 62
         7
100
AcDbLine
 10
6.4623006397
 20
3.2767109223
 30
0.0
 11
6.4731534242
 21
3.2918300181
 31
0.0
  0
LINE
  5
11F
100
AcDbEntity
  8
0
  6
CONTINUOUS
 62
         7
100
AcDbLine
 10
6.4731534242
 20
3.2918300181
 30
0.0
 11
6.4623006397
 21
3.2932164669
 31
0.0
  0
LINE
  5
120
100
AcDbEntity
  8
0
  6
CONTINUOUS
 62
         7
100
AcDbLine
 10
6.4623006397
 20
3.2932164669
 30
0.0
 11
6.4731534242
 21
3.3082606966
 31
0.0
  0
LINE
  5
121
100
AcDbEntity
  8
0
  6
CONTINUOUS
 62
         7
100
AcDbLine
 10
6.4731534242
 20
3.3082606966
 30
0.0
 11
6.4623006397
 21
3.3103053115
 31
0.0
  0
LINE
  5
122
100
AcDbEntity
  8
0
  6
CONTINUOUS
 62
         7
100
AcDbLine
 10
6.4623006397
 20
3.3103053115
 30
0.0
 11
6.4731534242
 21
3.3252460376
 31
0.0
  0
LINE
  5
123
100
AcDbEntity
  8
0
  6
CONTINUOUS
 62
         7
100
AcDbLine
 10
6.4731534242
 20
3.3252460376
 30
0.0
 11
6.4623006397
 21
3.3279449266
 31
0.0
  0
LINE
  5
124
100
AcDbEntity
  8
0
  6
CONTINUOUS
 62
         7
100
AcDbLine
 10
6.4623006397
 20
3.3279449266
 30
0.0
 11
6.4731534242
 21
3.3427537085
 31
0.0
  0
LINE
  5
125
100
AcDbEntity
  8
0
  6
CONTINUOUS
 62
         7
100
AcDbLine
 10
6.4731534242
 20
3.3427537085
 30
0.0
 11
6.4623006397
 21
3.3461017341
 31
0.0
  0
LINE
  5
126
100
AcDbEntity
  8
0
  6
CONTINUOUS
 62
         7
100
AcDbLine
 10
6.4623006397
 20
3.3461017341
 30
0.0
 11
6.4731534242
 21
3.3607503825
 31
0.0
  0
LINE
  5
127
100
AcDbEntity
  8
0
  6
CONTINUOUS
 62
         7
100
AcDbLine
 10
6.4731534242
 20
3.3607503825
 30
0.0
 11
6.4623006397
 21
3.3647411715
 31
0.0
  0
LINE
  5
128
100
AcDbEntity
  8
0
  6
CONTINUOUS
 62
         7
100
AcDbLine
 10
6.4623006397
 20
3.3647411715
 30
0.0
 11
6.4731534242
 21
3.3792018018
 31
0.0
  0
LINE
  5
129
100
AcDbEntity
  8
0
  6
CONTINUOUS
 62
         7
100
AcDbLine
 10
6.4731534242
 20
3.3792018018
 30
0.0
 11
6.4623006397
 21
3.3838277576
 31
0.0
  0
LINE
  5
12A
100
AcDbEntity
  8
0
  6
CONTINUOUS
 62
         7
100
AcDbLine
 10
6.4623006397
 20
3.3838277576
 30
0.0
 11
6.4731534242
 21
3.3980728433
 31
0.0
  0
LINE
  5
12B
100
AcDbEntity
  8
0
  6
CONTINUOUS
 62
         7
100
AcDbLine
 10
6.4731534242
 20
3.3980728433
 30
0.0
 11
6.4623006397
 21
3.4033251599
 31
0.0
  0
LINE
  5
12C
100
AcDbEntity
  8
0
  6
CONTINUOUS
 62
         7
100
AcDbLine
 10
6.4623006397
 20
3.4033251599
 30
0.0
 11
6.4731534242
 21
3.4173275846
 31
0.0
  0
LINE
  5
12D
100
AcDbEntity
  8
0
  6
CONTINUOUS
 62
         7
100
AcDbLine
 10
6.4731534242
 20
3.4173275846
 30
0.0
 11
6.4623006397
 21
3.4231962642
 31
0.0
  0
LINE
  5
12E
100
AcDbEntity
  8
0
  6
CONTINUOUS
 62
         7
100
AcDbLine
 10
6.4623006397
 20
3.4231962642
 30
0.0
 11
6.4731534242
 21
3.4369293734
 31
0.0
  0
LINE
  5
12F
100
AcDbEntity
  8
0
  6
CONTINUOUS
 62
         7
100
AcDbLine
 10
6.4731534242
 20
3.4369293734
 30
0.0
 11
6.4623006397
 21
3.4434032445
 31
0.0
  0
LINE
  5
130
100
AcDbEntity
  8
0
  6
CONTINUOUS
 62
         7
100
AcDbLine
 10
6.4623006397
 20
3.4434032445
 30
0.0
 11
6.4731534242
 21
3.4568408966
 31
0.0
  0
LINE
  5
131
100
AcDbEntity
  8
0
  6
CONTINUOUS
 62
         7
100
AcDbLine
 10
6.4731534242
 20
3.4568408966
 30
0.0
 11
6.4623006397
 21
3.4639076358
 31
0.0
  0
LINE
  5
132
100
AcDbEntity
  8
0
  6
CONTINUOUS
 62
         7
100
AcDbLine
 10
6.4623006397
 20
3.4639076358
 30
0.0
 11
6.4731534242
 21
3.4770242514
 31
0.0
  0
LINE
  5
133
100
AcDbEntity
  8
0
  6
CONTINUOUS
 62
         7
100
AcDbLine
 10
6.4731534242
 20
3.4770242514
 30
0.0
 11
6.4623006397
 21
3.4846704067
 31
0.0
  0
LINE
  5
134
100
AcDbEntity
  8
0
  6
CONTINUOUS
 62
         7
100
AcDbLine
 10
6.4623006397
 20
3.4846704067
 30
0.0
 11
6.4731534242
 21
3.4974410176
 31
0.0
  0
LINE
  5
135
100
AcDbEntity
  8
0
  6
CONTINUOUS
 62
         7
100
AcDbLine
 10
6.4731534242
 20
3.4974410176
 30
0.0
 11
6.4623006397
 21
3.5056520343
 31
0.0
  0
POLYLINE
  5
136
100
AcDbEntity
  8
0
  6
CONTINUOUS
 62
         7
100
AcDb2dPolyline
 66
         1
 10
0.0
 20
0.0
 30
0.0
 70
       128
  0
VERTEX
  5
137
100
AcDbEntity
  8
0
100
AcDbVertex
100
AcDb2dVertex
 10
6.4623006397
 20
3.5056520343
 30
0.0
  0
VERTEX
  5
138
100
AcDbEntity
  8
0
100
AcDbVertex
100
AcDb2dVertex
 10
6.4719211891
 20
3.5166308437
 30
0.0
  0
VERTEX
  5
139
100
AcDbEntity
  8
0
100
AcDbVertex
100
AcDb2dVertex
 10
6.4731534242
 20
3.5180523308
 30
0.0
  0
SEQEND
  5
13A
100
AcDbEntity
  8
0
  0
POLYLINE
  5
13B
100
AcDbEntity
  8
0
  6
CONTINUOUS
 62
         7
100
AcDb2dPolyline
 66
         1
 10
0.0
 20
0.0
 30
0.0
 70
       128
  0
VERTEX
  5
13C
100
AcDbEntity
  8
0
100
AcDbVertex
100
AcDb2dVertex
 10
6.4731534242
 20
3.5180523308
 30
0.0
  0
VERTEX
  5
13D
100
AcDbEntity
  8
0
100
AcDbVertex
100
AcDb2dVertex
 10
6.4719211891
 20
3.5190565471
 30
0.0
  0
VERTEX
  5
13E
100
AcDbEntity
  8
0
100
AcDbVertex
100
AcDb2dVertex
 10
6.4623006397
 20
3.5268125786
 30
0.0
  0
SEQEND
  5
13F
100
AcDbEntity
  8
0
  0
LINE
  5
140
100
AcDbEntity
  8
0
  6
CONTINUOUS
 62
         7
100
AcDbLine
 10
6.4623006397
 20
3.5268125786
 30
0.0
 11
6.4731534242
 21
3.5388189562
 31
0.0
  0
POLYLINE
  5
141
100
AcDbEntity
  8
0
  6
CONTINUOUS
 62
         7
100
AcDb2dPolyline
 66
         1
 10
0.0
 20
0.0
 30
0.0
 70
       128
  0
VERTEX
  5
142
100
AcDbEntity
  8
0
100
AcDbVertex
100
AcDb2dVertex
 10
6.4731534242
 20
3.5388189562
 30
0.0
  0
VERTEX
  5
143
100
AcDbEntity
  8
0
100
AcDbVertex
100
AcDb2dVertex
 10
6.4677462633
 20
3.5434736812
 30
0.0
  0
VERTEX
  5
144
100
AcDbEntity
  8
0
100
AcDbVertex
100
AcDb2dVertex
 10
6.4623006397
 20
3.5481117596
 30
0.0
  0
SEQEND
  5
145
100
AcDbEntity
  8
0
  0
LINE
  5
146
100
AcDbEntity
  8
0
  6
CONTINUOUS
 62
         7
100
AcDbLine
 10
6.4623006397
 20
3.5481117596
 30
0.0
 11
6.4731534242
 21
3.5597013634
 31
0.0
  0
LINE
  5
147
100
AcDbEntity
  8
0
  6
CONTINUOUS
 62
         7
100
AcDbLine
 10
6.4731534242
 20
3.5597013634
 30
0.0
 11
6.4623006397
 21
3.5695090328
 31
0.0
  0
LINE
  5
148
100
AcDbEntity
  8
0
  6
CONTINUOUS
 62
         7
100
AcDbLine
 10
6.4623006397
 20
3.5695090328
 30
0.0
 11
6.4731534242
 21
3.5806598014
 31
0.0
  0
LINE
  5
149
100
AcDbEntity
  8
0
  6
CONTINUOUS
 62
         7
100
AcDbLine
 10
6.4731534242
 20
3.5806598014
 30
0.0
 11
6.4623006397
 21
3.5909636675
 31
0.0
  0
LINE
  5
14A
100
AcDbEntity
  8
0
  6
CONTINUOUS
 62
         7
100
AcDbLine
 10
6.4623006397
 20
3.5909636675
 30
0.0
 11
6.4731534242
 21
3.6016543747
 31
0.0
  0
LINE
  5
14B
100
AcDbEntity
  8
0
  6
CONTINUOUS
 62
         7
100
AcDbLine
 10
6.4731534242
 20
3.6016543747
 30
0.0
 11
6.4623006397
 21
3.6124348235
 31
0.0
  0
LINE
  5
14C
100
AcDbEntity
  8
0
  6
CONTINUOUS
 62
         7
100
AcDbLine
 10
6.4623006397
 20
3.6124348235
 30
0.0
 11
6.4731534242
 21
3.6226451189
 31
0.0
  0
LINE
  5
14D
100
AcDbEntity
  8
0
  6
CONTINUOUS
 62
         7
100
AcDbLine
 10
6.4731534242
 20
3.6226451189
 30
0.0
 11
6.4623006397
 21
3.6338816292
 31
0.0
  0
LINE
  5
14E
100
AcDbEntity
  8
0
  6
CONTINUOUS
 62
         7
100
AcDbLine
 10
6.4623006397
 20
3.6338816292
 30
0.0
 11
6.4731534242
 21
3.643592077
 31
0.0
  0
LINE
  5
14F
100
AcDbEntity
  8
0
  6
CONTINUOUS
 62
         7
100
AcDbLine
 10
6.4731534242
 20
3.643592077
 30
0.0
 11
6.4623006397
 21
3.6552632595
 31
0.0
  0
LINE
  5
150
100
AcDbEntity
  8
0
  6
CONTINUOUS
 62
         7
100
AcDbLine
 10
6.4623006397
 20
3.6552632595
 30
0.0
 11
6.4731534242
 21
3.6644553752
 31
0.0
  0
LINE
  5
151
100
AcDbEntity
  8
0
  6
CONTINUOUS
 62
         7
100
AcDbLine
 10
6.4731534242
 20
3.6644553752
 30
0.0
 11
6.4623006397
 21
3.6765390131
 31
0.0
  0
LINE
  5
152
100
AcDbEntity
  8
0
  6
CONTINUOUS
 62
         7
100
AcDbLine
 10
6.4623006397
 20
3.6765390131
 30
0.0
 11
6.4731534242
 21
3.6851952991
 31
0.0
  0
LINE
  5
153
100
AcDbEntity
  8
0
  6
CONTINUOUS
 62
         7
100
AcDbLine
 10
6.4731534242
 20
3.6851952991
 30
0.0
 11
6.4623006397
 21
3.6976683905
 31
0.0
  0
LINE
  5
154
100
AcDbEntity
  8
0
  6
CONTINUOUS
 62
         7
100
AcDbLine
 10
6.4623006397
 20
3.6976683905
 30
0.0
 11
6.4731534242
 21
3.705772369
 31
0.0
  0
LINE
  5
155
100
AcDbEntity
  8
0
  6
CONTINUOUS
 62
         7
100
AcDbLine
 10
6.4731534242
 20
3.705772369
 30
0.0
 11
6.4623006397
 21
3.7186111707
 31
0.0
  0
LINE
  5
156
100
AcDbEntity
  8
0
  6
CONTINUOUS
 62
         7
100
AcDbLine
 10
6.4623006397
 20
3.7186111707
 30
0.0
 11
6.4731534242
 21
3.7261474154
 31
0.0
  0
LINE
  5
157
100
AcDbEntity
  8
0
  6
CONTINUOUS
 62
         7
100
AcDbLine
 10
6.4731534242
 20
3.7261474154
 30
0.0
 11
6.4623006397
 21
3.739327488
 31
0.0
  0
LINE
  5
158
100
AcDbEntity
  8
0
  6
CONTINUOUS
 62
         7
100
AcDbLine
 10
6.4623006397
 20
3.739327488
 30
0.0
 11
6.4731534242
 21
3.7462816531
 31
0.0
  0
LINE
  5
159
100
AcDbEntity
  8
0
  6
CONTINUOUS
 62
         7
100
AcDbLine
 10
6.4731534242
 20
3.7462816531
 30
0.0
 11
6.4623006397
 21
3.7597779075
 31
0.0
  0
LINE
  5
15A
100
AcDbEntity
  8
0
  6
CONTINUOUS
 62
         7
100
AcDbLine
 10
6.4623006397
 20
3.7597779075
 30
0.0
 11
6.4731534242
 21
3.7661367555
 31
0.0
  0
LINE
  5
15B
100
AcDbEntity
  8
0
  6
CONTINUOUS
 62
         7
100
AcDbLine
 10
6.4731534242
 20
3.7661367555
 30
0.0
 11
6.4623006397
 21
3.7799235009
 31
0.0
  0
LINE
  5
15C
100
AcDbEntity
  8
0
  6
CONTINUOUS
 62
         7
100
AcDbLine
 10
6.4623006397
 20
3.7799235009
 30
0.0
 11
6.4731534242
 21
3.7856749273
 31
0.0
  0
LINE
  5
15D
100
AcDbEntity
  8
0
  6
CONTINUOUS
 62
         7
100
AcDbLine
 10
6.4731534242
 20
3.7856749273
 30
0.0
 11
6.4623006397
 21
3.7997259198
 31
0.0
  0
LINE
  5
15E
100
AcDbEntity
  8
0
  6
CONTINUOUS
 62
         7
100
AcDbLine
 10
6.4623006397
 20
3.7997259198
 30
0.0
 11
6.4731534242
 21
3.8048589764
 31
0.0
  0
LINE
  5
15F
100
AcDbEntity
  8
0
  6
CONTINUOUS
 62
         7
100
AcDbLine
 10
6.4731534242
 20
3.8048589764
 30
0.0
 11
6.4623006397
 21
3.8191474692
 31
0.0
  0
LINE
  5
160
100
AcDbEntity
  8
0
  6
CONTINUOUS
 62
         7
100
AcDbLine
 10
6.4623006397
 20
3.8191474692
 30
0.0
 11
6.4731534242
 21
3.8236523849
 31
0.0
  0
LINE
  5
161
100
AcDbEntity
  8
0
  6
CONTINUOUS
 62
         7
100
AcDbLine
 10
6.4731534242
 20
3.8236523849
 30
0.0
 11
6.4623006397
 21
3.838151179
 31
0.0
  0
LINE
  5
162
100
AcDbEntity
  8
0
  6
CONTINUOUS
 62
         7
100
AcDbLine
 10
6.4623006397
 20
3.838151179
 30
0.0
 11
6.4731534242
 21
3.8420193786
 31
0.0
  0
LINE
  5
163
100
AcDbEntity
  8
0
  6
CONTINUOUS
 62
         7
100
AcDbLine
 10
6.4731534242
 20
3.8420193786
 30
0.0
 11
6.4623006397
 21
3.8567008747
 31
0.0
  0
LINE
  5
164
100
AcDbEntity
  8
0
  6
CONTINUOUS
 62
         7
100
AcDbLine
 10
6.4623006397
 20
3.8567008747
 30
0.0
 11
6.4731534242
 21
3.8599249947
 31
0.0
  0
LINE
  5
165
100
AcDbEntity
  8
0
  6
CONTINUOUS
 62
         7
100
AcDbLine
 10
6.4731534242
 20
3.8599249947
 30
0.0
 11
6.4623006397
 21
3.8747612458
 31
0.0
  0
LINE
  5
166
100
AcDbEntity
  8
0
  6
CONTINUOUS
 62
         7
100
AcDbLine
 10
6.4623006397
 20
3.8747612458
 30
0.0
 11
6.4731534242
 21
3.877335149
 31
0.0
  0
LINE
  5
167
100
AcDbEntity
  8
0
  6
CONTINUOUS
 62
         7
100
AcDbLine
 10
6.4731534242
 20
3.877335149
 30
0.0
 11
6.4623006397
 21
3.8922979134
 31
0.0
  0
LINE
  5
168
100
AcDbEntity
  8
0
  6
CONTINUOUS
 62
         7
100
AcDbLine
 10
6.4623006397
 20
3.8922979134
 30
0.0
 11
6.4731534242
 21
3.8942167002
 31
0.0
  0
LINE
  5
169
100
AcDbEntity
  8
0
  6
CONTINUOUS
 62
         7
100
AcDbLine
 10
6.4731534242
 20
3.8942167002
 30
0.0
 11
6.4623006397
 21
3.9092774955
 31
0.0
  0
LINE
  5
16A
100
AcDbEntity
  8
0
  6
CONTINUOUS
 62
         7
100
AcDbLine
 10
6.4623006397
 20
3.9092774955
 30
0.0
 11
6.4731534242
 21
3.9105375133
 31
0.0
  0
LINE
  5
16B
100
AcDbEntity
  8
0
  6
CONTINUOUS
 62
         7
100
AcDbLine
 10
6.4731534242
 20
3.9105375133
 30
0.0
 11
6.4623006397
 21
3.9256676703
 31
0.0
  0
LINE
  5
16C
100
AcDbEntity
  8
0
  6
CONTINUOUS
 62
         7
100
AcDbLine
 10
6.4623006397
 20
3.9256676703
 30
0.0
 11
6.4731534242
 21
3.9262665207
 31
0.0
  0
LINE
  5
16D
100
AcDbEntity
  8
0
  6
CONTINUOUS
 62
         7
100
AcDbLine
 10
6.4731534242
 20
3.9262665207
 30
0.0
 11
6.4623006397
 21
3.9414372384
 31
0.0
  0
LINE
  5
16E
100
AcDbEntity
  8
0
  6
CONTINUOUS
 62
         7
100
AcDbLine
 10
6.4623006397
 20
3.9414372384
 30
0.0
 11
6.4731534242
 21
3.9413737814
 31
0.0
  0
LINE
  5
16F
100
AcDbEntity
  8
0
  6
CONTINUOUS
 62
         7
100
AcDbLine
 10
6.4731534242
 20
3.9413737814
 30
0.0
 11
6.4623006397
 21
3.9565561814
 31
0.0
  0
LINE
  5
170
100
AcDbEntity
  8
0
  6
CONTINUOUS
 62
         7
100
AcDbLine
 10
6.4623006397
 20
3.9565561814
 30
0.0
 11
6.4731534242
 21
3.9558305379
 31
0.0
  0
LINE
  5
171
100
AcDbEntity
  8
0
  6
CONTINUOUS
 62
         7
100
AcDbLine
 10
6.4731534242
 20
3.9558305379
 30
0.0
 11
6.4623006397
 21
3.9709957196
 31
0.0
  0
LINE
  5
172
100
AcDbEntity
  8
0
  6
CONTINUOUS
 62
         7
100
AcDbLine
 10
6.4623006397
 20
3.9709957196
 30
0.0
 11
6.4731534242
 21
3.9696092708
 31
0.0
  0
POLYLINE
  5
173
100
AcDbEntity
  8
0
  6
CONTINUOUS
 62
         7
100
AcDb2dPolyline
 66
         1
 10
0.0
 20
0.0
 30
0.0
 70
       128
  0
VERTEX
  5
174
100
AcDbEntity
  8
0
100
AcDbVertex
100
AcDb2dVertex
 10
6.4731534242
 20
3.9696092708
 30
0.0
  0
VERTEX
  5
175
100
AcDbEntity
  8
0
100
AcDbVertex
100
AcDb2dVertex
 10
6.4677462633
 20
3.9771823605
 30
0.0
  0
VERTEX
  5
176
100
AcDbEntity
  8
0
100
AcDbVertex
100
AcDb2dVertex
 10
6.4623006397
 20
3.9847283665
 30
0.0
  0
SEQEND
  5
177
100
AcDbEntity
  8
0
  0
LINE
  5
178
100
AcDbEntity
  8
0
  6
CONTINUOUS
 62
         7
100
AcDbLine
 10
6.4623006397
 20
3.9847283665
 30
0.0
 11
6.4731534242
 21
3.9826837516
 31
0.0
  0
LINE
  5
179
100
AcDbEntity
  8
0
  6
CONTINUOUS
 62
         7
100
AcDbLine
 10
6.4731534242
 20
3.9826837516
 30
0.0
 11
6.4623006397
 21
3.9977279813
 31
0.0
  0
LINE
  5
17A
100
AcDbEntity
  8
0
  6
CONTINUOUS
 62
         7
100
AcDbLine
 10
6.4623006397
 20
3.9977279813
 30
0.0
 11
6.4731534242
 21
3.9950290922
 31
0.0
  0
LINE
  5
17B
100
AcDbEntity
  8
0
  6
CONTINUOUS
 62
         7
100
AcDbLine
 10
6.4731534242
 20
3.9950290922
 30
0.0
 11
6.4623006397
 21
4.0099698183
 31
0.0
  0
LINE
  5
17C
100
AcDbEntity
  8
0
  6
CONTINUOUS
 62
         7
100
AcDbLine
 10
6.4623006397
 20
4.0099698183
 30
0.0
 11
6.4731534242
 21
4.0066217927
 31
0.0
  0
LINE
  5
17D
100
AcDbEntity
  8
0
  6
CONTINUOUS
 62
         7
100
AcDbLine
 10
6.4731534242
 20
4.0066217927
 30
0.0
 11
6.4623006397
 21
4.0214305746
 31
0.0
  0
LINE
  5
17E
100
AcDbEntity
  8
0
  6
CONTINUOUS
 62
         7
100
AcDbLine
 10
6.4623006397
 20
4.0214305746
 30
0.0
 11
6.4731534242
 21
4.0174397856
 31
0.0
  0
LINE
  5
17F
100
AcDbEntity
  8
0
  6
CONTINUOUS
 62
         7
100
AcDbLine
 10
6.4731534242
 20
4.0174397856
 30
0.0
 11
6.4623006397
 21
4.032088434
 31
0.0
  0
POLYLINE
  5
180
100
AcDbEntity
  8
0
  6
CONTINUOUS
 62
         7
100
AcDb2dPolyline
 66
         1
 10
0.0
 20
0.0
 30
0.0
 70
       128
  0
VERTEX
  5
181
100
AcDbEntity
  8
0
100
AcDbVertex
100
AcDb2dVertex
 10
6.4623006397
 20
4.032088434
 30
0.0
  0
VERTEX
  5
182
100
AcDbEntity
  8
0
100
AcDbVertex
100
AcDb2dVertex
 10
6.467746125
 20
4.0297796584
 30
0.0
  0
VERTEX
  5
183
100
AcDbEntity
  8
0
100
AcDbVertex
100
AcDb2dVertex
 10
6.4731534242
 20
4.0274624783
 30
0.0
  0
SEQEND
  5
184
100
AcDbEntity
  8
0
  0
POLYLINE
  5
185
100
AcDbEntity
  8
0
  6
CONTINUOUS
 62
         7
100
AcDb2dPolyline
 66
         1
 10
0.0
 20
0.0
 30
0.0
 70
       128
  0
VERTEX
  5
186
100
AcDbEntity
  8
0
100
AcDbVertex
100
AcDb2dVertex
 10
6.4731534242
 20
4.0274624783
 30
0.0
  0
VERTEX
  5
187
100
AcDbEntity
  8
0
100
AcDbVertex
100
AcDb2dVertex
 10
6.4677462633
 20
4.0347057455
 30
0.0
  0
VERTEX
  5
188
100
AcDbEntity
  8
0
100
AcDbVertex
100
AcDb2dVertex
 10
6.4623006397
 20
4.0419231086
 30
0.0
  0
SEQEND
  5
189
100
AcDbEntity
  8
0
  0
LINE
  5
18A
100
AcDbEntity
  8
0
  6
CONTINUOUS
 62
         7
100
AcDbLine
 10
6.4623006397
 20
4.0419231086
 30
0.0
 11
6.4731534242
 21
4.0366707919
 31
0.0
  0
LINE
  5
18B
100
AcDbEntity
  8
0
  6
CONTINUOUS
 62
         7
100
AcDbLine
 10
6.4731534242
 20
4.0366707919
 30
0.0
 11
6.4623006397
 21
4.0509158776
 31
0.0
  0
LINE
  5
18C
100
AcDbEntity
  8
0
  6
CONTINUOUS
 62
         7
100
AcDbLine
 10
6.4623006397
 20
4.0509158776
 30
0.0
 11
6.4731534242
 21
4.0450471981
 31
0.0
  0
LINE
  5
18D
100
AcDbEntity
  8
0
  6
CONTINUOUS
 62
         7
100
AcDbLine
 10
6.4731534242
 20
4.0450471981
 30
0.0
 11
6.4623006397
 21
4.0590496228
 31
0.0
  0
LINE
  5
18E
100
AcDbEntity
  8
0
  6
CONTINUOUS
 62
         7
100
AcDbLine
 10
6.4623006397
 20
4.0590496228
 30
0.0
 11
6.4731534242
 21
4.0525757517
 31
0.0
  0
LINE
  5
18F
100
AcDbEntity
  8
0
  6
CONTINUOUS
 62
         7
100
AcDbLine
 10
6.4731534242
 20
4.0525757517
 30
0.0
 11
6.4623006397
 21
4.066308861
 31
0.0
  0
LINE
  5
190
100
AcDbEntity
  8
0
  6
CONTINUOUS
 62
         7
100
AcDbLine
 10
6.4623006397
 20
4.066308861
 30
0.0
 11
6.4731534242
 21
4.0592421218
 31
0.0
  0
POLYLINE
  5
191
100
AcDbEntity
  8
0
  6
CONTINUOUS
 62
         7
100
AcDb2dPolyline
 66
         1
 10
0.0
 20
0.0
 30
0.0
 70
       128
  0
VERTEX
  5
192
100
AcDbEntity
  8
0
100
AcDbVertex
100
AcDb2dVertex
 10
6.4731534242
 20
4.0592421218
 30
0.0
  0
VERTEX
  5
193
100
AcDbEntity
  8
0
100
AcDbVertex
100
AcDb2dVertex
 10
6.4677462633
 20
4.0659729836
 30
0.0
  0
VERTEX
  5
194
100
AcDbEntity
  8
0
100
AcDbVertex
100
AcDb2dVertex
 10
6.4623006397
 20
4.0726797739
 30
0.0
  0
SEQEND
  5
195
100
AcDbEntity
  8
0
  0
LINE
  5
196
100
AcDbEntity
  8
0
  6
CONTINUOUS
 62
         7
100
AcDbLine
 10
6.4623006397
 20
4.0726797739
 30
0.0
 11
6.4731534242
 21
4.0650336186
 31
0.0
  0
POLYLINE
  5
197
100
AcDbEntity
  8
0
  6
CONTINUOUS
 62
         7
100
AcDb2dPolyline
 66
         1
 10
0.0
 20
0.0
 30
0.0
 70
       128
  0
VERTEX
  5
198
100
AcDbEntity
  8
0
100
AcDbVertex
100
AcDb2dVertex
 10
6.4731534242
 20
4.0650336186
 30
0.0
  0
VERTEX
  5
199
100
AcDbEntity
  8
0
100
AcDbVertex
100
AcDb2dVertex
 10
6.4677462633
 20
4.0716036746
 30
0.0
  0
VERTEX
  5
19A
100
AcDbEntity
  8
0
100
AcDbVertex
100
AcDb2dVertex
 10
6.4623006397
 20
4.0781502342
 30
0.0
  0
SEQEND
  5
19B
100
AcDbEntity
  8
0
  0
LINE
  5
19C
100
AcDbEntity
  8
0
  6
CONTINUOUS
 62
         7
100
AcDbLine
 10
6.4623006397
 20
4.0781502342
 30
0.0
 11
6.4731534242
 21
4.0699392175
 31
0.0
  0
LINE
  5
19D
100
AcDbEntity
  8
0
  6
CONTINUOUS
 62
         7
100
AcDbLine
 10
6.4731534242
 20
4.0699392175
 30
0.0
 11
6.4623006397
 21
4.0827098284
 31
0.0
  0
POLYLINE
  5
19E
100
AcDbEntity
  8
0
  6
CONTINUOUS
 62
         7
100
AcDb2dPolyline
 66
         1
 10
0.0
 20
0.0
 30
0.0
 70
       128
  0
VERTEX
  5
19F
100
AcDbEntity
  8
0
100
AcDbVertex
100
AcDb2dVertex
 10
6.4623006397
 20
4.0827098284
 30
0.0
  0
VERTEX
  5
1A0
100
AcDbEntity
  8
0
100
AcDbVertex
100
AcDb2dVertex
 10
6.4719211891
 20
4.0749537968
 30
0.0
  0
VERTEX
  5
1A1
100
AcDbEntity
  8
0
100
AcDbVertex
100
AcDb2dVertex
 10
6.4731534242
 20
4.0739495806
 30
0.0
  0
SEQEND
  5
1A2
100
AcDbEntity
  8
0
  0
ARC
  5
1A3
100
AcDbEntity
  8
0
  6
CONTINUOUS
 62
         7
100
AcDbCircle
 10
5.290138612
 20
3.0495200831
 30
0.0
 40
1.5649216725
100
AcDbArc
 50
40.8908654907
 51
41.4941986088
  0
LINE
  5
1A4
100
AcDbEntity
  8
0
  6
CONTINUOUS
 62
         7
100
AcDbLine
 10
6.4623006397
 20
4.0863498772
 30
0.0
 11
6.4731534242
 21
4.0770570738
 31
0.0
  0
LINE
  5
1A5
100
AcDbEntity
  8
0
  6
CONTINUOUS
 62
         7
100
AcDbLine
 10
6.4731534242
 20
4.0770570738
 30
0.0
 11
6.4623006397
 21
4.0890634514
 31
0.0
  0
POLYLINE
  5
1A6
100
AcDbEntity
  8
0
  6
CONTINUOUS
 62
         7
100
AcDb2dPolyline
 66
         1
 10
0.0
 20
0.0
 30
0.0
 70
       128
  0
VERTEX
  5
1A7
100
AcDbEntity
  8
0
100
AcDbVertex
100
AcDb2dVertex
 10
6.4623006397
 20
4.0890634514
 30
0.0
  0
VERTEX
  5
1A8
100
AcDbEntity
  8
0
100
AcDbVertex
100
AcDb2dVertex
 10
6.467746125
 20
4.0841685262
 30
0.0
  0
VERTEX
  5
1A9
100
AcDbEntity
  8
0
100
AcDbVertex
100
AcDb2dVertex
 10
6.4731534242
 20
4.079255782
 30
0.0
  0
SEQEND
  5
1AA
100
AcDbEntity
  8
0
  0
LINE
  5
1AB
100
AcDbEntity
  8
0
  6
CONTINUOUS
 62
         7
100
AcDbLine
 10
6.4731534242
 20
4.079255782
 30
0.0
 11
6.4623006397
 21
4.0908453858
 31
0.0
  0
LINE
  5
1AC
100
AcDbEntity
  8
0
  6
CONTINUOUS
 62
         7
100
AcDbLine
 10
6.4623006397
 20
4.0908453858
 30
0.0
 11
6.4731534242
 21
4.0805415196
 31
0.0
  0
ARC
  5
1AD
100
AcDbEntity
  8
0
  6
CONTINUOUS
 62
         7
100
AcDbCircle
 10
5.4223702863
 20
3.0686954248
 30
0.0
 40
1.4587589665
100
AcDbArc
 50
43.9185340465
 51
44.5296994882
  0
ARC
  5
1AE
100
AcDbEntity
  8
0
  6
CONTINUOUS
 62
         7
100
AcDbCircle
 10
5.4974815919
 20
3.1097618799
 30
0.0
 40
1.3766129165
100
AcDbArc
 50
44.9862311297
 51
45.5036002365
  0
LINE
  5
1AF
100
AcDbEntity
  8
0
  6
CONTINUOUS
 62
         7
100
AcDbLine
 10
6.4731534242
 20
3.1183738471
 30
0.0
 11
6.4623006397
 21
3.1076831399
 31
0.0
  0
POLYLINE
  5
1B0
100
AcDbEntity
  8
0
  6
CONTINUOUS
 62
         7
100
AcDb2dPolyline
 66
         1
 10
0.0
 20
0.0
 30
0.0
 70
       128
  0
VERTEX
  5
1B1
100
AcDbEntity
  8
0
100
AcDbVertex
100
AcDb2dVertex
 10
6.4623006397
 20
3.1076831399
 30
0.0
  0
VERTEX
  5
1B2
100
AcDbEntity
  8
0
100
AcDbVertex
100
AcDb2dVertex
 10
6.467746125
 20
3.1132911876
 30
0.0
  0
VERTEX
  5
1B3
100
AcDbEntity
  8
0
100
AcDbVertex
100
AcDb2dVertex
 10
6.4731534242
 20
3.1189196503
 30
0.0
  0
SEQEND
  5
1B4
100
AcDbEntity
  8
0
  0
POLYLINE
  5
1B5
100
AcDbEntity
  8
0
  6
CONTINUOUS
 62
         7
100
AcDb2dPolyline
 66
         1
 10
0.0
 20
0.0
 30
0.0
 70
       128
  0
VERTEX
  5
1B6
100
AcDbEntity
  8
0
100
AcDbVertex
100
AcDb2dVertex
 10
6.4731534242
 20
3.1189196503
 30
0.0
  0
VERTEX
  5
1B7
100
AcDbEntity
  8
0
100
AcDbVertex
100
AcDb2dVertex
 10
6.4677462633
 20
3.1138053575
 30
0.0
  0
VERTEX
  5
1B8
100
AcDbEntity
  8
0
100
AcDbVertex
100
AcDb2dVertex
 10
6.4623006397
 20
3.1087093549
 30
0.0
  0
SEQEND
  5
1B9
100
AcDbEntity
  8
0
  0
LINE
  5
1BA
100
AcDbEntity
  8
0
  6
CONTINUOUS
 62
         7
100
AcDbLine
 10
6.4623006397
 20
3.1087093549
 30
0.0
 11
6.4731534242
 21
3.1203805374
 31
0.0
  0
LINE
  5
1BB
100
AcDbEntity
  8
0
  6
CONTINUOUS
 62
         7
100
AcDbLine
 10
6.4731534242
 20
3.1203805374
 30
0.0
 11
6.4623006397
 21
3.1106700897
 31
0.0
  0
LINE
  5
1BC
100
AcDbEntity
  8
0
  6
CONTINUOUS
 62
         7
100
AcDbLine
 10
6.4623006397
 20
3.1106700897
 30
0.0
 11
6.4731534242
 21
3.1227537276
 31
0.0
  0
LINE
  5
1BD
100
AcDbEntity
  8
0
  6
CONTINUOUS
 62
         7
100
AcDbLine
 10
6.4731534242
 20
3.1227537276
 30
0.0
 11
6.4623006397
 21
3.1135616119
 31
0.0
  0
LINE
  5
1BE
100
AcDbEntity
  8
0
  6
CONTINUOUS
 62
         7
100
AcDbLine
 10
6.4623006397
 20
3.1135616119
 30
0.0
 11
6.4731534242
 21
3.1260347033
 31
0.0
  0
POLYLINE
  5
1BF
100
AcDbEntity
  8
0
  6
CONTINUOUS
 62
         7
100
AcDb2dPolyline
 66
         1
 10
0.0
 20
0.0
 30
0.0
 70
       128
  0
VERTEX
  5
1C0
100
AcDbEntity
  8
0
100
AcDbVertex
100
AcDb2dVertex
 10
6.4731534242
 20
3.1260347033
 30
0.0
  0
VERTEX
  5
1C1
100
AcDbEntity
  8
0
100
AcDbVertex
100
AcDb2dVertex
 10
6.4677462633
 20
3.1216988071
 30
0.0
  0
VERTEX
  5
1C2
100
AcDbEntity
  8
0
100
AcDbVertex
100
AcDb2dVertex
 10
6.4623006397
 20
3.1173784173
 30
0.0
  0
SEQEND
  5
1C3
100
AcDbEntity
  8
0
  0
LINE
  5
1C4
100
AcDbEntity
  8
0
  6
CONTINUOUS
 62
         7
100
AcDbLine
 10
6.4623006397
 20
3.1173784173
 30
0.0
 11
6.4731534242
 21
3.130217219
 31
0.0
  0
LINE
  5
1C5
100
AcDbEntity
  8
0
  6
CONTINUOUS
 62
         7
100
AcDbLine
 10
6.4731534242
 20
3.130217219
 30
0.0
 11
6.4623006397
 21
3.1221132405
 31
0.0
  0
LINE
  5
1C6
100
AcDbEntity
  8
0
  6
CONTINUOUS
 62
         7
100
AcDbLine
 10
6.4623006397
 20
3.1221132405
 30
0.0
 11
6.4731534242
 21
3.1352933131
 31
0.0
  0
LINE
  5
1C7
100
AcDbEntity
  8
0
  6
CONTINUOUS
 62
         7
100
AcDbLine
 10
6.4731534242
 20
3.1352933131
 30
0.0
 11
6.4623006397
 21
3.1277570684
 31
0.0
  0
LINE
  5
1C8
100
AcDbEntity
  8
0
  6
CONTINUOUS
 62
         7
100
AcDbLine
 10
6.4623006397
 20
3.1277570684
 30
0.0
 11
6.4731534242
 21
3.1412533229
 31
0.0
  0
LINE
  5
1C9
100
AcDbEntity
  8
0
  6
CONTINUOUS
 62
         7
100
AcDbLine
 10
6.4731534242
 20
3.1412533229
 30
0.0
 11
6.4623006397
 21
3.1342991578
 31
0.0
  0
LINE
  5
1CA
100
AcDbEntity
  8
0
  6
CONTINUOUS
 62
         7
100
AcDbLine
 10
6.4623006397
 20
3.1342991578
 30
0.0
 11
6.4731534242
 21
3.1480859032
 31
0.0
  0
LINE
  5
1CB
100
AcDbEntity
  8
0
  6
CONTINUOUS
 62
         7
100
AcDbLine
 10
6.4731534242
 20
3.1480859032
 30
0.0
 11
6.4623006397
 21
3.1417270553
 31
0.0
  0
LINE
  5
1CC
100
AcDbEntity
  8
0
  6
CONTINUOUS
 62
         7
100
AcDbLine
 10
6.4623006397
 20
3.1417270553
 30
0.0
 11
6.4731534242
 21
3.1557780478
 31
0.0
  0
LINE
  5
1CD
100
AcDbEntity
  8
0
  6
CONTINUOUS
 62
         7
100
AcDbLine
 10
6.4731534242
 20
3.1557780478
 30
0.0
 11
6.4623006397
 21
3.1500266215
 31
0.0
  0
LINE
  5
1CE
100
AcDbEntity
  8
0
  6
CONTINUOUS
 62
         7
100
AcDbLine
 10
6.4623006397
 20
3.1500266215
 30
0.0
 11
6.4731534242
 21
3.1643151143
 31
0.0
  0
LINE
  5
1CF
100
AcDbEntity
  8
0
  6
CONTINUOUS
 62
         7
100
AcDbLine
 10
6.4731534242
 20
3.1643151143
 30
0.0
 11
6.4623006397
 21
3.1591820577
 31
0.0
  0
LINE
  5
1D0
100
AcDbEntity
  8
0
  6
CONTINUOUS
 62
         7
100
AcDbLine
 10
6.4623006397
 20
3.1591820577
 30
0.0
 11
6.4731534242
 21
3.1736808518
 31
0.0
  0
LINE
  5
1D1
100
AcDbEntity
  8
0
  6
CONTINUOUS
 62
         7
100
AcDbLine
 10
6.4731534242
 20
3.1736808518
 30
0.0
 11
6.4623006397
 21
3.1691759361
 31
0.0
  0
LINE
  5
1D2
100
AcDbEntity
  8
0
  6
CONTINUOUS
 62
         7
100
AcDbLine
 10
6.4623006397
 20
3.1691759361
 30
0.0
 11
6.4731534242
 21
3.1838574322
 31
0.0
  0
LINE
  5
1D3
100
AcDbEntity
  8
0
  6
CONTINUOUS
 62
         7
100
AcDbLine
 10
6.4731534242
 20
3.1838574322
 30
0.0
 11
6.4623006397
 21
3.1799892327
 31
0.0
  0
LINE
  5
1D4
100
AcDbEntity
  8
0
  6
CONTINUOUS
 62
         7
100
AcDbLine
 10
6.4623006397
 20
3.1799892327
 30
0.0
 11
6.4731534242
 21
3.1948254838
 31
0.0
  0
LINE
  5
1D5
100
AcDbEntity
  8
0
  6
CONTINUOUS
 62
         7
100
AcDbLine
 10
6.1827730807
 20
3.8745106152
 30
0.0
 11
6.1827730807
 21
3.1232648904
 31
0.0
  0
LINE
  5
1D6
100
AcDbEntity
  8
0
  6
CONTINUOUS
 62
         7
100
AcDbLine
 10
6.1827730807
 20
4.0760207959
 30
0.0
 11
6.1827730807
 21
3.8745106152
 31
0.0
  0
LINE
  5
1D7
100
AcDbEntity
  8
0
  6
CONTINUOUS
 62
         7
100
AcDbLine
 10
6.1985211122
 20
3.1799892327
 30
0.0
 11
6.1876683277
 21
3.1838574322
 31
0.0
  0
LINE
  5
1D8
100
AcDbEntity
  8
0
  6
CONTINUOUS
 62
         7
100
AcDbLine
 10
6.1876683277
 20
3.1838574322
 30
0.0
 11
6.1985211122
 21
3.1691759361
 31
0.0
  0
LINE
  5
1D9
100
AcDbEntity
  8
0
  6
CONTINUOUS
 62
         7
100
AcDbLine
 10
6.1985211122
 20
3.1691759361
 30
0.0
 11
6.1876683277
 21
3.1736808518
 31
0.0
  0
LINE
  5
1DA
100
AcDbEntity
  8
0
  6
CONTINUOUS
 62
         7
100
AcDbLine
 10
6.1876683277
 20
3.1736808518
 30
0.0
 11
6.1985211122
 21
3.1591820577
 31
0.0
  0
LINE
  5
1DB
100
AcDbEntity
  8
0
  6
CONTINUOUS
 62
         7
100
AcDbLine
 10
6.1985211122
 20
3.1591820577
 30
0.0
 11
6.1876683277
 21
3.1643151143
 31
0.0
  0
LINE
  5
1DC
100
AcDbEntity
  8
0
  6
CONTINUOUS
 62
         7
100
AcDbLine
 10
6.1876683277
 20
3.1643151143
 30
0.0
 11
6.1985211122
 21
3.1500266215
 31
0.0
  0
LINE
  5
1DD
100
AcDbEntity
  8
0
  6
CONTINUOUS
 62
         7
100
AcDbLine
 10
6.1985211122
 20
3.1500266215
 30
0.0
 11
6.1876683277
 21
3.1557780478
 31
0.0
  0
LINE
  5
1DE
100
AcDbEntity
  8
0
  6
CONTINUOUS
 62
         7
100
AcDbLine
 10
6.1876683277
 20
3.1557780478
 30
0.0
 11
6.1985211122
 21
3.1417270553
 31
0.0
  0
LINE
  5
1DF
100
AcDbEntity
  8
0
  6
CONTINUOUS
 62
         7
100
AcDbLine
 10
6.1985211122
 20
3.1417270553
 30
0.0
 11
6.1876683277
 21
3.1480859032
 31
0.0
  0
LINE
  5
1E0
100
AcDbEntity
  8
0
  6
CONTINUOUS
 62
         7
100
AcDbLine
 10
6.1876683277
 20
3.1480859032
 30
0.0
 11
6.1985211122
 21
3.1342991578
 31
0.0
  0
LINE
  5
1E1
100
AcDbEntity
  8
0
  6
CONTINUOUS
 62
         7
100
AcDbLine
 10
6.1985211122
 20
3.1342991578
 30
0.0
 11
6.1876683277
 21
3.1412533229
 31
0.0
  0
LINE
  5
1E2
100
AcDbEntity
  8
0
  6
CONTINUOUS
 62
         7
100
AcDbLine
 10
6.1876683277
 20
3.1412533229
 30
0.0
 11
6.1985211122
 21
3.1277570684
 31
0.0
  0
LINE
  5
1E3
100
AcDbEntity
  8
0
  6
CONTINUOUS
 62
         7
100
AcDbLine
 10
6.1985211122
 20
3.1277570684
 30
0.0
 11
6.1876683277
 21
3.1352933131
 31
0.0
  0
LINE
  5
1E4
100
AcDbEntity
  8
0
  6
CONTINUOUS
 62
         7
100
AcDbLine
 10
6.1876683277
 20
3.1352933131
 30
0.0
 11
6.1985211122
 21
3.1221132405
 31
0.0
  0
LINE
  5
1E5
100
AcDbEntity
  8
0
  6
CONTINUOUS
 62
         7
100
AcDbLine
 10
6.1985211122
 20
3.1221132405
 30
0.0
 11
6.1876683277
 21
3.130217219
 31
0.0
  0
LINE
  5
1E6
100
AcDbEntity
  8
0
  6
CONTINUOUS
 62
         7
100
AcDbLine
 10
6.1876683277
 20
3.130217219
 30
0.0
 11
6.1985211122
 21
3.1173784173
 31
0.0
  0
LINE
  5
1E7
100
AcDbEntity
  8
0
  6
CONTINUOUS
 62
         7
100
AcDbLine
 10
6.1985211122
 20
3.1173784173
 30
0.0
 11
6.1876683277
 21
3.1260347033
 31
0.0
  0
LINE
  5
1E8
100
AcDbEntity
  8
0
  6
CONTINUOUS
 62
         7
100
AcDbLine
 10
6.1876683277
 20
3.1260347033
 30
0.0
 11
6.1985211122
 21
3.1135616119
 31
0.0
  0
LINE
  5
1E9
100
AcDbEntity
  8
0
  6
CONTINUOUS
 62
         7
100
AcDbLine
 10
6.1985211122
 20
3.1135616119
 30
0.0
 11
6.1876683277
 21
3.1227537276
 31
0.0
  0
LINE
  5
1EA
100
AcDbEntity
  8
0
  6
CONTINUOUS
 62
         7
100
AcDbLine
 10
6.1876683277
 20
3.1227537276
 30
0.0
 11
6.1985211122
 21
3.1106700897
 31
0.0
  0
LINE
  5
1EB
100
AcDbEntity
  8
0
  6
CONTINUOUS
 62
         7
100
AcDbLine
 10
6.1985211122
 20
3.1106700897
 30
0.0
 11
6.1876683277
 21
3.1203805374
 31
0.0
  0
LINE
  5
1EC
100
AcDbEntity
  8
0
  6
CONTINUOUS
 62
         7
100
AcDbLine
 10
6.1876683277
 20
3.1203805374
 30
0.0
 11
6.1985211122
 21
3.1087093549
 31
0.0
  0
LINE
  5
1ED
100
AcDbEntity
  8
0
  6
CONTINUOUS
 62
         7
100
AcDbLine
 10
6.1985211122
 20
3.1087093549
 30
0.0
 11
6.1876683277
 21
3.1189196503
 31
0.0
  0
LINE
  5
1EE
100
AcDbEntity
  8
0
  6
CONTINUOUS
 62
         7
100
AcDbLine
 10
6.1876683277
 20
3.1189196503
 30
0.0
 11
6.1985211122
 21
3.1076831399
 31
0.0
  0
LINE
  5
1EF
100
AcDbEntity
  8
0
  6
CONTINUOUS
 62
         7
100
AcDbLine
 10
6.1985211122
 20
3.1076831399
 30
0.0
 11
6.1876683277
 21
3.1183738471
 31
0.0
  0
LINE
  5
1F0
100
AcDbEntity
  8
0
  6
CONTINUOUS
 62
         7
100
AcDbLine
 10
6.189710294
 20
4.0829401955
 30
0.0
 11
6.1985211122
 21
4.0916922881
 31
0.0
  0
LINE
  5
1F1
100
AcDbEntity
  8
0
  6
CONTINUOUS
 62
         7
100
AcDbLine
 10
6.1985211122
 20
4.0916922881
 30
0.0
 11
6.1876683277
 21
4.0805415196
 31
0.0
  0
LINE
  5
1F2
100
AcDbEntity
  8
0
  6
CONTINUOUS
 62
         7
100
AcDbLine
 10
6.1876683277
 20
4.0805415196
 30
0.0
 11
6.1985211122
 21
4.0908453858
 31
0.0
  0
LINE
  5
1F3
100
AcDbEntity
  8
0
  6
CONTINUOUS
 62
         7
100
AcDbLine
 10
6.1985211122
 20
4.0908453858
 30
0.0
 11
6.1876683277
 21
4.079255782
 31
0.0
  0
LINE
  5
1F4
100
AcDbEntity
  8
0
  6
CONTINUOUS
 62
         7
100
AcDbLine
 10
6.1876683277
 20
4.079255782
 30
0.0
 11
6.1985211122
 21
4.0890634514
 31
0.0
  0
LINE
  5
1F5
100
AcDbEntity
  8
0
  6
CONTINUOUS
 62
         7
100
AcDbLine
 10
6.1985211122
 20
4.0890634514
 30
0.0
 11
6.1876683277
 21
4.0770570738
 31
0.0
  0
LINE
  5
1F6
100
AcDbEntity
  8
0
  6
CONTINUOUS
 62
         7
100
AcDbLine
 10
6.1876683277
 20
4.0770570738
 30
0.0
 11
6.1985211122
 21
4.0863498772
 31
0.0
  0
POLYLINE
  5
1F7
100
AcDbEntity
  8
0
  6
CONTINUOUS
 62
         7
100
AcDb2dPolyline
 66
         1
 10
0.0
 20
0.0
 30
0.0
 70
       128
  0
VERTEX
  5
1F8
100
AcDbEntity
  8
0
100
AcDbVertex
100
AcDb2dVertex
 10
6.1985211122
 20
4.0863498772
 30
0.0
  0
VERTEX
  5
1F9
100
AcDbEntity
  8
0
100
AcDbVertex
100
AcDb2dVertex
 10
6.1969471636
 20
4.0845676535
 30
0.0
  0
VERTEX
  5
1FA
100
AcDbEntity
  8
0
100
AcDbVertex
100
AcDb2dVertex
 10
6.1876683277
 20
4.0739495806
 30
0.0
  0
SEQEND
  5
1FB
100
AcDbEntity
  8
0
  0
POLYLINE
  5
1FC
100
AcDbEntity
  8
0
  6
CONTINUOUS
 62
         7
100
AcDb2dPolyline
 66
         1
 10
0.0
 20
0.0
 30
0.0
 70
       128
  0
VERTEX
  5
1FD
100
AcDbEntity
  8
0
100
AcDbVertex
100
AcDb2dVertex
 10
6.1876683277
 20
4.0739495806
 30
0.0
  0
VERTEX
  5
1FE
100
AcDbEntity
  8
0
100
AcDbVertex
100
AcDb2dVertex
 10
6.1920158472
 20
4.0774813926
 30
0.0
  0
VERTEX
  5
1FF
100
AcDbEntity
  8
0
100
AcDbVertex
100
AcDb2dVertex
 10
6.1985211122
 20
4.0827098284
 30
0.0
  0
SEQEND
  5
200
100
AcDbEntity
  8
0
  0
LINE
  5
201
100
AcDbEntity
  8
0
  6
CONTINUOUS
 62
         7
100
AcDbLine
 10
6.1985211122
 20
4.0827098284
 30
0.0
 11
6.1876683277
 21
4.0699392175
 31
0.0
  0
LINE
  5
202
100
AcDbEntity
  8
0
  6
CONTINUOUS
 62
         7
100
AcDbLine
 10
6.1876683277
 20
4.0699392175
 30
0.0
 11
6.1985211122
 21
4.0781502342
 31
0.0
  0
LINE
  5
203
100
AcDbEntity
  8
0
  6
CONTINUOUS
 62
         7
100
AcDbLine
 10
6.1985211122
 20
4.0781502342
 30
0.0
 11
6.1876683277
 21
4.0650336186
 31
0.0
  0
LINE
  5
204
100
AcDbEntity
  8
0
  6
CONTINUOUS
 62
         7
100
AcDbLine
 10
6.1876683277
 20
4.0650336186
 30
0.0
 11
6.1985211122
 21
4.0726797739
 31
0.0
  0
LINE
  5
205
100
AcDbEntity
  8
0
  6
CONTINUOUS
 62
         7
100
AcDbLine
 10
6.1985211122
 20
4.0726797739
 30
0.0
 11
6.1876683277
 21
4.0592421218
 31
0.0
  0
LINE
  5
206
100
AcDbEntity
  8
0
  6
CONTINUOUS
 62
         7
100
AcDbLine
 10
6.1876683277
 20
4.0592421218
 30
0.0
 11
6.1985211122
 21
4.066308861
 31
0.0
  0
LINE
  5
207
100
AcDbEntity
  8
0
  6
CONTINUOUS
 62
         7
100
AcDbLine
 10
6.1985211122
 20
4.066308861
 30
0.0
 11
6.1876683277
 21
4.0525757517
 31
0.0
  0
LINE
  5
208
100
AcDbEntity
  8
0
  6
CONTINUOUS
 62
         7
100
AcDbLine
 10
6.1876683277
 20
4.0525757517
 30
0.0
 11
6.1985211122
 21
4.0590496228
 31
0.0
  0
LINE
  5
209
100
AcDbEntity
  8
0
  6
CONTINUOUS
 62
         7
100
AcDbLine
 10
6.1985211122
 20
4.0590496228
 30
0.0
 11
6.1876683277
 21
4.0450471981
 31
0.0
  0
LINE
  5
20A
100
AcDbEntity
  8
0
  6
CONTINUOUS
 62
         7
100
AcDbLine
 10
6.1876683277
 20
4.0450471981
 30
0.0
 11
6.1985211122
 21
4.0509158776
 31
0.0
  0
LINE
  5
20B
100
AcDbEntity
  8
0
  6
CONTINUOUS
 62
         7
100
AcDbLine
 10
6.1985211122
 20
4.0509158776
 30
0.0
 11
6.1876683277
 21
4.0366707919
 31
0.0
  0
LINE
  5
20C
100
AcDbEntity
  8
0
  6
CONTINUOUS
 62
         7
100
AcDbLine
 10
6.1876683277
 20
4.0366707919
 30
0.0
 11
6.1985211122
 21
4.0419231086
 31
0.0
  0
LINE
  5
20D
100
AcDbEntity
  8
0
  6
CONTINUOUS
 62
         7
100
AcDbLine
 10
6.1985211122
 20
4.0419231086
 30
0.0
 11
6.1876683277
 21
4.0274624783
 31
0.0
  0
LINE
  5
20E
100
AcDbEntity
  8
0
  6
CONTINUOUS
 62
         7
100
AcDbLine
 10
6.1876683277
 20
4.0274624783
 30
0.0
 11
6.1985211122
 21
4.032088434
 31
0.0
  0
LINE
  5
20F
100
AcDbEntity
  8
0
  6
CONTINUOUS
 62
         7
100
AcDbLine
 10
6.1985211122
 20
4.032088434
 30
0.0
 11
6.1876683277
 21
4.0174397856
 31
0.0
  0
LINE
  5
210
100
AcDbEntity
  8
0
  6
CONTINUOUS
 62
         7
100
AcDbLine
 10
6.1876683277
 20
4.0174397856
 30
0.0
 11
6.1985211122
 21
4.0214305746
 31
0.0
  0
LINE
  5
211
100
AcDbEntity
  8
0
  6
CONTINUOUS
 62
         7
100
AcDbLine
 10
6.1985211122
 20
4.0214305746
 30
0.0
 11
6.1876683277
 21
4.0066217927
 31
0.0
  0
LINE
  5
212
100
AcDbEntity
  8
0
  6
CONTINUOUS
 62
         7
100
AcDbLine
 10
6.1876683277
 20
4.0066217927
 30
0.0
 11
6.1985211122
 21
4.0099698183
 31
0.0
  0
LINE
  5
213
100
AcDbEntity
  8
0
  6
CONTINUOUS
 62
         7
100
AcDbLine
 10
6.1985211122
 20
4.0099698183
 30
0.0
 11
6.1876683277
 21
3.9950290922
 31
0.0
  0
LINE
  5
214
100
AcDbEntity
  8
0
  6
CONTINUOUS
 62
         7
100
AcDbLine
 10
6.1876683277
 20
3.9950290922
 30
0.0
 11
6.1985211122
 21
3.9977279813
 31
0.0
  0
LINE
  5
215
100
AcDbEntity
  8
0
  6
CONTINUOUS
 62
         7
100
AcDbLine
 10
6.1985211122
 20
3.9977279813
 30
0.0
 11
6.1876683277
 21
3.9826837516
 31
0.0
  0
LINE
  5
216
100
AcDbEntity
  8
0
  6
CONTINUOUS
 62
         7
100
AcDbLine
 10
6.1876683277
 20
3.9826837516
 30
0.0
 11
6.1985211122
 21
3.9847283665
 31
0.0
  0
LINE
  5
217
100
AcDbEntity
  8
0
  6
CONTINUOUS
 62
         7
100
AcDbLine
 10
6.1985211122
 20
3.9847283665
 30
0.0
 11
6.1876683277
 21
3.9696092708
 31
0.0
  0
LINE
  5
218
100
AcDbEntity
  8
0
  6
CONTINUOUS
 62
         7
100
AcDbLine
 10
6.1876683277
 20
3.9696092708
 30
0.0
 11
6.1985211122
 21
3.9709957196
 31
0.0
  0
LINE
  5
219
100
AcDbEntity
  8
0
  6
CONTINUOUS
 62
         7
100
AcDbLine
 10
6.1985211122
 20
3.9709957196
 30
0.0
 11
6.1876683277
 21
3.9558305379
 31
0.0
  0
LINE
  5
21A
100
AcDbEntity
  8
0
  6
CONTINUOUS
 62
         7
100
AcDbLine
 10
6.1876683277
 20
3.9558305379
 30
0.0
 11
6.1985211122
 21
3.9565561814
 31
0.0
  0
LINE
  5
21B
100
AcDbEntity
  8
0
  6
CONTINUOUS
 62
         7
100
AcDbLine
 10
6.1985211122
 20
3.9565561814
 30
0.0
 11
6.1876683277
 21
3.9413737814
 31
0.0
  0
LINE
  5
21C
100
AcDbEntity
  8
0
  6
CONTINUOUS
 62
         7
100
AcDbLine
 10
6.1876683277
 20
3.9413737814
 30
0.0
 11
6.1985211122
 21
3.9414372384
 31
0.0
  0
LINE
  5
21D
100
AcDbEntity
  8
0
  6
CONTINUOUS
 62
         7
100
AcDbLine
 10
6.1985211122
 20
3.9414372384
 30
0.0
 11
6.1876683277
 21
3.9262665207
 31
0.0
  0
LINE
  5
21E
100
AcDbEntity
  8
0
  6
CONTINUOUS
 62
         7
100
AcDbLine
 10
6.1876683277
 20
3.9262665207
 30
0.0
 11
6.1985211122
 21
3.9256676703
 31
0.0
  0
LINE
  5
21F
100
AcDbEntity
  8
0
  6
CONTINUOUS
 62
         7
100
AcDbLine
 10
6.1985211122
 20
3.9256676703
 30
0.0
 11
6.1876683277
 21
3.9105375133
 31
0.0
  0
LINE
  5
220
100
AcDbEntity
  8
0
  6
CONTINUOUS
 62
         7
100
AcDbLine
 10
6.1876683277
 20
3.9105375133
 30
0.0
 11
6.1985211122
 21
3.9092774955
 31
0.0
  0
LINE
  5
221
100
AcDbEntity
  8
0
  6
CONTINUOUS
 62
         7
100
AcDbLine
 10
6.1985211122
 20
3.9092774955
 30
0.0
 11
6.1876683277
 21
3.8942167002
 31
0.0
  0
LINE
  5
222
100
AcDbEntity
  8
0
  6
CONTINUOUS
 62
         7
100
AcDbLine
 10
6.1876683277
 20
3.8942167002
 30
0.0
 11
6.1985211122
 21
3.8922979134
 31
0.0
  0
LINE
  5
223
100
AcDbEntity
  8
0
  6
CONTINUOUS
 62
         7
100
AcDbLine
 10
6.1985211122
 20
3.8922979134
 30
0.0
 11
6.1876683277
 21
3.877335149
 31
0.0
  0
LINE
  5
224
100
AcDbEntity
  8
0
  6
CONTINUOUS
 62
         7
100
AcDbLine
 10
6.1876683277
 20
3.877335149
 30
0.0
 11
6.1985211122
 21
3.8747612458
 31
0.0
  0
LINE
  5
225
100
AcDbEntity
  8
0
  6
CONTINUOUS
 62
         7
100
AcDbLine
 10
6.1985211122
 20
3.8747612458
 30
0.0
 11
6.1876683277
 21
3.8599249947
 31
0.0
  0
LINE
  5
226
100
AcDbEntity
  8
0
  6
CONTINUOUS
 62
         7
100
AcDbLine
 10
6.1876683277
 20
3.8599249947
 30
0.0
 11
6.1985211122
 21
3.8567008747
 31
0.0
  0
LINE
  5
227
100
AcDbEntity
  8
0
  6
CONTINUOUS
 62
         7
100
AcDbLine
 10
6.1985211122
 20
3.8567008747
 30
0.0
 11
6.1876683277
 21
3.8420193786
 31
0.0
  0
LINE
  5
228
100
AcDbEntity
  8
0
  6
CONTINUOUS
 62
         7
100
AcDbLine
 10
6.1876683277
 20
3.8420193786
 30
0.0
 11
6.1985211122
 21
3.838151179
 31
0.0
  0
LINE
  5
229
100
AcDbEntity
  8
0
  6
CONTINUOUS
 62
         7
100
AcDbLine
 10
6.1985211122
 20
3.838151179
 30
0.0
 11
6.1876683277
 21
3.8236523849
 31
0.0
  0
LINE
  5
22A
100
AcDbEntity
  8
0
  6
CONTINUOUS
 62
         7
100
AcDbLine
 10
6.1876683277
 20
3.8236523849
 30
0.0
 11
6.1985211122
 21
3.8191474692
 31
0.0
  0
LINE
  5
22B
100
AcDbEntity
  8
0
  6
CONTINUOUS
 62
         7
100
AcDbLine
 10
6.1985211122
 20
3.8191474692
 30
0.0
 11
6.1876683277
 21
3.8048589764
 31
0.0
  0
LINE
  5
22C
100
AcDbEntity
  8
0
  6
CONTINUOUS
 62
         7
100
AcDbLine
 10
6.1876683277
 20
3.8048589764
 30
0.0
 11
6.1985211122
 21
3.7997259198
 31
0.0
  0
LINE
  5
22D
100
AcDbEntity
  8
0
  6
CONTINUOUS
 62
         7
100
AcDbLine
 10
6.1985211122
 20
3.7997259198
 30
0.0
 11
6.1876683277
 21
3.7856749273
 31
0.0
  0
LINE
  5
22E
100
AcDbEntity
  8
0
  6
CONTINUOUS
 62
         7
100
AcDbLine
 10
6.1876683277
 20
3.7856749273
 30
0.0
 11
6.1985211122
 21
3.7799235009
 31
0.0
  0
LINE
  5
22F
100
AcDbEntity
  8
0
  6
CONTINUOUS
 62
         7
100
AcDbLine
 10
6.1985211122
 20
3.7799235009
 30
0.0
 11
6.1876683277
 21
3.7661367555
 31
0.0
  0
LINE
  5
230
100
AcDbEntity
  8
0
  6
CONTINUOUS
 62
         7
100
AcDbLine
 10
6.1876683277
 20
3.7661367555
 30
0.0
 11
6.1985211122
 21
3.7597779075
 31
0.0
  0
LINE
  5
231
100
AcDbEntity
  8
0
  6
CONTINUOUS
 62
         7
100
AcDbLine
 10
6.1985211122
 20
3.7597779075
 30
0.0
 11
6.1876683277
 21
3.7462816531
 31
0.0
  0
LINE
  5
232
100
AcDbEntity
  8
0
  6
CONTINUOUS
 62
         7
100
AcDbLine
 10
6.1876683277
 20
3.7462816531
 30
0.0
 11
6.1985211122
 21
3.739327488
 31
0.0
  0
LINE
  5
233
100
AcDbEntity
  8
0
  6
CONTINUOUS
 62
         7
100
AcDbLine
 10
6.1985211122
 20
3.739327488
 30
0.0
 11
6.1876683277
 21
3.7261474154
 31
0.0
  0
LINE
  5
234
100
AcDbEntity
  8
0
  6
CONTINUOUS
 62
         7
100
AcDbLine
 10
6.1876683277
 20
3.7261474154
 30
0.0
 11
6.1985211122
 21
3.7186111707
 31
0.0
  0
LINE
  5
235
100
AcDbEntity
  8
0
  6
CONTINUOUS
 62
         7
100
AcDbLine
 10
6.1985211122
 20
3.7186111707
 30
0.0
 11
6.1876683277
 21
3.705772369
 31
0.0
  0
LINE
  5
236
100
AcDbEntity
  8
0
  6
CONTINUOUS
 62
         7
100
AcDbLine
 10
6.1876683277
 20
3.705772369
 30
0.0
 11
6.1985211122
 21
3.6976683905
 31
0.0
  0
LINE
  5
237
100
AcDbEntity
  8
0
  6
CONTINUOUS
 62
         7
100
AcDbLine
 10
6.1985211122
 20
3.6976683905
 30
0.0
 11
6.1876683277
 21
3.6851952991
 31
0.0
  0
LINE
  5
238
100
AcDbEntity
  8
0
  6
CONTINUOUS
 62
         7
100
AcDbLine
 10
6.1876683277
 20
3.6851952991
 30
0.0
 11
6.1985211122
 21
3.6765390131
 31
0.0
  0
LINE
  5
239
100
AcDbEntity
  8
0
  6
CONTINUOUS
 62
         7
100
AcDbLine
 10
6.1985211122
 20
3.6765390131
 30
0.0
 11
6.1876683277
 21
3.6644553752
 31
0.0
  0
LINE
  5
23A
100
AcDbEntity
  8
0
  6
CONTINUOUS
 62
         7
100
AcDbLine
 10
6.1876683277
 20
3.6644553752
 30
0.0
 11
6.1985211122
 21
3.6552632595
 31
0.0
  0
LINE
  5
23B
100
AcDbEntity
  8
0
  6
CONTINUOUS
 62
         7
100
AcDbLine
 10
6.1985211122
 20
3.6552632595
 30
0.0
 11
6.1876683277
 21
3.643592077
 31
0.0
  0
LINE
  5
23C
100
AcDbEntity
  8
0
  6
CONTINUOUS
 62
         7
100
AcDbLine
 10
6.1876683277
 20
3.643592077
 30
0.0
 11
6.1985211122
 21
3.6338816292
 31
0.0
  0
LINE
  5
23D
100
AcDbEntity
  8
0
  6
CONTINUOUS
 62
         7
100
AcDbLine
 10
6.1985211122
 20
3.6338816292
 30
0.0
 11
6.1876683277
 21
3.6226451189
 31
0.0
  0
LINE
  5
23E
100
AcDbEntity
  8
0
  6
CONTINUOUS
 62
         7
100
AcDbLine
 10
6.1876683277
 20
3.6226451189
 30
0.0
 11
6.1985211122
 21
3.6124348235
 31
0.0
  0
LINE
  5
23F
100
AcDbEntity
  8
0
  6
CONTINUOUS
 62
         7
100
AcDbLine
 10
6.1985211122
 20
3.6124348235
 30
0.0
 11
6.1876683277
 21
3.6016543747
 31
0.0
  0
LINE
  5
240
100
AcDbEntity
  8
0
  6
CONTINUOUS
 62
         7
100
AcDbLine
 10
6.1876683277
 20
3.6016543747
 30
0.0
 11
6.1985211122
 21
3.5909636675
 31
0.0
  0
LINE
  5
241
100
AcDbEntity
  8
0
  6
CONTINUOUS
 62
         7
100
AcDbLine
 10
6.1985211122
 20
3.5909636675
 30
0.0
 11
6.1876683277
 21
3.5806598014
 31
0.0
  0
LINE
  5
242
100
AcDbEntity
  8
0
  6
CONTINUOUS
 62
         7
100
AcDbLine
 10
6.1876683277
 20
3.5806598014
 30
0.0
 11
6.1985211122
 21
3.5695090328
 31
0.0
  0
LINE
  5
243
100
AcDbEntity
  8
0
  6
CONTINUOUS
 62
         7
100
AcDbLine
 10
6.1985211122
 20
3.5695090328
 30
0.0
 11
6.1876683277
 21
3.5597013634
 31
0.0
  0
LINE
  5
244
100
AcDbEntity
  8
0
  6
CONTINUOUS
 62
         7
100
AcDbLine
 10
6.1876683277
 20
3.5597013634
 30
0.0
 11
6.1985211122
 21
3.5481117596
 31
0.0
  0
LINE
  5
245
100
AcDbEntity
  8
0
  6
CONTINUOUS
 62
         7
100
AcDbLine
 10
6.1985211122
 20
3.5481117596
 30
0.0
 11
6.1876683277
 21
3.5388189562
 31
0.0
  0
LINE
  5
246
100
AcDbEntity
  8
0
  6
CONTINUOUS
 62
         7
100
AcDbLine
 10
6.1876683277
 20
3.5388189562
 30
0.0
 11
6.1985211122
 21
3.5268125786
 31
0.0
  0
POLYLINE
  5
247
100
AcDbEntity
  8
0
  6
CONTINUOUS
 62
         7
100
AcDb2dPolyline
 66
         1
 10
0.0
 20
0.0
 30
0.0
 70
       128
  0
VERTEX
  5
248
100
AcDbEntity
  8
0
100
AcDbVertex
100
AcDb2dVertex
 10
6.1985211122
 20
3.5268125786
 30
0.0
  0
VERTEX
  5
249
100
AcDbEntity
  8
0
100
AcDbVertex
100
AcDb2dVertex
 10
6.1920158472
 20
3.5215841428
 30
0.0
  0
VERTEX
  5
24A
100
AcDbEntity
  8
0
100
AcDbVertex
100
AcDb2dVertex
 10
6.1876683277
 20
3.5180523308
 30
0.0
  0
SEQEND
  5
24B
100
AcDbEntity
  8
0
  0
POLYLINE
  5
24C
100
AcDbEntity
  8
0
  6
CONTINUOUS
 62
         7
100
AcDb2dPolyline
 66
         1
 10
0.0
 20
0.0
 30
0.0
 70
       128
  0
VERTEX
  5
24D
100
AcDbEntity
  8
0
100
AcDbVertex
100
AcDb2dVertex
 10
6.1876683277
 20
3.5180523308
 30
0.0
  0
VERTEX
  5
24E
100
AcDbEntity
  8
0
100
AcDbVertex
100
AcDb2dVertex
 10
6.1920158472
 20
3.5130529841
 30
0.0
  0
VERTEX
  5
24F
100
AcDbEntity
  8
0
100
AcDbVertex
100
AcDb2dVertex
 10
6.1985211122
 20
3.5056520343
 30
0.0
  0
SEQEND
  5
250
100
AcDbEntity
  8
0
  0
LINE
  5
251
100
AcDbEntity
  8
0
  6
CONTINUOUS
 62
         7
100
AcDbLine
 10
6.1985211122
 20
3.5056520343
 30
0.0
 11
6.1876683277
 21
3.4974410176
 31
0.0
  0
LINE
  5
252
100
AcDbEntity
  8
0
  6
CONTINUOUS
 62
         7
100
AcDbLine
 10
6.1876683277
 20
3.4974410176
 30
0.0
 11
6.1985211122
 21
3.4846704067
 31
0.0
  0
LINE
  5
253
100
AcDbEntity
  8
0
  6
CONTINUOUS
 62
         7
100
AcDbLine
 10
6.1985211122
 20
3.4846704067
 30
0.0
 11
6.1876683277
 21
3.4770242514
 31
0.0
  0
LINE
  5
254
100
AcDbEntity
  8
0
  6
CONTINUOUS
 62
         7
100
AcDbLine
 10
6.1876683277
 20
3.4770242514
 30
0.0
 11
6.1985211122
 21
3.4639076358
 31
0.0
  0
LINE
  5
255
100
AcDbEntity
  8
0
  6
CONTINUOUS
 62
         7
100
AcDbLine
 10
6.1985211122
 20
3.4639076358
 30
0.0
 11
6.1876683277
 21
3.4568408966
 31
0.0
  0
LINE
  5
256
100
AcDbEntity
  8
0
  6
CONTINUOUS
 62
         7
100
AcDbLine
 10
6.1876683277
 20
3.4568408966
 30
0.0
 11
6.1985211122
 21
3.4434032445
 31
0.0
  0
LINE
  5
257
100
AcDbEntity
  8
0
  6
CONTINUOUS
 62
         7
100
AcDbLine
 10
6.1985211122
 20
3.4434032445
 30
0.0
 11
6.1876683277
 21
3.4369293734
 31
0.0
  0
LINE
  5
258
100
AcDbEntity
  8
0
  6
CONTINUOUS
 62
         7
100
AcDbLine
 10
6.1876683277
 20
3.4369293734
 30
0.0
 11
6.1985211122
 21
3.4231962642
 31
0.0
  0
LINE
  5
259
100
AcDbEntity
  8
0
  6
CONTINUOUS
 62
         7
100
AcDbLine
 10
6.1985211122
 20
3.4231962642
 30
0.0
 11
6.1876683277
 21
3.4173275846
 31
0.0
  0
LINE
  5
25A
100
AcDbEntity
  8
0
  6
CONTINUOUS
 62
         7
100
AcDbLine
 10
6.1876683277
 20
3.4173275846
 30
0.0
 11
6.1985211122
 21
3.4033251599
 31
0.0
  0
LINE
  5
25B
100
AcDbEntity
  8
0
  6
CONTINUOUS
 62
         7
100
AcDbLine
 10
6.1985211122
 20
3.4033251599
 30
0.0
 11
6.1876683277
 21
3.3980728433
 31
0.0
  0
LINE
  5
25C
100
AcDbEntity
  8
0
  6
CONTINUOUS
 62
         7
100
AcDbLine
 10
6.1876683277
 20
3.3980728433
 30
0.0
 11
6.1985211122
 21
3.3838277576
 31
0.0
  0
LINE
  5
25D
100
AcDbEntity
  8
0
  6
CONTINUOUS
 62
         7
100
AcDbLine
 10
6.1985211122
 20
3.3838277576
 30
0.0
 11
6.1876683277
 21
3.3792018018
 31
0.0
  0
LINE
  5
25E
100
AcDbEntity
  8
0
  6
CONTINUOUS
 62
         7
100
AcDbLine
 10
6.1876683277
 20
3.3792018018
 30
0.0
 11
6.1985211122
 21
3.3647411715
 31
0.0
  0
LINE
  5
25F
100
AcDbEntity
  8
0
  6
CONTINUOUS
 62
         7
100
AcDbLine
 10
6.1985211122
 20
3.3647411715
 30
0.0
 11
6.1876683277
 21
3.3607503825
 31
0.0
  0
LINE
  5
260
100
AcDbEntity
  8
0
  6
CONTINUOUS
 62
         7
100
AcDbLine
 10
6.1876683277
 20
3.3607503825
 30
0.0
 11
6.1985211122
 21
3.3461017341
 31
0.0
  0
LINE
  5
261
100
AcDbEntity
  8
0
  6
CONTINUOUS
 62
         7
100
AcDbLine
 10
6.1985211122
 20
3.3461017341
 30
0.0
 11
6.1876683277
 21
3.3427537085
 31
0.0
  0
LINE
  5
262
100
AcDbEntity
  8
0
  6
CONTINUOUS
 62
         7
100
AcDbLine
 10
6.1876683277
 20
3.3427537085
 30
0.0
 11
6.1985211122
 21
3.3279449266
 31
0.0
  0
LINE
  5
263
100
AcDbEntity
  8
0
  6
CONTINUOUS
 62
         7
100
AcDbLine
 10
6.1985211122
 20
3.3279449266
 30
0.0
 11
6.1876683277
 21
3.3252460376
 31
0.0
  0
LINE
  5
264
100
AcDbEntity
  8
0
  6
CONTINUOUS
 62
         7
100
AcDbLine
 10
6.1876683277
 20
3.3252460376
 30
0.0
 11
6.1985211122
 21
3.3103053115
 31
0.0
  0
LINE
  5
265
100
AcDbEntity
  8
0
  6
CONTINUOUS
 62
         7
100
AcDbLine
 10
6.1985211122
 20
3.3103053115
 30
0.0
 11
6.1876683277
 21
3.3082606966
 31
0.0
  0
LINE
  5
266
100
AcDbEntity
  8
0
  6
CONTINUOUS
 62
         7
100
AcDbLine
 10
6.1876683277
 20
3.3082606966
 30
0.0
 11
6.1985211122
 21
3.2932164669
 31
0.0
  0
LINE
  5
267
100
AcDbEntity
  8
0
  6
CONTINUOUS
 62
         7
100
AcDbLine
 10
6.1985211122
 20
3.2932164669
 30
0.0
 11
6.1876683277
 21
3.2918300181
 31
0.0
  0
LINE
  5
268
100
AcDbEntity
  8
0
  6
CONTINUOUS
 62
         7
100
AcDbLine
 10
6.1876683277
 20
3.2918300181
 30
0.0
 11
6.1985211122
 21
3.2767109223
 31
0.0
  0
LINE
  5
269
100
AcDbEntity
  8
0
  6
CONTINUOUS
 62
         7
100
AcDbLine
 10
6.1985211122
 20
3.2767109223
 30
0.0
 11
6.1876683277
 21
3.2759852787
 31
0.0
  0
LINE
  5
26A
100
AcDbEntity
  8
0
  6
CONTINUOUS
 62
         7
100
AcDbLine
 10
6.1876683277
 20
3.2759852787
 30
0.0
 11
6.1985211122
 21
3.260820097
 31
0.0
  0
LINE
  5
26B
100
AcDbEntity
  8
0
  6
CONTINUOUS
 62
         7
100
AcDbLine
 10
6.1985211122
 20
3.260820097
 30
0.0
 11
6.1876683277
 21
3.26075664
 31
0.0
  0
LINE
  5
26C
100
AcDbEntity
  8
0
  6
CONTINUOUS
 62
         7
100
AcDbLine
 10
6.1876683277
 20
3.26075664
 30
0.0
 11
6.1985211122
 21
3.24557424
 31
0.0
  0
LINE
  5
26D
100
AcDbEntity
  8
0
  6
CONTINUOUS
 62
         7
100
AcDbLine
 10
6.1985211122
 20
3.24557424
 30
0.0
 11
6.1876683277
 21
3.2461730904
 31
0.0
  0
LINE
  5
26E
100
AcDbEntity
  8
0
  6
CONTINUOUS
 62
         7
100
AcDbLine
 10
6.1876683277
 20
3.2461730904
 30
0.0
 11
6.1985211122
 21
3.2310023727
 31
0.0
  0
LINE
  5
26F
100
AcDbEntity
  8
0
  6
CONTINUOUS
 62
         7
100
AcDbLine
 10
6.1985211122
 20
3.2310023727
 30
0.0
 11
6.1876683277
 21
3.2322623906
 31
0.0
  0
LINE
  5
270
100
AcDbEntity
  8
0
  6
CONTINUOUS
 62
         7
100
AcDbLine
 10
6.1876683277
 20
3.2322623906
 30
0.0
 11
6.1985211122
 21
3.2171322335
 31
0.0
  0
LINE
  5
271
100
AcDbEntity
  8
0
  6
CONTINUOUS
 62
         7
100
AcDbLine
 10
6.1985211122
 20
3.2171322335
 30
0.0
 11
6.1876683277
 21
3.2190510203
 31
0.0
  0
LINE
  5
272
100
AcDbEntity
  8
0
  6
CONTINUOUS
 62
         7
100
AcDbLine
 10
6.1876683277
 20
3.2190510203
 30
0.0
 11
6.1985211122
 21
3.203990225
 31
0.0
  0
LINE
  5
273
100
AcDbEntity
  8
0
  6
CONTINUOUS
 62
         7
100
AcDbLine
 10
6.1985211122
 20
3.203990225
 30
0.0
 11
6.1876683277
 21
3.2065641282
 31
0.0
  0
LINE
  5
274
100
AcDbEntity
  8
0
  6
CONTINUOUS
 62
         7
100
AcDbLine
 10
6.1876683277
 20
3.2065641282
 30
0.0
 11
6.1985211122
 21
3.1916013638
 31
0.0
  0
LINE
  5
275
100
AcDbEntity
  8
0
  6
CONTINUOUS
 62
         7
100
AcDbLine
 10
6.1985211122
 20
3.1916013638
 30
0.0
 11
6.1876683277
 21
3.1948254838
 31
0.0
  0
LINE
  5
276
100
AcDbEntity
  8
0
  6
CONTINUOUS
 62
         7
100
AcDbLine
 10
6.1876683277
 20
3.1948254838
 30
0.0
 11
6.1985211122
 21
3.1799892327
 31
0.0
  0
LINE
  5
277
100
AcDbEntity
  8
0
  6
CONTINUOUS
 62
         7
100
AcDbLine
 10
6.4623006397
 20
3.5909636675
 30
0.0
 11
6.1985211122
 21
3.5909636675
 31
0.0
  0
LINE
  5
278
100
AcDbEntity
  8
0
  6
CONTINUOUS
 62
         7
100
AcDbLine
 10
6.4731534242
 20
3.5806598014
 30
0.0
 11
6.1876683277
 21
3.5806598014
 31
0.0
  0
LINE
  5
279
100
AcDbEntity
  8
0
  6
CONTINUOUS
 62
         7
100
AcDbLine
 10
6.4731534242
 20
3.6016543747
 30
0.0
 11
6.1876683277
 21
3.6016543747
 31
0.0
  0
LINE
  5
27A
100
AcDbEntity
  8
0
  6
CONTINUOUS
 62
         7
100
AcDbLine
 10
6.4731534242
 20
3.6226451189
 30
0.0
 11
6.1876683277
 21
3.6226451189
 31
0.0
  0
LINE
  5
27B
100
AcDbEntity
  8
0
  6
CONTINUOUS
 62
         7
100
AcDbLine
 10
6.4623006397
 20
3.6124348235
 30
0.0
 11
6.1985211122
 21
3.6124348235
 31
0.0
  0
LINE
  5
27C
100
AcDbEntity
  8
0
  6
CONTINUOUS
 62
         7
100
AcDbLine
 10
6.4623006397
 20
3.5695090328
 30
0.0
 11
6.1985211122
 21
3.5695090328
 31
0.0
  0
LINE
  5
27D
100
AcDbEntity
  8
0
  6
CONTINUOUS
 62
         7
100
AcDbLine
 10
6.4731534242
 20
3.5597013634
 30
0.0
 11
6.1876683277
 21
3.5597013634
 31
0.0
  0
LINE
  5
27E
100
AcDbEntity
  8
0
  6
CONTINUOUS
 62
         7
100
AcDbLine
 10
6.4623006397
 20
3.6338816292
 30
0.0
 11
6.1985211122
 21
3.6338816292
 31
0.0
  0
LINE
  5
27F
100
AcDbEntity
  8
0
  6
CONTINUOUS
 62
         7
100
AcDbLine
 10
6.4731534242
 20
3.643592077
 30
0.0
 11
6.1876683277
 21
3.643592077
 31
0.0
  0
LINE
  5
280
100
AcDbEntity
  8
0
  6
CONTINUOUS
 62
         7
100
AcDbLine
 10
6.4623006397
 20
3.5481117596
 30
0.0
 11
6.1985211122
 21
3.5481117596
 31
0.0
  0
LINE
  5
281
100
AcDbEntity
  8
0
  6
CONTINUOUS
 62
         7
100
AcDbLine
 10
6.4731534242
 20
3.5388189562
 30
0.0
 11
6.1876683277
 21
3.5388189562
 31
0.0
  0
LINE
  5
282
100
AcDbEntity
  8
0
  6
CONTINUOUS
 62
         7
100
AcDbLine
 10
6.4623006397
 20
3.6552632595
 30
0.0
 11
6.1985211122
 21
3.6552632595
 31
0.0
  0
LINE
  5
283
100
AcDbEntity
  8
0
  6
CONTINUOUS
 62
         7
100
AcDbLine
 10
6.4731534242
 20
3.6644553752
 30
0.0
 11
6.1876683277
 21
3.6644553752
 31
0.0
  0
LINE
  5
284
100
AcDbEntity
  8
0
  6
CONTINUOUS
 62
         7
100
AcDbLine
 10
6.4623006397
 20
3.5268125786
 30
0.0
 11
6.1985211122
 21
3.5268125786
 31
0.0
  0
LINE
  5
285
100
AcDbEntity
  8
0
  6
CONTINUOUS
 62
         7
100
AcDbLine
 10
6.4731534242
 20
3.5180523308
 30
0.0
 11
6.1876683277
 21
3.5180523308
 31
0.0
  0
LINE
  5
286
100
AcDbEntity
  8
0
  6
CONTINUOUS
 62
         7
100
AcDbLine
 10
6.4731534242
 20
3.6851952991
 30
0.0
 11
6.1876683277
 21
3.6851952991
 31
0.0
  0
LINE
  5
287
100
AcDbEntity
  8
0
  6
CONTINUOUS
 62
         7
100
AcDbLine
 10
6.4623006397
 20
3.6765390131
 30
0.0
 11
6.1985211122
 21
3.6765390131
 31
0.0
  0
LINE
  5
288
100
AcDbEntity
  8
0
  6
CONTINUOUS
 62
         7
100
AcDbLine
 10
6.4623006397
 20
3.5056520343
 30
0.0
 11
6.1985211122
 21
3.5056520343
 31
0.0
  0
LINE
  5
289
100
AcDbEntity
  8
0
  6
CONTINUOUS
 62
         7
100
AcDbLine
 10
6.4731534242
 20
3.4974410176
 30
0.0
 11
6.1876683277
 21
3.4974410176
 31
0.0
  0
LINE
  5
28A
100
AcDbEntity
  8
0
  6
CONTINUOUS
 62
         7
100
AcDbLine
 10
6.4623006397
 20
3.6976683905
 30
0.0
 11
6.1985211122
 21
3.6976683905
 31
0.0
  0
LINE
  5
28B
100
AcDbEntity
  8
0
  6
CONTINUOUS
 62
         7
100
AcDbLine
 10
6.4731534242
 20
3.705772369
 30
0.0
 11
6.1876683277
 21
3.705772369
 31
0.0
  0
LINE
  5
28C
100
AcDbEntity
  8
0
  6
CONTINUOUS
 62
         7
100
AcDbLine
 10
6.4623006397
 20
3.4846704067
 30
0.0
 11
6.1985211122
 21
3.4846704067
 31
0.0
  0
LINE
  5
28D
100
AcDbEntity
  8
0
  6
CONTINUOUS
 62
         7
100
AcDbLine
 10
6.4731534242
 20
3.4770242514
 30
0.0
 11
6.1876683277
 21
3.4770242514
 31
0.0
  0
LINE
  5
28E
100
AcDbEntity
  8
0
  6
CONTINUOUS
 62
         7
100
AcDbLine
 10
6.4731534242
 20
3.7261474154
 30
0.0
 11
6.1876683277
 21
3.7261474154
 31
0.0
  0
LINE
  5
28F
100
AcDbEntity
  8
0
  6
CONTINUOUS
 62
         7
100
AcDbLine
 10
6.4623006397
 20
3.7186111707
 30
0.0
 11
6.1985211122
 21
3.7186111707
 31
0.0
  0
LINE
  5
290
100
AcDbEntity
  8
0
  6
CONTINUOUS
 62
         7
100
AcDbLine
 10
6.4623006397
 20
3.4639076358
 30
0.0
 11
6.1985211122
 21
3.4639076358
 31
0.0
  0
LINE
  5
291
100
AcDbEntity
  8
0
  6
CONTINUOUS
 62
         7
100
AcDbLine
 10
6.4731534242
 20
3.4568408966
 30
0.0
 11
6.1876683277
 21
3.4568408966
 31
0.0
  0
LINE
  5
292
100
AcDbEntity
  8
0
  6
CONTINUOUS
 62
         7
100
AcDbLine
 10
5.828442372
 20
3.8722389807
 30
0.0
 11
5.828442372
 21
3.1272018983
 31
0.0
  0
LINE
  5
293
100
AcDbEntity
  8
0
  6
CONTINUOUS
 62
         7
100
AcDbLine
 10
5.828442372
 20
3.8722389807
 30
0.0
 11
5.828442372
 21
4.072083788
 31
0.0
  0
LINE
  5
294
100
AcDbEntity
  8
0
  6
CONTINUOUS
 62
         7
100
AcDbLine
 10
5.6906470964
 20
3.8495226359
 30
0.0
 11
5.6906470964
 21
3.166571977
 31
0.0
  0
LINE
  5
295
100
AcDbEntity
  8
0
  6
CONTINUOUS
 62
         7
100
AcDbLine
 10
5.6906470964
 20
4.0327137093
 30
0.0
 11
5.6906470964
 21
3.8495226359
 31
0.0
  0
LINE
  5
296
100
AcDbEntity
  8
0
  6
CONTINUOUS
 62
         7
100
AcDbLine
 10
6.4731534242
 20
3.7462816531
 30
0.0
 11
6.1876683277
 21
3.7462816531
 31
0.0
  0
LINE
  5
297
100
AcDbEntity
  8
0
  6
CONTINUOUS
 62
         7
100
AcDbLine
 10
6.4623006397
 20
3.739327488
 30
0.0
 11
6.1985211122
 21
3.739327488
 31
0.0
  0
LINE
  5
298
100
AcDbEntity
  8
0
  6
CONTINUOUS
 62
         7
100
AcDbLine
 10
6.4623006397
 20
3.4434032445
 30
0.0
 11
6.1985211122
 21
3.4434032445
 31
0.0
  0
LINE
  5
299
100
AcDbEntity
  8
0
  6
CONTINUOUS
 62
         7
100
AcDbLine
 10
6.4731534242
 20
3.4369293734
 30
0.0
 11
6.1876683277
 21
3.4369293734
 31
0.0
  0
LINE
  5
29A
100
AcDbEntity
  8
0
  6
CONTINUOUS
 62
         7
100
AcDbLine
 10
6.4731534242
 20
3.7661367555
 30
0.0
 11
6.1876683277
 21
3.7661367555
 31
0.0
  0
LINE
  5
29B
100
AcDbEntity
  8
0
  6
CONTINUOUS
 62
         7
100
AcDbLine
 10
6.4623006397
 20
3.7597779075
 30
0.0
 11
6.1985211122
 21
3.7597779075
 31
0.0
  0
LINE
  5
29C
100
AcDbEntity
  8
0
  6
CONTINUOUS
 62
         7
100
AcDbLine
 10
6.4623006397
 20
3.4231962642
 30
0.0
 11
6.1985211122
 21
3.4231962642
 31
0.0
  0
LINE
  5
29D
100
AcDbEntity
  8
0
  6
CONTINUOUS
 62
         7
100
AcDbLine
 10
6.4731534242
 20
3.4173275846
 30
0.0
 11
6.1876683277
 21
3.4173275846
 31
0.0
  0
LINE
  5
29E
100
AcDbEntity
  8
0
  6
CONTINUOUS
 62
         7
100
AcDbLine
 10
6.4623006397
 20
3.7799235009
 30
0.0
 11
6.1985211122
 21
3.7799235009
 31
0.0
  0
LINE
  5
29F
100
AcDbEntity
  8
0
  6
CONTINUOUS
 62
         7
100
AcDbLine
 10
6.4731534242
 20
3.7856749273
 30
0.0
 11
6.1876683277
 21
3.7856749273
 31
0.0
  0
LINE
  5
2A0
100
AcDbEntity
  8
0
  6
CONTINUOUS
 62
         7
100
AcDbLine
 10
6.4623006397
 20
3.4033251599
 30
0.0
 11
6.1985211122
 21
3.4033251599
 31
0.0
  0
LINE
  5
2A1
100
AcDbEntity
  8
0
  6
CONTINUOUS
 62
         7
100
AcDbLine
 10
6.4731534242
 20
3.3980728433
 30
0.0
 11
6.1876683277
 21
3.3980728433
 31
0.0
  0
LINE
  5
2A2
100
AcDbEntity
  8
0
  6
CONTINUOUS
 62
         7
100
AcDbLine
 10
6.4623006397
 20
3.7997259198
 30
0.0
 11
6.1985211122
 21
3.7997259198
 31
0.0
  0
LINE
  5
2A3
100
AcDbEntity
  8
0
  6
CONTINUOUS
 62
         7
100
AcDbLine
 10
6.4731534242
 20
3.8048589764
 30
0.0
 11
6.1876683277
 21
3.8048589764
 31
0.0
  0
LINE
  5
2A4
100
AcDbEntity
  8
0
  6
CONTINUOUS
 62
         7
100
AcDbLine
 10
6.4623006397
 20
3.3838277576
 30
0.0
 11
6.1985211122
 21
3.3838277576
 31
0.0
  0
LINE
  5
2A5
100
AcDbEntity
  8
0
  6
CONTINUOUS
 62
         7
100
AcDbLine
 10
6.4731534242
 20
3.3792018018
 30
0.0
 11
6.1876683277
 21
3.3792018018
 31
0.0
  0
LINE
  5
2A6
100
AcDbEntity
  8
0
  6
CONTINUOUS
 62
         7
100
AcDbLine
 10
6.4731534242
 20
3.8236523849
 30
0.0
 11
6.1876683277
 21
3.8236523849
 31
0.0
  0
LINE
  5
2A7
100
AcDbEntity
  8
0
  6
CONTINUOUS
 62
         7
100
AcDbLine
 10
6.4623006397
 20
3.8191474692
 30
0.0
 11
6.1985211122
 21
3.8191474692
 31
0.0
  0
LINE
  5
2A8
100
AcDbEntity
  8
0
  6
CONTINUOUS
 62
         7
100
AcDbLine
 10
6.4623006397
 20
3.3647411715
 30
0.0
 11
6.1985211122
 21
3.3647411715
 31
0.0
  0
LINE
  5
2A9
100
AcDbEntity
  8
0
  6
CONTINUOUS
 62
         7
100
AcDbLine
 10
6.4731534242
 20
3.3607503825
 30
0.0
 11
6.1876683277
 21
3.3607503825
 31
0.0
  0
LINE
  5
2AA
100
AcDbEntity
  8
0
  6
CONTINUOUS
 62
         7
100
AcDbLine
 10
6.4731534242
 20
3.8420193786
 30
0.0
 11
6.1876683277
 21
3.8420193786
 31
0.0
  0
LINE
  5
2AB
100
AcDbEntity
  8
0
  6
CONTINUOUS
 62
         7
100
AcDbLine
 10
6.4623006397
 20
3.838151179
 30
0.0
 11
6.1985211122
 21
3.838151179
 31
0.0
  0
LINE
  5
2AC
100
AcDbEntity
  8
0
  6
CONTINUOUS
 62
         7
100
AcDbLine
 10
6.4623006397
 20
3.3461017341
 30
0.0
 11
6.1985211122
 21
3.3461017341
 31
0.0
  0
LINE
  5
2AD
100
AcDbEntity
  8
0
  6
CONTINUOUS
 62
         7
100
AcDbLine
 10
6.4731534242
 20
3.3427537085
 30
0.0
 11
6.1876683277
 21
3.3427537085
 31
0.0
  0
LINE
  5
2AE
100
AcDbEntity
  8
0
  6
CONTINUOUS
 62
         7
100
AcDbLine
 10
6.4731534242
 20
3.8599249947
 30
0.0
 11
6.1876683277
 21
3.8599249947
 31
0.0
  0
LINE
  5
2AF
100
AcDbEntity
  8
0
  6
CONTINUOUS
 62
         7
100
AcDbLine
 10
6.4623006397
 20
3.8567008747
 30
0.0
 11
6.1985211122
 21
3.8567008747
 31
0.0
  0
LINE
  5
2B0
100
AcDbEntity
  8
0
  6
CONTINUOUS
 62
         7
100
AcDbLine
 10
6.4623006397
 20
3.3279449266
 30
0.0
 11
6.1985211122
 21
3.3279449266
 31
0.0
  0
LINE
  5
2B1
100
AcDbEntity
  8
0
  6
CONTINUOUS
 62
         7
100
AcDbLine
 10
6.4731534242
 20
3.3252460376
 30
0.0
 11
6.1876683277
 21
3.3252460376
 31
0.0
  0
LINE
  5
2B2
100
AcDbEntity
  8
0
  6
CONTINUOUS
 62
         7
100
AcDbLine
 10
6.4731534242
 20
3.877335149
 30
0.0
 11
6.1876683277
 21
3.877335149
 31
0.0
  0
LINE
  5
2B3
100
AcDbEntity
  8
0
  6
CONTINUOUS
 62
         7
100
AcDbLine
 10
6.4623006397
 20
3.8747612458
 30
0.0
 11
6.1985211122
 21
3.8747612458
 31
0.0
  0
LINE
  5
2B4
100
AcDbEntity
  8
0
  6
CONTINUOUS
 62
         7
100
AcDbLine
 10
6.4623006397
 20
3.3103053115
 30
0.0
 11
6.1985211122
 21
3.3103053115
 31
0.0
  0
LINE
  5
2B5
100
AcDbEntity
  8
0
  6
CONTINUOUS
 62
         7
100
AcDbLine
 10
6.4731534242
 20
3.3082606966
 30
0.0
 11
6.1876683277
 21
3.3082606966
 31
0.0
  0
LINE
  5
2B6
100
AcDbEntity
  8
0
  6
CONTINUOUS
 62
         7
100
AcDbLine
 10
6.4731534242
 20
3.8942167002
 30
0.0
 11
6.1876683277
 21
3.8942167002
 31
0.0
  0
LINE
  5
2B7
100
AcDbEntity
  8
0
  6
CONTINUOUS
 62
         7
100
AcDbLine
 10
6.4623006397
 20
3.8922979134
 30
0.0
 11
6.1985211122
 21
3.8922979134
 31
0.0
  0
LINE
  5
2B8
100
AcDbEntity
  8
0
  6
CONTINUOUS
 62
         7
100
AcDbLine
 10
6.4623006397
 20
3.2932164669
 30
0.0
 11
6.1985211122
 21
3.2932164669
 31
0.0
  0
LINE
  5
2B9
100
AcDbEntity
  8
0
  6
CONTINUOUS
 62
         7
100
AcDbLine
 10
6.4731534242
 20
3.2918300181
 30
0.0
 11
6.1876683277
 21
3.2918300181
 31
0.0
  0
LINE
  5
2BA
100
AcDbEntity
  8
0
  6
CONTINUOUS
 62
         7
100
AcDbLine
 10
6.4623006397
 20
3.9092774955
 30
0.0
 11
6.1985211122
 21
3.9092774955
 31
0.0
  0
LINE
  5
2BB
100
AcDbEntity
  8
0
  6
CONTINUOUS
 62
         7
100
AcDbLine
 10
6.4731534242
 20
3.9105375133
 30
0.0
 11
6.1876683277
 21
3.9105375133
 31
0.0
  0
LINE
  5
2BC
100
AcDbEntity
  8
0
  6
CONTINUOUS
 62
         7
100
AcDbLine
 10
6.4623006397
 20
3.2767109223
 30
0.0
 11
6.1985211122
 21
3.2767109223
 31
0.0
  0
LINE
  5
2BD
100
AcDbEntity
  8
0
  6
CONTINUOUS
 62
         7
100
AcDbLine
 10
6.4731534242
 20
3.2759852787
 30
0.0
 11
6.1876683277
 21
3.2759852787
 31
0.0
  0
LINE
  5
2BE
100
AcDbEntity
  8
0
  6
CONTINUOUS
 62
         7
100
AcDbLine
 10
6.4731534242
 20
3.9262665207
 30
0.0
 11
6.1876683277
 21
3.9262665207
 31
0.0
  0
LINE
  5
2BF
100
AcDbEntity
  8
0
  6
CONTINUOUS
 62
         7
100
AcDbLine
 10
6.4623006397
 20
3.9256676703
 30
0.0
 11
6.1985211122
 21
3.9256676703
 31
0.0
  0
LINE
  5
2C0
100
AcDbEntity
  8
0
  6
CONTINUOUS
 62
         7
100
AcDbLine
 10
6.4623006397
 20
3.260820097
 30
0.0
 11
6.1985211122
 21
3.260820097
 31
0.0
  0
LINE
  5
2C1
100
AcDbEntity
  8
0
  6
CONTINUOUS
 62
         7
100
AcDbLine
 10
6.4731534242
 20
3.26075664
 30
0.0
 11
6.1876683277
 21
3.26075664
 31
0.0
  0
LINE
  5
2C2
100
AcDbEntity
  8
0
  6
CONTINUOUS
 62
         7
100
AcDbLine
 10
6.4623006397
 20
3.9414372384
 30
0.0
 11
6.1985211122
 21
3.9414372384
 31
0.0
  0
LINE
  5
2C3
100
AcDbEntity
  8
0
  6
CONTINUOUS
 62
         7
100
AcDbLine
 10
6.4623006397
 20
3.24557424
 30
0.0
 11
6.1985211122
 21
3.24557424
 31
0.0
  0
LINE
  5
2C4
100
AcDbEntity
  8
0
  6
CONTINUOUS
 62
         7
100
AcDbLine
 10
6.4623006397
 20
3.9565561814
 30
0.0
 11
6.1985211122
 21
3.9565561814
 31
0.0
  0
LINE
  5
2C5
100
AcDbEntity
  8
0
  6
CONTINUOUS
 62
         7
100
AcDbLine
 10
6.4623006397
 20
3.2310023727
 30
0.0
 11
6.1985211122
 21
3.2310023727
 31
0.0
  0
LINE
  5
2C6
100
AcDbEntity
  8
0
  6
CONTINUOUS
 62
         7
100
AcDbLine
 10
6.4623006397
 20
3.9709957196
 30
0.0
 11
6.1985211122
 21
3.9709957196
 31
0.0
  0
ARC
  5
2C7
100
AcDbEntity
  8
0
  6
CONTINUOUS
 62
         7
100
AcDbCircle
 10
6.4049765683
 20
3.2064925446
 30
0.0
 40
0.0942492929
100
AcDbArc
 50
181.5213822047
 51
189.0907003392
  0
ARC
  5
2C8
100
AcDbEntity
  8
0
  6
CONTINUOUS
 62
         7
100
AcDbCircle
 10
6.4085194559
 20
3.1893719748
 30
0.0
 40
0.0977080767
100
AcDbArc
 50
162.316889568
 51
171.3955878711
  0
ARC
  5
2C9
100
AcDbEntity
  8
0
  6
CONTINUOUS
 62
         7
100
AcDbCircle
 10
6.3795500833
 20
3.1858960161
 30
0.0
 40
0.064856891
100
AcDbArc
 50
134.3647642698
 51
151.2088993407
  0
ARC
  5
2CA
100
AcDbEntity
  8
0
  6
CONTINUOUS
 62
         7
100
AcDbCircle
 10
6.3425876071
 20
3.1876128913
 30
0.0
 40
0.0620500657
100
AcDbArc
 50
28.4071685901
 51
46.0191677998
  0
ARC
  5
2CB
100
AcDbEntity
  8
0
  6
CONTINUOUS
 62
         7
100
AcDbCircle
 10
6.3119084646
 20
3.1895190174
 30
0.0
 40
0.0971412495
100
AcDbArc
 50
8.5672864633
 51
16.1885593441
  0
ARC
  5
2CC
100
AcDbEntity
  8
0
  6
CONTINUOUS
 62
         7
100
AcDbCircle
 10
6.3145017709
 20
3.2065295575
 30
0.0
 40
0.0946486696
100
AcDbArc
 50
350.9252924158
 51
358.4626250403
  0
ARC
  5
2CD
100
AcDbEntity
  8
0
  6
CONTINUOUS
 62
         7
100
AcDbCircle
 10
6.3978126756
 20
3.1840564953
 30
0.0
 40
0.0126495228
100
AcDbArc
 50
36.6164103505
 51
58.3572296886
  0
ARC
  5
2CE
100
AcDbEntity
  8
0
  6
CONTINUOUS
 62
         7
100
AcDbCircle
 10
6.3375110167
 20
3.2184779355
 30
0.0
 40
0.070993782
100
AcDbArc
 50
327.1704343278
 51
340.5391729159
  0
ARC
  5
2CF
100
AcDbEntity
  8
0
  6
CONTINUOUS
 62
         7
100
AcDbCircle
 10
6.3717156146
 20
3.1233908469
 30
0.0
 40
0.0620572949
100
AcDbArc
 50
65.7880178868
 51
76.999240531
  0
ARC
  5
2D0
100
AcDbEntity
  8
0
  6
CONTINUOUS
 62
         7
100
AcDbCircle
 10
6.359938435
 20
3.2153780753
 30
0.0
 40
0.0406938213
100
AcDbArc
 50
230.7670206552
 51
309.2329793448
  0
ARC
  5
2D1
100
AcDbEntity
  8
0
  6
CONTINUOUS
 62
         7
100
AcDbCircle
 10
6.3495189224
 20
3.1193581043
 30
0.0
 40
0.0662933956
100
AcDbArc
 50
103.3599931259
 51
113.8527484564
  0
ARC
  5
2D2
100
AcDbEntity
  8
0
  6
CONTINUOUS
 62
         7
100
AcDbCircle
 10
6.3810716667
 20
3.2178426537
 30
0.0
 40
0.0695620834
100
AcDbArc
 50
199.3226048646
 51
212.9677878914
  0
ARC
  5
2D3
100
AcDbEntity
  8
0
  6
CONTINUOUS
 62
         7
100
AcDbCircle
 10
6.3230112389
 20
3.1830234548
 30
0.0
 40
0.0140283168
100
AcDbArc
 50
122.7223022872
 51
142.3040576673
  0
LINE
  5
2D4
100
AcDbEntity
  8
0
  6
CONTINUOUS
 62
         7
100
AcDbLine
 10
6.4623006397
 20
3.2171322335
 30
0.0
 11
6.397166166
 21
3.2171322335
 31
0.0
  0
LINE
  5
2D5
100
AcDbEntity
  8
0
  6
CONTINUOUS
 62
         7
100
AcDbLine
 10
6.322710704
 20
3.2171322335
 30
0.0
 11
6.1985211122
 21
3.2171322335
 31
0.0
  0
LINE
  5
2D6
100
AcDbEntity
  8
0
  6
CONTINUOUS
 62
         7
100
AcDbLine
 10
6.4623006397
 20
3.9847283665
 30
0.0
 11
6.1985211122
 21
3.9847283665
 31
0.0
  0
LINE
  5
2D7
100
AcDbEntity
  8
0
  6
CONTINUOUS
 62
         7
100
AcDbLine
 10
6.311911097
 20
3.203990225
 30
0.0
 11
6.1985211122
 21
3.203990225
 31
0.0
  0
LINE
  5
2D8
100
AcDbEntity
  8
0
  6
CONTINUOUS
 62
         7
100
AcDbLine
 10
6.4623006397
 20
3.203990225
 30
0.0
 11
6.407965773
 21
3.203990225
 31
0.0
  0
LINE
  5
2D9
100
AcDbEntity
  8
0
  6
CONTINUOUS
 62
         7
100
AcDbLine
 10
6.4623006397
 20
3.9977279813
 30
0.0
 11
6.1985211122
 21
3.9977279813
 31
0.0
  0
LINE
  5
2DA
100
AcDbEntity
  8
0
  6
CONTINUOUS
 62
         7
100
AcDbLine
 10
6.4623006397
 20
3.1916013638
 30
0.0
 11
6.407965773
 21
3.1916013638
 31
0.0
  0
LINE
  5
2DB
100
AcDbEntity
  8
0
  6
CONTINUOUS
 62
         7
100
AcDbLine
 10
6.311911097
 20
3.1916013638
 30
0.0
 11
6.1985211122
 21
3.1916013638
 31
0.0
  0
LINE
  5
2DC
100
AcDbEntity
  8
0
  6
CONTINUOUS
 62
         7
100
AcDbLine
 10
6.4623006397
 20
4.0099698183
 30
0.0
 11
6.1985211122
 21
4.0099698183
 31
0.0
  0
LINE
  5
2DD
100
AcDbEntity
  8
0
  6
CONTINUOUS
 62
         7
100
AcDbLine
 10
6.322710704
 20
3.1799892327
 30
0.0
 11
6.1985211122
 21
3.1799892327
 31
0.0
  0
LINE
  5
2DE
100
AcDbEntity
  8
0
  6
CONTINUOUS
 62
         7
100
AcDbLine
 10
6.4623006397
 20
3.1799892327
 30
0.0
 11
6.397166166
 21
3.1799892327
 31
0.0
  0
LINE
  5
2DF
100
AcDbEntity
  8
0
  6
CONTINUOUS
 62
         7
100
AcDbLine
 10
6.4623006397
 20
4.0214305746
 30
0.0
 11
6.1985211122
 21
4.0214305746
 31
0.0
  0
LINE
  5
2E0
100
AcDbEntity
  8
0
  6
CONTINUOUS
 62
         7
100
AcDbLine
 10
6.4623006397
 20
3.1691759361
 30
0.0
 11
6.1985211122
 21
3.1691759361
 31
0.0
  0
LINE
  5
2E1
100
AcDbEntity
  8
0
  6
CONTINUOUS
 62
         7
100
AcDbLine
 10
6.4623006397
 20
4.032088434
 30
0.0
 11
6.1985211122
 21
4.032088434
 31
0.0
  0
LINE
  5
2E2
100
AcDbEntity
  8
0
  6
CONTINUOUS
 62
         7
100
AcDbLine
 10
6.4623006397
 20
3.1591820577
 30
0.0
 11
6.1985211122
 21
3.1591820577
 31
0.0
  0
LINE
  5
2E3
100
AcDbEntity
  8
0
  6
CONTINUOUS
 62
         7
100
AcDbLine
 10
6.4623006397
 20
4.0419231086
 30
0.0
 11
6.1985211122
 21
4.0419231086
 31
0.0
  0
LINE
  5
2E4
100
AcDbEntity
  8
0
  6
CONTINUOUS
 62
         7
100
AcDbLine
 10
6.4623006397
 20
3.1500266215
 30
0.0
 11
6.1985211122
 21
3.1500266215
 31
0.0
  0
LINE
  5
2E5
100
AcDbEntity
  8
0
  6
CONTINUOUS
 62
         7
100
AcDbLine
 10
6.4623006397
 20
4.0509158776
 30
0.0
 11
6.1985211122
 21
4.0509158776
 31
0.0
  0
LINE
  5
2E6
100
AcDbEntity
  8
0
  6
CONTINUOUS
 62
         7
100
AcDbLine
 10
6.4623006397
 20
3.1417270553
 30
0.0
 11
6.1985211122
 21
3.1417270553
 31
0.0
  0
LINE
  5
2E7
100
AcDbEntity
  8
0
  6
CONTINUOUS
 62
         7
100
AcDbLine
 10
6.4623006397
 20
4.0590496228
 30
0.0
 11
6.1985211122
 21
4.0590496228
 31
0.0
  0
LINE
  5
2E8
100
AcDbEntity
  8
0
  6
CONTINUOUS
 62
         7
100
AcDbLine
 10
6.4623006397
 20
3.1342991578
 30
0.0
 11
6.1985211122
 21
3.1342991578
 31
0.0
  0
LINE
  5
2E9
100
AcDbEntity
  8
0
  6
CONTINUOUS
 62
         7
100
AcDbLine
 10
6.4623006397
 20
4.066308861
 30
0.0
 11
6.1985211122
 21
4.066308861
 31
0.0
  0
LINE
  5
2EA
100
AcDbEntity
  8
0
  6
CONTINUOUS
 62
         7
100
AcDbLine
 10
6.4623006397
 20
3.1277570684
 30
0.0
 11
6.1985211122
 21
3.1277570684
 31
0.0
  0
LINE
  5
2EB
100
AcDbEntity
  8
0
  6
CONTINUOUS
 62
         7
100
AcDbLine
 10
6.4623006397
 20
4.0726797739
 30
0.0
 11
6.1985211122
 21
4.0726797739
 31
0.0
  0
LINE
  5
2EC
100
AcDbEntity
  8
0
  6
CONTINUOUS
 62
         7
100
AcDbLine
 10
6.4623006397
 20
3.1221132405
 30
0.0
 11
6.1985211122
 21
3.1221132405
 31
0.0
  0
LINE
  5
2ED
100
AcDbEntity
  8
0
  6
CONTINUOUS
 62
         7
100
AcDbLine
 10
6.4623006397
 20
4.0781502342
 30
0.0
 11
6.1985211122
 21
4.0781502342
 31
0.0
  0
LINE
  5
2EE
100
AcDbEntity
  8
0
  6
CONTINUOUS
 62
         7
100
AcDbLine
 10
6.4623006397
 20
3.1173784173
 30
0.0
 11
6.1985211122
 21
3.1173784173
 31
0.0
  0
LINE
  5
2EF
100
AcDbEntity
  8
0
  6
CONTINUOUS
 62
         7
100
AcDbLine
 10
6.4623006397
 20
4.0827098284
 30
0.0
 11
6.1985211122
 21
4.0827098284
 31
0.0
  0
LINE
  5
2F0
100
AcDbEntity
  8
0
  6
CONTINUOUS
 62
         7
100
AcDbLine
 10
6.4623006397
 20
3.1135616119
 30
0.0
 11
6.1985211122
 21
3.1135616119
 31
0.0
  0
LINE
  5
2F1
100
AcDbEntity
  8
0
  6
CONTINUOUS
 62
         7
100
AcDbLine
 10
6.4623006397
 20
4.0863498772
 30
0.0
 11
6.1985211122
 21
4.0863498772
 31
0.0
  0
LINE
  5
2F2
100
AcDbEntity
  8
0
  6
CONTINUOUS
 62
         7
100
AcDbLine
 10
6.4623006397
 20
3.1106700897
 30
0.0
 11
6.1985211122
 21
3.1106700897
 31
0.0
  0
LINE
  5
2F3
100
AcDbEntity
  8
0
  6
CONTINUOUS
 62
         7
100
AcDbLine
 10
6.4623006397
 20
4.0890634514
 30
0.0
 11
6.1985211122
 21
4.0890634514
 31
0.0
  0
LINE
  5
2F4
100
AcDbEntity
  8
0
  6
CONTINUOUS
 62
         7
100
AcDbLine
 10
6.4623006397
 20
3.1087093549
 30
0.0
 11
6.1985211122
 21
3.1087093549
 31
0.0
  0
LINE
  5
2F5
100
AcDbEntity
  8
0
  6
CONTINUOUS
 62
         7
100
AcDbLine
 10
6.4623006397
 20
4.0908453858
 30
0.0
 11
6.1985211122
 21
4.0908453858
 31
0.0
  0
LINE
  5
2F6
100
AcDbEntity
  8
0
  6
CONTINUOUS
 62
         7
100
AcDbLine
 10
6.4623006397
 20
3.1076831399
 30
0.0
 11
6.1985211122
 21
3.1076831399
 31
0.0
  0
LINE
  5
2F7
100
AcDbEntity
  8
0
  6
CONTINUOUS
 62
         7
100
AcDbLine
 10
6.4623006397
 20
4.0916922881
 30
0.0
 11
6.1985211122
 21
4.0916922881
 31
0.0
  0
LINE
  5
2F8
100
AcDbEntity
  8
0
  6
CONTINUOUS
 62
         7
100
AcDbLine
 10
6.4623006397
 20
3.1075933982
 30
0.0
 11
6.1985211122
 21
3.1075933982
 31
0.0
  0
LINE
  5
2F9
100
AcDbEntity
  8
0
  6
CONTINUOUS
 62
         7
100
AcDbLine
 10
4.9246070121
 20
3.4421625282
 30
0.0
 11
4.9246070121
 21
3.1272018983
 31
0.0
  0
LINE
  5
2FA
100
AcDbEntity
  8
0
  6
CONTINUOUS
 62
         7
100
AcDbLine
 10
4.9246070121
 20
3.1642606
 30
0.0
 11
4.9246070121
 21
4.072083788
 31
0.0
  0
LINE
  5
2FB
100
AcDbEntity
  8
0
  6
CONTINUOUS
 62
         7
100
AcDbLine
 10
6.7123111976
 20
3.8542088365
 30
0.0
 11
6.7123111976
 21
3.1584502439
 31
0.0
  0
LINE
  5
2FC
100
AcDbEntity
  8
0
  6
CONTINUOUS
 62
         7
100
AcDbLine
 10
6.7123111976
 20
3.8542088365
 30
0.0
 11
6.7123111976
 21
4.0408354424
 31
0.0
  0
DIMENSION
  5
30C
100
AcDbEntity
  8
0
 62
         7
100
AcDbDimension
  2
*D19
 10
2.8054623722
 20
5.1015565578
 30
0.0
 11
4.7731365809
 21
5.1015565578
 31
0.0
 70
       160
  1
<>(100mm)\PNOM.
  3
SLDDIMSTYLE0
100
AcDbAlignedDimension
 13
6.7408107896
 23
4.0283761482
 33
0.0
 14
2.8054623722
 24
3.613998731
 34
0.0
100
AcDbRotatedDimension
  0
DIMENSION
  5
31B
100
AcDbEntity
  8
0
 62
         7
100
AcDbDimension
  2
*D20
 10
4.8655518939
 20
4.6036317552
 30
0.0
 11
3.8355071331
 21
4.6036317552
 31
0.0
 70
       160
  1
<>(52mm)\PNOM.
  3
SLDDIMSTYLE0
100
AcDbAlignedDimension
 13
2.8054623722
 23
3.5996428432
 33
0.0
 14
4.8655518939
 24
4.0130286699
 34
0.0
 50
180.0
100
AcDbRotatedDimension
  0
DIMENSION
  5
32B
100
AcDbEntity
  8
0
 62
         7
100
AcDbDimension
  2
*D21
 10
7.2539172002
 20
4.0916922881
 30
0.0
 11
7.2539172002
 21
3.5996428432
 31
0.0
 70
       160
  1
%%c<>\P(25mm)
  3
SLDDIMSTYLE1
100
AcDbAlignedDimension
 13
6.4623006397
 23
3.1075933982
 33
0.0
 14
6.4623006397
 24
4.0916922881
 34
0.0
 50
90.0
100
AcDbRotatedDimension
  0
DIMENSION
  5
339
100
AcDbEntity
  8
0
 62
         7
100
AcDbDimension
  2
*D22
 10
4.3931109491
 20
2.5946586977
 30
0.0
 11
3.9009849648
 21
2.5946586977
 31
0.0
 70
       160
  1
<>\P(25mm)
  3
SLDDIMSTYLE1
100
AcDbAlignedDimension
 13
3.4088589806
 23
3.3496428432
 33
0.0
 14
4.3931109491
 24
3.3496428432
 34
0.0
 50
180.0
100
AcDbRotatedDimension
  0
DIMENSION
  5
349
100
AcDbEntity
  8
0
 62
         7
100
AcDbDimension
  2
*D23
 10
1.5053387904
 20
3.3496428432
 30
0.0
 11
1.5053387904
 21
3.5996428432
 31
0.0
 70
       160
  1
%%c<>\P(13mm)
  3
SLDDIMSTYLE2
100
AcDbAlignedDimension
 13
3.4088589806
 23
3.8496428432
 33
0.0
 14
3.4088589806
 24
3.3496428432
 34
0.0
 50
-90.0
100
AcDbRotatedDimension
  0
DIMENSION
  5
358
100
AcDbEntity
  8
0
 62
         7
100
AcDbDimension
  2
*D24
 10
2.1159429826
 20
3.4815326069
 30
0.0
 11
2.1159429826
 21
4.4201435306
 31
0.0
 70
       160
  1
<>\P(6mm)
  3
SLDDIMSTYLE1
100
AcDbAlignedDimension
 13
2.9561030751
 23
3.7177530794
 33
0.0
 14
2.9561030751
 24
3.4815326069
 34
0.0
 50
-90.0
100
AcDbRotatedDimension
  0
DIMENSION
  5
367
100
AcDbEntity
  8
0
 62
         7
100
AcDbDimension
  2
*D25
 10
2.6715953846
 20
3.6586979613
 30
0.0
 11
2.6715953846
 21
2.8494047027
 31
0.0
 70
       160
  1
<>\P(3mm)
  3
SLDDIMSTYLE1
100
AcDbAlignedDimension
 13
2.8446660249
 23
3.5405877251
 33
0.0
 14
2.8446660249
 24
3.6586979613
 34
0.0
 50
90.0
100
AcDbRotatedDimension
  0
LEADER
  5
368
100
AcDbEntity
  8
0
 62
         7
100
AcDbLeader
  3
SLDDIMSTYLE3
 73
         0
 74
         0
 75
         0
 40
0.0
 76
         3
 10
6.4731534242
 20
3.1203805374
 30
0.0
 10
7.0078199303
 20
2.6109558531
 30
0.0
 10
7.2578199303
 20
2.6109558531
 30
0.0
 77
       256
340
36A
213
0.0
223
0.0763659458044312
233
0.0
  0
MTEXT
  5
36A
100
AcDbEntity
  8
0
 62
         7
100
AcDbMText
 10
7.2775704639
 20
2.6677099861
 30
0.0
 40
0.09375
 41
0.0
 71
         1
 72
         1
  1
DIFFERENTIAL DRIVE
  7
SLDTEXTSTYLE0
  0
LINE
  5
36B
100
AcDbEntity
  8
0
  6
CONTINUOUS
 62
         7
100
AcDbLine
 10
7.0407712696
 20
5.8790500183
 30
0.0
 11
7.0407712696
 21
5.8629789925
 31
0.0
  0
LINE
  5
36C
100
AcDbEntity
  8
0
  6
CONTINUOUS
 62
         7
100
AcDbLine
 10
7.1103570823
 20
5.7424397689
 30
0.0
 11
7.1242742448
 21
5.73440295
 31
0.0
  0
LINE
  5
36D
100
AcDbEntity
  8
0
  6
CONTINUOUS
 62
         7
100
AcDbLine
 10
7.1833381374
 20
5.7285477052
 30
0.0
 11
7.5034849084
 21
5.9133645021
 31
0.0
  0
LINE
  5
36E
100
AcDbEntity
  8
0
  6
CONTINUOUS
 62
         7
100
AcDbLine
 10
8.3096353933
 20
6.3787452711
 30
0.0
 11
8.5856082965
 21
6.538061037
 31
0.0
  0
LINE
  5
36F
100
AcDbEntity
  8
0
  6
CONTINUOUS
 62
         7
100
AcDbLine
 10
8.4675076588
 20
6.7426395085
 30
0.0
 11
8.1915347556
 21
6.5833237426
 31
0.0
  0
LINE
  5
370
100
AcDbEntity
  8
0
  6
CONTINUOUS
 62
         7
100
AcDbLine
 10
7.3853842707
 20
6.1179429736
 30
0.0
 11
7.0652374997
 21
5.9331261766
 31
0.0
  0
ARC
  5
371
100
AcDbEntity
  8
0
  6
CONTINUOUS
 62
         7
100
AcDbCircle
 10
7.0456076057
 20
5.7854158208
 30
0.0
 40
0.0393700787
100
AcDbArc
 50
180.0
 51
299.7006654284
  0
ARC
  5
372
100
AcDbEntity
  8
0
  6
CONTINUOUS
 62
         7
100
AcDbCircle
 10
7.0456076057
 20
5.7854158208
 30
0.0
 40
0.0393700787
100
AcDbArc
 50
120.2939580389
 51
180.0
  0
ARC
  5
373
100
AcDbEntity
  8
0
  6
CONTINUOUS
 62
         7
100
AcDbCircle
 10
8.61373954
 20
7.0452833629
 30
0.0
 40
0.8188940801
100
AcDbArc
 50
282.1635658709
 51
320.0854479926
  0
ARC
  5
374
100
AcDbEntity
  8
0
  6
CONTINUOUS
 62
         7
100
AcDbCircle
 10
8.9190189154
 20
6.5156246704
 30
0.0
 40
0.8160472209
100
AcDbArc
 50
99.8260484852
 51
137.8680570257
  0
LINE
  5
375
100
AcDbEntity
  8
0
  6
CONTINUOUS
 62
         7
100
AcDbLine
 10
7.0808432343
 20
5.8739460458
 30
0.0
 11
7.0159647653
 21
5.8364925029
 31
0.0
  0
LINE
  5
376
100
AcDbEntity
  8
0
  6
CONTINUOUS
 62
         7
100
AcDbLine
 10
7.0750150842
 20
5.7342032672
 30
0.0
 11
7.1398935532
 21
5.7716568101
 31
0.0
  0
LINE
  5
377
100
AcDbEntity
  8
0
  6
CONTINUOUS
 62
         7
100
AcDbLine
 10
7.5694244312
 20
5.7991415223
 30
0.0
 11
8.2653956725
 21
6.2009171678
 31
0.0
  0
LINE
  5
378
100
AcDbEntity
  8
0
  6
CONTINUOUS
 62
         7
100
AcDbLine
 10
8.0154159893
 20
6.633941599
 30
0.0
 11
7.319444748
 21
6.2321659534
 31
0.0
  0
POLYLINE
  5
379
100
AcDbEntity
  8
0
  6
CONTINUOUS
 62
         7
100
AcDb2dPolyline
 66
         1
 10
0.0
 20
0.0
 30
0.0
 70
       128
  0
VERTEX
  5
37A
100
AcDbEntity
  8
0
100
AcDbVertex
100
AcDb2dVertex
 10
8.2815243027
 20
7.0438972983
 30
0.0
  0
VERTEX
  5
37B
100
AcDbEntity
  8
0
100
AcDbVertex
100
AcDb2dVertex
 10
8.2730337511
 20
7.039310842
 30
0.0
  0
VERTEX
  5
37C
100
AcDbEntity
  8
0
100
AcDbVertex
100
AcDb2dVertex
 10
8.2510295234
 20
7.0231294289
 30
0.0
  0
VERTEX
  5
37D
100
AcDbEntity
  8
0
100
AcDbVertex
100
AcDb2dVertex
 10
8.2313289245
 20
7.0040318165
 30
0.0
  0
VERTEX
  5
37E
100
AcDbEntity
  8
0
100
AcDbVertex
100
AcDb2dVertex
 10
8.2139977163
 20
6.9821531915
 30
0.0
  0
VERTEX
  5
37F
100
AcDbEntity
  8
0
100
AcDbVertex
100
AcDb2dVertex
 10
8.1991008022
 20
6.9575774915
 30
0.0
  0
VERTEX
  5
380
100
AcDbEntity
  8
0
100
AcDbVertex
100
AcDb2dVertex
 10
8.1867324789
 20
6.9303816362
 30
0.0
  0
VERTEX
  5
381
100
AcDbEntity
  8
0
100
AcDbVertex
100
AcDb2dVertex
 10
8.1770144671
 20
6.9006817587
 30
0.0
  0
VERTEX
  5
382
100
AcDbEntity
  8
0
100
AcDbVertex
100
AcDb2dVertex
 10
8.1700745665
 20
6.868671716
 30
0.0
  0
VERTEX
  5
383
100
AcDbEntity
  8
0
100
AcDbVertex
100
AcDb2dVertex
 10
8.1660148884
 20
6.8346323044
 30
0.0
  0
VERTEX
  5
384
100
AcDbEntity
  8
0
100
AcDbVertex
100
AcDb2dVertex
 10
8.1648870795
 20
6.7989063006
 30
0.0
  0
VERTEX
  5
385
100
AcDbEntity
  8
0
100
AcDbVertex
100
AcDb2dVertex
 10
8.166686422
 20
6.7618583338
 30
0.0
  0
VERTEX
  5
386
100
AcDbEntity
  8
0
100
AcDbVertex
100
AcDb2dVertex
 10
8.1713589266
 20
6.723862522
 30
0.0
  0
VERTEX
  5
387
100
AcDbEntity
  8
0
100
AcDbVertex
100
AcDb2dVertex
 10
8.1788191918
 20
6.6852491201
 30
0.0
  0
VERTEX
  5
388
100
AcDbEntity
  8
0
100
AcDbVertex
100
AcDb2dVertex
 10
8.1889653645
 20
6.6463212651
 30
0.0
  0
VERTEX
  5
389
100
AcDbEntity
  8
0
100
AcDbVertex
100
AcDb2dVertex
 10
8.2016840137
 20
6.6073708986
 30
0.0
  0
VERTEX
  5
38A
100
AcDbEntity
  8
0
100
AcDbVertex
100
AcDb2dVertex
 10
8.2074988263
 20
6.5925396044
 30
0.0
  0
SEQEND
  5
38B
100
AcDbEntity
  8
0
  0
ARC
  5
38C
100
AcDbEntity
  8
0
  6
CONTINUOUS
 62
         7
100
AcDbCircle
 10
8.7064409534
 20
6.6600269904
 30
0.0
 40
0.4682814912
100
AcDbArc
 50
215.5384006954
 51
259.9068267736
  0
ARC
  5
38D
100
AcDbEntity
  8
0
  6
CONTINUOUS
 62
         7
100
AcDbCircle
 10
8.6477232026
 20
6.4106210387
 30
0.0
 40
0.2129125246
100
AcDbArc
 50
263.7041963341
 51
299.3501116481
  0
LINE
  5
38E
100
AcDbEntity
  8
0
  6
CONTINUOUS
 62
         7
100
AcDbLine
 10
8.7521654559
 20
6.2250780067
 30
0.0
 11
8.808109276
 21
6.2573733408
 31
0.0
  0
LINE
  5
38F
100
AcDbEntity
  8
0
  6
CONTINUOUS
 62
         7
100
AcDbLine
 10
8.3357067251
 20
7.0756872265
 30
0.0
 11
8.2800290258
 21
7.0435451749
 31
0.0
  0
POLYLINE
  5
390
100
AcDbEntity
  8
0
  6
CONTINUOUS
 62
         7
100
AcDb2dPolyline
 66
         1
 10
0.0
 20
0.0
 30
0.0
 70
       128
  0
VERTEX
  5
391
100
AcDbEntity
  8
0
100
AcDbVertex
100
AcDb2dVertex
 10
9.2572093794
 20
6.5269569336
 30
0.0
  0
VERTEX
  5
392
100
AcDbEntity
  8
0
100
AcDbVertex
100
AcDb2dVertex
 10
9.2575618003
 20
6.5273017767
 30
0.0
  0
VERTEX
  5
393
100
AcDbEntity
  8
0
100
AcDbVertex
100
AcDb2dVertex
 10
9.2736198493
 20
6.5481717358
 30
0.0
  0
VERTEX
  5
394
100
AcDbEntity
  8
0
100
AcDbVertex
100
AcDb2dVertex
 10
9.287316813
 20
6.571869135
 30
0.0
  0
VERTEX
  5
395
100
AcDbEntity
  8
0
100
AcDbVertex
100
AcDb2dVertex
 10
9.2985401736
 20
6.5982446014
 30
0.0
  0
VERTEX
  5
396
100
AcDbEntity
  8
0
100
AcDbVertex
100
AcDb2dVertex
 10
9.30718136
 20
6.6271029298
 30
0.0
  0
VERTEX
  5
397
100
AcDbEntity
  8
0
100
AcDbVertex
100
AcDb2dVertex
 10
9.3131526756
 20
6.6582042023
 30
0.0
  0
VERTEX
  5
398
100
AcDbEntity
  8
0
100
AcDbVertex
100
AcDb2dVertex
 10
9.3163977173
 20
6.6912770301
 30
0.0
  0
VERTEX
  5
399
100
AcDbEntity
  8
0
100
AcDbVertex
100
AcDb2dVertex
 10
9.3168930689
 20
6.7260331052
 30
0.0
  0
VERTEX
  5
39A
100
AcDbEntity
  8
0
100
AcDbVertex
100
AcDb2dVertex
 10
9.314645112
 20
6.762174117
 30
0.0
  0
VERTEX
  5
39B
100
AcDbEntity
  8
0
100
AcDbVertex
100
AcDb2dVertex
 10
9.3096859715
 20
6.7993988205
 30
0.0
  0
VERTEX
  5
39C
100
AcDbEntity
  8
0
100
AcDbVertex
100
AcDb2dVertex
 10
9.3020686636
 20
6.8374095451
 30
0.0
  0
VERTEX
  5
39D
100
AcDbEntity
  8
0
100
AcDbVertex
100
AcDb2dVertex
 10
9.2918650448
 20
6.8759062164
 30
0.0
  0
VERTEX
  5
39E
100
AcDbEntity
  8
0
100
AcDbVertex
100
AcDb2dVertex
 10
9.2791648717
 20
6.9145869409
 30
0.0
  0
VERTEX
  5
39F
100
AcDbEntity
  8
0
100
AcDbVertex
100
AcDb2dVertex
 10
9.2640751752
 20
6.9531491573
 30
0.0
  0
VERTEX
  5
3A0
100
AcDbEntity
  8
0
100
AcDbVertex
100
AcDb2dVertex
 10
9.24671966
 20
6.991291267
 30
0.0
  0
VERTEX
  5
3A1
100
AcDbEntity
  8
0
100
AcDbVertex
100
AcDb2dVertex
 10
9.227237974
 20
7.0287145923
 30
0.0
  0
VERTEX
  5
3A2
100
AcDbEntity
  8
0
100
AcDbVertex
100
AcDb2dVertex
 10
9.2057847836
 20
7.0651255156
 30
0.0
  0
VERTEX
  5
3A3
100
AcDbEntity
  8
0
100
AcDbVertex
100
AcDb2dVertex
 10
9.1825288546
 20
7.1002373686
 30
0.0
  0
VERTEX
  5
3A4
100
AcDbEntity
  8
0
100
AcDbVertex
100
AcDb2dVertex
 10
9.157652453
 20
7.1337718215
 30
0.0
  0
VERTEX
  5
3A5
100
AcDbEntity
  8
0
100
AcDbVertex
100
AcDb2dVertex
 10
9.1313479053
 20
7.1654637395
 30
0.0
  0
VERTEX
  5
3A6
100
AcDbEntity
  8
0
100
AcDbVertex
100
AcDb2dVertex
 10
9.103816849
 20
7.1950614012
 30
0.0
  0
VERTEX
  5
3A7
100
AcDbEntity
  8
0
100
AcDbVertex
100
AcDb2dVertex
 10
9.0752685093
 20
7.2223280841
 30
0.0
  0
VERTEX
  5
3A8
100
AcDbEntity
  8
0
100
AcDbVertex
100
AcDb2dVertex
 10
9.0459180091
 20
7.2470433133
 30
0.0
  0
VERTEX
  5
3A9
100
AcDbEntity
  8
0
100
AcDbVertex
100
AcDb2dVertex
 10
9.0159848819
 20
7.2690037151
 30
0.0
  0
VERTEX
  5
3AA
100
AcDbEntity
  8
0
100
AcDbVertex
100
AcDb2dVertex
 10
8.9856920532
 20
7.2880234623
 30
0.0
  0
VERTEX
  5
3AB
100
AcDbEntity
  8
0
100
AcDbVertex
100
AcDb2dVertex
 10
8.955265691
 20
7.3039344304
 30
0.0
  0
VERTEX
  5
3AC
100
AcDbEntity
  8
0
100
AcDbVertex
100
AcDb2dVertex
 10
8.9249364354
 20
7.3165864678
 30
0.0
  0
VERTEX
  5
3AD
100
AcDbEntity
  8
0
100
AcDbVertex
100
AcDb2dVertex
 10
8.8949515578
 20
7.3258463946
 30
0.0
  0
VERTEX
  5
3AE
100
AcDbEntity
  8
0
100
AcDbVertex
100
AcDb2dVertex
 10
8.8655657635
 20
7.3316091305
 30
0.0
  0
VERTEX
  5
3AF
100
AcDbEntity
  8
0
100
AcDbVertex
100
AcDb2dVertex
 10
8.8544053375
 20
7.3328847603
 30
0.0
  0
SEQEND
  5
3B0
100
AcDbEntity
  8
0
  0
ARC
  5
3B1
100
AcDbEntity
  8
0
  6
CONTINUOUS
 62
         7
100
AcDbCircle
 10
8.8340582882
 20
7.1611883156
 30
0.0
 40
0.1728978645
100
AcDbArc
 50
83.2416293492
 51
102.9288234585
  0
LINE
  5
3B2
100
AcDbEntity
  8
0
  6
CONTINUOUS
 62
         7
100
AcDbLine
 10
8.8799775491
 20
7.3376097526
 30
0.0
 11
8.8685643967
 21
7.33102108
 31
0.0
  0
LINE
  5
3B3
100
AcDbEntity
  8
0
  6
CONTINUOUS
 62
         7
100
AcDbLine
 10
9.2954527913
 20
6.5909890965
 30
0.0
 11
9.3071081888
 21
6.5977176142
 31
0.0
  0
ARC
  5
3B4
100
AcDbEntity
  8
0
  6
CONTINUOUS
 62
         7
100
AcDbCircle
 10
9.2250170116
 20
6.9068941113
 30
0.0
 40
0.3542742048
100
AcDbArc
 50
278.6896154582
 51
296.0657542671
  0
ARC
  5
3B5
100
AcDbEntity
  8
0
  6
CONTINUOUS
 62
         7
100
AcDbCircle
 10
9.1193502592
 20
7.0973707333
 30
0.0
 40
0.3735644776
100
AcDbArc
 50
124.2679753038
 51
140.8191427062
  0
LINE
  5
3B6
100
AcDbEntity
  8
0
  6
CONTINUOUS
 62
         7
100
AcDbLine
 10
9.1696867848
 20
7.5571336671
 30
0.0
 11
8.9191371379
 21
7.4124944347
 31
0.0
  0
LINE
  5
3B7
100
AcDbEntity
  8
0
  6
CONTINUOUS
 62
         7
100
AcDbLine
 10
9.3915396888
 20
6.594180549
 30
0.0
 11
9.6420893356
 21
6.7388197814
 31
0.0
  0
LINE
  5
3B8
100
AcDbEntity
  8
0
  6
CONTINUOUS
 62
         7
100
AcDbLine
 10
9.9515295134
 20
7.0683936799
 30
0.0
 11
9.9515295134
 21
7.0740500055
 31
0.0
  0
LINE
  5
3B9
100
AcDbEntity
  8
0
  6
CONTINUOUS
 62
         7
100
AcDbLine
 10
9.6147341802
 20
7.657459848
 30
0.0
 11
9.6097797249
 21
7.660320924
 31
0.0
  0
ARC
  5
3BA
100
AcDbEntity
  8
0
  6
CONTINUOUS
 62
         7
100
AcDbCircle
 10
9.4757170283
 20
7.51432941
 30
0.0
 40
0.7535862724
100
AcDbArc
 50
305.243207521
 51
318.2123739818
  0
ARC
  5
3BB
100
AcDbEntity
  8
0
  6
CONTINUOUS
 62
         7
100
AcDbCircle
 10
9.760421545
 20
7.0162504493
 30
0.0
 40
0.7628583668
100
AcDbArc
 50
101.8221029666
 51
114.7359667108
  0
POLYLINE
  5
3BC
100
AcDbEntity
  8
0
  6
CONTINUOUS
 62
         7
100
AcDb2dPolyline
 66
         1
 10
0.0
 20
0.0
 30
0.0
 70
       128
  0
VERTEX
  5
3BD
100
AcDbEntity
  8
0
100
AcDbVertex
100
AcDb2dVertex
 10
10.0393358014
 20
7.0140854838
 30
0.0
  0
VERTEX
  5
3BE
100
AcDbEntity
  8
0
100
AcDbVertex
100
AcDb2dVertex
 10
10.0414813495
 20
7.0162824035
 30
0.0
  0
VERTEX
  5
3BF
100
AcDbEntity
  8
0
100
AcDbVertex
100
AcDb2dVertex
 10
10.0572644309
 20
7.0376597719
 30
0.0
  0
VERTEX
  5
3C0
100
AcDbEntity
  8
0
100
AcDbVertex
100
AcDb2dVertex
 10
10.0706241242
 20
7.0617675186
 30
0.0
  0
VERTEX
  5
3C1
100
AcDbEntity
  8
0
100
AcDbVertex
100
AcDb2dVertex
 10
10.0814484788
 20
7.0884976769
 30
0.0
  0
VERTEX
  5
3C2
100
AcDbEntity
  8
0
100
AcDbVertex
100
AcDb2dVertex
 10
10.0896100901
 20
7.1176792191
 30
0.0
  0
VERTEX
  5
3C3
100
AcDbEntity
  8
0
100
AcDbVertex
100
AcDb2dVertex
 10
10.0949961649
 20
7.1490609418
 30
0.0
  0
VERTEX
  5
3C4
100
AcDbEntity
  8
0
100
AcDbVertex
100
AcDb2dVertex
 10
10.0975354436
 20
7.1823276637
 30
0.0
  0
VERTEX
  5
3C5
100
AcDbEntity
  8
0
100
AcDbVertex
100
AcDb2dVertex
 10
10.0972083686
 20
7.2171339281
 30
0.0
  0
VERTEX
  5
3C6
100
AcDbEntity
  8
0
100
AcDbVertex
100
AcDb2dVertex
 10
10.0940422918
 20
7.2531247791
 30
0.0
  0
VERTEX
  5
3C7
100
AcDbEntity
  8
0
100
AcDbVertex
100
AcDb2dVertex
 10
10.0881004117
 20
7.2899585621
 30
0.0
  0
VERTEX
  5
3C8
100
AcDbEntity
  8
0
100
AcDbVertex
100
AcDb2dVertex
 10
10.0794672768
 20
7.3273212574
 30
0.0
  0
VERTEX
  5
3C9
100
AcDbEntity
  8
0
100
AcDbVertex
100
AcDb2dVertex
 10
10.0682434925
 20
7.3649058766
 30
0.0
  0
VERTEX
  5
3CA
100
AcDbEntity
  8
0
100
AcDbVertex
100
AcDb2dVertex
 10
10.054543744
 20
7.4024094418
 30
0.0
  0
VERTEX
  5
3CB
100
AcDbEntity
  8
0
100
AcDbVertex
100
AcDb2dVertex
 10
10.0420222191
 20
7.4318528999
 30
0.0
  0
SEQEND
  5
3CC
100
AcDbEntity
  8
0
  0
POLYLINE
  5
3CD
100
AcDbEntity
  8
0
  6
CONTINUOUS
 62
         7
100
AcDb2dPolyline
 66
         1
 10
0.0
 20
0.0
 30
0.0
 70
       128
  0
VERTEX
  5
3CE
100
AcDbEntity
  8
0
100
AcDbVertex
100
AcDb2dVertex
 10
10.0420222191
 20
7.4318528999
 30
0.0
  0
VERTEX
  5
3CF
100
AcDbEntity
  8
0
100
AcDbVertex
100
AcDb2dVertex
 10
10.0328475144
 20
7.4513638761
 30
0.0
  0
VERTEX
  5
3D0
100
AcDbEntity
  8
0
100
AcDbVertex
100
AcDb2dVertex
 10
10.0139187748
 20
7.4875178327
 30
0.0
  0
VERTEX
  5
3D1
100
AcDbEntity
  8
0
100
AcDbVertex
100
AcDb2dVertex
 10
9.9929846007
 20
7.5226155271
 30
0.0
  0
VERTEX
  5
3D2
100
AcDbEntity
  8
0
100
AcDbVertex
100
AcDb2dVertex
 10
9.9702187784
 20
7.556362283
 30
0.0
  0
VERTEX
  5
3D3
100
AcDbEntity
  8
0
100
AcDbVertex
100
AcDb2dVertex
 10
9.9458029087
 20
7.5884783867
 30
0.0
  0
VERTEX
  5
3D4
100
AcDbEntity
  8
0
100
AcDbVertex
100
AcDb2dVertex
 10
9.9199240481
 20
7.6186989073
 30
0.0
  0
VERTEX
  5
3D5
100
AcDbEntity
  8
0
100
AcDbVertex
100
AcDb2dVertex
 10
9.8927751573
 20
7.6467706657
 30
0.0
  0
VERTEX
  5
3D6
100
AcDbEntity
  8
0
100
AcDbVertex
100
AcDb2dVertex
 10
9.8645532556
 20
7.6724527624
 30
0.0
  0
VERTEX
  5
3D7
100
AcDbEntity
  8
0
100
AcDbVertex
100
AcDb2dVertex
 10
9.835458109
 20
7.6955161896
 30
0.0
  0
VERTEX
  5
3D8
100
AcDbEntity
  8
0
100
AcDbVertex
100
AcDb2dVertex
 10
9.8056922418
 20
7.7157424075
 30
0.0
  0
VERTEX
  5
3D9
100
AcDbEntity
  8
0
100
AcDbVertex
100
AcDb2dVertex
 10
9.775463521
 20
7.7329211197
 30
0.0
  0
VERTEX
  5
3DA
100
AcDbEntity
  8
0
100
AcDbVertex
100
AcDb2dVertex
 10
9.7449920064
 20
7.7468483664
 30
0.0
  0
VERTEX
  5
3DB
100
AcDbEntity
  8
0
100
AcDbVertex
100
AcDb2dVertex
 10
9.7145437492
 20
7.7573217102
 30
0.0
  0
VERTEX
  5
3DC
100
AcDbEntity
  8
0
100
AcDbVertex
100
AcDb2dVertex
 10
9.684421415
 20
7.7641669873
 30
0.0
  0
VERTEX
  5
3DD
100
AcDbEntity
  8
0
100
AcDbVertex
100
AcDb2dVertex
 10
9.6549743894
 20
7.7672602917
 30
0.0
  0
VERTEX
  5
3DE
100
AcDbEntity
  8
0
100
AcDbVertex
100
AcDb2dVertex
 10
9.6265861378
 20
7.766559819
 30
0.0
  0
VERTEX
  5
3DF
100
AcDbEntity
  8
0
100
AcDbVertex
100
AcDb2dVertex
 10
9.6047446383
 20
7.7629681444
 30
0.0
  0
SEQEND
  5
3E0
100
AcDbEntity
  8
0
  0
POLYLINE
  5
3E1
100
AcDbEntity
  8
0
  6
CONTINUOUS
 62
         7
100
AcDb2dPolyline
 66
         1
 10
0.0
 20
0.0
 30
0.0
 70
       128
  0
VERTEX
  5
3E2
100
AcDbEntity
  8
0
100
AcDbVertex
100
AcDb2dVertex
 10
7.1137037791
 20
5.9326112205
 30
0.0
  0
VERTEX
  5
3E3
100
AcDbEntity
  8
0
100
AcDbVertex
100
AcDb2dVertex
 10
7.1295732209
 20
5.924034249
 30
0.0
  0
VERTEX
  5
3E4
100
AcDbEntity
  8
0
100
AcDbVertex
100
AcDb2dVertex
 10
7.1452516345
 20
5.9120888839
 30
0.0
  0
VERTEX
  5
3E5
100
AcDbEntity
  8
0
100
AcDbVertex
100
AcDb2dVertex
 10
7.1601723611
 20
5.8972068619
 30
0.0
  0
VERTEX
  5
3E6
100
AcDbEntity
  8
0
100
AcDbVertex
100
AcDb2dVertex
 10
7.1737961269
 20
5.879926058
 30
0.0
  0
VERTEX
  5
3E7
100
AcDbEntity
  8
0
100
AcDbVertex
100
AcDb2dVertex
 10
7.1856305335
 20
5.8608710456
 30
0.0
  0
VERTEX
  5
3E8
100
AcDbEntity
  8
0
100
AcDbVertex
100
AcDb2dVertex
 10
7.1952478545
 20
5.8407305223
 30
0.0
  0
VERTEX
  5
3E9
100
AcDbEntity
  8
0
100
AcDbVertex
100
AcDb2dVertex
 10
7.2023004949
 20
5.8202324192
 30
0.0
  0
VERTEX
  5
3EA
100
AcDbEntity
  8
0
100
AcDbVertex
100
AcDb2dVertex
 10
7.206533554
 20
5.8001175912
 30
0.0
  0
VERTEX
  5
3EB
100
AcDbEntity
  8
0
100
AcDbVertex
100
AcDb2dVertex
 10
7.2077940378
 20
5.7811130405
 30
0.0
  0
VERTEX
  5
3EC
100
AcDbEntity
  8
0
100
AcDbVertex
100
AcDb2dVertex
 10
7.2060363894
 20
5.7639056411
 30
0.0
  0
VERTEX
  5
3ED
100
AcDbEntity
  8
0
100
AcDbVertex
100
AcDb2dVertex
 10
7.2013241346
 20
5.7491173133
 30
0.0
  0
VERTEX
  5
3EE
100
AcDbEntity
  8
0
100
AcDbVertex
100
AcDb2dVertex
 10
7.1938275866
 20
5.7372825458
 30
0.0
  0
VERTEX
  5
3EF
100
AcDbEntity
  8
0
100
AcDbVertex
100
AcDb2dVertex
 10
7.1838176902
 20
5.7288290778
 30
0.0
  0
VERTEX
  5
3F0
100
AcDbEntity
  8
0
100
AcDbVertex
100
AcDb2dVertex
 10
7.1716562292
 20
5.7240624398
 30
0.0
  0
VERTEX
  5
3F1
100
AcDbEntity
  8
0
100
AcDbVertex
100
AcDb2dVertex
 10
7.1577827503
 20
5.7231549104
 30
0.0
  0
VERTEX
  5
3F2
100
AcDbEntity
  8
0
100
AcDbVertex
100
AcDb2dVertex
 10
7.1426986774
 20
5.7261392902
 30
0.0
  0
VERTEX
  5
3F3
100
AcDbEntity
  8
0
100
AcDbVertex
100
AcDb2dVertex
 10
7.1269491881
 20
5.7329077159
 30
0.0
  0
VERTEX
  5
3F4
100
AcDbEntity
  8
0
100
AcDbVertex
100
AcDb2dVertex
 10
7.1242742448
 20
5.73440295
 30
0.0
  0
SEQEND
  5
3F5
100
AcDbEntity
  8
0
  0
POLYLINE
  5
3F6
100
AcDbEntity
  8
0
  6
CONTINUOUS
 62
         7
100
AcDb2dPolyline
 66
         1
 10
0.0
 20
0.0
 30
0.0
 70
       128
  0
VERTEX
  5
3F7
100
AcDbEntity
  8
0
100
AcDbVertex
100
AcDb2dVertex
 10
7.0407712696
 20
5.8790500183
 30
0.0
  0
VERTEX
  5
3F8
100
AcDbEntity
  8
0
100
AcDbVertex
100
AcDb2dVertex
 10
7.0412845784
 20
5.8894298542
 30
0.0
  0
VERTEX
  5
3F9
100
AcDbEntity
  8
0
100
AcDbVertex
100
AcDb2dVertex
 10
7.0445342448
 20
5.9055004869
 30
0.0
  0
VERTEX
  5
3FA
100
AcDbEntity
  8
0
100
AcDbVertex
100
AcDb2dVertex
 10
7.0506664131
 20
5.9188725844
 30
0.0
  0
VERTEX
  5
3FB
100
AcDbEntity
  8
0
100
AcDbVertex
100
AcDb2dVertex
 10
7.0594594509
 20
5.9290628445
 30
0.0
  0
VERTEX
  5
3FC
100
AcDbEntity
  8
0
100
AcDbVertex
100
AcDb2dVertex
 10
7.0705955547
 20
5.9357029644
 30
0.0
  0
VERTEX
  5
3FD
100
AcDbEntity
  8
0
100
AcDbVertex
100
AcDb2dVertex
 10
7.0836722369
 20
5.9385529531
 30
0.0
  0
VERTEX
  5
3FE
100
AcDbEntity
  8
0
100
AcDbVertex
100
AcDb2dVertex
 10
7.098216872
 20
5.9375098044
 30
0.0
  0
VERTEX
  5
3FF
100
AcDbEntity
  8
0
100
AcDbVertex
100
AcDb2dVertex
 10
7.1137037791
 20
5.9326112205
 30
0.0
  0
SEQEND
  5
400
100
AcDbEntity
  8
0
  0
POLYLINE
  5
401
100
AcDbEntity
  8
0
  6
CONTINUOUS
 62
         7
100
AcDb2dPolyline
 66
         1
 10
0.0
 20
0.0
 30
0.0
 70
       128
  0
VERTEX
  5
402
100
AcDbEntity
  8
0
100
AcDbVertex
100
AcDb2dVertex
 10
7.1015483608
 20
5.9076133277
 30
0.0
  0
VERTEX
  5
403
100
AcDbEntity
  8
0
100
AcDbVertex
100
AcDb2dVertex
 10
7.0873877121
 20
5.9119284278
 30
0.0
  0
VERTEX
  5
404
100
AcDbEntity
  8
0
100
AcDbVertex
100
AcDb2dVertex
 10
7.0742314295
 20
5.9123482504
 30
0.0
  0
VERTEX
  5
405
100
AcDbEntity
  8
0
100
AcDbVertex
100
AcDb2dVertex
 10
7.0626545056
 20
5.9088544471
 30
0.0
  0
VERTEX
  5
406
100
AcDbEntity
  8
0
100
AcDbVertex
100
AcDb2dVertex
 10
7.0531629075
 20
5.9015997139
 30
0.0
  0
VERTEX
  5
407
100
AcDbEntity
  8
0
100
AcDbVertex
100
AcDb2dVertex
 10
7.0461714637
 20
5.8909011176
 30
0.0
  0
VERTEX
  5
408
100
AcDbEntity
  8
0
100
AcDbVertex
100
AcDb2dVertex
 10
7.0419857339
 20
5.877226238
 30
0.0
  0
VERTEX
  5
409
100
AcDbEntity
  8
0
100
AcDbVertex
100
AcDb2dVertex
 10
7.0407886543
 20
5.8611727331
 30
0.0
  0
VERTEX
  5
40A
100
AcDbEntity
  8
0
100
AcDbVertex
100
AcDb2dVertex
 10
7.0414699563
 20
5.8512163363
 30
0.0
  0
SEQEND
  5
40B
100
AcDbEntity
  8
0
  0
POLYLINE
  5
40C
100
AcDbEntity
  8
0
  6
CONTINUOUS
 62
         7
100
AcDb2dPolyline
 66
         1
 10
0.0
 20
0.0
 30
0.0
 70
       128
  0
VERTEX
  5
40D
100
AcDbEntity
  8
0
100
AcDbVertex
100
AcDb2dVertex
 10
7.1005202752
 20
5.7489271005
 30
0.0
  0
VERTEX
  5
40E
100
AcDbEntity
  8
0
100
AcDbVertex
100
AcDb2dVertex
 10
7.1046423002
 20
5.7460113154
 30
0.0
  0
VERTEX
  5
40F
100
AcDbEntity
  8
0
100
AcDbVertex
100
AcDb2dVertex
 10
7.1191884267
 20
5.7379895283
 30
0.0
  0
VERTEX
  5
410
100
AcDbEntity
  8
0
100
AcDbVertex
100
AcDb2dVertex
 10
7.1333490754
 20
5.7336744281
 30
0.0
  0
VERTEX
  5
411
100
AcDbEntity
  8
0
100
AcDbVertex
100
AcDb2dVertex
 10
7.146505358
 20
5.7332546056
 30
0.0
  0
VERTEX
  5
412
100
AcDbEntity
  8
0
100
AcDbVertex
100
AcDb2dVertex
 10
7.1580822819
 20
5.7367484089
 30
0.0
  0
VERTEX
  5
413
100
AcDbEntity
  8
0
100
AcDbVertex
100
AcDb2dVertex
 10
7.16757388
 20
5.744003142
 30
0.0
  0
VERTEX
  5
414
100
AcDbEntity
  8
0
100
AcDbVertex
100
AcDb2dVertex
 10
7.1745653238
 20
5.7547017383
 30
0.0
  0
VERTEX
  5
415
100
AcDbEntity
  8
0
100
AcDbVertex
100
AcDb2dVertex
 10
7.1787510536
 20
5.7683766179
 30
0.0
  0
VERTEX
  5
416
100
AcDbEntity
  8
0
100
AcDbVertex
100
AcDb2dVertex
 10
7.1799481332
 20
5.7844301228
 30
0.0
  0
VERTEX
  5
417
100
AcDbEntity
  8
0
100
AcDbVertex
100
AcDb2dVertex
 10
7.1781042442
 20
5.8021606379
 30
0.0
  0
VERTEX
  5
418
100
AcDbEntity
  8
0
100
AcDbVertex
100
AcDb2dVertex
 10
7.1732999735
 20
5.8207932545
 30
0.0
  0
VERTEX
  5
419
100
AcDbEntity
  8
0
100
AcDbVertex
100
AcDb2dVertex
 10
7.1657452908
 20
5.839513638
 30
0.0
  0
VERTEX
  5
41A
100
AcDbEntity
  8
0
100
AcDbVertex
100
AcDb2dVertex
 10
7.155770372
 20
5.8575036177
 30
0.0
  0
VERTEX
  5
41B
100
AcDbEntity
  8
0
100
AcDbVertex
100
AcDb2dVertex
 10
7.1438111689
 20
5.8739769452
 30
0.0
  0
VERTEX
  5
41C
100
AcDbEntity
  8
0
100
AcDbVertex
100
AcDb2dVertex
 10
7.130390356
 20
5.888213657
 30
0.0
  0
VERTEX
  5
41D
100
AcDbEntity
  8
0
100
AcDbVertex
100
AcDb2dVertex
 10
7.1160944873
 20
5.8995915405
 30
0.0
  0
VERTEX
  5
41E
100
AcDbEntity
  8
0
100
AcDbVertex
100
AcDb2dVertex
 10
7.1015483608
 20
5.9076133277
 30
0.0
  0
SEQEND
  5
41F
100
AcDbEntity
  8
0
  0
POLYLINE
  5
420
100
AcDbEntity
  8
0
  6
CONTINUOUS
 62
       144
100
AcDb2dPolyline
 66
         1
 10
0.0
 20
0.0
 30
0.0
 70
       128
  0
VERTEX
  5
421
100
AcDbEntity
  8
0
100
AcDbVertex
100
AcDb2dVertex
 10
7.105076374
 20
5.8736885678
 30
0.0
  0
VERTEX
  5
422
100
AcDbEntity
  8
0
100
AcDbVertex
100
AcDb2dVertex
 10
7.1164480273
 20
5.8669988431
 30
0.0
  0
VERTEX
  5
423
100
AcDbEntity
  8
0
100
AcDbVertex
100
AcDb2dVertex
 10
7.1273687821
 20
5.8570311984
 30
0.0
  0
VERTEX
  5
424
100
AcDbEntity
  8
0
100
AcDbVertex
100
AcDb2dVertex
 10
7.1370286958
 20
5.8445248881
 30
0.0
  0
VERTEX
  5
425
100
AcDbEntity
  8
0
100
AcDbVertex
100
AcDb2dVertex
 10
7.1447113368
 20
5.8304074483
 30
0.0
  0
VERTEX
  5
426
100
AcDbEntity
  8
0
100
AcDbVertex
100
AcDb2dVertex
 10
7.1498469189
 20
5.8157259046
 30
0.0
  0
VERTEX
  5
427
100
AcDbEntity
  8
0
100
AcDbVertex
100
AcDb2dVertex
 10
7.1520545594
 20
5.8015691202
 30
0.0
  0
VERTEX
  5
428
100
AcDbEntity
  8
0
100
AcDbVertex
100
AcDb2dVertex
 10
7.1511705277
 20
5.7889870389
 30
0.0
  0
VERTEX
  5
429
100
AcDbEntity
  8
0
100
AcDbVertex
100
AcDb2dVertex
 10
7.1472603883
 20
5.7789128162
 30
0.0
  0
VERTEX
  5
42A
100
AcDbEntity
  8
0
100
AcDbVertex
100
AcDb2dVertex
 10
7.1406141385
 20
5.772093611
 30
0.0
  0
VERTEX
  5
42B
100
AcDbEntity
  8
0
100
AcDbVertex
100
AcDb2dVertex
 10
7.1398935532
 20
5.7716568101
 30
0.0
  0
SEQEND
  5
42C
100
AcDbEntity
  8
0
  0
POLYLINE
  5
42D
100
AcDbEntity
  8
0
  6
CONTINUOUS
 62
       144
100
AcDb2dPolyline
 66
         1
 10
0.0
 20
0.0
 30
0.0
 70
       128
  0
VERTEX
  5
42E
100
AcDbEntity
  8
0
100
AcDbVertex
100
AcDb2dVertex
 10
7.0808432343
 20
5.8739460458
 30
0.0
  0
VERTEX
  5
42F
100
AcDbEntity
  8
0
100
AcDbVertex
100
AcDb2dVertex
 10
7.0843247967
 20
5.875529577
 30
0.0
  0
VERTEX
  5
430
100
AcDbEntity
  8
0
100
AcDbVertex
100
AcDb2dVertex
 10
7.0940972055
 20
5.8766042261
 30
0.0
  0
VERTEX
  5
431
100
AcDbEntity
  8
0
100
AcDbVertex
100
AcDb2dVertex
 10
7.105076374
 20
5.8736885678
 30
0.0
  0
SEQEND
  5
432
100
AcDbEntity
  8
0
  0
POLYLINE
  5
433
100
AcDbEntity
  8
0
  6
CONTINUOUS
 62
         7
100
AcDb2dPolyline
 66
         1
 10
0.0
 20
0.0
 30
0.0
 70
       128
  0
VERTEX
  5
434
100
AcDbEntity
  8
0
100
AcDbVertex
100
AcDb2dVertex
 10
8.9616518957
 20
7.2772919579
 30
0.0
  0
VERTEX
  5
435
100
AcDbEntity
  8
0
100
AcDbVertex
100
AcDb2dVertex
 10
8.9934069065
 20
7.2572133961
 30
0.0
  0
VERTEX
  5
436
100
AcDbEntity
  8
0
100
AcDbVertex
100
AcDb2dVertex
 10
9.0248743389
 20
7.2338231004
 30
0.0
  0
VERTEX
  5
437
100
AcDbEntity
  8
0
100
AcDbVertex
100
AcDb2dVertex
 10
9.0557692192
 20
7.2073328968
 30
0.0
  0
VERTEX
  5
438
100
AcDbEntity
  8
0
100
AcDbVertex
100
AcDb2dVertex
 10
9.0858117584
 20
7.1779826849
 30
0.0
  0
VERTEX
  5
439
100
AcDbEntity
  8
0
100
AcDbVertex
100
AcDb2dVertex
 10
9.1147298866
 20
7.1460382645
 30
0.0
  0
VERTEX
  5
43A
100
AcDbEntity
  8
0
100
AcDbVertex
100
AcDb2dVertex
 10
9.1422617169
 20
7.1117889294
 30
0.0
  0
VERTEX
  5
43B
100
AcDbEntity
  8
0
100
AcDbVertex
100
AcDb2dVertex
 10
9.1681579166
 20
7.0755448468
 30
0.0
  0
VERTEX
  5
43C
100
AcDbEntity
  8
0
100
AcDbVertex
100
AcDb2dVertex
 10
9.1921839659
 20
7.0376342488
 30
0.0
  0
VERTEX
  5
43D
100
AcDbEntity
  8
0
100
AcDbVertex
100
AcDb2dVertex
 10
9.214122281
 20
6.9984004596
 30
0.0
  0
VERTEX
  5
43E
100
AcDbEntity
  8
0
100
AcDbVertex
100
AcDb2dVertex
 10
9.2337741852
 20
6.9581987865
 30
0.0
  0
VERTEX
  5
43F
100
AcDbEntity
  8
0
100
AcDbVertex
100
AcDb2dVertex
 10
9.2509617078
 20
6.917393302
 30
0.0
  0
VERTEX
  5
440
100
AcDbEntity
  8
0
100
AcDbVertex
100
AcDb2dVertex
 10
9.265529196
 20
6.876353547
 30
0.0
  0
VERTEX
  5
441
100
AcDbEntity
  8
0
100
AcDbVertex
100
AcDb2dVertex
 10
9.2773447242
 20
6.8354511838
 30
0.0
  0
VERTEX
  5
442
100
AcDbEntity
  8
0
100
AcDbVertex
100
AcDb2dVertex
 10
9.2863012894
 20
6.7950566305
 30
0.0
  0
VERTEX
  5
443
100
AcDbEntity
  8
0
100
AcDbVertex
100
AcDb2dVertex
 10
9.2923177793
 20
6.7555357065
 30
0.0
  0
VERTEX
  5
444
100
AcDbEntity
  8
0
100
AcDbVertex
100
AcDb2dVertex
 10
9.2953397078
 20
6.7172463194
 30
0.0
  0
VERTEX
  5
445
100
AcDbEntity
  8
0
100
AcDbVertex
100
AcDb2dVertex
 10
9.2953397078
 20
6.6805352238
 30
0.0
  0
VERTEX
  5
446
100
AcDbEntity
  8
0
100
AcDbVertex
100
AcDb2dVertex
 10
9.2923177793
 20
6.6457348811
 30
0.0
  0
VERTEX
  5
447
100
AcDbEntity
  8
0
100
AcDbVertex
100
AcDb2dVertex
 10
9.2863012894
 20
6.6131604485
 30
0.0
  0
VERTEX
  5
448
100
AcDbEntity
  8
0
100
AcDbVertex
100
AcDb2dVertex
 10
9.2773447242
 20
6.5831069252
 30
0.0
  0
VERTEX
  5
449
100
AcDbEntity
  8
0
100
AcDbVertex
100
AcDb2dVertex
 10
9.265529196
 20
6.5558464805
 30
0.0
  0
VERTEX
  5
44A
100
AcDbEntity
  8
0
100
AcDbVertex
100
AcDb2dVertex
 10
9.2509617078
 20
6.5316259893
 30
0.0
  0
VERTEX
  5
44B
100
AcDbEntity
  8
0
100
AcDbVertex
100
AcDb2dVertex
 10
9.2415886275
 20
6.5193998259
 30
0.0
  0
SEQEND
  5
44C
100
AcDbEntity
  8
0
  0
POLYLINE
  5
44D
100
AcDbEntity
  8
0
  6
CONTINUOUS
 62
         7
100
AcDb2dPolyline
 66
         1
 10
0.0
 20
0.0
 30
0.0
 70
       128
  0
VERTEX
  5
44E
100
AcDbEntity
  8
0
100
AcDbVertex
100
AcDb2dVertex
 10
8.7793210921
 20
7.3200242827
 30
0.0
  0
VERTEX
  5
44F
100
AcDbEntity
  8
0
100
AcDbVertex
100
AcDb2dVertex
 10
8.7810420745
 20
7.3203165903
 30
0.0
  0
VERTEX
  5
450
100
AcDbEntity
  8
0
100
AcDbVertex
100
AcDb2dVertex
 10
8.8085739047
 20
7.3227783508
 30
0.0
  0
VERTEX
  5
451
100
AcDbEntity
  8
0
100
AcDbVertex
100
AcDb2dVertex
 10
8.837492033
 20
7.321334611
 30
0.0
  0
VERTEX
  5
452
100
AcDbEntity
  8
0
100
AcDbVertex
100
AcDb2dVertex
 10
8.8675345722
 20
7.3159984456
 30
0.0
  0
VERTEX
  5
453
100
AcDbEntity
  8
0
100
AcDbVertex
100
AcDb2dVertex
 10
8.8984294524
 20
7.3068181796
 30
0.0
  0
VERTEX
  5
454
100
AcDbEntity
  8
0
100
AcDbVertex
100
AcDb2dVertex
 10
8.9298968849
 20
7.2938769512
 30
0.0
  0
VERTEX
  5
455
100
AcDbEntity
  8
0
100
AcDbVertex
100
AcDb2dVertex
 10
8.9616518957
 20
7.2772919579
 30
0.0
  0
SEQEND
  5
456
100
AcDbEntity
  8
0
  0
POLYLINE
  5
457
100
AcDbEntity
  8
0
  6
CONTINUOUS
 62
         7
100
AcDb2dPolyline
 66
         1
 10
0.0
 20
0.0
 30
0.0
 70
       128
  0
VERTEX
  5
458
100
AcDbEntity
  8
0
100
AcDbVertex
100
AcDb2dVertex
 10
8.5719080005
 20
7.0522975964
 30
0.0
  0
VERTEX
  5
459
100
AcDbEntity
  8
0
100
AcDbVertex
100
AcDb2dVertex
 10
8.6036630113
 20
7.0322190346
 30
0.0
  0
VERTEX
  5
45A
100
AcDbEntity
  8
0
100
AcDbVertex
100
AcDb2dVertex
 10
8.6351304438
 20
7.0088287389
 30
0.0
  0
VERTEX
  5
45B
100
AcDbEntity
  8
0
100
AcDbVertex
100
AcDb2dVertex
 10
8.666025324
 20
6.9823385353
 30
0.0
  0
VERTEX
  5
45C
100
AcDbEntity
  8
0
100
AcDbVertex
100
AcDb2dVertex
 10
8.6960678632
 20
6.9529883233
 30
0.0
  0
VERTEX
  5
45D
100
AcDbEntity
  8
0
100
AcDbVertex
100
AcDb2dVertex
 10
8.7249859915
 20
6.921043903
 30
0.0
  0
VERTEX
  5
45E
100
AcDbEntity
  8
0
100
AcDbVertex
100
AcDb2dVertex
 10
8.7525178217
 20
6.8867945679
 30
0.0
  0
VERTEX
  5
45F
100
AcDbEntity
  8
0
100
AcDbVertex
100
AcDb2dVertex
 10
8.7784140215
 20
6.8505504853
 30
0.0
  0
VERTEX
  5
460
100
AcDbEntity
  8
0
100
AcDbVertex
100
AcDb2dVertex
 10
8.8024400707
 20
6.8126398873
 30
0.0
  0
VERTEX
  5
461
100
AcDbEntity
  8
0
100
AcDbVertex
100
AcDb2dVertex
 10
8.8243783858
 20
6.7734060981
 30
0.0
  0
VERTEX
  5
462
100
AcDbEntity
  8
0
100
AcDbVertex
100
AcDb2dVertex
 10
8.8440302901
 20
6.733204425
 30
0.0
  0
VERTEX
  5
463
100
AcDbEntity
  8
0
100
AcDbVertex
100
AcDb2dVertex
 10
8.8612178127
 20
6.6923989405
 30
0.0
  0
VERTEX
  5
464
100
AcDbEntity
  8
0
100
AcDbVertex
100
AcDb2dVertex
 10
8.8757853008
 20
6.6513591855
 30
0.0
  0
VERTEX
  5
465
100
AcDbEntity
  8
0
100
AcDbVertex
100
AcDb2dVertex
 10
8.8876008291
 20
6.6104568222
 30
0.0
  0
VERTEX
  5
466
100
AcDbEntity
  8
0
100
AcDbVertex
100
AcDb2dVertex
 10
8.8965573942
 20
6.570062269
 30
0.0
  0
VERTEX
  5
467
100
AcDbEntity
  8
0
100
AcDbVertex
100
AcDb2dVertex
 10
8.9025738842
 20
6.530541345
 30
0.0
  0
VERTEX
  5
468
100
AcDbEntity
  8
0
100
AcDbVertex
100
AcDb2dVertex
 10
8.9055958127
 20
6.4922519579
 30
0.0
  0
VERTEX
  5
469
100
AcDbEntity
  8
0
100
AcDbVertex
100
AcDb2dVertex
 10
8.9055958127
 20
6.4555408623
 30
0.0
  0
VERTEX
  5
46A
100
AcDbEntity
  8
0
100
AcDbVertex
100
AcDb2dVertex
 10
8.9025738842
 20
6.4207405195
 30
0.0
  0
VERTEX
  5
46B
100
AcDbEntity
  8
0
100
AcDbVertex
100
AcDb2dVertex
 10
8.8965573942
 20
6.388166087
 30
0.0
  0
VERTEX
  5
46C
100
AcDbEntity
  8
0
100
AcDbVertex
100
AcDb2dVertex
 10
8.8876008291
 20
6.3581125637
 30
0.0
  0
VERTEX
  5
46D
100
AcDbEntity
  8
0
100
AcDbVertex
100
AcDb2dVertex
 10
8.8757853008
 20
6.330852119
 30
0.0
  0
VERTEX
  5
46E
100
AcDbEntity
  8
0
100
AcDbVertex
100
AcDb2dVertex
 10
8.8612178127
 20
6.3066316278
 30
0.0
  0
VERTEX
  5
46F
100
AcDbEntity
  8
0
100
AcDbVertex
100
AcDb2dVertex
 10
8.8440302901
 20
6.2856704345
 30
0.0
  0
VERTEX
  5
470
100
AcDbEntity
  8
0
100
AcDbVertex
100
AcDb2dVertex
 10
8.8243783858
 20
6.2681583671
 30
0.0
  0
VERTEX
  5
471
100
AcDbEntity
  8
0
100
AcDbVertex
100
AcDb2dVertex
 10
8.808109276
 20
6.2573733408
 30
0.0
  0
SEQEND
  5
472
100
AcDbEntity
  8
0
  0
POLYLINE
  5
473
100
AcDbEntity
  8
0
  6
CONTINUOUS
 62
         7
100
AcDb2dPolyline
 66
         1
 10
0.0
 20
0.0
 30
0.0
 70
       128
  0
VERTEX
  5
474
100
AcDbEntity
  8
0
100
AcDbVertex
100
AcDb2dVertex
 10
8.3357067251
 20
7.0756872265
 30
0.0
  0
VERTEX
  5
475
100
AcDbEntity
  8
0
100
AcDbVertex
100
AcDb2dVertex
 10
8.3413759303
 20
7.07880655
 30
0.0
  0
VERTEX
  5
476
100
AcDbEntity
  8
0
100
AcDbVertex
100
AcDb2dVertex
 10
8.3654019796
 20
7.0889772621
 30
0.0
  0
VERTEX
  5
477
100
AcDbEntity
  8
0
100
AcDbVertex
100
AcDb2dVertex
 10
8.3912981793
 20
7.0953222288
 30
0.0
  0
VERTEX
  5
478
100
AcDbEntity
  8
0
100
AcDbVertex
100
AcDb2dVertex
 10
8.4188300096
 20
7.0977839893
 30
0.0
  0
VERTEX
  5
479
100
AcDbEntity
  8
0
100
AcDbVertex
100
AcDb2dVertex
 10
8.4477481378
 20
7.0963402495
 30
0.0
  0
VERTEX
  5
47A
100
AcDbEntity
  8
0
100
AcDbVertex
100
AcDb2dVertex
 10
8.477790677
 20
7.091004084
 30
0.0
  0
VERTEX
  5
47B
100
AcDbEntity
  8
0
100
AcDbVertex
100
AcDb2dVertex
 10
8.5086855573
 20
7.0818238181
 30
0.0
  0
VERTEX
  5
47C
100
AcDbEntity
  8
0
100
AcDbVertex
100
AcDb2dVertex
 10
8.5401529898
 20
7.0688825896
 30
0.0
  0
VERTEX
  5
47D
100
AcDbEntity
  8
0
100
AcDbVertex
100
AcDb2dVertex
 10
8.5719080005
 20
7.0522975964
 30
0.0
  0
SEQEND
  5
47E
100
AcDbEntity
  8
0
  0
POLYLINE
  5
47F
100
AcDbEntity
  8
0
  6
CONTINUOUS
 62
         7
100
AcDb2dPolyline
 66
         1
 10
0.0
 20
0.0
 30
0.0
 70
       128
  0
VERTEX
  5
480
100
AcDbEntity
  8
0
100
AcDbVertex
100
AcDb2dVertex
 10
7.0435813223
 20
5.8346202179
 30
0.0
  0
VERTEX
  5
481
100
AcDbEntity
  8
0
100
AcDbVertex
100
AcDb2dVertex
 10
7.0323976248
 20
5.8386955078
 30
0.0
  0
VERTEX
  5
482
100
AcDbEntity
  8
0
100
AcDbVertex
100
AcDb2dVertex
 10
7.0221849233
 20
5.8388142486
 30
0.0
  0
VERTEX
  5
483
100
AcDbEntity
  8
0
100
AcDbVertex
100
AcDb2dVertex
 10
7.0137006471
 20
5.8349676338
 30
0.0
  0
VERTEX
  5
484
100
AcDbEntity
  8
0
100
AcDbVertex
100
AcDb2dVertex
 10
7.0075740362
 20
5.8274409493
 30
0.0
  0
VERTEX
  5
485
100
AcDbEntity
  8
0
100
AcDbVertex
100
AcDb2dVertex
 10
7.0042594733
 20
5.8167924147
 30
0.0
  0
VERTEX
  5
486
100
AcDbEntity
  8
0
100
AcDbVertex
100
AcDb2dVertex
 10
7.0040027844
 20
5.8038117832
 30
0.0
  0
VERTEX
  5
487
100
AcDbEntity
  8
0
100
AcDbVertex
100
AcDb2dVertex
 10
7.0065540489
 20
5.7903980691
 30
0.0
  0
SEQEND
  5
488
100
AcDbEntity
  8
0
  0
POLYLINE
  5
489
100
AcDbEntity
  8
0
  6
CONTINUOUS
 62
         7
100
AcDb2dPolyline
 66
         1
 10
0.0
 20
0.0
 30
0.0
 70
       128
  0
VERTEX
  5
48A
100
AcDbEntity
  8
0
100
AcDbVertex
100
AcDb2dVertex
 10
7.0303921734
 20
5.749104752
 30
0.0
  0
VERTEX
  5
48B
100
AcDbEntity
  8
0
100
AcDbVertex
100
AcDb2dVertex
 10
7.0306213607
 20
5.7488707094
 30
0.0
  0
VERTEX
  5
48C
100
AcDbEntity
  8
0
100
AcDbVertex
100
AcDb2dVertex
 10
7.0417006084
 20
5.7395134444
 30
0.0
  0
VERTEX
  5
48D
100
AcDbEntity
  8
0
100
AcDbVertex
100
AcDb2dVertex
 10
7.0530608923
 20
5.7335555102
 30
0.0
  0
VERTEX
  5
48E
100
AcDbEntity
  8
0
100
AcDbVertex
100
AcDb2dVertex
 10
7.0638596723
 20
5.7314387795
 30
0.0
  0
VERTEX
  5
48F
100
AcDbEntity
  8
0
100
AcDbVertex
100
AcDb2dVertex
 10
7.0732960521
 20
5.7333202406
 30
0.0
  0
VERTEX
  5
490
100
AcDbEntity
  8
0
100
AcDbVertex
100
AcDb2dVertex
 10
7.0806701786
 20
5.739060354
 30
0.0
  0
VERTEX
  5
491
100
AcDbEntity
  8
0
100
AcDbVertex
100
AcDb2dVertex
 10
7.0854351467
 20
5.7482334018
 30
0.0
  0
VERTEX
  5
492
100
AcDbEntity
  8
0
100
AcDbVertex
100
AcDb2dVertex
 10
7.0872375604
 20
5.7601590611
 30
0.0
  0
VERTEX
  5
493
100
AcDbEntity
  8
0
100
AcDbVertex
100
AcDb2dVertex
 10
7.0859437429
 20
5.7739528602
 30
0.0
  0
VERTEX
  5
494
100
AcDbEntity
  8
0
100
AcDbVertex
100
AcDb2dVertex
 10
7.0816496508
 20
5.7885917762
 30
0.0
  0
VERTEX
  5
495
100
AcDbEntity
  8
0
100
AcDbVertex
100
AcDb2dVertex
 10
7.0746737572
 20
5.8029901076
 30
0.0
  0
VERTEX
  5
496
100
AcDbEntity
  8
0
100
AcDbVertex
100
AcDb2dVertex
 10
7.0655334323
 20
5.8160799961
 30
0.0
  0
VERTEX
  5
497
100
AcDbEntity
  8
0
100
AcDbVertex
100
AcDb2dVertex
 10
7.0549065722
 20
5.8268906245
 30
0.0
  0
VERTEX
  5
498
100
AcDbEntity
  8
0
100
AcDbVertex
100
AcDb2dVertex
 10
7.0435813223
 20
5.8346202179
 30
0.0
  0
VERTEX
  5
499
100
AcDbEntity
  8
0
100
AcDbVertex
100
AcDb2dVertex
 10
7.0435813223
 20
5.8346202179
 30
0.0
  0
SEQEND
  5
49A
100
AcDbEntity
  8
0
  0
POLYLINE
  5
49B
100
AcDbEntity
  8
0
  6
CONTINUOUS
 62
       144
100
AcDb2dPolyline
 66
         1
 10
0.0
 20
0.0
 30
0.0
 70
       128
  0
VERTEX
  5
49C
100
AcDbEntity
  8
0
100
AcDbVertex
100
AcDb2dVertex
 10
7.0442175231
 20
5.818196107
 30
0.0
  0
VERTEX
  5
49D
100
AcDbEntity
  8
0
100
AcDbVertex
100
AcDb2dVertex
 10
7.0352566523
 20
5.8211520116
 30
0.0
  0
VERTEX
  5
49E
100
AcDbEntity
  8
0
100
AcDbVertex
100
AcDb2dVertex
 10
7.0274047153
 20
5.8202279836
 30
0.0
  0
VERTEX
  5
49F
100
AcDbEntity
  8
0
100
AcDbVertex
100
AcDb2dVertex
 10
7.0257477222
 20
5.8194101707
 30
0.0
  0
SEQEND
  5
4A0
100
AcDbEntity
  8
0
  0
POLYLINE
  5
4A1
100
AcDbEntity
  8
0
  6
CONTINUOUS
 62
       144
100
AcDb2dPolyline
 66
         1
 10
0.0
 20
0.0
 30
0.0
 70
       128
  0
VERTEX
  5
4A2
100
AcDbEntity
  8
0
100
AcDbVertex
100
AcDb2dVertex
 10
7.0651144256
 20
5.7512176516
 30
0.0
  0
VERTEX
  5
4A3
100
AcDbEntity
  8
0
100
AcDbVertex
100
AcDb2dVertex
 10
7.0668120016
 20
5.752369924
 30
0.0
  0
VERTEX
  5
4A4
100
AcDbEntity
  8
0
100
AcDbVertex
100
AcDb2dVertex
 10
7.0714684757
 20
5.7587964347
 30
0.0
  0
VERTEX
  5
4A5
100
AcDbEntity
  8
0
100
AcDbVertex
100
AcDb2dVertex
 10
7.0733097707
 20
5.7681002071
 30
0.0
  0
VERTEX
  5
4A6
100
AcDbEntity
  8
0
100
AcDbVertex
100
AcDb2dVertex
 10
7.0721363538
 20
5.779273033
 30
0.0
  0
VERTEX
  5
4A7
100
AcDbEntity
  8
0
100
AcDbVertex
100
AcDb2dVertex
 10
7.0680753828
 20
5.7911041633
 30
0.0
  0
VERTEX
  5
4A8
100
AcDbEntity
  8
0
100
AcDbVertex
100
AcDb2dVertex
 10
7.0615669269
 20
5.8023115116
 30
0.0
  0
VERTEX
  5
4A9
100
AcDbEntity
  8
0
100
AcDbVertex
100
AcDb2dVertex
 10
7.0533162785
 20
5.8116805878
 30
0.0
  0
VERTEX
  5
4AA
100
AcDbEntity
  8
0
100
AcDbVertex
100
AcDb2dVertex
 10
7.0442175231
 20
5.818196107
 30
0.0
  0
SEQEND
  5
4AB
100
AcDbEntity
  8
0
  0
POLYLINE
  5
4AC
100
AcDbEntity
  8
0
  6
CONTINUOUS
 62
         7
100
AcDb2dPolyline
 66
         1
 10
0.0
 20
0.0
 30
0.0
 70
       128
  0
VERTEX
  5
4AD
100
AcDbEntity
  8
0
100
AcDbVertex
100
AcDb2dVertex
 10
7.4757052519
 20
5.7966855812
 30
0.0
  0
VERTEX
  5
4AE
100
AcDbEntity
  8
0
100
AcDbVertex
100
AcDb2dVertex
 10
7.4981478388
 20
5.7901619434
 30
0.0
  0
VERTEX
  5
4AF
100
AcDbEntity
  8
0
100
AcDbVertex
100
AcDb2dVertex
 10
7.5196713771
 20
5.7874965328
 30
0.0
  0
VERTEX
  5
4B0
100
AcDbEntity
  8
0
100
AcDbVertex
100
AcDb2dVertex
 10
7.5399075931
 20
5.7887349552
 30
0.0
  0
VERTEX
  5
4B1
100
AcDbEntity
  8
0
100
AcDbVertex
100
AcDb2dVertex
 10
7.5585102395
 20
5.7938560209
 30
0.0
  0
VERTEX
  5
4B2
100
AcDbEntity
  8
0
100
AcDbVertex
100
AcDb2dVertex
 10
7.57516102
 20
5.802772107
 30
0.0
  0
VERTEX
  5
4B3
100
AcDbEntity
  8
0
100
AcDbVertex
100
AcDb2dVertex
 10
7.589575035
 20
5.8153306569
 30
0.0
  0
VERTEX
  5
4B4
100
AcDbEntity
  8
0
100
AcDbVertex
100
AcDb2dVertex
 10
7.6015056567
 20
5.8313167902
 30
0.0
  0
VERTEX
  5
4B5
100
AcDbEntity
  8
0
100
AcDbVertex
100
AcDb2dVertex
 10
7.6107487489
 20
5.8504569798
 30
0.0
  0
VERTEX
  5
4B6
100
AcDbEntity
  8
0
100
AcDbVertex
100
AcDb2dVertex
 10
7.6171461597
 20
5.8724237317
 30
0.0
  0
VERTEX
  5
4B7
100
AcDbEntity
  8
0
100
AcDbVertex
100
AcDb2dVertex
 10
7.6205884277
 20
5.8968411888
 30
0.0
  0
VERTEX
  5
4B8
100
AcDbEntity
  8
0
100
AcDbVertex
100
AcDb2dVertex
 10
7.6210166547
 20
5.9232915615
 30
0.0
  0
VERTEX
  5
4B9
100
AcDbEntity
  8
0
100
AcDbVertex
100
AcDb2dVertex
 10
7.6184235136
 20
5.9513222766
 30
0.0
  0
VERTEX
  5
4BA
100
AcDbEntity
  8
0
100
AcDbVertex
100
AcDb2dVertex
 10
7.6128533738
 20
5.9804537209
 30
0.0
  0
VERTEX
  5
4BB
100
AcDbEntity
  8
0
100
AcDbVertex
100
AcDb2dVertex
 10
7.6044015418
 20
6.0101874472
 30
0.0
  0
VERTEX
  5
4BC
100
AcDbEntity
  8
0
100
AcDbVertex
100
AcDb2dVertex
 10
7.593212631
 20
6.0400147033
 30
0.0
  0
VERTEX
  5
4BD
100
AcDbEntity
  8
0
100
AcDbVertex
100
AcDb2dVertex
 10
7.5794780866
 20
6.0694251365
 30
0.0
  0
VERTEX
  5
4BE
100
AcDbEntity
  8
0
100
AcDbVertex
100
AcDb2dVertex
 10
7.5634329106
 20
6.0979155261
 30
0.0
  0
VERTEX
  5
4BF
100
AcDbEntity
  8
0
100
AcDbVertex
100
AcDb2dVertex
 10
7.5453516403
 20
6.1249983938
 30
0.0
  0
VERTEX
  5
4C0
100
AcDbEntity
  8
0
100
AcDbVertex
100
AcDb2dVertex
 10
7.5255436512
 20
6.1502103441
 30
0.0
  0
VERTEX
  5
4C1
100
AcDbEntity
  8
0
100
AcDbVertex
100
AcDb2dVertex
 10
7.5043478637
 20
6.1731199935
 30
0.0
  0
VERTEX
  5
4C2
100
AcDbEntity
  8
0
100
AcDbVertex
100
AcDb2dVertex
 10
7.4821269434
 20
6.1933353517
 30
0.0
  0
VERTEX
  5
4C3
100
AcDbEntity
  8
0
100
AcDbVertex
100
AcDb2dVertex
 10
7.4592610965
 20
6.2105105281
 30
0.0
  0
VERTEX
  5
4C4
100
AcDbEntity
  8
0
100
AcDbVertex
100
AcDb2dVertex
 10
7.4361415639
 20
6.2243516509
 30
0.0
  0
VERTEX
  5
4C5
100
AcDbEntity
  8
0
100
AcDbVertex
100
AcDb2dVertex
 10
7.4131639273
 20
6.2346218945
 30
0.0
  0
VERTEX
  5
4C6
100
AcDbEntity
  8
0
100
AcDbVertex
100
AcDb2dVertex
 10
7.3907213404
 20
6.2411455323
 30
0.0
  0
VERTEX
  5
4C7
100
AcDbEntity
  8
0
100
AcDbVertex
100
AcDb2dVertex
 10
7.3691978021
 20
6.2438109429
 30
0.0
  0
VERTEX
  5
4C8
100
AcDbEntity
  8
0
100
AcDbVertex
100
AcDb2dVertex
 10
7.3489615861
 20
6.2425725205
 30
0.0
  0
VERTEX
  5
4C9
100
AcDbEntity
  8
0
100
AcDbVertex
100
AcDb2dVertex
 10
7.3303589396
 20
6.2374514548
 30
0.0
  0
VERTEX
  5
4CA
100
AcDbEntity
  8
0
100
AcDbVertex
100
AcDb2dVertex
 10
7.3137081592
 20
6.2285353686
 30
0.0
  0
VERTEX
  5
4CB
100
AcDbEntity
  8
0
100
AcDbVertex
100
AcDb2dVertex
 10
7.2992941442
 20
6.2159768188
 30
0.0
  0
VERTEX
  5
4CC
100
AcDbEntity
  8
0
100
AcDbVertex
100
AcDb2dVertex
 10
7.2873635225
 20
6.1999906855
 30
0.0
  0
VERTEX
  5
4CD
100
AcDbEntity
  8
0
100
AcDbVertex
100
AcDb2dVertex
 10
7.2781204303
 20
6.1808504959
 30
0.0
  0
VERTEX
  5
4CE
100
AcDbEntity
  8
0
100
AcDbVertex
100
AcDb2dVertex
 10
7.2717230194
 20
6.158883744
 30
0.0
  0
VERTEX
  5
4CF
100
AcDbEntity
  8
0
100
AcDbVertex
100
AcDb2dVertex
 10
7.2682807514
 20
6.1344662869
 30
0.0
  0
VERTEX
  5
4D0
100
AcDbEntity
  8
0
100
AcDbVertex
100
AcDb2dVertex
 10
7.2678525245
 20
6.1080159142
 30
0.0
  0
VERTEX
  5
4D1
100
AcDbEntity
  8
0
100
AcDbVertex
100
AcDb2dVertex
 10
7.2704456656
 20
6.0799851991
 30
0.0
  0
VERTEX
  5
4D2
100
AcDbEntity
  8
0
100
AcDbVertex
100
AcDb2dVertex
 10
7.2752050272
 20
6.0543378501
 30
0.0
  0
SEQEND
  5
4D3
100
AcDbEntity
  8
0
  0
POLYLINE
  5
4D4
100
AcDbEntity
  8
0
  6
CONTINUOUS
 62
         7
100
AcDb2dPolyline
 66
         1
 10
0.0
 20
0.0
 30
0.0
 70
       128
  0
VERTEX
  5
4D5
100
AcDbEntity
  8
0
100
AcDbVertex
100
AcDb2dVertex
 10
7.3933056649
 20
5.8497593787
 30
0.0
  0
VERTEX
  5
4D6
100
AcDbEntity
  8
0
100
AcDbVertex
100
AcDb2dVertex
 10
7.4067422358
 20
5.837972124
 30
0.0
  0
VERTEX
  5
4D7
100
AcDbEntity
  8
0
100
AcDbVertex
100
AcDb2dVertex
 10
7.4296080827
 20
5.8207969475
 30
0.0
  0
VERTEX
  5
4D8
100
AcDbEntity
  8
0
100
AcDbVertex
100
AcDb2dVertex
 10
7.4527276153
 20
5.8069558248
 30
0.0
  0
VERTEX
  5
4D9
100
AcDbEntity
  8
0
100
AcDbVertex
100
AcDb2dVertex
 10
7.4757052519
 20
5.7966855812
 30
0.0
  0
SEQEND
  5
4DA
100
AcDbEntity
  8
0
  0
POLYLINE
  5
4DB
100
AcDbEntity
  8
0
  6
CONTINUOUS
 62
         7
100
AcDb2dPolyline
 66
         1
 10
0.0
 20
0.0
 30
0.0
 70
       128
  0
VERTEX
  5
4DC
100
AcDbEntity
  8
0
100
AcDbVertex
100
AcDb2dVertex
 10
8.2653956725
 20
6.2009171678
 30
0.0
  0
VERTEX
  5
4DD
100
AcDbEntity
  8
0
100
AcDbVertex
100
AcDb2dVertex
 10
8.2711322613
 20
6.2045477526
 30
0.0
  0
VERTEX
  5
4DE
100
AcDbEntity
  8
0
100
AcDbVertex
100
AcDb2dVertex
 10
8.2855462763
 20
6.2171063025
 30
0.0
  0
VERTEX
  5
4DF
100
AcDbEntity
  8
0
100
AcDbVertex
100
AcDb2dVertex
 10
8.297476898
 20
6.2330924358
 30
0.0
  0
VERTEX
  5
4E0
100
AcDbEntity
  8
0
100
AcDbVertex
100
AcDb2dVertex
 10
8.3067199902
 20
6.2522326254
 30
0.0
  0
VERTEX
  5
4E1
100
AcDbEntity
  8
0
100
AcDbVertex
100
AcDb2dVertex
 10
8.3131174011
 20
6.2741993773
 30
0.0
  0
VERTEX
  5
4E2
100
AcDbEntity
  8
0
100
AcDbVertex
100
AcDb2dVertex
 10
8.3165596691
 20
6.2986168343
 30
0.0
  0
VERTEX
  5
4E3
100
AcDbEntity
  8
0
100
AcDbVertex
100
AcDb2dVertex
 10
8.316987896
 20
6.325067207
 30
0.0
  0
VERTEX
  5
4E4
100
AcDbEntity
  8
0
100
AcDbVertex
100
AcDb2dVertex
 10
8.3143947549
 20
6.3530979222
 30
0.0
  0
VERTEX
  5
4E5
100
AcDbEntity
  8
0
100
AcDbVertex
100
AcDb2dVertex
 10
8.3088246151
 20
6.3822293665
 30
0.0
  0
VERTEX
  5
4E6
100
AcDbEntity
  8
0
100
AcDbVertex
100
AcDb2dVertex
 10
8.3003727832
 20
6.4119630928
 30
0.0
  0
VERTEX
  5
4E7
100
AcDbEntity
  8
0
100
AcDbVertex
100
AcDb2dVertex
 10
8.2891838723
 20
6.4417903489
 30
0.0
  0
VERTEX
  5
4E8
100
AcDbEntity
  8
0
100
AcDbVertex
100
AcDb2dVertex
 10
8.2754493279
 20
6.4712007821
 30
0.0
  0
VERTEX
  5
4E9
100
AcDbEntity
  8
0
100
AcDbVertex
100
AcDb2dVertex
 10
8.2594041519
 20
6.4996911717
 30
0.0
  0
VERTEX
  5
4EA
100
AcDbEntity
  8
0
100
AcDbVertex
100
AcDb2dVertex
 10
8.2413228816
 20
6.5267740394
 30
0.0
  0
VERTEX
  5
4EB
100
AcDbEntity
  8
0
100
AcDbVertex
100
AcDb2dVertex
 10
8.2215148926
 20
6.5519859897
 30
0.0
  0
VERTEX
  5
4EC
100
AcDbEntity
  8
0
100
AcDbVertex
100
AcDb2dVertex
 10
8.200319105
 20
6.5748956391
 30
0.0
  0
VERTEX
  5
4ED
100
AcDbEntity
  8
0
100
AcDbVertex
100
AcDb2dVertex
 10
8.1780981847
 20
6.5951109973
 30
0.0
  0
VERTEX
  5
4EE
100
AcDbEntity
  8
0
100
AcDbVertex
100
AcDb2dVertex
 10
8.1552323378
 20
6.6122861737
 30
0.0
  0
VERTEX
  5
4EF
100
AcDbEntity
  8
0
100
AcDbVertex
100
AcDb2dVertex
 10
8.1321128052
 20
6.6261272965
 30
0.0
  0
VERTEX
  5
4F0
100
AcDbEntity
  8
0
100
AcDbVertex
100
AcDb2dVertex
 10
8.1091351686
 20
6.6363975401
 30
0.0
  0
VERTEX
  5
4F1
100
AcDbEntity
  8
0
100
AcDbVertex
100
AcDb2dVertex
 10
8.0866925817
 20
6.6429211778
 30
0.0
  0
VERTEX
  5
4F2
100
AcDbEntity
  8
0
100
AcDbVertex
100
AcDb2dVertex
 10
8.0651690434
 20
6.6455865885
 30
0.0
  0
VERTEX
  5
4F3
100
AcDbEntity
  8
0
100
AcDbVertex
100
AcDb2dVertex
 10
8.0449328274
 20
6.6443481661
 30
0.0
  0
VERTEX
  5
4F4
100
AcDbEntity
  8
0
100
AcDbVertex
100
AcDb2dVertex
 10
8.026330181
 20
6.6392271004
 30
0.0
  0
VERTEX
  5
4F5
100
AcDbEntity
  8
0
100
AcDbVertex
100
AcDb2dVertex
 10
8.0154159893
 20
6.633941599
 30
0.0
  0
SEQEND
  5
4F6
100
AcDbEntity
  8
0
  0
POLYLINE
  5
4F7
100
AcDbEntity
  8
0
  6
CONTINUOUS
 62
         7
100
AcDb2dPolyline
 66
         1
 10
0.0
 20
0.0
 30
0.0
 70
       128
  0
VERTEX
  5
4F8
100
AcDbEntity
  8
0
100
AcDbVertex
100
AcDb2dVertex
 10
8.808109276
 20
6.2573733408
 30
0.0
  0
VERTEX
  5
4F9
100
AcDbEntity
  8
0
100
AcDbVertex
100
AcDb2dVertex
 10
8.8282579188
 20
6.2711834698
 30
0.0
  0
VERTEX
  5
4FA
100
AcDbEntity
  8
0
100
AcDbVertex
100
AcDb2dVertex
 10
8.8474588838
 20
6.2893578655
 30
0.0
  0
VERTEX
  5
4FB
100
AcDbEntity
  8
0
100
AcDbVertex
100
AcDb2dVertex
 10
8.8641644173
 20
6.310947993
 30
0.0
  0
VERTEX
  5
4FC
100
AcDbEntity
  8
0
100
AcDbVertex
100
AcDb2dVertex
 10
8.8782232315
 20
6.3357583287
 30
0.0
  0
VERTEX
  5
4FD
100
AcDbEntity
  8
0
100
AcDbVertex
100
AcDb2dVertex
 10
8.8895080074
 20
6.3635641866
 30
0.0
  0
VERTEX
  5
4FE
100
AcDbEntity
  8
0
100
AcDbVertex
100
AcDb2dVertex
 10
8.8979165486
 20
6.3941137523
 30
0.0
  0
VERTEX
  5
4FF
100
AcDbEntity
  8
0
100
AcDbVertex
100
AcDb2dVertex
 10
8.9033727058
 20
6.4271303643
 30
0.0
  0
VERTEX
  5
500
100
AcDbEntity
  8
0
100
AcDbVertex
100
AcDb2dVertex
 10
8.9058270674
 20
6.462315019
 30
0.0
  0
VERTEX
  5
501
100
AcDbEntity
  8
0
100
AcDbVertex
100
AcDb2dVertex
 10
8.9052574061
 20
6.4993490788
 30
0.0
  0
VERTEX
  5
502
100
AcDbEntity
  8
0
100
AcDbVertex
100
AcDb2dVertex
 10
8.9016688811
 20
6.5378971575
 30
0.0
  0
VERTEX
  5
503
100
AcDbEntity
  8
0
100
AcDbVertex
100
AcDb2dVertex
 10
8.8950939904
 20
6.5776101577
 30
0.0
  0
VERTEX
  5
504
100
AcDbEntity
  8
0
100
AcDbVertex
100
AcDb2dVertex
 10
8.8855922774
 20
6.6181284323
 30
0.0
  0
VERTEX
  5
505
100
AcDbEntity
  8
0
100
AcDbVertex
100
AcDb2dVertex
 10
8.8732497909
 20
6.6590850416
 30
0.0
  0
VERTEX
  5
506
100
AcDbEntity
  8
0
100
AcDbVertex
100
AcDb2dVertex
 10
8.8581783066
 20
6.7001090762
 30
0.0
  0
VERTEX
  5
507
100
AcDbEntity
  8
0
100
AcDbVertex
100
AcDb2dVertex
 10
8.840514314
 20
6.740829016
 30
0.0
  0
VERTEX
  5
508
100
AcDbEntity
  8
0
100
AcDbVertex
100
AcDb2dVertex
 10
8.8204177811
 20
6.780876095
 30
0.0
  0
VERTEX
  5
509
100
AcDbEntity
  8
0
100
AcDbVertex
100
AcDb2dVertex
 10
8.7980707051
 20
6.8198876406
 30
0.0
  0
VERTEX
  5
50A
100
AcDbEntity
  8
0
100
AcDbVertex
100
AcDb2dVertex
 10
8.7736754646
 20
6.8575103582
 30
0.0
  0
VERTEX
  5
50B
100
AcDbEntity
  8
0
100
AcDbVertex
100
AcDb2dVertex
 10
8.7474529868
 20
6.8934035307
 30
0.0
  0
VERTEX
  5
50C
100
AcDbEntity
  8
0
100
AcDbVertex
100
AcDb2dVertex
 10
8.7196407463
 20
6.927242104
 30
0.0
  0
VERTEX
  5
50D
100
AcDbEntity
  8
0
100
AcDbVertex
100
AcDb2dVertex
 10
8.6904906153
 20
6.9587196306
 30
0.0
  0
VERTEX
  5
50E
100
AcDbEntity
  8
0
100
AcDbVertex
100
AcDb2dVertex
 10
8.6602665817
 20
6.9875510453
 30
0.0
  0
VERTEX
  5
50F
100
AcDbEntity
  8
0
100
AcDbVertex
100
AcDb2dVertex
 10
8.6292423591
 20
7.0134752462
 30
0.0
  0
VERTEX
  5
510
100
AcDbEntity
  8
0
100
AcDbVertex
100
AcDb2dVertex
 10
8.5976989077
 20
7.0362574598
 30
0.0
  0
VERTEX
  5
511
100
AcDbEntity
  8
0
100
AcDbVertex
100
AcDb2dVertex
 10
8.5659218898
 20
7.0556913669
 30
0.0
  0
VERTEX
  5
512
100
AcDbEntity
  8
0
100
AcDbVertex
100
AcDb2dVertex
 10
8.5341990831
 20
7.0716009709
 30
0.0
  0
VERTEX
  5
513
100
AcDbEntity
  8
0
100
AcDbVertex
100
AcDb2dVertex
 10
8.5028177742
 20
7.0838421921
 30
0.0
  0
VERTEX
  5
514
100
AcDbEntity
  8
0
100
AcDbVertex
100
AcDb2dVertex
 10
8.472062157
 20
7.092304172
 30
0.0
  0
VERTEX
  5
515
100
AcDbEntity
  8
0
100
AcDbVertex
100
AcDb2dVertex
 10
8.4422107593
 20
7.0969102776
 30
0.0
  0
VERTEX
  5
516
100
AcDbEntity
  8
0
100
AcDbVertex
100
AcDb2dVertex
 10
8.4135339199
 20
7.0976187954
 30
0.0
  0
VERTEX
  5
517
100
AcDbEntity
  8
0
100
AcDbVertex
100
AcDb2dVertex
 10
8.3862913407
 20
7.0944233088
 30
0.0
  0
VERTEX
  5
518
100
AcDbEntity
  8
0
100
AcDbVertex
100
AcDb2dVertex
 10
8.3607297347
 20
7.0873527568
 30
0.0
  0
VERTEX
  5
519
100
AcDbEntity
  8
0
100
AcDbVertex
100
AcDb2dVertex
 10
8.3370805918
 20
7.0764711712
 30
0.0
  0
VERTEX
  5
51A
100
AcDbEntity
  8
0
100
AcDbVertex
100
AcDb2dVertex
 10
8.3357067251
 20
7.0756872265
 30
0.0
  0
SEQEND
  5
51B
100
AcDbEntity
  8
0
  0
POLYLINE
  5
51C
100
AcDbEntity
  8
0
  6
CONTINUOUS
 62
         7
100
AcDb2dPolyline
 66
         1
 10
0.0
 20
0.0
 30
0.0
 70
       128
  0
VERTEX
  5
51D
100
AcDbEntity
  8
0
100
AcDbVertex
100
AcDb2dVertex
 10
8.5177044405
 20
6.4668216953
 30
0.0
  0
VERTEX
  5
51E
100
AcDbEntity
  8
0
100
AcDbVertex
100
AcDb2dVertex
 10
8.5340055988
 20
6.4672445439
 30
0.0
  0
VERTEX
  5
51F
100
AcDbEntity
  8
0
100
AcDbVertex
100
AcDb2dVertex
 10
8.5486828365
 20
6.4715690731
 30
0.0
  0
VERTEX
  5
520
100
AcDbEntity
  8
0
100
AcDbVertex
100
AcDb2dVertex
 10
8.5613357968
 20
6.4796773209
 30
0.0
  0
VERTEX
  5
521
100
AcDbEntity
  8
0
100
AcDbVertex
100
AcDb2dVertex
 10
8.5716193399
 20
6.4913481155
 30
0.0
  0
VERTEX
  5
522
100
AcDbEntity
  8
0
100
AcDbVertex
100
AcDb2dVertex
 10
8.5792529574
 20
6.5062631082
 30
0.0
  0
VERTEX
  5
523
100
AcDbEntity
  8
0
100
AcDbVertex
100
AcDb2dVertex
 10
8.5840284244
 20
6.5240154566
 30
0.0
  0
VERTEX
  5
524
100
AcDbEntity
  8
0
100
AcDbVertex
100
AcDb2dVertex
 10
8.5858154784
 20
6.5441209231
 30
0.0
  0
VERTEX
  5
525
100
AcDbEntity
  8
0
100
AcDbVertex
100
AcDb2dVertex
 10
8.5845653733
 20
6.566031083
 30
0.0
  0
VERTEX
  5
526
100
AcDbEntity
  8
0
100
AcDbVertex
100
AcDb2dVertex
 10
8.5803122087
 20
6.5891482842
 30
0.0
  0
VERTEX
  5
527
100
AcDbEntity
  8
0
100
AcDbVertex
100
AcDb2dVertex
 10
8.5731719999
 20
6.6128419496
 30
0.0
  0
VERTEX
  5
528
100
AcDbEntity
  8
0
100
AcDbVertex
100
AcDb2dVertex
 10
8.563339513
 20
6.636465778
 30
0.0
  0
VERTEX
  5
529
100
AcDbEntity
  8
0
100
AcDbVertex
100
AcDb2dVertex
 10
8.5510829528
 20
6.6593753728
 30
0.0
  0
VERTEX
  5
52A
100
AcDbEntity
  8
0
100
AcDbVertex
100
AcDb2dVertex
 10
8.5367366463
 20
6.6809458199
 30
0.0
  0
VERTEX
  5
52B
100
AcDbEntity
  8
0
100
AcDbVertex
100
AcDb2dVertex
 10
8.5206919232
 20
6.7005887339
 30
0.0
  0
VERTEX
  5
52C
100
AcDbEntity
  8
0
100
AcDbVertex
100
AcDb2dVertex
 10
8.5033864419
 20
6.7177683073
 30
0.0
  0
VERTEX
  5
52D
100
AcDbEntity
  8
0
100
AcDbVertex
100
AcDb2dVertex
 10
8.4852922506
 20
6.732015926
 30
0.0
  0
VERTEX
  5
52E
100
AcDbEntity
  8
0
100
AcDbVertex
100
AcDb2dVertex
 10
8.4669029119
 20
6.7429429522
 30
0.0
  0
VERTEX
  5
52F
100
AcDbEntity
  8
0
100
AcDbVertex
100
AcDb2dVertex
 10
8.4487200389
 20
6.7502513251
 30
0.0
  0
VERTEX
  5
530
100
AcDbEntity
  8
0
100
AcDbVertex
100
AcDb2dVertex
 10
8.431239613
 20
6.7537416913
 30
0.0
  0
VERTEX
  5
531
100
AcDbEntity
  8
0
100
AcDbVertex
100
AcDb2dVertex
 10
8.4149384547
 20
6.7533188427
 30
0.0
  0
VERTEX
  5
532
100
AcDbEntity
  8
0
100
AcDbVertex
100
AcDb2dVertex
 10
8.400261217
 20
6.7489943136
 30
0.0
  0
VERTEX
  5
533
100
AcDbEntity
  8
0
100
AcDbVertex
100
AcDb2dVertex
 10
8.3876082567
 20
6.7408860657
 30
0.0
  0
VERTEX
  5
534
100
AcDbEntity
  8
0
100
AcDbVertex
100
AcDb2dVertex
 10
8.3773247136
 20
6.7292152711
 30
0.0
  0
VERTEX
  5
535
100
AcDbEntity
  8
0
100
AcDbVertex
100
AcDb2dVertex
 10
8.369691096
 20
6.7143002785
 30
0.0
  0
VERTEX
  5
536
100
AcDbEntity
  8
0
100
AcDbVertex
100
AcDb2dVertex
 10
8.3649156291
 20
6.69654793
 30
0.0
  0
VERTEX
  5
537
100
AcDbEntity
  8
0
100
AcDbVertex
100
AcDb2dVertex
 10
8.363335757
 20
6.6825023496
 30
0.0
  0
SEQEND
  5
538
100
AcDbEntity
  8
0
  0
POLYLINE
  5
539
100
AcDbEntity
  8
0
  6
CONTINUOUS
 62
         7
100
AcDb2dPolyline
 66
         1
 10
0.0
 20
0.0
 30
0.0
 70
       128
  0
VERTEX
  5
53A
100
AcDbEntity
  8
0
100
AcDbVertex
100
AcDb2dVertex
 10
8.4814363947
 20
6.4779238782
 30
0.0
  0
VERTEX
  5
53B
100
AcDbEntity
  8
0
100
AcDbVertex
100
AcDb2dVertex
 10
8.4820411416
 20
6.4776204344
 30
0.0
  0
VERTEX
  5
53C
100
AcDbEntity
  8
0
100
AcDbVertex
100
AcDb2dVertex
 10
8.5002240146
 20
6.4703120615
 30
0.0
  0
VERTEX
  5
53D
100
AcDbEntity
  8
0
100
AcDbVertex
100
AcDb2dVertex
 10
8.5177044405
 20
6.4668216953
 30
0.0
  0
SEQEND
  5
53E
100
AcDbEntity
  8
0
  0
POLYLINE
  5
53F
100
AcDbEntity
  8
0
  6
CONTINUOUS
 62
         7
100
AcDb2dPolyline
 66
         1
 10
0.0
 20
0.0
 30
0.0
 70
       128
  0
VERTEX
  5
540
100
AcDbEntity
  8
0
100
AcDbVertex
100
AcDb2dVertex
 10
8.4386415696
 20
6.7527167819
 30
0.0
  0
VERTEX
  5
541
100
AcDbEntity
  8
0
100
AcDbVertex
100
AcDb2dVertex
 10
8.4345127532
 20
6.7367254946
 30
0.0
  0
VERTEX
  5
542
100
AcDbEntity
  8
0
100
AcDbVertex
100
AcDb2dVertex
 10
8.4329328811
 20
6.7226799141
 30
0.0
  0
SEQEND
  5
543
100
AcDbEntity
  8
0
  0
POLYLINE
  5
544
100
AcDbEntity
  8
0
  6
CONTINUOUS
 62
         7
100
AcDb2dPolyline
 66
         1
 10
0.0
 20
0.0
 30
0.0
 70
       128
  0
VERTEX
  5
545
100
AcDbEntity
  8
0
100
AcDbVertex
100
AcDb2dVertex
 10
8.5510335188
 20
6.5181014427
 30
0.0
  0
VERTEX
  5
546
100
AcDbEntity
  8
0
100
AcDbVertex
100
AcDb2dVertex
 10
8.5516382657
 20
6.5177979989
 30
0.0
  0
VERTEX
  5
547
100
AcDbEntity
  8
0
100
AcDbVertex
100
AcDb2dVertex
 10
8.5698211387
 20
6.5104896261
 30
0.0
  0
VERTEX
  5
548
100
AcDbEntity
  8
0
100
AcDbVertex
100
AcDb2dVertex
 10
8.5798996081
 20
6.5080241693
 30
0.0
  0
SEQEND
  5
549
100
AcDbEntity
  8
0
  0
POLYLINE
  5
54A
100
AcDbEntity
  8
0
  6
CONTINUOUS
 62
         7
100
AcDb2dPolyline
 66
         1
 10
0.0
 20
0.0
 30
0.0
 70
       128
  0
VERTEX
  5
54B
100
AcDbEntity
  8
0
100
AcDbVertex
100
AcDb2dVertex
 10
9.2360462468
 20
6.5130841091
 30
0.0
  0
VERTEX
  5
54C
100
AcDbEntity
  8
0
100
AcDbVertex
100
AcDb2dVertex
 10
9.2372027789
 20
6.514352227
 30
0.0
  0
VERTEX
  5
54D
100
AcDbEntity
  8
0
100
AcDbVertex
100
AcDb2dVertex
 10
9.2539083125
 20
6.5359423545
 30
0.0
  0
VERTEX
  5
54E
100
AcDbEntity
  8
0
100
AcDbVertex
100
AcDb2dVertex
 10
9.2679671266
 20
6.5607526903
 30
0.0
  0
VERTEX
  5
54F
100
AcDbEntity
  8
0
100
AcDbVertex
100
AcDb2dVertex
 10
9.2792519026
 20
6.5885585481
 30
0.0
  0
VERTEX
  5
550
100
AcDbEntity
  8
0
100
AcDbVertex
100
AcDb2dVertex
 10
9.2876604437
 20
6.6191081138
 30
0.0
  0
VERTEX
  5
551
100
AcDbEntity
  8
0
100
AcDbVertex
100
AcDb2dVertex
 10
9.293116601
 20
6.6521247258
 30
0.0
  0
VERTEX
  5
552
100
AcDbEntity
  8
0
100
AcDbVertex
100
AcDb2dVertex
 10
9.2955709625
 20
6.6873093806
 30
0.0
  0
VERTEX
  5
553
100
AcDbEntity
  8
0
100
AcDbVertex
100
AcDb2dVertex
 10
9.2950013013
 20
6.7243434404
 30
0.0
  0
VERTEX
  5
554
100
AcDbEntity
  8
0
100
AcDbVertex
100
AcDb2dVertex
 10
9.2914127762
 20
6.762891519
 30
0.0
  0
VERTEX
  5
555
100
AcDbEntity
  8
0
100
AcDbVertex
100
AcDb2dVertex
 10
9.2848378855
 20
6.8026045192
 30
0.0
  0
VERTEX
  5
556
100
AcDbEntity
  8
0
100
AcDbVertex
100
AcDb2dVertex
 10
9.2753361725
 20
6.8431227939
 30
0.0
  0
VERTEX
  5
557
100
AcDbEntity
  8
0
100
AcDbVertex
100
AcDb2dVertex
 10
9.2629936861
 20
6.8840794032
 30
0.0
  0
VERTEX
  5
558
100
AcDbEntity
  8
0
100
AcDbVertex
100
AcDb2dVertex
 10
9.2479222017
 20
6.9251034377
 30
0.0
  0
VERTEX
  5
559
100
AcDbEntity
  8
0
100
AcDbVertex
100
AcDb2dVertex
 10
9.2302582092
 20
6.9658233775
 30
0.0
  0
VERTEX
  5
55A
100
AcDbEntity
  8
0
100
AcDbVertex
100
AcDb2dVertex
 10
9.2101616762
 20
7.0058704565
 30
0.0
  0
VERTEX
  5
55B
100
AcDbEntity
  8
0
100
AcDbVertex
100
AcDb2dVertex
 10
9.1878146002
 20
7.0448820021
 30
0.0
  0
VERTEX
  5
55C
100
AcDbEntity
  8
0
100
AcDbVertex
100
AcDb2dVertex
 10
9.1634193598
 20
7.0825047197
 30
0.0
  0
VERTEX
  5
55D
100
AcDbEntity
  8
0
100
AcDbVertex
100
AcDb2dVertex
 10
9.1371968819
 20
7.1183978923
 30
0.0
  0
VERTEX
  5
55E
100
AcDbEntity
  8
0
100
AcDbVertex
100
AcDb2dVertex
 10
9.1093846415
 20
7.1522364655
 30
0.0
  0
VERTEX
  5
55F
100
AcDbEntity
  8
0
100
AcDbVertex
100
AcDb2dVertex
 10
9.0802345104
 20
7.1837139921
 30
0.0
  0
VERTEX
  5
560
100
AcDbEntity
  8
0
100
AcDbVertex
100
AcDb2dVertex
 10
9.0500104768
 20
7.2125454068
 30
0.0
  0
VERTEX
  5
561
100
AcDbEntity
  8
0
100
AcDbVertex
100
AcDb2dVertex
 10
9.0189862542
 20
7.2384696077
 30
0.0
  0
VERTEX
  5
562
100
AcDbEntity
  8
0
100
AcDbVertex
100
AcDb2dVertex
 10
8.9874428028
 20
7.2612518214
 30
0.0
  0
VERTEX
  5
563
100
AcDbEntity
  8
0
100
AcDbVertex
100
AcDb2dVertex
 10
8.955665785
 20
7.2806857284
 30
0.0
  0
VERTEX
  5
564
100
AcDbEntity
  8
0
100
AcDbVertex
100
AcDb2dVertex
 10
8.9239429782
 20
7.2965953325
 30
0.0
  0
VERTEX
  5
565
100
AcDbEntity
  8
0
100
AcDbVertex
100
AcDb2dVertex
 10
8.8925616693
 20
7.3088365536
 30
0.0
  0
VERTEX
  5
566
100
AcDbEntity
  8
0
100
AcDbVertex
100
AcDb2dVertex
 10
8.8618060522
 20
7.3172985335
 30
0.0
  0
VERTEX
  5
567
100
AcDbEntity
  8
0
100
AcDbVertex
100
AcDb2dVertex
 10
8.8319546545
 20
7.3219046392
 30
0.0
  0
VERTEX
  5
568
100
AcDbEntity
  8
0
100
AcDbVertex
100
AcDb2dVertex
 10
8.8032778151
 20
7.3226131569
 30
0.0
  0
VERTEX
  5
569
100
AcDbEntity
  8
0
100
AcDbVertex
100
AcDb2dVertex
 10
8.7760352359
 20
7.3194176704
 30
0.0
  0
VERTEX
  5
56A
100
AcDbEntity
  8
0
100
AcDbVertex
100
AcDb2dVertex
 10
8.7719607853
 20
7.3185751073
 30
0.0
  0
SEQEND
  5
56B
100
AcDbEntity
  8
0
  0
POLYLINE
  5
56C
100
AcDbEntity
  8
0
  6
CONTINUOUS
 62
         7
100
AcDb2dPolyline
 66
         1
 10
0.0
 20
0.0
 30
0.0
 70
       128
  0
VERTEX
  5
56D
100
AcDbEntity
  8
0
100
AcDbVertex
100
AcDb2dVertex
 10
8.7920198254
 20
7.3289189983
 30
0.0
  0
VERTEX
  5
56E
100
AcDbEntity
  8
0
100
AcDbVertex
100
AcDb2dVertex
 10
8.7671769397
 20
7.3219897338
 30
0.0
  0
VERTEX
  5
56F
100
AcDbEntity
  8
0
100
AcDbVertex
100
AcDb2dVertex
 10
8.7518787612
 20
7.3154939493
 30
0.0
  0
SEQEND
  5
570
100
AcDbEntity
  8
0
  0
POLYLINE
  5
571
100
AcDbEntity
  8
0
  6
CONTINUOUS
 62
         7
100
AcDb2dPolyline
 66
         1
 10
0.0
 20
0.0
 30
0.0
 70
       128
  0
VERTEX
  5
572
100
AcDbEntity
  8
0
100
AcDbVertex
100
AcDb2dVertex
 10
9.2223856227
 20
6.4968400035
 30
0.0
  0
VERTEX
  5
573
100
AcDbEntity
  8
0
100
AcDbVertex
100
AcDb2dVertex
 10
9.2347051237
 20
6.5058204468
 30
0.0
  0
VERTEX
  5
574
100
AcDbEntity
  8
0
100
AcDbVertex
100
AcDb2dVertex
 10
9.2539060887
 20
6.5239948425
 30
0.0
  0
VERTEX
  5
575
100
AcDbEntity
  8
0
100
AcDbVertex
100
AcDb2dVertex
 10
9.254683655
 20
6.5248617729
 30
0.0
  0
SEQEND
  5
576
100
AcDbEntity
  8
0
  0
POLYLINE
  5
577
100
AcDbEntity
  8
0
  6
CONTINUOUS
 62
         7
100
AcDb2dPolyline
 66
         1
 10
0.0
 20
0.0
 30
0.0
 70
       128
  0
VERTEX
  5
578
100
AcDbEntity
  8
0
100
AcDbVertex
100
AcDb2dVertex
 10
9.4281861659
 20
7.0684117084
 30
0.0
  0
VERTEX
  5
579
100
AcDbEntity
  8
0
100
AcDbVertex
100
AcDb2dVertex
 10
9.4452731776
 20
7.0275899638
 30
0.0
  0
VERTEX
  5
57A
100
AcDbEntity
  8
0
100
AcDbVertex
100
AcDb2dVertex
 10
9.4597344952
 20
6.9865485851
 30
0.0
  0
VERTEX
  5
57B
100
AcDbEntity
  8
0
100
AcDbVertex
100
AcDb2dVertex
 10
9.4714391548
 20
6.9456592493
 30
0.0
  0
VERTEX
  5
57C
100
AcDbEntity
  8
0
100
AcDbVertex
100
AcDb2dVertex
 10
9.480281157
 20
6.9052922566
 30
0.0
  0
VERTEX
  5
57D
100
AcDbEntity
  8
0
100
AcDbVertex
100
AcDb2dVertex
 10
9.4861804275
 20
6.8658131767
 30
0.0
  0
VERTEX
  5
57E
100
AcDbEntity
  8
0
100
AcDbVertex
100
AcDb2dVertex
 10
9.4890835414
 20
6.8275795383
 30
0.0
  0
VERTEX
  5
57F
100
AcDbEntity
  8
0
100
AcDbVertex
100
AcDb2dVertex
 10
9.4889642078
 20
6.7909375912
 30
0.0
  0
VERTEX
  5
580
100
AcDbEntity
  8
0
100
AcDbVertex
100
AcDb2dVertex
 10
9.4858235073
 20
6.7562191704
 30
0.0
  0
VERTEX
  5
581
100
AcDbEntity
  8
0
100
AcDbVertex
100
AcDb2dVertex
 10
9.4796898827
 20
6.7237386915
 30
0.0
  0
VERTEX
  5
582
100
AcDbEntity
  8
0
100
AcDbVertex
100
AcDb2dVertex
 10
9.4706188809
 20
6.6937903026
 30
0.0
  0
VERTEX
  5
583
100
AcDbEntity
  8
0
100
AcDbVertex
100
AcDb2dVertex
 10
9.4586926503
 20
6.6666452209
 30
0.0
  0
VERTEX
  5
584
100
AcDbEntity
  8
0
100
AcDbVertex
100
AcDb2dVertex
 10
9.4440191968
 20
6.6425492766
 30
0.0
  0
VERTEX
  5
585
100
AcDbEntity
  8
0
100
AcDbVertex
100
AcDb2dVertex
 10
9.4267314055
 20
6.6217206863
 30
0.0
  0
VERTEX
  5
586
100
AcDbEntity
  8
0
100
AcDbVertex
100
AcDb2dVertex
 10
9.4069858372
 20
6.6043480768
 30
0.0
  0
VERTEX
  5
587
100
AcDbEntity
  8
0
100
AcDbVertex
100
AcDb2dVertex
 10
9.3849613108
 20
6.5905887773
 30
0.0
  0
VERTEX
  5
588
100
AcDbEntity
  8
0
100
AcDbVertex
100
AcDb2dVertex
 10
9.3808058493
 20
6.5885231684
 30
0.0
  0
SEQEND
  5
589
100
AcDbEntity
  8
0
  0
POLYLINE
  5
58A
100
AcDbEntity
  8
0
  6
CONTINUOUS
 62
         7
100
AcDb2dPolyline
 66
         1
 10
0.0
 20
0.0
 30
0.0
 70
       128
  0
VERTEX
  5
58B
100
AcDbEntity
  8
0
100
AcDbVertex
100
AcDb2dVertex
 10
8.9089562409
 20
7.4060872073
 30
0.0
  0
VERTEX
  5
58C
100
AcDbEntity
  8
0
100
AcDbVertex
100
AcDb2dVertex
 10
8.9257155159
 20
7.4160862065
 30
0.0
  0
VERTEX
  5
58D
100
AcDbEntity
  8
0
100
AcDbVertex
100
AcDb2dVertex
 10
8.9498195427
 20
7.4261075897
 30
0.0
  0
VERTEX
  5
58E
100
AcDbEntity
  8
0
100
AcDbVertex
100
AcDb2dVertex
 10
8.9757847803
 20
7.4323003015
 30
0.0
  0
VERTEX
  5
58F
100
AcDbEntity
  8
0
100
AcDbVertex
100
AcDb2dVertex
 10
9.0033760834
 20
7.4346082597
 30
0.0
  0
VERTEX
  5
590
100
AcDbEntity
  8
0
100
AcDbVertex
100
AcDb2dVertex
 10
9.0323435809
 20
7.433010563
 30
0.0
  0
VERTEX
  5
591
100
AcDbEntity
  8
0
100
AcDbVertex
100
AcDb2dVertex
 10
9.0624249387
 20
7.4275216804
 30
0.0
  0
VERTEX
  5
592
100
AcDbEntity
  8
0
100
AcDbVertex
100
AcDb2dVertex
 10
9.0933477352
 20
7.4181913201
 30
0.0
  0
VERTEX
  5
593
100
AcDbEntity
  8
0
100
AcDbVertex
100
AcDb2dVertex
 10
9.124831929
 20
7.4051039794
 30
0.0
  0
VERTEX
  5
594
100
AcDbEntity
  8
0
100
AcDbVertex
100
AcDb2dVertex
 10
9.1565923941
 20
7.3883781791
 30
0.0
  0
VERTEX
  5
595
100
AcDbEntity
  8
0
100
AcDbVertex
100
AcDb2dVertex
 10
9.1883415031
 20
7.3681653907
 30
0.0
  0
VERTEX
  5
596
100
AcDbEntity
  8
0
100
AcDbVertex
100
AcDb2dVertex
 10
9.2197917309
 20
7.3446486643
 30
0.0
  0
VERTEX
  5
597
100
AcDbEntity
  8
0
100
AcDbVertex
100
AcDb2dVertex
 10
9.2506582595
 20
7.3180409712
 30
0.0
  0
VERTEX
  5
598
100
AcDbEntity
  8
0
100
AcDbVertex
100
AcDb2dVertex
 10
9.2806615569
 20
7.2885832746
 30
0.0
  0
VERTEX
  5
599
100
AcDbEntity
  8
0
100
AcDbVertex
100
AcDb2dVertex
 10
9.3095299084
 20
7.256542348
 30
0.0
  0
VERTEX
  5
59A
100
AcDbEntity
  8
0
100
AcDbVertex
100
AcDb2dVertex
 10
9.3370018779
 20
7.222208359
 30
0.0
  0
VERTEX
  5
59B
100
AcDbEntity
  8
0
100
AcDbVertex
100
AcDb2dVertex
 10
9.3628286749
 20
7.1858922416
 30
0.0
  0
VERTEX
  5
59C
100
AcDbEntity
  8
0
100
AcDbVertex
100
AcDb2dVertex
 10
9.386776408
 20
7.14792288
 30
0.0
  0
VERTEX
  5
59D
100
AcDbEntity
  8
0
100
AcDbVertex
100
AcDb2dVertex
 10
9.4086282027
 20
7.1086441309
 30
0.0
  0
VERTEX
  5
59E
100
AcDbEntity
  8
0
100
AcDbVertex
100
AcDb2dVertex
 10
9.4281861659
 20
7.0684117084
 30
0.0
  0
SEQEND
  5
59F
100
AcDbEntity
  8
0
  0
POLYLINE
  5
5A0
100
AcDbEntity
  8
0
  6
CONTINUOUS
 62
         7
100
AcDb2dPolyline
 66
         1
 10
0.0
 20
0.0
 30
0.0
 70
       128
  0
VERTEX
  5
5A1
100
AcDbEntity
  8
0
100
AcDbVertex
100
AcDb2dVertex
 10
9.3080128794
 20
7.0067402667
 30
0.0
  0
VERTEX
  5
5A2
100
AcDbEntity
  8
0
100
AcDbVertex
100
AcDb2dVertex
 10
9.3243628362
 20
6.967530715
 30
0.0
  0
VERTEX
  5
5A3
100
AcDbEntity
  8
0
100
AcDbVertex
100
AcDb2dVertex
 10
9.3380645897
 20
6.9281180034
 30
0.0
  0
VERTEX
  5
5A4
100
AcDbEntity
  8
0
100
AcDbVertex
100
AcDb2dVertex
 10
9.348981966
 20
6.8888938331
 30
0.0
  0
VERTEX
  5
5A5
100
AcDbEntity
  8
0
100
AcDbVertex
100
AcDb2dVertex
 10
9.3570064632
 20
6.8502480316
 30
0.0
  0
VERTEX
  5
5A6
100
AcDbEntity
  8
0
100
AcDbVertex
100
AcDb2dVertex
 10
9.3620583301
 20
6.8125646781
 30
0.0
  0
VERTEX
  5
5A7
100
AcDbEntity
  8
0
100
AcDbVertex
100
AcDb2dVertex
 10
9.3640873592
 20
6.7762182868
 30
0.0
  0
VERTEX
  5
5A8
100
AcDbEntity
  8
0
100
AcDbVertex
100
AcDb2dVertex
 10
9.3630733851
 20
6.7415700844
 30
0.0
  0
VERTEX
  5
5A9
100
AcDbEntity
  8
0
100
AcDbVertex
100
AcDb2dVertex
 10
9.3590264849
 20
6.7089644203
 30
0.0
  0
VERTEX
  5
5AA
100
AcDbEntity
  8
0
100
AcDbVertex
100
AcDb2dVertex
 10
9.3519868787
 20
6.6787253444
 30
0.0
  0
VERTEX
  5
5AB
100
AcDbEntity
  8
0
100
AcDbVertex
100
AcDb2dVertex
 10
9.3420245292
 20
6.651153386
 30
0.0
  0
VERTEX
  5
5AC
100
AcDbEntity
  8
0
100
AcDbVertex
100
AcDb2dVertex
 10
9.3292384468
 20
6.6265225678
 30
0.0
  0
VERTEX
  5
5AD
100
AcDbEntity
  8
0
100
AcDbVertex
100
AcDb2dVertex
 10
9.3137557052
 20
6.6050776817
 30
0.0
  0
VERTEX
  5
5AE
100
AcDbEntity
  8
0
100
AcDbVertex
100
AcDb2dVertex
 10
9.2957301789
 20
6.5870318569
 30
0.0
  0
VERTEX
  5
5AF
100
AcDbEntity
  8
0
100
AcDbVertex
100
AcDb2dVertex
 10
9.2955386862
 20
6.5868700585
 30
0.0
  0
SEQEND
  5
5B0
100
AcDbEntity
  8
0
  0
POLYLINE
  5
5B1
100
AcDbEntity
  8
0
  6
CONTINUOUS
 62
         7
100
AcDb2dPolyline
 66
         1
 10
0.0
 20
0.0
 30
0.0
 70
       128
  0
VERTEX
  5
5B2
100
AcDbEntity
  8
0
100
AcDbVertex
100
AcDb2dVertex
 10
8.8654306647
 20
7.3332421856
 30
0.0
  0
VERTEX
  5
5B3
100
AcDbEntity
  8
0
100
AcDbVertex
100
AcDb2dVertex
 10
8.8750302363
 20
7.3363005271
 30
0.0
  0
VERTEX
  5
5B4
100
AcDbEntity
  8
0
100
AcDbVertex
100
AcDb2dVertex
 10
8.900395586
 20
7.3412740903
 30
0.0
  0
VERTEX
  5
5B5
100
AcDbEntity
  8
0
100
AcDbVertex
100
AcDb2dVertex
 10
8.9273263096
 20
7.342330064
 30
0.0
  0
VERTEX
  5
5B6
100
AcDbEntity
  8
0
100
AcDbVertex
100
AcDb2dVertex
 10
8.9555547575
 20
7.3394579534
 30
0.0
  0
VERTEX
  5
5B7
100
AcDbEntity
  8
0
100
AcDbVertex
100
AcDb2dVertex
 10
8.9848003825
 20
7.3326863029
 30
0.0
  0
VERTEX
  5
5B8
100
AcDbEntity
  8
0
100
AcDbVertex
100
AcDb2dVertex
 10
9.0147725287
 20
7.3220824123
 30
0.0
  0
VERTEX
  5
5B9
100
AcDbEntity
  8
0
100
AcDbVertex
100
AcDb2dVertex
 10
9.0451733193
 20
7.3077516676
 30
0.0
  0
VERTEX
  5
5BA
100
AcDbEntity
  8
0
100
AcDbVertex
100
AcDb2dVertex
 10
9.0757006176
 20
7.2898364943
 30
0.0
  0
VERTEX
  5
5BB
100
AcDbEntity
  8
0
100
AcDbVertex
100
AcDb2dVertex
 10
9.1060510296
 20
7.2685149415
 30
0.0
  0
VERTEX
  5
5BC
100
AcDbEntity
  8
0
100
AcDbVertex
100
AcDb2dVertex
 10
9.1359229193
 20
7.2439989122
 30
0.0
  0
VERTEX
  5
5BD
100
AcDbEntity
  8
0
100
AcDbVertex
100
AcDb2dVertex
 10
9.1650194065
 20
7.2165320579
 30
0.0
  0
VERTEX
  5
5BE
100
AcDbEntity
  8
0
100
AcDbVertex
100
AcDb2dVertex
 10
9.193051317
 20
7.1863873565
 30
0.0
  0
VERTEX
  5
5BF
100
AcDbEntity
  8
0
100
AcDbVertex
100
AcDb2dVertex
 10
9.2197400573
 20
7.1538643995
 30
0.0
  0
VERTEX
  5
5C0
100
AcDbEntity
  8
0
100
AcDbVertex
100
AcDb2dVertex
 10
9.2448203827
 20
7.1192864147
 30
0.0
  0
VERTEX
  5
5C1
100
AcDbEntity
  8
0
100
AcDbVertex
100
AcDb2dVertex
 10
9.2680430336
 20
7.0829970536
 30
0.0
  0
VERTEX
  5
5C2
100
AcDbEntity
  8
0
100
AcDbVertex
100
AcDb2dVertex
 10
9.2891772128
 20
7.0453569763
 30
0.0
  0
VERTEX
  5
5C3
100
AcDbEntity
  8
0
100
AcDbVertex
100
AcDb2dVertex
 10
9.3080128794
 20
7.0067402667
 30
0.0
  0
SEQEND
  5
5C4
100
AcDbEntity
  8
0
  0
POLYLINE
  5
5C5
100
AcDbEntity
  8
0
  6
CONTINUOUS
 62
         7
100
AcDb2dPolyline
 66
         1
 10
0.0
 20
0.0
 30
0.0
 70
       128
  0
VERTEX
  5
5C6
100
AcDbEntity
  8
0
100
AcDbVertex
100
AcDb2dVertex
 10
9.6787358128
 20
7.2130509408
 30
0.0
  0
VERTEX
  5
5C7
100
AcDbEntity
  8
0
100
AcDbVertex
100
AcDb2dVertex
 10
9.6958228245
 20
7.1722291962
 30
0.0
  0
VERTEX
  5
5C8
100
AcDbEntity
  8
0
100
AcDbVertex
100
AcDb2dVertex
 10
9.7102841421
 20
7.1311878175
 30
0.0
  0
VERTEX
  5
5C9
100
AcDbEntity
  8
0
100
AcDbVertex
100
AcDb2dVertex
 10
9.7219888016
 20
7.0902984817
 30
0.0
  0
VERTEX
  5
5CA
100
AcDbEntity
  8
0
100
AcDbVertex
100
AcDb2dVertex
 10
9.7308308039
 20
7.049931489
 30
0.0
  0
VERTEX
  5
5CB
100
AcDbEntity
  8
0
100
AcDbVertex
100
AcDb2dVertex
 10
9.7367300743
 20
7.0104524091
 30
0.0
  0
VERTEX
  5
5CC
100
AcDbEntity
  8
0
100
AcDbVertex
100
AcDb2dVertex
 10
9.7396331883
 20
6.9722187707
 30
0.0
  0
VERTEX
  5
5CD
100
AcDbEntity
  8
0
100
AcDbVertex
100
AcDb2dVertex
 10
9.7395138547
 20
6.9355768236
 30
0.0
  0
VERTEX
  5
5CE
100
AcDbEntity
  8
0
100
AcDbVertex
100
AcDb2dVertex
 10
9.7363731542
 20
6.9008584029
 30
0.0
  0
VERTEX
  5
5CF
100
AcDbEntity
  8
0
100
AcDbVertex
100
AcDb2dVertex
 10
9.7302395295
 20
6.8683779239
 30
0.0
  0
VERTEX
  5
5D0
100
AcDbEntity
  8
0
100
AcDbVertex
100
AcDb2dVertex
 10
9.7211685277
 20
6.838429535
 30
0.0
  0
VERTEX
  5
5D1
100
AcDbEntity
  8
0
100
AcDbVertex
100
AcDb2dVertex
 10
9.7092422972
 20
6.8112844533
 30
0.0
  0
VERTEX
  5
5D2
100
AcDbEntity
  8
0
100
AcDbVertex
100
AcDb2dVertex
 10
9.6945688437
 20
6.787188509
 30
0.0
  0
VERTEX
  5
5D3
100
AcDbEntity
  8
0
100
AcDbVertex
100
AcDb2dVertex
 10
9.6772810524
 20
6.7663599187
 30
0.0
  0
VERTEX
  5
5D4
100
AcDbEntity
  8
0
100
AcDbVertex
100
AcDb2dVertex
 10
9.657535484
 20
6.7489873092
 30
0.0
  0
VERTEX
  5
5D5
100
AcDbEntity
  8
0
100
AcDbVertex
100
AcDb2dVertex
 10
9.6420893356
 20
6.7388197814
 30
0.0
  0
SEQEND
  5
5D6
100
AcDbEntity
  8
0
  0
POLYLINE
  5
5D7
100
AcDbEntity
  8
0
  6
CONTINUOUS
 62
         7
100
AcDb2dPolyline
 66
         1
 10
0.0
 20
0.0
 30
0.0
 70
       128
  0
VERTEX
  5
5D8
100
AcDbEntity
  8
0
100
AcDbVertex
100
AcDb2dVertex
 10
9.1696867848
 20
7.5571336671
 30
0.0
  0
VERTEX
  5
5D9
100
AcDbEntity
  8
0
100
AcDbVertex
100
AcDb2dVertex
 10
9.1762651627
 20
7.5607254389
 30
0.0
  0
VERTEX
  5
5DA
100
AcDbEntity
  8
0
100
AcDbVertex
100
AcDb2dVertex
 10
9.2003691896
 20
7.5707468221
 30
0.0
  0
VERTEX
  5
5DB
100
AcDbEntity
  8
0
100
AcDbVertex
100
AcDb2dVertex
 10
9.2263344272
 20
7.5769395339
 30
0.0
  0
VERTEX
  5
5DC
100
AcDbEntity
  8
0
100
AcDbVertex
100
AcDb2dVertex
 10
9.2539257303
 20
7.5792474921
 30
0.0
  0
VERTEX
  5
5DD
100
AcDbEntity
  8
0
100
AcDbVertex
100
AcDb2dVertex
 10
9.2828932278
 20
7.5776497954
 30
0.0
  0
VERTEX
  5
5DE
100
AcDbEntity
  8
0
100
AcDbVertex
100
AcDb2dVertex
 10
9.3129745855
 20
7.5721609128
 30
0.0
  0
VERTEX
  5
5DF
100
AcDbEntity
  8
0
100
AcDbVertex
100
AcDb2dVertex
 10
9.3438973821
 20
7.5628305526
 30
0.0
  0
VERTEX
  5
5E0
100
AcDbEntity
  8
0
100
AcDbVertex
100
AcDb2dVertex
 10
9.3753815758
 20
7.5497432118
 30
0.0
  0
VERTEX
  5
5E1
100
AcDbEntity
  8
0
100
AcDbVertex
100
AcDb2dVertex
 10
9.407142041
 20
7.5330174115
 30
0.0
  0
VERTEX
  5
5E2
100
AcDbEntity
  8
0
100
AcDbVertex
100
AcDb2dVertex
 10
9.4388911499
 20
7.5128046231
 30
0.0
  0
VERTEX
  5
5E3
100
AcDbEntity
  8
0
100
AcDbVertex
100
AcDb2dVertex
 10
9.4703413778
 20
7.4892878968
 30
0.0
  0
VERTEX
  5
5E4
100
AcDbEntity
  8
0
100
AcDbVertex
100
AcDb2dVertex
 10
9.5012079064
 20
7.4626802036
 30
0.0
  0
VERTEX
  5
5E5
100
AcDbEntity
  8
0
100
AcDbVertex
100
AcDb2dVertex
 10
9.5312112038
 20
7.433222507
 30
0.0
  0
VERTEX
  5
5E6
100
AcDbEntity
  8
0
100
AcDbVertex
100
AcDb2dVertex
 10
9.5600795553
 20
7.4011815804
 30
0.0
  0
VERTEX
  5
5E7
100
AcDbEntity
  8
0
100
AcDbVertex
100
AcDb2dVertex
 10
9.5875515248
 20
7.3668475914
 30
0.0
  0
VERTEX
  5
5E8
100
AcDbEntity
  8
0
100
AcDbVertex
100
AcDb2dVertex
 10
9.6133783218
 20
7.330531474
 30
0.0
  0
VERTEX
  5
5E9
100
AcDbEntity
  8
0
100
AcDbVertex
100
AcDb2dVertex
 10
9.6373260549
 20
7.2925621125
 30
0.0
  0
VERTEX
  5
5EA
100
AcDbEntity
  8
0
100
AcDbVertex
100
AcDb2dVertex
 10
9.6591778496
 20
7.2532833633
 30
0.0
  0
VERTEX
  5
5EB
100
AcDbEntity
  8
0
100
AcDbVertex
100
AcDb2dVertex
 10
9.6787358128
 20
7.2130509408
 30
0.0
  0
SEQEND
  5
5EC
100
AcDbEntity
  8
0
  0
POLYLINE
  5
5ED
100
AcDbEntity
  8
0
  6
CONTINUOUS
 62
         7
100
AcDb2dPolyline
 66
         1
 10
0.0
 20
0.0
 30
0.0
 70
       128
  0
VERTEX
  5
5EE
100
AcDbEntity
  8
0
100
AcDbVertex
100
AcDb2dVertex
 10
9.6810095441
 20
7.213593226
 30
0.0
  0
VERTEX
  5
5EF
100
AcDbEntity
  8
0
100
AcDbVertex
100
AcDb2dVertex
 10
9.6982389476
 20
7.1724313002
 30
0.0
  0
VERTEX
  5
5F0
100
AcDbEntity
  8
0
100
AcDbVertex
100
AcDb2dVertex
 10
9.7128207761
 20
7.1310479099
 30
0.0
  0
VERTEX
  5
5F1
100
AcDbEntity
  8
0
100
AcDbVertex
100
AcDb2dVertex
 10
9.7246229745
 20
7.0898178297
 30
0.0
  0
VERTEX
  5
5F2
100
AcDbEntity
  8
0
100
AcDbVertex
100
AcDb2dVertex
 10
9.7335386601
 20
7.0491144454
 30
0.0
  0
VERTEX
  5
5F3
100
AcDbEntity
  8
0
100
AcDbVertex
100
AcDb2dVertex
 10
9.7394870911
 20
7.0093063732
 30
0.0
  0
VERTEX
  5
5F4
100
AcDbEntity
  8
0
100
AcDbVertex
100
AcDb2dVertex
 10
9.7424143977
 20
6.9707541211
 30
0.0
  0
VERTEX
  5
5F5
100
AcDbEntity
  8
0
100
AcDbVertex
100
AcDb2dVertex
 10
9.7422940696
 20
6.9338068244
 30
0.0
  0
VERTEX
  5
5F6
100
AcDbEntity
  8
0
100
AcDbVertex
100
AcDb2dVertex
 10
9.7391271966
 20
6.8987990835
 30
0.0
  0
VERTEX
  5
5F7
100
AcDbEntity
  8
0
100
AcDbVertex
100
AcDb2dVertex
 10
9.7329424584
 20
6.8660479339
 30
0.0
  0
VERTEX
  5
5F8
100
AcDbEntity
  8
0
100
AcDbVertex
100
AcDb2dVertex
 10
9.723795865
 20
6.8358499751
 30
0.0
  0
VERTEX
  5
5F9
100
AcDbEntity
  8
0
100
AcDbVertex
100
AcDb2dVertex
 10
9.7117702492
 20
6.8084786844
 30
0.0
  0
VERTEX
  5
5FA
100
AcDbEntity
  8
0
100
AcDbVertex
100
AcDb2dVertex
 10
9.6969745169
 20
6.7841819406
 30
0.0
  0
VERTEX
  5
5FB
100
AcDbEntity
  8
0
100
AcDbVertex
100
AcDb2dVertex
 10
9.6795426606
 20
6.7631797786
 30
0.0
  0
VERTEX
  5
5FC
100
AcDbEntity
  8
0
100
AcDbVertex
100
AcDb2dVertex
 10
9.6596325459
 20
6.7456623974
 30
0.0
  0
VERTEX
  5
5FD
100
AcDbEntity
  8
0
100
AcDbVertex
100
AcDb2dVertex
 10
9.6374244818
 20
6.731788437
 30
0.0
  0
VERTEX
  5
5FE
100
AcDbEntity
  8
0
100
AcDbVertex
100
AcDb2dVertex
 10
9.6131195881
 20
6.7216835422
 30
0.0
  0
VERTEX
  5
5FF
100
AcDbEntity
  8
0
100
AcDbVertex
100
AcDb2dVertex
 10
9.6115274533
 20
6.7211767823
 30
0.0
  0
SEQEND
  5
600
100
AcDbEntity
  8
0
  0
POLYLINE
  5
601
100
AcDbEntity
  8
0
  6
CONTINUOUS
 62
         7
100
AcDb2dPolyline
 66
         1
 10
0.0
 20
0.0
 30
0.0
 70
       128
  0
VERTEX
  5
602
100
AcDbEntity
  8
0
100
AcDbVertex
100
AcDb2dVertex
 10
9.1391249025
 20
7.539490668
 30
0.0
  0
VERTEX
  5
603
100
AcDbEntity
  8
0
100
AcDbVertex
100
AcDb2dVertex
 10
9.1521435745
 20
7.5502910511
 30
0.0
  0
VERTEX
  5
604
100
AcDbEntity
  8
0
100
AcDbVertex
100
AcDb2dVertex
 10
9.1743516386
 20
7.5641650115
 30
0.0
  0
VERTEX
  5
605
100
AcDbEntity
  8
0
100
AcDbVertex
100
AcDb2dVertex
 10
9.1986565324
 20
7.5742699063
 30
0.0
  0
VERTEX
  5
606
100
AcDbEntity
  8
0
100
AcDbVertex
100
AcDb2dVertex
 10
9.2248381469
 20
7.580514224
 30
0.0
  0
VERTEX
  5
607
100
AcDbEntity
  8
0
100
AcDbVertex
100
AcDb2dVertex
 10
9.2526593776
 20
7.5828414151
 30
0.0
  0
VERTEX
  5
608
100
AcDbEntity
  8
0
100
AcDbVertex
100
AcDb2dVertex
 10
9.2818682709
 20
7.5812304043
 30
0.0
  0
VERTEX
  5
609
100
AcDbEntity
  8
0
100
AcDbVertex
100
AcDb2dVertex
 10
9.3122003066
 20
7.5756957811
 30
0.0
  0
VERTEX
  5
60A
100
AcDbEntity
  8
0
100
AcDbVertex
100
AcDb2dVertex
 10
9.3433807931
 20
7.5662876678
 30
0.0
  0
VERTEX
  5
60B
100
AcDbEntity
  8
0
100
AcDbVertex
100
AcDb2dVertex
 10
9.3751273551
 20
7.5530912658
 30
0.0
  0
VERTEX
  5
60C
100
AcDbEntity
  8
0
100
AcDbVertex
100
AcDb2dVertex
 10
9.4071524909
 20
7.5362260839
 30
0.0
  0
VERTEX
  5
60D
100
AcDbEntity
  8
0
100
AcDbVertex
100
AcDb2dVertex
 10
9.4391661757
 20
7.5158448556
 30
0.0
  0
VERTEX
  5
60E
100
AcDbEntity
  8
0
100
AcDbVertex
100
AcDb2dVertex
 10
9.4708784888
 20
7.4921321565
 30
0.0
  0
VERTEX
  5
60F
100
AcDbEntity
  8
0
100
AcDbVertex
100
AcDb2dVertex
 10
9.5020022385
 20
7.4653027326
 30
0.0
  0
VERTEX
  5
610
100
AcDbEntity
  8
0
100
AcDbVertex
100
AcDb2dVertex
 10
9.5322555633
 20
7.4355995552
 30
0.0
  0
VERTEX
  5
611
100
AcDbEntity
  8
0
100
AcDbVertex
100
AcDb2dVertex
 10
9.5613644844
 20
7.4032916209
 30
0.0
  0
VERTEX
  5
612
100
AcDbEntity
  8
0
100
AcDbVertex
100
AcDb2dVertex
 10
9.589065387
 20
7.3686715153
 30
0.0
  0
VERTEX
  5
613
100
AcDbEntity
  8
0
100
AcDbVertex
100
AcDb2dVertex
 10
9.6151074073
 20
7.3320527636
 30
0.0
  0
VERTEX
  5
614
100
AcDbEntity
  8
0
100
AcDbVertex
100
AcDb2dVertex
 10
9.6392547048
 20
7.2937669907
 30
0.0
  0
VERTEX
  5
615
100
AcDbEntity
  8
0
100
AcDbVertex
100
AcDb2dVertex
 10
9.6612885979
 20
7.2541609186
 30
0.0
  0
VERTEX
  5
616
100
AcDbEntity
  8
0
100
AcDbVertex
100
AcDb2dVertex
 10
9.6810095441
 20
7.213593226
 30
0.0
  0
SEQEND
  5
617
100
AcDbEntity
  8
0
  0
LINE
  5
618
100
AcDbEntity
  8
0
  6
CONTINUOUS
 62
         7
100
AcDbLine
 10
9.5987910773
 20
6.7068087037
 30
0.0
 11
9.5904271549
 21
6.7089958393
 31
0.0
  0
LINE
  5
619
100
AcDbEntity
  8
0
  6
CONTINUOUS
 62
         7
100
AcDbLine
 10
9.5852824301
 20
6.7060258529
 30
0.0
 11
9.5856744617
 21
6.7055512667
 31
0.0
  0
LINE
  5
61A
100
AcDbEntity
  8
0
  6
CONTINUOUS
 62
         7
100
AcDbLine
 10
9.5856744617
 20
6.7055512667
 30
0.0
 11
9.5848646494
 21
6.7057846732
 31
0.0
  0
LINE
  5
61B
100
AcDbEntity
  8
0
  6
CONTINUOUS
 62
         7
100
AcDbLine
 10
9.1169049232
 20
7.526663347
 30
0.0
 11
9.118774635
 21
7.5336072603
 31
0.0
  0
LINE
  5
61C
100
AcDbEntity
  8
0
  6
CONTINUOUS
 62
         7
100
AcDbLine
 10
9.118774635
 20
7.5336072603
 30
0.0
 11
9.1205280142
 21
7.5287549129
 31
0.0
  0
LINE
  5
61D
100
AcDbEntity
  8
0
  6
CONTINUOUS
 62
         7
100
AcDbLine
 10
9.1228217723
 20
7.5300790713
 30
0.0
 11
9.1268786135
 21
7.5437547075
 31
0.0
  0
LINE
  5
61E
100
AcDbEntity
  8
0
  6
CONTINUOUS
 62
         7
100
AcDbLine
 10
9.1268786135
 20
7.5437547075
 30
0.0
 11
9.1297692247
 21
7.5354294449
 31
0.0
  0
LINE
  5
61F
100
AcDbEntity
  8
0
  6
CONTINUOUS
 62
         7
100
AcDbLine
 10
9.1297692247
 20
7.5354294449
 30
0.0
 11
9.1355348994
 21
7.5531610055
 31
0.0
  0
LINE
  5
620
100
AcDbEntity
  8
0
  6
CONTINUOUS
 62
         7
100
AcDbLine
 10
9.1355348994
 20
7.5531610055
 30
0.0
 11
9.1384986988
 21
7.5442592509
 31
0.0
  0
LINE
  5
621
100
AcDbEntity
  8
0
  6
CONTINUOUS
 62
         7
100
AcDbLine
 10
9.1384986988
 20
7.5442592509
 30
0.0
 11
9.1447270152
 21
7.5618082492
 31
0.0
  0
LINE
  5
622
100
AcDbEntity
  8
0
  6
CONTINUOUS
 62
         7
100
AcDbLine
 10
9.1447270152
 20
7.5618082492
 30
0.0
 11
9.1477437528
 21
7.5523385144
 31
0.0
  0
LINE
  5
623
100
AcDbEntity
  8
0
  6
CONTINUOUS
 62
         7
100
AcDbLine
 10
9.1477437528
 20
7.5523385144
 30
0.0
 11
9.1544374629
 21
7.5696799778
 31
0.0
  0
LINE
  5
624
100
AcDbEntity
  8
0
  6
CONTINUOUS
 62
         7
100
AcDbLine
 10
9.1544374629
 20
7.5696799778
 30
0.0
 11
9.1574867883
 21
7.559651856
 31
0.0
  0
LINE
  5
625
100
AcDbEntity
  8
0
  6
CONTINUOUS
 62
         7
100
AcDbLine
 10
9.1574867883
 20
7.559651856
 30
0.0
 11
9.1646477583
 21
7.5767612071
 31
0.0
  0
LINE
  5
626
100
AcDbEntity
  8
0
  6
CONTINUOUS
 62
         7
100
AcDbLine
 10
9.1646477583
 20
7.5767612071
 30
0.0
 11
9.1677092588
 21
7.5661853545
 31
0.0
  0
LINE
  5
627
100
AcDbEntity
  8
0
  6
CONTINUOUS
 62
         7
100
AcDbLine
 10
9.1677092588
 20
7.5661853545
 30
0.0
 11
9.1753384654
 21
7.5830384577
 31
0.0
  0
LINE
  5
628
100
AcDbEntity
  8
0
  6
CONTINUOUS
 62
         7
100
AcDbLine
 10
9.1753384654
 20
7.5830384577
 30
0.0
 11
9.1783917053
 21
7.5719265728
 31
0.0
  0
LINE
  5
629
100
AcDbEntity
  8
0
  6
CONTINUOUS
 62
         7
100
AcDbLine
 10
9.1783917053
 20
7.5719265728
 30
0.0
 11
9.1864892339
 21
7.5884997804
 31
0.0
  0
LINE
  5
62A
100
AcDbEntity
  8
0
  6
CONTINUOUS
 62
         7
100
AcDbLine
 10
9.1864892339
 20
7.5884997804
 30
0.0
 11
9.1895137931
 21
7.5768645823
 31
0.0
  0
LINE
  5
62B
100
AcDbEntity
  8
0
  6
CONTINUOUS
 62
         7
100
AcDbLine
 10
9.1895137931
 20
7.5768645823
 30
0.0
 11
9.1980788377
 21
7.5931347792
 31
0.0
  0
LINE
  5
62C
100
AcDbEntity
  8
0
  6
CONTINUOUS
 62
         7
100
AcDbLine
 10
9.1980788377
 20
7.5931347792
 30
0.0
 11
9.2010543507
 21
7.5809899832
 31
0.0
  0
LINE
  5
62D
100
AcDbEntity
  8
0
  6
CONTINUOUS
 62
         7
100
AcDbLine
 10
9.2010543507
 20
7.5809899832
 30
0.0
 11
9.2100852153
 21
7.5969346313
 31
0.0
  0
LINE
  5
62E
100
AcDbEntity
  8
0
  6
CONTINUOUS
 62
         7
100
AcDbLine
 10
9.2100852153
 20
7.5969346313
 30
0.0
 11
9.2129914101
 21
7.5842949226
 31
0.0
  0
LINE
  5
62F
100
AcDbEntity
  8
0
  6
CONTINUOUS
 62
         7
100
AcDbLine
 10
9.2129914101
 20
7.5842949226
 30
0.0
 11
9.2224855119
 21
7.5998921033
 31
0.0
  0
LINE
  5
630
100
AcDbEntity
  8
0
  6
CONTINUOUS
 62
         7
100
AcDbLine
 10
9.2224855119
 20
7.5998921033
 30
0.0
 11
9.2253022482
 21
7.5867731092
 31
0.0
  0
LINE
  5
631
100
AcDbEntity
  8
0
  6
CONTINUOUS
 62
         7
100
AcDbLine
 10
9.2253022482
 20
7.5867731092
 30
0.0
 11
9.2352561228
 21
7.6020015655
 31
0.0
  0
LINE
  5
632
100
AcDbEntity
  8
0
  6
CONTINUOUS
 62
         7
100
AcDbLine
 10
9.2352561228
 20
7.6020015655
 30
0.0
 11
9.2379634308
 21
7.5884198258
 31
0.0
  0
LINE
  5
633
100
AcDbEntity
  8
0
  6
CONTINUOUS
 62
         7
100
AcDbLine
 10
9.2379634308
 20
7.5884198258
 30
0.0
 11
9.2483727384
 21
7.6032590025
 31
0.0
  0
LINE
  5
634
100
AcDbEntity
  8
0
  6
CONTINUOUS
 62
         7
100
AcDbLine
 10
9.2483727384
 20
7.6032590025
 30
0.0
 11
9.2509508566
 21
7.5892319377
 31
0.0
  0
LINE
  5
635
100
AcDbEntity
  8
0
  6
CONTINUOUS
 62
         7
100
AcDbLine
 10
9.2509508566
 20
7.5892319377
 30
0.0
 11
9.2618103905
 21
7.6036620206
 31
0.0
  0
LINE
  5
636
100
AcDbEntity
  8
0
  6
CONTINUOUS
 62
         7
100
AcDbLine
 10
9.2618103905
 20
7.6036620206
 30
0.0
 11
9.2642398032
 21
7.5892078991
 31
0.0
  0
LINE
  5
637
100
AcDbEntity
  8
0
  6
CONTINUOUS
 62
         7
100
AcDbLine
 10
9.2642398032
 20
7.5892078991
 30
0.0
 11
9.2755434998
 21
7.6032098527
 31
0.0
  0
LINE
  5
638
100
AcDbEntity
  8
0
  6
CONTINUOUS
 62
         7
100
AcDbLine
 10
9.2755434998
 20
7.6032098527
 30
0.0
 11
9.2778049744
 21
7.5883477556
 31
0.0
  0
LINE
  5
639
100
AcDbEntity
  8
0
  6
CONTINUOUS
 62
         7
100
AcDbLine
 10
9.2778049744
 20
7.5883477556
 30
0.0
 11
9.2895459245
 21
7.6019033595
 31
0.0
  0
LINE
  5
63A
100
AcDbEntity
  8
0
  6
CONTINUOUS
 62
         7
100
AcDbLine
 10
9.2895459245
 20
7.6019033595
 30
0.0
 11
9.2916205482
 21
7.5866531446
 31
0.0
  0
LINE
  5
63B
100
AcDbEntity
  8
0
  6
CONTINUOUS
 62
         7
100
AcDbLine
 10
9.2916205482
 20
7.5866531446
 30
0.0
 11
9.3037910101
 21
7.599745028
 31
0.0
  0
LINE
  5
63C
100
AcDbEntity
  8
0
  6
CONTINUOUS
 62
         7
100
AcDbLine
 10
9.3037910101
 20
7.599745028
 30
0.0
 11
9.3056602257
 21
7.584127292
 31
0.0
  0
LINE
  5
63D
100
AcDbEntity
  8
0
  6
CONTINUOUS
 62
         7
100
AcDbLine
 10
9.3056602257
 20
7.584127292
 30
0.0
 11
9.3182516405
 21
7.5967389668
 31
0.0
  0
LINE
  5
63E
100
AcDbEntity
  8
0
  6
CONTINUOUS
 62
         7
100
AcDbLine
 10
9.3182516405
 20
7.5967389668
 30
0.0
 11
9.3198972817
 21
7.5807750057
 31
0.0
  0
LINE
  5
63F
100
AcDbEntity
  8
0
  6
CONTINUOUS
 62
         7
100
AcDbLine
 10
9.3198972817
 20
7.5807750057
 30
0.0
 11
9.3329002889
 21
7.5928908979
 31
0.0
  0
LINE
  5
640
100
AcDbEntity
  8
0
  6
CONTINUOUS
 62
         7
100
AcDbLine
 10
9.3329002889
 20
7.5928908979
 30
0.0
 11
9.3343046152
 21
7.5766026671
 31
0.0
  0
LINE
  5
641
100
AcDbEntity
  8
0
  6
CONTINUOUS
 62
         7
100
AcDbLine
 10
9.3343046152
 20
7.5766026671
 30
0.0
 11
9.3477090708
 21
7.5882081464
 31
0.0
  0
LINE
  5
642
100
AcDbEntity
  8
0
  6
CONTINUOUS
 62
         7
100
AcDbLine
 10
9.3477090708
 20
7.5882081464
 30
0.0
 11
9.3488548009
 21
7.5716182185
 31
0.0
  0
LINE
  5
643
100
AcDbEntity
  8
0
  6
CONTINUOUS
 62
         7
100
AcDbLine
 10
9.3488548009
 20
7.5716182185
 30
0.0
 11
9.3626497968
 21
7.5826996263
 31
0.0
  0
LINE
  5
644
100
AcDbEntity
  8
0
  6
CONTINUOUS
 62
         7
100
AcDbLine
 10
9.3626497968
 20
7.5826996263
 30
0.0
 11
9.3635201417
 21
7.565831148
 31
0.0
  0
LINE
  5
645
100
AcDbEntity
  8
0
  6
CONTINUOUS
 62
         7
100
AcDbLine
 10
9.3635201417
 20
7.565831148
 30
0.0
 11
9.3776940265
 21
7.5763758233
 31
0.0
  0
LINE
  5
646
100
AcDbEntity
  8
0
  6
CONTINUOUS
 62
         7
100
AcDbLine
 10
9.3776940265
 20
7.5763758233
 30
0.0
 11
9.3782727213
 21
7.5592524717
 31
0.0
  0
LINE
  5
647
100
AcDbEntity
  8
0
  6
CONTINUOUS
 62
         7
100
AcDbLine
 10
9.3782727213
 20
7.5592524717
 30
0.0
 11
9.3928131223
 21
7.569248775
 31
0.0
  0
LINE
  5
648
100
AcDbEntity
  8
0
  6
CONTINUOUS
 62
         7
100
AcDbLine
 10
9.3928131223
 20
7.569248775
 30
0.0
 11
9.3930844575
 21
7.5518947124
 31
0.0
  0
LINE
  5
649
100
AcDbEntity
  8
0
  6
CONTINUOUS
 62
         7
100
AcDbLine
 10
9.3930844575
 20
7.5518947124
 30
0.0
 11
9.407978304
 21
7.5613320484
 31
0.0
  0
LINE
  5
64A
100
AcDbEntity
  8
0
  6
CONTINUOUS
 62
         7
100
AcDbLine
 10
9.407978304
 20
7.5613320484
 30
0.0
 11
9.407927155
 21
7.5437718761
 31
0.0
  0
LINE
  5
64B
100
AcDbEntity
  8
0
  6
CONTINUOUS
 62
         7
100
AcDbLine
 10
9.407927155
 20
7.5437718761
 30
0.0
 11
9.423160704
 21
7.5526407132
 31
0.0
  0
LINE
  5
64C
100
AcDbEntity
  8
0
  6
CONTINUOUS
 62
         7
100
AcDbLine
 10
9.423160704
 20
7.5526407132
 30
0.0
 11
9.4227725602
 21
7.534899425
 31
0.0
  0
LINE
  5
64D
100
AcDbEntity
  8
0
  6
CONTINUOUS
 62
         7
100
AcDbLine
 10
9.4227725602
 20
7.534899425
 30
0.0
 11
9.4383314217
 21
7.5431913139
 31
0.0
  0
LINE
  5
64E
100
AcDbEntity
  8
0
  6
CONTINUOUS
 62
         7
100
AcDbLine
 10
9.4383314217
 20
7.5431913139
 30
0.0
 11
9.4375924138
 21
7.5252942483
 31
0.0
  0
LINE
  5
64F
100
AcDbEntity
  8
0
  6
CONTINUOUS
 62
         7
100
AcDbLine
 10
9.4375924138
 20
7.5252942483
 30
0.0
 11
9.4534615787
 21
7.5330018381
 31
0.0
  0
LINE
  5
650
100
AcDbEntity
  8
0
  6
CONTINUOUS
 62
         7
100
AcDbLine
 10
9.4534615787
 20
7.5330018381
 30
0.0
 11
9.4523585055
 21
7.5149746301
 31
0.0
  0
LINE
  5
651
100
AcDbEntity
  8
0
  6
CONTINUOUS
 62
         7
100
AcDbLine
 10
9.4523585055
 20
7.5149746301
 30
0.0
 11
9.468522374
 21
7.5220916819
 31
0.0
  0
POLYLINE
  5
652
100
AcDbEntity
  8
0
  6
CONTINUOUS
 62
         7
100
AcDb2dPolyline
 66
         1
 10
0.0
 20
0.0
 30
0.0
 70
       128
  0
VERTEX
  5
653
100
AcDbEntity
  8
0
100
AcDbVertex
100
AcDb2dVertex
 10
9.468522374
 20
7.5220916819
 30
0.0
  0
VERTEX
  5
654
100
AcDbEntity
  8
0
100
AcDbVertex
100
AcDb2dVertex
 10
9.4682997144
 20
7.5194799778
 30
0.0
  0
VERTEX
  5
655
100
AcDbEntity
  8
0
100
AcDbVertex
100
AcDb2dVertex
 10
9.4670427272
 20
7.5039602144
 30
0.0
  0
SEQEND
  5
656
100
AcDbEntity
  8
0
  0
POLYLINE
  5
657
100
AcDbEntity
  8
0
  6
CONTINUOUS
 62
         7
100
AcDb2dPolyline
 66
         1
 10
0.0
 20
0.0
 30
0.0
 70
       128
  0
VERTEX
  5
658
100
AcDbEntity
  8
0
100
AcDbVertex
100
AcDb2dVertex
 10
9.4670427272
 20
7.5039602144
 30
0.0
  0
VERTEX
  5
659
100
AcDbEntity
  8
0
100
AcDbVertex
100
AcDb2dVertex
 10
9.4736519596
 20
7.5065780045
 30
0.0
  0
VERTEX
  5
65A
100
AcDbEntity
  8
0
100
AcDbVertex
100
AcDb2dVertex
 10
9.4834851384
 20
7.5104816135
 30
0.0
  0
SEQEND
  5
65B
100
AcDbEntity
  8
0
  0
LINE
  5
65C
100
AcDbEntity
  8
0
  6
CONTINUOUS
 62
         7
100
AcDbLine
 10
9.4834851384
 20
7.5104816135
 30
0.0
 11
9.4816171265
 21
7.4922719676
 31
0.0
  0
LINE
  5
65D
100
AcDbEntity
  8
0
  6
CONTINUOUS
 62
         7
100
AcDbLine
 10
9.4816171265
 20
7.4922719676
 30
0.0
 11
9.4983213895
 21
7.4981937333
 31
0.0
  0
LINE
  5
65E
100
AcDbEntity
  8
0
  6
CONTINUOUS
 62
         7
100
AcDbLine
 10
9.4983213895
 20
7.4981937333
 30
0.0
 11
9.4960539604
 21
7.479932139
 31
0.0
  0
LINE
  5
65F
100
AcDbEntity
  8
0
  6
CONTINUOUS
 62
         7
100
AcDbLine
 10
9.4960539604
 20
7.479932139
 30
0.0
 11
9.5130028857
 21
7.4852514319
 31
0.0
  0
LINE
  5
660
100
AcDbEntity
  8
0
  6
CONTINUOUS
 62
         7
100
AcDbLine
 10
9.5130028857
 20
7.4852514319
 30
0.0
 11
9.5103257474
 21
7.4669642183
 31
0.0
  0
LINE
  5
661
100
AcDbEntity
  8
0
  6
CONTINUOUS
 62
         7
100
AcDbLine
 10
9.5103257474
 20
7.4669642183
 30
0.0
 11
9.5275016798
 21
7.4716793458
 31
0.0
  0
LINE
  5
662
100
AcDbEntity
  8
0
  6
CONTINUOUS
 62
         7
100
AcDbLine
 10
9.5275016798
 20
7.4716793458
 30
0.0
 11
9.5244053204
 21
7.4533928905
 31
0.0
  0
LINE
  5
663
100
AcDbEntity
  8
0
  6
CONTINUOUS
 62
         7
100
AcDbLine
 10
9.5244053204
 20
7.4533928905
 30
0.0
 11
9.5417901726
 21
7.4575033102
 31
0.0
  0
LINE
  5
664
100
AcDbEntity
  8
0
  6
CONTINUOUS
 62
         7
100
AcDbLine
 10
9.5417901726
 20
7.4575033102
 30
0.0
 11
9.5382658782
 21
7.4392439895
 31
0.0
  0
LINE
  5
665
100
AcDbEntity
  8
0
  6
CONTINUOUS
 62
         7
100
AcDbLine
 10
9.5382658782
 20
7.4392439895
 30
0.0
 11
9.5558411651
 21
7.44275031
 31
0.0
  0
LINE
  5
666
100
AcDbEntity
  8
0
  6
CONTINUOUS
 62
         7
100
AcDbLine
 10
9.5558411651
 20
7.44275031
 30
0.0
 11
9.5518810364
 21
7.4245444486
 31
0.0
  0
LINE
  5
667
100
AcDbEntity
  8
0
  6
CONTINUOUS
 62
         7
100
AcDbLine
 10
9.5518810364
 20
7.4245444486
 30
0.0
 11
9.5696279106
 21
7.4274484284
 31
0.0
  0
LINE
  5
668
100
AcDbEntity
  8
0
  6
CONTINUOUS
 62
         7
100
AcDbLine
 10
9.5696279106
 20
7.4274484284
 30
0.0
 11
9.5652248778
 21
7.409322249
 31
0.0
  0
LINE
  5
669
100
AcDbEntity
  8
0
  6
CONTINUOUS
 62
         7
100
AcDbLine
 10
9.5652248778
 20
7.409322249
 30
0.0
 11
9.583124165
 21
7.4116267933
 31
0.0
  0
LINE
  5
66A
100
AcDbEntity
  8
0
  6
CONTINUOUS
 62
         7
100
AcDbLine
 10
9.583124165
 20
7.4116267933
 30
0.0
 11
9.5782720015
 21
7.3936063672
 31
0.0
  0
LINE
  5
66B
100
AcDbEntity
  8
0
  6
CONTINUOUS
 62
         7
100
AcDbLine
 10
9.5782720015
 20
7.3936063672
 30
0.0
 11
9.5963042376
 21
7.3953155222
 31
0.0
  0
LINE
  5
66C
100
AcDbEntity
  8
0
  6
CONTINUOUS
 62
         7
100
AcDbLine
 10
9.5963042376
 20
7.3953155222
 30
0.0
 11
9.5909975717
 21
7.3774267191
 31
0.0
  0
LINE
  5
66D
100
AcDbEntity
  8
0
  6
CONTINUOUS
 62
         7
100
AcDbLine
 10
9.5909975717
 20
7.3774267191
 30
0.0
 11
9.6091430393
 21
7.3785456645
 31
0.0
  0
LINE
  5
66E
100
AcDbEntity
  8
0
  6
CONTINUOUS
 62
         7
100
AcDbLine
 10
9.6091430393
 20
7.3785456645
 30
0.0
 11
9.6033773646
 21
7.3608141038
 31
0.0
  0
LINE
  5
66F
100
AcDbEntity
  8
0
  6
CONTINUOUS
 62
         7
100
AcDbLine
 10
9.6033773646
 20
7.3608141038
 30
0.0
 11
9.6216161307
 21
7.3613491425
 31
0.0
  0
LINE
  5
670
100
AcDbEntity
  8
0
  6
CONTINUOUS
 62
         7
100
AcDbLine
 10
9.6216161307
 20
7.3613491425
 30
0.0
 11
9.6153878144
 21
7.3438001443
 31
0.0
  0
LINE
  5
671
100
AcDbEntity
  8
0
  6
CONTINUOUS
 62
         7
100
AcDbLine
 10
9.6153878144
 20
7.3438001443
 30
0.0
 11
9.6336997686
 21
7.3437586909
 31
0.0
  0
LINE
  5
672
100
AcDbEntity
  8
0
  6
CONTINUOUS
 62
         7
100
AcDbLine
 10
9.6336997686
 20
7.3437586909
 30
0.0
 11
9.6270060586
 21
7.3264172275
 31
0.0
  0
LINE
  5
673
100
AcDbEntity
  8
0
  6
CONTINUOUS
 62
         7
100
AcDbLine
 10
9.6270060586
 20
7.3264172275
 30
0.0
 11
9.6453709512
 21
7.325807794
 31
0.0
  0
LINE
  5
674
100
AcDbEntity
  8
0
  6
CONTINUOUS
 62
         7
100
AcDbLine
 10
9.6453709512
 20
7.325807794
 30
0.0
 11
9.6382099812
 21
7.3086984429
 31
0.0
  0
LINE
  5
675
100
AcDbEntity
  8
0
  6
CONTINUOUS
 62
         7
100
AcDbLine
 10
9.6382099812
 20
7.3086984429
 30
0.0
 11
9.6566074615
 21
7.3075306224
 31
0.0
  0
LINE
  5
676
100
AcDbEntity
  8
0
  6
CONTINUOUS
 62
         7
100
AcDbLine
 10
9.6566074615
 20
7.3075306224
 30
0.0
 11
9.6489782549
 21
7.2906775191
 31
0.0
  0
LINE
  5
677
100
AcDbEntity
  8
0
  6
CONTINUOUS
 62
         7
100
AcDbLine
 10
9.6489782549
 20
7.2906775191
 30
0.0
 11
9.6673879104
 21
7.2889619677
 31
0.0
  0
LINE
  5
678
100
AcDbEntity
  8
0
  6
CONTINUOUS
 62
         7
100
AcDbLine
 10
9.6673879104
 20
7.2889619677
 30
0.0
 11
9.6592903817
 21
7.2723887601
 31
0.0
  0
LINE
  5
679
100
AcDbEntity
  8
0
  6
CONTINUOUS
 62
         7
100
AcDbLine
 10
9.6592903817
 20
7.2723887601
 30
0.0
 11
9.6776917765
 21
7.2701371765
 31
0.0
  0
LINE
  5
67A
100
AcDbEntity
  8
0
  6
CONTINUOUS
 62
         7
100
AcDbLine
 10
9.6776917765
 20
7.2701371765
 30
0.0
 11
9.6691267319
 21
7.2538669795
 31
0.0
  0
LINE
  5
67B
100
AcDbEntity
  8
0
  6
CONTINUOUS
 62
         7
100
AcDbLine
 10
9.6691267319
 20
7.2538669795
 30
0.0
 11
9.687499446
 21
7.2510920827
 31
0.0
  0
LINE
  5
67C
100
AcDbEntity
  8
0
  6
CONTINUOUS
 62
         7
100
AcDbLine
 10
9.687499446
 20
7.2510920827
 30
0.0
 11
9.6784685814
 21
7.2351474346
 31
0.0
  0
LINE
  5
67D
100
AcDbEntity
  8
0
  6
CONTINUOUS
 62
         7
100
AcDbLine
 10
9.6784685814
 20
7.2351474346
 30
0.0
 11
9.6967922493
 21
7.2318629398
 31
0.0
  0
LINE
  5
67E
100
AcDbEntity
  8
0
  6
CONTINUOUS
 62
         7
100
AcDbLine
 10
9.6967922493
 20
7.2318629398
 30
0.0
 11
9.6872981475
 21
7.2162657591
 31
0.0
  0
LINE
  5
67F
100
AcDbEntity
  8
0
  6
CONTINUOUS
 62
         7
100
AcDbLine
 10
9.6872981475
 20
7.2162657591
 30
0.0
 11
9.7055524971
 21
7.2124863516
 31
0.0
  0
LINE
  5
680
100
AcDbEntity
  8
0
  6
CONTINUOUS
 62
         7
100
AcDbLine
 10
9.7055524971
 20
7.2124863516
 30
0.0
 11
9.6955986226
 21
7.1972578953
 31
0.0
  0
LINE
  5
681
100
AcDbEntity
  8
0
  6
CONTINUOUS
 62
         7
100
AcDbLine
 10
9.6955986226
 20
7.1972578953
 30
0.0
 11
9.7137635138
 21
7.1929992025
 31
0.0
  0
LINE
  5
682
100
AcDbEntity
  8
0
  6
CONTINUOUS
 62
         7
100
AcDbLine
 10
9.7137635138
 20
7.1929992025
 30
0.0
 11
9.7033542062
 21
7.1781600259
 31
0.0
  0
LINE
  5
683
100
AcDbEntity
  8
0
  6
CONTINUOUS
 62
         7
100
AcDbLine
 10
9.7033542062
 20
7.1781600259
 30
0.0
 11
9.7214096691
 21
7.1734385874
 31
0.0
  0
LINE
  5
684
100
AcDbEntity
  8
0
  6
CONTINUOUS
 62
         7
100
AcDbLine
 10
9.7214096691
 20
7.1734385874
 30
0.0
 11
9.7105501352
 21
7.1590085045
 31
0.0
  0
LINE
  5
685
100
AcDbEntity
  8
0
  6
CONTINUOUS
 62
         7
100
AcDbLine
 10
9.7105501352
 20
7.1590085045
 30
0.0
 11
9.7284764083
 21
7.153841741
 31
0.0
  0
LINE
  5
686
100
AcDbEntity
  8
0
  6
CONTINUOUS
 62
         7
100
AcDbLine
 10
9.7284764083
 20
7.153841741
 30
0.0
 11
9.7171727117
 21
7.1398397874
 31
0.0
  0
LINE
  5
687
100
AcDbEntity
  8
0
  6
CONTINUOUS
 62
         7
100
AcDbLine
 10
9.7171727117
 20
7.1398397874
 30
0.0
 11
9.7349502794
 21
7.1342459671
 31
0.0
  0
LINE
  5
688
100
AcDbEntity
  8
0
  6
CONTINUOUS
 62
         7
100
AcDbLine
 10
9.7349502794
 20
7.1342459671
 30
0.0
 11
9.7232093293
 21
7.1206903632
 31
0.0
  0
LINE
  5
689
100
AcDbEntity
  8
0
  6
CONTINUOUS
 62
         7
100
AcDbLine
 10
9.7232093293
 20
7.1206903632
 30
0.0
 11
9.7408189589
 21
7.1146885673
 31
0.0
  0
LINE
  5
68A
100
AcDbEntity
  8
0
  6
CONTINUOUS
 62
         7
100
AcDbLine
 10
9.7408189589
 20
7.1146885673
 30
0.0
 11
9.7286484969
 21
7.1015966839
 31
0.0
  0
LINE
  5
68B
100
AcDbEntity
  8
0
  6
CONTINUOUS
 62
         7
100
AcDbLine
 10
9.7286484969
 20
7.1015966839
 30
0.0
 11
9.7460712756
 21
7.0952067703
 31
0.0
  0
LINE
  5
68C
100
AcDbEntity
  8
0
  6
CONTINUOUS
 62
         7
100
AcDbLine
 10
9.7460712756
 20
7.0952067703
 30
0.0
 11
9.7334798608
 21
7.0825950955
 31
0.0
  0
LINE
  5
68D
100
AcDbEntity
  8
0
  6
CONTINUOUS
 62
         7
100
AcDbLine
 10
9.7334798608
 20
7.0825950955
 30
0.0
 11
9.7506972313
 21
7.0758376607
 31
0.0
  0
LINE
  5
68E
100
AcDbEntity
  8
0
  6
CONTINUOUS
 62
         7
100
AcDbLine
 10
9.7506972313
 20
7.0758376607
 30
0.0
 11
9.7376942242
 21
7.0637217685
 31
0.0
  0
LINE
  5
68F
100
AcDbEntity
  8
0
  6
CONTINUOUS
 62
         7
100
AcDbLine
 10
9.7376942242
 20
7.0637217685
 30
0.0
 11
9.7546880203
 21
7.0566181088
 31
0.0
  0
LINE
  5
690
100
AcDbEntity
  8
0
  6
CONTINUOUS
 62
         7
100
AcDbLine
 10
9.7546880203
 20
7.0566181088
 30
0.0
 11
9.7412835647
 21
7.0450126295
 31
0.0
  0
LINE
  5
691
100
AcDbEntity
  8
0
  6
CONTINUOUS
 62
         7
100
AcDbLine
 10
9.7412835647
 20
7.0450126295
 30
0.0
 11
9.7580360459
 21
7.0375847
 31
0.0
  0
LINE
  5
692
100
AcDbEntity
  8
0
  6
CONTINUOUS
 62
         7
100
AcDbLine
 10
9.7580360459
 20
7.0375847
 30
0.0
 11
9.7442410499
 21
7.0265032922
 31
0.0
  0
LINE
  5
693
100
AcDbEntity
  8
0
  6
CONTINUOUS
 62
         7
100
AcDbLine
 10
9.7442410499
 20
7.0265032922
 30
0.0
 11
9.7607349349
 21
7.0187736655
 31
0.0
  0
LINE
  5
694
100
AcDbEntity
  8
0
  6
CONTINUOUS
 62
         7
100
AcDbLine
 10
9.7607349349
 20
7.0187736655
 30
0.0
 11
9.7465610501
 21
7.0082289903
 31
0.0
  0
LINE
  5
695
100
AcDbEntity
  8
0
  6
CONTINUOUS
 62
         7
100
AcDbLine
 10
9.7465610501
 20
7.0082289903
 30
0.0
 11
9.7627795499
 21
7.0002208133
 31
0.0
  0
LINE
  5
696
100
AcDbEntity
  8
0
  6
CONTINUOUS
 62
         7
100
AcDbLine
 10
9.7627795499
 20
7.0002208133
 30
0.0
 11
9.748239149
 21
6.99022451
 31
0.0
  0
LINE
  5
697
100
AcDbEntity
  8
0
  6
CONTINUOUS
 62
         7
100
AcDbLine
 10
9.748239149
 20
6.99022451
 30
0.0
 11
9.7641659987
 21
6.9819614597
 31
0.0
  0
LINE
  5
698
100
AcDbEntity
  8
0
  6
CONTINUOUS
 62
         7
100
AcDbLine
 10
9.7641659987
 20
6.9819614597
 30
0.0
 11
9.7492721522
 21
6.9725241238
 31
0.0
  0
LINE
  5
699
100
AcDbEntity
  8
0
  6
CONTINUOUS
 62
         7
100
AcDbLine
 10
9.7492721522
 20
6.9725241238
 30
0.0
 11
9.7648916423
 21
6.9640303624
 31
0.0
  0
LINE
  5
69A
100
AcDbEntity
  8
0
  6
CONTINUOUS
 62
         7
100
AcDbLine
 10
9.7648916423
 20
6.9640303624
 30
0.0
 11
9.7496580933
 21
6.9551615253
 31
0.0
  0
LINE
  5
69B
100
AcDbEntity
  8
0
  6
CONTINUOUS
 62
         7
100
AcDbLine
 10
9.7496580933
 20
6.9551615253
 30
0.0
 11
9.7649550993
 21
6.9464616543
 31
0.0
  0
LINE
  5
69C
100
AcDbEntity
  8
0
  6
CONTINUOUS
 62
         7
100
AcDbLine
 10
9.7649550993
 20
6.9464616543
 30
0.0
 11
9.7493962378
 21
6.9381697654
 31
0.0
  0
LINE
  5
69D
100
AcDbEntity
  8
0
  6
CONTINUOUS
 62
         7
100
AcDbLine
 10
9.7493962378
 20
6.9381697654
 30
0.0
 11
9.7643562489
 21
6.9292887785
 31
0.0
  0
LINE
  5
69E
100
AcDbEntity
  8
0
  6
CONTINUOUS
 62
         7
100
AcDbLine
 10
9.7643562489
 20
6.9292887785
 30
0.0
 11
9.748487084
 21
6.9215811887
 31
0.0
  0
LINE
  5
69F
100
AcDbEntity
  8
0
  6
CONTINUOUS
 62
         7
100
AcDbLine
 10
9.748487084
 20
6.9215811887
 30
0.0
 11
9.763096231
 21
6.9125444244
 31
0.0
  0
LINE
  5
6A0
100
AcDbEntity
  8
0
  6
CONTINUOUS
 62
         7
100
AcDbLine
 10
9.763096231
 20
6.9125444244
 30
0.0
 11
9.7469323625
 21
6.9054273726
 31
0.0
  0
LINE
  5
6A1
100
AcDbEntity
  8
0
  6
CONTINUOUS
 62
         7
100
AcDbLine
 10
9.7469323625
 20
6.9054273726
 30
0.0
 11
9.7611774443
 21
6.8962604659
 31
0.0
  0
POLYLINE
  5
6A2
100
AcDbEntity
  8
0
  6
CONTINUOUS
 62
         7
100
AcDb2dPolyline
 66
         1
 10
0.0
 20
0.0
 30
0.0
 70
       128
  0
VERTEX
  5
6A3
100
AcDbEntity
  8
0
100
AcDbVertex
100
AcDb2dVertex
 10
9.7611774443
 20
6.8962604659
 30
0.0
  0
VERTEX
  5
6A4
100
AcDbEntity
  8
0
100
AcDbVertex
100
AcDb2dVertex
 10
9.7513442655
 20
6.8923568569
 30
0.0
  0
VERTEX
  5
6A5
100
AcDbEntity
  8
0
100
AcDbVertex
100
AcDb2dVertex
 10
9.744735033
 20
6.8897390668
 30
0.0
  0
SEQEND
  5
6A6
100
AcDbEntity
  8
0
  0
POLYLINE
  5
6A7
100
AcDbEntity
  8
0
  6
CONTINUOUS
 62
         7
100
AcDb2dPolyline
 66
         1
 10
0.0
 20
0.0
 30
0.0
 70
       128
  0
VERTEX
  5
6A8
100
AcDbEntity
  8
0
100
AcDbVertex
100
AcDb2dVertex
 10
9.744735033
 20
6.8897390668
 30
0.0
  0
VERTEX
  5
6A9
100
AcDbEntity
  8
0
100
AcDbVertex
100
AcDb2dVertex
 10
9.7503065617
 20
6.8859898713
 30
0.0
  0
VERTEX
  5
6AA
100
AcDbEntity
  8
0
100
AcDbVertex
100
AcDb2dVertex
 10
9.7586035411
 20
6.8804679005
 30
0.0
  0
SEQEND
  5
6AB
100
AcDbEntity
  8
0
  0
LINE
  5
6AC
100
AcDbEntity
  8
0
  6
CONTINUOUS
 62
         7
100
AcDbLine
 10
9.7586035411
 20
6.8804679005
 30
0.0
 11
9.7418992781
 21
6.8745461349
 31
0.0
  0
LINE
  5
6AD
100
AcDbEntity
  8
0
  6
CONTINUOUS
 62
         7
100
AcDbLine
 10
9.7418992781
 20
6.8745461349
 30
0.0
 11
9.7553794211
 21
6.8651967902
 31
0.0
  0
LINE
  5
6AE
100
AcDbEntity
  8
0
  6
CONTINUOUS
 62
         7
100
AcDbLine
 10
9.7553794211
 20
6.8651967902
 30
0.0
 11
9.7384304958
 21
6.8598774974
 31
0.0
  0
LINE
  5
6AF
100
AcDbEntity
  8
0
  6
CONTINUOUS
 62
         7
100
AcDbLine
 10
9.7384304958
 20
6.8598774974
 30
0.0
 11
9.7515112215
 21
6.8504762044
 31
0.0
  0
LINE
  5
6B0
100
AcDbEntity
  8
0
  6
CONTINUOUS
 62
         7
100
AcDbLine
 10
9.7515112215
 20
6.8504762044
 30
0.0
 11
9.7343352892
 21
6.8457610769
 31
0.0
  0
LINE
  5
6B1
100
AcDbEntity
  8
0
  6
CONTINUOUS
 62
         7
100
AcDbLine
 10
9.7343352892
 20
6.8457610769
 30
0.0
 11
9.7470063058
 21
6.8363341646
 31
0.0
  0
LINE
  5
6B2
100
AcDbEntity
  8
0
  6
CONTINUOUS
 62
         7
100
AcDbLine
 10
9.7470063058
 20
6.8363341646
 30
0.0
 11
9.7296214537
 21
6.832223745
 31
0.0
  0
LINE
  5
6B3
100
AcDbEntity
  8
0
  6
CONTINUOUS
 62
         7
100
AcDbLine
 10
9.7296214537
 20
6.832223745
 30
0.0
 11
9.7418732492
 21
6.822797591
 31
0.0
  0
LINE
  5
6B4
100
AcDbEntity
  8
0
  6
CONTINUOUS
 62
         7
100
AcDbLine
 10
9.7418732492
 20
6.822797591
 30
0.0
 11
9.7242979623
 21
6.8192912705
 31
0.0
  0
LINE
  5
6B5
100
AcDbEntity
  8
0
  6
CONTINUOUS
 62
         7
100
AcDbLine
 10
9.7242979623
 20
6.8192912705
 30
0.0
 11
9.7361218229
 21
6.8098922511
 31
0.0
  0
LINE
  5
6B6
100
AcDbEntity
  8
0
  6
CONTINUOUS
 62
         7
100
AcDbLine
 10
9.7361218229
 20
6.8098922511
 30
0.0
 11
9.7183749487
 21
6.8069882714
 31
0.0
  0
LINE
  5
6B7
100
AcDbEntity
  8
0
  6
CONTINUOUS
 62
         7
100
AcDbLine
 10
9.7183749487
 20
6.8069882714
 30
0.0
 11
9.7297629749
 21
6.7976427112
 31
0.0
  0
LINE
  5
6B8
100
AcDbEntity
  8
0
  6
CONTINUOUS
 62
         7
100
AcDbLine
 10
9.7297629749
 20
6.7976427112
 30
0.0
 11
9.7118636877
 21
6.7953381669
 31
0.0
  0
LINE
  5
6B9
100
AcDbEntity
  8
0
  6
CONTINUOUS
 62
         7
100
AcDbLine
 10
9.7118636877
 20
6.7953381669
 30
0.0
 11
9.7228088098
 21
6.7860722888
 31
0.0
  0
LINE
  5
6BA
100
AcDbEntity
  8
0
  6
CONTINUOUS
 62
         7
100
AcDbLine
 10
9.7228088098
 20
6.7860722888
 30
0.0
 11
9.7047765738
 21
6.7843631337
 31
0.0
  0
LINE
  5
6BB
100
AcDbEntity
  8
0
  6
CONTINUOUS
 62
         7
100
AcDbLine
 10
9.7047765738
 20
6.7843631337
 30
0.0
 11
9.7152725652
 21
6.7752030088
 31
0.0
  0
LINE
  5
6BC
100
AcDbEntity
  8
0
  6
CONTINUOUS
 62
         7
100
AcDbLine
 10
9.7152725652
 20
6.7752030088
 30
0.0
 11
9.6971270976
 21
6.7740840635
 31
0.0
  0
LINE
  5
6BD
100
AcDbEntity
  8
0
  6
CONTINUOUS
 62
         7
100
AcDbLine
 10
9.6971270976
 20
6.7740840635
 30
0.0
 11
9.7071685867
 21
6.7650555617
 31
0.0
  0
LINE
  5
6BE
100
AcDbEntity
  8
0
  6
CONTINUOUS
 62
         7
100
AcDbLine
 10
9.7071685867
 20
6.7650555617
 30
0.0
 11
9.6889298205
 21
6.764520523
 31
0.0
  0
LINE
  5
6BF
100
AcDbEntity
  8
0
  6
CONTINUOUS
 62
         7
100
AcDbLine
 10
9.6889298205
 20
6.764520523
 30
0.0
 11
9.6985123007
 21
6.7556492636
 31
0.0
  0
LINE
  5
6C0
100
AcDbEntity
  8
0
  6
CONTINUOUS
 62
         7
100
AcDbLine
 10
9.6985123007
 20
6.7556492636
 30
0.0
 11
9.6802003464
 21
6.755690717
 31
0.0
  0
LINE
  5
6C1
100
AcDbEntity
  8
0
  6
CONTINUOUS
 62
         7
100
AcDbLine
 10
9.6802003464
 20
6.755690717
 30
0.0
 11
9.689320185
 21
6.74700202
 31
0.0
  0
LINE
  5
6C2
100
AcDbEntity
  8
0
  6
CONTINUOUS
 62
         7
100
AcDbLine
 10
9.689320185
 20
6.74700202
 30
0.0
 11
9.6709552924
 21
6.7476114535
 31
0.0
  0
LINE
  5
6C3
100
AcDbEntity
  8
0
  6
CONTINUOUS
 62
         7
100
AcDbLine
 10
9.6709552924
 20
6.7476114535
 30
0.0
 11
9.6796097372
 21
6.7391302914
 31
0.0
  0
LINE
  5
6C4
100
AcDbEntity
  8
0
  6
CONTINUOUS
 62
         7
100
AcDbLine
 10
9.6796097372
 20
6.7391302914
 30
0.0
 11
9.6612122569
 21
6.7402981119
 31
0.0
  0
LINE
  5
6C5
100
AcDbEntity
  8
0
  6
CONTINUOUS
 62
         7
100
AcDbLine
 10
9.6612122569
 20
6.7402981119
 30
0.0
 11
9.6693994419
 21
6.732049062
 31
0.0
  0
LINE
  5
6C6
100
AcDbEntity
  8
0
  6
CONTINUOUS
 62
         7
100
AcDbLine
 10
9.6693994419
 20
6.732049062
 30
0.0
 11
9.6509897864
 21
6.7337646135
 31
0.0
  0
LINE
  5
6C7
100
AcDbEntity
  8
0
  6
CONTINUOUS
 62
         7
100
AcDbLine
 10
9.6509897864
 20
6.7337646135
 30
0.0
 11
9.6587087347
 21
6.7257718115
 31
0.0
  0
LINE
  5
6C8
100
AcDbEntity
  8
0
  6
CONTINUOUS
 62
         7
100
AcDbLine
 10
9.6587087347
 20
6.7257718115
 30
0.0
 11
9.6403073399
 21
6.7280233951
 31
0.0
  0
LINE
  5
6C9
100
AcDbEntity
  8
0
  6
CONTINUOUS
 62
         7
100
AcDbLine
 10
9.6403073399
 20
6.7280233951
 30
0.0
 11
9.6475579662
 21
6.7203104888
 31
0.0
  0
LINE
  5
6CA
100
AcDbEntity
  8
0
  6
CONTINUOUS
 62
         7
100
AcDbLine
 10
9.6475579662
 20
6.7203104888
 30
0.0
 11
9.6291852521
 21
6.7230853856
 31
0.0
  0
LINE
  5
6CB
100
AcDbEntity
  8
0
  6
CONTINUOUS
 62
         7
100
AcDbLine
 10
9.6291852521
 20
6.7230853856
 30
0.0
 11
9.6359683624
 21
6.7156754899
 31
0.0
  0
LINE
  5
6CC
100
AcDbEntity
  8
0
  6
CONTINUOUS
 62
         7
100
AcDbLine
 10
9.6359683624
 20
6.7156754899
 30
0.0
 11
9.6176446945
 21
6.7189599847
 31
0.0
  0
LINE
  5
6CD
100
AcDbEntity
  8
0
  6
CONTINUOUS
 62
         7
100
AcDbLine
 10
9.6176446945
 20
6.7189599847
 30
0.0
 11
9.6239619848
 21
6.7118756379
 31
0.0
  0
LINE
  5
6CE
100
AcDbEntity
  8
0
  6
CONTINUOUS
 62
         7
100
AcDbLine
 10
9.6239619848
 20
6.7118756379
 30
0.0
 11
9.6057076351
 21
6.7156550454
 31
0.0
  0
LINE
  5
6CF
100
AcDbEntity
  8
0
  6
CONTINUOUS
 62
         7
100
AcDbLine
 10
9.6057076351
 20
6.7156550454
 30
0.0
 11
9.6115616882
 21
6.7089181659
 31
0.0
  0
LINE
  5
6D0
100
AcDbEntity
  8
0
  6
CONTINUOUS
 62
         7
100
AcDbLine
 10
9.6115616882
 20
6.7089181659
 30
0.0
 11
9.5964355773
 21
6.7124644277
 31
0.0
  0
LINE
  5
6D1
100
AcDbEntity
  8
0
  6
CONTINUOUS
 62
         7
100
AcDbLine
 10
9.5948000539
 20
6.7115202601
 30
0.0
 11
9.5987910773
 21
6.7068087037
 31
0.0
  0
POLYLINE
  5
6D2
100
AcDbEntity
  8
0
  6
CONTINUOUS
 62
         7
100
AcDb2dPolyline
 66
         1
 10
0.0
 20
0.0
 30
0.0
 70
       128
  0
VERTEX
  5
6D3
100
AcDbEntity
  8
0
100
AcDbVertex
100
AcDb2dVertex
 10
9.8898009165
 20
7.3341259197
 30
0.0
  0
VERTEX
  5
6D4
100
AcDbEntity
  8
0
100
AcDbVertex
100
AcDb2dVertex
 10
9.90703032
 20
7.2929639939
 30
0.0
  0
VERTEX
  5
6D5
100
AcDbEntity
  8
0
100
AcDbVertex
100
AcDb2dVertex
 10
9.9216121485
 20
7.2515806036
 30
0.0
  0
VERTEX
  5
6D6
100
AcDbEntity
  8
0
100
AcDbVertex
100
AcDb2dVertex
 10
9.9334143469
 20
7.2103505233
 30
0.0
  0
VERTEX
  5
6D7
100
AcDbEntity
  8
0
100
AcDbVertex
100
AcDb2dVertex
 10
9.9423300325
 20
7.169647139
 30
0.0
  0
VERTEX
  5
6D8
100
AcDbEntity
  8
0
100
AcDbVertex
100
AcDb2dVertex
 10
9.9482784635
 20
7.1298390668
 30
0.0
  0
VERTEX
  5
6D9
100
AcDbEntity
  8
0
100
AcDbVertex
100
AcDb2dVertex
 10
9.9512057701
 20
7.0912868148
 30
0.0
  0
VERTEX
  5
6DA
100
AcDbEntity
  8
0
100
AcDbVertex
100
AcDb2dVertex
 10
9.9515295134
 20
7.0740500055
 30
0.0
  0
SEQEND
  5
6DB
100
AcDbEntity
  8
0
  0
POLYLINE
  5
6DC
100
AcDbEntity
  8
0
  6
CONTINUOUS
 62
         7
100
AcDb2dPolyline
 66
         1
 10
0.0
 20
0.0
 30
0.0
 70
       128
  0
VERTEX
  5
6DD
100
AcDbEntity
  8
0
100
AcDbVertex
100
AcDb2dVertex
 10
9.6147341802
 20
7.657459848
 30
0.0
  0
VERTEX
  5
6DE
100
AcDbEntity
  8
0
100
AcDbVertex
100
AcDb2dVertex
 10
9.6159438632
 20
7.6567587775
 30
0.0
  0
VERTEX
  5
6DF
100
AcDbEntity
  8
0
100
AcDbVertex
100
AcDb2dVertex
 10
9.6479575481
 20
7.6363775493
 30
0.0
  0
VERTEX
  5
6E0
100
AcDbEntity
  8
0
100
AcDbVertex
100
AcDb2dVertex
 10
9.6796698612
 20
7.6126648502
 30
0.0
  0
VERTEX
  5
6E1
100
AcDbEntity
  8
0
100
AcDbVertex
100
AcDb2dVertex
 10
9.7107936109
 20
7.5858354263
 30
0.0
  0
VERTEX
  5
6E2
100
AcDbEntity
  8
0
100
AcDbVertex
100
AcDb2dVertex
 10
9.7410469357
 20
7.5561322488
 30
0.0
  0
VERTEX
  5
6E3
100
AcDbEntity
  8
0
100
AcDbVertex
100
AcDb2dVertex
 10
9.7701558568
 20
7.5238243145
 30
0.0
  0
VERTEX
  5
6E4
100
AcDbEntity
  8
0
100
AcDbVertex
100
AcDb2dVertex
 10
9.7978567594
 20
7.489204209
 30
0.0
  0
VERTEX
  5
6E5
100
AcDbEntity
  8
0
100
AcDbVertex
100
AcDb2dVertex
 10
9.8238987797
 20
7.4525854572
 30
0.0
  0
VERTEX
  5
6E6
100
AcDbEntity
  8
0
100
AcDbVertex
100
AcDb2dVertex
 10
9.8480460772
 20
7.4142996844
 30
0.0
  0
VERTEX
  5
6E7
100
AcDbEntity
  8
0
100
AcDbVertex
100
AcDb2dVertex
 10
9.8700799703
 20
7.3746936123
 30
0.0
  0
VERTEX
  5
6E8
100
AcDbEntity
  8
0
100
AcDbVertex
100
AcDb2dVertex
 10
9.8898009165
 20
7.3341259197
 30
0.0
  0
SEQEND
  5
6E9
100
AcDbEntity
  8
0
  0
LINE
  5
6EA
100
AcDbEntity
  8
0
  6
CONTINUOUS
 62
         7
100
AcDbLine
 10
9.8452290274
 20
6.8334476845
 30
0.0
 11
9.8452937662
 21
6.8335906941
 31
0.0
  0
LINE
  5
6EB
100
AcDbEntity
  8
0
  6
CONTINUOUS
 62
         7
100
AcDbLine
 10
9.8559197345
 20
6.8397249351
 30
0.0
 11
9.8565747984
 21
6.8412900467
 31
0.0
  0
LINE
  5
6EC
100
AcDbEntity
  8
0
  6
CONTINUOUS
 62
         7
100
AcDbLine
 10
9.8661300299
 20
6.8468061644
 30
0.0
 11
9.8672554799
 21
6.8497218794
 31
0.0
  0
LINE
  5
6ED
100
AcDbEntity
  8
0
  6
CONTINUOUS
 62
         7
100
AcDbLine
 10
9.8758404777
 20
6.854677893
 30
0.0
 11
9.8773316651
 21
6.8588794854
 31
0.0
  0
LINE
  5
6EE
100
AcDbEntity
  8
0
  6
CONTINUOUS
 62
         7
100
AcDbLine
 10
9.8850325934
 20
6.8633251367
 30
0.0
 11
9.8867976023
 21
6.8687531851
 31
0.0
  0
LINE
  5
6EF
100
AcDbEntity
  8
0
  6
CONTINUOUS
 62
         7
100
AcDbLine
 10
9.8936888794
 20
6.8727314347
 30
0.0
 11
9.8956465283
 21
6.8793306813
 31
0.0
  0
LINE
  5
6F0
100
AcDbEntity
  8
0
  6
CONTINUOUS
 62
         7
100
AcDbLine
 10
9.9017928579
 20
6.8828788819
 30
0.0
 11
9.903871122
 21
6.8905973367
 31
0.0
  0
LINE
  5
6F1
100
AcDbEntity
  8
0
  6
CONTINUOUS
 62
         7
100
AcDbLine
 10
9.9093291025
 20
6.8937481618
 30
0.0
 11
9.9114638537
 21
6.9025363957
 31
0.0
  0
LINE
  5
6F2
100
AcDbEntity
  8
0
  6
CONTINUOUS
 62
         7
100
AcDbLine
 10
9.9162832676
 20
6.9053185842
 30
0.0
 11
9.9184172601
 21
6.915129167
 31
0.0
  0
LINE
  5
6F3
100
AcDbEntity
  8
0
  6
CONTINUOUS
 62
         7
100
AcDbLine
 10
9.9226421156
 20
6.9175681242
 30
0.0
 11
9.9247241616
 21
6.9283551758
 31
0.0
  0
LINE
  5
6F4
100
AcDbEntity
  8
0
  6
CONTINUOUS
 62
         7
100
AcDbLine
 10
9.9283935419
 20
6.930473464
 30
0.0
 11
9.9303778366
 21
6.9421922961
 31
0.0
  0
LINE
  5
6F5
100
AcDbEntity
  8
0
  6
CONTINUOUS
 62
         7
100
AcDbLine
 10
9.9335265985
 20
6.9440100376
 30
0.0
 11
9.9353721625
 21
6.9566168664
 31
0.0
  0
LINE
  5
6F6
100
AcDbEntity
  8
0
  6
CONTINUOUS
 62
         7
100
AcDbLine
 10
9.9380315142
 20
6.9581520774
 30
0.0
 11
9.9397017307
 21
6.9716037946
 31
0.0
  0
LINE
  5
6F7
100
AcDbEntity
  8
0
  6
CONTINUOUS
 62
         7
100
AcDbLine
 10
9.9418997138
 20
6.9728726632
 30
0.0
 11
9.9433619401
 21
6.987126654
 31
0.0
  0
LINE
  5
6F8
100
AcDbEntity
  8
0
  6
CONTINUOUS
 62
         7
100
AcDbLine
 10
9.9451238338
 20
6.9881437735
 30
0.0
 11
9.9463569153
 21
7.0031622991
 31
0.0
  0
LINE
  5
6F9
100
AcDbEntity
  8
0
  6
CONTINUOUS
 62
         7
100
AcDbLine
 10
9.9476977369
 20
7.003936339
 30
0.0
 11
9.9486603667
 21
7.0196683197
 31
0.0
  0
LINE
  5
6FA
100
AcDbEntity
  8
0
  6
CONTINUOUS
 62
         7
100
AcDbLine
 10
9.9496165237
 20
7.0202202974
 30
0.0
 11
9.9502940485
 21
7.0366283854
 31
0.0
  0
LINE
  5
6FB
100
AcDbEntity
  8
0
  6
CONTINUOUS
 62
         7
100
AcDbLine
 10
9.9508765415
 20
7.0369646515
 30
0.0
 11
9.9512493953
 21
7.0540070623
 31
0.0
  0
LINE
  5
6FC
100
AcDbEntity
  8
0
  6
CONTINUOUS
 62
         7
100
AcDbLine
 10
9.951475392
 20
7.0541375273
 30
0.0
 11
9.9515265409
 21
7.0716976996
 31
0.0
  0
LINE
  5
6FD
100
AcDbEntity
  8
0
  6
CONTINUOUS
 62
         7
100
AcDbLine
 10
9.9515265409
 20
7.0716976996
 30
0.0
 11
9.951411935
 21
7.0717062354
 31
0.0
  0
LINE
  5
6FE
100
AcDbEntity
  8
0
  6
CONTINUOUS
 62
         7
100
AcDbLine
 10
9.951411935
 20
7.0717062354
 30
0.0
 11
9.9511405998
 21
7.089060298
 31
0.0
  0
LINE
  5
6FF
100
AcDbEntity
  8
0
  6
CONTINUOUS
 62
         7
100
AcDbLine
 10
9.9511405998
 20
7.089060298
 30
0.0
 11
9.9506862914
 21
7.0896373327
 31
0.0
  0
LINE
  5
700
100
AcDbEntity
  8
0
  6
CONTINUOUS
 62
         7
100
AcDbLine
 10
9.9506862914
 20
7.0896373327
 30
0.0
 11
9.9501075966
 21
7.1067606842
 31
0.0
  0
LINE
  5
701
100
AcDbEntity
  8
0
  6
CONTINUOUS
 62
         7
100
AcDbLine
 10
9.9501075966
 20
7.1067606842
 30
0.0
 11
9.9492998426
 21
7.1078966863
 31
0.0
  0
LINE
  5
702
100
AcDbEntity
  8
0
  6
CONTINUOUS
 62
         7
100
AcDbLine
 10
9.9492998426
 20
7.1078966863
 30
0.0
 11
9.9484294977
 21
7.1247651646
 31
0.0
  0
LINE
  5
703
100
AcDbEntity
  8
0
  6
CONTINUOUS
 62
         7
100
AcDbLine
 10
9.9484294977
 20
7.1247651646
 30
0.0
 11
9.9472552276
 21
7.1264495385
 31
0.0
  0
LINE
  5
704
100
AcDbEntity
  8
0
  6
CONTINUOUS
 62
         7
100
AcDbLine
 10
9.9472552276
 20
7.1264495385
 30
0.0
 11
9.9461094975
 21
7.1430394665
 31
0.0
  0
LINE
  5
705
100
AcDbEntity
  8
0
  6
CONTINUOUS
 62
         7
100
AcDbLine
 10
9.9461094975
 20
7.1430394665
 30
0.0
 11
9.9445563386
 21
7.145260573
 31
0.0
  0
LINE
  5
706
100
AcDbEntity
  8
0
  6
CONTINUOUS
 62
         7
100
AcDbLine
 10
9.9445563386
 20
7.145260573
 30
0.0
 11
9.9431520123
 21
7.1615488037
 31
0.0
  0
LINE
  5
707
100
AcDbEntity
  8
0
  6
CONTINUOUS
 62
         7
100
AcDbLine
 10
9.9431520123
 20
7.1615488037
 30
0.0
 11
9.941208313
 21
7.1642939818
 31
0.0
  0
LINE
  5
708
100
AcDbEntity
  8
0
  6
CONTINUOUS
 62
         7
100
AcDbLine
 10
9.941208313
 20
7.1642939818
 30
0.0
 11
9.9395626718
 21
7.1802579428
 31
0.0
  0
LINE
  5
709
100
AcDbEntity
  8
0
  6
CONTINUOUS
 62
         7
100
AcDbLine
 10
9.9395626718
 20
7.1802579428
 30
0.0
 11
9.937217524
 21
7.1835135337
 31
0.0
  0
LINE
  5
70A
100
AcDbEntity
  8
0
  6
CONTINUOUS
 62
         7
100
AcDbLine
 10
9.937217524
 20
7.1835135337
 30
0.0
 11
9.9353483084
 21
7.1991312698
 31
0.0
  0
LINE
  5
70B
100
AcDbEntity
  8
0
  6
CONTINUOUS
 62
         7
100
AcDbLine
 10
9.9353483084
 20
7.1991312698
 30
0.0
 11
9.9325915683
 21
7.2028826433
 31
0.0
  0
LINE
  5
70C
100
AcDbEntity
  8
0
  6
CONTINUOUS
 62
         7
100
AcDbLine
 10
9.9325915683
 20
7.2028826433
 30
0.0
 11
9.9305169445
 21
7.2181328582
 31
0.0
  0
LINE
  5
70D
100
AcDbEntity
  8
0
  6
CONTINUOUS
 62
         7
100
AcDbLine
 10
9.9305169445
 20
7.2181328582
 30
0.0
 11
9.9273392516
 21
7.2223644404
 31
0.0
  0
LINE
  5
70E
100
AcDbEntity
  8
0
  6
CONTINUOUS
 62
         7
100
AcDbLine
 10
9.9273392516
 20
7.2223644404
 30
0.0
 11
9.9250777769
 21
7.2372265375
 31
0.0
  0
LINE
  5
70F
100
AcDbEntity
  8
0
  6
CONTINUOUS
 62
         7
100
AcDbLine
 10
9.9250777769
 20
7.2372265375
 30
0.0
 11
9.921470572
 21
7.2419218402
 31
0.0
  0
LINE
  5
710
100
AcDbEntity
  8
0
  6
CONTINUOUS
 62
         7
100
AcDbLine
 10
9.921470572
 20
7.2419218402
 30
0.0
 11
9.9190411593
 21
7.2563759617
 31
0.0
  0
LINE
  5
711
100
AcDbEntity
  8
0
  6
CONTINUOUS
 62
         7
100
AcDbLine
 10
9.9190411593
 20
7.2563759617
 30
0.0
 11
9.914996701
 21
7.2615176141
 31
0.0
  0
LINE
  5
712
100
AcDbEntity
  8
0
  6
CONTINUOUS
 62
         7
100
AcDbLine
 10
9.914996701
 20
7.2615176141
 30
0.0
 11
9.9124185828
 21
7.2755446788
 31
0.0
  0
LINE
  5
713
100
AcDbEntity
  8
0
  6
CONTINUOUS
 62
         7
100
AcDbLine
 10
9.9124185828
 20
7.2755446788
 30
0.0
 11
9.9079299618
 21
7.2811144604
 31
0.0
  0
LINE
  5
714
100
AcDbEntity
  8
0
  6
CONTINUOUS
 62
         7
100
AcDbLine
 10
9.9079299618
 20
7.2811144604
 30
0.0
 11
9.9052226538
 21
7.2946962001
 31
0.0
  0
LINE
  5
715
100
AcDbEntity
  8
0
  6
CONTINUOUS
 62
         7
100
AcDbLine
 10
9.9052226538
 20
7.2946962001
 30
0.0
 11
9.9002838065
 21
7.3006750755
 31
0.0
  0
LINE
  5
716
100
AcDbEntity
  8
0
  6
CONTINUOUS
 62
         7
100
AcDbLine
 10
9.9002838065
 20
7.3006750755
 30
0.0
 11
9.8974670702
 21
7.3137940696
 31
0.0
  0
LINE
  5
717
100
AcDbEntity
  8
0
  6
CONTINUOUS
 62
         7
100
AcDbLine
 10
9.8974670702
 20
7.3137940696
 30
0.0
 11
9.8920727898
 21
7.3201622246
 31
0.0
  0
LINE
  5
718
100
AcDbEntity
  8
0
  6
CONTINUOUS
 62
         7
100
AcDbLine
 10
9.8920727898
 20
7.3201622246
 30
0.0
 11
9.8891665951
 21
7.3328019334
 31
0.0
  0
LINE
  5
719
100
AcDbEntity
  8
0
  6
CONTINUOUS
 62
         7
100
AcDbLine
 10
9.8891665951
 20
7.3328019334
 30
0.0
 11
9.883312542
 21
7.3395388128
 31
0.0
  0
LINE
  5
71A
100
AcDbEntity
  8
0
  6
CONTINUOUS
 62
         7
100
AcDbLine
 10
9.883312542
 20
7.3395388128
 30
0.0
 11
9.880337029
 21
7.3516836089
 31
0.0
  0
LINE
  5
71B
100
AcDbEntity
  8
0
  6
CONTINUOUS
 62
         7
100
AcDbLine
 10
9.880337029
 20
7.3516836089
 30
0.0
 11
9.8740197387
 21
7.3587679557
 31
0.0
  0
LINE
  5
71C
100
AcDbEntity
  8
0
  6
CONTINUOUS
 62
         7
100
AcDbLine
 10
9.8740197387
 20
7.3587679557
 30
0.0
 11
9.8709951795
 21
7.3704031538
 31
0.0
  0
LINE
  5
71D
100
AcDbEntity
  8
0
  6
CONTINUOUS
 62
         7
100
AcDbLine
 10
9.8709951795
 20
7.3704031538
 30
0.0
 11
9.8642120692
 21
7.3778130495
 31
0.0
  0
LINE
  5
71E
100
AcDbEntity
  8
0
  6
CONTINUOUS
 62
         7
100
AcDbLine
 10
9.8642120692
 20
7.3778130495
 30
0.0
 11
9.8611588293
 21
7.3889249344
 31
0.0
  0
LINE
  5
71F
100
AcDbEntity
  8
0
  6
CONTINUOUS
 62
         7
100
AcDbLine
 10
9.8611588293
 20
7.3889249344
 30
0.0
 11
9.853908203
 21
7.3966378407
 31
0.0
  0
LINE
  5
720
100
AcDbEntity
  8
0
  6
CONTINUOUS
 62
         7
100
AcDbLine
 10
9.853908203
 20
7.3966378407
 30
0.0
 11
9.8508467025
 21
7.4072136934
 31
0.0
  0
LINE
  5
721
100
AcDbEntity
  8
0
  6
CONTINUOUS
 62
         7
100
AcDbLine
 10
9.8508467025
 20
7.4072136934
 30
0.0
 11
9.8431277542
 21
7.4152064954
 31
0.0
  0
LINE
  5
722
100
AcDbEntity
  8
0
  6
CONTINUOUS
 62
         7
100
AcDbLine
 10
9.8431277542
 20
7.4152064954
 30
0.0
 11
9.8400784288
 21
7.4252346171
 31
0.0
  0
LINE
  5
723
100
AcDbEntity
  8
0
  6
CONTINUOUS
 62
         7
100
AcDbLine
 10
9.8400784288
 20
7.4252346171
 30
0.0
 11
9.8318912438
 21
7.433483667
 31
0.0
  0
LINE
  5
724
100
AcDbEntity
  8
0
  6
CONTINUOUS
 62
         7
100
AcDbLine
 10
9.8318912438
 20
7.433483667
 30
0.0
 11
9.8288745062
 21
7.4429534017
 31
0.0
  0
LINE
  5
725
100
AcDbEntity
  8
0
  6
CONTINUOUS
 62
         7
100
AcDbLine
 10
9.8288745062
 20
7.4429534017
 30
0.0
 11
9.8202200613
 21
7.4514345639
 31
0.0
  0
LINE
  5
726
100
AcDbEntity
  8
0
  6
CONTINUOUS
 62
         7
100
AcDbLine
 10
9.8202200613
 20
7.4514345639
 30
0.0
 11
9.817256262
 21
7.4603363185
 31
0.0
  0
LINE
  5
727
100
AcDbEntity
  8
0
  6
CONTINUOUS
 62
         7
100
AcDbLine
 10
9.817256262
 20
7.4603363185
 30
0.0
 11
9.8081364234
 21
7.4690250155
 31
0.0
  0
LINE
  5
728
100
AcDbEntity
  8
0
  6
CONTINUOUS
 62
         7
100
AcDbLine
 10
9.8081364234
 20
7.4690250155
 30
0.0
 11
9.8052458122
 21
7.4773502781
 31
0.0
  0
LINE
  5
729
100
AcDbEntity
  8
0
  6
CONTINUOUS
 62
         7
100
AcDbLine
 10
9.8052458122
 20
7.4773502781
 30
0.0
 11
9.795663332
 21
7.4862215375
 31
0.0
  0
LINE
  5
72A
100
AcDbEntity
  8
0
  6
CONTINUOUS
 62
         7
100
AcDbLine
 10
9.795663332
 20
7.4862215375
 30
0.0
 11
9.7928660193
 21
7.4939628934
 31
0.0
  0
LINE
  5
72B
100
AcDbEntity
  8
0
  6
CONTINUOUS
 62
         7
100
AcDbLine
 10
9.7928660193
 20
7.4939628934
 30
0.0
 11
9.7828245303
 21
7.5029913952
 31
0.0
  0
LINE
  5
72C
100
AcDbEntity
  8
0
  6
CONTINUOUS
 62
         7
100
AcDbLine
 10
9.7828245303
 20
7.5029913952
 30
0.0
 11
9.7801404491
 21
7.5101425414
 31
0.0
  0
LINE
  5
72D
100
AcDbEntity
  8
0
  6
CONTINUOUS
 62
         7
100
AcDbLine
 10
9.7801404491
 20
7.5101425414
 30
0.0
 11
9.7696444577
 21
7.5193026663
 31
0.0
  0
LINE
  5
72E
100
AcDbEntity
  8
0
  6
CONTINUOUS
 62
         7
100
AcDbLine
 10
9.7696444577
 20
7.5193026663
 30
0.0
 11
9.7670933254
 21
7.5258584232
 31
0.0
  0
LINE
  5
72F
100
AcDbEntity
  8
0
  6
CONTINUOUS
 62
         7
100
AcDbLine
 10
9.7670933254
 20
7.5258584232
 30
0.0
 11
9.7561482033
 21
7.5351243014
 31
0.0
  0
LINE
  5
730
100
AcDbEntity
  8
0
  6
CONTINUOUS
 62
         7
100
AcDbLine
 10
9.7561482033
 20
7.5351243014
 30
0.0
 11
9.753749484
 21
7.5410806228
 31
0.0
  0
LINE
  5
731
100
AcDbEntity
  8
0
  6
CONTINUOUS
 62
         7
100
AcDbLine
 10
9.753749484
 20
7.5410806228
 30
0.0
 11
9.7423614578
 21
7.550426183
 31
0.0
  0
LINE
  5
732
100
AcDbEntity
  8
0
  6
CONTINUOUS
 62
         7
100
AcDbLine
 10
9.7423614578
 20
7.550426183
 30
0.0
 11
9.7401343258
 21
7.5557801638
 31
0.0
  0
LINE
  5
733
100
AcDbEntity
  8
0
  6
CONTINUOUS
 62
         7
100
AcDbLine
 10
9.7401343258
 20
7.5557801638
 30
0.0
 11
9.7283104653
 21
7.5651791832
 31
0.0
  0
LINE
  5
734
100
AcDbEntity
  8
0
  6
CONTINUOUS
 62
         7
100
AcDbLine
 10
9.7283104653
 20
7.5651791832
 30
0.0
 11
9.726273768
 21
7.5699290648
 31
0.0
  0
LINE
  5
735
100
AcDbEntity
  8
0
  6
CONTINUOUS
 62
         7
100
AcDbLine
 10
9.726273768
 20
7.5699290648
 30
0.0
 11
9.7140219725
 21
7.5793552188
 31
0.0
  0
LINE
  5
736
100
AcDbEntity
  8
0
  6
CONTINUOUS
 62
         7
100
AcDbLine
 10
9.7140219725
 20
7.5793552188
 30
0.0
 11
9.712194195
 21
7.5835003926
 31
0.0
  0
LINE
  5
737
100
AcDbEntity
  8
0
  6
CONTINUOUS
 62
         7
100
AcDbLine
 10
9.712194195
 20
7.5835003926
 30
0.0
 11
9.6995231783
 21
7.5929273049
 31
0.0
  0
LINE
  5
738
100
AcDbEntity
  8
0
  6
CONTINUOUS
 62
         7
100
AcDbLine
 10
9.6995231783
 20
7.5929273049
 30
0.0
 11
9.697922408
 21
7.5964683133
 31
0.0
  0
LINE
  5
739
100
AcDbEntity
  8
0
  6
CONTINUOUS
 62
         7
100
AcDbLine
 10
9.697922408
 20
7.5964683133
 30
0.0
 11
9.6848416822
 21
7.6058696063
 31
0.0
  0
LINE
  5
73A
100
AcDbEntity
  8
0
  6
CONTINUOUS
 62
         7
100
AcDbLine
 10
9.6848416822
 20
7.6058696063
 30
0.0
 11
9.6834855741
 21
7.6088081418
 31
0.0
  0
LINE
  5
73B
100
AcDbEntity
  8
0
  6
CONTINUOUS
 62
         7
100
AcDbLine
 10
9.6834855741
 20
7.6088081418
 30
0.0
 11
9.6700054311
 21
7.6181574865
 31
0.0
  0
POLYLINE
  5
73C
100
AcDbEntity
  8
0
  6
CONTINUOUS
 62
         7
100
AcDb2dPolyline
 66
         1
 10
0.0
 20
0.0
 30
0.0
 70
       128
  0
VERTEX
  5
73D
100
AcDbEntity
  8
0
100
AcDbVertex
100
AcDb2dVertex
 10
9.6700054311
 20
7.6181574865
 30
0.0
  0
VERTEX
  5
73E
100
AcDbEntity
  8
0
100
AcDbVertex
100
AcDb2dVertex
 10
9.6690449961
 20
7.620233112
 30
0.0
  0
VERTEX
  5
73F
100
AcDbEntity
  8
0
100
AcDbVertex
100
AcDb2dVertex
 10
9.6689111748
 20
7.6204963886
 30
0.0
  0
SEQEND
  5
740
100
AcDbEntity
  8
0
  0
POLYLINE
  5
741
100
AcDbEntity
  8
0
  6
CONTINUOUS
 62
         7
100
AcDb2dPolyline
 66
         1
 10
0.0
 20
0.0
 30
0.0
 70
       128
  0
VERTEX
  5
742
100
AcDbEntity
  8
0
100
AcDbVertex
100
AcDb2dVertex
 10
9.6689111748
 20
7.6204963886
 30
0.0
  0
VERTEX
  5
743
100
AcDbEntity
  8
0
100
AcDbVertex
100
AcDb2dVertex
 10
9.665036821
 20
7.6231071065
 30
0.0
  0
VERTEX
  5
744
100
AcDbEntity
  8
0
100
AcDbVertex
100
AcDb2dVertex
 10
9.6550426667
 20
7.6297675549
 30
0.0
  0
SEQEND
  5
745
100
AcDbEntity
  8
0
  0
LINE
  5
746
100
AcDbEntity
  8
0
  6
CONTINUOUS
 62
         7
100
AcDbLine
 10
9.6550426667
 20
7.6297675549
 30
0.0
 11
9.6542269531
 21
7.6315108044
 31
0.0
  0
LINE
  5
747
100
AcDbEntity
  8
0
  6
CONTINUOUS
 62
         7
100
AcDbLine
 10
9.6542269531
 20
7.6315108044
 30
0.0
 11
9.6399818714
 21
7.6406777111
 31
0.0
  0
LINE
  5
748
100
AcDbEntity
  8
0
  6
CONTINUOUS
 62
         7
100
AcDbLine
 10
9.6399818714
 20
7.6406777111
 30
0.0
 11
9.6394608614
 21
7.6418304226
 31
0.0
  0
LINE
  5
749
100
AcDbEntity
  8
0
  6
CONTINUOUS
 62
         7
100
AcDbLine
 10
9.6394608614
 20
7.6418304226
 30
0.0
 11
9.6248517144
 21
7.6508671869
 31
0.0
  0
LINE
  5
74A
100
AcDbEntity
  8
0
  6
CONTINUOUS
 62
         7
100
AcDbLine
 10
9.6248517144
 20
7.6508671869
 30
0.0
 11
9.6246410078
 21
7.6514355993
 31
0.0
  0
LINE
  5
74B
100
AcDbEntity
  8
0
  6
CONTINUOUS
 62
         7
100
AcDbLine
 10
9.6246410078
 20
7.6514355993
 30
0.0
 11
9.6096809967
 21
7.6603165862
 31
0.0
  0
LINE
  5
74C
100
AcDbEntity
  8
0
  6
CONTINUOUS
 62
         7
100
AcDbLine
 10
9.6096933708
 20
7.6603661927
 30
0.0
 11
9.5944985967
 21
7.6690079214
 31
0.0
  0
LINE
  5
74D
100
AcDbEntity
  8
0
  6
CONTINUOUS
 62
         7
100
AcDbLine
 10
9.5942042509
 20
7.6688379992
 30
0.0
 11
9.5793334149
 21
7.676924648
 31
0.0
  0
LINE
  5
74E
100
AcDbEntity
  8
0
  6
CONTINUOUS
 62
         7
100
AcDbLine
 10
9.5786793424
 20
7.67654706
 30
0.0
 11
9.5642143192
 21
7.6840516963
 31
0.0
  0
LINE
  5
74F
100
AcDbEntity
  8
0
  6
CONTINUOUS
 62
         7
100
AcDbLine
 10
9.5631830406
 20
7.6834563518
 30
0.0
 11
9.5491700895
 21
7.6903754993
 31
0.0
  0
LINE
  5
750
100
AcDbEntity
  8
0
  6
CONTINUOUS
 62
         7
100
AcDbLine
 10
9.5477424131
 20
7.6895513193
 30
0.0
 11
9.5342293635
 21
7.6958840195
 31
0.0
  0
LINE
  5
751
100
AcDbEntity
  8
0
  6
CONTINUOUS
 62
         7
100
AcDbLine
 10
9.5323841673
 20
7.6948188104
 30
0.0
 11
9.5194205816
 21
7.7005667709
 31
0.0
  0
LINE
  5
752
100
AcDbEntity
  8
0
  6
CONTINUOUS
 62
         7
100
AcDbLine
 10
9.517134559
 20
7.6992470781
 30
0.0
 11
9.5047719332
 21
7.7044148398
 31
0.0
  0
LINE
  5
753
100
AcDbEntity
  8
0
  6
CONTINUOUS
 62
         7
100
AcDbLine
 10
9.502019294
 20
7.702825775
 30
0.0
 11
9.4903113028
 21
7.7074209011
 31
0.0
  0
LINE
  5
754
100
AcDbEntity
  8
0
  6
CONTINUOUS
 62
         7
100
AcDbLine
 10
9.4870634211
 20
7.7055459388
 30
0.0
 11
9.4760662171
 21
7.7095792325
 31
0.0
  0
LINE
  5
755
100
AcDbEntity
  8
0
  6
CONTINUOUS
 62
         7
100
AcDbLine
 10
9.4722912126
 20
7.7073999688
 30
0.0
 11
9.4620637924
 21
7.7108857257
 31
0.0
  0
LINE
  5
756
100
AcDbEntity
  8
0
  6
CONTINUOUS
 62
         7
100
AcDbLine
 10
9.4577260318
 20
7.7083815898
 30
0.0
 11
9.4483306832
 21
7.7113378936
 31
0.0
  0
LINE
  5
757
100
AcDbEntity
  8
0
  6
CONTINUOUS
 62
         7
100
AcDbLine
 10
9.4433901803
 20
7.708485802
 30
0.0
 11
9.4348930311
 21
7.7109348755
 31
0.0
  0
LINE
  5
758
100
AcDbEntity
  8
0
  6
CONTINUOUS
 62
         7
100
AcDbLine
 10
9.4293047222
 20
7.7077088134
 30
0.0
 11
9.4217764155
 21
7.7096774385
 31
0.0
  0
LINE
  5
759
100
AcDbEntity
  8
0
  6
CONTINUOUS
 62
         7
100
AcDbLine
 10
9.4154892757
 20
7.70604795
 30
0.0
 11
9.4090058046
 21
7.7075679763
 31
0.0
  0
LINE
  5
75A
100
AcDbEntity
  8
0
  6
CONTINUOUS
 62
         7
100
AcDbLine
 10
9.4019617627
 20
7.7035015374
 30
0.0
 11
9.396605508
 21
7.7046105043
 31
0.0
  0
LINE
  5
75B
100
AcDbEntity
  8
0
  6
CONTINUOUS
 62
         7
100
AcDbLine
 10
9.388738101
 20
7.7000687469
 30
0.0
 11
9.3845991304
 21
7.7008106523
 31
0.0
  0
LINE
  5
75C
100
AcDbEntity
  8
0
  6
CONTINUOUS
 62
         7
100
AcDbLine
 10
9.3758318209
 20
7.6957493922
 30
0.0
 11
9.3730095266
 21
7.6961756534
 31
0.0
  0
LINE
  5
75D
100
AcDbEntity
  8
0
  6
CONTINUOUS
 62
         7
100
AcDbLine
 10
9.3632535741
 20
7.6905436619
 30
0.0
 11
9.3618587581
 21
7.6907143307
 31
0.0
  0
LINE
  5
75E
100
AcDbEntity
  8
0
  6
CONTINUOUS
 62
         7
100
AcDbLine
 10
9.8508467025
 20
7.4072136934
 30
0.0
 11
9.6489782549
 21
7.2906775191
 31
0.0
  0
LINE
  5
75F
100
AcDbEntity
  8
0
  6
CONTINUOUS
 62
         7
100
AcDbLine
 10
9.853908203
 20
7.3966378407
 30
0.0
 11
9.6673879104
 21
7.2889619677
 31
0.0
  0
LINE
  5
760
100
AcDbEntity
  8
0
  6
CONTINUOUS
 62
         7
100
AcDbLine
 10
9.8431277542
 20
7.4152064954
 30
0.0
 11
9.6566074615
 21
7.3075306224
 31
0.0
  0
LINE
  5
761
100
AcDbEntity
  8
0
  6
CONTINUOUS
 62
         7
100
AcDbLine
 10
9.8611588293
 20
7.3889249344
 30
0.0
 11
9.6592903817
 21
7.2723887601
 31
0.0
  0
LINE
  5
762
100
AcDbEntity
  8
0
  6
CONTINUOUS
 62
         7
100
AcDbLine
 10
9.8400784288
 20
7.4252346171
 30
0.0
 11
9.6382099812
 21
7.3086984429
 31
0.0
  0
LINE
  5
763
100
AcDbEntity
  8
0
  6
CONTINUOUS
 62
         7
100
AcDbLine
 10
9.8642120692
 20
7.3778130495
 30
0.0
 11
9.6776917765
 21
7.2701371765
 31
0.0
  0
LINE
  5
764
100
AcDbEntity
  8
0
  6
CONTINUOUS
 62
         7
100
AcDbLine
 10
9.8318912438
 20
7.433483667
 30
0.0
 11
9.6453709512
 21
7.325807794
 31
0.0
  0
LINE
  5
765
100
AcDbEntity
  8
0
  6
CONTINUOUS
 62
         7
100
AcDbLine
 10
9.8709951795
 20
7.3704031538
 30
0.0
 11
9.6691267319
 21
7.2538669795
 31
0.0
  0
LINE
  5
766
100
AcDbEntity
  8
0
  6
CONTINUOUS
 62
         7
100
AcDbLine
 10
9.8288745062
 20
7.4429534017
 30
0.0
 11
9.6270060586
 21
7.3264172275
 31
0.0
  0
LINE
  5
767
100
AcDbEntity
  8
0
  6
CONTINUOUS
 62
         7
100
AcDbLine
 10
9.8740197387
 20
7.3587679557
 30
0.0
 11
9.687499446
 21
7.2510920827
 31
0.0
  0
LINE
  5
768
100
AcDbEntity
  8
0
  6
CONTINUOUS
 62
         7
100
AcDbLine
 10
9.8202200613
 20
7.4514345639
 30
0.0
 11
9.6336997686
 21
7.3437586909
 31
0.0
  0
LINE
  5
769
100
AcDbEntity
  8
0
  6
CONTINUOUS
 62
         7
100
AcDbLine
 10
9.880337029
 20
7.3516836089
 30
0.0
 11
9.6784685814
 21
7.2351474346
 31
0.0
  0
LINE
  5
76A
100
AcDbEntity
  8
0
  6
CONTINUOUS
 62
         7
100
AcDbLine
 10
9.817256262
 20
7.4603363185
 30
0.0
 11
9.6153878144
 21
7.3438001443
 31
0.0
  0
LINE
  5
76B
100
AcDbEntity
  8
0
  6
CONTINUOUS
 62
         7
100
AcDbLine
 10
9.883312542
 20
7.3395388128
 30
0.0
 11
9.6967922493
 21
7.2318629398
 31
0.0
  0
LINE
  5
76C
100
AcDbEntity
  8
0
  6
CONTINUOUS
 62
         7
100
AcDbLine
 10
9.8081364234
 20
7.4690250155
 30
0.0
 11
9.6216161307
 21
7.3613491425
 31
0.0
  0
LINE
  5
76D
100
AcDbEntity
  8
0
  6
CONTINUOUS
 62
         7
100
AcDbLine
 10
9.8891665951
 20
7.3328019334
 30
0.0
 11
9.6872981475
 21
7.2162657591
 31
0.0
  0
LINE
  5
76E
100
AcDbEntity
  8
0
  6
CONTINUOUS
 62
         7
100
AcDbLine
 10
9.8052458122
 20
7.4773502781
 30
0.0
 11
9.6033773646
 21
7.3608141038
 31
0.0
  0
LINE
  5
76F
100
AcDbEntity
  8
0
  6
CONTINUOUS
 62
         7
100
AcDbLine
 10
9.8920727898
 20
7.3201622246
 30
0.0
 11
9.7055524971
 21
7.2124863516
 31
0.0
  0
LINE
  5
770
100
AcDbEntity
  8
0
  6
CONTINUOUS
 62
         7
100
AcDbLine
 10
9.795663332
 20
7.4862215375
 30
0.0
 11
9.6091430393
 21
7.3785456645
 31
0.0
  0
LINE
  5
771
100
AcDbEntity
  8
0
  6
CONTINUOUS
 62
         7
100
AcDbLine
 10
9.8974670702
 20
7.3137940696
 30
0.0
 11
9.6955986226
 21
7.1972578953
 31
0.0
  0
LINE
  5
772
100
AcDbEntity
  8
0
  6
CONTINUOUS
 62
         7
100
AcDbLine
 10
9.7928660193
 20
7.4939628934
 30
0.0
 11
9.5909975717
 21
7.3774267191
 31
0.0
  0
LINE
  5
773
100
AcDbEntity
  8
0
  6
CONTINUOUS
 62
         7
100
AcDbLine
 10
9.9002838065
 20
7.3006750755
 30
0.0
 11
9.7137635138
 21
7.1929992025
 31
0.0
  0
LINE
  5
774
100
AcDbEntity
  8
0
  6
CONTINUOUS
 62
         7
100
AcDbLine
 10
9.7828245303
 20
7.5029913952
 30
0.0
 11
9.5963042376
 21
7.3953155222
 31
0.0
  0
LINE
  5
775
100
AcDbEntity
  8
0
  6
CONTINUOUS
 62
         7
100
AcDbLine
 10
9.9052226538
 20
7.2946962001
 30
0.0
 11
9.7033542062
 21
7.1781600259
 31
0.0
  0
LINE
  5
776
100
AcDbEntity
  8
0
  6
CONTINUOUS
 62
         7
100
AcDbLine
 10
9.7801404491
 20
7.5101425414
 30
0.0
 11
9.5782720015
 21
7.3936063672
 31
0.0
  0
LINE
  5
777
100
AcDbEntity
  8
0
  6
CONTINUOUS
 62
         7
100
AcDbLine
 10
9.9079299618
 20
7.2811144604
 30
0.0
 11
9.7214096691
 21
7.1734385874
 31
0.0
  0
LINE
  5
778
100
AcDbEntity
  8
0
  6
CONTINUOUS
 62
         7
100
AcDbLine
 10
9.7696444577
 20
7.5193026663
 30
0.0
 11
9.583124165
 21
7.4116267933
 31
0.0
  0
LINE
  5
779
100
AcDbEntity
  8
0
  6
CONTINUOUS
 62
         7
100
AcDbLine
 10
9.9124185828
 20
7.2755446788
 30
0.0
 11
9.7105501352
 21
7.1590085045
 31
0.0
  0
LINE
  5
77A
100
AcDbEntity
  8
0
  6
CONTINUOUS
 62
         7
100
AcDbLine
 10
9.7670933254
 20
7.5258584232
 30
0.0
 11
9.5652248778
 21
7.409322249
 31
0.0
  0
LINE
  5
77B
100
AcDbEntity
  8
0
  6
CONTINUOUS
 62
         7
100
AcDbLine
 10
9.914996701
 20
7.2615176141
 30
0.0
 11
9.7284764083
 21
7.153841741
 31
0.0
  0
LINE
  5
77C
100
AcDbEntity
  8
0
  6
CONTINUOUS
 62
         7
100
AcDbLine
 10
9.7561482033
 20
7.5351243014
 30
0.0
 11
9.5696279106
 21
7.4274484284
 31
0.0
  0
LINE
  5
77D
100
AcDbEntity
  8
0
  6
CONTINUOUS
 62
         7
100
AcDbLine
 10
9.9190411593
 20
7.2563759617
 30
0.0
 11
9.7171727117
 21
7.1398397874
 31
0.0
  0
LINE
  5
77E
100
AcDbEntity
  8
0
  6
CONTINUOUS
 62
         7
100
AcDbLine
 10
9.753749484
 20
7.5410806228
 30
0.0
 11
9.5518810364
 21
7.4245444486
 31
0.0
  0
LINE
  5
77F
100
AcDbEntity
  8
0
  6
CONTINUOUS
 62
         7
100
AcDbLine
 10
9.921470572
 20
7.2419218402
 30
0.0
 11
9.7349502794
 21
7.1342459671
 31
0.0
  0
LINE
  5
780
100
AcDbEntity
  8
0
  6
CONTINUOUS
 62
         7
100
AcDbLine
 10
10.0392034789
 20
7.013652581
 30
0.0
 11
10.0375623053
 21
7.0118102242
 31
0.0
  0
LINE
  5
781
100
AcDbEntity
  8
0
  6
CONTINUOUS
 62
         7
100
AcDbLine
 10
9.7423614578
 20
7.550426183
 30
0.0
 11
9.5558411651
 21
7.44275031
 31
0.0
  0
LINE
  5
782
100
AcDbEntity
  8
0
  6
CONTINUOUS
 62
         7
100
AcDbLine
 10
9.9250777769
 20
7.2372265375
 30
0.0
 11
9.7232093293
 21
7.1206903632
 31
0.0
  0
LINE
  5
783
100
AcDbEntity
  8
0
  6
CONTINUOUS
 62
         7
100
AcDbLine
 10
9.7401343258
 20
7.5557801638
 30
0.0
 11
9.5382658782
 21
7.4392439895
 31
0.0
  0
LINE
  5
784
100
AcDbEntity
  8
0
  6
CONTINUOUS
 62
         7
100
AcDbLine
 10
9.9273392516
 20
7.2223644404
 30
0.0
 11
9.7408189589
 21
7.1146885673
 31
0.0
  0
LINE
  5
785
100
AcDbEntity
  8
0
  6
CONTINUOUS
 62
         7
100
AcDbLine
 10
9.7283104653
 20
7.5651791832
 30
0.0
 11
9.5417901726
 21
7.4575033102
 31
0.0
  0
LINE
  5
786
100
AcDbEntity
  8
0
  6
CONTINUOUS
 62
         7
100
AcDbLine
 10
9.9305169445
 20
7.2181328582
 30
0.0
 11
9.7286484969
 21
7.1015966839
 31
0.0
  0
LINE
  5
787
100
AcDbEntity
  8
0
  6
CONTINUOUS
 62
         7
100
AcDbLine
 10
9.726273768
 20
7.5699290648
 30
0.0
 11
9.5244053204
 21
7.4533928905
 31
0.0
  0
LINE
  5
788
100
AcDbEntity
  8
0
  6
CONTINUOUS
 62
         7
100
AcDbLine
 10
9.9325915683
 20
7.2028826433
 30
0.0
 11
9.7460712756
 21
7.0952067703
 31
0.0
  0
LINE
  5
789
100
AcDbEntity
  8
0
  6
CONTINUOUS
 62
         7
100
AcDbLine
 10
9.7140219725
 20
7.5793552188
 30
0.0
 11
9.5275016798
 21
7.4716793458
 31
0.0
  0
LINE
  5
78A
100
AcDbEntity
  8
0
  6
CONTINUOUS
 62
         7
100
AcDbLine
 10
9.9353483084
 20
7.1991312698
 30
0.0
 11
9.7334798608
 21
7.0825950955
 31
0.0
  0
LINE
  5
78B
100
AcDbEntity
  8
0
  6
CONTINUOUS
 62
         7
100
AcDbLine
 10
9.712194195
 20
7.5835003926
 30
0.0
 11
9.5103257474
 21
7.4669642183
 31
0.0
  0
LINE
  5
78C
100
AcDbEntity
  8
0
  6
CONTINUOUS
 62
         7
100
AcDbLine
 10
9.937217524
 20
7.1835135337
 30
0.0
 11
9.7506972313
 21
7.0758376607
 31
0.0
  0
LINE
  5
78D
100
AcDbEntity
  8
0
  6
CONTINUOUS
 62
         7
100
AcDbLine
 10
9.6995231783
 20
7.5929273049
 30
0.0
 11
9.5130028857
 21
7.4852514319
 31
0.0
  0
LINE
  5
78E
100
AcDbEntity
  8
0
  6
CONTINUOUS
 62
         7
100
AcDbLine
 10
9.9395626718
 20
7.1802579428
 30
0.0
 11
9.7376942242
 21
7.0637217685
 31
0.0
  0
LINE
  5
78F
100
AcDbEntity
  8
0
  6
CONTINUOUS
 62
         7
100
AcDbLine
 10
9.697922408
 20
7.5964683133
 30
0.0
 11
9.4960539604
 21
7.479932139
 31
0.0
  0
LINE
  5
790
100
AcDbEntity
  8
0
  6
CONTINUOUS
 62
         7
100
AcDbLine
 10
9.941208313
 20
7.1642939818
 30
0.0
 11
9.7546880203
 21
7.0566181088
 31
0.0
  0
LINE
  5
791
100
AcDbEntity
  8
0
  6
CONTINUOUS
 62
         7
100
AcDbLine
 10
9.6848416822
 20
7.6058696063
 30
0.0
 11
9.4983213895
 21
7.4981937333
 31
0.0
  0
LINE
  5
792
100
AcDbEntity
  8
0
  6
CONTINUOUS
 62
         7
100
AcDbLine
 10
9.9431520123
 20
7.1615488037
 30
0.0
 11
9.7412835647
 21
7.0450126295
 31
0.0
  0
LINE
  5
793
100
AcDbEntity
  8
0
  6
CONTINUOUS
 62
         7
100
AcDbLine
 10
9.6834855741
 20
7.6088081418
 30
0.0
 11
9.4816171265
 21
7.4922719676
 31
0.0
  0
LINE
  5
794
100
AcDbEntity
  8
0
  6
CONTINUOUS
 62
         7
100
AcDbLine
 10
9.9445563386
 20
7.145260573
 30
0.0
 11
9.7580360459
 21
7.0375847
 31
0.0
  0
LINE
  5
795
100
AcDbEntity
  8
0
  6
CONTINUOUS
 62
         7
100
AcDbLine
 10
9.6700054311
 20
7.6181574865
 30
0.0
 11
9.4834851384
 21
7.5104816135
 31
0.0
  0
LINE
  5
796
100
AcDbEntity
  8
0
  6
CONTINUOUS
 62
         7
100
AcDbLine
 10
9.9461094975
 20
7.1430394665
 30
0.0
 11
9.7442410499
 21
7.0265032922
 31
0.0
  0
LINE
  5
797
100
AcDbEntity
  8
0
  6
CONTINUOUS
 62
         7
100
AcDbLine
 10
9.6689111748
 20
7.6204963886
 30
0.0
 11
9.4670427272
 21
7.5039602144
 31
0.0
  0
LINE
  5
798
100
AcDbEntity
  8
0
  6
CONTINUOUS
 62
         7
100
AcDbLine
 10
9.9472552276
 20
7.1264495385
 30
0.0
 11
9.7607349349
 21
7.0187736655
 31
0.0
  0
LINE
  5
799
100
AcDbEntity
  8
0
  6
CONTINUOUS
 62
         7
100
AcDbLine
 10
9.6550426667
 20
7.6297675549
 30
0.0
 11
9.468522374
 21
7.5220916819
 31
0.0
  0
LINE
  5
79A
100
AcDbEntity
  8
0
  6
CONTINUOUS
 62
         7
100
AcDbLine
 10
9.9484294977
 20
7.1247651646
 30
0.0
 11
9.7465610501
 21
7.0082289903
 31
0.0
  0
LINE
  5
79B
100
AcDbEntity
  8
0
  6
CONTINUOUS
 62
         7
100
AcDbLine
 10
9.6542269531
 20
7.6315108044
 30
0.0
 11
9.4523585055
 21
7.5149746301
 31
0.0
  0
LINE
  5
79C
100
AcDbEntity
  8
0
  6
CONTINUOUS
 62
         7
100
AcDbLine
 10
9.9492998426
 20
7.1078966863
 30
0.0
 11
9.7627795499
 21
7.0002208133
 31
0.0
  0
LINE
  5
79D
100
AcDbEntity
  8
0
  6
CONTINUOUS
 62
         7
100
AcDbLine
 10
9.6399818714
 20
7.6406777111
 30
0.0
 11
9.4534615787
 21
7.5330018381
 31
0.0
  0
LINE
  5
79E
100
AcDbEntity
  8
0
  6
CONTINUOUS
 62
         7
100
AcDbLine
 10
9.9501075966
 20
7.1067606842
 30
0.0
 11
9.748239149
 21
6.99022451
 31
0.0
  0
LINE
  5
79F
100
AcDbEntity
  8
0
  6
CONTINUOUS
 62
         7
100
AcDbLine
 10
9.6394608614
 20
7.6418304226
 30
0.0
 11
9.4375924138
 21
7.5252942483
 31
0.0
  0
LINE
  5
7A0
100
AcDbEntity
  8
0
  6
CONTINUOUS
 62
         7
100
AcDbLine
 10
9.9506862914
 20
7.0896373327
 30
0.0
 11
9.7641659987
 21
6.9819614597
 31
0.0
  0
LINE
  5
7A1
100
AcDbEntity
  8
0
  6
CONTINUOUS
 62
         7
100
AcDbLine
 10
9.6248517144
 20
7.6508671869
 30
0.0
 11
9.4383314217
 21
7.5431913139
 31
0.0
  0
LINE
  5
7A2
100
AcDbEntity
  8
0
  6
CONTINUOUS
 62
         7
100
AcDbLine
 10
9.9511405998
 20
7.089060298
 30
0.0
 11
9.7492721522
 21
6.9725241238
 31
0.0
  0
LINE
  5
7A3
100
AcDbEntity
  8
0
  6
CONTINUOUS
 62
         7
100
AcDbLine
 10
9.6246410078
 20
7.6514355993
 30
0.0
 11
9.4227725602
 21
7.534899425
 31
0.0
  0
LINE
  5
7A4
100
AcDbEntity
  8
0
  6
CONTINUOUS
 62
         7
100
AcDbLine
 10
9.951411935
 20
7.0717062354
 30
0.0
 11
9.7648916423
 21
6.9640303624
 31
0.0
  0
LINE
  5
7A5
100
AcDbEntity
  8
0
  6
CONTINUOUS
 62
         7
100
AcDbLine
 10
9.6096809967
 20
7.6603165862
 30
0.0
 11
9.423160704
 21
7.5526407132
 31
0.0
  0
LINE
  5
7A6
100
AcDbEntity
  8
0
  6
CONTINUOUS
 62
         7
100
AcDbLine
 10
9.9515265409
 20
7.0716976996
 30
0.0
 11
9.7496580933
 21
6.9551615253
 31
0.0
  0
LINE
  5
7A7
100
AcDbEntity
  8
0
  6
CONTINUOUS
 62
         7
100
AcDbLine
 10
9.951475392
 20
7.0541375273
 30
0.0
 11
9.7649550993
 21
6.9464616543
 31
0.0
  0
LINE
  5
7A8
100
AcDbEntity
  8
0
  6
CONTINUOUS
 62
         7
100
AcDbLine
 10
9.5944985967
 20
7.6690079214
 30
0.0
 11
9.407978304
 21
7.5613320484
 31
0.0
  0
LINE
  5
7A9
100
AcDbEntity
  8
0
  6
CONTINUOUS
 62
         7
100
AcDbLine
 10
9.9508765415
 20
7.0369646515
 30
0.0
 11
9.7643562489
 21
6.9292887785
 31
0.0
  0
LINE
  5
7AA
100
AcDbEntity
  8
0
  6
CONTINUOUS
 62
         7
100
AcDbLine
 10
9.5793334149
 20
7.676924648
 30
0.0
 11
9.3928131223
 21
7.569248775
 31
0.0
  0
LINE
  5
7AB
100
AcDbEntity
  8
0
  6
CONTINUOUS
 62
         7
100
AcDbLine
 10
9.9496165237
 20
7.0202202974
 30
0.0
 11
9.763096231
 21
6.9125444244
 31
0.0
  0
LINE
  5
7AC
100
AcDbEntity
  8
0
  6
CONTINUOUS
 62
         7
100
AcDbLine
 10
9.5642143192
 20
7.6840516963
 30
0.0
 11
9.3776940265
 21
7.5763758233
 31
0.0
  0
LINE
  5
7AD
100
AcDbEntity
  8
0
  6
CONTINUOUS
 62
         7
100
AcDbLine
 10
9.9476977369
 20
7.003936339
 30
0.0
 11
9.7611774443
 21
6.8962604659
 31
0.0
  0
LINE
  5
7AE
100
AcDbEntity
  8
0
  6
CONTINUOUS
 62
         7
100
AcDbLine
 10
9.5491700895
 20
7.6903754993
 30
0.0
 11
9.3626497968
 21
7.5826996263
 31
0.0
  0
LINE
  5
7AF
100
AcDbEntity
  8
0
  6
CONTINUOUS
 62
         7
100
AcDbLine
 10
9.9451238338
 20
6.9881437735
 30
0.0
 11
9.7586035411
 21
6.8804679005
 31
0.0
  0
LINE
  5
7B0
100
AcDbEntity
  8
0
  6
CONTINUOUS
 62
         7
100
AcDbLine
 10
9.5342293635
 20
7.6958840195
 30
0.0
 11
9.3477090708
 21
7.5882081464
 31
0.0
  0
LINE
  5
7B1
100
AcDbEntity
  8
0
  6
CONTINUOUS
 62
         7
100
AcDbLine
 10
9.9418997138
 20
6.9728726632
 30
0.0
 11
9.7553794211
 21
6.8651967902
 31
0.0
  0
LINE
  5
7B2
100
AcDbEntity
  8
0
  6
CONTINUOUS
 62
         7
100
AcDbLine
 10
9.5194205816
 20
7.7005667709
 30
0.0
 11
9.3329002889
 21
7.5928908979
 31
0.0
  0
LINE
  5
7B3
100
AcDbEntity
  8
0
  6
CONTINUOUS
 62
         7
100
AcDbLine
 10
9.9380315142
 20
6.9581520774
 30
0.0
 11
9.7515112215
 21
6.8504762044
 31
0.0
  0
LINE
  5
7B4
100
AcDbEntity
  8
0
  6
CONTINUOUS
 62
         7
100
AcDbLine
 10
9.5047719332
 20
7.7044148398
 30
0.0
 11
9.3182516405
 21
7.5967389668
 31
0.0
  0
LINE
  5
7B5
100
AcDbEntity
  8
0
  6
CONTINUOUS
 62
         7
100
AcDbLine
 10
9.9335265985
 20
6.9440100376
 30
0.0
 11
9.7470063058
 21
6.8363341646
 31
0.0
  0
LINE
  5
7B6
100
AcDbEntity
  8
0
  6
CONTINUOUS
 62
         7
100
AcDbLine
 10
9.4903113028
 20
7.7074209011
 30
0.0
 11
9.3037910101
 21
7.599745028
 31
0.0
  0
LINE
  5
7B7
100
AcDbEntity
  8
0
  6
CONTINUOUS
 62
         7
100
AcDbLine
 10
9.9283935419
 20
6.930473464
 30
0.0
 11
9.7418732492
 21
6.822797591
 31
0.0
  0
LINE
  5
7B8
100
AcDbEntity
  8
0
  6
CONTINUOUS
 62
         7
100
AcDbLine
 10
9.4760662171
 20
7.7095792325
 30
0.0
 11
9.2895459245
 21
7.6019033595
 31
0.0
  0
LINE
  5
7B9
100
AcDbEntity
  8
0
  6
CONTINUOUS
 62
         7
100
AcDbLine
 10
9.9226421156
 20
6.9175681242
 30
0.0
 11
9.7361218229
 21
6.8098922511
 31
0.0
  0
LINE
  5
7BA
100
AcDbEntity
  8
0
  6
CONTINUOUS
 62
         7
100
AcDbLine
 10
9.4620637924
 20
7.7108857257
 30
0.0
 11
9.2755434998
 21
7.6032098527
 31
0.0
  0
LINE
  5
7BB
100
AcDbEntity
  8
0
  6
CONTINUOUS
 62
         7
100
AcDbLine
 10
9.9162832676
 20
6.9053185842
 30
0.0
 11
9.7297629749
 21
6.7976427112
 31
0.0
  0
LINE
  5
7BC
100
AcDbEntity
  8
0
  6
CONTINUOUS
 62
         7
100
AcDbLine
 10
9.4483306832
 20
7.7113378936
 30
0.0
 11
9.2618103905
 21
7.6036620206
 31
0.0
  0
LINE
  5
7BD
100
AcDbEntity
  8
0
  6
CONTINUOUS
 62
         7
100
AcDbLine
 10
9.9093291025
 20
6.8937481618
 30
0.0
 11
9.7228088098
 21
6.7860722888
 31
0.0
  0
LINE
  5
7BE
100
AcDbEntity
  8
0
  6
CONTINUOUS
 62
         7
100
AcDbLine
 10
9.4348930311
 20
7.7109348755
 30
0.0
 11
9.2483727384
 21
7.6032590025
 31
0.0
  0
LINE
  5
7BF
100
AcDbEntity
  8
0
  6
CONTINUOUS
 62
         7
100
AcDbLine
 10
9.9017928579
 20
6.8828788819
 30
0.0
 11
9.7152725652
 21
6.7752030088
 31
0.0
  0
LINE
  5
7C0
100
AcDbEntity
  8
0
  6
CONTINUOUS
 62
         7
100
AcDbLine
 10
9.4217764155
 20
7.7096774385
 30
0.0
 11
9.2352561228
 21
7.6020015655
 31
0.0
  0
LINE
  5
7C1
100
AcDbEntity
  8
0
  6
CONTINUOUS
 62
         7
100
AcDbLine
 10
9.8936888794
 20
6.8727314347
 30
0.0
 11
9.7071685867
 21
6.7650555617
 31
0.0
  0
LINE
  5
7C2
100
AcDbEntity
  8
0
  6
CONTINUOUS
 62
         7
100
AcDbLine
 10
9.4090058046
 20
7.7075679763
 30
0.0
 11
9.2224855119
 21
7.5998921033
 31
0.0
  0
LINE
  5
7C3
100
AcDbEntity
  8
0
  6
CONTINUOUS
 62
         7
100
AcDbLine
 10
9.8850325934
 20
6.8633251367
 30
0.0
 11
9.6985123007
 21
6.7556492636
 31
0.0
  0
LINE
  5
7C4
100
AcDbEntity
  8
0
  6
CONTINUOUS
 62
         7
100
AcDbLine
 10
9.396605508
 20
7.7046105043
 30
0.0
 11
9.2100852153
 21
7.5969346313
 31
0.0
  0
LINE
  5
7C5
100
AcDbEntity
  8
0
  6
CONTINUOUS
 62
         7
100
AcDbLine
 10
9.8758404777
 20
6.854677893
 30
0.0
 11
9.689320185
 21
6.74700202
 31
0.0
  0
LINE
  5
7C6
100
AcDbEntity
  8
0
  6
CONTINUOUS
 62
         7
100
AcDbLine
 10
9.3845991304
 20
7.7008106523
 30
0.0
 11
9.1980788377
 21
7.5931347792
 31
0.0
  0
LINE
  5
7C7
100
AcDbEntity
  8
0
  6
CONTINUOUS
 62
         7
100
AcDbLine
 10
9.8661300299
 20
6.8468061644
 30
0.0
 11
9.6796097372
 21
6.7391302914
 31
0.0
  0
LINE
  5
7C8
100
AcDbEntity
  8
0
  6
CONTINUOUS
 62
         7
100
AcDbLine
 10
9.3730095266
 20
7.6961756534
 30
0.0
 11
9.1864892339
 21
7.5884997804
 31
0.0
  0
LINE
  5
7C9
100
AcDbEntity
  8
0
  6
CONTINUOUS
 62
         7
100
AcDbLine
 10
9.8559197345
 20
6.8397249351
 30
0.0
 11
9.6693994419
 21
6.732049062
 31
0.0
  0
LINE
  5
7CA
100
AcDbEntity
  8
0
  6
CONTINUOUS
 62
         7
100
AcDbLine
 10
9.3618587581
 20
7.6907143307
 30
0.0
 11
9.1753384654
 21
7.5830384577
 31
0.0
  0
LINE
  5
7CB
100
AcDbEntity
  8
0
  6
CONTINUOUS
 62
         7
100
AcDbLine
 10
9.8452290274
 20
6.8334476845
 30
0.0
 11
9.6587087347
 21
6.7257718115
 31
0.0
  0
LINE
  5
7CC
100
AcDbEntity
  8
0
  6
CONTINUOUS
 62
         7
100
AcDbLine
 10
9.1752737266
 20
7.5828954481
 30
0.0
 11
9.1646477583
 21
7.5767612071
 31
0.0
  0
LINE
  5
7CD
100
AcDbEntity
  8
0
  6
CONTINUOUS
 62
         7
100
AcDbLine
 10
9.6573139187
 20
6.7259424803
 30
0.0
 11
9.6475579662
 21
6.7203104888
 31
0.0
  0
LINE
  5
7CE
100
AcDbEntity
  8
0
  6
CONTINUOUS
 62
         7
100
AcDbLine
 10
9.1639926944
 20
7.5751960955
 30
0.0
 11
9.1544374629
 21
7.5696799778
 31
0.0
  0
LINE
  5
7CF
100
AcDbEntity
  8
0
  6
CONTINUOUS
 62
         7
100
AcDbLine
 10
9.6447356719
 20
6.72073675
 30
0.0
 11
9.6359683624
 21
6.7156754899
 31
0.0
  0
LINE
  5
7D0
100
AcDbEntity
  8
0
  6
CONTINUOUS
 62
         7
100
AcDbLine
 10
9.1533120129
 20
7.5667642628
 30
0.0
 11
9.1447270152
 21
7.5618082492
 31
0.0
  0
LINE
  5
7D1
100
AcDbEntity
  8
0
  6
CONTINUOUS
 62
         7
100
AcDbLine
 10
9.6318293918
 20
6.7164173953
 30
0.0
 11
9.6239619848
 21
6.7118756379
 31
0.0
  0
LINE
  5
7D2
100
AcDbEntity
  8
0
  6
CONTINUOUS
 62
         7
100
AcDbLine
 10
9.1432358277
 20
7.5576066568
 30
0.0
 11
9.1355348994
 21
7.5531610055
 31
0.0
  0
LINE
  5
7D3
100
AcDbEntity
  8
0
  6
CONTINUOUS
 62
         7
100
AcDbLine
 10
9.6186057302
 20
6.7129846048
 30
0.0
 11
9.6115616882
 21
6.7089181659
 31
0.0
  0
LINE
  5
7D4
100
AcDbEntity
  8
0
  6
CONTINUOUS
 62
         7
100
AcDbLine
 10
9.1337698906
 20
7.5477329571
 30
0.0
 11
9.1268786135
 21
7.5437547075
 31
0.0
  0
LINE
  5
7D5
100
AcDbEntity
  8
0
  6
CONTINUOUS
 62
         7
100
AcDbLine
 10
9.6050782171
 20
6.7104381922
 30
0.0
 11
9.5987910773
 21
6.7068087037
 31
0.0
  0
LINE
  5
7D6
100
AcDbEntity
  8
0
  6
CONTINUOUS
 62
         7
100
AcDbLine
 10
9.1249209645
 20
7.5371554609
 30
0.0
 11
9.118774635
 21
7.5336072603
 31
0.0
  0
LINE
  5
7D7
100
AcDbEntity
  8
0
  6
CONTINUOUS
 62
         7
100
AcDbLine
 10
9.5912627706
 20
6.7087773288
 30
0.0
 11
9.5856744617
 21
6.7055512667
 31
0.0
  0
POLYLINE
  5
7D8
100
AcDbEntity
  8
0
  6
CONTINUOUS
 62
         7
100
AcDb2dPolyline
 66
         1
 10
0.0
 20
0.0
 30
0.0
 70
       128
  0
VERTEX
  5
7D9
100
AcDbEntity
  8
0
100
AcDbVertex
100
AcDb2dVertex
 10
8.5879571128
 20
6.2336991986
 30
0.0
  0
VERTEX
  5
7DA
100
AcDbEntity
  8
0
100
AcDbVertex
100
AcDb2dVertex
 10
8.6146274809
 20
6.2331566626
 30
0.0
  0
VERTEX
  5
7DB
100
AcDbEntity
  8
0
100
AcDbVertex
100
AcDb2dVertex
 10
8.6398596644
 20
6.2364839397
 30
0.0
  0
VERTEX
  5
7DC
100
AcDbEntity
  8
0
100
AcDbVertex
100
AcDb2dVertex
 10
8.6633947469
 20
6.2436468876
 30
0.0
  0
VERTEX
  5
7DD
100
AcDbEntity
  8
0
100
AcDbVertex
100
AcDb2dVertex
 10
8.6849912266
 20
6.2545720048
 30
0.0
  0
VERTEX
  5
7DE
100
AcDbEntity
  8
0
100
AcDbVertex
100
AcDb2dVertex
 10
8.7044274945
 20
6.2691471847
 30
0.0
  0
VERTEX
  5
7DF
100
AcDbEntity
  8
0
100
AcDbVertex
100
AcDb2dVertex
 10
8.7215041081
 20
6.2872228663
 30
0.0
  0
VERTEX
  5
7E0
100
AcDbEntity
  8
0
100
AcDbVertex
100
AcDb2dVertex
 10
8.7360458383
 20
6.3086135686
 30
0.0
  0
VERTEX
  5
7E1
100
AcDbEntity
  8
0
100
AcDbVertex
100
AcDb2dVertex
 10
8.7479034672
 20
6.3330997941
 30
0.0
  0
VERTEX
  5
7E2
100
AcDbEntity
  8
0
100
AcDbVertex
100
AcDb2dVertex
 10
8.7569553195
 20
6.360430281
 30
0.0
  0
VERTEX
  5
7E3
100
AcDbEntity
  8
0
100
AcDbVertex
100
AcDb2dVertex
 10
8.7631085109
 20
6.3903245815
 30
0.0
  0
VERTEX
  5
7E4
100
AcDbEntity
  8
0
100
AcDbVertex
100
AcDb2dVertex
 10
8.7662999015
 20
6.4224759396
 30
0.0
  0
VERTEX
  5
7E5
100
AcDbEntity
  8
0
100
AcDbVertex
100
AcDb2dVertex
 10
8.7664967431
 20
6.4565544388
 30
0.0
  0
VERTEX
  5
7E6
100
AcDbEntity
  8
0
100
AcDbVertex
100
AcDb2dVertex
 10
8.763697016
 20
6.4922103877
 30
0.0
  0
VERTEX
  5
7E7
100
AcDbEntity
  8
0
100
AcDbVertex
100
AcDb2dVertex
 10
8.7579294491
 20
6.529077908
 30
0.0
  0
VERTEX
  5
7E8
100
AcDbEntity
  8
0
100
AcDbVertex
100
AcDb2dVertex
 10
8.7492532255
 20
6.5667786891
 30
0.0
  0
VERTEX
  5
7E9
100
AcDbEntity
  8
0
100
AcDbVertex
100
AcDb2dVertex
 10
8.7377573749
 20
6.6049258698
 30
0.0
  0
VERTEX
  5
7EA
100
AcDbEntity
  8
0
100
AcDbVertex
100
AcDb2dVertex
 10
8.7235598604
 20
6.6431280085
 30
0.0
  0
VERTEX
  5
7EB
100
AcDbEntity
  8
0
100
AcDbVertex
100
AcDb2dVertex
 10
8.7068063676
 20
6.6809930995
 30
0.0
  0
VERTEX
  5
7EC
100
AcDbEntity
  8
0
100
AcDbVertex
100
AcDb2dVertex
 10
8.6876688101
 20
6.7181325959
 30
0.0
  0
VERTEX
  5
7ED
100
AcDbEntity
  8
0
100
AcDbVertex
100
AcDb2dVertex
 10
8.6663435651
 20
6.754165396
 30
0.0
  0
VERTEX
  5
7EE
100
AcDbEntity
  8
0
100
AcDbVertex
100
AcDb2dVertex
 10
8.6430494585
 20
6.7887217547
 30
0.0
  0
VERTEX
  5
7EF
100
AcDbEntity
  8
0
100
AcDbVertex
100
AcDb2dVertex
 10
8.6180255193
 20
6.8214470768
 30
0.0
  0
VERTEX
  5
7F0
100
AcDbEntity
  8
0
100
AcDbVertex
100
AcDb2dVertex
 10
8.591528527
 20
6.8520055564
 30
0.0
  0
VERTEX
  5
7F1
100
AcDbEntity
  8
0
100
AcDbVertex
100
AcDb2dVertex
 10
8.5638303766
 20
6.880083622
 30
0.0
  0
VERTEX
  5
7F2
100
AcDbEntity
  8
0
100
AcDbVertex
100
AcDb2dVertex
 10
8.5352152886
 20
6.9053931548
 30
0.0
  0
VERTEX
  5
7F3
100
AcDbEntity
  8
0
100
AcDbVertex
100
AcDb2dVertex
 10
8.5059768926
 20
6.9276744446
 30
0.0
  0
VERTEX
  5
7F4
100
AcDbEntity
  8
0
100
AcDbVertex
100
AcDb2dVertex
 10
8.476415214
 20
6.9466988552
 30
0.0
  0
VERTEX
  5
7F5
100
AcDbEntity
  8
0
100
AcDbVertex
100
AcDb2dVertex
 10
8.4468335957
 20
6.9622711705
 30
0.0
  0
VERTEX
  5
7F6
100
AcDbEntity
  8
0
100
AcDbVertex
100
AcDb2dVertex
 10
8.417535585
 20
6.9742315975
 30
0.0
  0
VERTEX
  5
7F7
100
AcDbEntity
  8
0
100
AcDbVertex
100
AcDb2dVertex
 10
8.3888218194
 20
6.982457406
 30
0.0
  0
VERTEX
  5
7F8
100
AcDbEntity
  8
0
100
AcDbVertex
100
AcDb2dVertex
 10
8.3609869407
 20
6.986864188
 30
0.0
  0
VERTEX
  5
7F9
100
AcDbEntity
  8
0
100
AcDbVertex
100
AcDb2dVertex
 10
8.3343165726
 20
6.987406724
 30
0.0
  0
VERTEX
  5
7FA
100
AcDbEntity
  8
0
100
AcDbVertex
100
AcDb2dVertex
 10
8.3090843891
 20
6.9840794469
 30
0.0
  0
VERTEX
  5
7FB
100
AcDbEntity
  8
0
100
AcDbVertex
100
AcDb2dVertex
 10
8.2855493066
 20
6.976916499
 30
0.0
  0
VERTEX
  5
7FC
100
AcDbEntity
  8
0
100
AcDbVertex
100
AcDb2dVertex
 10
8.2639528268
 20
6.9659913818
 30
0.0
  0
VERTEX
  5
7FD
100
AcDbEntity
  8
0
100
AcDbVertex
100
AcDb2dVertex
 10
8.244516559
 20
6.9514162019
 30
0.0
  0
VERTEX
  5
7FE
100
AcDbEntity
  8
0
100
AcDbVertex
100
AcDb2dVertex
 10
8.2274399454
 20
6.9333405203
 30
0.0
  0
VERTEX
  5
7FF
100
AcDbEntity
  8
0
100
AcDbVertex
100
AcDb2dVertex
 10
8.2128982152
 20
6.911949818
 30
0.0
  0
VERTEX
  5
800
100
AcDbEntity
  8
0
100
AcDbVertex
100
AcDb2dVertex
 10
8.2010405863
 20
6.8874635925
 30
0.0
  0
VERTEX
  5
801
100
AcDbEntity
  8
0
100
AcDbVertex
100
AcDb2dVertex
 10
8.191988734
 20
6.8601331056
 30
0.0
  0
VERTEX
  5
802
100
AcDbEntity
  8
0
100
AcDbVertex
100
AcDb2dVertex
 10
8.1858355426
 20
6.8302388051
 30
0.0
  0
VERTEX
  5
803
100
AcDbEntity
  8
0
100
AcDbVertex
100
AcDb2dVertex
 10
8.182644152
 20
6.7980874471
 30
0.0
  0
VERTEX
  5
804
100
AcDbEntity
  8
0
100
AcDbVertex
100
AcDb2dVertex
 10
8.1824473104
 20
6.7640089478
 30
0.0
  0
VERTEX
  5
805
100
AcDbEntity
  8
0
100
AcDbVertex
100
AcDb2dVertex
 10
8.1852470375
 20
6.7283529989
 30
0.0
  0
VERTEX
  5
806
100
AcDbEntity
  8
0
100
AcDbVertex
100
AcDb2dVertex
 10
8.1910146044
 20
6.6914854786
 30
0.0
  0
VERTEX
  5
807
100
AcDbEntity
  8
0
100
AcDbVertex
100
AcDb2dVertex
 10
8.199690828
 20
6.6537846976
 30
0.0
  0
VERTEX
  5
808
100
AcDbEntity
  8
0
100
AcDbVertex
100
AcDb2dVertex
 10
8.2111866786
 20
6.6156375168
 30
0.0
  0
VERTEX
  5
809
100
AcDbEntity
  8
0
100
AcDbVertex
100
AcDb2dVertex
 10
8.2173287242
 20
6.5982142837
 30
0.0
  0
SEQEND
  5
80A
100
AcDbEntity
  8
0
  0
POLYLINE
  5
80B
100
AcDbEntity
  8
0
  6
CONTINUOUS
 62
         7
100
AcDb2dPolyline
 66
         1
 10
0.0
 20
0.0
 30
0.0
 70
       128
  0
VERTEX
  5
80C
100
AcDbEntity
  8
0
100
AcDbVertex
100
AcDb2dVertex
 10
8.335429362
 20
6.3936358123
 30
0.0
  0
VERTEX
  5
80D
100
AcDbEntity
  8
0
100
AcDbVertex
100
AcDb2dVertex
 10
8.3574155265
 20
6.3685578302
 30
0.0
  0
VERTEX
  5
80E
100
AcDbEntity
  8
0
100
AcDbVertex
100
AcDb2dVertex
 10
8.3851136769
 20
6.3404797646
 30
0.0
  0
VERTEX
  5
80F
100
AcDbEntity
  8
0
100
AcDbVertex
100
AcDb2dVertex
 10
8.4137287649
 20
6.3151702319
 30
0.0
  0
VERTEX
  5
810
100
AcDbEntity
  8
0
100
AcDbVertex
100
AcDb2dVertex
 10
8.4429671609
 20
6.2928889421
 30
0.0
  0
VERTEX
  5
811
100
AcDbEntity
  8
0
100
AcDbVertex
100
AcDb2dVertex
 10
8.4725288395
 20
6.2738645314
 30
0.0
  0
VERTEX
  5
812
100
AcDbEntity
  8
0
100
AcDbVertex
100
AcDb2dVertex
 10
8.5021104578
 20
6.2582922161
 30
0.0
  0
VERTEX
  5
813
100
AcDbEntity
  8
0
100
AcDbVertex
100
AcDb2dVertex
 10
8.5314084685
 20
6.2463317891
 30
0.0
  0
VERTEX
  5
814
100
AcDbEntity
  8
0
100
AcDbVertex
100
AcDb2dVertex
 10
8.5601222341
 20
6.2381059806
 30
0.0
  0
VERTEX
  5
815
100
AcDbEntity
  8
0
100
AcDbVertex
100
AcDb2dVertex
 10
8.5879571128
 20
6.2336991986
 30
0.0
  0
SEQEND
  5
816
100
AcDbEntity
  8
0
  0
POLYLINE
  5
817
100
AcDbEntity
  8
0
  6
CONTINUOUS
 62
         7
100
AcDb2dPolyline
 66
         1
 10
0.0
 20
0.0
 30
0.0
 70
       128
  0
VERTEX
  5
818
100
AcDbEntity
  8
0
100
AcDbVertex
100
AcDb2dVertex
 10
8.2810563755
 20
7.0441331152
 30
0.0
  0
VERTEX
  5
819
100
AcDbEntity
  8
0
100
AcDbVertex
100
AcDb2dVertex
 10
8.2814028925
 20
7.0443291196
 30
0.0
  0
VERTEX
  5
81A
100
AcDbEntity
  8
0
100
AcDbVertex
100
AcDb2dVertex
 10
8.3050520354
 20
7.0552107051
 30
0.0
  0
VERTEX
  5
81B
100
AcDbEntity
  8
0
100
AcDbVertex
100
AcDb2dVertex
 10
8.3306136414
 20
7.0622812572
 30
0.0
  0
VERTEX
  5
81C
100
AcDbEntity
  8
0
100
AcDbVertex
100
AcDb2dVertex
 10
8.3578562206
 20
7.0654767437
 30
0.0
  0
VERTEX
  5
81D
100
AcDbEntity
  8
0
100
AcDbVertex
100
AcDb2dVertex
 10
8.38653306
 20
7.064768226
 30
0.0
  0
VERTEX
  5
81E
100
AcDbEntity
  8
0
100
AcDbVertex
100
AcDb2dVertex
 10
8.4163844577
 20
7.0601621203
 30
0.0
  0
VERTEX
  5
81F
100
AcDbEntity
  8
0
100
AcDbVertex
100
AcDb2dVertex
 10
8.4471400749
 20
7.0517001405
 30
0.0
  0
VERTEX
  5
820
100
AcDbEntity
  8
0
100
AcDbVertex
100
AcDb2dVertex
 10
8.4785213838
 20
7.0394589193
 30
0.0
  0
VERTEX
  5
821
100
AcDbEntity
  8
0
100
AcDbVertex
100
AcDb2dVertex
 10
8.5102441905
 20
7.0235493153
 30
0.0
  0
VERTEX
  5
822
100
AcDbEntity
  8
0
100
AcDbVertex
100
AcDb2dVertex
 10
8.5420212084
 20
7.0041154082
 30
0.0
  0
VERTEX
  5
823
100
AcDbEntity
  8
0
100
AcDbVertex
100
AcDb2dVertex
 10
8.5735646598
 20
6.9813331946
 30
0.0
  0
VERTEX
  5
824
100
AcDbEntity
  8
0
100
AcDbVertex
100
AcDb2dVertex
 10
8.6045888824
 20
6.9554089936
 30
0.0
  0
VERTEX
  5
825
100
AcDbEntity
  8
0
100
AcDbVertex
100
AcDb2dVertex
 10
8.634812916
 20
6.926577579
 30
0.0
  0
VERTEX
  5
826
100
AcDbEntity
  8
0
100
AcDbVertex
100
AcDb2dVertex
 10
8.663963047
 20
6.8951000523
 30
0.0
  0
VERTEX
  5
827
100
AcDbEntity
  8
0
100
AcDbVertex
100
AcDb2dVertex
 10
8.6917752875
 20
6.8612614791
 30
0.0
  0
VERTEX
  5
828
100
AcDbEntity
  8
0
100
AcDbVertex
100
AcDb2dVertex
 10
8.7179977653
 20
6.8253683066
 30
0.0
  0
VERTEX
  5
829
100
AcDbEntity
  8
0
100
AcDbVertex
100
AcDb2dVertex
 10
8.7423930058
 20
6.7877455889
 30
0.0
  0
VERTEX
  5
82A
100
AcDbEntity
  8
0
100
AcDbVertex
100
AcDb2dVertex
 10
8.7647400818
 20
6.7487340433
 30
0.0
  0
VERTEX
  5
82B
100
AcDbEntity
  8
0
100
AcDbVertex
100
AcDb2dVertex
 10
8.7848366147
 20
6.7086869643
 30
0.0
  0
VERTEX
  5
82C
100
AcDbEntity
  8
0
100
AcDbVertex
100
AcDb2dVertex
 10
8.8025006073
 20
6.6679670245
 30
0.0
  0
VERTEX
  5
82D
100
AcDbEntity
  8
0
100
AcDbVertex
100
AcDb2dVertex
 10
8.8175720916
 20
6.62694299
 30
0.0
  0
VERTEX
  5
82E
100
AcDbEntity
  8
0
100
AcDbVertex
100
AcDb2dVertex
 10
8.8299145781
 20
6.5859863807
 30
0.0
  0
VERTEX
  5
82F
100
AcDbEntity
  8
0
100
AcDbVertex
100
AcDb2dVertex
 10
8.8394162911
 20
6.5454681061
 30
0.0
  0
VERTEX
  5
830
100
AcDbEntity
  8
0
100
AcDbVertex
100
AcDb2dVertex
 10
8.8459911818
 20
6.5057551059
 30
0.0
  0
VERTEX
  5
831
100
AcDbEntity
  8
0
100
AcDbVertex
100
AcDb2dVertex
 10
8.8495797068
 20
6.4672070272
 30
0.0
  0
VERTEX
  5
832
100
AcDbEntity
  8
0
100
AcDbVertex
100
AcDb2dVertex
 10
8.8501493681
 20
6.4301729674
 30
0.0
  0
VERTEX
  5
833
100
AcDbEntity
  8
0
100
AcDbVertex
100
AcDb2dVertex
 10
8.8476950065
 20
6.3949883126
 30
0.0
  0
VERTEX
  5
834
100
AcDbEntity
  8
0
100
AcDbVertex
100
AcDb2dVertex
 10
8.8422388493
 20
6.3619717006
 30
0.0
  0
VERTEX
  5
835
100
AcDbEntity
  8
0
100
AcDbVertex
100
AcDb2dVertex
 10
8.8338303081
 20
6.3314221349
 30
0.0
  0
VERTEX
  5
836
100
AcDbEntity
  8
0
100
AcDbVertex
100
AcDb2dVertex
 10
8.8225455322
 20
6.3036162771
 30
0.0
  0
VERTEX
  5
837
100
AcDbEntity
  8
0
100
AcDbVertex
100
AcDb2dVertex
 10
8.808486718
 20
6.2788059413
 30
0.0
  0
VERTEX
  5
838
100
AcDbEntity
  8
0
100
AcDbVertex
100
AcDb2dVertex
 10
8.7917811845
 20
6.2572158138
 30
0.0
  0
VERTEX
  5
839
100
AcDbEntity
  8
0
100
AcDbVertex
100
AcDb2dVertex
 10
8.7725802195
 20
6.2390414182
 30
0.0
  0
VERTEX
  5
83A
100
AcDbEntity
  8
0
100
AcDbVertex
100
AcDb2dVertex
 10
8.7521654559
 20
6.2250780067
 30
0.0
  0
SEQEND
  5
83B
100
AcDbEntity
  8
0
  0
POLYLINE
  5
83C
100
AcDbEntity
  8
0
  6
CONTINUOUS
 62
         7
100
AcDb2dPolyline
 66
         1
 10
0.0
 20
0.0
 30
0.0
 70
       128
  0
VERTEX
  5
83D
100
AcDbEntity
  8
0
100
AcDbVertex
100
AcDb2dVertex
 10
8.8486579643
 20
7.3315472546
 30
0.0
  0
VERTEX
  5
83E
100
AcDbEntity
  8
0
100
AcDbVertex
100
AcDb2dVertex
 10
8.8199811249
 20
7.3322557724
 30
0.0
  0
VERTEX
  5
83F
100
AcDbEntity
  8
0
100
AcDbVertex
100
AcDb2dVertex
 10
8.7927385457
 20
7.3290602859
 30
0.0
  0
VERTEX
  5
840
100
AcDbEntity
  8
0
100
AcDbVertex
100
AcDb2dVertex
 10
8.7920198254
 20
7.3289189983
 30
0.0
  0
SEQEND
  5
841
100
AcDbEntity
  8
0
  0
POLYLINE
  5
842
100
AcDbEntity
  8
0
  6
CONTINUOUS
 62
         7
100
AcDb2dPolyline
 66
         1
 10
0.0
 20
0.0
 30
0.0
 70
       128
  0
VERTEX
  5
843
100
AcDbEntity
  8
0
100
AcDbVertex
100
AcDb2dVertex
 10
9.254683655
 20
6.5248617729
 30
0.0
  0
VERTEX
  5
844
100
AcDbEntity
  8
0
100
AcDbVertex
100
AcDb2dVertex
 10
9.2706116222
 20
6.54558497
 30
0.0
  0
VERTEX
  5
845
100
AcDbEntity
  8
0
100
AcDbVertex
100
AcDb2dVertex
 10
9.2846704364
 20
6.5703953058
 30
0.0
  0
VERTEX
  5
846
100
AcDbEntity
  8
0
100
AcDbVertex
100
AcDb2dVertex
 10
9.2959552124
 20
6.5982011636
 30
0.0
  0
VERTEX
  5
847
100
AcDbEntity
  8
0
100
AcDbVertex
100
AcDb2dVertex
 10
9.3043637535
 20
6.6287507293
 30
0.0
  0
VERTEX
  5
848
100
AcDbEntity
  8
0
100
AcDbVertex
100
AcDb2dVertex
 10
9.3098199108
 20
6.6617673413
 30
0.0
  0
VERTEX
  5
849
100
AcDbEntity
  8
0
100
AcDbVertex
100
AcDb2dVertex
 10
9.3122742723
 20
6.6969519961
 30
0.0
  0
VERTEX
  5
84A
100
AcDbEntity
  8
0
100
AcDbVertex
100
AcDb2dVertex
 10
9.3117046111
 20
6.7339860559
 30
0.0
  0
VERTEX
  5
84B
100
AcDbEntity
  8
0
100
AcDbVertex
100
AcDb2dVertex
 10
9.308116086
 20
6.7725341345
 30
0.0
  0
VERTEX
  5
84C
100
AcDbEntity
  8
0
100
AcDbVertex
100
AcDb2dVertex
 10
9.3015411953
 20
6.8122471347
 30
0.0
  0
VERTEX
  5
84D
100
AcDbEntity
  8
0
100
AcDbVertex
100
AcDb2dVertex
 10
9.2920394823
 20
6.8527654094
 30
0.0
  0
VERTEX
  5
84E
100
AcDbEntity
  8
0
100
AcDbVertex
100
AcDb2dVertex
 10
9.2796969959
 20
6.8937220187
 30
0.0
  0
VERTEX
  5
84F
100
AcDbEntity
  8
0
100
AcDbVertex
100
AcDb2dVertex
 10
9.2646255115
 20
6.9347460532
 30
0.0
  0
VERTEX
  5
850
100
AcDbEntity
  8
0
100
AcDbVertex
100
AcDb2dVertex
 10
9.246961519
 20
6.975465993
 30
0.0
  0
VERTEX
  5
851
100
AcDbEntity
  8
0
100
AcDbVertex
100
AcDb2dVertex
 10
9.226864986
 20
7.015513072
 30
0.0
  0
VERTEX
  5
852
100
AcDbEntity
  8
0
100
AcDbVertex
100
AcDb2dVertex
 10
9.20451791
 20
7.0545246176
 30
0.0
  0
VERTEX
  5
853
100
AcDbEntity
  8
0
100
AcDbVertex
100
AcDb2dVertex
 10
9.1801226696
 20
7.0921473352
 30
0.0
  0
VERTEX
  5
854
100
AcDbEntity
  8
0
100
AcDbVertex
100
AcDb2dVertex
 10
9.1539001917
 20
7.1280405078
 30
0.0
  0
VERTEX
  5
855
100
AcDbEntity
  8
0
100
AcDbVertex
100
AcDb2dVertex
 10
9.1260879513
 20
7.161879081
 30
0.0
  0
VERTEX
  5
856
100
AcDbEntity
  8
0
100
AcDbVertex
100
AcDb2dVertex
 10
9.0969378202
 20
7.1933566076
 30
0.0
  0
VERTEX
  5
857
100
AcDbEntity
  8
0
100
AcDbVertex
100
AcDb2dVertex
 10
9.0667137866
 20
7.2221880223
 30
0.0
  0
VERTEX
  5
858
100
AcDbEntity
  8
0
100
AcDbVertex
100
AcDb2dVertex
 10
9.035689564
 20
7.2481122232
 30
0.0
  0
VERTEX
  5
859
100
AcDbEntity
  8
0
100
AcDbVertex
100
AcDb2dVertex
 10
9.0041461126
 20
7.2708944369
 30
0.0
  0
VERTEX
  5
85A
100
AcDbEntity
  8
0
100
AcDbVertex
100
AcDb2dVertex
 10
8.9723690947
 20
7.2903283439
 30
0.0
  0
VERTEX
  5
85B
100
AcDbEntity
  8
0
100
AcDbVertex
100
AcDb2dVertex
 10
8.940646288
 20
7.306237948
 30
0.0
  0
VERTEX
  5
85C
100
AcDbEntity
  8
0
100
AcDbVertex
100
AcDb2dVertex
 10
8.9092649791
 20
7.3184791691
 30
0.0
  0
VERTEX
  5
85D
100
AcDbEntity
  8
0
100
AcDbVertex
100
AcDb2dVertex
 10
8.878509362
 20
7.326941149
 30
0.0
  0
VERTEX
  5
85E
100
AcDbEntity
  8
0
100
AcDbVertex
100
AcDb2dVertex
 10
8.8486579643
 20
7.3315472546
 30
0.0
  0
SEQEND
  5
85F
100
AcDbEntity
  8
0
  0
POLYLINE
  5
860
100
AcDbEntity
  8
0
  6
CONTINUOUS
 62
         7
100
AcDb2dPolyline
 66
         1
 10
0.0
 20
0.0
 30
0.0
 70
       128
  0
VERTEX
  5
861
100
AcDbEntity
  8
0
100
AcDbVertex
100
AcDb2dVertex
 10
10.0351290197
 20
7.4249063875
 30
0.0
  0
VERTEX
  5
862
100
AcDbEntity
  8
0
100
AcDbVertex
100
AcDb2dVertex
 10
10.0515456921
 20
7.3855882757
 30
0.0
  0
VERTEX
  5
863
100
AcDbEntity
  8
0
100
AcDbVertex
100
AcDb2dVertex
 10
10.0653503903
 20
7.34606357
 30
0.0
  0
VERTEX
  5
864
100
AcDbEntity
  8
0
100
AcDbVertex
100
AcDb2dVertex
 10
10.0764101677
 20
7.3067129148
 30
0.0
  0
VERTEX
  5
865
100
AcDbEntity
  8
0
100
AcDbVertex
100
AcDb2dVertex
 10
10.0846185125
 20
7.2679152785
 30
0.0
  0
VERTEX
  5
866
100
AcDbEntity
  8
0
100
AcDbVertex
100
AcDb2dVertex
 10
10.0898963737
 20
7.2300443035
 30
0.0
  0
VERTEX
  5
867
100
AcDbEntity
  8
0
100
AcDbVertex
100
AcDb2dVertex
 10
10.0921929229
 20
7.1934647081
 30
0.0
  0
VERTEX
  5
868
100
AcDbEntity
  8
0
100
AcDbVertex
100
AcDb2dVertex
 10
10.0914860428
 20
7.1585287737
 30
0.0
  0
VERTEX
  5
869
100
AcDbEntity
  8
0
100
AcDbVertex
100
AcDb2dVertex
 10
10.0877825413
 20
7.1255729525
 30
0.0
  0
VERTEX
  5
86A
100
AcDbEntity
  8
0
100
AcDbVertex
100
AcDb2dVertex
 10
10.0811180849
 20
7.0949146271
 30
0.0
  0
VERTEX
  5
86B
100
AcDbEntity
  8
0
100
AcDbVertex
100
AcDb2dVertex
 10
10.0715568561
 20
7.0668490538
 30
0.0
  0
VERTEX
  5
86C
100
AcDbEntity
  8
0
100
AcDbVertex
100
AcDb2dVertex
 10
10.0591909348
 20
7.0416465195
 30
0.0
  0
VERTEX
  5
86D
100
AcDbEntity
  8
0
100
AcDbVertex
100
AcDb2dVertex
 10
10.0441394114
 20
7.0195497384
 30
0.0
  0
VERTEX
  5
86E
100
AcDbEntity
  8
0
100
AcDbVertex
100
AcDb2dVertex
 10
10.0392034789
 20
7.013652581
 30
0.0
  0
SEQEND
  5
86F
100
AcDbEntity
  8
0
  0
POLYLINE
  5
870
100
AcDbEntity
  8
0
  6
CONTINUOUS
 62
         7
100
AcDb2dPolyline
 66
         1
 10
0.0
 20
0.0
 30
0.0
 70
       128
  0
VERTEX
  5
871
100
AcDbEntity
  8
0
100
AcDbVertex
100
AcDb2dVertex
 10
9.6038346333
 20
7.7630820515
 30
0.0
  0
VERTEX
  5
872
100
AcDbEntity
  8
0
100
AcDbVertex
100
AcDb2dVertex
 10
9.6261643504
 20
7.7663252613
 30
0.0
  0
VERTEX
  5
873
100
AcDbEntity
  8
0
100
AcDbVertex
100
AcDb2dVertex
 10
9.6534906681
 20
7.7664912699
 30
0.0
  0
VERTEX
  5
874
100
AcDbEntity
  8
0
100
AcDbVertex
100
AcDb2dVertex
 10
9.6820384991
 20
7.7627823805
 30
0.0
  0
VERTEX
  5
875
100
AcDbEntity
  8
0
100
AcDbVertex
100
AcDb2dVertex
 10
9.7115329123
 20
7.7552343117
 30
0.0
  0
VERTEX
  5
876
100
AcDbEntity
  8
0
100
AcDbVertex
100
AcDb2dVertex
 10
9.7416898604
 20
7.7439197556
 30
0.0
  0
VERTEX
  5
877
100
AcDbEntity
  8
0
100
AcDbVertex
100
AcDb2dVertex
 10
9.7722189153
 20
7.7289476775
 30
0.0
  0
VERTEX
  5
878
100
AcDbEntity
  8
0
100
AcDbVertex
100
AcDb2dVertex
 10
9.8028260657
 20
7.7104622667
 30
0.0
  0
VERTEX
  5
879
100
AcDbEntity
  8
0
100
AcDbVertex
100
AcDb2dVertex
 10
9.8332165479
 20
7.6886415478
 30
0.0
  0
VERTEX
  5
87A
100
AcDbEntity
  8
0
100
AcDbVertex
100
AcDb2dVertex
 10
9.863097685
 20
7.6636956663
 30
0.0
  0
VERTEX
  5
87B
100
AcDbEntity
  8
0
100
AcDbVertex
100
AcDb2dVertex
 10
9.8921817053
 20
7.6358648647
 30
0.0
  0
VERTEX
  5
87C
100
AcDbEntity
  8
0
100
AcDbVertex
100
AcDb2dVertex
 10
9.9201885138
 20
7.6054171687
 30
0.0
  0
VERTEX
  5
87D
100
AcDbEntity
  8
0
100
AcDbVertex
100
AcDb2dVertex
 10
9.9468483896
 20
7.5726458064
 30
0.0
  0
VERTEX
  5
87E
100
AcDbEntity
  8
0
100
AcDbVertex
100
AcDb2dVertex
 10
9.9719045836
 20
7.5378663838
 30
0.0
  0
VERTEX
  5
87F
100
AcDbEntity
  8
0
100
AcDbVertex
100
AcDb2dVertex
 10
9.9951157908
 20
7.5014138459
 30
0.0
  0
VERTEX
  5
880
100
AcDbEntity
  8
0
100
AcDbVertex
100
AcDb2dVertex
 10
10.0162584747
 20
7.4636392505
 30
0.0
  0
VERTEX
  5
881
100
AcDbEntity
  8
0
100
AcDbVertex
100
AcDb2dVertex
 10
10.0351290197
 20
7.4249063875
 30
0.0
  0
SEQEND
  5
882
100
AcDbEntity
  8
0
  0
ENDSEC
  0
SECTION
  2
OBJECTS
  0
DICTIONARY
  5
19
100
AcDbDictionary
  3
ACAD_GROUP
350
1A
  3
ACAD_MLINESTYLE
350
1B
  0
DICTIONARY
  5
1A
102
{ACAD_REACTORS
330
19
102
}
100
AcDbDictionary
  0
DICTIONARY
  5
1B
102
{ACAD_REACTORS
330
19
102
}
100
AcDbDictionary
  3
STANDARD
350
1C
  0
MLINESTYLE
  5
1C
102
{ACAD_REACTORS
330
1B
102
}
100
AcDbMlineStyle
  2
STANDARD
 70
         0
  3

 62
         0
 51
90.0
 52
90.0
 71
         2
 49
0.5
 62
       256
  6
BYLAYER
 49
-0.5
 62
       256
  6
BYLAYER
  0
ENDSEC
  0
EOF
