  0
SECTION
  2
HEADER
  9
$ACADVER
  1
AC1015
  9
$ACADMAINTVER
 70
     6
  9
$DWGCODEPAGE
  3
ANSI_1252
  9
$INSBASE
 10
0.0
 20
0.0
 30
0.0
  9
$EXTMIN
 10
0.0
 20
0.0
 30
0.0
  9
$EXTMAX
 10
279.4
 20
215.9
 30
0.0
  9
$LIMMIN
 10
0.0
 20
0.0
  9
$LIMMAX
 10
279.4
 20
215.9
  9
$ORTHOMODE
 70
     0
  9
$REGENMODE
 70
     1
  9
$FILLMODE
 70
     1
  9
$QTEXTMODE
 70
     0
  9
$MIRRTEXT
 70
     1
  9
$LTSCALE
 40
1.0
  9
$ATTMODE
 70
     1
  9
$TEXTSIZE
 40
2.8222222222
  9
$TRACEWID
 40
1.0
  9
$TEXTSTYLE
  7
Standard
  9
$CLAYER
  8
0
  9
$CELTYPE
  6
ByLayer
  9
$CECOLOR
 62
   256
  9
$CELTSCALE
 40
1.0
  9
$DISPSILH
 70
     0
  9
$DIMSCALE
 40
1.0
  9
$DIMASZ
 40
3.175
  9
$DIMEXO
 40
1.27
  9
$DIMDLI
 40
3.75
  9
$DIMRND
 40
0.0
  9
$DIMDLE
 40
0.0
  9
$DIMEXE
 40
1.778
  9
$DIMTP
 40
0.0
  9
$DIMTM
 40
0.0
  9
$DIMTXT
 40
2.8222222222
  9
$DIMCEN
 40
2.5
  9
$DIMTSZ
 40
0.0
  9
$DIMTOL
 70
     0
  9
$DIMLIM
 70
     0
  9
$DIMTIH
 70
     1
  9
$DIMTOH
 70
     1
  9
$DIMSE1
 70
     0
  9
$DIMSE2
 70
     0
  9
$DIMTAD
 70
     1
  9
$DIMZIN
 70
     1
  9
$DIMBLK
  1

  9
$DIMASO
 70
     1
  9
$DIMSHO
 70
     1
  9
$DIMPOST
  1

  9
$DIMAPOST
  1

  9
$DIMALT
 70
     0
  9
$DIMALTD
 70
     3
  9
$DIMALTF
 40
0.0393700787
  9
$DIMLFAC
 40
1.0
  9
$DIMTOFL
 70
     1
  9
$DIMTVP
 40
0.0
  9
$DIMTIX
 70
     0
  9
$DIMSOXD
 70
     0
  9
$DIMSAH
 70
     0
  9
$DIMBLK1
  1

  9
$DIMBLK2
  1

  9
$DIMSTYLE
  2
ISO-25
  9
$DIMCLRD
 70
     0
  9
$DIMCLRE
 70
     0
  9
$DIMCLRT
 70
     0
  9
$DIMTFAC
 40
1.0
  9
$DIMGAP
 40
2.54
  9
$DIMJUST
 70
     0
  9
$DIMSD1
 70
     0
  9
$DIMSD2
 70
     0
  9
$DIMTOLJ
 70
     0
  9
$DIMTZIN
 70
     1
  9
$DIMALTZ
 70
     0
  9
$DIMALTTZ
 70
     0
  9
$DIMUPT
 70
     0
  9
$DIMDEC
 70
     1
  9
$DIMTDEC
 70
     1
  9
$DIMALTU
 70
     2
  9
$DIMALTTD
 70
     3
  9
$DIMTXSTY
  7
Standard
  9
$DIMAUNIT
 70
     0
  9
$DIMADEC
 70
     0
  9
$DIMALTRND
 40
0.0
  9
$DIMAZIN
 70
     0
  9
$DIMDSEP
 70
    44
  9
$DIMATFIT
 70
     3
  9
$DIMFRAC
 70
     0
  9
$DIMLDRBLK
  1

  9
$DIMLUNIT
 70
     2
  9
$DIMLWD
 70
    -2
  9
$DIMLWE
 70
    -2
  9
$DIMTMOVE
 70
     0
  9
$LUNITS
 70
     2
  9
$LUPREC
 70
     1
  9
$SKETCHINC
 40
1.0
  9
$FILLETRAD
 40
10.0
  9
$AUNITS
 70
     0
  9
$AUPREC
 70
     0
  9
$MENU
  1
.
  9
$ELEVATION
 40
0.0
  9
$PELEVATION
 40
0.0
  9
$THICKNESS
 40
0.0
  9
$LIMCHECK
 70
     0
  9
$CHAMFERA
 40
10.0
  9
$CHAMFERB
 40
10.0
  9
$CHAMFERC
 40
20.0
  9
$CHAMFERD
 40
0.0
  9
$SKPOLY
 70
     0
  9
$TDCREATE
 40
2456244.563620521
  9
$TDUCREATE
 40
2456244.771953854
  9
$TDUPDATE
 40
2456244.563620532
  9
$TDUUPDATE
 40
2456244.771953866
  9
$TDINDWG
 40
0.0000000116
  9
$TDUSRTIMER
 40
0.0000000116
  9
$USRTIMER
 70
     1
  9
$ANGBASE
 50
0.0
  9
$ANGDIR
 70
     0
  9
$PDMODE
 70
     0
  9
$PDSIZE
 40
-1.0
  9
$PLINEWID
 40
0.0
  9
$SPLFRAME
 70
     0
  9
$SPLINETYPE
 70
     6
  9
$SPLINESEGS
 70
     8
  9
$HANDSEED
  5
22C
  9
$SURFTAB1
 70
     6
  9
$SURFTAB2
 70
     6
  9
$SURFTYPE
 70
     6
  9
$SURFU
 70
     6
  9
$SURFV
 70
     6
  9
$UCSBASE
  2

  9
$UCSNAME
  2

  9
$UCSORG
 10
0.0
 20
0.0
 30
0.0
  9
$UCSXDIR
 10
1.0
 20
0.0
 30
0.0
  9
$UCSYDIR
 10
0.0
 20
1.0
 30
0.0
  9
$UCSORTHOREF
  2

  9
$UCSORTHOVIEW
 70
     0
  9
$UCSORGTOP
 10
0.0
 20
0.0
 30
0.0
  9
$UCSORGBOTTOM
 10
0.0
 20
0.0
 30
0.0
  9
$UCSORGLEFT
 10
0.0
 20
0.0
 30
0.0
  9
$UCSORGRIGHT
 10
0.0
 20
0.0
 30
0.0
  9
$UCSORGFRONT
 10
0.0
 20
0.0
 30
0.0
  9
$UCSORGBACK
 10
0.0
 20
0.0
 30
0.0
  9
$PUCSBASE
  2

  9
$PUCSNAME
  2

  9
$PUCSORG
 10
0.0
 20
0.0
 30
0.0
  9
$PUCSXDIR
 10
1.0
 20
0.0
 30
0.0
  9
$PUCSYDIR
 10
0.0
 20
1.0
 30
0.0
  9
$PUCSORTHOREF
  2

  9
$PUCSORTHOVIEW
 70
     0
  9
$PUCSORGTOP
 10
0.0
 20
0.0
 30
0.0
  9
$PUCSORGBOTTOM
 10
0.0
 20
0.0
 30
0.0
  9
$PUCSORGLEFT
 10
0.0
 20
0.0
 30
0.0
  9
$PUCSORGRIGHT
 10
0.0
 20
0.0
 30
0.0
  9
$PUCSORGFRONT
 10
0.0
 20
0.0
 30
0.0
  9
$PUCSORGBACK
 10
0.0
 20
0.0
 30
0.0
  9
$USERI1
 70
     0
  9
$USERI2
 70
     0
  9
$USERI3
 70
     0
  9
$USERI4
 70
     0
  9
$USERI5
 70
     0
  9
$USERR1
 40
0.0
  9
$USERR2
 40
0.0
  9
$USERR3
 40
0.0
  9
$USERR4
 40
0.0
  9
$USERR5
 40
0.0
  9
$WORLDVIEW
 70
     1
  9
$SHADEDGE
 70
     3
  9
$SHADEDIF
 70
    70
  9
$TILEMODE
 70
     1
  9
$MAXACTVP
 70
    64
  9
$PINSBASE
 10
0.0
 20
0.0
 30
0.0
  9
$PLIMCHECK
 70
     0
  9
$PEXTMIN
 10
1.0000000000E+20
 20
1.0000000000E+20
 30
1.0000000000E+20
  9
$PEXTMAX
 10
-1.0000000000E+20
 20
-1.0000000000E+20
 30
-1.0000000000E+20
  9
$PLIMMIN
 10
0.0
 20
0.0
  9
$PLIMMAX
 10
420.0
 20
297.0
  9
$UNITMODE
 70
     0
  9
$VISRETAIN
 70
     1
  9
$PLINEGEN
 70
     0
  9
$PSLTSCALE
 70
     1
  9
$TREEDEPTH
 70
  3020
  9
$CMLSTYLE
  2
Standard
  9
$CMLJUST
 70
     0
  9
$CMLSCALE
 40
20.0
  9
$PROXYGRAPHICS
 70
     1
  9
$MEASUREMENT
 70
     1
  9
$CELWEIGHT
370
    -1
  9
$ENDCAPS
280
     0
  9
$JOINSTYLE
280
     0
  9
$LWDISPLAY
290
     1
  9
$INSUNITS
 70
     4
  9
$HYPERLINKBASE
  1

  9
$STYLESHEET
  1

  9
$XEDIT
290
     1
  9
$CEPSNTYPE
380
     0
  9
$PSTYLEMODE
290
     1
  9
$FINGERPRINTGUID
  2
{8B5CEB52-ED17-4492-B061-96FC31872F97}
  9
$VERSIONGUID
  2
{FAEB1C32-E019-11D5-929B-00C0DF256EC4}
  9
$EXTNAMES
290
     1
  9
$PSVPSCALE
 40
0.0
  9
$OLESTARTUP
290
     0
  0
ENDSEC
  0
SECTION
  2
CLASSES
  0
CLASS
  1
ACDBDICTIONARYWDFLT
  2
AcDbDictionaryWithDefault
  3
ObjectDBX Classes
 90
        0
280
     0
281
     0
  0
CLASS
  1
VISUALSTYLE
  2
AcDbVisualStyle
  3
ObjectDBX Classes
 90
     4095
280
     0
281
     0
  0
CLASS
  1
MATERIAL
  2
AcDbMaterial
  3
ObjectDBX Classes
 90
     1153
280
     0
281
     0
  0
CLASS
  1
ACDBPLACEHOLDER
  2
AcDbPlaceHolder
  3
ObjectDBX Classes
 90
        0
280
     0
281
     0
  0
CLASS
  1
LAYOUT
  2
AcDbLayout
  3
ObjectDBX Classes
 90
        0
280
     0
281
     0
  0
ENDSEC
  0
SECTION
  2
TABLES
  0
TABLE
  2
VPORT
  5
8
330
0
100
AcDbSymbolTable
 70
     1
  0
VPORT
  5
29
330
8
100
AcDbSymbolTableRecord
100
AcDbViewportTableRecord
  2
*Active
 70
     0
 10
0.0
 20
0.0
 11
1.0
 21
1.0
 12
139.7
 22
107.95
 13
0.0
 23
0.0
 14
10.0
 24
10.0
 15
10.0
 25
10.0
 16
0.0
 26
0.0
 36
1.0
 17
0.0
 27
0.0
 37
0.0
 40
215.9
 41
1.2941176471
 42
50.0
 43
0.0
 44
0.0
 50
0.0
 51
0.0
 71
     0
 72
  2000
 73
     1
 74
     3
 75
     0
 76
     0
 77
     0
 78
     0
281
     0
 65
     1
110
0.0
120
0.0
130
0.0
111
1.0
121
0.0
131
0.0
112
0.0
122
1.0
132
0.0
 79
     0
146
0.0
  0
ENDTAB
  0
TABLE
  2
LTYPE
  5
5
330
0
100
AcDbSymbolTable
 70
     6
  0
LTYPE
  5
14
330
5
100
AcDbSymbolTableRecord
100
AcDbLinetypeTableRecord
  2
ByBlock
 70
     0
  3

 72
    65
 73
     0
 40
0.0
  0
LTYPE
  5
15
330
5
100
AcDbSymbolTableRecord
100
AcDbLinetypeTableRecord
  2
ByLayer
 70
     0
  3

 72
    65
 73
     0
 40
0.0
  0
LTYPE
  5
16
330
5
100
AcDbSymbolTableRecord
100
AcDbLinetypeTableRecord
  2
Continuous
 70
     0
  3
Solid line
 72
    65
 73
     0
 40
0.0
  0
LTYPE
  5
3F
330
5
100
AcDbSymbolTableRecord
100
AcDbLinetypeTableRecord
  2
HIDDEN
 70
     0
  3
Hidden __ __ __ __ __ __ __ __ __ __ __ __ __ __
 72
    65
 73
     2
 40
1.905
 49
1.27
 74
     0
 49
-0.635
 74
     0
  0
LTYPE
  5
40
330
5
100
AcDbSymbolTableRecord
100
AcDbLinetypeTableRecord
  2
PHANTOM
 70
     0
  3
Phantom ______  __  __  ______  __  __  ______
 72
    65
 73
     6
 40
12.7
 49
6.35
 74
     0
 49
-1.27
 74
     0
 49
1.27
 74
     0
 49
-1.27
 74
     0
 49
1.27
 74
     0
 49
-1.27
 74
     0
  0
LTYPE
  5
41
330
5
100
AcDbSymbolTableRecord
100
AcDbLinetypeTableRecord
  2
CENTER
 70
     0
  3
Center ____ _ ____ _ ____ _ ____ _ ____ _ ____
 72
    65
 73
     4
 40
10.16
 49
6.35
 74
     0
 49
-1.27
 74
     0
 49
1.27
 74
     0
 49
-1.27
 74
     0
  0
LTYPE
  5
42
330
5
100
AcDbSymbolTableRecord
100
AcDbLinetypeTableRecord
  2
CENTERX2
 70
     0
  3
Center (2x) ________  __  ________  __  _____
 72
    65
 73
     4
 40
20.32
 49
12.7
 74
     0
 49
-2.54
 74
     0
 49
2.54
 74
     0
 49
-2.54
 74
     0
  0
LTYPE
  5
43
330
5
100
AcDbSymbolTableRecord
100
AcDbLinetypeTableRecord
  2
DOT2
 70
     0
  3
Dot (.5x) ........................................
 72
    65
 73
     2
 40
0.635
 49
0.0
 74
     0
 49
-0.635
 74
     0
  0
ENDTAB
  0
TABLE
  2
LAYER
  5
2
330
0
100
AcDbSymbolTable
 70
     2
  0
LAYER
  5
10
330
2
100
AcDbSymbolTableRecord
100
AcDbLayerTableRecord
  2
0
 70
     0
 62
     7
  6
Continuous
370
    -3
390
F
  0
LAYER
  5
44
330
2
100
AcDbSymbolTableRecord
100
AcDbLayerTableRecord
  2
FORMAT
 70
     0
 62
     7
  6
Continuous
370
    -3
390
F
  0
ENDTAB
  0
TABLE
  2
STYLE
  5
3
330
0
100
AcDbSymbolTable
 70
     5
  0
STYLE
  5
11
330
3
100
AcDbSymbolTableRecord
100
AcDbTextStyleTableRecord
  2
Standard
 70
     0
 40
0.0
 41
1.0
 50
0.0
 71
     0
 42
2.5
  3
txt
  4

  0
STYLE
  5
6B
330
3
100
AcDbSymbolTableRecord
100
AcDbTextStyleTableRecord
  2
SLDTEXTSTYLE0
 70
     0
 40
0.0
 41
0.75
 50
0.0
 71
     0
 42
0.2
  3
TXT
  4

  0
STYLE
  5
75
330
3
100
AcDbSymbolTableRecord
100
AcDbTextStyleTableRecord
  2
SLDTEXTSTYLE1
 70
     0
 40
0.0
 41
0.6
 50
0.0
 71
     0
 42
0.2
  3
TXT
  4

  0
STYLE
  5
9E
330
3
100
AcDbSymbolTableRecord
100
AcDbTextStyleTableRecord
  2
SLDTEXTSTYLE2
 70
     0
 40
0.0
 41
0.75
 50
0.0
 71
     0
 42
0.2
  3
TXT
  4
bigfont
  0
STYLE
  5
B2
330
3
100
AcDbSymbolTableRecord
100
AcDbTextStyleTableRecord
  2
SLDTEXTSTYLE3
 70
     0
 40
0.0
 41
0.7
 50
0.0
 71
     0
 42
0.2
  3
TXT
  4

  0
ENDTAB
  0
TABLE
  2
VIEW
  5
6
330
0
100
AcDbSymbolTable
 70
     0
  0
ENDTAB
  0
TABLE
  2
UCS
  5
7
330
0
100
AcDbSymbolTable
 70
     0
  0
ENDTAB
  0
TABLE
  2
APPID
  5
9
330
0
100
AcDbSymbolTable
 70
     1
  0
APPID
  5
12
330
9
100
AcDbSymbolTableRecord
100
AcDbRegAppTableRecord
  2
ACAD
 70
     0
  0
ENDTAB
  0
TABLE
  2
DIMSTYLE
  5
A
330
0
100
AcDbSymbolTable
 70
     5
100
AcDbDimStyleTable
  0
DIMSTYLE
105
27
330
A
100
AcDbSymbolTableRecord
100
AcDbDimStyleTableRecord
  2
ISO-25
 70
     0
 41
2.5
 42
0.625
 43
3.75
 44
1.25
 73
     0
 74
     0
 77
     1
 78
     8
140
2.5
141
2.5
143
0.0393700787
147
0.625
171
     3
172
     1
178
     0
271
     2
272
     2
274
     3
278
    44
283
     0
284
     8
340
11
  0
DIMSTYLE
105
BF
102
{ACAD_REACTORS
330
BE
102
}
330
A
100
AcDbSymbolTableRecord
100
AcDbDimStyleTableRecord
  2
SLDDIMSTYLE0
 70
     0
 41
3.175
 44
0.0
 45
0.000000001
 78
    12
 79
     3
140
2.1166666667
141
0.0
143
0.0393700787
147
0.5291666667
148
0.000000001
170
     1
173
     1
178
     0
271
     1
272
     1
276
     2
284
    12
340
6B
  0
DIMSTYLE
105
1F3
102
{ACAD_REACTORS
330
1F2
102
}
330
A
100
AcDbSymbolTableRecord
100
AcDbDimStyleTableRecord
  2
SLDDIMSTYLE1
 70
     0
 41
3.175
 44
0.0
 45
0.000000001
 78
     4
 79
     1
140
2.1166666667
141
0.0
143
0.0393700787
147
0.5291666667
148
0.000000001
170
     1
173
     1
178
     0
271
     1
272
     1
276
     2
284
    12
340
6B
  0
DIMSTYLE
105
204
102
{ACAD_REACTORS
330
203
102
}
330
A
100
AcDbSymbolTableRecord
100
AcDbDimStyleTableRecord
  2
SLDDIMSTYLE2
 70
     0
 41
3.175
 44
0.0
 45
0.000000001
 78
     4
 79
     1
140
2.1166666667
143
0.0393700787
147
0.5291666667
148
0.000000001
170
     1
172
     1
173
     1
178
     0
271
     1
272
     1
276
     2
284
    12
289
     0
340
6B
  0
DIMSTYLE
105
217
102
{ACAD_REACTORS
330
216
102
}
330
A
100
AcDbSymbolTableRecord
100
AcDbDimStyleTableRecord
  2
SLDDIMSTYLE3
 70
     0
 41
3.175
 44
0.0
 45
0.000000001
 78
    12
 79
     3
140
2.1166666667
143
0.0393700787
147
0.5291666667
148
0.000000001
170
     1
172
     1
173
     1
178
     0
271
     1
272
     1
276
     2
284
    12
289
     0
340
6B
  0
ENDTAB
  0
TABLE
  2
BLOCK_RECORD
  5
1
330
0
100
AcDbSymbolTable
 70
    12
  0
BLOCK_RECORD
  5
1F
330
1
100
AcDbSymbolTableRecord
100
AcDbBlockTableRecord
  2
*Model_Space
340
22
  0
BLOCK_RECORD
  5
1B
330
1
100
AcDbSymbolTableRecord
100
AcDbBlockTableRecord
  2
*Paper_Space
340
1E
  0
BLOCK_RECORD
  5
23
330
1
100
AcDbSymbolTableRecord
100
AcDbBlockTableRecord
  2
*Paper_Space0
340
26
  0
BLOCK_RECORD
  5
45
330
1
100
AcDbSymbolTableRecord
100
AcDbBlockTableRecord
  2
Third Angle Projection Block
340
0
102
{BLKREFS
331
6A
102
}
  0
BLOCK_RECORD
  5
7B
330
1
100
AcDbSymbolTableRecord
100
AcDbBlockTableRecord
  2
SW_NOTE_0
340
0
102
{BLKREFS
331
80
102
}
  0
BLOCK_RECORD
  5
81
330
1
100
AcDbSymbolTableRecord
100
AcDbBlockTableRecord
  2
SW_NOTE_1
340
0
102
{BLKREFS
331
86
102
}
  0
BLOCK_RECORD
  5
88
330
1
100
AcDbSymbolTableRecord
100
AcDbBlockTableRecord
  2
SW_NOTE_2
340
0
102
{BLKREFS
331
8D
102
}
  0
BLOCK_RECORD
  5
8F
330
1
100
AcDbSymbolTableRecord
100
AcDbBlockTableRecord
  2
SW_NOTE_3
340
0
102
{BLKREFS
331
95
102
}
  0
BLOCK_RECORD
  5
96
330
1
100
AcDbSymbolTableRecord
100
AcDbBlockTableRecord
  2
SW_NOTE_4
340
0
102
{BLKREFS
331
B9
102
}
  0
BLOCK_RECORD
  5
C0
330
1
100
AcDbSymbolTableRecord
100
AcDbBlockTableRecord
  2
*D7
340
0
  0
BLOCK_RECORD
  5
CF
330
1
100
AcDbSymbolTableRecord
100
AcDbBlockTableRecord
  2
SW_CENTERMARKSYMBOL_0
340
0
102
{BLKREFS
331
D6
102
}
  0
BLOCK_RECORD
  5
1F4
330
1
100
AcDbSymbolTableRecord
100
AcDbBlockTableRecord
  2
*D9
340
0
  0
BLOCK_RECORD
  5
205
330
1
100
AcDbSymbolTableRecord
100
AcDbBlockTableRecord
  2
*D10
340
0
  0
BLOCK_RECORD
  5
218
330
1
100
AcDbSymbolTableRecord
100
AcDbBlockTableRecord
  2
*D11
340
0
  0
ENDTAB
  0
ENDSEC
  0
SECTION
  2
BLOCKS
  0
BLOCK
  5
20
330
1F
100
AcDbEntity
  8
0
100
AcDbBlockBegin
  2
*Model_Space
 70
     0
 10
0.0
 20
0.0
 30
0.0
  3
*Model_Space
  1

  0
ENDBLK
  5
21
330
1F
100
AcDbEntity
  8
0
100
AcDbBlockEnd
  0
BLOCK
  5
1C
330
1B
100
AcDbEntity
 67
     1
  8
0
100
AcDbBlockBegin
  2
*Paper_Space
 70
     0
 10
0.0
 20
0.0
 30
0.0
  3
*Paper_Space
  1

  0
ENDBLK
  5
1D
330
1B
100
AcDbEntity
 67
     1
  8
0
100
AcDbBlockEnd
  0
BLOCK
  5
24
330
23
100
AcDbEntity
  8
0
100
AcDbBlockBegin
  2
*Paper_Space0
 70
     0
 10
0.0
 20
0.0
 30
0.0
  3
*Paper_Space0
  1

  0
ENDBLK
  5
25
330
23
100
AcDbEntity
  8
0
100
AcDbBlockEnd
  0
BLOCK
  5
46
330
45
100
AcDbEntity
  8
0
100
AcDbBlockBegin
  2
Third Angle Projection Block
 70
     0
 10
0.0
 20
0.0
 30
0.0
  3
Third Angle Projection Block
  1

  0
CIRCLE
  5
48
330
45
100
AcDbEntity
  8
0
  6
Continuous
 62
     7
370
    30
100
AcDbCircle
 10
101.4766388944
 20
18.9404083667
 30
0.0
 40
1.768227153674871
  0
CIRCLE
  5
49
330
45
100
AcDbEntity
  8
0
  6
Continuous
 62
     7
370
    30
100
AcDbCircle
 10
101.4766388944
 20
18.9404083667
 30
0.0
 40
3.901228248531818
  0
LINE
  5
4A
330
45
100
AcDbEntity
  8
0
  6
CENTERX2
 62
     7
370
     0
100
AcDbLine
 10
110.1367822585
 20
18.9404083667
 30
0.0
 11
119.4527334874
 21
18.9404083667
 31
0.0
  0
LINE
  5
4B
330
45
100
AcDbEntity
  8
0
  6
Continuous
 62
     7
370
    30
100
AcDbLine
 10
111.0016388944
 20
20.7086355204
 30
0.0
 11
111.0016388944
 21
17.172181213
 31
0.0
  0
LINE
  5
4C
330
45
100
AcDbEntity
  8
0
  6
Continuous
 62
     7
370
    30
100
AcDbLine
 10
111.0016388944
 20
17.172181213
 30
0.0
 11
118.6216388944
 21
15.1304083667
 31
0.0
  0
LINE
  5
4D
330
45
100
AcDbEntity
  8
0
  6
Continuous
 62
     7
370
    30
100
AcDbLine
 10
118.6216388944
 20
15.1304083667
 30
0.0
 11
118.6216388944
 21
22.7504083667
 31
0.0
  0
LINE
  5
4E
330
45
100
AcDbEntity
  8
0
  6
Continuous
 62
     7
370
    30
100
AcDbLine
 10
118.6216388944
 20
22.7504083667
 30
0.0
 11
111.0016388944
 21
20.7086355204
 31
0.0
  0
LINE
  5
4F
330
45
100
AcDbEntity
  8
0
  6
CENTERX2
 62
     7
370
     0
100
AcDbLine
 10
96.6025854619
 20
18.9404083667
 30
0.0
 11
106.3506923269
 21
18.9404083667
 31
0.0
  0
LINE
  5
50
330
45
100
AcDbEntity
  8
0
  6
CENTERX2
 62
     7
370
     0
100
AcDbLine
 10
101.4766388944
 20
23.8144617992
 30
0.0
 11
101.4766388944
 21
14.0663549342
 31
0.0
  0
POINT
  5
51
330
45
100
AcDbEntity
  8
0
  6
Continuous
 62
     7
370
     0
100
AcDbPoint
 10
101.4766388944
 20
18.9404083667
 30
0.0
  0
ENDBLK
  5
47
330
45
100
AcDbEntity
  8
0
100
AcDbBlockEnd
  0
BLOCK
  5
7C
330
7B
100
AcDbEntity
  8
0
100
AcDbBlockBegin
  2
SW_NOTE_0
 70
     0
 10
0.0
 20
0.0
 30
0.0
  3
SW_NOTE_0
  1

  0
MTEXT
  5
7E
330
7B
100
AcDbEntity
  8
0
  6
Continuous
 62
     0
370
     0
100
AcDbMText
 10
19.90725
 20
1.9645392354
 30
0.0
 40
1.524
 41
0.0
 71
     2
 72
     1
  1
VALUES IN PARENTHESIS ARE CALCULATED
  7
SLDTEXTSTYLE0
 73
     1
 44
1.0
  0
MTEXT
  5
7F
330
7B
100
AcDbEntity
  8
0
  6
Continuous
 62
     0
370
     0
100
AcDbMText
 10
19.8778795174
 20
-0.5594606586
 30
0.0
 40
1.524
 41
0.0
 71
     2
 72
     1
  1
AND MAY CONTAIN ROUNDOFF ERRORS
  7
SLDTEXTSTYLE0
 73
     1
 44
1.0
  0
ENDBLK
  5
7D
330
7B
100
AcDbEntity
  8
0
100
AcDbBlockEnd
  0
BLOCK
  5
82
330
81
100
AcDbEntity
  8
0
100
AcDbBlockBegin
  2
SW_NOTE_1
 70
     0
 10
0.0
 20
0.0
 30
0.0
  3
SW_NOTE_1
  1

  0
MTEXT
  5
84
330
81
100
AcDbEntity
  8
0
  6
Continuous
 62
     0
370
     0
100
AcDbMText
 10
0.0
 20
2.7285267159
 30
0.0
 40
2.1166666667
 41
0.0
 71
     1
 72
     1
  1
DRAWING
  7
SLDTEXTSTYLE0
 73
     1
 44
1.0
  0
MTEXT
  5
85
330
81
100
AcDbEntity
  8
0
  6
Continuous
 62
     0
370
     0
100
AcDbMText
 10
0.0
 20
-0.0936954723
 30
0.0
 40
2.1166666667
 41
0.0
 71
     1
 72
     1
  1
PROJECTION
  7
SLDTEXTSTYLE0
 73
     1
 44
1.0
  0
ENDBLK
  5
83
330
81
100
AcDbEntity
  8
0
100
AcDbBlockEnd
  0
BLOCK
  5
89
330
88
100
AcDbEntity
  8
0
100
AcDbBlockBegin
  2
SW_NOTE_2
 70
     0
 10
0.0
 20
0.0
 30
0.0
  3
SW_NOTE_2
  1

  0
MTEXT
  5
8B
330
88
100
AcDbEntity
  8
0
  6
Continuous
 62
     0
370
     0
100
AcDbMText
 10
25.052734375
 20
4.0927900738
 30
0.0
 40
3.175
 41
0.0
 71
     2
 72
     1
  1
FOR INFORMATION ONLY
  7
SLDTEXTSTYLE0
 73
     1
 44
1.0
  0
MTEXT
  5
8C
330
88
100
AcDbEntity
  8
0
  6
Continuous
 62
     0
370
     0
100
AcDbMText
 10
25.3768468589
 20
-0.1405432084
 30
0.0
 40
3.175
 41
0.0
 71
     2
 72
     1
  1
NOT FOR MANUFACTURING PURPOSES
  7
SLDTEXTSTYLE0
 73
     1
 44
1.0
  0
ENDBLK
  5
8A
330
88
100
AcDbEntity
  8
0
100
AcDbBlockEnd
  0
BLOCK
  5
90
330
8F
100
AcDbEntity
  8
0
100
AcDbBlockBegin
  2
SW_NOTE_3
 70
     0
 10
0.0
 20
0.0
 30
0.0
  3
SW_NOTE_3
  1

  0
MTEXT
  5
92
330
8F
100
AcDbEntity
  8
0
  6
Continuous
 62
     0
370
     0
100
AcDbMText
 10
1.9016927083
 20
3.4106583948
 30
0.0
 40
2.6458333333
 41
0.0
 71
     2
 72
     1
  1
%%c
  7
SLDTEXTSTYLE0
 73
     1
 44
1.0
  0
MTEXT
  5
93
330
8F
100
AcDbEntity
  8
0
  6
Continuous
 62
     0
370
     0
100
AcDbMText
 10
30.4934129218
 20
3.4106583948
 30
0.0
 40
2.6458333333
 41
0.0
 71
     2
 72
     1
  1
50.8mm, f= 100.0mm CONCAVE
  7
SLDTEXTSTYLE0
 73
     1
 44
1.0
  0
MTEXT
  5
94
330
8F
100
AcDbEntity
  8
0
  6
Continuous
 62
     0
370
     0
100
AcDbMText
 10
28.8722895036
 20
-0.1171193403
 30
0.0
 40
2.6458333333
 41
0.0
 71
     2
 72
     1
  1
PROTECTED GOLD MIRROR
  7
SLDTEXTSTYLE0
 73
     1
 44
1.0
  0
ENDBLK
  5
91
330
8F
100
AcDbEntity
  8
0
100
AcDbBlockEnd
  0
BLOCK
  5
97
330
96
100
AcDbEntity
  8
0
100
AcDbBlockBegin
  2
SW_NOTE_4
 70
     0
 10
0.0
 20
0.0
 30
0.0
  3
SW_NOTE_4
  1

  0
MTEXT
  5
99
330
96
100
AcDbEntity
  8
0
  6
Continuous
 62
     0
370
     0
100
AcDbMText
 10
0.0
 20
3.0695925553
 30
0.0
 40
2.38125
 41
0.0
 71
     1
 72
     1
  1
NOTES/SPECIFICATIONS:
  7
SLDTEXTSTYLE0
 73
     1
 44
1.0
  0
MTEXT
  5
9A
330
96
100
AcDbEntity
  8
0
  6
Continuous
 62
     0
370
     0
100
AcDbMText
 10
9.9999997765
 20
-3.2804073679
 30
0.0
 40
2.38125
 41
0.0
 71
     1
 72
     1
  1
CLEAR APERTURE: >90% DIAMETER
  7
SLDTEXTSTYLE0
 73
     1
 44
1.0
  0
MTEXT
  5
9B
330
96
100
AcDbEntity
  8
0
  6
Continuous
 62
     0
370
     0
100
AcDbMText
 10
0.0
 20
-3.2804073679
 30
0.0
 40
2.38125
 41
0.0
 71
     1
 72
     1
  1
1.
  7
SLDTEXTSTYLE0
 73
     1
 44
1.0
  0
MTEXT
  5
9C
330
96
100
AcDbEntity
  8
0
  6
Continuous
 62
     0
370
     0
100
AcDbMText
 10
9.9999997765
 20
-6.5976282029
 30
0.0
 40
2.38125
 41
0.0
 71
     1
 72
     1
  1
SURFACE ACCURACY
  7
SLDTEXTSTYLE0
 73
     1
 44
1.0
  0
MTEXT
  5
9D
330
96
100
AcDbEntity
  8
0
  6
Continuous
 62
     0
370
     0
100
AcDbMText
 10
42.9582651705
 20
-6.6891910621
 30
0.0
 40
2.286
 41
0.0
 71
     1
 72
     1
  1
:
  7
SLDTEXTSTYLE0
 73
     1
 44
1.0
  0
MTEXT
  5
9F
330
96
100
AcDbEntity
  8
0
  6
Continuous
 62
     0
370
     0
100
AcDbMText
 10
44.6957833081
 20
-6.5976282029
 30
0.0
 40
2.38125
 41
0.0
 71
     1
 72
     1
  1
\M+183C9/
  7
SLDTEXTSTYLE2
 73
     1
 44
1.0
  0
MTEXT
  5
A0
330
96
100
AcDbEntity
  8
0
  6
Continuous
 62
     0
370
     0
100
AcDbMText
 10
47.7715637535
 20
-6.6891910621
 30
0.0
 40
2.286
 41
0.0
 71
     1
 72
     1
  1
4
  7
SLDTEXTSTYLE0
 73
     1
 44
1.0
  0
MTEXT
  5
A1
330
96
100
AcDbEntity
  8
0
  6
Continuous
 62
     0
370
     0
100
AcDbMText
 10
50.3052156419
 20
-6.5976282029
 30
0.0
 40
2.38125
 41
0.0
 71
     1
 72
     1
  1
AT 632.8nm OVER CLEAR APERTURE
  7
SLDTEXTSTYLE0
 73
     1
 44
1.0
  0
MTEXT
  5
A2
330
96
100
AcDbEntity
  8
0
  6
Continuous
 62
     0
370
     0
100
AcDbMText
 10
0.0
 20
-6.5976282029
 30
0.0
 40
2.38125
 41
0.0
 71
     1
 72
     1
  1
2.
  7
SLDTEXTSTYLE0
 73
     1
 44
1.0
  0
MTEXT
  5
A3
330
96
100
AcDbEntity
  8
0
  6
Continuous
 62
     0
370
     0
100
AcDbMText
 10
9.9999997765
 20
-9.7726281646
 30
0.0
 40
2.38125
 41
0.0
 71
     1
 72
     1
  1
SURFACE QUALITY: 40-20 SCRATCH-DIG
  7
SLDTEXTSTYLE0
 73
     1
 44
1.0
  0
MTEXT
  5
A4
330
96
100
AcDbEntity
  8
0
  6
Continuous
 62
     0
370
     0
100
AcDbMText
 10
0.0
 20
-9.7726281646
 30
0.0
 40
2.38125
 41
0.0
 71
     1
 72
     1
  1
3.
  7
SLDTEXTSTYLE0
 73
     1
 44
1.0
  0
MTEXT
  5
A5
330
96
100
AcDbEntity
  8
0
  6
Continuous
 62
     0
370
     0
100
AcDbMText
 10
9.9999997765
 20
-12.9476281262
 30
0.0
 40
2.38125
 41
0.0
 71
     1
 72
     1
  1
BACK SURFACE: FINE GROUND
  7
SLDTEXTSTYLE0
 73
     1
 44
1.0
  0
MTEXT
  5
A6
330
96
100
AcDbEntity
  8
0
  6
Continuous
 62
     0
370
     0
100
AcDbMText
 10
0.0
 20
-12.9476281262
 30
0.0
 40
2.38125
 41
0.0
 71
     1
 72
     1
  1
4.
  7
SLDTEXTSTYLE0
 73
     1
 44
1.0
  0
MTEXT
  5
A7
330
96
100
AcDbEntity
  8
0
  6
Continuous
 62
     0
370
     0
100
AcDbMText
 10
9.9999997765
 20
-16.1226280878
 30
0.0
 40
2.38125
 41
0.0
 71
     1
 72
     1
  1
THICKNESS TOLERANCE:
  7
SLDTEXTSTYLE0
 73
     1
 44
1.0
  0
MTEXT
  5
A8
330
96
100
AcDbEntity
  8
0
  6
Continuous
 62
     0
370
     0
100
AcDbMText
 10
46.741804108
 20
-16.1226280878
 30
0.0
 40
2.38125
 41
0.0
 71
     1
 72
     1
  1
%%p
  7
SLDTEXTSTYLE0
 73
     1
 44
1.0
  0
MTEXT
  5
A9
330
96
100
AcDbEntity
  8
0
  6
Continuous
 62
     0
370
     0
100
AcDbMText
 10
49.0119289607
 20
-16.1226280878
 30
0.0
 40
2.38125
 41
0.0
 71
     1
 72
     1
  1
0.2 mm
  7
SLDTEXTSTYLE0
 73
     1
 44
1.0
  0
MTEXT
  5
AA
330
96
100
AcDbEntity
  8
0
  6
Continuous
 62
     0
370
     0
100
AcDbMText
 10
0.0
 20
-16.1226280878
 30
0.0
 40
2.38125
 41
0.0
 71
     1
 72
     1
  1
5.
  7
SLDTEXTSTYLE0
 73
     1
 44
1.0
  0
MTEXT
  5
AB
330
96
100
AcDbEntity
  8
0
  6
Continuous
 62
     0
370
     0
100
AcDbMText
 10
9.9999997765
 20
-19.2976280495
 30
0.0
 40
2.38125
 41
0.0
 71
     1
 72
     1
  1
DIAMETER TOLERANCE: + 0.0/-0.2 mm
  7
SLDTEXTSTYLE0
 73
     1
 44
1.0
  0
MTEXT
  5
AC
330
96
100
AcDbEntity
  8
0
  6
Continuous
 62
     0
370
     0
100
AcDbMText
 10
0.0
 20
-19.2976280495
 30
0.0
 40
2.38125
 41
0.0
 71
     1
 72
     1
  1
6.
  7
SLDTEXTSTYLE0
 73
     1
 44
1.0
  0
MTEXT
  5
AD
330
96
100
AcDbEntity
  8
0
  6
Continuous
 62
     0
370
     0
100
AcDbMText
 10
9.9999997765
 20
-22.4726280111
 30
0.0
 40
2.38125
 41
0.0
 71
     1
 72
     1
  1
COATING: PROTECTED GOLD
  7
SLDTEXTSTYLE0
 73
     1
 44
1.0
  0
MTEXT
  5
AE
330
96
100
AcDbEntity
  8
0
  6
Continuous
 62
     0
370
     0
100
AcDbMText
 10
0.0
 20
-22.4726280111
 30
0.0
 40
2.38125
 41
0.0
 71
     1
 72
     1
  1
7.
  7
SLDTEXTSTYLE0
 73
     1
 44
1.0
  0
MTEXT
  5
AF
330
96
100
AcDbEntity
  8
0
  6
Continuous
 62
     0
370
     0
100
AcDbMText
 10
10.0
 20
-25.6476279727
 30
0.0
 40
2.38125
 41
0.0
 71
     1
 72
     1
  1
Ravg: >96% FROM 800nm - 20µm
  7
SLDTEXTSTYLE0
 73
     1
 44
1.0
  0
MTEXT
  5
B0
330
96
100
AcDbEntity
  8
0
  6
Continuous
 62
     0
370
     0
100
AcDbMText
 10
10.0
 20
-28.8226279343
 30
0.0
 40
2.38125
 41
0.0
 71
     1
 72
     1
  1
AOI: 0
  7
SLDTEXTSTYLE0
 73
     1
 44
1.0
  0
MTEXT
  5
B1
330
96
100
AcDbEntity
  8
0
  6
Continuous
 62
     0
370
     0
100
AcDbMText
 10
19.344201535
 20
-28.8226279343
 30
0.0
 40
2.38125
 41
0.0
 71
     1
 72
     1
  1
%%d
  7
SLDTEXTSTYLE0
 73
     1
 44
1.0
  0
MTEXT
  5
B3
330
96
100
AcDbEntity
  8
0
  6
Continuous
 62
     0
370
     0
100
AcDbMText
 10
21.7505871639
 20
-28.8226279343
 30
0.0
 40
2.38125
 41
0.0
 71
     1
 72
     1
  1
TO 45
  7
SLDTEXTSTYLE3
 73
     1
 44
1.0
  0
MTEXT
  5
B4
330
96
100
AcDbEntity
  8
0
  6
Continuous
 62
     0
370
     0
100
AcDbMText
 10
30.2459171414
 20
-28.8226279343
 30
0.0
 40
2.38125
 41
0.0
 71
     1
 72
     1
  1
%%d
  7
SLDTEXTSTYLE0
 73
     1
 44
1.0
  0
MTEXT
  5
B5
330
96
100
AcDbEntity
  8
0
  6
Continuous
 62
     0
370
     0
100
AcDbMText
 10
9.9999997765
 20
-31.997627896
 30
0.0
 40
2.38125
 41
0.0
 71
     1
 72
     1
  1
DAMAGE THRESHOLD: 2J/cm
  7
SLDTEXTSTYLE0
 73
     1
 44
1.0
  0
MTEXT
  5
B6
330
96
100
AcDbEntity
  8
0
  6
Continuous
 62
     0
370
     0
100
AcDbMText
 10
54.2956609279
 20
-31.9507800725
 30
0.0
 40
1.3229166667
 41
0.0
 71
     1
 72
     1
  1
2
  7
SLDTEXTSTYLE0
 73
     1
 44
1.0
  0
MTEXT
  5
B7
330
96
100
AcDbEntity
  8
0
  6
Continuous
 62
     0
370
     0
100
AcDbMText
 10
56.1661160499
 20
-31.997627896
 30
0.0
 40
2.38125
 41
0.0
 71
     1
 72
     1
  1
10ns PULSE, 10Hz AT 1064nm
  7
SLDTEXTSTYLE0
 73
     1
 44
1.0
  0
MTEXT
  5
B8
330
96
100
AcDbEntity
  8
0
  6
Continuous
 62
     0
370
     0
100
AcDbMText
 10
0.0
 20
-31.997627896
 30
0.0
 40
2.38125
 41
0.0
 71
     1
 72
     1
  1
8.
  7
SLDTEXTSTYLE0
 73
     1
 44
1.0
  0
ENDBLK
  5
98
330
96
100
AcDbEntity
  8
0
100
AcDbBlockEnd
  0
BLOCK
  5
C1
330
C0
100
AcDbEntity
  8
0
100
AcDbBlockBegin
  2
*D7
 70
     1
 10
0.0
 20
0.0
 30
0.0
  3
*D7
  1

  0
SOLID
  5
C3
330
C0
100
AcDbEntity
  8
0
  6
Continuous
 62
     7
370
     0
100
AcDbTrace
 10
71.4467924768
 20
90.320593904
 30
0.0
 11
73.331832659
 21
87.7157306617
 31
0.0
 12
74.0504775305
 22
88.4339266994
 32
0.0
 13
74.0504775305
 23
88.4339266994
 33
0.0
  0
LINE
  5
C4
330
C0
100
AcDbEntity
  8
0
  6
Continuous
 62
     7
370
     0
100
AcDbLine
 10
87.0700895114
 20
79.1829612358
 30
0.0
 11
87.0700895114
 21
76.3243544551
 31
0.0
  0
LINE
  5
C5
330
C0
100
AcDbEntity
  8
0
  6
Continuous
 62
     7
370
     0
100
AcDbLine
 10
87.0700895114
 20
76.3243544551
 30
0.0
 11
87.4992647673
 21
76.3243544551
 31
0.0
  0
LINE
  5
C6
330
C0
100
AcDbEntity
  8
0
  6
Continuous
 62
     7
370
     0
100
AcDbLine
 10
87.0700895114
 20
79.1829612358
 30
0.0
 11
87.4992647673
 21
79.1829612358
 31
0.0
  0
LINE
  5
C7
330
C0
100
AcDbEntity
  8
0
  6
Continuous
 62
     7
370
     0
100
AcDbLine
 10
96.5419027472
 20
79.1829612358
 30
0.0
 11
96.5419027472
 21
76.3243544551
 31
0.0
  0
LINE
  5
C8
330
C0
100
AcDbEntity
  8
0
  6
Continuous
 62
     7
370
     0
100
AcDbLine
 10
96.5419027472
 20
76.3243544551
 30
0.0
 11
96.1127274912
 21
76.3243544551
 31
0.0
  0
LINE
  5
C9
330
C0
100
AcDbEntity
  8
0
  6
Continuous
 62
     7
370
     0
100
AcDbLine
 10
96.5419027472
 20
79.1829612358
 30
0.0
 11
96.1127274912
 21
79.1829612358
 31
0.0
  0
LINE
  5
CA
330
C0
100
AcDbEntity
  8
0
  6
Continuous
 62
     7
370
     0
100
AcDbLine
 10
71.4467924768
 20
90.320593904
 30
0.0
 11
80.6449134053
 21
81.1167246462
 31
0.0
  0
LINE
  5
CB
330
C0
100
AcDbEntity
  8
0
  6
Continuous
 62
     7
370
     0
100
AcDbLine
 10
80.6449134053
 20
81.1167246462
 30
0.0
 11
84.4549134053
 21
81.1167246462
 31
0.0
  0
MTEXT
  5
CC
330
C0
100
AcDbEntity
  8
0
  6
Continuous
 62
     7
370
     0
100
AcDbMText
 10
86.2117389995
 20
82.1637178453
 30
0.0
 40
2.1166666667
 41
0.0
 71
     1
 72
     1
  1
%%c
  7
SLDTEXTSTYLE0
 73
     1
 44
1.0
  0
MTEXT
  5
CD
330
C0
100
AcDbEntity
  8
0
  6
Continuous
 62
     7
370
     0
100
AcDbMText
 10
89.2384991201
 20
82.1637178453
 30
0.0
 40
2.1166666667
 41
0.0
 71
     1
 72
     1
  1
50.8mm
  7
SLDTEXTSTYLE0
 73
     1
 44
1.0
  0
MTEXT
  5
CE
330
C0
100
AcDbEntity
  8
0
  6
Continuous
 62
     7
370
     0
100
AcDbMText
 10
87.9284400232
 20
78.8006510445
 30
0.0
 40
2.1166666667
 41
0.0
 71
     1
 72
     1
  1
2.00in
  7
SLDTEXTSTYLE0
 73
     1
 44
1.0
  0
ENDBLK
  5
C2
330
C0
100
AcDbEntity
  8
0
100
AcDbBlockEnd
  0
BLOCK
  5
D0
330
CF
100
AcDbEntity
  8
0
100
AcDbBlockBegin
  2
SW_CENTERMARKSYMBOL_0
 70
     0
 10
0.0
 20
0.0
 30
0.0
  3
SW_CENTERMARKSYMBOL_0
  1

  0
LINE
  5
D2
330
CF
100
AcDbEntity
  8
0
  6
Continuous
 62
     0
370
     0
100
AcDbLine
 10
0.0
 20
0.0
 30
0.0
 11
0.0
 21
3.0
 31
0.0
  0
LINE
  5
D3
330
CF
100
AcDbEntity
  8
0
  6
Continuous
 62
     0
370
     0
100
AcDbLine
 10
0.0
 20
0.0
 30
0.0
 11
-3.0
 21
0.0
 31
0.0
  0
LINE
  5
D4
330
CF
100
AcDbEntity
  8
0
  6
Continuous
 62
     0
370
     0
100
AcDbLine
 10
0.0
 20
0.0
 30
0.0
 11
0.0
 21
-3.0
 31
0.0
  0
LINE
  5
D5
330
CF
100
AcDbEntity
  8
0
  6
Continuous
 62
     0
370
     0
100
AcDbLine
 10
0.0
 20
0.0
 30
0.0
 11
3.0
 21
0.0
 31
0.0
  0
ENDBLK
  5
D1
330
CF
100
AcDbEntity
  8
0
100
AcDbBlockEnd
  0
BLOCK
  5
1F5
330
1F4
100
AcDbEntity
  8
0
100
AcDbBlockBegin
  2
*D9
 70
     1
 10
0.0
 20
0.0
 30
0.0
  3
*D9
  1

  0
SOLID
  5
1F7
330
1F4
100
AcDbEntity
  8
0
  6
Continuous
 62
     7
370
     0
100
AcDbTrace
 10
133.930287204
 20
96.2057844825
 30
0.0
 11
137.0688039985
 21
95.506927322
 31
0.0
 12
137.130175129
 22
96.5210720771
 32
0.0
 13
137.130175129
 23
96.5210720771
 33
0.0
  0
LINE
  5
1F8
330
1F4
100
AcDbEntity
  8
0
  6
Continuous
 62
     7
370
     0
100
AcDbLine
 10
158.7282860868
 20
93.1499400255
 30
0.0
 11
158.7282860868
 21
90.2913332449
 31
0.0
  0
LINE
  5
1F9
330
1F4
100
AcDbEntity
  8
0
  6
Continuous
 62
     7
370
     0
100
AcDbLine
 10
158.7282860868
 20
90.2913332449
 30
0.0
 11
159.1574613428
 21
90.2913332449
 31
0.0
  0
LINE
  5
1FA
330
1F4
100
AcDbEntity
  8
0
  6
Continuous
 62
     7
370
     0
100
AcDbLine
 10
158.7282860868
 20
93.1499400255
 30
0.0
 11
159.1574613428
 21
93.1499400255
 31
0.0
  0
LINE
  5
1FB
330
1F4
100
AcDbEntity
  8
0
  6
Continuous
 62
     7
370
     0
100
AcDbLine
 10
168.2000993227
 20
93.1499400255
 30
0.0
 11
168.2000993227
 21
90.2913332449
 31
0.0
  0
LINE
  5
1FC
330
1F4
100
AcDbEntity
  8
0
  6
Continuous
 62
     7
370
     0
100
AcDbLine
 10
168.2000993227
 20
90.2913332449
 30
0.0
 11
167.7709240667
 21
90.2913332449
 31
0.0
  0
LINE
  5
1FD
330
1F4
100
AcDbEntity
  8
0
  6
Continuous
 62
     7
370
     0
100
AcDbLine
 10
168.2000993227
 20
93.1499400255
 30
0.0
 11
167.7709240667
 21
93.1499400255
 31
0.0
  0
LINE
  5
1FE
330
1F4
100
AcDbEntity
  8
0
  6
Continuous
 62
     7
370
     0
100
AcDbLine
 10
133.930287204
 20
96.2057844825
 30
0.0
 11
152.472435575
 21
95.0837034359
 31
0.0
  0
LINE
  5
1FF
330
1F4
100
AcDbEntity
  8
0
  6
Continuous
 62
     7
370
     0
100
AcDbLine
 10
152.472435575
 20
95.0837034359
 30
0.0
 11
156.282435575
 21
95.0837034359
 31
0.0
  0
MTEXT
  5
200
330
1F4
100
AcDbEntity
  8
0
  6
Continuous
 62
     7
370
     0
100
AcDbMText
 10
157.869935575
 20
96.130696635
 30
0.0
 40
2.1166666667
 41
0.0
 71
     1
 72
     1
  1
R
  7
SLDTEXTSTYLE0
 73
     1
 44
1.0
  0
MTEXT
  5
201
330
1F4
100
AcDbEntity
  8
0
  6
Continuous
 62
     7
370
     0
100
AcDbMText
 10
159.5814265804
 20
96.130696635
 30
0.0
 40
2.1166666667
 41
0.0
 71
     1
 72
     1
  1
200.0mm
  7
SLDTEXTSTYLE0
 73
     1
 44
1.0
  0
MTEXT
  5
202
330
1F4
100
AcDbEntity
  8
0
  6
Continuous
 62
     7
370
     0
100
AcDbMText
 10
159.5866365987
 20
92.7676298343
 30
0.0
 40
2.1166666667
 41
0.0
 71
     1
 72
     1
  1
7.87in
  7
SLDTEXTSTYLE0
 73
     1
 44
1.0
  0
ENDBLK
  5
1F6
330
1F4
100
AcDbEntity
  8
0
100
AcDbBlockEnd
  0
BLOCK
  5
206
330
205
100
AcDbEntity
  8
0
100
AcDbBlockBegin
  2
*D10
 70
     1
 10
0.0
 20
0.0
 30
0.0
  3
*D10
  1

  0
SOLID
  5
208
330
205
100
AcDbEntity
  8
0
  6
Continuous
 62
     7
370
     0
100
AcDbTrace
 10
143.2954928892
 20
143.686715692
 30
0.0
 11
146.4704928892
 21
143.178715692
 31
0.0
 12
146.4704928892
 22
144.194715692
 32
0.0
 13
146.4704928892
 23
144.194715692
 33
0.0
  0
SOLID
  5
209
330
205
100
AcDbEntity
  8
0
  6
Continuous
 62
     7
370
     0
100
AcDbTrace
 10
134.2954928892
 20
143.686715692
 30
0.0
 11
131.1204928892
 21
144.194715692
 31
0.0
 12
131.1204928892
 22
143.178715692
 32
0.0
 13
131.1204928892
 23
143.178715692
 33
0.0
  0
LINE
  5
20A
330
205
100
AcDbEntity
  8
0
  6
Continuous
 62
     7
370
     0
100
AcDbLine
 10
152.82379613
 20
143.434485682
 30
0.0
 11
152.82379613
 21
140.5758789014
 31
0.0
  0
LINE
  5
20B
330
205
100
AcDbEntity
  8
0
  6
Continuous
 62
     7
370
     0
100
AcDbLine
 10
152.82379613
 20
140.5758789014
 30
0.0
 11
153.252971386
 21
140.5758789014
 31
0.0
  0
LINE
  5
20C
330
205
100
AcDbEntity
  8
0
  6
Continuous
 62
     7
370
     0
100
AcDbLine
 10
152.82379613
 20
143.434485682
 30
0.0
 11
153.252971386
 21
143.434485682
 31
0.0
  0
LINE
  5
20D
330
205
100
AcDbEntity
  8
0
  6
Continuous
 62
     7
370
     0
100
AcDbLine
 10
162.2956093658
 20
143.434485682
 30
0.0
 11
162.2956093658
 21
140.5758789014
 31
0.0
  0
LINE
  5
20E
330
205
100
AcDbEntity
  8
0
  6
Continuous
 62
     7
370
     0
100
AcDbLine
 10
162.2956093658
 20
140.5758789014
 30
0.0
 11
161.8664341099
 21
140.5758789014
 31
0.0
  0
LINE
  5
20F
330
205
100
AcDbEntity
  8
0
  6
Continuous
 62
     7
370
     0
100
AcDbLine
 10
162.2956093658
 20
143.434485682
 30
0.0
 11
161.8664341099
 21
143.434485682
 31
0.0
  0
LINE
  5
210
330
205
100
AcDbEntity
  8
0
  6
Continuous
 62
     7
370
     0
100
AcDbLine
 10
143.2954928892
 20
134.756715692
 30
0.0
 11
143.2954928892
 21
145.464715692
 31
0.0
  0
LINE
  5
211
330
205
100
AcDbEntity
  8
0
  6
Continuous
 62
     7
370
     0
100
AcDbLine
 10
134.2954928892
 20
109.556715692
 30
0.0
 11
134.2954928892
 21
145.464715692
 31
0.0
  0
LINE
  5
212
330
205
100
AcDbEntity
  8
0
  6
Continuous
 62
     7
370
     0
100
AcDbLine
 10
143.2954928892
 20
143.686715692
 30
0.0
 11
149.9487703622
 21
143.686715692
 31
0.0
  0
LINE
  5
213
330
205
100
AcDbEntity
  8
0
  6
Continuous
 62
     7
370
     0
100
AcDbLine
 10
134.2954928892
 20
143.686715692
 30
0.0
 11
127.9454928892
 21
143.686715692
 31
0.0
  0
MTEXT
  5
214
330
205
100
AcDbEntity
  8
0
  6
Continuous
 62
     7
370
     0
100
AcDbMText
 10
152.9605591099
 20
146.4152422915
 30
0.0
 40
2.1166666667
 41
0.0
 71
     1
 72
     1
  1
9.0mm
  7
SLDTEXTSTYLE0
 73
     1
 44
1.0
  0
MTEXT
  5
215
330
205
100
AcDbEntity
  8
0
  6
Continuous
 62
     7
370
     0
100
AcDbMText
 10
153.6821466419
 20
143.0521754907
 30
0.0
 40
2.1166666667
 41
0.0
 71
     1
 72
     1
  1
0.35in
  7
SLDTEXTSTYLE0
 73
     1
 44
1.0
  0
ENDBLK
  5
207
330
205
100
AcDbEntity
  8
0
100
AcDbBlockEnd
  0
BLOCK
  5
219
330
218
100
AcDbEntity
  8
0
100
AcDbBlockBegin
  2
*D11
 70
     1
 10
0.0
 20
0.0
 30
0.0
  3
*D11
  1

  0
SOLID
  5
21B
330
218
100
AcDbEntity
  8
0
  6
Continuous
 62
     7
370
     0
100
AcDbTrace
 10
132.7013481998
 20
155.686715692
 30
0.0
 11
129.5263481998
 21
156.194715692
 31
0.0
 12
129.5263481998
 22
155.178715692
 32
0.0
 13
129.5263481998
 23
155.178715692
 33
0.0
  0
SOLID
  5
21C
330
218
100
AcDbEntity
  8
0
  6
Continuous
 62
     7
370
     0
100
AcDbTrace
 10
143.2954928892
 20
155.686715692
 30
0.0
 11
146.4704928892
 21
155.178715692
 31
0.0
 12
146.4704928892
 22
156.194715692
 32
0.0
 13
146.4704928892
 23
156.194715692
 33
0.0
  0
LINE
  5
21D
330
218
100
AcDbEntity
  8
0
  6
Continuous
 62
     7
370
     0
100
AcDbLine
 10
151.8738218472
 20
155.434485682
 30
0.0
 11
151.8738218472
 21
152.5758789014
 31
0.0
  0
LINE
  5
21E
330
218
100
AcDbEntity
  8
0
  6
Continuous
 62
     7
370
     0
100
AcDbLine
 10
151.8738218472
 20
152.5758789014
 30
0.0
 11
152.3029971031
 21
152.5758789014
 31
0.0
  0
LINE
  5
21F
330
218
100
AcDbEntity
  8
0
  6
Continuous
 62
     7
370
     0
100
AcDbLine
 10
151.8738218472
 20
155.434485682
 30
0.0
 11
152.3029971031
 21
155.434485682
 31
0.0
  0
LINE
  5
220
330
218
100
AcDbEntity
  8
0
  6
Continuous
 62
     7
370
     0
100
AcDbLine
 10
161.345635083
 20
155.434485682
 30
0.0
 11
161.345635083
 21
152.5758789014
 31
0.0
  0
LINE
  5
221
330
218
100
AcDbEntity
  8
0
  6
Continuous
 62
     7
370
     0
100
AcDbLine
 10
161.345635083
 20
152.5758789014
 30
0.0
 11
160.9164598271
 21
152.5758789014
 31
0.0
  0
LINE
  5
222
330
218
100
AcDbEntity
  8
0
  6
Continuous
 62
     7
370
     0
100
AcDbLine
 10
161.345635083
 20
155.434485682
 30
0.0
 11
160.9164598271
 21
155.434485682
 31
0.0
  0
LINE
  5
223
330
218
100
AcDbEntity
  8
0
  6
Continuous
 62
     7
370
     0
100
AcDbLine
 10
132.7013481998
 20
134.7582350605
 30
0.0
 11
132.7013481998
 21
157.464715692
 31
0.0
  0
LINE
  5
224
330
218
100
AcDbEntity
  8
0
  6
Continuous
 62
     7
370
     0
100
AcDbLine
 10
143.2954928892
 20
134.756715692
 30
0.0
 11
143.2954928892
 21
157.464715692
 31
0.0
  0
LINE
  5
225
330
218
100
AcDbEntity
  8
0
  6
Continuous
 62
     7
370
     0
100
AcDbLine
 10
132.7013481998
 20
155.686715692
 30
0.0
 11
126.3513481998
 21
155.686715692
 31
0.0
  0
LINE
  5
226
330
218
100
AcDbEntity
  8
0
  6
Continuous
 62
     7
370
     0
100
AcDbLine
 10
143.2954928892
 20
155.686715692
 30
0.0
 11
148.9987960793
 21
155.686715692
 31
0.0
  0
MTEXT
  5
227
330
218
100
AcDbEntity
  8
0
  6
Continuous
 62
     7
370
     0
100
AcDbMText
 10
151.2290820848
 20
158.4152422915
 30
0.0
 40
2.1166666667
 41
0.0
 71
     1
 72
     1
  1
10.6mm
  7
SLDTEXTSTYLE0
 73
     1
 44
1.0
  0
MTEXT
  5
228
330
218
100
AcDbEntity
  8
0
  6
Continuous
 62
     7
370
     0
100
AcDbMText
 10
162.9977355949
 20
158.4152422915
 30
0.0
 40
2.1166666667
 41
0.0
 71
     1
 72
     1
  1
REF
  7
SLDTEXTSTYLE0
 73
     1
 44
1.0
  0
MTEXT
  5
229
330
218
100
AcDbEntity
  8
0
  6
Continuous
 62
     7
370
     0
100
AcDbMText
 10
152.7321723591
 20
155.0521754907
 30
0.0
 40
2.1166666667
 41
0.0
 71
     1
 72
     1
  1
0.42in
  7
SLDTEXTSTYLE0
 73
     1
 44
1.0
  0
ENDBLK
  5
21A
330
218
100
AcDbEntity
  8
0
100
AcDbBlockEnd
  0
ENDSEC
  0
SECTION
  2
ENTITIES
  0
LINE
  5
52
330
1F
100
AcDbEntity
  8
0
  6
Continuous
 62
     7
370
     0
100
AcDbLine
 10
1.5793501011
 20
214.6453799966
 30
0.0
 11
277.9892068491
 21
214.6453799966
 31
0.0
  0
LINE
  5
53
330
1F
100
AcDbEntity
  8
0
  6
Continuous
 62
     7
370
     0
100
AcDbLine
 10
1.5793501011
 20
214.6453799966
 30
0.0
 11
1.5793501011
 21
0.9031642596
 31
0.0
  0
LINE
  5
54
330
1F
100
AcDbEntity
  8
0
  6
Continuous
 62
     7
370
     0
100
AcDbLine
 10
277.9892068491
 20
0.9031642596
 30
0.0
 11
1.5793501011
 21
0.9031642596
 31
0.0
  0
LINE
  5
55
330
1F
100
AcDbEntity
  8
0
  6
Continuous
 62
     7
370
     0
100
AcDbLine
 10
277.9892068491
 20
0.9031642596
 30
0.0
 11
277.9892068491
 21
214.6453799966
 31
0.0
  0
LINE
  5
56
330
1F
100
AcDbEntity
  8
0
  6
Continuous
 62
     7
370
     0
100
AcDbLine
 10
215.7427640041
 20
12.2958890132
 30
0.0
 11
171.6327596684
 21
12.2958890132
 31
0.0
  0
LINE
  5
57
330
1F
100
AcDbEntity
  8
0
  6
Continuous
 62
     7
370
     0
100
AcDbLine
 10
171.6327596684
 20
12.2958890132
 30
0.0
 11
171.6327596684
 21
26.1661402506
 31
0.0
  0
LINE
  5
58
330
1F
100
AcDbEntity
  8
0
  6
Continuous
 62
     7
370
     0
100
AcDbLine
 10
171.6327596684
 20
0.9031642596
 30
0.0
 11
171.6327596684
 21
26.1661402506
 31
0.0
  0
LINE
  5
59
330
1F
100
AcDbEntity
  8
0
  6
Continuous
 62
     7
370
     0
100
AcDbLine
 10
215.7427640041
 20
17.1604579552
 30
0.0
 11
277.9892068491
 21
17.1604579552
 31
0.0
  0
LINE
  5
5A
330
1F
100
AcDbEntity
  8
0
  6
Continuous
 62
     7
370
     0
100
AcDbLine
 10
215.7427640041
 20
35.2394508358
 30
0.0
 11
215.7427640041
 21
0.9031642596
 31
0.0
  0
LINE
  5
5B
330
1F
100
AcDbEntity
  8
0
  6
Continuous
 62
     7
370
     0
100
AcDbLine
 10
215.7427640041
 20
26.1661402506
 30
0.0
 11
171.6327596684
 21
26.1661402506
 31
0.0
  0
LINE
  5
5C
330
1F
100
AcDbEntity
  8
0
  6
Continuous
 62
     7
370
     0
100
AcDbLine
 10
215.7427640041
 20
9.1409200612
 30
0.0
 11
277.9892068491
 21
9.1409200612
 31
0.0
  0
LINE
  5
5D
330
1F
100
AcDbEntity
  8
0
  6
Continuous
 62
     7
370
     0
100
AcDbLine
 10
215.7427640041
 20
16.9216824031
 30
0.0
 11
171.6327596684
 21
16.9216824031
 31
0.0
  0
LINE
  5
5E
330
1F
100
AcDbEntity
  8
0
  6
Continuous
 62
     7
370
     0
100
AcDbLine
 10
215.7427640041
 20
21.4874005542
 30
0.0
 11
171.6327596684
 21
21.4874005542
 31
0.0
  0
LINE
  5
5F
330
1F
100
AcDbEntity
  8
0
  6
Continuous
 62
     7
370
     0
100
AcDbLine
 10
186.1338100705
 20
26.1661402506
 30
0.0
 11
186.1338100705
 21
12.2958890132
 31
0.0
  0
LINE
  5
60
330
1F
100
AcDbEntity
  8
0
  6
Continuous
 62
     7
370
     0
100
AcDbLine
 10
198.2145906188
 20
26.1661402506
 30
0.0
 11
198.2145906188
 21
12.2958890132
 31
0.0
  0
LINE
  5
61
330
1F
100
AcDbEntity
  8
0
  6
Continuous
 62
     7
370
     0
100
AcDbLine
 10
253.7490408369
 20
9.1409200612
 30
0.0
 11
253.7490408369
 21
0.9031642596
 31
0.0
  0
LINE
  5
62
330
1F
100
AcDbEntity
  8
0
  6
Continuous
 62
     7
370
     0
100
AcDbLine
 10
171.6327596684
 20
12.2958890132
 30
0.0
 11
171.6327596684
 21
7.5627342528
 31
0.0
  0
LINE
  5
63
330
1F
100
AcDbEntity
  8
0
  6
Continuous
 62
     7
370
     0
100
AcDbLine
 10
171.6327596684
 20
7.5627342528
 30
0.0
 11
215.7427640041
 21
7.5627342528
 31
0.0
  0
LINE
  5
64
330
1F
100
AcDbEntity
  8
0
  6
Continuous
 62
     7
370
     0
100
AcDbLine
 10
171.6327596684
 20
7.5627342528
 30
0.0
 11
171.6327596684
 21
35.2394508358
 31
0.0
  0
LINE
  5
65
330
1F
100
AcDbEntity
  8
0
  6
Continuous
 62
     7
370
     0
100
AcDbLine
 10
171.6327596684
 20
35.2394508358
 30
0.0
 11
215.7427640041
 21
35.2394508358
 31
0.0
  0
LINE
  5
66
330
1F
100
AcDbEntity
  8
0
  6
Continuous
 62
     7
370
     0
100
AcDbLine
 10
270.1683598194
 20
17.1604579552
 30
0.0
 11
270.1683598194
 21
9.1409200612
 31
0.0
  0
LINE
  5
67
330
1F
100
AcDbEntity
  8
0
  6
Continuous
 62
     7
370
     0
100
AcDbLine
 10
215.7427640041
 20
35.2394508358
 30
0.0
 11
277.9892068491
 21
35.2394508358
 31
0.0
  0
LINE
  5
68
330
1F
100
AcDbEntity
  8
0
  6
Continuous
 62
     7
370
     0
100
AcDbLine
 10
277.9892068491
 20
35.2394508358
 30
0.0
 11
277.9892068491
 21
50.0331356147
 31
0.0
  0
LINE
  5
69
330
1F
100
AcDbEntity
  8
0
  6
Continuous
 62
     7
370
     0
100
AcDbLine
 10
215.7427640041
 20
24.8927335446
 30
0.0
 11
277.9892068491
 21
24.8927335446
 31
0.0
  0
INSERT
  5
6A
330
1F
100
AcDbEntity
  8
0
  6
Continuous
 62
     7
100
AcDbBlockReference
  2
Third Angle Projection Block
 10
117.7262204235
 20
15.5162339489
 30
0.0
 41
0.8
 42
0.8
 43
0.8
  0
MTEXT
  5
6C
330
1F
100
AcDbEntity
  8
0
  6
Continuous
 62
     7
370
     0
100
AcDbMText
 10
273.8638944939
 20
13.1125292762
 30
0.0
 40
3.175
 41
0.0
 71
     2
 72
     1
  1
C
  7
SLDTEXTSTYLE0
 73
     1
 44
1.0
  0
MTEXT
  5
6D
330
1F
100
AcDbEntity
  8
0
  6
Continuous
 62
     7
370
     0
100
AcDbMText
 10
234.552837149
 20
5.1306563898
 30
0.0
 40
3.175
 41
0.0
 71
     2
 72
     1
  1
CM508-100-M01
  7
SLDTEXTSTYLE0
 73
     1
 44
1.0
  0
MTEXT
  5
6E
330
1F
100
AcDbEntity
  8
0
  6
Continuous
 62
     7
370
     0
100
AcDbMText
 10
216.4199766059
 20
16.8243178599
 30
0.0
 40
2.1166666667
 41
0.0
 71
     1
 72
     1
  1
MATERIAL
  7
SLDTEXTSTYLE0
 73
     1
 44
1.0
  0
MTEXT
  5
6F
330
1F
100
AcDbEntity
  8
0
  6
Continuous
 62
     7
370
     0
100
AcDbMText
 10
174.230946566
 20
20.054553926
 30
0.0
 40
1.8520833333
 41
0.0
 71
     1
 72
     1
  1
DRAWN
  7
SLDTEXTSTYLE0
 73
     1
 44
1.0
  0
MTEXT
  5
70
330
1F
100
AcDbEntity
  8
0
  6
Continuous
 62
     7
370
     0
100
AcDbMText
 10
172.3960124543
 20
15.5787169747
 30
0.0
 40
1.8520833333
 41
0.0
 71
     1
 72
     1
  1
APPROVAL
  7
SLDTEXTSTYLE0
 73
     1
 44
1.0
  0
MTEXT
  5
71
330
1F
100
AcDbEntity
  8
0
  6
Continuous
 62
     7
370
     0
100
AcDbMText
 10
271.321689486
 20
16.0237652193
 30
0.0
 40
2.1166666667
 41
0.0
 71
     1
 72
     1
  1
REV
  7
SLDTEXTSTYLE0
 73
     1
 44
1.0
  0
MTEXT
  5
72
330
1F
100
AcDbEntity
  8
0
  6
Continuous
 62
     7
370
     0
100
AcDbMText
 10
190.2958696448
 20
20.3177146903
 30
0.0
 40
2.1166666667
 41
0.0
 71
     1
 72
     1
  1
BAG
  7
SLDTEXTSTYLE0
 73
     1
 44
1.0
  0
MTEXT
  5
73
330
1F
100
AcDbEntity
  8
0
  6
Continuous
 62
     7
370
     0
100
AcDbMText
 10
199.8662436873
 20
20.3177146903
 30
0.0
 40
2.1166666667
 41
0.0
 71
     1
 72
     1
  1
28/OCT/10
  7
SLDTEXTSTYLE0
 73
     1
 44
1.0
  0
MTEXT
  5
74
330
1F
100
AcDbEntity
  8
0
  6
Continuous
 62
     7
370
     0
100
AcDbMText
 10
203.6145073853
 20
24.8221395769
 30
0.0
 40
2.1166666667
 41
0.0
 71
     1
 72
     1
  1
DATE
  7
SLDTEXTSTYLE0
 73
     1
 44
1.0
  0
MTEXT
  5
76
330
1F
100
AcDbEntity
  8
0
  6
Continuous
 62
     7
370
     0
100
AcDbMText
 10
229.402906477
 20
27.7957480569
 30
0.0
 40
2.1166666667
 41
0.0
 71
     1
 72
     1
  1
w w w . t h o r  l a b s . c o m
  7
SLDTEXTSTYLE1
 73
     1
 44
1.0
  0
MTEXT
  5
77
330
1F
100
AcDbEntity
  8
0
  6
Continuous
 62
     7
370
     0
100
AcDbMText
 10
216.7004035316
 20
8.3494791871
 30
0.0
 40
2.1166666667
 41
0.0
 71
     1
 72
     1
  1
ITEM #
  7
SLDTEXTSTYLE0
 73
     1
 44
1.0
  0
MTEXT
  5
78
330
1F
100
AcDbEntity
  8
0
  6
Continuous
 62
     7
370
     0
100
AcDbMText
 10
254.5318000914
 20
8.3494791871
 30
0.0
 40
2.1166666667
 41
0.0
 71
     1
 72
     1
  1
APPROX WEIGHT
  7
SLDTEXTSTYLE0
 73
     1
 44
1.0
  0
MTEXT
  5
79
330
1F
100
AcDbEntity
  8
0
  6
Continuous
 62
     7
370
     0
100
AcDbMText
 10
243.7058359879
 20
13.1125292762
 30
0.0
 40
3.175
 41
0.0
 71
     2
 72
     1
  1
N-BK7
  7
SLDTEXTSTYLE0
 73
     1
 44
1.0
  0
MTEXT
  5
7A
330
1F
100
AcDbEntity
  8
0
  6
Continuous
 62
     7
370
     0
100
AcDbMText
 10
266.1678480997
 20
5.1306563898
 30
0.0
 40
3.175
 41
0.0
 71
     2
 72
     1
  1
0.05 kg
  7
SLDTEXTSTYLE0
 73
     1
 44
1.0
  0
INSERT
  5
80
330
1F
100
AcDbEntity
  8
0
  6
Continuous
 62
     7
370
     0
100
AcDbBlockReference
  2
SW_NOTE_0
 10
174.8430140051
 20
4.4558554801
 30
0.0
  0
INSERT
  5
86
330
1F
100
AcDbEntity
  8
0
  6
Continuous
 62
     7
370
     0
100
AcDbBlockReference
  2
SW_NOTE_1
 10
174.5483650337
 20
30.4835322715
 30
0.0
  0
MTEXT
  5
87
330
1F
100
AcDbEntity
  8
0
  6
Continuous
 62
     7
370
     0
100
AcDbMText
 10
187.9273588276
 20
24.8221395769
 30
0.0
 40
2.1166666667
 41
0.0
 71
     1
 72
     1
  1
NAME
  7
SLDTEXTSTYLE0
 73
     1
 44
1.0
  0
INSERT
  5
8D
330
1F
100
AcDbEntity
  8
0
  6
Continuous
 62
     7
370
     0
100
AcDbBlockReference
  2
SW_NOTE_2
 10
58.6204667508
 20
8.1776609732
 30
0.0
  0
MTEXT
  5
8E
330
1F
100
AcDbEntity
  8
0
  6
Continuous
 62
     7
370
     0
100
AcDbMText
 10
179.1174811218
 20
10.6680638482
 30
0.0
 40
1.5875
 41
0.0
 71
     1
 72
     1
  1
COPYRIGHT © 2010 BY THORLABS
  7
SLDTEXTSTYLE0
 73
     1
 44
1.0
  0
INSERT
  5
95
330
1F
100
AcDbEntity
  8
0
  6
Continuous
 62
     7
370
     0
100
AcDbBlockReference
  2
SW_NOTE_3
 10
218.0010743732
 20
20.5867261075
 30
0.0
  0
INSERT
  5
B9
330
1F
100
AcDbEntity
  8
0
  6
Continuous
 62
     7
370
     0
100
AcDbBlockReference
  2
SW_NOTE_4
 10
7.0257848731
 20
52.5785086475
 30
0.0
  0
MTEXT
  5
BA
330
1F
100
AcDbEntity
  8
0
  6
Continuous
 62
     7
370
     0
100
AcDbMText
 10
199.6854209127
 20
15.7414250122
 30
0.0
 40
2.1166666667
 41
0.0
 71
     1
 72
     1
  1
08/NOV/12
  7
SLDTEXTSTYLE0
 73
     1
 44
1.0
  0
MTEXT
  5
BB
330
1F
100
AcDbEntity
  8
0
  6
Continuous
 62
     7
370
     0
100
AcDbMText
 10
190.1150468702
 20
15.7414250122
 30
0.0
 40
2.1166666667
 41
0.0
 71
     1
 72
     1
  1
WD
  7
SLDTEXTSTYLE0
 73
     1
 44
1.0
  0
CIRCLE
  5
BC
330
1F
100
AcDbEntity
  8
0
  6
Continuous
 62
     7
370
     0
100
AcDbCircle
 10
53.491891533
 20
108.286715692
 30
0.0
 40
25.39999999999999
  0
CIRCLE
  5
BD
330
1F
100
AcDbEntity
  8
0
  6
Continuous
 62
     7
370
     0
100
AcDbCircle
 10
53.491891533
 20
108.286715692
 30
0.0
 40
25.20151936846453
  0
DIMENSION
  5
BE
330
1F
100
AcDbEntity
  8
0
  6
Continuous
 62
     7
370
     0
100
AcDbDimension
  2
*D7
 10
35.5369905893
 20
126.25283748
 30
0.0
 11
92.9352675918
 21
81.1167246462
 31
0.0
 70
   163
  1
<>
 71
     1
 42
-1.0
  3
SLDDIMSTYLE0
100
AcDbDiametricDimension
 15
71.4467924768
 25
90.320593904
 35
0.0
 40
0.0
  0
INSERT
  5
D6
330
1F
100
AcDbEntity
  8
0
  6
Continuous
 62
     7
370
     0
100
AcDbBlockReference
  2
SW_CENTERMARKSYMBOL_0
 10
53.491891533
 20
108.286715692
 30
0.0
  0
LINE
  5
D7
330
1F
100
AcDbEntity
  8
0
  6
PHANTOM
 62
     7
370
    30
100
AcDbLine
 10
53.491891533
 20
140.865744439
 30
0.0
 11
53.491891533
 21
76.357616093
 31
0.0
  0
LINE
  5
D8
330
1F
100
AcDbEntity
  8
0
  6
Continuous
 62
     7
370
    30
100
AcDbLine
 10
53.491891533
 20
140.865744439
 30
0.0
 11
44.601891533
 21
140.865744439
 31
0.0
  0
SOLID
  5
D9
330
1F
100
AcDbEntity
  8
0
  6
Continuous
 62
     7
370
    30
100
AcDbTrace
 10
44.601891533
 20
140.865744439
 30
0.0
 11
48.411891533
 21
140.230744439
 31
0.0
 12
48.411891533
 22
141.500744439
 32
0.0
 13
48.411891533
 23
141.500744439
 33
0.0
  0
LINE
  5
DA
330
1F
100
AcDbEntity
  8
0
  6
Continuous
 62
     7
370
    30
100
AcDbLine
 10
53.491891533
 20
76.357616093
 30
0.0
 11
44.601891533
 21
76.357616093
 31
0.0
  0
SOLID
  5
DB
330
1F
100
AcDbEntity
  8
0
  6
Continuous
 62
     7
370
    30
100
AcDbTrace
 10
44.601891533
 20
76.357616093
 30
0.0
 11
48.411891533
 21
75.722616093
 31
0.0
 12
48.411891533
 22
76.992616093
 32
0.0
 13
48.411891533
 23
76.992616093
 33
0.0
  0
MTEXT
  5
DC
330
1F
100
AcDbEntity
  8
0
  6
Continuous
 62
     7
100
AcDbMText
 10
41.1958420815
 20
142.966684311
 30
0.0
 40
2.6458333333
 41
0.0
 71
     1
 72
     1
  1
A
  7
SLDTEXTSTYLE0
 73
     1
 44
1.0
  0
MTEXT
  5
DD
330
1F
100
AcDbEntity
  8
0
  6
Continuous
 62
     7
100
AcDbMText
 10
41.1958420815
 20
78.458555965
 30
0.0
 40
2.6458333333
 41
0.0
 71
     1
 72
     1
  1
A
  7
SLDTEXTSTYLE0
 73
     1
 44
1.0
  0
LINE
  5
DE
330
1F
100
AcDbEntity
  8
0
  6
Continuous
 62
     7
370
     0
100
AcDbLine
 10
216.2689022264
 20
180.9363870566
 30
0.0
 11
216.2841992873
 21
180.8087800718
 31
0.0
  0
LINE
  5
DF
330
1F
100
AcDbEntity
  8
0
  6
Continuous
 62
     7
370
     0
100
AcDbLine
 10
231.2862409839
 20
154.821665878
 30
0.0
 11
231.3890961133
 21
154.7446050902
 31
0.0
  0
LINE
  5
E0
330
1F
100
AcDbEntity
  8
0
  6
Continuous
 62
     7
370
     0
100
AcDbLine
 10
228.5613048693
 20
199.9009972354
 30
0.0
 11
221.335057808
 21
195.7293736024
 31
0.0
  0
LINE
  5
E1
330
1F
100
AcDbEntity
  8
0
  6
Continuous
 62
     7
370
     0
100
AcDbLine
 10
246.732993617
 20
151.7340913935
 30
0.0
 11
253.9592406783
 21
155.9057150265
 31
0.0
  0
LINE
  5
E2
330
1F
100
AcDbEntity
  8
0
  6
Continuous
 62
     7
370
     0
100
AcDbLine
 10
259.220785016
 20
167.5349731108
 30
0.0
 11
259.220785016
 21
167.6982547332
 31
0.0
  0
LINE
  5
E3
330
1F
100
AcDbEntity
  8
0
  6
Continuous
 62
     7
370
     0
100
AcDbLine
 10
241.4045902335
 20
198.560153245
 30
0.0
 11
241.2631918622
 21
198.6418073251
 31
0.0
  0
LWPOLYLINE
  5
E4
330
1F
100
AcDbEntity
  8
0
  6
Continuous
 62
     7
370
     0
100
AcDbPolyline
 90
       47
 70
   128
 43
0.0
 10
251.9945379546
 20
163.3633494778
 10
251.9816738242
 20
162.5859383851
 10
251.9430998608
 20
161.8244935351
 10
251.8788713212
 20
161.0801056902
 10
251.7890802121
 20
160.3538411789
 10
251.6738551585
 20
159.646740368
 10
251.5333612191
 20
158.9598161727
 10
251.3677996502
 20
158.2940526052
 10
251.1774076171
 20
157.6504033654
 10
250.9624578545
 20
157.0297904747
 10
250.723258276
 20
156.4331029551
 10
250.4601515325
 20
155.8611955556
 10
250.1735145221
 20
155.3148875282
 10
249.8637578494
 20
154.7949614539
 10
249.5313252379
 20
154.3021621216
 10
249.1766928941
 20
153.8371954617
 10
248.8003688255
 20
153.4007275345
 10
248.4028921126
 20
152.9933835761
 10
247.9848321369
 20
152.6157471027
 10
247.5467877655
 20
152.268359075
 10
247.0893864925
 20
151.951717123
 10
246.6132835411
 20
151.6662748332
 10
246.1191609239
 20
151.4124410989
 10
245.607726467
 20
151.1905795346
 10
245.0797127952
 20
151.0010079548
 10
244.535876283
 20
150.843997919
 10
243.9769959711
 20
150.7197743424
 10
243.4038724501
 20
150.6285151742
 10
242.8173267139
 20
150.5703511424
 10
242.2181989836
 20
150.5453655662
 10
241.6073475039
 20
150.5535942372
 10
240.9856473137
 20
150.5950253681
 10
240.3539889925
 20
150.6695996091
 10
239.7132773849
 20
150.7772101333
 10
239.0644303038
 20
150.9177027896
 10
238.4083772167
 20
151.0908763238
 10
237.7460579132
 20
151.2964826663
 10
237.0784211593
 20
151.5342272881
 10
236.4064233383
 20
151.8037696223
 10
235.7310270805
 20
152.1047235521
 10
235.0531998846
 20
152.4366579639
 10
234.3739127315
 20
152.7990973648
 10
233.6941386935
 20
153.1915225639
 10
233.0148515404
 20
153.6133714159
 10
232.3370243445
 20
154.0640396264
 10
231.6616280867
 20
154.5428816174
 10
231.3890961133
 20
154.7446050902
  0
LWPOLYLINE
  5
E5
330
1F
100
AcDbEntity
  8
0
  6
Continuous
 62
     7
370
     0
100
AcDbPolyline
 90
       89
 70
   128
 43
0.0
 10
216.2689022264
 20
180.9363870566
 10
216.1891801038
 20
181.6833258782
 10
216.1249515642
 20
182.5018704164
 10
216.0863776007
 20
183.3078518166
 10
216.0735134704
 20
184.1001155181
 10
216.0863776007
 20
184.8775266108
 10
216.1249515642
 20
185.6389714608
 10
216.1891801038
 20
186.3833593057
 10
216.2789712129
 20
187.109623817
 10
216.3941962665
 20
187.8167246279
 10
216.5346902059
 20
188.5036488233
 10
216.7002517748
 20
189.1694123908
 10
216.8906438079
 20
189.8130616305
 10
217.1055935705
 20
190.4336745212
 10
217.344793149
 20
191.0303620409
 10
217.6078998924
 20
191.6022694403
 10
217.8945369029
 20
192.1485774677
 10
218.2042935756
 20
192.6685035421
 10
218.5367261871
 20
193.1613028744
 10
218.8913585308
 20
193.6262695342
 10
219.2676825995
 20
194.0627374614
 10
219.6651593124
 20
194.4700814199
 10
220.0832192881
 20
194.8477178933
 10
220.5212636595
 20
195.1951059209
 10
220.9786649324
 20
195.511747873
 10
221.4547678839
 20
195.7971901628
 10
221.9488905011
 20
196.051023897
 10
222.460324958
 20
196.2728854613
 10
222.9883386298
 20
196.4624570411
 10
223.5321751419
 20
196.619467077
 10
224.0910554539
 20
196.7436906535
 10
224.6641789749
 20
196.8349498217
 10
225.2507247111
 20
196.8931138536
 10
225.8498524414
 20
196.9180994298
 10
226.4607039211
 20
196.9098707587
 10
227.0824041113
 20
196.8684396278
 10
227.7140624324
 20
196.7938653868
 10
228.3547740401
 20
196.6862548627
 10
229.0036211211
 20
196.5457622063
 10
229.6596742083
 20
196.3725886722
 10
230.3219935118
 20
196.1669823296
 10
230.9896302657
 20
195.9292377078
 10
231.6616280867
 20
195.6596953736
 10
232.3370243445
 20
195.3587414438
 10
233.0148515404
 20
195.026807032
 10
233.6941386935
 20
194.6643676311
 10
234.3739127315
 20
194.271942432
 10
235.0531998846
 20
193.85009358
 10
235.7310270805
 20
193.3994253696
 10
236.4064233383
 20
192.9205833786
 10
237.0784211593
 20
192.4142535435
 10
237.7460579132
 20
191.881161177
 10
238.4083772167
 20
191.3220699287
 10
239.0644303038
 20
190.7377806915
 10
239.7132773849
 20
190.1291304541
 10
240.3539889925
 20
189.496991102
 10
240.9856473137
 20
188.8422681689
 10
241.6073475039
 20
188.165899539
 10
242.2181989836
 20
187.4688541038
 10
242.8173267139
 20
186.7521303743
 10
243.4038724501
 20
186.0167550502
 10
243.9769959711
 20
185.2637815496
 10
244.535876283
 20
184.4942884999
 10
245.0797127952
 20
183.7093781924
 10
245.607726467
 20
182.9101750035
 10
246.1191609239
 20
182.0978237841
 10
246.6132835411
 20
181.2734882196
 10
247.0893864925
 20
180.4383491626
 10
247.5467877655
 20
179.5936029419
 10
247.9848321369
 20
178.7404596482
 10
248.4028921126
 20
177.8801414012
 10
248.8003688255
 20
177.0138805983
 10
249.1766928941
 20
176.1429181499
 10
249.5313252379
 20
175.2685017013
 10
249.8637578494
 20
174.3918838456
 10
250.1735145221
 20
173.5143203294
 10
250.4601515325
 20
172.6370682541
 10
250.723258276
 20
171.7613842748
 10
250.9624578545
 20
170.8885228003
 10
251.1774076171
 20
170.0197341963
 10
251.3677996502
 20
169.1562629942
 10
251.5333612191
 20
168.299346108
 10
251.6738551585
 20
167.450211063
 10
251.7890802121
 20
166.610074237
 10
251.8788713212
 20
165.7801391178
 10
251.9430998608
 20
164.9615945795
 10
251.9816738242
 20
164.1556131793
 10
251.9945379546
 20
163.3633494778
 10
251.9945379546
 20
163.3633494778
  0
LWPOLYLINE
  5
E6
330
1F
100
AcDbEntity
  8
0
  6
Continuous
 62
     7
370
     0
100
AcDbPolyline
 90
      166
 70
   128
 43
0.0
 10
251.7306678209
 20
163.3730616897
 10
251.717749053
 20
164.1639412047
 10
251.67901148
 20
164.9685897121
 10
251.6145112678
 20
165.7858405484
 10
251.5243419355
 20
166.6145087781
 10
251.40863422
 20
167.4533929114
 10
251.2675558865
 20
168.3012766465
 10
251.1013114851
 20
169.1569306332
 10
250.9101420542
 20
170.0191142548
 10
250.6943247713
 20
170.8865774276
 10
250.4541725507
 20
171.7580624129
 10
250.1900335902
 20
172.6323056409
 10
249.9022908662
 20
173.5080395423
 10
249.5913615779
 20
174.3839943867
 10
249.2576965432
 20
175.2589001235
 10
248.9017795445
 20
176.1314882228
 10
248.5241266273
 20
177.0004935154
 10
248.1252853523
 20
177.8646560267
 10
247.7058340013
 20
178.7227228036
 10
247.2663807386
 20
179.5734497314
 10
246.8075627293
 20
180.4156033374
 10
246.3300452158
 20
181.2479625792
 10
245.8345205529
 20
182.0693206157
 10
245.3217072038
 20
182.8784865561
 10
244.7923486989
 20
183.6742871872
 10
244.2472125574
 20
184.4555686742
 10
243.6870891747
 20
185.2211982337
 10
243.1127906761
 20
185.9700657758
 10
242.5251497394
 20
186.7010855144
 10
241.925018388
 20
187.4131975406
 10
241.3132667549
 20
188.1053693601
 10
240.6907818213
 20
188.77659739
 10
240.0584661311
 20
189.4259084137
 10
239.4172364815
 20
190.0523609924
 10
238.7680225942
 20
190.6550468297
 10
238.1117657673
 20
191.2330920888
 10
237.4494175103
 20
191.7856586592
 10
236.7819381651
 20
192.3119453724
 10
236.1102955127
 20
192.8111891628
 10
235.4354633709
 20
193.2826661747
 10
234.7584201818
 20
193.7256928116
 10
234.0801475932
 20
194.1396267271
 10
233.4016290355
 20
194.5238677566
 10
232.7238482958
 20
194.8778587874
 10
232.0477880914
 20
195.2010865663
 10
231.3744286449
 20
195.493082444
 10
230.7047462632
 20
195.7534230543
 10
230.0397119217
 20
195.9817309282
 10
229.3802898565
 20
196.1776750413
 10
228.7274361667
 20
196.3409712931
 10
228.0820974277
 20
196.4713829198
 10
227.445209319
 20
196.568720837
 10
226.8176952674
 20
196.6328439139
 10
226.2004651084
 20
196.6636591784
 10
225.5944137665
 20
196.6611219511
 10
225.0004199585
 20
196.6252359109
 10
224.4193449184
 20
196.556053089
 10
223.8520311496
 20
196.4536737939
 10
223.2993012027
 20
196.3182464659
 10
222.7619564834
 20
196.1499674615
 10
222.2407760901
 20
195.9490807693
 10
221.7365156846
 20
195.7158776558
 10
221.2499063963
 20
195.4506962431
 10
220.781653762
 20
195.153921019
 10
220.3324367034
 20
194.8259822792
 10
219.9029065423
 20
194.4673555036
 10
219.4936860562
 20
194.0785606665
 10
219.1053685759
 20
193.6601614834
 10
218.7385171245
 20
193.2127645932
 10
218.3936636015
 20
192.7370186785
 10
218.0713080116
 20
192.2336135253
 10
217.7719177396
 20
191.7032790232
 10
217.4959268728
 20
191.1467841063
 10
217.2437355715
 20
190.5649356392
 10
217.015709489
 20
189.9585772464
 10
216.8121792413
 20
189.3285880897
 10
216.6334399278
 20
188.6758815932
 10
216.4797507035
 20
188.0014041187
 10
216.351334403
 20
187.3061335943
 10
216.2483772177
 20
186.5910780957
 10
216.1710284256
 20
185.8572743849
 10
216.1194001752
 20
185.1057864073
 10
216.0935673224
 20
184.3377037486
 10
216.0935673224
 20
183.5541400551
 10
216.1194001752
 20
182.7562314194
 10
216.1710284256
 20
181.9451347326
 10
216.2483772177
 20
181.1220260075
 10
216.351334403
 20
180.288098673
 10
216.4797507035
 20
179.4445618439
 10
216.6334399278
 20
178.5926385681
 10
216.8121792413
 20
177.7335640529
 10
217.015709489
 20
176.8685838741
 10
217.2437355715
 20
175.9989521704
 10
217.4959268728
 20
175.1259298246
 10
217.7719177396
 20
174.2507826356
 10
218.0713080116
 20
173.3747794832
 10
218.3936636015
 20
172.4991904881
 10
218.7385171245
 20
171.6252851709
 10
219.1053685759
 20
170.7543306105
 10
219.4936860562
 20
169.8875896078
 10
219.9029065423
 20
169.0263188545
 10
220.3324367034
 20
168.1717671108
 10
220.781653762
 20
167.3251733951
 10
221.2499063963
 20
166.4877651872
 10
221.7365156846
 20
165.660756649
 10
222.2407760901
 20
164.8453468639
 10
222.7619564834
 20
164.0427180981
 10
223.2993012027
 20
163.2540340865
 10
223.8520311496
 20
162.4804383456
 10
224.4193449184
 20
161.7230525152
 10
225.0004199585
 20
160.9829747325
 10
225.5944137665
 20
160.2612780393
 10
226.2004651084
 20
159.559008827
 10
226.8176952674
 20
158.8771853188
 10
227.445209319
 20
158.2167960934
 10
228.0820974277
 20
157.5787986523
 10
228.7274361667
 20
156.9641180307
 10
229.3802898565
 20
156.3736454568
 10
230.0397119217
 20
155.8082370592
 10
230.7047462632
 20
155.2687126262
 10
231.3744286449
 20
154.7558544166
 10
232.0477880914
 20
154.2704060257
 10
232.7238482958
 20
153.8130713073
 10
233.4016290355
 20
153.3845133531
 10
234.0801475932
 20
152.9853535311
 10
234.7584201818
 20
152.6161705849
 10
235.4354633709
 20
152.2774997944
 10
236.1102955127
 20
151.9698322
 10
236.7819381651
 20
151.6936138902
 10
237.4494175103
 20
151.4492453552
 10
238.1117657673
 20
151.2370809059
 10
238.7680225942
 20
151.0574281607
 10
239.4172364815
 20
150.9105475986
 10
240.0584661311
 20
150.7966521826
 10
240.6907818213
 20
150.7159070501
 10
241.3132667549
 20
150.6684292739
 10
241.925018388
 20
150.6542876921
 10
242.5251497394
 20
150.6735028086
 10
243.1127906761
 20
150.7260467635
 10
243.6870891747
 20
150.811843373
 10
244.2472125574
 20
150.9307682403
 10
244.7923486989
 20
151.0826489355
 10
245.3217072038
 20
151.2672652463
 10
245.8345205529
 20
151.4843494967
 10
246.3300452158
 20
151.7335869352
 10
246.8075627293
 20
152.0146161914
 10
247.2663807386
 20
152.3270297997
 10
247.7058340013
 20
152.6703747902
 10
248.1252853524
 20
153.0441533456
 10
248.5241266273
 20
153.4478235227
 10
248.9017795445
 20
153.8808000383
 10
249.2576965432
 20
154.3424551178
 10
249.5913615779
 20
154.8321194056
 10
249.9022908662
 20
155.3490829352
 10
250.1900335902
 20
155.8925961589
 10
250.4541725507
 20
156.4618710345
 10
250.6943247713
 20
157.0560821679
 10
250.9101420542
 20
157.6743680097
 10
251.1013114851
 20
158.3158321046
 10
251.2675558865
 20
158.9795443909
 10
251.40863422
 20
159.6645425493
 10
251.5243419355
 20
160.369833398
 10
251.6145112678
 20
161.0943943326
 10
251.67901148
 20
161.837174809
 10
251.717749053
 20
162.5970978667
 10
251.7306678209
 20
163.3730616897
  0
LWPOLYLINE
  5
E7
330
1F
100
AcDbEntity
  8
0
  6
Continuous
 62
     7
370
     0
100
AcDbPolyline
 90
       85
 70
   128
 43
0.0
 10
253.9592406783
 20
155.9057150265
 10
254.3156335539
 20
156.123340756
 10
254.7730348268
 20
156.439982708
 10
255.2110791983
 20
156.7873707357
 10
255.6291391739
 20
157.1650072091
 10
256.0266158868
 20
157.5723511675
 10
256.4029399555
 20
158.0088190947
 10
256.7575722993
 20
158.4737857546
 10
257.0900049107
 20
158.9665850869
 10
257.3997615834
 20
159.4865111612
 10
257.6863985939
 20
160.0328191886
 10
257.9495053373
 20
160.6047265881
 10
258.1887049158
 20
161.2014141077
 10
258.4036546784
 20
161.8220269984
 10
258.5940467115
 20
162.4656762382
 10
258.7596082805
 20
163.1314398057
 10
258.9001022198
 20
163.818364001
 10
259.0153272734
 20
164.5254648119
 10
259.1051183825
 20
165.2517293232
 10
259.1693469221
 20
165.9961171681
 10
259.2079208856
 20
166.7575620181
 10
259.220785016
 20
167.5349731108
 10
259.2079208856
 20
168.3272368123
 10
259.1693469221
 20
169.1332182125
 10
259.1051183825
 20
169.9517627508
 10
259.0153272734
 20
170.78169787
 10
258.9001022198
 20
171.621834696
 10
258.7596082805
 20
172.470969741
 10
258.5940467115
 20
173.3278866272
 10
258.4036546784
 20
174.1913578293
 10
258.1887049158
 20
175.0601464333
 10
257.9495053373
 20
175.9330079078
 10
257.6863985939
 20
176.8086918871
 10
257.3997615834
 20
177.6859439624
 10
257.0900049107
 20
178.5635074786
 10
256.7575722993
 20
179.4401253343
 10
256.4029399555
 20
180.3145417829
 10
256.0266158868
 20
181.1855042313
 10
255.6291391739
 20
182.0517650342
 10
255.2110791983
 20
182.9120832812
 10
254.7730348268
 20
183.7652265749
 10
254.3156335539
 20
184.6099727956
 10
253.8395306024
 20
185.4451118526
 10
253.3454079852
 20
186.2694474171
 10
252.8339735283
 20
187.0817986365
 10
252.3059598565
 20
187.8810018254
 10
251.7621233444
 20
188.6659121329
 10
251.2032430325
 20
189.4354051826
 10
250.6301195114
 20
190.1883786832
 10
250.0435737752
 20
190.9237540073
 10
249.4444460449
 20
191.6404777368
 10
248.8335945652
 20
192.337523172
 10
248.211894375
 20
193.0138918019
 10
247.5802360539
 20
193.668614735
 10
246.9395244462
 20
194.3007540871
 10
246.2906773652
 20
194.9094043245
 10
245.634624278
 20
195.4936935617
 10
244.9723049745
 20
196.05278481
 10
244.3046682206
 20
196.5858771765
 10
243.6326703996
 20
197.0922070116
 10
242.9572741418
 20
197.5710490026
 10
242.2794469459
 20
198.021717213
 10
241.6001597928
 20
198.443566065
 10
240.9203857548
 20
198.8359912641
 10
240.2410986018
 20
199.198430665
 10
239.5632714058
 20
199.5303650768
 10
238.8878751481
 20
199.8313190066
 10
238.215877327
 20
200.1008613408
 10
237.5482405731
 20
200.3386059626
 10
236.8859212696
 20
200.5442123052
 10
236.2298681825
 20
200.7173858393
 10
235.5810211015
 20
200.8578784957
 10
234.9403094938
 20
200.9654890198
 10
234.3086511726
 20
201.0400632608
 10
233.6869509824
 20
201.0814943917
 10
233.0760995027
 20
201.0897230628
 10
232.4769717724
 20
201.0647374866
 10
231.8904260362
 20
201.0065734547
 10
231.3173025152
 20
200.9153142865
 10
230.7584222033
 20
200.79109071
 10
230.2145856911
 20
200.6340806741
 10
229.6865720194
 20
200.4445090943
 10
229.1751375624
 20
200.22264753
 10
228.6810149453
 20
199.9688137958
 10
228.5613048693
 20
199.9009972354
  0
ARC
  5
E8
330
1F
100
AcDbEntity
  8
0
  6
Continuous
 62
     7
370
     0
100
AcDbCircle
 10
220.6194615876
 20
165.9876694657
 30
0.0
 40
38.63920641500611
100
AcDbArc
 50
2.5373543706
 51
57.4572690967
  0
SPLINE
  5
E9
330
1F
100
AcDbEntity
  8
0
  6
Continuous
 62
     7
370
     0
100
AcDbSpline
210
0.0
220
0.0
230
1.0
 70
     8
 71
     3
 72
    15
 73
    11
 74
     0
 42
0.00000001
 43
0.00000001
 40
0.0
 40
0.0
 40
0.0
 40
0.0
 40
0.1426572507006123
 40
0.2811689939054435
 40
0.416977192367973
 40
0.5508524927475571
 40
0.6783641702618121
 40
0.795032443007094
 40
0.9019981783473521
 40
1.0
 40
1.0
 40
1.0
 40
1.0
 10
230.4304846960945
 20
107.2166992907874
 30
0.0
 10
230.4634010920137
 20
107.2336513005859
 30
0.0
 10
230.5282773592776
 20
107.267062708112
 30
0.0
 10
230.6199334961393
 20
107.3247688019796
 30
0.0
 10
230.7055043594688
 20
107.3873245832467
 30
0.0
 10
230.7835734127008
 20
107.4547162020467
 30
0.0
 10
230.8535573442604
 20
107.52360253407
 30
0.0
 10
230.9125338196758
 20
107.5931115489005
 30
0.0
 10
230.9618815813955
 20
107.6606953463145
 30
0.0
 10
230.9866402882987
 20
107.7078275500126
 30
0.0
 10
230.998478251408
 20
107.7303630277666
 30
0.0
  0
LINE
  5
EA
330
1F
100
AcDbEntity
  8
0
  6
Continuous
 62
     7
370
     0
100
AcDbLine
 10
230.4304846961
 20
106.9738614664
 30
0.0
 11
230.4304846961
 21
107.2166992908
 31
0.0
  0
SPLINE
  5
EB
330
1F
100
AcDbEntity
  8
0
  6
Continuous
 62
     7
370
     0
100
AcDbSpline
210
0.0
220
0.0
230
1.0
 70
     8
 71
     3
 72
    15
 73
    11
 74
     0
 42
0.00000001
 43
0.00000001
 40
0.0
 40
0.0
 40
0.0
 40
0.0
 40
0.111670300101588
 40
0.2320944808560175
 40
0.3627434591045548
 40
0.5025575097108851
 40
0.6415251033312812
 40
0.7710984952996689
 40
0.890161757373254
 40
1.0
 40
1.0
 40
1.0
 40
1.0
 10
230.9046358379214
 20
107.2767913625815
 30
0.0
 10
230.8894682464232
 20
107.2621640866815
 30
0.0
 10
230.8579440697047
 20
107.2317628967209
 30
0.0
 10
230.8046557792216
 20
107.1887376214624
 30
0.0
 10
230.7451792368684
 20
107.1451296812131
 30
0.0
 10
230.6802867833929
 20
107.1031957715144
 30
0.0
 10
230.6141399047951
 20
107.0637195177381
 30
0.0
 10
230.5502174628072
 20
107.0282166965883
 30
0.0
 10
230.4895866698233
 20
106.9981726959041
 30
0.0
 10
230.4496488390135
 20
106.9817445174714
 30
0.0
 10
230.4304846960945
 20
106.9738614664143
 30
0.0
  0
LINE
  5
EC
330
1F
100
AcDbEntity
  8
0
  6
Continuous
 62
     7
370
     0
100
AcDbLine
 10
230.9046358379
 20
105.6757080798
 30
0.0
 11
230.9046358379
 21
107.2767913626
 31
0.0
  0
LINE
  5
ED
330
1F
100
AcDbEntity
  8
0
  6
Continuous
 62
     7
370
     0
100
AcDbLine
 10
231.1680531389
 20
105.6757080798
 30
0.0
 11
230.9046358379
 21
105.6757080798
 31
0.0
  0
LINE
  5
EE
330
1F
100
AcDbEntity
  8
0
  6
Continuous
 62
     7
370
     0
100
AcDbLine
 10
231.1680531389
 20
107.7303630278
 30
0.0
 11
231.1680531389
 21
105.6757080798
 31
0.0
  0
LINE
  5
EF
330
1F
100
AcDbEntity
  8
0
  6
Continuous
 62
     7
370
     0
100
AcDbLine
 10
230.9984782514
 20
107.7303630278
 30
0.0
 11
231.1680531389
 21
107.7303630278
 31
0.0
  0
LINE
  5
F0
330
1F
100
AcDbEntity
  8
0
  6
Continuous
 62
     7
370
     0
100
AcDbLine
 10
227.2085618331
 20
105.6757080798
 30
0.0
 11
226.6636172916
 21
107.4142622665
 31
0.0
  0
LINE
  5
F1
330
1F
100
AcDbEntity
  8
0
  6
Continuous
 62
     7
370
     0
100
AcDbLine
 10
227.5114917292
 20
105.6757080798
 30
0.0
 11
227.2085618331
 21
105.6757080798
 31
0.0
  0
LINE
  5
F2
330
1F
100
AcDbEntity
  8
0
  6
Continuous
 62
     7
370
     0
100
AcDbLine
 10
228.059728987
 20
107.4142622665
 30
0.0
 11
227.5114917292
 21
105.6757080798
 31
0.0
  0
LINE
  5
F3
330
1F
100
AcDbEntity
  8
0
  6
Continuous
 62
     7
370
     0
100
AcDbLine
 10
228.059728987
 20
105.6757080798
 30
0.0
 11
228.059728987
 21
107.4142622665
 31
0.0
  0
LINE
  5
F4
330
1F
100
AcDbEntity
  8
0
  6
Continuous
 62
     7
370
     0
100
AcDbLine
 10
228.3494880181
 20
105.6757080798
 30
0.0
 11
228.059728987
 21
105.6757080798
 31
0.0
  0
LINE
  5
F5
330
1F
100
AcDbEntity
  8
0
  6
Continuous
 62
     7
370
     0
100
AcDbLine
 10
228.3494880181
 20
107.7303630278
 30
0.0
 11
228.3494880181
 21
105.6757080798
 31
0.0
  0
LINE
  5
F6
330
1F
100
AcDbEntity
  8
0
  6
Continuous
 62
     7
370
     0
100
AcDbLine
 10
227.9173190086
 20
107.7303630278
 30
0.0
 11
228.3494880181
 21
107.7303630278
 31
0.0
  0
LINE
  5
F7
330
1F
100
AcDbEntity
  8
0
  6
Continuous
 62
     7
370
     0
100
AcDbLine
 10
227.4625125748
 20
106.3132602662
 30
0.0
 11
227.9173190086
 21
107.7303630278
 31
0.0
  0
SPLINE
  5
F8
330
1F
100
AcDbEntity
  8
0
  6
Continuous
 62
     7
370
     0
100
AcDbSpline
210
0.0
220
0.0
230
1.0
 70
     8
 71
     3
 72
    15
 73
    11
 74
     0
 42
0.00000001
 43
0.00000001
 40
0.0
 40
0.0
 40
0.0
 40
0.0
 40
0.0892047702332444
 40
0.1898334556643479
 40
0.2992325919749808
 40
0.4192609378429066
 40
0.5492073901909382
 40
0.6890743636843489
 40
0.8395791979483183
 40
1.0
 40
1.0
 40
1.0
 40
1.0
 10
227.3616731392702
 20
105.9868697666738
 30
0.0
 10
227.3645414768368
 20
105.9966145550457
 30
0.0
 10
227.3706454826075
 20
106.0173520878762
 30
0.0
 10
227.3805410517154
 20
106.0499583034387
 30
0.0
 10
227.3910702189871
 20
106.0860407499905
 30
0.0
 10
227.4036704047911
 20
106.1249792291185
 30
0.0
 10
227.416804607263
 20
106.1673845633372
 30
0.0
 10
227.4305906621151
 20
106.2132215363866
 30
0.0
 10
227.4464926079256
 20
106.2620325210621
 30
0.0
 10
227.4570602456405
 20
106.2958251159805
 30
0.0
 10
227.462512574815
 20
106.3132602662127
 30
0.0
  0
SPLINE
  5
F9
330
1F
100
AcDbEntity
  8
0
  6
Continuous
 62
     7
370
     0
100
AcDbSpline
210
0.0
220
0.0
230
1.0
 70
     8
 71
     3
 72
    15
 73
    11
 74
     0
 42
0.00000001
 43
0.00000001
 40
0.0
 40
0.0
 40
0.0
 40
0.0
 40
0.1625255217041867
 40
0.314314898039237
 40
0.4549784905465734
 40
0.5845192373661994
 40
0.704567103309073
 40
0.8134949897289289
 40
0.9116812596826063
 40
1.0
 40
1.0
 40
1.0
 40
1.0
 10
227.2690654943822
 20
106.2885648942425
 30
0.0
 10
227.2741204836841
 20
106.2722318340688
 30
0.0
 10
227.283896538733
 20
106.2406446464729
 30
0.0
 10
227.2983932685234
 20
106.1950298410552
 30
0.0
 10
227.3115828623192
 20
106.1526411040098
 30
0.0
 10
227.3234621684486
 20
106.1133435097508
 30
0.0
 10
227.3346728231207
 20
106.0773321690371
 30
0.0
 10
227.3443794836403
 20
106.0443115822577
 30
0.0
 10
227.35365936689
 20
106.014648681537
 30
0.0
 10
227.3590977931428
 20
105.995796938226
 30
0.0
 10
227.3616731392702
 20
105.9868697666738
 30
0.0
  0
LINE
  5
FA
330
1F
100
AcDbEntity
  8
0
  6
Continuous
 62
     7
370
     0
100
AcDbLine
 10
226.8097315757
 20
107.7303630278
 30
0.0
 11
227.2690654944
 21
106.2885648942
 31
0.0
  0
LINE
  5
FB
330
1F
100
AcDbEntity
  8
0
  6
Continuous
 62
     7
370
     0
100
AcDbLine
 10
226.3738582605
 20
107.7303630278
 30
0.0
 11
226.8097315757
 21
107.7303630278
 31
0.0
  0
LINE
  5
FC
330
1F
100
AcDbEntity
  8
0
  6
Continuous
 62
     7
370
     0
100
AcDbLine
 10
226.3738582605
 20
105.6757080798
 30
0.0
 11
226.3738582605
 21
107.7303630278
 31
0.0
  0
LINE
  5
FD
330
1F
100
AcDbEntity
  8
0
  6
Continuous
 62
     7
370
     0
100
AcDbLine
 10
226.6636172916
 20
105.6757080798
 30
0.0
 11
226.3738582605
 21
105.6757080798
 31
0.0
  0
LINE
  5
FE
330
1F
100
AcDbEntity
  8
0
  6
Continuous
 62
     7
370
     0
100
AcDbLine
 10
226.6636172916
 20
107.4142622665
 30
0.0
 11
226.6636172916
 21
105.6757080798
 31
0.0
  0
SPLINE
  5
FF
330
1F
100
AcDbEntity
  8
0
  6
Continuous
 62
     7
370
     0
100
AcDbSpline
210
0.0
220
0.0
230
1.0
 70
     8
 71
     3
 72
    31
 73
    27
 74
     0
 42
0.00000001
 43
0.00000001
 40
0.0
 40
0.0
 40
0.0
 40
0.0
 40
0.0628739462114324
 40
0.1228366299919129
 40
0.1796565674430314
 40
0.233960012230862
 40
0.285595018695559
 40
0.3345131060783805
 40
0.3809048259061763
 40
0.4248945919393346
 40
0.4665290347654874
 40
0.5064882940692463
 40
0.5450315536447542
 40
0.5818311798231344
 40
0.617448279949443
 40
0.652066912769046
 40
0.6858797142465105
 40
0.7191745547913923
 40
0.7521816462063928
 40
0.7852401639180908
 40
0.8186564497770833
 40
0.8525477406533113
 40
0.8876263422585189
 40
0.923635078068751
 40
0.9610218444769891
 40
1.0
 40
1.0
 40
1.0
 40
1.0
 10
225.1094552155924
 20
106.6890415096918
 30
0.0
 10
225.1091848513564
 20
106.6598165263489
 30
0.0
 10
225.108656641603
 20
106.6027197687611
 30
0.0
 10
225.1055189253267
 20
106.5192476578824
 30
0.0
 10
225.0995507058498
 20
106.4399397885998
 30
0.0
 10
225.092206702744
 20
106.3646144896593
 30
0.0
 10
225.0810967643275
 20
106.2934728441574
 30
0.0
 10
225.0691252037373
 20
106.2262125900637
 30
0.0
 10
225.054319340412
 20
106.1631391481674
 30
0.0
 10
225.0370443739629
 20
106.1042248750045
 30
0.0
 10
225.017588839023
 20
106.0491582531148
 30
0.0
 10
224.996252834382
 20
105.9975231195815
 30
0.0
 10
224.9726211605785
 20
105.9493547573421
 30
0.0
 10
224.9459904497471
 20
105.9051229764421
 30
0.0
 10
224.9175791775481
 20
105.864240674044
 30
0.0
 10
224.8871792616195
 20
105.8265544914412
 30
0.0
 10
224.8541461881541
 20
105.7926068417325
 30
0.0
 10
224.8185133359815
 20
105.762588269315
 30
0.0
 10
224.7810030656602
 20
105.7355477657607
 30
0.0
 10
224.7408692082949
 20
105.7123952846981
 30
0.0
 10
224.6982874235238
 20
105.6932138562772
 30
0.0
 10
224.6535422166477
 20
105.6768146879389
 30
0.0
 10
224.6061795829906
 20
105.6647983392423
 30
0.0
 10
224.5565730198738
 20
105.6556000120837
 30
0.0
 10
224.5045397504956
 20
105.6501833709358
 30
0.0
 10
224.4690345265009
 20
105.6496424476263
 30
0.0
 10
224.450911963055
 20
105.6493663497484
 30
0.0
  0
SPLINE
  5
100
330
1F
100
AcDbEntity
  8
0
  6
Continuous
 62
     7
370
     0
100
AcDbSpline
210
0.0
220
0.0
230
1.0
 70
     8
 71
     3
 72
    27
 73
    23
 74
     0
 42
0.00000001
 43
0.00000001
 40
0.0
 40
0.0
 40
0.0
 40
0.0
 40
0.0567243372181507
 40
0.1114372357370107
 40
0.1643678222229016
 40
0.21643537246209
 40
0.2676414903219248
 40
0.317359779969028
 40
0.3674730633322805
 40
0.4182103970528082
 40
0.4714042826470201
 40
0.5279657201290493
 40
0.5880611158232137
 40
0.6521342629937144
 40
0.6863448363353055
 40
0.7232636803169652
 40
0.7626102507715419
 40
0.8047389366452182
 40
0.84943033879095
 40
0.8967112583864923
 40
0.9468896380534765
 40
1.0
 40
1.0
 40
1.0
 40
1.0
 10
224.450911963055
 20
107.7303630277666
 30
0.0
 10
224.4772991521643
 20
107.7295872630818
 30
0.0
 10
224.5291378435871
 20
107.7280632422418
 30
0.0
 10
224.6048226007651
 20
107.7156336048164
 30
0.0
 10
224.6761506064103
 20
107.6943707943089
 30
0.0
 10
224.743075519237
 20
107.6656863456622
 30
0.0
 10
224.8044532682286
 20
107.6292515750843
 30
0.0
 10
224.8592661850618
 20
107.5849595604357
 30
0.0
 10
224.9069230238906
 20
107.5332753591234
 30
0.0
 10
224.9469036840629
 20
107.4735865303089
 30
0.0
 10
224.9818507717812
 20
107.4075396904964
 30
0.0
 10
225.0128969973563
 20
107.3348383971038
 30
0.0
 10
225.0409618835309
 20
107.2555641201402
 30
0.0
 10
225.0608773377146
 20
107.1846025754649
 30
0.0
 10
225.0750830148314
 20
107.1233460521697
 30
0.0
 10
225.0844860443977
 20
107.0728234045892
 30
0.0
 10
225.092292444052
 20
107.0183091834203
 30
0.0
 10
225.098273201182
 20
106.9599352732388
 30
0.0
 10
225.1031802712937
 20
106.8977671455793
 30
0.0
 10
225.1069697766518
 20
106.831766093376
 30
0.0
 10
225.1088933386259
 20
106.7617671582284
 30
0.0
 10
225.1092644121391
 20
106.7137378501993
 30
0.0
 10
225.1094552155924
 20
106.6890415096918
 30
0.0
  0
SPLINE
  5
101
330
1F
100
AcDbEntity
  8
0
  6
Continuous
 62
     7
370
     0
100
AcDbSpline
210
0.0
220
0.0
230
1.0
 70
     8
 71
     3
 72
    31
 73
    27
 74
     0
 42
0.00000001
 43
0.00000001
 40
0.0
 40
0.0
 40
0.0
 40
0.0
 40
0.0631144583947934
 40
0.1236146457694899
 40
0.1809737111859575
 40
0.2352614550083221
 40
0.2871007018338719
 40
0.3360307363034435
 40
0.3823823485850661
 40
0.4263340836597072
 40
0.4682106947981602
 40
0.5082496012618051
 40
0.546628336606585
 40
0.5836495392304462
 40
0.6189943150301618
 40
0.653583018620596
 40
0.6871561361903314
 40
0.7204221919788074
 40
0.7532302188118172
 40
0.7862601560778999
 40
0.8195039834988841
 40
0.8535452747120185
 40
0.8883082803397299
 40
0.9239958607406952
 40
0.961350304754645
 40
1.0
 40
1.0
 40
1.0
 40
1.0
 10
223.7923687105176
 20
106.6890415096918
 30
0.0
 10
223.7926341035059
 20
106.718404414894
 30
0.0
 10
223.7931538966101
 20
106.7759139811272
 30
0.0
 10
223.7963780043755
 20
106.8600608077734
 30
0.0
 10
223.8020070352803
 20
106.9399715648128
 30
0.0
 10
223.810409628783
 20
107.0155768534867
 30
0.0
 10
223.8203598737254
 20
107.0870473297891
 30
0.0
 10
223.8332952549241
 20
107.1542809979795
 30
0.0
 10
223.8478494392679
 20
107.217428707624
 30
0.0
 10
223.8653118486912
 20
107.276424637465
 30
0.0
 10
223.8844973200367
 20
107.3317760451052
 30
0.0
 10
223.9062638493548
 20
107.3833941343905
 30
0.0
 10
223.930754147549
 20
107.4312241779967
 30
0.0
 10
223.9567646686848
 20
107.4757622003023
 30
0.0
 10
223.9856646599181
 20
107.5163154517615
 30
0.0
 10
224.0157097757272
 20
107.5540220226247
 30
0.0
 10
224.0490835157376
 20
107.5874990658104
 30
0.0
 10
224.0843981282481
 20
107.6176079486736
 30
0.0
 10
224.1221736300838
 20
107.6441772831463
 30
0.0
 10
224.1622101513364
 20
107.6671034140797
 30
0.0
 10
224.2043536423632
 20
107.68734553463
 30
0.0
 10
224.2494073114982
 20
107.7025837976921
 30
0.0
 10
224.2964358532289
 20
107.7150062124545
 30
0.0
 10
224.3458012688816
 20
107.7241442913756
 30
0.0
 10
224.3975579583828
 20
107.7295314972928
 30
0.0
 10
224.4329263803694
 20
107.7300827196588
 30
0.0
 10
224.450911963055
 20
107.7303630277666
 30
0.0
  0
SPLINE
  5
102
330
1F
100
AcDbEntity
  8
0
  6
Continuous
 62
     7
370
     0
100
AcDbSpline
210
0.0
220
0.0
230
1.0
 70
     8
 71
     3
 72
    15
 73
    11
 74
     0
 42
0.00000001
 43
0.00000001
 40
0.0
 40
0.0
 40
0.0
 40
0.0
 40
0.0974206681772145
 40
0.2008855880393207
 40
0.3111719701726506
 40
0.429797945825373
 40
0.5577399263645872
 40
0.6947152693641585
 40
0.8421299102060552
 40
1.0
 40
1.0
 40
1.0
 40
1.0
 10
223.991989633943
 20
105.8473409150425
 30
0.0
 10
223.9757058770244
 20
105.8708304732905
 30
0.0
 10
223.9421280732041
 20
105.9192669479084
 30
0.0
 10
223.9028281651946
 20
106.0018556301912
 30
0.0
 10
223.8677719514546
 20
106.0927741736908
 30
0.0
 10
223.8402592510426
 20
106.1938063894527
 30
0.0
 10
223.8187099482736
 20
106.3041481752512
 30
0.0
 10
223.8031459714773
 20
106.4240160451741
 30
0.0
 10
223.7943382928686
 20
106.5533582123473
 30
0.0
 10
223.7930400586908
 20
106.642792753573
 30
0.0
 10
223.7923687105176
 20
106.6890415096918
 30
0.0
  0
SPLINE
  5
103
330
1F
100
AcDbEntity
  8
0
  6
Continuous
 62
     7
370
     0
100
AcDbSpline
210
0.0
220
0.0
230
1.0
 70
     8
 71
     3
 72
    15
 73
    11
 74
     0
 42
0.00000001
 43
0.00000001
 40
0.0
 40
0.0
 40
0.0
 40
0.0
 40
0.1379032299933934
 40
0.2688733426002937
 40
0.3951781273461133
 40
0.5170892381308875
 40
0.6367430265135479
 40
0.756221816463797
 40
0.8766283594636795
 40
1.0
 40
1.0
 40
1.0
 40
1.0
 10
224.450911963055
 20
105.6493663497484
 30
0.0
 10
224.4271511811173
 20
105.6500441273096
 30
0.0
 10
224.3808241961533
 20
105.6513656070053
 30
0.0
 10
224.3131670505677
 20
105.6603442475677
 30
0.0
 10
224.2496672106444
 20
105.6761470765205
 30
0.0
 10
224.1897890915981
 20
105.6973408984451
 30
0.0
 10
224.1342057398588
 20
105.7256888557258
 30
0.0
 10
224.0826517670238
 20
105.7601796812557
 30
0.0
 10
224.0340912331747
 20
105.8000109095498
 30
0.0
 10
224.0061368376889
 20
105.8314368343611
 30
0.0
 10
223.991989633943
 20
105.8473409150425
 30
0.0
  0
SPLINE
  5
104
330
1F
100
AcDbEntity
  8
0
  6
Continuous
 62
     7
370
     0
100
AcDbSpline
210
0.0
220
0.0
230
1.0
 70
     8
 71
     3
 72
    15
 73
    11
 74
     0
 42
0.00000001
 43
0.00000001
 40
0.0
 40
0.0
 40
0.0
 40
0.0
 40
0.1426572507006138
 40
0.2811689939054436
 40
0.416977192367974
 40
0.5508524927475579
 40
0.678364170261812
 40
0.7950324430070947
 40
0.9019981783473519
 40
1.0
 40
1.0
 40
1.0
 40
1.0
 10
220.8157532090486
 20
107.2166992907874
 30
0.0
 10
220.8486696049678
 20
107.2336513005859
 30
0.0
 10
220.9135458722317
 20
107.267062708112
 30
0.0
 10
221.0052020090933
 20
107.3247688019796
 30
0.0
 10
221.0907728724229
 20
107.3873245832467
 30
0.0
 10
221.1688419256548
 20
107.4547162020467
 30
0.0
 10
221.2388258572144
 20
107.52360253407
 30
0.0
 10
221.2978023326299
 20
107.5931115489005
 30
0.0
 10
221.3471500943496
 20
107.6606953463145
 30
0.0
 10
221.3719088012528
 20
107.7078275500126
 30
0.0
 10
221.3837467643621
 20
107.7303630277666
 30
0.0
  0
LINE
  5
105
330
1F
100
AcDbEntity
  8
0
  6
Continuous
 62
     7
370
     0
100
AcDbLine
 10
220.815753209
 20
106.9738614664
 30
0.0
 11
220.815753209
 21
107.2166992908
 31
0.0
  0
SPLINE
  5
106
330
1F
100
AcDbEntity
  8
0
  6
Continuous
 62
     7
370
     0
100
AcDbSpline
210
0.0
220
0.0
230
1.0
 70
     8
 71
     3
 72
    15
 73
    11
 74
     0
 42
0.00000001
 43
0.00000001
 40
0.0
 40
0.0
 40
0.0
 40
0.0
 40
0.1116703001015866
 40
0.232094480856018
 40
0.3627434591045532
 40
0.5025575097108851
 40
0.6415251033312813
 40
0.7710984952996682
 40
0.8901617573732524
 40
1.0
 40
1.0
 40
1.0
 40
1.0
 10
221.2899043508755
 20
107.2767913625815
 30
0.0
 10
221.2747367593773
 20
107.2621640866815
 30
0.0
 10
221.2432125826587
 20
107.2317628967209
 30
0.0
 10
221.1899242921756
 20
107.1887376214624
 30
0.0
 10
221.1304477498225
 20
107.1451296812131
 30
0.0
 10
221.065555296347
 20
107.1031957715144
 30
0.0
 10
220.9994084177491
 20
107.0637195177381
 30
0.0
 10
220.9354859757612
 20
107.0282166965883
 30
0.0
 10
220.8748551827774
 20
106.9981726959041
 30
0.0
 10
220.8349173519676
 20
106.9817445174714
 30
0.0
 10
220.8157532090486
 20
106.9738614664143
 30
0.0
  0
LINE
  5
107
330
1F
100
AcDbEntity
  8
0
  6
Continuous
 62
     7
370
     0
100
AcDbLine
 10
221.2899043509
 20
105.6757080798
 30
0.0
 11
221.2899043509
 21
107.2767913626
 31
0.0
  0
LINE
  5
108
330
1F
100
AcDbEntity
  8
0
  6
Continuous
 62
     7
370
     0
100
AcDbLine
 10
221.5533216519
 20
105.6757080798
 30
0.0
 11
221.2899043509
 21
105.6757080798
 31
0.0
  0
LINE
  5
109
330
1F
100
AcDbEntity
  8
0
  6
Continuous
 62
     7
370
     0
100
AcDbLine
 10
221.5533216519
 20
107.7303630278
 30
0.0
 11
221.5533216519
 21
105.6757080798
 31
0.0
  0
LINE
  5
10A
330
1F
100
AcDbEntity
  8
0
  6
Continuous
 62
     7
370
     0
100
AcDbLine
 10
221.3837467644
 20
107.7303630278
 30
0.0
 11
221.5533216519
 21
107.7303630278
 31
0.0
  0
SPLINE
  5
10B
330
1F
100
AcDbEntity
  8
0
  6
Continuous
 62
     7
370
     0
100
AcDbSpline
210
0.0
220
0.0
230
1.0
 70
     8
 71
     3
 72
    23
 73
    19
 74
     0
 42
0.00000001
 43
0.00000001
 40
0.0
 40
0.0
 40
0.0
 40
0.0
 40
0.0635999003471699
 40
0.1252966507935535
 40
0.1855687201945878
 40
0.2446982110006626
 40
0.3037168061899893
 40
0.3629196509481437
 40
0.4233003138688771
 40
0.4851773095450755
 40
0.5470834132243567
 40
0.608524799634247
 40
0.6699648532447271
 40
0.7322993779782991
 40
0.7956502934901155
 40
0.8610554709467161
 40
0.929122115173219
 40
1.0
 40
1.0
 40
1.0
 40
1.0
 10
219.4196415136693
 20
106.2737476710604
 30
0.0
 10
219.4191180280193
 20
106.2521754051602
 30
0.0
 10
219.4180867213927
 20
106.2096763972597
 30
0.0
 10
219.4090253369688
 20
106.1472928411208
 30
0.0
 10
219.3953150612074
 20
106.087364923024
 30
0.0
 10
219.3753238963572
 20
106.0301458006787
 30
0.0
 10
219.3497902120106
 20
105.9755950253089
 30
0.0
 10
219.3182047357783
 20
105.9237918106014
 30
0.0
 10
219.2808778055064
 20
105.8747894455714
 30
0.0
 10
219.2389105009401
 20
105.828435615372
 30
0.0
 10
219.1919910794984
 20
105.7865337604789
 30
0.0
 10
219.1412329566406
 20
105.7496089807872
 30
0.0
 10
219.086445681375
 20
105.718679769862
 30
0.0
 10
219.0282940107055
 20
105.693070494412
 30
0.0
 10
218.9664994944063
 20
105.6732234008799
 30
0.0
 10
218.9011415650349
 20
105.6593262272882
 30
0.0
 10
218.8322419715535
 20
105.6510510719937
 30
0.0
 10
218.7851305635927
 20
105.6499354479065
 30
0.0
 10
218.7610982611319
 20
105.6493663497484
 30
0.0
  0
SPLINE
  5
10C
330
1F
100
AcDbEntity
  8
0
  6
Continuous
 62
     7
370
     0
100
AcDbSpline
210
0.0
220
0.0
230
1.0
 70
     8
 71
     3
 72
    23
 73
    19
 74
     0
 42
0.00000001
 43
0.00000001
 40
0.0
 40
0.0
 40
0.0
 40
0.0
 40
0.0690130029109932
 40
0.1352355440560497
 40
0.1996111851157138
 40
0.2624185195032886
 40
0.3237234972102992
 40
0.3837653656042444
 40
0.4437730350956272
 40
0.5037949564977896
 40
0.5638225777168209
 40
0.6234843128834681
 40
0.6834691722744386
 40
0.7435907624559172
 40
0.8057272199738402
 40
0.8686162107352969
 40
0.933278202847215
 40
1.0
 40
1.0
 40
1.0
 40
1.0
 10
219.0360400690663
 20
106.8026402207545
 30
0.0
 10
219.0513790558971
 20
106.797433361549
 30
0.0
 10
219.0814368151865
 20
106.787230176529
 30
0.0
 10
219.1239295189282
 20
106.7673920404075
 30
0.0
 10
219.163935122293
 20
106.7460018207758
 30
0.0
 10
219.2016792212925
 20
106.7228468950454
 30
0.0
 10
219.235768588236
 20
106.6962052865506
 30
0.0
 10
219.2673405445477
 20
106.6676522032082
 30
0.0
 10
219.2962623477713
 20
106.6367852759279
 30
0.0
 10
219.3221389567815
 20
106.6033419782416
 30
0.0
 10
219.3452414979857
 20
106.568024227834
 30
0.0
 10
219.3650191070949
 20
106.5307459184317
 30
0.0
 10
219.3818158507028
 20
106.4920376580086
 30
0.0
 10
219.3961709262117
 20
106.4517199490143
 30
0.0
 10
219.4066561741535
 20
106.4095087983326
 30
0.0
 10
219.4139925616465
 20
106.3655981885048
 30
0.0
 10
219.4186472926728
 20
106.3202195438352
 30
0.0
 10
219.4193066608625
 20
106.2893993592569
 30
0.0
 10
219.4196415136693
 20
106.2737476710604
 30
0.0
  0
SPLINE
  5
10D
330
1F
100
AcDbEntity
  8
0
  6
Continuous
 62
     7
370
     0
100
AcDbSpline
210
0.0
220
0.0
230
1.0
 70
     8
 71
     3
 72
    15
 73
    11
 74
     0
 42
0.00000001
 43
0.00000001
 40
0.0
 40
0.0
 40
0.0
 40
0.0
 40
0.1248350921668871
 40
0.2447781332833286
 40
0.3609889778410595
 40
0.4779641722472781
 40
0.5969221175582977
 40
0.7215907566966706
 40
0.8550978657574203
 40
1.0
 40
1.0
 40
1.0
 40
1.0
 10
219.3406163233648
 20
107.2055863734009
 30
0.0
 10
219.3398635001323
 20
107.1829995713519
 30
0.0
 10
219.3383873553853
 20
107.1387111012879
 30
0.0
 10
219.3233447802596
 20
107.0748689035612
 30
0.0
 10
219.2998996401917
 20
107.015269012199
 30
0.0
 10
219.2660143381094
 20
106.9610472975343
 30
0.0
 10
219.2230998632798
 20
106.9116437707425
 30
0.0
 10
219.1698464225742
 20
106.868696743141
 30
0.0
 10
219.1070627658571
 20
106.8312373302699
 30
0.0
 10
219.0603515827428
 20
106.8124291903446
 30
0.0
 10
219.0360400690663
 20
106.8026402207545
 30
0.0
  0
SPLINE
  5
10E
330
1F
100
AcDbEntity
  8
0
  6
Continuous
 62
     7
370
     0
100
AcDbSpline
210
0.0
220
0.0
230
1.0
 70
     8
 71
     3
 72
    23
 73
    19
 74
     0
 42
0.00000001
 43
0.00000001
 40
0.0
 40
0.0
 40
0.0
 40
0.0
 40
0.0732007449685411
 40
0.1425867913224127
 40
0.2096247814680876
 40
0.2748829267682081
 40
0.3379306095315751
 40
0.4004618221882001
 40
0.4625006206857346
 40
0.5250054581372535
 40
0.5866888527108448
 40
0.6468127657705338
 40
0.7052153157505646
 40
0.7628810210075594
 40
0.8207275416930107
 40
0.8792954957245834
 40
0.9385111654136072
 40
1.0
 40
1.0
 40
1.0
 40
1.0
 10
218.7578055448692
 20
107.7303630277666
 30
0.0
 10
218.7792275113439
 20
107.729880310345
 30
0.0
 10
218.8209550848098
 20
107.7289400312769
 30
0.0
 10
218.8819779584348
 20
107.7218602267451
 30
0.0
 10
218.9398639342498
 20
107.7099940332944
 30
0.0
 10
218.9945789320329
 20
107.6931588920956
 30
0.0
 10
219.0462092118205
 20
107.6716341503916
 30
0.0
 10
219.0944155114626
 20
107.6451774173028
 30
0.0
 10
219.1396940855489
 20
107.6142250485459
 30
0.0
 10
219.1808876293207
 20
107.5784079261156
 30
0.0
 10
219.2183688440342
 20
107.5395221787418
 30
0.0
 10
219.2508427762532
 20
107.497862381365
 30
0.0
 10
219.2786946343304
 20
107.4544006371796
 30
0.0
 10
219.3017100103659
 20
107.4088729060832
 30
0.0
 10
219.3187368725789
 20
107.3607607491239
 30
0.0
 10
219.3317151636244
 20
107.3109706216141
 30
0.0
 10
219.3392431740457
 20
107.2589109197951
 30
0.0
 10
219.3401528961513
 20
107.223582992998
 30
0.0
 10
219.3406163233648
 20
107.2055863734009
 30
0.0
  0
SPLINE
  5
10F
330
1F
100
AcDbEntity
  8
0
  6
Continuous
 62
     7
370
     0
100
AcDbSpline
210
0.0
220
0.0
230
1.0
 70
     8
 71
     3
 72
    23
 73
    19
 74
     0
 42
0.00000001
 43
0.00000001
 40
0.0
 40
0.0
 40
0.0
 40
0.0
 40
0.0621313717366117
 40
0.1219658247853498
 40
0.1805702366487599
 40
0.2385759705888211
 40
0.2960002420906481
 40
0.3543589964435931
 40
0.4137812280524368
 40
0.4750979653520683
 40
0.5372798973856026
 40
0.5989179536770425
 40
0.6612351129787322
 40
0.7243219805737479
 40
0.7892171825086325
 40
0.8563966620881328
 40
0.9265077687361053
 40
1.0
 40
1.0
 40
1.0
 40
1.0
 10
218.181580198899
 20
107.2121718059262
 30
0.0
 10
218.1820322012165
 20
107.2301717340096
 30
0.0
 10
218.1829194958943
 20
107.2655061554685
 30
0.0
 10
218.1905859238362
 20
107.3173534369632
 30
0.0
 10
218.202864812711
 20
107.3670361038811
 30
0.0
 10
218.2202914289591
 20
107.4144139319603
 30
0.0
 10
218.2421241229804
 20
107.4598768841328
 30
0.0
 10
218.2696733009539
 20
107.5025920589182
 30
0.0
 10
218.3013393699138
 20
107.5437666736064
 30
0.0
 10
218.3384346649488
 20
107.5817363249504
 30
0.0
 10
218.3793130387852
 20
107.6165128506739
 30
0.0
 10
218.4235906970745
 20
107.6474605429834
 30
0.0
 10
218.4716064530579
 20
107.6727682316605
 30
0.0
 10
218.5225597473079
 20
107.6939275919893
 30
0.0
 10
218.5767025187016
 20
107.7104931338529
 30
0.0
 10
218.6342254872372
 20
107.7217751907322
 30
0.0
 10
218.6949258718672
 20
107.7289514158897
 30
0.0
 10
218.736519216974
 20
107.729885162157
 30
0.0
 10
218.7578055448692
 20
107.7303630277666
 30
0.0
  0
SPLINE
  5
110
330
1F
100
AcDbEntity
  8
0
  6
Continuous
 62
     7
370
     0
100
AcDbSpline
210
0.0
220
0.0
230
1.0
 70
     8
 71
     3
 72
    15
 73
    11
 74
     0
 42
0.00000001
 43
0.00000001
 40
0.0
 40
0.0
 40
0.0
 40
0.0
 40
0.1453591950554982
 40
0.2787017789350159
 40
0.403602234418053
 40
0.5216687911804246
 40
0.6375206936077399
 40
0.7537041507630957
 40
0.8732127703640605
 40
1.0
 40
1.0
 40
1.0
 40
1.0
 10
218.4927418857229
 20
106.8026402207545
 30
0.0
 10
218.4677482353081
 20
106.8124178783448
 30
0.0
 10
218.4198271194128
 20
106.8311648902774
 30
0.0
 10
218.3551938887231
 20
106.8686829380822
 30
0.0
 10
218.300492190213
 20
106.91184251124
 30
0.0
 10
218.2563936884309
 20
106.9616843746254
 30
0.0
 10
218.2227826127683
 20
107.0171781606297
 30
0.0
 10
218.1985813094548
 20
107.0776163255128
 30
0.0
 10
218.184406181646
 20
107.1433355768119
 30
0.0
 10
218.1825405708477
 20
107.1887787460899
 30
0.0
 10
218.181580198899
 20
107.2121718059262
 30
0.0
  0
SPLINE
  5
111
330
1F
100
AcDbEntity
  8
0
  6
Continuous
 62
     7
370
     0
100
AcDbSpline
210
0.0
220
0.0
230
1.0
 70
     8
 71
     3
 72
    23
 73
    19
 74
     0
 42
0.00000001
 43
0.00000001
 40
0.0
 40
0.0
 40
0.0
 40
0.0
 40
0.0698340680322546
 40
0.1370265239564768
 40
0.2014822968650625
 40
0.2645399492437558
 40
0.3259725932884497
 40
0.3863863095292154
 40
0.4457607667910175
 40
0.5056119070745058
 40
0.5651144217391012
 40
0.6247503916637627
 40
0.684178951264583
 40
0.7442191416569949
 40
0.8051791454666242
 40
0.8683948608225701
 40
0.9332039334133251
 40
1.0
 40
1.0
 40
1.0
 40
1.0
 10
218.1025550085945
 20
106.2807446931187
 30
0.0
 10
218.1029123197006
 20
106.2972152412338
 30
0.0
 10
218.1036134259117
 20
106.3295333063196
 30
0.0
 10
218.1078962462052
 20
106.3769351135842
 30
0.0
 10
218.1164318247818
 20
106.4221140183131
 30
0.0
 10
218.1274261936434
 20
106.4653362595155
 30
0.0
 10
218.1413856020269
 20
106.5067099675608
 30
0.0
 10
218.1586071892969
 20
106.5459102345059
 30
0.0
 10
218.179501411522
 20
106.5828423175219
 30
0.0
 10
218.2032386180471
 20
106.6177465321269
 30
0.0
 10
218.2301183452293
 20
106.6503778378187
 30
0.0
 10
218.259704934893
 20
106.6804504752822
 30
0.0
 10
218.2921058590321
 20
106.7076223884582
 30
0.0
 10
218.3265930113313
 20
106.732687187084
 30
0.0
 10
218.3646119696151
 20
106.7538718594735
 30
0.0
 10
218.4047488208826
 20
106.7733127435817
 30
0.0
 10
218.4476936239529
 20
106.7898922129942
 30
0.0
 10
218.4775754119043
 20
106.7983483276084
 30
0.0
 10
218.4927418857229
 20
106.8026402207545
 30
0.0
  0
SPLINE
  5
112
330
1F
100
AcDbEntity
  8
0
  6
Continuous
 62
     7
370
     0
100
AcDbSpline
210
0.0
220
0.0
230
1.0
 70
     8
 71
     3
 72
    23
 73
    19
 74
     0
 42
0.00000001
 43
0.00000001
 40
0.0
 40
0.0
 40
0.0
 40
0.0
 40
0.0704416310595481
 40
0.1380893247200285
 40
0.2031777335235316
 40
0.266138723805254
 40
0.3279287813674601
 40
0.3891903607612971
 40
0.4502535751031185
 40
0.5123465781279283
 40
0.5738427205586506
 40
0.633932556807092
 40
0.6934598075975582
 40
0.7524794354833054
 40
0.8123859308429279
 40
0.8730704652319969
 40
0.935184306583771
 40
1.0
 40
1.0
 40
1.0
 40
1.0
 10
218.7610982611319
 20
105.6493663497484
 30
0.0
 10
218.7370683624855
 20
105.6499477126251
 30
0.0
 10
218.6899616668104
 20
105.6510873796919
 30
0.0
 10
218.6209991231037
 20
105.6591933621372
 30
0.0
 10
218.5557347046924
 20
105.6737205317561
 30
0.0
 10
218.49402053613
 20
105.6935877995551
 30
0.0
 10
218.4355218390218
 20
105.7185037008722
 30
0.0
 10
218.3811025126309
 20
105.7501298255288
 30
0.0
 10
218.3300128385562
 20
105.7870078241126
 30
0.0
 10
218.2830607927675
 20
105.8291688539358
 30
0.0
 10
218.2407448871796
 20
105.875517739638
 30
0.0
 10
218.2039100082736
 20
105.9252437937905
 30
0.0
 10
218.1725120383137
 20
105.9775817479397
 30
0.0
 10
218.1466721903927
 20
106.0328266438009
 30
0.0
 10
218.1269763340299
 20
106.090978984726
 30
0.0
 10
218.1131535484189
 20
106.1518204461211
 30
0.0
 10
218.1040757627582
 20
106.2153045358883
 30
0.0
 10
218.1030690695522
 20
106.2586239383634
 30
0.0
 10
218.1025550085945
 20
106.2807446931187
 30
0.0
  0
SPLINE
  5
113
330
1F
100
AcDbEntity
  8
0
  6
Continuous
 62
     7
370
     0
100
AcDbSpline
210
0.0
220
0.0
230
1.0
 70
     8
 71
     3
 72
    15
 73
    11
 74
     0
 42
0.00000001
 43
0.00000001
 40
0.0
 40
0.0
 40
0.0
 40
0.0
 40
0.1324616222426389
 40
0.26164950103549
 40
0.3875466984163659
 40
0.510781629293347
 40
0.6326753605997105
 40
0.7546603541381371
 40
0.8765227798028643
 40
1.0
 40
1.0
 40
1.0
 40
1.0
 10
216.2586339014898
 20
106.3803493600649
 30
0.0
 10
216.2581674958306
 20
106.357555307478
 30
0.0
 10
216.2572462115676
 20
106.3125305494765
 30
0.0
 10
216.2496960964885
 20
106.2461782451471
 30
0.0
 10
216.2372590762497
 20
106.1822425772969
 30
0.0
 10
216.2206093379921
 20
106.1205342127499
 30
0.0
 10
216.1981133072243
 20
106.0614036072806
 30
0.0
 10
216.1708277275318
 20
106.0046597642382
 30
0.0
 10
216.1393522808969
 20
105.9497105808356
 30
0.0
 10
216.1141106061008
 20
105.9158375806448
 30
0.0
 10
216.1014066999465
 20
105.898789606647
 30
0.0
  0
SPLINE
  5
114
330
1F
100
AcDbEntity
  8
0
  6
Continuous
 62
     7
370
     0
100
AcDbSpline
210
0.0
220
0.0
230
1.0
 70
     8
 71
     3
 72
    23
 73
    19
 74
     0
 42
0.00000001
 43
0.00000001
 40
0.0
 40
0.0
 40
0.0
 40
0.0
 40
0.0619974190757221
 40
0.1220879540822937
 40
0.1813753107870036
 40
0.2395080083953663
 40
0.2978356978967516
 40
0.3568799706531185
 40
0.4172818251154289
 40
0.4796404090798165
 40
0.5425000674783568
 40
0.6049624196481908
 40
0.6669910330782646
 40
0.7302162430101637
 40
0.794172863251256
 40
0.8604581431502615
 40
0.9285781799847829
 40
1.0
 40
1.0
 40
1.0
 40
1.0
 10
215.6556552358853
 20
107.0454780451277
 30
0.0
 10
215.6764004559543
 20
107.0449345039052
 30
0.0
 10
215.717252825504
 20
107.0438641394157
 30
0.0
 10
215.7774502065823
 20
107.0350697474111
 30
0.0
 10
215.8350090291829
 20
107.0201406839768
 30
0.0
 10
215.8903807798959
 20
107.0000334120577
 30
0.0
 10
215.942835317568
 20
106.9733777882762
 30
0.0
 10
215.9929039689365
 20
106.941103487874
 30
0.0
 10
216.0403845895331
 20
106.9029444828239
 30
0.0
 10
216.0850087577491
 20
106.8596207548018
 30
0.0
 10
216.1254846529985
 20
106.811526862142
 30
0.0
 10
216.1617119002876
 20
106.7602313213502
 30
0.0
 10
216.1913003370405
 20
106.7047073368507
 30
0.0
 10
216.2161862431019
 20
106.6464046493666
 30
0.0
 10
216.2349557263095
 20
106.584366199108
 30
0.0
 10
216.2492024191674
 20
106.5194724383889
 30
0.0
 10
216.2568196528716
 20
106.4509120470527
 30
0.0
 10
216.2580196870421
 20
106.4042383802258
 30
0.0
 10
216.2586339014898
 20
106.3803493600649
 30
0.0
  0
SPLINE
  5
115
330
1F
100
AcDbEntity
  8
0
  6
Continuous
 62
     7
370
     0
100
AcDbSpline
210
0.0
220
0.0
230
1.0
 70
     8
 71
     3
 72
    15
 73
    11
 74
     0
 42
0.00000001
 43
0.00000001
 40
0.0
 40
0.0
 40
0.0
 40
0.0
 40
0.1367294018595733
 40
0.2685149167908308
 40
0.3955294046848096
 40
0.5199999535658124
 40
0.640496476841269
 40
0.7612361017625323
 40
0.8801067171759528
 40
1.0
 40
1.0
 40
1.0
 40
1.0
 10
215.2893405516613
 20
106.9084187306934
 30
0.0
 10
215.3038752128817
 20
106.9193257441967
 30
0.0
 10
215.3324189883615
 20
106.9407453933977
 30
0.0
 10
215.3769421618098
 20
106.9687916006334
 30
0.0
 10
215.4221019699248
 20
106.9924326831876
 30
0.0
 10
215.4676355259627
 20
107.0117927418111
 30
0.0
 10
215.5139045225628
 20
107.0268741934224
 30
0.0
 10
215.5606297511815
 20
107.0373520895909
 30
0.0
 10
215.6079703033697
 20
107.0444336683589
 30
0.0
 10
215.6397149357814
 20
107.0451289269002
 30
0.0
 10
215.6556552358853
 20
107.0454780451277
 30
0.0
  0
LINE
  5
116
330
1F
100
AcDbEntity
  8
0
  6
Continuous
 62
     7
370
     0
100
AcDbLine
 10
215.393884293
 20
107.4406039967
 30
0.0
 11
215.2893405517
 21
106.9084187307
 31
0.0
  0
LINE
  5
117
330
1F
100
AcDbEntity
  8
0
  6
Continuous
 62
     7
370
     0
100
AcDbLine
 10
216.1532669811
 20
107.4406039967
 30
0.0
 11
215.393884293
 21
107.4406039967
 31
0.0
  0
LINE
  5
118
330
1F
100
AcDbEntity
  8
0
  6
Continuous
 62
     7
370
     0
100
AcDbLine
 10
216.1532669811
 20
107.7040212977
 30
0.0
 11
216.1532669811
 21
107.4406039967
 31
0.0
  0
LINE
  5
119
330
1F
100
AcDbEntity
  8
0
  6
Continuous
 62
     7
370
     0
100
AcDbLine
 10
215.1786229673
 20
107.7040212977
 30
0.0
 11
216.1532669811
 21
107.7040212977
 31
0.0
  0
LINE
  5
11A
330
1F
100
AcDbEntity
  8
0
  6
Continuous
 62
     7
370
     0
100
AcDbLine
 10
214.9678891265
 20
106.6503520936
 30
0.0
 11
215.1786229673
 21
107.7040212977
 31
0.0
  0
LINE
  5
11B
330
1F
100
AcDbEntity
  8
0
  6
Continuous
 62
     7
370
     0
100
AcDbLine
 10
215.2313064275
 20
106.6240103635
 30
0.0
 11
214.9678891265
 21
106.6503520936
 31
0.0
  0
SPLINE
  5
11C
330
1F
100
AcDbEntity
  8
0
  6
Continuous
 62
     7
370
     0
100
AcDbSpline
210
0.0
220
0.0
230
1.0
 70
     8
 71
     3
 72
    15
 73
    11
 74
     0
 42
0.00000001
 43
0.00000001
 40
0.0
 40
0.0
 40
0.0
 40
0.0
 40
0.1478596367312514
 40
0.283561321939547
 40
0.4123693961385312
 40
0.5342363558879457
 40
0.6526916293119823
 40
0.7686630594981229
 40
0.8836524018604046
 40
1.0
 40
1.0
 40
1.0
 40
1.0
 10
215.5828038885733
 20
106.8084024742142
 30
0.0
 10
215.5623191197079
 20
106.8078032546853
 30
0.0
 10
215.5230339688206
 20
106.8066540872347
 30
0.0
 10
215.46658524689
 20
106.7969865535262
 30
0.0
 10
215.4151979315901
 20
106.7813698843462
 30
0.0
 10
215.3694538283084
 20
106.7580951388626
 30
0.0
 10
215.3285837324326
 20
106.7302896323732
 30
0.0
 10
215.2917385897111
 20
106.6988264403682
 30
0.0
 10
215.2586145745212
 20
106.6637268347421
 30
0.0
 10
215.2404447036375
 20
106.6373009057097
 30
0.0
 10
215.2313064275315
 20
106.6240103635038
 30
0.0
  0
SPLINE
  5
11D
330
1F
100
AcDbEntity
  8
0
  6
Continuous
 62
     7
370
     0
100
AcDbSpline
210
0.0
220
0.0
230
1.0
 70
     8
 71
     3
 72
    23
 73
    19
 74
     0
 42
0.00000001
 43
0.00000001
 40
0.0
 40
0.0
 40
0.0
 40
0.0
 40
0.0728659334565351
 40
0.1418868719641256
 40
0.2074526264147115
 40
0.2704376800000974
 40
0.3316408722476697
 40
0.3901075774931577
 40
0.4480692869488358
 40
0.505502951924537
 40
0.5624881528337238
 40
0.6190843288847293
 40
0.6764155306922391
 40
0.7354523604507931
 40
0.7962407694486783
 40
0.8604056780892032
 40
0.9283049272851064
 40
1.0
 40
1.0
 40
1.0
 40
1.0
 10
215.9952166004749
 20
106.3647089578172
 30
0.0
 10
215.9949142098849
 20
106.3814585661712
 30
0.0
 10
215.9943253852739
 20
106.4140739383106
 30
0.0
 10
215.9893665213977
 20
106.4615673430113
 30
0.0
 10
215.9810003342373
 20
106.5062255162744
 30
0.0
 10
215.9701752714014
 20
106.548540669117
 30
0.0
 10
215.9552542876453
 20
106.5878515751613
 30
0.0
 10
215.9375571607401
 20
106.6247282041099
 30
0.0
 10
215.915877436498
 20
106.6583879253293
 30
0.0
 10
215.8917573126872
 20
106.6898787806404
 30
0.0
 10
215.8642090861382
 20
106.7181090635255
 30
0.0
 10
215.8328605849394
 20
106.7419459617933
 30
0.0
 10
215.7989415922835
 20
106.7628080616862
 30
0.0
 10
215.7617689449106
 20
106.7797259232467
 30
0.0
 10
215.7213207537626
 20
106.7922952586618
 30
0.0
 10
215.6779989624031
 20
106.8019662312597
 30
0.0
 10
215.6313540430762
 20
106.8070527668418
 30
0.0
 10
215.5992780086472
 20
106.8079444892388
 30
0.0
 10
215.5828038885733
 20
106.8084024742142
 30
0.0
  0
SPLINE
  5
11E
330
1F
100
AcDbEntity
  8
0
  6
Continuous
 62
     7
370
     0
100
AcDbSpline
210
0.0
220
0.0
230
1.0
 70
     8
 71
     3
 72
    23
 73
    19
 74
     0
 42
0.00000001
 43
0.00000001
 40
0.0
 40
0.0
 40
0.0
 40
0.0
 40
0.0658010376094729
 40
0.1286767959489733
 40
0.1886758749524341
 40
0.2475984367338953
 40
0.304849420118827
 40
0.3617858992828986
 40
0.4195227063685896
 40
0.4786818154207406
 40
0.5387695030440189
 40
0.5987990560131542
 40
0.6601842815006784
 40
0.722951530610966
 40
0.7879926891048736
 40
0.8554037684344737
 40
0.9261530612840035
 40
1.0
 40
1.0
 40
1.0
 40
1.0
 10
215.5815691199748
 20
105.8864419206619
 30
0.0
 10
215.5972303990672
 20
105.8868203426269
 30
0.0
 10
215.627856712683
 20
105.8875603632671
 30
0.0
 10
215.6724121974669
 20
105.8938191605247
 30
0.0
 10
215.7144984613364
 20
105.9041391921065
 30
0.0
 10
215.7539141279206
 20
105.9185813096666
 30
0.0
 10
215.7911212694915
 20
105.9365417917165
 30
0.0
 10
215.8248855618069
 20
105.9597973442708
 30
0.0
 10
215.8570480201686
 20
105.9859388832484
 30
0.0
 10
215.8855389830949
 20
106.0171046148406
 30
0.0
 10
215.9114737641194
 20
106.0510337195325
 30
0.0
 10
215.9338574299128
 20
106.0880687805795
 30
0.0
 10
215.9527013140091
 20
106.1276899815914
 30
0.0
 10
215.9685658047767
 20
106.1698897264531
 30
0.0
 10
215.9802805734915
 20
106.214909087663
 30
0.0
 10
215.988897732139
 20
106.2625085708044
 30
0.0
 10
215.9944296040024
 20
106.3127184967933
 30
0.0
 10
215.9949505483012
 20
106.3471330529075
 30
0.0
 10
215.9952166004749
 20
106.3647089578172
 30
0.0
  0
SPLINE
  5
11F
330
1F
100
AcDbEntity
  8
0
  6
Continuous
 62
     7
370
     0
100
AcDbSpline
210
0.0
220
0.0
230
1.0
 70
     8
 71
     3
 72
    23
 73
    19
 74
     0
 42
0.00000001
 43
0.00000001
 40
0.0
 40
0.0
 40
0.0
 40
0.0
 40
0.0773613371189766
 40
0.1504798322806811
 40
0.2199772368520748
 40
0.2866809968624414
 40
0.3496784941856628
 40
0.4106796250174856
 40
0.4694271135192909
 40
0.5267557014271298
 40
0.5831419808348374
 40
0.6388244277786261
 40
0.695263470403813
 40
0.7526958048985354
 40
0.810849183334895
 40
0.8713563036360845
 40
0.9344364309841281
 40
1.0
 40
1.0
 40
1.0
 40
1.0
 10
215.20496469743
 20
106.2552261420828
 30
0.0
 10
215.2075729422601
 20
106.2403840228626
 30
0.0
 10
215.2126463841006
 20
106.2115137926659
 30
0.0
 10
215.2223143882517
 20
106.1697232781418
 30
0.0
 10
215.2348703735821
 20
106.1308987220517
 30
0.0
 10
215.2489784054343
 20
106.0947038815648
 30
0.0
 10
215.2657481813692
 20
106.0615214717987
 30
0.0
 10
215.2839183725313
 20
106.0308275598615
 30
0.0
 10
215.3053463995676
 20
106.0037116839431
 30
0.0
 10
215.3278750929338
 20
105.9787556581586
 30
0.0
 10
215.3526020553267
 20
105.9567649859172
 30
0.0
 10
215.3797658834199
 20
105.9382260905797
 30
0.0
 10
215.4086086886017
 20
105.9220520270014
 30
0.0
 10
215.4394817653666
 20
105.9088094223094
 30
0.0
 10
215.4724324303006
 20
105.8991165330949
 30
0.0
 10
215.5070413094989
 20
105.8914511217225
 30
0.0
 10
215.5437540548962
 20
105.8875885570846
 30
0.0
 10
215.5688029105116
 20
105.8868290203726
 30
0.0
 10
215.5815691199748
 20
105.8864419206619
 30
0.0
  0
LINE
  5
120
330
1F
100
AcDbEntity
  8
0
  6
Continuous
 62
     7
370
     0
100
AcDbLine
 10
214.9415473964
 20
106.228884412
 30
0.0
 11
215.2049646974
 21
106.2552261421
 31
0.0
  0
SPLINE
  5
121
330
1F
100
AcDbEntity
  8
0
  6
Continuous
 62
     7
370
     0
100
AcDbSpline
210
0.0
220
0.0
230
1.0
 70
     8
 71
     3
 72
    23
 73
    19
 74
     0
 42
0.00000001
 43
0.00000001
 40
0.0
 40
0.0
 40
0.0
 40
0.0
 40
0.0692980234597528
 40
0.135560844101282
 40
0.1996709556470567
 40
0.2617162384956084
 40
0.3226619299471026
 40
0.3829069237782244
 40
0.4430320330728902
 40
0.503500787350163
 40
0.5637242810171083
 40
0.6239800220534739
 40
0.6836293869955233
 40
0.7438482724857305
 40
0.8051918462295105
 40
0.8676487429597676
 40
0.9327780842312613
 40
1.0
 40
1.0
 40
1.0
 40
1.0
 10
215.5799227618434
 20
105.6493663497484
 30
0.0
 10
215.5578117489414
 20
105.6498148680408
 30
0.0
 10
215.5145581693545
 20
105.6506922598519
 30
0.0
 10
215.4512272330392
 20
105.6583198886836
 30
0.0
 10
215.3909920236355
 20
105.6704832670758
 30
0.0
 10
215.3338336704376
 20
105.6879293170454
 30
0.0
 10
215.2795799706652
 20
105.7099740338552
 30
0.0
 10
215.2288615529299
 20
105.7379783832426
 30
0.0
 10
215.1807982537439
 20
105.7700136147048
 30
0.0
 10
215.1364473055103
 20
105.807066727818
 30
0.0
 10
215.0960378171017
 20
105.8483951938852
 30
0.0
 10
215.059830094808
 20
105.893123351782
 30
0.0
 10
215.0283141277604
 20
105.9412803675313
 30
0.0
 10
215.0015051270943
 20
105.9925780802275
 30
0.0
 10
214.979161063004
 20
106.0469672939387
 30
0.0
 10
214.9620669705517
 20
106.1048192358152
 30
0.0
 10
214.9485270267899
 20
106.1655662892034
 30
0.0
 10
214.9438983342618
 20
106.2075570689517
 30
0.0
 10
214.941547396415
 20
106.2288844119813
 30
0.0
  0
SPLINE
  5
122
330
1F
100
AcDbEntity
  8
0
  6
Continuous
 62
     7
370
     0
100
AcDbSpline
210
0.0
220
0.0
230
1.0
 70
     8
 71
     3
 72
    15
 73
    11
 74
     0
 42
0.00000001
 43
0.00000001
 40
0.0
 40
0.0
 40
0.0
 40
0.0
 40
0.1278926194654212
 40
0.2515785135038573
 40
0.3727928197023035
 40
0.4927776986078535
 40
0.6135900692425712
 40
0.7378086492801463
 40
0.8661799015391671
 40
0.9999999999999999
 40
0.9999999999999999
 40
0.9999999999999999
 40
0.9999999999999999
 10
216.1014066999465
 20
105.898789606647
 30
0.0
 10
216.0852667433577
 20
105.8788892557219
 30
0.0
 10
216.0535177159033
 20
105.8397431288785
 30
0.0
 10
215.9985446214348
 20
105.7889337992313
 30
0.0
 10
215.9394477654751
 20
105.7457528616335
 30
0.0
 10
215.8758754554565
 20
105.7106714792136
 30
0.0
 10
215.8082544728703
 20
105.6824806177732
 30
0.0
 10
215.7357541124819
 20
105.6637206580402
 30
0.0
 10
215.659250416421
 20
105.6511226019881
 30
0.0
 10
215.6067291447604
 20
105.6499598221041
 30
0.0
 10
215.5799227618434
 20
105.6493663497484
 30
0.0
  0
SPLINE
  5
123
330
1F
100
AcDbEntity
  8
0
  6
Continuous
 62
     7
370
     0
100
AcDbSpline
210
0.0
220
0.0
230
1.0
 70
     8
 71
     3
 72
    27
 73
    23
 74
     0
 42
0.00000001
 43
0.00000001
 40
0.0
 40
0.0
 40
0.0
 40
0.0
 40
0.0467628351215619
 40
0.091968696607212
 40
0.1358043853805056
 40
0.1782315801839235
 40
0.2194414332265379
 40
0.2601769432685921
 40
0.3002796061140319
 40
0.3405476414666171
 40
0.3803111902076692
 40
0.4196419535698123
 40
0.4590173240985177
 40
0.4981819588897615
 40
0.5376702145628715
 40
0.5779133315743612
 40
0.6186488416164155
 40
0.6607616027603175
 40
0.7452991770631804
 40
0.8297447416906314
 40
0.9146020866092538
 40
1.0
 40
1.0
 40
1.0
 40
1.0
 10
211.4751403508713
 20
107.5196291869546
 30
0.0
 10
211.4570147731758
 20
107.5193662028252
 30
0.0
 10
211.4213671108477
 20
107.5188489906514
 30
0.0
 10
211.3689964065315
 20
107.5131881607863
 30
0.0
 10
211.3187023150568
 20
107.5048503107827
 30
0.0
 10
211.2708596765674
 20
107.4923469879398
 30
0.0
 10
211.2252066927286
 20
107.4767585957727
 30
0.0
 10
211.1820142763626
 20
107.4573482893554
 30
0.0
 10
211.1409150135213
 20
107.4345971334093
 30
0.0
 10
211.1023675929164
 20
107.4083685044753
 30
0.0
 10
211.0666959707631
 20
107.3788824778058
 30
0.0
 10
211.0329321224837
 20
107.3477111341326
 30
0.0
 10
211.0026970873913
 20
107.313400713174
 30
0.0
 10
210.9748379130542
 20
107.2770825654046
 30
0.0
 10
210.9501658576673
 20
107.2381149228526
 30
0.0
 10
210.9279568748384
 20
107.1970285719829
 30
0.0
 10
210.9083525298991
 20
107.1534867779036
 30
0.0
 10
210.8869824626952
 20
107.0922050006854
 30
0.0
 10
210.8651928149433
 20
107.0132754888986
 30
0.0
 10
210.8462902686476
 20
106.9166913489548
 30
0.0
 10
210.8342497923126
 20
106.8185855324865
 30
0.0
 10
210.8329096827956
 20
106.7525977723265
 30
0.0
 10
210.8322375005817
 20
106.7194991351217
 30
0.0
  0
SPLINE
  5
124
330
1F
100
AcDbEntity
  8
0
  6
Continuous
 62
     7
370
     0
100
AcDbSpline
210
0.0
220
0.0
230
1.0
 70
     8
 71
     3
 72
    23
 73
    19
 74
     0
 42
0.00000001
 43
0.00000001
 40
0.0
 40
0.0
 40
0.0
 40
0.0
 40
0.0772311103286299
 40
0.1511651795217243
 40
0.2207847057253997
 40
0.2871495176777684
 40
0.3506324812950841
 40
0.4113067715078916
 40
0.4699644151376497
 40
0.5267072266832779
 40
0.5824983333641278
 40
0.6385087274080254
 40
0.6949179812139084
 40
0.7524203526591543
 40
0.8112509754155086
 40
0.8718561089908092
 40
0.9346441878526878
 40
1.0
 40
1.0
 40
1.0
 40
1.0
 10
211.9912736250475
 20
107.097338326265
 30
0.0
 10
211.9855832099716
 20
107.1151099798371
 30
0.0
 10
211.9744453069576
 20
107.1498946047271
 30
0.0
 10
211.9546688706501
 20
107.1994688770737
 30
0.0
 10
211.9333109788183
 20
107.2454899986142
 30
0.0
 10
211.9098628689257
 20
107.287645138457
 30
0.0
 10
211.8842737240119
 20
107.3259443940059
 30
0.0
 10
211.8571327941054
 20
107.3608532357796
 30
0.0
 10
211.827789809723
 20
107.3917200849024
 30
0.0
 10
211.7968416316884
 20
107.419256654161
 30
0.0
 10
211.7634890871849
 20
107.442715176021
 30
0.0
 10
211.7285141046933
 20
107.463503286897
 30
0.0
 10
211.6911792371261
 20
107.4807022786339
 30
0.0
 10
211.652021574053
 20
107.4952490726524
 30
0.0
 10
211.6106751129535
 20
107.506320750355
 30
0.0
 10
211.567308222128
 20
107.5141101123713
 30
0.0
 10
211.5218827984022
 20
107.5186182134851
 30
0.0
 10
211.4909279235151
 20
107.519287723939
 30
0.0
 10
211.4751403508713
 20
107.5196291869546
 30
0.0
  0
LINE
  5
125
330
1F
100
AcDbEntity
  8
0
  6
Continuous
 62
     7
370
     0
100
AcDbLine
 10
212.2810326562
 20
107.1594883457
 30
0.0
 11
211.991273625
 21
107.0973383263
 31
0.0
  0
SPLINE
  5
126
330
1F
100
AcDbEntity
  8
0
  6
Continuous
 62
     7
370
     0
100
AcDbSpline
210
0.0
220
0.0
230
1.0
 70
     8
 71
     3
 72
    23
 73
    19
 74
     0
 42
0.00000001
 43
0.00000001
 40
0.0
 40
0.0
 40
0.0
 40
0.0
 40
0.0686494919759957
 40
0.134937373785155
 40
0.1988418982006104
 40
0.2614093284183097
 40
0.3225167637069052
 40
0.3823768656987784
 40
0.4424709047536874
 40
0.5022278334792912
 40
0.5621014330908561
 40
0.62173160809488
 40
0.6818513124344153
 40
0.7420491672939588
 40
0.8039081304743815
 40
0.8671621602461707
 40
0.9323605979385298
 40
1.0
 40
1.0
 40
1.0
 40
1.0
 10
211.4891343949877
 20
107.7567047578681
 30
0.0
 10
211.5137102885972
 20
107.7562415144328
 30
0.0
 10
211.5620166408603
 20
107.7553309635927
 30
0.0
 10
211.632897606282
 20
107.7478415033193
 30
0.0
 10
211.7007830645398
 20
107.7352974777735
 30
0.0
 10
211.7659671755401
 20
107.718840902527
 30
0.0
 10
211.8277722322652
 20
107.6963084253537
 30
0.0
 10
211.886869235301
 20
107.6695198996954
 30
0.0
 10
211.9426702864956
 20
107.6373367310968
 30
0.0
 10
211.9956095656383
 20
107.6006433712349
 30
0.0
 10
212.0448253025471
 20
107.5593721489766
 30
0.0
 10
212.0910062191628
 20
107.5145090225304
 30
0.0
 10
212.1322693003047
 20
107.464932741002
 30
0.0
 10
212.1702488148318
 20
107.4118431387431
 30
0.0
 10
212.2037498005679
 20
107.3545040441433
 30
0.0
 10
212.2340047248931
 20
107.2934153925395
 30
0.0
 10
212.260023079253
 20
107.2281230596528
 30
0.0
 10
212.2739441946161
 20
107.1826451438157
 30
0.0
 10
212.281032656164
 20
107.1594883457232
 30
0.0
  0
SPLINE
  5
127
330
1F
100
AcDbEntity
  8
0
  6
Continuous
 62
     7
370
     0
100
AcDbSpline
210
0.0
220
0.0
230
1.0
 70
     8
 71
     3
 72
    31
 73
    27
 74
     0
 42
0.00000001
 43
0.00000001
 40
0.0
 40
0.0
 40
0.0
 40
0.0
 40
0.0494014326173349
 40
0.0976047534771127
 40
0.1442547055445423
 40
0.1894721438466749
 40
0.2339150059350921
 40
0.2772371111508619
 40
0.3198588355644323
 40
0.3619566544332702
 40
0.4034857542265475
 40
0.4439336363338552
 40
0.4836491750513743
 40
0.5228932833172718
 40
0.5618583840947368
 40
0.6007948668981946
 40
0.6401043361891355
 40
0.6796434268265384
 40
0.7193997691904886
 40
0.7588541926680972
 40
0.7983154646830742
 40
0.8378024081343659
 40
0.8774685864444087
 40
0.9176827969423332
 40
0.9583928898538524
 40
0.9999999999999999
 40
0.9999999999999999
 40
0.9999999999999999
 40
0.9999999999999999
 10
210.5424784694652
 20
106.7182643665232
 30
0.0
 10
210.5429433278395
 20
106.7443389022971
 30
0.0
 10
210.5438617705771
 20
106.7958555993119
 30
0.0
 10
210.5490463649352
 20
106.871869981144
 30
0.0
 10
210.5585685855069
 20
106.9452331587989
 30
0.0
 10
210.5717921801858
 20
107.0159933890025
 30
0.0
 10
210.5885253176363
 20
107.0842079773749
 30
0.0
 10
210.6091805001129
 20
107.14991015777
 30
0.0
 10
210.6334964404282
 20
107.2130158649511
 30
0.0
 10
210.6613990075212
 20
107.2735946856059
 30
0.0
 10
210.6930735810914
 20
107.3309704003477
 30
0.0
 10
210.7275748047145
 20
107.3852245734026
 30
0.0
 10
210.7657256650627
 20
107.4354663753831
 30
0.0
 10
210.8063950458751
 20
107.4826556897524
 30
0.0
 10
210.8505986921925
 20
107.5260067614621
 30
0.0
 10
210.8982016255085
 20
107.5656177908412
 30
0.0
 10
210.9487931479788
 20
107.6018500806783
 30
0.0
 10
211.0023658751497
 20
107.634367264999
 30
0.0
 10
211.0582195490929
 20
107.6628993929061
 30
0.0
 10
211.1155245629934
 20
107.6883132078526
 30
0.0
 10
211.1745088432542
 20
107.7091432837714
 30
0.0
 10
211.2347047458406
 20
107.726462654544
 30
0.0
 10
211.2962418670685
 20
107.740250482572
 30
0.0
 10
211.3592639950992
 20
107.7494704461757
 30
0.0
 10
211.4237128964647
 20
107.7554788888091
 30
0.0
 10
211.4671693792083
 20
107.75629317706
 30
0.0
 10
211.4891343949877
 20
107.7567047578681
 30
0.0
  0
SPLINE
  5
128
330
1F
100
AcDbEntity
  8
0
  6
Continuous
 62
     7
370
     0
100
AcDbSpline
210
0.0
220
0.0
230
1.0
 70
     8
 71
     3
 72
    31
 73
    27
 74
     0
 42
0.00000001
 43
0.00000001
 40
0.0
 40
0.0
 40
0.0
 40
0.0
 40
0.0491959188678573
 40
0.0962478839423339
 40
0.1413486305545651
 40
0.18465611934875
 40
0.226058682310063
 40
0.2661730836384071
 40
0.3052898413966903
 40
0.3432450951047079
 40
0.3808772760868657
 40
0.4184957931350257
 40
0.4563187508918002
 40
0.494236737091876
 40
0.533023528957667
 40
0.572473194333944
 40
0.613078809089891
 40
0.6549344546107934
 40
0.6973967795046183
 40
0.7398840686663996
 40
0.7821947798191174
 40
0.8250615348667028
 40
0.8679874655774052
 40
0.9114105439600777
 40
0.9553719455228146
 40
1.0
 40
1.0
 40
1.0
 40
1.0
 10
211.4948966484475
 20
105.6493663497484
 30
0.0
 10
211.46826925861
 20
105.6497531979118
 30
0.0
 10
211.4161748982294
 20
105.6505100354299
 30
0.0
 10
211.3398596636507
 20
105.6566659507191
 30
0.0
 10
211.2672763817775
 20
105.6673424277885
 30
0.0
 10
211.1985606002361
 20
105.6821758646909
 30
0.0
 10
211.1334810298831
 20
105.7005164872801
 30
0.0
 10
211.0723075379578
 20
105.7235906156849
 30
0.0
 10
211.0151472719379
 20
105.7512317615413
 30
0.0
 10
210.9615234392512
 20
105.7826668879951
 30
0.0
 10
210.9116637986015
 20
105.818378607202
 30
0.0
 10
210.8644345243466
 20
105.8574031569208
 30
0.0
 10
210.8209821862307
 20
105.900814839892
 30
0.0
 10
210.7802203114522
 20
105.9475886660218
 30
0.0
 10
210.7430367084705
 20
105.9983416470594
 30
0.0
 10
210.7080633844027
 20
106.0523842824402
 30
0.0
 10
210.6770073670471
 20
106.1106688011249
 30
0.0
 10
210.6487177443952
 20
106.1721146066505
 30
0.0
 10
210.6238873379295
 20
106.2361267932271
 30
0.0
 10
210.6019211134104
 20
106.3014409433527
 30
0.0
 10
210.5839625240016
 20
106.3681872025184
 30
0.0
 10
210.5685013373983
 20
106.4358039125588
 30
0.0
 10
210.557269534495
 20
106.5048600216056
 30
0.0
 10
210.5483518307356
 20
106.5748373975104
 30
0.0
 10
210.5434486979186
 20
106.6461650621257
 30
0.0
 10
210.5428034973696
 20
106.6941109975559
 30
0.0
 10
210.5424784694652
 20
106.7182643665232
 30
0.0
  0
SPLINE
  5
129
330
1F
100
AcDbEntity
  8
0
  6
Continuous
 62
     7
370
     0
100
AcDbSpline
210
0.0
220
0.0
230
1.0
 70
     8
 71
     3
 72
    23
 73
    19
 74
     0
 42
0.00000001
 43
0.00000001
 40
0.0
 40
0.0
 40
0.0
 40
0.0
 40
0.0715783870982365
 40
0.140016209075356
 40
0.206197439946981
 40
0.2701561038056544
 40
0.332001040268831
 40
0.3927550109285566
 40
0.4525790344906382
 40
0.512252798847904
 40
0.5715322524285594
 40
0.6301517528722204
 40
0.6887691695485557
 40
0.7481639008503609
 40
0.8087033721996509
 40
0.8702562984804197
 40
0.9339000275070017
 40
1.0
 40
1.0
 40
1.0
 40
1.0
 10
212.333716116367
 20
106.3334281533216
 30
0.0
 10
212.3264568437905
 20
106.3062698442713
 30
0.0
 10
212.3122568056504
 20
106.2531448210306
 30
0.0
 10
212.2841816053396
 20
106.1771170321778
 30
0.0
 10
212.2526706360831
 20
106.1057681953227
 30
0.0
 10
212.2169592990789
 20
106.0392862559664
 30
0.0
 10
212.1766567370304
 20
105.9780534439738
 30
0.0
 10
212.1328308050111
 20
105.9212827995882
 30
0.0
 10
212.0837456195539
 20
105.870164856937
 30
0.0
 10
212.0312021747521
 20
105.8235198405883
 30
0.0
 10
211.9747913625344
 20
105.7823790606336
 30
0.0
 10
211.9151933040227
 20
105.7468532424068
 30
0.0
 10
211.852696083417
 20
105.7166279825176
 30
0.0
 10
211.7870471064347
 20
105.6917725846935
 30
0.0
 10
211.7182038122712
 20
105.673066766789
 30
0.0
 10
211.6465206761682
 20
105.65943287081
 30
0.0
 10
211.5717886748382
 20
105.6510351849562
 30
0.0
 10
211.5208487801922
 20
105.6499296049155
 30
0.0
 10
211.4948966484475
 20
105.6493663497484
 30
0.0
  0
LINE
  5
12A
330
1F
100
AcDbEntity
  8
0
  6
Continuous
 62
     7
370
     0
100
AcDbLine
 10
212.0439570853
 20
106.4009288367
 30
0.0
 11
212.3337161164
 21
106.3334281533
 31
0.0
  0
SPLINE
  5
12B
330
1F
100
AcDbEntity
  8
0
  6
Continuous
 62
     7
370
     0
100
AcDbSpline
210
0.0
220
0.0
230
1.0
 70
     8
 71
     3
 72
    23
 73
    19
 74
     0
 42
0.00000001
 43
0.00000001
 40
0.0
 40
0.0
 40
0.0
 40
0.0
 40
0.0633358805656859
 40
0.1251107589802108
 40
0.1846884118917139
 40
0.2432104439678636
 40
0.3008880404131166
 40
0.358370115531299
 40
0.4157614077031932
 40
0.4743866229897766
 40
0.533966264972407
 40
0.594007564198807
 40
0.6550724073076796
 40
0.7186100426051376
 40
0.7843747830517752
 40
0.8529914722129186
 40
0.9249004292977558
 40
1.0
 40
1.0
 40
1.0
 40
1.0
 10
211.4677317392803
 20
105.8864419206619
 30
0.0
 10
211.4855878448142
 20
105.8868164007537
 30
0.0
 10
211.5208599669641
 20
105.887556131347
 30
0.0
 10
211.5725733767472
 20
105.8940310348385
 30
0.0
 10
211.6224243908678
 20
105.9035726520566
 30
0.0
 10
211.6698090712578
 20
105.9182963309205
 30
0.0
 10
211.7153647954355
 20
105.9363237506237
 30
0.0
 10
211.7587183122779
 20
105.9585547119326
 30
0.0
 10
211.7997332816897
 20
105.9852920698877
 30
0.0
 10
211.8388921298622
 20
106.0156498283923
 30
0.0
 10
211.8754727330353
 20
106.0501917698528
 30
0.0
 10
211.9089968892795
 20
106.0886396076201
 30
0.0
 10
211.9390718451268
 20
106.1311686197566
 30
0.0
 10
211.9669588973974
 20
106.1770962777015
 30
0.0
 10
211.9903891466765
 20
106.2277946102357
 30
0.0
 10
212.0120910898369
 20
106.281752523237
 30
0.0
 10
212.0301747165886
 20
106.3398568629497
 30
0.0
 10
212.0392969671512
 20
106.380279076332
 30
0.0
 10
212.0439570852505
 20
106.4009288367067
 30
0.0
  0
SPLINE
  5
12C
330
1F
100
AcDbEntity
  8
0
  6
Continuous
 62
     7
370
     0
100
AcDbSpline
210
0.0
220
0.0
230
1.0
 70
     8
 71
     3
 72
    27
 73
    23
 74
     0
 42
0.00000001
 43
0.00000001
 40
0.0
 40
0.0
 40
0.0
 40
0.0
 40
0.1053432609984026
 40
0.2043754661654294
 40
0.2980686612490644
 40
0.3870699389029767
 40
0.429725727732517
 40
0.4709012389537418
 40
0.5111216710274202
 40
0.5501787824700682
 40
0.5883543698960263
 40
0.6266830105708967
 40
0.6644516852874769
 40
0.7025148539501567
 40
0.7404811716294023
 40
0.7776181215946409
 40
0.8147160450669567
 40
0.8515265100150812
 40
0.8880984508373161
 40
0.9251116757437154
 40
0.9621036957071506
 40
1.0
 40
1.0
 40
1.0
 40
1.0
 10
210.8322375005817
 20
106.7194991351217
 30
0.0
 10
210.8329956267182
 20
106.6778831378932
 30
0.0
 10
210.8344664600784
 20
106.5971443345478
 30
0.0
 10
210.8489799701793
 20
106.4801404720822
 30
0.0
 10
210.8711078065596
 20
106.3710073623892
 30
0.0
 10
210.8978129170848
 20
106.2858617921472
 30
0.0
 10
210.9246008261141
 20
106.2230568163973
 30
0.0
 10
210.946265540972
 20
106.1790735861224
 30
0.0
 10
210.970994948689
 20
106.1383736385762
 30
0.0
 10
210.9981739387627
 20
106.1007258338027
 30
0.0
 10
211.0281526051122
 20
106.0662399893384
 30
0.0
 10
211.0605132842226
 20
106.034732913954
 30
0.0
 10
211.0952632045872
 20
106.0059014354071
 30
0.0
 10
211.1328141204974
 20
105.9810952076033
 30
0.0
 10
211.1717206499924
 20
105.9590694403767
 30
0.0
 10
211.2114918240184
 20
105.9394837075399
 30
0.0
 10
211.2521526829427
 20
105.9229189615538
 30
0.0
 10
211.2938672761582
 20
105.9100511304547
 30
0.0
 10
211.3360498191875
 20
105.898931535418
 30
0.0
 10
211.37916490927
 20
105.8916676940543
 30
0.0
 10
211.4232002516579
 20
105.8875682108433
 30
0.0
 10
211.4527688952539
 20
105.8868203608446
 30
0.0
 10
211.4677317392803
 20
105.8864419206619
 30
0.0
  0
SPLINE
  5
12D
330
1F
100
AcDbEntity
  8
0
  6
Continuous
 62
     7
370
     0
100
AcDbSpline
210
0.0
220
0.0
230
1.0
 70
     8
 71
     3
 72
    23
 73
    19
 74
     0
 42
0.00000001
 43
0.00000001
 40
0.0
 40
0.0
 40
0.0
 40
0.0
 40
0.0704642259291749
 40
0.137956965604269
 40
0.2035785636142838
 40
0.2676916802449431
 40
0.3301858648593746
 40
0.3915337640898202
 40
0.4526637734870348
 40
0.5131537880892133
 40
0.5734535531000283
 40
0.6329675593891928
 40
0.6923319074206212
 40
0.75147419157163
 40
0.8121874455294295
 40
0.872961717848316
 40
0.935420306759491
 40
1.0
 40
1.0
 40
1.0
 40
1.0
 10
226.3158241363343
 20
109.9167266261907
 30
0.0
 10
226.3309823210328
 20
109.9119814643281
 30
0.0
 10
226.3606594676627
 20
109.9026912447417
 30
0.0
 10
226.4033234489419
 20
109.8856914459406
 30
0.0
 10
226.443371897536
 20
109.8663347420803
 30
0.0
 10
226.4808919878619
 20
109.8445893246223
 30
0.0
 10
226.5156302014148
 20
109.8202538202896
 30
0.0
 10
226.5474885198845
 20
109.7932902913633
 30
0.0
 10
226.5766878350861
 20
109.7641159914274
 30
0.0
 10
226.6031759795803
 20
109.7327486668564
 30
0.0
 10
226.6264430355462
 20
109.6993901730779
 30
0.0
 10
226.6473106781123
 20
109.6647695950217
 30
0.0
 10
226.664542269599
 20
109.6284700246356
 30
0.0
 10
226.67866637764
 20
109.5905857046875
 30
0.0
 10
226.6896852816946
 20
109.551350727219
 30
0.0
 10
226.697598054237
 20
109.5106141874913
 30
0.0
 10
226.7021081325657
 20
109.4684709077797
 30
0.0
 10
226.7027855319272
 20
109.4398421194959
 30
0.0
 10
226.7031298867329
 20
109.4252887239847
 30
0.0
  0
SPLINE
  5
12E
330
1F
100
AcDbEntity
  8
0
  6
Continuous
 62
     7
370
     0
100
AcDbSpline
210
0.0
220
0.0
230
1.0
 70
     8
 71
     3
 72
    15
 73
    11
 74
     0
 42
0.00000001
 43
0.00000001
 40
0.0
 40
0.0
 40
0.0
 40
0.0
 40
0.1158426906010177
 40
0.2305685484828844
 40
0.3473546045205441
 40
0.4682527467344622
 40
0.5923025714800838
 40
0.7199701656206967
 40
0.8556003811349103
 40
1.0
 40
1.0
 40
1.0
 40
1.0
 10
226.6241046964284
 20
110.3587737844565
 30
0.0
 10
226.6231459997299
 20
110.336740404804
 30
0.0
 10
226.6212378490728
 20
110.2928860680453
 30
0.0
 10
226.6060511047141
 20
110.2282859626765
 30
0.0
 10
226.5820817758812
 20
110.1655596625954
 30
0.0
 10
226.5481884663265
 20
110.1054697307404
 30
0.0
 10
226.5048685683111
 20
110.0491154987477
 30
0.0
 10
226.4511642653405
 20
109.9984036733233
 30
0.0
 10
226.3878472833631
 20
109.9532255732308
 30
0.0
 10
226.340327890494
 20
109.9291443177559
 30
0.0
 10
226.3158241363343
 20
109.9167266261907
 30
0.0
  0
SPLINE
  5
12F
330
1F
100
AcDbEntity
  8
0
  6
Continuous
 62
     7
370
     0
100
AcDbSpline
210
0.0
220
0.0
230
1.0
 70
     8
 71
     3
 72
    23
 73
    19
 74
     0
 42
0.00000001
 43
0.00000001
 40
0.0
 40
0.0
 40
0.0
 40
0.0
 40
0.0587320371008649
 40
0.1146029008469815
 40
0.1676568100446119
 40
0.2179667070908431
 40
0.2657752056293755
 40
0.3111706510536958
 40
0.3537918046646693
 40
0.3947449080003065
 40
0.472805951082463
 40
0.549192366561607
 40
0.6247801075795548
 40
0.7026247640242256
 40
0.7797414321940388
 40
0.8540634639886252
 40
0.92715526641035
 40
0.9999999999999999
 40
0.9999999999999999
 40
0.9999999999999999
 40
0.9999999999999999
 10
225.9445703777164
 20
110.8913706399461
 30
0.0
 10
225.9636467741857
 20
110.8912974582882
 30
0.0
 10
226.0008702467742
 20
110.8911546600695
 30
0.0
 10
226.0552242138914
 20
110.8875834244773
 30
0.0
 10
226.1067014795184
 20
110.8826987148085
 30
0.0
 10
226.1554128622605
 20
110.8764021742473
 30
0.0
 10
226.2011475884862
 20
110.8672660217541
 30
0.0
 10
226.2438630386317
 20
110.8561981837338
 30
0.0
 10
226.2837815029533
 20
110.843431790152
 30
0.0
 10
226.3325757425742
 20
110.8239844376192
 30
0.0
 10
226.3888057541925
 20
110.7940508283026
 30
0.0
 10
226.4490334384595
 20
110.7493851597857
 30
0.0
 10
226.5014338637692
 20
110.6957577139443
 30
0.0
 10
226.5445517077628
 20
110.6342708106082
 30
0.0
 10
226.5800761608923
 20
110.5685912016286
 30
0.0
 10
226.6052625822805
 20
110.4999701459191
 30
0.0
 10
226.6213656256336
 20
110.4299016910768
 30
0.0
 10
226.6231927039041
 20
110.382456311841
 30
0.0
 10
226.6241046964284
 20
110.3587737844565
 30
0.0
  0
LINE
  5
130
330
1F
100
AcDbEntity
  8
0
  6
Continuous
 62
     7
370
     0
100
AcDbLine
 10
225.1753095408
 20
110.8913706399
 30
0.0
 11
225.9445703777
 21
110.8913706399
 31
0.0
  0
LINE
  5
131
330
1F
100
AcDbEntity
  8
0
  6
Continuous
 62
     7
370
     0
100
AcDbLine
 10
225.1753095408
 20
108.836715692
 30
0.0
 11
225.1753095408
 21
110.8913706399
 31
0.0
  0
LINE
  5
132
330
1F
100
AcDbEntity
  8
0
  6
Continuous
 62
     7
370
     0
100
AcDbLine
 10
225.9466283254
 20
108.836715692
 30
0.0
 11
225.1753095408
 21
108.836715692
 31
0.0
  0
SPLINE
  5
133
330
1F
100
AcDbEntity
  8
0
  6
Continuous
 62
     7
370
     0
100
AcDbSpline
210
0.0
220
0.0
230
1.0
 70
     8
 71
     3
 72
    23
 73
    19
 74
     0
 42
0.00000001
 43
0.00000001
 40
0.0
 40
0.0
 40
0.0
 40
0.0
 40
0.0642545754247028
 40
0.1273603868320974
 40
0.1894718420926419
 40
0.2517207629332009
 40
0.3120272840890018
 40
0.3686746571150508
 40
0.4226814918055488
 40
0.4740604252251504
 40
0.525773772273917
 40
0.5796221048577136
 40
0.6373752855308656
 40
0.698400381820801
 40
0.7643573310122576
 40
0.8363147679791493
 40
0.9146777942540475
 40
1.0
 40
1.0
 40
1.0
 40
1.0
 10
226.7031298867329
 20
109.4252887239847
 30
0.0
 10
226.7024201189727
 20
109.4019234511108
 30
0.0
 10
226.7010132729093
 20
109.3556106372451
 30
0.0
 10
226.6897147306438
 20
109.2874459635975
 30
0.0
 10
226.6706207932779
 20
109.2218772925316
 30
0.0
 10
226.6443396123528
 20
109.1599647902197
 30
0.0
 10
226.6130245273779
 20
109.1027175667044
 30
0.0
 10
226.5774338361443
 20
109.0516345409371
 30
0.0
 10
226.5384751749228
 20
109.0072413537314
 30
0.0
 10
226.4950515078587
 20
108.9698987483792
 30
0.0
 10
226.4474429362344
 20
108.9382058043351
 30
0.0
 10
226.3943047925461
 20
108.9115182728049
 30
0.0
 10
226.3360479313106
 20
108.8879824275356
 30
0.0
 10
226.2714883143151
 20
108.8691811255159
 30
0.0
 10
226.2006553289482
 20
108.8542453956982
 30
0.0
 10
226.1225877066731
 20
108.8445416277156
 30
0.0
 10
226.0371655083451
 20
108.8375950306962
 30
0.0
 10
225.977650821021
 20
108.8370169967427
 30
0.0
 10
225.9466283253805
 20
108.8367156920294
 30
0.0
  0
LINE
  5
134
330
1F
100
AcDbEntity
  8
0
  6
Continuous
 62
     7
370
     0
100
AcDbLine
 10
221.9879601986
 20
109.0737912629
 30
0.0
 11
222.9626042123
 21
109.0737912629
 31
0.0
  0
LINE
  5
135
330
1F
100
AcDbEntity
  8
0
  6
Continuous
 62
     7
370
     0
100
AcDbLine
 10
221.9879601986
 20
110.8913706399
 30
0.0
 11
221.9879601986
 21
109.0737912629
 31
0.0
  0
LINE
  5
136
330
1F
100
AcDbEntity
  8
0
  6
Continuous
 62
     7
370
     0
100
AcDbLine
 10
221.6982011674
 20
110.8913706399
 30
0.0
 11
221.9879601986
 21
110.8913706399
 31
0.0
  0
LINE
  5
137
330
1F
100
AcDbEntity
  8
0
  6
Continuous
 62
     7
370
     0
100
AcDbLine
 10
221.6982011674
 20
108.836715692
 30
0.0
 11
221.6982011674
 21
110.8913706399
 31
0.0
  0
LINE
  5
138
330
1F
100
AcDbEntity
  8
0
  6
Continuous
 62
     7
370
     0
100
AcDbLine
 10
222.9626042123
 20
108.836715692
 30
0.0
 11
221.6982011674
 21
108.836715692
 31
0.0
  0
LINE
  5
139
330
1F
100
AcDbEntity
  8
0
  6
Continuous
 62
     7
370
     0
100
AcDbLine
 10
222.9626042123
 20
109.0737912629
 30
0.0
 11
222.9626042123
 21
108.836715692
 31
0.0
  0
SPLINE
  5
13A
330
1F
100
AcDbEntity
  8
0
  6
Continuous
 62
     7
370
     0
100
AcDbSpline
210
0.0
220
0.0
230
1.0
 70
     8
 71
     3
 72
    31
 73
    27
 74
     0
 42
0.00000001
 43
0.00000001
 40
0.0
 40
0.0
 40
0.0
 40
0.0
 40
0.0430989705688968
 40
0.0855867603450731
 40
0.1269076657436391
 40
0.1679674856215208
 40
0.208449558601066
 40
0.2490254246415441
 40
0.289280534171679
 40
0.3300098489827308
 40
0.370597724099577
 40
0.4104659863326995
 40
0.4500332158929483
 40
0.4896882096042475
 40
0.5291164230741915
 40
0.5690368070925096
 40
0.6097030542359448
 40
0.6507589174942197
 40
0.6925092624061777
 40
0.7342191213706863
 40
0.7767069111468624
 40
0.8195518402403216
 40
0.8633507288313336
 40
0.9078385251300618
 40
0.9533337036124183
 40
1.0
 40
1.0
 40
1.0
 40
1.0
 10
218.3013527529542
 20
110.9177123700476
 30
0.0
 10
218.3245504779644
 20
110.9173072940974
 30
0.0
 10
218.3706169641191
 20
110.9165028865253
 30
0.0
 10
218.4387221524395
 20
110.9103824191726
 30
0.0
 10
218.5050772769443
 20
110.8994584452581
 30
0.0
 10
218.569616994469
 20
110.884819095207
 30
0.0
 10
218.632516982518
 20
110.8656129045715
 30
0.0
 10
218.6938148037834
 20
110.8429405809498
 30
0.0
 10
218.7529738643329
 20
110.8148463795363
 30
0.0
 10
218.8103877336259
 20
110.7833921253864
 30
0.0
 10
218.8653786834593
 20
110.7482091820582
 30
0.0
 10
218.9170590404189
 20
110.7093426559584
 30
0.0
 10
218.9653050137182
 20
110.6670864929037
 30
0.0
 10
219.0107646776421
 20
110.6221352690411
 30
0.0
 10
219.0519211071967
 20
110.5729719433028
 30
0.0
 10
219.0904745791325
 20
110.5210941148199
 30
0.0
 10
219.1253172367942
 20
110.4655819056275
 30
0.0
 10
219.1565727095961
 20
110.4068901442953
 30
0.0
 10
219.1845182784462
 20
110.3459253143407
 30
0.0
 10
219.2084031634725
 20
110.2824347413786
 30
0.0
 10
219.2289126784192
 20
110.2171800392574
 30
0.0
 10
219.2460808727413
 20
110.1497749698507
 30
0.0
 10
219.2583995153771
 20
110.0802425768382
 30
0.0
 10
219.2682089836948
 20
110.0088824684313
 30
0.0
 10
219.2733719778871
 20
109.9354614157932
 30
0.0
 10
219.2742947494102
 20
109.8858641863669
 30
0.0
 10
219.2747619981111
 20
109.8607504497251
 30
0.0
  0
SPLINE
  5
13B
330
1F
100
AcDbEntity
  8
0
  6
Continuous
 62
     7
370
     0
100
AcDbSpline
210
0.0
220
0.0
230
1.0
 70
     8
 71
     3
 72
    23
 73
    19
 74
     0
 42
0.00000001
 43
0.00000001
 40
0.0
 40
0.0
 40
0.0
 40
0.0
 40
0.0752263466908988
 40
0.1465747215268522
 40
0.2145002518264754
 40
0.2795299716530227
 40
0.3424029515883814
 40
0.4034960527288082
 40
0.4637616065030392
 40
0.5238643590795866
 40
0.5832517242549664
 40
0.6413020392831351
 40
0.6988977748564887
 40
0.7562952438113087
 40
0.814627804812969
 40
0.874324768339998
 40
0.9357832838625453
 40
1.0
 40
1.0
 40
1.0
 40
1.0
 10
217.3254739706004
 20
109.8368782568206
 30
0.0
 10
217.3261880895944
 20
109.8780723175862
 30
0.0
 10
217.3275795142386
 20
109.9583368558881
 30
0.0
 10
217.3405803445729
 20
110.0752123660001
 30
0.0
 10
217.3616903560202
 20
110.1851769328377
 30
0.0
 10
217.3918689853173
 20
110.2882219893818
 30
0.0
 10
217.4301204846783
 20
110.3845090079331
 30
0.0
 10
217.4766224893183
 20
110.4742560157178
 30
0.0
 10
217.5327737487924
 20
110.5564471412194
 30
0.0
 10
217.5962951320709
 20
110.6318647905544
 30
0.0
 10
217.6672455995858
 20
110.698539520388
 30
0.0
 10
217.7427876814903
 20
110.7577562330575
 30
0.0
 10
217.8238646614166
 20
110.8071499723218
 30
0.0
 10
217.9097274502896
 20
110.8479329171541
 30
0.0
 10
218.0007408420546
 20
110.8792448812415
 30
0.0
 10
218.0966492987651
 20
110.9011661052663
 30
0.0
 10
218.1973502469614
 20
110.9153074250226
 30
0.0
 10
218.2661817018255
 20
110.916899077679
 30
0.0
 10
218.3013527529542
 20
110.9177123700476
 30
0.0
  0
SPLINE
  5
13C
330
1F
100
AcDbEntity
  8
0
  6
Continuous
 62
     7
370
     0
100
AcDbSpline
210
0.0
220
0.0
230
1.0
 70
     8
 71
     3
 72
    31
 73
    27
 74
     0
 42
0.00000001
 43
0.00000001
 40
0.0
 40
0.0
 40
0.0
 40
0.0
 40
0.0446969998899171
 40
0.0885335629185875
 40
0.1314091332352275
 40
0.1738139421467784
 40
0.2157145332694449
 40
0.2572471603264208
 40
0.2988479641797117
 40
0.3406041827148143
 40
0.3820294481091344
 40
0.4229697500404858
 40
0.4636322295306197
 40
0.5040475437003945
 40
0.5445912057564576
 40
0.5849639251690937
 40
0.6262652162680831
 40
0.6679794005009905
 40
0.7099427472053506
 40
0.7513818550852256
 40
0.7926185649779642
 40
0.8339484357458206
 40
0.8750080506311037
 40
0.9164455302232757
 40
0.957906613728307
 40
1.0
 40
1.0
 40
1.0
 40
1.0
 10
218.3001179843557
 20
108.8103739619279
 30
0.0
 10
218.2765034263582
 20
108.8107233422395
 30
0.0
 10
218.2297289009667
 20
108.8114153771382
 30
0.0
 10
218.1605948926932
 20
108.8183230650681
 30
0.0
 10
218.0931808298881
 20
108.828860983631
 30
0.0
 10
218.0276826972309
 20
108.8440745543926
 30
0.0
 10
217.9641899953211
 20
108.8639217323487
 30
0.0
 10
217.9026275977613
 20
108.8879441285576
 30
0.0
 10
217.8427789831016
 20
108.9158206911436
 30
0.0
 10
217.7853867736053
 20
108.9483496173759
 30
0.0
 10
217.730646308917
 20
108.9845182867534
 30
0.0
 10
217.6790881533869
 20
109.0241469064123
 30
0.0
 10
217.6307408167845
 20
109.0668702634511
 30
0.0
 10
217.5863800759446
 20
109.1133945239853
 30
0.0
 10
217.5445692261338
 20
109.162033165521
 30
0.0
 10
217.5069800529661
 20
109.2145940562125
 30
0.0
 10
217.4723849527045
 20
109.2698851700803
 30
0.0
 10
217.4418076510664
 20
109.3284394895153
 30
0.0
 10
217.4141856349883
 20
109.3885170021524
 30
0.0
 10
217.3909134898024
 20
109.4501369251683
 30
0.0
 10
217.3704617844779
 20
109.5123911446901
 30
0.0
 10
217.3541740714179
 20
109.5756633696956
 30
0.0
 10
217.3411947461645
 20
109.6398076455742
 30
0.0
 10
217.3324670904784
 20
109.7047172384911
 30
0.0
 10
217.32616391118
 20
109.7704888202409
 30
0.0
 10
217.3257051081322
 20
109.8146370798821
 30
0.0
 10
217.3254739706004
 20
109.8368782568206
 30
0.0
  0
SPLINE
  5
13D
330
1F
100
AcDbEntity
  8
0
  6
Continuous
 62
     7
370
     0
100
AcDbSpline
210
0.0
220
0.0
230
1.0
 70
     8
 71
     3
 72
    31
 73
    27
 74
     0
 42
0.00000001
 43
0.00000001
 40
0.0
 40
0.0
 40
0.0
 40
0.0
 40
0.0475595569054264
 40
0.0939621052432108
 40
0.1391115332408221
 40
0.1836263101269046
 40
0.2274570284004936
 40
0.2707025105518545
 40
0.3136105321155538
 40
0.3562604510849769
 40
0.3983661529550377
 40
0.4395565149792806
 40
0.4800453830214204
 40
0.5198884957050127
 40
0.5596577503171976
 40
0.5994212546627414
 40
0.6392077550883982
 40
0.6796683749857806
 40
0.7200198525128486
 40
0.7598588655624579
 40
0.7995598848323808
 40
0.8391991446364383
 40
0.8789560762302792
 40
0.918794269302466
 40
0.9590833628432752
 40
1.0
 40
1.0
 40
1.0
 40
1.0
 10
219.2747619981111
 20
109.8607504497251
 30
0.0
 10
219.2743338965595
 20
109.835222587005
 30
0.0
 10
219.2734881081278
 20
109.7847878924953
 30
0.0
 10
219.2677651575122
 20
109.7102804177213
 30
0.0
 10
219.2577022211278
 20
109.637911898022
 30
0.0
 10
219.2443554493163
 20
109.5674665435605
 30
0.0
 10
219.2264711825596
 20
109.4990910069112
 30
0.0
 10
219.2052184798248
 20
109.432589251221
 30
0.0
 10
219.1795121351636
 20
109.368357374225
 30
0.0
 10
219.1504796729124
 20
109.3062405638022
 30
0.0
 10
219.1176294541857
 20
109.2470931416619
 30
0.0
 10
219.0813934338987
 20
109.1913286944859
 30
0.0
 10
219.0417459411594
 20
109.1394688546126
 30
0.0
 10
218.9992892167828
 20
109.0908774341792
 30
0.0
 10
218.9530317837995
 20
109.0464233386682
 30
0.0
 10
218.9035432392621
 20
109.0056908896662
 30
0.0
 10
218.8510138663479
 20
108.9682959338913
 30
0.0
 10
218.7952671930747
 20
108.9352512436881
 30
0.0
 10
218.7373036695303
 20
108.9062863923849
 30
0.0
 10
218.678270302467
 20
108.8805893509182
 30
0.0
 10
218.6181232405816
 20
108.8586738913534
 30
0.0
 10
218.5566569196343
 20
108.840913589637
 30
0.0
 10
218.4940390137143
 20
108.8274926273174
 30
0.0
 10
218.4304457370527
 20
108.8174428691738
 30
0.0
 10
218.3656686220778
 20
108.8116561839244
 30
0.0
 10
218.322080477437
 20
108.810803565555
 30
0.0
 10
218.3001179843557
 20
108.8103739619279
 30
0.0
  0
LINE
  5
13E
330
1F
100
AcDbEntity
  8
0
  6
Continuous
 62
     7
370
     0
100
AcDbLine
 10
215.0600851819
 20
110.654295069
 30
0.0
 11
214.4015419293
 21
110.654295069
 31
0.0
  0
LINE
  5
13F
330
1F
100
AcDbEntity
  8
0
  6
Continuous
 62
     7
370
     0
100
AcDbLine
 10
215.0600851819
 20
110.8913706399
 30
0.0
 11
215.0600851819
 21
110.654295069
 31
0.0
  0
LINE
  5
140
330
1F
100
AcDbEntity
  8
0
  6
Continuous
 62
     7
370
     0
100
AcDbLine
 10
213.4532396457
 20
110.8913706399
 30
0.0
 11
215.0600851819
 21
110.8913706399
 31
0.0
  0
LINE
  5
141
330
1F
100
AcDbEntity
  8
0
  6
Continuous
 62
     7
370
     0
100
AcDbLine
 10
213.4532396457
 20
110.654295069
 30
0.0
 11
213.4532396457
 21
110.8913706399
 31
0.0
  0
LINE
  5
142
330
1F
100
AcDbEntity
  8
0
  6
Continuous
 62
     7
370
     0
100
AcDbLine
 10
214.1117828982
 20
110.654295069
 30
0.0
 11
213.4532396457
 21
110.654295069
 31
0.0
  0
LINE
  5
143
330
1F
100
AcDbEntity
  8
0
  6
Continuous
 62
     7
370
     0
100
AcDbLine
 10
214.1117828982
 20
108.836715692
 30
0.0
 11
214.1117828982
 21
110.654295069
 31
0.0
  0
LINE
  5
144
330
1F
100
AcDbEntity
  8
0
  6
Continuous
 62
     7
370
     0
100
AcDbLine
 10
214.4015419293
 20
108.836715692
 30
0.0
 11
214.1117828982
 21
108.836715692
 31
0.0
  0
LINE
  5
145
330
1F
100
AcDbEntity
  8
0
  6
Continuous
 62
     7
370
     0
100
AcDbLine
 10
214.4015419293
 20
110.654295069
 30
0.0
 11
214.4015419293
 21
108.836715692
 31
0.0
  0
CIRCLE
  5
146
330
1F
100
AcDbEntity
  8
0
  6
Continuous
 62
     7
370
     0
100
AcDbCircle
 10
221.05282878
 20
108.286715692
 30
0.0
 40
25.19999999999996
  0
LINE
  5
147
330
1F
100
AcDbEntity
  8
0
  6
Continuous
 62
     7
370
     0
100
AcDbLine
 10
216.6669307181
 20
109.8113597058
 30
0.0
 11
215.6659449742
 21
109.8113597058
 31
0.0
  0
LINE
  5
148
330
1F
100
AcDbEntity
  8
0
  6
Continuous
 62
     7
370
     0
100
AcDbLine
 10
216.6669307181
 20
108.836715692
 30
0.0
 11
216.6669307181
 21
109.8113597058
 31
0.0
  0
LINE
  5
149
330
1F
100
AcDbEntity
  8
0
  6
Continuous
 62
     7
370
     0
100
AcDbLine
 10
216.9566897492
 20
108.836715692
 30
0.0
 11
216.6669307181
 21
108.836715692
 31
0.0
  0
LINE
  5
14A
330
1F
100
AcDbEntity
  8
0
  6
Continuous
 62
     7
370
     0
100
AcDbLine
 10
216.9566897492
 20
110.8913706399
 30
0.0
 11
216.9566897492
 21
108.836715692
 31
0.0
  0
LINE
  5
14B
330
1F
100
AcDbEntity
  8
0
  6
Continuous
 62
     7
370
     0
100
AcDbLine
 10
216.6669307181
 20
110.8913706399
 30
0.0
 11
216.9566897492
 21
110.8913706399
 31
0.0
  0
LINE
  5
14C
330
1F
100
AcDbEntity
  8
0
  6
Continuous
 62
     7
370
     0
100
AcDbLine
 10
216.6669307181
 20
110.0484352767
 30
0.0
 11
216.6669307181
 21
110.8913706399
 31
0.0
  0
LINE
  5
14D
330
1F
100
AcDbEntity
  8
0
  6
Continuous
 62
     7
370
     0
100
AcDbLine
 10
215.6659449742
 20
110.0484352767
 30
0.0
 11
216.6669307181
 21
110.0484352767
 31
0.0
  0
LINE
  5
14E
330
1F
100
AcDbEntity
  8
0
  6
Continuous
 62
     7
370
     0
100
AcDbLine
 10
215.6659449742
 20
110.8913706399
 30
0.0
 11
215.6659449742
 21
110.0484352767
 31
0.0
  0
LINE
  5
14F
330
1F
100
AcDbEntity
  8
0
  6
Continuous
 62
     7
370
     0
100
AcDbLine
 10
215.3761859431
 20
110.8913706399
 30
0.0
 11
215.6659449742
 21
110.8913706399
 31
0.0
  0
LINE
  5
150
330
1F
100
AcDbEntity
  8
0
  6
Continuous
 62
     7
370
     0
100
AcDbLine
 10
215.3761859431
 20
108.836715692
 30
0.0
 11
215.3761859431
 21
110.8913706399
 31
0.0
  0
LINE
  5
151
330
1F
100
AcDbEntity
  8
0
  6
Continuous
 62
     7
370
     0
100
AcDbLine
 10
215.6659449742
 20
108.836715692
 30
0.0
 11
215.3761859431
 21
108.836715692
 31
0.0
  0
LINE
  5
152
330
1F
100
AcDbEntity
  8
0
  6
Continuous
 62
     7
370
     0
100
AcDbLine
 10
215.6659449742
 20
109.8113597058
 30
0.0
 11
215.6659449742
 21
108.836715692
 31
0.0
  0
LINE
  5
153
330
1F
100
AcDbEntity
  8
0
  6
Continuous
 62
     7
370
     0
100
AcDbLine
 10
220.2300613038
 20
109.7586762456
 30
0.0
 11
219.9333052506
 21
109.7586762456
 31
0.0
  0
SPLINE
  5
154
330
1F
100
AcDbEntity
  8
0
  6
Continuous
 62
     7
370
     0
100
AcDbSpline
210
0.0
220
0.0
230
1.0
 70
     8
 71
     3
 72
    11
 73
     7
 74
     0
 42
0.00000001
 43
0.00000001
 40
0.0
 40
0.0
 40
0.0
 40
0.0
 40
0.1774946570818496
 40
0.4052256231013751
 40
0.6783881083348569
 40
0.9999999999999999
 40
0.9999999999999999
 40
0.9999999999999999
 40
0.9999999999999999
 10
220.3728828717172
 20
109.7492096863265
 30
0.0
 10
220.3645312910653
 20
109.7507157601557
 30
0.0
 10
220.3454643820712
 20
109.7541541718573
 30
0.0
 10
220.3130888181781
 20
109.7563998040215
 30
0.0
 10
220.2738618506329
 20
109.7587832421277
 30
0.0
 10
220.2454333987559
 20
109.7587137967354
 30
0.0
 10
220.2300613038231
 20
109.7586762455818
 30
0.0
  0
SPLINE
  5
155
330
1F
100
AcDbEntity
  8
0
  6
Continuous
 62
     7
370
     0
100
AcDbSpline
210
0.0
220
0.0
230
1.0
 70
     8
 71
     3
 72
    21
 73
    17
 74
     0
 42
0.00000001
 43
0.00000001
 40
0.0
 40
0.0
 40
0.0
 40
0.0
 40
0.0807814705861227
 40
0.1565412257955895
 40
0.227934986843486
 40
0.2943103173046012
 40
0.3568678635548113
 40
0.4147585592592751
 40
0.4676413968340161
 40
0.5167484215300129
 40
0.604729741894053
 40
0.6815706529393896
 40
0.7481095416219826
 40
0.8049410995352804
 40
0.9054060495000024
 40
1.0
 40
1.0
 40
1.0
 40
1.0
 10
220.8042287021292
 20
109.2705310596384
 30
0.0
 10
220.7950239155784
 20
109.2857519932523
 30
0.0
 10
220.7771865506556
 20
109.3152476633409
 30
0.0
 10
220.7514211160611
 20
109.3583246695923
 30
0.0
 10
220.7261589545593
 20
109.3979839174522
 30
0.0
 10
220.7027287318688
 20
109.4353588898072
 30
0.0
 10
220.6801796102918
 20
109.4697710624667
 30
0.0
 10
220.6587294671175
 20
109.501339976614
 30
0.0
 10
220.6389686198111
 20
109.5304797751619
 30
0.0
 10
220.614492255655
 20
109.5644060840109
 30
0.0
 10
220.5860058330352
 20
109.6019458595725
 30
0.0
 10
220.5527641323629
 20
109.6406047395868
 30
0.0
 10
220.521108177523
 20
109.6714269496587
 30
0.0
 10
220.4821232849259
 20
109.7016514053218
 30
0.0
 10
220.4338345974969
 20
109.7299213031637
 30
0.0
 10
220.3927883016555
 20
109.7429105445917
 30
0.0
 10
220.3728828717172
 20
109.7492096863265
 30
0.0
  0
LINE
  5
156
330
1F
100
AcDbEntity
  8
0
  6
Continuous
 62
     7
370
     0
100
AcDbLine
 10
221.0602373916
 20
108.836715692
 30
0.0
 11
220.8042287021
 21
109.2705310596
 31
0.0
  0
LINE
  5
157
330
1F
100
AcDbEntity
  8
0
  6
Continuous
 62
     7
370
     0
100
AcDbLine
 10
221.3923901446
 20
108.836715692
 30
0.0
 11
221.0602373916
 21
108.836715692
 31
0.0
  0
LINE
  5
158
330
1F
100
AcDbEntity
  8
0
  6
Continuous
 62
     7
370
     0
100
AcDbLine
 10
221.0552983172
 20
109.4038860683
 30
0.0
 11
221.3923901446
 21
108.836715692
 31
0.0
  0
SPLINE
  5
159
330
1F
100
AcDbEntity
  8
0
  6
Continuous
 62
     7
370
     0
100
AcDbSpline
210
0.0
220
0.0
230
1.0
 70
     8
 71
     3
 72
    11
 73
     7
 74
     0
 42
0.00000001
 43
0.00000001
 40
0.0
 40
0.0
 40
0.0
 40
0.0
 40
0.2295275697008571
 40
0.4714659343032296
 40
0.7281863484998701
 40
1.0
 40
1.0
 40
1.0
 40
1.0
 10
220.8388022228874
 20
109.6837669506056
 30
0.0
 10
220.8582120327594
 20
109.6647396647269
 30
0.0
 10
220.8980811611515
 20
109.6256562677923
 30
0.0
 10
220.9530225518395
 20
109.5590857938705
 30
0.0
 10
221.0062901170082
 20
109.4849826412991
 30
0.0
 10
221.0386541791798
 20
109.4314280418015
 30
0.0
 10
221.0552983171591
 20
109.4038860682772
 30
0.0
  0
SPLINE
  5
15A
330
1F
100
AcDbEntity
  8
0
  6
Continuous
 62
     7
370
     0
100
AcDbSpline
210
0.0
220
0.0
230
1.0
 70
     8
 71
     3
 72
    11
 73
     7
 74
     0
 42
0.00000001
 43
0.00000001
 40
0.0
 40
0.0
 40
0.0
 40
0.0
 40
0.2930762433192213
 40
0.5565623371181898
 40
0.7919136092098108
 40
1.0
 40
1.0
 40
1.0
 40
1.0
 10
220.6791054841471
 20
109.7850179756833
 30
0.0
 10
220.695647331154
 20
109.7766613994481
 30
0.0
 10
220.7270608941441
 20
109.7607919603321
 30
0.0
 10
220.7705533613617
 20
109.7359088176257
 30
0.0
 10
220.8074204202863
 20
109.7104843775065
 30
0.0
 10
220.8287793756833
 20
109.6923000706089
 30
0.0
 10
220.8388022228874
 20
109.6837669506056
 30
0.0
  0
SPLINE
  5
15B
330
1F
100
AcDbEntity
  8
0
  6
Continuous
 62
     7
370
     0
100
AcDbSpline
210
0.0
220
0.0
230
1.0
 70
     8
 71
     3
 72
    23
 73
    19
 74
     0
 42
0.00000001
 43
0.00000001
 40
0.0
 40
0.0
 40
0.0
 40
0.0
 40
0.0614130692946597
 40
0.1212950233845471
 40
0.1792240423087202
 40
0.2359380947348319
 40
0.2922168332673612
 40
0.3481966394342069
 40
0.4044447389633588
 40
0.4620255339229974
 40
0.5203342118681488
 40
0.5803829016508381
 40
0.641825904813988
 40
0.7063632097966277
 40
0.7738513938275595
 40
0.8452662573568828
 40
0.920154675768406
 40
1.0
 40
1.0
 40
1.0
 40
1.0
 10
221.2240500256218
 20
110.337371128749
 30
0.0
 10
221.223647965346
 20
110.3197952801237
 30
0.0
 10
221.2228538687292
 20
110.2850817737888
 30
0.0
 10
221.2167710087654
 20
110.2340436277215
 30
0.0
 10
221.2057645647866
 20
110.1852787315023
 30
0.0
 10
221.1916509697894
 20
110.1383600109125
 30
0.0
 10
221.1723337638612
 20
110.0939522292279
 30
0.0
 10
221.1499556192521
 20
110.0511483439747
 30
0.0
 10
221.1222322796854
 20
110.01112429208
 30
0.0
 10
221.0911929353372
 20
109.9728142972139
 30
0.0
 10
221.055599131015
 20
109.937038857186
 30
0.0
 10
221.0151377487819
 20
109.9050886619146
 30
0.0
 10
220.9702098730355
 20
109.8763493973119
 30
0.0
 10
220.9206039115165
 20
109.8516139908549
 30
0.0
 10
220.8668908787139
 20
109.8290046550248
 30
0.0
 10
220.8083968236136
 20
109.8107985284365
 30
0.0
 10
220.7453578233445
 20
109.7959318300163
 30
0.0
 10
220.7016562580708
 20
109.7887328009209
 30
0.0
 10
220.6791054841471
 20
109.7850179756833
 30
0.0
  0
SPLINE
  5
15C
330
1F
100
AcDbEntity
  8
0
  6
Continuous
 62
     7
370
     0
100
AcDbSpline
210
0.0
220
0.0
230
1.0
 70
     8
 71
     3
 72
    27
 73
    23
 74
     0
 42
0.00000001
 43
0.00000001
 40
0.0
 40
0.0
 40
0.0
 40
0.0
 40
0.0621127506505295
 40
0.1202119588785538
 40
0.1743851213884739
 40
0.2254437557784867
 40
0.2723582126361769
 40
0.3163881629634409
 40
0.3568694790582284
 40
0.3939783235063669
 40
0.4295893718770922
 40
0.4646830409549871
 40
0.5000363461428401
 40
0.535482747753064
 40
0.5713634671484438
 40
0.6079085322052602
 40
0.645662298533116
 40
0.6845173397035776
 40
0.7625786223763463
 40
0.8404972886541806
 40
0.9190729926935233
 40
1.0
 40
1.0
 40
1.0
 40
1.0
 10
220.5350491476545
 20
110.8913706399461
 30
0.0
 10
220.5560413118411
 20
110.8912061576528
 30
0.0
 10
220.59666918859
 20
110.8908878214261
 30
0.0
 10
220.6555879986236
 20
110.8886343624726
 30
0.0
 10
220.7105828012195
 20
110.8837764961164
 30
0.0
 10
220.7617547134194
 20
110.8785233906954
 30
0.0
 10
220.8090946434417
 20
110.8704605754846
 30
0.0
 10
220.8525537519695
 20
110.8612127085814
 30
0.0
 10
220.8921991376691
 20
110.8502076071502
 30
0.0
 10
220.9282080393944
 20
110.837209733976
 30
0.0
 10
220.9616164484172
 20
110.8225045876882
 30
0.0
 10
220.9925835200704
 20
110.804360811328
 30
0.0
 10
221.0223965156106
 20
110.784479101115
 30
0.0
 10
221.0499489707659
 20
110.7611210586825
 30
0.0
 10
221.0759675842365
 20
110.7355461642229
 30
0.0
 10
221.1004282411538
 20
110.7074069091795
 30
0.0
 10
221.1229688209564
 20
110.6764591020871
 30
0.0
 10
221.1507699267407
 20
110.6321663721149
 30
0.0
 10
221.1805948450717
 20
110.5731777831587
 30
0.0
 10
221.2054436867181
 20
110.4976851707907
 30
0.0
 10
221.2214657752904
 20
110.4187171427376
 30
0.0
 10
221.2231801845446
 20
110.3647516435427
 30
0.0
 10
221.2240500256218
 20
110.337371128749
 30
0.0
  0
LINE
  5
15D
330
1F
100
AcDbEntity
  8
0
  6
Continuous
 62
     7
370
     0
100
AcDbLine
 10
219.6435462195
 20
110.8913706399
 30
0.0
 11
220.5350491477
 21
110.8913706399
 31
0.0
  0
LINE
  5
15E
330
1F
100
AcDbEntity
  8
0
  6
Continuous
 62
     7
370
     0
100
AcDbLine
 10
219.6435462195
 20
108.836715692
 30
0.0
 11
219.6435462195
 21
110.8913706399
 31
0.0
  0
LINE
  5
15F
330
1F
100
AcDbEntity
  8
0
  6
Continuous
 62
     7
370
     0
100
AcDbLine
 10
219.9333052506
 20
108.836715692
 30
0.0
 11
219.6435462195
 21
108.836715692
 31
0.0
  0
LINE
  5
160
330
1F
100
AcDbEntity
  8
0
  6
Continuous
 62
     7
370
     0
100
AcDbLine
 10
219.9333052506
 20
109.7586762456
 30
0.0
 11
219.9333052506
 21
108.836715692
 31
0.0
  0
LINE
  5
161
330
1F
100
AcDbEntity
  8
0
  6
Continuous
 62
     7
370
     0
100
AcDbLine
 10
224.4146920842
 20
109.4689172145
 30
0.0
 11
223.5388295583
 21
109.4689172145
 31
0.0
  0
LINE
  5
162
330
1F
100
AcDbEntity
  8
0
  6
Continuous
 62
     7
370
     0
100
AcDbLine
 10
224.6484749388
 20
108.836715692
 30
0.0
 11
224.4146920842
 21
109.4689172145
 31
0.0
  0
LINE
  5
163
330
1F
100
AcDbEntity
  8
0
  6
Continuous
 62
     7
370
     0
100
AcDbLine
 10
224.9559323198
 20
108.836715692
 30
0.0
 11
224.6484749388
 21
108.836715692
 31
0.0
  0
LINE
  5
164
330
1F
100
AcDbEntity
  8
0
  6
Continuous
 62
     7
370
     0
100
AcDbLine
 10
224.1401618658
 20
110.8913706399
 30
0.0
 11
224.9559323198
 21
108.836715692
 31
0.0
  0
LINE
  5
165
330
1F
100
AcDbEntity
  8
0
  6
Continuous
 62
     7
370
     0
100
AcDbLine
 10
223.8133597767
 20
110.8913706399
 30
0.0
 11
224.1401618658
 21
110.8913706399
 31
0.0
  0
LINE
  5
166
330
1F
100
AcDbEntity
  8
0
  6
Continuous
 62
     7
370
     0
100
AcDbLine
 10
222.9975893226
 20
108.836715692
 30
0.0
 11
223.8133597767
 21
110.8913706399
 31
0.0
  0
LINE
  5
167
330
1F
100
AcDbEntity
  8
0
  6
Continuous
 62
     7
370
     0
100
AcDbLine
 10
223.3050467036
 20
108.836715692
 30
0.0
 11
222.9975893226
 21
108.836715692
 31
0.0
  0
LINE
  5
168
330
1F
100
AcDbEntity
  8
0
  6
Continuous
 62
     7
370
     0
100
AcDbLine
 10
223.5388295583
 20
109.4689172145
 30
0.0
 11
223.3050467036
 21
108.836715692
 31
0.0
  0
SPLINE
  5
169
330
1F
100
AcDbEntity
  8
0
  6
Continuous
 62
     7
370
     0
100
AcDbSpline
210
0.0
220
0.0
230
1.0
 70
     8
 71
     3
 72
    23
 73
    19
 74
     0
 42
0.00000001
 43
0.00000001
 40
0.0
 40
0.0
 40
0.0
 40
0.0
 40
0.0749313059818448
 40
0.1470775964339469
 40
0.2163644561730687
 40
0.2825027309006237
 40
0.3466877108244162
 40
0.4088355551310375
 40
0.4692619872876909
 40
0.5284320432534628
 40
0.5870013379727417
 40
0.644416393832067
 40
0.7021887902662974
 40
0.7597671795443349
 40
0.8184897928274489
 40
0.8776328274167843
 40
0.9380195662701677
 40
1.0
 40
1.0
 40
1.0
 40
1.0
 10
228.2169561885032
 20
109.9167266261907
 30
0.0
 10
228.2317290845037
 20
109.9099153724537
 30
0.0
 10
228.2607258036674
 20
109.8965460228177
 30
0.0
 10
228.3018035392193
 20
109.8737198695143
 30
0.0
 10
228.3401335230298
 20
109.8500161381386
 30
0.0
 10
228.3754060744461
 20
109.8247966441981
 30
0.0
 10
228.4075071402644
 20
109.7980083391173
 30
0.0
 10
228.4367956479004
 20
109.7699581579374
 30
0.0
 10
228.4634484896615
 20
109.7408037472503
 30
0.0
 10
228.486390225921
 20
109.7096119961664
 30
0.0
 10
228.5069895513213
 20
109.6776438157742
 30
0.0
 10
228.5250153327345
 20
109.644452409669
 30
0.0
 10
228.5395293457511
 20
109.6098425855511
 30
0.0
 10
228.552259040458
 20
109.5742315327191
 30
0.0
 10
228.5614153422631
 20
109.5372231526754
 30
0.0
 10
228.5685957296919
 20
109.4991912547761
 30
0.0
 10
228.5727839295971
 20
109.4599570780456
 30
0.0
 10
228.5731880381386
 20
109.4333930549012
 30
0.0
 10
228.5733927239391
 20
109.4199380600578
 30
0.0
  0
SPLINE
  5
16A
330
1F
100
AcDbEntity
  8
0
  6
Continuous
 62
     7
370
     0
100
AcDbSpline
210
0.0
220
0.0
230
1.0
 70
     8
 71
     3
 72
    23
 73
    19
 74
     0
 42
0.00000001
 43
0.00000001
 40
0.0
 40
0.0
 40
0.0
 40
0.0
 40
0.0327432182311376
 40
0.0724096054938575
 40
0.1196114857927603
 40
0.1746729151985131
 40
0.2373450901947013
 40
0.3083524168429163
 40
0.3876300477623597
 40
0.4747836155862522
 40
0.5633323159904144
 40
0.6451362168299873
 40
0.7202025267224655
 40
0.7891341563324459
 40
0.8514970735699655
 40
0.9073306044315619
 40
0.9569686823424193
 40
1.0
 40
1.0
 40
1.0
 40
1.0
 10
227.4090059355464
 20
110.1924916131908
 30
0.0
 10
227.4161414125456
 20
110.1864098668428
 30
0.0
 10
227.4319210793724
 20
110.1729604602919
 30
0.0
 10
227.461281581974
 20
110.1551617454437
 30
0.0
 10
227.4976842508126
 20
110.1371784124404
 30
0.0
 10
227.5413723225628
 20
110.1193015878248
 30
0.0
 10
227.5922706303307
 20
110.1013142488089
 30
0.0
 10
227.6502970741397
 20
110.0827940713342
 30
0.0
 10
227.7156726698695
 20
110.0644000725438
 30
0.0
 10
227.7864050982167
 20
110.0466744112948
 30
0.0
 10
227.857861343945
 20
110.0288774915254
 30
0.0
 10
227.925768800502
 20
110.0111484010213
 30
0.0
 10
227.9881193402709
 20
109.9943461019991
 30
0.0
 10
228.0448140395946
 20
109.9779582115949
 30
0.0
 10
228.0959115792533
 20
109.9620310688382
 30
0.0
 10
228.1412343765742
 20
109.9462309795582
 30
0.0
 10
228.1811491101288
 20
109.9316989052152
 30
0.0
 10
228.2056015999584
 20
109.9214744044407
 30
0.0
 10
228.2169561885032
 20
109.9167266261907
 30
0.0
  0
SPLINE
  5
16B
330
1F
100
AcDbEntity
  8
0
  6
Continuous
 62
     7
370
     0
100
AcDbSpline
210
0.0
220
0.0
230
1.0
 70
     8
 71
     3
 72
    11
 73
     7
 74
     0
 42
0.00000001
 43
0.00000001
 40
0.0
 40
0.0
 40
0.0
 40
0.0
 40
0.2627412305282691
 40
0.5099565029432329
 40
0.7533267184204503
 40
1.0
 40
1.0
 40
1.0
 40
1.0
 10
227.3353314091688
 20
110.3740025971714
 30
0.0
 10
227.3360802147095
 20
110.356325249125
 30
0.0
 10
227.337533577222
 20
110.3220151464702
 30
0.0
 10
227.3523745334164
 20
110.2732708330897
 30
0.0
 10
227.3752000278782
 20
110.2288372331308
 30
0.0
 10
227.3976867767827
 20
110.2046611383077
 30
0.0
 10
227.4090059355464
 20
110.1924916131908
 30
0.0
  0
SPLINE
  5
16C
330
1F
100
AcDbEntity
  8
0
  6
Continuous
 62
     7
370
     0
100
AcDbSpline
210
0.0
220
0.0
230
1.0
 70
     8
 71
     3
 72
    23
 73
    19
 74
     0
 42
0.00000001
 43
0.00000001
 40
0.0
 40
0.0
 40
0.0
 40
0.0
 40
0.0915110363280375
 40
0.177142860314148
 40
0.257108485228235
 40
0.3311983993883849
 40
0.4005922945239581
 40
0.4656249598049642
 40
0.5269734913138602
 40
0.5854431157040231
 40
0.6413985080863308
 40
0.6950441672657243
 40
0.7467815514927477
 40
0.7969589345766993
 40
0.8475448623598797
 40
0.8974385414187385
 40
0.9476489188871287
 40
1.0
 40
1.0
 40
1.0
 40
1.0
 10
227.7703815453763
 20
110.6806367991341
 30
0.0
 10
227.752121832776
 20
110.6804991660526
 30
0.0
 10
227.7167755199341
 20
110.680232742256
 30
0.0
 10
227.6656784163233
 20
110.6753761693459
 30
0.0
 10
227.6183180060882
 20
110.6687127790444
 30
0.0
 10
227.574775635761
 20
110.6588837117342
 30
0.0
 10
227.5351939444614
 20
110.6460174296235
 30
0.0
 10
227.4989854831535
 20
110.6311598261638
 30
0.0
 10
227.4671635840381
 20
110.6123313620976
 30
0.0
 10
227.4389864237431
 20
110.5913589019842
 30
0.0
 10
227.4146800542075
 20
110.5681540334012
 30
0.0
 10
227.3937315642494
 20
110.5437017123102
 30
0.0
 10
227.3752042428855
 20
110.5187203654831
 30
0.0
 10
227.3608081055088
 20
110.4918444961296
 30
0.0
 10
227.3490874858985
 20
110.4640919342377
 30
0.0
 10
227.3415263983844
 20
110.4349410225395
 30
0.0
 10
227.3361729717953
 20
110.4049309771683
 30
0.0
 10
227.335615806503
 20
110.3844545214191
 30
0.0
 10
227.3353314091688
 20
110.3740025971714
 30
0.0
  0
SPLINE
  5
16D
330
1F
100
AcDbEntity
  8
0
  6
Continuous
 62
     7
370
     0
100
AcDbSpline
210
0.0
220
0.0
230
1.0
 70
     8
 71
     3
 72
    23
 73
    19
 74
     0
 42
0.00000001
 43
0.00000001
 40
0.0
 40
0.0
 40
0.0
 40
0.0
 40
0.0671554674490462
 40
0.1314033464826141
 40
0.1927317719102091
 40
0.2512526591565257
 40
0.3077037298841914
 40
0.3626989162982003
 40
0.417778332785431
 40
0.4723043857981144
 40
0.5278725997916964
 40
0.5852299868117375
 40
0.6450565760102912
 40
0.707952356429442
 40
0.7744342720454286
 40
0.84494043137526
 40
0.9204035944750272
 40
1.0
 40
1.0
 40
1.0
 40
1.0
 10
228.2309502326196
 20
110.3118525777132
 30
0.0
 10
228.2291091464353
 20
110.3265651889648
 30
0.0
 10
228.2255066864275
 20
110.3553534087092
 30
0.0
 10
228.2165694613552
 20
110.3970286877788
 30
0.0
 10
228.2040412702191
 20
110.4357348116438
 30
0.0
 10
228.1893669189243
 20
110.4718327411126
 30
0.0
 10
228.1715785329678
 20
110.5049470179915
 30
0.0
 10
228.1508424222295
 20
110.5353956117813
 30
0.0
 10
228.1269060648696
 20
110.5628197860933
 30
0.0
 10
228.1003853685449
 20
110.5879441927477
 30
0.0
 10
228.0704733133398
 20
110.6098205375757
 30
0.0
 10
228.0373235966942
 20
110.6288098764913
 30
0.0
 10
228.0008802608291
 20
110.6448515196221
 30
0.0
 10
227.9611754122564
 20
110.6579901485438
 30
0.0
 10
227.9182011901916
 20
110.6681773274881
 30
0.0
 10
227.8718598492665
 20
110.6756712107953
 30
0.0
 10
227.8221693011305
 20
110.679509163961
 30
0.0
 10
227.7879481946942
 20
110.6802543000017
 30
0.0
 10
227.7703815453763
 20
110.6806367991341
 30
0.0
  0
LINE
  5
16E
330
1F
100
AcDbEntity
  8
0
  6
Continuous
 62
     7
370
     0
100
AcDbLine
 10
228.5207092637
 20
110.3118525777
 30
0.0
 11
228.2309502326
 21
110.3118525777
 31
0.0
  0
SPLINE
  5
16F
330
1F
100
AcDbEntity
  8
0
  6
Continuous
 62
     7
370
     0
100
AcDbSpline
210
0.0
220
0.0
230
1.0
 70
     8
 71
     3
 72
    23
 73
    19
 74
     0
 42
0.00000001
 43
0.00000001
 40
0.0
 40
0.0
 40
0.0
 40
0.0
 40
0.1004750608070148
 40
0.1956443031597846
 40
0.286083379069932
 40
0.3729828804699542
 40
0.4150256681909619
 40
0.4560516735090279
 40
0.4959387495188998
 40
0.5355660888033517
 40
0.5740871099085042
 40
0.6125192874870976
 40
0.651080960134445
 40
0.6895131377130386
 40
0.7662374603277348
 40
0.8423504388672227
 40
0.9199744947371038
 40
1.0
 40
1.0
 40
1.0
 40
1.0
 10
227.7588570384569
 20
110.9177123700476
 30
0.0
 10
227.7953908062748
 20
110.9168752545524
 30
0.0
 10
227.8665290916278
 20
110.9152452293858
 30
0.0
 10
227.9698950309842
 20
110.9016837169276
 30
0.0
 10
228.0663071550147
 20
110.8783950314365
 30
0.0
 10
228.1419168506297
 20
110.8523256845803
 30
0.0
 10
228.1978142143921
 20
110.825934008013
 30
0.0
 10
228.237525258046
 20
110.8053408507693
 30
0.0
 10
228.2743849592316
 20
110.7815314096162
 30
0.0
 10
228.3087251296033
 20
110.7557658694874
 30
0.0
 10
228.3408647428715
 20
110.7280559973899
 30
0.0
 10
228.369977738806
 20
110.6977426670456
 30
0.0
 10
228.3973282848898
 20
110.6658601144308
 30
0.0
 10
228.4294689878346
 20
110.6200867582017
 30
0.0
 10
228.464123479501
 20
110.559505980195
 30
0.0
 10
228.4940870046616
 20
110.4810211760349
 30
0.0
 10
228.5146722959524
 20
110.3981869092602
 30
0.0
 10
228.5186766087989
 20
110.3409214598991
 30
0.0
 10
228.5207092637361
 20
110.3118525777132
 30
0.0
  0
SPLINE
  5
170
330
1F
100
AcDbEntity
  8
0
  6
Continuous
 62
     7
370
     0
100
AcDbSpline
210
0.0
220
0.0
230
1.0
 70
     8
 71
     3
 72
    23
 73
    19
 74
     0
 42
0.00000001
 43
0.00000001
 40
0.0
 40
0.0
 40
0.0
 40
0.0
 40
0.0749954673898322
 40
0.1491654404266561
 40
0.2236642943382247
 40
0.3004120221906725
 40
0.3395704846106348
 40
0.3789205746932795
 40
0.4180957375990935
 40
0.4582296767501551
 40
0.4984267212184583
 40
0.5397075464534805
 40
0.5822159516458436
 40
0.6258238199943749
 40
0.7154812648736979
 40
0.8073840844133601
 40
0.9016341255073719
 40
1.0
 40
1.0
 40
1.0
 40
1.0
 10
227.0455723780523
 20
110.355069478661
 30
0.0
 10
227.0465502825854
 20
110.3805419375868
 30
0.0
 10
227.0484953276055
 20
110.431206473547
 30
0.0
 10
227.0657489428987
 20
110.5055535216217
 30
0.0
 10
227.093268789377
 20
110.5770951574524
 30
0.0
 10
227.1245947323386
 20
110.6338931115447
 30
0.0
 10
227.1551444492897
 20
110.676843470247
 30
0.0
 10
227.1804703966869
 20
110.7077755334381
 30
0.0
 10
227.2088784000488
 20
110.7363680673892
 30
0.0
 10
227.2394935916243
 20
110.7630202045878
 30
0.0
 10
227.2728632489853
 20
110.7873337312554
 30
0.0
 10
227.3081594676041
 20
110.810307902781
 30
0.0
 10
227.3466597734474
 20
110.8300547545269
 30
0.0
 10
227.4007584287532
 20
110.85518803968
 30
0.0
 10
227.4731293943091
 20
110.8802859752169
 30
0.0
 10
227.5642353880756
 20
110.902155642514
 30
0.0
 10
227.6601214550036
 20
110.9150342349019
 30
0.0
 10
227.7254796507953
 20
110.9168070312443
 30
0.0
 10
227.7588570384569
 20
110.9177123700476
 30
0.0
  0
SPLINE
  5
171
330
1F
100
AcDbEntity
  8
0
  6
Continuous
 62
     7
370
     0
100
AcDbSpline
210
0.0
220
0.0
230
1.0
 70
     8
 71
     3
 72
    15
 73
    11
 74
     0
 42
0.00000001
 43
0.00000001
 40
0.0
 40
0.0
 40
0.0
 40
0.0
 40
0.1448052410584837
 40
0.2795118010254855
 40
0.4063939211311608
 40
0.5275015404829168
 40
0.6453932904726503
 40
0.7618854106740865
 40
0.8789420729184871
 40
1.0
 40
1.0
 40
1.0
 40
1.0
 10
227.3489138637524
 20
109.910964372731
 30
0.0
 10
227.3247313197544
 20
109.9240284796068
 30
0.0
 10
227.2780527162948
 20
109.9492456058306
 30
0.0
 10
227.2152284859009
 20
109.9943338980777
 30
0.0
 10
227.1622926940514
 20
110.0443677035755
 30
0.0
 10
227.1194686664487
 20
110.0992744712039
 30
0.0
 10
227.085909151755
 20
110.1581255956991
 30
0.0
 10
227.0632666939304
 20
110.2210211245259
 30
0.0
 10
227.0477584794535
 20
110.2868193863345
 30
0.0
 10
227.046309196411
 20
110.3320660072851
 30
0.0
 10
227.0455723780523
 20
110.355069478661
 30
0.0
  0
SPLINE
  5
172
330
1F
100
AcDbEntity
  8
0
  6
Continuous
 62
     7
370
     0
100
AcDbSpline
210
0.0
220
0.0
230
1.0
 70
     8
 71
     3
 72
    23
 73
    19
 74
     0
 42
0.00000001
 43
0.00000001
 40
0.0
 40
0.0
 40
0.0
 40
0.0
 40
0.031200111153937
 40
0.0704867190162008
 40
0.1172148300204117
 40
0.1715755269954914
 40
0.2341219784876085
 40
0.3039626396728061
 40
0.3821556401561972
 40
0.4676462220680265
 40
0.5543353814021599
 40
0.6350744656665042
 40
0.7100366878785244
 40
0.7790924037748317
 40
0.8429656453505103
 40
0.9010012068505269
 40
0.953246256459026
 40
1.0
 40
1.0
 40
1.0
 40
1.0
 10
228.0646680613539
 20
109.6833553610728
 30
0.0
 10
228.05742941308
 20
109.6863258634442
 30
0.0
 10
228.0410759916313
 20
109.6930367679329
 30
0.0
 10
228.0130469946625
 20
109.7019208500095
 30
0.0
 10
227.9797870401181
 20
109.7134088746464
 30
0.0
 10
227.9404970843199
 20
109.725239670323
 30
0.0
 10
227.8953874636716
 20
109.7377549975236
 30
0.0
 10
227.8445332811561
 20
109.7519204504388
 30
0.0
 10
227.7879629532604
 20
109.7669846342538
 30
0.0
 10
227.7272809121709
 20
109.7830188170586
 30
0.0
 10
227.6660105423885
 20
109.7993231221077
 30
0.0
 10
227.6074738620146
 20
109.8156426958262
 30
0.0
 10
227.5536173332356
 20
109.8322091536104
 30
0.0
 10
227.5039997983739
 20
109.848160365257
 30
0.0
 10
227.4588770583966
 20
109.8641773864595
 30
0.0
 10
227.4181210446158
 20
109.8798217055959
 30
0.0
 10
227.381680944167
 20
109.8947759201909
 30
0.0
 10
227.3594247180337
 20
109.9057715248014
 30
0.0
 10
227.3489138637524
 20
109.910964372731
 30
0.0
  0
SPLINE
  5
173
330
1F
100
AcDbEntity
  8
0
  6
Continuous
 62
     7
370
     0
100
AcDbSpline
210
0.0
220
0.0
230
1.0
 70
     8
 71
     3
 72
    15
 73
    11
 74
     0
 42
0.00000001
 43
0.00000001
 40
0.0
 40
0.0
 40
0.0
 40
0.0
 40
0.1177675192120368
 40
0.230176448544057
 40
0.3398429589695384
 40
0.4506252599208614
 40
0.5669428888721625
 40
0.6960213064547937
 40
0.8394383602270619
 40
1.0
 40
1.0
 40
1.0
 40
1.0
 10
228.2836336928226
 20
109.4059440159414
 30
0.0
 10
228.2829399977075
 20
109.4207965303699
 30
0.0
 10
228.2815841715931
 20
109.4498257486635
 30
0.0
 10
228.272748628309
 20
109.492088664251
 30
0.0
 10
228.2559554297682
 20
109.5307715079005
 30
0.0
 10
228.2341643247871
 20
109.5674531329762
 30
0.0
 10
228.2038491771177
 20
109.6009905319472
 30
0.0
 10
228.1655494091662
 20
109.6318922535684
 30
0.0
 10
228.118421180934
 20
109.659908053642
 30
0.0
 10
228.0832470488038
 20
109.675251138771
 30
0.0
 10
228.0646680613539
 20
109.6833553610728
 30
0.0
  0
SPLINE
  5
174
330
1F
100
AcDbEntity
  8
0
  6
Continuous
 62
     7
370
     0
100
AcDbSpline
210
0.0
220
0.0
230
1.0
 70
     8
 71
     3
 72
    19
 73
    15
 74
     0
 42
0.00000001
 43
0.00000001
 40
0.0
 40
0.0
 40
0.0
 40
0.0
 40
0.1055838864195047
 40
0.2058681332620123
 40
0.300946717742213
 40
0.3930019285950097
 40
0.4809485116065868
 40
0.5628738662802266
 40
0.6414613436333616
 40
0.7177416181792268
 40
0.7917717603087844
 40
0.8627163930302565
 40
0.9317768462002763
 40
1.0
 40
1.0
 40
1.0
 40
1.0
 10
227.8144216253897
 20
109.0474495328414
 30
0.0
 10
227.8376492072914
 20
109.0478794506431
 30
0.0
 10
227.8829384942125
 20
109.0487177071072
 30
0.0
 10
227.9484545099617
 20
109.0587872440245
 30
0.0
 10
228.0101052711529
 20
109.0730706116309
 30
0.0
 10
228.0667433928286
 20
109.0946764413453
 30
0.0
 10
228.118159942721
 20
109.1209126931389
 30
0.0
 10
228.1628094560362
 20
109.1526460549284
 30
0.0
 10
228.2009288354352
 20
109.1884325699223
 30
0.0
 10
228.2307790725546
 20
109.2292148350939
 30
0.0
 10
228.2542288228045
 20
109.2719478290821
 30
0.0
 10
228.2714316387536
 20
109.3158729396492
 30
0.0
 10
228.2816790036526
 20
109.3607463622923
 30
0.0
 10
228.2829847844394
 20
109.3909395145579
 30
0.0
 10
228.2836336928226
 20
109.4059440159414
 30
0.0
  0
SPLINE
  5
175
330
1F
100
AcDbEntity
  8
0
  6
Continuous
 62
     7
370
     0
100
AcDbSpline
210
0.0
220
0.0
230
1.0
 70
     8
 71
     3
 72
    19
 73
    15
 74
     0
 42
0.00000001
 43
0.00000001
 40
0.0
 40
0.0
 40
0.0
 40
0.0
 40
0.0937964706969321
 40
0.1801880710186105
 40
0.2603631916661885
 40
0.3348466760639744
 40
0.4070930058327154
 40
0.4814483792884674
 40
0.5592709137563652
 40
0.6422698113109349
 40
0.7285859445716477
 40
0.8159775452756136
 40
0.9060351298875359
 40
1.0
 40
1.0
 40
1.0
 40
1.0
 10
227.2563062188643
 20
109.5479424047698
 30
0.0
 10
227.2594934001032
 20
109.5219260282654
 30
0.0
 10
227.2656161468884
 20
109.4719471680545
 30
0.0
 10
227.2827359584475
 20
109.4011096573661
 30
0.0
 10
227.3047702605476
 20
109.3374194653654
 30
0.0
 10
227.3322243935193
 20
109.2800313107651
 30
0.0
 10
227.3683392593903
 20
109.2296332740802
 30
0.0
 10
227.4118514604955
 20
109.1841750146312
 30
0.0
 10
227.4646946605949
 20
109.1448109145678
 30
0.0
 10
227.5243425875415
 20
109.1097794445767
 30
0.0
 10
227.5907737316675
 20
109.0822741999875
 30
0.0
 10
227.6616949027779
 20
109.0618841094234
 30
0.0
 10
227.736767868712
 20
109.0498028182942
 30
0.0
 10
227.7881732158112
 20
109.048244986958
 30
0.0
 10
227.8144216253897
 20
109.0474495328414
 30
0.0
  0
LINE
  5
176
330
1F
100
AcDbEntity
  8
0
  6
Continuous
 62
     7
370
     0
100
AcDbLine
 10
226.9665471877
 20
109.5479424048
 30
0.0
 11
227.2563062189
 21
109.5479424048
 31
0.0
  0
SPLINE
  5
177
330
1F
100
AcDbEntity
  8
0
  6
Continuous
 62
     7
370
     0
100
AcDbSpline
210
0.0
220
0.0
230
1.0
 70
     8
 71
     3
 72
    31
 73
    27
 74
     0
 42
0.00000001
 43
0.00000001
 40
0.0
 40
0.0
 40
0.0
 40
0.0
 40
0.0524925849212958
 40
0.1028254751380329
 40
0.1513973394924577
 40
0.1980330772483325
 40
0.2428758954632244
 40
0.2859991683849086
 40
0.3278486614843784
 40
0.3683945968796912
 40
0.4078519911389193
 40
0.4468375528599374
 40
0.4851660451611074
 40
0.5233414044713737
 40
0.5616022144094732
 40
0.5999198855663566
 40
0.6384964264110082
 40
0.6777905770472508
 40
0.7172899891758322
 40
0.7566052415928194
 40
0.7960678905323556
 40
0.8358862309537681
 40
0.8757136832726162
 40
0.9162634539474125
 40
0.9577596754778293
 40
1.0
 40
1.0
 40
1.0
 40
1.0
 10
227.8271809009076
 20
108.8103739619279
 30
0.0
 10
227.804810155678
 20
108.8105585755216
 30
0.0
 10
227.7609890615011
 20
108.810920207179
 30
0.0
 10
227.6965988578385
 20
108.8152996806474
 30
0.0
 10
227.6348925488157
 20
108.8216348042506
 30
0.0
 10
227.5759306905752
 20
108.8310710413817
 30
0.0
 10
227.5198981816847
 20
108.8434508721102
 30
0.0
 10
227.4665938908585
 20
108.8583166562178
 30
0.0
 10
227.4158914718569
 20
108.8754376714399
 30
0.0
 10
227.3679680805759
 20
108.8955716885926
 30
0.0
 10
227.3229488170989
 20
108.9189652171478
 30
0.0
 10
227.2800241895615
 20
108.9442009154977
 30
0.0
 10
227.2398958295337
 20
108.972806762238
 30
0.0
 10
227.2024792618178
 20
109.0043332601146
 30
0.0
 10
227.1668264301929
 20
109.0378696367013
 30
0.0
 10
227.1344150384307
 20
109.0747854900676
 30
0.0
 10
227.104143182009
 20
109.1140012676465
 30
0.0
 10
227.0767025640924
 20
109.1558758871657
 30
0.0
 10
227.0521885495494
 20
109.1998614900731
 30
0.0
 10
227.0301434663599
 20
109.2452193854615
 30
0.0
 10
227.0115701753168
 20
109.292278609439
 30
0.0
 10
226.9966018700694
 20
109.3408013257118
 30
0.0
 10
226.9839229576758
 20
109.3904628196595
 30
0.0
 10
226.9751304249587
 20
109.4416774298967
 30
0.0
 10
226.9686658587463
 20
109.4942843610396
 30
0.0
 10
226.9672575828396
 20
109.5299507435224
 30
0.0
 10
226.9665471877478
 20
109.5479424047698
 30
0.0
  0
SPLINE
  5
178
330
1F
100
AcDbEntity
  8
0
  6
Continuous
 62
     7
370
     0
100
AcDbSpline
210
0.0
220
0.0
230
1.0
 70
     8
 71
     3
 72
    23
 73
    19
 74
     0
 42
0.00000001
 43
0.00000001
 40
0.0
 40
0.0
 40
0.0
 40
0.0
 40
0.0748159666505558
 40
0.1485345605139197
 40
0.2238723272963846
 40
0.3012971209351247
 40
0.3408936290197579
 40
0.38034006206544
 40
0.4201265887284643
 40
0.4599499070829665
 40
0.5008311555562169
 40
0.5419071755971084
 40
0.5844387941530512
 40
0.6280801713306066
 40
0.7172666799070602
 40
0.8078600064218678
 40
0.9019246558363443
 40
1.0
 40
1.0
 40
1.0
 40
1.0
 10
228.5733927239391
 20
109.4199380600578
 30
0.0
 10
228.5723204384389
 20
109.3930855472606
 30
0.0
 10
228.5701915953238
 20
109.3397743843417
 30
0.0
 10
228.5518614883279
 20
109.2611912646403
 30
0.0
 10
228.5230658597087
 20
109.1850446602791
 30
0.0
 10
228.4892958523334
 20
109.1246181351437
 30
0.0
 10
228.4573729883459
 20
109.0784610515248
 30
0.0
 10
228.4305562767759
 20
109.0452854493056
 30
0.0
 10
228.400818085419
 20
109.0146095495988
 30
0.0
 10
228.3688905383621
 20
108.9854723346741
 30
0.0
 10
228.3345257483119
 20
108.9584682989443
 30
0.0
 10
228.2974339987711
 20
108.9335882470404
 30
0.0
 10
228.2580067756024
 20
108.9105731798506
 30
0.0
 10
228.2017056923944
 20
108.8825279727363
 30
0.0
 10
228.1269285005719
 20
108.8531900229871
 30
0.0
 10
228.0316773698292
 20
108.8287583719734
 30
0.0
 10
227.9312942151451
 20
108.8129089558447
 30
0.0
 10
227.8623649446088
 20
108.8112306375357
 30
0.0
 10
227.8271809009076
 20
108.8103739619279
 30
0.0
  0
LINE
  5
179
330
1F
100
AcDbEntity
  8
0
  6
Continuous
 62
     7
370
     0
100
AcDbLine
 10
213.4845204502
 20
105.6757080798
 30
0.0
 11
212.9395759087
 21
107.4142622665
 31
0.0
  0
LINE
  5
17A
330
1F
100
AcDbEntity
  8
0
  6
Continuous
 62
     7
370
     0
100
AcDbLine
 10
213.7874503463
 20
105.6757080798
 30
0.0
 11
213.4845204502
 21
105.6757080798
 31
0.0
  0
LINE
  5
17B
330
1F
100
AcDbEntity
  8
0
  6
Continuous
 62
     7
370
     0
100
AcDbLine
 10
214.3356876041
 20
107.4142622665
 30
0.0
 11
213.7874503463
 21
105.6757080798
 31
0.0
  0
LINE
  5
17C
330
1F
100
AcDbEntity
  8
0
  6
Continuous
 62
     7
370
     0
100
AcDbLine
 10
214.3356876041
 20
105.6757080798
 30
0.0
 11
214.3356876041
 21
107.4142622665
 31
0.0
  0
LINE
  5
17D
330
1F
100
AcDbEntity
  8
0
  6
Continuous
 62
     7
370
     0
100
AcDbLine
 10
214.6254466352
 20
105.6757080798
 30
0.0
 11
214.3356876041
 21
105.6757080798
 31
0.0
  0
LINE
  5
17E
330
1F
100
AcDbEntity
  8
0
  6
Continuous
 62
     7
370
     0
100
AcDbLine
 10
214.6254466352
 20
107.7303630278
 30
0.0
 11
214.6254466352
 21
105.6757080798
 31
0.0
  0
LINE
  5
17F
330
1F
100
AcDbEntity
  8
0
  6
Continuous
 62
     7
370
     0
100
AcDbLine
 10
214.1932776257
 20
107.7303630278
 30
0.0
 11
214.6254466352
 21
107.7303630278
 31
0.0
  0
LINE
  5
180
330
1F
100
AcDbEntity
  8
0
  6
Continuous
 62
     7
370
     0
100
AcDbLine
 10
213.7384711919
 20
106.3132602662
 30
0.0
 11
214.1932776257
 21
107.7303630278
 31
0.0
  0
SPLINE
  5
181
330
1F
100
AcDbEntity
  8
0
  6
Continuous
 62
     7
370
     0
100
AcDbSpline
210
0.0
220
0.0
230
1.0
 70
     8
 71
     3
 72
    15
 73
    11
 74
     0
 42
0.00000001
 43
0.00000001
 40
0.0
 40
0.0
 40
0.0
 40
0.0
 40
0.0892047702332451
 40
0.1898334556643485
 40
0.2992325919749813
 40
0.4192609378429071
 40
0.5492073901909386
 40
0.6890743636843492
 40
0.8395791979483176
 40
1.0
 40
1.0
 40
1.0
 40
1.0
 10
213.637631756391
 20
105.9868697666738
 30
0.0
 10
213.6405000939576
 20
105.9966145550457
 30
0.0
 10
213.6466040997283
 20
106.0173520878762
 30
0.0
 10
213.6564996688361
 20
106.0499583034387
 30
0.0
 10
213.6670288361078
 20
106.0860407499905
 30
0.0
 10
213.6796290219118
 20
106.1249792291185
 30
0.0
 10
213.6927632243837
 20
106.1673845633372
 30
0.0
 10
213.7065492792358
 20
106.2132215363866
 30
0.0
 10
213.7224512250464
 20
106.2620325210621
 30
0.0
 10
213.7330188627612
 20
106.2958251159805
 30
0.0
 10
213.7384711919358
 20
106.3132602662127
 30
0.0
  0
SPLINE
  5
182
330
1F
100
AcDbEntity
  8
0
  6
Continuous
 62
     7
370
     0
100
AcDbSpline
210
0.0
220
0.0
230
1.0
 70
     8
 71
     3
 72
    15
 73
    11
 74
     0
 42
0.00000001
 43
0.00000001
 40
0.0
 40
0.0
 40
0.0
 40
0.0
 40
0.1625255217041868
 40
0.3143148980392372
 40
0.4549784905465745
 40
0.5845192373661998
 40
0.7045671033090736
 40
0.8134949897289286
 40
0.9116812596826069
 40
0.9999999999999999
 40
0.9999999999999999
 40
0.9999999999999999
 40
0.9999999999999999
 10
213.5450241115029
 20
106.2885648942425
 30
0.0
 10
213.5500791008049
 20
106.2722318340688
 30
0.0
 10
213.5598551558537
 20
106.2406446464729
 30
0.0
 10
213.5743518856441
 20
106.1950298410552
 30
0.0
 10
213.5875414794399
 20
106.1526411040098
 30
0.0
 10
213.5994207855694
 20
106.1133435097508
 30
0.0
 10
213.6106314402415
 20
106.0773321690371
 30
0.0
 10
213.620338100761
 20
106.0443115822577
 30
0.0
 10
213.6296179840108
 20
106.014648681537
 30
0.0
 10
213.6350564102635
 20
105.995796938226
 30
0.0
 10
213.637631756391
 20
105.9868697666738
 30
0.0
  0
LINE
  5
183
330
1F
100
AcDbEntity
  8
0
  6
Continuous
 62
     7
370
     0
100
AcDbLine
 10
213.0856901929
 20
107.7303630278
 30
0.0
 11
213.5450241115
 21
106.2885648942
 31
0.0
  0
LINE
  5
184
330
1F
100
AcDbEntity
  8
0
  6
Continuous
 62
     7
370
     0
100
AcDbLine
 10
212.6498168776
 20
107.7303630278
 30
0.0
 11
213.0856901929
 21
107.7303630278
 31
0.0
  0
LINE
  5
185
330
1F
100
AcDbEntity
  8
0
  6
Continuous
 62
     7
370
     0
100
AcDbLine
 10
212.6498168776
 20
105.6757080798
 30
0.0
 11
212.6498168776
 21
107.7303630278
 31
0.0
  0
LINE
  5
186
330
1F
100
AcDbEntity
  8
0
  6
Continuous
 62
     7
370
     0
100
AcDbLine
 10
212.9395759087
 20
105.6757080798
 30
0.0
 11
212.6498168776
 21
105.6757080798
 31
0.0
  0
LINE
  5
187
330
1F
100
AcDbEntity
  8
0
  6
Continuous
 62
     7
370
     0
100
AcDbLine
 10
212.9395759087
 20
107.4142622665
 30
0.0
 11
212.9395759087
 21
105.6757080798
 31
0.0
  0
SPLINE
  5
188
330
1F
100
AcDbEntity
  8
0
  6
Continuous
 62
     7
370
     0
100
AcDbSpline
210
0.0
220
0.0
230
1.0
 70
     8
 71
     3
 72
    31
 73
    27
 74
     0
 42
0.00000001
 43
0.00000001
 40
0.0
 40
0.0
 40
0.0
 40
0.0
 40
0.0628739462114324
 40
0.1228366299919128
 40
0.1796565674430314
 40
0.233960012230862
 40
0.2855950186955586
 40
0.3345131060783809
 40
0.3809048259061764
 40
0.4248945919393347
 40
0.4665290347654873
 40
0.5064882940692464
 40
0.5450315536447543
 40
0.5818311798231344
 40
0.617448279949443
 40
0.652066912769046
 40
0.6858797142465105
 40
0.7191745547913924
 40
0.7521816462063929
 40
0.7852401639180909
 40
0.8186564497770833
 40
0.8525477406533113
 40
0.887626342258519
 40
0.923635078068751
 40
0.9610218444769891
 40
1.0
 40
1.0
 40
1.0
 40
1.0
 10
217.8391377075796
 20
106.6890415096918
 30
0.0
 10
217.8388673433436
 20
106.6598165263489
 30
0.0
 10
217.8383391335902
 20
106.6027197687611
 30
0.0
 10
217.8352014173139
 20
106.5192476578824
 30
0.0
 10
217.8292331978369
 20
106.4399397885998
 30
0.0
 10
217.8218891947311
 20
106.3646144896593
 30
0.0
 10
217.8107792563147
 20
106.2934728441574
 30
0.0
 10
217.7988076957245
 20
106.2262125900637
 30
0.0
 10
217.7840018323992
 20
106.1631391481674
 30
0.0
 10
217.7667268659501
 20
106.1042248750045
 30
0.0
 10
217.7472713310102
 20
106.0491582531148
 30
0.0
 10
217.7259353263692
 20
105.9975231195815
 30
0.0
 10
217.7023036525656
 20
105.9493547573421
 30
0.0
 10
217.6756729417343
 20
105.9051229764421
 30
0.0
 10
217.6472616695353
 20
105.864240674044
 30
0.0
 10
217.6168617536067
 20
105.8265544914412
 30
0.0
 10
217.5838286801412
 20
105.7926068417325
 30
0.0
 10
217.5481958279687
 20
105.762588269315
 30
0.0
 10
217.5106855576474
 20
105.7355477657607
 30
0.0
 10
217.4705517002821
 20
105.7123952846981
 30
0.0
 10
217.427969915511
 20
105.6932138562772
 30
0.0
 10
217.3832247086348
 20
105.6768146879389
 30
0.0
 10
217.3358620749777
 20
105.6647983392423
 30
0.0
 10
217.286255511861
 20
105.6556000120837
 30
0.0
 10
217.2342222424827
 20
105.6501833709358
 30
0.0
 10
217.1987170184881
 20
105.6496424476263
 30
0.0
 10
217.1805944550422
 20
105.6493663497484
 30
0.0
  0
SPLINE
  5
189
330
1F
100
AcDbEntity
  8
0
  6
Continuous
 62
     7
370
     0
100
AcDbSpline
210
0.0
220
0.0
230
1.0
 70
     8
 71
     3
 72
    27
 73
    23
 74
     0
 42
0.00000001
 43
0.00000001
 40
0.0
 40
0.0
 40
0.0
 40
0.0
 40
0.0567243372181508
 40
0.1114372357370108
 40
0.1643678222229016
 40
0.21643537246209
 40
0.2676414903219249
 40
0.3173597799690281
 40
0.3674730633322806
 40
0.4182103970528083
 40
0.4714042826470201
 40
0.5279657201290494
 40
0.5880611158232139
 40
0.6521342629937146
 40
0.6863448363353056
 40
0.7232636803169652
 40
0.762610250771542
 40
0.8047389366452182
 40
0.8494303387909499
 40
0.8967112583864923
 40
0.9468896380534765
 40
1.0
 40
1.0
 40
1.0
 40
1.0
 10
217.1805944550422
 20
107.7303630277666
 30
0.0
 10
217.2069816441515
 20
107.7295872630818
 30
0.0
 10
217.2588203355743
 20
107.7280632422418
 30
0.0
 10
217.3345050927523
 20
107.7156336048164
 30
0.0
 10
217.4058330983975
 20
107.6943707943088
 30
0.0
 10
217.4727580112242
 20
107.6656863456622
 30
0.0
 10
217.5341357602158
 20
107.6292515750843
 30
0.0
 10
217.588948677049
 20
107.5849595604357
 30
0.0
 10
217.6366055158777
 20
107.5332753591234
 30
0.0
 10
217.6765861760501
 20
107.4735865303089
 30
0.0
 10
217.7115332637683
 20
107.4075396904964
 30
0.0
 10
217.7425794893435
 20
107.3348383971038
 30
0.0
 10
217.7706443755181
 20
107.2555641201402
 30
0.0
 10
217.7905598297017
 20
107.1846025754649
 30
0.0
 10
217.8047655068186
 20
107.1233460521697
 30
0.0
 10
217.8141685363848
 20
107.0728234045892
 30
0.0
 10
217.8219749360392
 20
107.0183091834203
 30
0.0
 10
217.8279556931691
 20
106.9599352732388
 30
0.0
 10
217.8328627632809
 20
106.8977671455793
 30
0.0
 10
217.836652268639
 20
106.831766093376
 30
0.0
 10
217.8385758306131
 20
106.7617671582284
 30
0.0
 10
217.8389469041262
 20
106.7137378501993
 30
0.0
 10
217.8391377075796
 20
106.6890415096918
 30
0.0
  0
SPLINE
  5
18A
330
1F
100
AcDbEntity
  8
0
  6
Continuous
 62
     7
370
     0
100
AcDbSpline
210
0.0
220
0.0
230
1.0
 70
     8
 71
     3
 72
    31
 73
    27
 74
     0
 42
0.00000001
 43
0.00000001
 40
0.0
 40
0.0
 40
0.0
 40
0.0
 40
0.0631144583947934
 40
0.12361464576949
 40
0.1809737111859576
 40
0.2352614550083222
 40
0.287100701833872
 40
0.3360307363034437
 40
0.3823823485850663
 40
0.4263340836597074
 40
0.4682106947981602
 40
0.5082496012618052
 40
0.546628336606585
 40
0.5836495392304464
 40
0.6189943150301619
 40
0.6535830186205964
 40
0.6871561361903313
 40
0.7204221919788077
 40
0.7532302188118172
 40
0.7862601560779
 40
0.8195039834988844
 40
0.8535452747120187
 40
0.8883082803397302
 40
0.9239958607406948
 40
0.961350304754645
 40
1.0
 40
1.0
 40
1.0
 40
1.0
 10
216.5220512025048
 20
106.6890415096918
 30
0.0
 10
216.5223165954931
 20
106.718404414894
 30
0.0
 10
216.5228363885973
 20
106.7759139811272
 30
0.0
 10
216.5260604963626
 20
106.8600608077734
 30
0.0
 10
216.5316895272675
 20
106.9399715648128
 30
0.0
 10
216.5400921207702
 20
107.0155768534867
 30
0.0
 10
216.5500423657126
 20
107.0870473297891
 30
0.0
 10
216.5629777469113
 20
107.1542809979795
 30
0.0
 10
216.5775319312551
 20
107.217428707624
 30
0.0
 10
216.5949943406784
 20
107.276424637465
 30
0.0
 10
216.6141798120239
 20
107.3317760451052
 30
0.0
 10
216.635946341342
 20
107.3833941343905
 30
0.0
 10
216.6604366395361
 20
107.4312241779967
 30
0.0
 10
216.686447160672
 20
107.4757622003023
 30
0.0
 10
216.7153471519053
 20
107.5163154517615
 30
0.0
 10
216.7453922677144
 20
107.5540220226247
 30
0.0
 10
216.7787660077248
 20
107.5874990658104
 30
0.0
 10
216.8140806202353
 20
107.6176079486736
 30
0.0
 10
216.851856122071
 20
107.6441772831463
 30
0.0
 10
216.8918926433235
 20
107.6671034140797
 30
0.0
 10
216.9340361343504
 20
107.68734553463
 30
0.0
 10
216.9790898034854
 20
107.7025837976921
 30
0.0
 10
217.0261183452161
 20
107.7150062124545
 30
0.0
 10
217.0754837608687
 20
107.7241442913756
 30
0.0
 10
217.12724045037
 20
107.7295314972928
 30
0.0
 10
217.1626088723566
 20
107.7300827196588
 30
0.0
 10
217.1805944550422
 20
107.7303630277666
 30
0.0
  0
SPLINE
  5
18B
330
1F
100
AcDbEntity
  8
0
  6
Continuous
 62
     7
370
     0
100
AcDbSpline
210
0.0
220
0.0
230
1.0
 70
     8
 71
     3
 72
    15
 73
    11
 74
     0
 42
0.00000001
 43
0.00000001
 40
0.0
 40
0.0
 40
0.0
 40
0.0
 40
0.0974206681772145
 40
0.2008855880393207
 40
0.3111719701726504
 40
0.4297979458253723
 40
0.5577399263645877
 40
0.6947152693641585
 40
0.8421299102060552
 40
1.0
 40
1.0
 40
1.0
 40
1.0
 10
216.7216721259302
 20
105.8473409150425
 30
0.0
 10
216.7053883690115
 20
105.8708304732905
 30
0.0
 10
216.6718105651913
 20
105.9192669479084
 30
0.0
 10
216.6325106571818
 20
106.0018556301912
 30
0.0
 10
216.5974544434417
 20
106.0927741736908
 30
0.0
 10
216.5699417430298
 20
106.1938063894527
 30
0.0
 10
216.5483924402608
 20
106.3041481752512
 30
0.0
 10
216.5328284634645
 20
106.4240160451741
 30
0.0
 10
216.5240207848558
 20
106.5533582123473
 30
0.0
 10
216.522722550678
 20
106.642792753573
 30
0.0
 10
216.5220512025048
 20
106.6890415096918
 30
0.0
  0
SPLINE
  5
18C
330
1F
100
AcDbEntity
  8
0
  6
Continuous
 62
     7
370
     0
100
AcDbSpline
210
0.0
220
0.0
230
1.0
 70
     8
 71
     3
 72
    15
 73
    11
 74
     0
 42
0.00000001
 43
0.00000001
 40
0.0
 40
0.0
 40
0.0
 40
0.0
 40
0.1379032299933942
 40
0.2688733426002937
 40
0.3951781273461125
 40
0.5170892381308875
 40
0.6367430265135471
 40
0.7562218164637977
 40
0.87662835946368
 40
1.0
 40
1.0
 40
1.0
 40
1.0
 10
217.1805944550422
 20
105.6493663497484
 30
0.0
 10
217.1568336731044
 20
105.6500441273096
 30
0.0
 10
217.1105066881405
 20
105.6513656070053
 30
0.0
 10
217.0428495425549
 20
105.6603442475677
 30
0.0
 10
216.9793497026316
 20
105.6761470765205
 30
0.0
 10
216.9194715835853
 20
105.6973408984451
 30
0.0
 10
216.863888231846
 20
105.7256888557258
 30
0.0
 10
216.812334259011
 20
105.7601796812557
 30
0.0
 10
216.7637737251618
 20
105.8000109095498
 30
0.0
 10
216.735819329676
 20
105.8314368343611
 30
0.0
 10
216.7216721259302
 20
105.8473409150425
 30
0.0
  0
LINE
  5
18D
330
1F
100
AcDbEntity
  8
0
  6
Continuous
 62
     7
370
     0
100
AcDbLine
 10
219.6303753545
 20
106.5186434431
 30
0.0
 11
220.3942855274
 21
106.5186434431
 31
0.0
  0
LINE
  5
18E
330
1F
100
AcDbEntity
  8
0
  6
Continuous
 62
     7
370
     0
100
AcDbLine
 10
219.6303753545
 20
106.2815678722
 30
0.0
 11
219.6303753545
 21
106.5186434431
 31
0.0
  0
LINE
  5
18F
330
1F
100
AcDbEntity
  8
0
  6
Continuous
 62
     7
370
     0
100
AcDbLine
 10
220.3942855274
 20
106.2815678722
 30
0.0
 11
219.6303753545
 21
106.2815678722
 31
0.0
  0
LINE
  5
190
330
1F
100
AcDbEntity
  8
0
  6
Continuous
 62
     7
370
     0
100
AcDbLine
 10
220.3942855274
 20
106.5186434431
 30
0.0
 11
220.3942855274
 21
106.2815678722
 31
0.0
  0
SPLINE
  5
191
330
1F
100
AcDbEntity
  8
0
  6
Continuous
 62
     7
370
     0
100
AcDbSpline
210
0.0
220
0.0
230
1.0
 70
     8
 71
     3
 72
    31
 73
    27
 74
     0
 42
0.00000001
 43
0.00000001
 40
0.0
 40
0.0
 40
0.0
 40
0.0
 40
0.0628739462114324
 40
0.1228366299919128
 40
0.1796565674430314
 40
0.233960012230862
 40
0.285595018695559
 40
0.3345131060783806
 40
0.3809048259061764
 40
0.4248945919393347
 40
0.4665290347654873
 40
0.5064882940692464
 40
0.5450315536447543
 40
0.5818311798231344
 40
0.617448279949443
 40
0.652066912769046
 40
0.6858797142465105
 40
0.7191745547913924
 40
0.7521816462063929
 40
0.7852401639180909
 40
0.8186564497770833
 40
0.8525477406533113
 40
0.887626342258519
 40
0.923635078068751
 40
0.9610218444769892
 40
1.0
 40
1.0
 40
1.0
 40
1.0
 10
223.5289514095026
 20
106.6890415096918
 30
0.0
 10
223.5286810452666
 20
106.6598165263489
 30
0.0
 10
223.5281528355133
 20
106.6027197687611
 30
0.0
 10
223.5250151192369
 20
106.5192476578824
 30
0.0
 10
223.51904689976
 20
106.4399397885998
 30
0.0
 10
223.5117028966542
 20
106.3646144896593
 30
0.0
 10
223.5005929582378
 20
106.2934728441574
 30
0.0
 10
223.4886213976476
 20
106.2262125900637
 30
0.0
 10
223.4738155343223
 20
106.1631391481674
 30
0.0
 10
223.4565405678732
 20
106.1042248750045
 30
0.0
 10
223.4370850329333
 20
106.0491582531148
 30
0.0
 10
223.4157490282923
 20
105.9975231195815
 30
0.0
 10
223.3921173544887
 20
105.9493547573421
 30
0.0
 10
223.3654866436573
 20
105.9051229764421
 30
0.0
 10
223.3370753714583
 20
105.864240674044
 30
0.0
 10
223.3066754555298
 20
105.8265544914412
 30
0.0
 10
223.2736423820643
 20
105.7926068417325
 30
0.0
 10
223.2380095298917
 20
105.762588269315
 30
0.0
 10
223.2004992595705
 20
105.7355477657607
 30
0.0
 10
223.1603654022051
 20
105.7123952846981
 30
0.0
 10
223.117783617434
 20
105.6932138562772
 30
0.0
 10
223.0730384105579
 20
105.6768146879389
 30
0.0
 10
223.0256757769008
 20
105.6647983392423
 30
0.0
 10
222.9760692137841
 20
105.6556000120837
 30
0.0
 10
222.9240359444058
 20
105.6501833709358
 30
0.0
 10
222.8885307204112
 20
105.6496424476263
 30
0.0
 10
222.8704081569652
 20
105.6493663497484
 30
0.0
  0
SPLINE
  5
192
330
1F
100
AcDbEntity
  8
0
  6
Continuous
 62
     7
370
     0
100
AcDbSpline
210
0.0
220
0.0
230
1.0
 70
     8
 71
     3
 72
    27
 73
    23
 74
     0
 42
0.00000001
 43
0.00000001
 40
0.0
 40
0.0
 40
0.0
 40
0.0
 40
0.0567243372181508
 40
0.1114372357370108
 40
0.1643678222229016
 40
0.21643537246209
 40
0.2676414903219249
 40
0.3173597799690281
 40
0.3674730633322806
 40
0.4182103970528083
 40
0.4714042826470201
 40
0.5279657201290494
 40
0.5880611158232139
 40
0.6521342629937146
 40
0.6863448363353056
 40
0.7232636803169652
 40
0.762610250771542
 40
0.8047389366452182
 40
0.8494303387909499
 40
0.8967112583864923
 40
0.9468896380534765
 40
1.0
 40
1.0
 40
1.0
 40
1.0
 10
222.8704081569652
 20
107.7303630277666
 30
0.0
 10
222.8967953460746
 20
107.7295872630818
 30
0.0
 10
222.9486340374974
 20
107.7280632422418
 30
0.0
 10
223.0243187946754
 20
107.7156336048164
 30
0.0
 10
223.0956468003205
 20
107.6943707943088
 30
0.0
 10
223.1625717131473
 20
107.6656863456622
 30
0.0
 10
223.2239494621388
 20
107.6292515750843
 30
0.0
 10
223.2787623789721
 20
107.5849595604357
 30
0.0
 10
223.3264192178008
 20
107.5332753591234
 30
0.0
 10
223.3663998779732
 20
107.4735865303089
 30
0.0
 10
223.4013469656914
 20
107.4075396904964
 30
0.0
 10
223.4323931912666
 20
107.3348383971038
 30
0.0
 10
223.4604580774412
 20
107.2555641201402
 30
0.0
 10
223.4803735316248
 20
107.1846025754649
 30
0.0
 10
223.4945792087417
 20
107.1233460521697
 30
0.0
 10
223.5039822383079
 20
107.0728234045892
 30
0.0
 10
223.5117886379623
 20
107.0183091834203
 30
0.0
 10
223.5177693950922
 20
106.9599352732388
 30
0.0
 10
223.522676465204
 20
106.8977671455793
 30
0.0
 10
223.526465970562
 20
106.831766093376
 30
0.0
 10
223.5283895325362
 20
106.7617671582284
 30
0.0
 10
223.5287606060493
 20
106.7137378501993
 30
0.0
 10
223.5289514095026
 20
106.6890415096918
 30
0.0
  0
SPLINE
  5
193
330
1F
100
AcDbEntity
  8
0
  6
Continuous
 62
     7
370
     0
100
AcDbSpline
210
0.0
220
0.0
230
1.0
 70
     8
 71
     3
 72
    31
 73
    27
 74
     0
 42
0.00000001
 43
0.00000001
 40
0.0
 40
0.0
 40
0.0
 40
0.0
 40
0.0631144583947934
 40
0.12361464576949
 40
0.1809737111859576
 40
0.2352614550083222
 40
0.287100701833872
 40
0.3360307363034436
 40
0.3823823485850663
 40
0.4263340836597073
 40
0.4682106947981602
 40
0.5082496012618052
 40
0.546628336606585
 40
0.5836495392304463
 40
0.6189943150301618
 40
0.6535830186205961
 40
0.6871561361903314
 40
0.7204221919788075
 40
0.753230218811817
 40
0.7862601560779
 40
0.8195039834988841
 40
0.8535452747120184
 40
0.8883082803397299
 40
0.9239958607406952
 40
0.961350304754645
 40
1.0
 40
1.0
 40
1.0
 40
1.0
 10
222.2118649044278
 20
106.6890415096918
 30
0.0
 10
222.2121302974162
 20
106.718404414894
 30
0.0
 10
222.2126500905204
 20
106.7759139811272
 30
0.0
 10
222.2158741982857
 20
106.8600608077734
 30
0.0
 10
222.2215032291906
 20
106.9399715648128
 30
0.0
 10
222.2299058226932
 20
107.0155768534867
 30
0.0
 10
222.2398560676357
 20
107.0870473297891
 30
0.0
 10
222.2527914488344
 20
107.1542809979795
 30
0.0
 10
222.2673456331782
 20
107.217428707624
 30
0.0
 10
222.2848080426015
 20
107.276424637465
 30
0.0
 10
222.303993513947
 20
107.3317760451052
 30
0.0
 10
222.3257600432651
 20
107.3833941343905
 30
0.0
 10
222.3502503414592
 20
107.4312241779967
 30
0.0
 10
222.3762608625951
 20
107.4757622003023
 30
0.0
 10
222.4051608538284
 20
107.5163154517615
 30
0.0
 10
222.4352059696375
 20
107.5540220226247
 30
0.0
 10
222.4685797096479
 20
107.5874990658104
 30
0.0
 10
222.5038943221583
 20
107.6176079486736
 30
0.0
 10
222.5416698239941
 20
107.6441772831463
 30
0.0
 10
222.5817063452466
 20
107.6671034140797
 30
0.0
 10
222.6238498362735
 20
107.68734553463
 30
0.0
 10
222.6689035054085
 20
107.7025837976921
 30
0.0
 10
222.7159320471391
 20
107.7150062124545
 30
0.0
 10
222.7652974627918
 20
107.7241442913756
 30
0.0
 10
222.817054152293
 20
107.7295314972928
 30
0.0
 10
222.8524225742797
 20
107.7300827196588
 30
0.0
 10
222.8704081569652
 20
107.7303630277666
 30
0.0
  0
SPLINE
  5
194
330
1F
100
AcDbEntity
  8
0
  6
Continuous
 62
     7
370
     0
100
AcDbSpline
210
0.0
220
0.0
230
1.0
 70
     8
 71
     3
 72
    15
 73
    11
 74
     0
 42
0.00000001
 43
0.00000001
 40
0.0
 40
0.0
 40
0.0
 40
0.0
 40
0.0974206681772144
 40
0.2008855880393207
 40
0.3111719701726504
 40
0.4297979458253729
 40
0.5577399263645872
 40
0.6947152693641585
 40
0.8421299102060553
 40
1.0
 40
1.0
 40
1.0
 40
1.0
 10
222.4114858278533
 20
105.8473409150425
 30
0.0
 10
222.3952020709346
 20
105.8708304732905
 30
0.0
 10
222.3616242671144
 20
105.9192669479084
 30
0.0
 10
222.3223243591049
 20
106.0018556301912
 30
0.0
 10
222.2872681453648
 20
106.0927741736908
 30
0.0
 10
222.2597554449528
 20
106.1938063894527
 30
0.0
 10
222.2382061421839
 20
106.3041481752512
 30
0.0
 10
222.2226421653876
 20
106.4240160451741
 30
0.0
 10
222.2138344867789
 20
106.5533582123473
 30
0.0
 10
222.2125362526011
 20
106.642792753573
 30
0.0
 10
222.2118649044278
 20
106.6890415096918
 30
0.0
  0
SPLINE
  5
195
330
1F
100
AcDbEntity
  8
0
  6
Continuous
 62
     7
370
     0
100
AcDbSpline
210
0.0
220
0.0
230
1.0
 70
     8
 71
     3
 72
    15
 73
    11
 74
     0
 42
0.00000001
 43
0.00000001
 40
0.0
 40
0.0
 40
0.0
 40
0.0
 40
0.1379032299933933
 40
0.2688733426002935
 40
0.3951781273461131
 40
0.5170892381308876
 40
0.6367430265135475
 40
0.7562218164637967
 40
0.8766283594636793
 40
1.0
 40
1.0
 40
1.0
 40
1.0
 10
222.8704081569652
 20
105.6493663497484
 30
0.0
 10
222.8466473750275
 20
105.6500441273096
 30
0.0
 10
222.8003203900635
 20
105.6513656070053
 30
0.0
 10
222.732663244478
 20
105.6603442475677
 30
0.0
 10
222.6691634045547
 20
105.6761470765205
 30
0.0
 10
222.6092852855083
 20
105.6973408984451
 30
0.0
 10
222.5537019337691
 20
105.7256888557258
 30
0.0
 10
222.502147960934
 20
105.7601796812557
 30
0.0
 10
222.4535874270849
 20
105.8000109095498
 30
0.0
 10
222.4256330315991
 20
105.8314368343611
 30
0.0
 10
222.4114858278533
 20
105.8473409150425
 30
0.0
  0
LINE
  5
196
330
1F
100
AcDbEntity
  8
0
  6
Continuous
 62
     7
370
     0
100
AcDbLine
 10
225.3201890564
 20
106.5186434431
 30
0.0
 11
226.0840992293
 21
106.5186434431
 31
0.0
  0
LINE
  5
197
330
1F
100
AcDbEntity
  8
0
  6
Continuous
 62
     7
370
     0
100
AcDbLine
 10
225.3201890564
 20
106.2815678722
 30
0.0
 11
225.3201890564
 21
106.5186434431
 31
0.0
  0
LINE
  5
198
330
1F
100
AcDbEntity
  8
0
  6
Continuous
 62
     7
370
     0
100
AcDbLine
 10
226.0840992293
 20
106.2815678722
 30
0.0
 11
225.3201890564
 21
106.2815678722
 31
0.0
  0
LINE
  5
199
330
1F
100
AcDbEntity
  8
0
  6
Continuous
 62
     7
370
     0
100
AcDbLine
 10
226.0840992293
 20
106.5186434431
 30
0.0
 11
226.0840992293
 21
106.2815678722
 31
0.0
  0
SPLINE
  5
19A
330
1F
100
AcDbEntity
  8
0
  6
Continuous
 62
     7
370
     0
100
AcDbSpline
210
0.0
220
0.0
230
1.0
 70
     8
 71
     3
 72
    31
 73
    27
 74
     0
 42
0.00000001
 43
0.00000001
 40
0.0
 40
0.0
 40
0.0
 40
0.0
 40
0.0628739462114323
 40
0.1228366299919128
 40
0.1796565674430313
 40
0.233960012230862
 40
0.2855950186955588
 40
0.3345131060783805
 40
0.3809048259061761
 40
0.4248945919393346
 40
0.466529034765487
 40
0.5064882940692461
 40
0.545031553644754
 40
0.581831179823134
 40
0.6174482799494426
 40
0.6520669127690459
 40
0.6858797142465098
 40
0.7191745547913915
 40
0.752181646206392
 40
0.7852401639180906
 40
0.8186564497770824
 40
0.852547740653311
 40
0.8876263422585193
 40
0.9236350780687504
 40
0.9610218444769894
 40
0.9999999999999999
 40
0.9999999999999999
 40
0.9999999999999999
 40
0.9999999999999999
 10
229.9826752843691
 20
106.6890415096918
 30
0.0
 10
229.9824049201331
 20
106.6598165263489
 30
0.0
 10
229.9818767103797
 20
106.6027197687611
 30
0.0
 10
229.9787389941034
 20
106.5192476578824
 30
0.0
 10
229.9727707746265
 20
106.4399397885998
 30
0.0
 10
229.9654267715207
 20
106.3646144896593
 30
0.0
 10
229.9543168331042
 20
106.2934728441574
 30
0.0
 10
229.942345272514
 20
106.2262125900637
 30
0.0
 10
229.9275394091887
 20
106.1631391481674
 30
0.0
 10
229.9102644427396
 20
106.1042248750045
 30
0.0
 10
229.8908089077997
 20
106.0491582531148
 30
0.0
 10
229.8694729031587
 20
105.9975231195815
 30
0.0
 10
229.8458412293552
 20
105.9493547573421
 30
0.0
 10
229.8192105185238
 20
105.9051229764421
 30
0.0
 10
229.7907992463248
 20
105.864240674044
 30
0.0
 10
229.7603993303962
 20
105.8265544914412
 30
0.0
 10
229.7273662569307
 20
105.7926068417325
 30
0.0
 10
229.6917334047582
 20
105.762588269315
 30
0.0
 10
229.654223134437
 20
105.7355477657607
 30
0.0
 10
229.6140892770716
 20
105.7123952846981
 30
0.0
 10
229.5715074923005
 20
105.6932138562772
 30
0.0
 10
229.5267622854244
 20
105.6768146879389
 30
0.0
 10
229.4793996517673
 20
105.6647983392423
 30
0.0
 10
229.4297930886505
 20
105.6556000120837
 30
0.0
 10
229.3777598192723
 20
105.6501833709358
 30
0.0
 10
229.3422545952776
 20
105.6496424476263
 30
0.0
 10
229.3241320318317
 20
105.6493663497484
 30
0.0
  0
SPLINE
  5
19B
330
1F
100
AcDbEntity
  8
0
  6
Continuous
 62
     7
370
     0
100
AcDbSpline
210
0.0
220
0.0
230
1.0
 70
     8
 71
     3
 72
    27
 73
    23
 74
     0
 42
0.00000001
 43
0.00000001
 40
0.0
 40
0.0
 40
0.0
 40
0.0
 40
0.0567243372181507
 40
0.111437235737011
 40
0.1643678222229012
 40
0.2164353724620905
 40
0.2676414903219251
 40
0.3173597799690278
 40
0.3674730633322807
 40
0.4182103970528084
 40
0.4714042826470199
 40
0.5279657201290496
 40
0.5880611158232141
 40
0.6521342629937146
 40
0.6863448363353056
 40
0.7232636803169652
 40
0.7626102507715419
 40
0.8047389366452182
 40
0.84943033879095
 40
0.8967112583864925
 40
0.9468896380534765
 40
1.0
 40
1.0
 40
1.0
 40
1.0
 10
229.3241320318317
 20
107.7303630277666
 30
0.0
 10
229.350519220941
 20
107.7295872630818
 30
0.0
 10
229.4023579123638
 20
107.7280632422418
 30
0.0
 10
229.4780426695418
 20
107.7156336048164
 30
0.0
 10
229.549370675187
 20
107.6943707943088
 30
0.0
 10
229.6162955880137
 20
107.6656863456622
 30
0.0
 10
229.6776733370053
 20
107.6292515750843
 30
0.0
 10
229.7324862538385
 20
107.5849595604357
 30
0.0
 10
229.7801430926673
 20
107.5332753591234
 30
0.0
 10
229.8201237528396
 20
107.4735865303089
 30
0.0
 10
229.8550708405578
 20
107.4075396904964
 30
0.0
 10
229.886117066133
 20
107.3348383971038
 30
0.0
 10
229.9141819523076
 20
107.2555641201402
 30
0.0
 10
229.9340974064913
 20
107.1846025754649
 30
0.0
 10
229.9483030836081
 20
107.1233460521697
 30
0.0
 10
229.9577061131744
 20
107.0728234045892
 30
0.0
 10
229.9655125128287
 20
107.0183091834203
 30
0.0
 10
229.9714932699587
 20
106.9599352732388
 30
0.0
 10
229.9764003400704
 20
106.8977671455793
 30
0.0
 10
229.9801898454285
 20
106.831766093376
 30
0.0
 10
229.9821134074027
 20
106.7617671582284
 30
0.0
 10
229.9824844809158
 20
106.7137378501993
 30
0.0
 10
229.9826752843691
 20
106.6890415096918
 30
0.0
  0
SPLINE
  5
19C
330
1F
100
AcDbEntity
  8
0
  6
Continuous
 62
     7
370
     0
100
AcDbSpline
210
0.0
220
0.0
230
1.0
 70
     8
 71
     3
 72
    31
 73
    27
 74
     0
 42
0.00000001
 43
0.00000001
 40
0.0
 40
0.0
 40
0.0
 40
0.0
 40
0.0631144583947934
 40
0.12361464576949
 40
0.1809737111859576
 40
0.2352614550083222
 40
0.287100701833872
 40
0.3360307363034437
 40
0.3823823485850663
 40
0.4263340836597074
 40
0.4682106947981602
 40
0.5082496012618052
 40
0.546628336606585
 40
0.5836495392304464
 40
0.6189943150301619
 40
0.6535830186205964
 40
0.6871561361903313
 40
0.7204221919788073
 40
0.7532302188118167
 40
0.7862601560779001
 40
0.8195039834988846
 40
0.853545274712019
 40
0.8883082803397305
 40
0.9239958607406957
 40
0.9613503047546453
 40
1.0
 40
1.0
 40
1.0
 40
1.0
 10
228.6655887792943
 20
106.6890415096918
 30
0.0
 10
228.6658541722826
 20
106.718404414894
 30
0.0
 10
228.6663739653868
 20
106.7759139811272
 30
0.0
 10
228.6695980731521
 20
106.8600608077734
 30
0.0
 10
228.675227104057
 20
106.9399715648128
 30
0.0
 10
228.6836296975597
 20
107.0155768534867
 30
0.0
 10
228.6935799425022
 20
107.0870473297891
 30
0.0
 10
228.7065153237008
 20
107.1542809979795
 30
0.0
 10
228.7210695080446
 20
107.217428707624
 30
0.0
 10
228.7385319174679
 20
107.276424637465
 30
0.0
 10
228.7577173888135
 20
107.3317760451052
 30
0.0
 10
228.7794839181315
 20
107.3833941343905
 30
0.0
 10
228.8039742163257
 20
107.4312241779967
 30
0.0
 10
228.8299847374616
 20
107.4757622003023
 30
0.0
 10
228.8588847286948
 20
107.5163154517615
 30
0.0
 10
228.888929844504
 20
107.5540220226247
 30
0.0
 10
228.9223035845143
 20
107.5874990658104
 30
0.0
 10
228.9576181970248
 20
107.6176079486736
 30
0.0
 10
228.9953936988605
 20
107.6441772831463
 30
0.0
 10
229.0354302201131
 20
107.6671034140797
 30
0.0
 10
229.0775737111399
 20
107.68734553463
 30
0.0
 10
229.1226273802749
 20
107.7025837976921
 30
0.0
 10
229.1696559220056
 20
107.7150062124545
 30
0.0
 10
229.2190213376583
 20
107.7241442913756
 30
0.0
 10
229.2707780271595
 20
107.7295314972928
 30
0.0
 10
229.3061464491461
 20
107.7300827196588
 30
0.0
 10
229.3241320318317
 20
107.7303630277666
 30
0.0
  0
SPLINE
  5
19D
330
1F
100
AcDbEntity
  8
0
  6
Continuous
 62
     7
370
     0
100
AcDbSpline
210
0.0
220
0.0
230
1.0
 70
     8
 71
     3
 72
    15
 73
    11
 74
     0
 42
0.00000001
 43
0.00000001
 40
0.0
 40
0.0
 40
0.0
 40
0.0
 40
0.0974206681772145
 40
0.2008855880393207
 40
0.3111719701726504
 40
0.4297979458253728
 40
0.5577399263645871
 40
0.6947152693641585
 40
0.8421299102060552
 40
1.0
 40
1.0
 40
1.0
 40
1.0
 10
228.8652097027197
 20
105.8473409150425
 30
0.0
 10
228.8489259458011
 20
105.8708304732905
 30
0.0
 10
228.8153481419808
 20
105.9192669479084
 30
0.0
 10
228.7760482339713
 20
106.0018556301912
 30
0.0
 10
228.7409920202313
 20
106.0927741736908
 30
0.0
 10
228.7134793198193
 20
106.1938063894527
 30
0.0
 10
228.6919300170503
 20
106.3041481752512
 30
0.0
 10
228.676366040254
 20
106.4240160451741
 30
0.0
 10
228.6675583616453
 20
106.5533582123473
 30
0.0
 10
228.6662601274675
 20
106.642792753573
 30
0.0
 10
228.6655887792943
 20
106.6890415096918
 30
0.0
  0
SPLINE
  5
19E
330
1F
100
AcDbEntity
  8
0
  6
Continuous
 62
     7
370
     0
100
AcDbSpline
210
0.0
220
0.0
230
1.0
 70
     8
 71
     3
 72
    15
 73
    11
 74
     0
 42
0.00000001
 43
0.00000001
 40
0.0
 40
0.0
 40
0.0
 40
0.0
 40
0.1379032299933935
 40
0.2688733426002931
 40
0.395178127346112
 40
0.5170892381308886
 40
0.6367430265135469
 40
0.7562218164637976
 40
0.8766283594636788
 40
1.0
 40
1.0
 40
1.0
 40
1.0
 10
229.3241320318317
 20
105.6493663497484
 30
0.0
 10
229.300371249894
 20
105.6500441273096
 30
0.0
 10
229.25404426493
 20
105.6513656070053
 30
0.0
 10
229.1863871193444
 20
105.6603442475677
 30
0.0
 10
229.1228872794212
 20
105.6761470765205
 30
0.0
 10
229.0630091603748
 20
105.6973408984451
 30
0.0
 10
229.0074258086355
 20
105.7256888557258
 30
0.0
 10
228.9558718358005
 20
105.7601796812557
 30
0.0
 10
228.9073113019514
 20
105.8000109095498
 30
0.0
 10
228.8793569064656
 20
105.8314368343611
 30
0.0
 10
228.8652097027197
 20
105.8473409150425
 30
0.0
  0
CIRCLE
  5
19F
330
1F
100
AcDbEntity
  8
0
  6
Continuous
 62
     7
370
     0
100
AcDbCircle
 10
221.05282878
 20
108.286715692
 30
0.0
 40
25.40000000000001
  0
SPLINE
  5
1A0
330
1F
100
AcDbEntity
  8
0
  6
Continuous
 62
     7
370
     0
100
AcDbSpline
210
0.0
220
0.0
230
1.0
 70
     8
 71
     3
 72
    23
 73
    19
 74
     0
 42
0.00000001
 43
0.00000001
 40
0.0
 40
0.0
 40
0.0
 40
0.0
 40
0.1156291309254414
 40
0.2215410391198768
 40
0.3170478562190416
 40
0.4031508756396165
 40
0.4801812167162793
 40
0.5476493661481897
 40
0.6070358428421808
 40
0.6586524080635068
 40
0.7057228903536459
 40
0.7498040879796477
 40
0.7925868153452742
 40
0.8338739610102598
 40
0.8747683933034333
 40
0.9152226988916381
 40
0.9568807037304797
 40
1.0
 40
1.0
 40
1.0
 40
1.0
 10
229.7192579833541
 20
106.6898646887575
 30
0.0
 10
229.7190085317769
 20
106.7285610993739
 30
0.0
 10
229.7185305919948
 20
106.8027019577332
 30
0.0
 10
229.7131289966565
 20
106.9086948629317
 30
0.0
 10
229.7046642113139
 20
107.0045567696918
 30
0.0
 10
229.6930857296947
 20
107.0903760538024
 30
0.0
 10
229.6776979297698
 20
107.1660595466655
 30
0.0
 10
229.6590346275329
 20
107.2317683681504
 30
0.0
 10
229.6367945123173
 20
107.2873623835205
 30
0.0
 10
229.6103510946895
 20
107.3334000357548
 30
0.0
 10
229.5809142799097
 20
107.3711634000878
 30
0.0
 10
229.5501647362935
 20
107.4038508777729
 30
0.0
 10
229.5173337221498
 20
107.4316505126139
 30
0.0
 10
229.4818395707003
 20
107.4539517897759
 30
0.0
 10
229.4448263252021
 20
107.4719436306934
 30
0.0
 10
229.405443515351
 20
107.4843260737803
 30
0.0
 10
229.3640782430451
 20
107.4919334595041
 30
0.0
 10
229.3356897933215
 20
107.4928309676733
 30
0.0
 10
229.3212509051019
 20
107.4932874568531
 30
0.0
  0
SPLINE
  5
1A1
330
1F
100
AcDbEntity
  8
0
  6
Continuous
 62
     7
370
     0
100
AcDbSpline
210
0.0
220
0.0
230
1.0
 70
     8
 71
     3
 72
    23
 73
    19
 74
     0
 42
0.00000001
 43
0.00000001
 40
0.0
 40
0.0
 40
0.0
 40
0.0
 40
0.040781845872261
 40
0.0808695887215882
 40
0.1202681657882684
 40
0.1601868504553523
 40
0.2004597376386395
 40
0.2422651778979089
 40
0.2864592615494688
 40
0.3329520837492643
 40
0.3844305340495305
 40
0.4433891253601061
 40
0.5116814722136834
 40
0.5890200255490085
 40
0.6762451906507723
 40
0.7737051914728237
 40
0.881567767781983
 40
1.0
 40
1.0
 40
1.0
 40
1.0
 10
229.3241320318317
 20
105.8864419206619
 30
0.0
 10
229.3377376994086
 20
105.8869613486791
 30
0.0
 10
229.3647174674327
 20
105.8879913640994
 30
0.0
 10
229.4044341720607
 20
105.8948521337838
 30
0.0
 10
229.4422725894361
 20
105.9076702325005
 30
0.0
 10
229.4785739276761
 20
105.9244299510508
 30
0.0
 10
229.5131507628364
 20
105.9461378107087
 30
0.0
 10
229.5458212529972
 20
105.9728806760204
 30
0.0
 10
229.5771071132725
 20
106.0042067108388
 30
0.0
 10
229.6071159929545
 20
106.041076220489
 30
0.0
 10
229.6344380453035
 20
106.0859938174348
 30
0.0
 10
229.6571036604467
 20
106.1413495773999
 30
0.0
 10
229.6765330455282
 20
106.2068683638389
 30
0.0
 10
229.6923382276099
 20
106.2830221418883
 30
0.0
 10
229.7042919642238
 20
106.3696717148888
 30
0.0
 10
229.7132420904976
 20
106.4668996757723
 30
0.0
 10
229.7185078740699
 20
106.5748355907834
 30
0.0
 10
229.7190002805735
 20
106.6503460225872
 30
0.0
 10
229.7192579833541
 20
106.6898646887575
 30
0.0
  0
SPLINE
  5
1A2
330
1F
100
AcDbEntity
  8
0
  6
Continuous
 62
     7
370
     0
100
AcDbSpline
210
0.0
220
0.0
230
1.0
 70
     8
 71
     3
 72
    23
 73
    19
 74
     0
 42
0.00000001
 43
0.00000001
 40
0.0
 40
0.0
 40
0.0
 40
0.0
 40
0.1184055081537695
 40
0.2266543328167021
 40
0.3240923419286021
 40
0.411704803005322
 40
0.4890259050064159
 40
0.5569093973430762
 40
0.6162333444927067
 40
0.6673492812770754
 40
0.7135123932013485
 40
0.7576965045209785
 40
0.7994925114422919
 40
0.8399760647439392
 40
0.8798857418167764
 40
0.9191486593857419
 40
0.9592273564930834
 40
1.0
 40
1.0
 40
1.0
 40
1.0
 10
228.9290060803093
 20
106.6898646887575
 30
0.0
 10
228.9292676327422
 20
106.6503462008673
 30
0.0
 10
228.9297683019518
 20
106.5746990739192
 30
0.0
 10
228.9349990798852
 20
106.4666241017259
 30
0.0
 10
228.9440036487962
 20
106.3691257244961
 30
0.0
 10
228.9559082770456
 20
106.2823389351034
 30
0.0
 10
228.9716272063179
 20
106.2061463372532
 30
0.0
 10
228.9913641811505
 20
106.1407420931409
 30
0.0
 10
229.0136124461607
 20
106.0853412035632
 30
0.0
 10
229.0411442525195
 20
106.0406303199093
 30
0.0
 10
229.0712885395732
 20
106.004184427377
 30
0.0
 10
229.1024104558427
 20
105.9728397811454
 30
0.0
 10
229.1352421924374
 20
105.9461975495608
 30
0.0
 10
229.1695695262438
 20
105.923983361743
 30
0.0
 10
229.2059250705485
 20
105.9071642382117
 30
0.0
 10
229.2439112835177
 20
105.8949737000238
 30
0.0
 10
229.2835364306269
 20
105.8879582324699
 30
0.0
 10
229.3105229563863
 20
105.8869502417898
 30
0.0
 10
229.3241320318317
 20
105.8864419206619
 30
0.0
  0
SPLINE
  5
1A3
330
1F
100
AcDbEntity
  8
0
  6
Continuous
 62
     7
370
     0
100
AcDbSpline
210
0.0
220
0.0
230
1.0
 70
     8
 71
     3
 72
    15
 73
    11
 74
     0
 42
0.00000001
 43
0.00000001
 40
0.0
 40
0.0
 40
0.0
 40
0.0
 40
0.0838881132795456
 40
0.1771540327539695
 40
0.2825136355617225
 40
0.3993998606601626
 40
0.5294908061912201
 40
0.6728021776758326
 40
0.8295357616196701
 40
1.0
 40
1.0
 40
1.0
 40
1.0
 10
229.0479554552988
 20
107.3525238366233
 30
0.0
 10
229.0381650309741
 20
107.3361552351822
 30
0.0
 10
229.0174897161568
 20
107.3015881953185
 30
0.0
 10
228.994355241056
 20
107.2415092558291
 30
0.0
 10
228.9739191602983
 20
107.1728504637229
 30
0.0
 10
228.9570934903483
 20
107.0945554536159
 30
0.0
 10
228.9449212985166
 20
107.0067585329427
 30
0.0
 10
228.9353118237297
 20
106.9095616612292
 30
0.0
 10
228.9303200592605
 20
106.802829140014
 30
0.0
 10
228.9294561576587
 20
106.728558414215
 30
0.0
 10
228.9290060803093
 20
106.6898646887575
 30
0.0
  0
SPLINE
  5
1A4
330
1F
100
AcDbEntity
  8
0
  6
Continuous
 62
     7
370
     0
100
AcDbSpline
210
0.0
220
0.0
230
1.0
 70
     8
 71
     3
 72
    15
 73
    11
 74
     0
 42
0.00000001
 43
0.00000001
 40
0.0
 40
0.0
 40
0.0
 40
0.0
 40
0.1276647678962222
 40
0.2517385630080519
 40
0.3727533493873904
 40
0.492146758972384
 40
0.6140696213092417
 40
0.7371973244121093
 40
0.8656069906011151
 40
1.0
 40
1.0
 40
1.0
 40
1.0
 10
229.3212509051019
 20
107.4932874568531
 30
0.0
 10
229.3076426843815
 20
107.4929302947747
 30
0.0
 10
229.2808090169125
 20
107.4922260169238
 30
0.0
 10
229.2415210135295
 20
107.485503691969
 30
0.0
 10
229.2042882342666
 20
107.4742624663256
 30
0.0
 10
229.1686841118289
 20
107.459035134695
 30
0.0
 10
229.1355974841422
 20
107.4385421539962
 30
0.0
 10
229.1037162178348
 20
107.4146151403335
 30
0.0
 10
229.0745335080695
 20
107.3854627447901
 30
0.0
 10
229.0569482632039
 20
107.3636688695684
 30
0.0
 10
229.0479554552988
 20
107.3525238366233
 30
0.0
  0
SPLINE
  5
1A5
330
1F
100
AcDbEntity
  8
0
  6
Continuous
 62
     7
370
     0
100
AcDbSpline
210
0.0
220
0.0
230
1.0
 70
     8
 71
     3
 72
    23
 73
    19
 74
     0
 42
0.00000001
 43
0.00000001
 40
0.0
 40
0.0
 40
0.0
 40
0.0
 40
0.076010519206233
 40
0.1481357362434483
 40
0.217788177833154
 40
0.2867678984972345
 40
0.3540434632439188
 40
0.4186108400234796
 40
0.4836364388553443
 40
0.5502295626461522
 40
0.5869278113138146
 40
0.6291578250269657
 40
0.6772382242876696
 40
0.7300426397437304
 40
0.7888625661169236
 40
0.8537504514610937
 40
0.9241097665384561
 40
0.9999999999999999
 40
0.9999999999999999
 40
0.9999999999999999
 40
0.9999999999999999
 10
226.3343456653119
 20
110.3332552334206
 30
0.0
 10
226.333813750905
 20
110.3501658555833
 30
0.0
 10
226.3327771110673
 20
110.3831227080107
 30
0.0
 10
226.3240754464888
 20
110.4309817717906
 30
0.0
 10
226.3090175373945
 20
110.4755058423648
 30
0.0
 10
226.2886250049955
 20
110.5166851527407
 30
0.0
 10
226.2628026406153
 20
110.5533200637583
 30
0.0
 10
226.2319827479696
 20
110.5848175118631
 30
0.0
 10
226.1950626919955
 20
110.6086281958653
 30
0.0
 10
226.1605534985799
 20
110.6234813496099
 30
0.0
 10
226.1295152140756
 20
110.6327733986759
 30
0.0
 10
226.1017835969583
 20
110.63827112162
 30
0.0
 10
226.0703276718432
 20
110.6431151622837
 30
0.0
 10
226.0350439258836
 20
110.6472334045863
 30
0.0
 10
225.9959190122406
 20
110.6504295400475
 30
0.0
 10
225.9528323802335
 20
110.6529686578638
 30
0.0
 10
225.905886594743
 20
110.6540467056453
 30
0.0
 10
225.8733656397908
 20
110.6542102199557
 30
0.0
 10
225.8564902176895
 20
110.6542950690326
 30
0.0
  0
SPLINE
  5
1A6
330
1F
100
AcDbEntity
  8
0
  6
Continuous
 62
     7
370
     0
100
AcDbSpline
210
0.0
220
0.0
230
1.0
 70
     8
 71
     3
 72
    15
 73
    11
 74
     0
 42
0.00000001
 43
0.00000001
 40
0.0
 40
0.0
 40
0.0
 40
0.0
 40
0.1323768784386572
 40
0.2551949197670689
 40
0.3737221416536693
 40
0.4900113154474169
 40
0.6078124214239345
 40
0.7311098159015433
 40
0.8599973777575841
 40
1.0
 40
1.0
 40
1.0
 40
1.0
 10
226.1355479209522
 20
110.046377329034
 30
0.0
 10
226.1512821643812
 20
110.0518890357398
 30
0.0
 10
226.1816144930841
 20
110.0625144528606
 30
0.0
 10
226.2222626508078
 20
110.0866458433592
 30
0.0
 10
226.2568830661893
 20
110.115603394185
 30
0.0
 10
226.2853829641076
 20
110.1498984244325
 30
0.0
 10
226.307283723464
 20
110.1893474013888
 30
0.0
 10
226.3235225043489
 20
110.2331322490799
 30
0.0
 10
226.3324135971943
 20
110.2818650391444
 30
0.0
 10
226.3336841359365
 20
110.3156595167813
 30
0.0
 10
226.3343456653119
 20
110.3332552334206
 30
0.0
  0
SPLINE
  5
1A7
330
1F
100
AcDbEntity
  8
0
  6
Continuous
 62
     7
370
     0
100
AcDbSpline
210
0.0
220
0.0
230
1.0
 70
     8
 71
     3
 72
    15
 73
    11
 74
     0
 42
0.00000001
 43
0.00000001
 40
0.0
 40
0.0
 40
0.0
 40
0.0
 40
0.1669801744060282
 40
0.3208066328848138
 40
0.4631345048703168
 40
0.5942480539785199
 40
0.7123671525397434
 40
0.8194549510427512
 40
0.9157522665813538
 40
1.0
 40
1.0
 40
1.0
 40
1.0
 10
225.8885942012507
 20
110.0220935465967
 30
0.0
 10
225.9024530143739
 20
110.0221483772977
 30
0.0
 10
225.929078924843
 20
110.0222537194595
 30
0.0
 10
225.9674861663386
 20
110.023722503545
 30
0.0
 10
226.002934209255
 20
110.0249755866685
 30
0.0
 10
226.0352859358244
 20
110.0281207284821
 30
0.0
 10
226.0647016191145
 20
110.0312012551745
 30
0.0
 10
226.0910635411302
 20
110.0353481242989
 30
0.0
 10
226.114500824014
 20
110.0400207052441
 30
0.0
 10
226.1288514762977
 20
110.0443548753188
 30
0.0
 10
226.1355479209522
 20
110.046377329034
 30
0.0
  0
LINE
  5
1A8
330
1F
100
AcDbEntity
  8
0
  6
Continuous
 62
     7
370
     0
100
AcDbLine
 10
225.465068572
 20
110.0220935466
 30
0.0
 11
225.8885942013
 21
110.0220935466
 31
0.0
  0
LINE
  5
1A9
330
1F
100
AcDbEntity
  8
0
  6
Continuous
 62
     7
370
     0
100
AcDbLine
 10
225.465068572
 20
110.654295069
 30
0.0
 11
225.465068572
 21
110.0220935466
 31
0.0
  0
LINE
  5
1AA
330
1F
100
AcDbEntity
  8
0
  6
Continuous
 62
     7
370
     0
100
AcDbLine
 10
225.8564902177
 20
110.654295069
 30
0.0
 11
225.465068572
 21
110.654295069
 31
0.0
  0
SPLINE
  5
1AB
330
1F
100
AcDbEntity
  8
0
  6
Continuous
 62
     7
370
     0
100
AcDbSpline
210
0.0
220
0.0
230
1.0
 70
     8
 71
     3
 72
    19
 73
    15
 74
     0
 42
0.00000001
 43
0.00000001
 40
0.0
 40
0.0
 40
0.0
 40
0.0
 40
0.0801399024652513
 40
0.1562809906190948
 40
0.229406049012902
 40
0.3017986969723052
 40
0.3727428627695777
 40
0.442667609902629
 40
0.5133209646126967
 40
0.586547692363208
 40
0.6683225082295051
 40
0.7636766255259053
 40
0.8740807567185483
 40
1.0
 40
1.0
 40
1.0
 40
1.0
 10
226.4133708556164
 20
109.4294046193131
 30
0.0
 10
226.4128039053758
 20
109.4481131390857
 30
0.0
 10
226.4116982945313
 20
109.4845966624384
 30
0.0
 10
226.4011890843049
 20
109.5373172021742
 30
0.0
 10
226.3838295888577
 20
109.5862161582706
 30
0.0
 10
226.3593924775455
 20
109.6306163293217
 30
0.0
 10
226.32941908491
 20
109.6705504604749
 30
0.0
 10
226.2931543064186
 20
109.7044254968796
 30
0.0
 10
226.2508693075253
 20
109.7313070135455
 30
0.0
 10
226.2024341291351
 20
109.7524038015837
 30
0.0
 10
226.1458231077116
 20
109.7674138029236
 30
0.0
 10
226.0794733254
 20
109.7775971796509
 30
0.0
 10
226.0023234966662
 20
109.7841682685595
 30
0.0
 10
225.9471923614764
 20
109.7847226087861
 30
0.0
 10
225.917817058082
 20
109.7850179756833
 30
0.0
  0
SPLINE
  5
1AC
330
1F
100
AcDbEntity
  8
0
  6
Continuous
 62
     7
370
     0
100
AcDbSpline
210
0.0
220
0.0
230
1.0
 70
     8
 71
     3
 72
    11
 73
     7
 74
     0
 42
0.00000001
 43
0.00000001
 40
0.0
 40
0.0
 40
0.0
 40
0.0
 40
0.3293954641291814
 40
0.6051903468527978
 40
0.8278865786947356
 40
1.0
 40
1.0
 40
1.0
 40
1.0
 10
225.9511558102417
 20
109.0737912629429
 30
0.0
 10
225.970500960968
 20
109.0740135113406
 30
0.0
 10
226.0060433401227
 20
109.0744218429649
 30
0.0
 10
226.0546583708567
 20
109.0757027991431
 30
0.0
 10
226.0939543459074
 20
109.0788316959181
 30
0.0
 10
226.1169011187381
 20
109.0822007189622
 30
0.0
 10
226.1269045407626
 20
109.0836694117309
 30
0.0
  0
LINE
  5
1AD
330
1F
100
AcDbEntity
  8
0
  6
Continuous
 62
     7
370
     0
100
AcDbLine
 10
225.465068572
 20
109.0737912629
 30
0.0
 11
225.9511558102
 21
109.0737912629
 31
0.0
  0
LINE
  5
1AE
330
1F
100
AcDbEntity
  8
0
  6
Continuous
 62
     7
370
     0
100
AcDbLine
 10
225.465068572
 20
109.7850179757
 30
0.0
 11
225.465068572
 21
109.0737912629
 31
0.0
  0
LINE
  5
1AF
330
1F
100
AcDbEntity
  8
0
  6
Continuous
 62
     7
370
     0
100
AcDbLine
 10
225.9178170581
 20
109.7850179757
 30
0.0
 11
225.465068572
 21
109.7850179757
 31
0.0
  0
SPLINE
  5
1B0
330
1F
100
AcDbEntity
  8
0
  6
Continuous
 62
     7
370
     0
100
AcDbSpline
210
0.0
220
0.0
230
1.0
 70
     8
 71
     3
 72
    19
 73
    15
 74
     0
 42
0.00000001
 43
0.00000001
 40
0.0
 40
0.0
 40
0.0
 40
0.0
 40
0.0889709576989538
 40
0.1722707767733128
 40
0.2503120304637083
 40
0.3246551996215513
 40
0.3978444501802943
 40
0.4733008807185318
 40
0.551825888744447
 40
0.6347494834982523
 40
0.7217660118923853
 40
0.8103926655611188
 40
0.903175236799419
 40
1.0
 40
1.0
 40
1.0
 40
1.0
 10
226.1269045407626
 20
109.0836694117309
 30
0.0
 10
226.1412464782219
 20
109.0866839416601
 30
0.0
 10
226.1690161771264
 20
109.0925208509836
 30
0.0
 10
226.2081647896362
 20
109.1055482236517
 30
0.0
 10
226.2440591180421
 20
109.1204717733621
 30
0.0
 10
226.2760726810768
 20
109.1394379471148
 30
0.0
 10
226.3057164723654
 20
109.1612951631388
 30
0.0
 10
226.3314791332573
 20
109.1885958719447
 30
0.0
 10
226.3552077668385
 20
109.2196140996832
 30
0.0
 10
226.3757665387522
 20
109.2551109329457
 30
0.0
 10
226.3923912910601
 20
109.2943798880694
 30
0.0
 10
226.4050973048142
 20
109.3368142320301
 30
0.0
 10
226.4118654532184
 20
109.3822651810579
 30
0.0
 10
226.4128619732952
 20
109.4134697258983
 30
0.0
 10
226.4133708556164
 20
109.4294046193131
 30
0.0
  0
SPLINE
  5
1B1
330
1F
100
AcDbEntity
  8
0
  6
Continuous
 62
     7
370
     0
100
AcDbSpline
210
0.0
220
0.0
230
1.0
 70
     8
 71
     3
 72
    23
 73
    19
 74
     0
 42
0.00000001
 43
0.00000001
 40
0.0
 40
0.0
 40
0.0
 40
0.0
 40
0.1156291309254414
 40
0.2215410391198768
 40
0.3170478562190417
 40
0.4031508756396167
 40
0.4801812167162795
 40
0.5476493661481898
 40
0.6070358428421809
 40
0.6586524080635072
 40
0.705722890353646
 40
0.749804087979647
 40
0.7925868153452743
 40
0.8338739610102607
 40
0.8747683933034329
 40
0.9152226988916381
 40
0.9568807037304801
 40
1.0
 40
1.0
 40
1.0
 40
1.0
 10
224.8460379145774
 20
106.6898646887575
 30
0.0
 10
224.8457884630002
 20
106.7285610993739
 30
0.0
 10
224.8453105232182
 20
106.8027019577332
 30
0.0
 10
224.8399089278797
 20
106.9086948629317
 30
0.0
 10
224.8314441425372
 20
107.0045567696918
 30
0.0
 10
224.819865660918
 20
107.0903760538024
 30
0.0
 10
224.8044778609931
 20
107.1660595466655
 30
0.0
 10
224.7858145587563
 20
107.2317683681504
 30
0.0
 10
224.7635744435406
 20
107.2873623835205
 30
0.0
 10
224.7371310259128
 20
107.3334000357548
 30
0.0
 10
224.707694211133
 20
107.3711634000878
 30
0.0
 10
224.6769446675167
 20
107.4038508777729
 30
0.0
 10
224.6441136533731
 20
107.4316505126139
 30
0.0
 10
224.6086195019236
 20
107.4539517897759
 30
0.0
 10
224.5716062564254
 20
107.4719436306934
 30
0.0
 10
224.5322234465743
 20
107.4843260737803
 30
0.0
 10
224.4908581742685
 20
107.4919334595041
 30
0.0
 10
224.4624697245448
 20
107.4928309676733
 30
0.0
 10
224.4480308363251
 20
107.4932874568531
 30
0.0
  0
SPLINE
  5
1B2
330
1F
100
AcDbEntity
  8
0
  6
Continuous
 62
     7
370
     0
100
AcDbSpline
210
0.0
220
0.0
230
1.0
 70
     8
 71
     3
 72
    23
 73
    19
 74
     0
 42
0.00000001
 43
0.00000001
 40
0.0
 40
0.0
 40
0.0
 40
0.0
 40
0.0407818458722597
 40
0.0808695887215869
 40
0.1202681657882672
 40
0.1601868504553523
 40
0.2004597376386391
 40
0.2422651778979082
 40
0.2864592615494684
 40
0.3329520837492633
 40
0.3844305340495303
 40
0.4433891253601058
 40
0.5116814722136833
 40
0.5890200255490083
 40
0.6762451906507723
 40
0.7737051914728237
 40
0.881567767781983
 40
1.0
 40
1.0
 40
1.0
 40
1.0
 10
224.450911963055
 20
105.8864419206619
 30
0.0
 10
224.4645176306319
 20
105.8869613486791
 30
0.0
 10
224.491497398656
 20
105.8879913640994
 30
0.0
 10
224.531214103284
 20
105.8948521337838
 30
0.0
 10
224.5690525206594
 20
105.9076702325005
 30
0.0
 10
224.6053538588994
 20
105.9244299510508
 30
0.0
 10
224.6399306940597
 20
105.9461378107087
 30
0.0
 10
224.6726011842204
 20
105.9728806760204
 30
0.0
 10
224.7038870444958
 20
106.0042067108388
 30
0.0
 10
224.7338959241778
 20
106.041076220489
 30
0.0
 10
224.7612179765268
 20
106.0859938174348
 30
0.0
 10
224.78388359167
 20
106.1413495773999
 30
0.0
 10
224.8033129767516
 20
106.2068683638389
 30
0.0
 10
224.8191181588332
 20
106.2830221418883
 30
0.0
 10
224.8310718954471
 20
106.3696717148888
 30
0.0
 10
224.8400220217209
 20
106.4668996757723
 30
0.0
 10
224.8452878052932
 20
106.5748355907834
 30
0.0
 10
224.8457802117969
 20
106.6503460225872
 30
0.0
 10
224.8460379145774
 20
106.6898646887575
 30
0.0
  0
SPLINE
  5
1B3
330
1F
100
AcDbEntity
  8
0
  6
Continuous
 62
     7
370
     0
100
AcDbSpline
210
0.0
220
0.0
230
1.0
 70
     8
 71
     3
 72
    23
 73
    19
 74
     0
 42
0.00000001
 43
0.00000001
 40
0.0
 40
0.0
 40
0.0
 40
0.0
 40
0.1184055081537694
 40
0.2266543328167019
 40
0.3240923419286019
 40
0.4117048030053216
 40
0.4890259050064157
 40
0.5569093973430758
 40
0.6162333444927067
 40
0.6673492812770749
 40
0.7135123932013474
 40
0.757696504520978
 40
0.7994925114422909
 40
0.8399760647439395
 40
0.879885741816776
 40
0.9191486593857414
 40
0.959227356493083
 40
1.0
 40
1.0
 40
1.0
 40
1.0
 10
224.0557860115325
 20
106.6898646887575
 30
0.0
 10
224.0560475639655
 20
106.6503462008673
 30
0.0
 10
224.0565482331751
 20
106.5746990739192
 30
0.0
 10
224.0617790111085
 20
106.4666241017259
 30
0.0
 10
224.0707835800195
 20
106.3691257244961
 30
0.0
 10
224.0826882082689
 20
106.2823389351034
 30
0.0
 10
224.0984071375412
 20
106.2061463372532
 30
0.0
 10
224.1181441123738
 20
106.1407420931409
 30
0.0
 10
224.140392377384
 20
106.0853412035632
 30
0.0
 10
224.1679241837428
 20
106.0406303199093
 30
0.0
 10
224.1980684707965
 20
106.004184427377
 30
0.0
 10
224.229190387066
 20
105.9728397811454
 30
0.0
 10
224.2620221236607
 20
105.9461975495608
 30
0.0
 10
224.2963494574671
 20
105.923983361743
 30
0.0
 10
224.3327050017718
 20
105.9071642382117
 30
0.0
 10
224.370691214741
 20
105.8949737000238
 30
0.0
 10
224.4103163618502
 20
105.8879582324699
 30
0.0
 10
224.4373028876096
 20
105.8869502417898
 30
0.0
 10
224.450911963055
 20
105.8864419206619
 30
0.0
  0
SPLINE
  5
1B4
330
1F
100
AcDbEntity
  8
0
  6
Continuous
 62
     7
370
     0
100
AcDbSpline
210
0.0
220
0.0
230
1.0
 70
     8
 71
     3
 72
    15
 73
    11
 74
     0
 42
0.00000001
 43
0.00000001
 40
0.0
 40
0.0
 40
0.0
 40
0.0
 40
0.0838881132795455
 40
0.1771540327539696
 40
0.2825136355617228
 40
0.3993998606601629
 40
0.5294908061912204
 40
0.6728021776758328
 40
0.8295357616196702
 40
1.0
 40
1.0
 40
1.0
 40
1.0
 10
224.1747353865221
 20
107.3525238366233
 30
0.0
 10
224.1649449621974
 20
107.3361552351822
 30
0.0
 10
224.1442696473801
 20
107.3015881953185
 30
0.0
 10
224.1211351722793
 20
107.2415092558291
 30
0.0
 10
224.1006990915216
 20
107.1728504637229
 30
0.0
 10
224.0838734215716
 20
107.0945554536159
 30
0.0
 10
224.0717012297399
 20
107.0067585329427
 30
0.0
 10
224.062091754953
 20
106.9095616612292
 30
0.0
 10
224.0570999904838
 20
106.802829140014
 30
0.0
 10
224.0562360888819
 20
106.728558414215
 30
0.0
 10
224.0557860115325
 20
106.6898646887575
 30
0.0
  0
SPLINE
  5
1B5
330
1F
100
AcDbEntity
  8
0
  6
Continuous
 62
     7
370
     0
100
AcDbSpline
210
0.0
220
0.0
230
1.0
 70
     8
 71
     3
 72
    15
 73
    11
 74
     0
 42
0.00000001
 43
0.00000001
 40
0.0
 40
0.0
 40
0.0
 40
0.0
 40
0.1276647678962251
 40
0.2517385630080496
 40
0.3727533493873896
 40
0.492146758972386
 40
0.614069621309245
 40
0.7371973244121095
 40
0.8656069906011175
 40
1.0
 40
1.0
 40
1.0
 40
1.0
 10
224.4480308363251
 20
107.4932874568531
 30
0.0
 10
224.4344226156048
 20
107.4929302947747
 30
0.0
 10
224.4075889481358
 20
107.4922260169238
 30
0.0
 10
224.3683009447528
 20
107.485503691969
 30
0.0
 10
224.3310681654899
 20
107.4742624663256
 30
0.0
 10
224.2954640430522
 20
107.459035134695
 30
0.0
 10
224.2623774153655
 20
107.4385421539962
 30
0.0
 10
224.2304961490581
 20
107.4146151403335
 30
0.0
 10
224.2013134392928
 20
107.3854627447901
 30
0.0
 10
224.1837281944272
 20
107.3636688695684
 30
0.0
 10
224.1747353865221
 20
107.3525238366233
 30
0.0
  0
SPLINE
  5
1B6
330
1F
100
AcDbEntity
  8
0
  6
Continuous
 62
     7
370
     0
100
AcDbSpline
210
0.0
220
0.0
230
1.0
 70
     8
 71
     3
 72
    15
 73
    11
 74
     0
 42
0.00000001
 43
0.00000001
 40
0.0
 40
0.0
 40
0.0
 40
0.0
 40
0.1531481085926319
 40
0.2994334688329067
 40
0.4364263514567512
 40
0.5656705729563586
 40
0.6865083102878727
 40
0.7992685160630042
 40
0.9033947408013441
 40
1.0
 40
1.0
 40
1.0
 40
1.0
 10
224.1278141797788
 20
110.2459982524594
 30
0.0
 10
224.1201614262786
 20
110.2668633278006
 30
0.0
 10
224.1051988482374
 20
110.3076584897145
 30
0.0
 10
224.0828851365409
 20
110.3669304161582
 30
0.0
 10
224.0624996891065
 20
110.4232174702847
 30
0.0
 10
224.0425100838876
 20
110.4757125763614
 30
0.0
 10
224.0244651102094
 20
110.525178278568
 30
0.0
 10
224.0078325954399
 20
110.5712804584912
 30
0.0
 10
223.9913831786732
 20
110.6136986839126
 30
0.0
 10
223.9815116522763
 20
110.6411052282289
 30
0.0
 10
223.9767608212281
 20
110.6542950690326
 30
0.0
  0
LINE
  5
1B7
330
1F
100
AcDbEntity
  8
0
  6
Continuous
 62
     7
370
     0
100
AcDbLine
 10
224.3274351032
 20
109.7059927854
 30
0.0
 11
224.1278141798
 21
110.2459982525
 31
0.0
  0
LINE
  5
1B8
330
1F
100
AcDbEntity
  8
0
  6
Continuous
 62
     7
370
     0
100
AcDbLine
 10
223.6260865393
 20
109.7059927854
 30
0.0
 11
224.3274351032
 21
109.7059927854
 31
0.0
  0
LINE
  5
1B9
330
1F
100
AcDbEntity
  8
0
  6
Continuous
 62
     7
370
     0
100
AcDbLine
 10
223.8364087905
 20
110.2748095198
 30
0.0
 11
223.6260865393
 21
109.7059927854
 31
0.0
  0
SPLINE
  5
1BA
330
1F
100
AcDbEntity
  8
0
  6
Continuous
 62
     7
370
     0
100
AcDbSpline
210
0.0
220
0.0
230
1.0
 70
     8
 71
     3
 72
    11
 73
     7
 74
     0
 42
0.00000001
 43
0.00000001
 40
0.0
 40
0.0
 40
0.0
 40
0.0
 40
0.247294050035337
 40
0.4956077709090489
 40
0.746359172773196
 40
1.0
 40
1.0
 40
1.0
 40
1.0
 10
223.9767608212281
 20
110.6542950690326
 30
0.0
 10
223.9689020296799
 20
110.6217700831568
 30
0.0
 10
223.9531520423241
 20
110.5565860006993
 30
0.0
 10
223.9201754034597
 20
110.4610825753298
 30
0.0
 10
223.8824512739232
 20
110.3664525718923
 30
0.0
 10
223.8518147856626
 20
110.3054736436496
 30
0.0
 10
223.836408790531
 20
110.274809519758
 30
0.0
  0
SPLINE
  5
1BB
330
1F
100
AcDbEntity
  8
0
  6
Continuous
 62
     7
370
     0
100
AcDbSpline
210
0.0
220
0.0
230
1.0
 70
     8
 71
     3
 72
    23
 73
    19
 74
     0
 42
0.00000001
 43
0.00000001
 40
0.0
 40
0.0
 40
0.0
 40
0.0
 40
0.1156291309254414
 40
0.2215410391198767
 40
0.3170478562190416
 40
0.4031508756396166
 40
0.4801812167162794
 40
0.5476493661481897
 40
0.6070358428421808
 40
0.658652408063507
 40
0.7057228903536458
 40
0.7498040879796469
 40
0.7925868153452741
 40
0.8338739610102605
 40
0.8747683933034327
 40
0.9152226988916381
 40
0.9568807037304798
 40
1.0
 40
1.0
 40
1.0
 40
1.0
 10
223.2655341084877
 20
106.6898646887575
 30
0.0
 10
223.2652846569104
 20
106.7285610993739
 30
0.0
 10
223.2648067171284
 20
106.8027019577332
 30
0.0
 10
223.25940512179
 20
106.9086948629317
 30
0.0
 10
223.2509403364474
 20
107.0045567696918
 30
0.0
 10
223.2393618548283
 20
107.0903760538024
 30
0.0
 10
223.2239740549034
 20
107.1660595466655
 30
0.0
 10
223.2053107526665
 20
107.2317683681504
 30
0.0
 10
223.1830706374508
 20
107.2873623835205
 30
0.0
 10
223.156627219823
 20
107.3334000357548
 30
0.0
 10
223.1271904050433
 20
107.3711634000878
 30
0.0
 10
223.096440861427
 20
107.4038508777729
 30
0.0
 10
223.0636098472834
 20
107.4316505126139
 30
0.0
 10
223.0281156958338
 20
107.4539517897759
 30
0.0
 10
222.9911024503356
 20
107.4719436306934
 30
0.0
 10
222.9517196404846
 20
107.4843260737803
 30
0.0
 10
222.9103543681787
 20
107.4919334595041
 30
0.0
 10
222.8819659184551
 20
107.4928309676733
 30
0.0
 10
222.8675270302354
 20
107.4932874568531
 30
0.0
  0
SPLINE
  5
1BC
330
1F
100
AcDbEntity
  8
0
  6
Continuous
 62
     7
370
     0
100
AcDbSpline
210
0.0
220
0.0
230
1.0
 70
     8
 71
     3
 72
    23
 73
    19
 74
     0
 42
0.00000001
 43
0.00000001
 40
0.0
 40
0.0
 40
0.0
 40
0.0
 40
0.0407818458722599
 40
0.0808695887215869
 40
0.1202681657882672
 40
0.1601868504553523
 40
0.2004597376386391
 40
0.2422651778979082
 40
0.2864592615494684
 40
0.3329520837492633
 40
0.3844305340495303
 40
0.4433891253601058
 40
0.5116814722136833
 40
0.5890200255490083
 40
0.6762451906507723
 40
0.7737051914728237
 40
0.881567767781983
 40
1.0
 40
1.0
 40
1.0
 40
1.0
 10
222.8704081569652
 20
105.8864419206619
 30
0.0
 10
222.8840138245422
 20
105.8869613486791
 30
0.0
 10
222.9109935925663
 20
105.8879913640994
 30
0.0
 10
222.9507102971942
 20
105.8948521337838
 30
0.0
 10
222.9885487145697
 20
105.9076702325005
 30
0.0
 10
223.0248500528097
 20
105.9244299510508
 30
0.0
 10
223.0594268879699
 20
105.9461378107087
 30
0.0
 10
223.0920973781307
 20
105.9728806760204
 30
0.0
 10
223.1233832384061
 20
106.0042067108388
 30
0.0
 10
223.153392118088
 20
106.041076220489
 30
0.0
 10
223.180714170437
 20
106.0859938174348
 30
0.0
 10
223.2033797855802
 20
106.1413495773999
 30
0.0
 10
223.2228091706618
 20
106.2068683638389
 30
0.0
 10
223.2386143527435
 20
106.2830221418883
 30
0.0
 10
223.2505680893573
 20
106.3696717148888
 30
0.0
 10
223.2595182156311
 20
106.4668996757723
 30
0.0
 10
223.2647839992034
 20
106.5748355907834
 30
0.0
 10
223.2652764057071
 20
106.6503460225872
 30
0.0
 10
223.2655341084877
 20
106.6898646887575
 30
0.0
  0
SPLINE
  5
1BD
330
1F
100
AcDbEntity
  8
0
  6
Continuous
 62
     7
370
     0
100
AcDbSpline
210
0.0
220
0.0
230
1.0
 70
     8
 71
     3
 72
    23
 73
    19
 74
     0
 42
0.00000001
 43
0.00000001
 40
0.0
 40
0.0
 40
0.0
 40
0.0
 40
0.1184055081537694
 40
0.2266543328167019
 40
0.324092341928602
 40
0.4117048030053217
 40
0.4890259050064157
 40
0.5569093973430758
 40
0.6162333444927066
 40
0.667349281277075
 40
0.7135123932013474
 40
0.7576965045209779
 40
0.7994925114422909
 40
0.8399760647439393
 40
0.879885741816776
 40
0.9191486593857416
 40
0.959227356493083
 40
1.0
 40
1.0
 40
1.0
 40
1.0
 10
222.4752822054428
 20
106.6898646887575
 30
0.0
 10
222.4755437578757
 20
106.6503462008673
 30
0.0
 10
222.4760444270854
 20
106.5746990739192
 30
0.0
 10
222.4812752050188
 20
106.4666241017259
 30
0.0
 10
222.4902797739297
 20
106.3691257244961
 30
0.0
 10
222.5021844021792
 20
106.2823389351034
 30
0.0
 10
222.5179033314514
 20
106.2061463372532
 30
0.0
 10
222.5376403062841
 20
106.1407420931409
 30
0.0
 10
222.5598885712942
 20
106.0853412035632
 30
0.0
 10
222.587420377653
 20
106.0406303199093
 30
0.0
 10
222.6175646647068
 20
106.004184427377
 30
0.0
 10
222.6486865809763
 20
105.9728397811454
 30
0.0
 10
222.6815183175709
 20
105.9461975495608
 30
0.0
 10
222.7158456513774
 20
105.923983361743
 30
0.0
 10
222.7522011956821
 20
105.9071642382117
 30
0.0
 10
222.7901874086513
 20
105.8949737000238
 30
0.0
 10
222.8298125557604
 20
105.8879582324699
 30
0.0
 10
222.8567990815199
 20
105.8869502417898
 30
0.0
 10
222.8704081569652
 20
105.8864419206619
 30
0.0
  0
SPLINE
  5
1BE
330
1F
100
AcDbEntity
  8
0
  6
Continuous
 62
     7
370
     0
100
AcDbSpline
210
0.0
220
0.0
230
1.0
 70
     8
 71
     3
 72
    15
 73
    11
 74
     0
 42
0.00000001
 43
0.00000001
 40
0.0
 40
0.0
 40
0.0
 40
0.0
 40
0.0838881132795455
 40
0.1771540327539697
 40
0.2825136355617227
 40
0.3993998606601629
 40
0.5294908061912204
 40
0.6728021776758328
 40
0.82953576161967
 40
1.0
 40
1.0
 40
1.0
 40
1.0
 10
222.5942315804324
 20
107.3525238366233
 30
0.0
 10
222.5844411561077
 20
107.3361552351822
 30
0.0
 10
222.5637658412903
 20
107.3015881953185
 30
0.0
 10
222.5406313661896
 20
107.2415092558291
 30
0.0
 10
222.5201952854318
 20
107.1728504637229
 30
0.0
 10
222.5033696154818
 20
107.0945554536159
 30
0.0
 10
222.4911974236502
 20
107.0067585329427
 30
0.0
 10
222.4815879488633
 20
106.9095616612292
 30
0.0
 10
222.4765961843941
 20
106.802829140014
 30
0.0
 10
222.4757322827922
 20
106.728558414215
 30
0.0
 10
222.4752822054428
 20
106.6898646887575
 30
0.0
  0
SPLINE
  5
1BF
330
1F
100
AcDbEntity
  8
0
  6
Continuous
 62
     7
370
     0
100
AcDbSpline
210
0.0
220
0.0
230
1.0
 70
     8
 71
     3
 72
    15
 73
    11
 74
     0
 42
0.00000001
 43
0.00000001
 40
0.0
 40
0.0
 40
0.0
 40
0.0
 40
0.1276647678962245
 40
0.2517385630080491
 40
0.3727533493873891
 40
0.4921467589723856
 40
0.6140696213092447
 40
0.7371973244121093
 40
0.8656069906011173
 40
0.9999999999999999
 40
0.9999999999999999
 40
0.9999999999999999
 40
0.9999999999999999
 10
222.8675270302354
 20
107.4932874568531
 30
0.0
 10
222.8539188095151
 20
107.4929302947747
 30
0.0
 10
222.827085142046
 20
107.4922260169238
 30
0.0
 10
222.7877971386631
 20
107.485503691969
 30
0.0
 10
222.7505643594002
 20
107.4742624663256
 30
0.0
 10
222.7149602369624
 20
107.459035134695
 30
0.0
 10
222.6818736092758
 20
107.4385421539962
 30
0.0
 10
222.6499923429683
 20
107.4146151403335
 30
0.0
 10
222.620809633203
 20
107.3854627447901
 30
0.0
 10
222.6032243883375
 20
107.3636688695684
 30
0.0
 10
222.5942315804324
 20
107.3525238366233
 30
0.0
  0
SPLINE
  5
1C0
330
1F
100
AcDbEntity
  8
0
  6
Continuous
 62
     7
370
     0
100
AcDbSpline
210
0.0
220
0.0
230
1.0
 70
     8
 71
     3
 72
    23
 73
    19
 74
     0
 42
0.00000001
 43
0.00000001
 40
0.0
 40
0.0
 40
0.0
 40
0.0
 40
0.0603255293380428
 40
0.1181599905079977
 40
0.1741866762963808
 40
0.2295388181457999
 40
0.2834498146386372
 40
0.337826511950592
 40
0.3926321025334832
 40
0.4484655764151909
 40
0.5059654091573053
 40
0.5650585322290048
 40
0.6266544786228438
 40
0.6922320330373639
 40
0.7611310781257618
 40
0.8353098773394203
 40
0.9153255598322017
 40
1.0
 40
1.0
 40
1.0
 40
1.0
 10
220.9342909945053
 20
110.3311972857564
 30
0.0
 10
220.9339085668944
 20
110.3427303631566
 30
0.0
 10
220.9331595035482
 20
110.3653202737811
 30
0.0
 10
220.9292326657476
 20
110.3984759907442
 30
0.0
 10
220.9215979607528
 20
110.429981585518
 30
0.0
 10
220.9115163515419
 20
110.4600036002176
 30
0.0
 10
220.8980452758327
 20
110.4883221450486
 30
0.0
 10
220.8820421874562
 20
110.515156657427
 30
0.0
 10
220.8629455626803
 20
110.5403584096513
 30
0.0
 10
220.841071477807
 20
110.5640041701213
 30
0.0
 10
220.8159560532349
 20
110.5855195013185
 30
0.0
 10
220.7872683338716
 20
110.6040825655831
 30
0.0
 10
220.7552345780744
 20
110.6198571655521
 30
0.0
 10
220.7198175518147
 20
110.6323769426016
 30
0.0
 10
220.6811288251962
 20
110.6423907262717
 30
0.0
 10
220.638948151822
 20
110.6490525735639
 30
0.0
 10
220.593468432919
 20
110.6538730640603
 30
0.0
 10
220.5619536251614
 20
110.6541517726701
 30
0.0
 10
220.5457504755082
 20
110.6542950690326
 30
0.0
  0
SPLINE
  5
1C1
330
1F
100
AcDbEntity
  8
0
  6
Continuous
 62
     7
370
     0
100
AcDbSpline
210
0.0
220
0.0
230
1.0
 70
     8
 71
     3
 72
    19
 73
    15
 74
     0
 42
0.00000001
 43
0.00000001
 40
0.0
 40
0.0
 40
0.0
 40
0.0
 40
0.1288602680417313
 40
0.2408921848092289
 40
0.3380442015575112
 40
0.4201204852136088
 40
0.494058456868551
 40
0.5660947835833202
 40
0.6368049543510104
 40
0.7091484493607203
 40
0.7819418055941268
 40
0.8542853006038366
 40
0.9261704072165587
 40
1.0
 40
1.0
 40
1.0
 40
1.0
 10
220.48360045605
 20
109.9957518164952
 30
0.0
 10
220.5111943420979
 20
109.996183549012
 30
0.0
 10
220.5627785239288
 20
109.9969906324583
 30
0.0
 10
220.6349108416384
 20
110.0038822767818
 30
0.0
 10
220.6963836257781
 20
110.0148333922736
 30
0.0
 10
220.7484121055334
 20
110.0308068767719
 30
0.0
 10
220.7921242410351
 20
110.0529833776743
 30
0.0
 10
220.8301415158123
 20
110.080009588035
 30
0.0
 10
220.8617343497064
 20
110.1138627299817
 30
0.0
 10
220.8880163239892
 20
110.1520587931464
 30
0.0
 10
220.9084458417583
 20
110.1940916540391
 30
0.0
 10
220.9231827214824
 20
110.2382410117988
 30
0.0
 10
220.9328282655757
 20
110.2841358196379
 30
0.0
 10
220.9337990997712
 20
110.3153711905078
 30
0.0
 10
220.9342909945053
 20
110.3311972857564
 30
0.0
  0
LINE
  5
1C2
330
1F
100
AcDbEntity
  8
0
  6
Continuous
 62
     7
370
     0
100
AcDbLine
 10
219.9333052506
 20
109.9957518165
 30
0.0
 11
220.4836004561
 21
109.9957518165
 31
0.0
  0
LINE
  5
1C3
330
1F
100
AcDbEntity
  8
0
  6
Continuous
 62
     7
370
     0
100
AcDbLine
 10
219.9333052506
 20
110.654295069
 30
0.0
 11
219.9333052506
 21
109.9957518165
 31
0.0
  0
LINE
  5
1C4
330
1F
100
AcDbEntity
  8
0
  6
Continuous
 62
     7
370
     0
100
AcDbLine
 10
220.5457504755
 20
110.654295069
 30
0.0
 11
219.9333052506
 21
110.654295069
 31
0.0
  0
SPLINE
  5
1C5
330
1F
100
AcDbEntity
  8
0
  6
Continuous
 62
     7
370
     0
100
AcDbSpline
210
0.0
220
0.0
230
1.0
 70
     8
 71
     3
 72
    23
 73
    19
 74
     0
 42
0.00000001
 43
0.00000001
 40
0.0
 40
0.0
 40
0.0
 40
0.0
 40
0.0718367171319505
 40
0.1395582629178172
 40
0.2049233526537264
 40
0.2678265586039221
 40
0.3285473200936659
 40
0.3887551463289839
 40
0.4480299679797882
 40
0.5086005276974233
 40
0.5693212891871666
 40
0.628511895401924
 40
0.687493275539241
 40
0.747078295388978
 40
0.8077025413165653
 40
0.8697098126206608
 40
0.933428331305089
 40
1.0
 40
1.0
 40
1.0
 40
1.0
 10
218.7631562087961
 20
105.8864419206619
 30
0.0
 10
218.7781293222808
 20
105.8866955542477
 30
0.0
 10
218.8072178134012
 20
105.8871882920017
 30
0.0
 10
218.8496197258451
 20
105.8928188778804
 30
0.0
 10
218.8895719137934
 20
105.9013623185624
 30
0.0
 10
218.9272574162319
 20
105.913076776102
 30
0.0
 10
218.9621215445211
 20
105.9291029294527
 30
0.0
 10
218.9947320467982
 20
105.9478340215671
 30
0.0
 10
219.0247553595312
 20
105.9704719802254
 30
0.0
 10
219.0521829833187
 20
105.9963076053082
 30
0.0
 10
219.0767355688486
 20
106.0248866485246
 30
0.0
 10
219.0977679631763
 20
106.0557171916869
 30
0.0
 10
219.1161147691725
 20
106.0879322011805
 30
0.0
 10
219.1310940974928
 20
106.1222269266042
 30
0.0
 10
219.1419265661418
 20
106.1586720866613
 30
0.0
 10
219.1502853456943
 20
106.1966101316968
 30
0.0
 10
219.1553279501047
 20
106.2364323718766
 30
0.0
 10
219.1559211285795
 20
106.2635806073223
 30
0.0
 10
219.1562242126543
 20
106.277451976856
 30
0.0
  0
SPLINE
  5
1C6
330
1F
100
AcDbEntity
  8
0
  6
Continuous
 62
     7
370
     0
100
AcDbSpline
210
0.0
220
0.0
230
1.0
 70
     8
 71
     3
 72
    19
 73
    15
 74
     0
 42
0.00000001
 43
0.00000001
 40
0.0
 40
0.0
 40
0.0
 40
0.0
 40
0.0798232712797877
 40
0.1598568116661121
 40
0.2397327021152788
 40
0.3213646023254468
 40
0.4025836963489389
 40
0.483265588546352
 40
0.5660170116609762
 40
0.6530713596602558
 40
0.7418556865073697
 40
0.8285909050739394
 40
0.9142807452008549
 40
1.0
 40
1.0
 40
1.0
 40
1.0
 10
218.3659723096095
 20
106.2856837675127
 30
0.0
 10
218.3664278175494
 20
106.2687814708864
 30
0.0
 10
218.3673400333205
 20
106.234932353891
 30
0.0
 10
218.3753421290324
 20
106.1846592421924
 30
0.0
 10
218.3889200279479
 20
106.1353223077227
 30
0.0
 10
218.406322469116
 20
106.0868749483581
 30
0.0
 10
218.4308696945466
 20
106.0412725842885
 30
0.0
 10
218.4634220762238
 20
106.0005691191123
 30
0.0
 10
218.5042692181938
 20
105.9663480997623
 30
0.0
 10
218.5509188878821
 20
105.9374368838977
 30
0.0
 10
218.6018256715029
 20
105.9146812705227
 30
0.0
 10
218.6548720285734
 20
105.8987970791669
 30
0.0
 10
218.7086888600748
 20
105.8883015983804
 30
0.0
 10
218.7449983489247
 20
105.8870618841485
 30
0.0
 10
218.7631562087961
 20
105.8864419206619
 30
0.0
  0
SPLINE
  5
1C7
330
1F
100
AcDbEntity
  8
0
  6
Continuous
 62
     7
370
     0
100
AcDbSpline
210
0.0
220
0.0
230
1.0
 70
     8
 71
     3
 72
    23
 73
    19
 74
     0
 42
0.00000001
 43
0.00000001
 40
0.0
 40
0.0
 40
0.0
 40
0.0
 40
0.0709524654154269
 40
0.1390889271416596
 40
0.2035598239190666
 40
0.2664237811295186
 40
0.3275165661984784
 40
0.387860871760897
 40
0.4478987850107175
 40
0.5088188285885848
 40
0.5694824568188304
 40
0.6290357116670979
 40
0.6883784585529112
 40
0.7480679615575833
 40
0.8086301697509071
 40
0.8702311456070246
 40
0.9336825804722019
 40
1.0
 40
1.0
 40
1.0
 40
1.0
 10
218.7553360076722
 20
106.6766938237068
 30
0.0
 10
218.7406375384533
 20
106.6764282322543
 30
0.0
 10
218.7118239616128
 20
106.675907590301
 30
0.0
 10
218.6699657991048
 20
106.6703675121152
 30
0.0
 10
218.6303389793763
 20
106.6618597894646
 30
0.0
 10
218.5932921408711
 20
106.6494076048328
 30
0.0
 10
218.5583620835232
 20
106.6338473346531
 30
0.0
 10
218.5261876662909
 20
106.6142814083879
 30
0.0
 10
218.4961948998383
 20
106.5915709508892
 30
0.0
 10
218.4692999558347
 20
106.5651743638781
 30
0.0
 10
218.4450337465835
 20
106.5365004937033
 30
0.0
 10
218.4240530099208
 20
106.5057621929818
 30
0.0
 10
218.405518655492
 20
106.4736724982339
 30
0.0
 10
218.3914533254039
 20
106.4391784295535
 30
0.0
 10
218.3795482826407
 20
106.4033951171649
 30
0.0
 10
218.3721057478101
 20
106.3656280457192
 30
0.0
 10
218.3668150355571
 20
106.3263063153425
 30
0.0
 10
218.3662573240019
 20
106.2994225289918
 30
0.0
 10
218.3659723096095
 20
106.2856837675127
 30
0.0
  0
SPLINE
  5
1C8
330
1F
100
AcDbEntity
  8
0
  6
Continuous
 62
     7
370
     0
100
AcDbSpline
210
0.0
220
0.0
230
1.0
 70
     8
 71
     3
 72
    23
 73
    19
 74
     0
 42
0.00000001
 43
0.00000001
 40
0.0
 40
0.0
 40
0.0
 40
0.0
 40
0.0666161804351809
 40
0.130423869924064
 40
0.192670957570017
 40
0.2529685047960664
 40
0.3128803828057838
 40
0.3722002559180859
 40
0.4319271071459047
 40
0.4924217452545996
 40
0.552771220907577
 40
0.6132624068156185
 40
0.673556490556371
 40
0.7343197960333017
 40
0.7968580801403247
 40
0.8617690047507046
 40
0.9288631073150262
 40
1.0
 40
1.0
 40
1.0
 40
1.0
 10
219.1562242126543
 20
106.277451976856
 30
0.0
 10
219.1559114760072
 20
106.2915956250472
 30
0.0
 10
219.1552991874684
 20
106.3192866352477
 30
0.0
 10
219.1503847319939
 20
106.3599828912423
 30
0.0
 10
219.1415572457402
 20
106.3985883997731
 30
0.0
 10
219.1302050616671
 20
106.4356863776719
 30
0.0
 10
219.1148196062559
 20
106.4706314263291
 30
0.0
 10
219.0963515211108
 20
106.5039246160063
 30
0.0
 10
219.0737356198032
 20
106.5346884122015
 30
0.0
 10
219.0489354799516
 20
106.5639672506903
 30
0.0
 10
219.0208700264572
 20
106.5904713672939
 30
0.0
 10
218.9898769814189
 20
106.6133268684424
 30
0.0
 10
218.9569385846948
 20
106.6335121467359
 30
0.0
 10
218.9210584199106
 20
106.6489959593131
 30
0.0
 10
218.8830269757204
 20
106.6613988462557
 30
0.0
 10
218.8426635712047
 20
106.670410972407
 30
0.0
 10
218.7998036328415
 20
106.6759198454312
 30
0.0
 10
218.7704447653276
 20
106.676430849236
 30
0.0
 10
218.7553360076722
 20
106.6766938237068
 30
0.0
  0
SPLINE
  5
1C9
330
1F
100
AcDbEntity
  8
0
  6
Continuous
 62
     7
370
     0
100
AcDbSpline
210
0.0
220
0.0
230
1.0
 70
     8
 71
     3
 72
    23
 73
    19
 74
     0
 42
0.00000001
 43
0.00000001
 40
0.0
 40
0.0
 40
0.0
 40
0.0
 40
0.0610549117432832
 40
0.1195453450847438
 40
0.1768063562451035
 40
0.2329564830316851
 40
0.2885834899465033
 40
0.3446666617213001
 40
0.4016615108374461
 40
0.4605400973082778
 40
0.5204770623221882
 40
0.5812128653554004
 40
0.6434307597220102
 40
0.7079608695212424
 40
0.7753707435336737
 40
0.8464136772813298
 40
0.9211518871893691
 40
1.0
 40
1.0
 40
1.0
 40
1.0
 10
218.2988832157572
 20
109.0474495328414
 30
0.0
 10
218.3233361358647
 20
109.0480615811426
 30
0.0
 10
218.3712148845044
 20
109.049259969991
 30
0.0
 10
218.441483742514
 20
109.059291253808
 30
0.0
 10
218.5082470237072
 20
109.0763690869228
 30
0.0
 10
218.5721664715144
 20
109.0991035513983
 30
0.0
 10
218.6320864841579
 20
109.1298366717849
 30
0.0
 10
218.6894084195601
 20
109.1658249875811
 30
0.0
 10
218.7425696743699
 20
109.2098016786842
 30
0.0
 10
218.7928752069718
 20
109.2592007170562
 30
0.0
 10
218.837995880991
 20
109.3153517969408
 30
0.0
 10
218.8780309804421
 20
109.3768717383378
 30
0.0
 10
218.9105526772454
 20
109.4446831839737
 30
0.0
 10
218.938630773023
 20
109.5172923405343
 30
0.0
 10
218.9591911729833
 20
109.5960715487028
 30
0.0
 10
218.9743865684756
 20
109.6801252472264
 30
0.0
 10
218.9835436355026
 20
109.7697238104123
 30
0.0
 10
218.98450792187
 20
109.8312315615466
 30
0.0
 10
218.9850029669946
 20
109.8628083973892
 30
0.0
  0
SPLINE
  5
1CA
330
1F
100
AcDbEntity
  8
0
  6
Continuous
 62
     7
370
     0
100
AcDbSpline
210
0.0
220
0.0
230
1.0
 70
     8
 71
     3
 72
    23
 73
    19
 74
     0
 42
0.00000001
 43
0.00000001
 40
0.0
 40
0.0
 40
0.0
 40
0.0
 40
0.0759644026221998
 40
0.1481252239748712
 40
0.2172006111446031
 40
0.2832999093723612
 40
0.347201868136241
 40
0.4092995407059241
 40
0.4704256161074027
 40
0.5315880640528347
 40
0.5917391729173698
 40
0.6502577442905727
 40
0.7073030399522857
 40
0.7642084640229153
 40
0.8211475320101305
 40
0.8791188121552541
 40
0.9384228183936666
 40
1.0
 40
1.0
 40
1.0
 40
1.0
 10
217.6152330017168
 20
109.8335855405579
 30
0.0
 10
217.6156770437003
 20
109.8039221000029
 30
0.0
 10
217.6165428942301
 20
109.7460804843988
 30
0.0
 10
217.6264486929467
 20
109.6617504847274
 30
0.0
 10
217.6414791604024
 20
109.5821808354886
 30
0.0
 10
217.6621970732017
 20
109.5071481655483
 30
0.0
 10
217.690047021574
 20
109.4373945369279
 30
0.0
 10
217.7233452407854
 20
109.3722496850358
 30
0.0
 10
217.7632128896999
 20
109.3121466556695
 30
0.0
 10
217.8087703691885
 20
109.2572535807444
 30
0.0
 10
217.8588783739274
 20
109.2079417554658
 30
0.0
 10
217.9124238621964
 20
109.1648704992403
 30
0.0
 10
217.9694188707566
 20
109.1288013687927
 30
0.0
 10
218.0292315085581
 20
109.0990186017314
 30
0.0
 10
218.0922913818339
 20
109.0757704363197
 30
0.0
 10
218.1584096256159
 20
109.0594461603001
 30
0.0
 10
218.2276348198536
 20
109.0492366507897
 30
0.0
 10
218.2748378654292
 20
109.0480526604852
 30
0.0
 10
218.2988832157572
 20
109.0474495328414
 30
0.0
  0
SPLINE
  5
1CB
330
1F
100
AcDbEntity
  8
0
  6
Continuous
 62
     7
370
     0
100
AcDbSpline
210
0.0
220
0.0
230
1.0
 70
     8
 71
     3
 72
    23
 73
    19
 74
     0
 42
0.00000001
 43
0.00000001
 40
0.0
 40
0.0
 40
0.0
 40
0.0
 40
0.0559431333569187
 40
0.1103820356898407
 40
0.1640478588828499
 40
0.2167594775435861
 40
0.2696011346144475
 40
0.3230085051908687
 40
0.3775814436721363
 40
0.4334493367080539
 40
0.490921858049893
 40
0.5506247708713257
 40
0.6131168723098183
 40
0.6798607463518506
 40
0.7513577440202002
 40
0.8282611012589941
 40
0.9107950320656293
 40
1.0
 40
1.0
 40
1.0
 40
1.0
 10
218.3029991110856
 20
110.6806367991341
 30
0.0
 10
218.2799131912688
 20
110.680178321876
 30
0.0
 10
218.234362099075
 20
110.679273695159
 30
0.0
 10
218.1673054687185
 20
110.6692173646287
 30
0.0
 10
218.1026556064818
 20
110.6541918327801
 30
0.0
 10
218.0403121826836
 20
110.6331853386219
 30
0.0
 10
217.9808084110503
 20
110.60536943903
 30
0.0
 10
217.9238360076131
 20
110.571257044927
 30
0.0
 10
217.8688892588075
 20
110.5317769829215
 30
0.0
 10
217.81683459652
 20
110.4859673302505
 30
0.0
 10
217.7683082653358
 20
110.4333432219559
 30
0.0
 10
217.7272841206082
 20
110.3713010108465
 30
0.0
 10
217.692707850617
 20
110.3013217747785
 30
0.0
 10
217.663837302116
 20
110.2235828948635
 30
0.0
 10
217.6418243590997
 20
110.1374823348558
 30
0.0
 10
217.6266106620632
 20
110.0433906258941
 30
0.0
 10
217.6170050441551
 20
109.9412086184827
 30
0.0
 10
217.6158387833009
 20
109.8703770288484
 30
0.0
 10
217.6152330017168
 20
109.8335855405579
 30
0.0
  0
SPLINE
  5
1CC
330
1F
100
AcDbEntity
  8
0
  6
Continuous
 62
     7
370
     0
100
AcDbSpline
210
0.0
220
0.0
230
1.0
 70
     8
 71
     3
 72
    31
 73
    27
 74
     0
 42
0.00000001
 43
0.00000001
 40
0.0
 40
0.0
 40
0.0
 40
0.0
 40
0.0508516157922844
 40
0.0997524678094164
 40
0.1474376477769319
 40
0.1940857839327041
 40
0.239170927084144
 40
0.2833398222454342
 40
0.3265771497238441
 40
0.368936281499902
 40
0.4105718726814497
 40
0.4510505934949118
 40
0.4908768629924158
 40
0.5300443324843861
 40
0.5689366633103304
 40
0.6075778621311337
 40
0.646420096450513
 40
0.6856793513063945
 40
0.7247985849801968
 40
0.7635130084045112
 40
0.802172526378755
 40
0.8407403615726128
 40
0.8796493769005862
 40
0.9190706128663402
 40
0.9590978622172246
 40
1.0
 40
1.0
 40
1.0
 40
1.0
 10
218.9850029669946
 20
109.8628083973892
 30
0.0
 10
218.9848280182383
 20
109.8831228782608
 30
0.0
 10
218.9844848320894
 20
109.9229725382496
 30
0.0
 10
218.979939897272
 20
109.9817113930347
 30
0.0
 10
218.9740775145518
 20
110.0386231331135
 30
0.0
 10
218.9651519457209
 20
110.0936343219715
 30
0.0
 10
218.9528513794128
 20
110.1465171457669
 30
0.0
 10
218.9392244407937
 20
110.1976742025209
 30
0.0
 10
218.9221844305885
 20
110.2466646488477
 30
0.0
 10
218.9028501642422
 20
110.29368060656
 30
0.0
 10
218.8812154475818
 20
110.33848070465
 30
0.0
 10
218.8568143645538
 20
110.3806872604545
 30
0.0
 10
218.8299305058
 20
110.420136184238
 30
0.0
 10
218.8012892291763
 20
110.4575753876232
 30
0.0
 10
218.7693045427409
 20
110.4915558201109
 30
0.0
 10
218.7355165281267
 20
110.5235128309383
 30
0.0
 10
218.6991576917413
 20
110.5527861812359
 30
0.0
 10
218.6605908814349
 20
110.5793835176825
 30
0.0
 10
218.6203632174197
 20
110.6033253122247
 30
0.0
 10
218.5785576287489
 20
110.6238163819272
 30
0.0
 10
218.5358401379455
 20
110.6418152122063
 30
0.0
 10
218.4914957146462
 20
110.6556120710261
 30
0.0
 10
218.4461366698739
 20
110.6667394401583
 30
0.0
 10
218.3995796382067
 20
110.6751917133757
 30
0.0
 10
218.3516518123089
 20
110.6795686938022
 30
0.0
 10
218.3193331386725
 20
110.6802782072878
 30
0.0
 10
218.3029991110856
 20
110.6806367991341
 30
0.0
  0
SPLINE
  5
1CD
330
1F
100
AcDbEntity
  8
0
  6
Continuous
 62
     7
370
     0
100
AcDbSpline
210
0.0
220
0.0
230
1.0
 70
     8
 71
     3
 72
    19
 73
    15
 74
     0
 42
0.00000001
 43
0.00000001
 40
0.0
 40
0.0
 40
0.0
 40
0.0
 40
0.0768426979287827
 40
0.1498390532852208
 40
0.2183793964454711
 40
0.2849970207005652
 40
0.3476576708142682
 40
0.4098471591145119
 40
0.4699357615076958
 40
0.5304196066566044
 40
0.6487517360264009
 40
0.7637748930771635
 40
0.8787494877784697
 40
0.9999999999999999
 40
0.9999999999999999
 40
0.9999999999999999
 40
0.9999999999999999
 10
218.7635677983289
 20
106.9137693946202
 30
0.0
 10
218.7757938844537
 20
106.9139438122576
 30
0.0
 10
218.7996340829333
 20
106.9142839170999
 30
0.0
 10
218.8341201292962
 20
106.9187224966061
 30
0.0
 10
218.8667093229304
 20
106.9246506372955
 30
0.0
 10
218.89692009117
 20
106.9336338233681
 30
0.0
 10
218.9251012157895
 20
106.9453145851548
 30
0.0
 10
218.9507943430156
 20
106.9597140810762
 30
0.0
 10
218.9747683346874
 20
106.9762632340825
 30
0.0
 10
219.0027972739171
 20
107.002005921842
 30
0.0
 10
219.0328754276049
 20
107.0381880154053
 30
0.0
 10
219.0586538334562
 20
107.0875833569179
 30
0.0
 10
219.0747178387121
 20
107.141624793788
 30
0.0
 10
219.0763574410758
 20
107.1792678048872
 30
0.0
 10
219.0771990223498
 20
107.1985893513426
 30
0.0
  0
SPLINE
  5
1CE
330
1F
100
AcDbEntity
  8
0
  6
Continuous
 62
     7
370
     0
100
AcDbSpline
210
0.0
220
0.0
230
1.0
 70
     8
 71
     3
 72
    19
 73
    15
 74
     0
 42
0.00000001
 43
0.00000001
 40
0.0
 40
0.0
 40
0.0
 40
0.0
 40
0.1273939413394725
 40
0.2461816112928119
 40
0.3612680043537856
 40
0.4771402680372256
 40
0.5363265834357716
 40
0.5956719150436505
 40
0.6566189532057533
 40
0.7188356214960805
 40
0.7835815527063729
 40
0.8515878166889452
 40
0.9239265274809916
 40
1.0
 40
1.0
 40
1.0
 40
1.0
 10
218.4449974999139
 20
107.2109370373277
 30
0.0
 10
218.4457793194675
 20
107.1899671734318
 30
0.0
 10
218.4472901416888
 20
107.1494440933842
 30
0.0
 10
218.4637204951691
 20
107.0918840271471
 30
0.0
 10
218.4894127997809
 20
107.0401789458118
 30
0.0
 10
218.519532518083
 20
107.0026836178395
 30
0.0
 10
218.5484097637321
 20
106.9771361115868
 30
0.0
 10
218.5725118020108
 20
106.9600789494297
 30
0.0
 10
218.598850668961
 20
106.9455977631364
 30
0.0
 10
218.6276171775162
 20
106.9343420718789
 30
0.0
 10
218.6581146015572
 20
106.92437023024
 30
0.0
 10
218.6913947538151
 20
106.9187966957014
 30
0.0
 10
218.7266754041233
 20
106.9142657433335
 30
0.0
 10
218.7510657410087
 20
106.9139375967713
 30
0.0
 10
218.7635677983289
 20
106.9137693946202
 30
0.0
  0
SPLINE
  5
1CF
330
1F
100
AcDbEntity
  8
0
  6
Continuous
 62
     7
370
     0
100
AcDbSpline
210
0.0
220
0.0
230
1.0
 70
     8
 71
     3
 72
    19
 73
    15
 74
     0
 42
0.00000001
 43
0.00000001
 40
0.0
 40
0.0
 40
0.0
 40
0.0
 40
0.0762358674075228
 40
0.1486180999543649
 40
0.2182394281414515
 40
0.2842516902686069
 40
0.3482575207850553
 40
0.4106562042500674
 40
0.4728623729995139
 40
0.5341947480221281
 40
0.653476101422413
 40
0.7677667895221952
 40
0.8817126094674201
 40
1.0
 40
1.0
 40
1.0
 40
1.0
 10
218.7610982611319
 20
107.4932874568531
 30
0.0
 10
218.7490081396416
 20
107.4931189082126
 30
0.0
 10
218.7254390383089
 20
107.4927903308704
 30
0.0
 10
218.6911105477349
 20
107.4882388368896
 30
0.0
 10
218.6586167773421
 20
107.4825222530018
 30
0.0
 10
218.6282575030994
 20
107.4733481936711
 30
0.0
 10
218.6001589186848
 20
107.4613598308378
 30
0.0
 10
218.5740275335958
 20
107.4467697361539
 30
0.0
 10
218.5496693788975
 20
107.4300741359682
 30
0.0
 10
218.5209442028094
 20
107.4043592565685
 30
0.0
 10
218.4908593134515
 20
107.3681763435034
 30
0.0
 10
218.4643553720198
 20
107.3195699041933
 30
0.0
 10
218.4479750786765
 20
107.2665724807379
 30
0.0
 10
218.4460023196618
 20
107.2297118865182
 30
0.0
 10
218.4449974999139
 20
107.2109370373277
 30
0.0
  0
SPLINE
  5
1D0
330
1F
100
AcDbEntity
  8
0
  6
Continuous
 62
     7
370
     0
100
AcDbSpline
210
0.0
220
0.0
230
1.0
 70
     8
 71
     3
 72
    19
 73
    15
 74
     0
 42
0.00000001
 43
0.00000001
 40
0.0
 40
0.0
 40
0.0
 40
0.0
 40
0.1233861213626085
 40
0.2414346864233538
 40
0.3574485461509664
 40
0.4767139204528325
 40
0.5378895868739916
 40
0.5992703938301226
 40
0.6603520522565615
 40
0.7230069362990812
 40
0.7878755372012023
 40
0.855360105861051
 40
0.9253732137563339
 40
0.9999999999999999
 40
0.9999999999999999
 40
0.9999999999999999
 40
0.9999999999999999
 10
219.0771990223498
 20
107.1985893513426
 30
0.0
 10
219.0761850351604
 20
107.2185863245701
 30
0.0
 10
219.0742009248209
 20
107.2577152225959
 30
0.0
 10
219.0581761588476
 20
107.3138865194173
 30
0.0
 10
219.0311970620731
 20
107.3647609388348
 30
0.0
 10
219.0003771841773
 20
107.4019138068069
 30
0.0
 10
218.9718524143298
 20
107.4288288721538
 30
0.0
 10
218.9474480195412
 20
107.4459621138057
 30
0.0
 10
218.9212132038435
 20
107.460544018198
 30
0.0
 10
218.893048117937
 20
107.4724521062329
 30
0.0
 10
218.8629120333289
 20
107.4820561031863
 30
0.0
 10
218.8307233150996
 20
107.4883567878074
 30
0.0
 10
218.7966172205747
 20
107.49277567938
 30
0.0
 10
218.7731870371799
 20
107.4931132748569
 30
0.0
 10
218.7610982611319
 20
107.4932874568531
 30
0.0
  0
SPLINE
  5
1D1
330
1F
100
AcDbEntity
  8
0
  6
Continuous
 62
     7
370
     0
100
AcDbSpline
210
0.0
220
0.0
230
1.0
 70
     8
 71
     3
 72
    23
 73
    19
 74
     0
 42
0.00000001
 43
0.00000001
 40
0.0
 40
0.0
 40
0.0
 40
0.0
 40
0.1156291309254414
 40
0.2215410391198768
 40
0.3170478562190417
 40
0.4031508756396167
 40
0.4801812167162795
 40
0.5476493661481898
 40
0.6070358428421809
 40
0.6586524080635072
 40
0.705722890353646
 40
0.749804087979647
 40
0.7925868153452743
 40
0.8338739610102607
 40
0.8747683933034329
 40
0.9152226988916381
 40
0.9568807037304801
 40
1.0
 40
1.0
 40
1.0
 40
1.0
 10
217.5757204065646
 20
106.6898646887575
 30
0.0
 10
217.5754709549874
 20
106.7285610993739
 30
0.0
 10
217.5749930152053
 20
106.8027019577332
 30
0.0
 10
217.5695914198669
 20
106.9086948629317
 30
0.0
 10
217.5611266345244
 20
107.0045567696918
 30
0.0
 10
217.5495481529052
 20
107.0903760538024
 30
0.0
 10
217.5341603529803
 20
107.1660595466655
 30
0.0
 10
217.5154970507434
 20
107.2317683681504
 30
0.0
 10
217.4932569355278
 20
107.2873623835205
 30
0.0
 10
217.4668135179
 20
107.3334000357548
 30
0.0
 10
217.4373767031202
 20
107.3711634000878
 30
0.0
 10
217.4066271595039
 20
107.4038508777729
 30
0.0
 10
217.3737961453603
 20
107.4316505126139
 30
0.0
 10
217.3383019939108
 20
107.4539517897759
 30
0.0
 10
217.3012887484125
 20
107.4719436306934
 30
0.0
 10
217.2619059385615
 20
107.4843260737803
 30
0.0
 10
217.2205406662556
 20
107.4919334595041
 30
0.0
 10
217.192152216532
 20
107.4928309676733
 30
0.0
 10
217.1777133283123
 20
107.4932874568531
 30
0.0
  0
SPLINE
  5
1D2
330
1F
100
AcDbEntity
  8
0
  6
Continuous
 62
     7
370
     0
100
AcDbSpline
210
0.0
220
0.0
230
1.0
 70
     8
 71
     3
 72
    23
 73
    19
 74
     0
 42
0.00000001
 43
0.00000001
 40
0.0
 40
0.0
 40
0.0
 40
0.0
 40
0.0407818458722597
 40
0.0808695887215869
 40
0.1202681657882671
 40
0.1601868504553522
 40
0.2004597376386391
 40
0.2422651778979079
 40
0.2864592615494684
 40
0.3329520837492633
 40
0.3844305340495303
 40
0.4433891253601058
 40
0.5116814722136833
 40
0.5890200255490083
 40
0.6762451906507723
 40
0.7737051914728237
 40
0.881567767781983
 40
1.0
 40
1.0
 40
1.0
 40
1.0
 10
217.1805944550422
 20
105.8864419206619
 30
0.0
 10
217.1942001226191
 20
105.8869613486791
 30
0.0
 10
217.2211798906432
 20
105.8879913640994
 30
0.0
 10
217.2608965952711
 20
105.8948521337838
 30
0.0
 10
217.2987350126466
 20
105.9076702325005
 30
0.0
 10
217.3350363508866
 20
105.9244299510508
 30
0.0
 10
217.3696131860468
 20
105.9461378107087
 30
0.0
 10
217.4022836762076
 20
105.9728806760204
 30
0.0
 10
217.433569536483
 20
106.0042067108388
 30
0.0
 10
217.4635784161649
 20
106.041076220489
 30
0.0
 10
217.4909004685139
 20
106.0859938174348
 30
0.0
 10
217.5135660836572
 20
106.1413495773999
 30
0.0
 10
217.5329954687387
 20
106.2068683638389
 30
0.0
 10
217.5488006508204
 20
106.2830221418883
 30
0.0
 10
217.5607543874343
 20
106.3696717148888
 30
0.0
 10
217.569704513708
 20
106.4668996757723
 30
0.0
 10
217.5749702972803
 20
106.5748355907834
 30
0.0
 10
217.575462703784
 20
106.6503460225872
 30
0.0
 10
217.5757204065646
 20
106.6898646887575
 30
0.0
  0
SPLINE
  5
1D3
330
1F
100
AcDbEntity
  8
0
  6
Continuous
 62
     7
370
     0
100
AcDbSpline
210
0.0
220
0.0
230
1.0
 70
     8
 71
     3
 72
    23
 73
    19
 74
     0
 42
0.00000001
 43
0.00000001
 40
0.0
 40
0.0
 40
0.0
 40
0.0
 40
0.1184055081537695
 40
0.226654332816702
 40
0.3240923419286021
 40
0.4117048030053219
 40
0.4890259050064157
 40
0.5569093973430758
 40
0.6162333444927074
 40
0.6673492812770747
 40
0.7135123932013476
 40
0.7576965045209786
 40
0.7994925114422912
 40
0.8399760647439397
 40
0.8798857418167761
 40
0.9191486593857416
 40
0.9592273564930831
 40
1.0
 40
1.0
 40
1.0
 40
1.0
 10
216.7854685035197
 20
106.6898646887575
 30
0.0
 10
216.7857300559527
 20
106.6503462008673
 30
0.0
 10
216.7862307251623
 20
106.5746990739192
 30
0.0
 10
216.7914615030957
 20
106.4666241017259
 30
0.0
 10
216.8004660720067
 20
106.3691257244961
 30
0.0
 10
216.8123707002561
 20
106.2823389351034
 30
0.0
 10
216.8280896295284
 20
106.2061463372532
 30
0.0
 10
216.847826604361
 20
106.1407420931409
 30
0.0
 10
216.8700748693712
 20
106.0853412035632
 30
0.0
 10
216.89760667573
 20
106.0406303199093
 30
0.0
 10
216.9277509627837
 20
106.004184427377
 30
0.0
 10
216.9588728790532
 20
105.9728397811454
 30
0.0
 10
216.9917046156478
 20
105.9461975495608
 30
0.0
 10
217.0260319494543
 20
105.923983361743
 30
0.0
 10
217.062387493759
 20
105.9071642382117
 30
0.0
 10
217.1003737067282
 20
105.8949737000238
 30
0.0
 10
217.1399988538373
 20
105.8879582324699
 30
0.0
 10
217.1669853795968
 20
105.8869502417898
 30
0.0
 10
217.1805944550422
 20
105.8864419206619
 30
0.0
  0
SPLINE
  5
1D4
330
1F
100
AcDbEntity
  8
0
  6
Continuous
 62
     7
370
     0
100
AcDbSpline
210
0.0
220
0.0
230
1.0
 70
     8
 71
     3
 72
    15
 73
    11
 74
     0
 42
0.00000001
 43
0.00000001
 40
0.0
 40
0.0
 40
0.0
 40
0.0
 40
0.0838881132795455
 40
0.1771540327539698
 40
0.2825136355617228
 40
0.3993998606601629
 40
0.5294908061912204
 40
0.6728021776758327
 40
0.82953576161967
 40
1.0
 40
1.0
 40
1.0
 40
1.0
 10
216.9044178785093
 20
107.3525238366233
 30
0.0
 10
216.8946274541846
 20
107.3361552351822
 30
0.0
 10
216.8739521393673
 20
107.3015881953185
 30
0.0
 10
216.8508176642665
 20
107.2415092558291
 30
0.0
 10
216.8303815835088
 20
107.1728504637229
 30
0.0
 10
216.8135559135588
 20
107.0945554536159
 30
0.0
 10
216.8013837217271
 20
107.0067585329427
 30
0.0
 10
216.7917742469402
 20
106.9095616612292
 30
0.0
 10
216.786782482471
 20
106.802829140014
 30
0.0
 10
216.7859185808691
 20
106.728558414215
 30
0.0
 10
216.7854685035197
 20
106.6898646887575
 30
0.0
  0
SPLINE
  5
1D5
330
1F
100
AcDbEntity
  8
0
  6
Continuous
 62
     7
370
     0
100
AcDbSpline
210
0.0
220
0.0
230
1.0
 70
     8
 71
     3
 72
    15
 73
    11
 74
     0
 42
0.00000001
 43
0.00000001
 40
0.0
 40
0.0
 40
0.0
 40
0.0
 40
0.1276647678962251
 40
0.2517385630080496
 40
0.3727533493873909
 40
0.4921467589723849
 40
0.614069621309245
 40
0.7371973244121106
 40
0.8656069906011167
 40
1.0
 40
1.0
 40
1.0
 40
1.0
 10
217.1777133283123
 20
107.4932874568531
 30
0.0
 10
217.164105107592
 20
107.4929302947747
 30
0.0
 10
217.1372714401229
 20
107.4922260169238
 30
0.0
 10
217.09798343674
 20
107.485503691969
 30
0.0
 10
217.0607506574771
 20
107.4742624663256
 30
0.0
 10
217.0251465350394
 20
107.459035134695
 30
0.0
 10
216.9920599073527
 20
107.4385421539962
 30
0.0
 10
216.9601786410452
 20
107.4146151403335
 30
0.0
 10
216.93099593128
 20
107.3854627447901
 30
0.0
 10
216.9134106864144
 20
107.3636688695684
 30
0.0
 10
216.9044178785093
 20
107.3525238366233
 30
0.0
  0
LINE
  5
1D6
330
1F
100
AcDbEntity
  8
0
  6
Continuous
 62
     7
370
     0
100
AcDbLine
 10
143.2951928892
 20
109.4038860683
 30
0.0
 11
143.2954928892
 21
109.4038860683
 31
0.0
  0
LINE
  5
1D7
330
1F
100
AcDbEntity
  8
0
  6
Continuous
 62
     7
370
     0
100
AcDbLine
 10
143.2954928892
 20
109.4079722396
 30
0.0
 11
143.2951928892
 21
109.4079722537
 31
0.0
  0
LINE
  5
1D8
330
1F
100
AcDbEntity
  8
0
  6
Continuous
 62
     7
370
     0
100
AcDbLine
 10
143.2954928892
 20
109.4079722396
 30
0.0
 11
143.2954928892
 21
109.4038860683
 31
0.0
  0
LINE
  5
1D9
330
1F
100
AcDbEntity
  8
0
  6
Continuous
 62
     7
370
     0
100
AcDbLine
 10
143.2951928892
 20
110.3373711287
 30
0.0
 11
143.2954928892
 21
110.3373711287
 31
0.0
  0
LINE
  5
1DA
330
1F
100
AcDbEntity
  8
0
  6
Continuous
 62
     7
370
     0
100
AcDbLine
 10
143.2951928892
 20
109.935940547
 30
0.0
 11
143.2954928892
 21
109.9359405386
 31
0.0
  0
LINE
  5
1DB
330
1F
100
AcDbEntity
  8
0
  6
Continuous
 62
     7
370
     0
100
AcDbLine
 10
143.2954928892
 20
110.7578640465
 30
0.0
 11
143.2951928892
 21
110.7578640463
 31
0.0
  0
LINE
  5
1DC
330
1F
100
AcDbEntity
  8
0
  6
Continuous
 62
     7
370
     0
100
AcDbLine
 10
143.2951928892
 20
110.7578640463
 30
0.0
 11
143.2951928892
 21
109.935940547
 31
0.0
  0
LINE
  5
1DD
330
1F
100
AcDbEntity
  8
0
  6
Continuous
 62
     7
370
     0
100
AcDbLine
 10
143.2951928892
 20
108.8492698345
 30
0.0
 11
143.2954928892
 21
108.8492698345
 31
0.0
  0
LINE
  5
1DE
330
1F
100
AcDbEntity
  8
0
  6
Continuous
 62
     7
370
     0
100
AcDbLine
 10
143.2954928892
 20
107.3600206734
 30
0.0
 11
143.2951928892
 21
107.3600206736
 31
0.0
  0
LINE
  5
1DF
330
1F
100
AcDbEntity
  8
0
  6
Continuous
 62
     7
370
     0
100
AcDbLine
 10
143.2951928892
 20
107.3600206736
 30
0.0
 11
143.2951928892
 21
107.0958979637
 31
0.0
  0
LINE
  5
1E0
330
1F
100
AcDbEntity
  8
0
  6
Continuous
 62
     7
370
     0
100
AcDbLine
 10
143.2951928892
 20
107.0958979637
 30
0.0
 11
143.2954928892
 21
107.0958979585
 31
0.0
  0
LINE
  5
1E1
330
1F
100
AcDbEntity
  8
0
  6
Continuous
 62
     7
370
     0
100
AcDbLine
 10
143.2954928892
 20
83.086715692
 30
0.0
 11
143.0954928892
 21
82.886715692
 31
0.0
  0
LINE
  5
1E2
330
1F
100
AcDbEntity
  8
0
  6
Continuous
 62
     7
370
     0
100
AcDbLine
 10
143.0954928892
 20
82.886715692
 30
0.0
 11
132.87603629
 21
82.886715692
 31
0.0
  0
LINE
  5
1E3
330
1F
100
AcDbEntity
  8
0
  6
Continuous
 62
     7
370
     0
100
AcDbLine
 10
132.87603629
 20
82.886715692
 30
0.0
 11
132.7013481998
 21
83.0851963236
 31
0.0
  0
ARC
  5
1E4
330
1F
100
AcDbEntity
  8
0
  6
Continuous
 62
     7
370
     0
100
AcDbCircle
 10
-65.7045071108
 20
108.286715692
 30
0.0
 40
200.0
100
AcDbArc
 50
352.76105306
 51
7.23894694
  0
LINE
  5
1E5
330
1F
100
AcDbEntity
  8
0
  6
Continuous
 62
     7
370
     0
100
AcDbLine
 10
132.7013481998
 20
133.4882350605
 30
0.0
 11
132.87603629
 21
133.686715692
 31
0.0
  0
LINE
  5
1E6
330
1F
100
AcDbEntity
  8
0
  6
Continuous
 62
     7
370
     0
100
AcDbLine
 10
132.87603629
 20
133.686715692
 30
0.0
 11
143.0954928892
 21
133.686715692
 31
0.0
  0
LINE
  5
1E7
330
1F
100
AcDbEntity
  8
0
  6
Continuous
 62
     7
370
     0
100
AcDbLine
 10
143.0954928892
 20
133.686715692
 30
0.0
 11
143.2954928892
 21
133.486715692
 31
0.0
  0
LINE
  5
1E8
330
1F
100
AcDbEntity
  8
0
  6
Continuous
 62
     7
370
     0
100
AcDbLine
 10
143.2954928892
 20
107.0958979585
 30
0.0
 11
143.2954928892
 21
83.086715692
 31
0.0
  0
LINE
  5
1E9
330
1F
100
AcDbEntity
  8
0
  6
Continuous
 62
     7
370
     0
100
AcDbLine
 10
143.2954928892
 20
108.8492698345
 30
0.0
 11
143.2954928892
 21
107.3600206734
 31
0.0
  0
LINE
  5
1EA
330
1F
100
AcDbEntity
  8
0
  6
Continuous
 62
     7
370
     0
100
AcDbLine
 10
143.2954928892
 20
109.9359405386
 30
0.0
 11
143.2954928892
 21
109.4079722396
 31
0.0
  0
LINE
  5
1EB
330
1F
100
AcDbEntity
  8
0
  6
Continuous
 62
     7
370
     0
100
AcDbLine
 10
143.2954928892
 20
133.486715692
 30
0.0
 11
143.2954928892
 21
110.7578640465
 31
0.0
  0
LINE
  5
1EC
330
1F
100
AcDbEntity
  8
0
  6
Continuous
 62
     7
370
     0
100
AcDbLine
 10
143.2951928892
 20
109.4079722537
 30
0.0
 11
143.2951928892
 21
108.8492698345
 31
0.0
  0
LINE
  5
1ED
330
1F
100
AcDbEntity
  8
0
  6
Continuous
 62
     7
370
     0
100
AcDbLine
 10
143.2951928892
 20
107.2767913626
 30
0.0
 11
143.2954928892
 21
107.2767913626
 31
0.0
  0
LINE
  5
1EE
330
1F
100
AcDbEntity
  8
0
  6
Continuous
 62
     7
370
     0
100
AcDbLine
 10
132.7013481998
 20
133.4882350605
 30
0.0
 11
132.7013481998
 21
83.0851963236
 31
0.0
  0
LINE
  5
1EF
330
1F
100
AcDbEntity
  8
0
  6
Continuous
 62
     7
370
     0
100
AcDbLine
 10
143.2954928892
 20
109.4038860683
 30
0.0
 11
143.2954928892
 21
108.8492698345
 31
0.0
  0
LINE
  5
1F0
330
1F
100
AcDbEntity
  8
0
  6
Continuous
 62
     7
370
     0
100
AcDbLine
 10
143.2954928892
 20
107.3600206734
 30
0.0
 11
143.2954928892
 21
107.2869785588
 31
0.0
  0
HATCH
  5
1F1
330
1F
100
AcDbEntity
  8
0
  6
Continuous
 62
     7
370
     0
100
AcDbHatch
 10
0.0
 20
0.0
 30
0.0
210
0.0
220
0.0
230
1.0
  2
ANSI31
 70
     0
 71
     0
 91
        1
 92
        0
 93
       20
 72
     1
 10
143.2954928892168
 20
110.7578640465476
 11
143.2954928892168
 21
133.4867156920294
 72
     1
 10
143.2954928892168
 20
133.4867156920294
 11
143.0954928892168
 21
133.6867156920294
 72
     1
 10
143.0954928892168
 20
133.6867156920294
 11
132.8760362900251
 21
133.6867156920294
 72
     1
 10
132.8760362900251
 20
133.6867156920294
 11
132.701348199792
 21
133.4882350604942
 72
     2
 10
-65.70450711078321
 20
108.2867156920294
 40
200.0
 50
352.7610530600284
 51
367.2389469399732
 73
     0
 72
     1
 10
132.701348199792
 20
83.085196323565
 11
132.8760362900251
 21
82.88671569202941
 72
     1
 10
132.8760362900251
 20
82.88671569202941
 11
143.0954928892168
 21
82.88671569202941
 72
     1
 10
143.0954928892168
 20
82.88671569202941
 11
143.2954928892168
 21
83.08671569202943
 72
     1
 10
143.2954928892168
 20
83.08671569202943
 11
143.2954928892168
 21
107.0958979585177
 72
     1
 10
143.2954928892168
 20
107.0958979585177
 11
143.2951928892168
 21
107.0958979636743
 72
     1
 10
143.2951928892168
 20
107.0958979636743
 11
143.2951928892168
 21
107.3600206735959
 72
     1
 10
143.2951928892168
 20
107.3600206735959
 11
143.2954928892168
 21
107.3600206733556
 72
     1
 10
143.2954928892168
 20
107.3600206733556
 11
143.2954928892168
 21
108.8492698345004
 72
     1
 10
143.2954928892168
 20
108.8492698345004
 11
143.2951928892168
 21
108.8492698345004
 72
     1
 10
143.2951928892168
 20
108.8492698345004
 11
143.2951928892161
 21
109.4079722537308
 72
     1
 10
143.2951928892161
 20
109.4079722537308
 11
143.2954928892168
 21
109.4079722395968
 72
     1
 10
143.2954928892168
 20
109.4079722395968
 11
143.2954928892168
 21
109.9359405385743
 72
     1
 10
143.2954928892168
 20
109.9359405385743
 11
143.2951928892168
 21
109.9359405470321
 72
     1
 10
143.2951928892168
 20
109.9359405470321
 11
143.2951928892168
 21
110.7578640463224
 72
     1
 10
143.2951928892168
 20
110.7578640463224
 11
143.2954928892168
 21
110.7578640465476
 97
        0
 75
     0
 76
     1
 52
0.0
 41
0.5
 77
     0
 78
     1
 53
45.0
 43
0.0
 44
0.0
 45
-1.122532015133644
 46
1.122532015133644
 79
     0
 98
        1
 10
0.0
 20
0.0
  0
DIMENSION
  5
1F2
330
1F
100
AcDbEntity
  8
0
  6
Continuous
 62
     7
370
     0
100
AcDbDimension
  2
*D9
 10
-65.7045071108
 20
108.286715692
 30
0.0
 11
164.8891327048
 21
95.0837034359
 31
0.0
 70
   164
  1
<>
 71
     1
 42
-1.0
  3
SLDDIMSTYLE1
100
AcDbRadialDimension
 15
133.930287204
 25
96.2057844825
 35
0.0
 40
0.0
  0
DIMENSION
  5
203
330
1F
100
AcDbEntity
  8
0
  6
Continuous
 62
     7
370
     0
100
AcDbDimension
  2
*D10
 10
134.2954928892
 20
143.686715692
 30
0.0
 11
157.5597027479
 21
143.686715692
 31
0.0
 70
   160
 71
     2
 42
-1.0
  3
SLDDIMSTYLE2
100
AcDbAlignedDimension
 13
143.2954928892
 23
133.486715692
 33
0.0
 14
134.2954928892
 24
108.286715692
 34
0.0
100
AcDbRotatedDimension
  0
DIMENSION
  5
216
330
1F
100
AcDbEntity
  8
0
  6
Continuous
 62
     7
370
     0
100
AcDbDimension
  2
*D11
 10
143.2954928892
 20
155.686715692
 30
0.0
 11
159.2954928892
 21
155.686715692
 31
0.0
 70
   160
  1
<> REF
 71
     2
 42
-1.0
  3
SLDDIMSTYLE3
100
AcDbAlignedDimension
 13
132.7013481998
 23
133.4882350605
 33
0.0
 14
143.2954928892
 24
133.486715692
 34
0.0
100
AcDbRotatedDimension
  0
MTEXT
  5
22A
330
1F
100
AcDbEntity
  8
0
  6
Continuous
 62
     7
370
     0
100
AcDbMText
 10
137.8173764944
 20
76.3019089922
 30
0.0
 40
2.1166666667
 41
0.0
 71
     2
 72
     1
  1
SECTION A-A
  7
SLDTEXTSTYLE0
 73
     1
 44
1.0
  0
OLE2FRAME
  5
22B
330
1F
100
AcDbEntity
  8
0
100
AcDbOle2Frame
 70
     2
  3
Paintbrush Picture
 10
229.0524258301
 20
33.6996297921
 30
0.0
 11
265.1686469208
 21
28.555479607
 31
0.0
 71
     2
 72
     0
 73
     1
 90
     7296
310
80557333EF78ADA16C40002412788DD94040000000000000000041161DC7B292
310
7040002412788DD94040000000000000000041161DC7B2927040F6DD59E9338E
310
3C4000000000000000007333EF78ADA16C40F6DD59E9338E3C40000000000000
310
00000000000001000000000100000100000001000000000001000000001C0000
310
D0CF11E0A1B11AE1000000000000000000000000000000003E000300FEFF0900
310
0600000000000000000000000100000001000000000000000010000002000000
310
01000000FEFFFFFF0000000000000000FFFFFFFFFFFFFFFFFFFFFFFFFFFFFFFF
310
FFFFFFFFFFFFFFFFFFFFFFFFFFFFFFFFFFFFFFFFFFFFFFFFFFFFFFFFFFFFFFFF
310
FFFFFFFFFFFFFFFFFFFFFFFFFFFFFFFFFFFFFFFFFFFFFFFFFFFFFFFFFFFFFFFF
310
FFFFFFFFFFFFFFFFFFFFFFFFFFFFFFFFFFFFFFFFFFFFFFFFFFFFFFFFFFFFFFFF
310
FFFFFFFFFFFFFFFFFFFFFFFFFFFFFFFFFFFFFFFFFFFFFFFFFFFFFFFFFFFFFFFF
310
FFFFFFFFFFFFFFFFFFFFFFFFFFFFFFFFFFFFFFFFFFFFFFFFFFFFFFFFFFFFFFFF
310
FFFFFFFFFFFFFFFFFFFFFFFFFFFFFFFFFFFFFFFFFFFFFFFFFFFFFFFFFFFFFFFF
310
FFFFFFFFFFFFFFFFFFFFFFFFFFFFFFFFFFFFFFFFFFFFFFFFFFFFFFFFFFFFFFFF
310
FFFFFFFFFFFFFFFFFFFFFFFFFFFFFFFFFFFFFFFFFFFFFFFFFFFFFFFFFFFFFFFF
310
FFFFFFFFFFFFFFFFFFFFFFFFFFFFFFFFFFFFFFFFFFFFFFFFFFFFFFFFFFFFFFFF
310
FFFFFFFFFFFFFFFFFFFFFFFFFFFFFFFFFFFFFFFFFFFFFFFFFFFFFFFFFFFFFFFF
310
FFFFFFFFFFFFFFFFFFFFFFFFFFFFFFFFFFFFFFFFFFFFFFFFFFFFFFFFFFFFFFFF
310
FFFFFFFFFFFFFFFFFFFFFFFFFFFFFFFFFFFFFFFFFFFFFFFFFFFFFFFFFFFFFFFF
310
FFFFFFFFFFFFFFFFFFFFFFFFFFFFFFFFFFFFFFFFFFFFFFFFFFFFFFFFFFFFFFFF
310
FDFFFFFFFEFFFFFFFEFFFFFFFEFFFFFF05000000060000000700000008000000
310
090000000A0000000B0000000C000000FEFFFFFFFFFFFFFFFFFFFFFFFFFFFFFF
310
FFFFFFFFFFFFFFFFFFFFFFFFFFFFFFFFFFFFFFFFFFFFFFFFFFFFFFFFFFFFFFFF
310
FFFFFFFFFFFFFFFFFFFFFFFFFFFFFFFFFFFFFFFFFFFFFFFFFFFFFFFFFFFFFFFF
310
FFFFFFFFFFFFFFFFFFFFFFFFFFFFFFFFFFFFFFFFFFFFFFFFFFFFFFFFFFFFFFFF
310
FFFFFFFFFFFFFFFFFFFFFFFFFFFFFFFFFFFFFFFFFFFFFFFFFFFFFFFFFFFFFFFF
310
FFFFFFFFFFFFFFFFFFFFFFFFFFFFFFFFFFFFFFFFFFFFFFFFFFFFFFFFFFFFFFFF
310
FFFFFFFFFFFFFFFFFFFFFFFFFFFFFFFFFFFFFFFFFFFFFFFFFFFFFFFFFFFFFFFF
310
FFFFFFFFFFFFFFFFFFFFFFFFFFFFFFFFFFFFFFFFFFFFFFFFFFFFFFFFFFFFFFFF
310
FFFFFFFFFFFFFFFFFFFFFFFFFFFFFFFFFFFFFFFFFFFFFFFFFFFFFFFFFFFFFFFF
310
FFFFFFFFFFFFFFFFFFFFFFFFFFFFFFFFFFFFFFFFFFFFFFFFFFFFFFFFFFFFFFFF
310
FFFFFFFFFFFFFFFFFFFFFFFFFFFFFFFFFFFFFFFFFFFFFFFFFFFFFFFFFFFFFFFF
310
FFFFFFFFFFFFFFFFFFFFFFFFFFFFFFFFFFFFFFFFFFFFFFFFFFFFFFFFFFFFFFFF
310
FFFFFFFFFFFFFFFFFFFFFFFFFFFFFFFFFFFFFFFFFFFFFFFFFFFFFFFFFFFFFFFF
310
FFFFFFFFFFFFFFFFFFFFFFFFFFFFFFFFFFFFFFFFFFFFFFFFFFFFFFFFFFFFFFFF
310
FFFFFFFFFFFFFFFFFFFFFFFFFFFFFFFFFFFFFFFFFFFFFFFFFFFFFFFFFFFFFFFF
310
52006F006F007400200045006E00740072007900000000000000000000000000
310
0000000000000000000000000000000000000000000000000000000000000000
310
16000500FFFFFFFFFFFFFFFF020000000A00030000000000C000000000000046
310
000000000000000000000000D0551BF303C1CD0103000000C000000000000000
310
01004F006C006500000000000000000000000000000000000000000000000000
310
0000000000000000000000000000000000000000000000000000000000000000
310
0A000200FFFFFFFFFFFFFFFFFFFFFFFF00000000000000000000000000000000
310
0000000000000000000000000000000000000000000000001400000000000000
310
010043006F006D0070004F0062006A0000000000000000000000000000000000
310
0000000000000000000000000000000000000000000000000000000000000000
310
120002010100000003000000FFFFFFFF00000000000000000000000000000000
310
0000000000000000000000000000000000000000010000004D00000000000000
310
01004F006C006500310030004E00610074006900760065000000000000000000
310
0000000000000000000000000000000000000000000000000000000000000000
310
1A000200FFFFFFFFFFFFFFFFFFFFFFFF00000000000000000000000000000000
310
000000000000000000000000000000000000000004000000E411000000000000
310
FEFFFFFF02000000FEFFFFFFFFFFFFFFFFFFFFFFFFFFFFFFFFFFFFFFFFFFFFFF
310
FFFFFFFFFFFFFFFFFFFFFFFFFFFFFFFFFFFFFFFFFFFFFFFFFFFFFFFFFFFFFFFF
310
FFFFFFFFFFFFFFFFFFFFFFFFFFFFFFFFFFFFFFFFFFFFFFFFFFFFFFFFFFFFFFFF
310
FFFFFFFFFFFFFFFFFFFFFFFFFFFFFFFFFFFFFFFFFFFFFFFFFFFFFFFFFFFFFFFF
310
FFFFFFFFFFFFFFFFFFFFFFFFFFFFFFFFFFFFFFFFFFFFFFFFFFFFFFFFFFFFFFFF
310
FFFFFFFFFFFFFFFFFFFFFFFFFFFFFFFFFFFFFFFFFFFFFFFFFFFFFFFFFFFFFFFF
310
FFFFFFFFFFFFFFFFFFFFFFFFFFFFFFFFFFFFFFFFFFFFFFFFFFFFFFFFFFFFFFFF
310
FFFFFFFFFFFFFFFFFFFFFFFFFFFFFFFFFFFFFFFFFFFFFFFFFFFFFFFFFFFFFFFF
310
FFFFFFFFFFFFFFFFFFFFFFFFFFFFFFFFFFFFFFFFFFFFFFFFFFFFFFFFFFFFFFFF
310
FFFFFFFFFFFFFFFFFFFFFFFFFFFFFFFFFFFFFFFFFFFFFFFFFFFFFFFFFFFFFFFF
310
FFFFFFFFFFFFFFFFFFFFFFFFFFFFFFFFFFFFFFFFFFFFFFFFFFFFFFFFFFFFFFFF
310
FFFFFFFFFFFFFFFFFFFFFFFFFFFFFFFFFFFFFFFFFFFFFFFFFFFFFFFFFFFFFFFF
310
FFFFFFFFFFFFFFFFFFFFFFFFFFFFFFFFFFFFFFFFFFFFFFFFFFFFFFFFFFFFFFFF
310
FFFFFFFFFFFFFFFFFFFFFFFFFFFFFFFFFFFFFFFFFFFFFFFFFFFFFFFFFFFFFFFF
310
FFFFFFFFFFFFFFFFFFFFFFFFFFFFFFFFFFFFFFFFFFFFFFFFFFFFFFFFFFFFFFFF
310
FFFFFFFFFFFFFFFFFFFFFFFFFFFFFFFFFFFFFFFFFFFFFFFFFFFFFFFFFFFFFFFF
310
0100000200000000000000000000000000000000000000000000000000000000
310
0000000000000000000000000000000000000000000000000000000000000000
310
0100FEFF030A0000FFFFFFFF0A00030000000000C00000000000004607000000
310
5042727573680007000000504272757368000700000050427275736800F439B2
310
7100000000000000000000000000000000000000000000000000000000000000
310
0000000000000000000000000000000000000000000000000000000000000000
310
0000000000000000000000000000000000000000000000000000000000000000
310
0000000000000000000000000000000000000000000000000000000000000000
310
0000000000000000000000000000000000000000000000000000000000000000
310
0000000000000000000000000000000000000000000000000000000000000000
310
0000000000000000000000000000000000000000000000000000000000000000
310
0000000000000000000000000000000000000000000000000000000000000000
310
0000000000000000000000000000000000000000000000000000000000000000
310
0000000000000000000000000000000000000000000000000000000000000000
310
0000000000000000000000000000000000000000000000000000000000000000
310
0000000000000000000000000000000000000000000000000000000000000000
310
E0110000424DDE11000000000000360400002800000096000000170000000100
310
08000000000000000000E7240000E72400000001000000010000000000FF0101
310
01FF020202FF030303FF040404FF050505FF060606FF070707FF080808FF0909
310
09FF0A0A0AFF0B0B0BFF0C0C0CFF0D0D0DFF0E0E0EFF0F0F0FFF101010FF1111
310
11FF121212FF131313FF141414FF151515FF161616FF171717FF181818FF1919
310
19FF1A1A1AFF1B1B1BFF1C1C1CFF1D1D1DFF1E1E1EFF1F1F1FFF202020FF2121
310
21FF222222FF232323FF242424FF252525FF262626FF272727FF282828FF2929
310
29FF2A2A2AFF2B2B2BFF2C2C2CFF2D2D2DFF2E2E2EFF2F2F2FFF303030FF3131
310
31FF323232FF333333FF343434FF353535FF363636FF373737FF383838FF3939
310
39FF3A3A3AFF3B3B3BFF3C3C3CFF3D3D3DFF3E3E3EFF3F3F3FFF404040FF4141
310
41FF424242FF434343FF444444FF454545FF464646FF474747FF484848FF4949
310
49FF4A4A4AFF4B4B4BFF4C4C4CFF4D4D4DFF4E4E4EFF4F4F4FFF505050FF5151
310
51FF525252FF535353FF545454FF555555FF565656FF575757FF585858FF5959
310
59FF5A5A5AFF5B5B5BFF5C5C5CFF5D5D5DFF5E5E5EFF5F5F5FFF606060FF6161
310
61FF626262FF636363FF646464FF656565FF666666FF676767FF686868FF6969
310
69FF6A6A6AFF6B6B6BFF6C6C6CFF6D6D6DFF6E6E6EFF6F6F6FFF707070FF7171
310
71FF727272FF737373FF747474FF757575FF767676FF777777FF787878FF7979
310
79FF7A7A7AFF7B7B7BFF7C7C7CFF7D7D7DFF7E7E7EFF7F7F7FFF808080FF8181
310
81FF828282FF838383FF848484FF858585FF868686FF878787FF888888FF8989
310
89FF8A8A8AFF8B8B8BFF8C8C8CFF8D8D8DFF8E8E8EFF8F8F8FFF909090FF9191
310
91FF929292FF939393FF949494FF959595FF969696FF979797FF989898FF9999
310
99FF9A9A9AFF9B9B9BFF9C9C9CFF9D9D9DFF9E9E9EFF9F9F9FFFA0A0A0FFA1A1
310
A1FFA2A2A2FFA3A3A3FFA4A4A4FFA5A5A5FFA6A6A6FFA7A7A7FFA8A8A8FFA9A9
310
A9FFAAAAAAFFABABABFFACACACFFADADADFFAEAEAEFFAFAFAFFFB0B0B0FFB1B1
310
B1FFB2B2B2FFB3B3B3FFB4B4B4FFB5B5B5FFB6B6B6FFB7B7B7FFB8B8B8FFB9B9
310
B9FFBABABAFFBBBBBBFFBCBCBCFFBDBDBDFFBEBEBEFFBFBFBFFFC0C0C0FFC1C1
310
C1FFC2C2C2FFC3C3C3FFC4C4C4FFC5C5C5FFC6C6C6FFC7C7C7FFC8C8C8FFC9C9
310
C9FFCACACAFFCBCBCBFFCCCCCCFFCDCDCDFFCECECEFFCFCFCFFFD0D0D0FFD1D1
310
D1FFD2D2D2FFD3D3D3FFD4D4D4FFD5D5D5FFD6D6D6FFD7D7D7FFD8D8D8FFD9D9
310
D9FFDADADAFFDBDBDBFFDCDCDCFFDDDDDDFFDEDEDEFFDFDFDFFFE0E0E0FFE1E1
310
E1FFE2E2E2FFE3E3E3FFE4E4E4FFE5E5E5FFE6E6E6FFE7E7E7FFE8E8E8FFE9E9
310
E9FFEAEAEAFFEBEBEBFFECECECFFEDEDEDFFEEEEEEFFEFEFEFFFF0F0F0FFF1F1
310
F1FFF2F2F2FFF3F3F3FFF4F4F4FFF5F5F5FFF6F6F6FFF7F7F7FFF8F8F8FFF9F9
310
F9FFFAFAFAFFFBFBFBFFFCFCFCFFFDFDFDFFFEFEFEFFFFFFFFFFFFFFFFFFFFFF
310
C94E4E4E4F4E4EFFFFFFFFFFC94E4E4E4E4E72FFFFFFFFFFFFFF734E4D4E4E4E
310
C9FFFFFFFFFFAA683516171616265B9BE9FFFFFFFFFF4E4E4E4D4E4EFFFFFFFF
310
FFFFFFFF4E4E4F4E4D4E4E4E4F4E4E4F4D4E4E4E4E4E4D4E4F4E4D4E4E4EAAFF
310
FFFFFFFFFFEA4E4F4F4E4E4E4E4E4D4D4F4F4E4E4E4E4E5B7FAAFFFFFFFFFFFF
310
C9744E1716171616164D8DEAFFFFFFFF0000FFFFFFFFFFFFBA161617161716FF
310
FFFFFFFFB917171616174FFFFFFFFFFFFFFF4E1716161616B9FFFFFFB9341717
310
1716171617171616268CFFFFFFFF161617161617FFFFFFFFFFFFFFB917161717
310
1617167F807F7F7F7F7F7F807F7F807F7F807F7F7F414EFFFFFFFFFFFF8C167F
310
7F807F7F7F7E7F7F807F807F7F807F4E3417258EFFFFEA4E162674AABAEAEBBA
310
AA74341680FFFFFF0000FFFFFFFFFFFFB9171717171617FFFFFFFFFFBB161616
310
16164EFFFFFFFFFFFFFF4E1717171717B9FFFF9C171617171716161616171616
310
171766FFFFFF161717161617FFFFFFFFFFFFFF8E16171717161616FFFFFFFFFF
310
FFFFFFFFFFFFFFFFFFFFFFFFFFAA16D9FFFFFFFFFF3467FFFFFFFFEAFFFFFFFF
310
FFFFFFFFFFFFFFFFFFCA671667EB26278DFFFFFFFFFFFFFFFFFFFF8C2541EAFF
310
0000FFFFFFFFFFFFB9171717171716FFFFFFFFFFBA16171617174EFFFFFFFFFF
310
FFFF4E1717161616BAFF9B1617161616171716171617161616161667FFFF1616
310
16161716FFFFFFFFFFFFFF7F16161617174017FFFFFFFFFFFFFFFFFFFFFFFFFF
310
FFFFFFFFFFFF344E7F7F7F7E7417DAFFFFFFFF80FFFFFFFFFFFFFFFFFFFFFFFF
310
FFFFFF9B163425CAFFFFFFFFFFFFFFFFFFFFFFFFCA2667FF0000FFFFFFFFFFFF
310
BA171717171617FFFFFFFFFFB916171716164EFFFFFFFFFFFFFF4F1716161717
310
B9C91716171616161716161617171616161617168DFF161716161717FFFFFFFF
310
FFFFFF7F17171716164F16FFFFFFFFFFFFFFFFFFFFFFFFFFFFFFFFFFFFFF9B16
310
17161617174EFFFFFFFFFF34FFFFFFFFD9BABABABABADAFFFFFFFFFF7F16AAFF
310
FFFFFFFFFFFFFFFFFFFFFFFFFF9C16BA0000FFFFFFFFFFFFB9161717161717FF
310
FFFFFFFFB917161716174DFFFFFFFFFFFFFF4E1616161616BA4E161617171716
310
419BEAEAAA4E16161617161726E9171717161616FFFFFFFFFFFFFF4F16161717
310
164E16FFFFFFFFFFBAB9B9B9B9B9BABABACAFFFFFFFFFFFFFFFFFFFFFFFFFFFF
310
FFFFBA16FFFFFFFF7F1617161617174DEAFFFFFFEA41FFFFFFFFFFAA4D16174E
310
9BFFFFFFFFFF34730000FFFFFFFFFFFFB9161617171617FFFFFFFFFFBA161616
310
16164EFFFFFFFFFFFFFF4F16161717169B1617161716175BFFFFFFFFFFFF7417
310
16171616168D171717161617FFFFFFFFFFFFEA2616171717167416FFFFFFFFFF
310
16171616171717171717EAFFFFFFFFFFFFFFFFFFFFFFFFFFFFFF6716FFFFFFFF
310
7F4EFFFFFFFFBA2573FFFFFFFFBAFFFFFFFFAA167FB9BB9B269BFFFFFFFF664F
310
0000FFFFFFFFFFFFB9171616161616FFFFFFFFFFBA16161717164EFFFFFFFFFF
310
FFFF4E16161616174E161617171626EAFFFFFFFFFFFFFF4E16161616164E1716
310
16161617FFFFFFFFFFFF671616161716347F16FFFFFFFFFF16B9FFFFFFFFFFFF
310
D9168DFFFFFFFFFFFFFFFFFFFFFFFFFFFFEA1716FFFFFFFF7F4EFFFFFFFFFF7F
310
4EFFFFFFFFFFFFFFFFFF5B66FFFFFFEA347FFFFFFFFF7F4D0000FFFFFFFFFFFF
310
B9171616171617FFFFFFFFFFBA17161716174EFFFFFFFFFFFFFF4D1716161617
310
17161716161673FFFFFFFFFFFFFFFF9B1617161717161616171616174F4E4E4E
310
4E341616171616167E7F16FFFFFFFFFF16BAFFFFFFFFFFFFFF5B41FFFFFFFF34
310
1616171616BAFFFFFF9B1716FFFFFFFF7F4EFFFFFFFFFF4E4EFFFFFFFF734E4E
310
4E4E267EDA9B67164EEAFFFFFFFF744D0000FFFFFFFFFFFFBA171717161617FF
310
FFFFFFFFBA1616171616347F7F7F7F80807F331616161717161717161716B9FF
310
FFFFFFFFFFFFFFE9161616161616171716161716171616161616171616171734
310
EA7F16FFFFFFFFFF16BAFFFFFFFFFFFFFFAA17C9FFFFFF7326BABA5B25FFFFFF
310
FF401716FFFFFFFF7F264F4E4E4E4217AAFFFFFFEA16677F73261616164173CA
310
FFFFFFFFFFFF417F0000FFFFFFFFFFFFBA171616171617FFFFFFFFFFBA161616
310
17171616161616161616161717161616161616161617EAFFFFFFFFFFFFFFFFFF
310
261717161716161617161616161617161617161616174EEAFF8016FFFFFFFFFF
310
17BAFFFFFFFFFFFFFFFF3467FFFFFFC916C9FF3467FFFFFFDA166716FFFFFFFF
310
9C4D4E4E4E4E67AAFFFFFFFF6834FF7F262567AAEAFFFFFFFFFFFFFFFF9B17D9
310
0000FFFFFFFFFFFFB9161616161616FFFFFFFFFFBA1617161717171616161616
310
1716171716161716161617171716FFFFFFFFFFFFFFFFFFFF4E17161716171616
310
1617171616161716171717161616169BFF7F17FFFFFFFFFF17B9FFFFFFFFFFFF
310
FFFF7326FFFFFFFF3473DA16AAFFFFFF7317AA16FFFFFFFFFFFFFFFFFFFFFFFF
310
FFFFEA6725BA4E167FEAFFFFFFFFFFFFFFFFFFFF9C167FFF0000FFFFFFFFFFFF
310
B9161717171716FFFFFFFFFFBA16161716171616171717161617161716161616
310
171617171617EAFFFFFFFFFFFFFFFFFF26161717161616161616161617171616
310
1616161616171616AA8016FFFFFFFFFF16BAFFFFFFFFFFFFFFFFDA179BFFFFFF
310
74348D26FFFFFFFF2566B917FFFFFFFFD8BAB9BAB9BADAFFFFEA41169B7425C9
310
FFFFFFFFFFFFFFFFFFFFAB4F1680FFFF0000FFFFFFFFFFFFBA161717171617FF
310
FFFFFFFFBA17161717161617171617161616161617171616171716171617BBFF
310
FFFFFFFFFFFFFFE9171616161617161617161716FFFFFFFFFFD9671616161617
310
348017FFFFFFFFFF16BAFFFFFFFFFFFFFFFFFF4E5AFFFFFFC916265AFFFFFFAA
310
16AABA16FFFFFFFF7F1617161616179BFFFFEB4127168DFFFFFFFFFFFFFFD99B
310
6734175AC9FFFFFF0000FFFFFFFFFFFFB9161617171617FFFFFFFFFFBB161616
310
1616347F807F7F7F7F8033171716171617171616161672FFFFFFFFFFFFFFFF9C
310
171617171617161716161617FFFFFFFFFFFFFF4117161616174E17FFFFFFFFFF
310
16BAFFFFFFFFFFFFFFFFFF9B16DAFFFFFF34169BFFFFFF5A26FFB917FFFFFFFF
310
7F4EFFFFFFEA5B26FFFFFFEA2616EAFFFFFFFFDA743416331617414E4E4E4ECA
310
0000FFFFFFFFFFFFBA161716161616FFFFFFFFFFBA17171616164EFFFFFFFFFF
310
FFFF4E16161717174E161717171626EBFFFFFFFFFFFFFF4E16161617165B1616
310
16171617FFFFFFFFFFFFFF6716161616161617FFFFFFFFFF16BAFFFFFFFFFFFF
310
FFFFFFEA268CFFFFFF7316EAFFFFEB1774FFB916FFFFFFFF7F4EFFFFFFFF7316
310
FFFFFFFF6826FFFFFFFFEB264D9CEABA257F807F7F6616BA0000FFFFFFFFFFFF
310
BA161716161616FFFFFFFFFFBA16171616164DFFFFFFFFFFFFFF4E1617161617
310
9B1617171717165BEBFFFFFFFFFF671616161617179B171616161616FFFFFFFF
310
FFFFFF3417161617171617FFFFFFFFFF17BAFFFFFFFFFFFFFFFFFFFF6734FFFF
310
FFEBCAFFFFFF8D17C9FFBA17FFFFFFFF7F357F808066174FFFFFFFFF7F16FFFF
310
FFFFD91673B99B415BFFFFFFFFBA16DA00009B7F7F7F807F671617161616167F
310
80807F7E6617161616164EFFFFFFFFFFFFFF4E1616161617B94E171716161616
310
349BC9D9AA4E16171616161634FF161617161717B9B9BAB9BA9B411716171716
310
163416FFFFFFFFFF16B9FFFFFFFFFFFFFFFFFFFFC917CAFFFFFFFFFFFFFF3342
310
FFFFBA17FFFFFFFF9B4E4E4F4E4E66EAFFFFFFFF5B16C9FFFFFFFFAA4E164E73
310
EAFFFFFFFF8D26FF00004E161716161616171617171616171717171617161616
310
17174EFFFFFFFFFFFFFF4E1717171616B9D92616171716171716171717171716
310
16171716AAFF161717171617161617171616161617161716166717FFFFFFFFFF
310
17B9FFFFFFFFFFFFFFFFFFFFFF3467FFFFFFFFFFFFCA168CFFFFBB17FFFFFFFF
310
FFFFFFFFFFFFFFFFFFFFFFEA26265BFFFFFFFFFFFFFFFFFFFFFFFFFFEA3467FF
310
00004D16161616161617161717161617161616171617171616164EFFFFFFFFFF
310
FFFF4D1617161616BAFF9B1616161616161716161616171717161766FFFF1616
310
16171617161617161716171616171717667F16FFFFFFFFFF17BAFFFFFFFFFFFF
310
FFFFFFFFFF8C26EAFFFFFFFFFF6617EAFFFFBA17FFFFFFFFFFFFFFFFFFFFFFFF
310
FFFFEA5A25BA269BFFFFFFFFFFFFFFFFFFFFFFFF6616DAFF00004E1616171616
310
1616161616161716161617171616171616174EFFFFFFFFFFFFFF4D1717171716
310
B9FFFF9C161616161616161716161717171667FFFFFF17161717171716161617
310
1716161616161641E97E16FFFFFFFFFF16B9FFFFFFFFFFFFFFFFFFFFFFEA169B
310
FFFFFFFFEA265BFFFFFFB916FFFFFFFFFFFFFFFFFFFFFFFFFF9B3416AAFF9B17
310
67EAFFFFFFFFFFFFFFFFEA5B169BFFFF00004D17161716161616161717171616
310
161717161716171716174EFFFFFFFFFFFFFF4D1616161616BAFFFFFFBB411616
310
161716161616171634ABFFFFFFFF161716161617171716171617171617267FFF
310
FF7F164E4E4E4E4F17BAFFFFFFFFFFFFFFFFFFFFFFFF66344D4E4E4F4117AAFF
310
FFFFBA174E4E4E4D4E4D4D4E4E4E4E4116174EBBFFFFFFCA342666ABEAFFFFEA
310
AA6725269CFFFFFF0000724F4E4D4D4D4E4D4D4E4E4E4D4E4E4E4E4E4E4E4E4D
310
4E4E74FFFFFFFFFFFFFF734E4E4E4D4ECAFFFFFFFFFFAA663416171717265B9B
310
FFFFFFFFFFFF7F8080807F80807F7F7F7F7F807FBAFFFFFFFF9B4E4E4F4D4D4E
310
4DC9FFFFFFFFFFFFFFFFFFFFFFFFBA4E4E4E4E4D4E4EFFFFFFFFC94E4E4E4F4E
310
4E4E4D4E4E5A807F9CD9FFFFFFFFFFFFFF9B5B2617171716174E8DEAFFFFFFFF
310
0000000000000000000000000000000000000000000000000000000000000000
  1
OLE
  0
ENDSEC
  0
SECTION
  2
OBJECTS
  0
DICTIONARY
  5
C
330
0
100
AcDbDictionary
281
     1
  3
ACAD_GROUP
350
D
  3
ACAD_LAYOUT
350
1A
  3
ACAD_MLINESTYLE
350
17
  3
ACAD_PLOTSETTINGS
350
19
  3
ACAD_PLOTSTYLENAME
350
E
  0
DICTIONARY
  5
D
102
{ACAD_REACTORS
330
C
102
}
330
C
100
AcDbDictionary
281
     1
  0
DICTIONARY
  5
1A
102
{ACAD_REACTORS
330
C
102
}
330
C
100
AcDbDictionary
281
     1
  3
Layout1
350
1E
  3
Layout2
350
26
  3
Model
350
22
  0
DICTIONARY
  5
17
102
{ACAD_REACTORS
330
C
102
}
330
C
100
AcDbDictionary
281
     1
  3
Standard
350
18
  0
DICTIONARY
  5
19
102
{ACAD_REACTORS
330
C
102
}
330
C
100
AcDbDictionary
281
     1
  0
ACDBDICTIONARYWDFLT
  5
E
102
{ACAD_REACTORS
330
C
102
}
330
C
100
AcDbDictionary
281
     1
  3
Normal
350
F
100
AcDbDictionaryWithDefault
340
F
  0
LAYOUT
  5
1E
102
{ACAD_REACTORS
330
1A
102
}
330
1A
100
AcDbPlotSettings
  1

  2
none_device
  4

  6

 40
0.0
 41
0.0
 42
0.0
 43
0.0
 44
0.0
 45
0.0
 46
0.0
 47
0.0
 48
0.0
 49
0.0
140
0.0
141
0.0
142
1.0
143
1.0
 70
   688
 72
     0
 73
     0
 74
     5
  7

 75
    16
147
1.0
148
0.0
149
0.0
100
AcDbLayout
  1
Layout1
 70
     1
 71
     1
 10
0.0
 20
0.0
 11
420.0
 21
297.0
 12
0.0
 22
0.0
 32
0.0
 14
1.0000000000E+20
 24
1.0000000000E+20
 34
1.0000000000E+20
 15
-1.0000000000E+20
 25
-1.0000000000E+20
 35
-1.0000000000E+20
146
0.0
 13
0.0
 23
0.0
 33
0.0
 16
1.0
 26
0.0
 36
0.0
 17
0.0
 27
1.0
 37
0.0
 76
     0
330
1B
  0
LAYOUT
  5
26
102
{ACAD_REACTORS
330
1A
102
}
330
1A
100
AcDbPlotSettings
  1

  2
none_device
  4

  6

 40
0.0
 41
0.0
 42
0.0
 43
0.0
 44
0.0
 45
0.0
 46
0.0
 47
0.0
 48
0.0
 49
0.0
140
0.0
141
0.0
142
1.0
143
1.0
 70
   688
 72
     0
 73
     0
 74
     5
  7

 75
    16
147
1.0
148
0.0
149
0.0
100
AcDbLayout
  1
Layout2
 70
     1
 71
     2
 10
0.0
 20
0.0
 11
0.0
 21
0.0
 12
0.0
 22
0.0
 32
0.0
 14
0.0
 24
0.0
 34
0.0
 15
0.0
 25
0.0
 35
0.0
146
0.0
 13
0.0
 23
0.0
 33
0.0
 16
1.0
 26
0.0
 36
0.0
 17
0.0
 27
1.0
 37
0.0
 76
     0
330
23
  0
LAYOUT
  5
22
102
{ACAD_REACTORS
330
1A
102
}
330
1A
100
AcDbPlotSettings
  1

  2
none_device
  4

  6

 40
0.0
 41
0.0
 42
0.0
 43
0.0
 44
0.0
 45
0.0
 46
0.0
 47
0.0
 48
0.0
 49
0.0
140
0.0
141
0.0
142
1.0
143
1.0
 70
  1712
 72
     0
 73
     0
 74
     0
  7

 75
     0
147
1.0
148
0.0
149
0.0
100
AcDbLayout
  1
Model
 70
     1
 71
     0
 10
0.0
 20
0.0
 11
279.4
 21
215.9
 12
0.0
 22
0.0
 32
0.0
 14
0.0
 24
0.0
 34
0.0
 15
279.4
 25
215.9
 35
0.0
146
0.0
 13
0.0
 23
0.0
 33
0.0
 16
1.0
 26
0.0
 36
0.0
 17
0.0
 27
1.0
 37
0.0
 76
     0
330
1F
331
29
  0
MLINESTYLE
  5
18
102
{ACAD_REACTORS
330
17
102
}
330
17
100
AcDbMlineStyle
  2
Standard
 70
     0
  3

 62
   256
 51
90.0
 52
90.0
 71
     2
 49
0.5
 62
   256
  6
BYLAYER
 49
-0.5
 62
   256
  6
BYLAYER
  0
ACDBPLACEHOLDER
  5
F
102
{ACAD_REACTORS
330
E
102
}
330
E
  0
ENDSEC
  0
EOF
